  0
SECTION
  2
HEADER
  9
$ACADVER
  1
AC1021
  9
$ACADMAINTVER
 70
    25
  9
$DWGCODEPAGE
  3
ANSI_932
  9
$LASTSAVEDBY
  1
howeNelson
  9
$INSBASE
 10
0.0
 20
0.0
 30
0.0
  9
$EXTMIN
 10
0.0
 20
0.0
 30
0.0
  9
$EXTMAX
 10
593.9999999999999
 20
420.0
 30
0.0
  9
$LIMMIN
 10
0.0
 20
0.0
  9
$LIMMAX
 10
593.9999999999999
 20
420.0
  9
$ORTHOMODE
 70
     0
  9
$REGENMODE
 70
     1
  9
$FILLMODE
 70
     1
  9
$QTEXTMODE
 70
     0
  9
$MIRRTEXT
 70
     1
  9
$LTSCALE
 40
0.5
  9
$ATTMODE
 70
     1
  9
$TEXTSIZE
 40
136.139079520063
  9
$TRACEWID
 40
1.0
  9
$TEXTSTYLE
  7
ＭＳ ゴシック
  9
$CLAYER
  8
寸法
  9
$CELTYPE
  6
ByLayer
  9
$CECOLOR
 62
   256
  9
$CELTSCALE
 40
1.0
  9
$DISPSILH
 70
     0
  9
$DIMSCALE
 40
1.0
  9
$DIMASZ
 40
2.0
  9
$DIMEXO
 40
5.0
  9
$DIMDLI
 40
0.9999999999999999
  9
$DIMRND
 40
0.0
  9
$DIMDLE
 40
0.0
  9
$DIMEXE
 40
0.0
  9
$DIMTP
 40
0.0
  9
$DIMTM
 40
0.0
  9
$DIMTXT
 40
5.0
  9
$DIMCEN
 40
0.0
  9
$DIMTSZ
 40
0.0
  9
$DIMTOL
 70
     0
  9
$DIMLIM
 70
     0
  9
$DIMTIH
 70
     0
  9
$DIMTOH
 70
     0
  9
$DIMSE1
 70
     0
  9
$DIMSE2
 70
     0
  9
$DIMTAD
 70
     1
  9
$DIMZIN
 70
    11
  9
$DIMBLK
  1
DOT
  9
$DIMASO
 70
     1
  9
$DIMSHO
 70
     1
  9
$DIMPOST
  1
<>
  9
$DIMAPOST
  1
[]
  9
$DIMALT
 70
     0
  9
$DIMALTD
 70
     1
  9
$DIMALTF
 40
1.0
  9
$DIMLFAC
 40
1.0
  9
$DIMTOFL
 70
     0
  9
$DIMTVP
 40
0.0
  9
$DIMTIX
 70
     1
  9
$DIMSOXD
 70
     0
  9
$DIMSAH
 70
     0
  9
$DIMBLK1
  1

  9
$DIMBLK2
  1

  9
$DIMSTYLE
  2
tfrom線あり
  9
$DIMCLRD
 70
     0
  9
$DIMCLRE
 70
     0
  9
$DIMCLRT
 70
     0
  9
$DIMTFAC
 40
1.0
  9
$DIMGAP
 40
5.0
  9
$DIMJUST
 70
     0
  9
$DIMSD1
 70
     0
  9
$DIMSD2
 70
     0
  9
$DIMTOLJ
 70
     1
  9
$DIMTZIN
 70
    11
  9
$DIMALTZ
 70
    11
  9
$DIMALTTZ
 70
    11
  9
$DIMUPT
 70
     0
  9
$DIMDEC
 70
     0
  9
$DIMTDEC
 70
     1
  9
$DIMALTU
 70
     2
  9
$DIMALTTD
 70
     2
  9
$DIMTXSTY
  7
ＭＳ ゴシック
  9
$DIMAUNIT
 70
     0
  9
$DIMADEC
 70
     2
  9
$DIMALTRND
 40
0.0
  9
$DIMAZIN
 70
     0
  9
$DIMDSEP
 70
    46
  9
$DIMATFIT
 70
     0
  9
$DIMFRAC
 70
     2
  9
$DIMLDRBLK
  1
DOT
  9
$DIMLUNIT
 70
     2
  9
$DIMLWD
 70
    -2
  9
$DIMLWE
 70
    -2
  9
$DIMTMOVE
 70
     0
  9
$DIMFXL
 40
1.0
  9
$DIMFXLON
 70
     0
  9
$DIMJOGANG
 40
0.7853981633974483
  9
$DIMTFILL
 70
     0
  9
$DIMTFILLCLR
 70
     0
  9
$DIMARCSYM
 70
     0
  9
$DIMLTYPE
  6

  9
$DIMLTEX1
  6

  9
$DIMLTEX2
  6

  9
$LUNITS
 70
     2
  9
$LUPREC
 70
     0
  9
$SKETCHINC
 40
0.1
  9
$FILLETRAD
 40
0.0
  9
$AUNITS
 70
     0
  9
$AUPREC
 70
     0
  9
$MENU
  1
acad
  9
$ELEVATION
 40
0.0
  9
$PELEVATION
 40
0.0
  9
$THICKNESS
 40
0.0
  9
$LIMCHECK
 70
     0
  9
$CHAMFERA
 40
0.0
  9
$CHAMFERB
 40
0.0
  9
$CHAMFERC
 40
0.0
  9
$CHAMFERD
 40
0.0
  9
$SKPOLY
 70
     0
  9
$TDCREATE
 40
2447893.375
  9
$TDUCREATE
 40
0.0
  9
$TDUPDATE
 40
2457485.639294329
  9
$TDUUPDATE
 40
2457485.264294329
  9
$TDINDWG
 40
0.5970371065
  9
$TDUSRTIMER
 40
2457485.262825151
  9
$USRTIMER
 70
     1
  9
$ANGBASE
 50
0.0
  9
$ANGDIR
 70
     0
  9
$PDMODE
 70
     1
  9
$PDSIZE
 40
-2.0
  9
$PLINEWID
 40
0.0
  9
$SPLFRAME
 70
     0
  9
$SPLINETYPE
 70
     6
  9
$SPLINESEGS
 70
     8
  9
$HANDSEED
  5
459F
  9
$SURFTAB1
 70
     6
  9
$SURFTAB2
 70
     6
  9
$SURFTYPE
 70
     6
  9
$SURFU
 70
     6
  9
$SURFV
 70
     6
  9
$UCSBASE
  2

  9
$UCSNAME
  2

  9
$UCSORG
 10
0.0
 20
0.0
 30
0.0
  9
$UCSXDIR
 10
1.0
 20
0.0
 30
0.0
  9
$UCSYDIR
 10
0.0
 20
1.0
 30
0.0
  9
$UCSORTHOREF
  2

  9
$UCSORTHOVIEW
 70
     1
  9
$UCSORGTOP
 10
0.0
 20
0.0
 30
0.0
  9
$UCSORGBOTTOM
 10
0.0
 20
0.0
 30
0.0
  9
$UCSORGLEFT
 10
0.0
 20
0.0
 30
0.0
  9
$UCSORGRIGHT
 10
0.0
 20
0.0
 30
0.0
  9
$UCSORGFRONT
 10
0.0
 20
0.0
 30
0.0
  9
$UCSORGBACK
 10
0.0
 20
0.0
 30
0.0
  9
$PUCSBASE
  2

  9
$PUCSNAME
  2

  9
$PUCSORG
 10
0.0
 20
0.0
 30
0.0
  9
$PUCSXDIR
 10
1.0
 20
0.0
 30
0.0
  9
$PUCSYDIR
 10
0.0
 20
1.0
 30
0.0
  9
$PUCSORTHOREF
  2

  9
$PUCSORTHOVIEW
 70
     0
  9
$PUCSORGTOP
 10
0.0
 20
0.0
 30
0.0
  9
$PUCSORGBOTTOM
 10
0.0
 20
0.0
 30
0.0
  9
$PUCSORGLEFT
 10
0.0
 20
0.0
 30
0.0
  9
$PUCSORGRIGHT
 10
0.0
 20
0.0
 30
0.0
  9
$PUCSORGFRONT
 10
0.0
 20
0.0
 30
0.0
  9
$PUCSORGBACK
 10
0.0
 20
0.0
 30
0.0
  9
$USERI1
 70
     0
  9
$USERI2
 70
     0
  9
$USERI3
 70
     0
  9
$USERI4
 70
     0
  9
$USERI5
 70
     0
  9
$USERR1
 40
0.0
  9
$USERR2
 40
0.0
  9
$USERR3
 40
0.0
  9
$USERR4
 40
0.0
  9
$USERR5
 40
0.0
  9
$WORLDVIEW
 70
     1
  9
$SHADEDGE
 70
     3
  9
$SHADEDIF
 70
    70
  9
$TILEMODE
 70
     1
  9
$MAXACTVP
 70
    64
  9
$PINSBASE
 10
0.0
 20
0.0
 30
0.0
  9
$PLIMCHECK
 70
     0
  9
$PEXTMIN
 10
0.0
 20
0.0
 30
0.0
  9
$PEXTMAX
 10
0.0
 20
0.0
 30
0.0
  9
$PLIMMIN
 10
-95.87226993865028
 20
-25.69999999999999
  9
$PLIMMAX
 10
201.1277300613497
 20
184.3
  9
$UNITMODE
 70
     0
  9
$VISRETAIN
 70
     0
  9
$PLINEGEN
 70
     1
  9
$PSLTSCALE
 70
     0
  9
$TREEDEPTH
 70
  3020
  9
$CMLSTYLE
  2
Standard
  9
$CMLJUST
 70
     0
  9
$CMLSCALE
 40
1.0
  9
$PROXYGRAPHICS
 70
     0
  9
$MEASUREMENT
 70
     1
  9
$CELWEIGHT
370
    -1
  9
$ENDCAPS
280
     0
  9
$JOINSTYLE
280
     0
  9
$LWDISPLAY
290
     1
  9
$INSUNITS
 70
     4
  9
$HYPERLINKBASE
  1

  9
$STYLESHEET
  1

  9
$XEDIT
290
     1
  9
$CEPSNTYPE
380
     0
  9
$PSTYLEMODE
290
     1
  9
$FINGERPRINTGUID
  2

  9
$VERSIONGUID
  2

  9
$EXTNAMES
290
     1
  9
$PSVPSCALE
 40
0.0
  9
$OLESTARTUP
290
     0
  9
$SORTENTS
280
   127
  9
$INDEXCTL
280
     0
  9
$HIDETEXT
280
     1
  9
$XCLIPFRAME
290
     0
  9
$HALOGAP
280
     0
  9
$OBSCOLOR
 70
   257
  9
$OBSLTYPE
280
     0
  9
$INTERSECTIONDISPLAY
280
     0
  9
$INTERSECTIONCOLOR
 70
   257
  9
$DIMASSOC
280
     2
  9
$PROJECTNAME
  1

  9
$CAMERADISPLAY
290
     0
  9
$LENSLENGTH
 40
50.0
  9
$CAMERAHEIGHT
 40
0.0
  9
$STEPSPERSEC
 40
2.0
  9
$STEPSIZE
 40
6.0
  9
$3DDWFPREC
 40
2.0
  9
$PSOLWIDTH
 40
0.25
  9
$PSOLHEIGHT
 40
4.0
  9
$LOFTANG1
 40
1.570796326794897
  9
$LOFTANG2
 40
1.570796326794897
  9
$LOFTMAG1
 40
0.0
  9
$LOFTMAG2
 40
0.0
  9
$LOFTPARAM
 70
     7
  9
$LOFTNORMALS
280
     1
  9
$LATITUDE
 40
37.795
  9
$LONGITUDE
 40
-122.394
  9
$NORTHDIRECTION
 40
0.0
  9
$TIMEZONE
 70
 -8000
  9
$LIGHTGLYPHDISPLAY
280
     1
  9
$TILEMODELIGHTSYNCH
280
     1
  9
$SOLIDHIST
280
     1
  9
$SHOWHIST
280
     1
  9
$DWFFRAME
280
     2
  9
$DGNFRAME
280
     2
  9
$REALWORLDSCALE
290
     1
  9
$INTERFERECOLOR
 62
   256
  9
$CSHADOW
280
     0
  9
$SHADOWPLANELOCATION
 40
0.0
  0
ENDSEC
  0
SECTION
  2
CLASSES
  0
CLASS
  1
LWPOLYLINE
  2
AcDbPolyline
  3
ObjectDBX Classes
 90
        0
 91
        1
280
     0
281
     1
  0
CLASS
  1
IMAGE
  2
AcDbRasterImage
  3
ISM
 90
      127
 91
        7
280
     0
281
     1
  0
CLASS
  1
OLE2FRAME
  2
AcDbOle2Frame
  3
ObjectDBX Classes
 90
        0
 91
        1
280
     0
281
     1
  0
CLASS
  1
HATCH
  2
AcDbHatch
  3
ObjectDBX Classes
 90
        0
 91
        1
280
     0
281
     1
  0
CLASS
  1
DICTIONARYVAR
  2
AcDbDictionaryVar
  3
ObjectDBX Classes
 90
        0
 91
        6
280
     0
281
     0
  0
CLASS
  1
RASTERVARIABLES
  2
AcDbRasterVariables
  3
ISM
 90
        0
 91
        6
280
     0
281
     0
  0
CLASS
  1
IMAGEDEF
  2
AcDbRasterImageDef
  3
ISM
 90
        0
 91
        6
280
     0
281
     0
  0
CLASS
  1
IMAGEDEF_REACTOR
  2
AcDbRasterImageDefReactor
  3
ISM
 90
        1
 91
        6
280
     0
281
     0
  0
CLASS
  1
IDBUFFER
  2
AcDbIdBuffer
  3
ObjectDBX Classes
 90
        0
 91
        6
280
     0
281
     0
  0
CLASS
  1
SPATIAL_FILTER
  2
AcDbSpatialFilter
  3
ObjectDBX Classes
 90
        0
 91
        6
280
     0
281
     0
  0
CLASS
  1
XRECORD
  2
AcDbXrecord
  3
ObjectDBX Classes
 90
        0
 91
        1
280
     0
281
     0
  0
CLASS
  1
SORTENTSTABLE
  2
AcDbSortentsTable
  3
ObjectDBX Classes
 90
        0
 91
        6
280
     0
281
     0
  0
CLASS
  1
LAYER_INDEX
  2
AcDbLayerIndex
  3
ObjectDBX Classes
 90
        0
 91
        6
280
     0
281
     0
  0
CLASS
  1
SPATIAL_INDEX
  2
AcDbSpatialIndex
  3
AutoCAD 2000
 90
        0
 91
        6
280
     0
281
     0
  0
CLASS
  1
OBJECT_PTR
  2
CAseDLPNTableRecord
  3
ASE-LPNTableRecord
 90
        1
 91
        6
280
     0
281
     0
  0
CLASS
  1
LAYOUT
  2
AcDbLayout
  3
ObjectDBX Classes
 90
        0
 91
        1
280
     0
281
     0
  0
CLASS
  1
PLOTSETTINGS
  2
AcDbPlotSettings
  3
ObjectDBX Classes
 90
        0
 91
        6
280
     0
281
     0
  0
CLASS
  1
ACDBDICTIONARYWDFLT
  2
AcDbDictionaryWithDefault
  3
ObjectDBX Classes
 90
        0
 91
        6
280
     0
281
     0
  0
CLASS
  1
ACDBPLACEHOLDER
  2
AcDbPlaceHolder
  3
ObjectDBX Classes
 90
        0
 91
        1
280
     0
281
     0
  0
CLASS
  1
SCALE
  2
AcDbScale
  3
ObjectDBX Classes
 90
     1153
 91
        6
280
     0
281
     0
  0
CLASS
  1
MATERIAL
  2
AcDbMaterial
  3
ObjectDBX Classes
 90
     1153
 91
        6
280
     0
281
     0
  0
CLASS
  1
VISUALSTYLE
  2
AcDbVisualStyle
  3
ObjectDBX Classes
 90
     4095
 91
        6
280
     0
281
     0
  0
CLASS
  1
TABLESTYLE
  2
AcDbTableStyle
  3
ObjectDBX Classes
 90
     4095
 91
        6
280
     0
281
     0
  0
CLASS
  1
DIMASSOC
  2
AcDbDimAssoc
  3
"AcDbDimAssoc|Product Desc:     AcDim ARX App For Dimension|Company:          Autodesk, Inc.|WEB Address:      www.autodesk.com"
 90
        0
 91
        6
280
     0
281
     0
  0
CLASS
  1
CELLSTYLEMAP
  2
AcDbCellStyleMap
  3
ObjectDBX Classes
 90
     1152
 91
        6
280
     0
281
     0
  0
CLASS
  1
SUN
  2
AcDbSun
  3
SCENEOE
 90
     1153
 91
        6
280
     0
281
     0
  0
CLASS
  1
MLEADERSTYLE
  2
AcDbMLeaderStyle
  3
ACDB_MLEADERSTYLE_CLASS
 90
     4095
 91
        6
280
     0
281
     0
  0
ENDSEC
  0
SECTION
  2
TABLES
  0
TABLE
  2
VPORT
  5
7
330
0
100
AcDbSymbolTable
 70
     1
  0
VPORT
  5
15
330
7
100
AcDbSymbolTableRecord
100
AcDbViewportTableRecord
  2
*ACTIVE
 70
     0
 10
0.0
 20
0.0
 11
1.0
 21
1.0
 12
296.9999999999999
 22
210.0
 13
0.0
 23
0.0
 14
1.0
 24
1.0
 15
0.0
 25
0.0
 16
0.0
 26
0.0
 36
1.0
 17
0.0
 27
0.0
 37
0.0
 40
428.4
 41
2.025185185185185
 42
50.0
 43
0.0
 44
0.0
 50
0.0
 51
0.0
 71
    16
 72
  2000
 73
     1
 74
     1
 75
     0
 76
     0
 77
     0
 78
     0
281
     0
 65
     0
110
0.0
120
0.0
130
0.0
111
1.0
121
0.0
131
0.0
112
0.0
122
1.0
132
0.0
 79
     0
146
0.0
348
26C
 60
     3
 61
     5
292
     1
282
     1
141
0.0
142
0.0
 63
   256
361
10E8
  0
ENDTAB
  0
TABLE
  2
LTYPE
  5
4
330
0
100
AcDbSymbolTable
 70
     3
  0
LTYPE
  5
11
330
4
100
AcDbSymbolTableRecord
100
AcDbLinetypeTableRecord
  2
ByBlock
 70
     0
  3

 72
    65
 73
     0
 40
0.0
  0
LTYPE
  5
12
330
4
100
AcDbSymbolTableRecord
100
AcDbLinetypeTableRecord
  2
ByLayer
 70
     0
  3
Solid line
 72
    65
 73
     0
 40
0.0
  0
LTYPE
  5
13
330
4
100
AcDbSymbolTableRecord
100
AcDbLinetypeTableRecord
  2
Continuous
 70
     0
  3
Solid line
 72
    65
 73
     0
 40
0.0
  0
LTYPE
  5
88D
330
4
100
AcDbSymbolTableRecord
100
AcDbLinetypeTableRecord
  2
CENTER
 70
     0
  3
----------  --  ----------  --  
 72
    65
 73
     4
 40
20.0
 49
12.5
 74
     0
 49
-2.5
 74
     0
 49
2.5
 74
     0
 49
-2.5
 74
     0
  0
LTYPE
  5
12C7
330
4
100
AcDbSymbolTableRecord
100
AcDbLinetypeTableRecord
  2
HIDDEN
 70
     0
  3
Hidden _ _ _ _ _ _ _ _ _ _ _ _ _ _ _ _ _ _ _ _ 
 72
    65
 73
     2
 40
9.524999999999999
 49
6.35
 74
     0
 49
-3.175
 74
     0
  0
ENDTAB
  0
TABLE
  2
LAYER
  5
2
102
{ACAD_XDICTIONARY
360
2E1
102
}
330
0
100
AcDbSymbolTable
 70
     9
  0
LAYER
  5
14
330
2
100
AcDbSymbolTableRecord
100
AcDbLayerTableRecord
  2
0
 70
     0
 62
     7
  6
Continuous
370
    -3
390
1D
347
266
  0
LAYER
  5
4A
330
2
100
AcDbSymbolTableRecord
100
AcDbLayerTableRecord
  2
Defpoints
 70
     0
 62
     7
  6
Continuous
290
     0
370
    -3
390
1D
347
266
  0
LAYER
  5
12CE
330
2
100
AcDbSymbolTableRecord
100
AcDbLayerTableRecord
  2
寸法
 70
     0
 62
     7
  6
Continuous
370
    13
390
1D
347
266
1001
AcAecLayerStandard
1000

1000

  0
LAYER
  5
12CF
330
2
100
AcDbSymbolTableRecord
100
AcDbLayerTableRecord
  2
モデル
 70
     0
 62
     7
  6
Continuous
370
    20
390
1D
347
266
1001
AcAecLayerStandard
1000

1000

  0
LAYER
  5
142A
330
2
100
AcDbSymbolTableRecord
100
AcDbLayerTableRecord
  2
テンプレート
 70
     0
 62
     7
  6
Continuous
370
    20
390
1D
347
266
1001
AcAecLayerStandard
1000

1000

  0
LAYER
  5
1D5C
330
2
100
AcDbSymbolTableRecord
100
AcDbLayerTableRecord
  2
TFORMLOGO
 70
     0
 62
     7
  6
Continuous
370
    20
390
1D
347
266
  0
LAYER
  5
3848
330
2
100
AcDbSymbolTableRecord
100
AcDbLayerTableRecord
  2
PRINT BORDER
 70
     0
 62
    -4
  6
Continuous
370
    -3
390
1D
347
266
1001
AcAecLayerStandard
1000

1000

  0
LAYER
  5
387B
330
2
100
AcDbSymbolTableRecord
100
AcDbLayerTableRecord
  2
レイヤー 2
 70
     0
 62
     7
  6
Continuous
370
    -3
390
1D
347
266
  0
LAYER
  5
3B73
330
2
100
AcDbSymbolTableRecord
100
AcDbLayerTableRecord
  2
Laag 1
 70
     0
 62
     7
  6
Continuous
370
    -3
390
1D
347
266
  0
ENDTAB
  0
TABLE
  2
STYLE
  5
3
330
0
100
AcDbSymbolTable
 70
     2
  0
STYLE
  5
17
330
3
100
AcDbSymbolTableRecord
100
AcDbTextStyleTableRecord
  2
Standard
 70
     0
 40
0.0
 41
1.0
 50
0.0
 71
     0
 42
2.5
  3
txt
  4
BIGFONT.SHX
  0
STYLE
  5
39
330
3
100
AcDbSymbolTableRecord
100
AcDbTextStyleTableRecord
  2
ＭＳ ゴシック
 70
     0
 40
0.0
 41
1.0
 50
0.0
 71
     0
 42
136.139079520063
  3
msgothic.ttc
  4
ＭＳ ゴシック
1001
ACAD
1000
ＭＳ ゴシック
1071
        0
  0
ENDTAB
  0
TABLE
  2
VIEW
  5
5
330
0
100
AcDbSymbolTable
 70
     0
  0
ENDTAB
  0
TABLE
  2
UCS
  5
6
330
0
100
AcDbSymbolTable
 70
     0
  0
ENDTAB
  0
TABLE
  2
APPID
  5
8
330
0
100
AcDbSymbolTable
 70
     3
  0
APPID
  5
16
330
8
100
AcDbSymbolTableRecord
100
AcDbRegAppTableRecord
  2
ACAD
 70
     0
  0
APPID
  5
7AC
330
8
100
AcDbSymbolTableRecord
100
AcDbRegAppTableRecord
  2
AcAecLayerStandard
 70
     0
  0
APPID
  5
4592
330
8
100
AcDbSymbolTableRecord
100
AcDbRegAppTableRecord
  2
ACAD_MLEADERVER
 70
     0
  0
ENDTAB
  0
TABLE
  2
DIMSTYLE
  5
9
330
0
100
AcDbSymbolTable
 70
     2
100
AcDbDimStyleTable
  0
DIMSTYLE
105
18
330
9
100
AcDbSymbolTableRecord
100
AcDbDimStyleTableRecord
  2
Standard
 70
     0
178
     0
340
17
  0
DIMSTYLE
105
57
102
{ACAD_REACTORS
330
42F0
330
42F3
330
42F6
330
42F9
330
42FC
330
4302
330
4305
330
4306
330
4307
330
4391
330
4429
102
}
330
9
100
AcDbSymbolTableRecord
100
AcDbDimStyleTableRecord
  2
tfrom線あり
 70
     0
  3
<>
  4
[]
 41
2.0
 42
5.0
 43
0.9999999999999999
 44
0.0
 73
     0
 74
     0
 77
     1
 78
    11
140
5.0
141
0.0
143
1.0
147
5.0
171
     1
174
     1
178
     0
179
     2
271
     0
272
     1
276
     2
284
    11
285
    11
286
    11
289
     0
340
39
341
4E
342
4E
  0
ENDTAB
  0
TABLE
  2
BLOCK_RECORD
  5
1
330
0
100
AcDbSymbolTable
 70
   119
  0
BLOCK_RECORD
  5
A
330
1
100
AcDbSymbolTableRecord
100
AcDbBlockTableRecord
  2
*MODEL_SPACE
340
20
 70
     0
280
     1
281
     0
  0
BLOCK_RECORD
  5
B
330
1
100
AcDbSymbolTableRecord
100
AcDbBlockTableRecord
  2
*PAPER_SPACE
340
21
 70
     0
280
     1
281
     0
  0
BLOCK_RECORD
  5
4E
330
1
100
AcDbSymbolTableRecord
100
AcDbBlockTableRecord
  2
_DOT
340
0
102
{BLKREFS
331
37E4
331
37E5
331
37F0
331
37F1
331
37FC
331
37FD
331
3808
331
3809
331
3814
331
3815
331
3820
331
3821
331
382C
331
382D
331
3838
331
3839
331
3964
331
3965
331
3973
331
3974
331
3982
331
3983
331
3991
331
3992
331
399E
331
399F
331
39AD
331
39AE
331
39BC
331
39BD
331
39CB
331
39CC
331
39E7
331
39E8
331
39F6
331
39F7
331
3AE6
331
3AE7
331
3AF2
331
3AF3
331
3AFE
331
3AFF
331
3B0A
331
3B0B
331
3B16
331
3B17
331
3B22
331
3B23
331
3B2E
331
3B2F
331
3B3A
331
3B3B
331
3B46
331
3B47
331
3B52
331
3B53
331
3C1C
331
3C1D
331
3C2B
331
3C2C
331
3C38
331
3C39
331
3C45
331
3C46
331
3C52
331
3C53
331
3C6A
331
3C6B
331
3C77
331
3C78
331
3D14
331
3D15
331
3D20
331
3D21
331
3D2C
331
3D2D
331
3D38
331
3D39
331
3D44
331
3D45
331
3D50
331
3D51
331
3D5C
331
3D5D
331
3DE0
331
3DE1
331
3DED
331
3DEE
331
3E07
331
3E08
331
3E16
331
3E17
331
3E25
331
3E26
331
3E34
331
3E35
331
3E43
331
3E44
331
3E9B
331
3E9C
331
3EA7
331
3EA8
331
3EB3
331
3EB4
331
3EBF
331
3EC0
331
3ECB
331
3ECC
331
3ED7
331
3ED8
331
3EE3
331
3EE4
331
3F5D
331
3F5E
331
3F6A
331
3F6B
331
3F79
331
3F7A
331
3F88
331
3F89
331
3F9B
331
3F9C
331
3FAB
331
3FAC
331
4002
331
4003
331
400E
331
400F
331
401A
331
401B
331
4026
331
4027
331
4032
331
4033
331
403E
331
403F
331
40C0
331
40C1
331
40CF
331
40D0
331
40DC
331
40DD
331
40EB
331
40EC
331
40FE
331
40FF
331
410D
331
410E
331
4167
331
4168
331
4173
331
4174
331
417F
331
4180
331
418B
331
418C
331
4197
331
4198
331
41A3
331
41A4
331
4229
331
422A
331
4238
331
4239
331
4247
331
4248
331
4256
331
4257
331
4265
331
4266
331
4274
331
4275
331
4283
331
4284
331
4290
331
4291
331
429D
331
429E
331
42AC
331
42AD
331
4310
331
4311
331
431C
331
431D
331
4328
331
4329
331
4334
331
4335
331
4340
331
4341
331
434C
331
434D
331
4358
331
4359
331
4364
331
4365
331
4370
331
4371
331
437C
331
437D
331
4398
331
4399
331
4435
331
4436
331
448A
331
448B
331
4499
331
449A
331
44A8
331
44A9
331
44B7
331
44B8
331
44C9
331
44CA
331
44F1
331
44F2
331
44FD
331
44FE
331
4509
331
450A
331
4515
331
4516
331
4524
331
4525
102
}
 70
     0
280
     1
281
     0
  0
BLOCK_RECORD
  5
12C3
330
1
100
AcDbSymbolTableRecord
100
AcDbBlockTableRecord
  2
*Paper_Space1
340
12C4
 70
     0
280
     1
281
     0
  0
BLOCK_RECORD
  5
1D88
330
1
100
AcDbSymbolTableRecord
100
AcDbBlockTableRecord
  2
名称未設定-1
340
0
102
{BLKREFS
331
36E3
102
}
 70
     1
280
     1
281
     0
  0
BLOCK_RECORD
  5
1D8B
330
1
100
AcDbSymbolTableRecord
100
AcDbBlockTableRecord
  2
block 2
340
0
102
{BLKREFS
331
1D8A
102
}
 70
     0
280
     1
281
     0
  0
BLOCK_RECORD
  5
1D8E
330
1
100
AcDbSymbolTableRecord
100
AcDbBlockTableRecord
  2
block 3
340
0
102
{BLKREFS
331
1D8D
102
}
 70
     0
280
     1
281
     0
  0
BLOCK_RECORD
  5
1D91
330
1
100
AcDbSymbolTableRecord
100
AcDbBlockTableRecord
  2
block 4
340
0
102
{BLKREFS
331
1D90
102
}
 70
     0
280
     1
281
     0
  0
BLOCK_RECORD
  5
1DA0
330
1
100
AcDbSymbolTableRecord
100
AcDbBlockTableRecord
  2
block 5
340
0
102
{BLKREFS
331
1D9F
102
}
 70
     0
280
     1
281
     0
  0
BLOCK_RECORD
  5
37DF
330
1
100
AcDbSymbolTableRecord
100
AcDbBlockTableRecord
  2
*D7
340
0
 70
     0
280
     1
281
     0
  0
BLOCK_RECORD
  5
37EA
330
1
100
AcDbSymbolTableRecord
100
AcDbBlockTableRecord
  2
*D8
340
0
 70
     0
280
     1
281
     0
  0
BLOCK_RECORD
  5
37F6
330
1
100
AcDbSymbolTableRecord
100
AcDbBlockTableRecord
  2
*D9
340
0
 70
     0
280
     1
281
     0
  0
BLOCK_RECORD
  5
3802
330
1
100
AcDbSymbolTableRecord
100
AcDbBlockTableRecord
  2
*D10
340
0
 70
     0
280
     1
281
     0
  0
BLOCK_RECORD
  5
380E
330
1
100
AcDbSymbolTableRecord
100
AcDbBlockTableRecord
  2
*D11
340
0
 70
     0
280
     1
281
     0
  0
BLOCK_RECORD
  5
381A
330
1
100
AcDbSymbolTableRecord
100
AcDbBlockTableRecord
  2
*D12
340
0
 70
     0
280
     1
281
     0
  0
BLOCK_RECORD
  5
3826
330
1
100
AcDbSymbolTableRecord
100
AcDbBlockTableRecord
  2
*D13
340
0
 70
     0
280
     1
281
     0
  0
BLOCK_RECORD
  5
3832
330
1
100
AcDbSymbolTableRecord
100
AcDbBlockTableRecord
  2
*D14
340
0
 70
     0
280
     1
281
     0
  0
BLOCK_RECORD
  5
395F
330
1
100
AcDbSymbolTableRecord
100
AcDbBlockTableRecord
  2
*D15
340
0
 70
     0
280
     1
281
     0
  0
BLOCK_RECORD
  5
396E
330
1
100
AcDbSymbolTableRecord
100
AcDbBlockTableRecord
  2
*D16
340
0
 70
     0
280
     1
281
     0
  0
BLOCK_RECORD
  5
397D
330
1
100
AcDbSymbolTableRecord
100
AcDbBlockTableRecord
  2
*D17
340
0
 70
     0
280
     1
281
     0
  0
BLOCK_RECORD
  5
398C
330
1
100
AcDbSymbolTableRecord
100
AcDbBlockTableRecord
  2
*D18
340
0
 70
     0
280
     1
281
     0
  0
BLOCK_RECORD
  5
3999
330
1
100
AcDbSymbolTableRecord
100
AcDbBlockTableRecord
  2
*D19
340
0
 70
     0
280
     1
281
     0
  0
BLOCK_RECORD
  5
39A8
330
1
100
AcDbSymbolTableRecord
100
AcDbBlockTableRecord
  2
*D20
340
0
 70
     0
280
     1
281
     0
  0
BLOCK_RECORD
  5
39B7
330
1
100
AcDbSymbolTableRecord
100
AcDbBlockTableRecord
  2
*D21
340
0
 70
     0
280
     1
281
     0
  0
BLOCK_RECORD
  5
39C6
330
1
100
AcDbSymbolTableRecord
100
AcDbBlockTableRecord
  2
*D22
340
0
 70
     0
280
     1
281
     0
  0
BLOCK_RECORD
  5
39E2
330
1
100
AcDbSymbolTableRecord
100
AcDbBlockTableRecord
  2
*D23
340
0
 70
     0
280
     1
281
     0
  0
BLOCK_RECORD
  5
39F1
330
1
100
AcDbSymbolTableRecord
100
AcDbBlockTableRecord
  2
*D24
340
0
 70
     0
280
     1
281
     0
  0
BLOCK_RECORD
  5
3AE0
330
1
100
AcDbSymbolTableRecord
100
AcDbBlockTableRecord
  2
*D25
340
0
 70
     0
280
     1
281
     0
  0
BLOCK_RECORD
  5
3AEC
330
1
100
AcDbSymbolTableRecord
100
AcDbBlockTableRecord
  2
*D26
340
0
 70
     0
280
     1
281
     0
  0
BLOCK_RECORD
  5
3AF8
330
1
100
AcDbSymbolTableRecord
100
AcDbBlockTableRecord
  2
*D27
340
0
 70
     0
280
     1
281
     0
  0
BLOCK_RECORD
  5
3B04
330
1
100
AcDbSymbolTableRecord
100
AcDbBlockTableRecord
  2
*D28
340
0
 70
     0
280
     1
281
     0
  0
BLOCK_RECORD
  5
3B10
330
1
100
AcDbSymbolTableRecord
100
AcDbBlockTableRecord
  2
*D29
340
0
 70
     0
280
     1
281
     0
  0
BLOCK_RECORD
  5
3B1C
330
1
100
AcDbSymbolTableRecord
100
AcDbBlockTableRecord
  2
*D30
340
0
 70
     0
280
     1
281
     0
  0
BLOCK_RECORD
  5
3B28
330
1
100
AcDbSymbolTableRecord
100
AcDbBlockTableRecord
  2
*D31
340
0
 70
     0
280
     1
281
     0
  0
BLOCK_RECORD
  5
3B34
330
1
100
AcDbSymbolTableRecord
100
AcDbBlockTableRecord
  2
*D32
340
0
 70
     0
280
     1
281
     0
  0
BLOCK_RECORD
  5
3B40
330
1
100
AcDbSymbolTableRecord
100
AcDbBlockTableRecord
  2
*D33
340
0
 70
     0
280
     1
281
     0
  0
BLOCK_RECORD
  5
3B4C
330
1
100
AcDbSymbolTableRecord
100
AcDbBlockTableRecord
  2
*D34
340
0
 70
     0
280
     1
281
     0
  0
BLOCK_RECORD
  5
3C17
330
1
100
AcDbSymbolTableRecord
100
AcDbBlockTableRecord
  2
*D35
340
0
 70
     0
280
     1
281
     0
  0
BLOCK_RECORD
  5
3C26
330
1
100
AcDbSymbolTableRecord
100
AcDbBlockTableRecord
  2
*D36
340
0
 70
     0
280
     1
281
     0
  0
BLOCK_RECORD
  5
3C33
330
1
100
AcDbSymbolTableRecord
100
AcDbBlockTableRecord
  2
*D37
340
0
 70
     0
280
     1
281
     0
  0
BLOCK_RECORD
  5
3C40
330
1
100
AcDbSymbolTableRecord
100
AcDbBlockTableRecord
  2
*D38
340
0
 70
     0
280
     1
281
     0
  0
BLOCK_RECORD
  5
3C4D
330
1
100
AcDbSymbolTableRecord
100
AcDbBlockTableRecord
  2
*D39
340
0
 70
     0
280
     1
281
     0
  0
BLOCK_RECORD
  5
3C65
330
1
100
AcDbSymbolTableRecord
100
AcDbBlockTableRecord
  2
*D40
340
0
 70
     0
280
     1
281
     0
  0
BLOCK_RECORD
  5
3C72
330
1
100
AcDbSymbolTableRecord
100
AcDbBlockTableRecord
  2
*D41
340
0
 70
     0
280
     1
281
     0
  0
BLOCK_RECORD
  5
3D0E
330
1
100
AcDbSymbolTableRecord
100
AcDbBlockTableRecord
  2
*D42
340
0
 70
     0
280
     1
281
     0
  0
BLOCK_RECORD
  5
3D1A
330
1
100
AcDbSymbolTableRecord
100
AcDbBlockTableRecord
  2
*D43
340
0
 70
     0
280
     1
281
     0
  0
BLOCK_RECORD
  5
3D26
330
1
100
AcDbSymbolTableRecord
100
AcDbBlockTableRecord
  2
*D44
340
0
 70
     0
280
     1
281
     0
  0
BLOCK_RECORD
  5
3D32
330
1
100
AcDbSymbolTableRecord
100
AcDbBlockTableRecord
  2
*D45
340
0
 70
     0
280
     1
281
     0
  0
BLOCK_RECORD
  5
3D3E
330
1
100
AcDbSymbolTableRecord
100
AcDbBlockTableRecord
  2
*D46
340
0
 70
     0
280
     1
281
     0
  0
BLOCK_RECORD
  5
3D4A
330
1
100
AcDbSymbolTableRecord
100
AcDbBlockTableRecord
  2
*D47
340
0
 70
     0
280
     1
281
     0
  0
BLOCK_RECORD
  5
3D56
330
1
100
AcDbSymbolTableRecord
100
AcDbBlockTableRecord
  2
*D48
340
0
 70
     0
280
     1
281
     0
  0
BLOCK_RECORD
  5
3DDB
330
1
100
AcDbSymbolTableRecord
100
AcDbBlockTableRecord
  2
*D49
340
0
 70
     0
280
     1
281
     0
  0
BLOCK_RECORD
  5
3DE8
330
1
100
AcDbSymbolTableRecord
100
AcDbBlockTableRecord
  2
*D50
340
0
 70
     0
280
     1
281
     0
  0
BLOCK_RECORD
  5
3E02
330
1
100
AcDbSymbolTableRecord
100
AcDbBlockTableRecord
  2
*D51
340
0
 70
     0
280
     1
281
     0
  0
BLOCK_RECORD
  5
3E11
330
1
100
AcDbSymbolTableRecord
100
AcDbBlockTableRecord
  2
*D52
340
0
 70
     0
280
     1
281
     0
  0
BLOCK_RECORD
  5
3E20
330
1
100
AcDbSymbolTableRecord
100
AcDbBlockTableRecord
  2
*D53
340
0
 70
     0
280
     1
281
     0
  0
BLOCK_RECORD
  5
3E2F
330
1
100
AcDbSymbolTableRecord
100
AcDbBlockTableRecord
  2
*D54
340
0
 70
     0
280
     1
281
     0
  0
BLOCK_RECORD
  5
3E3E
330
1
100
AcDbSymbolTableRecord
100
AcDbBlockTableRecord
  2
*D55
340
0
 70
     0
280
     1
281
     0
  0
BLOCK_RECORD
  5
3E95
330
1
100
AcDbSymbolTableRecord
100
AcDbBlockTableRecord
  2
*D56
340
0
 70
     0
280
     1
281
     0
  0
BLOCK_RECORD
  5
3EA1
330
1
100
AcDbSymbolTableRecord
100
AcDbBlockTableRecord
  2
*D57
340
0
 70
     0
280
     1
281
     0
  0
BLOCK_RECORD
  5
3EAD
330
1
100
AcDbSymbolTableRecord
100
AcDbBlockTableRecord
  2
*D58
340
0
 70
     0
280
     1
281
     0
  0
BLOCK_RECORD
  5
3EB9
330
1
100
AcDbSymbolTableRecord
100
AcDbBlockTableRecord
  2
*D59
340
0
 70
     0
280
     1
281
     0
  0
BLOCK_RECORD
  5
3EC5
330
1
100
AcDbSymbolTableRecord
100
AcDbBlockTableRecord
  2
*D60
340
0
 70
     0
280
     1
281
     0
  0
BLOCK_RECORD
  5
3ED1
330
1
100
AcDbSymbolTableRecord
100
AcDbBlockTableRecord
  2
*D61
340
0
 70
     0
280
     1
281
     0
  0
BLOCK_RECORD
  5
3EDD
330
1
100
AcDbSymbolTableRecord
100
AcDbBlockTableRecord
  2
*D62
340
0
 70
     0
280
     1
281
     0
  0
BLOCK_RECORD
  5
3F58
330
1
100
AcDbSymbolTableRecord
100
AcDbBlockTableRecord
  2
*D63
340
0
 70
     0
280
     1
281
     0
  0
BLOCK_RECORD
  5
3F65
330
1
100
AcDbSymbolTableRecord
100
AcDbBlockTableRecord
  2
*D64
340
0
 70
     0
280
     1
281
     0
  0
BLOCK_RECORD
  5
3F74
330
1
100
AcDbSymbolTableRecord
100
AcDbBlockTableRecord
  2
*D65
340
0
 70
     0
280
     1
281
     0
  0
BLOCK_RECORD
  5
3F83
330
1
100
AcDbSymbolTableRecord
100
AcDbBlockTableRecord
  2
*D66
340
0
 70
     0
280
     1
281
     0
  0
BLOCK_RECORD
  5
3F96
330
1
100
AcDbSymbolTableRecord
100
AcDbBlockTableRecord
  2
*D67
340
0
 70
     0
280
     1
281
     0
  0
BLOCK_RECORD
  5
3FA6
330
1
100
AcDbSymbolTableRecord
100
AcDbBlockTableRecord
  2
*D68
340
0
 70
     0
280
     1
281
     0
  0
BLOCK_RECORD
  5
3FFC
330
1
100
AcDbSymbolTableRecord
100
AcDbBlockTableRecord
  2
*D69
340
0
 70
     0
280
     1
281
     0
  0
BLOCK_RECORD
  5
4008
330
1
100
AcDbSymbolTableRecord
100
AcDbBlockTableRecord
  2
*D70
340
0
 70
     0
280
     1
281
     0
  0
BLOCK_RECORD
  5
4014
330
1
100
AcDbSymbolTableRecord
100
AcDbBlockTableRecord
  2
*D71
340
0
 70
     0
280
     1
281
     0
  0
BLOCK_RECORD
  5
4020
330
1
100
AcDbSymbolTableRecord
100
AcDbBlockTableRecord
  2
*D72
340
0
 70
     0
280
     1
281
     0
  0
BLOCK_RECORD
  5
402C
330
1
100
AcDbSymbolTableRecord
100
AcDbBlockTableRecord
  2
*D73
340
0
 70
     0
280
     1
281
     0
  0
BLOCK_RECORD
  5
4038
330
1
100
AcDbSymbolTableRecord
100
AcDbBlockTableRecord
  2
*D74
340
0
 70
     0
280
     1
281
     0
  0
BLOCK_RECORD
  5
40BB
330
1
100
AcDbSymbolTableRecord
100
AcDbBlockTableRecord
  2
*D75
340
0
 70
     0
280
     1
281
     0
  0
BLOCK_RECORD
  5
40CA
330
1
100
AcDbSymbolTableRecord
100
AcDbBlockTableRecord
  2
*D76
340
0
 70
     0
280
     1
281
     0
  0
BLOCK_RECORD
  5
40D7
330
1
100
AcDbSymbolTableRecord
100
AcDbBlockTableRecord
  2
*D77
340
0
 70
     0
280
     1
281
     0
  0
BLOCK_RECORD
  5
40E6
330
1
100
AcDbSymbolTableRecord
100
AcDbBlockTableRecord
  2
*D78
340
0
 70
     0
280
     1
281
     0
  0
BLOCK_RECORD
  5
40F9
330
1
100
AcDbSymbolTableRecord
100
AcDbBlockTableRecord
  2
*D79
340
0
 70
     0
280
     1
281
     0
  0
BLOCK_RECORD
  5
4108
330
1
100
AcDbSymbolTableRecord
100
AcDbBlockTableRecord
  2
*D80
340
0
 70
     0
280
     1
281
     0
  0
BLOCK_RECORD
  5
4161
330
1
100
AcDbSymbolTableRecord
100
AcDbBlockTableRecord
  2
*D81
340
0
 70
     0
280
     1
281
     0
  0
BLOCK_RECORD
  5
416D
330
1
100
AcDbSymbolTableRecord
100
AcDbBlockTableRecord
  2
*D82
340
0
 70
     0
280
     1
281
     0
  0
BLOCK_RECORD
  5
4179
330
1
100
AcDbSymbolTableRecord
100
AcDbBlockTableRecord
  2
*D83
340
0
 70
     0
280
     1
281
     0
  0
BLOCK_RECORD
  5
4185
330
1
100
AcDbSymbolTableRecord
100
AcDbBlockTableRecord
  2
*D84
340
0
 70
     0
280
     1
281
     0
  0
BLOCK_RECORD
  5
4191
330
1
100
AcDbSymbolTableRecord
100
AcDbBlockTableRecord
  2
*D85
340
0
 70
     0
280
     1
281
     0
  0
BLOCK_RECORD
  5
419D
330
1
100
AcDbSymbolTableRecord
100
AcDbBlockTableRecord
  2
*D86
340
0
 70
     0
280
     1
281
     0
  0
BLOCK_RECORD
  5
4224
330
1
100
AcDbSymbolTableRecord
100
AcDbBlockTableRecord
  2
*D87
340
0
 70
     0
280
     1
281
     0
  0
BLOCK_RECORD
  5
4233
330
1
100
AcDbSymbolTableRecord
100
AcDbBlockTableRecord
  2
*D88
340
0
 70
     0
280
     1
281
     0
  0
BLOCK_RECORD
  5
4242
330
1
100
AcDbSymbolTableRecord
100
AcDbBlockTableRecord
  2
*D89
340
0
 70
     0
280
     1
281
     0
  0
BLOCK_RECORD
  5
4251
330
1
100
AcDbSymbolTableRecord
100
AcDbBlockTableRecord
  2
*D90
340
0
 70
     0
280
     1
281
     0
  0
BLOCK_RECORD
  5
4260
330
1
100
AcDbSymbolTableRecord
100
AcDbBlockTableRecord
  2
*D91
340
0
 70
     0
280
     1
281
     0
  0
BLOCK_RECORD
  5
426F
330
1
100
AcDbSymbolTableRecord
100
AcDbBlockTableRecord
  2
*D92
340
0
 70
     0
280
     1
281
     0
  0
BLOCK_RECORD
  5
427E
330
1
100
AcDbSymbolTableRecord
100
AcDbBlockTableRecord
  2
*D93
340
0
 70
     0
280
     1
281
     0
  0
BLOCK_RECORD
  5
428B
330
1
100
AcDbSymbolTableRecord
100
AcDbBlockTableRecord
  2
*D94
340
0
 70
     0
280
     1
281
     0
  0
BLOCK_RECORD
  5
4298
330
1
100
AcDbSymbolTableRecord
100
AcDbBlockTableRecord
  2
*D95
340
0
 70
     0
280
     1
281
     0
  0
BLOCK_RECORD
  5
42A7
330
1
100
AcDbSymbolTableRecord
100
AcDbBlockTableRecord
  2
*D96
340
0
 70
     0
280
     1
281
     0
  0
BLOCK_RECORD
  5
430A
330
1
100
AcDbSymbolTableRecord
100
AcDbBlockTableRecord
  2
*D97
340
0
 70
     0
280
     1
281
     0
  0
BLOCK_RECORD
  5
4316
330
1
100
AcDbSymbolTableRecord
100
AcDbBlockTableRecord
  2
*D98
340
0
 70
     0
280
     1
281
     0
  0
BLOCK_RECORD
  5
4322
330
1
100
AcDbSymbolTableRecord
100
AcDbBlockTableRecord
  2
*D99
340
0
 70
     0
280
     1
281
     0
  0
BLOCK_RECORD
  5
432E
330
1
100
AcDbSymbolTableRecord
100
AcDbBlockTableRecord
  2
*D100
340
0
 70
     0
280
     1
281
     0
  0
BLOCK_RECORD
  5
433A
330
1
100
AcDbSymbolTableRecord
100
AcDbBlockTableRecord
  2
*D101
340
0
 70
     0
280
     1
281
     0
  0
BLOCK_RECORD
  5
4346
330
1
100
AcDbSymbolTableRecord
100
AcDbBlockTableRecord
  2
*D102
340
0
 70
     0
280
     1
281
     0
  0
BLOCK_RECORD
  5
4352
330
1
100
AcDbSymbolTableRecord
100
AcDbBlockTableRecord
  2
*D103
340
0
 70
     0
280
     1
281
     0
  0
BLOCK_RECORD
  5
435E
330
1
100
AcDbSymbolTableRecord
100
AcDbBlockTableRecord
  2
*D104
340
0
 70
     0
280
     1
281
     0
  0
BLOCK_RECORD
  5
436A
330
1
100
AcDbSymbolTableRecord
100
AcDbBlockTableRecord
  2
*D105
340
0
 70
     0
280
     1
281
     0
  0
BLOCK_RECORD
  5
4376
330
1
100
AcDbSymbolTableRecord
100
AcDbBlockTableRecord
  2
*D106
340
0
 70
     0
280
     1
281
     0
  0
BLOCK_RECORD
  5
4392
330
1
100
AcDbSymbolTableRecord
100
AcDbBlockTableRecord
  2
*D107
340
0
 70
     0
280
     1
281
     0
  0
BLOCK_RECORD
  5
442C
330
1
100
AcDbSymbolTableRecord
100
AcDbBlockTableRecord
  2
*D108
340
0
 70
     0
280
     1
281
     0
  0
BLOCK_RECORD
  5
4485
330
1
100
AcDbSymbolTableRecord
100
AcDbBlockTableRecord
  2
*D109
340
0
 70
     0
280
     1
281
     0
  0
BLOCK_RECORD
  5
4494
330
1
100
AcDbSymbolTableRecord
100
AcDbBlockTableRecord
  2
*D110
340
0
 70
     0
280
     1
281
     0
  0
BLOCK_RECORD
  5
44A3
330
1
100
AcDbSymbolTableRecord
100
AcDbBlockTableRecord
  2
*D111
340
0
 70
     0
280
     1
281
     0
  0
BLOCK_RECORD
  5
44B2
330
1
100
AcDbSymbolTableRecord
100
AcDbBlockTableRecord
  2
*D112
340
0
 70
     0
280
     1
281
     0
  0
BLOCK_RECORD
  5
44C1
330
1
100
AcDbSymbolTableRecord
100
AcDbBlockTableRecord
  2
*D113
340
0
 70
     0
280
     1
281
     0
  0
BLOCK_RECORD
  5
44EB
330
1
100
AcDbSymbolTableRecord
100
AcDbBlockTableRecord
  2
*D114
340
0
 70
     0
280
     1
281
     0
  0
BLOCK_RECORD
  5
44F7
330
1
100
AcDbSymbolTableRecord
100
AcDbBlockTableRecord
  2
*D115
340
0
 70
     0
280
     1
281
     0
  0
BLOCK_RECORD
  5
4503
330
1
100
AcDbSymbolTableRecord
100
AcDbBlockTableRecord
  2
*D116
340
0
 70
     0
280
     1
281
     0
  0
BLOCK_RECORD
  5
450F
330
1
100
AcDbSymbolTableRecord
100
AcDbBlockTableRecord
  2
*D117
340
0
 70
     0
280
     1
281
     0
  0
BLOCK_RECORD
  5
451B
330
1
100
AcDbSymbolTableRecord
100
AcDbBlockTableRecord
  2
*D118
340
0
 70
     0
280
     1
281
     0
  0
ENDTAB
  0
ENDSEC
  0
SECTION
  2
BLOCKS
  0
BLOCK
  5
D
330
A
100
AcDbEntity
  8
0
390
1D
100
AcDbBlockBegin
  2
*MODEL_SPACE
 70
     0
 10
0.0
 20
0.0
 30
0.0
  3
*MODEL_SPACE
  1
*MODEL_SPACE
  0
ENDBLK
  5
E
330
A
100
AcDbEntity
  8
0
390
1D
100
AcDbBlockEnd
  0
BLOCK
  5
F
330
B
100
AcDbEntity
 67
     1
  8
0
390
1D
100
AcDbBlockBegin
  2
*PAPER_SPACE
 70
     0
 10
0.0
 20
0.0
 30
0.0
  3
*PAPER_SPACE
  1
*PAPER_SPACE
  0
ENDBLK
  5
10
330
B
100
AcDbEntity
 67
     1
  8
0
390
1D
100
AcDbBlockEnd
  0
BLOCK
  5
1066
330
4E
100
AcDbEntity
  8
0
390
1D
100
AcDbBlockBegin
  2
_DOT
 70
     0
 10
0.0
 20
0.0
 30
0.0
  3
_DOT
  1
_DOT
  0
POLYLINE
  5
1068
330
4E
100
AcDbEntity
  8
0
  6
ByBlock
 62
     0
370
    -2
390
1D
100
AcDb2dPolyline
 66
     1
 10
0.0
 20
0.0
 30
0.0
 70
     1
 40
0.5
 41
0.5
  0
VERTEX
  5
1069
330
1068
100
AcDbEntity
  8
0
  6
ByBlock
 62
     0
370
    -2
390
1D
100
AcDbVertex
100
AcDb2dVertex
 10
-0.25
 20
0.0
 30
0.0
 42
1.0
  0
VERTEX
  5
106A
330
1068
100
AcDbEntity
  8
0
  6
ByBlock
 62
     0
370
    -2
390
1D
100
AcDbVertex
100
AcDb2dVertex
 10
0.25
 20
0.0
 30
0.0
 42
1.0
  0
SEQEND
  5
106B
330
1068
100
AcDbEntity
  8
0
390
1D
  0
LINE
  5
106C
330
4E
100
AcDbEntity
  8
0
  6
ByBlock
 62
     0
370
    -2
390
1D
100
AcDbLine
 10
-0.5
 20
0.0
 30
0.0
 11
-1.0
 21
0.0
 31
0.0
  0
ENDBLK
  5
106D
330
4E
100
AcDbEntity
  8
0
390
1D
100
AcDbBlockEnd
  0
BLOCK
  5
12C5
330
12C3
100
AcDbEntity
  8
0
100
AcDbBlockBegin
  2
*Paper_Space1
 70
     0
 10
0.0
 20
0.0
 30
0.0
  3
*Paper_Space1
  1
*Paper_Space83
  0
ENDBLK
  5
12C6
330
12C3
100
AcDbEntity
  8
0
100
AcDbBlockEnd
  0
BLOCK
  5
1D89
330
1D88
100
AcDbEntity
  8
0
100
AcDbBlockBegin
  2
名称未設定-1
 70
     0
 10
0.0
 20
0.0
 30
0.0
  3
名称未設定-1
  1
名称未設定-1
  0
INSERT
  5
1D8A
330
1D88
100
AcDbEntity
  8
TFORMLOGO
100
AcDbBlockReference
  2
block 2
 10
0.0
 20
0.0
 30
0.0
  0
ENDBLK
  5
1DAF
330
1D88
100
AcDbEntity
  8
0
100
AcDbBlockEnd
  0
BLOCK
  5
1D8C
330
1D8B
100
AcDbEntity
  8
0
100
AcDbBlockBegin
  2
block 2
 70
     0
 10
0.0
 20
0.0
 30
0.0
  3
block 2
  1
block 2
  0
INSERT
  5
1D8D
330
1D8B
100
AcDbEntity
  8
TFORMLOGO
100
AcDbBlockReference
  2
block 3
 10
0.0
 20
0.0
 30
0.0
  0
ENDBLK
  5
1DAE
330
1D8B
100
AcDbEntity
  8
0
100
AcDbBlockEnd
  0
BLOCK
  5
1D8F
330
1D8E
100
AcDbEntity
  8
0
100
AcDbBlockBegin
  2
block 3
 70
     0
 10
0.0
 20
0.0
 30
0.0
  3
block 3
  1
block 3
  0
INSERT
  5
1D90
330
1D8E
100
AcDbEntity
  8
TFORMLOGO
100
AcDbBlockReference
  2
block 4
 10
0.0
 20
0.0
 30
0.0
  0
ENDBLK
  5
1DAD
330
1D8E
100
AcDbEntity
  8
0
100
AcDbBlockEnd
  0
BLOCK
  5
1D92
330
1D91
100
AcDbEntity
  8
0
100
AcDbBlockBegin
  2
block 4
 70
     0
 10
0.0
 20
0.0
 30
0.0
  3
block 4
  1
block 4
  0
POLYLINE
  5
1D93
330
1D91
100
AcDbEntity
  8
TFORMLOGO
370
     0
100
AcDb2dPolyline
 66
     1
 10
0.0
 20
0.0
 30
0.0
  0
VERTEX
  5
1D94
330
1D93
100
AcDbEntity
  8
TFORMLOGO
370
     0
100
AcDbVertex
100
AcDb2dVertex
 10
83.79545727667795
 20
167.6444858234922
 30
0.0
  0
VERTEX
  5
1D95
330
1D93
100
AcDbEntity
  8
TFORMLOGO
370
     0
100
AcDbVertex
100
AcDb2dVertex
 10
83.79545727667795
 20
159.7968976406313
 30
0.0
  0
VERTEX
  5
1D96
330
1D93
100
AcDbEntity
  8
TFORMLOGO
370
     0
100
AcDbVertex
100
AcDb2dVertex
 10
71.3631329975216
 20
159.7968976406313
 30
0.0
  0
VERTEX
  5
1D97
330
1D93
100
AcDbEntity
  8
TFORMLOGO
370
     0
100
AcDbVertex
100
AcDb2dVertex
 10
71.3631329975216
 20
127.8027915271048
 30
0.0
  0
VERTEX
  5
1D98
330
1D93
100
AcDbEntity
  8
TFORMLOGO
370
     0
100
AcDbVertex
100
AcDb2dVertex
 10
60.43011526263018
 20
127.8027915271048
 30
0.0
  0
VERTEX
  5
1D99
330
1D93
100
AcDbEntity
  8
TFORMLOGO
370
     0
100
AcDbVertex
100
AcDb2dVertex
 10
60.43011526263018
 20
159.7968976406313
 30
0.0
  0
VERTEX
  5
1D9A
330
1D93
100
AcDbEntity
  8
TFORMLOGO
370
     0
100
AcDbVertex
100
AcDb2dVertex
 10
48.21793273020759
 20
159.7968976406313
 30
0.0
  0
VERTEX
  5
1D9B
330
1D93
100
AcDbEntity
  8
TFORMLOGO
370
     0
100
AcDbVertex
100
AcDb2dVertex
 10
48.21793273020759
 20
167.6444858234922
 30
0.0
  0
VERTEX
  5
1D9C
330
1D93
100
AcDbEntity
  8
TFORMLOGO
370
     0
100
AcDbVertex
100
AcDb2dVertex
 10
83.79545727667795
 20
167.6444858234922
 30
0.0
  0
SEQEND
  5
1D9D
330
1D93
100
AcDbEntity
  8
TFORMLOGO
370
     0
  0
HATCH
  5
1D9E
330
1D91
100
AcDbEntity
  8
TFORMLOGO
 62
   250
420
  2234388
100
AcDbHatch
 10
0.0
 20
0.0
 30
0.0
210
0.0
220
0.0
230
1.0
  2
SOLID
 70
     1
 71
     0
 91
        1
 92
        1
 93
        8
 72
     1
 10
83.79545727667795
 20
167.6444858234922
 11
83.79545727667795
 21
159.7968976406313
 72
     1
 10
83.79545727667795
 20
159.7968976406313
 11
71.3631329975216
 21
159.7968976406313
 72
     1
 10
71.3631329975216
 20
159.7968976406313
 11
71.3631329975216
 21
127.8027915271048
 72
     1
 10
71.3631329975216
 20
127.8027915271048
 11
60.43011526263018
 21
127.8027915271048
 72
     1
 10
60.43011526263018
 20
127.8027915271048
 11
60.43011526263018
 21
159.7968976406313
 72
     1
 10
60.43011526263018
 20
159.7968976406313
 11
48.21793273020759
 21
159.7968976406313
 72
     1
 10
48.21793273020759
 20
159.7968976406313
 11
48.21793273020759
 21
167.6444858234922
 72
     1
 10
48.21793273020759
 20
167.6444858234922
 11
83.79545727667795
 21
167.6444858234922
 97
        0
 75
     2
 76
     1
 98
        0
  0
INSERT
  5
1D9F
330
1D91
100
AcDbEntity
  8
TFORMLOGO
100
AcDbBlockReference
  2
block 5
 10
0.0
 20
0.0
 30
0.0
  0
ENDBLK
  5
1DAC
330
1D91
100
AcDbEntity
  8
0
100
AcDbBlockEnd
  0
BLOCK
  5
1DA1
330
1DA0
100
AcDbEntity
  8
0
100
AcDbBlockBegin
  2
block 5
 70
     0
 10
0.0
 20
0.0
 30
0.0
  3
block 5
  1
block 5
  0
SPLINE
  5
1DA2
330
1DA0
100
AcDbEntity
  8
TFORMLOGO
370
     0
100
AcDbSpline
210
0.0
220
0.0
230
1.0
 70
    11
 71
     3
 72
    56
 73
    52
 74
     0
 42
0.000000001
 43
0.0000000001
 40
0.0
 40
0.0
 40
0.0
 40
0.0
 40
1.0
 40
1.0
 40
1.0
 40
2.0
 40
2.0
 40
2.0
 40
3.0
 40
3.0
 40
3.0
 40
4.0
 40
4.0
 40
4.0
 40
5.0
 40
5.0
 40
5.0
 40
6.0
 40
6.0
 40
6.0
 40
7.0
 40
7.0
 40
7.0
 40
8.0
 40
8.0
 40
8.0
 40
9.0
 40
9.0
 40
9.0
 40
10.0
 40
10.0
 40
10.0
 40
11.0
 40
11.0
 40
11.0
 40
12.0
 40
12.0
 40
12.0
 40
13.0
 40
13.0
 40
13.0
 40
14.0
 40
14.0
 40
14.0
 40
15.0
 40
15.0
 40
15.0
 40
16.0
 40
16.0
 40
16.0
 40
17.0
 40
17.0
 40
17.0
 40
17.0
 10
100.4504378777679
 20
166.69157178364
 30
0.0
 10
101.9848844191641
 20
167.1313385124438
 30
0.0
 10
103.9637485713373
 20
166.7649523658846
 30
0.0
 10
103.9637485713373
 20
166.7649523658846
 30
0.0
 10
103.9637485713373
 20
166.7649523658846
 30
0.0
 10
103.0132460999156
 20
163.911205638077
 30
0.0
 10
103.0132460999156
 20
163.911205638077
 30
0.0
 10
103.0132460999156
 20
163.911205638077
 30
0.0
 10
101.0674548862189
 20
164.3601018759394
 30
0.0
 10
99.57090442016032
 20
163.1805004036133
 30
0.0
 10
98.40508333886608
 20
162.258247733807
 30
0.0
 10
97.65301849830304
 20
159.804132345923
 30
0.0
 10
97.3598406791005
 20
158.8699940888517
 30
0.0
 10
97.3598406791005
 20
158.8699940888517
 30
0.0
 10
96.07137411762282
 20
154.9119212747295
 30
0.0
 10
96.07137411762282
 20
154.9119212747295
 30
0.0
 10
96.07137411762282
 20
154.9119212747295
 30
0.0
 10
100.3012651448482
 20
154.9119212747295
 30
0.0
 10
100.3012651448482
 20
154.9119212747295
 30
0.0
 10
100.3012651448482
 20
154.9119212747295
 30
0.0
 10
99.64152892419852
 20
152.4199098115079
 30
0.0
 10
99.64152892419852
 20
152.4199098115079
 30
0.0
 10
99.64152892419852
 20
152.4199098115079
 30
0.0
 10
95.38097652692731
 20
152.4199098115079
 30
0.0
 10
95.38097652692731
 20
152.4199098115079
 30
0.0
 10
95.38097652692731
 20
152.4199098115079
 30
0.0
 10
87.75353009080013
 20
127.8027915271048
 30
0.0
 10
87.75353009080013
 20
127.8027915271048
 30
0.0
 10
87.75353009080013
 20
127.8027915271048
 30
0.0
 10
85.36538832498108
 20
127.8027915271048
 30
0.0
 10
85.36538832498108
 20
127.8027915271048
 30
0.0
 10
85.36538832498108
 20
127.8027915271048
 30
0.0
 10
93.00006946639998
 20
152.4199098115079
 30
0.0
 10
93.00006946639998
 20
152.4199098115079
 30
0.0
 10
93.00006946639998
 20
152.4199098115079
 30
0.0
 10
89.85297266450198
 20
152.4199098115079
 30
0.0
 10
89.85297266450198
 20
152.4199098115079
 30
0.0
 10
89.85297266450198
 20
152.4199098115079
 30
0.0
 10
90.51270888515164
 20
154.9119212747295
 30
0.0
 10
90.51270888515164
 20
154.9119212747295
 30
0.0
 10
90.51270888515164
 20
154.9119212747295
 30
0.0
 10
93.6904670570955
 20
154.9119212747295
 30
0.0
 10
93.6904670570955
 20
154.9119212747295
 30
0.0
 10
93.6904670570955
 20
154.9119212747295
 30
0.0
 10
94.81598049462158
 20
158.3616699146644
 30
0.0
 10
94.81598049462158
 20
158.3616699146644
 30
0.0
 10
95.7237637538445
 20
161.2605474231013
 30
0.0
 10
96.4968436907311
 20
162.8139420021662
 30
0.0
 10
97.15657991138076
 20
163.9844139654337
 30
0.0
 10
97.81183750494507
 20
165.1523021053827
 30
0.0
 10
99.1047826935081
 20
166.3084769129547
 30
0.0
 10
100.4504378777679
 20
166.69157178364
 30
0.0
  0
HATCH
  5
1DA3
330
1DA0
100
AcDbEntity
  8
TFORMLOGO
 62
   250
420
  2234388
100
AcDbHatch
 10
0.0
 20
0.0
 30
0.0
210
0.0
220
0.0
230
1.0
  2
SOLID
 70
     1
 71
     0
 91
        1
 92
        1
 93
        1
 72
     4
 94
        3
 73
     0
 74
     1
 95
       56
 96
       52
 40
0.0
 40
0.0
 40
0.0
 40
0.0
 40
1.0
 40
1.0
 40
1.0
 40
2.0
 40
2.0
 40
2.0
 40
3.0
 40
3.0
 40
3.0
 40
4.0
 40
4.0
 40
4.0
 40
5.0
 40
5.0
 40
5.0
 40
6.0
 40
6.0
 40
6.0
 40
7.0
 40
7.0
 40
7.0
 40
8.0
 40
8.0
 40
8.0
 40
9.0
 40
9.0
 40
9.0
 40
10.0
 40
10.0
 40
10.0
 40
11.0
 40
11.0
 40
11.0
 40
12.0
 40
12.0
 40
12.0
 40
13.0
 40
13.0
 40
13.0
 40
14.0
 40
14.0
 40
14.0
 40
15.0
 40
15.0
 40
15.0
 40
16.0
 40
16.0
 40
16.0
 40
17.0
 40
17.0
 40
17.0
 40
17.0
 10
100.4504378777679
 20
166.69157178364
 10
101.9848844191641
 20
167.1313385124438
 10
103.9637485713373
 20
166.7649523658846
 10
103.9637485713373
 20
166.7649523658846
 10
103.9637485713373
 20
166.7649523658846
 10
103.0132460999156
 20
163.911205638077
 10
103.0132460999156
 20
163.911205638077
 10
103.0132460999156
 20
163.911205638077
 10
101.0674548862189
 20
164.3601018759394
 10
99.57090442016032
 20
163.1805004036133
 10
98.40508333886608
 20
162.258247733807
 10
97.65301849830304
 20
159.804132345923
 10
97.3598406791005
 20
158.8699940888517
 10
97.3598406791005
 20
158.8699940888517
 10
96.07137411762282
 20
154.9119212747295
 10
96.07137411762282
 20
154.9119212747295
 10
96.07137411762282
 20
154.9119212747295
 10
100.3012651448482
 20
154.9119212747295
 10
100.3012651448482
 20
154.9119212747295
 10
100.3012651448482
 20
154.9119212747295
 10
99.64152892419852
 20
152.4199098115079
 10
99.64152892419852
 20
152.4199098115079
 10
99.64152892419852
 20
152.4199098115079
 10
95.38097652692731
 20
152.4199098115079
 10
95.38097652692731
 20
152.4199098115079
 10
95.38097652692731
 20
152.4199098115079
 10
87.75353009080013
 20
127.8027915271048
 10
87.75353009080013
 20
127.8027915271048
 10
87.75353009080013
 20
127.8027915271048
 10
85.36538832498108
 20
127.8027915271048
 10
85.36538832498108
 20
127.8027915271048
 10
85.36538832498108
 20
127.8027915271048
 10
93.00006946639998
 20
152.4199098115079
 10
93.00006946639998
 20
152.4199098115079
 10
93.00006946639998
 20
152.4199098115079
 10
89.85297266450198
 20
152.4199098115079
 10
89.85297266450198
 20
152.4199098115079
 10
89.85297266450198
 20
152.4199098115079
 10
90.51270888515164
 20
154.9119212747295
 10
90.51270888515164
 20
154.9119212747295
 10
90.51270888515164
 20
154.9119212747295
 10
93.6904670570955
 20
154.9119212747295
 10
93.6904670570955
 20
154.9119212747295
 10
93.6904670570955
 20
154.9119212747295
 10
94.81598049462158
 20
158.3616699146644
 10
94.81598049462158
 20
158.3616699146644
 10
95.7237637538445
 20
161.2605474231013
 10
96.4968436907311
 20
162.8139420021662
 10
97.15657991138076
 20
163.9844139654337
 10
97.81183750494507
 20
165.1523021053827
 10
99.1047826935081
 20
166.3084769129547
 10
100.4504378777679
 20
166.69157178364
 97
        0
 75
     2
 76
     1
 98
        0
  0
SPLINE
  5
1DA4
330
1DA0
100
AcDbEntity
  8
TFORMLOGO
370
     0
100
AcDbSpline
210
0.0
220
0.0
230
1.0
 70
    11
 71
     3
 72
    38
 73
    34
 74
     0
 42
0.000000001
 43
0.0000000001
 40
0.0
 40
0.0
 40
0.0
 40
0.0
 40
1.0
 40
1.0
 40
1.0
 40
2.0
 40
2.0
 40
2.0
 40
3.0
 40
3.0
 40
3.0
 40
4.0
 40
4.0
 40
4.0
 40
5.0
 40
5.0
 40
5.0
 40
6.0
 40
6.0
 40
6.0
 40
7.0
 40
7.0
 40
7.0
 40
8.0
 40
8.0
 40
8.0
 40
9.0
 40
9.0
 40
9.0
 40
10.0
 40
10.0
 40
10.0
 40
11.0
 40
11.0
 40
11.0
 40
11.0
 10
126.377554584636
 20
154.8151140277308
 30
0.0
 10
126.377554584636
 20
154.8151140277308
 30
0.0
 10
128.8311532078563
 20
154.8151140277308
 30
0.0
 10
128.8311532078563
 20
154.8151140277308
 30
0.0
 10
128.8311532078563
 20
154.8151140277308
 30
0.0
 10
127.7345785914971
 20
151.3062819612468
 30
0.0
 10
127.7345785914971
 20
151.3062819612468
 30
0.0
 10
128.571392836906
 20
152.2922689395754
 30
0.0
 10
129.8860421413442
 20
153.604506675583
 30
0.0
 10
131.0163787157314
 20
154.2664822097754
 30
0.0
 10
132.7044766171327
 20
155.2500576196734
 30
0.0
 10
133.6642808525008
 20
155.3847609420097
 30
0.0
 10
134.7284715499351
 20
155.3565111403944
 30
0.0
 10
134.7284715499351
 20
155.3565111403944
 30
0.0
 10
133.6877075172549
 20
152.0345756272799
 30
0.0
 10
133.6877075172549
 20
152.0345756272799
 30
0.0
 10
133.011434827367
 20
152.3184516825359
 30
0.0
 10
130.930940291334
 20
151.7768823149844
 30
0.0
 10
129.739280976855
 20
150.9162968950455
 30
0.0
 10
128.66613302525
 20
150.1454562717016
 30
0.0
 10
127.9192358313239
 20
149.4857200510519
 30
0.0
 10
127.0393578639405
 20
147.8282835196966
 30
0.0
 10
126.164647543194
 20
146.1699857139017
 30
0.0
 10
125.4742499524985
 20
143.5262176944419
 30
0.0
 10
124.2822461282437
 20
139.6959580071401
 30
0.0
 10
124.2822461282437
 20
139.6959580071401
 30
0.0
 10
120.5753209406769
 20
127.8027915271048
 30
0.0
 10
120.5753209406769
 20
127.8027915271048
 30
0.0
 10
120.5753209406769
 20
127.8027915271048
 30
0.0
 10
118.1964809388044
 20
127.8027915271048
 30
0.0
 10
118.1964809388044
 20
127.8027915271048
 30
0.0
 10
118.1964809388044
 20
127.8027915271048
 30
0.0
 10
126.377554584636
 20
154.8151140277308
 30
0.0
 10
126.377554584636
 20
154.8151140277308
 30
0.0
  0
HATCH
  5
1DA5
330
1DA0
100
AcDbEntity
  8
TFORMLOGO
 62
   250
420
  2234388
100
AcDbHatch
 10
0.0
 20
0.0
 30
0.0
210
0.0
220
0.0
230
1.0
  2
SOLID
 70
     1
 71
     0
 91
        1
 92
        1
 93
        1
 72
     4
 94
        3
 73
     0
 74
     1
 95
       38
 96
       34
 40
0.0
 40
0.0
 40
0.0
 40
0.0
 40
1.0
 40
1.0
 40
1.0
 40
2.0
 40
2.0
 40
2.0
 40
3.0
 40
3.0
 40
3.0
 40
4.0
 40
4.0
 40
4.0
 40
5.0
 40
5.0
 40
5.0
 40
6.0
 40
6.0
 40
6.0
 40
7.0
 40
7.0
 40
7.0
 40
8.0
 40
8.0
 40
8.0
 40
9.0
 40
9.0
 40
9.0
 40
10.0
 40
10.0
 40
10.0
 40
11.0
 40
11.0
 40
11.0
 40
11.0
 10
126.377554584636
 20
154.8151140277308
 10
126.377554584636
 20
154.8151140277308
 10
128.8311532078563
 20
154.8151140277308
 10
128.8311532078563
 20
154.8151140277308
 10
128.8311532078563
 20
154.8151140277308
 10
127.7345785914971
 20
151.3062819612468
 10
127.7345785914971
 20
151.3062819612468
 10
128.571392836906
 20
152.2922689395754
 10
129.8860421413442
 20
153.604506675583
 10
131.0163787157314
 20
154.2664822097754
 10
132.7044766171327
 20
155.2500576196734
 10
133.6642808525008
 20
155.3847609420097
 10
134.7284715499351
 20
155.3565111403944
 10
134.7284715499351
 20
155.3565111403944
 10
133.6877075172549
 20
152.0345756272799
 10
133.6877075172549
 20
152.0345756272799
 10
133.011434827367
 20
152.3184516825359
 10
130.930940291334
 20
151.7768823149844
 10
129.739280976855
 20
150.9162968950455
 10
128.66613302525
 20
150.1454562717016
 10
127.9192358313239
 20
149.4857200510519
 10
127.0393578639405
 20
147.8282835196966
 10
126.164647543194
 20
146.1699857139017
 10
125.4742499524985
 20
143.5262176944419
 10
124.2822461282437
 20
139.6959580071401
 10
124.2822461282437
 20
139.6959580071401
 10
120.5753209406769
 20
127.8027915271048
 10
120.5753209406769
 20
127.8027915271048
 10
120.5753209406769
 20
127.8027915271048
 10
118.1964809388044
 20
127.8027915271048
 10
118.1964809388044
 20
127.8027915271048
 10
118.1964809388044
 20
127.8027915271048
 10
126.377554584636
 20
154.8151140277308
 10
126.377554584636
 20
154.8151140277308
 97
        0
 75
     2
 76
     1
 98
        0
  0
SPLINE
  5
1DA6
330
1DA0
100
AcDbEntity
  8
TFORMLOGO
370
     0
100
AcDbSpline
210
0.0
220
0.0
230
1.0
 70
    11
 71
     3
 72
   104
 73
   100
 74
     0
 42
0.000000001
 43
0.0000000001
 40
0.0
 40
0.0
 40
0.0
 40
0.0
 40
1.0
 40
1.0
 40
1.0
 40
2.0
 40
2.0
 40
2.0
 40
3.0
 40
3.0
 40
3.0
 40
4.0
 40
4.0
 40
4.0
 40
5.0
 40
5.0
 40
5.0
 40
6.0
 40
6.0
 40
6.0
 40
7.0
 40
7.0
 40
7.0
 40
8.0
 40
8.0
 40
8.0
 40
9.0
 40
9.0
 40
9.0
 40
10.0
 40
10.0
 40
10.0
 40
11.0
 40
11.0
 40
11.0
 40
12.0
 40
12.0
 40
12.0
 40
13.0
 40
13.0
 40
13.0
 40
14.0
 40
14.0
 40
14.0
 40
15.0
 40
15.0
 40
15.0
 40
16.0
 40
16.0
 40
16.0
 40
17.0
 40
17.0
 40
17.0
 40
18.0
 40
18.0
 40
18.0
 40
19.0
 40
19.0
 40
19.0
 40
20.0
 40
20.0
 40
20.0
 40
21.0
 40
21.0
 40
21.0
 40
22.0
 40
22.0
 40
22.0
 40
23.0
 40
23.0
 40
23.0
 40
24.0
 40
24.0
 40
24.0
 40
25.0
 40
25.0
 40
25.0
 40
26.0
 40
26.0
 40
26.0
 40
27.0
 40
27.0
 40
27.0
 40
28.0
 40
28.0
 40
28.0
 40
29.0
 40
29.0
 40
29.0
 40
30.0
 40
30.0
 40
30.0
 40
31.0
 40
31.0
 40
31.0
 40
32.0
 40
32.0
 40
32.0
 40
33.0
 40
33.0
 40
33.0
 40
33.0
 10
139.8926730891197
 20
154.8294111834263
 30
0.0
 10
139.8926730891197
 20
154.8294111834263
 30
0.0
 10
142.0344903652445
 20
154.8294111834263
 30
0.0
 10
142.0344903652445
 20
154.8294111834263
 30
0.0
 10
142.0344903652445
 20
154.8294111834263
 30
0.0
 10
140.9516961399171
 20
151.3157559800812
 30
0.0
 10
140.9516961399171
 20
151.3157559800812
 30
0.0
 10
141.8928968473923
 20
152.7887075264977
 30
0.0
 10
142.7341897198865
 20
153.4484437471474
 30
0.0
 10
143.8552245303272
 20
154.2926649527359
 30
0.0
 10
144.9803934580775
 20
155.1296514530327
 30
0.0
 10
146.3139908001845
 20
155.3044901642492
 30
0.0
 10
147.241066606852
 20
155.3044901642492
 30
0.0
 10
148.3855280820469
 20
155.3044901642492
 30
0.0
 10
149.4969166187653
 20
155.0752189084569
 30
0.0
 10
150.0784491203092
 20
153.8172414621372
 30
0.0
 10
150.5228667310863
 20
152.833838307127
 30
0.0
 10
150.5414702589793
 20
152.7201500811143
 30
0.0
 10
150.4140016419347
 20
150.7765981809602
 30
0.0
 10
151.5818897818837
 20
152.7699317437168
 30
0.0
 10
152.4424752018226
 20
153.6256940267945
 30
0.0
 10
153.9038856707499
 20
154.4507949398263
 30
0.0
 10
155.4455669174378
 20
155.3044901642492
 30
0.0
 10
156.339225275853
 20
155.3659851592288
 30
0.0
 10
157.3748216618963
 20
155.2147453676543
 30
0.0
 10
158.911679771723
 20
154.9877134254046
 30
0.0
 10
159.8859534176746
 20
154.4390816074493
 30
0.0
 10
160.3965169054045
 20
152.7816450760939
 30
0.0
 10
160.9070803931344
 20
151.1219692311958
 30
0.0
 10
160.6328506116007
 20
150.2303779314354
 30
0.0
 10
159.9992971339115
 20
147.597634224801
 30
0.0
 10
159.7105979417943
 20
146.4014962832367
 30
0.0
 10
159.2947746424084
 20
144.9400858143094
 30
0.0
 10
158.7463150793409
 20
143.2092687007094
 30
0.0
 10
158.7463150793409
 20
143.2092687007094
 30
0.0
 10
153.9038856707499
 20
127.8027915271048
 30
0.0
 10
153.9038856707499
 20
127.8027915271048
 30
0.0
 10
153.9038856707499
 20
127.8027915271048
 30
0.0
 10
151.3882752878863
 20
127.8027915271048
 30
0.0
 10
151.3882752878863
 20
127.8027915271048
 30
0.0
 10
151.3882752878863
 20
127.8027915271048
 30
0.0
 10
155.6250565106276
 20
141.2751908193897
 30
0.0
 10
155.6250565106276
 20
141.2751908193897
 30
0.0
 10
156.5094131050963
 20
144.0936252951782
 30
0.0
 10
157.109893644309
 20
146.1506931664571
 30
0.0
 10
157.4220195011804
 20
147.4415712963654
 30
0.0
 10
157.8095929989511
 20
149.0530157726519
 30
0.0
 10
157.9656559273867
 20
149.5826995529385
 30
0.0
 10
157.7816877071116
 20
150.7529992613181
 30
0.0
 10
157.6111553680925
 20
151.8430281919372
 30
0.0
 10
157.0582171779396
 20
152.5547853887321
 30
0.0
 10
156.1170164704645
 20
152.5547853887321
 30
0.0
 10
155.1096698860365
 20
152.5547853887321
 30
0.0
 10
154.2962823053817
 20
152.4412694176073
 30
0.0
 10
153.156643967048
 20
151.2945686288697
 30
0.0
 10
152.0170056287143
 20
150.1476955852443
 30
0.0
 10
151.076149431015
 20
148.7930831468137
 30
0.0
 10
150.3337308641742
 20
147.2290087646991
 30
0.0
 10
149.5957909244188
 20
145.6683794803425
 30
0.0
 10
148.8530278478023
 20
143.6822806228776
 30
0.0
 10
148.0964843801539
 20
141.2751908193897
 30
0.0
 10
148.0964843801539
 20
141.2751908193897
 30
0.0
 10
143.8552245303272
 20
127.8027915271048
 30
0.0
 10
143.8552245303272
 20
127.8027915271048
 30
0.0
 10
143.8552245303272
 20
127.8027915271048
 30
0.0
 10
141.486030802177
 20
127.8027915271048
 30
0.0
 10
141.486030802177
 20
127.8027915271048
 30
0.0
 10
141.486030802177
 20
127.8027915271048
 30
0.0
 10
146.3329388378533
 20
143.2092687007094
 30
0.0
 10
146.3329388378533
 20
143.2092687007094
 30
0.0
 10
146.8483254624444
 20
144.8408669988801
 30
0.0
 10
147.2314203331297
 20
146.1837661049335
 30
0.0
 10
147.4867020769946
 20
147.224185627838
 30
0.0
 10
147.9169947869641
 20
149.0197705792876
 30
0.0
 10
148.0306830129768
 20
150.2400242051577
 30
0.0
 10
147.709255392159
 20
151.3157559800812
 30
0.0
 10
147.3874832615654
 20
152.3916600098926
 30
0.0
 10
146.8245542879144
 20
152.6683013598569
 30
0.0
 10
145.8840425999909
 20
152.6683013598569
 30
0.0
 10
145.0989048209514
 20
152.6683013598569
 30
0.0
 10
144.3282364524954
 20
152.3275811915945
 30
0.0
 10
143.4531816219731
 20
151.6538923250251
 30
0.0
 10
142.34627171234
 20
150.8074318058939
 30
0.0
 10
141.901854101563
 20
150.1097995099067
 30
0.0
 10
141.3578731655808
 20
149.289521733736
 30
0.0
 10
140.6299240093235
 20
148.192602607601
 30
0.0
 10
140.2850697237515
 20
147.455696197173
 30
0.0
 10
139.6652966370942
 20
145.8385673095858
 30
0.0
 10
139.0506911970739
 20
144.2214384219986
 30
0.0
 10
138.463991048893
 20
142.3252566160164
 30
0.0
 10
138.0571250036777
 20
141.0154304484394
 30
0.0
 10
138.0571250036777
 20
141.0154304484394
 30
0.0
 10
133.9009590684727
 20
127.8027915271048
 30
0.0
 10
133.9009590684727
 20
127.8027915271048
 30
0.0
 10
133.9009590684727
 20
127.8027915271048
 30
0.0
 10
131.4180771143097
 20
127.8027915271048
 30
0.0
 10
131.4180771143097
 20
127.8027915271048
 30
0.0
 10
131.4180771143097
 20
127.8027915271048
 30
0.0
 10
139.8926730891197
 20
154.8294111834263
 30
0.0
 10
139.8926730891197
 20
154.8294111834263
 30
0.0
  0
HATCH
  5
1DA7
330
1DA0
100
AcDbEntity
  8
TFORMLOGO
 62
   250
420
  2234388
100
AcDbHatch
 10
0.0
 20
0.0
 30
0.0
210
0.0
220
0.0
230
1.0
  2
SOLID
 70
     1
 71
     0
 91
        1
 92
        1
 93
        1
 72
     4
 94
        3
 73
     0
 74
     1
 95
      104
 96
      100
 40
0.0
 40
0.0
 40
0.0
 40
0.0
 40
1.0
 40
1.0
 40
1.0
 40
2.0
 40
2.0
 40
2.0
 40
3.0
 40
3.0
 40
3.0
 40
4.0
 40
4.0
 40
4.0
 40
5.0
 40
5.0
 40
5.0
 40
6.0
 40
6.0
 40
6.0
 40
7.0
 40
7.0
 40
7.0
 40
8.0
 40
8.0
 40
8.0
 40
9.0
 40
9.0
 40
9.0
 40
10.0
 40
10.0
 40
10.0
 40
11.0
 40
11.0
 40
11.0
 40
12.0
 40
12.0
 40
12.0
 40
13.0
 40
13.0
 40
13.0
 40
14.0
 40
14.0
 40
14.0
 40
15.0
 40
15.0
 40
15.0
 40
16.0
 40
16.0
 40
16.0
 40
17.0
 40
17.0
 40
17.0
 40
18.0
 40
18.0
 40
18.0
 40
19.0
 40
19.0
 40
19.0
 40
20.0
 40
20.0
 40
20.0
 40
21.0
 40
21.0
 40
21.0
 40
22.0
 40
22.0
 40
22.0
 40
23.0
 40
23.0
 40
23.0
 40
24.0
 40
24.0
 40
24.0
 40
25.0
 40
25.0
 40
25.0
 40
26.0
 40
26.0
 40
26.0
 40
27.0
 40
27.0
 40
27.0
 40
28.0
 40
28.0
 40
28.0
 40
29.0
 40
29.0
 40
29.0
 40
30.0
 40
30.0
 40
30.0
 40
31.0
 40
31.0
 40
31.0
 40
32.0
 40
32.0
 40
32.0
 40
33.0
 40
33.0
 40
33.0
 40
33.0
 10
139.8926730891197
 20
154.8294111834263
 10
139.8926730891197
 20
154.8294111834263
 10
142.0344903652445
 20
154.8294111834263
 10
142.0344903652445
 20
154.8294111834263
 10
142.0344903652445
 20
154.8294111834263
 10
140.9516961399171
 20
151.3157559800812
 10
140.9516961399171
 20
151.3157559800812
 10
141.8928968473923
 20
152.7887075264977
 10
142.7341897198865
 20
153.4484437471474
 10
143.8552245303272
 20
154.2926649527359
 10
144.9803934580775
 20
155.1296514530327
 10
146.3139908001845
 20
155.3044901642492
 10
147.241066606852
 20
155.3044901642492
 10
148.3855280820469
 20
155.3044901642492
 10
149.4969166187653
 20
155.0752189084569
 10
150.0784491203092
 20
153.8172414621372
 10
150.5228667310863
 20
152.833838307127
 10
150.5414702589793
 20
152.7201500811143
 10
150.4140016419347
 20
150.7765981809602
 10
151.5818897818837
 20
152.7699317437168
 10
152.4424752018226
 20
153.6256940267945
 10
153.9038856707499
 20
154.4507949398263
 10
155.4455669174378
 20
155.3044901642492
 10
156.339225275853
 20
155.3659851592288
 10
157.3748216618963
 20
155.2147453676543
 10
158.911679771723
 20
154.9877134254046
 10
159.8859534176746
 20
154.4390816074493
 10
160.3965169054045
 20
152.7816450760939
 10
160.9070803931344
 20
151.1219692311958
 10
160.6328506116007
 20
150.2303779314354
 10
159.9992971339115
 20
147.597634224801
 10
159.7105979417943
 20
146.4014962832367
 10
159.2947746424084
 20
144.9400858143094
 10
158.7463150793409
 20
143.2092687007094
 10
158.7463150793409
 20
143.2092687007094
 10
153.9038856707499
 20
127.8027915271048
 10
153.9038856707499
 20
127.8027915271048
 10
153.9038856707499
 20
127.8027915271048
 10
151.3882752878863
 20
127.8027915271048
 10
151.3882752878863
 20
127.8027915271048
 10
151.3882752878863
 20
127.8027915271048
 10
155.6250565106276
 20
141.2751908193897
 10
155.6250565106276
 20
141.2751908193897
 10
156.5094131050963
 20
144.0936252951782
 10
157.109893644309
 20
146.1506931664571
 10
157.4220195011804
 20
147.4415712963654
 10
157.8095929989511
 20
149.0530157726519
 10
157.9656559273867
 20
149.5826995529385
 10
157.7816877071116
 20
150.7529992613181
 10
157.6111553680925
 20
151.8430281919372
 10
157.0582171779396
 20
152.5547853887321
 10
156.1170164704645
 20
152.5547853887321
 10
155.1096698860365
 20
152.5547853887321
 10
154.2962823053817
 20
152.4412694176073
 10
153.156643967048
 20
151.2945686288697
 10
152.0170056287143
 20
150.1476955852443
 10
151.076149431015
 20
148.7930831468137
 10
150.3337308641742
 20
147.2290087646991
 10
149.5957909244188
 20
145.6683794803425
 10
148.8530278478023
 20
143.6822806228776
 10
148.0964843801539
 20
141.2751908193897
 10
148.0964843801539
 20
141.2751908193897
 10
143.8552245303272
 20
127.8027915271048
 10
143.8552245303272
 20
127.8027915271048
 10
143.8552245303272
 20
127.8027915271048
 10
141.486030802177
 20
127.8027915271048
 10
141.486030802177
 20
127.8027915271048
 10
141.486030802177
 20
127.8027915271048
 10
146.3329388378533
 20
143.2092687007094
 10
146.3329388378533
 20
143.2092687007094
 10
146.8483254624444
 20
144.8408669988801
 10
147.2314203331297
 20
146.1837661049335
 10
147.4867020769946
 20
147.224185627838
 10
147.9169947869641
 20
149.0197705792876
 10
148.0306830129768
 20
150.2400242051577
 10
147.709255392159
 20
151.3157559800812
 10
147.3874832615654
 20
152.3916600098926
 10
146.8245542879144
 20
152.6683013598569
 10
145.8840425999909
 20
152.6683013598569
 10
145.0989048209514
 20
152.6683013598569
 10
144.3282364524954
 20
152.3275811915945
 10
143.4531816219731
 20
151.6538923250251
 10
142.34627171234
 20
150.8074318058939
 10
141.901854101563
 20
150.1097995099067
 10
141.3578731655808
 20
149.289521733736
 10
140.6299240093235
 20
148.192602607601
 10
140.2850697237515
 20
147.455696197173
 10
139.6652966370942
 20
145.8385673095858
 10
139.0506911970739
 20
144.2214384219986
 10
138.463991048893
 20
142.3252566160164
 10
138.0571250036777
 20
141.0154304484394
 10
138.0571250036777
 20
141.0154304484394
 10
133.9009590684727
 20
127.8027915271048
 10
133.9009590684727
 20
127.8027915271048
 10
133.9009590684727
 20
127.8027915271048
 10
131.4180771143097
 20
127.8027915271048
 10
131.4180771143097
 20
127.8027915271048
 10
131.4180771143097
 20
127.8027915271048
 10
139.8926730891197
 20
154.8294111834263
 10
139.8926730891197
 20
154.8294111834263
 97
        0
 75
     2
 76
     1
 98
        0
  0
SPLINE
  5
1DA8
330
1DA0
100
AcDbEntity
  8
TFORMLOGO
370
     0
100
AcDbSpline
210
0.0
220
0.0
230
1.0
 70
    11
 71
     3
 72
    29
 73
    25
 74
     0
 42
0.000000001
 43
0.0000000001
 40
0.0
 40
0.0
 40
0.0
 40
0.0
 40
1.0
 40
1.0
 40
1.0
 40
2.0
 40
2.0
 40
2.0
 40
3.0
 40
3.0
 40
3.0
 40
4.0
 40
4.0
 40
4.0
 40
5.0
 40
5.0
 40
5.0
 40
6.0
 40
6.0
 40
6.0
 40
7.0
 40
7.0
 40
7.0
 40
8.0
 40
8.0
 40
8.0
 40
8.0
 10
101.6420971922469
 20
132.8388354296931
 30
0.0
 10
101.630039350094
 20
134.7164137077823
 30
0.0
 10
102.2236296937908
 20
138.0598810818841
 30
0.0
 10
103.7487744712405
 20
142.5378191476827
 30
0.0
 10
105.819967243327
 20
148.5896501242061
 30
0.0
 10
107.0602024361932
 20
150.8074318058939
 30
0.0
 10
108.1522984254671
 20
151.8833358357054
 30
0.0
 10
109.741177511439
 20
153.4532668840085
 30
0.0
 10
111.8740375333931
 20
153.5290590346837
 30
0.0
 10
112.5075910110823
 20
153.4532668840085
 30
0.0
 10
113.4012493694975
 20
153.3490526768302
 30
0.0
 10
114.6683563248758
 20
152.7580461564518
 30
0.0
 10
114.7493161221879
 20
150.7838328862519
 30
0.0
 10
114.8106388622796
 20
149.0909118479895
 30
0.0
 10
114.3186789024427
 20
145.9191825971221
 30
0.0
 10
112.6164561002338
 20
140.9489400617108
 30
0.0
 10
110.6444821435766
 20
135.1746117095912
 30
0.0
 10
109.4669477299053
 20
132.8960240524753
 30
0.0
 10
108.5212683953448
 20
131.9072809959403
 30
0.0
 10
106.7346406980658
 20
130.0538184021569
 30
0.0
 10
104.8222669326213
 20
130.2336525051225
 30
0.0
 10
104.5408024457958
 20
130.2336525051225
 30
0.0
 10
104.1721769856939
 20
130.2336525051225
 30
0.0
 10
101.6465758193322
 20
130.6305277668397
 30
0.0
 10
101.6420971922469
 20
132.8388354296931
 30
0.0
  0
SPLINE
  5
1DA9
330
1DA0
100
AcDbEntity
  8
TFORMLOGO
370
     0
100
AcDbSpline
210
0.0
220
0.0
230
1.0
 70
    11
 71
     3
 72
    32
 73
    28
 74
     0
 42
0.000000001
 43
0.0000000001
 40
0.0
 40
0.0
 40
0.0
 40
0.0
 40
1.0
 40
1.0
 40
1.0
 40
2.0
 40
2.0
 40
2.0
 40
3.0
 40
3.0
 40
3.0
 40
4.0
 40
4.0
 40
4.0
 40
5.0
 40
5.0
 40
5.0
 40
6.0
 40
6.0
 40
6.0
 40
7.0
 40
7.0
 40
7.0
 40
8.0
 40
8.0
 40
8.0
 40
9.0
 40
9.0
 40
9.0
 40
9.0
 10
106.2595617172429
 20
153.4105476718098
 30
0.0
 10
104.8222669326213
 20
151.5474388043041
 30
0.0
 10
103.7177685914188
 20
149.8758773721411
 30
0.0
 10
101.9232171692965
 20
144.6141795664062
 30
0.0
 10
100.2754269116635
 20
139.7999999594306
 30
0.0
 10
99.22777268346732
 20
136.3052927937542
 30
0.0
 10
99.06964269637689
 20
132.039572749846
 30
0.0
 10
98.94665270641765
 20
128.8673267343149
 30
0.0
 10
100.8807305877373
 20
127.8027915271048
 30
0.0
 10
103.7129454545577
 20
127.8027915271048
 30
0.0
 10
104.9352661390825
 20
127.8027915271048
 30
0.0
 10
108.0151835347002
 20
127.8827177950895
 30
0.0
 10
110.2045431598849
 20
130.5926316915021
 30
0.0
 10
111.7417457794874
 20
132.4984597712065
 30
0.0
 10
113.155269389579
 20
134.475256864725
 30
0.0
 10
115.0562743324223
 20
140.9489400617108
 30
0.0
 10
116.6361961642235
 20
146.3680788349845
 30
0.0
 10
117.7282921534974
 20
149.8639917848761
 30
0.0
 10
117.6480213757369
 20
151.8595646611754
 30
0.0
 10
117.6480213757369
 20
151.8595646611754
 30
0.0
 10
117.6480213757369
 20
151.8595646611754
 30
0.0
 10
117.6480213757369
 20
151.8595646611754
 30
0.0
 10
117.13229024137
 20
155.18150017429
 30
0.0
 10
114.7162431837115
 20
155.886194920681
 30
0.0
 10
113.3351034925446
 20
155.886194920681
 30
0.0
 10
111.9829026225447
 20
155.886194920681
 30
0.0
 10
108.3414342923792
 20
156.1251124501957
 30
0.0
 10
106.2595617172429
 20
153.4105476718098
 30
0.0
  0
HATCH
  5
1DAA
330
1DA0
100
AcDbEntity
  8
TFORMLOGO
 62
   250
420
  2234388
100
AcDbHatch
 10
0.0
 20
0.0
 30
0.0
210
0.0
220
0.0
230
1.0
  2
SOLID
 70
     1
 71
     0
 91
        2
 92
        1
 93
        1
 72
     4
 94
        3
 73
     0
 74
     1
 95
       29
 96
       25
 40
0.0
 40
0.0
 40
0.0
 40
0.0
 40
1.0
 40
1.0
 40
1.0
 40
2.0
 40
2.0
 40
2.0
 40
3.0
 40
3.0
 40
3.0
 40
4.0
 40
4.0
 40
4.0
 40
5.0
 40
5.0
 40
5.0
 40
6.0
 40
6.0
 40
6.0
 40
7.0
 40
7.0
 40
7.0
 40
8.0
 40
8.0
 40
8.0
 40
8.0
 10
101.6420971922469
 20
132.8388354296931
 10
101.630039350094
 20
134.7164137077823
 10
102.2236296937908
 20
138.0598810818841
 10
103.7487744712405
 20
142.5378191476827
 10
105.819967243327
 20
148.5896501242061
 10
107.0602024361932
 20
150.8074318058939
 10
108.1522984254671
 20
151.8833358357054
 10
109.741177511439
 20
153.4532668840085
 10
111.8740375333931
 20
153.5290590346837
 10
112.5075910110823
 20
153.4532668840085
 10
113.4012493694975
 20
153.3490526768302
 10
114.6683563248758
 20
152.7580461564518
 10
114.7493161221879
 20
150.7838328862519
 10
114.8106388622796
 20
149.0909118479895
 10
114.3186789024427
 20
145.9191825971221
 10
112.6164561002338
 20
140.9489400617108
 10
110.6444821435766
 20
135.1746117095912
 10
109.4669477299053
 20
132.8960240524753
 10
108.5212683953448
 20
131.9072809959403
 10
106.7346406980658
 20
130.0538184021569
 10
104.8222669326213
 20
130.2336525051225
 10
104.5408024457958
 20
130.2336525051225
 10
104.1721769856939
 20
130.2336525051225
 10
101.6465758193322
 20
130.6305277668397
 10
101.6420971922469
 20
132.8388354296931
 97
        0
 92
        1
 93
        1
 72
     4
 94
        3
 73
     0
 74
     1
 95
       32
 96
       28
 40
0.0
 40
0.0
 40
0.0
 40
0.0
 40
1.0
 40
1.0
 40
1.0
 40
2.0
 40
2.0
 40
2.0
 40
3.0
 40
3.0
 40
3.0
 40
4.0
 40
4.0
 40
4.0
 40
5.0
 40
5.0
 40
5.0
 40
6.0
 40
6.0
 40
6.0
 40
7.0
 40
7.0
 40
7.0
 40
8.0
 40
8.0
 40
8.0
 40
9.0
 40
9.0
 40
9.0
 40
9.0
 10
106.2595617172429
 20
153.4105476718098
 10
104.8222669326213
 20
151.5474388043041
 10
103.7177685914188
 20
149.8758773721411
 10
101.9232171692965
 20
144.6141795664062
 10
100.2754269116635
 20
139.7999999594306
 10
99.22777268346732
 20
136.3052927937542
 10
99.06964269637689
 20
132.039572749846
 10
98.94665270641765
 20
128.8673267343149
 10
100.8807305877373
 20
127.8027915271048
 10
103.7129454545577
 20
127.8027915271048
 10
104.9352661390825
 20
127.8027915271048
 10
108.0151835347002
 20
127.8827177950895
 10
110.2045431598849
 20
130.5926316915021
 10
111.7417457794874
 20
132.4984597712065
 10
113.155269389579
 20
134.475256864725
 10
115.0562743324223
 20
140.9489400617108
 10
116.6361961642235
 20
146.3680788349845
 10
117.7282921534974
 20
149.8639917848761
 10
117.6480213757369
 20
151.8595646611754
 10
117.6480213757369
 20
151.8595646611754
 10
117.6480213757369
 20
151.8595646611754
 10
117.6480213757369
 20
151.8595646611754
 10
117.13229024137
 20
155.18150017429
 10
114.7162431837115
 20
155.886194920681
 10
113.3351034925446
 20
155.886194920681
 10
111.9829026225447
 20
155.886194920681
 10
108.3414342923792
 20
156.1251124501957
 10
106.2595617172429
 20
153.4105476718098
 97
        0
 75
     2
 76
     1
 98
        0
  0
ENDBLK
  5
1DAB
330
1DA0
100
AcDbEntity
  8
0
100
AcDbBlockEnd
  0
BLOCK
  5
37E0
330
37DF
100
AcDbEntity
  8
0
100
AcDbBlockBegin
  2
*D7
 70
     1
 10
0.0
 20
0.0
 30
0.0
  3
*D7
  1
*D156
  0
LINE
  5
37E2
330
37DF
100
AcDbEntity
  8
寸法
 62
     0
370
    -2
100
AcDbLine
 10
202.2957663671774
 20
349.3799946242279
 30
0.0
 11
200.389510035032
 21
349.3799946242279
 31
0.0
  0
LINE
  5
37E3
330
37DF
100
AcDbEntity
  8
寸法
 62
     0
370
    -2
100
AcDbLine
 10
202.2957663671774
 20
347.4048052429969
 30
0.0
 11
200.389510035032
 21
347.4048052429969
 31
0.0
  0
INSERT
  5
37E4
330
37DF
100
AcDbEntity
  8
寸法
 62
     0
370
    -2
100
AcDbBlockReference
  2
_DOT
 10
200.389510035032
 20
349.3799946242279
 30
0.0
 41
2.0
 42
2.0
 43
2.0
 50
90.0
  0
INSERT
  5
37E5
330
37DF
100
AcDbEntity
  8
寸法
 62
     0
370
    -2
100
AcDbBlockReference
  2
_DOT
 10
200.389510035032
 20
347.4048052429969
 30
0.0
 41
2.0
 42
2.0
 43
2.0
 50
270.0
  0
MTEXT
  5
37E6
330
37DF
100
AcDbEntity
  8
寸法
 62
     0
100
AcDbMText
 10
192.889510035032
 20
348.3923999336124
 30
0.0
 40
5.0
 41
0.0
 46
0.0
 71
     5
 72
     1
  1
\A1;2
  7
ＭＳ ゴシック
 11
0.0
 21
1.0
 31
0.0
 73
     1
 44
1.0
  0
POINT
  5
37E7
330
37DF
100
AcDbEntity
  8
Defpoints
 62
     0
100
AcDbPoint
 10
207.2957663671774
 20
349.3799946242279
 30
0.0
  0
POINT
  5
37E8
330
37DF
100
AcDbEntity
  8
Defpoints
 62
     0
100
AcDbPoint
 10
207.2957663671774
 20
347.4048052429969
 30
0.0
  0
POINT
  5
37E9
330
37DF
100
AcDbEntity
  8
Defpoints
 62
     0
100
AcDbPoint
 10
200.389510035032
 20
347.4048052429969
 30
0.0
  0
ENDBLK
  5
37E1
330
37DF
100
AcDbEntity
  8
0
100
AcDbBlockEnd
  0
BLOCK
  5
37EB
330
37EA
100
AcDbEntity
  8
0
100
AcDbBlockBegin
  2
*D8
 70
     1
 10
0.0
 20
0.0
 30
0.0
  3
*D8
  1
*D157
  0
LINE
  5
37ED
330
37EA
100
AcDbEntity
  8
寸法
 62
     0
370
    -2
100
AcDbLine
 10
315.5889840782232
 20
306.1991393259359
 30
0.0
 11
328.2278845989873
 21
306.1991393259359
 31
0.0
  0
LINE
  5
37EE
330
37EA
100
AcDbEntity
  8
寸法
 62
     0
370
    -2
100
AcDbLine
 10
315.7302330862998
 20
322.8504451560839
 30
0.0
 11
328.2278845989873
 21
322.8504451560839
 31
0.0
  0
LINE
  5
37EF
330
37EA
100
AcDbEntity
  8
寸法
 62
     0
370
    -2
100
AcDbLine
 10
328.2278845989873
 20
308.1991393259359
 30
0.0
 11
328.2278845989873
 21
320.8504451560839
 31
0.0
  0
INSERT
  5
37F0
330
37EA
100
AcDbEntity
  8
寸法
 62
     0
370
    -2
100
AcDbBlockReference
  2
_DOT
 10
328.2278845989873
 20
306.1991393259359
 30
0.0
 41
2.0
 42
2.0
 43
2.0
 50
270.0
  0
INSERT
  5
37F1
330
37EA
100
AcDbEntity
  8
寸法
 62
     0
370
    -2
100
AcDbBlockReference
  2
_DOT
 10
328.2278845989873
 20
322.8504451560839
 30
0.0
 41
2.0
 42
2.0
 43
2.0
 50
90.0
  0
MTEXT
  5
37F2
330
37EA
100
AcDbEntity
  8
寸法
 62
     0
100
AcDbMText
 10
320.7278845989873
 20
314.5247922410099
 30
0.0
 40
5.0
 41
0.0
 46
0.0
 71
     5
 72
     1
  1
\A1;17
  7
ＭＳ ゴシック
 11
0.0
 21
1.0
 31
0.0
 73
     1
 44
1.0
  0
POINT
  5
37F3
330
37EA
100
AcDbEntity
  8
Defpoints
 62
     0
100
AcDbPoint
 10
310.5889840782232
 20
306.1991393259359
 30
0.0
  0
POINT
  5
37F4
330
37EA
100
AcDbEntity
  8
Defpoints
 62
     0
100
AcDbPoint
 10
310.7302330862998
 20
322.8504451560839
 30
0.0
  0
POINT
  5
37F5
330
37EA
100
AcDbEntity
  8
Defpoints
 62
     0
100
AcDbPoint
 10
328.2278845989873
 20
322.8504451560839
 30
0.0
  0
ENDBLK
  5
37EC
330
37EA
100
AcDbEntity
  8
0
100
AcDbBlockEnd
  0
BLOCK
  5
37F7
330
37F6
100
AcDbEntity
  8
0
100
AcDbBlockBegin
  2
*D9
 70
     1
 10
0.0
 20
0.0
 30
0.0
  3
*D9
  1
*D158
  0
LINE
  5
37F9
330
37F6
100
AcDbEntity
  8
寸法
 62
     0
370
    -2
100
AcDbLine
 10
315.5889840782232
 20
306.1991393259359
 30
0.0
 11
349.1700500172429
 21
306.1991393259359
 31
0.0
  0
LINE
  5
37FA
330
37F6
100
AcDbEntity
  8
寸法
 62
     0
370
    -2
100
AcDbLine
 10
239.1066654855546
 20
349.3799946242279
 30
0.0
 11
349.1700500172429
 21
349.3799946242279
 31
0.0
  0
LINE
  5
37FB
330
37F6
100
AcDbEntity
  8
寸法
 62
     0
370
    -2
100
AcDbLine
 10
349.1700500172429
 20
308.1991393259359
 30
0.0
 11
349.1700500172429
 21
347.3799946242279
 31
0.0
  0
INSERT
  5
37FC
330
37F6
100
AcDbEntity
  8
寸法
 62
     0
370
    -2
100
AcDbBlockReference
  2
_DOT
 10
349.1700500172429
 20
306.1991393259359
 30
0.0
 41
2.0
 42
2.0
 43
2.0
 50
270.0
  0
INSERT
  5
37FD
330
37F6
100
AcDbEntity
  8
寸法
 62
     0
370
    -2
100
AcDbBlockReference
  2
_DOT
 10
349.1700500172429
 20
349.3799946242279
 30
0.0
 41
2.0
 42
2.0
 43
2.0
 50
90.0
  0
MTEXT
  5
37FE
330
37F6
100
AcDbEntity
  8
寸法
 62
     0
100
AcDbMText
 10
341.6700500172429
 20
327.7895669750819
 30
0.0
 40
5.0
 41
0.0
 46
0.0
 71
     5
 72
     1
  1
\A1;43
  7
ＭＳ ゴシック
 11
0.0
 21
1.0
 31
0.0
 73
     1
 44
1.0
  0
POINT
  5
37FF
330
37F6
100
AcDbEntity
  8
Defpoints
 62
     0
100
AcDbPoint
 10
310.5889840782232
 20
306.1991393259359
 30
0.0
  0
POINT
  5
3800
330
37F6
100
AcDbEntity
  8
Defpoints
 62
     0
100
AcDbPoint
 10
234.1066654855546
 20
349.3799946242279
 30
0.0
  0
POINT
  5
3801
330
37F6
100
AcDbEntity
  8
Defpoints
 62
     0
100
AcDbPoint
 10
349.1700500172429
 20
349.3799946242279
 30
0.0
  0
ENDBLK
  5
37F8
330
37F6
100
AcDbEntity
  8
0
100
AcDbBlockEnd
  0
BLOCK
  5
3803
330
3802
100
AcDbEntity
  8
0
100
AcDbBlockBegin
  2
*D10
 70
     1
 10
0.0
 20
0.0
 30
0.0
  3
*D10
  1
*D159
  0
LINE
  5
3805
330
3802
100
AcDbEntity
  8
寸法
 62
     0
370
    -2
100
AcDbLine
 10
311.4353297607628
 20
301.7641353582419
 30
0.0
 11
311.4353297607628
 21
289.5478334957879
 31
0.0
  0
LINE
  5
3806
330
3802
100
AcDbEntity
  8
寸法
 62
     0
370
    -2
100
AcDbLine
 10
214.633824591636
 20
301.1991393259359
 30
0.0
 11
214.633824591636
 21
289.5478334957879
 31
0.0
  0
LINE
  5
3807
330
3802
100
AcDbEntity
  8
寸法
 62
     0
370
    -2
100
AcDbLine
 10
309.4353297607628
 20
289.5478334957879
 30
0.0
 11
216.633824591636
 21
289.5478334957879
 31
0.0
  0
INSERT
  5
3808
330
3802
100
AcDbEntity
  8
寸法
 62
     0
370
    -2
100
AcDbBlockReference
  2
_DOT
 10
311.4353297607628
 20
289.5478334957879
 30
0.0
 41
2.0
 42
2.0
 43
2.0
  0
INSERT
  5
3809
330
3802
100
AcDbEntity
  8
寸法
 62
     0
370
    -2
100
AcDbBlockReference
  2
_DOT
 10
214.633824591636
 20
289.5478334957879
 30
0.0
 41
2.0
 42
2.0
 43
2.0
 50
180.0
  0
MTEXT
  5
380A
330
3802
100
AcDbEntity
  8
寸法
 62
     0
100
AcDbMText
 10
263.0345771761994
 20
297.0478334957879
 30
0.0
 40
5.0
 41
0.0
 46
0.0
 71
     5
 72
     1
  1
\A1;97
  7
ＭＳ ゴシック
 73
     1
 44
1.0
  0
POINT
  5
380B
330
3802
100
AcDbEntity
  8
Defpoints
 62
     0
100
AcDbPoint
 10
311.4353297607628
 20
306.7641353582419
 30
0.0
  0
POINT
  5
380C
330
3802
100
AcDbEntity
  8
Defpoints
 62
     0
100
AcDbPoint
 10
214.633824591636
 20
306.1991393259359
 30
0.0
  0
POINT
  5
380D
330
3802
100
AcDbEntity
  8
Defpoints
 62
     0
100
AcDbPoint
 10
214.633824591636
 20
289.5478334957879
 30
0.0
  0
ENDBLK
  5
3804
330
3802
100
AcDbEntity
  8
0
100
AcDbBlockEnd
  0
BLOCK
  5
380F
330
380E
100
AcDbEntity
  8
0
100
AcDbBlockBegin
  2
*D11
 70
     1
 10
0.0
 20
0.0
 30
0.0
  3
*D11
  1
*D160
  0
LINE
  5
3811
330
380E
100
AcDbEntity
  8
寸法
 62
     0
370
    -2
100
AcDbLine
 10
209.633824591636
 20
306.1991393259359
 30
0.0
 11
200.389510035032
 21
306.1991393259359
 31
0.0
  0
LINE
  5
3812
330
380E
100
AcDbEntity
  8
寸法
 62
     0
370
    -2
100
AcDbLine
 10
202.2957663671774
 20
347.4048052429969
 30
0.0
 11
200.389510035032
 21
347.4048052429969
 31
0.0
  0
LINE
  5
3813
330
380E
100
AcDbEntity
  8
寸法
 62
     0
370
    -2
100
AcDbLine
 10
200.389510035032
 20
308.1991393259359
 30
0.0
 11
200.389510035032
 21
345.4048052429969
 31
0.0
  0
INSERT
  5
3814
330
380E
100
AcDbEntity
  8
寸法
 62
     0
370
    -2
100
AcDbBlockReference
  2
_DOT
 10
200.389510035032
 20
306.1991393259359
 30
0.0
 41
2.0
 42
2.0
 43
2.0
 50
270.0
  0
INSERT
  5
3815
330
380E
100
AcDbEntity
  8
寸法
 62
     0
370
    -2
100
AcDbBlockReference
  2
_DOT
 10
200.389510035032
 20
347.4048052429969
 30
0.0
 41
2.0
 42
2.0
 43
2.0
 50
90.0
  0
MTEXT
  5
3816
330
380E
100
AcDbEntity
  8
寸法
 62
     0
100
AcDbMText
 10
192.889510035032
 20
326.8019722844664
 30
0.0
 40
5.0
 41
0.0
 46
0.0
 71
     5
 72
     1
  1
\A1;41
  7
ＭＳ ゴシック
 11
0.0
 21
1.0
 31
0.0
 73
     1
 44
1.0
  0
POINT
  5
3817
330
380E
100
AcDbEntity
  8
Defpoints
 62
     0
100
AcDbPoint
 10
214.633824591636
 20
306.1991393259359
 30
0.0
  0
POINT
  5
3818
330
380E
100
AcDbEntity
  8
Defpoints
 62
     0
100
AcDbPoint
 10
207.2957663671774
 20
347.4048052429969
 30
0.0
  0
POINT
  5
3819
330
380E
100
AcDbEntity
  8
Defpoints
 62
     0
100
AcDbPoint
 10
200.389510035032
 20
347.4048052429969
 30
0.0
  0
ENDBLK
  5
3810
330
380E
100
AcDbEntity
  8
0
100
AcDbBlockEnd
  0
BLOCK
  5
381B
330
381A
100
AcDbEntity
  8
0
100
AcDbBlockBegin
  2
*D12
 70
     1
 10
0.0
 20
0.0
 30
0.0
  3
*D12
  1
*D161
  0
LINE
  5
381D
330
381A
100
AcDbEntity
  8
寸法
 62
     0
370
    -2
100
AcDbLine
 10
202.2957663671774
 20
256.24751856733
 30
0.0
 11
190.6444605370293
 21
256.24751856733
 31
0.0
  0
LINE
  5
381E
330
381A
100
AcDbEntity
  8
寸法
 62
     0
370
    -2
100
AcDbLine
 10
202.2957663671774
 20
109.490947541839
 30
0.0
 11
190.6444605370293
 21
109.490947541839
 31
0.0
  0
LINE
  5
381F
330
381A
100
AcDbEntity
  8
寸法
 62
     0
370
    -2
100
AcDbLine
 10
190.6444605370293
 20
254.24751856733
 30
0.0
 11
190.6444605370293
 21
111.490947541839
 31
0.0
  0
INSERT
  5
3820
330
381A
100
AcDbEntity
  8
寸法
 62
     0
370
    -2
100
AcDbBlockReference
  2
_DOT
 10
190.6444605370293
 20
256.24751856733
 30
0.0
 41
2.0
 42
2.0
 43
2.0
 50
90.0
  0
INSERT
  5
3821
330
381A
100
AcDbEntity
  8
寸法
 62
     0
370
    -2
100
AcDbBlockReference
  2
_DOT
 10
190.6444605370293
 20
109.490947541839
 30
0.0
 41
2.0
 42
2.0
 43
2.0
 50
270.0
  0
MTEXT
  5
3822
330
381A
100
AcDbEntity
  8
寸法
 62
     0
100
AcDbMText
 10
183.1444605370293
 20
182.8692330545845
 30
0.0
 40
5.0
 41
0.0
 46
0.0
 71
     5
 72
     1
  1
\A1;147
  7
ＭＳ ゴシック
 11
0.0
 21
1.0
 31
0.0
 73
     1
 44
1.0
  0
POINT
  5
3823
330
381A
100
AcDbEntity
  8
Defpoints
 62
     0
100
AcDbPoint
 10
207.2957663671774
 20
256.24751856733
 30
0.0
  0
POINT
  5
3824
330
381A
100
AcDbEntity
  8
Defpoints
 62
     0
100
AcDbPoint
 10
207.2957663671774
 20
109.490947541839
 30
0.0
  0
POINT
  5
3825
330
381A
100
AcDbEntity
  8
Defpoints
 62
     0
100
AcDbPoint
 10
190.6444605370293
 20
109.490947541839
 30
0.0
  0
ENDBLK
  5
381C
330
381A
100
AcDbEntity
  8
0
100
AcDbBlockEnd
  0
BLOCK
  5
3827
330
3826
100
AcDbEntity
  8
0
100
AcDbBlockBegin
  2
*D13
 70
     1
 10
0.0
 20
0.0
 30
0.0
  3
*D13
  1
*D162
  0
LINE
  5
3829
330
3826
100
AcDbEntity
  8
寸法
 62
     0
370
    -2
100
AcDbLine
 10
207.2957663671774
 20
104.490947541839
 30
0.0
 11
207.2957663671774
 21
94.18180669859589
 31
0.0
  0
LINE
  5
382A
330
3826
100
AcDbEntity
  8
寸法
 62
     0
370
    -2
100
AcDbLine
 10
234.1066654855546
 20
104.490947541839
 30
0.0
 11
234.1066654855546
 21
94.18180669859589
 31
0.0
  0
LINE
  5
382B
330
3826
100
AcDbEntity
  8
寸法
 62
     0
370
    -2
100
AcDbLine
 10
209.2957663671774
 20
94.18180669859589
 30
0.0
 11
232.1066654855546
 21
94.18180669859589
 31
0.0
  0
INSERT
  5
382C
330
3826
100
AcDbEntity
  8
寸法
 62
     0
370
    -2
100
AcDbBlockReference
  2
_DOT
 10
207.2957663671774
 20
94.18180669859589
 30
0.0
 41
2.0
 42
2.0
 43
2.0
 50
180.0
  0
INSERT
  5
382D
330
3826
100
AcDbEntity
  8
寸法
 62
     0
370
    -2
100
AcDbBlockReference
  2
_DOT
 10
234.1066654855546
 20
94.18180669859589
 30
0.0
 41
2.0
 42
2.0
 43
2.0
  0
MTEXT
  5
382E
330
3826
100
AcDbEntity
  8
寸法
 62
     0
100
AcDbMText
 10
220.701215926366
 20
101.6818066985959
 30
0.0
 40
5.0
 41
0.0
 46
0.0
 71
     5
 72
     1
  1
\A1;27
  7
ＭＳ ゴシック
 73
     1
 44
1.0
  0
POINT
  5
382F
330
3826
100
AcDbEntity
  8
Defpoints
 62
     0
100
AcDbPoint
 10
207.2957663671774
 20
109.490947541839
 30
0.0
  0
POINT
  5
3830
330
3826
100
AcDbEntity
  8
Defpoints
 62
     0
100
AcDbPoint
 10
234.1066654855546
 20
109.490947541839
 30
0.0
  0
POINT
  5
3831
330
3826
100
AcDbEntity
  8
Defpoints
 62
     0
100
AcDbPoint
 10
234.1066654855546
 20
94.18180669859589
 30
0.0
  0
ENDBLK
  5
3828
330
3826
100
AcDbEntity
  8
0
100
AcDbBlockEnd
  0
BLOCK
  5
3833
330
3832
100
AcDbEntity
  8
0
100
AcDbBlockBegin
  2
*D14
 70
     1
 10
0.0
 20
0.0
 30
0.0
  3
*D14
  1
*D163
  0
LINE
  5
3835
330
3832
100
AcDbEntity
  8
寸法
 62
     0
370
    -2
100
AcDbLine
 10
316.4353297607628
 20
204.1760143216588
 30
0.0
 11
328.086635590911
 21
204.1760143216588
 31
0.0
  0
LINE
  5
3836
330
3832
100
AcDbEntity
  8
寸法
 62
     0
370
    -2
100
AcDbLine
 10
239.1066654855546
 20
256.24751856733
 30
0.0
 11
328.086635590911
 21
256.24751856733
 31
0.0
  0
LINE
  5
3837
330
3832
100
AcDbEntity
  8
寸法
 62
     0
370
    -2
100
AcDbLine
 10
328.086635590911
 20
206.1760143216588
 30
0.0
 11
328.086635590911
 21
254.24751856733
 31
0.0
  0
INSERT
  5
3838
330
3832
100
AcDbEntity
  8
寸法
 62
     0
370
    -2
100
AcDbBlockReference
  2
_DOT
 10
328.086635590911
 20
204.1760143216588
 30
0.0
 41
2.0
 42
2.0
 43
2.0
 50
270.0
  0
INSERT
  5
3839
330
3832
100
AcDbEntity
  8
寸法
 62
     0
370
    -2
100
AcDbBlockReference
  2
_DOT
 10
328.086635590911
 20
256.24751856733
 30
0.0
 41
2.0
 42
2.0
 43
2.0
 50
90.0
  0
MTEXT
  5
383A
330
3832
100
AcDbEntity
  8
寸法
 62
     0
100
AcDbMText
 10
320.586635590911
 20
230.2117664444944
 30
0.0
 40
5.0
 41
0.0
 46
0.0
 71
     5
 72
     1
  1
\A1;52
  7
ＭＳ ゴシック
 11
0.0
 21
1.0
 31
0.0
 73
     1
 44
1.0
  0
POINT
  5
383B
330
3832
100
AcDbEntity
  8
Defpoints
 62
     0
100
AcDbPoint
 10
311.4353297607628
 20
204.1760143216588
 30
0.0
  0
POINT
  5
383C
330
3832
100
AcDbEntity
  8
Defpoints
 62
     0
100
AcDbPoint
 10
234.1066654855546
 20
256.24751856733
 30
0.0
  0
POINT
  5
383D
330
3832
100
AcDbEntity
  8
Defpoints
 62
     0
100
AcDbPoint
 10
328.086635590911
 20
256.24751856733
 30
0.0
  0
ENDBLK
  5
3834
330
3832
100
AcDbEntity
  8
0
100
AcDbBlockEnd
  0
BLOCK
  5
3960
330
395F
100
AcDbEntity
  8
0
100
AcDbBlockBegin
  2
*D15
 70
     1
 10
0.0
 20
0.0
 30
0.0
  3
*D15
  1
*D40
  0
LINE
  5
3961
330
395F
100
AcDbEntity
  8
寸法
 62
     0
370
    -2
100
AcDbLine
 10
14.74478791698148
 20
224.0104347839655
 30
0.0
 11
9.999999999999986
 21
224.0104347839655
 31
0.0
  0
LINE
  5
3962
330
395F
100
AcDbEntity
  8
寸法
 62
     0
370
    -2
100
AcDbLine
 10
14.74478791698148
 20
219.3526626152015
 30
0.0
 11
9.999999999999986
 21
219.3526626152015
 31
0.0
  0
LINE
  5
3963
330
395F
100
AcDbEntity
  8
寸法
 62
     0
370
    -2
100
AcDbLine
 10
9.999999999999986
 20
222.0104347839655
 30
0.0
 11
9.999999999999986
 21
221.3526626152015
 31
0.0
  0
INSERT
  5
3964
330
395F
100
AcDbEntity
  8
寸法
 62
     0
370
    -2
100
AcDbBlockReference
  2
_DOT
 10
9.999999999999986
 20
224.0104347839655
 30
0.0
 41
2.0
 42
2.0
 43
2.0
 50
90.0
  0
INSERT
  5
3965
330
395F
100
AcDbEntity
  8
寸法
 62
     0
370
    -2
100
AcDbBlockReference
  2
_DOT
 10
9.999999999999986
 20
219.3526626152015
 30
0.0
 41
2.0
 42
2.0
 43
2.0
 50
270.0
  0
MTEXT
  5
3966
330
395F
100
AcDbEntity
  8
寸法
 62
     0
100
AcDbMText
 10
2.499999999999986
 20
221.6357466385695
 30
0.0
 40
5.0
 41
0.0
 46
0.0
 71
     5
 72
     1
  1
\A1;5
  7
ＭＳ ゴシック
 11
0.0
 21
1.0
 31
0.0
 73
     1
 44
1.0
  0
POINT
  5
3967
330
395F
100
AcDbEntity
  8
Defpoints
 62
     0
100
AcDbPoint
 10
19.74478791698148
 20
224.0104347839655
 30
0.0
  0
POINT
  5
3968
330
395F
100
AcDbEntity
  8
Defpoints
 62
     0
100
AcDbPoint
 10
19.74478791698148
 20
219.3526626152015
 30
0.0
  0
POINT
  5
3969
330
395F
100
AcDbEntity
  8
Defpoints
 62
     0
100
AcDbPoint
 10
9.999999999999986
 20
219.3526626152015
 30
0.0
  0
ENDBLK
  5
396A
330
395F
100
AcDbEntity
  8
0
100
AcDbBlockEnd
  0
BLOCK
  5
396F
330
396E
100
AcDbEntity
  8
0
100
AcDbBlockBegin
  2
*D16
 70
     1
 10
0.0
 20
0.0
 30
0.0
  3
*D16
  1
*D41
  0
LINE
  5
3970
330
396E
100
AcDbEntity
  8
寸法
 62
     0
370
    -2
100
AcDbLine
 10
29.98417784932528
 20
164.3206710295212
 30
0.0
 11
9.999999999999984
 21
164.3206710295212
 31
0.0
  0
LINE
  5
3971
330
396E
100
AcDbEntity
  8
寸法
 62
     0
370
    -2
100
AcDbLine
 10
29.98417784932528
 20
184.2161105817494
 30
0.0
 11
9.999999999999986
 21
184.2161105817494
 31
0.0
  0
LINE
  5
3972
330
396E
100
AcDbEntity
  8
寸法
 62
     0
370
    -2
100
AcDbLine
 10
9.999999999999984
 20
166.3206710295212
 30
0.0
 11
9.999999999999986
 21
182.2161105817494
 31
0.0
  0
INSERT
  5
3973
330
396E
100
AcDbEntity
  8
寸法
 62
     0
370
    -2
100
AcDbBlockReference
  2
_DOT
 10
9.999999999999984
 20
164.3206710295212
 30
0.0
 41
2.0
 42
2.0
 43
2.0
 50
270.0
  0
INSERT
  5
3974
330
396E
100
AcDbEntity
  8
寸法
 62
     0
370
    -2
100
AcDbBlockReference
  2
_DOT
 10
9.999999999999986
 20
184.2161105817494
 30
0.0
 41
2.0
 42
2.0
 43
2.0
 50
90.0
  0
MTEXT
  5
3975
330
396E
100
AcDbEntity
  8
寸法
 62
     0
100
AcDbMText
 10
2.499999999999986
 20
174.2683908056353
 30
0.0
 40
5.0
 41
0.0
 46
0.0
 71
     5
 72
     1
  1
\A1;20
  7
ＭＳ ゴシック
 11
8.928462398315330E-17
 21
1.0
 31
0.0
 73
     1
 44
1.0
  0
POINT
  5
3976
330
396E
100
AcDbEntity
  8
Defpoints
 62
     0
100
AcDbPoint
 10
34.98417784932528
 20
164.3206710295212
 30
0.0
  0
POINT
  5
3977
330
396E
100
AcDbEntity
  8
Defpoints
 62
     0
100
AcDbPoint
 10
34.98417784932528
 20
184.2161105817494
 30
0.0
  0
POINT
  5
3978
330
396E
100
AcDbEntity
  8
Defpoints
 62
     0
100
AcDbPoint
 10
9.999999999999986
 20
184.2161105817494
 30
0.0
  0
ENDBLK
  5
3979
330
396E
100
AcDbEntity
  8
0
100
AcDbBlockEnd
  0
BLOCK
  5
397E
330
397D
100
AcDbEntity
  8
0
100
AcDbBlockBegin
  2
*D17
 70
     1
 10
0.0
 20
0.0
 30
0.0
  3
*D17
  1
*D42
  0
LINE
  5
397F
330
397D
100
AcDbEntity
  8
寸法
 62
     0
370
    -2
100
AcDbLine
 10
134.4682658059849
 20
161.8597080771391
 30
0.0
 11
134.4682658059849
 21
145.2942155193206
 31
0.0
  0
LINE
  5
3980
330
397D
100
AcDbEntity
  8
寸法
 62
     0
370
    -2
100
AcDbLine
 10
34.56215337397478
 20
159.7426955048717
 30
0.0
 11
34.56215337397478
 21
145.2942155193206
 31
0.0
  0
LINE
  5
3981
330
397D
100
AcDbEntity
  8
寸法
 62
     0
370
    -2
100
AcDbLine
 10
132.4682658059849
 20
145.2942155193206
 30
0.0
 11
36.56215337397478
 21
145.2942155193206
 31
0.0
  0
INSERT
  5
3982
330
397D
100
AcDbEntity
  8
寸法
 62
     0
370
    -2
100
AcDbBlockReference
  2
_DOT
 10
134.4682658059849
 20
145.2942155193206
 30
0.0
 41
2.0
 42
2.0
 43
2.0
  0
INSERT
  5
3983
330
397D
100
AcDbEntity
  8
寸法
 62
     0
370
    -2
100
AcDbBlockReference
  2
_DOT
 10
34.56215337397478
 20
145.2942155193206
 30
0.0
 41
2.0
 42
2.0
 43
2.0
 50
180.0
  0
MTEXT
  5
3984
330
397D
100
AcDbEntity
  8
寸法
 62
     0
100
AcDbMText
 10
84.51520958997983
 20
152.7942155193206
 30
0.0
 40
5.0
 41
0.0
 46
0.0
 71
     5
 72
     1
  1
\A1;100
  7
ＭＳ ゴシック
 73
     1
 44
1.0
  0
POINT
  5
3985
330
397D
100
AcDbEntity
  8
Defpoints
 62
     0
100
AcDbPoint
 10
134.4682658059849
 20
166.8597080771391
 30
0.0
  0
POINT
  5
3986
330
397D
100
AcDbEntity
  8
Defpoints
 62
     0
100
AcDbPoint
 10
34.56215337397478
 20
164.7426955048717
 30
0.0
  0
POINT
  5
3987
330
397D
100
AcDbEntity
  8
Defpoints
 62
     0
100
AcDbPoint
 10
34.56215337397478
 20
145.2942155193206
 30
0.0
  0
ENDBLK
  5
3988
330
397D
100
AcDbEntity
  8
0
100
AcDbBlockEnd
  0
BLOCK
  5
398D
330
398C
100
AcDbEntity
  8
0
100
AcDbBlockBegin
  2
*D18
 70
     1
 10
0.0
 20
0.0
 30
0.0
  3
*D18
  1
*D43
  0
LINE
  5
398E
330
398C
100
AcDbEntity
  8
寸法
 62
     0
370
    -2
100
AcDbLine
 10
29.98417784932528
 20
184.2161105817494
 30
0.0
 11
9.999999999999984
 21
184.2161105817494
 31
0.0
  0
LINE
  5
398F
330
398C
100
AcDbEntity
  8
寸法
 62
     0
370
    -2
100
AcDbLine
 10
14.74478791698148
 20
219.3526626152015
 30
0.0
 11
9.999999999999986
 21
219.3526626152015
 31
0.0
  0
LINE
  5
3990
330
398C
100
AcDbEntity
  8
寸法
 62
     0
370
    -2
100
AcDbLine
 10
9.999999999999984
 20
186.2161105817494
 30
0.0
 11
9.999999999999986
 21
217.3526626152015
 31
0.0
  0
INSERT
  5
3991
330
398C
100
AcDbEntity
  8
寸法
 62
     0
370
    -2
100
AcDbBlockReference
  2
_DOT
 10
9.999999999999984
 20
184.2161105817494
 30
0.0
 41
2.0
 42
2.0
 43
2.0
 50
270.0
  0
INSERT
  5
3992
330
398C
100
AcDbEntity
  8
寸法
 62
     0
370
    -2
100
AcDbBlockReference
  2
_DOT
 10
9.999999999999986
 20
219.3526626152015
 30
0.0
 41
2.0
 42
2.0
 43
2.0
 50
90.0
  0
MTEXT
  5
3993
330
398C
100
AcDbEntity
  8
寸法
 62
     0
100
AcDbMText
 10
2.499999999999986
 20
201.7843865984755
 30
0.0
 40
5.0
 41
0.0
 46
0.0
 71
     5
 72
     1
  1
\A1;35
  7
ＭＳ ゴシック
 11
5.055580973651175E-17
 21
1.0
 31
0.0
 73
     1
 44
1.0
  0
POINT
  5
3994
330
398C
100
AcDbEntity
  8
Defpoints
 62
     0
100
AcDbPoint
 10
34.98417784932528
 20
184.2161105817494
 30
0.0
  0
POINT
  5
3995
330
398C
100
AcDbEntity
  8
Defpoints
 62
     0
100
AcDbPoint
 10
19.74478791698148
 20
219.3526626152015
 30
0.0
  0
POINT
  5
3996
330
398C
100
AcDbEntity
  8
Defpoints
 62
     0
100
AcDbPoint
 10
9.999999999999986
 20
219.3526626152015
 30
0.0
  0
ENDBLK
  5
3997
330
398C
100
AcDbEntity
  8
0
100
AcDbBlockEnd
  0
BLOCK
  5
399A
330
3999
100
AcDbEntity
  8
0
100
AcDbBlockBegin
  2
*D19
 70
     1
 10
0.0
 20
0.0
 30
0.0
  3
*D19
  1
*D44
  0
LINE
  5
399B
330
3999
100
AcDbEntity
  8
寸法
 62
     0
370
    -2
100
AcDbLine
 10
39.72088538776438
 20
17.8237685643322
 30
0.0
 11
9.999999999999982
 21
17.8237685643322
 31
0.0
  0
LINE
  5
399C
330
3999
100
AcDbEntity
  8
寸法
 62
     0
370
    -2
100
AcDbLine
 10
39.72088538776438
 20
68.20192514080222
 30
0.0
 11
9.999999999999986
 21
68.20192514080222
 31
0.0
  0
LINE
  5
399D
330
3999
100
AcDbEntity
  8
寸法
 62
     0
370
    -2
100
AcDbLine
 10
9.999999999999982
 20
19.8237685643322
 30
0.0
 11
9.999999999999986
 21
66.20192514080222
 31
0.0
  0
INSERT
  5
399E
330
3999
100
AcDbEntity
  8
寸法
 62
     0
370
    -2
100
AcDbBlockReference
  2
_DOT
 10
9.999999999999982
 20
17.8237685643322
 30
0.0
 41
2.0
 42
2.0
 43
2.0
 50
270.0
  0
INSERT
  5
399F
330
3999
100
AcDbEntity
  8
寸法
 62
     0
370
    -2
100
AcDbBlockReference
  2
_DOT
 10
9.999999999999986
 20
68.20192514080222
 30
0.0
 41
2.0
 42
2.0
 43
2.0
 50
90.0
  0
MTEXT
  5
39A0
330
3999
100
AcDbEntity
  8
寸法
 62
     0
100
AcDbMText
 10
2.499999999999984
 20
43.01284685256721
 30
0.0
 40
5.0
 41
0.0
 46
0.0
 71
     5
 72
     1
  1
\A1;50
  7
ＭＳ ゴシック
 11
7.052091462314159E-17
 21
1.0
 31
0.0
 73
     1
 44
1.0
  0
POINT
  5
39A1
330
3999
100
AcDbEntity
  8
Defpoints
 62
     0
100
AcDbPoint
 10
44.72088538776438
 20
17.8237685643322
 30
0.0
  0
POINT
  5
39A2
330
3999
100
AcDbEntity
  8
Defpoints
 62
     0
100
AcDbPoint
 10
44.72088538776438
 20
68.20192514080222
 30
0.0
  0
POINT
  5
39A3
330
3999
100
AcDbEntity
  8
Defpoints
 62
     0
100
AcDbPoint
 10
9.999999999999986
 20
68.20192514080222
 30
0.0
  0
ENDBLK
  5
39A4
330
3999
100
AcDbEntity
  8
0
100
AcDbBlockEnd
  0
BLOCK
  5
39A9
330
39A8
100
AcDbEntity
  8
0
100
AcDbBlockBegin
  2
*D20
 70
     1
 10
0.0
 20
0.0
 30
0.0
  3
*D20
  1
*D45
  0
LINE
  5
39AA
330
39A8
100
AcDbEntity
  8
寸法
 62
     0
370
    -2
100
AcDbLine
 10
139.4682658059849
 20
50.4215216741176
 30
0.0
 11
156.8315585182279
 21
50.4215216741176
 31
0.0
  0
LINE
  5
39AB
330
39A8
100
AcDbEntity
  8
寸法
 62
     0
370
    -2
100
AcDbLine
 10
139.4682658059849
 20
35.6041562171234
 30
0.0
 11
156.8315585182279
 21
35.6041562171234
 31
0.0
  0
LINE
  5
39AC
330
39A8
100
AcDbEntity
  8
寸法
 62
     0
370
    -2
100
AcDbLine
 10
156.8315585182279
 20
48.4215216741176
 30
0.0
 11
156.8315585182279
 21
37.6041562171234
 31
0.0
  0
INSERT
  5
39AD
330
39A8
100
AcDbEntity
  8
寸法
 62
     0
370
    -2
100
AcDbBlockReference
  2
_DOT
 10
156.8315585182279
 20
50.4215216741176
 30
0.0
 41
2.0
 42
2.0
 43
2.0
 50
90.0
  0
INSERT
  5
39AE
330
39A8
100
AcDbEntity
  8
寸法
 62
     0
370
    -2
100
AcDbBlockReference
  2
_DOT
 10
156.8315585182279
 20
35.6041562171234
 30
0.0
 41
2.0
 42
2.0
 43
2.0
 50
270.0
  0
MTEXT
  5
39AF
330
39A8
100
AcDbEntity
  8
寸法
 62
     0
100
AcDbMText
 10
149.3315585182279
 20
43.26831551848721
 30
0.0
 40
5.0
 41
0.0
 46
0.0
 71
     5
 72
     1
  1
\A1;15
  7
ＭＳ ゴシック
 11
0.0
 21
1.0
 31
0.0
 73
     1
 44
1.0
  0
POINT
  5
39B0
330
39A8
100
AcDbEntity
  8
Defpoints
 62
     0
100
AcDbPoint
 10
134.4682658059849
 20
50.4215216741176
 30
0.0
  0
POINT
  5
39B1
330
39A8
100
AcDbEntity
  8
Defpoints
 62
     0
100
AcDbPoint
 10
134.4682658059849
 20
35.6041562171234
 30
0.0
  0
POINT
  5
39B2
330
39A8
100
AcDbEntity
  8
Defpoints
 62
     0
100
AcDbPoint
 10
156.8315585182279
 20
35.6041562171234
 30
0.0
  0
ENDBLK
  5
39B3
330
39A8
100
AcDbEntity
  8
0
100
AcDbBlockEnd
  0
BLOCK
  5
39B8
330
39B7
100
AcDbEntity
  8
0
100
AcDbBlockBegin
  2
*D21
 70
     1
 10
0.0
 20
0.0
 30
0.0
  3
*D21
  1
*D46
  0
LINE
  5
39B9
330
39B7
100
AcDbEntity
  8
寸法
 62
     0
370
    -2
100
AcDbLine
 10
139.4682658059849
 20
166.8597080771391
 30
0.0
 11
173.677299873684
 21
166.8597080771391
 31
0.0
  0
LINE
  5
39BA
330
39B7
100
AcDbEntity
  8
寸法
 62
     0
370
    -2
100
AcDbLine
 10
74.69870540742588
 20
224.0104347839655
 30
0.0
 11
173.677299873684
 21
224.0104347839655
 31
0.0
  0
LINE
  5
39BB
330
39B7
100
AcDbEntity
  8
寸法
 62
     0
370
    -2
100
AcDbLine
 10
173.677299873684
 20
168.8597080771391
 30
0.0
 11
173.677299873684
 21
222.0104347839655
 31
0.0
  0
INSERT
  5
39BC
330
39B7
100
AcDbEntity
  8
寸法
 62
     0
370
    -2
100
AcDbBlockReference
  2
_DOT
 10
173.677299873684
 20
166.8597080771391
 30
0.0
 41
2.0
 42
2.0
 43
2.0
 50
270.0
  0
INSERT
  5
39BD
330
39B7
100
AcDbEntity
  8
寸法
 62
     0
370
    -2
100
AcDbBlockReference
  2
_DOT
 10
173.677299873684
 20
224.0104347839655
 30
0.0
 41
2.0
 42
2.0
 43
2.0
 50
90.0
  0
MTEXT
  5
39BE
330
39B7
100
AcDbEntity
  8
寸法
 62
     0
100
AcDbMText
 10
166.177299873684
 20
195.4350714305523
 30
0.0
 40
5.0
 41
0.0
 46
0.0
 71
     5
 72
     1
  1
\A1;57
  7
ＭＳ ゴシック
 11
0.0
 21
1.0
 31
0.0
 73
     1
 44
1.0
  0
POINT
  5
39BF
330
39B7
100
AcDbEntity
  8
Defpoints
 62
     0
100
AcDbPoint
 10
134.4682658059849
 20
166.8597080771391
 30
0.0
  0
POINT
  5
39C0
330
39B7
100
AcDbEntity
  8
Defpoints
 62
     0
100
AcDbPoint
 10
69.69870540742588
 20
224.0104347839655
 30
0.0
  0
POINT
  5
39C1
330
39B7
100
AcDbEntity
  8
Defpoints
 62
     0
100
AcDbPoint
 10
173.677299873684
 20
224.0104347839655
 30
0.0
  0
ENDBLK
  5
39C2
330
39B7
100
AcDbEntity
  8
0
100
AcDbBlockEnd
  0
BLOCK
  5
39C7
330
39C6
100
AcDbEntity
  8
0
100
AcDbBlockBegin
  2
*D22
 70
     1
 10
0.0
 20
0.0
 30
0.0
  3
*D22
  1
*D47
  0
LINE
  5
39C8
330
39C6
100
AcDbEntity
  8
寸法
 62
     0
370
    -2
100
AcDbLine
 10
74.69870540742588
 20
224.0104347839655
 30
0.0
 11
153.1098097798007
 21
224.0104347839655
 31
0.0
  0
LINE
  5
39C9
330
39C6
100
AcDbEntity
  8
寸法
 62
     0
370
    -2
100
AcDbLine
 10
139.4682658059849
 20
181.6770735341324
 30
0.0
 11
153.1098097798007
 21
181.6770735341324
 31
0.0
  0
LINE
  5
39CA
330
39C6
100
AcDbEntity
  8
寸法
 62
     0
370
    -2
100
AcDbLine
 10
153.1098097798007
 20
222.0104347839655
 30
0.0
 11
153.1098097798007
 21
183.6770735341324
 31
0.0
  0
INSERT
  5
39CB
330
39C6
100
AcDbEntity
  8
寸法
 62
     0
370
    -2
100
AcDbBlockReference
  2
_DOT
 10
153.1098097798007
 20
224.0104347839655
 30
0.0
 41
2.0
 42
2.0
 43
2.0
 50
90.0
  0
INSERT
  5
39CC
330
39C6
100
AcDbEntity
  8
寸法
 62
     0
370
    -2
100
AcDbBlockReference
  2
_DOT
 10
153.1098097798007
 20
181.6770735341324
 30
0.0
 41
2.0
 42
2.0
 43
2.0
 50
270.0
  0
MTEXT
  5
39CD
330
39C6
100
AcDbEntity
  8
寸法
 62
     0
100
AcDbMText
 10
145.6098097798007
 20
202.843754159049
 30
0.0
 40
5.0
 41
0.0
 46
0.0
 71
     5
 72
     1
  1
\A1;42
  7
ＭＳ ゴシック
 11
0.0
 21
1.0
 31
0.0
 73
     1
 44
1.0
  0
POINT
  5
39CE
330
39C6
100
AcDbEntity
  8
Defpoints
 62
     0
100
AcDbPoint
 10
69.69870540742588
 20
224.0104347839655
 30
0.0
  0
POINT
  5
39CF
330
39C6
100
AcDbEntity
  8
Defpoints
 62
     0
100
AcDbPoint
 10
134.4682658059849
 20
181.6770735341324
 30
0.0
  0
POINT
  5
39D0
330
39C6
100
AcDbEntity
  8
Defpoints
 62
     0
100
AcDbPoint
 10
153.1098097798007
 20
181.6770735341324
 30
0.0
  0
ENDBLK
  5
39D1
330
39C6
100
AcDbEntity
  8
0
100
AcDbBlockEnd
  0
BLOCK
  5
39E3
330
39E2
100
AcDbEntity
  8
0
100
AcDbBlockBegin
  2
*D23
 70
     1
 10
0.0
 20
0.0
 30
0.0
  3
*D23
  1
*D51
  0
LINE
  5
39E4
330
39E2
100
AcDbEntity
  8
寸法
 62
     0
370
    -2
100
AcDbLine
 10
63.72088538776438
 20
37.80096543350609
 30
0.0
 11
63.72088538776438
 21
0.5108464693973076
 31
0.0
  0
LINE
  5
39E5
330
39E2
100
AcDbEntity
  8
寸法
 62
     0
370
    -2
100
AcDbLine
 10
25.88395212166938
 20
37.80096543350609
 30
0.0
 11
25.88395212166938
 21
0.5108464693973076
 31
0.0
  0
LINE
  5
39E6
330
39E2
100
AcDbEntity
  8
寸法
 62
     0
370
    -2
100
AcDbLine
 10
61.72088538776438
 20
0.5108464693973076
 30
0.0
 11
27.88395212166938
 21
0.5108464693973076
 31
0.0
  0
INSERT
  5
39E7
330
39E2
100
AcDbEntity
  8
寸法
 62
     0
370
    -2
100
AcDbBlockReference
  2
_DOT
 10
63.72088538776438
 20
0.5108464693973076
 30
0.0
 41
2.0
 42
2.0
 43
2.0
  0
INSERT
  5
39E8
330
39E2
100
AcDbEntity
  8
寸法
 62
     0
370
    -2
100
AcDbBlockReference
  2
_DOT
 10
25.88395212166938
 20
0.5108464693973076
 30
0.0
 41
2.0
 42
2.0
 43
2.0
 50
180.0
  0
MTEXT
  5
39E9
330
39E2
100
AcDbEntity
  8
寸法
 62
     0
100
AcDbMText
 10
44.80241875471688
 20
8.010846469397308
 30
0.0
 40
5.0
 41
0.0
 46
0.0
 71
     5
 72
     1
  1
\A1;38
  7
ＭＳ ゴシック
 73
     1
 44
1.0
  0
POINT
  5
39EA
330
39E2
100
AcDbEntity
  8
Defpoints
 62
     0
100
AcDbPoint
 10
63.72088538776438
 20
42.80096543350609
 30
0.0
  0
POINT
  5
39EB
330
39E2
100
AcDbEntity
  8
Defpoints
 62
     0
100
AcDbPoint
 10
25.88395212166938
 20
42.80096543350609
 30
0.0
  0
POINT
  5
39EC
330
39E2
100
AcDbEntity
  8
Defpoints
 62
     0
100
AcDbPoint
 10
25.88395212166938
 20
0.5108464693973076
 30
0.0
  0
ENDBLK
  5
39ED
330
39E2
100
AcDbEntity
  8
0
100
AcDbBlockEnd
  0
BLOCK
  5
39F2
330
39F1
100
AcDbEntity
  8
0
100
AcDbBlockBegin
  2
*D24
 70
     1
 10
0.0
 20
0.0
 30
0.0
  3
*D24
  1
*D52
  0
LINE
  5
39F3
330
39F1
100
AcDbEntity
  8
寸法
 62
     0
370
    -2
100
AcDbLine
 10
314.8282422312282
 20
12.8237527504389
 30
0.0
 11
314.8282422312282
 21
0.5
 31
0.0
  0
LINE
  5
39F4
330
39F1
100
AcDbEntity
  8
寸法
 62
     0
370
    -2
100
AcDbLine
 10
310.1704700624643
 20
12.8237527504389
 30
0.0
 11
310.1704700624643
 21
0.5
 31
0.0
  0
LINE
  5
39F5
330
39F1
100
AcDbEntity
  8
寸法
 62
     0
370
    -2
100
AcDbLine
 10
312.8282422312282
 20
0.5
 30
0.0
 11
312.1704700624643
 21
0.5
 31
0.0
  0
INSERT
  5
39F6
330
39F1
100
AcDbEntity
  8
寸法
 62
     0
370
    -2
100
AcDbBlockReference
  2
_DOT
 10
314.8282422312282
 20
0.5
 30
0.0
 41
2.0
 42
2.0
 43
2.0
  0
INSERT
  5
39F7
330
39F1
100
AcDbEntity
  8
寸法
 62
     0
370
    -2
100
AcDbBlockReference
  2
_DOT
 10
310.1704700624643
 20
0.5
 30
0.0
 41
2.0
 42
2.0
 43
2.0
 50
180.0
  0
MTEXT
  5
39F8
330
39F1
100
AcDbEntity
  8
寸法
 62
     0
100
AcDbMText
 10
312.4993561468462
 20
8.0
 30
0.0
 40
5.0
 41
0.0
 46
0.0
 71
     5
 72
     1
  1
\A1;5
  7
ＭＳ ゴシック
 73
     1
 44
1.0
  0
POINT
  5
39F9
330
39F1
100
AcDbEntity
  8
Defpoints
 62
     0
100
AcDbPoint
 10
314.8282422312282
 20
17.8237527504389
 30
0.0
  0
POINT
  5
39FA
330
39F1
100
AcDbEntity
  8
Defpoints
 62
     0
100
AcDbPoint
 10
310.1704700624643
 20
17.8237527504389
 30
0.0
  0
POINT
  5
39FB
330
39F1
100
AcDbEntity
  8
Defpoints
 62
     0
100
AcDbPoint
 10
310.1704700624643
 20
0.5
 30
0.0
  0
ENDBLK
  5
39FC
330
39F1
100
AcDbEntity
  8
0
100
AcDbBlockEnd
  0
BLOCK
  5
3AE1
330
3AE0
100
AcDbEntity
  8
0
100
AcDbBlockBegin
  2
*D25
 70
     1
 10
0.0
 20
0.0
 30
0.0
  3
*D25
  1
*D26
  0
LINE
  5
3AE3
330
3AE0
100
AcDbEntity
  8
寸法
 62
     0
370
    -2
100
AcDbLine
 10
141.8419307741243
 20
350.9532919268227
 30
0.0
 11
137.0971428571428
 21
350.9532919268227
 31
0.0
  0
LINE
  5
3AE4
330
3AE0
100
AcDbEntity
  8
寸法
 62
     0
370
    -2
100
AcDbLine
 10
141.8419307741243
 20
346.2955197580586
 30
0.0
 11
137.0971428571428
 21
346.2955197580586
 31
0.0
  0
LINE
  5
3AE5
330
3AE0
100
AcDbEntity
  8
寸法
 62
     0
370
    -2
100
AcDbLine
 10
137.0971428571428
 20
348.9532919268227
 30
0.0
 11
137.0971428571428
 21
348.2955197580586
 31
0.0
  0
INSERT
  5
3AE6
330
3AE0
100
AcDbEntity
  8
寸法
 62
     0
370
    -2
100
AcDbBlockReference
  2
_DOT
 10
137.0971428571428
 20
350.9532919268227
 30
0.0
 41
2.0
 42
2.0
 43
2.0
 50
90.0
  0
INSERT
  5
3AE7
330
3AE0
100
AcDbEntity
  8
寸法
 62
     0
370
    -2
100
AcDbBlockReference
  2
_DOT
 10
137.0971428571428
 20
346.2955197580586
 30
0.0
 41
2.0
 42
2.0
 43
2.0
 50
270.0
  0
MTEXT
  5
3AE8
330
3AE0
100
AcDbEntity
  8
寸法
 62
     0
100
AcDbMText
 10
129.5971428571428
 20
348.5786037814266
 30
0.0
 40
5.0
 41
0.0
 46
0.0
 71
     5
 72
     1
  1
\A1;5
  7
ＭＳ ゴシック
 11
0.0
 21
1.0
 31
0.0
 73
     1
 44
1.0
  0
POINT
  5
3AE9
330
3AE0
100
AcDbEntity
  8
Defpoints
 62
     0
100
AcDbPoint
 10
146.8419307741243
 20
350.9532919268227
 30
0.0
  0
POINT
  5
3AEA
330
3AE0
100
AcDbEntity
  8
Defpoints
 62
     0
100
AcDbPoint
 10
146.8419307741243
 20
346.2955197580586
 30
0.0
  0
POINT
  5
3AEB
330
3AE0
100
AcDbEntity
  8
Defpoints
 62
     0
100
AcDbPoint
 10
137.0971428571428
 20
346.2955197580586
 30
0.0
  0
ENDBLK
  5
3AE2
330
3AE0
100
AcDbEntity
  8
0
100
AcDbBlockEnd
  0
BLOCK
  5
3AED
330
3AEC
100
AcDbEntity
  8
0
100
AcDbBlockBegin
  2
*D26
 70
     1
 10
0.0
 20
0.0
 30
0.0
  3
*D26
  1
*D27
  0
LINE
  5
3AEF
330
3AEC
100
AcDbEntity
  8
寸法
 62
     0
370
    -2
100
AcDbLine
 10
157.0813207064681
 20
291.2635281723783
 30
0.0
 11
137.0971428571428
 21
291.2635281723783
 31
0.0
  0
LINE
  5
3AF0
330
3AEC
100
AcDbEntity
  8
寸法
 62
     0
370
    -2
100
AcDbLine
 10
157.0813207064681
 20
311.1589677246066
 30
0.0
 11
137.0971428571428
 21
311.1589677246066
 31
0.0
  0
LINE
  5
3AF1
330
3AEC
100
AcDbEntity
  8
寸法
 62
     0
370
    -2
100
AcDbLine
 10
137.0971428571428
 20
293.2635281723783
 30
0.0
 11
137.0971428571428
 21
309.1589677246066
 31
0.0
  0
INSERT
  5
3AF2
330
3AEC
100
AcDbEntity
  8
寸法
 62
     0
370
    -2
100
AcDbBlockReference
  2
_DOT
 10
137.0971428571428
 20
291.2635281723783
 30
0.0
 41
2.0
 42
2.0
 43
2.0
 50
270.0
  0
INSERT
  5
3AF3
330
3AEC
100
AcDbEntity
  8
寸法
 62
     0
370
    -2
100
AcDbBlockReference
  2
_DOT
 10
137.0971428571428
 20
311.1589677246066
 30
0.0
 41
2.0
 42
2.0
 43
2.0
 50
90.0
  0
MTEXT
  5
3AF4
330
3AEC
100
AcDbEntity
  8
寸法
 62
     0
100
AcDbMText
 10
129.5971428571428
 20
301.2112479484924
 30
0.0
 40
5.0
 41
0.0
 46
0.0
 71
     5
 72
     1
  1
\A1;20
  7
ＭＳ ゴシック
 11
0.0
 21
1.0
 31
0.0
 73
     1
 44
1.0
  0
POINT
  5
3AF5
330
3AEC
100
AcDbEntity
  8
Defpoints
 62
     0
100
AcDbPoint
 10
162.0813207064681
 20
291.2635281723783
 30
0.0
  0
POINT
  5
3AF6
330
3AEC
100
AcDbEntity
  8
Defpoints
 62
     0
100
AcDbPoint
 10
162.0813207064681
 20
311.1589677246066
 30
0.0
  0
POINT
  5
3AF7
330
3AEC
100
AcDbEntity
  8
Defpoints
 62
     0
100
AcDbPoint
 10
137.0971428571428
 20
311.1589677246066
 30
0.0
  0
ENDBLK
  5
3AEE
330
3AEC
100
AcDbEntity
  8
0
100
AcDbBlockEnd
  0
BLOCK
  5
3AF9
330
3AF8
100
AcDbEntity
  8
0
100
AcDbBlockBegin
  2
*D27
 70
     1
 10
0.0
 20
0.0
 30
0.0
  3
*D27
  1
*D28
  0
LINE
  5
3AFB
330
3AF8
100
AcDbEntity
  8
寸法
 62
     0
370
    -2
100
AcDbLine
 10
261.5654086631278
 20
288.8025652199963
 30
0.0
 11
261.5654086631278
 21
272.2370726621778
 31
0.0
  0
LINE
  5
3AFC
330
3AF8
100
AcDbEntity
  8
寸法
 62
     0
370
    -2
100
AcDbLine
 10
161.6592962311176
 20
286.6855526477289
 30
0.0
 11
161.6592962311176
 21
272.2370726621778
 31
0.0
  0
LINE
  5
3AFD
330
3AF8
100
AcDbEntity
  8
寸法
 62
     0
370
    -2
100
AcDbLine
 10
259.5654086631278
 20
272.2370726621778
 30
0.0
 11
163.6592962311176
 21
272.2370726621778
 31
0.0
  0
INSERT
  5
3AFE
330
3AF8
100
AcDbEntity
  8
寸法
 62
     0
370
    -2
100
AcDbBlockReference
  2
_DOT
 10
261.5654086631278
 20
272.2370726621778
 30
0.0
 41
2.0
 42
2.0
 43
2.0
  0
INSERT
  5
3AFF
330
3AF8
100
AcDbEntity
  8
寸法
 62
     0
370
    -2
100
AcDbBlockReference
  2
_DOT
 10
161.6592962311176
 20
272.2370726621778
 30
0.0
 41
2.0
 42
2.0
 43
2.0
 50
180.0
  0
MTEXT
  5
3B00
330
3AF8
100
AcDbEntity
  8
寸法
 62
     0
100
AcDbMText
 10
211.6123524471227
 20
279.7370726621778
 30
0.0
 40
5.0
 41
0.0
 46
0.0
 71
     5
 72
     1
  1
\A1;100
  7
ＭＳ ゴシック
 73
     1
 44
1.0
  0
POINT
  5
3B01
330
3AF8
100
AcDbEntity
  8
Defpoints
 62
     0
100
AcDbPoint
 10
261.5654086631278
 20
293.8025652199963
 30
0.0
  0
POINT
  5
3B02
330
3AF8
100
AcDbEntity
  8
Defpoints
 62
     0
100
AcDbPoint
 10
161.6592962311176
 20
291.6855526477289
 30
0.0
  0
POINT
  5
3B03
330
3AF8
100
AcDbEntity
  8
Defpoints
 62
     0
100
AcDbPoint
 10
161.6592962311176
 20
272.2370726621778
 30
0.0
  0
ENDBLK
  5
3AFA
330
3AF8
100
AcDbEntity
  8
0
100
AcDbBlockEnd
  0
BLOCK
  5
3B05
330
3B04
100
AcDbEntity
  8
0
100
AcDbBlockBegin
  2
*D28
 70
     1
 10
0.0
 20
0.0
 30
0.0
  3
*D28
  1
*D29
  0
LINE
  5
3B07
330
3B04
100
AcDbEntity
  8
寸法
 62
     0
370
    -2
100
AcDbLine
 10
157.0813207064681
 20
311.1589677246066
 30
0.0
 11
137.0971428571428
 21
311.1589677246066
 31
0.0
  0
LINE
  5
3B08
330
3B04
100
AcDbEntity
  8
寸法
 62
     0
370
    -2
100
AcDbLine
 10
141.8419307741243
 20
346.2955197580586
 30
0.0
 11
137.0971428571428
 21
346.2955197580586
 31
0.0
  0
LINE
  5
3B09
330
3B04
100
AcDbEntity
  8
寸法
 62
     0
370
    -2
100
AcDbLine
 10
137.0971428571428
 20
313.1589677246066
 30
0.0
 11
137.0971428571428
 21
344.2955197580586
 31
0.0
  0
INSERT
  5
3B0A
330
3B04
100
AcDbEntity
  8
寸法
 62
     0
370
    -2
100
AcDbBlockReference
  2
_DOT
 10
137.0971428571428
 20
311.1589677246066
 30
0.0
 41
2.0
 42
2.0
 43
2.0
 50
270.0
  0
INSERT
  5
3B0B
330
3B04
100
AcDbEntity
  8
寸法
 62
     0
370
    -2
100
AcDbBlockReference
  2
_DOT
 10
137.0971428571428
 20
346.2955197580586
 30
0.0
 41
2.0
 42
2.0
 43
2.0
 50
90.0
  0
MTEXT
  5
3B0C
330
3B04
100
AcDbEntity
  8
寸法
 62
     0
100
AcDbMText
 10
129.5971428571428
 20
328.7272437413326
 30
0.0
 40
5.0
 41
0.0
 46
0.0
 71
     5
 72
     1
  1
\A1;35
  7
ＭＳ ゴシック
 11
0.0
 21
1.0
 31
0.0
 73
     1
 44
1.0
  0
POINT
  5
3B0D
330
3B04
100
AcDbEntity
  8
Defpoints
 62
     0
100
AcDbPoint
 10
162.0813207064681
 20
311.1589677246066
 30
0.0
  0
POINT
  5
3B0E
330
3B04
100
AcDbEntity
  8
Defpoints
 62
     0
100
AcDbPoint
 10
146.8419307741243
 20
346.2955197580586
 30
0.0
  0
POINT
  5
3B0F
330
3B04
100
AcDbEntity
  8
Defpoints
 62
     0
100
AcDbPoint
 10
137.0971428571428
 20
346.2955197580586
 30
0.0
  0
ENDBLK
  5
3B06
330
3B04
100
AcDbEntity
  8
0
100
AcDbBlockEnd
  0
BLOCK
  5
3B11
330
3B10
100
AcDbEntity
  8
0
100
AcDbBlockBegin
  2
*D29
 70
     1
 10
0.0
 20
0.0
 30
0.0
  3
*D29
  1
*D30
  0
LINE
  5
3B13
330
3B10
100
AcDbEntity
  8
寸法
 62
     0
370
    -2
100
AcDbLine
 10
166.8180282449072
 20
144.7666257071893
 30
0.0
 11
137.0971428571428
 21
144.7666257071893
 31
0.0
  0
LINE
  5
3B14
330
3B10
100
AcDbEntity
  8
寸法
 62
     0
370
    -2
100
AcDbLine
 10
166.8180282449072
 20
195.1447822836593
 30
0.0
 11
137.0971428571428
 21
195.1447822836593
 31
0.0
  0
LINE
  5
3B15
330
3B10
100
AcDbEntity
  8
寸法
 62
     0
370
    -2
100
AcDbLine
 10
137.0971428571428
 20
146.7666257071893
 30
0.0
 11
137.0971428571428
 21
193.1447822836593
 31
0.0
  0
INSERT
  5
3B16
330
3B10
100
AcDbEntity
  8
寸法
 62
     0
370
    -2
100
AcDbBlockReference
  2
_DOT
 10
137.0971428571428
 20
144.7666257071893
 30
0.0
 41
2.0
 42
2.0
 43
2.0
 50
270.0
  0
INSERT
  5
3B17
330
3B10
100
AcDbEntity
  8
寸法
 62
     0
370
    -2
100
AcDbBlockReference
  2
_DOT
 10
137.0971428571428
 20
195.1447822836593
 30
0.0
 41
2.0
 42
2.0
 43
2.0
 50
90.0
  0
MTEXT
  5
3B18
330
3B10
100
AcDbEntity
  8
寸法
 62
     0
100
AcDbMText
 10
129.5971428571428
 20
169.9557039954243
 30
0.0
 40
5.0
 41
0.0
 46
0.0
 71
     5
 72
     1
  1
\A1;50
  7
ＭＳ ゴシック
 11
0.0
 21
1.0
 31
0.0
 73
     1
 44
1.0
  0
POINT
  5
3B19
330
3B10
100
AcDbEntity
  8
Defpoints
 62
     0
100
AcDbPoint
 10
171.8180282449072
 20
144.7666257071893
 30
0.0
  0
POINT
  5
3B1A
330
3B10
100
AcDbEntity
  8
Defpoints
 62
     0
100
AcDbPoint
 10
171.8180282449072
 20
195.1447822836593
 30
0.0
  0
POINT
  5
3B1B
330
3B10
100
AcDbEntity
  8
Defpoints
 62
     0
100
AcDbPoint
 10
137.0971428571428
 20
195.1447822836593
 30
0.0
  0
ENDBLK
  5
3B12
330
3B10
100
AcDbEntity
  8
0
100
AcDbBlockEnd
  0
BLOCK
  5
3B1D
330
3B1C
100
AcDbEntity
  8
0
100
AcDbBlockBegin
  2
*D30
 70
     1
 10
0.0
 20
0.0
 30
0.0
  3
*D30
  1
*D31
  0
LINE
  5
3B1F
330
3B1C
100
AcDbEntity
  8
寸法
 62
     0
370
    -2
100
AcDbLine
 10
266.5654086631278
 20
177.3643788169747
 30
0.0
 11
283.9287013753707
 21
177.3643788169747
 31
0.0
  0
LINE
  5
3B20
330
3B1C
100
AcDbEntity
  8
寸法
 62
     0
370
    -2
100
AcDbLine
 10
266.5654086631278
 20
162.5470133599805
 30
0.0
 11
283.9287013753707
 21
162.5470133599805
 31
0.0
  0
LINE
  5
3B21
330
3B1C
100
AcDbEntity
  8
寸法
 62
     0
370
    -2
100
AcDbLine
 10
283.9287013753707
 20
175.3643788169747
 30
0.0
 11
283.9287013753707
 21
164.5470133599805
 31
0.0
  0
INSERT
  5
3B22
330
3B1C
100
AcDbEntity
  8
寸法
 62
     0
370
    -2
100
AcDbBlockReference
  2
_DOT
 10
283.9287013753707
 20
177.3643788169747
 30
0.0
 41
2.0
 42
2.0
 43
2.0
 50
90.0
  0
INSERT
  5
3B23
330
3B1C
100
AcDbEntity
  8
寸法
 62
     0
370
    -2
100
AcDbBlockReference
  2
_DOT
 10
283.9287013753707
 20
162.5470133599805
 30
0.0
 41
2.0
 42
2.0
 43
2.0
 50
270.0
  0
MTEXT
  5
3B24
330
3B1C
100
AcDbEntity
  8
寸法
 62
     0
100
AcDbMText
 10
276.4287013753707
 20
170.2111726613443
 30
0.0
 40
5.0
 41
0.0
 46
0.0
 71
     5
 72
     1
  1
\A1;15
  7
ＭＳ ゴシック
 11
0.0
 21
1.0
 31
0.0
 73
     1
 44
1.0
  0
POINT
  5
3B25
330
3B1C
100
AcDbEntity
  8
Defpoints
 62
     0
100
AcDbPoint
 10
261.5654086631278
 20
177.3643788169747
 30
0.0
  0
POINT
  5
3B26
330
3B1C
100
AcDbEntity
  8
Defpoints
 62
     0
100
AcDbPoint
 10
261.5654086631278
 20
162.5470133599805
 30
0.0
  0
POINT
  5
3B27
330
3B1C
100
AcDbEntity
  8
Defpoints
 62
     0
100
AcDbPoint
 10
283.9287013753707
 20
162.5470133599805
 30
0.0
  0
ENDBLK
  5
3B1E
330
3B1C
100
AcDbEntity
  8
0
100
AcDbBlockEnd
  0
BLOCK
  5
3B29
330
3B28
100
AcDbEntity
  8
0
100
AcDbBlockBegin
  2
*D31
 70
     1
 10
0.0
 20
0.0
 30
0.0
  3
*D31
  1
*D32
  0
LINE
  5
3B2B
330
3B28
100
AcDbEntity
  8
寸法
 62
     0
370
    -2
100
AcDbLine
 10
266.5654086631278
 20
293.8025652199963
 30
0.0
 11
300.7744427308268
 21
293.8025652199963
 31
0.0
  0
LINE
  5
3B2C
330
3B28
100
AcDbEntity
  8
寸法
 62
     0
370
    -2
100
AcDbLine
 10
201.7958482645687
 20
350.9532919268227
 30
0.0
 11
300.7744427308268
 21
350.9532919268227
 31
0.0
  0
LINE
  5
3B2D
330
3B28
100
AcDbEntity
  8
寸法
 62
     0
370
    -2
100
AcDbLine
 10
300.7744427308268
 20
295.8025652199963
 30
0.0
 11
300.7744427308268
 21
348.9532919268227
 31
0.0
  0
INSERT
  5
3B2E
330
3B28
100
AcDbEntity
  8
寸法
 62
     0
370
    -2
100
AcDbBlockReference
  2
_DOT
 10
300.7744427308268
 20
293.8025652199963
 30
0.0
 41
2.0
 42
2.0
 43
2.0
 50
270.0
  0
INSERT
  5
3B2F
330
3B28
100
AcDbEntity
  8
寸法
 62
     0
370
    -2
100
AcDbBlockReference
  2
_DOT
 10
300.7744427308268
 20
350.9532919268227
 30
0.0
 41
2.0
 42
2.0
 43
2.0
 50
90.0
  0
MTEXT
  5
3B30
330
3B28
100
AcDbEntity
  8
寸法
 62
     0
100
AcDbMText
 10
293.2744427308268
 20
322.3779285734095
 30
0.0
 40
5.0
 41
0.0
 46
0.0
 71
     5
 72
     1
  1
\A1;57
  7
ＭＳ ゴシック
 11
0.0
 21
1.0
 31
0.0
 73
     1
 44
1.0
  0
POINT
  5
3B31
330
3B28
100
AcDbEntity
  8
Defpoints
 62
     0
100
AcDbPoint
 10
261.5654086631278
 20
293.8025652199963
 30
0.0
  0
POINT
  5
3B32
330
3B28
100
AcDbEntity
  8
Defpoints
 62
     0
100
AcDbPoint
 10
196.7958482645687
 20
350.9532919268227
 30
0.0
  0
POINT
  5
3B33
330
3B28
100
AcDbEntity
  8
Defpoints
 62
     0
100
AcDbPoint
 10
300.7744427308268
 20
350.9532919268227
 30
0.0
  0
ENDBLK
  5
3B2A
330
3B28
100
AcDbEntity
  8
0
100
AcDbBlockEnd
  0
BLOCK
  5
3B35
330
3B34
100
AcDbEntity
  8
0
100
AcDbBlockBegin
  2
*D32
 70
     1
 10
0.0
 20
0.0
 30
0.0
  3
*D32
  1
*D33
  0
LINE
  5
3B37
330
3B34
100
AcDbEntity
  8
寸法
 62
     0
370
    -2
100
AcDbLine
 10
201.7958482645687
 20
350.9532919268227
 30
0.0
 11
280.2069526369435
 21
350.9532919268227
 31
0.0
  0
LINE
  5
3B38
330
3B34
100
AcDbEntity
  8
寸法
 62
     0
370
    -2
100
AcDbLine
 10
266.5654086631278
 20
308.6199306769895
 30
0.0
 11
280.2069526369435
 21
308.6199306769895
 31
0.0
  0
LINE
  5
3B39
330
3B34
100
AcDbEntity
  8
寸法
 62
     0
370
    -2
100
AcDbLine
 10
280.2069526369435
 20
348.9532919268227
 30
0.0
 11
280.2069526369435
 21
310.6199306769895
 31
0.0
  0
INSERT
  5
3B3A
330
3B34
100
AcDbEntity
  8
寸法
 62
     0
370
    -2
100
AcDbBlockReference
  2
_DOT
 10
280.2069526369435
 20
350.9532919268227
 30
0.0
 41
2.0
 42
2.0
 43
2.0
 50
90.0
  0
INSERT
  5
3B3B
330
3B34
100
AcDbEntity
  8
寸法
 62
     0
370
    -2
100
AcDbBlockReference
  2
_DOT
 10
280.2069526369435
 20
308.6199306769895
 30
0.0
 41
2.0
 42
2.0
 43
2.0
 50
270.0
  0
MTEXT
  5
3B3C
330
3B34
100
AcDbEntity
  8
寸法
 62
     0
100
AcDbMText
 10
272.7069526369435
 20
329.7866113019061
 30
0.0
 40
5.0
 41
0.0
 46
0.0
 71
     5
 72
     1
  1
\A1;42
  7
ＭＳ ゴシック
 11
0.0
 21
1.0
 31
0.0
 73
     1
 44
1.0
  0
POINT
  5
3B3D
330
3B34
100
AcDbEntity
  8
Defpoints
 62
     0
100
AcDbPoint
 10
196.7958482645687
 20
350.9532919268227
 30
0.0
  0
POINT
  5
3B3E
330
3B34
100
AcDbEntity
  8
Defpoints
 62
     0
100
AcDbPoint
 10
261.5654086631278
 20
308.6199306769895
 30
0.0
  0
POINT
  5
3B3F
330
3B34
100
AcDbEntity
  8
Defpoints
 62
     0
100
AcDbPoint
 10
280.2069526369435
 20
308.6199306769895
 30
0.0
  0
ENDBLK
  5
3B36
330
3B34
100
AcDbEntity
  8
0
100
AcDbBlockEnd
  0
BLOCK
  5
3B41
330
3B40
100
AcDbEntity
  8
0
100
AcDbBlockBegin
  2
*D33
 70
     1
 10
0.0
 20
0.0
 30
0.0
  3
*D33
  1
*D34
  0
LINE
  5
3B43
330
3B40
100
AcDbEntity
  8
寸法
 62
     0
370
    -2
100
AcDbLine
 10
190.8180282449072
 20
164.7438225763632
 30
0.0
 11
190.8180282449072
 21
127.4537036122544
 31
0.0
  0
LINE
  5
3B44
330
3B40
100
AcDbEntity
  8
寸法
 62
     0
370
    -2
100
AcDbLine
 10
152.9810949788122
 20
164.7438225763632
 30
0.0
 11
152.9810949788122
 21
127.4537036122544
 31
0.0
  0
LINE
  5
3B45
330
3B40
100
AcDbEntity
  8
寸法
 62
     0
370
    -2
100
AcDbLine
 10
188.8180282449072
 20
127.4537036122544
 30
0.0
 11
154.9810949788122
 21
127.4537036122544
 31
0.0
  0
INSERT
  5
3B46
330
3B40
100
AcDbEntity
  8
寸法
 62
     0
370
    -2
100
AcDbBlockReference
  2
_DOT
 10
190.8180282449072
 20
127.4537036122544
 30
0.0
 41
2.0
 42
2.0
 43
2.0
  0
INSERT
  5
3B47
330
3B40
100
AcDbEntity
  8
寸法
 62
     0
370
    -2
100
AcDbBlockReference
  2
_DOT
 10
152.9810949788122
 20
127.4537036122544
 30
0.0
 41
2.0
 42
2.0
 43
2.0
 50
180.0
  0
MTEXT
  5
3B48
330
3B40
100
AcDbEntity
  8
寸法
 62
     0
100
AcDbMText
 10
171.8995616118597
 20
134.9537036122544
 30
0.0
 40
5.0
 41
0.0
 46
0.0
 71
     5
 72
     1
  1
\A1;38
  7
ＭＳ ゴシック
 73
     1
 44
1.0
  0
POINT
  5
3B49
330
3B40
100
AcDbEntity
  8
Defpoints
 62
     0
100
AcDbPoint
 10
190.8180282449072
 20
169.7438225763632
 30
0.0
  0
POINT
  5
3B4A
330
3B40
100
AcDbEntity
  8
Defpoints
 62
     0
100
AcDbPoint
 10
152.9810949788122
 20
169.7438225763632
 30
0.0
  0
POINT
  5
3B4B
330
3B40
100
AcDbEntity
  8
Defpoints
 62
     0
100
AcDbPoint
 10
152.9810949788122
 20
127.4537036122544
 30
0.0
  0
ENDBLK
  5
3B42
330
3B40
100
AcDbEntity
  8
0
100
AcDbBlockEnd
  0
BLOCK
  5
3B4D
330
3B4C
100
AcDbEntity
  8
0
100
AcDbBlockBegin
  2
*D34
 70
     1
 10
0.0
 20
0.0
 30
0.0
  3
*D34
  1
*D35
  0
LINE
  5
3B4F
330
3B4C
100
AcDbEntity
  8
寸法
 62
     0
370
    -2
100
AcDbLine
 10
431.4339565169425
 20
139.766609893296
 30
0.0
 11
431.4339565169425
 21
127.4428571428571
 31
0.0
  0
LINE
  5
3B50
330
3B4C
100
AcDbEntity
  8
寸法
 62
     0
370
    -2
100
AcDbLine
 10
426.7761843481786
 20
139.766609893296
 30
0.0
 11
426.7761843481786
 21
127.4428571428571
 31
0.0
  0
LINE
  5
3B51
330
3B4C
100
AcDbEntity
  8
寸法
 62
     0
370
    -2
100
AcDbLine
 10
429.4339565169425
 20
127.4428571428571
 30
0.0
 11
428.7761843481786
 21
127.4428571428571
 31
0.0
  0
INSERT
  5
3B52
330
3B4C
100
AcDbEntity
  8
寸法
 62
     0
370
    -2
100
AcDbBlockReference
  2
_DOT
 10
431.4339565169425
 20
127.4428571428571
 30
0.0
 41
2.0
 42
2.0
 43
2.0
  0
INSERT
  5
3B53
330
3B4C
100
AcDbEntity
  8
寸法
 62
     0
370
    -2
100
AcDbBlockReference
  2
_DOT
 10
426.7761843481786
 20
127.4428571428571
 30
0.0
 41
2.0
 42
2.0
 43
2.0
 50
180.0
  0
MTEXT
  5
3B54
330
3B4C
100
AcDbEntity
  8
寸法
 62
     0
100
AcDbMText
 10
429.1050704325605
 20
134.9428571428571
 30
0.0
 40
5.0
 41
0.0
 46
0.0
 71
     5
 72
     1
  1
\A1;5
  7
ＭＳ ゴシック
 73
     1
 44
1.0
  0
POINT
  5
3B55
330
3B4C
100
AcDbEntity
  8
Defpoints
 62
     0
100
AcDbPoint
 10
431.4339565169425
 20
144.766609893296
 30
0.0
  0
POINT
  5
3B56
330
3B4C
100
AcDbEntity
  8
Defpoints
 62
     0
100
AcDbPoint
 10
426.7761843481786
 20
144.766609893296
 30
0.0
  0
POINT
  5
3B57
330
3B4C
100
AcDbEntity
  8
Defpoints
 62
     0
100
AcDbPoint
 10
426.7761843481786
 20
127.4428571428571
 30
0.0
  0
ENDBLK
  5
3B4E
330
3B4C
100
AcDbEntity
  8
0
100
AcDbBlockEnd
  0
BLOCK
  5
3C18
330
3C17
100
AcDbEntity
  8
0
100
AcDbBlockBegin
  2
*D35
 70
     1
 10
0.0
 20
0.0
 30
0.0
  3
*D35
  1
*D16
  0
LINE
  5
3C19
330
3C17
100
AcDbEntity
  8
寸法
 62
     0
370
    -2
100
AcDbLine
 10
32.06858160197294
 20
91.28108679034571
 30
0.0
 11
10.0
 21
91.28108679034571
 31
0.0
  0
LINE
  5
3C1A
330
3C17
100
AcDbEntity
  8
寸法
 62
     0
370
    -2
100
AcDbLine
 10
32.06858160197294
 20
23.5470197710605
 30
0.0
 11
10.0
 21
23.5470197710605
 31
0.0
  0
LINE
  5
3C1B
330
3C17
100
AcDbEntity
  8
寸法
 62
     0
370
    -2
100
AcDbLine
 10
10.0
 20
89.28108679034571
 30
0.0
 11
10.0
 21
25.5470197710605
 31
0.0
  0
INSERT
  5
3C1C
330
3C17
100
AcDbEntity
  8
寸法
 62
     0
370
    -2
100
AcDbBlockReference
  2
_DOT
 10
10.0
 20
91.28108679034571
 30
0.0
 41
2.0
 42
2.0
 43
2.0
 50
90.0
  0
INSERT
  5
3C1D
330
3C17
100
AcDbEntity
  8
寸法
 62
     0
370
    -2
100
AcDbBlockReference
  2
_DOT
 10
10.0
 20
23.5470197710605
 30
0.0
 41
2.0
 42
2.0
 43
2.0
 50
270.0
  0
MTEXT
  5
3C1E
330
3C17
100
AcDbEntity
  8
寸法
 62
     0
100
AcDbMText
 10
2.500000000000002
 20
57.41405328070311
 30
0.0
 40
5.0
 41
0.0
 46
0.0
 71
     5
 72
     1
  1
\A1;68
  7
ＭＳ ゴシック
 11
5.245091333123367E-17
 21
1.0
 31
0.0
 73
     1
 44
1.0
  0
POINT
  5
3C1F
330
3C17
100
AcDbEntity
  8
Defpoints
 62
     0
100
AcDbPoint
 10
37.06858160197294
 20
91.28108679034571
 30
0.0
  0
POINT
  5
3C20
330
3C17
100
AcDbEntity
  8
Defpoints
 62
     0
100
AcDbPoint
 10
37.06858160197294
 20
23.5470197710605
 30
0.0
  0
POINT
  5
3C21
330
3C17
100
AcDbEntity
  8
Defpoints
 62
     0
100
AcDbPoint
 10
10.0
 20
23.5470197710605
 30
0.0
  0
ENDBLK
  5
3C22
330
3C17
100
AcDbEntity
  8
0
100
AcDbBlockEnd
  0
BLOCK
  5
3C27
330
3C26
100
AcDbEntity
  8
0
100
AcDbBlockBegin
  2
*D36
 70
     1
 10
0.0
 20
0.0
 30
0.0
  3
*D36
  1
*D17
  0
LINE
  5
3C28
330
3C26
100
AcDbEntity
  8
寸法
 62
     0
370
    -2
100
AcDbLine
 10
527.6344400001251
 20
91.28108679034571
 30
0.0
 11
547.8702609313852
 21
91.28108679034571
 31
0.0
  0
LINE
  5
3C29
330
3C26
100
AcDbEntity
  8
寸法
 62
     0
370
    -2
100
AcDbLine
 10
527.6344400001251
 20
23.5470197710605
 30
0.0
 11
547.8702609313852
 21
23.5470197710605
 31
0.0
  0
LINE
  5
3C2A
330
3C26
100
AcDbEntity
  8
寸法
 62
     0
370
    -2
100
AcDbLine
 10
547.8702609313852
 20
89.28108679034571
 30
0.0
 11
547.8702609313852
 21
25.5470197710605
 31
0.0
  0
INSERT
  5
3C2B
330
3C26
100
AcDbEntity
  8
寸法
 62
     0
370
    -2
100
AcDbBlockReference
  2
_DOT
 10
547.8702609313852
 20
91.28108679034571
 30
0.0
 41
2.0
 42
2.0
 43
2.0
 50
90.0
  0
INSERT
  5
3C2C
330
3C26
100
AcDbEntity
  8
寸法
 62
     0
370
    -2
100
AcDbBlockReference
  2
_DOT
 10
547.8702609313852
 20
23.5470197710605
 30
0.0
 41
2.0
 42
2.0
 43
2.0
 50
270.0
  0
MTEXT
  5
3C2D
330
3C26
100
AcDbEntity
  8
寸法
 62
     0
100
AcDbMText
 10
540.3702609313852
 20
57.41405328070311
 30
0.0
 40
5.0
 41
0.0
 46
0.0
 71
     5
 72
     1
  1
\A1;68
  7
ＭＳ ゴシック
 11
0.0
 21
1.0
 31
0.0
 73
     1
 44
1.0
  0
POINT
  5
3C2E
330
3C26
100
AcDbEntity
  8
Defpoints
 62
     0
100
AcDbPoint
 10
522.6344400001251
 20
91.28108679034571
 30
0.0
  0
POINT
  5
3C2F
330
3C26
100
AcDbEntity
  8
Defpoints
 62
     0
100
AcDbPoint
 10
522.6344400001251
 20
23.5470197710605
 30
0.0
  0
POINT
  5
3C30
330
3C26
100
AcDbEntity
  8
Defpoints
 62
     0
100
AcDbPoint
 10
547.8702609313852
 20
23.5470197710605
 30
0.0
  0
ENDBLK
  5
3C31
330
3C26
100
AcDbEntity
  8
0
100
AcDbBlockEnd
  0
BLOCK
  5
3C34
330
3C33
100
AcDbEntity
  8
0
100
AcDbBlockBegin
  2
*D37
 70
     1
 10
0.0
 20
0.0
 30
0.0
  3
*D37
  1
*D18
  0
LINE
  5
3C35
330
3C33
100
AcDbEntity
  8
寸法
 62
     0
370
    -2
100
AcDbLine
 10
522.6344400001251
 20
18.5470197710605
 30
0.0
 11
522.6344400001251
 21
0.5
 31
0.0
  0
LINE
  5
3C36
330
3C33
100
AcDbEntity
  8
寸法
 62
     0
370
    -2
100
AcDbLine
 10
507.6344400001251
 20
18.5470197710605
 30
0.0
 11
507.6344400001251
 21
0.5
 31
0.0
  0
LINE
  5
3C37
330
3C33
100
AcDbEntity
  8
寸法
 62
     0
370
    -2
100
AcDbLine
 10
520.6344400001251
 20
0.5
 30
0.0
 11
509.6344400001251
 21
0.5
 31
0.0
  0
INSERT
  5
3C38
330
3C33
100
AcDbEntity
  8
寸法
 62
     0
370
    -2
100
AcDbBlockReference
  2
_DOT
 10
522.6344400001251
 20
0.5
 30
0.0
 41
2.0
 42
2.0
 43
2.0
  0
INSERT
  5
3C39
330
3C33
100
AcDbEntity
  8
寸法
 62
     0
370
    -2
100
AcDbBlockReference
  2
_DOT
 10
507.6344400001251
 20
0.5
 30
0.0
 41
2.0
 42
2.0
 43
2.0
 50
180.0
  0
MTEXT
  5
3C3A
330
3C33
100
AcDbEntity
  8
寸法
 62
     0
100
AcDbMText
 10
514.6493836031327
 20
8.0
 30
0.0
 40
5.0
 41
0.0
 46
0.0
 71
     5
 72
     1
  1
\A1;15
  7
ＭＳ ゴシック
 73
     1
 44
1.0
  0
POINT
  5
3C3B
330
3C33
100
AcDbEntity
  8
Defpoints
 62
     0
100
AcDbPoint
 10
522.6344400001251
 20
23.5470197710605
 30
0.0
  0
POINT
  5
3C3C
330
3C33
100
AcDbEntity
  8
Defpoints
 62
     0
100
AcDbPoint
 10
507.6344400001251
 20
23.5470197710605
 30
0.0
  0
POINT
  5
3C3D
330
3C33
100
AcDbEntity
  8
Defpoints
 62
     0
100
AcDbPoint
 10
507.6344400001251
 20
0.5
 30
0.0
  0
ENDBLK
  5
3C3E
330
3C33
100
AcDbEntity
  8
0
100
AcDbBlockEnd
  0
BLOCK
  5
3C41
330
3C40
100
AcDbEntity
  8
0
100
AcDbBlockBegin
  2
*D38
 70
     1
 10
0.0
 20
0.0
 30
0.0
  3
*D38
  1
*D19
  0
LINE
  5
3C42
330
3C40
100
AcDbEntity
  8
寸法
 62
     0
370
    -2
100
AcDbLine
 10
437.1202234520003
 20
96.28108679034571
 30
0.0
 11
437.1202234520003
 21
114.2313903958224
 31
0.0
  0
LINE
  5
3C43
330
3C40
100
AcDbEntity
  8
寸法
 62
     0
370
    -2
100
AcDbLine
 10
57.12022345200035
 20
96.28108679034571
 30
0.0
 11
57.12022345200035
 21
114.2313903958224
 31
0.0
  0
LINE
  5
3C44
330
3C40
100
AcDbEntity
  8
寸法
 62
     0
370
    -2
100
AcDbLine
 10
435.1202234520003
 20
114.2313903958224
 30
0.0
 11
59.12022345200035
 21
114.2313903958224
 31
0.0
  0
INSERT
  5
3C45
330
3C40
100
AcDbEntity
  8
寸法
 62
     0
370
    -2
100
AcDbBlockReference
  2
_DOT
 10
437.1202234520003
 20
114.2313903958224
 30
0.0
 41
2.0
 42
2.0
 43
2.0
  0
INSERT
  5
3C46
330
3C40
100
AcDbEntity
  8
寸法
 62
     0
370
    -2
100
AcDbBlockReference
  2
_DOT
 10
57.12022345200035
 20
114.2313903958224
 30
0.0
 41
2.0
 42
2.0
 43
2.0
 50
180.0
  0
MTEXT
  5
3C47
330
3C40
100
AcDbEntity
  8
寸法
 62
     0
100
AcDbMText
 10
247.1202234520003
 20
121.7313903958224
 30
0.0
 40
5.0
 41
0.0
 46
0.0
 71
     5
 72
     1
  1
\A1;380
  7
ＭＳ ゴシック
 73
     1
 44
1.0
  0
POINT
  5
3C48
330
3C40
100
AcDbEntity
  8
Defpoints
 62
     0
100
AcDbPoint
 10
437.1202234520003
 20
91.28108679034571
 30
0.0
  0
POINT
  5
3C49
330
3C40
100
AcDbEntity
  8
Defpoints
 62
     0
100
AcDbPoint
 10
57.12022345200035
 20
91.28108679034571
 30
0.0
  0
POINT
  5
3C4A
330
3C40
100
AcDbEntity
  8
Defpoints
 62
     0
100
AcDbPoint
 10
57.12022345200035
 20
114.2313903958224
 30
0.0
  0
ENDBLK
  5
3C4B
330
3C40
100
AcDbEntity
  8
0
100
AcDbBlockEnd
  0
BLOCK
  5
3C4E
330
3C4D
100
AcDbEntity
  8
0
100
AcDbBlockBegin
  2
*D39
 70
     1
 10
0.0
 20
0.0
 30
0.0
  3
*D39
  1
*D20
  0
LINE
  5
3C4F
330
3C4D
100
AcDbEntity
  8
寸法
 62
     0
370
    -2
100
AcDbLine
 10
431.1929327594278
 20
39.61373397789231
 30
0.0
 11
431.1929327594278
 21
0.5
 31
0.0
  0
LINE
  5
3C50
330
3C4D
100
AcDbEntity
  8
寸法
 62
     0
370
    -2
100
AcDbLine
 10
63.19293275942778
 20
39.61373397789231
 30
0.0
 11
63.19293275942778
 21
0.5
 31
0.0
  0
LINE
  5
3C51
330
3C4D
100
AcDbEntity
  8
寸法
 62
     0
370
    -2
100
AcDbLine
 10
429.1929327594278
 20
0.5
 30
0.0
 11
65.19293275942778
 21
0.5
 31
0.0
  0
INSERT
  5
3C52
330
3C4D
100
AcDbEntity
  8
寸法
 62
     0
370
    -2
100
AcDbBlockReference
  2
_DOT
 10
431.1929327594278
 20
0.5
 30
0.0
 41
2.0
 42
2.0
 43
2.0
  0
INSERT
  5
3C53
330
3C4D
100
AcDbEntity
  8
寸法
 62
     0
370
    -2
100
AcDbBlockReference
  2
_DOT
 10
63.19293275942778
 20
0.5
 30
0.0
 41
2.0
 42
2.0
 43
2.0
 50
180.0
  0
MTEXT
  5
3C54
330
3C4D
100
AcDbEntity
  8
寸法
 62
     0
100
AcDbMText
 10
247.1929327594278
 20
8.0
 30
0.0
 40
5.0
 41
0.0
 46
0.0
 71
     5
 72
     1
  1
\A1;368
  7
ＭＳ ゴシック
 73
     1
 44
1.0
  0
POINT
  5
3C55
330
3C4D
100
AcDbEntity
  8
Defpoints
 62
     0
100
AcDbPoint
 10
431.1929327594278
 20
44.61373397789231
 30
0.0
  0
POINT
  5
3C56
330
3C4D
100
AcDbEntity
  8
Defpoints
 62
     0
100
AcDbPoint
 10
63.19293275942778
 20
44.61373397789231
 30
0.0
  0
POINT
  5
3C57
330
3C4D
100
AcDbEntity
  8
Defpoints
 62
     0
100
AcDbPoint
 10
63.19293275942778
 20
0.5
 30
0.0
  0
ENDBLK
  5
3C58
330
3C4D
100
AcDbEntity
  8
0
100
AcDbBlockEnd
  0
BLOCK
  5
3C66
330
3C65
100
AcDbEntity
  8
0
100
AcDbBlockBegin
  2
*D40
 70
     1
 10
0.0
 20
0.0
 30
0.0
  3
*D40
  1
*D22
  0
LINE
  5
3C67
330
3C65
100
AcDbEntity
  8
寸法
 62
     0
370
    -2
100
AcDbLine
 10
37.06858160197294
 20
188.0346734004582
 30
0.0
 11
37.06858160197294
 21
208.1774756951709
 31
0.0
  0
LINE
  5
3C68
330
3C65
100
AcDbEntity
  8
寸法
 62
     0
370
    -2
100
AcDbLine
 10
457.0156630042291
 20
188.0346734004581
 30
0.0
 11
457.0156630042291
 21
208.1774756951709
 31
0.0
  0
LINE
  5
3C69
330
3C65
100
AcDbEntity
  8
寸法
 62
     0
370
    -2
100
AcDbLine
 10
39.06858160197294
 20
208.1774756951709
 30
0.0
 11
455.0156630042291
 21
208.1774756951709
 31
0.0
  0
INSERT
  5
3C6A
330
3C65
100
AcDbEntity
  8
寸法
 62
     0
370
    -2
100
AcDbBlockReference
  2
_DOT
 10
37.06858160197294
 20
208.1774756951709
 30
0.0
 41
2.0
 42
2.0
 43
2.0
 50
180.0
  0
INSERT
  5
3C6B
330
3C65
100
AcDbEntity
  8
寸法
 62
     0
370
    -2
100
AcDbBlockReference
  2
_DOT
 10
457.0156630042291
 20
208.1774756951709
 30
0.0
 41
2.0
 42
2.0
 43
2.0
  0
MTEXT
  5
3C6C
330
3C65
100
AcDbEntity
  8
寸法
 62
     0
100
AcDbMText
 10
251.687122303101
 20
215.6774756951709
 30
0.0
 40
5.0
 41
0.0
 46
0.0
 71
     5
 72
     1
  1
\A1;420
  7
ＭＳ ゴシック
 73
     1
 44
1.0
  0
POINT
  5
3C6D
330
3C65
100
AcDbEntity
  8
Defpoints
 62
     0
100
AcDbPoint
 10
37.06858160197294
 20
183.0346734004582
 30
0.0
  0
POINT
  5
3C6E
330
3C65
100
AcDbEntity
  8
Defpoints
 62
     0
100
AcDbPoint
 10
457.0156630042291
 20
183.0346734004581
 30
0.0
  0
POINT
  5
3C6F
330
3C65
100
AcDbEntity
  8
Defpoints
 62
     0
100
AcDbPoint
 10
457.0156630042291
 20
208.1774756951709
 30
0.0
  0
ENDBLK
  5
3C70
330
3C65
100
AcDbEntity
  8
0
100
AcDbBlockEnd
  0
BLOCK
  5
3C73
330
3C72
100
AcDbEntity
  8
0
100
AcDbBlockBegin
  2
*D41
 70
     1
 10
0.0
 20
0.0
 30
0.0
  3
*D41
  1
*D24
  0
LINE
  5
3C74
330
3C72
100
AcDbEntity
  8
モデル
 62
     0
370
    -2
100
AcDbLine
 10
32.06858160197294
 20
183.0346734004581
 30
0.0
 11
19.96100788988826
 21
183.0346734004581
 31
0.0
  0
LINE
  5
3C75
330
3C72
100
AcDbEntity
  8
モデル
 62
     0
370
    -2
100
AcDbLine
 10
32.06858160197294
 20
168.0346734004581
 30
0.0
 11
19.96100788988826
 21
168.0346734004581
 31
0.0
  0
LINE
  5
3C76
330
3C72
100
AcDbEntity
  8
モデル
 62
     0
370
    -2
100
AcDbLine
 10
19.96100788988826
 20
181.0346734004581
 30
0.0
 11
19.96100788988826
 21
170.0346734004581
 31
0.0
  0
INSERT
  5
3C77
330
3C72
100
AcDbEntity
  8
モデル
 62
     0
370
    -2
100
AcDbBlockReference
  2
_DOT
 10
19.96100788988826
 20
183.0346734004581
 30
0.0
 41
2.0
 42
2.0
 43
2.0
 50
90.0
  0
INSERT
  5
3C78
330
3C72
100
AcDbEntity
  8
モデル
 62
     0
370
    -2
100
AcDbBlockReference
  2
_DOT
 10
19.96100788988826
 20
168.0346734004581
 30
0.0
 41
2.0
 42
2.0
 43
2.0
 50
270.0
  0
MTEXT
  5
3C79
330
3C72
100
AcDbEntity
  8
モデル
 62
     0
100
AcDbMText
 10
12.46100788988826
 20
175.5346734004581
 30
0.0
 40
5.0
 41
0.0
 46
0.0
 71
     5
 72
     1
  1
\A1;15
  7
ＭＳ ゴシック
 11
0.0
 21
1.0
 31
0.0
 73
     1
 44
1.0
  0
POINT
  5
3C7A
330
3C72
100
AcDbEntity
  8
Defpoints
 62
     0
100
AcDbPoint
 10
37.06858160197294
 20
183.0346734004581
 30
0.0
  0
POINT
  5
3C7B
330
3C72
100
AcDbEntity
  8
Defpoints
 62
     0
100
AcDbPoint
 10
37.06858160197294
 20
168.0346734004581
 30
0.0
  0
POINT
  5
3C7C
330
3C72
100
AcDbEntity
  8
Defpoints
 62
     0
100
AcDbPoint
 10
19.96100788988826
 20
168.0346734004581
 30
0.0
  0
ENDBLK
  5
3C7D
330
3C72
100
AcDbEntity
  8
0
100
AcDbBlockEnd
  0
BLOCK
  5
3D0F
330
3D0E
100
AcDbEntity
  8
0
100
AcDbBlockBegin
  2
*D42
 70
     1
 10
0.0
 20
0.0
 30
0.0
  3
*D42
  1
*D43
  0
LINE
  5
3D11
330
3D0E
100
AcDbEntity
  8
寸法
 62
     0
370
    -2
100
AcDbLine
 10
53.6685816019729
 20
219.3896582189171
 30
0.0
 11
41.56100788988822
 21
219.3896582189171
 31
0.0
  0
LINE
  5
3D12
330
3D0E
100
AcDbEntity
  8
寸法
 62
     0
370
    -2
100
AcDbLine
 10
53.6685816019729
 20
151.6555911996319
 30
0.0
 11
41.56100788988822
 21
151.6555911996319
 31
0.0
  0
LINE
  5
3D13
330
3D0E
100
AcDbEntity
  8
寸法
 62
     0
370
    -2
100
AcDbLine
 10
41.56100788988822
 20
217.3896582189171
 30
0.0
 11
41.56100788988822
 21
153.6555911996319
 31
0.0
  0
INSERT
  5
3D14
330
3D0E
100
AcDbEntity
  8
寸法
 62
     0
370
    -2
100
AcDbBlockReference
  2
_DOT
 10
41.56100788988822
 20
219.3896582189171
 30
0.0
 41
2.0
 42
2.0
 43
2.0
 50
90.0
  0
INSERT
  5
3D15
330
3D0E
100
AcDbEntity
  8
寸法
 62
     0
370
    -2
100
AcDbBlockReference
  2
_DOT
 10
41.56100788988822
 20
151.6555911996319
 30
0.0
 41
2.0
 42
2.0
 43
2.0
 50
270.0
  0
MTEXT
  5
3D16
330
3D0E
100
AcDbEntity
  8
寸法
 62
     0
100
AcDbMText
 10
34.06100788988822
 20
185.5226247092745
 30
0.0
 40
5.0
 41
0.0
 46
0.0
 71
     5
 72
     1
  1
\A1;68
  7
ＭＳ ゴシック
 11
1.049018266624674E-16
 21
1.0
 31
0.0
 73
     1
 44
1.0
  0
POINT
  5
3D17
330
3D0E
100
AcDbEntity
  8
Defpoints
 62
     0
100
AcDbPoint
 10
58.6685816019729
 20
219.3896582189171
 30
0.0
  0
POINT
  5
3D18
330
3D0E
100
AcDbEntity
  8
Defpoints
 62
     0
100
AcDbPoint
 10
58.6685816019729
 20
151.6555911996319
 30
0.0
  0
POINT
  5
3D19
330
3D0E
100
AcDbEntity
  8
Defpoints
 62
     0
100
AcDbPoint
 10
41.56100788988822
 20
151.6555911996319
 30
0.0
  0
ENDBLK
  5
3D10
330
3D0E
100
AcDbEntity
  8
0
100
AcDbBlockEnd
  0
BLOCK
  5
3D1B
330
3D1A
100
AcDbEntity
  8
0
100
AcDbBlockBegin
  2
*D43
 70
     1
 10
0.0
 20
0.0
 30
0.0
  3
*D43
  1
*D44
  0
LINE
  5
3D1D
330
3D1A
100
AcDbEntity
  8
寸法
 62
     0
370
    -2
100
AcDbLine
 10
538.7430114286964
 20
219.3896582189171
 30
0.0
 11
558.9788323599565
 21
219.3896582189171
 31
0.0
  0
LINE
  5
3D1E
330
3D1A
100
AcDbEntity
  8
寸法
 62
     0
370
    -2
100
AcDbLine
 10
538.7430114286964
 20
151.6555911996319
 30
0.0
 11
558.9788323599565
 21
151.6555911996319
 31
0.0
  0
LINE
  5
3D1F
330
3D1A
100
AcDbEntity
  8
寸法
 62
     0
370
    -2
100
AcDbLine
 10
558.9788323599565
 20
217.3896582189171
 30
0.0
 11
558.9788323599565
 21
153.6555911996319
 31
0.0
  0
INSERT
  5
3D20
330
3D1A
100
AcDbEntity
  8
寸法
 62
     0
370
    -2
100
AcDbBlockReference
  2
_DOT
 10
558.9788323599565
 20
219.3896582189171
 30
0.0
 41
2.0
 42
2.0
 43
2.0
 50
90.0
  0
INSERT
  5
3D21
330
3D1A
100
AcDbEntity
  8
寸法
 62
     0
370
    -2
100
AcDbBlockReference
  2
_DOT
 10
558.9788323599565
 20
151.6555911996319
 30
0.0
 41
2.0
 42
2.0
 43
2.0
 50
270.0
  0
MTEXT
  5
3D22
330
3D1A
100
AcDbEntity
  8
寸法
 62
     0
100
AcDbMText
 10
551.4788323599565
 20
185.5226247092745
 30
0.0
 40
5.0
 41
0.0
 46
0.0
 71
     5
 72
     1
  1
\A1;68
  7
ＭＳ ゴシック
 11
0.0
 21
1.0
 31
0.0
 73
     1
 44
1.0
  0
POINT
  5
3D23
330
3D1A
100
AcDbEntity
  8
Defpoints
 62
     0
100
AcDbPoint
 10
533.7430114286964
 20
219.3896582189171
 30
0.0
  0
POINT
  5
3D24
330
3D1A
100
AcDbEntity
  8
Defpoints
 62
     0
100
AcDbPoint
 10
533.7430114286964
 20
151.6555911996319
 30
0.0
  0
POINT
  5
3D25
330
3D1A
100
AcDbEntity
  8
Defpoints
 62
     0
100
AcDbPoint
 10
558.9788323599565
 20
151.6555911996319
 30
0.0
  0
ENDBLK
  5
3D1C
330
3D1A
100
AcDbEntity
  8
0
100
AcDbBlockEnd
  0
BLOCK
  5
3D27
330
3D26
100
AcDbEntity
  8
0
100
AcDbBlockBegin
  2
*D44
 70
     1
 10
0.0
 20
0.0
 30
0.0
  3
*D44
  1
*D45
  0
LINE
  5
3D29
330
3D26
100
AcDbEntity
  8
寸法
 62
     0
370
    -2
100
AcDbLine
 10
533.7430114286964
 20
146.6555911996319
 30
0.0
 11
533.7430114286964
 21
128.6085714285714
 31
0.0
  0
LINE
  5
3D2A
330
3D26
100
AcDbEntity
  8
寸法
 62
     0
370
    -2
100
AcDbLine
 10
518.7430114286964
 20
146.6555911996319
 30
0.0
 11
518.7430114286964
 21
128.6085714285714
 31
0.0
  0
LINE
  5
3D2B
330
3D26
100
AcDbEntity
  8
寸法
 62
     0
370
    -2
100
AcDbLine
 10
531.7430114286964
 20
128.6085714285714
 30
0.0
 11
520.7430114286964
 21
128.6085714285714
 31
0.0
  0
INSERT
  5
3D2C
330
3D26
100
AcDbEntity
  8
寸法
 62
     0
370
    -2
100
AcDbBlockReference
  2
_DOT
 10
533.7430114286964
 20
128.6085714285714
 30
0.0
 41
2.0
 42
2.0
 43
2.0
  0
INSERT
  5
3D2D
330
3D26
100
AcDbEntity
  8
寸法
 62
     0
370
    -2
100
AcDbBlockReference
  2
_DOT
 10
518.7430114286964
 20
128.6085714285714
 30
0.0
 41
2.0
 42
2.0
 43
2.0
 50
180.0
  0
MTEXT
  5
3D2E
330
3D26
100
AcDbEntity
  8
寸法
 62
     0
100
AcDbMText
 10
525.757955031704
 20
136.1085714285714
 30
0.0
 40
5.0
 41
0.0
 46
0.0
 71
     5
 72
     1
  1
\A1;15
  7
ＭＳ ゴシック
 73
     1
 44
1.0
  0
POINT
  5
3D2F
330
3D26
100
AcDbEntity
  8
Defpoints
 62
     0
100
AcDbPoint
 10
533.7430114286964
 20
151.6555911996319
 30
0.0
  0
POINT
  5
3D30
330
3D26
100
AcDbEntity
  8
Defpoints
 62
     0
100
AcDbPoint
 10
518.7430114286964
 20
151.6555911996319
 30
0.0
  0
POINT
  5
3D31
330
3D26
100
AcDbEntity
  8
Defpoints
 62
     0
100
AcDbPoint
 10
518.7430114286964
 20
128.6085714285714
 30
0.0
  0
ENDBLK
  5
3D28
330
3D26
100
AcDbEntity
  8
0
100
AcDbBlockEnd
  0
BLOCK
  5
3D33
330
3D32
100
AcDbEntity
  8
0
100
AcDbBlockBegin
  2
*D45
 70
     1
 10
0.0
 20
0.0
 30
0.0
  3
*D45
  1
*D46
  0
LINE
  5
3D35
330
3D32
100
AcDbEntity
  8
寸法
 62
     0
370
    -2
100
AcDbLine
 10
458.7202234520003
 20
224.3896582189171
 30
0.0
 11
458.7202234520003
 21
242.3399618243938
 31
0.0
  0
LINE
  5
3D36
330
3D32
100
AcDbEntity
  8
寸法
 62
     0
370
    -2
100
AcDbLine
 10
78.72022345200031
 20
224.3896582189171
 30
0.0
 11
78.72022345200031
 21
242.3399618243938
 31
0.0
  0
LINE
  5
3D37
330
3D32
100
AcDbEntity
  8
寸法
 62
     0
370
    -2
100
AcDbLine
 10
456.7202234520003
 20
242.3399618243938
 30
0.0
 11
80.72022345200031
 21
242.3399618243938
 31
0.0
  0
INSERT
  5
3D38
330
3D32
100
AcDbEntity
  8
寸法
 62
     0
370
    -2
100
AcDbBlockReference
  2
_DOT
 10
458.7202234520003
 20
242.3399618243938
 30
0.0
 41
2.0
 42
2.0
 43
2.0
  0
INSERT
  5
3D39
330
3D32
100
AcDbEntity
  8
寸法
 62
     0
370
    -2
100
AcDbBlockReference
  2
_DOT
 10
78.72022345200031
 20
242.3399618243938
 30
0.0
 41
2.0
 42
2.0
 43
2.0
 50
180.0
  0
MTEXT
  5
3D3A
330
3D32
100
AcDbEntity
  8
寸法
 62
     0
100
AcDbMText
 10
268.7202234520003
 20
249.8399618243938
 30
0.0
 40
5.0
 41
0.0
 46
0.0
 71
     5
 72
     1
  1
\A1;380
  7
ＭＳ ゴシック
 73
     1
 44
1.0
  0
POINT
  5
3D3B
330
3D32
100
AcDbEntity
  8
Defpoints
 62
     0
100
AcDbPoint
 10
458.7202234520003
 20
219.3896582189171
 30
0.0
  0
POINT
  5
3D3C
330
3D32
100
AcDbEntity
  8
Defpoints
 62
     0
100
AcDbPoint
 10
78.72022345200031
 20
219.3896582189171
 30
0.0
  0
POINT
  5
3D3D
330
3D32
100
AcDbEntity
  8
Defpoints
 62
     0
100
AcDbPoint
 10
78.72022345200031
 20
242.3399618243938
 30
0.0
  0
ENDBLK
  5
3D34
330
3D32
100
AcDbEntity
  8
0
100
AcDbBlockEnd
  0
BLOCK
  5
3D3F
330
3D3E
100
AcDbEntity
  8
0
100
AcDbBlockBegin
  2
*D46
 70
     1
 10
0.0
 20
0.0
 30
0.0
  3
*D46
  1
*D47
  0
LINE
  5
3D41
330
3D3E
100
AcDbEntity
  8
寸法
 62
     0
370
    -2
100
AcDbLine
 10
452.7929327594277
 20
167.7223054064637
 30
0.0
 11
452.7929327594277
 21
128.6085714285714
 31
0.0
  0
LINE
  5
3D42
330
3D3E
100
AcDbEntity
  8
寸法
 62
     0
370
    -2
100
AcDbLine
 10
84.79293275942774
 20
167.7223054064637
 30
0.0
 11
84.79293275942774
 21
128.6085714285714
 31
0.0
  0
LINE
  5
3D43
330
3D3E
100
AcDbEntity
  8
寸法
 62
     0
370
    -2
100
AcDbLine
 10
450.7929327594277
 20
128.6085714285714
 30
0.0
 11
86.79293275942774
 21
128.6085714285714
 31
0.0
  0
INSERT
  5
3D44
330
3D3E
100
AcDbEntity
  8
寸法
 62
     0
370
    -2
100
AcDbBlockReference
  2
_DOT
 10
452.7929327594277
 20
128.6085714285714
 30
0.0
 41
2.0
 42
2.0
 43
2.0
  0
INSERT
  5
3D45
330
3D3E
100
AcDbEntity
  8
寸法
 62
     0
370
    -2
100
AcDbBlockReference
  2
_DOT
 10
84.79293275942774
 20
128.6085714285714
 30
0.0
 41
2.0
 42
2.0
 43
2.0
 50
180.0
  0
MTEXT
  5
3D46
330
3D3E
100
AcDbEntity
  8
寸法
 62
     0
100
AcDbMText
 10
268.7929327594277
 20
136.1085714285714
 30
0.0
 40
5.0
 41
0.0
 46
0.0
 71
     5
 72
     1
  1
\A1;368
  7
ＭＳ ゴシック
 73
     1
 44
1.0
  0
POINT
  5
3D47
330
3D3E
100
AcDbEntity
  8
Defpoints
 62
     0
100
AcDbPoint
 10
452.7929327594277
 20
172.7223054064637
 30
0.0
  0
POINT
  5
3D48
330
3D3E
100
AcDbEntity
  8
Defpoints
 62
     0
100
AcDbPoint
 10
84.79293275942774
 20
172.7223054064637
 30
0.0
  0
POINT
  5
3D49
330
3D3E
100
AcDbEntity
  8
Defpoints
 62
     0
100
AcDbPoint
 10
84.79293275942774
 20
128.6085714285714
 30
0.0
  0
ENDBLK
  5
3D40
330
3D3E
100
AcDbEntity
  8
0
100
AcDbBlockEnd
  0
BLOCK
  5
3D4B
330
3D4A
100
AcDbEntity
  8
0
100
AcDbBlockBegin
  2
*D47
 70
     1
 10
0.0
 20
0.0
 30
0.0
  3
*D47
  1
*D48
  0
LINE
  5
3D4D
330
3D4A
100
AcDbEntity
  8
寸法
 62
     0
370
    -2
100
AcDbLine
 10
58.6685816019729
 20
316.1432448290295
 30
0.0
 11
58.6685816019729
 21
336.2860471237423
 31
0.0
  0
LINE
  5
3D4E
330
3D4A
100
AcDbEntity
  8
寸法
 62
     0
370
    -2
100
AcDbLine
 10
478.615663004229
 20
316.1432448290295
 30
0.0
 11
478.615663004229
 21
336.2860471237423
 31
0.0
  0
LINE
  5
3D4F
330
3D4A
100
AcDbEntity
  8
寸法
 62
     0
370
    -2
100
AcDbLine
 10
60.6685816019729
 20
336.2860471237423
 30
0.0
 11
476.615663004229
 21
336.2860471237423
 31
0.0
  0
INSERT
  5
3D50
330
3D4A
100
AcDbEntity
  8
寸法
 62
     0
370
    -2
100
AcDbBlockReference
  2
_DOT
 10
58.6685816019729
 20
336.2860471237423
 30
0.0
 41
2.0
 42
2.0
 43
2.0
 50
180.0
  0
INSERT
  5
3D51
330
3D4A
100
AcDbEntity
  8
寸法
 62
     0
370
    -2
100
AcDbBlockReference
  2
_DOT
 10
478.615663004229
 20
336.2860471237423
 30
0.0
 41
2.0
 42
2.0
 43
2.0
  0
MTEXT
  5
3D52
330
3D4A
100
AcDbEntity
  8
寸法
 62
     0
100
AcDbMText
 10
273.2871223031009
 20
343.7860471237423
 30
0.0
 40
5.0
 41
0.0
 46
0.0
 71
     5
 72
     1
  1
\A1;420
  7
ＭＳ ゴシック
 73
     1
 44
1.0
  0
POINT
  5
3D53
330
3D4A
100
AcDbEntity
  8
Defpoints
 62
     0
100
AcDbPoint
 10
58.6685816019729
 20
311.1432448290295
 30
0.0
  0
POINT
  5
3D54
330
3D4A
100
AcDbEntity
  8
Defpoints
 62
     0
100
AcDbPoint
 10
478.615663004229
 20
311.1432448290295
 30
0.0
  0
POINT
  5
3D55
330
3D4A
100
AcDbEntity
  8
Defpoints
 62
     0
100
AcDbPoint
 10
478.615663004229
 20
336.2860471237423
 30
0.0
  0
ENDBLK
  5
3D4C
330
3D4A
100
AcDbEntity
  8
0
100
AcDbBlockEnd
  0
BLOCK
  5
3D57
330
3D56
100
AcDbEntity
  8
0
100
AcDbBlockBegin
  2
*D48
 70
     1
 10
0.0
 20
0.0
 30
0.0
  3
*D48
  1
*D49
  0
LINE
  5
3D59
330
3D56
100
AcDbEntity
  8
モデル
 62
     0
370
    -2
100
AcDbLine
 10
53.6685816019729
 20
311.1432448290295
 30
0.0
 11
41.56100788988823
 21
311.1432448290295
 31
0.0
  0
LINE
  5
3D5A
330
3D56
100
AcDbEntity
  8
モデル
 62
     0
370
    -2
100
AcDbLine
 10
53.6685816019729
 20
296.1432448290295
 30
0.0
 11
41.56100788988823
 21
296.1432448290295
 31
0.0
  0
LINE
  5
3D5B
330
3D56
100
AcDbEntity
  8
モデル
 62
     0
370
    -2
100
AcDbLine
 10
41.56100788988823
 20
309.1432448290295
 30
0.0
 11
41.56100788988823
 21
298.1432448290295
 31
0.0
  0
INSERT
  5
3D5C
330
3D56
100
AcDbEntity
  8
モデル
 62
     0
370
    -2
100
AcDbBlockReference
  2
_DOT
 10
41.56100788988823
 20
311.1432448290295
 30
0.0
 41
2.0
 42
2.0
 43
2.0
 50
90.0
  0
INSERT
  5
3D5D
330
3D56
100
AcDbEntity
  8
モデル
 62
     0
370
    -2
100
AcDbBlockReference
  2
_DOT
 10
41.56100788988823
 20
296.1432448290295
 30
0.0
 41
2.0
 42
2.0
 43
2.0
 50
270.0
  0
MTEXT
  5
3D5E
330
3D56
100
AcDbEntity
  8
モデル
 62
     0
100
AcDbMText
 10
34.06100788988823
 20
303.6432448290295
 30
0.0
 40
5.0
 41
0.0
 46
0.0
 71
     5
 72
     1
  1
\A1;15
  7
ＭＳ ゴシック
 11
0.0
 21
1.0
 31
0.0
 73
     1
 44
1.0
  0
POINT
  5
3D5F
330
3D56
100
AcDbEntity
  8
Defpoints
 62
     0
100
AcDbPoint
 10
58.6685816019729
 20
311.1432448290295
 30
0.0
  0
POINT
  5
3D60
330
3D56
100
AcDbEntity
  8
Defpoints
 62
     0
100
AcDbPoint
 10
58.6685816019729
 20
296.1432448290295
 30
0.0
  0
POINT
  5
3D61
330
3D56
100
AcDbEntity
  8
Defpoints
 62
     0
100
AcDbPoint
 10
41.56100788988823
 20
296.1432448290295
 30
0.0
  0
ENDBLK
  5
3D58
330
3D56
100
AcDbEntity
  8
0
100
AcDbBlockEnd
  0
BLOCK
  5
3DDC
330
3DDB
100
AcDbEntity
  8
0
100
AcDbBlockBegin
  2
*D49
 70
     1
 10
0.0
 20
0.0
 30
0.0
  3
*D49
  1
*D15
  0
LINE
  5
3DDD
330
3DDB
100
AcDbEntity
  8
寸法
 62
     0
370
    -2
100
AcDbLine
 10
60.78090629456685
 20
60.18976375444379
 30
0.0
 11
99.49502951788133
 21
60.18976375444379
 31
0.0
  0
LINE
  5
3DDE
330
3DDB
100
AcDbEntity
  8
寸法
 62
     0
370
    -2
100
AcDbLine
 10
60.78090629456685
 20
0.5
 30
0.0
 11
99.49502951788133
 21
0.5
 31
0.0
  0
LINE
  5
3DDF
330
3DDB
100
AcDbEntity
  8
寸法
 62
     0
370
    -2
100
AcDbLine
 10
99.49502951788133
 20
58.18976375444379
 30
0.0
 11
99.49502951788133
 21
2.5
 31
0.0
  0
INSERT
  5
3DE0
330
3DDB
100
AcDbEntity
  8
寸法
 62
     0
370
    -2
100
AcDbBlockReference
  2
_DOT
 10
99.49502951788133
 20
60.18976375444379
 30
0.0
 41
2.0
 42
2.0
 43
2.0
 50
90.0
  0
INSERT
  5
3DE1
330
3DDB
100
AcDbEntity
  8
寸法
 62
     0
370
    -2
100
AcDbBlockReference
  2
_DOT
 10
99.49502951788133
 20
0.5
 30
0.0
 41
2.0
 42
2.0
 43
2.0
 50
270.0
  0
MTEXT
  5
3DE2
330
3DDB
100
AcDbEntity
  8
寸法
 62
     0
100
AcDbMText
 10
91.99502951788133
 20
30.34488187722189
 30
0.0
 40
5.0
 41
0.0
 46
0.0
 71
     5
 72
     1
  1
\A1;60
  7
ＭＳ ゴシック
 11
0.0
 21
1.0
 31
0.0
 73
     1
 44
1.0
  0
POINT
  5
3DE3
330
3DDB
100
AcDbEntity
  8
Defpoints
 62
     0
100
AcDbPoint
 10
55.78090629456685
 20
60.18976375444379
 30
0.0
  0
POINT
  5
3DE4
330
3DDB
100
AcDbEntity
  8
Defpoints
 62
     0
100
AcDbPoint
 10
55.78090629456685
 20
0.5
 30
0.0
  0
POINT
  5
3DE5
330
3DDB
100
AcDbEntity
  8
Defpoints
 62
     0
100
AcDbPoint
 10
99.49502951788133
 20
0.4999999999999973
 30
0.0
  0
ENDBLK
  5
3DE6
330
3DDB
100
AcDbEntity
  8
0
100
AcDbBlockEnd
  0
BLOCK
  5
3DE9
330
3DE8
100
AcDbEntity
  8
0
100
AcDbBlockBegin
  2
*D50
 70
     1
 10
0.0
 20
0.0
 30
0.0
  3
*D50
  1
*D16
  0
LINE
  5
3DEA
330
3DE8
100
AcDbEntity
  8
寸法
 62
     0
370
    -2
100
AcDbLine
 10
65.76384546064907
 20
52.25002093737498
 30
0.0
 11
84.03236215495718
 21
52.25002093737498
 31
0.0
  0
LINE
  5
3DEB
330
3DE8
100
AcDbEntity
  8
寸法
 62
     0
370
    -2
100
AcDbLine
 10
65.76384546064907
 20
12.25002093737498
 30
0.0
 11
84.03236215495718
 21
12.25002093737498
 31
0.0
  0
LINE
  5
3DEC
330
3DE8
100
AcDbEntity
  8
寸法
 62
     0
370
    -2
100
AcDbLine
 10
84.03236215495718
 20
50.25002093737498
 30
0.0
 11
84.03236215495718
 21
14.25002093737498
 31
0.0
  0
INSERT
  5
3DED
330
3DE8
100
AcDbEntity
  8
寸法
 62
     0
370
    -2
100
AcDbBlockReference
  2
_DOT
 10
84.03236215495718
 20
52.25002093737498
 30
0.0
 41
2.0
 42
2.0
 43
2.0
 50
90.0
  0
INSERT
  5
3DEE
330
3DE8
100
AcDbEntity
  8
寸法
 62
     0
370
    -2
100
AcDbBlockReference
  2
_DOT
 10
84.03236215495718
 20
12.25002093737498
 30
0.0
 41
2.0
 42
2.0
 43
2.0
 50
270.0
  0
MTEXT
  5
3DEF
330
3DE8
100
AcDbEntity
  8
寸法
 62
     0
100
AcDbMText
 10
76.53236215495718
 20
32.25002093737498
 30
0.0
 40
5.0
 41
0.0
 46
0.0
 71
     5
 72
     1
  1
\A1;40
  7
ＭＳ ゴシック
 11
0.0
 21
1.0
 31
0.0
 73
     1
 44
1.0
  0
POINT
  5
3DF0
330
3DE8
100
AcDbEntity
  8
Defpoints
 62
     0
100
AcDbPoint
 10
60.76384546064907
 20
52.25002093737498
 30
0.0
  0
POINT
  5
3DF1
330
3DE8
100
AcDbEntity
  8
Defpoints
 62
     0
100
AcDbPoint
 10
60.76384546064907
 20
12.25002093737498
 30
0.0
  0
POINT
  5
3DF2
330
3DE8
100
AcDbEntity
  8
Defpoints
 62
     0
100
AcDbPoint
 10
84.03236215495718
 20
12.25002093737498
 30
0.0
  0
ENDBLK
  5
3DF3
330
3DE8
100
AcDbEntity
  8
0
100
AcDbBlockEnd
  0
BLOCK
  5
3E03
330
3E02
100
AcDbEntity
  8
0
100
AcDbBlockBegin
  2
*D51
 70
     1
 10
0.0
 20
0.0
 30
0.0
  3
*D51
  1
*D23
  0
LINE
  5
3E04
330
3E02
100
AcDbEntity
  8
寸法
 62
     0
370
    -2
100
AcDbLine
 10
60.78090629456685
 20
134.8014520447273
 30
0.0
 11
72.44674969041398
 21
134.8014520447273
 31
0.0
  0
LINE
  5
3E05
330
3E02
100
AcDbEntity
  8
寸法
 62
     0
370
    -2
100
AcDbLine
 10
60.78090629456685
 20
113.6347714198103
 30
0.0
 11
72.44674969041398
 21
113.6347714198103
 31
0.0
  0
LINE
  5
3E06
330
3E02
100
AcDbEntity
  8
寸法
 62
     0
370
    -2
100
AcDbLine
 10
72.44674969041398
 20
132.8014520447273
 30
0.0
 11
72.44674969041398
 21
115.6347714198103
 31
0.0
  0
INSERT
  5
3E07
330
3E02
100
AcDbEntity
  8
寸法
 62
     0
370
    -2
100
AcDbBlockReference
  2
_DOT
 10
72.44674969041398
 20
134.8014520447273
 30
0.0
 41
2.0
 42
2.0
 43
2.0
 50
90.0
  0
INSERT
  5
3E08
330
3E02
100
AcDbEntity
  8
寸法
 62
     0
370
    -2
100
AcDbBlockReference
  2
_DOT
 10
72.44674969041398
 20
113.6347714198103
 30
0.0
 41
2.0
 42
2.0
 43
2.0
 50
270.0
  0
MTEXT
  5
3E09
330
3E02
100
AcDbEntity
  8
寸法
 62
     0
100
AcDbMText
 10
64.94674969041398
 20
124.2181117322688
 30
0.0
 40
5.0
 41
0.0
 46
0.0
 71
     5
 72
     1
  1
\A1;21
  7
ＭＳ ゴシック
 11
0.0
 21
1.0
 31
0.0
 73
     1
 44
1.0
  0
POINT
  5
3E0A
330
3E02
100
AcDbEntity
  8
Defpoints
 62
     0
100
AcDbPoint
 10
55.78090629456685
 20
134.8014520447273
 30
0.0
  0
POINT
  5
3E0B
330
3E02
100
AcDbEntity
  8
Defpoints
 62
     0
100
AcDbPoint
 10
55.78090629456685
 20
113.6347714198103
 30
0.0
  0
POINT
  5
3E0C
330
3E02
100
AcDbEntity
  8
Defpoints
 62
     0
100
AcDbPoint
 10
72.44674969041398
 20
113.6347714198103
 30
0.0
  0
ENDBLK
  5
3E0D
330
3E02
100
AcDbEntity
  8
0
100
AcDbBlockEnd
  0
BLOCK
  5
3E12
330
3E11
100
AcDbEntity
  8
0
100
AcDbBlockBegin
  2
*D52
 70
     1
 10
0.0
 20
0.0
 30
0.0
  3
*D52
  1
*D24
  0
LINE
  5
3E13
330
3E11
100
AcDbEntity
  8
寸法
 62
     0
370
    -2
100
AcDbLine
 10
34.69574486264375
 20
134.8014520447273
 30
0.0
 11
9.999999999999972
 21
134.8014520447273
 31
0.0
  0
LINE
  5
3E14
330
3E11
100
AcDbEntity
  8
寸法
 62
     0
370
    -2
100
AcDbLine
 10
34.69574486264375
 20
130.9911739244213
 30
0.0
 11
9.999999999999972
 21
130.9911739244213
 31
0.0
  0
LINE
  5
3E15
330
3E11
100
AcDbEntity
  8
寸法
 62
     0
370
    -2
100
AcDbLine
 10
9.999999999999972
 20
132.8014520447273
 30
0.0
 11
9.999999999999972
 21
132.9911739244213
 31
0.0
  0
INSERT
  5
3E16
330
3E11
100
AcDbEntity
  8
寸法
 62
     0
370
    -2
100
AcDbBlockReference
  2
_DOT
 10
9.999999999999972
 20
134.8014520447273
 30
0.0
 41
2.0
 42
2.0
 43
2.0
 50
90.0
  0
INSERT
  5
3E17
330
3E11
100
AcDbEntity
  8
寸法
 62
     0
370
    -2
100
AcDbBlockReference
  2
_DOT
 10
9.999999999999972
 20
130.9911739244213
 30
0.0
 41
2.0
 42
2.0
 43
2.0
 50
270.0
  0
MTEXT
  5
3E18
330
3E11
100
AcDbEntity
  8
寸法
 62
     0
100
AcDbMText
 10
2.499999999999972
 20
133.1077027892214
 30
0.0
 40
5.0
 41
0.0
 46
0.0
 71
     5
 72
     1
  1
\A1;4
  7
ＭＳ ゴシック
 11
0.0
 21
1.0
 31
0.0
 73
     1
 44
1.0
  0
POINT
  5
3E19
330
3E11
100
AcDbEntity
  8
Defpoints
 62
     0
100
AcDbPoint
 10
39.69574486264375
 20
134.8014520447273
 30
0.0
  0
POINT
  5
3E1A
330
3E11
100
AcDbEntity
  8
Defpoints
 62
     0
100
AcDbPoint
 10
39.69574486264375
 20
130.9911739244213
 30
0.0
  0
POINT
  5
3E1B
330
3E11
100
AcDbEntity
  8
Defpoints
 62
     0
100
AcDbPoint
 10
9.999999999999972
 20
130.9911739244213
 30
0.0
  0
ENDBLK
  5
3E1C
330
3E11
100
AcDbEntity
  8
0
100
AcDbBlockEnd
  0
BLOCK
  5
3E21
330
3E20
100
AcDbEntity
  8
0
100
AcDbBlockBegin
  2
*D53
 70
     1
 10
0.0
 20
0.0
 30
0.0
  3
*D53
  1
*D25
  0
LINE
  5
3E22
330
3E20
100
AcDbEntity
  8
寸法
 62
     0
370
    -2
100
AcDbLine
 10
34.69574486264375
 20
116.5975554916573
 30
0.0
 11
9.999999999999972
 21
116.5975554916573
 31
0.0
  0
LINE
  5
3E23
330
3E20
100
AcDbEntity
  8
寸法
 62
     0
370
    -2
100
AcDbLine
 10
34.69574486264375
 20
113.6347714198103
 30
0.0
 11
9.999999999999972
 21
113.6347714198103
 31
0.0
  0
LINE
  5
3E24
330
3E20
100
AcDbEntity
  8
寸法
 62
     0
370
    -2
100
AcDbLine
 10
9.999999999999972
 20
114.5975554916573
 30
0.0
 11
9.999999999999972
 21
115.6347714198103
 31
0.0
  0
INSERT
  5
3E25
330
3E20
100
AcDbEntity
  8
寸法
 62
     0
370
    -2
100
AcDbBlockReference
  2
_DOT
 10
9.999999999999972
 20
116.5975554916573
 30
0.0
 41
2.0
 42
2.0
 43
2.0
 50
90.0
  0
INSERT
  5
3E26
330
3E20
100
AcDbEntity
  8
寸法
 62
     0
370
    -2
100
AcDbBlockReference
  2
_DOT
 10
9.999999999999972
 20
113.6347714198103
 30
0.0
 41
2.0
 42
2.0
 43
2.0
 50
270.0
  0
MTEXT
  5
3E27
330
3E20
100
AcDbEntity
  8
寸法
 62
     0
100
AcDbMText
 10
2.499999999999972
 20
115.1161634557338
 30
0.0
 40
5.0
 41
0.0
 46
0.0
 71
     5
 72
     1
  1
\A1;3
  7
ＭＳ ゴシック
 11
0.0
 21
1.0
 31
0.0
 73
     1
 44
1.0
  0
POINT
  5
3E28
330
3E20
100
AcDbEntity
  8
Defpoints
 62
     0
100
AcDbPoint
 10
39.69574486264375
 20
116.5975554916573
 30
0.0
  0
POINT
  5
3E29
330
3E20
100
AcDbEntity
  8
Defpoints
 62
     0
100
AcDbPoint
 10
39.69574486264375
 20
113.6347714198103
 30
0.0
  0
POINT
  5
3E2A
330
3E20
100
AcDbEntity
  8
Defpoints
 62
     0
100
AcDbPoint
 10
9.999999999999972
 20
113.6347714198103
 30
0.0
  0
ENDBLK
  5
3E2B
330
3E20
100
AcDbEntity
  8
0
100
AcDbBlockEnd
  0
BLOCK
  5
3E30
330
3E2F
100
AcDbEntity
  8
0
100
AcDbBlockBegin
  2
*D54
 70
     1
 10
0.0
 20
0.0
 30
0.0
  3
*D54
  1
*D27
  0
LINE
  5
3E31
330
3E2F
100
AcDbEntity
  8
寸法
 62
     0
370
    -2
100
AcDbLine
 10
60.78090629456685
 20
41.98586720137499
 30
0.0
 11
69.84519304205895
 21
41.98586720137499
 31
0.0
  0
LINE
  5
3E32
330
3E2F
100
AcDbEntity
  8
寸法
 62
     0
370
    -2
100
AcDbLine
 10
60.78090629456685
 20
21.66668062491689
 30
0.0
 11
69.84519304205895
 21
21.66668062491689
 31
0.0
  0
LINE
  5
3E33
330
3E2F
100
AcDbEntity
  8
寸法
 62
     0
370
    -2
100
AcDbLine
 10
69.84519304205895
 20
39.98586720137499
 30
0.0
 11
69.84519304205895
 21
23.66668062491689
 31
0.0
  0
INSERT
  5
3E34
330
3E2F
100
AcDbEntity
  8
寸法
 62
     0
370
    -2
100
AcDbBlockReference
  2
_DOT
 10
69.84519304205895
 20
41.98586720137499
 30
0.0
 41
2.0
 42
2.0
 43
2.0
 50
90.0
  0
INSERT
  5
3E35
330
3E2F
100
AcDbEntity
  8
寸法
 62
     0
370
    -2
100
AcDbBlockReference
  2
_DOT
 10
69.84519304205895
 20
21.66668062491689
 30
0.0
 41
2.0
 42
2.0
 43
2.0
 50
270.0
  0
MTEXT
  5
3E36
330
3E2F
100
AcDbEntity
  8
寸法
 62
     0
100
AcDbMText
 10
62.34519304205895
 20
31.82627391314594
 30
0.0
 40
5.0
 41
0.0
 46
0.0
 71
     5
 72
     1
  1
\A1;20
  7
ＭＳ ゴシック
 11
0.0
 21
1.0
 31
0.0
 73
     1
 44
1.0
  0
POINT
  5
3E37
330
3E2F
100
AcDbEntity
  8
Defpoints
 62
     0
100
AcDbPoint
 10
55.78090629456685
 20
41.98586720137499
 30
0.0
  0
POINT
  5
3E38
330
3E2F
100
AcDbEntity
  8
Defpoints
 62
     0
100
AcDbPoint
 10
55.78090629456685
 20
21.66668062491689
 30
0.0
  0
POINT
  5
3E39
330
3E2F
100
AcDbEntity
  8
Defpoints
 62
     0
100
AcDbPoint
 10
69.84519304205895
 20
21.66668062491689
 30
0.0
  0
ENDBLK
  5
3E3A
330
3E2F
100
AcDbEntity
  8
0
100
AcDbBlockEnd
  0
BLOCK
  5
3E3F
330
3E3E
100
AcDbEntity
  8
0
100
AcDbBlockBegin
  2
*D55
 70
     1
 10
0.0
 20
0.0
 30
0.0
  3
*D55
  1
*D28
  0
LINE
  5
3E40
330
3E3E
100
AcDbEntity
  8
寸法
 62
     0
370
    -2
100
AcDbLine
 10
55.78090629456685
 20
139.8014520447273
 30
0.0
 11
55.78090629456685
 21
147.5879419149208
 31
0.0
  0
LINE
  5
3E41
330
3E3E
100
AcDbEntity
  8
寸法
 62
     0
370
    -2
100
AcDbLine
 10
39.69574486264375
 20
139.8014520447273
 30
0.0
 11
39.69574486264375
 21
147.5879419149208
 31
0.0
  0
LINE
  5
3E42
330
3E3E
100
AcDbEntity
  8
寸法
 62
     0
370
    -2
100
AcDbLine
 10
53.78090629456685
 20
147.5879419149208
 30
0.0
 11
41.69574486264375
 21
147.5879419149208
 31
0.0
  0
INSERT
  5
3E43
330
3E3E
100
AcDbEntity
  8
寸法
 62
     0
370
    -2
100
AcDbBlockReference
  2
_DOT
 10
55.78090629456685
 20
147.5879419149208
 30
0.0
 41
2.0
 42
2.0
 43
2.0
  0
INSERT
  5
3E44
330
3E3E
100
AcDbEntity
  8
寸法
 62
     0
370
    -2
100
AcDbBlockReference
  2
_DOT
 10
39.69574486264375
 20
147.5879419149208
 30
0.0
 41
2.0
 42
2.0
 43
2.0
 50
180.0
  0
MTEXT
  5
3E45
330
3E3E
100
AcDbEntity
  8
寸法
 62
     0
100
AcDbMText
 10
47.7383255786053
 20
155.0879419149208
 30
0.0
 40
5.0
 41
0.0
 46
0.0
 71
     5
 72
     1
  1
\A1;16
  7
ＭＳ ゴシック
 73
     1
 44
1.0
  0
POINT
  5
3E46
330
3E3E
100
AcDbEntity
  8
Defpoints
 62
     0
100
AcDbPoint
 10
55.78090629456685
 20
134.8014520447273
 30
0.0
  0
POINT
  5
3E47
330
3E3E
100
AcDbEntity
  8
Defpoints
 62
     0
100
AcDbPoint
 10
39.69574486264375
 20
134.8014520447273
 30
0.0
  0
POINT
  5
3E48
330
3E3E
100
AcDbEntity
  8
Defpoints
 62
     0
100
AcDbPoint
 10
39.69574486264375
 20
147.5879419149208
 30
0.0
  0
ENDBLK
  5
3E49
330
3E3E
100
AcDbEntity
  8
0
100
AcDbBlockEnd
  0
BLOCK
  5
3E96
330
3E95
100
AcDbEntity
  8
0
100
AcDbBlockBegin
  2
*D56
 70
     1
 10
0.0
 20
0.0
 30
0.0
  3
*D56
  1
*D57
  0
LINE
  5
3E98
330
3E95
100
AcDbEntity
  8
寸法
 62
     0
370
    -2
100
AcDbLine
 10
244.4151920088525
 20
223.8526208973009
 30
0.0
 11
283.129315232167
 21
223.8526208973009
 31
0.0
  0
LINE
  5
3E99
330
3E95
100
AcDbEntity
  8
寸法
 62
     0
370
    -2
100
AcDbLine
 10
244.4151920088525
 20
164.1628571428571
 30
0.0
 11
283.129315232167
 21
164.1628571428571
 31
0.0
  0
LINE
  5
3E9A
330
3E95
100
AcDbEntity
  8
寸法
 62
     0
370
    -2
100
AcDbLine
 10
283.129315232167
 20
221.8526208973009
 30
0.0
 11
283.129315232167
 21
166.1628571428571
 31
0.0
  0
INSERT
  5
3E9B
330
3E95
100
AcDbEntity
  8
寸法
 62
     0
370
    -2
100
AcDbBlockReference
  2
_DOT
 10
283.129315232167
 20
223.8526208973009
 30
0.0
 41
2.0
 42
2.0
 43
2.0
 50
90.0
  0
INSERT
  5
3E9C
330
3E95
100
AcDbEntity
  8
寸法
 62
     0
370
    -2
100
AcDbBlockReference
  2
_DOT
 10
283.129315232167
 20
164.1628571428571
 30
0.0
 41
2.0
 42
2.0
 43
2.0
 50
270.0
  0
MTEXT
  5
3E9D
330
3E95
100
AcDbEntity
  8
寸法
 62
     0
100
AcDbMText
 10
275.629315232167
 20
194.007739020079
 30
0.0
 40
5.0
 41
0.0
 46
0.0
 71
     5
 72
     1
  1
\A1;60
  7
ＭＳ ゴシック
 11
0.0
 21
1.0
 31
0.0
 73
     1
 44
1.0
  0
POINT
  5
3E9E
330
3E95
100
AcDbEntity
  8
Defpoints
 62
     0
100
AcDbPoint
 10
239.4151920088525
 20
223.8526208973009
 30
0.0
  0
POINT
  5
3E9F
330
3E95
100
AcDbEntity
  8
Defpoints
 62
     0
100
AcDbPoint
 10
239.4151920088525
 20
164.1628571428571
 30
0.0
  0
POINT
  5
3EA0
330
3E95
100
AcDbEntity
  8
Defpoints
 62
     0
100
AcDbPoint
 10
283.129315232167
 20
164.1628571428571
 30
0.0
  0
ENDBLK
  5
3E97
330
3E95
100
AcDbEntity
  8
0
100
AcDbBlockEnd
  0
BLOCK
  5
3EA2
330
3EA1
100
AcDbEntity
  8
0
100
AcDbBlockBegin
  2
*D57
 70
     1
 10
0.0
 20
0.0
 30
0.0
  3
*D57
  1
*D58
  0
LINE
  5
3EA4
330
3EA1
100
AcDbEntity
  8
寸法
 62
     0
370
    -2
100
AcDbLine
 10
249.3981311749347
 20
215.9128780802321
 30
0.0
 11
267.6666478692429
 21
215.9128780802321
 31
0.0
  0
LINE
  5
3EA5
330
3EA1
100
AcDbEntity
  8
寸法
 62
     0
370
    -2
100
AcDbLine
 10
249.3981311749347
 20
175.9128780802321
 30
0.0
 11
267.6666478692429
 21
175.9128780802321
 31
0.0
  0
LINE
  5
3EA6
330
3EA1
100
AcDbEntity
  8
寸法
 62
     0
370
    -2
100
AcDbLine
 10
267.6666478692429
 20
213.9128780802321
 30
0.0
 11
267.6666478692429
 21
177.9128780802321
 31
0.0
  0
INSERT
  5
3EA7
330
3EA1
100
AcDbEntity
  8
寸法
 62
     0
370
    -2
100
AcDbBlockReference
  2
_DOT
 10
267.6666478692429
 20
215.9128780802321
 30
0.0
 41
2.0
 42
2.0
 43
2.0
 50
90.0
  0
INSERT
  5
3EA8
330
3EA1
100
AcDbEntity
  8
寸法
 62
     0
370
    -2
100
AcDbBlockReference
  2
_DOT
 10
267.6666478692429
 20
175.9128780802321
 30
0.0
 41
2.0
 42
2.0
 43
2.0
 50
270.0
  0
MTEXT
  5
3EA9
330
3EA1
100
AcDbEntity
  8
寸法
 62
     0
100
AcDbMText
 10
260.1666478692429
 20
195.9128780802321
 30
0.0
 40
5.0
 41
0.0
 46
0.0
 71
     5
 72
     1
  1
\A1;40
  7
ＭＳ ゴシック
 11
0.0
 21
1.0
 31
0.0
 73
     1
 44
1.0
  0
POINT
  5
3EAA
330
3EA1
100
AcDbEntity
  8
Defpoints
 62
     0
100
AcDbPoint
 10
244.3981311749347
 20
215.9128780802321
 30
0.0
  0
POINT
  5
3EAB
330
3EA1
100
AcDbEntity
  8
Defpoints
 62
     0
100
AcDbPoint
 10
244.3981311749347
 20
175.9128780802321
 30
0.0
  0
POINT
  5
3EAC
330
3EA1
100
AcDbEntity
  8
Defpoints
 62
     0
100
AcDbPoint
 10
267.6666478692429
 20
175.9128780802321
 30
0.0
  0
ENDBLK
  5
3EA3
330
3EA1
100
AcDbEntity
  8
0
100
AcDbBlockEnd
  0
BLOCK
  5
3EAE
330
3EAD
100
AcDbEntity
  8
0
100
AcDbBlockBegin
  2
*D58
 70
     1
 10
0.0
 20
0.0
 30
0.0
  3
*D58
  1
*D59
  0
LINE
  5
3EB0
330
3EAD
100
AcDbEntity
  8
寸法
 62
     0
370
    -2
100
AcDbLine
 10
244.4151920088525
 20
298.4643091875844
 30
0.0
 11
256.0810354046997
 21
298.4643091875844
 31
0.0
  0
LINE
  5
3EB1
330
3EAD
100
AcDbEntity
  8
寸法
 62
     0
370
    -2
100
AcDbLine
 10
244.4151920088525
 20
277.2976285626675
 30
0.0
 11
256.0810354046997
 21
277.2976285626675
 31
0.0
  0
LINE
  5
3EB2
330
3EAD
100
AcDbEntity
  8
寸法
 62
     0
370
    -2
100
AcDbLine
 10
256.0810354046997
 20
296.4643091875844
 30
0.0
 11
256.0810354046997
 21
279.2976285626675
 31
0.0
  0
INSERT
  5
3EB3
330
3EAD
100
AcDbEntity
  8
寸法
 62
     0
370
    -2
100
AcDbBlockReference
  2
_DOT
 10
256.0810354046997
 20
298.4643091875844
 30
0.0
 41
2.0
 42
2.0
 43
2.0
 50
90.0
  0
INSERT
  5
3EB4
330
3EAD
100
AcDbEntity
  8
寸法
 62
     0
370
    -2
100
AcDbBlockReference
  2
_DOT
 10
256.0810354046997
 20
277.2976285626675
 30
0.0
 41
2.0
 42
2.0
 43
2.0
 50
270.0
  0
MTEXT
  5
3EB5
330
3EAD
100
AcDbEntity
  8
寸法
 62
     0
100
AcDbMText
 10
248.5810354046997
 20
287.880968875126
 30
0.0
 40
5.0
 41
0.0
 46
0.0
 71
     5
 72
     1
  1
\A1;21
  7
ＭＳ ゴシック
 11
0.0
 21
1.0
 31
0.0
 73
     1
 44
1.0
  0
POINT
  5
3EB6
330
3EAD
100
AcDbEntity
  8
Defpoints
 62
     0
100
AcDbPoint
 10
239.4151920088525
 20
298.4643091875844
 30
0.0
  0
POINT
  5
3EB7
330
3EAD
100
AcDbEntity
  8
Defpoints
 62
     0
100
AcDbPoint
 10
239.4151920088525
 20
277.2976285626675
 30
0.0
  0
POINT
  5
3EB8
330
3EAD
100
AcDbEntity
  8
Defpoints
 62
     0
100
AcDbPoint
 10
256.0810354046997
 20
277.2976285626675
 30
0.0
  0
ENDBLK
  5
3EAF
330
3EAD
100
AcDbEntity
  8
0
100
AcDbBlockEnd
  0
BLOCK
  5
3EBA
330
3EB9
100
AcDbEntity
  8
0
100
AcDbBlockBegin
  2
*D59
 70
     1
 10
0.0
 20
0.0
 30
0.0
  3
*D59
  1
*D60
  0
LINE
  5
3EBC
330
3EB9
100
AcDbEntity
  8
寸法
 62
     0
370
    -2
100
AcDbLine
 10
218.3300305769294
 20
298.4643091875844
 30
0.0
 11
205.7152749270858
 21
298.4643091875844
 31
0.0
  0
LINE
  5
3EBD
330
3EB9
100
AcDbEntity
  8
寸法
 62
     0
370
    -2
100
AcDbLine
 10
218.3300305769294
 20
294.6540310672784
 30
0.0
 11
205.7152749270858
 21
294.6540310672784
 31
0.0
  0
LINE
  5
3EBE
330
3EB9
100
AcDbEntity
  8
寸法
 62
     0
370
    -2
100
AcDbLine
 10
205.7152749270858
 20
296.4643091875844
 30
0.0
 11
205.7152749270858
 21
296.6540310672784
 31
0.0
  0
INSERT
  5
3EBF
330
3EB9
100
AcDbEntity
  8
寸法
 62
     0
370
    -2
100
AcDbBlockReference
  2
_DOT
 10
205.7152749270858
 20
298.4643091875844
 30
0.0
 41
2.0
 42
2.0
 43
2.0
 50
90.0
  0
INSERT
  5
3EC0
330
3EB9
100
AcDbEntity
  8
寸法
 62
     0
370
    -2
100
AcDbBlockReference
  2
_DOT
 10
205.7152749270858
 20
294.6540310672784
 30
0.0
 41
2.0
 42
2.0
 43
2.0
 50
270.0
  0
MTEXT
  5
3EC1
330
3EB9
100
AcDbEntity
  8
寸法
 62
     0
100
AcDbMText
 10
198.2152749270858
 20
296.7705599320785
 30
0.0
 40
5.0
 41
0.0
 46
0.0
 71
     5
 72
     1
  1
\A1;4
  7
ＭＳ ゴシック
 11
0.0
 21
1.0
 31
0.0
 73
     1
 44
1.0
  0
POINT
  5
3EC2
330
3EB9
100
AcDbEntity
  8
Defpoints
 62
     0
100
AcDbPoint
 10
223.3300305769294
 20
298.4643091875844
 30
0.0
  0
POINT
  5
3EC3
330
3EB9
100
AcDbEntity
  8
Defpoints
 62
     0
100
AcDbPoint
 10
223.3300305769294
 20
294.6540310672784
 30
0.0
  0
POINT
  5
3EC4
330
3EB9
100
AcDbEntity
  8
Defpoints
 62
     0
100
AcDbPoint
 10
205.7152749270858
 20
294.6540310672784
 30
0.0
  0
ENDBLK
  5
3EBB
330
3EB9
100
AcDbEntity
  8
0
100
AcDbBlockEnd
  0
BLOCK
  5
3EC6
330
3EC5
100
AcDbEntity
  8
0
100
AcDbBlockBegin
  2
*D60
 70
     1
 10
0.0
 20
0.0
 30
0.0
  3
*D60
  1
*D61
  0
LINE
  5
3EC8
330
3EC5
100
AcDbEntity
  8
寸法
 62
     0
370
    -2
100
AcDbLine
 10
218.3300305769294
 20
280.2604126345144
 30
0.0
 11
205.7152749270858
 21
280.2604126345144
 31
0.0
  0
LINE
  5
3EC9
330
3EC5
100
AcDbEntity
  8
寸法
 62
     0
370
    -2
100
AcDbLine
 10
218.3300305769294
 20
277.2976285626675
 30
0.0
 11
205.7152749270858
 21
277.2976285626675
 31
0.0
  0
LINE
  5
3ECA
330
3EC5
100
AcDbEntity
  8
寸法
 62
     0
370
    -2
100
AcDbLine
 10
205.7152749270858
 20
278.2604126345144
 30
0.0
 11
205.7152749270858
 21
279.2976285626675
 31
0.0
  0
INSERT
  5
3ECB
330
3EC5
100
AcDbEntity
  8
寸法
 62
     0
370
    -2
100
AcDbBlockReference
  2
_DOT
 10
205.7152749270858
 20
280.2604126345144
 30
0.0
 41
2.0
 42
2.0
 43
2.0
 50
90.0
  0
INSERT
  5
3ECC
330
3EC5
100
AcDbEntity
  8
寸法
 62
     0
370
    -2
100
AcDbBlockReference
  2
_DOT
 10
205.7152749270858
 20
277.2976285626675
 30
0.0
 41
2.0
 42
2.0
 43
2.0
 50
270.0
  0
MTEXT
  5
3ECD
330
3EC5
100
AcDbEntity
  8
寸法
 62
     0
100
AcDbMText
 10
198.2152749270858
 20
278.7790205985909
 30
0.0
 40
5.0
 41
0.0
 46
0.0
 71
     5
 72
     1
  1
\A1;3
  7
ＭＳ ゴシック
 11
0.0
 21
1.0
 31
0.0
 73
     1
 44
1.0
  0
POINT
  5
3ECE
330
3EC5
100
AcDbEntity
  8
Defpoints
 62
     0
100
AcDbPoint
 10
223.3300305769294
 20
280.2604126345144
 30
0.0
  0
POINT
  5
3ECF
330
3EC5
100
AcDbEntity
  8
Defpoints
 62
     0
100
AcDbPoint
 10
223.3300305769294
 20
277.2976285626675
 30
0.0
  0
POINT
  5
3ED0
330
3EC5
100
AcDbEntity
  8
Defpoints
 62
     0
100
AcDbPoint
 10
205.7152749270858
 20
277.2976285626675
 30
0.0
  0
ENDBLK
  5
3EC7
330
3EC5
100
AcDbEntity
  8
0
100
AcDbBlockEnd
  0
BLOCK
  5
3ED2
330
3ED1
100
AcDbEntity
  8
0
100
AcDbBlockBegin
  2
*D61
 70
     1
 10
0.0
 20
0.0
 30
0.0
  3
*D61
  1
*D62
  0
LINE
  5
3ED4
330
3ED1
100
AcDbEntity
  8
寸法
 62
     0
370
    -2
100
AcDbLine
 10
244.4151920088525
 20
205.6487243442321
 30
0.0
 11
253.4794787563446
 21
205.6487243442321
 31
0.0
  0
LINE
  5
3ED5
330
3ED1
100
AcDbEntity
  8
寸法
 62
     0
370
    -2
100
AcDbLine
 10
244.4151920088525
 20
185.329537767774
 30
0.0
 11
253.4794787563446
 21
185.329537767774
 31
0.0
  0
LINE
  5
3ED6
330
3ED1
100
AcDbEntity
  8
寸法
 62
     0
370
    -2
100
AcDbLine
 10
253.4794787563446
 20
203.6487243442321
 30
0.0
 11
253.4794787563446
 21
187.329537767774
 31
0.0
  0
INSERT
  5
3ED7
330
3ED1
100
AcDbEntity
  8
寸法
 62
     0
370
    -2
100
AcDbBlockReference
  2
_DOT
 10
253.4794787563446
 20
205.6487243442321
 30
0.0
 41
2.0
 42
2.0
 43
2.0
 50
90.0
  0
INSERT
  5
3ED8
330
3ED1
100
AcDbEntity
  8
寸法
 62
     0
370
    -2
100
AcDbBlockReference
  2
_DOT
 10
253.4794787563446
 20
185.329537767774
 30
0.0
 41
2.0
 42
2.0
 43
2.0
 50
270.0
  0
MTEXT
  5
3ED9
330
3ED1
100
AcDbEntity
  8
寸法
 62
     0
100
AcDbMText
 10
245.9794787563446
 20
195.4891310560031
 30
0.0
 40
5.0
 41
0.0
 46
0.0
 71
     5
 72
     1
  1
\A1;20
  7
ＭＳ ゴシック
 11
0.0
 21
1.0
 31
0.0
 73
     1
 44
1.0
  0
POINT
  5
3EDA
330
3ED1
100
AcDbEntity
  8
Defpoints
 62
     0
100
AcDbPoint
 10
239.4151920088525
 20
205.6487243442321
 30
0.0
  0
POINT
  5
3EDB
330
3ED1
100
AcDbEntity
  8
Defpoints
 62
     0
100
AcDbPoint
 10
239.4151920088525
 20
185.329537767774
 30
0.0
  0
POINT
  5
3EDC
330
3ED1
100
AcDbEntity
  8
Defpoints
 62
     0
100
AcDbPoint
 10
253.4794787563446
 20
185.329537767774
 30
0.0
  0
ENDBLK
  5
3ED3
330
3ED1
100
AcDbEntity
  8
0
100
AcDbBlockEnd
  0
BLOCK
  5
3EDE
330
3EDD
100
AcDbEntity
  8
0
100
AcDbBlockBegin
  2
*D62
 70
     1
 10
0.0
 20
0.0
 30
0.0
  3
*D62
  1
*D63
  0
LINE
  5
3EE0
330
3EDD
100
AcDbEntity
  8
寸法
 62
     0
370
    -2
100
AcDbLine
 10
239.4151920088525
 20
303.4643091875844
 30
0.0
 11
239.4151920088525
 21
311.250799057778
 31
0.0
  0
LINE
  5
3EE1
330
3EDD
100
AcDbEntity
  8
寸法
 62
     0
370
    -2
100
AcDbLine
 10
223.3300305769294
 20
303.4643091875844
 30
0.0
 11
223.3300305769294
 21
311.250799057778
 31
0.0
  0
LINE
  5
3EE2
330
3EDD
100
AcDbEntity
  8
寸法
 62
     0
370
    -2
100
AcDbLine
 10
237.4151920088525
 20
311.250799057778
 30
0.0
 11
225.3300305769294
 21
311.250799057778
 31
0.0
  0
INSERT
  5
3EE3
330
3EDD
100
AcDbEntity
  8
寸法
 62
     0
370
    -2
100
AcDbBlockReference
  2
_DOT
 10
239.4151920088525
 20
311.250799057778
 30
0.0
 41
2.0
 42
2.0
 43
2.0
  0
INSERT
  5
3EE4
330
3EDD
100
AcDbEntity
  8
寸法
 62
     0
370
    -2
100
AcDbBlockReference
  2
_DOT
 10
223.3300305769294
 20
311.250799057778
 30
0.0
 41
2.0
 42
2.0
 43
2.0
 50
180.0
  0
MTEXT
  5
3EE5
330
3EDD
100
AcDbEntity
  8
寸法
 62
     0
100
AcDbMText
 10
231.372611292891
 20
318.750799057778
 30
0.0
 40
5.0
 41
0.0
 46
0.0
 71
     5
 72
     1
  1
\A1;16
  7
ＭＳ ゴシック
 73
     1
 44
1.0
  0
POINT
  5
3EE6
330
3EDD
100
AcDbEntity
  8
Defpoints
 62
     0
100
AcDbPoint
 10
239.4151920088525
 20
298.4643091875844
 30
0.0
  0
POINT
  5
3EE7
330
3EDD
100
AcDbEntity
  8
Defpoints
 62
     0
100
AcDbPoint
 10
223.3300305769294
 20
298.4643091875844
 30
0.0
  0
POINT
  5
3EE8
330
3EDD
100
AcDbEntity
  8
Defpoints
 62
     0
100
AcDbPoint
 10
223.3300305769294
 20
311.250799057778
 30
0.0
  0
ENDBLK
  5
3EDF
330
3EDD
100
AcDbEntity
  8
0
100
AcDbBlockEnd
  0
BLOCK
  5
3F59
330
3F58
100
AcDbEntity
  8
0
100
AcDbBlockBegin
  2
*D63
 70
     1
 10
0.0
 20
0.0
 30
0.0
  3
*D63
  1
*D15
  0
LINE
  5
3F5A
330
3F58
100
AcDbEntity
  8
寸法
 62
     0
370
    -2
100
AcDbLine
 10
11.50708733668768
 20
50.3723982974509
 30
0.0
 11
11.50708733668768
 21
58.74459103255009
 31
0.0
  0
LINE
  5
3F5B
330
3F58
100
AcDbEntity
  8
寸法
 62
     0
370
    -2
100
AcDbLine
 10
2.617012572267583
 20
50.3723982974509
 30
0.0
 11
2.617012572267583
 21
58.74459103255009
 31
0.0
  0
LINE
  5
3F5C
330
3F58
100
AcDbEntity
  8
寸法
 62
     0
370
    -2
100
AcDbLine
 10
9.507087336687675
 20
58.74459103255009
 30
0.0
 11
4.617012572267583
 21
58.74459103255009
 31
0.0
  0
INSERT
  5
3F5D
330
3F58
100
AcDbEntity
  8
寸法
 62
     0
370
    -2
100
AcDbBlockReference
  2
_DOT
 10
11.50708733668768
 20
58.74459103255009
 30
0.0
 41
2.0
 42
2.0
 43
2.0
  0
INSERT
  5
3F5E
330
3F58
100
AcDbEntity
  8
寸法
 62
     0
370
    -2
100
AcDbBlockReference
  2
_DOT
 10
2.617012572267583
 20
58.74459103255009
 30
0.0
 41
2.0
 42
2.0
 43
2.0
 50
180.0
  0
MTEXT
  5
3F5F
330
3F58
100
AcDbEntity
  8
寸法
 62
     0
100
AcDbMText
 10
7.062049954477686
 20
66.24459103255009
 30
0.0
 40
5.0
 41
0.0
 46
0.0
 71
     5
 72
     1
  1
\A1;9
  7
ＭＳ ゴシック
 73
     1
 44
1.0
  0
POINT
  5
3F60
330
3F58
100
AcDbEntity
  8
Defpoints
 62
     0
100
AcDbPoint
 10
11.50708733668768
 20
45.3723982974509
 30
0.0
  0
POINT
  5
3F61
330
3F58
100
AcDbEntity
  8
Defpoints
 62
     0
100
AcDbPoint
 10
2.617012572267583
 20
45.3723982974509
 30
0.0
  0
POINT
  5
3F62
330
3F58
100
AcDbEntity
  8
Defpoints
 62
     0
100
AcDbPoint
 10
2.617012572267583
 20
58.74459103255009
 30
0.0
  0
ENDBLK
  5
3F63
330
3F58
100
AcDbEntity
  8
0
100
AcDbBlockEnd
  0
BLOCK
  5
3F66
330
3F65
100
AcDbEntity
  8
0
100
AcDbBlockBegin
  2
*D64
 70
     1
 10
0.0
 20
0.0
 30
0.0
  3
*D64
  1
*D16
  0
LINE
  5
3F67
330
3F65
100
AcDbEntity
  8
寸法
 62
     0
370
    -2
100
AcDbLine
 10
13.62409990895509
 20
97.48394222253611
 30
0.0
 11
13.62409990895509
 21
81.52891951983341
 31
0.0
  0
LINE
  5
3F68
330
3F65
100
AcDbEntity
  8
寸法
 62
     0
370
    -2
100
AcDbLine
 10
0.5
 20
97.48394222253611
 30
0.0
 11
0.5
 21
81.52891951983341
 31
0.0
  0
LINE
  5
3F69
330
3F65
100
AcDbEntity
  8
寸法
 62
     0
370
    -2
100
AcDbLine
 10
11.62409990895509
 20
81.52891951983341
 30
0.0
 11
2.5
 21
81.52891951983341
 31
0.0
  0
INSERT
  5
3F6A
330
3F65
100
AcDbEntity
  8
寸法
 62
     0
370
    -2
100
AcDbBlockReference
  2
_DOT
 10
13.62409990895509
 20
81.52891951983341
 30
0.0
 41
2.0
 42
2.0
 43
2.0
  0
INSERT
  5
3F6B
330
3F65
100
AcDbEntity
  8
寸法
 62
     0
370
    -2
100
AcDbBlockReference
  2
_DOT
 10
0.5
 20
81.52891951983341
 30
0.0
 41
2.0
 42
2.0
 43
2.0
 50
180.0
  0
MTEXT
  5
3F6C
330
3F65
100
AcDbEntity
  8
寸法
 62
     0
100
AcDbMText
 10
7.062049954477601
 20
89.02891951983341
 30
0.0
 40
5.0
 41
0.0
 46
0.0
 71
     5
 72
     1
  1
\A1;13
  7
ＭＳ ゴシック
 73
     1
 44
1.0
  0
POINT
  5
3F6D
330
3F65
100
AcDbEntity
  8
Defpoints
 62
     0
100
AcDbPoint
 10
13.62409990895509
 20
102.4839422225361
 30
0.0
  0
POINT
  5
3F6E
330
3F65
100
AcDbEntity
  8
Defpoints
 62
     0
100
AcDbPoint
 10
0.5
 20
102.4839422225361
 30
0.0
  0
POINT
  5
3F6F
330
3F65
100
AcDbEntity
  8
Defpoints
 62
     0
100
AcDbPoint
 10
0.5
 20
81.52891951983341
 30
0.0
  0
ENDBLK
  5
3F70
330
3F65
100
AcDbEntity
  8
0
100
AcDbBlockEnd
  0
BLOCK
  5
3F75
330
3F74
100
AcDbEntity
  8
0
100
AcDbBlockBegin
  2
*D65
 70
     1
 10
0.0
 20
0.0
 30
0.0
  3
*D65
  1
*D17
  0
LINE
  5
3F76
330
3F74
100
AcDbEntity
  8
寸法
 62
     0
370
    -2
100
AcDbLine
 10
16.50708733668768
 20
45.3723982974509
 30
0.0
 11
32.66905215315589
 21
45.3723982974509
 31
0.0
  0
LINE
  5
3F77
330
3F74
100
AcDbEntity
  8
寸法
 62
     0
370
    -2
100
AcDbLine
 10
16.50708733668768
 20
0.4999999999999997
 30
0.0
 11
32.66905215315589
 21
0.4999999999999987
 31
0.0
  0
LINE
  5
3F78
330
3F74
100
AcDbEntity
  8
寸法
 62
     0
370
    -2
100
AcDbLine
 10
32.66905215315589
 20
43.3723982974509
 30
0.0
 11
32.66905215315589
 21
2.499999999999999
 31
0.0
  0
INSERT
  5
3F79
330
3F74
100
AcDbEntity
  8
寸法
 62
     0
370
    -2
100
AcDbBlockReference
  2
_DOT
 10
32.66905215315589
 20
45.3723982974509
 30
0.0
 41
2.0
 42
2.0
 43
2.0
 50
90.0
  0
INSERT
  5
3F7A
330
3F74
100
AcDbEntity
  8
寸法
 62
     0
370
    -2
100
AcDbBlockReference
  2
_DOT
 10
32.66905215315589
 20
0.4999999999999987
 30
0.0
 41
2.0
 42
2.0
 43
2.0
 50
270.0
  0
MTEXT
  5
3F7B
330
3F74
100
AcDbEntity
  8
寸法
 62
     0
100
AcDbMText
 10
25.16905215315589
 20
22.93619914872545
 30
0.0
 40
5.0
 41
0.0
 46
0.0
 71
     5
 72
     1
  1
\A1;45
  7
ＭＳ ゴシック
 11
0.0
 21
1.0
 31
0.0
 73
     1
 44
1.0
  0
POINT
  5
3F7C
330
3F74
100
AcDbEntity
  8
Defpoints
 62
     0
100
AcDbPoint
 10
11.50708733668768
 20
45.3723982974509
 30
0.0
  0
POINT
  5
3F7D
330
3F74
100
AcDbEntity
  8
Defpoints
 62
     0
100
AcDbPoint
 10
11.50708733668768
 20
0.5
 30
0.0
  0
POINT
  5
3F7E
330
3F74
100
AcDbEntity
  8
Defpoints
 62
     0
100
AcDbPoint
 10
32.66905215315589
 20
0.4999999999999987
 30
0.0
  0
ENDBLK
  5
3F7F
330
3F74
100
AcDbEntity
  8
0
100
AcDbBlockEnd
  0
BLOCK
  5
3F84
330
3F83
100
AcDbEntity
  8
0
100
AcDbBlockBegin
  2
*D66
 70
     1
 10
0.0
 20
0.0
 30
0.0
  3
*D66
  1
*D20
  0
LINE
  5
3F85
330
3F83
100
AcDbEntity
  8
寸法
 62
     0
370
    -2
100
AcDbLine
 10
174.655766706505
 20
30.131285816228
 30
0.0
 11
190.4180843900924
 21
30.131285816228
 31
0.0
  0
LINE
  5
3F86
330
3F83
100
AcDbEntity
  8
寸法
 62
     0
370
    -2
100
AcDbLine
 10
174.655766706505
 20
15.74111248122199
 30
0.0
 11
190.4180843900924
 21
15.74111248122199
 31
0.0
  0
LINE
  5
3F87
330
3F83
100
AcDbEntity
  8
寸法
 62
     0
370
    -2
100
AcDbLine
 10
190.4180843900924
 20
28.131285816228
 30
0.0
 11
190.4180843900924
 21
17.74111248122199
 31
0.0
  0
INSERT
  5
3F88
330
3F83
100
AcDbEntity
  8
寸法
 62
     0
370
    -2
100
AcDbBlockReference
  2
_DOT
 10
190.4180843900924
 20
30.131285816228
 30
0.0
 41
2.0
 42
2.0
 43
2.0
 50
90.0
  0
INSERT
  5
3F89
330
3F83
100
AcDbEntity
  8
寸法
 62
     0
370
    -2
100
AcDbBlockReference
  2
_DOT
 10
190.4180843900924
 20
15.74111248122199
 30
0.0
 41
2.0
 42
2.0
 43
2.0
 50
270.0
  0
MTEXT
  5
3F8A
330
3F83
100
AcDbEntity
  8
寸法
 62
     0
100
AcDbMText
 10
182.9180843900924
 20
22.936199148725
 30
0.0
 40
5.0
 41
0.0
 46
0.0
 71
     5
 72
     1
  1
\A1;14
  7
ＭＳ ゴシック
 11
0.0
 21
1.0
 31
0.0
 73
     1
 44
1.0
  0
POINT
  5
3F8B
330
3F83
100
AcDbEntity
  8
Defpoints
 62
     0
100
AcDbPoint
 10
169.655766706505
 20
30.131285816228
 30
0.0
  0
POINT
  5
3F8C
330
3F83
100
AcDbEntity
  8
Defpoints
 62
     0
100
AcDbPoint
 10
169.655766706505
 20
15.74111248122199
 30
0.0
  0
POINT
  5
3F8D
330
3F83
100
AcDbEntity
  8
Defpoints
 62
     0
100
AcDbPoint
 10
190.4180843900924
 20
15.74111248122199
 30
0.0
  0
ENDBLK
  5
3F8E
330
3F83
100
AcDbEntity
  8
0
100
AcDbBlockEnd
  0
BLOCK
  5
3F97
330
3F96
100
AcDbEntity
  8
0
100
AcDbBlockBegin
  2
*D67
 70
     1
 10
0.0
 20
0.0
 30
0.0
  3
*D67
  1
*D21
  0
LINE
  5
3F98
330
3F96
100
AcDbEntity
  8
寸法
 62
     0
370
    -2
100
AcDbLine
 10
16.50708733668768
 20
128.0956602296629
 30
0.0
 11
28.3831003857554
 21
128.0956602296629
 31
0.0
  0
LINE
  5
3F99
330
3F96
100
AcDbEntity
  8
寸法
 62
     0
370
    -2
100
AcDbLine
 10
12.06204995447769
 20
95.92189226805871
 30
0.0
 11
28.3831003857554
 21
95.92189226805871
 31
0.0
  0
LINE
  5
3F9A
330
3F96
100
AcDbEntity
  8
寸法
 62
     0
370
    -2
100
AcDbLine
 10
28.3831003857554
 20
126.0956602296629
 30
0.0
 11
28.3831003857554
 21
97.92189226805871
 31
0.0
  0
INSERT
  5
3F9B
330
3F96
100
AcDbEntity
  8
寸法
 62
     0
370
    -2
100
AcDbBlockReference
  2
_DOT
 10
28.3831003857554
 20
128.0956602296629
 30
0.0
 41
2.0
 42
2.0
 43
2.0
 50
90.0
  0
INSERT
  5
3F9C
330
3F96
100
AcDbEntity
  8
寸法
 62
     0
370
    -2
100
AcDbBlockReference
  2
_DOT
 10
28.3831003857554
 20
95.92189226805871
 30
0.0
 41
2.0
 42
2.0
 43
2.0
 50
270.0
  0
MTEXT
  5
3F9D
330
3F96
100
AcDbEntity
  8
寸法
 62
     0
100
AcDbMText
 10
20.8831003857554
 20
112.0087762488608
 30
0.0
 40
5.0
 41
0.0
 46
0.0
 71
     5
 72
     1
  1
\A1;32
  7
ＭＳ ゴシック
 11
1.104226798378191E-16
 21
1.0
 31
0.0
 73
     1
 44
1.0
  0
POINT
  5
3F9E
330
3F96
100
AcDbEntity
  8
Defpoints
 62
     0
100
AcDbPoint
 10
11.50708733668768
 20
128.0956602296629
 30
0.0
  0
POINT
  5
3F9F
330
3F96
100
AcDbEntity
  8
Defpoints
 62
     0
100
AcDbPoint
 10
7.062049954477686
 20
95.92189226805871
 30
0.0
  0
POINT
  5
3FA0
330
3F96
100
AcDbEntity
  8
Defpoints
 62
     0
100
AcDbPoint
 10
28.3831003857554
 20
95.92189226805871
 30
0.0
  0
ENDBLK
  5
3FA1
330
3F96
100
AcDbEntity
  8
0
100
AcDbBlockEnd
  0
BLOCK
  5
3FA7
330
3FA6
100
AcDbEntity
  8
0
100
AcDbBlockBegin
  2
*D68
 70
     1
 10
0.0
 20
0.0
 30
0.0
  3
*D68
  1
*D22
  0
LINE
  5
3FA8
330
3FA6
100
AcDbEntity
  8
寸法
 62
     0
370
    -2
100
AcDbLine
 10
1.562049954477601
 20
133.0956602296629
 30
0.0
 11
1.562049954477601
 21
139.6838247193826
 31
0.0
  0
LINE
  5
3FA9
330
3FA6
100
AcDbEntity
  8
寸法
 62
     0
370
    -2
100
AcDbLine
 10
12.5620499544776
 20
133.0956602296629
 30
0.0
 11
12.5620499544776
 21
139.6838247193826
 31
0.0
  0
LINE
  5
3FAA
330
3FA6
100
AcDbEntity
  8
寸法
 62
     0
370
    -2
100
AcDbLine
 10
3.562049954477601
 20
139.6838247193826
 30
0.0
 11
10.5620499544776
 21
139.6838247193826
 31
0.0
  0
INSERT
  5
3FAB
330
3FA6
100
AcDbEntity
  8
寸法
 62
     0
370
    -2
100
AcDbBlockReference
  2
_DOT
 10
1.562049954477601
 20
139.6838247193826
 30
0.0
 41
2.0
 42
2.0
 43
2.0
 50
180.0
  0
INSERT
  5
3FAC
330
3FA6
100
AcDbEntity
  8
寸法
 62
     0
370
    -2
100
AcDbBlockReference
  2
_DOT
 10
12.5620499544776
 20
139.6838247193826
 30
0.0
 41
2.0
 42
2.0
 43
2.0
  0
MTEXT
  5
3FAD
330
3FA6
100
AcDbEntity
  8
寸法
 62
     0
100
AcDbMText
 10
7.062049954477601
 20
147.1838247193826
 30
0.0
 40
5.0
 41
0.0
 46
0.0
 71
     5
 72
     1
  1
\A1;11
  7
ＭＳ ゴシック
 73
     1
 44
1.0
  0
POINT
  5
3FAE
330
3FA6
100
AcDbEntity
  8
Defpoints
 62
     0
100
AcDbPoint
 10
1.562049954477601
 20
128.0956602296629
 30
0.0
  0
POINT
  5
3FAF
330
3FA6
100
AcDbEntity
  8
Defpoints
 62
     0
100
AcDbPoint
 10
12.5620499544776
 20
128.0956602296629
 30
0.0
  0
POINT
  5
3FB0
330
3FA6
100
AcDbEntity
  8
Defpoints
 62
     0
100
AcDbPoint
 10
12.5620499544776
 20
139.6838247193826
 30
0.0
  0
ENDBLK
  5
3FB1
330
3FA6
100
AcDbEntity
  8
0
100
AcDbBlockEnd
  0
BLOCK
  5
3FFD
330
3FFC
100
AcDbEntity
  8
0
100
AcDbBlockBegin
  2
*D69
 70
     1
 10
0.0
 20
0.0
 30
0.0
  3
*D69
  1
*D70
  0
LINE
  5
3FFF
330
3FFC
100
AcDbEntity
  8
寸法
 62
     0
370
    -2
100
AcDbLine
 10
221.9528016224019
 20
219.2809697260223
 30
0.0
 11
221.9528016224019
 21
227.6531624611215
 31
0.0
  0
LINE
  5
4000
330
3FFC
100
AcDbEntity
  8
寸法
 62
     0
370
    -2
100
AcDbLine
 10
213.0627268579818
 20
219.2809697260223
 30
0.0
 11
213.0627268579818
 21
227.6531624611215
 31
0.0
  0
LINE
  5
4001
330
3FFC
100
AcDbEntity
  8
寸法
 62
     0
370
    -2
100
AcDbLine
 10
219.9528016224019
 20
227.6531624611215
 30
0.0
 11
215.0627268579818
 21
227.6531624611215
 31
0.0
  0
INSERT
  5
4002
330
3FFC
100
AcDbEntity
  8
寸法
 62
     0
370
    -2
100
AcDbBlockReference
  2
_DOT
 10
221.9528016224019
 20
227.6531624611215
 30
0.0
 41
2.0
 42
2.0
 43
2.0
  0
INSERT
  5
4003
330
3FFC
100
AcDbEntity
  8
寸法
 62
     0
370
    -2
100
AcDbBlockReference
  2
_DOT
 10
213.0627268579818
 20
227.6531624611215
 30
0.0
 41
2.0
 42
2.0
 43
2.0
 50
180.0
  0
MTEXT
  5
4004
330
3FFC
100
AcDbEntity
  8
寸法
 62
     0
100
AcDbMText
 10
217.5077642401919
 20
235.1531624611215
 30
0.0
 40
5.0
 41
0.0
 46
0.0
 71
     5
 72
     1
  1
\A1;9
  7
ＭＳ ゴシック
 73
     1
 44
1.0
  0
POINT
  5
4005
330
3FFC
100
AcDbEntity
  8
Defpoints
 62
     0
100
AcDbPoint
 10
221.9528016224019
 20
214.2809697260223
 30
0.0
  0
POINT
  5
4006
330
3FFC
100
AcDbEntity
  8
Defpoints
 62
     0
100
AcDbPoint
 10
213.0627268579818
 20
214.2809697260223
 30
0.0
  0
POINT
  5
4007
330
3FFC
100
AcDbEntity
  8
Defpoints
 62
     0
100
AcDbPoint
 10
213.0627268579818
 20
227.6531624611215
 30
0.0
  0
ENDBLK
  5
3FFE
330
3FFC
100
AcDbEntity
  8
0
100
AcDbBlockEnd
  0
BLOCK
  5
4009
330
4008
100
AcDbEntity
  8
0
100
AcDbBlockBegin
  2
*D70
 70
     1
 10
0.0
 20
0.0
 30
0.0
  3
*D70
  1
*D71
  0
LINE
  5
400B
330
4008
100
AcDbEntity
  8
寸法
 62
     0
370
    -2
100
AcDbLine
 10
224.0698141946693
 20
266.3925136511075
 30
0.0
 11
224.0698141946693
 21
250.4374909484048
 31
0.0
  0
LINE
  5
400C
330
4008
100
AcDbEntity
  8
寸法
 62
     0
370
    -2
100
AcDbLine
 10
210.9457142857142
 20
266.3925136511075
 30
0.0
 11
210.9457142857142
 21
250.4374909484048
 31
0.0
  0
LINE
  5
400D
330
4008
100
AcDbEntity
  8
寸法
 62
     0
370
    -2
100
AcDbLine
 10
222.0698141946693
 20
250.4374909484048
 30
0.0
 11
212.9457142857142
 21
250.4374909484048
 31
0.0
  0
INSERT
  5
400E
330
4008
100
AcDbEntity
  8
寸法
 62
     0
370
    -2
100
AcDbBlockReference
  2
_DOT
 10
224.0698141946693
 20
250.4374909484048
 30
0.0
 41
2.0
 42
2.0
 43
2.0
  0
INSERT
  5
400F
330
4008
100
AcDbEntity
  8
寸法
 62
     0
370
    -2
100
AcDbBlockReference
  2
_DOT
 10
210.9457142857142
 20
250.4374909484048
 30
0.0
 41
2.0
 42
2.0
 43
2.0
 50
180.0
  0
MTEXT
  5
4010
330
4008
100
AcDbEntity
  8
寸法
 62
     0
100
AcDbMText
 10
217.5077642401918
 20
257.9374909484048
 30
0.0
 40
5.0
 41
0.0
 46
0.0
 71
     5
 72
     1
  1
\A1;13
  7
ＭＳ ゴシック
 73
     1
 44
1.0
  0
POINT
  5
4011
330
4008
100
AcDbEntity
  8
Defpoints
 62
     0
100
AcDbPoint
 10
224.0698141946693
 20
271.3925136511075
 30
0.0
  0
POINT
  5
4012
330
4008
100
AcDbEntity
  8
Defpoints
 62
     0
100
AcDbPoint
 10
210.9457142857142
 20
271.3925136511075
 30
0.0
  0
POINT
  5
4013
330
4008
100
AcDbEntity
  8
Defpoints
 62
     0
100
AcDbPoint
 10
210.9457142857142
 20
250.4374909484048
 30
0.0
  0
ENDBLK
  5
400A
330
4008
100
AcDbEntity
  8
0
100
AcDbBlockEnd
  0
BLOCK
  5
4015
330
4014
100
AcDbEntity
  8
0
100
AcDbBlockBegin
  2
*D71
 70
     1
 10
0.0
 20
0.0
 30
0.0
  3
*D71
  1
*D72
  0
LINE
  5
4017
330
4014
100
AcDbEntity
  8
寸法
 62
     0
370
    -2
100
AcDbLine
 10
226.9528016224019
 20
214.2809697260223
 30
0.0
 11
243.1147664388701
 21
214.2809697260223
 31
0.0
  0
LINE
  5
4018
330
4014
100
AcDbEntity
  8
寸法
 62
     0
370
    -2
100
AcDbLine
 10
226.9528016224019
 20
169.4085714285714
 30
0.0
 11
243.1147664388701
 21
169.4085714285714
 31
0.0
  0
LINE
  5
4019
330
4014
100
AcDbEntity
  8
寸法
 62
     0
370
    -2
100
AcDbLine
 10
243.1147664388701
 20
212.2809697260223
 30
0.0
 11
243.1147664388701
 21
171.4085714285714
 31
0.0
  0
INSERT
  5
401A
330
4014
100
AcDbEntity
  8
寸法
 62
     0
370
    -2
100
AcDbBlockReference
  2
_DOT
 10
243.1147664388701
 20
214.2809697260223
 30
0.0
 41
2.0
 42
2.0
 43
2.0
 50
90.0
  0
INSERT
  5
401B
330
4014
100
AcDbEntity
  8
寸法
 62
     0
370
    -2
100
AcDbBlockReference
  2
_DOT
 10
243.1147664388701
 20
169.4085714285714
 30
0.0
 41
2.0
 42
2.0
 43
2.0
 50
270.0
  0
MTEXT
  5
401C
330
4014
100
AcDbEntity
  8
寸法
 62
     0
100
AcDbMText
 10
235.6147664388701
 20
191.8447705772969
 30
0.0
 40
5.0
 41
0.0
 46
0.0
 71
     5
 72
     1
  1
\A1;45
  7
ＭＳ ゴシック
 11
0.0
 21
1.0
 31
0.0
 73
     1
 44
1.0
  0
POINT
  5
401D
330
4014
100
AcDbEntity
  8
Defpoints
 62
     0
100
AcDbPoint
 10
221.9528016224019
 20
214.2809697260223
 30
0.0
  0
POINT
  5
401E
330
4014
100
AcDbEntity
  8
Defpoints
 62
     0
100
AcDbPoint
 10
221.9528016224019
 20
169.4085714285714
 30
0.0
  0
POINT
  5
401F
330
4014
100
AcDbEntity
  8
Defpoints
 62
     0
100
AcDbPoint
 10
243.1147664388701
 20
169.4085714285714
 30
0.0
  0
ENDBLK
  5
4016
330
4014
100
AcDbEntity
  8
0
100
AcDbBlockEnd
  0
BLOCK
  5
4021
330
4020
100
AcDbEntity
  8
0
100
AcDbBlockBegin
  2
*D72
 70
     1
 10
0.0
 20
0.0
 30
0.0
  3
*D72
  1
*D73
  0
LINE
  5
4023
330
4020
100
AcDbEntity
  8
寸法
 62
     0
370
    -2
100
AcDbLine
 10
385.1014809922193
 20
199.0398572447994
 30
0.0
 11
400.8637986758066
 21
199.0398572447994
 31
0.0
  0
LINE
  5
4024
330
4020
100
AcDbEntity
  8
寸法
 62
     0
370
    -2
100
AcDbLine
 10
385.1014809922193
 20
184.6496839097934
 30
0.0
 11
400.8637986758066
 21
184.6496839097934
 31
0.0
  0
LINE
  5
4025
330
4020
100
AcDbEntity
  8
寸法
 62
     0
370
    -2
100
AcDbLine
 10
400.8637986758066
 20
197.0398572447994
 30
0.0
 11
400.8637986758066
 21
186.6496839097934
 31
0.0
  0
INSERT
  5
4026
330
4020
100
AcDbEntity
  8
寸法
 62
     0
370
    -2
100
AcDbBlockReference
  2
_DOT
 10
400.8637986758066
 20
199.0398572447994
 30
0.0
 41
2.0
 42
2.0
 43
2.0
 50
90.0
  0
INSERT
  5
4027
330
4020
100
AcDbEntity
  8
寸法
 62
     0
370
    -2
100
AcDbBlockReference
  2
_DOT
 10
400.8637986758066
 20
184.6496839097934
 30
0.0
 41
2.0
 42
2.0
 43
2.0
 50
270.0
  0
MTEXT
  5
4028
330
4020
100
AcDbEntity
  8
寸法
 62
     0
100
AcDbMText
 10
393.3637986758066
 20
191.8447705772964
 30
0.0
 40
5.0
 41
0.0
 46
0.0
 71
     5
 72
     1
  1
\A1;14
  7
ＭＳ ゴシック
 11
0.0
 21
1.0
 31
0.0
 73
     1
 44
1.0
  0
POINT
  5
4029
330
4020
100
AcDbEntity
  8
Defpoints
 62
     0
100
AcDbPoint
 10
380.1014809922193
 20
199.0398572447994
 30
0.0
  0
POINT
  5
402A
330
4020
100
AcDbEntity
  8
Defpoints
 62
     0
100
AcDbPoint
 10
380.1014809922193
 20
184.6496839097934
 30
0.0
  0
POINT
  5
402B
330
4020
100
AcDbEntity
  8
Defpoints
 62
     0
100
AcDbPoint
 10
400.8637986758066
 20
184.6496839097934
 30
0.0
  0
ENDBLK
  5
4022
330
4020
100
AcDbEntity
  8
0
100
AcDbBlockEnd
  0
BLOCK
  5
402D
330
402C
100
AcDbEntity
  8
0
100
AcDbBlockBegin
  2
*D73
 70
     1
 10
0.0
 20
0.0
 30
0.0
  3
*D73
  1
*D74
  0
LINE
  5
402F
330
402C
100
AcDbEntity
  8
寸法
 62
     0
370
    -2
100
AcDbLine
 10
226.9528016224019
 20
297.0042316582343
 30
0.0
 11
238.8288146714696
 21
297.0042316582343
 31
0.0
  0
LINE
  5
4030
330
402C
100
AcDbEntity
  8
寸法
 62
     0
370
    -2
100
AcDbLine
 10
222.5077642401919
 20
264.8304636966301
 30
0.0
 11
238.8288146714696
 21
264.8304636966301
 31
0.0
  0
LINE
  5
4031
330
402C
100
AcDbEntity
  8
寸法
 62
     0
370
    -2
100
AcDbLine
 10
238.8288146714696
 20
295.0042316582343
 30
0.0
 11
238.8288146714696
 21
266.8304636966301
 31
0.0
  0
INSERT
  5
4032
330
402C
100
AcDbEntity
  8
寸法
 62
     0
370
    -2
100
AcDbBlockReference
  2
_DOT
 10
238.8288146714696
 20
297.0042316582343
 30
0.0
 41
2.0
 42
2.0
 43
2.0
 50
90.0
  0
INSERT
  5
4033
330
402C
100
AcDbEntity
  8
寸法
 62
     0
370
    -2
100
AcDbBlockReference
  2
_DOT
 10
238.8288146714696
 20
264.8304636966301
 30
0.0
 41
2.0
 42
2.0
 43
2.0
 50
270.0
  0
MTEXT
  5
4034
330
402C
100
AcDbEntity
  8
寸法
 62
     0
100
AcDbMText
 10
231.3288146714696
 20
280.9173476774322
 30
0.0
 40
5.0
 41
0.0
 46
0.0
 71
     5
 72
     1
  1
\A1;32
  7
ＭＳ ゴシック
 11
0.0
 21
1.0
 31
0.0
 73
     1
 44
1.0
  0
POINT
  5
4035
330
402C
100
AcDbEntity
  8
Defpoints
 62
     0
100
AcDbPoint
 10
221.9528016224019
 20
297.0042316582343
 30
0.0
  0
POINT
  5
4036
330
402C
100
AcDbEntity
  8
Defpoints
 62
     0
100
AcDbPoint
 10
217.5077642401919
 20
264.8304636966301
 30
0.0
  0
POINT
  5
4037
330
402C
100
AcDbEntity
  8
Defpoints
 62
     0
100
AcDbPoint
 10
238.8288146714696
 20
264.8304636966301
 30
0.0
  0
ENDBLK
  5
402E
330
402C
100
AcDbEntity
  8
0
100
AcDbBlockEnd
  0
BLOCK
  5
4039
330
4038
100
AcDbEntity
  8
0
100
AcDbBlockBegin
  2
*D74
 70
     1
 10
0.0
 20
0.0
 30
0.0
  3
*D74
  1
*D75
  0
LINE
  5
403B
330
4038
100
AcDbEntity
  8
寸法
 62
     0
370
    -2
100
AcDbLine
 10
212.0077642401918
 20
302.0042316582343
 30
0.0
 11
212.0077642401918
 21
308.592396147954
 31
0.0
  0
LINE
  5
403C
330
4038
100
AcDbEntity
  8
寸法
 62
     0
370
    -2
100
AcDbLine
 10
223.0077642401918
 20
302.0042316582343
 30
0.0
 11
223.0077642401918
 21
308.592396147954
 31
0.0
  0
LINE
  5
403D
330
4038
100
AcDbEntity
  8
寸法
 62
     0
370
    -2
100
AcDbLine
 10
214.0077642401918
 20
308.592396147954
 30
0.0
 11
221.0077642401918
 21
308.592396147954
 31
0.0
  0
INSERT
  5
403E
330
4038
100
AcDbEntity
  8
寸法
 62
     0
370
    -2
100
AcDbBlockReference
  2
_DOT
 10
212.0077642401918
 20
308.592396147954
 30
0.0
 41
2.0
 42
2.0
 43
2.0
 50
180.0
  0
INSERT
  5
403F
330
4038
100
AcDbEntity
  8
寸法
 62
     0
370
    -2
100
AcDbBlockReference
  2
_DOT
 10
223.0077642401918
 20
308.592396147954
 30
0.0
 41
2.0
 42
2.0
 43
2.0
  0
MTEXT
  5
4040
330
4038
100
AcDbEntity
  8
寸法
 62
     0
100
AcDbMText
 10
217.5077642401918
 20
316.092396147954
 30
0.0
 40
5.0
 41
0.0
 46
0.0
 71
     5
 72
     1
  1
\A1;11
  7
ＭＳ ゴシック
 73
     1
 44
1.0
  0
POINT
  5
4041
330
4038
100
AcDbEntity
  8
Defpoints
 62
     0
100
AcDbPoint
 10
212.0077642401918
 20
297.0042316582343
 30
0.0
  0
POINT
  5
4042
330
4038
100
AcDbEntity
  8
Defpoints
 62
     0
100
AcDbPoint
 10
223.0077642401918
 20
297.0042316582343
 30
0.0
  0
POINT
  5
4043
330
4038
100
AcDbEntity
  8
Defpoints
 62
     0
100
AcDbPoint
 10
223.0077642401918
 20
308.592396147954
 30
0.0
  0
ENDBLK
  5
403A
330
4038
100
AcDbEntity
  8
0
100
AcDbBlockEnd
  0
BLOCK
  5
40BC
330
40BB
100
AcDbEntity
  8
0
100
AcDbBlockBegin
  2
*D75
 70
     1
 10
0.0
 20
0.0
 30
0.0
  3
*D75
  1
*D15
  0
LINE
  5
40BD
330
40BB
100
AcDbEntity
  8
寸法
 62
     0
370
    -2
100
AcDbLine
 10
22.43437802926059
 20
70.3493570426731
 30
0.0
 11
38.79975387592021
 21
70.3493570426731
 31
0.0
  0
LINE
  5
40BE
330
40BB
100
AcDbEntity
  8
寸法
 62
     0
370
    -2
100
AcDbLine
 10
22.43437802926059
 20
0.4999999999999997
 30
0.0
 11
38.7997538759202
 21
0.4999999999999987
 31
0.0
  0
LINE
  5
40BF
330
40BB
100
AcDbEntity
  8
寸法
 62
     0
370
    -2
100
AcDbLine
 10
38.79975387592021
 20
68.3493570426731
 30
0.0
 11
38.7997538759202
 21
2.499999999999999
 31
0.0
  0
INSERT
  5
40C0
330
40BB
100
AcDbEntity
  8
寸法
 62
     0
370
    -2
100
AcDbBlockReference
  2
_DOT
 10
38.79975387592021
 20
70.3493570426731
 30
0.0
 41
2.0
 42
2.0
 43
2.0
 50
90.0
  0
INSERT
  5
40C1
330
40BB
100
AcDbEntity
  8
寸法
 62
     0
370
    -2
100
AcDbBlockReference
  2
_DOT
 10
38.7997538759202
 20
0.4999999999999987
 30
0.0
 41
2.0
 42
2.0
 43
2.0
 50
270.0
  0
MTEXT
  5
40C2
330
40BB
100
AcDbEntity
  8
寸法
 62
     0
100
AcDbMText
 10
31.2997538759202
 20
35.42467852133655
 30
0.0
 40
5.0
 41
0.0
 46
0.0
 71
     5
 72
     1
  1
\A1;70
  7
ＭＳ ゴシック
 11
1.017250216528132E-16
 21
1.0
 31
0.0
 73
     1
 44
1.0
  0
POINT
  5
40C3
330
40BB
100
AcDbEntity
  8
Defpoints
 62
     0
100
AcDbPoint
 10
17.43437802926059
 20
70.3493570426731
 30
0.0
  0
POINT
  5
40C4
330
40BB
100
AcDbEntity
  8
Defpoints
 62
     0
100
AcDbPoint
 10
17.43437802926059
 20
0.5
 30
0.0
  0
POINT
  5
40C5
330
40BB
100
AcDbEntity
  8
Defpoints
 62
     0
100
AcDbPoint
 10
38.7997538759202
 20
0.4999999999999987
 30
0.0
  0
ENDBLK
  5
40C6
330
40BB
100
AcDbEntity
  8
0
100
AcDbBlockEnd
  0
BLOCK
  5
40CB
330
40CA
100
AcDbEntity
  8
0
100
AcDbBlockBegin
  2
*D76
 70
     1
 10
0.0
 20
0.0
 30
0.0
  3
*D76
  1
*D16
  0
LINE
  5
40CC
330
40CA
100
AcDbEntity
  8
寸法
 62
     0
370
    -2
100
AcDbLine
 10
17.43437802926059
 20
75.3493570426731
 30
0.0
 11
17.43437802926059
 21
84.707810205239
 31
0.0
  0
LINE
  5
40CD
330
40CA
100
AcDbEntity
  8
寸法
 62
     0
370
    -2
100
AcDbLine
 10
3.464506620725786
 20
75.3493570426731
 30
0.0
 11
3.464506620725786
 21
84.707810205239
 31
0.0
  0
LINE
  5
40CE
330
40CA
100
AcDbEntity
  8
寸法
 62
     0
370
    -2
100
AcDbLine
 10
15.43437802926059
 20
84.707810205239
 30
0.0
 11
5.464506620725786
 21
84.707810205239
 31
0.0
  0
INSERT
  5
40CF
330
40CA
100
AcDbEntity
  8
寸法
 62
     0
370
    -2
100
AcDbBlockReference
  2
_DOT
 10
17.43437802926059
 20
84.707810205239
 30
0.0
 41
2.0
 42
2.0
 43
2.0
  0
INSERT
  5
40D0
330
40CA
100
AcDbEntity
  8
寸法
 62
     0
370
    -2
100
AcDbBlockReference
  2
_DOT
 10
3.464506620725786
 20
84.707810205239
 30
0.0
 41
2.0
 42
2.0
 43
2.0
 50
180.0
  0
MTEXT
  5
40D1
330
40CA
100
AcDbEntity
  8
寸法
 62
     0
100
AcDbMText
 10
10.44944232499319
 20
92.207810205239
 30
0.0
 40
5.0
 41
0.0
 46
0.0
 71
     5
 72
     1
  1
\A1;14
  7
ＭＳ ゴシック
 73
     1
 44
1.0
  0
POINT
  5
40D2
330
40CA
100
AcDbEntity
  8
Defpoints
 62
     0
100
AcDbPoint
 10
17.43437802926059
 20
70.3493570426731
 30
0.0
  0
POINT
  5
40D3
330
40CA
100
AcDbEntity
  8
Defpoints
 62
     0
100
AcDbPoint
 10
3.464506620725786
 20
70.3493570426731
 30
0.0
  0
POINT
  5
40D4
330
40CA
100
AcDbEntity
  8
Defpoints
 62
     0
100
AcDbPoint
 10
3.464506620725786
 20
84.707810205239
 30
0.0
  0
ENDBLK
  5
40D5
330
40CA
100
AcDbEntity
  8
0
100
AcDbBlockEnd
  0
BLOCK
  5
40D8
330
40D7
100
AcDbEntity
  8
0
100
AcDbBlockBegin
  2
*D77
 70
     1
 10
0.0
 20
0.0
 30
0.0
  3
*D77
  1
*D17
  0
LINE
  5
40D9
330
40D7
100
AcDbEntity
  8
寸法
 62
     0
370
    -2
100
AcDbLine
 10
20.3971621011076
 20
149.5573542114637
 30
0.0
 11
20.3971621011076
 21
129.0938031209179
 31
0.0
  0
LINE
  5
40DA
330
40D7
100
AcDbEntity
  8
寸法
 62
     0
370
    -2
100
AcDbLine
 10
0.5
 20
149.5573542114637
 30
0.0
 11
0.5
 21
129.0938031209179
 31
0.0
  0
LINE
  5
40DB
330
40D7
100
AcDbEntity
  8
寸法
 62
     0
370
    -2
100
AcDbLine
 10
18.3971621011076
 20
129.0938031209179
 30
0.0
 11
2.5
 21
129.0938031209179
 31
0.0
  0
INSERT
  5
40DC
330
40D7
100
AcDbEntity
  8
寸法
 62
     0
370
    -2
100
AcDbBlockReference
  2
_DOT
 10
20.3971621011076
 20
129.0938031209179
 30
0.0
 41
2.0
 42
2.0
 43
2.0
  0
INSERT
  5
40DD
330
40D7
100
AcDbEntity
  8
寸法
 62
     0
370
    -2
100
AcDbBlockReference
  2
_DOT
 10
0.5
 20
129.0938031209179
 30
0.0
 41
2.0
 42
2.0
 43
2.0
 50
180.0
  0
MTEXT
  5
40DE
330
40D7
100
AcDbEntity
  8
寸法
 62
     0
100
AcDbMText
 10
10.4485810505538
 20
136.5938031209179
 30
0.0
 40
5.0
 41
0.0
 46
0.0
 71
     5
 72
     1
  1
\A1;20
  7
ＭＳ ゴシック
 73
     1
 44
1.0
  0
POINT
  5
40DF
330
40D7
100
AcDbEntity
  8
Defpoints
 62
     0
100
AcDbPoint
 10
20.3971621011076
 20
154.5573542114637
 30
0.0
  0
POINT
  5
40E0
330
40D7
100
AcDbEntity
  8
Defpoints
 62
     0
100
AcDbPoint
 10
0.5
 20
154.5573542114637
 30
0.0
  0
POINT
  5
40E1
330
40D7
100
AcDbEntity
  8
Defpoints
 62
     0
100
AcDbPoint
 10
0.5
 20
129.0938031209179
 30
0.0
  0
ENDBLK
  5
40E2
330
40D7
100
AcDbEntity
  8
0
100
AcDbBlockEnd
  0
BLOCK
  5
40E7
330
40E6
100
AcDbEntity
  8
0
100
AcDbBlockBegin
  2
*D78
 70
     1
 10
0.0
 20
0.0
 30
0.0
  3
*D78
  1
*D20
  0
LINE
  5
40E8
330
40E6
100
AcDbEntity
  8
寸法
 62
     0
370
    -2
100
AcDbLine
 10
174.8334449993328
 20
46.21989234590991
 30
0.0
 11
193.615045815607
 21
46.21989234590991
 31
0.0
  0
LINE
  5
40E9
330
40E6
100
AcDbEntity
  8
寸法
 62
     0
370
    -2
100
AcDbLine
 10
174.8334449993328
 20
24.629464696764
 30
0.0
 11
193.615045815607
 21
24.629464696764
 31
0.0
  0
LINE
  5
40EA
330
40E6
100
AcDbEntity
  8
寸法
 62
     0
370
    -2
100
AcDbLine
 10
193.615045815607
 20
44.21989234590991
 30
0.0
 11
193.615045815607
 21
26.629464696764
 31
0.0
  0
INSERT
  5
40EB
330
40E6
100
AcDbEntity
  8
寸法
 62
     0
370
    -2
100
AcDbBlockReference
  2
_DOT
 10
193.615045815607
 20
46.21989234590991
 30
0.0
 41
2.0
 42
2.0
 43
2.0
 50
90.0
  0
INSERT
  5
40EC
330
40E6
100
AcDbEntity
  8
寸法
 62
     0
370
    -2
100
AcDbBlockReference
  2
_DOT
 10
193.615045815607
 20
24.629464696764
 30
0.0
 41
2.0
 42
2.0
 43
2.0
 50
270.0
  0
MTEXT
  5
40ED
330
40E6
100
AcDbEntity
  8
寸法
 62
     0
100
AcDbMText
 10
186.115045815607
 20
35.42467852133696
 30
0.0
 40
5.0
 41
0.0
 46
0.0
 71
     5
 72
     1
  1
\A1;22
  7
ＭＳ ゴシック
 11
0.0
 21
1.0
 31
0.0
 73
     1
 44
1.0
  0
POINT
  5
40EE
330
40E6
100
AcDbEntity
  8
Defpoints
 62
     0
100
AcDbPoint
 10
169.8334449993328
 20
46.21989234590991
 30
0.0
  0
POINT
  5
40EF
330
40E6
100
AcDbEntity
  8
Defpoints
 62
     0
100
AcDbPoint
 10
169.8334449993328
 20
24.629464696764
 30
0.0
  0
POINT
  5
40F0
330
40E6
100
AcDbEntity
  8
Defpoints
 62
     0
100
AcDbPoint
 10
193.615045815607
 20
24.629464696764
 30
0.0
  0
ENDBLK
  5
40F1
330
40E6
100
AcDbEntity
  8
0
100
AcDbBlockEnd
  0
BLOCK
  5
40FA
330
40F9
100
AcDbEntity
  8
0
100
AcDbBlockBegin
  2
*D79
 70
     1
 10
0.0
 20
0.0
 30
0.0
  3
*D79
  1
*D23
  0
LINE
  5
40FB
330
40F9
100
AcDbEntity
  8
寸法
 62
     0
370
    -2
100
AcDbLine
 10
25.16045456266849
 20
193.7160578773352
 30
0.0
 11
43.28901572486188
 21
193.7160578773352
 31
0.0
  0
LINE
  5
40FC
330
40F9
100
AcDbEntity
  8
寸法
 62
     0
370
    -2
100
AcDbLine
 10
25.16045456266849
 20
143.7160578773352
 30
0.0
 11
43.28901572486188
 21
143.7160578773352
 31
0.0
  0
LINE
  5
40FD
330
40F9
100
AcDbEntity
  8
寸法
 62
     0
370
    -2
100
AcDbLine
 10
43.28901572486188
 20
191.7160578773352
 30
0.0
 11
43.28901572486188
 21
145.7160578773352
 31
0.0
  0
INSERT
  5
40FE
330
40F9
100
AcDbEntity
  8
寸法
 62
     0
370
    -2
100
AcDbBlockReference
  2
_DOT
 10
43.28901572486188
 20
193.7160578773352
 30
0.0
 41
2.0
 42
2.0
 43
2.0
 50
90.0
  0
INSERT
  5
40FF
330
40F9
100
AcDbEntity
  8
寸法
 62
     0
370
    -2
100
AcDbBlockReference
  2
_DOT
 10
43.28901572486188
 20
143.7160578773352
 30
0.0
 41
2.0
 42
2.0
 43
2.0
 50
270.0
  0
MTEXT
  5
4100
330
40F9
100
AcDbEntity
  8
寸法
 62
     0
100
AcDbMText
 10
35.78901572486188
 20
168.7160578773352
 30
0.0
 40
5.0
 41
0.0
 46
0.0
 71
     5
 72
     1
  1
\A1;50
  7
ＭＳ ゴシック
 11
0.0
 21
1.0
 31
0.0
 73
     1
 44
1.0
  0
POINT
  5
4101
330
40F9
100
AcDbEntity
  8
Defpoints
 62
     0
100
AcDbPoint
 10
20.16045456266849
 20
193.7160578773352
 30
0.0
  0
POINT
  5
4102
330
40F9
100
AcDbEntity
  8
Defpoints
 62
     0
100
AcDbPoint
 10
20.16045456266849
 20
143.7160578773352
 30
0.0
  0
POINT
  5
4103
330
40F9
100
AcDbEntity
  8
Defpoints
 62
     0
100
AcDbPoint
 10
43.28901572486188
 20
143.7160578773352
 30
0.0
  0
ENDBLK
  5
4104
330
40F9
100
AcDbEntity
  8
0
100
AcDbBlockEnd
  0
BLOCK
  5
4109
330
4108
100
AcDbEntity
  8
0
100
AcDbBlockBegin
  2
*D80
 70
     1
 10
0.0
 20
0.0
 30
0.0
  3
*D80
  1
*D25
  0
LINE
  5
410A
330
4108
100
AcDbEntity
  8
寸法
 62
     0
370
    -2
100
AcDbLine
 10
20.16045456266849
 20
198.7160578773352
 30
0.0
 11
20.16045456266849
 21
208.3120209963561
 31
0.0
  0
LINE
  5
410B
330
4108
100
AcDbEntity
  8
寸法
 62
     0
370
    -2
100
AcDbLine
 10
0.7384300873178802
 20
198.7160578773352
 30
0.0
 11
0.7384300873178802
 21
208.3120209963561
 31
0.0
  0
LINE
  5
410C
330
4108
100
AcDbEntity
  8
寸法
 62
     0
370
    -2
100
AcDbLine
 10
18.16045456266849
 20
208.3120209963561
 30
0.0
 11
2.73843008731788
 21
208.3120209963561
 31
0.0
  0
INSERT
  5
410D
330
4108
100
AcDbEntity
  8
寸法
 62
     0
370
    -2
100
AcDbBlockReference
  2
_DOT
 10
20.16045456266849
 20
208.3120209963561
 30
0.0
 41
2.0
 42
2.0
 43
2.0
  0
INSERT
  5
410E
330
4108
100
AcDbEntity
  8
寸法
 62
     0
370
    -2
100
AcDbBlockReference
  2
_DOT
 10
0.7384300873178802
 20
208.3120209963561
 30
0.0
 41
2.0
 42
2.0
 43
2.0
 50
180.0
  0
MTEXT
  5
410F
330
4108
100
AcDbEntity
  8
寸法
 62
     0
100
AcDbMText
 10
10.44944232499319
 20
215.8120209963561
 30
0.0
 40
5.0
 41
0.0
 46
0.0
 71
     5
 72
     1
  1
\A1;19
  7
ＭＳ ゴシック
 73
     1
 44
1.0
  0
POINT
  5
4110
330
4108
100
AcDbEntity
  8
Defpoints
 62
     0
100
AcDbPoint
 10
20.16045456266849
 20
193.7160578773352
 30
0.0
  0
POINT
  5
4111
330
4108
100
AcDbEntity
  8
Defpoints
 62
     0
100
AcDbPoint
 10
0.7384300873178802
 20
193.7160578773352
 30
0.0
  0
POINT
  5
4112
330
4108
100
AcDbEntity
  8
Defpoints
 62
     0
100
AcDbPoint
 10
0.7384300873178802
 20
208.3120209963561
 30
0.0
  0
ENDBLK
  5
4113
330
4108
100
AcDbEntity
  8
0
100
AcDbBlockEnd
  0
BLOCK
  5
4162
330
4161
100
AcDbEntity
  8
0
100
AcDbBlockBegin
  2
*D81
 70
     1
 10
0.0
 20
0.0
 30
0.0
  3
*D81
  1
*D82
  0
LINE
  5
4164
330
4161
100
AcDbEntity
  8
寸法
 62
     0
370
    -2
100
AcDbLine
 10
231.5686637435464
 20
208.0750713283874
 30
0.0
 11
252.4233014391477
 21
208.0750713283874
 31
0.0
  0
LINE
  5
4165
330
4161
100
AcDbEntity
  8
寸法
 62
     0
370
    -2
100
AcDbLine
 10
231.5686637435464
 20
138.2257142857142
 30
0.0
 11
252.4233014391477
 21
138.2257142857142
 31
0.0
  0
LINE
  5
4166
330
4161
100
AcDbEntity
  8
寸法
 62
     0
370
    -2
100
AcDbLine
 10
252.4233014391477
 20
206.0750713283874
 30
0.0
 11
252.4233014391477
 21
140.2257142857142
 31
0.0
  0
INSERT
  5
4167
330
4161
100
AcDbEntity
  8
寸法
 62
     0
370
    -2
100
AcDbBlockReference
  2
_DOT
 10
252.4233014391477
 20
208.0750713283874
 30
0.0
 41
2.0
 42
2.0
 43
2.0
 50
90.0
  0
INSERT
  5
4168
330
4161
100
AcDbEntity
  8
寸法
 62
     0
370
    -2
100
AcDbBlockReference
  2
_DOT
 10
252.4233014391477
 20
138.2257142857142
 30
0.0
 41
2.0
 42
2.0
 43
2.0
 50
270.0
  0
MTEXT
  5
4169
330
4161
100
AcDbEntity
  8
寸法
 62
     0
100
AcDbMText
 10
244.9233014391477
 20
173.1503928070508
 30
0.0
 40
5.0
 41
0.0
 46
0.0
 71
     5
 72
     1
  1
\A1;70
  7
ＭＳ ゴシック
 11
0.0
 21
1.0
 31
0.0
 73
     1
 44
1.0
  0
POINT
  5
416A
330
4161
100
AcDbEntity
  8
Defpoints
 62
     0
100
AcDbPoint
 10
226.5686637435464
 20
208.0750713283874
 30
0.0
  0
POINT
  5
416B
330
4161
100
AcDbEntity
  8
Defpoints
 62
     0
100
AcDbPoint
 10
226.5686637435464
 20
138.2257142857142
 30
0.0
  0
POINT
  5
416C
330
4161
100
AcDbEntity
  8
Defpoints
 62
     0
100
AcDbPoint
 10
252.4233014391477
 20
138.2257142857142
 30
0.0
  0
ENDBLK
  5
4163
330
4161
100
AcDbEntity
  8
0
100
AcDbBlockEnd
  0
BLOCK
  5
416E
330
416D
100
AcDbEntity
  8
0
100
AcDbBlockBegin
  2
*D82
 70
     1
 10
0.0
 20
0.0
 30
0.0
  3
*D82
  1
*D83
  0
LINE
  5
4170
330
416D
100
AcDbEntity
  8
寸法
 62
     0
370
    -2
100
AcDbLine
 10
226.5686637435464
 20
213.0750713283874
 30
0.0
 11
226.5686637435464
 21
222.4335244909532
 31
0.0
  0
LINE
  5
4171
330
416D
100
AcDbEntity
  8
寸法
 62
     0
370
    -2
100
AcDbLine
 10
212.5987923350116
 20
213.0750713283874
 30
0.0
 11
212.5987923350116
 21
222.4335244909532
 31
0.0
  0
LINE
  5
4172
330
416D
100
AcDbEntity
  8
寸法
 62
     0
370
    -2
100
AcDbLine
 10
224.5686637435464
 20
222.4335244909532
 30
0.0
 11
214.5987923350116
 21
222.4335244909532
 31
0.0
  0
INSERT
  5
4173
330
416D
100
AcDbEntity
  8
寸法
 62
     0
370
    -2
100
AcDbBlockReference
  2
_DOT
 10
226.5686637435464
 20
222.4335244909532
 30
0.0
 41
2.0
 42
2.0
 43
2.0
  0
INSERT
  5
4174
330
416D
100
AcDbEntity
  8
寸法
 62
     0
370
    -2
100
AcDbBlockReference
  2
_DOT
 10
212.5987923350116
 20
222.4335244909532
 30
0.0
 41
2.0
 42
2.0
 43
2.0
 50
180.0
  0
MTEXT
  5
4175
330
416D
100
AcDbEntity
  8
寸法
 62
     0
100
AcDbMText
 10
219.583728039279
 20
229.9335244909532
 30
0.0
 40
5.0
 41
0.0
 46
0.0
 71
     5
 72
     1
  1
\A1;14
  7
ＭＳ ゴシック
 73
     1
 44
1.0
  0
POINT
  5
4176
330
416D
100
AcDbEntity
  8
Defpoints
 62
     0
100
AcDbPoint
 10
226.5686637435464
 20
208.0750713283874
 30
0.0
  0
POINT
  5
4177
330
416D
100
AcDbEntity
  8
Defpoints
 62
     0
100
AcDbPoint
 10
212.5987923350116
 20
208.0750713283874
 30
0.0
  0
POINT
  5
4178
330
416D
100
AcDbEntity
  8
Defpoints
 62
     0
100
AcDbPoint
 10
212.5987923350116
 20
222.4335244909532
 30
0.0
  0
ENDBLK
  5
416F
330
416D
100
AcDbEntity
  8
0
100
AcDbBlockEnd
  0
BLOCK
  5
417A
330
4179
100
AcDbEntity
  8
0
100
AcDbBlockBegin
  2
*D83
 70
     1
 10
0.0
 20
0.0
 30
0.0
  3
*D83
  1
*D84
  0
LINE
  5
417C
330
4179
100
AcDbEntity
  8
寸法
 62
     0
370
    -2
100
AcDbLine
 10
229.5314478153934
 20
287.283068497178
 30
0.0
 11
229.5314478153934
 21
266.8195174066321
 31
0.0
  0
LINE
  5
417D
330
4179
100
AcDbEntity
  8
寸法
 62
     0
370
    -2
100
AcDbLine
 10
209.6342857142858
 20
287.283068497178
 30
0.0
 11
209.6342857142858
 21
266.8195174066321
 31
0.0
  0
LINE
  5
417E
330
4179
100
AcDbEntity
  8
寸法
 62
     0
370
    -2
100
AcDbLine
 10
227.5314478153934
 20
266.8195174066321
 30
0.0
 11
211.6342857142858
 21
266.8195174066321
 31
0.0
  0
INSERT
  5
417F
330
4179
100
AcDbEntity
  8
寸法
 62
     0
370
    -2
100
AcDbBlockReference
  2
_DOT
 10
229.5314478153934
 20
266.8195174066321
 30
0.0
 41
2.0
 42
2.0
 43
2.0
  0
INSERT
  5
4180
330
4179
100
AcDbEntity
  8
寸法
 62
     0
370
    -2
100
AcDbBlockReference
  2
_DOT
 10
209.6342857142858
 20
266.8195174066321
 30
0.0
 41
2.0
 42
2.0
 43
2.0
 50
180.0
  0
MTEXT
  5
4181
330
4179
100
AcDbEntity
  8
寸法
 62
     0
100
AcDbMText
 10
219.5828667648396
 20
274.3195174066321
 30
0.0
 40
5.0
 41
0.0
 46
0.0
 71
     5
 72
     1
  1
\A1;20
  7
ＭＳ ゴシック
 73
     1
 44
1.0
  0
POINT
  5
4182
330
4179
100
AcDbEntity
  8
Defpoints
 62
     0
100
AcDbPoint
 10
229.5314478153934
 20
292.283068497178
 30
0.0
  0
POINT
  5
4183
330
4179
100
AcDbEntity
  8
Defpoints
 62
     0
100
AcDbPoint
 10
209.6342857142858
 20
292.283068497178
 30
0.0
  0
POINT
  5
4184
330
4179
100
AcDbEntity
  8
Defpoints
 62
     0
100
AcDbPoint
 10
209.6342857142858
 20
266.8195174066321
 30
0.0
  0
ENDBLK
  5
417B
330
4179
100
AcDbEntity
  8
0
100
AcDbBlockEnd
  0
BLOCK
  5
4186
330
4185
100
AcDbEntity
  8
0
100
AcDbBlockBegin
  2
*D84
 70
     1
 10
0.0
 20
0.0
 30
0.0
  3
*D84
  1
*D85
  0
LINE
  5
4188
330
4185
100
AcDbEntity
  8
寸法
 62
     0
370
    -2
100
AcDbLine
 10
383.9677307136186
 20
183.9456066316242
 30
0.0
 11
402.7493315298928
 21
183.9456066316242
 31
0.0
  0
LINE
  5
4189
330
4185
100
AcDbEntity
  8
寸法
 62
     0
370
    -2
100
AcDbLine
 10
383.9677307136186
 20
162.3551789824783
 30
0.0
 11
402.7493315298928
 21
162.3551789824783
 31
0.0
  0
LINE
  5
418A
330
4185
100
AcDbEntity
  8
寸法
 62
     0
370
    -2
100
AcDbLine
 10
402.7493315298928
 20
181.9456066316242
 30
0.0
 11
402.7493315298928
 21
164.3551789824783
 31
0.0
  0
INSERT
  5
418B
330
4185
100
AcDbEntity
  8
寸法
 62
     0
370
    -2
100
AcDbBlockReference
  2
_DOT
 10
402.7493315298928
 20
183.9456066316242
 30
0.0
 41
2.0
 42
2.0
 43
2.0
 50
90.0
  0
INSERT
  5
418C
330
4185
100
AcDbEntity
  8
寸法
 62
     0
370
    -2
100
AcDbBlockReference
  2
_DOT
 10
402.7493315298928
 20
162.3551789824783
 30
0.0
 41
2.0
 42
2.0
 43
2.0
 50
270.0
  0
MTEXT
  5
418D
330
4185
100
AcDbEntity
  8
寸法
 62
     0
100
AcDbMText
 10
395.2493315298928
 20
173.1503928070512
 30
0.0
 40
5.0
 41
0.0
 46
0.0
 71
     5
 72
     1
  1
\A1;22
  7
ＭＳ ゴシック
 11
0.0
 21
1.0
 31
0.0
 73
     1
 44
1.0
  0
POINT
  5
418E
330
4185
100
AcDbEntity
  8
Defpoints
 62
     0
100
AcDbPoint
 10
378.9677307136186
 20
183.9456066316242
 30
0.0
  0
POINT
  5
418F
330
4185
100
AcDbEntity
  8
Defpoints
 62
     0
100
AcDbPoint
 10
378.9677307136186
 20
162.3551789824783
 30
0.0
  0
POINT
  5
4190
330
4185
100
AcDbEntity
  8
Defpoints
 62
     0
100
AcDbPoint
 10
402.7493315298928
 20
162.3551789824783
 30
0.0
  0
ENDBLK
  5
4187
330
4185
100
AcDbEntity
  8
0
100
AcDbBlockEnd
  0
BLOCK
  5
4192
330
4191
100
AcDbEntity
  8
0
100
AcDbBlockBegin
  2
*D85
 70
     1
 10
0.0
 20
0.0
 30
0.0
  3
*D85
  1
*D86
  0
LINE
  5
4194
330
4191
100
AcDbEntity
  8
寸法
 62
     0
370
    -2
100
AcDbLine
 10
234.2947402769543
 20
331.4417721630494
 30
0.0
 11
252.4233014391477
 21
331.4417721630494
 31
0.0
  0
LINE
  5
4195
330
4191
100
AcDbEntity
  8
寸法
 62
     0
370
    -2
100
AcDbLine
 10
234.2947402769543
 20
281.4417721630494
 30
0.0
 11
252.4233014391477
 21
281.4417721630494
 31
0.0
  0
LINE
  5
4196
330
4191
100
AcDbEntity
  8
寸法
 62
     0
370
    -2
100
AcDbLine
 10
252.4233014391477
 20
329.4417721630494
 30
0.0
 11
252.4233014391477
 21
283.4417721630494
 31
0.0
  0
INSERT
  5
4197
330
4191
100
AcDbEntity
  8
寸法
 62
     0
370
    -2
100
AcDbBlockReference
  2
_DOT
 10
252.4233014391477
 20
331.4417721630494
 30
0.0
 41
2.0
 42
2.0
 43
2.0
 50
90.0
  0
INSERT
  5
4198
330
4191
100
AcDbEntity
  8
寸法
 62
     0
370
    -2
100
AcDbBlockReference
  2
_DOT
 10
252.4233014391477
 20
281.4417721630494
 30
0.0
 41
2.0
 42
2.0
 43
2.0
 50
270.0
  0
MTEXT
  5
4199
330
4191
100
AcDbEntity
  8
寸法
 62
     0
100
AcDbMText
 10
244.9233014391477
 20
306.4417721630494
 30
0.0
 40
5.0
 41
0.0
 46
0.0
 71
     5
 72
     1
  1
\A1;50
  7
ＭＳ ゴシック
 11
0.0
 21
1.0
 31
0.0
 73
     1
 44
1.0
  0
POINT
  5
419A
330
4191
100
AcDbEntity
  8
Defpoints
 62
     0
100
AcDbPoint
 10
229.2947402769543
 20
331.4417721630494
 30
0.0
  0
POINT
  5
419B
330
4191
100
AcDbEntity
  8
Defpoints
 62
     0
100
AcDbPoint
 10
229.2947402769543
 20
281.4417721630494
 30
0.0
  0
POINT
  5
419C
330
4191
100
AcDbEntity
  8
Defpoints
 62
     0
100
AcDbPoint
 10
252.4233014391477
 20
281.4417721630494
 30
0.0
  0
ENDBLK
  5
4193
330
4191
100
AcDbEntity
  8
0
100
AcDbBlockEnd
  0
BLOCK
  5
419E
330
419D
100
AcDbEntity
  8
0
100
AcDbBlockBegin
  2
*D86
 70
     1
 10
0.0
 20
0.0
 30
0.0
  3
*D86
  1
*D87
  0
LINE
  5
41A0
330
419D
100
AcDbEntity
  8
寸法
 62
     0
370
    -2
100
AcDbLine
 10
229.2947402769543
 20
336.4417721630494
 30
0.0
 11
229.2947402769543
 21
346.0377352820703
 31
0.0
  0
LINE
  5
41A1
330
419D
100
AcDbEntity
  8
寸法
 62
     0
370
    -2
100
AcDbLine
 10
209.8727158016037
 20
336.4417721630494
 30
0.0
 11
209.8727158016037
 21
346.0377352820703
 31
0.0
  0
LINE
  5
41A2
330
419D
100
AcDbEntity
  8
寸法
 62
     0
370
    -2
100
AcDbLine
 10
227.2947402769543
 20
346.0377352820703
 30
0.0
 11
211.8727158016037
 21
346.0377352820703
 31
0.0
  0
INSERT
  5
41A3
330
419D
100
AcDbEntity
  8
寸法
 62
     0
370
    -2
100
AcDbBlockReference
  2
_DOT
 10
229.2947402769543
 20
346.0377352820703
 30
0.0
 41
2.0
 42
2.0
 43
2.0
  0
INSERT
  5
41A4
330
419D
100
AcDbEntity
  8
寸法
 62
     0
370
    -2
100
AcDbBlockReference
  2
_DOT
 10
209.8727158016037
 20
346.0377352820703
 30
0.0
 41
2.0
 42
2.0
 43
2.0
 50
180.0
  0
MTEXT
  5
41A5
330
419D
100
AcDbEntity
  8
寸法
 62
     0
100
AcDbMText
 10
219.583728039279
 20
353.5377352820703
 30
0.0
 40
5.0
 41
0.0
 46
0.0
 71
     5
 72
     1
  1
\A1;19
  7
ＭＳ ゴシック
 73
     1
 44
1.0
  0
POINT
  5
41A6
330
419D
100
AcDbEntity
  8
Defpoints
 62
     0
100
AcDbPoint
 10
229.2947402769543
 20
331.4417721630494
 30
0.0
  0
POINT
  5
41A7
330
419D
100
AcDbEntity
  8
Defpoints
 62
     0
100
AcDbPoint
 10
209.8727158016037
 20
331.4417721630494
 30
0.0
  0
POINT
  5
41A8
330
419D
100
AcDbEntity
  8
Defpoints
 62
     0
100
AcDbPoint
 10
209.8727158016037
 20
346.0377352820703
 30
0.0
  0
ENDBLK
  5
419F
330
419D
100
AcDbEntity
  8
0
100
AcDbBlockEnd
  0
BLOCK
  5
4225
330
4224
100
AcDbEntity
  8
0
100
AcDbBlockBegin
  2
*D87
 70
     1
 10
0.0
 20
0.0
 30
0.0
  3
*D87
  1
*D16
  0
LINE
  5
4226
330
4224
100
AcDbEntity
  8
寸法
 62
     0
370
    -2
100
AcDbLine
 10
263.6048956520132
 20
60.812207698669
 30
0.0
 11
276.9591216489943
 21
60.812207698669
 31
0.0
  0
LINE
  5
4227
330
4224
100
AcDbEntity
  8
寸法
 62
     0
370
    -2
100
AcDbLine
 10
263.6048956520132
 20
28.638439737065
 30
0.0
 11
276.9591216489943
 21
28.638439737065
 31
0.0
  0
LINE
  5
4228
330
4224
100
AcDbEntity
  8
寸法
 62
     0
370
    -2
100
AcDbLine
 10
276.9591216489943
 20
58.812207698669
 30
0.0
 11
276.9591216489943
 21
30.638439737065
 31
0.0
  0
INSERT
  5
4229
330
4224
100
AcDbEntity
  8
寸法
 62
     0
370
    -2
100
AcDbBlockReference
  2
_DOT
 10
276.9591216489943
 20
60.812207698669
 30
0.0
 41
2.0
 42
2.0
 43
2.0
 50
90.0
  0
INSERT
  5
422A
330
4224
100
AcDbEntity
  8
寸法
 62
     0
370
    -2
100
AcDbBlockReference
  2
_DOT
 10
276.9591216489943
 20
28.638439737065
 30
0.0
 41
2.0
 42
2.0
 43
2.0
 50
270.0
  0
MTEXT
  5
422B
330
4224
100
AcDbEntity
  8
寸法
 62
     0
100
AcDbMText
 10
269.4591216489943
 20
44.72532371786701
 30
0.0
 40
5.0
 41
0.0
 46
0.0
 71
     5
 72
     1
  1
\A1;32
  7
ＭＳ ゴシック
 11
0.0
 21
1.0
 31
0.0
 73
     1
 44
1.0
  0
POINT
  5
422C
330
4224
100
AcDbEntity
  8
Defpoints
 62
     0
100
AcDbPoint
 10
258.6048956520132
 20
60.812207698669
 30
0.0
  0
POINT
  5
422D
330
4224
100
AcDbEntity
  8
Defpoints
 62
     0
100
AcDbPoint
 10
258.6048956520132
 20
28.638439737065
 30
0.0
  0
POINT
  5
422E
330
4224
100
AcDbEntity
  8
Defpoints
 62
     0
100
AcDbPoint
 10
276.9591216489943
 20
28.638439737065
 30
0.0
  0
ENDBLK
  5
422F
330
4224
100
AcDbEntity
  8
0
100
AcDbBlockEnd
  0
BLOCK
  5
4234
330
4233
100
AcDbEntity
  8
0
100
AcDbBlockBegin
  2
*D88
 70
     1
 10
0.0
 20
0.0
 30
0.0
  3
*D88
  1
*D19
  0
LINE
  5
4235
330
4233
100
AcDbEntity
  8
寸法
 62
     0
370
    -2
100
AcDbLine
 10
226.8531521657592
 20
23.638439737065
 30
0.0
 11
226.8531521657592
 21
0.5
 31
0.0
  0
LINE
  5
4236
330
4233
100
AcDbEntity
  8
寸法
 62
     0
370
    -2
100
AcDbLine
 10
258.6048956520132
 20
23.638439737065
 30
0.0
 11
258.6048956520132
 21
0.5
 31
0.0
  0
LINE
  5
4237
330
4233
100
AcDbEntity
  8
寸法
 62
     0
370
    -2
100
AcDbLine
 10
228.8531521657592
 20
0.5
 30
0.0
 11
256.6048956520132
 21
0.5
 31
0.0
  0
INSERT
  5
4238
330
4233
100
AcDbEntity
  8
寸法
 62
     0
370
    -2
100
AcDbBlockReference
  2
_DOT
 10
226.8531521657592
 20
0.5
 30
0.0
 41
2.0
 42
2.0
 43
2.0
 50
180.0
  0
INSERT
  5
4239
330
4233
100
AcDbEntity
  8
寸法
 62
     0
370
    -2
100
AcDbBlockReference
  2
_DOT
 10
258.6048956520132
 20
0.5
 30
0.0
 41
2.0
 42
2.0
 43
2.0
  0
MTEXT
  5
423A
330
4233
100
AcDbEntity
  8
寸法
 62
     0
100
AcDbMText
 10
242.7290239088862
 20
8.0
 30
0.0
 40
5.0
 41
0.0
 46
0.0
 71
     5
 72
     1
  1
\A1;32
  7
ＭＳ ゴシック
 73
     1
 44
1.0
  0
POINT
  5
423B
330
4233
100
AcDbEntity
  8
Defpoints
 62
     0
100
AcDbPoint
 10
226.8531521657592
 20
28.638439737065
 30
0.0
  0
POINT
  5
423C
330
4233
100
AcDbEntity
  8
Defpoints
 62
     0
100
AcDbPoint
 10
258.6048956520132
 20
28.638439737065
 30
0.0
  0
POINT
  5
423D
330
4233
100
AcDbEntity
  8
Defpoints
 62
     0
100
AcDbPoint
 10
258.6048956520132
 20
0.5
 30
0.0
  0
ENDBLK
  5
423E
330
4233
100
AcDbEntity
  8
0
100
AcDbBlockEnd
  0
BLOCK
  5
4243
330
4242
100
AcDbEntity
  8
0
100
AcDbBlockBegin
  2
*D89
 70
     1
 10
0.0
 20
0.0
 30
0.0
  3
*D89
  1
*D21
  0
LINE
  5
4244
330
4242
100
AcDbEntity
  8
寸法
 62
     0
370
    -2
100
AcDbLine
 10
158.7768573152385
 20
28.638439737065
 30
0.0
 11
146.0676316605008
 21
28.638439737065
 31
0.0
  0
LINE
  5
4245
330
4242
100
AcDbEntity
  8
寸法
 62
     0
370
    -2
100
AcDbLine
 10
163.8583765082321
 20
21.0178834964542
 30
0.0
 11
146.0676316605008
 21
21.0178834964542
 31
0.0
  0
LINE
  5
4246
330
4242
100
AcDbEntity
  8
寸法
 62
     0
370
    -2
100
AcDbLine
 10
146.0676316605008
 20
26.638439737065
 30
0.0
 11
146.0676316605008
 21
23.0178834964542
 31
0.0
  0
INSERT
  5
4247
330
4242
100
AcDbEntity
  8
寸法
 62
     0
370
    -2
100
AcDbBlockReference
  2
_DOT
 10
146.0676316605008
 20
28.638439737065
 30
0.0
 41
2.0
 42
2.0
 43
2.0
 50
90.0
  0
INSERT
  5
4248
330
4242
100
AcDbEntity
  8
寸法
 62
     0
370
    -2
100
AcDbBlockReference
  2
_DOT
 10
146.0676316605008
 20
21.0178834964542
 30
0.0
 41
2.0
 42
2.0
 43
2.0
 50
270.0
  0
MTEXT
  5
4249
330
4242
100
AcDbEntity
  8
寸法
 62
     0
100
AcDbMText
 10
138.5676316605008
 20
25.1409489675672
 30
0.0
 40
5.0
 41
0.0
 46
0.0
 71
     5
 72
     1
  1
\A1;8
  7
ＭＳ ゴシック
 11
0.0
 21
1.0
 31
0.0
 73
     1
 44
1.0
  0
POINT
  5
424A
330
4242
100
AcDbEntity
  8
Defpoints
 62
     0
100
AcDbPoint
 10
163.7768573152385
 20
28.638439737065
 30
0.0
  0
POINT
  5
424B
330
4242
100
AcDbEntity
  8
Defpoints
 62
     0
100
AcDbPoint
 10
168.8583765082321
 20
21.0178834964542
 30
0.0
  0
POINT
  5
424C
330
4242
100
AcDbEntity
  8
Defpoints
 62
     0
100
AcDbPoint
 10
146.0676316605008
 20
21.0178834964542
 30
0.0
  0
ENDBLK
  5
424D
330
4242
100
AcDbEntity
  8
0
100
AcDbBlockEnd
  0
BLOCK
  5
4252
330
4251
100
AcDbEntity
  8
0
100
AcDbBlockBegin
  2
*D90
 70
     1
 10
0.0
 20
0.0
 30
0.0
  3
*D90
  1
*D23
  0
LINE
  5
4253
330
4251
100
AcDbEntity
  8
寸法
 62
     0
370
    -2
100
AcDbLine
 10
163.8583765082321
 20
72.23959696182803
 30
0.0
 11
146.0676316605008
 21
72.23959696182803
 31
0.0
  0
LINE
  5
4254
330
4251
100
AcDbEntity
  8
寸法
 62
     0
370
    -2
100
AcDbLine
 10
157.5418801936452
 20
60.739596961828
 30
0.0
 11
146.0676316605008
 21
60.739596961828
 31
0.0
  0
LINE
  5
4255
330
4251
100
AcDbEntity
  8
寸法
 62
     0
370
    -2
100
AcDbLine
 10
146.0676316605008
 20
70.23959696182803
 30
0.0
 11
146.0676316605008
 21
62.739596961828
 31
0.0
  0
INSERT
  5
4256
330
4251
100
AcDbEntity
  8
寸法
 62
     0
370
    -2
100
AcDbBlockReference
  2
_DOT
 10
146.0676316605008
 20
72.23959696182803
 30
0.0
 41
2.0
 42
2.0
 43
2.0
 50
90.0
  0
INSERT
  5
4257
330
4251
100
AcDbEntity
  8
寸法
 62
     0
370
    -2
100
AcDbBlockReference
  2
_DOT
 10
146.0676316605008
 20
60.739596961828
 30
0.0
 41
2.0
 42
2.0
 43
2.0
 50
270.0
  0
MTEXT
  5
4258
330
4251
100
AcDbEntity
  8
寸法
 62
     0
100
AcDbMText
 10
138.5676316605008
 20
67.33857407452601
 30
0.0
 40
5.0
 41
0.0
 46
0.0
 71
     5
 72
     1
  1
\A1;11.5
  7
ＭＳ ゴシック
 11
0.0
 21
1.0
 31
0.0
 73
     1
 44
1.0
  0
POINT
  5
4259
330
4251
100
AcDbEntity
  8
Defpoints
 62
     0
100
AcDbPoint
 10
168.8583765082321
 20
72.23959696182803
 30
0.0
  0
POINT
  5
425A
330
4251
100
AcDbEntity
  8
Defpoints
 62
     0
100
AcDbPoint
 10
162.5418801936452
 20
60.739596961828
 30
0.0
  0
POINT
  5
425B
330
4251
100
AcDbEntity
  8
Defpoints
 62
     0
100
AcDbPoint
 10
146.0676316605008
 20
60.739596961828
 30
0.0
  0
ENDBLK
  5
425C
330
4251
100
AcDbEntity
  8
0
100
AcDbBlockEnd
  0
BLOCK
  5
4261
330
4260
100
AcDbEntity
  8
0
100
AcDbBlockBegin
  2
*D91
 70
     1
 10
0.0
 20
0.0
 30
0.0
  3
*D91
  1
*D24
  0
LINE
  5
4262
330
4260
100
AcDbEntity
  8
寸法
 62
     0
370
    -2
100
AcDbLine
 10
173.9364506034678
 20
77.23959696182803
 30
0.0
 11
173.9364506034678
 21
83.04717904135012
 31
0.0
  0
LINE
  5
4263
330
4260
100
AcDbEntity
  8
寸法
 62
     0
370
    -2
100
AcDbLine
 10
164.4364506034678
 20
68.4797896385495
 30
0.0
 11
164.4364506034678
 21
83.04717904135012
 31
0.0
  0
LINE
  5
4264
330
4260
100
AcDbEntity
  8
寸法
 62
     0
370
    -2
100
AcDbLine
 10
171.9364506034678
 20
83.04717904135012
 30
0.0
 11
166.4364506034678
 21
83.04717904135012
 31
0.0
  0
INSERT
  5
4265
330
4260
100
AcDbEntity
  8
寸法
 62
     0
370
    -2
100
AcDbBlockReference
  2
_DOT
 10
173.9364506034678
 20
83.04717904135012
 30
0.0
 41
2.0
 42
2.0
 43
2.0
  0
INSERT
  5
4266
330
4260
100
AcDbEntity
  8
寸法
 62
     0
370
    -2
100
AcDbBlockReference
  2
_DOT
 10
164.4364506034678
 20
83.04717904135012
 30
0.0
 41
2.0
 42
2.0
 43
2.0
 50
180.0
  0
MTEXT
  5
4267
330
4260
100
AcDbEntity
  8
寸法
 62
     0
100
AcDbMText
 10
169.4765331796896
 20
90.54717904135012
 30
0.0
 40
5.0
 41
0.0
 46
0.0
 71
     5
 72
     1
  1
\A1;9.5
  7
ＭＳ ゴシック
 73
     1
 44
1.0
  0
POINT
  5
4268
330
4260
100
AcDbEntity
  8
Defpoints
 62
     0
100
AcDbPoint
 10
173.9364506034678
 20
72.23959696182803
 30
0.0
  0
POINT
  5
4269
330
4260
100
AcDbEntity
  8
Defpoints
 62
     0
100
AcDbPoint
 10
164.4364506034678
 20
63.47978963854951
 30
0.0
  0
POINT
  5
426A
330
4260
100
AcDbEntity
  8
Defpoints
 62
     0
100
AcDbPoint
 10
164.4364506034678
 20
83.04717904135012
 30
0.0
  0
ENDBLK
  5
426B
330
4260
100
AcDbEntity
  8
0
100
AcDbBlockEnd
  0
BLOCK
  5
4270
330
426F
100
AcDbEntity
  8
0
100
AcDbBlockBegin
  2
*D92
 70
     1
 10
0.0
 20
0.0
 30
0.0
  3
*D92
  1
*D27
  0
LINE
  5
4271
330
426F
100
AcDbEntity
  8
寸法
 62
     0
370
    -2
100
AcDbLine
 10
26.40358421651635
 20
74.70055991421012
 30
0.0
 11
26.40358421651635
 21
87.58129500876683
 31
0.0
  0
LINE
  5
4272
330
426F
100
AcDbEntity
  8
寸法
 62
     0
370
    -2
100
AcDbLine
 10
53.92302510711406
 20
74.70055991421012
 30
0.0
 11
53.92302510711406
 21
87.58129500876683
 31
0.0
  0
LINE
  5
4273
330
426F
100
AcDbEntity
  8
寸法
 62
     0
370
    -2
100
AcDbLine
 10
28.40358421651635
 20
87.58129500876683
 30
0.0
 11
51.92302510711406
 21
87.58129500876683
 31
0.0
  0
INSERT
  5
4274
330
426F
100
AcDbEntity
  8
寸法
 62
     0
370
    -2
100
AcDbBlockReference
  2
_DOT
 10
26.40358421651635
 20
87.58129500876683
 30
0.0
 41
2.0
 42
2.0
 43
2.0
 50
180.0
  0
INSERT
  5
4275
330
426F
100
AcDbEntity
  8
寸法
 62
     0
370
    -2
100
AcDbBlockReference
  2
_DOT
 10
53.92302510711406
 20
87.58129500876683
 30
0.0
 41
2.0
 42
2.0
 43
2.0
  0
MTEXT
  5
4276
330
426F
100
AcDbEntity
  8
寸法
 62
     0
100
AcDbMText
 10
40.1633046618152
 20
95.08129500876683
 30
0.0
 40
5.0
 41
0.0
 46
0.0
 71
     5
 72
     1
  1
\A1;28
  7
ＭＳ ゴシック
 73
     1
 44
1.0
  0
POINT
  5
4277
330
426F
100
AcDbEntity
  8
Defpoints
 62
     0
100
AcDbPoint
 10
26.40358421651635
 20
69.70055991421012
 30
0.0
  0
POINT
  5
4278
330
426F
100
AcDbEntity
  8
Defpoints
 62
     0
100
AcDbPoint
 10
53.92302510711406
 20
69.70055991421012
 30
0.0
  0
POINT
  5
4279
330
426F
100
AcDbEntity
  8
Defpoints
 62
     0
100
AcDbPoint
 10
53.92302510711406
 20
87.58129500876683
 30
0.0
  0
ENDBLK
  5
427A
330
426F
100
AcDbEntity
  8
0
100
AcDbBlockEnd
  0
BLOCK
  5
427F
330
427E
100
AcDbEntity
  8
0
100
AcDbBlockBegin
  2
*D93
 70
     1
 10
0.0
 20
0.0
 30
0.0
  3
*D93
  1
*D29
  0
LINE
  5
4280
330
427E
100
AcDbEntity
  8
寸法
 62
     0
370
    -2
100
AcDbLine
 10
16.53910618227437
 20
72.23959696182803
 30
0.0
 11
9.999999999999975
 21
72.23959696182803
 31
0.0
  0
LINE
  5
4281
330
427E
100
AcDbEntity
  8
寸法
 62
     0
370
    -2
100
AcDbLine
 10
16.53910618227437
 20
21.0178834964542
 30
0.0
 11
9.999999999999972
 21
21.0178834964542
 31
0.0
  0
LINE
  5
4282
330
427E
100
AcDbEntity
  8
寸法
 62
     0
370
    -2
100
AcDbLine
 10
9.999999999999975
 20
70.23959696182803
 30
0.0
 11
9.999999999999972
 21
23.0178834964542
 31
0.0
  0
INSERT
  5
4283
330
427E
100
AcDbEntity
  8
寸法
 62
     0
370
    -2
100
AcDbBlockReference
  2
_DOT
 10
9.999999999999975
 20
72.23959696182803
 30
0.0
 41
2.0
 42
2.0
 43
2.0
 50
90.0
  0
INSERT
  5
4284
330
427E
100
AcDbEntity
  8
寸法
 62
     0
370
    -2
100
AcDbBlockReference
  2
_DOT
 10
9.999999999999972
 20
21.0178834964542
 30
0.0
 41
2.0
 42
2.0
 43
2.0
 50
270.0
  0
MTEXT
  5
4285
330
427E
100
AcDbEntity
  8
寸法
 62
     0
100
AcDbMText
 10
2.499999999999973
 20
46.62874022914112
 30
0.0
 40
5.0
 41
0.0
 46
0.0
 71
     5
 72
     1
  1
\A1;51
  7
ＭＳ ゴシック
 11
6.935952428069701E-17
 21
1.0
 31
0.0
 73
     1
 44
1.0
  0
POINT
  5
4286
330
427E
100
AcDbEntity
  8
Defpoints
 62
     0
100
AcDbPoint
 10
21.53910618227437
 20
72.23959696182803
 30
0.0
  0
POINT
  5
4287
330
427E
100
AcDbEntity
  8
Defpoints
 62
     0
100
AcDbPoint
 10
21.53910618227437
 20
21.0178834964542
 30
0.0
  0
POINT
  5
4288
330
427E
100
AcDbEntity
  8
Defpoints
 62
     0
100
AcDbPoint
 10
9.999999999999972
 20
21.0178834964542
 30
0.0
  0
ENDBLK
  5
4289
330
427E
100
AcDbEntity
  8
0
100
AcDbBlockEnd
  0
BLOCK
  5
428C
330
428B
100
AcDbEntity
  8
0
100
AcDbBlockBegin
  2
*D94
 70
     1
 10
0.0
 20
0.0
 30
0.0
  3
*D94
  1
*D30
  0
LINE
  5
428D
330
428B
100
AcDbEntity
  8
寸法
 62
     0
370
    -2
100
AcDbLine
 10
66.34779509657506
 20
67.79542085405748
 30
0.0
 11
74.21628428539736
 21
67.79542085405748
 31
0.0
  0
LINE
  5
428E
330
428B
100
AcDbEntity
  8
寸法
 62
     0
370
    -2
100
AcDbLine
 10
66.34779509657506
 20
25.79542085405751
 30
0.0
 11
74.21628428539736
 21
25.79542085405751
 31
0.0
  0
LINE
  5
428F
330
428B
100
AcDbEntity
  8
寸法
 62
     0
370
    -2
100
AcDbLine
 10
74.21628428539736
 20
65.79542085405748
 30
0.0
 11
74.21628428539736
 21
27.79542085405751
 31
0.0
  0
INSERT
  5
4290
330
428B
100
AcDbEntity
  8
寸法
 62
     0
370
    -2
100
AcDbBlockReference
  2
_DOT
 10
74.21628428539736
 20
67.79542085405748
 30
0.0
 41
2.0
 42
2.0
 43
2.0
 50
90.0
  0
INSERT
  5
4291
330
428B
100
AcDbEntity
  8
寸法
 62
     0
370
    -2
100
AcDbBlockReference
  2
_DOT
 10
74.21628428539736
 20
25.79542085405751
 30
0.0
 41
2.0
 42
2.0
 43
2.0
 50
270.0
  0
MTEXT
  5
4292
330
428B
100
AcDbEntity
  8
寸法
 62
     0
100
AcDbMText
 10
66.71628428539736
 20
46.7954208540575
 30
0.0
 40
5.0
 41
0.0
 46
0.0
 71
     5
 72
     1
  1
\A1;42
  7
ＭＳ ゴシック
 11
0.0
 21
1.0
 31
0.0
 73
     1
 44
1.0
  0
POINT
  5
4293
330
428B
100
AcDbEntity
  8
Defpoints
 62
     0
100
AcDbPoint
 10
61.34779509657506
 20
67.79542085405748
 30
0.0
  0
POINT
  5
4294
330
428B
100
AcDbEntity
  8
Defpoints
 62
     0
100
AcDbPoint
 10
61.34779509657506
 20
25.79542085405751
 30
0.0
  0
POINT
  5
4295
330
428B
100
AcDbEntity
  8
Defpoints
 62
     0
100
AcDbPoint
 10
74.21628428539736
 20
25.79542085405751
 30
0.0
  0
ENDBLK
  5
4296
330
428B
100
AcDbEntity
  8
0
100
AcDbBlockEnd
  0
BLOCK
  5
4299
330
4298
100
AcDbEntity
  8
0
100
AcDbBlockBegin
  2
*D95
 70
     1
 10
0.0
 20
0.0
 30
0.0
  3
*D95
  1
*D32
  0
LINE
  5
429A
330
4298
100
AcDbEntity
  8
寸法
 62
     0
370
    -2
100
AcDbLine
 10
21.53910618227437
 20
16.0178834964542
 30
0.0
 11
21.53910618227437
 21
0.5
 31
0.0
  0
LINE
  5
429B
330
4298
100
AcDbEntity
  8
寸法
 62
     0
370
    -2
100
AcDbLine
 10
59.53910618227437
 20
16.0178834964542
 30
0.0
 11
59.53910618227437
 21
0.5
 31
0.0
  0
LINE
  5
429C
330
4298
100
AcDbEntity
  8
寸法
 62
     0
370
    -2
100
AcDbLine
 10
23.53910618227437
 20
0.5
 30
0.0
 11
57.53910618227437
 21
0.5
 31
0.0
  0
INSERT
  5
429D
330
4298
100
AcDbEntity
  8
寸法
 62
     0
370
    -2
100
AcDbBlockReference
  2
_DOT
 10
21.53910618227437
 20
0.5
 30
0.0
 41
2.0
 42
2.0
 43
2.0
 50
180.0
  0
INSERT
  5
429E
330
4298
100
AcDbEntity
  8
寸法
 62
     0
370
    -2
100
AcDbBlockReference
  2
_DOT
 10
59.53910618227437
 20
0.5
 30
0.0
 41
2.0
 42
2.0
 43
2.0
  0
MTEXT
  5
429F
330
4298
100
AcDbEntity
  8
寸法
 62
     0
100
AcDbMText
 10
41.65161041043487
 20
8.0
 30
0.0
 40
5.0
 41
0.0
 46
0.0
 71
     5
 72
     1
  1
\A1;38
  7
ＭＳ ゴシック
 73
     1
 44
1.0
  0
POINT
  5
42A0
330
4298
100
AcDbEntity
  8
Defpoints
 62
     0
100
AcDbPoint
 10
21.53910618227437
 20
21.0178834964542
 30
0.0
  0
POINT
  5
42A1
330
4298
100
AcDbEntity
  8
Defpoints
 62
     0
100
AcDbPoint
 10
59.53910618227437
 20
21.0178834964542
 30
0.0
  0
POINT
  5
42A2
330
4298
100
AcDbEntity
  8
Defpoints
 62
     0
100
AcDbPoint
 10
59.53910618227437
 20
0.5
 30
0.0
  0
ENDBLK
  5
42A3
330
4298
100
AcDbEntity
  8
0
100
AcDbBlockEnd
  0
BLOCK
  5
42A8
330
42A7
100
AcDbEntity
  8
0
100
AcDbBlockBegin
  2
*D96
 70
     1
 10
0.0
 20
0.0
 30
0.0
  3
*D96
  1
*D33
  0
LINE
  5
42A9
330
42A7
100
AcDbEntity
  8
寸法
 62
     0
370
    -2
100
AcDbLine
 10
173.9364506034678
 20
16.0178834964542
 30
0.0
 11
173.9364506034678
 21
0.5
 31
0.0
  0
LINE
  5
42AA
330
42A7
100
AcDbEntity
  8
寸法
 62
     0
370
    -2
100
AcDbLine
 10
168.8583765082321
 20
16.0178834964542
 30
0.0
 11
168.8583765082321
 21
0.5
 31
0.0
  0
LINE
  5
42AB
330
42A7
100
AcDbEntity
  8
寸法
 62
     0
370
    -2
100
AcDbLine
 10
171.9364506034678
 20
0.5
 30
0.0
 11
170.8583765082321
 21
0.5
 31
0.0
  0
INSERT
  5
42AC
330
42A7
100
AcDbEntity
  8
寸法
 62
     0
370
    -2
100
AcDbBlockReference
  2
_DOT
 10
173.9364506034678
 20
0.5
 30
0.0
 41
2.0
 42
2.0
 43
2.0
  0
INSERT
  5
42AD
330
42A7
100
AcDbEntity
  8
寸法
 62
     0
370
    -2
100
AcDbBlockReference
  2
_DOT
 10
168.8583765082321
 20
0.5
 30
0.0
 41
2.0
 42
2.0
 43
2.0
 50
180.0
  0
MTEXT
  5
42AE
330
42A7
100
AcDbEntity
  8
寸法
 62
     0
100
AcDbMText
 10
171.3974135558499
 20
8.0
 30
0.0
 40
5.0
 41
0.0
 46
0.0
 71
     5
 72
     1
  1
\A1;5
  7
ＭＳ ゴシック
 73
     1
 44
1.0
  0
POINT
  5
42AF
330
42A7
100
AcDbEntity
  8
Defpoints
 62
     0
100
AcDbPoint
 10
173.9364506034678
 20
21.0178834964542
 30
0.0
  0
POINT
  5
42B0
330
42A7
100
AcDbEntity
  8
Defpoints
 62
     0
100
AcDbPoint
 10
168.8583765082321
 20
21.0178834964542
 30
0.0
  0
POINT
  5
42B1
330
42A7
100
AcDbEntity
  8
Defpoints
 62
     0
100
AcDbPoint
 10
168.8583765082321
 20
0.5
 30
0.0
  0
ENDBLK
  5
42B2
330
42A7
100
AcDbEntity
  8
0
100
AcDbBlockEnd
  0
BLOCK
  5
430B
330
430A
100
AcDbEntity
  8
0
100
AcDbBlockBegin
  2
*D97
 70
     1
 10
0.0
 20
0.0
 30
0.0
  3
*D97
  1
*D98
  0
LINE
  5
430D
330
430A
100
AcDbEntity
  8
寸法
 62
     0
370
    -2
100
AcDbLine
 10
403.5248956520132
 20
249.5379219843832
 30
0.0
 11
421.9344959999999
 21
249.5379219843832
 31
0.0
  0
LINE
  5
430E
330
430A
100
AcDbEntity
  8
寸法
 62
     0
370
    -2
100
AcDbLine
 10
403.5248956520132
 20
217.3641540227792
 30
0.0
 11
421.9344959999999
 21
217.3641540227792
 31
0.0
  0
LINE
  5
430F
330
430A
100
AcDbEntity
  8
寸法
 62
     0
370
    -2
100
AcDbLine
 10
421.9344959999999
 20
247.5379219843832
 30
0.0
 11
421.9344959999999
 21
219.3641540227792
 31
0.0
  0
INSERT
  5
4310
330
430A
100
AcDbEntity
  8
寸法
 62
     0
370
    -2
100
AcDbBlockReference
  2
_DOT
 10
421.9344959999999
 20
249.5379219843832
 30
0.0
 41
2.0
 42
2.0
 43
2.0
 50
90.0
  0
INSERT
  5
4311
330
430A
100
AcDbEntity
  8
寸法
 62
     0
370
    -2
100
AcDbBlockReference
  2
_DOT
 10
421.9344959999999
 20
217.3641540227792
 30
0.0
 41
2.0
 42
2.0
 43
2.0
 50
270.0
  0
MTEXT
  5
4312
330
430A
100
AcDbEntity
  8
寸法
 62
     0
100
AcDbMText
 10
414.4344959999999
 20
233.4510380035813
 30
0.0
 40
5.0
 41
0.0
 46
0.0
 71
     5
 72
     1
  1
\A1;32
  7
ＭＳ ゴシック
 11
0.0
 21
1.0
 31
0.0
 73
     1
 44
1.0
  0
POINT
  5
4313
330
430A
100
AcDbEntity
  8
Defpoints
 62
     0
100
AcDbPoint
 10
398.5248956520132
 20
249.5379219843832
 30
0.0
  0
POINT
  5
4314
330
430A
100
AcDbEntity
  8
Defpoints
 62
     0
100
AcDbPoint
 10
398.5248956520132
 20
217.3641540227792
 30
0.0
  0
POINT
  5
4315
330
430A
100
AcDbEntity
  8
Defpoints
 62
     0
100
AcDbPoint
 10
421.9344959999999
 20
217.3641540227792
 30
0.0
  0
ENDBLK
  5
430C
330
430A
100
AcDbEntity
  8
0
100
AcDbBlockEnd
  0
BLOCK
  5
4317
330
4316
100
AcDbEntity
  8
0
100
AcDbBlockBegin
  2
*D98
 70
     1
 10
0.0
 20
0.0
 30
0.0
  3
*D98
  1
*D99
  0
LINE
  5
4319
330
4316
100
AcDbEntity
  8
寸法
 62
     0
370
    -2
100
AcDbLine
 10
366.7731521657593
 20
212.3641540227792
 30
0.0
 11
366.7731521657593
 21
189.2257142857142
 31
0.0
  0
LINE
  5
431A
330
4316
100
AcDbEntity
  8
寸法
 62
     0
370
    -2
100
AcDbLine
 10
398.5248956520132
 20
212.3641540227792
 30
0.0
 11
398.5248956520132
 21
189.2257142857142
 31
0.0
  0
LINE
  5
431B
330
4316
100
AcDbEntity
  8
寸法
 62
     0
370
    -2
100
AcDbLine
 10
368.7731521657593
 20
189.2257142857142
 30
0.0
 11
396.5248956520132
 21
189.2257142857142
 31
0.0
  0
INSERT
  5
431C
330
4316
100
AcDbEntity
  8
寸法
 62
     0
370
    -2
100
AcDbBlockReference
  2
_DOT
 10
366.7731521657593
 20
189.2257142857142
 30
0.0
 41
2.0
 42
2.0
 43
2.0
 50
180.0
  0
INSERT
  5
431D
330
4316
100
AcDbEntity
  8
寸法
 62
     0
370
    -2
100
AcDbBlockReference
  2
_DOT
 10
398.5248956520132
 20
189.2257142857142
 30
0.0
 41
2.0
 42
2.0
 43
2.0
  0
MTEXT
  5
431E
330
4316
100
AcDbEntity
  8
寸法
 62
     0
100
AcDbMText
 10
382.6490239088862
 20
196.7257142857142
 30
0.0
 40
5.0
 41
0.0
 46
0.0
 71
     5
 72
     1
  1
\A1;32
  7
ＭＳ ゴシック
 73
     1
 44
1.0
  0
POINT
  5
431F
330
4316
100
AcDbEntity
  8
Defpoints
 62
     0
100
AcDbPoint
 10
366.7731521657593
 20
217.3641540227792
 30
0.0
  0
POINT
  5
4320
330
4316
100
AcDbEntity
  8
Defpoints
 62
     0
100
AcDbPoint
 10
398.5248956520132
 20
217.3641540227792
 30
0.0
  0
POINT
  5
4321
330
4316
100
AcDbEntity
  8
Defpoints
 62
     0
100
AcDbPoint
 10
398.5248956520132
 20
189.2257142857142
 30
0.0
  0
ENDBLK
  5
4318
330
4316
100
AcDbEntity
  8
0
100
AcDbBlockEnd
  0
BLOCK
  5
4323
330
4322
100
AcDbEntity
  8
0
100
AcDbBlockBegin
  2
*D99
 70
     1
 10
0.0
 20
0.0
 30
0.0
  3
*D99
  1
*D100
  0
LINE
  5
4325
330
4322
100
AcDbEntity
  8
寸法
 62
     0
370
    -2
100
AcDbLine
 10
298.6968573152386
 20
217.3641540227792
 30
0.0
 11
285.9876316605008
 21
217.3641540227792
 31
0.0
  0
LINE
  5
4326
330
4322
100
AcDbEntity
  8
寸法
 62
     0
370
    -2
100
AcDbLine
 10
303.7783765082321
 20
209.7435977821685
 30
0.0
 11
285.9876316605008
 21
209.7435977821685
 31
0.0
  0
LINE
  5
4327
330
4322
100
AcDbEntity
  8
寸法
 62
     0
370
    -2
100
AcDbLine
 10
285.9876316605008
 20
215.3641540227792
 30
0.0
 11
285.9876316605008
 21
211.7435977821685
 31
0.0
  0
INSERT
  5
4328
330
4322
100
AcDbEntity
  8
寸法
 62
     0
370
    -2
100
AcDbBlockReference
  2
_DOT
 10
285.9876316605008
 20
217.3641540227792
 30
0.0
 41
2.0
 42
2.0
 43
2.0
 50
90.0
  0
INSERT
  5
4329
330
4322
100
AcDbEntity
  8
寸法
 62
     0
370
    -2
100
AcDbBlockReference
  2
_DOT
 10
285.9876316605008
 20
209.7435977821685
 30
0.0
 41
2.0
 42
2.0
 43
2.0
 50
270.0
  0
MTEXT
  5
432A
330
4322
100
AcDbEntity
  8
寸法
 62
     0
100
AcDbMText
 10
278.4876316605008
 20
213.8666632532814
 30
0.0
 40
5.0
 41
0.0
 46
0.0
 71
     5
 72
     1
  1
\A1;8
  7
ＭＳ ゴシック
 11
0.0
 21
1.0
 31
0.0
 73
     1
 44
1.0
  0
POINT
  5
432B
330
4322
100
AcDbEntity
  8
Defpoints
 62
     0
100
AcDbPoint
 10
303.6968573152386
 20
217.3641540227792
 30
0.0
  0
POINT
  5
432C
330
4322
100
AcDbEntity
  8
Defpoints
 62
     0
100
AcDbPoint
 10
308.7783765082321
 20
209.7435977821685
 30
0.0
  0
POINT
  5
432D
330
4322
100
AcDbEntity
  8
Defpoints
 62
     0
100
AcDbPoint
 10
285.9876316605008
 20
209.7435977821685
 30
0.0
  0
ENDBLK
  5
4324
330
4322
100
AcDbEntity
  8
0
100
AcDbBlockEnd
  0
BLOCK
  5
432F
330
432E
100
AcDbEntity
  8
0
100
AcDbBlockBegin
  2
*D100
 70
     1
 10
0.0
 20
0.0
 30
0.0
  3
*D100
  1
*D101
  0
LINE
  5
4331
330
432E
100
AcDbEntity
  8
寸法
 62
     0
370
    -2
100
AcDbLine
 10
303.7783765082321
 20
260.9653112475423
 30
0.0
 11
285.9876316605008
 21
260.9653112475423
 31
0.0
  0
LINE
  5
4332
330
432E
100
AcDbEntity
  8
寸法
 62
     0
370
    -2
100
AcDbLine
 10
297.4618801936452
 20
249.4653112475422
 30
0.0
 11
285.9876316605008
 21
249.4653112475422
 31
0.0
  0
LINE
  5
4333
330
432E
100
AcDbEntity
  8
寸法
 62
     0
370
    -2
100
AcDbLine
 10
285.9876316605008
 20
258.9653112475423
 30
0.0
 11
285.9876316605008
 21
251.4653112475422
 31
0.0
  0
INSERT
  5
4334
330
432E
100
AcDbEntity
  8
寸法
 62
     0
370
    -2
100
AcDbBlockReference
  2
_DOT
 10
285.9876316605008
 20
260.9653112475423
 30
0.0
 41
2.0
 42
2.0
 43
2.0
 50
90.0
  0
INSERT
  5
4335
330
432E
100
AcDbEntity
  8
寸法
 62
     0
370
    -2
100
AcDbBlockReference
  2
_DOT
 10
285.9876316605008
 20
249.4653112475422
 30
0.0
 41
2.0
 42
2.0
 43
2.0
 50
270.0
  0
MTEXT
  5
4336
330
432E
100
AcDbEntity
  8
寸法
 62
     0
100
AcDbMText
 10
278.4876316605008
 20
256.0642883602403
 30
0.0
 40
5.0
 41
0.0
 46
0.0
 71
     5
 72
     1
  1
\A1;11.5
  7
ＭＳ ゴシック
 11
0.0
 21
1.0
 31
0.0
 73
     1
 44
1.0
  0
POINT
  5
4337
330
432E
100
AcDbEntity
  8
Defpoints
 62
     0
100
AcDbPoint
 10
308.7783765082321
 20
260.9653112475423
 30
0.0
  0
POINT
  5
4338
330
432E
100
AcDbEntity
  8
Defpoints
 62
     0
100
AcDbPoint
 10
302.4618801936452
 20
249.4653112475422
 30
0.0
  0
POINT
  5
4339
330
432E
100
AcDbEntity
  8
Defpoints
 62
     0
100
AcDbPoint
 10
285.9876316605008
 20
249.4653112475422
 30
0.0
  0
ENDBLK
  5
4330
330
432E
100
AcDbEntity
  8
0
100
AcDbBlockEnd
  0
BLOCK
  5
433B
330
433A
100
AcDbEntity
  8
0
100
AcDbBlockBegin
  2
*D101
 70
     1
 10
0.0
 20
0.0
 30
0.0
  3
*D101
  1
*D102
  0
LINE
  5
433D
330
433A
100
AcDbEntity
  8
寸法
 62
     0
370
    -2
100
AcDbLine
 10
313.8564506034678
 20
265.9653112475423
 30
0.0
 11
313.8564506034678
 21
271.7728933270644
 31
0.0
  0
LINE
  5
433E
330
433A
100
AcDbEntity
  8
寸法
 62
     0
370
    -2
100
AcDbLine
 10
304.3564506034678
 20
257.2055039242638
 30
0.0
 11
304.3564506034678
 21
271.7728933270644
 31
0.0
  0
LINE
  5
433F
330
433A
100
AcDbEntity
  8
寸法
 62
     0
370
    -2
100
AcDbLine
 10
311.8564506034678
 20
271.7728933270644
 30
0.0
 11
306.3564506034678
 21
271.7728933270644
 31
0.0
  0
INSERT
  5
4340
330
433A
100
AcDbEntity
  8
寸法
 62
     0
370
    -2
100
AcDbBlockReference
  2
_DOT
 10
313.8564506034678
 20
271.7728933270644
 30
0.0
 41
2.0
 42
2.0
 43
2.0
  0
INSERT
  5
4341
330
433A
100
AcDbEntity
  8
寸法
 62
     0
370
    -2
100
AcDbBlockReference
  2
_DOT
 10
304.3564506034678
 20
271.7728933270644
 30
0.0
 41
2.0
 42
2.0
 43
2.0
 50
180.0
  0
MTEXT
  5
4342
330
433A
100
AcDbEntity
  8
寸法
 62
     0
100
AcDbMText
 10
309.3965331796896
 20
279.2728933270644
 30
0.0
 40
5.0
 41
0.0
 46
0.0
 71
     5
 72
     1
  1
\A1;9.5
  7
ＭＳ ゴシック
 73
     1
 44
1.0
  0
POINT
  5
4343
330
433A
100
AcDbEntity
  8
Defpoints
 62
     0
100
AcDbPoint
 10
313.8564506034678
 20
260.9653112475423
 30
0.0
  0
POINT
  5
4344
330
433A
100
AcDbEntity
  8
Defpoints
 62
     0
100
AcDbPoint
 10
304.3564506034678
 20
252.2055039242638
 30
0.0
  0
POINT
  5
4345
330
433A
100
AcDbEntity
  8
Defpoints
 62
     0
100
AcDbPoint
 10
304.3564506034678
 20
271.7728933270644
 30
0.0
  0
ENDBLK
  5
433C
330
433A
100
AcDbEntity
  8
0
100
AcDbBlockEnd
  0
BLOCK
  5
4347
330
4346
100
AcDbEntity
  8
0
100
AcDbBlockBegin
  2
*D102
 70
     1
 10
0.0
 20
0.0
 30
0.0
  3
*D102
  1
*D103
  0
LINE
  5
4349
330
4346
100
AcDbEntity
  8
寸法
 62
     0
370
    -2
100
AcDbLine
 10
166.3235842165164
 20
263.4262741999244
 30
0.0
 11
166.3235842165164
 21
276.3070092944811
 31
0.0
  0
LINE
  5
434A
330
4346
100
AcDbEntity
  8
寸法
 62
     0
370
    -2
100
AcDbLine
 10
193.8430251071141
 20
263.4262741999244
 30
0.0
 11
193.8430251071141
 21
276.3070092944811
 31
0.0
  0
LINE
  5
434B
330
4346
100
AcDbEntity
  8
寸法
 62
     0
370
    -2
100
AcDbLine
 10
168.3235842165164
 20
276.3070092944811
 30
0.0
 11
191.8430251071141
 21
276.3070092944811
 31
0.0
  0
INSERT
  5
434C
330
4346
100
AcDbEntity
  8
寸法
 62
     0
370
    -2
100
AcDbBlockReference
  2
_DOT
 10
166.3235842165164
 20
276.3070092944811
 30
0.0
 41
2.0
 42
2.0
 43
2.0
 50
180.0
  0
INSERT
  5
434D
330
4346
100
AcDbEntity
  8
寸法
 62
     0
370
    -2
100
AcDbBlockReference
  2
_DOT
 10
193.8430251071141
 20
276.3070092944811
 30
0.0
 41
2.0
 42
2.0
 43
2.0
  0
MTEXT
  5
434E
330
4346
100
AcDbEntity
  8
寸法
 62
     0
100
AcDbMText
 10
180.0833046618152
 20
283.8070092944811
 30
0.0
 40
5.0
 41
0.0
 46
0.0
 71
     5
 72
     1
  1
\A1;28
  7
ＭＳ ゴシック
 73
     1
 44
1.0
  0
POINT
  5
434F
330
4346
100
AcDbEntity
  8
Defpoints
 62
     0
100
AcDbPoint
 10
166.3235842165164
 20
258.4262741999244
 30
0.0
  0
POINT
  5
4350
330
4346
100
AcDbEntity
  8
Defpoints
 62
     0
100
AcDbPoint
 10
193.8430251071141
 20
258.4262741999244
 30
0.0
  0
POINT
  5
4351
330
4346
100
AcDbEntity
  8
Defpoints
 62
     0
100
AcDbPoint
 10
193.8430251071141
 20
276.3070092944811
 30
0.0
  0
ENDBLK
  5
4348
330
4346
100
AcDbEntity
  8
0
100
AcDbBlockEnd
  0
BLOCK
  5
4353
330
4352
100
AcDbEntity
  8
0
100
AcDbBlockBegin
  2
*D103
 70
     1
 10
0.0
 20
0.0
 30
0.0
  3
*D103
  1
*D104
  0
LINE
  5
4355
330
4352
100
AcDbEntity
  8
寸法
 62
     0
370
    -2
100
AcDbLine
 10
156.4591061822744
 20
260.9653112475423
 30
0.0
 11
135.3961426285715
 21
260.9653112475423
 31
0.0
  0
LINE
  5
4356
330
4352
100
AcDbEntity
  8
寸法
 62
     0
370
    -2
100
AcDbLine
 10
156.4591061822744
 20
209.7435977821685
 30
0.0
 11
135.3961426285715
 21
209.7435977821685
 31
0.0
  0
LINE
  5
4357
330
4352
100
AcDbEntity
  8
寸法
 62
     0
370
    -2
100
AcDbLine
 10
135.3961426285715
 20
258.9653112475423
 30
0.0
 11
135.3961426285715
 21
211.7435977821685
 31
0.0
  0
INSERT
  5
4358
330
4352
100
AcDbEntity
  8
寸法
 62
     0
370
    -2
100
AcDbBlockReference
  2
_DOT
 10
135.3961426285715
 20
260.9653112475423
 30
0.0
 41
2.0
 42
2.0
 43
2.0
 50
90.0
  0
INSERT
  5
4359
330
4352
100
AcDbEntity
  8
寸法
 62
     0
370
    -2
100
AcDbBlockReference
  2
_DOT
 10
135.3961426285715
 20
209.7435977821685
 30
0.0
 41
2.0
 42
2.0
 43
2.0
 50
270.0
  0
MTEXT
  5
435A
330
4352
100
AcDbEntity
  8
寸法
 62
     0
100
AcDbMText
 10
127.8961426285715
 20
235.3544545148554
 30
0.0
 40
5.0
 41
0.0
 46
0.0
 71
     5
 72
     1
  1
\A1;51
  7
ＭＳ ゴシック
 11
0.0
 21
1.0
 31
0.0
 73
     1
 44
1.0
  0
POINT
  5
435B
330
4352
100
AcDbEntity
  8
Defpoints
 62
     0
100
AcDbPoint
 10
161.4591061822744
 20
260.9653112475423
 30
0.0
  0
POINT
  5
435C
330
4352
100
AcDbEntity
  8
Defpoints
 62
     0
100
AcDbPoint
 10
161.4591061822744
 20
209.7435977821685
 30
0.0
  0
POINT
  5
435D
330
4352
100
AcDbEntity
  8
Defpoints
 62
     0
100
AcDbPoint
 10
135.3961426285715
 20
209.7435977821685
 30
0.0
  0
ENDBLK
  5
4354
330
4352
100
AcDbEntity
  8
0
100
AcDbBlockEnd
  0
BLOCK
  5
435F
330
435E
100
AcDbEntity
  8
0
100
AcDbBlockBegin
  2
*D104
 70
     1
 10
0.0
 20
0.0
 30
0.0
  3
*D104
  1
*D105
  0
LINE
  5
4361
330
435E
100
AcDbEntity
  8
寸法
 62
     0
370
    -2
100
AcDbLine
 10
206.2677950965751
 20
256.5211351397717
 30
0.0
 11
223.6092304457143
 21
256.5211351397717
 31
0.0
  0
LINE
  5
4362
330
435E
100
AcDbEntity
  8
寸法
 62
     0
370
    -2
100
AcDbLine
 10
206.2677950965751
 20
214.5211351397718
 30
0.0
 11
223.6092304457143
 21
214.5211351397718
 31
0.0
  0
LINE
  5
4363
330
435E
100
AcDbEntity
  8
寸法
 62
     0
370
    -2
100
AcDbLine
 10
223.6092304457143
 20
254.5211351397717
 30
0.0
 11
223.6092304457143
 21
216.5211351397718
 31
0.0
  0
INSERT
  5
4364
330
435E
100
AcDbEntity
  8
寸法
 62
     0
370
    -2
100
AcDbBlockReference
  2
_DOT
 10
223.6092304457143
 20
256.5211351397717
 30
0.0
 41
2.0
 42
2.0
 43
2.0
 50
90.0
  0
INSERT
  5
4365
330
435E
100
AcDbEntity
  8
寸法
 62
     0
370
    -2
100
AcDbBlockReference
  2
_DOT
 10
223.6092304457143
 20
214.5211351397718
 30
0.0
 41
2.0
 42
2.0
 43
2.0
 50
270.0
  0
MTEXT
  5
4366
330
435E
100
AcDbEntity
  8
寸法
 62
     0
100
AcDbMText
 10
216.1092304457143
 20
235.5211351397717
 30
0.0
 40
5.0
 41
0.0
 46
0.0
 71
     5
 72
     1
  1
\A1;42
  7
ＭＳ ゴシック
 11
0.0
 21
1.0
 31
0.0
 73
     1
 44
1.0
  0
POINT
  5
4367
330
435E
100
AcDbEntity
  8
Defpoints
 62
     0
100
AcDbPoint
 10
201.2677950965751
 20
256.5211351397717
 30
0.0
  0
POINT
  5
4368
330
435E
100
AcDbEntity
  8
Defpoints
 62
     0
100
AcDbPoint
 10
201.2677950965751
 20
214.5211351397718
 30
0.0
  0
POINT
  5
4369
330
435E
100
AcDbEntity
  8
Defpoints
 62
     0
100
AcDbPoint
 10
223.6092304457143
 20
214.5211351397718
 30
0.0
  0
ENDBLK
  5
4360
330
435E
100
AcDbEntity
  8
0
100
AcDbBlockEnd
  0
BLOCK
  5
436B
330
436A
100
AcDbEntity
  8
0
100
AcDbBlockBegin
  2
*D105
 70
     1
 10
0.0
 20
0.0
 30
0.0
  3
*D105
  1
*D106
  0
LINE
  5
436D
330
436A
100
AcDbEntity
  8
寸法
 62
     0
370
    -2
100
AcDbLine
 10
161.4591061822744
 20
204.7435977821685
 30
0.0
 11
161.4591061822744
 21
189.2257142857142
 31
0.0
  0
LINE
  5
436E
330
436A
100
AcDbEntity
  8
寸法
 62
     0
370
    -2
100
AcDbLine
 10
199.4591061822744
 20
204.7435977821685
 30
0.0
 11
199.4591061822744
 21
189.2257142857142
 31
0.0
  0
LINE
  5
436F
330
436A
100
AcDbEntity
  8
寸法
 62
     0
370
    -2
100
AcDbLine
 10
163.4591061822744
 20
189.2257142857142
 30
0.0
 11
197.4591061822744
 21
189.2257142857142
 31
0.0
  0
INSERT
  5
4370
330
436A
100
AcDbEntity
  8
寸法
 62
     0
370
    -2
100
AcDbBlockReference
  2
_DOT
 10
161.4591061822744
 20
189.2257142857142
 30
0.0
 41
2.0
 42
2.0
 43
2.0
 50
180.0
  0
INSERT
  5
4371
330
436A
100
AcDbEntity
  8
寸法
 62
     0
370
    -2
100
AcDbBlockReference
  2
_DOT
 10
199.4591061822744
 20
189.2257142857142
 30
0.0
 41
2.0
 42
2.0
 43
2.0
  0
MTEXT
  5
4372
330
436A
100
AcDbEntity
  8
寸法
 62
     0
100
AcDbMText
 10
181.5716104104349
 20
196.7257142857142
 30
0.0
 40
5.0
 41
0.0
 46
0.0
 71
     5
 72
     1
  1
\A1;38
  7
ＭＳ ゴシック
 73
     1
 44
1.0
  0
POINT
  5
4373
330
436A
100
AcDbEntity
  8
Defpoints
 62
     0
100
AcDbPoint
 10
161.4591061822744
 20
209.7435977821685
 30
0.0
  0
POINT
  5
4374
330
436A
100
AcDbEntity
  8
Defpoints
 62
     0
100
AcDbPoint
 10
199.4591061822744
 20
209.7435977821685
 30
0.0
  0
POINT
  5
4375
330
436A
100
AcDbEntity
  8
Defpoints
 62
     0
100
AcDbPoint
 10
199.4591061822744
 20
189.2257142857142
 30
0.0
  0
ENDBLK
  5
436C
330
436A
100
AcDbEntity
  8
0
100
AcDbBlockEnd
  0
BLOCK
  5
4377
330
4376
100
AcDbEntity
  8
0
100
AcDbBlockBegin
  2
*D106
 70
     1
 10
0.0
 20
0.0
 30
0.0
  3
*D106
  1
*D107
  0
LINE
  5
4379
330
4376
100
AcDbEntity
  8
寸法
 62
     0
370
    -2
100
AcDbLine
 10
313.8564506034678
 20
204.7435977821685
 30
0.0
 11
313.8564506034678
 21
189.2257142857142
 31
0.0
  0
LINE
  5
437A
330
4376
100
AcDbEntity
  8
寸法
 62
     0
370
    -2
100
AcDbLine
 10
308.7783765082321
 20
204.7435977821685
 30
0.0
 11
308.7783765082321
 21
189.2257142857142
 31
0.0
  0
LINE
  5
437B
330
4376
100
AcDbEntity
  8
寸法
 62
     0
370
    -2
100
AcDbLine
 10
311.8564506034678
 20
189.2257142857142
 30
0.0
 11
310.7783765082321
 21
189.2257142857142
 31
0.0
  0
INSERT
  5
437C
330
4376
100
AcDbEntity
  8
寸法
 62
     0
370
    -2
100
AcDbBlockReference
  2
_DOT
 10
313.8564506034678
 20
189.2257142857142
 30
0.0
 41
2.0
 42
2.0
 43
2.0
  0
INSERT
  5
437D
330
4376
100
AcDbEntity
  8
寸法
 62
     0
370
    -2
100
AcDbBlockReference
  2
_DOT
 10
308.7783765082321
 20
189.2257142857142
 30
0.0
 41
2.0
 42
2.0
 43
2.0
 50
180.0
  0
MTEXT
  5
437E
330
4376
100
AcDbEntity
  8
寸法
 62
     0
100
AcDbMText
 10
311.31741355585
 20
196.7257142857142
 30
0.0
 40
5.0
 41
0.0
 46
0.0
 71
     5
 72
     1
  1
\A1;5
  7
ＭＳ ゴシック
 73
     1
 44
1.0
  0
POINT
  5
437F
330
4376
100
AcDbEntity
  8
Defpoints
 62
     0
100
AcDbPoint
 10
313.8564506034678
 20
209.7435977821685
 30
0.0
  0
POINT
  5
4380
330
4376
100
AcDbEntity
  8
Defpoints
 62
     0
100
AcDbPoint
 10
308.7783765082321
 20
209.7435977821685
 30
0.0
  0
POINT
  5
4381
330
4376
100
AcDbEntity
  8
Defpoints
 62
     0
100
AcDbPoint
 10
308.7783765082321
 20
189.2257142857142
 30
0.0
  0
ENDBLK
  5
4378
330
4376
100
AcDbEntity
  8
0
100
AcDbBlockEnd
  0
BLOCK
  5
4393
330
4392
100
AcDbEntity
  8
0
100
AcDbBlockBegin
  2
*D107
 70
     1
 10
0.0
 20
0.0
 30
0.0
  3
*D107
  1
*D107
  0
LINE
  5
4395
330
4392
100
AcDbEntity
  8
TFORMLOGO
 62
     0
370
    -2
100
AcDbLine
 10
166.5833046618152
 20
263.4262741999244
 30
0.0
 11
166.5833046618152
 21
272.3742800320888
 31
0.0
  0
LINE
  5
4396
330
4392
100
AcDbEntity
  8
TFORMLOGO
 62
     0
370
    -2
100
AcDbLine
 10
193.5833046618152
 20
263.4262741999244
 30
0.0
 11
193.5833046618152
 21
272.3742800320888
 31
0.0
  0
LINE
  5
4397
330
4392
100
AcDbEntity
  8
TFORMLOGO
 62
     0
370
    -2
100
AcDbLine
 10
168.5833046618152
 20
272.3742800320888
 30
0.0
 11
191.5833046618152
 21
272.3742800320888
 31
0.0
  0
INSERT
  5
4398
330
4392
100
AcDbEntity
  8
TFORMLOGO
 62
     0
370
    -2
100
AcDbBlockReference
  2
_DOT
 10
166.5833046618152
 20
272.3742800320888
 30
0.0
 41
2.0
 42
2.0
 43
2.0
 50
180.0
  0
INSERT
  5
4399
330
4392
100
AcDbEntity
  8
TFORMLOGO
 62
     0
370
    -2
100
AcDbBlockReference
  2
_DOT
 10
193.5833046618152
 20
272.3742800320888
 30
0.0
 41
2.0
 42
2.0
 43
2.0
  0
MTEXT
  5
439A
330
4392
100
AcDbEntity
  8
TFORMLOGO
 62
     0
100
AcDbMText
 10
180.0833046618152
 20
279.8742800320888
 30
0.0
 40
5.0
 41
0.0
 46
0.0
 71
     5
 72
     1
  1
\A1;28
  7
ＭＳ ゴシック
 73
     1
 44
1.0
  0
POINT
  5
439B
330
4392
100
AcDbEntity
  8
Defpoints
 62
     0
100
AcDbPoint
 10
166.5833046618152
 20
258.4262741999244
 30
0.0
  0
POINT
  5
439C
330
4392
100
AcDbEntity
  8
Defpoints
 62
     0
100
AcDbPoint
 10
193.5833046618152
 20
258.4262741999244
 30
0.0
  0
POINT
  5
439D
330
4392
100
AcDbEntity
  8
Defpoints
 62
     0
100
AcDbPoint
 10
193.5833046618152
 20
272.3742800320888
 30
0.0
  0
ENDBLK
  5
4394
330
4392
100
AcDbEntity
  8
0
100
AcDbBlockEnd
  0
BLOCK
  5
442D
330
442C
100
AcDbEntity
  8
0
100
AcDbBlockBegin
  2
*D108
 70
     1
 10
0.0
 20
0.0
 30
0.0
  3
*D108
  1
*D109
  0
LINE
  5
442F
330
442C
100
AcDbEntity
  8
寸法
 62
     0
370
    -2
100
AcDbLine
 10
308.7783765082321
 20
204.7435977821685
 30
0.0
 11
308.7783765082321
 21
189.2257142857142
 31
0.0
  0
LINE
  5
4430
330
442C
100
AcDbEntity
  8
寸法
 62
     0
370
    -2
100
AcDbLine
 10
304.2783765082321
 20
204.7435977821685
 30
0.0
 11
304.2783765082321
 21
189.2257142857142
 31
0.0
  0
LINE
  5
4431
330
442C
100
AcDbEntity
  8
寸法
 62
     0
370
    -2
100
AcDbLine
 10
304.2783765082321
 20
189.2257142857142
 30
0.0
 11
281.1183765082321
 21
189.2257142857142
 31
0.0
  0
LINE
  5
4432
330
442C
100
AcDbEntity
  8
寸法
 62
     0
370
    -2
100
AcDbLine
 10
308.7783765082321
 20
189.2257142857142
 30
0.0
 11
304.2783765082321
 21
189.2257142857142
 31
0.0
  0
LINE
  5
4433
330
442C
100
AcDbEntity
  8
寸法
 62
     0
370
    -2
100
AcDbLine
 10
310.7783765082321
 20
189.2257142857142
 30
0.0
 11
312.7783765082321
 21
189.2257142857142
 31
0.0
  0
LINE
  5
4434
330
442C
100
AcDbEntity
  8
寸法
 62
     0
370
    -2
100
AcDbLine
 10
302.2783765082321
 20
189.2257142857142
 30
0.0
 11
300.2783765082321
 21
189.2257142857142
 31
0.0
  0
INSERT
  5
4435
330
442C
100
AcDbEntity
  8
寸法
 62
     0
370
    -2
100
AcDbBlockReference
  2
_DOT
 10
308.7783765082321
 20
189.2257142857142
 30
0.0
 41
2.0
 42
2.0
 43
2.0
 50
180.0
  0
INSERT
  5
4436
330
442C
100
AcDbEntity
  8
寸法
 62
     0
370
    -2
100
AcDbBlockReference
  2
_DOT
 10
304.2783765082321
 20
189.2257142857142
 30
0.0
 41
2.0
 42
2.0
 43
2.0
  0
MTEXT
  5
4437
330
442C
100
AcDbEntity
  8
寸法
 62
     0
100
AcDbMText
 10
290.6983765082321
 20
196.7257142857142
 30
0.0
 40
5.0
 41
0.0
 46
0.0
 71
     5
 72
     1
  1
\A1;4.5
  7
ＭＳ ゴシック
 73
     1
 44
1.0
  0
POINT
  5
443D
330
442C
100
AcDbEntity
  8
Defpoints
 62
     0
100
AcDbPoint
 10
308.7783765082321
 20
209.7435977821685
 30
0.0
  0
POINT
  5
443E
330
442C
100
AcDbEntity
  8
Defpoints
 62
     0
100
AcDbPoint
 10
304.2783765082321
 20
209.7435977821685
 30
0.0
  0
POINT
  5
443F
330
442C
100
AcDbEntity
  8
Defpoints
 62
     0
100
AcDbPoint
 10
304.2783765082321
 20
189.2257142857142
 30
0.0
  0
ENDBLK
  5
442E
330
442C
100
AcDbEntity
  8
0
100
AcDbBlockEnd
  0
BLOCK
  5
4486
330
4485
100
AcDbEntity
  8
0
100
AcDbBlockBegin
  2
*D109
 70
     1
 10
0.0
 20
0.0
 30
0.0
  3
*D109
  1
*D100
  0
LINE
  5
4487
330
4485
100
AcDbEntity
  8
寸法
 62
     0
370
    -2
100
AcDbLine
 10
22.70922565473779
 20
29.08949625336012
 30
0.0
 11
10.0
 21
29.08949625336012
 31
0.0
  0
LINE
  5
4488
330
4485
100
AcDbEntity
  8
寸法
 62
     0
370
    -2
100
AcDbLine
 10
27.79074484773128
 20
21.46894001274944
 30
0.0
 11
10.0
 21
21.46894001274944
 31
0.0
  0
LINE
  5
4489
330
4485
100
AcDbEntity
  8
寸法
 62
     0
370
    -2
100
AcDbLine
 10
10.0
 20
27.08949625336012
 30
0.0
 11
10.0
 21
23.46894001274944
 31
0.0
  0
INSERT
  5
448A
330
4485
100
AcDbEntity
  8
寸法
 62
     0
370
    -2
100
AcDbBlockReference
  2
_DOT
 10
10.0
 20
29.08949625336012
 30
0.0
 41
2.0
 42
2.0
 43
2.0
 50
90.0
  0
INSERT
  5
448B
330
4485
100
AcDbEntity
  8
寸法
 62
     0
370
    -2
100
AcDbBlockReference
  2
_DOT
 10
10.0
 20
21.46894001274944
 30
0.0
 41
2.0
 42
2.0
 43
2.0
 50
270.0
  0
MTEXT
  5
448C
330
4485
100
AcDbEntity
  8
寸法
 62
     0
100
AcDbMText
 10
2.5
 20
25.59200548386232
 30
0.0
 40
5.0
 41
0.0
 46
0.0
 71
     5
 72
     1
  1
\A1;7.5
  7
ＭＳ ゴシック
 11
0.0
 21
1.0
 31
0.0
 73
     1
 44
1.0
  0
POINT
  5
448D
330
4485
100
AcDbEntity
  8
Defpoints
 62
     0
100
AcDbPoint
 10
27.70922565473779
 20
29.08949625336012
 30
0.0
  0
POINT
  5
448E
330
4485
100
AcDbEntity
  8
Defpoints
 62
     0
100
AcDbPoint
 10
32.79074484773128
 20
21.46894001274944
 30
0.0
  0
POINT
  5
448F
330
4485
100
AcDbEntity
  8
Defpoints
 62
     0
100
AcDbPoint
 10
10.0
 20
21.46894001274944
 30
0.0
  0
ENDBLK
  5
4490
330
4485
100
AcDbEntity
  8
0
100
AcDbBlockEnd
  0
BLOCK
  5
4495
330
4494
100
AcDbEntity
  8
0
100
AcDbBlockBegin
  2
*D110
 70
     1
 10
0.0
 20
0.0
 30
0.0
  3
*D110
  1
*D101
  0
LINE
  5
4496
330
4494
100
AcDbEntity
  8
寸法
 62
     0
370
    -2
100
AcDbLine
 10
27.79074484773128
 20
72.69065347812321
 30
0.0
 11
10.0
 21
72.69065347812321
 31
0.0
  0
LINE
  5
4497
330
4494
100
AcDbEntity
  8
寸法
 62
     0
370
    -2
100
AcDbLine
 10
21.47424853314436
 20
61.19065347812312
 30
0.0
 11
10.0
 21
61.19065347812312
 31
0.0
  0
LINE
  5
4498
330
4494
100
AcDbEntity
  8
寸法
 62
     0
370
    -2
100
AcDbLine
 10
10.0
 20
70.69065347812321
 30
0.0
 11
10.0
 21
63.19065347812312
 31
0.0
  0
INSERT
  5
4499
330
4494
100
AcDbEntity
  8
寸法
 62
     0
370
    -2
100
AcDbBlockReference
  2
_DOT
 10
10.0
 20
72.69065347812321
 30
0.0
 41
2.0
 42
2.0
 43
2.0
 50
90.0
  0
INSERT
  5
449A
330
4494
100
AcDbEntity
  8
寸法
 62
     0
370
    -2
100
AcDbBlockReference
  2
_DOT
 10
10.0
 20
61.19065347812312
 30
0.0
 41
2.0
 42
2.0
 43
2.0
 50
270.0
  0
MTEXT
  5
449B
330
4494
100
AcDbEntity
  8
寸法
 62
     0
100
AcDbMText
 10
2.5
 20
67.78963059082125
 30
0.0
 40
5.0
 41
0.0
 46
0.0
 71
     5
 72
     1
  1
\A1;12
  7
ＭＳ ゴシック
 11
0.0
 21
1.0
 31
0.0
 73
     1
 44
1.0
  0
POINT
  5
449C
330
4494
100
AcDbEntity
  8
Defpoints
 62
     0
100
AcDbPoint
 10
32.79074484773128
 20
72.69065347812321
 30
0.0
  0
POINT
  5
449D
330
4494
100
AcDbEntity
  8
Defpoints
 62
     0
100
AcDbPoint
 10
26.47424853314436
 20
61.19065347812312
 30
0.0
  0
POINT
  5
449E
330
4494
100
AcDbEntity
  8
Defpoints
 62
     0
100
AcDbPoint
 10
10.0
 20
61.19065347812312
 30
0.0
  0
ENDBLK
  5
449F
330
4494
100
AcDbEntity
  8
0
100
AcDbBlockEnd
  0
BLOCK
  5
44A4
330
44A3
100
AcDbEntity
  8
0
100
AcDbBlockBegin
  2
*D111
 70
     1
 10
0.0
 20
0.0
 30
0.0
  3
*D111
  1
*D102
  0
LINE
  5
44A5
330
44A3
100
AcDbEntity
  8
寸法
 62
     0
370
    -2
100
AcDbLine
 10
37.86881894296698
 20
77.69065347812321
 30
0.0
 11
37.86881894296698
 21
83.49823555764536
 31
0.0
  0
LINE
  5
44A6
330
44A3
100
AcDbEntity
  8
寸法
 62
     0
370
    -2
100
AcDbLine
 10
28.36881894296698
 20
68.93084615484474
 30
0.0
 11
28.36881894296698
 21
83.49823555764536
 31
0.0
  0
LINE
  5
44A7
330
44A3
100
AcDbEntity
  8
寸法
 62
     0
370
    -2
100
AcDbLine
 10
35.86881894296698
 20
83.49823555764536
 30
0.0
 11
30.36881894296698
 21
83.49823555764536
 31
0.0
  0
INSERT
  5
44A8
330
44A3
100
AcDbEntity
  8
寸法
 62
     0
370
    -2
100
AcDbBlockReference
  2
_DOT
 10
37.86881894296698
 20
83.49823555764536
 30
0.0
 41
2.0
 42
2.0
 43
2.0
  0
INSERT
  5
44A9
330
44A3
100
AcDbEntity
  8
寸法
 62
     0
370
    -2
100
AcDbBlockReference
  2
_DOT
 10
28.36881894296698
 20
83.49823555764536
 30
0.0
 41
2.0
 42
2.0
 43
2.0
 50
180.0
  0
MTEXT
  5
44AA
330
44A3
100
AcDbEntity
  8
寸法
 62
     0
100
AcDbMText
 10
33.40890151918876
 20
90.99823555764536
 30
0.0
 40
5.0
 41
0.0
 46
0.0
 71
     5
 72
     1
  1
\A1;9.5
  7
ＭＳ ゴシック
 73
     1
 44
1.0
  0
POINT
  5
44AB
330
44A3
100
AcDbEntity
  8
Defpoints
 62
     0
100
AcDbPoint
 10
37.86881894296698
 20
72.69065347812321
 30
0.0
  0
POINT
  5
44AC
330
44A3
100
AcDbEntity
  8
Defpoints
 62
     0
100
AcDbPoint
 10
28.36881894296698
 20
63.93084615484474
 30
0.0
  0
POINT
  5
44AD
330
44A3
100
AcDbEntity
  8
Defpoints
 62
     0
100
AcDbPoint
 10
28.36881894296698
 20
83.49823555764536
 30
0.0
  0
ENDBLK
  5
44AE
330
44A3
100
AcDbEntity
  8
0
100
AcDbBlockEnd
  0
BLOCK
  5
44B3
330
44B2
100
AcDbEntity
  8
0
100
AcDbBlockBegin
  2
*D112
 70
     1
 10
0.0
 20
0.0
 30
0.0
  3
*D112
  1
*D107
  0
LINE
  5
44B4
330
44B2
100
AcDbEntity
  8
寸法
 62
     0
370
    -2
100
AcDbLine
 10
37.86881894296698
 20
16.46894001274944
 30
0.0
 11
37.86881894296698
 21
0.9510565162951252
 31
0.0
  0
LINE
  5
44B5
330
44B2
100
AcDbEntity
  8
寸法
 62
     0
370
    -2
100
AcDbLine
 10
32.79074484773128
 20
16.46894001274944
 30
0.0
 11
32.79074484773128
 21
0.9510565162951252
 31
0.0
  0
LINE
  5
44B6
330
44B2
100
AcDbEntity
  8
寸法
 62
     0
370
    -2
100
AcDbLine
 10
35.86881894296698
 20
0.9510565162951252
 30
0.0
 11
34.79074484773128
 21
0.9510565162951252
 31
0.0
  0
INSERT
  5
44B7
330
44B2
100
AcDbEntity
  8
寸法
 62
     0
370
    -2
100
AcDbBlockReference
  2
_DOT
 10
37.86881894296698
 20
0.9510565162951252
 30
0.0
 41
2.0
 42
2.0
 43
2.0
  0
INSERT
  5
44B8
330
44B2
100
AcDbEntity
  8
寸法
 62
     0
370
    -2
100
AcDbBlockReference
  2
_DOT
 10
32.79074484773128
 20
0.9510565162951252
 30
0.0
 41
2.0
 42
2.0
 43
2.0
 50
180.0
  0
MTEXT
  5
44B9
330
44B2
100
AcDbEntity
  8
寸法
 62
     0
100
AcDbMText
 10
35.32978189534919
 20
8.451056516295125
 30
0.0
 40
5.0
 41
0.0
 46
0.0
 71
     5
 72
     1
  1
\A1;5
  7
ＭＳ ゴシック
 73
     1
 44
1.0
  0
POINT
  5
44BA
330
44B2
100
AcDbEntity
  8
Defpoints
 62
     0
100
AcDbPoint
 10
37.86881894296698
 20
21.46894001274944
 30
0.0
  0
POINT
  5
44BB
330
44B2
100
AcDbEntity
  8
Defpoints
 62
     0
100
AcDbPoint
 10
32.79074484773128
 20
21.46894001274944
 30
0.0
  0
POINT
  5
44BC
330
44B2
100
AcDbEntity
  8
Defpoints
 62
     0
100
AcDbPoint
 10
32.79074484773128
 20
0.9510565162951252
 30
0.0
  0
ENDBLK
  5
44BD
330
44B2
100
AcDbEntity
  8
0
100
AcDbBlockEnd
  0
BLOCK
  5
44C2
330
44C1
100
AcDbEntity
  8
0
100
AcDbBlockBegin
  2
*D113
 70
     1
 10
0.0
 20
0.0
 30
0.0
  3
*D113
  1
*D115
  0
LINE
  5
44C3
330
44C1
100
AcDbEntity
  8
寸法
 62
     0
370
    -2
100
AcDbLine
 10
32.79074484773128
 20
16.46894001274944
 30
0.0
 11
32.79074484773128
 21
0.9510565162951252
 31
0.0
  0
LINE
  5
44C4
330
44C1
100
AcDbEntity
  8
寸法
 62
     0
370
    -2
100
AcDbLine
 10
28.29074484773128
 20
16.46894001274944
 30
0.0
 11
28.29074484773128
 21
0.9510565162951252
 31
0.0
  0
LINE
  5
44C5
330
44C1
100
AcDbEntity
  8
寸法
 62
     0
370
    -2
100
AcDbLine
 10
28.29074484773128
 20
0.9510565162951252
 30
0.0
 11
5.130744847731279
 21
0.9510565162951252
 31
0.0
  0
LINE
  5
44C6
330
44C1
100
AcDbEntity
  8
寸法
 62
     0
370
    -2
100
AcDbLine
 10
32.79074484773128
 20
0.9510565162951252
 30
0.0
 11
28.29074484773128
 21
0.9510565162951252
 31
0.0
  0
LINE
  5
44C7
330
44C1
100
AcDbEntity
  8
寸法
 62
     0
370
    -2
100
AcDbLine
 10
34.79074484773128
 20
0.9510565162951252
 30
0.0
 11
36.79074484773128
 21
0.9510565162951252
 31
0.0
  0
LINE
  5
44C8
330
44C1
100
AcDbEntity
  8
寸法
 62
     0
370
    -2
100
AcDbLine
 10
26.29074484773128
 20
0.9510565162951252
 30
0.0
 11
24.29074484773128
 21
0.9510565162951252
 31
0.0
  0
INSERT
  5
44C9
330
44C1
100
AcDbEntity
  8
寸法
 62
     0
370
    -2
100
AcDbBlockReference
  2
_DOT
 10
32.79074484773128
 20
0.9510565162951252
 30
0.0
 41
2.0
 42
2.0
 43
2.0
 50
180.0
  0
INSERT
  5
44CA
330
44C1
100
AcDbEntity
  8
寸法
 62
     0
370
    -2
100
AcDbBlockReference
  2
_DOT
 10
28.29074484773128
 20
0.9510565162951252
 30
0.0
 41
2.0
 42
2.0
 43
2.0
  0
MTEXT
  5
44CB
330
44C1
100
AcDbEntity
  8
寸法
 62
     0
100
AcDbMText
 10
14.71074484773128
 20
8.451056516295125
 30
0.0
 40
5.0
 41
0.0
 46
0.0
 71
     5
 72
     1
  1
\A1;4.5
  7
ＭＳ ゴシック
 73
     1
 44
1.0
  0
POINT
  5
44CC
330
44C1
100
AcDbEntity
  8
Defpoints
 62
     0
100
AcDbPoint
 10
32.79074484773128
 20
21.46894001274944
 30
0.0
  0
POINT
  5
44CD
330
44C1
100
AcDbEntity
  8
Defpoints
 62
     0
100
AcDbPoint
 10
28.29074484773128
 20
21.46894001274944
 30
0.0
  0
POINT
  5
44CE
330
44C1
100
AcDbEntity
  8
Defpoints
 62
     0
100
AcDbPoint
 10
28.29074484773128
 20
0.9510565162951252
 30
0.0
  0
ENDBLK
  5
44CF
330
44C1
100
AcDbEntity
  8
0
100
AcDbBlockEnd
  0
BLOCK
  5
44EC
330
44EB
100
AcDbEntity
  8
0
100
AcDbBlockBegin
  2
*D114
 70
     1
 10
0.0
 20
0.0
 30
0.0
  3
*D114
  1
*D116
  0
LINE
  5
44EE
330
44EB
100
AcDbEntity
  8
寸法
 62
     0
370
    -2
100
AcDbLine
 10
162.093004169739
 20
352.5813669222727
 30
0.0
 11
162.093004169739
 21
365.2905925770105
 31
0.0
  0
LINE
  5
44EF
330
44EB
100
AcDbEntity
  8
寸法
 62
     0
370
    -2
100
AcDbLine
 10
154.4724479291284
 20
347.4998477292792
 30
0.0
 11
154.4724479291284
 21
365.2905925770105
 31
0.0
  0
LINE
  5
44F0
330
44EB
100
AcDbEntity
  8
寸法
 62
     0
370
    -2
100
AcDbLine
 10
160.093004169739
 20
365.2905925770105
 30
0.0
 11
156.4724479291284
 21
365.2905925770105
 31
0.0
  0
INSERT
  5
44F1
330
44EB
100
AcDbEntity
  8
寸法
 62
     0
370
    -2
100
AcDbBlockReference
  2
_DOT
 10
162.093004169739
 20
365.2905925770105
 30
0.0
 41
2.0
 42
2.0
 43
2.0
  0
INSERT
  5
44F2
330
44EB
100
AcDbEntity
  8
寸法
 62
     0
370
    -2
100
AcDbBlockReference
  2
_DOT
 10
154.4724479291284
 20
365.2905925770105
 30
0.0
 41
2.0
 42
2.0
 43
2.0
 50
180.0
  0
MTEXT
  5
44F3
330
44EB
100
AcDbEntity
  8
寸法
 62
     0
100
AcDbMText
 10
158.5955134002413
 20
372.7905925770105
 30
0.0
 40
5.0
 41
0.0
 46
0.0
 71
     5
 72
     1
  1
\A1;7.5
  7
ＭＳ ゴシック
 73
     1
 44
1.0
  0
POINT
  5
44F4
330
44EB
100
AcDbEntity
  8
Defpoints
 62
     0
100
AcDbPoint
 10
162.093004169739
 20
347.5813669222727
 30
0.0
  0
POINT
  5
44F5
330
44EB
100
AcDbEntity
  8
Defpoints
 62
     0
100
AcDbPoint
 10
154.4724479291284
 20
342.4998477292792
 30
0.0
  0
POINT
  5
44F6
330
44EB
100
AcDbEntity
  8
Defpoints
 62
     0
100
AcDbPoint
 10
154.4724479291284
 20
365.2905925770105
 30
0.0
  0
ENDBLK
  5
44ED
330
44EB
100
AcDbEntity
  8
0
100
AcDbBlockEnd
  0
BLOCK
  5
44F8
330
44F7
100
AcDbEntity
  8
0
100
AcDbBlockBegin
  2
*D115
 70
     1
 10
0.0
 20
0.0
 30
0.0
  3
*D115
  1
*D117
  0
LINE
  5
44FA
330
44F7
100
AcDbEntity
  8
寸法
 62
     0
370
    -2
100
AcDbLine
 10
205.6941613945021
 20
347.4998477292792
 30
0.0
 11
205.6941613945021
 21
365.2905925770105
 31
0.0
  0
LINE
  5
44FB
330
44F7
100
AcDbEntity
  8
寸法
 62
     0
370
    -2
100
AcDbLine
 10
194.194161394502
 20
353.8163440438661
 30
0.0
 11
194.194161394502
 21
365.2905925770105
 31
0.0
  0
LINE
  5
44FC
330
44F7
100
AcDbEntity
  8
寸法
 62
     0
370
    -2
100
AcDbLine
 10
203.6941613945021
 20
365.2905925770105
 30
0.0
 11
196.194161394502
 21
365.2905925770105
 31
0.0
  0
INSERT
  5
44FD
330
44F7
100
AcDbEntity
  8
寸法
 62
     0
370
    -2
100
AcDbBlockReference
  2
_DOT
 10
205.6941613945021
 20
365.2905925770105
 30
0.0
 41
2.0
 42
2.0
 43
2.0
  0
INSERT
  5
44FE
330
44F7
100
AcDbEntity
  8
寸法
 62
     0
370
    -2
100
AcDbBlockReference
  2
_DOT
 10
194.194161394502
 20
365.2905925770105
 30
0.0
 41
2.0
 42
2.0
 43
2.0
 50
180.0
  0
MTEXT
  5
44FF
330
44F7
100
AcDbEntity
  8
寸法
 62
     0
100
AcDbMText
 10
200.7931385072001
 20
372.7905925770105
 30
0.0
 40
5.0
 41
0.0
 46
0.0
 71
     5
 72
     1
  1
\A1;12
  7
ＭＳ ゴシック
 73
     1
 44
1.0
  0
POINT
  5
4500
330
44F7
100
AcDbEntity
  8
Defpoints
 62
     0
100
AcDbPoint
 10
205.6941613945021
 20
342.4998477292792
 30
0.0
  0
POINT
  5
4501
330
44F7
100
AcDbEntity
  8
Defpoints
 62
     0
100
AcDbPoint
 10
194.194161394502
 20
348.8163440438661
 30
0.0
  0
POINT
  5
4502
330
44F7
100
AcDbEntity
  8
Defpoints
 62
     0
100
AcDbPoint
 10
194.194161394502
 20
365.2905925770105
 30
0.0
  0
ENDBLK
  5
44F9
330
44F7
100
AcDbEntity
  8
0
100
AcDbBlockEnd
  0
BLOCK
  5
4504
330
4503
100
AcDbEntity
  8
0
100
AcDbBlockBegin
  2
*D116
 70
     1
 10
0.0
 20
0.0
 30
0.0
  3
*D116
  1
*D118
  0
LINE
  5
4506
330
4503
100
AcDbEntity
  8
寸法
 62
     0
370
    -2
100
AcDbLine
 10
210.6941613945021
 20
337.4217736340435
 30
0.0
 11
216.5017434740243
 21
337.4217736340435
 31
0.0
  0
LINE
  5
4507
330
4503
100
AcDbEntity
  8
寸法
 62
     0
370
    -2
100
AcDbLine
 10
201.9343540712237
 20
346.9217736340435
 30
0.0
 11
216.5017434740243
 21
346.9217736340435
 31
0.0
  0
LINE
  5
4508
330
4503
100
AcDbEntity
  8
寸法
 62
     0
370
    -2
100
AcDbLine
 10
216.5017434740243
 20
339.4217736340435
 30
0.0
 11
216.5017434740243
 21
344.9217736340435
 31
0.0
  0
INSERT
  5
4509
330
4503
100
AcDbEntity
  8
寸法
 62
     0
370
    -2
100
AcDbBlockReference
  2
_DOT
 10
216.5017434740243
 20
337.4217736340435
 30
0.0
 41
2.0
 42
2.0
 43
2.0
 50
270.0
  0
INSERT
  5
450A
330
4503
100
AcDbEntity
  8
寸法
 62
     0
370
    -2
100
AcDbBlockReference
  2
_DOT
 10
216.5017434740243
 20
346.9217736340435
 30
0.0
 41
2.0
 42
2.0
 43
2.0
 50
90.0
  0
MTEXT
  5
450B
330
4503
100
AcDbEntity
  8
寸法
 62
     0
100
AcDbMText
 10
209.0017434740243
 20
341.8816910578217
 30
0.0
 40
5.0
 41
0.0
 46
0.0
 71
     5
 72
     1
  1
\A1;9.5
  7
ＭＳ ゴシック
 11
0.0
 21
1.0
 31
0.0
 73
     1
 44
1.0
  0
POINT
  5
450C
330
4503
100
AcDbEntity
  8
Defpoints
 62
     0
100
AcDbPoint
 10
205.6941613945021
 20
337.4217736340435
 30
0.0
  0
POINT
  5
450D
330
4503
100
AcDbEntity
  8
Defpoints
 62
     0
100
AcDbPoint
 10
196.9343540712237
 20
346.9217736340435
 30
0.0
  0
POINT
  5
450E
330
4503
100
AcDbEntity
  8
Defpoints
 62
     0
100
AcDbPoint
 10
216.5017434740243
 20
346.9217736340435
 30
0.0
  0
ENDBLK
  5
4505
330
4503
100
AcDbEntity
  8
0
100
AcDbBlockEnd
  0
BLOCK
  5
4510
330
450F
100
AcDbEntity
  8
0
100
AcDbBlockBegin
  2
*D117
 70
     1
 10
0.0
 20
0.0
 30
0.0
  3
*D117
  1
*D119
  0
LINE
  5
4512
330
450F
100
AcDbEntity
  8
寸法
 62
     0
370
    -2
100
AcDbLine
 10
149.4724479291284
 20
337.4217736340435
 30
0.0
 11
133.954564432674
 21
337.4217736340435
 31
0.0
  0
LINE
  5
4513
330
450F
100
AcDbEntity
  8
寸法
 62
     0
370
    -2
100
AcDbLine
 10
149.4724479291284
 20
342.4998477292792
 30
0.0
 11
133.954564432674
 21
342.4998477292792
 31
0.0
  0
LINE
  5
4514
330
450F
100
AcDbEntity
  8
寸法
 62
     0
370
    -2
100
AcDbLine
 10
133.954564432674
 20
339.4217736340435
 30
0.0
 11
133.954564432674
 21
340.4998477292792
 31
0.0
  0
INSERT
  5
4515
330
450F
100
AcDbEntity
  8
寸法
 62
     0
370
    -2
100
AcDbBlockReference
  2
_DOT
 10
133.954564432674
 20
337.4217736340435
 30
0.0
 41
2.0
 42
2.0
 43
2.0
 50
270.0
  0
INSERT
  5
4516
330
450F
100
AcDbEntity
  8
寸法
 62
     0
370
    -2
100
AcDbBlockReference
  2
_DOT
 10
133.954564432674
 20
342.4998477292792
 30
0.0
 41
2.0
 42
2.0
 43
2.0
 50
90.0
  0
MTEXT
  5
4517
330
450F
100
AcDbEntity
  8
寸法
 62
     0
100
AcDbMText
 10
126.454564432674
 20
339.9608106816613
 30
0.0
 40
5.0
 41
0.0
 46
0.0
 71
     5
 72
     1
  1
\A1;5
  7
ＭＳ ゴシック
 11
0.0
 21
1.0
 31
0.0
 73
     1
 44
1.0
  0
POINT
  5
4518
330
450F
100
AcDbEntity
  8
Defpoints
 62
     0
100
AcDbPoint
 10
154.4724479291284
 20
337.4217736340435
 30
0.0
  0
POINT
  5
4519
330
450F
100
AcDbEntity
  8
Defpoints
 62
     0
100
AcDbPoint
 10
154.4724479291284
 20
342.4998477292792
 30
0.0
  0
POINT
  5
451A
330
450F
100
AcDbEntity
  8
Defpoints
 62
     0
100
AcDbPoint
 10
133.954564432674
 20
342.4998477292792
 30
0.0
  0
ENDBLK
  5
4511
330
450F
100
AcDbEntity
  8
0
100
AcDbBlockEnd
  0
BLOCK
  5
451C
330
451B
100
AcDbEntity
  8
0
100
AcDbBlockBegin
  2
*D118
 70
     1
 10
0.0
 20
0.0
 30
0.0
  3
*D118
  1
*D120
  0
LINE
  5
451E
330
451B
100
AcDbEntity
  8
寸法
 62
     0
370
    -2
100
AcDbLine
 10
149.4724479291284
 20
342.4998477292792
 30
0.0
 11
133.954564432674
 21
342.4998477292792
 31
0.0
  0
LINE
  5
451F
330
451B
100
AcDbEntity
  8
寸法
 62
     0
370
    -2
100
AcDbLine
 10
149.4724479291284
 20
346.9998477292792
 30
0.0
 11
133.954564432674
 21
346.9998477292792
 31
0.0
  0
LINE
  5
4520
330
451B
100
AcDbEntity
  8
寸法
 62
     0
370
    -2
100
AcDbLine
 10
133.954564432674
 20
346.9998477292792
 30
0.0
 11
133.954564432674
 21
370.1598477292792
 31
0.0
  0
LINE
  5
4521
330
451B
100
AcDbEntity
  8
寸法
 62
     0
370
    -2
100
AcDbLine
 10
133.954564432674
 20
342.4998477292792
 30
0.0
 11
133.954564432674
 21
346.9998477292792
 31
0.0
  0
LINE
  5
4522
330
451B
100
AcDbEntity
  8
寸法
 62
     0
370
    -2
100
AcDbLine
 10
133.954564432674
 20
340.4998477292792
 30
0.0
 11
133.954564432674
 21
338.4998477292792
 31
0.0
  0
LINE
  5
4523
330
451B
100
AcDbEntity
  8
寸法
 62
     0
370
    -2
100
AcDbLine
 10
133.954564432674
 20
348.9998477292792
 30
0.0
 11
133.954564432674
 21
350.9998477292792
 31
0.0
  0
INSERT
  5
4524
330
451B
100
AcDbEntity
  8
寸法
 62
     0
370
    -2
100
AcDbBlockReference
  2
_DOT
 10
133.954564432674
 20
342.4998477292792
 30
0.0
 41
2.0
 42
2.0
 43
2.0
 50
90.0
  0
INSERT
  5
4525
330
451B
100
AcDbEntity
  8
寸法
 62
     0
370
    -2
100
AcDbBlockReference
  2
_DOT
 10
133.954564432674
 20
346.9998477292792
 30
0.0
 41
2.0
 42
2.0
 43
2.0
 50
270.0
  0
MTEXT
  5
4526
330
451B
100
AcDbEntity
  8
寸法
 62
     0
100
AcDbMText
 10
126.454564432674
 20
360.5798477292792
 30
0.0
 40
5.0
 41
0.0
 46
0.0
 71
     5
 72
     1
  1
\A1;4.5
  7
ＭＳ ゴシック
 11
0.0
 21
1.0
 31
0.0
 73
     1
 44
1.0
  0
POINT
  5
4527
330
451B
100
AcDbEntity
  8
Defpoints
 62
     0
100
AcDbPoint
 10
154.4724479291284
 20
342.4998477292792
 30
0.0
  0
POINT
  5
4528
330
451B
100
AcDbEntity
  8
Defpoints
 62
     0
100
AcDbPoint
 10
154.4724479291284
 20
346.9998477292792
 30
0.0
  0
POINT
  5
4529
330
451B
100
AcDbEntity
  8
Defpoints
 62
     0
100
AcDbPoint
 10
133.954564432674
 20
346.9998477292792
 30
0.0
  0
ENDBLK
  5
451D
330
451B
100
AcDbEntity
  8
0
100
AcDbBlockEnd
  0
ENDSEC
  0
SECTION
  2
ENTITIES
  0
LINE
  5
36CD
330
A
100
AcDbEntity
  8
PRINT BORDER
100
AcDbLine
 10
296.9999999999999
 20
0.0
 30
0.0
 11
296.9999999999999
 21
15.30952622855898
 31
0.0
  0
LINE
  5
36CE
330
A
100
AcDbEntity
  8
テンプレート
100
AcDbLine
 10
437.9999999999999
 20
38.27810890422097
 30
0.0
 11
15.30952622855898
 21
38.27810890422097
 31
0.0
  0
LINE
  5
36CF
330
A
100
AcDbEntity
  8
テンプレート
100
AcDbLine
 10
15.30952622855898
 20
26.22153683920783
 30
0.0
 11
578.6904737714407
 21
26.22153683920783
 31
0.0
  0
TEXT
  5
36D0
330
A
100
AcDbEntity
  8
テンプレート
100
AcDbText
 10
18.06121699514119
 20
32.16825981613692
 30
0.0
 40
3.5
  1
材質
  7
ＭＳ ゴシック
100
AcDbText
  0
TEXT
  5
36D1
330
A
100
AcDbEntity
  8
テンプレート
100
AcDbText
 10
36.7528253083583
 20
41.29280421576505
 30
0.0
 40
5.5
  1
サテン・ホワイト・ブラック
  7
ＭＳ ゴシック
100
AcDbText
  0
TEXT
  5
36D2
330
A
100
AcDbEntity
  8
テンプレート
100
AcDbText
 10
36.7528253083583
 20
29.19151340726899
 30
0.0
 40
5.5
  1
ステンレス
  7
ＭＳ ゴシック
100
AcDbText
  0
TEXT
  5
36D3
330
A
100
AcDbEntity
  8
テンプレート
100
AcDbText
 10
18.06121699514119
 20
56.50959028673083
 30
0.0
 40
3.5
  1
品名
  7
ＭＳ ゴシック
100
AcDbText
  0
TEXT
  5
36D4
330
A
100
AcDbEntity
  8
テンプレート
100
AcDbText
 10
18.06121699514119
 20
44.65099339080098
 30
0.0
 40
3.5
  1
仕上げ
  7
ＭＳ ゴシック
100
AcDbText
  0
TEXT
  5
36D5
330
A
100
AcDbEntity
  8
テンプレート
100
AcDbText
 10
298.8233485179306
 20
56.58523052309897
 30
0.0
 40
3.5
  1
品番
  7
ＭＳ ゴシック
100
AcDbText
  0
TEXT
  5
36D6
330
A
100
AcDbEntity
  8
テンプレート
100
AcDbText
 10
36.7528253083583
 20
53.09440584367189
 30
0.0
 40
5.5
  1
呼出かん - FORMANI,One -
  7
ＭＳ ゴシック
100
AcDbText
  0
TEXT
  5
36D7
330
A
100
AcDbEntity
  8
テンプレート
100
AcDbText
 10
313.0171205424464
 20
52.977080524553
 30
0.0
 40
5.5
  1
FOR03-ON01S
  7
ＭＳ ゴシック
100
AcDbText
  0
LINE
  5
36D8
330
A
100
AcDbEntity
  8
テンプレート
100
AcDbLine
 10
437.9999999999999
 20
50.16496477419605
 30
0.0
 11
15.30952622855898
 21
50.16496477419605
 31
0.0
  0
LINE
  5
36D9
330
A
100
AcDbEntity
  8
テンプレート
100
AcDbLine
 10
578.6904737714411
 20
62.22153683920783
 30
0.0
 11
15.30952622855898
 21
62.22153683920783
 31
0.0
  0
LINE
  5
36DA
330
A
100
AcDbEntity
  8
PRINT BORDER
100
AcDbLine
 10
593.9999999999999
 20
210.0
 30
0.0
 11
578.6904737714411
 21
210.0
 31
0.0
  0
LINE
  5
36DB
330
A
100
AcDbEntity
  8
PRINT BORDER
100
AcDbLine
 10
0.0
 20
210.0
 30
0.0
 11
15.30952622855898
 21
210.0
 31
0.0
  0
LINE
  5
36DC
330
A
100
AcDbEntity
  8
PRINT BORDER
100
AcDbLine
 10
296.9999999999999
 20
420.0
 30
0.0
 11
296.9999999999999
 21
404.690473771441
 31
0.0
  0
LINE
  5
36DD
330
A
100
AcDbEntity
  8
テンプレート
100
AcDbLine
 10
578.6904737714411
 20
62.22153683920783
 30
0.0
 11
578.6904737714411
 21
26.22153683920783
 31
0.0
  0
LINE
  5
36DE
330
A
100
AcDbEntity
  8
テンプレート
100
AcDbLine
 10
15.30952622855898
 20
62.22153683920783
 30
0.0
 11
15.30952622855898
 21
26.22153683920783
 31
0.0
  0
TEXT
  5
36DF
330
A
100
AcDbEntity
  8
テンプレート
100
AcDbText
 10
440.0887524673468
 20
56.58523052309897
 30
0.0
 40
3.5
  1
備考
  7
ＭＳ ゴシック
100
AcDbText
  0
TEXT
  5
36E0
330
A
100
AcDbEntity
  8
テンプレート
100
AcDbText
 10
494.9733384955217
 20
16.51938390313694
 30
0.0
 40
5.5
  1
大洋金物株式会社  
  7
ＭＳ ゴシック
100
AcDbText
  0
LINE
  5
36E1
330
A
100
AcDbEntity
  8
テンプレート
100
AcDbLine
 10
437.9999999999999
 20
62.22153683920783
 30
0.0
 11
437.9999999999999
 21
26.22153683920783
 31
0.0
  0
LINE
  5
36E2
330
A
100
AcDbEntity
  8
テンプレート
100
AcDbLine
 10
296.9999999999999
 20
62.22153683920783
 30
0.0
 11
296.9999999999999
 21
26.22153683920783
 31
0.0
  0
INSERT
  5
36E3
330
A
100
AcDbEntity
  8
テンプレート
100
AcDbBlockReference
  2
名称未設定-1
 10
548.3945198859805
 20
-7.642344203993161
 30
0.0
 41
0.180975
 42
0.180975
 43
0.180975
  0
TEXT
  5
36E4
330
A
100
AcDbEntity
  8
テンプレート
100
AcDbText
 10
18.42255191974346
 20
18.90483678917599
 30
0.0
 40
4.0
  1
20160404N
  7
ＭＳ ゴシック
100
AcDbText
  0
LINE
  5
36E5
330
A
100
AcDbEntity
  8
テンプレート
100
AcDbLine
 10
15.30952622855898
 20
210.0
 30
0.0
 11
15.30952622855898
 21
26.22153683920783
 31
0.0
  0
LINE
  5
36E6
330
A
100
AcDbEntity
  8
テンプレート
100
AcDbLine
 10
15.30952622855898
 20
210.0
 30
0.0
 11
15.30952622855898
 21
404.690473771441
 31
0.0
  0
LINE
  5
36E7
330
A
100
AcDbEntity
  8
テンプレート
100
AcDbLine
 10
296.9999999999999
 20
404.690473771441
 30
0.0
 11
15.30952622855887
 21
404.690473771441
 31
0.0
  0
LINE
  5
36E8
330
A
100
AcDbEntity
  8
テンプレート
100
AcDbLine
 10
296.9999999999999
 20
404.690473771441
 30
0.0
 11
578.6904737714411
 21
404.690473771441
 31
0.0
  0
LINE
  5
36E9
330
A
100
AcDbEntity
  8
テンプレート
100
AcDbLine
 10
578.6904737714411
 20
210.0
 30
0.0
 11
578.6904737714411
 21
404.690473771441
 31
0.0
  0
LINE
  5
36EA
330
A
100
AcDbEntity
  8
テンプレート
100
AcDbLine
 10
578.6904737714411
 20
210.0
 30
0.0
 11
578.6904737714411
 21
26.22153683920783
 31
0.0
  0
LWPOLYLINE
  5
36EB
330
A
100
AcDbEntity
  8
PRINT BORDER
  6
HIDDEN
 48
3.0
100
AcDbPolyline
 90
        4
 70
     1
 43
0.0
 10
0.0
 20
0.0
 10
0.0
 20
420.0
 10
593.9999999999999
 20
420.0
 10
593.9999999999999
 20
0.0
  0
TEXT
  5
36EC
330
A
100
AcDbEntity
  8
テンプレート
100
AcDbText
 10
298.7989156222221
 20
32.62405342819488
 30
0.0
 40
3.5
  1
縮尺
  7
ＭＳ ゴシック
100
AcDbText
  0
TEXT
  5
36ED
330
A
100
AcDbEntity
  8
テンプレート
100
AcDbText
 10
313.0171205424464
 20
28.29362070227194
 30
0.0
 40
5.5
  1
1/2
  7
ＭＳ ゴシック
100
AcDbText
  0
TEXT
  5
37DE
330
A
100
AcDbEntity
  8
テンプレート
100
AcDbText
 10
298.8233485179306
 20
44.52865845808583
 30
0.0
 40
3.5
  1
扉厚
  7
ＭＳ ゴシック
100
AcDbText
  0
SPLINE
  5
42B6
330
A
100
AcDbEntity
  8
モデル
100
AcDbSpline
210
0.0
220
0.0
230
1.0
 70
    11
 71
     3
 72
    17
 73
    13
 74
     0
 42
0.000000001
 43
0.0000000001
 40
0.0
 40
0.0
 40
0.0
 40
0.0
 40
1.0
 40
1.0
 40
1.0
 40
2.0
 40
2.0
 40
2.0
 40
3.0
 40
3.0
 40
3.0
 40
4.0
 40
4.0
 40
4.0
 40
4.0
 10
193.8430251071141
 20
260.1212622968421
 30
0.0
 10
191.8552037007704
 20
260.1212622968421
 30
0.0
 10
190.2428979500442
 20
258.5089565461163
 30
0.0
 10
190.2428979500442
 20
256.5211351397721
 30
0.0
 10
190.2428979500442
 20
254.5333137334283
 30
0.0
 10
191.8552037007704
 20
252.9244530804606
 30
0.0
 10
193.8430251071141
 20
252.9244530804606
 30
0.0
 10
195.8274014157001
 20
252.9244530804606
 30
0.0
 10
197.4397071664262
 20
254.5333137334283
 30
0.0
 10
197.4397071664262
 20
256.5211351397721
 30
0.0
 10
197.4397071664262
 20
258.5089565461163
 30
0.0
 10
195.8274014157001
 20
260.1212622968421
 30
0.0
 10
193.8430251071141
 20
260.1212622968421
 30
0.0
  0
SPLINE
  5
42B7
330
A
100
AcDbEntity
  8
モデル
100
AcDbSpline
210
0.0
220
0.0
230
1.0
 70
    11
 71
     3
 72
    17
 73
    13
 74
     0
 42
0.000000001
 43
0.0000000001
 40
0.0
 40
0.0
 40
0.0
 40
0.0
 40
1.0
 40
1.0
 40
1.0
 40
2.0
 40
2.0
 40
2.0
 40
3.0
 40
3.0
 40
3.0
 40
4.0
 40
4.0
 40
4.0
 40
4.0
 10
193.8430251071141
 20
218.2116480712384
 30
0.0
 10
191.8552037007704
 20
218.2116480712384
 30
0.0
 10
190.2428979500442
 20
216.5993423205111
 30
0.0
 10
190.2428979500442
 20
214.6115209141682
 30
0.0
 10
190.2428979500442
 20
212.6236995078241
 30
0.0
 10
191.8552037007704
 20
211.0148388548564
 30
0.0
 10
193.8430251071141
 20
211.0148388548564
 30
0.0
 10
195.8274014157001
 20
211.0148388548564
 30
0.0
 10
197.4397071664262
 20
212.6236995078241
 30
0.0
 10
197.4397071664262
 20
214.6115209141682
 30
0.0
 10
197.4397071664262
 20
216.5993423205111
 30
0.0
 10
195.8274014157001
 20
218.2116480712384
 30
0.0
 10
193.8430251071141
 20
218.2116480712384
 30
0.0
  0
SPLINE
  5
42B8
330
A
100
AcDbEntity
  8
モデル
100
AcDbSpline
210
0.0
220
0.0
230
1.0
 70
    11
 71
     3
 72
    17
 73
    13
 74
     0
 42
0.000000001
 43
0.0000000001
 40
0.0
 40
0.0
 40
0.0
 40
0.0
 40
1.0
 40
1.0
 40
1.0
 40
2.0
 40
2.0
 40
2.0
 40
3.0
 40
3.0
 40
3.0
 40
4.0
 40
4.0
 40
4.0
 40
4.0
 10
166.3235842165164
 20
260.1212622968421
 30
0.0
 10
164.3392079079302
 20
260.1212622968421
 30
0.0
 10
162.7269021572043
 20
258.5089565461163
 30
0.0
 10
162.7269021572043
 20
256.5211351397721
 30
0.0
 10
162.7269021572043
 20
254.5333137334283
 30
0.0
 10
164.3392079079302
 20
252.9244530804606
 30
0.0
 10
166.3235842165164
 20
252.9244530804606
 30
0.0
 10
168.3114056228602
 20
252.9244530804606
 30
0.0
 10
169.9237113735863
 20
254.5333137334283
 30
0.0
 10
169.9237113735863
 20
256.5211351397721
 30
0.0
 10
169.9237113735863
 20
258.5089565461163
 30
0.0
 10
168.3114056228602
 20
260.1212622968421
 30
0.0
 10
166.3235842165164
 20
260.1212622968421
 30
0.0
  0
SPLINE
  5
42B9
330
A
100
AcDbEntity
  8
モデル
100
AcDbSpline
210
0.0
220
0.0
230
1.0
 70
    11
 71
     3
 72
    17
 73
    13
 74
     0
 42
0.000000001
 43
0.0000000001
 40
0.0
 40
0.0
 40
0.0
 40
0.0
 40
1.0
 40
1.0
 40
1.0
 40
2.0
 40
2.0
 40
2.0
 40
3.0
 40
3.0
 40
3.0
 40
4.0
 40
4.0
 40
4.0
 40
4.0
 10
166.3235842165164
 20
218.2116480712384
 30
0.0
 10
164.3392079079302
 20
218.2116480712384
 30
0.0
 10
162.7269021572043
 20
216.5993423205111
 30
0.0
 10
162.7269021572043
 20
214.6115209141682
 30
0.0
 10
162.7269021572043
 20
212.6236995078241
 30
0.0
 10
164.3392079079302
 20
211.0148388548564
 30
0.0
 10
166.3235842165164
 20
211.0148388548564
 30
0.0
 10
168.3114056228602
 20
211.0148388548564
 30
0.0
 10
169.9237113735863
 20
212.6236995078241
 30
0.0
 10
169.9237113735863
 20
214.6115209141682
 30
0.0
 10
169.9237113735863
 20
216.5993423205111
 30
0.0
 10
168.3114056228602
 20
218.2116480712384
 30
0.0
 10
166.3235842165164
 20
218.2116480712384
 30
0.0
  0
SPLINE
  5
42BA
330
A
100
AcDbEntity
  8
モデル
100
AcDbSpline
210
0.0
220
0.0
230
1.0
 70
    11
 71
     3
 72
    17
 73
    13
 74
     0
 42
0.000000001
 43
0.0000000001
 40
0.0
 40
0.0
 40
0.0
 40
0.0
 40
1.0
 40
1.0
 40
1.0
 40
2.0
 40
2.0
 40
2.0
 40
3.0
 40
3.0
 40
3.0
 40
4.0
 40
4.0
 40
4.0
 40
4.0
 10
166.3235842165164
 20
258.4262741999244
 30
0.0
 10
165.2728294003378
 20
258.4262741999244
 30
0.0
 10
164.4218902541214
 20
257.5753350537082
 30
0.0
 10
164.4218902541214
 20
256.5211351397721
 30
0.0
 10
164.4218902541214
 20
255.4703803235932
 30
0.0
 10
165.2728294003378
 20
254.6159960796192
 30
0.0
 10
166.3235842165164
 20
254.6159960796192
 30
0.0
 10
167.3777841304526
 20
254.6159960796192
 30
0.0
 10
168.232168374427
 20
255.4703803235932
 30
0.0
 10
168.232168374427
 20
256.5211351397721
 30
0.0
 10
168.232168374427
 20
257.5753350537082
 30
0.0
 10
167.3777841304526
 20
258.4262741999244
 30
0.0
 10
166.3235842165164
 20
258.4262741999244
 30
0.0
  0
SPLINE
  5
42BB
330
A
100
AcDbEntity
  8
モデル
100
AcDbSpline
210
0.0
220
0.0
230
1.0
 70
    11
 71
     3
 72
    17
 73
    13
 74
     0
 42
0.000000001
 43
0.0000000001
 40
0.0
 40
0.0
 40
0.0
 40
0.0
 40
1.0
 40
1.0
 40
1.0
 40
2.0
 40
2.0
 40
2.0
 40
3.0
 40
3.0
 40
3.0
 40
4.0
 40
4.0
 40
4.0
 40
4.0
 10
193.8430251071141
 20
258.4262741999244
 30
0.0
 10
192.788825193178
 20
258.4262741999244
 30
0.0
 10
191.9344409492035
 20
257.5753350537082
 30
0.0
 10
191.9344409492035
 20
256.5211351397721
 30
0.0
 10
191.9344409492035
 20
255.4703803235932
 30
0.0
 10
192.788825193178
 20
254.6159960796192
 30
0.0
 10
193.8430251071141
 20
254.6159960796192
 30
0.0
 10
194.8937799232925
 20
254.6159960796192
 30
0.0
 10
195.7447190695089
 20
255.4703803235932
 30
0.0
 10
195.7447190695089
 20
256.5211351397721
 30
0.0
 10
195.7447190695089
 20
257.5753350537082
 30
0.0
 10
194.8937799232925
 20
258.4262741999244
 30
0.0
 10
193.8430251071141
 20
258.4262741999244
 30
0.0
  0
SPLINE
  5
42BC
330
A
100
AcDbEntity
  8
モデル
100
AcDbSpline
210
0.0
220
0.0
230
1.0
 70
    11
 71
     3
 72
    17
 73
    13
 74
     0
 42
0.000000001
 43
0.0000000001
 40
0.0
 40
0.0
 40
0.0
 40
0.0
 40
1.0
 40
1.0
 40
1.0
 40
2.0
 40
2.0
 40
2.0
 40
3.0
 40
3.0
 40
3.0
 40
4.0
 40
4.0
 40
4.0
 40
4.0
 10
166.3235842165164
 20
216.5166599743202
 30
0.0
 10
165.2728294003378
 20
216.5166599743202
 30
0.0
 10
164.4218902541214
 20
215.6622757303464
 30
0.0
 10
164.4218902541214
 20
214.6115209141682
 30
0.0
 10
164.4218902541214
 20
213.5607660979892
 30
0.0
 10
165.2728294003378
 20
212.7063818540155
 30
0.0
 10
166.3235842165164
 20
212.7063818540155
 30
0.0
 10
167.3777841304526
 20
212.7063818540155
 30
0.0
 10
168.232168374427
 20
213.5607660979892
 30
0.0
 10
168.232168374427
 20
214.6115209141682
 30
0.0
 10
168.232168374427
 20
215.6622757303464
 30
0.0
 10
167.3777841304526
 20
216.5166599743202
 30
0.0
 10
166.3235842165164
 20
216.5166599743202
 30
0.0
  0
SPLINE
  5
42BD
330
A
100
AcDbEntity
  8
モデル
100
AcDbSpline
210
0.0
220
0.0
230
1.0
 70
    11
 71
     3
 72
    17
 73
    13
 74
     0
 42
0.000000001
 43
0.0000000001
 40
0.0
 40
0.0
 40
0.0
 40
0.0
 40
1.0
 40
1.0
 40
1.0
 40
2.0
 40
2.0
 40
2.0
 40
3.0
 40
3.0
 40
3.0
 40
4.0
 40
4.0
 40
4.0
 40
4.0
 10
193.8430251071141
 20
216.5166599743202
 30
0.0
 10
192.788825193178
 20
216.5166599743202
 30
0.0
 10
191.9344409492035
 20
215.6622757303464
 30
0.0
 10
191.9344409492035
 20
214.6115209141682
 30
0.0
 10
191.9344409492035
 20
213.5607660979892
 30
0.0
 10
192.788825193178
 20
212.7063818540155
 30
0.0
 10
193.8430251071141
 20
212.7063818540155
 30
0.0
 10
194.8937799232925
 20
212.7063818540155
 30
0.0
 10
195.7447190695089
 20
213.5607660979892
 30
0.0
 10
195.7447190695089
 20
214.6115209141682
 30
0.0
 10
195.7447190695089
 20
215.6622757303464
 30
0.0
 10
194.8937799232925
 20
216.5166599743202
 30
0.0
 10
193.8430251071141
 20
216.5166599743202
 30
0.0
  0
SPLINE
  5
42BE
330
A
100
AcDbEntity
  8
モデル
100
AcDbSpline
210
0.0
220
0.0
230
1.0
 70
     8
 71
     3
 72
     8
 73
     4
 74
     0
 42
0.000000001
 43
0.0000000001
 40
0.0
 40
0.0
 40
0.0
 40
0.0
 40
1.0
 40
1.0
 40
1.0
 40
1.0
 10
189.819150925815
 20
240.0122266836192
 30
0.0
 10
189.819150925815
 20
240.8287148522564
 30
0.0
 10
189.1576921562861
 20
241.4936187195435
 30
0.0
 10
188.3377588898917
 20
241.4936187195435
 30
0.0
  0
SPLINE
  5
42BF
330
A
100
AcDbEntity
  8
モデル
100
AcDbSpline
210
0.0
220
0.0
230
1.0
 70
     8
 71
     3
 72
     8
 73
     4
 74
     0
 42
0.000000001
 43
0.0000000001
 40
0.0
 40
0.0
 40
0.0
 40
0.0
 40
1.0
 40
1.0
 40
1.0
 40
1.0
 10
172.6763444821978
 20
241.4936187195435
 30
0.0
 10
171.8564112158027
 20
241.4936187195435
 30
0.0
 10
171.194952446274
 20
240.8287148522564
 30
0.0
 10
171.194952446274
 20
240.0122266836192
 30
0.0
  0
SPLINE
  5
42C0
330
A
100
AcDbEntity
  8
モデル
100
AcDbSpline
210
0.0
220
0.0
230
1.0
 70
     8
 71
     3
 72
     8
 73
     4
 74
     0
 42
0.000000001
 43
0.0000000001
 40
0.0
 40
0.0
 40
0.0
 40
0.0
 40
1.0
 40
1.0
 40
1.0
 40
1.0
 10
171.2500740104016
 20
226.5039983746512
 30
0.0
 10
171.2500740104016
 20
225.6840651082564
 30
0.0
 10
171.9115327799301
 20
225.0191612409702
 30
0.0
 10
172.7314660463249
 20
225.0191612409702
 30
0.0
  0
SPLINE
  5
42C1
330
A
100
AcDbEntity
  8
モデル
100
AcDbSpline
210
0.0
220
0.0
230
1.0
 70
     8
 71
     3
 72
     8
 73
     4
 74
     0
 42
0.000000001
 43
0.0000000001
 40
0.0
 40
0.0
 40
0.0
 40
0.0
 40
1.0
 40
1.0
 40
1.0
 40
1.0
 10
188.392880454019
 20
225.0191612409702
 30
0.0
 10
189.2128137204137
 20
225.0191612409702
 30
0.0
 10
189.8742724899424
 20
225.6840651082564
 30
0.0
 10
189.8742724899424
 20
226.5039983746512
 30
0.0
  0
SPLINE
  5
42C2
330
A
100
AcDbEntity
  8
モデル
100
AcDbSpline
210
0.0
220
0.0
230
1.0
 70
    11
 71
     3
 72
    17
 73
    13
 74
     0
 42
0.000000001
 43
0.0000000001
 40
0.0
 40
0.0
 40
0.0
 40
0.0
 40
1.0
 40
1.0
 40
1.0
 40
2.0
 40
2.0
 40
2.0
 40
3.0
 40
3.0
 40
3.0
 40
4.0
 40
4.0
 40
4.0
 40
4.0
 10
396.6163114941024
 20
258.4262741999244
 30
0.0
 10
395.5690017756823
 20
258.4262741999244
 30
0.0
 10
394.7146175317074
 20
257.5753350537082
 30
0.0
 10
394.7146175317074
 20
256.5211351397721
 30
0.0
 10
394.7146175317074
 20
255.4703803235932
 30
0.0
 10
395.5690017756823
 20
254.6159960796192
 30
0.0
 10
396.6163114941024
 20
254.6159960796192
 30
0.0
 10
397.6705114080383
 20
254.6159960796192
 30
0.0
 10
398.5248956520132
 20
255.4703803235932
 30
0.0
 10
398.5248956520132
 20
256.5211351397721
 30
0.0
 10
398.5248956520132
 20
257.5753350537082
 30
0.0
 10
397.6705114080383
 20
258.4262741999244
 30
0.0
 10
396.6163114941024
 20
258.4262741999244
 30
0.0
  0
SPLINE
  5
42C3
330
A
100
AcDbEntity
  8
モデル
100
AcDbSpline
210
0.0
220
0.0
230
1.0
 70
    11
 71
     3
 72
    17
 73
    13
 74
     0
 42
0.000000001
 43
0.0000000001
 40
0.0
 40
0.0
 40
0.0
 40
0.0
 40
1.0
 40
1.0
 40
1.0
 40
2.0
 40
2.0
 40
2.0
 40
3.0
 40
3.0
 40
3.0
 40
4.0
 40
4.0
 40
4.0
 40
4.0
 10
369.1020382501411
 20
258.4262741999244
 30
0.0
 10
368.0478383362052
 20
258.4262741999244
 30
0.0
 10
367.1968991899883
 20
257.5753350537082
 30
0.0
 10
367.1968991899883
 20
256.5211351397721
 30
0.0
 10
367.1968991899883
 20
255.4703803235932
 30
0.0
 10
368.0478383362052
 20
254.6159960796192
 30
0.0
 10
369.1020382501411
 20
254.6159960796192
 30
0.0
 10
370.1527930663193
 20
254.6159960796192
 30
0.0
 10
371.0071773102942
 20
255.4703803235932
 30
0.0
 10
371.0071773102942
 20
256.5211351397721
 30
0.0
 10
371.0071773102942
 20
257.5753350537082
 30
0.0
 10
370.1527930663193
 20
258.4262741999244
 30
0.0
 10
369.1020382501411
 20
258.4262741999244
 30
0.0
  0
SPLINE
  5
42C4
330
A
100
AcDbEntity
  8
モデル
100
AcDbSpline
210
0.0
220
0.0
230
1.0
 70
    11
 71
     3
 72
    17
 73
    13
 74
     0
 42
0.000000001
 43
0.0000000001
 40
0.0
 40
0.0
 40
0.0
 40
0.0
 40
1.0
 40
1.0
 40
1.0
 40
2.0
 40
2.0
 40
2.0
 40
3.0
 40
3.0
 40
3.0
 40
4.0
 40
4.0
 40
4.0
 40
4.0
 10
396.6163114941024
 20
216.5166599743202
 30
0.0
 10
395.5690017756823
 20
216.5166599743202
 30
0.0
 10
394.7146175317074
 20
215.6622757303464
 30
0.0
 10
394.7146175317074
 20
214.6115209141682
 30
0.0
 10
394.7146175317074
 20
213.5607660979892
 30
0.0
 10
395.5690017756823
 20
212.7063818540155
 30
0.0
 10
396.6163114941024
 20
212.7063818540155
 30
0.0
 10
397.6705114080383
 20
212.7063818540155
 30
0.0
 10
398.5248956520132
 20
213.5607660979892
 30
0.0
 10
398.5248956520132
 20
214.6115209141682
 30
0.0
 10
398.5248956520132
 20
215.6622757303464
 30
0.0
 10
397.6705114080383
 20
216.5166599743202
 30
0.0
 10
396.6163114941024
 20
216.5166599743202
 30
0.0
  0
SPLINE
  5
42C5
330
A
100
AcDbEntity
  8
モデル
100
AcDbSpline
210
0.0
220
0.0
230
1.0
 70
    11
 71
     3
 72
    17
 73
    13
 74
     0
 42
0.000000001
 43
0.0000000001
 40
0.0
 40
0.0
 40
0.0
 40
0.0
 40
1.0
 40
1.0
 40
1.0
 40
2.0
 40
2.0
 40
2.0
 40
3.0
 40
3.0
 40
3.0
 40
4.0
 40
4.0
 40
4.0
 40
4.0
 10
369.1020382501411
 20
216.5166599743202
 30
0.0
 10
368.0478383362052
 20
216.5166599743202
 30
0.0
 10
367.1968991899883
 20
215.6622757303464
 30
0.0
 10
367.1968991899883
 20
214.6115209141682
 30
0.0
 10
367.1968991899883
 20
213.5607660979892
 30
0.0
 10
368.0478383362052
 20
212.7063818540155
 30
0.0
 10
369.1020382501411
 20
212.7063818540155
 30
0.0
 10
370.1527930663193
 20
212.7063818540155
 30
0.0
 10
371.0071773102942
 20
213.5607660979892
 30
0.0
 10
371.0071773102942
 20
214.6115209141682
 30
0.0
 10
371.0071773102942
 20
215.6622757303464
 30
0.0
 10
370.1527930663193
 20
216.5166599743202
 30
0.0
 10
369.1020382501411
 20
216.5166599743202
 30
0.0
  0
LINE
  5
42C6
330
A
100
AcDbEntity
  8
モデル
100
AcDbLine
 10
172.462748421204
 20
241.4936187195435
 30
0.0
 11
188.1241628288979
 21
241.4936187195435
 31
0.0
  0
LINE
  5
42C7
330
A
100
AcDbEntity
  8
モデル
100
AcDbLine
 10
171.208732837306
 20
226.6762532625505
 30
0.0
 11
171.208732837306
 21
239.7986306226263
 31
0.0
  0
LINE
  5
42C8
330
A
100
AcDbEntity
  8
モデル
100
AcDbLine
 10
188.1241628288979
 20
224.9847102633902
 30
0.0
 11
172.462748421204
 21
224.9847102633902
 31
0.0
  0
LINE
  5
42C9
330
A
100
AcDbEntity
  8
モデル
100
AcDbLine
 10
189.839821512363
 20
239.7986306226263
 30
0.0
 11
189.839821512363
 21
226.6762532625505
 31
0.0
  0
LINE
  5
42CA
330
A
100
AcDbEntity
  8
モデル
100
AcDbLine
 10
183.4698357578914
 20
246.9954398390084
 30
0.0
 11
194.4769230945793
 21
246.9954398390084
 31
0.0
  0
LINE
  5
42CB
330
A
100
AcDbEntity
  8
モデル
100
AcDbLine
 10
165.6896862290513
 20
246.9954398390084
 30
0.0
 11
177.1205205899683
 21
246.9954398390084
 31
0.0
  0
LINE
  5
42CC
102
{ACAD_REACTORS
330
4304
102
}
330
A
100
AcDbEntity
  8
モデル
100
AcDbLine
 10
161.4591061822744
 20
260.9653112475423
 30
0.0
 11
198.7075031413561
 21
260.9653112475423
 31
0.0
  0
LINE
  5
42CD
330
A
100
AcDbEntity
  8
モデル
100
AcDbLine
 10
198.7075031413561
 20
260.9653112475423
 30
0.0
 11
198.7075031413561
 21
209.7435977821685
 31
0.0
  0
LINE
  5
42CE
102
{ACAD_REACTORS
330
4304
102
}
330
A
100
AcDbEntity
  8
モデル
100
AcDbLine
 10
198.7075031413561
 20
209.7435977821685
 30
0.0
 11
161.4591061822744
 21
209.7435977821685
 31
0.0
  0
LINE
  5
42CF
330
A
100
AcDbEntity
  8
モデル
100
AcDbLine
 10
161.4591061822744
 20
209.7435977821685
 30
0.0
 11
161.4591061822744
 21
260.9653112475423
 31
0.0
  0
LINE
  5
42D0
330
A
100
AcDbEntity
  8
モデル
100
AcDbLine
 10
176.6967735657389
 20
246.9954398390084
 30
0.0
 11
176.6967735657389
 21
256.3109841765362
 31
0.0
  0
LINE
  5
42D1
330
A
100
AcDbEntity
  8
モデル
100
AcDbLine
 10
176.6967735657389
 20
256.3109841765362
 30
0.0
 11
183.8935827821209
 21
256.3109841765362
 31
0.0
  0
LINE
  5
42D2
330
A
100
AcDbEntity
  8
モデル
100
AcDbLine
 10
183.8935827821209
 20
256.3109841765362
 30
0.0
 11
183.8935827821209
 21
246.9954398390084
 31
0.0
  0
LINE
  5
42D3
330
A
100
AcDbEntity
  8
モデル
100
AcDbLine
 10
183.8935827821209
 20
246.9954398390084
 30
0.0
 11
194.9006701188083
 21
246.9954398390084
 31
0.0
  0
LINE
  5
42D4
330
A
100
AcDbEntity
  8
モデル
100
AcDbLine
 10
194.9006701188083
 20
246.9954398390084
 30
0.0
 11
194.9006701188083
 21
219.9031910703974
 31
0.0
  0
LINE
  5
42D5
330
A
100
AcDbEntity
  8
モデル
100
AcDbLine
 10
194.9006701188083
 20
219.9031910703974
 30
0.0
 11
165.6896862290513
 21
219.9031910703974
 31
0.0
  0
LINE
  5
42D6
330
A
100
AcDbEntity
  8
モデル
100
AcDbLine
 10
165.6896862290513
 20
219.9031910703974
 30
0.0
 11
165.6896862290513
 21
246.9954398390084
 31
0.0
  0
LINE
  5
42D7
102
{ACAD_REACTORS
330
42F8
102
}
330
A
100
AcDbEntity
  8
モデル
100
AcDbLine
 10
303.6968573152386
 20
217.3641540227792
 30
0.0
 11
305.8121473386271
 21
217.3641540227792
 31
0.0
  0
LINE
  5
42D9
330
A
100
AcDbEntity
  8
モデル
100
AcDbLine
 10
305.8121473386271
 20
249.5379219843832
 30
0.0
 11
303.6968573152386
 21
249.5379219843832
 31
0.0
  0
LINE
  5
42DA
330
A
100
AcDbEntity
  8
モデル
100
AcDbLine
 10
303.6968573152386
 20
249.5379219843832
 30
0.0
 11
303.6968573152386
 21
217.3641540227792
 31
0.0
  0
LINE
  5
42DB
330
A
100
AcDbEntity
  8
モデル
100
AcDbLine
 10
308.7783765082321
 20
249.5379219843832
 30
0.0
 11
305.8121473386271
 21
249.5379219843832
 31
0.0
  0
LINE
  5
42DD
330
A
100
AcDbEntity
  8
モデル
100
AcDbLine
 10
305.8121473386271
 20
217.3641540227792
 30
0.0
 11
308.7783765082321
 21
217.3641540227792
 31
0.0
  0
LINE
  5
42DE
102
{ACAD_REACTORS
330
42FB
330
42FE
102
}
330
A
100
AcDbEntity
  8
モデル
100
AcDbLine
 10
313.8564506034678
 20
260.9653112475423
 30
0.0
 11
308.7783765082321
 21
260.9653112475423
 31
0.0
  0
LINE
  5
42DF
102
{ACAD_REACTORS
330
442B
102
}
330
A
100
AcDbEntity
  8
モデル
100
AcDbLine
 10
308.7783765082321
 20
260.9653112475423
 30
0.0
 11
308.7783765082321
 21
209.7435977821685
 31
0.0
  0
LINE
  5
42E0
102
{ACAD_REACTORS
330
42F8
330
4309
102
}
330
A
100
AcDbEntity
  8
モデル
100
AcDbLine
 10
308.7783765082321
 20
209.7435977821685
 30
0.0
 11
313.8564506034678
 21
209.7435977821685
 31
0.0
  0
LINE
  5
42E1
330
A
100
AcDbEntity
  8
モデル
100
AcDbLine
 10
313.8564506034678
 20
209.7435977821685
 30
0.0
 11
313.8564506034678
 21
260.9653112475423
 31
0.0
  0
LINE
  5
42E2
330
A
100
AcDbEntity
  8
モデル
100
AcDbLine
 10
385.8262653161663
 20
249.5379219843832
 30
0.0
 11
385.8262653161663
 21
255.8872371523073
 31
0.0
  0
LINE
  5
42E3
330
A
100
AcDbEntity
  8
モデル
100
AcDbLine
 10
385.8262653161663
 20
255.8872371523073
 30
0.0
 11
379.4717825016063
 21
255.8872371523073
 31
0.0
  0
LINE
  5
42E4
330
A
100
AcDbEntity
  8
モデル
100
AcDbLine
 10
379.4717825016063
 20
255.8872371523073
 30
0.0
 11
379.4717825016063
 21
249.5379219843832
 31
0.0
  0
LINE
  5
42E5
102
{ACAD_REACTORS
330
42F2
330
42F5
102
}
330
A
100
AcDbEntity
  8
モデル
100
AcDbLine
 10
398.5248956520132
 20
217.3641540227792
 30
0.0
 11
366.7731521657593
 21
217.3641540227792
 31
0.0
  0
LINE
  5
42E6
330
A
100
AcDbEntity
  8
モデル
100
AcDbLine
 10
366.7731521657593
 20
217.3641540227792
 30
0.0
 11
366.7731521657593
 21
249.5379219843832
 31
0.0
  0
LINE
  5
42E7
102
{ACAD_REACTORS
330
42F2
102
}
330
A
100
AcDbEntity
  8
モデル
100
AcDbLine
 10
366.7731521657593
 20
249.5379219843832
 30
0.0
 11
398.5248956520132
 21
249.5379219843832
 31
0.0
  0
LINE
  5
42E8
330
A
100
AcDbEntity
  8
モデル
100
AcDbLine
 10
398.5248956520132
 20
249.5379219843832
 30
0.0
 11
398.5248956520132
 21
217.3641540227792
 31
0.0
  0
LINE
  5
42E9
330
A
100
AcDbEntity
  8
モデル
100
AcDbLine
 10
401.4876797238604
 20
209.7435977821685
 30
0.0
 11
363.8103680939122
 21
209.7435977821685
 31
0.0
  0
LINE
  5
42EA
330
A
100
AcDbEntity
  8
モデル
100
AcDbLine
 10
363.8103680939122
 20
209.7435977821685
 30
0.0
 11
363.8103680939122
 21
260.9653112475423
 31
0.0
  0
LINE
  5
42EB
330
A
100
AcDbEntity
  8
モデル
100
AcDbLine
 10
363.8103680939122
 20
260.9653112475423
 30
0.0
 11
401.4876797238604
 21
260.9653112475423
 31
0.0
  0
LINE
  5
42EC
330
A
100
AcDbEntity
  8
モデル
100
AcDbLine
 10
401.4876797238604
 20
260.9653112475423
 30
0.0
 11
401.4876797238604
 21
209.7435977821685
 31
0.0
  0
LINE
  5
42ED
330
A
100
AcDbEntity
  8
モデル
100
AcDbLine
 10
379.0514805751341
 20
249.5379219843832
 30
0.0
 11
379.0514805751341
 21
256.3109841765362
 31
0.0
  0
LINE
  5
42EE
330
A
100
AcDbEntity
  8
モデル
100
AcDbLine
 10
379.0514805751341
 20
256.3109841765362
 30
0.0
 11
386.246567242637
 21
256.3109841765362
 31
0.0
  0
LINE
  5
42EF
330
A
100
AcDbEntity
  8
モデル
100
AcDbLine
 10
386.246567242637
 20
256.3109841765362
 30
0.0
 11
386.246567242637
 21
249.5379219843832
 31
0.0
  0
DIMENSION
  5
42F0
102
{ACAD_REACTORS
330
42F2
102
}
102
{ACAD_XDICTIONARY
360
42F1
102
}
330
A
100
AcDbEntity
  8
寸法
100
AcDbDimension
  2
*D97
 10
421.9344959999999
 20
217.3641540227792
 30
0.0
 11
421.9344959999999
 21
233.4510380035813
 31
0.0
 70
   160
 71
     5
 42
32.173767961604
 73
     0
 74
     0
 75
     0
  3
tfrom線あり
100
AcDbAlignedDimension
 13
398.5248956520132
 23
249.5379219843832
 33
0.0
 14
398.5248956520132
 24
217.3641540227792
 34
0.0
 50
90.0
100
AcDbRotatedDimension
  0
DIMENSION
  5
42F3
102
{ACAD_REACTORS
330
42F5
102
}
102
{ACAD_XDICTIONARY
360
42F4
102
}
330
A
100
AcDbEntity
  8
寸法
100
AcDbDimension
  2
*D98
 10
398.5248956520132
 20
189.2257142857142
 30
0.0
 11
382.6490239088862
 21
196.7257142857142
 31
0.0
 70
    32
 71
     5
 42
31.75174348625393
 73
     0
 74
     0
 75
     0
  3
tfrom線あり
100
AcDbAlignedDimension
 13
366.7731521657593
 23
217.3641540227792
 33
0.0
 14
398.5248956520132
 24
217.3641540227792
 34
0.0
100
AcDbRotatedDimension
  0
DIMENSION
  5
42F6
102
{ACAD_REACTORS
330
42F8
102
}
102
{ACAD_XDICTIONARY
360
42F7
102
}
330
A
100
AcDbEntity
  8
寸法
100
AcDbDimension
  2
*D99
 10
285.9876316605008
 20
209.7435977821685
 30
0.0
 11
285.9876316605008
 21
213.8666632532814
 31
0.0
 70
   160
 71
     5
 42
7.620556240610682
 73
     0
 74
     0
 75
     0
  3
tfrom線あり
100
AcDbAlignedDimension
 13
303.6968573152386
 23
217.3641540227792
 33
0.0
 14
308.7783765082321
 24
209.7435977821685
 34
0.0
 50
90.0
100
AcDbRotatedDimension
  0
DIMENSION
  5
42F9
102
{ACAD_REACTORS
330
42FB
102
}
102
{ACAD_XDICTIONARY
360
42FA
102
}
330
A
100
AcDbEntity
  8
寸法
100
AcDbDimension
  2
*D100
 10
285.9876316605008
 20
249.4653112475422
 30
0.0
 11
285.9876316605008
 21
256.0642883602403
 31
0.0
 70
   160
 71
     5
 42
11.50000000000009
 73
     0
 74
     0
 75
     0
  3
tfrom線あり
100
AcDbAlignedDimension
 13
308.7783765082321
 23
260.9653112475423
 33
0.0
 14
302.4618801936452
 24
249.4653112475422
 34
0.0
 50
90.0
100
AcDbRotatedDimension
1001
ACAD
1000
DSTYLE
1002
{
1070
   271
1070
     1
1002
}
  0
DIMENSION
  5
42FC
102
{ACAD_REACTORS
330
42FE
102
}
102
{ACAD_XDICTIONARY
360
42FD
102
}
330
A
100
AcDbEntity
  8
寸法
100
AcDbDimension
  2
*D101
 10
304.3564506034678
 20
271.7728933270644
 30
0.0
 11
309.3965331796896
 21
271.7728933270644
 31
0.0
 70
   160
 71
     5
 42
9.5
 73
     0
 74
     0
 75
     0
  3
tfrom線あり
100
AcDbAlignedDimension
 13
313.8564506034678
 23
260.9653112475423
 33
0.0
 14
304.3564506034678
 24
252.2055039242638
 34
0.0
100
AcDbRotatedDimension
1001
ACAD
1000
DSTYLE
1002
{
1070
   271
1070
     1
1002
}
  0
DIMENSION
  5
4302
102
{ACAD_REACTORS
330
4304
102
}
102
{ACAD_XDICTIONARY
360
4303
102
}
330
A
100
AcDbEntity
  8
寸法
100
AcDbDimension
  2
*D103
 10
135.3961426285715
 20
209.7435977821685
 30
0.0
 11
135.3961426285715
 21
235.3544545148554
 31
0.0
 70
   160
 71
     5
 42
51.22171346537377
 73
     0
 74
     0
 75
     0
  3
tfrom線あり
100
AcDbAlignedDimension
 13
161.4591061822744
 23
260.9653112475423
 33
0.0
 14
161.4591061822744
 24
209.7435977821685
 34
0.0
 50
90.0
100
AcDbRotatedDimension
  0
DIMENSION
  5
4305
330
A
100
AcDbEntity
  8
寸法
100
AcDbDimension
  2
*D104
 10
223.6092304457143
 20
214.5211351397718
 30
0.0
 11
223.6092304457143
 21
235.5211351397717
 31
0.0
 70
   160
 71
     5
 42
41.99999999999989
 73
     0
 74
     0
 75
     0
  3
tfrom線あり
100
AcDbAlignedDimension
 13
201.2677950965751
 23
256.5211351397717
 33
0.0
 14
201.2677950965751
 24
214.5211351397718
 34
0.0
 50
90.0
100
AcDbRotatedDimension
  0
DIMENSION
  5
4306
330
A
100
AcDbEntity
  8
寸法
100
AcDbDimension
  2
*D105
 10
199.4591061822744
 20
189.2257142857142
 30
0.0
 11
181.5716104104349
 21
189.2257142857142
 31
0.0
 70
   160
 71
     5
 42
38.0
 73
     0
 74
     0
 75
     0
  3
tfrom線あり
100
AcDbAlignedDimension
 13
161.4591061822744
 23
209.7435977821685
 33
0.0
 14
199.4591061822744
 24
209.7435977821685
 34
0.0
100
AcDbRotatedDimension
  0
DIMENSION
  5
4307
102
{ACAD_REACTORS
330
4309
102
}
102
{ACAD_XDICTIONARY
360
4308
102
}
330
A
100
AcDbEntity
  8
寸法
100
AcDbDimension
  2
*D106
 10
308.7783765082321
 20
189.2257142857142
 30
0.0
 11
311.31741355585
 21
189.2257142857142
 31
0.0
 70
   160
 71
     5
 42
5.078074095235706
 73
     0
 74
     0
 75
     0
  3
tfrom線あり
100
AcDbAlignedDimension
 13
313.8564506034678
 23
209.7435977821685
 33
0.0
 14
308.7783765082321
 24
209.7435977821685
 34
0.0
100
AcDbRotatedDimension
  0
DIMENSION
  5
4391
330
A
100
AcDbEntity
  8
TFORMLOGO
100
AcDbDimension
  2
*D107
 10
193.5833046618152
 20
272.3742800320888
 30
0.0
 11
180.0833046618152
 21
279.8742800320888
 31
0.0
 70
    32
  1
28
 71
     5
 42
27.0
 73
     0
 74
     0
 75
     0
  3
tfrom線あり
100
AcDbAlignedDimension
 13
166.5833046618152
 23
258.4262741999244
 33
0.0
 14
193.5833046618152
 24
258.4262741999244
 34
0.0
100
AcDbRotatedDimension
  0
TEXT
  5
43FA
330
A
100
AcDbEntity
  8
テンプレート
100
AcDbText
 10
192.6640855805966
 20
77.17630111113886
 30
0.0
 40
5.0
  1
　 加工は現物合わせの上行って下さい。
  7
ＭＳ ゴシック
100
AcDbText
  0
TEXT
  5
43FB
330
A
100
AcDbEntity
  8
テンプレート
100
AcDbText
 10
192.8363286628052
 20
85.28008520727872
 30
0.0
 40
5.0
  1
※ 輸入製品の為、国内製品と比べ製品寸法の個体差に幅が有ります。
  7
ＭＳ ゴシック
100
AcDbText
  0
DIMENSION
  5
4429
102
{ACAD_REACTORS
330
442B
102
}
102
{ACAD_XDICTIONARY
360
442A
102
}
330
A
100
AcDbEntity
  8
寸法
100
AcDbDimension
  2
*D108
 10
304.2783765082321
 20
189.2257142857142
 30
0.0
 11
290.6983765082321
 21
189.2257142857142
 31
0.0
 70
   160
 71
     5
 42
4.5
 73
     0
 74
     0
 75
     0
  3
tfrom線あり
100
AcDbAlignedDimension
 13
308.7783765082321
 23
209.7435977821685
 33
0.0
 14
304.2783765082321
 24
209.7435977821685
 34
0.0
100
AcDbRotatedDimension
1001
ACAD
1000
DSTYLE
1002
{
1070
   172
1070
     1
1070
   271
1070
     1
1002
}
  0
TEXT
  5
4579
330
A
100
AcDbEntity
  8
テンプレート
100
AcDbText
 10
450.8318944
 20
51.97072719999994
 30
0.0
 40
5.5
  1
木製用ビス付
  7
ＭＳ ゴシック
100
AcDbText
  0
VIEWPORT
  5
349
330
B
100
AcDbEntity
 67
     1
  8
0
100
AcDbViewport
 10
202.5
 20
128.5
 30
0.0
 40
486.0
 41
308.4
 68
     1
 69
     1
 12
202.5
 22
128.5
 13
0.0
 23
0.0
 14
0.5
 24
0.5
 15
0.0
 25
0.0
 16
0.0
 26
0.0
 36
1.0
 17
0.0
 27
0.0
 37
0.0
 42
50.0
 43
0.0
 44
0.0
 45
308.4
 50
0.0
 51
0.0
 72
   100
 90
   557152
  1

281
     0
 71
     1
 74
     0
110
0.0
120
0.0
130
0.0
111
1.0
121
0.0
131
0.0
112
0.0
122
1.0
132
0.0
 79
     0
146
0.0
170
     0
 61
     5
348
26C
292
     1
282
     1
141
0.0
142
0.0
 63
   256
  0
VIEWPORT
  5
34A
330
B
100
AcDbEntity
 67
     1
  8
0
100
AcDbViewport
 10
202.5
 20
128.5
 30
0.0
 40
324.0
 41
205.6
 68
     2
 69
     2
 12
986.6781359294573
 22
1427.077061889956
 13
0.0
 23
0.0
 14
0.5
 24
0.5
 15
0.0
 25
0.0
 16
0.0
 26
0.0
 36
1.0
 17
0.0
 27
0.0
 37
0.0
 42
50.0
 43
0.0
 44
0.0
 45
2890.021615685494
 50
0.0
 51
0.0
 72
   100
 90
   557152
  1

281
     0
 71
     1
 74
     0
110
0.0
120
0.0
130
0.0
111
1.0
121
0.0
131
0.0
112
0.0
122
1.0
132
0.0
 79
     0
146
0.0
170
     0
 61
     5
348
26C
292
     1
282
     1
141
0.0
142
0.0
 63
   256
  0
ENDSEC
  0
SECTION
  2
OBJECTS
  0
DICTIONARY
  5
19
330
0
100
AcDbDictionary
281
     1
  3
ACAD_COLOR
350
674
  3
ACAD_DETAILVIEWSTYLE
350
12F4
  3
ACAD_GROUP
350
1A
  3
ACAD_IMAGE_VARS
350
27B
  3
ACAD_LAYOUT
350
1E
  3
ACAD_MATERIAL
350
263
  3
ACAD_MLEADERSTYLE
350
336
  3
ACAD_MLINESTYLE
350
1B
  3
ACAD_PLOTSETTINGS
350
22
  3
ACAD_PLOTSTYLENAME
350
1F
  3
ACAD_SCALELIST
350
241
  3
ACAD_SECTIONVIEWSTYLE
350
12F5
  3
ACAD_TABLESTYLE
350
278
  3
ACAD_VISUALSTYLE
350
267
  3
ACDB_RECOMPOSE_DATA
350
459E
  3
AcDbVariableDictionary
350
330
  3
AcStStandard
350
12B9
  3
APPDATA
350
27A
  0
SUN
  5
10E8
330
15
100
AcDbSun
 90
        1
290
     0
 63
     7
421
 16777215
 40
1.0
291
     1
 91
  2455826
 92
 54000000
292
     0
 70
     2
 71
   256
280
     1
  0
DICTIONARY
  5
2E1
330
2
100
AcDbDictionary
280
     1
281
     1
  3
ACAD_LAYERSTATES
360
2E2
  3
ACLYDICTIONARY
360
3863
  0
DICTIONARY
  5
42F1
330
42F0
100
AcDbDictionary
280
     1
281
     1
  3
ACAD_DIMASSOC
360
42F2
  0
DICTIONARY
  5
42F4
330
42F3
100
AcDbDictionary
280
     1
281
     1
  3
ACAD_DIMASSOC
360
42F5
  0
DICTIONARY
  5
42F7
330
42F6
100
AcDbDictionary
280
     1
281
     1
  3
ACAD_DIMASSOC
360
42F8
  0
DICTIONARY
  5
42FA
330
42F9
100
AcDbDictionary
280
     1
281
     1
  3
ACAD_DIMASSOC
360
42FB
  0
DICTIONARY
  5
42FD
330
42FC
100
AcDbDictionary
280
     1
281
     1
  3
ACAD_DIMASSOC
360
42FE
  0
DICTIONARY
  5
4303
330
4302
100
AcDbDictionary
280
     1
281
     1
  3
ACAD_DIMASSOC
360
4304
  0
DICTIONARY
  5
4308
330
4307
100
AcDbDictionary
280
     1
281
     1
  3
ACAD_DIMASSOC
360
4309
  0
DICTIONARY
  5
442A
330
4429
100
AcDbDictionary
280
     1
281
     1
  3
ACAD_DIMASSOC
360
442B
  0
DICTIONARY
  5
674
102
{ACAD_REACTORS
330
19
102
}
330
19
100
AcDbDictionary
281
     1
  0
DICTIONARY
  5
12F4
102
{ACAD_REACTORS
330
19
102
}
330
19
100
AcDbDictionary
281
     1
  0
DICTIONARY
  5
1A
102
{ACAD_REACTORS
330
19
102
}
330
19
100
AcDbDictionary
281
     1
  0
RASTERVARIABLES
  5
27B
102
{ACAD_REACTORS
330
19
102
}
330
19
100
AcDbRasterVariables
 90
        0
 70
     1
 71
     1
 72
     1
  0
DICTIONARY
  5
1E
102
{ACAD_REACTORS
330
19
102
}
330
19
100
AcDbDictionary
281
     1
  3
Layout1
350
21
  3
Layout2
350
12C4
  3
Model
350
20
  0
DICTIONARY
  5
263
102
{ACAD_REACTORS
330
19
102
}
330
19
100
AcDbDictionary
281
     1
  3
ByBlock
350
385B
  3
ByLayer
350
264
  3
Global
350
266
  0
DICTIONARY
  5
336
102
{ACAD_REACTORS
330
19
102
}
330
19
100
AcDbDictionary
281
     1
  3
Standard
350
43BD
  0
DICTIONARY
  5
1B
102
{ACAD_REACTORS
330
19
102
}
330
19
100
AcDbDictionary
281
     1
  3
Standard
350
1C
  0
DICTIONARY
  5
22
102
{ACAD_REACTORS
330
19
102
}
330
19
100
AcDbDictionary
281
     1
  0
ACDBDICTIONARYWDFLT
  5
1F
102
{ACAD_REACTORS
330
19
102
}
330
19
100
AcDbDictionary
281
     1
  3
Normal
350
1D
100
AcDbDictionaryWithDefault
340
1D
  0
DICTIONARY
  5
241
102
{ACAD_REACTORS
330
19
102
}
330
19
100
AcDbDictionary
281
     1
  3
A0
350
242
  3
A1
350
243
  3
A2
350
244
  3
A3
350
245
  3
A4
350
246
  3
A5
350
247
  3
A6
350
248
  3
A7
350
249
  3
A8
350
24A
  3
A9
350
24B
  3
B0
350
24C
  3
B1
350
24D
  3
B2
350
24E
  3
B3
350
24F
  3
B4
350
250
  3
B5
350
251
  3
B6
350
252
  3
B7
350
253
  3
B8
350
254
  3
B9
350
255
  3
C0
350
256
  3
C1
350
257
  3
C2
350
258
  3
C3
350
259
  3
C4
350
25A
  3
C5
350
25B
  3
C6
350
25C
  3
C7
350
25D
  3
C8
350
25E
  3
C9
350
25F
  3
D0
350
260
  3
D1
350
261
  3
D2
350
262
  0
DICTIONARY
  5
12F5
102
{ACAD_REACTORS
330
19
102
}
330
19
100
AcDbDictionary
281
     1
  0
DICTIONARY
  5
278
102
{ACAD_REACTORS
330
19
102
}
330
19
100
AcDbDictionary
281
     1
  3
Standard
350
279
  0
DICTIONARY
  5
267
102
{ACAD_REACTORS
330
19
102
}
330
19
100
AcDbDictionary
281
     1
  3
2dWireframe
350
26C
  3
3D Hidden
350
26E
  3
3dWireframe
350
26D
  3
Basic
350
26F
  3
Brighten
350
273
  3
ColorChange
350
277
  3
Conceptual
350
271
  3
Dim
350
272
  3
EdgeColorOff
350
10E2
  3
Facepattern
350
276
  3
Flat
350
268
  3
FlatWithEdges
350
269
  3
Gouraud
350
26A
  3
GouraudWithEdges
350
26B
  3
Hidden
350
10DF
  3
JitterOff
350
10E0
  3
Linepattern
350
275
  3
OverhangOff
350
10E1
  3
Realistic
350
270
  3
Shaded
350
10E7
  3
Shaded with edges
350
10E6
  3
Shades of Gray
350
10E3
  3
Sketchy
350
10E4
  3
Thicken
350
274
  3
Wireframe
350
10DE
  3
X-Ray
350
10E5
  0
XRECORD
  5
459E
102
{ACAD_REACTORS
330
19
102
}
330
19
100
AcDbXrecord
280
     1
 90
        1
330
279
  0
DICTIONARY
  5
330
102
{ACAD_REACTORS
330
19
102
}
330
19
100
AcDbDictionary
281
     1
  3
CANNOSCALE
350
331
  3
CMLEADERSTYLE
350
43C2
  3
CTABLESTYLE
350
335
  3
XCLIPFRAME
350
109E
  0
DICTIONARY
  5
12B9
102
{ACAD_REACTORS
330
19
102
}
330
19
100
AcDbDictionary
281
     1
  0
DICTIONARY
  5
27A
102
{ACAD_REACTORS
330
19
102
}
330
19
100
AcDbDictionary
281
     1
  0
DICTIONARY
  5
2E2
102
{ACAD_REACTORS
330
2E1
102
}
330
2E1
100
AcDbDictionary
281
     1
  3
ARGON_LAYERP_6
350
10DB
  3
ARGON_LAYERP_7
350
DEA
  3
ARGON_LAYERP_8
350
C70
  3
ARGON_LAYERP_9
350
7AA
  0
DICTIONARY
  5
3863
102
{ACAD_REACTORS
330
2E1
102
}
330
2E1
100
AcDbDictionary
281
     1
1001
ACAD
1000
<All
  0
DIMASSOC
  5
42F2
102
{ACAD_REACTORS
330
42F1
102
}
330
42F1
100
AcDbDimAssoc
330
42F0
 90
        3
 70
     0
 71
     1
  1
AcDbOsnapPointRef
 72
     1
331
42E7
 73
     0
 91
        0
 40
0.0
 10
0.0
 20
0.0
 30
0.0
 75
     0
  1
AcDbOsnapPointRef
 72
    13
331
42E5
 73
     0
 91
        0
 40
0.0
 10
0.0
 20
0.0
 30
0.0
 75
     0
  0
DIMASSOC
  5
42F5
102
{ACAD_REACTORS
330
42F4
102
}
330
42F4
100
AcDbDimAssoc
330
42F3
 90
        3
 70
     0
 71
     1
  1
AcDbOsnapPointRef
 72
     1
331
42E5
 73
     0
 91
        0
 40
0.0
 10
0.0
 20
0.0
 30
0.0
 75
     0
  1
AcDbOsnapPointRef
 72
    13
331
42E5
 73
     0
 91
        0
 40
0.0
 10
0.0
 20
0.0
 30
0.0
 75
     0
  0
DIMASSOC
  5
42F8
102
{ACAD_REACTORS
330
42F7
102
}
330
42F7
100
AcDbDimAssoc
330
42F6
 90
        3
 70
     0
 71
     1
  1
AcDbOsnapPointRef
 72
    13
331
42D7
 73
     0
 91
        0
 40
0.0
 10
0.0
 20
0.0
 30
0.0
 75
     0
  1
AcDbOsnapPointRef
 72
    13
331
42E0
 73
     0
 91
        0
 40
0.0
 10
0.0
 20
0.0
 30
0.0
 75
     0
  0
DIMASSOC
  5
42FB
102
{ACAD_REACTORS
330
42FA
102
}
330
42FA
100
AcDbDimAssoc
330
42F9
 90
        1
 70
     0
 71
     1
  1
AcDbOsnapPointRef
 72
     1
331
42DE
 73
     0
 91
        0
 40
0.0
 10
0.0
 20
0.0
 30
0.0
 75
     0
  0
DIMASSOC
  5
42FE
102
{ACAD_REACTORS
330
42FD
102
}
330
42FD
100
AcDbDimAssoc
330
42FC
 90
        1
 70
     0
 71
     1
  1
AcDbOsnapPointRef
 72
    13
331
42DE
 73
     0
 91
        0
 40
0.0
 10
0.0
 20
0.0
 30
0.0
 75
     0
  0
DIMASSOC
  5
4304
102
{ACAD_REACTORS
330
4303
102
}
330
4303
100
AcDbDimAssoc
330
4302
 90
        3
 70
     0
 71
     1
  1
AcDbOsnapPointRef
 72
    13
331
42CC
 73
     0
 91
        0
 40
0.0
 10
0.0
 20
0.0
 30
0.0
 75
     0
  1
AcDbOsnapPointRef
 72
     1
331
42CE
 73
     0
 91
        0
 40
0.0
 10
0.0
 20
0.0
 30
0.0
 75
     0
  0
DIMASSOC
  5
4309
102
{ACAD_REACTORS
330
4308
102
}
330
4308
100
AcDbDimAssoc
330
4307
 90
        3
 70
     0
 71
     1
  1
AcDbOsnapPointRef
 72
     1
331
42E0
 73
     0
 91
        0
 40
0.0
 10
0.0
 20
0.0
 30
0.0
 75
     0
  1
AcDbOsnapPointRef
 72
    13
331
42E0
 73
     0
 91
        0
 40
0.0
 10
0.0
 20
0.0
 30
0.0
 75
     0
  0
DIMASSOC
  5
442B
102
{ACAD_REACTORS
330
442A
102
}
330
442A
100
AcDbDimAssoc
330
4429
 90
        1
 70
     0
 71
     1
  1
AcDbOsnapPointRef
 72
     1
331
42DF
 73
     0
 91
        0
 40
0.0
 10
0.0
 20
0.0
 30
0.0
 75
     0
  0
LAYOUT
  5
21
102
{ACAD_REACTORS
330
1E
102
}
330
1E
100
AcDbPlotSettings
  1

  2
none_device
  4
ISO_A3_(420.00_x_297.00_MM)
  6

 40
7.5
 41
20.0
 42
7.5
 43
20.0
 44
420.0
 45
297.0
 46
0.0
 47
0.0
 48
0.0
 49
0.0
140
0.0
141
0.0
142
1.0
143
1.0
 70
     0
 72
     1
 73
     0
 74
     0
  7

 75
     0
 76
     0
 77
     2
 78
   300
147
1.0
148
0.0
149
0.0
100
AcDbLayout
  1
Layout1
 70
     0
 71
     0
 10
-7.5
 20
-20.0
 11
412.5
 21
277.0
 12
0.0
 22
0.0
 32
0.0
 14
0.0
 24
0.0
 34
0.0
 15
0.0
 25
0.0
 35
0.0
146
0.0
 13
0.0
 23
0.0
 33
0.0
 16
0.0
 26
0.0
 36
0.0
 17
0.0
 27
0.0
 37
0.0
 76
     0
330
B
331
349
  0
LAYOUT
  5
12C4
102
{ACAD_REACTORS
330
1E
102
}
330
1E
100
AcDbPlotSettings
  1

  2
none_device
  4

  6

 40
0.0
 41
0.0
 42
0.0
 43
0.0
 44
0.0
 45
0.0
 46
0.0
 47
0.0
 48
0.0
 49
0.0
140
0.0
141
0.0
142
1.0
143
1.0
 70
   688
 72
     1
 73
     0
 74
     5
  7

 75
    16
 76
     0
 77
     2
 78
   300
147
1.0
148
0.0
149
0.0
100
AcDbLayout
  1
Layout2
 70
     1
 71
     2
 10
0.0
 20
0.0
 11
0.0
 21
0.0
 12
0.0
 22
0.0
 32
0.0
 14
0.0
 24
0.0
 34
0.0
 15
0.0
 25
0.0
 35
0.0
146
0.0
 13
0.0
 23
0.0
 33
0.0
 16
1.0
 26
0.0
 36
0.0
 17
0.0
 27
1.0
 37
0.0
 76
     0
330
12C3
  0
LAYOUT
  5
20
102
{ACAD_REACTORS
330
1E
102
}
330
1E
100
AcDbPlotSettings
  1

  2
none_device
  4
ISO_A3_(420.00_x_297.00_MM)
  6

 40
7.5
 41
20.0
 42
7.5
 43
20.0
 44
420.0
 45
297.0
 46
0.0
 47
0.0
 48
0.0
 49
0.0
140
0.0
141
0.0
142
1.0
143
1.0
 70
  1024
 72
     1
 73
     0
 74
     0
  7

 75
     0
 76
     0
 77
     2
 78
   300
147
1.0
148
0.0
149
0.0
100
AcDbLayout
  1
Model
 70
     0
 71
     1
 10
0.0
 20
0.0
 11
593.9999999999999
 21
420.0
 12
0.0
 22
0.0
 32
0.0
 14
0.0
 24
0.0
 34
0.0
 15
593.9999999999999
 25
420.0
 35
0.0
146
0.0
 13
0.0
 23
0.0
 33
0.0
 16
0.0
 26
0.0
 36
0.0
 17
0.0
 27
0.0
 37
0.0
 76
     0
330
A
331
15
  0
MATERIAL
  5
385B
102
{ACAD_REACTORS
330
263
102
}
330
263
100
AcDbMaterial
  1
ByBlock
 72
     1
 94
      127
  0
MATERIAL
  5
264
102
{ACAD_REACTORS
330
263
102
}
330
263
100
AcDbMaterial
  1
ByLayer
 72
     1
 94
      127
  0
MATERIAL
  5
266
102
{ACAD_REACTORS
330
263
102
}
330
263
100
AcDbMaterial
  1
Global
 72
     1
 94
      127
  0
MLEADERSTYLE
  5
43BD
102
{ACAD_REACTORS
330
336
102
}
330
336
100
AcDbMLeaderStyle
170
     2
171
     1
172
     0
 90
        2
 40
0.0
 41
0.0
173
     1
 91
-1056964608
340
11
 92
       -2
290
     1
 42
2.0
291
     1
 43
8.0
  3
Standard
341
0
 44
4.0
300

342
17
174
     1
178
     6
175
     1
176
     0
 93
-1056964608
 45
4.0
292
     0
297
     0
 46
4.0
343
0
 94
-1056964608
 47
1.0
 49
1.0
140
1.0
293
     1
141
0.0
294
     1
177
     0
142
1.0
295
     0
296
     0
143
3.75
1001
ACAD_MLEADERVER
1070
     2
  0
MLINESTYLE
  5
1C
102
{ACAD_REACTORS
330
1B
102
}
330
1B
100
AcDbMlineStyle
  2
Standard
 70
     0
  3

 62
     0
 51
90.0
 52
90.0
 71
     2
 49
0.5
 62
   256
  6
BYLAYER
 49
-0.5
 62
   256
  6
BYLAYER
  0
ACDBPLACEHOLDER
  5
1D
102
{ACAD_REACTORS
330
1F
102
}
330
1F
  0
SCALE
  5
242
102
{ACAD_REACTORS
330
241
102
}
330
241
100
AcDbScale
 70
     0
300
1:1
140
1.0
141
1.0
290
     1
  0
SCALE
  5
243
102
{ACAD_REACTORS
330
241
102
}
330
241
100
AcDbScale
 70
     0
300
1:2
140
1.0
141
2.0
290
     0
  0
SCALE
  5
244
102
{ACAD_REACTORS
330
241
102
}
330
241
100
AcDbScale
 70
     0
300
1:4
140
1.0
141
4.0
290
     0
  0
SCALE
  5
245
102
{ACAD_REACTORS
330
241
102
}
330
241
100
AcDbScale
 70
     0
300
1:5
140
1.0
141
5.0
290
     0
  0
SCALE
  5
246
102
{ACAD_REACTORS
330
241
102
}
330
241
100
AcDbScale
 70
     0
300
1:8
140
1.0
141
8.0
290
     0
  0
SCALE
  5
247
102
{ACAD_REACTORS
330
241
102
}
330
241
100
AcDbScale
 70
     0
300
1:10
140
1.0
141
10.0
290
     0
  0
SCALE
  5
248
102
{ACAD_REACTORS
330
241
102
}
330
241
100
AcDbScale
 70
     0
300
1:16
140
1.0
141
16.0
290
     0
  0
SCALE
  5
249
102
{ACAD_REACTORS
330
241
102
}
330
241
100
AcDbScale
 70
     0
300
1:20
140
1.0
141
20.0
290
     0
  0
SCALE
  5
24A
102
{ACAD_REACTORS
330
241
102
}
330
241
100
AcDbScale
 70
     0
300
1:30
140
1.0
141
30.0
290
     0
  0
SCALE
  5
24B
102
{ACAD_REACTORS
330
241
102
}
330
241
100
AcDbScale
 70
     0
300
1:40
140
1.0
141
40.0
290
     0
  0
SCALE
  5
24C
102
{ACAD_REACTORS
330
241
102
}
330
241
100
AcDbScale
 70
     0
300
1:50
140
1.0
141
50.0
290
     0
  0
SCALE
  5
24D
102
{ACAD_REACTORS
330
241
102
}
330
241
100
AcDbScale
 70
     0
300
1:100
140
1.0
141
100.0
290
     0
  0
SCALE
  5
24E
102
{ACAD_REACTORS
330
241
102
}
330
241
100
AcDbScale
 70
     0
300
2:1
140
2.0
141
1.0
290
     0
  0
SCALE
  5
24F
102
{ACAD_REACTORS
330
241
102
}
330
241
100
AcDbScale
 70
     0
300
4:1
140
4.0
141
1.0
290
     0
  0
SCALE
  5
250
102
{ACAD_REACTORS
330
241
102
}
330
241
100
AcDbScale
 70
     0
300
8:1
140
8.0
141
1.0
290
     0
  0
SCALE
  5
251
102
{ACAD_REACTORS
330
241
102
}
330
241
100
AcDbScale
 70
     0
300
10:1
140
10.0
141
1.0
290
     0
  0
SCALE
  5
252
102
{ACAD_REACTORS
330
241
102
}
330
241
100
AcDbScale
 70
     0
300
100:1
140
100.0
141
1.0
290
     0
  0
SCALE
  5
253
102
{ACAD_REACTORS
330
241
102
}
330
241
100
AcDbScale
 70
     0
300
1/128" = 1'-0"
140
0.0078125
141
12.0
290
     0
  0
SCALE
  5
254
102
{ACAD_REACTORS
330
241
102
}
330
241
100
AcDbScale
 70
     0
300
1/64" = 1'-0"
140
0.015625
141
12.0
290
     0
  0
SCALE
  5
255
102
{ACAD_REACTORS
330
241
102
}
330
241
100
AcDbScale
 70
     0
300
1/32" = 1'-0"
140
0.03125
141
12.0
290
     0
  0
SCALE
  5
256
102
{ACAD_REACTORS
330
241
102
}
330
241
100
AcDbScale
 70
     0
300
1/16" = 1'-0"
140
0.0625
141
12.0
290
     0
  0
SCALE
  5
257
102
{ACAD_REACTORS
330
241
102
}
330
241
100
AcDbScale
 70
     0
300
3/32" = 1'-0"
140
0.09375
141
12.0
290
     0
  0
SCALE
  5
258
102
{ACAD_REACTORS
330
241
102
}
330
241
100
AcDbScale
 70
     0
300
1/8" = 1'-0"
140
0.125
141
12.0
290
     0
  0
SCALE
  5
259
102
{ACAD_REACTORS
330
241
102
}
330
241
100
AcDbScale
 70
     0
300
3/16" = 1'-0"
140
0.1875
141
12.0
290
     0
  0
SCALE
  5
25A
102
{ACAD_REACTORS
330
241
102
}
330
241
100
AcDbScale
 70
     0
300
1/4" = 1'-0"
140
0.25
141
12.0
290
     0
  0
SCALE
  5
25B
102
{ACAD_REACTORS
330
241
102
}
330
241
100
AcDbScale
 70
     0
300
3/8" = 1'-0"
140
0.375
141
12.0
290
     0
  0
SCALE
  5
25C
102
{ACAD_REACTORS
330
241
102
}
330
241
100
AcDbScale
 70
     0
300
1/2" = 1'-0"
140
0.5
141
12.0
290
     0
  0
SCALE
  5
25D
102
{ACAD_REACTORS
330
241
102
}
330
241
100
AcDbScale
 70
     0
300
3/4" = 1'-0"
140
0.75
141
12.0
290
     0
  0
SCALE
  5
25E
102
{ACAD_REACTORS
330
241
102
}
330
241
100
AcDbScale
 70
     0
300
1" = 1'-0"
140
1.0
141
12.0
290
     0
  0
SCALE
  5
25F
102
{ACAD_REACTORS
330
241
102
}
330
241
100
AcDbScale
 70
     0
300
1-1/2" = 1'-0"
140
1.5
141
12.0
290
     0
  0
SCALE
  5
260
102
{ACAD_REACTORS
330
241
102
}
330
241
100
AcDbScale
 70
     0
300
3" = 1'-0"
140
3.0
141
12.0
290
     0
  0
SCALE
  5
261
102
{ACAD_REACTORS
330
241
102
}
330
241
100
AcDbScale
 70
     0
300
6" = 1'-0"
140
6.0
141
12.0
290
     0
  0
SCALE
  5
262
102
{ACAD_REACTORS
330
241
102
}
330
241
100
AcDbScale
 70
     0
300
1'-0" = 1'-0"
140
12.0
141
12.0
290
     0
  0
TABLESTYLE
  5
279
102
{ACAD_REACTORS
330
278
102
}
102
{ACAD_XDICTIONARY
360
459C
102
}
330
278
100
AcDbTableStyle
  3
Standard
 70
     0
 71
     0
 40
0.06
 41
0.06
280
     0
281
     0
  7
Standard
140
4.5
170
     2
 62
     0
 63
   257
283
     0
 90
        4
 91
        0
  1

274
    -2
284
     1
 64
     0
275
    -2
285
     1
 65
     0
276
    -2
286
     1
 66
     0
277
    -2
287
     1
 67
     0
278
    -2
288
     1
 68
     0
279
    -2
289
     1
 69
     0
  7
Standard
140
6.0
170
     5
 62
     0
 63
   257
283
     0
 90
        4
 91
        0
  1

274
    -2
284
     1
 64
     0
275
    -2
285
     1
 65
     0
276
    -2
286
     1
 66
     0
277
    -2
287
     1
 67
     0
278
    -2
288
     1
 68
     0
279
    -2
289
     1
 69
     0
  7
Standard
140
4.5
170
     5
 62
     0
 63
   257
283
     0
 90
        4
 91
        0
  1

274
    -2
284
     1
 64
     0
275
    -2
285
     1
 65
     0
276
    -2
286
     1
 66
     0
277
    -2
287
     1
 67
     0
278
    -2
288
     1
 68
     0
279
    -2
289
     1
 69
     0
  0
VISUALSTYLE
  5
26C
102
{ACAD_REACTORS
330
267
102
}
330
267
100
AcDbVisualStyle
  2
2dWireframe
 70
     4
 71
     0
 72
     2
 73
     0
 90
        0
 40
-0.6
 41
-30.0
 62
     5
 63
     7
421
 16777215
 74
     1
 91
        4
 64
     7
 65
   257
 75
     1
175
     1
 42
1.0
 92
        0
 66
   257
 43
1.0
 76
     1
 77
     6
 78
     2
 67
     7
 79
     5
170
     0
171
     0
290
     0
174
     0
 93
        1
 44
0.0
173
     0
291
     0
 45
0.0
  0
VISUALSTYLE
  5
26E
102
{ACAD_REACTORS
330
267
102
}
330
267
100
AcDbVisualStyle
  2
3D Hidden
 70
     6
 71
     1
 72
     2
 73
     2
 90
        0
 40
-0.6
 41
-30.0
 62
     5
 63
     7
421
 16777215
 74
     2
 91
        2
 64
     7
 65
   257
 75
     2
175
     1
 42
40.0
 92
        0
 66
   257
 43
1.0
 76
     1
 77
     6
 78
     2
 67
     7
 79
     3
170
     0
171
     0
290
     0
174
     0
 93
        1
 44
0.0
173
     0
291
     0
 45
0.0
  0
VISUALSTYLE
  5
26D
102
{ACAD_REACTORS
330
267
102
}
330
267
100
AcDbVisualStyle
  2
3dWireframe
 70
     5
 71
     0
 72
     2
 73
     0
 90
        0
 40
-0.6
 41
-30.0
 62
     5
 63
     7
421
 16777215
 74
     1
 91
        4
 64
     7
 65
   257
 75
     1
175
     1
 42
1.0
 92
        0
 66
   257
 43
1.0
 76
     1
 77
     6
 78
     2
 67
     7
 79
     5
170
     0
171
     0
290
     0
174
     0
 93
        1
 44
0.0
173
     0
291
     0
 45
0.0
  0
VISUALSTYLE
  5
26F
102
{ACAD_REACTORS
330
267
102
}
330
267
100
AcDbVisualStyle
  2
Basic
 70
     7
 71
     1
 72
     0
 73
     1
 90
        0
 40
-0.6
 41
-30.0
 62
     5
 63
     7
421
 16777215
 74
     0
 91
        4
 64
     7
 65
   257
 75
     1
175
     1
 42
1.0
 92
        8
 66
     7
 43
1.0
 76
     1
 77
     6
 78
     2
 67
     7
 79
     5
170
     0
171
     0
290
     0
174
     0
 93
        1
 44
0.0
173
     0
291
     1
 45
0.0
  0
VISUALSTYLE
  5
273
102
{ACAD_REACTORS
330
267
102
}
330
267
100
AcDbVisualStyle
  2
Brighten
 70
    12
 71
     2
 72
     2
 73
     0
 90
        0
 40
-0.6
 41
-30.0
 62
     5
 63
     7
421
 16777215
 74
     1
 91
        4
 64
     7
 65
   257
 75
     1
175
     1
 42
1.0
 92
        8
 66
     7
 43
1.0
 76
     1
 77
     6
 78
     2
 67
     7
 79
     5
170
     0
171
     0
290
     0
174
     0
 93
        1
 44
50.0
173
     0
291
     1
 45
0.0
  0
VISUALSTYLE
  5
277
102
{ACAD_REACTORS
330
267
102
}
330
267
100
AcDbVisualStyle
  2
ColorChange
 70
    16
 71
     2
 72
     2
 73
     3
 90
        0
 40
-0.6
 41
-30.0
 62
     5
 63
     8
421
  8421504
 74
     1
 91
        4
 64
     7
 65
   257
 75
     1
175
     1
 42
1.0
 92
        8
 66
     8
424
  8421504
 43
1.0
 76
     1
 77
     6
 78
     2
 67
     7
 79
     5
170
     0
171
     0
290
     0
174
     0
 93
        1
 44
0.0
173
     0
291
     1
 45
0.0
  0
VISUALSTYLE
  5
271
102
{ACAD_REACTORS
330
267
102
}
330
267
100
AcDbVisualStyle
  2
Conceptual
 70
     9
 71
     3
 72
     2
 73
     0
 90
        0
 40
-0.6
 41
-30.0
 62
     5
 63
     7
421
 16777215
 74
     2
 91
        2
 64
     7
 65
   257
 75
     1
175
     1
 42
40.0
 92
        8
 66
     7
 43
1.0
 76
     1
 77
     6
 78
     2
 67
     7
 79
     3
170
     0
171
     0
290
     0
174
     0
 93
        1
 44
0.0
173
     0
291
     0
 45
0.0
  0
VISUALSTYLE
  5
272
102
{ACAD_REACTORS
330
267
102
}
330
267
100
AcDbVisualStyle
  2
Dim
 70
    11
 71
     2
 72
     2
 73
     0
 90
        0
 40
-0.6
 41
-30.0
 62
     5
 63
     7
421
 16777215
 74
     1
 91
        4
 64
     7
 65
   257
 75
     1
175
     1
 42
1.0
 92
        8
 66
     7
 43
1.0
 76
     1
 77
     6
 78
     2
 67
     7
 79
     5
170
     0
171
     0
290
     0
174
     0
 93
        1
 44
-50.0
173
     0
291
     1
 45
0.0
  0
VISUALSTYLE
  5
10E2
102
{ACAD_REACTORS
330
267
102
}
330
267
100
AcDbVisualStyle
  2
EdgeColorOff
 70
    22
 71
     2
 72
     2
 73
     0
 90
        0
 40
0.6
 41
30.0
 62
     5
 63
     7
421
 16777215
 74
     1
 91
        4
 64
     7
 65
   257
 75
     1
175
     1
 42
1.0
 92
        8
 66
     7
 43
1.0
 76
     1
 77
     6
 78
     2
 67
     7
 79
     5
170
     0
171
     0
290
     0
174
     0
 93
        1
 44
0.0
173
     0
291
     1
 45
0.0
  0
VISUALSTYLE
  5
276
102
{ACAD_REACTORS
330
267
102
}
330
267
100
AcDbVisualStyle
  2
Facepattern
 70
    15
 71
     2
 72
     2
 73
     0
 90
        0
 40
-0.6
 41
-30.0
 62
     5
 63
     7
421
 16777215
 74
     1
 91
        4
 64
     7
 65
   257
 75
     1
175
     1
 42
1.0
 92
        8
 66
     7
 43
1.0
 76
     1
 77
     6
 78
     2
 67
     7
 79
     5
170
     0
171
     0
290
     0
174
     0
 93
        1
 44
0.0
173
     0
291
     1
 45
0.0
  0
VISUALSTYLE
  5
268
102
{ACAD_REACTORS
330
267
102
}
330
267
100
AcDbVisualStyle
  2
Flat
 70
     0
 71
     2
 72
     1
 73
     1
 90
        2
 40
-0.6
 41
30.0
 62
     5
 63
     7
421
 16777215
 74
     0
 91
        4
 64
     7
 65
   257
 75
     1
175
     1
 42
1.0
 92
        8
 66
     7
 43
1.0
 76
     1
 77
     6
 78
     2
 67
     7
 79
     5
170
     0
171
     0
290
     0
174
     0
 93
       13
 44
0.0
173
     0
291
     1
 45
0.0
  0
VISUALSTYLE
  5
269
102
{ACAD_REACTORS
330
267
102
}
330
267
100
AcDbVisualStyle
  2
FlatWithEdges
 70
     1
 71
     2
 72
     1
 73
     1
 90
        2
 40
-0.6
 41
30.0
 62
     5
 63
     7
421
 16777215
 74
     1
 91
        4
 64
     7
 65
   257
 75
     1
175
     1
 42
1.0
 92
        0
 66
   257
 43
1.0
 76
     1
 77
     6
 78
     2
 67
     7
 79
     5
170
     0
171
     0
290
     0
174
     0
 93
       13
 44
0.0
173
     0
291
     1
 45
0.0
  0
VISUALSTYLE
  5
26A
102
{ACAD_REACTORS
330
267
102
}
330
267
100
AcDbVisualStyle
  2
Gouraud
 70
     2
 71
     2
 72
     2
 73
     1
 90
        2
 40
-0.6
 41
30.0
 62
     5
 63
     7
421
 16777215
 74
     0
 91
        4
 64
     7
 65
   257
 75
     1
175
     1
 42
1.0
 92
        0
 66
     7
 43
1.0
 76
     1
 77
     6
 78
     2
 67
     7
 79
     5
170
     0
171
     0
290
     0
174
     0
 93
       13
 44
0.0
173
     0
291
     1
 45
0.0
  0
VISUALSTYLE
  5
26B
102
{ACAD_REACTORS
330
267
102
}
330
267
100
AcDbVisualStyle
  2
GouraudWithEdges
 70
     3
 71
     2
 72
     2
 73
     1
 90
        2
 40
-0.6
 41
30.0
 62
     5
 63
     7
421
 16777215
 74
     1
 91
        4
 64
     7
 65
   257
 75
     1
175
     1
 42
1.0
 92
        0
 66
   257
 43
1.0
 76
     1
 77
     6
 78
     2
 67
     7
 79
     5
170
     0
171
     0
290
     0
174
     0
 93
       13
 44
0.0
173
     0
291
     1
 45
0.0
  0
VISUALSTYLE
  5
10DF
102
{ACAD_REACTORS
330
267
102
}
330
267
100
AcDbVisualStyle
  2
Hidden
 70
     6
 71
     1
 72
     2
 73
     2
 90
        0
 40
0.6
 41
30.0
 62
     5
 63
     7
421
 16777215
 74
     2
 91
        2
 64
     7
 65
   257
 75
     2
175
     1
 42
40.0
 92
        0
 66
   257
 43
1.0
 76
     1
 77
     6
 78
     2
 67
     7
 79
     3
170
     0
171
     0
290
     0
174
     0
 93
        1
 44
0.0
173
     0
291
     0
 45
0.0
  0
VISUALSTYLE
  5
10E0
102
{ACAD_REACTORS
330
267
102
}
330
267
100
AcDbVisualStyle
  2
JitterOff
 70
    20
 71
     2
 72
     2
 73
     0
 90
        0
 40
0.6
 41
30.0
 62
     5
 63
     7
421
 16777215
 74
     1
 91
        4
 64
     7
 65
   257
 75
     1
175
     1
 42
1.0
 92
       10
 66
     7
 43
1.0
 76
     1
 77
     6
 78
     2
 67
     7
 79
     5
170
     0
171
     0
290
     0
174
     0
 93
        1
 44
0.0
173
     0
291
     1
 45
0.0
  0
VISUALSTYLE
  5
275
102
{ACAD_REACTORS
330
267
102
}
330
267
100
AcDbVisualStyle
  2
Linepattern
 70
    14
 71
     2
 72
     2
 73
     0
 90
        0
 40
-0.6
 41
-30.0
 62
     5
 63
     7
421
 16777215
 74
     1
 91
        4
 64
     7
 65
   257
 75
     7
175
     7
 42
1.0
 92
        8
 66
     7
 43
1.0
 76
     1
 77
     6
 78
     2
 67
     7
 79
     5
170
     0
171
     0
290
     0
174
     0
 93
        1
 44
0.0
173
     0
291
     1
 45
0.0
  0
VISUALSTYLE
  5
10E1
102
{ACAD_REACTORS
330
267
102
}
330
267
100
AcDbVisualStyle
  2
OverhangOff
 70
    21
 71
     2
 72
     2
 73
     0
 90
        0
 40
0.6
 41
30.0
 62
     5
 63
     7
421
 16777215
 74
     1
 91
        4
 64
     7
 65
   257
 75
     1
175
     1
 42
1.0
 92
        9
 66
     7
 43
1.0
 76
     1
 77
     6
 78
     2
 67
     7
 79
     5
170
     0
171
     0
290
     0
174
     0
 93
        1
 44
0.0
173
     0
291
     1
 45
0.0
  0
VISUALSTYLE
  5
270
102
{ACAD_REACTORS
330
267
102
}
330
267
100
AcDbVisualStyle
  2
Realistic
 70
     8
 71
     2
 72
     2
 73
     0
 90
        0
 40
-0.6
 41
-30.0
 62
     5
 63
     7
421
 16777215
 74
     1
 91
        0
 64
     7
 65
   257
 75
     1
175
     1
 42
1.0
 92
        8
 66
     8
424
  7895160
 43
1.0
 76
     1
 77
     6
 78
     2
 67
     7
 79
     5
170
     0
171
     0
290
     0
174
     0
 93
       13
 44
0.0
173
     0
291
     0
 45
0.0
  0
VISUALSTYLE
  5
10E7
102
{ACAD_REACTORS
330
267
102
}
330
267
100
AcDbVisualStyle
  2
Shaded
 70
    27
 71
     2
 72
     2
 73
     1
 90
        2
 40
0.6
 41
30.0
 62
     5
 63
     7
421
 16777215
 74
     0
 91
        4
 64
     7
 65
   257
 75
     1
175
     1
 42
1.0
 92
        8
 66
   257
 43
1.0
 76
     1
 77
     6
 78
     2
 67
     8
425
  7895160
 79
     3
170
     0
171
     0
290
     0
174
     0
 93
        5
 44
0.0
173
     0
291
     0
 45
0.0
  0
VISUALSTYLE
  5
10E6
102
{ACAD_REACTORS
330
267
102
}
330
267
100
AcDbVisualStyle
  2
Shaded with edges
 70
    26
 71
     2
 72
     2
 73
     1
 90
        2
 40
0.6
 41
30.0
 62
     5
 63
     7
421
 16777215
 74
     1
 91
       10
 64
     7
 65
   257
 75
     2
175
     1
 42
1.0
 92
        8
 66
   257
 43
1.0
 76
     1
 77
     6
 78
     2
 67
     7
 79
     3
170
     0
171
     0
290
     0
174
     0
 93
        5
 44
0.0
173
     0
291
     0
 45
0.0
  0
VISUALSTYLE
  5
10E3
102
{ACAD_REACTORS
330
267
102
}
330
267
100
AcDbVisualStyle
  2
Shades of Gray
 70
    23
 71
     2
 72
     2
 73
     3
 90
        0
 40
0.6
 41
30.0
 62
     5
 63
     7
421
 16777215
 74
     2
 91
        2
 64
     7
 65
     7
 75
     1
175
     1
 42
40.0
 92
        8
 66
     7
 43
1.0
 76
     1
 77
     6
 78
     2
 67
     7
 79
     3
170
     0
171
     0
290
     0
174
     0
 93
        1
 44
0.0
173
     0
291
     0
 45
0.0
  0
VISUALSTYLE
  5
10E4
102
{ACAD_REACTORS
330
267
102
}
330
267
100
AcDbVisualStyle
  2
Sketchy
 70
    24
 71
     1
 72
     2
 73
     2
 90
        0
 40
0.6
 41
30.0
 62
     5
 63
     7
421
 16777215
 74
     2
 91
        2
 64
     7
 65
     7
 75
     1
175
     1
 42
40.0
 92
       11
 66
     7
 43
1.0
 76
     1
 77
     6
 78
     2
 67
     7
 79
     6
170
     0
171
     0
290
     0
174
     0
 93
        1
 44
0.0
173
     0
291
     0
 45
0.0
  0
VISUALSTYLE
  5
274
102
{ACAD_REACTORS
330
267
102
}
330
267
100
AcDbVisualStyle
  2
Thicken
 70
    13
 71
     2
 72
     2
 73
     0
 90
        0
 40
-0.6
 41
-30.0
 62
     5
 63
     7
421
 16777215
 74
     1
 91
        4
 64
     7
 65
   257
 75
     1
175
     1
 42
1.0
 92
       12
 66
     7
 43
1.0
 76
     1
 77
     6
 78
     2
 67
     7
 79
     5
170
     0
171
     0
290
     0
174
     0
 93
        1
 44
0.0
173
     0
291
     1
 45
0.0
  0
VISUALSTYLE
  5
10DE
102
{ACAD_REACTORS
330
267
102
}
330
267
100
AcDbVisualStyle
  2
Wireframe
 70
     5
 71
     0
 72
     2
 73
     0
 90
        0
 40
0.6
 41
30.0
 62
     5
 63
     7
421
 16777215
 74
     1
 91
        4
 64
     7
 65
   257
 75
     1
175
     1
 42
1.0
 92
        0
 66
   257
 43
1.0
 76
     1
 77
     6
 78
     2
 67
     7
 79
     3
170
     0
171
     0
290
     0
174
     0
 93
        1
 44
0.0
173
     0
291
     0
 45
0.0
  0
VISUALSTYLE
  5
10E5
102
{ACAD_REACTORS
330
267
102
}
330
267
100
AcDbVisualStyle
  2
X-Ray
 70
    25
 71
     2
 72
     2
 73
     1
 90
        1
 40
0.5
 41
30.0
 62
     5
 63
     7
421
 16777215
 74
     1
 91
        0
 64
     7
 65
   257
 75
     1
175
     1
 42
1.0
 92
        8
 66
     7
 43
1.0
 76
     1
 77
     6
 78
     2
 67
     7
 79
     3
170
     0
171
     0
290
     0
174
     0
 93
       13
 44
0.0
173
     0
291
     0
 45
0.0
  0
DICTIONARYVAR
  5
331
102
{ACAD_REACTORS
330
330
102
}
330
330
100
DictionaryVariables
280
     0
  1
1:1
  0
DICTIONARYVAR
  5
43C2
102
{ACAD_REACTORS
330
330
102
}
330
330
100
DictionaryVariables
280
     0
  1
Standard
  0
DICTIONARYVAR
  5
335
102
{ACAD_REACTORS
330
330
102
}
330
330
100
DictionaryVariables
280
     0
  1
Standard
  0
DICTIONARYVAR
  5
109E
102
{ACAD_REACTORS
330
330
102
}
330
330
100
DictionaryVariables
280
     0
  1
0
  0
XRECORD
  5
10DB
102
{ACAD_REACTORS
330
2E2
102
}
330
2E2
100
AcDbXrecord
280
     1
 91
    34815
301

290
     0
302
TFORMLOGO
330
14
 90
        8
 62
     7
370
    -3
331
13
  1
Color_7
440
 33554687
330
4A
 90
        0
 62
     7
370
    -3
331
13
  1
Color_7
440
 33554687
330
12CE
 90
        8
 62
     7
370
    13
331
13
  1
Color_7
440
 33554687
330
12CF
 90
        8
 62
     7
370
    20
331
13
  1
Color_7
440
 33554687
330
142A
 90
        8
 62
     7
370
    20
331
13
  1
Color_7
440
 33554687
330
1D5C
 90
        8
 62
     7
370
    20
331
13
  1
Color_7
440
 33554687
330
3848
 90
        9
 62
     4
370
    -3
331
13
  1
Color_4
440
 33554687
330
387B
 90
        8
 62
     7
370
    -3
331
13
  1
Color_7
440
 33554687
330
3B73
 90
        8
 62
     7
370
    -3
331
13
  1
Color_7
440
 33554687
  0
XRECORD
  5
DEA
102
{ACAD_REACTORS
330
2E2
102
}
330
2E2
100
AcDbXrecord
280
     1
 91
     1023
301

290
     0
302
テンプレート
330
14
 90
        8
 62
     7
370
    -3
331
13
  1
Color_7
330
4A
 90
        0
 62
     7
370
    -3
331
13
  1
Color_7
330
0
 90
        8
 62
     7
370
     9
331
13
  1
Color_7
330
12CE
 90
        9
 62
     7
370
    13
331
13
  1
Color_7
330
12CF
 90
        8
 62
     7
370
    20
331
13
  1
Color_7
330
142A
 90
        8
 62
     7
370
    20
331
13
  1
Color_7
330
0
 90
        8
 62
     7
370
    -3
331
13
  1
Color_7
330
0
 90
        8
 62
     7
370
    -3
331
13
  1
Color_7
330
0
 90
        8
 62
     7
370
    -3
331
13
  1
Color_7
330
0
 90
        8
 62
     7
370
    -3
331
13
  1
Color_7
  0
XRECORD
  5
C70
102
{ACAD_REACTORS
330
2E2
102
}
330
2E2
100
AcDbXrecord
280
     1
 91
     1023
301

290
     0
302
Defpoints
330
14
 90
        8
 62
     7
370
    -3
331
13
  1
Color_7
330
4A
 90
        0
 62
     7
370
    -3
331
13
  1
Color_7
330
0
 90
        8
 62
     7
370
    -3
331
13
  1
Color_7
330
0
 90
        8
 62
     7
370
    -3
331
13
  1
Color_7
330
0
 90
        8
 62
     7
370
    -3
331
13
  1
Color_7
330
0
 90
       12
 62
     7
370
    -3
331
13
  1
Color_7
330
0
 90
        8
 62
     7
370
    -3
331
13
  1
Color_7
  0
XRECORD
  5
7AA
102
{ACAD_REACTORS
330
2E2
102
}
330
2E2
100
AcDbXrecord
280
     1
 91
     1023
301

290
     0
302
レイヤー 1
330
14
 90
        9
 62
     7
370
    -3
331
13
  1
Color_7
330
4A
 90
        1
 62
     7
370
    -3
331
13
  1
Color_7
330
0
 90
        8
 62
     7
370
    -3
331
13
  1
Color_7
330
0
 90
        9
 62
     7
370
    -3
331
13
  1
Color_7
330
0
 90
        9
 62
     7
370
    -3
331
13
  1
Color_7
330
0
 90
       13
 62
     7
370
    -3
331
13
  1
Color_7
330
0
 90
        9
 62
     7
370
    -3
331
13
  1
Color_7
330
0
 90
        9
 62
     7
370
    -3
331
13
  1
Color_7
330
0
 90
        9
 62
     7
370
    -3
331
13
  1
Color_7
330
0
 90
        9
 62
     7
370
    -3
331
13
  1
Color_7
330
0
 90
        9
 62
     7
370
    -3
331
13
  1
Color_7
330
0
 90
        8
 62
     7
370
    -3
331
13
  1
Color_7
  0
DICTIONARY
  5
459C
330
279
100
AcDbDictionary
280
     1
281
     1
  3
ACAD_ROUNDTRIP_2008_TABLESTYLE_CELLSTYLEMAP
360
459D
  0
CELLSTYLEMAP
  5
459D
102
{ACAD_REACTORS
330
459C
102
}
330
459C
100
AcDbCellStyleMap
 90
        3
300
CELLSTYLE
  1
TABLEFORMAT_BEGIN
 90
        5
170
     1
 91
        0
 92
    32768
 62
   257
 93
        1
300
CONTENTFORMAT
  1
CONTENTFORMAT_BEGIN
 90
        0
 91
        0
 92
        4
 93
        0
300

 40
0.0
140
1.0
 94
        5
 62
     0
340
17
144
6.0
309
CONTENTFORMAT_END
171
     1
301
MARGIN
  1
CELLMARGIN_BEGIN
 40
0.06
 40
0.06
 40
0.06
 40
0.06
 40
0.18
 40
0.18
309
CELLMARGIN_END
 94
        6
 95
        1
302
GRIDFORMAT
  1
GRIDFORMAT_BEGIN
 90
        0
 91
        1
 62
     0
 92
       -2
340
0
 93
        0
 40
0.045
309
GRIDFORMAT_END
 95
        2
302
GRIDFORMAT
  1
GRIDFORMAT_BEGIN
 90
        0
 91
        1
 62
     0
 92
       -2
340
0
 93
        0
 40
0.045
309
GRIDFORMAT_END
 95
        4
302
GRIDFORMAT
  1
GRIDFORMAT_BEGIN
 90
        0
 91
        1
 62
     0
 92
       -2
340
0
 93
        0
 40
0.045
309
GRIDFORMAT_END
 95
        8
302
GRIDFORMAT
  1
GRIDFORMAT_BEGIN
 90
        0
 91
        1
 62
     0
 92
       -2
340
0
 93
        0
 40
0.045
309
GRIDFORMAT_END
 95
       16
302
GRIDFORMAT
  1
GRIDFORMAT_BEGIN
 90
        0
 91
        1
 62
     0
 92
       -2
340
0
 93
        0
 40
0.045
309
GRIDFORMAT_END
 95
       32
302
GRIDFORMAT
  1
GRIDFORMAT_BEGIN
 90
        0
 91
        1
 62
     0
 92
       -2
340
0
 93
        0
 40
0.045
309
GRIDFORMAT_END
309
TABLEFORMAT_END
  1
CELLSTYLE_BEGIN
 90
        1
 91
        1
300
_TITLE
309
CELLSTYLE_END
300
CELLSTYLE
  1
TABLEFORMAT_BEGIN
 90
        5
170
     1
 91
        0
 92
        0
 62
   257
 93
        1
300
CONTENTFORMAT
  1
CONTENTFORMAT_BEGIN
 90
        0
 91
        0
 92
        4
 93
        0
300

 40
0.0
140
1.0
 94
        5
 62
     0
340
17
144
4.5
309
CONTENTFORMAT_END
171
     1
301
MARGIN
  1
CELLMARGIN_BEGIN
 40
0.06
 40
0.06
 40
0.06
 40
0.06
 40
0.18
 40
0.18
309
CELLMARGIN_END
 94
        6
 95
        1
302
GRIDFORMAT
  1
GRIDFORMAT_BEGIN
 90
        0
 91
        1
 62
     0
 92
       -2
340
0
 93
        0
 40
0.045
309
GRIDFORMAT_END
 95
        2
302
GRIDFORMAT
  1
GRIDFORMAT_BEGIN
 90
        0
 91
        1
 62
     0
 92
       -2
340
0
 93
        0
 40
0.045
309
GRIDFORMAT_END
 95
        4
302
GRIDFORMAT
  1
GRIDFORMAT_BEGIN
 90
        0
 91
        1
 62
     0
 92
       -2
340
0
 93
        0
 40
0.045
309
GRIDFORMAT_END
 95
        8
302
GRIDFORMAT
  1
GRIDFORMAT_BEGIN
 90
        0
 91
        1
 62
     0
 92
       -2
340
0
 93
        0
 40
0.045
309
GRIDFORMAT_END
 95
       16
302
GRIDFORMAT
  1
GRIDFORMAT_BEGIN
 90
        0
 91
        1
 62
     0
 92
       -2
340
0
 93
        0
 40
0.045
309
GRIDFORMAT_END
 95
       32
302
GRIDFORMAT
  1
GRIDFORMAT_BEGIN
 90
        0
 91
        1
 62
     0
 92
       -2
340
0
 93
        0
 40
0.045
309
GRIDFORMAT_END
309
TABLEFORMAT_END
  1
CELLSTYLE_BEGIN
 90
        2
 91
        1
300
_HEADER
309
CELLSTYLE_END
300
CELLSTYLE
  1
TABLEFORMAT_BEGIN
 90
        5
170
     1
 91
        0
 92
        0
 62
   257
 93
        1
300
CONTENTFORMAT
  1
CONTENTFORMAT_BEGIN
 90
        0
 91
        0
 92
        4
 93
        0
300

 40
0.0
140
1.0
 94
        2
 62
     0
340
17
144
4.5
309
CONTENTFORMAT_END
171
     1
301
MARGIN
  1
CELLMARGIN_BEGIN
 40
0.06
 40
0.06
 40
0.06
 40
0.06
 40
0.18
 40
0.18
309
CELLMARGIN_END
 94
        6
 95
        1
302
GRIDFORMAT
  1
GRIDFORMAT_BEGIN
 90
        0
 91
        1
 62
     0
 92
       -2
340
0
 93
        0
 40
0.045
309
GRIDFORMAT_END
 95
        2
302
GRIDFORMAT
  1
GRIDFORMAT_BEGIN
 90
        0
 91
        1
 62
     0
 92
       -2
340
0
 93
        0
 40
0.045
309
GRIDFORMAT_END
 95
        4
302
GRIDFORMAT
  1
GRIDFORMAT_BEGIN
 90
        0
 91
        1
 62
     0
 92
       -2
340
0
 93
        0
 40
0.045
309
GRIDFORMAT_END
 95
        8
302
GRIDFORMAT
  1
GRIDFORMAT_BEGIN
 90
        0
 91
        1
 62
     0
 92
       -2
340
0
 93
        0
 40
0.045
309
GRIDFORMAT_END
 95
       16
302
GRIDFORMAT
  1
GRIDFORMAT_BEGIN
 90
        0
 91
        1
 62
     0
 92
       -2
340
0
 93
        0
 40
0.045
309
GRIDFORMAT_END
 95
       32
302
GRIDFORMAT
  1
GRIDFORMAT_BEGIN
 90
        0
 91
        1
 62
     0
 92
       -2
340
0
 93
        0
 40
0.045
309
GRIDFORMAT_END
309
TABLEFORMAT_END
  1
CELLSTYLE_BEGIN
 90
        3
 91
        2
300
_DATA
309
CELLSTYLE_END
  0
ENDSEC
  0
EOF
