  0
SECTION
  2
HEADER
  9
$ACADVER
  1
AC1021
  9
$ACADMAINTVER
 70
    25
  9
$DWGCODEPAGE
  3
ANSI_932
  9
$LASTSAVEDBY
  1
howeNelson
  9
$INSBASE
 10
0.0
 20
0.0
 30
0.0
  9
$EXTMIN
 10
0.0
 20
0.0
 30
0.0
  9
$EXTMAX
 10
593.9999999999999
 20
420.0
 30
0.0
  9
$LIMMIN
 10
0.0
 20
0.0
  9
$LIMMAX
 10
593.9999999999999
 20
420.0
  9
$ORTHOMODE
 70
     0
  9
$REGENMODE
 70
     1
  9
$FILLMODE
 70
     1
  9
$QTEXTMODE
 70
     0
  9
$MIRRTEXT
 70
     1
  9
$LTSCALE
 40
0.5
  9
$ATTMODE
 70
     1
  9
$TEXTSIZE
 40
136.139079520063
  9
$TRACEWID
 40
1.0
  9
$TEXTSTYLE
  7
ＭＳ ゴシック
  9
$CLAYER
  8
TFORMLOGO
  9
$CELTYPE
  6
ByLayer
  9
$CECOLOR
 62
   256
  9
$CELTSCALE
 40
1.0
  9
$DISPSILH
 70
     0
  9
$DIMSCALE
 40
1.0
  9
$DIMASZ
 40
2.0
  9
$DIMEXO
 40
5.0
  9
$DIMDLI
 40
0.9999999999999999
  9
$DIMRND
 40
0.0
  9
$DIMDLE
 40
0.0
  9
$DIMEXE
 40
0.0
  9
$DIMTP
 40
0.0
  9
$DIMTM
 40
0.0
  9
$DIMTXT
 40
5.0
  9
$DIMCEN
 40
0.0
  9
$DIMTSZ
 40
0.0
  9
$DIMTOL
 70
     0
  9
$DIMLIM
 70
     0
  9
$DIMTIH
 70
     0
  9
$DIMTOH
 70
     0
  9
$DIMSE1
 70
     0
  9
$DIMSE2
 70
     0
  9
$DIMTAD
 70
     1
  9
$DIMZIN
 70
    11
  9
$DIMBLK
  1
DOT
  9
$DIMASO
 70
     1
  9
$DIMSHO
 70
     1
  9
$DIMPOST
  1
<>
  9
$DIMAPOST
  1
[]
  9
$DIMALT
 70
     0
  9
$DIMALTD
 70
     1
  9
$DIMALTF
 40
1.0
  9
$DIMLFAC
 40
1.0
  9
$DIMTOFL
 70
     0
  9
$DIMTVP
 40
0.0
  9
$DIMTIX
 70
     1
  9
$DIMSOXD
 70
     0
  9
$DIMSAH
 70
     0
  9
$DIMBLK1
  1

  9
$DIMBLK2
  1

  9
$DIMSTYLE
  2
tfrom線あり
  9
$DIMCLRD
 70
     0
  9
$DIMCLRE
 70
     0
  9
$DIMCLRT
 70
     0
  9
$DIMTFAC
 40
1.0
  9
$DIMGAP
 40
5.0
  9
$DIMJUST
 70
     0
  9
$DIMSD1
 70
     0
  9
$DIMSD2
 70
     0
  9
$DIMTOLJ
 70
     1
  9
$DIMTZIN
 70
    11
  9
$DIMALTZ
 70
    11
  9
$DIMALTTZ
 70
    11
  9
$DIMUPT
 70
     0
  9
$DIMDEC
 70
     0
  9
$DIMTDEC
 70
     1
  9
$DIMALTU
 70
     2
  9
$DIMALTTD
 70
     2
  9
$DIMTXSTY
  7
ＭＳ ゴシック
  9
$DIMAUNIT
 70
     0
  9
$DIMADEC
 70
     2
  9
$DIMALTRND
 40
0.0
  9
$DIMAZIN
 70
     0
  9
$DIMDSEP
 70
    46
  9
$DIMATFIT
 70
     0
  9
$DIMFRAC
 70
     2
  9
$DIMLDRBLK
  1
DOT
  9
$DIMLUNIT
 70
     2
  9
$DIMLWD
 70
    -2
  9
$DIMLWE
 70
    -2
  9
$DIMTMOVE
 70
     0
  9
$DIMFXL
 40
1.0
  9
$DIMFXLON
 70
     0
  9
$DIMJOGANG
 40
0.7853981633974483
  9
$DIMTFILL
 70
     0
  9
$DIMTFILLCLR
 70
     0
  9
$DIMARCSYM
 70
     0
  9
$DIMLTYPE
  6

  9
$DIMLTEX1
  6

  9
$DIMLTEX2
  6

  9
$LUNITS
 70
     2
  9
$LUPREC
 70
     0
  9
$SKETCHINC
 40
0.1
  9
$FILLETRAD
 40
0.0
  9
$AUNITS
 70
     0
  9
$AUPREC
 70
     0
  9
$MENU
  1
acad
  9
$ELEVATION
 40
0.0
  9
$PELEVATION
 40
0.0
  9
$THICKNESS
 40
0.0
  9
$LIMCHECK
 70
     0
  9
$CHAMFERA
 40
0.0
  9
$CHAMFERB
 40
0.0
  9
$CHAMFERC
 40
0.0
  9
$CHAMFERD
 40
0.0
  9
$SKPOLY
 70
     0
  9
$TDCREATE
 40
2447893.375
  9
$TDUCREATE
 40
0.0
  9
$TDUPDATE
 40
2457427.490532095
  9
$TDUUPDATE
 40
2457427.115532095
  9
$TDINDWG
 40
0.5776307407
  9
$TDUSRTIMER
 40
2457427.115430486
  9
$USRTIMER
 70
     1
  9
$ANGBASE
 50
0.0
  9
$ANGDIR
 70
     0
  9
$PDMODE
 70
     1
  9
$PDSIZE
 40
-2.0
  9
$PLINEWID
 40
0.0
  9
$SPLFRAME
 70
     0
  9
$SPLINETYPE
 70
     6
  9
$SPLINESEGS
 70
     8
  9
$HANDSEED
  5
4031
  9
$SURFTAB1
 70
     6
  9
$SURFTAB2
 70
     6
  9
$SURFTYPE
 70
     6
  9
$SURFU
 70
     6
  9
$SURFV
 70
     6
  9
$UCSBASE
  2

  9
$UCSNAME
  2

  9
$UCSORG
 10
0.0
 20
0.0
 30
0.0
  9
$UCSXDIR
 10
1.0
 20
0.0
 30
0.0
  9
$UCSYDIR
 10
0.0
 20
1.0
 30
0.0
  9
$UCSORTHOREF
  2

  9
$UCSORTHOVIEW
 70
     1
  9
$UCSORGTOP
 10
0.0
 20
0.0
 30
0.0
  9
$UCSORGBOTTOM
 10
0.0
 20
0.0
 30
0.0
  9
$UCSORGLEFT
 10
0.0
 20
0.0
 30
0.0
  9
$UCSORGRIGHT
 10
0.0
 20
0.0
 30
0.0
  9
$UCSORGFRONT
 10
0.0
 20
0.0
 30
0.0
  9
$UCSORGBACK
 10
0.0
 20
0.0
 30
0.0
  9
$PUCSBASE
  2

  9
$PUCSNAME
  2

  9
$PUCSORG
 10
0.0
 20
0.0
 30
0.0
  9
$PUCSXDIR
 10
1.0
 20
0.0
 30
0.0
  9
$PUCSYDIR
 10
0.0
 20
1.0
 30
0.0
  9
$PUCSORTHOREF
  2

  9
$PUCSORTHOVIEW
 70
     0
  9
$PUCSORGTOP
 10
0.0
 20
0.0
 30
0.0
  9
$PUCSORGBOTTOM
 10
0.0
 20
0.0
 30
0.0
  9
$PUCSORGLEFT
 10
0.0
 20
0.0
 30
0.0
  9
$PUCSORGRIGHT
 10
0.0
 20
0.0
 30
0.0
  9
$PUCSORGFRONT
 10
0.0
 20
0.0
 30
0.0
  9
$PUCSORGBACK
 10
0.0
 20
0.0
 30
0.0
  9
$USERI1
 70
     0
  9
$USERI2
 70
     0
  9
$USERI3
 70
     0
  9
$USERI4
 70
     0
  9
$USERI5
 70
     0
  9
$USERR1
 40
0.0
  9
$USERR2
 40
0.0
  9
$USERR3
 40
0.0
  9
$USERR4
 40
0.0
  9
$USERR5
 40
0.0
  9
$WORLDVIEW
 70
     1
  9
$SHADEDGE
 70
     3
  9
$SHADEDIF
 70
    70
  9
$TILEMODE
 70
     1
  9
$MAXACTVP
 70
    64
  9
$PINSBASE
 10
0.0
 20
0.0
 30
0.0
  9
$PLIMCHECK
 70
     0
  9
$PEXTMIN
 10
0.0
 20
0.0
 30
0.0
  9
$PEXTMAX
 10
0.0
 20
0.0
 30
0.0
  9
$PLIMMIN
 10
-95.87226993865028
 20
-25.69999999999999
  9
$PLIMMAX
 10
201.1277300613497
 20
184.3
  9
$UNITMODE
 70
     0
  9
$VISRETAIN
 70
     0
  9
$PLINEGEN
 70
     1
  9
$PSLTSCALE
 70
     0
  9
$TREEDEPTH
 70
  3020
  9
$CMLSTYLE
  2
Standard
  9
$CMLJUST
 70
     0
  9
$CMLSCALE
 40
1.0
  9
$PROXYGRAPHICS
 70
     0
  9
$MEASUREMENT
 70
     1
  9
$CELWEIGHT
370
    -1
  9
$ENDCAPS
280
     0
  9
$JOINSTYLE
280
     0
  9
$LWDISPLAY
290
     1
  9
$INSUNITS
 70
     4
  9
$HYPERLINKBASE
  1

  9
$STYLESHEET
  1

  9
$XEDIT
290
     1
  9
$CEPSNTYPE
380
     0
  9
$PSTYLEMODE
290
     1
  9
$FINGERPRINTGUID
  2

  9
$VERSIONGUID
  2

  9
$EXTNAMES
290
     1
  9
$PSVPSCALE
 40
0.0
  9
$OLESTARTUP
290
     0
  9
$SORTENTS
280
   127
  9
$INDEXCTL
280
     0
  9
$HIDETEXT
280
     1
  9
$XCLIPFRAME
290
     0
  9
$HALOGAP
280
     0
  9
$OBSCOLOR
 70
   257
  9
$OBSLTYPE
280
     0
  9
$INTERSECTIONDISPLAY
280
     0
  9
$INTERSECTIONCOLOR
 70
   257
  9
$DIMASSOC
280
     2
  9
$PROJECTNAME
  1

  9
$CAMERADISPLAY
290
     0
  9
$LENSLENGTH
 40
50.0
  9
$CAMERAHEIGHT
 40
0.0
  9
$STEPSPERSEC
 40
2.0
  9
$STEPSIZE
 40
6.0
  9
$3DDWFPREC
 40
2.0
  9
$PSOLWIDTH
 40
0.25
  9
$PSOLHEIGHT
 40
4.0
  9
$LOFTANG1
 40
1.570796326794897
  9
$LOFTANG2
 40
1.570796326794897
  9
$LOFTMAG1
 40
0.0
  9
$LOFTMAG2
 40
0.0
  9
$LOFTPARAM
 70
     7
  9
$LOFTNORMALS
280
     1
  9
$LATITUDE
 40
37.795
  9
$LONGITUDE
 40
-122.394
  9
$NORTHDIRECTION
 40
0.0
  9
$TIMEZONE
 70
 -8000
  9
$LIGHTGLYPHDISPLAY
280
     1
  9
$TILEMODELIGHTSYNCH
280
     1
  9
$SOLIDHIST
280
     1
  9
$SHOWHIST
280
     1
  9
$DWFFRAME
280
     2
  9
$DGNFRAME
280
     2
  9
$REALWORLDSCALE
290
     1
  9
$INTERFERECOLOR
 62
   256
  9
$CSHADOW
280
     0
  9
$SHADOWPLANELOCATION
 40
0.0
  0
ENDSEC
  0
SECTION
  2
CLASSES
  0
CLASS
  1
LWPOLYLINE
  2
AcDbPolyline
  3
ObjectDBX Classes
 90
        0
 91
        1
280
     0
281
     1
  0
CLASS
  1
IMAGE
  2
AcDbRasterImage
  3
ISM
 90
      127
 91
       10
280
     0
281
     1
  0
CLASS
  1
OLE2FRAME
  2
AcDbOle2Frame
  3
ObjectDBX Classes
 90
        0
 91
        1
280
     0
281
     1
  0
CLASS
  1
HATCH
  2
AcDbHatch
  3
ObjectDBX Classes
 90
        0
 91
        1
280
     0
281
     1
  0
CLASS
  1
DICTIONARYVAR
  2
AcDbDictionaryVar
  3
ObjectDBX Classes
 90
        0
 91
        9
280
     0
281
     0
  0
CLASS
  1
RASTERVARIABLES
  2
AcDbRasterVariables
  3
ISM
 90
        0
 91
       15
280
     0
281
     0
  0
CLASS
  1
IMAGEDEF
  2
AcDbRasterImageDef
  3
ISM
 90
        0
 91
        9
280
     0
281
     0
  0
CLASS
  1
IMAGEDEF_REACTOR
  2
AcDbRasterImageDefReactor
  3
ISM
 90
        1
 91
        9
280
     0
281
     0
  0
CLASS
  1
IDBUFFER
  2
AcDbIdBuffer
  3
ObjectDBX Classes
 90
        0
 91
        9
280
     0
281
     0
  0
CLASS
  1
SPATIAL_FILTER
  2
AcDbSpatialFilter
  3
ObjectDBX Classes
 90
        0
 91
        9
280
     0
281
     0
  0
CLASS
  1
XRECORD
  2
AcDbXrecord
  3
ObjectDBX Classes
 90
        0
 91
        1
280
     0
281
     0
  0
CLASS
  1
SORTENTSTABLE
  2
AcDbSortentsTable
  3
ObjectDBX Classes
 90
        0
 91
        9
280
     0
281
     0
  0
CLASS
  1
LAYER_INDEX
  2
AcDbLayerIndex
  3
ObjectDBX Classes
 90
        0
 91
        9
280
     0
281
     0
  0
CLASS
  1
SPATIAL_INDEX
  2
AcDbSpatialIndex
  3
AutoCAD 2000
 90
        0
 91
        9
280
     0
281
     0
  0
CLASS
  1
OBJECT_PTR
  2
CAseDLPNTableRecord
  3
ASE-LPNTableRecord
 90
        1
 91
        9
280
     0
281
     0
  0
CLASS
  1
LAYOUT
  2
AcDbLayout
  3
ObjectDBX Classes
 90
        0
 91
        1
280
     0
281
     0
  0
CLASS
  1
PLOTSETTINGS
  2
AcDbPlotSettings
  3
ObjectDBX Classes
 90
        0
 91
        9
280
     0
281
     0
  0
CLASS
  1
ACDBDICTIONARYWDFLT
  2
AcDbDictionaryWithDefault
  3
ObjectDBX Classes
 90
        0
 91
       15
280
     0
281
     0
  0
CLASS
  1
ACDBPLACEHOLDER
  2
AcDbPlaceHolder
  3
ObjectDBX Classes
 90
        0
 91
        1
280
     0
281
     0
  0
CLASS
  1
SCALE
  2
AcDbScale
  3
ObjectDBX Classes
 90
     1153
 91
       15
280
     0
281
     0
  0
CLASS
  1
MATERIAL
  2
AcDbMaterial
  3
ObjectDBX Classes
 90
     1153
 91
       15
280
     0
281
     0
  0
CLASS
  1
VISUALSTYLE
  2
AcDbVisualStyle
  3
ObjectDBX Classes
 90
     4095
 91
       15
280
     0
281
     0
  0
CLASS
  1
TABLESTYLE
  2
AcDbTableStyle
  3
ObjectDBX Classes
 90
     4095
 91
       15
280
     0
281
     0
  0
CLASS
  1
DIMASSOC
  2
AcDbDimAssoc
  3
"AcDbDimAssoc|Product Desc:     AcDim ARX App For Dimension|Company:          Autodesk, Inc.|WEB Address:      www.autodesk.com"
 90
        0
 91
        9
280
     0
281
     0
  0
CLASS
  1
CELLSTYLEMAP
  2
AcDbCellStyleMap
  3
ObjectDBX Classes
 90
     1152
 91
        9
280
     0
281
     0
  0
CLASS
  1
SUN
  2
AcDbSun
  3
SCENEOE
 90
     1153
 91
       15
280
     0
281
     0
  0
ENDSEC
  0
SECTION
  2
TABLES
  0
TABLE
  2
VPORT
  5
7
330
0
100
AcDbSymbolTable
 70
     1
  0
VPORT
  5
15
330
7
100
AcDbSymbolTableRecord
100
AcDbViewportTableRecord
  2
*ACTIVE
 70
     0
 10
0.0
 20
0.0
 11
1.0
 21
1.0
 12
296.9999999999999
 22
210.0
 13
0.0
 23
0.0
 14
1.0
 24
1.0
 15
0.0
 25
0.0
 16
0.0
 26
0.0
 36
1.0
 17
0.0
 27
0.0
 37
0.0
 40
428.4
 41
1.934969325153374
 42
50.0
 43
0.0
 44
0.0
 50
0.0
 51
0.0
 71
    16
 72
  2000
 73
     1
 74
     1
 75
     0
 76
     0
 77
     0
 78
     0
281
     0
 65
     0
110
0.0
120
0.0
130
0.0
111
1.0
121
0.0
131
0.0
112
0.0
122
1.0
132
0.0
 79
     0
146
0.0
348
26C
 60
     3
 61
     5
292
     1
282
     1
141
0.0
142
0.0
 63
   256
361
10E8
  0
ENDTAB
  0
TABLE
  2
LTYPE
  5
4
330
0
100
AcDbSymbolTable
 70
     3
  0
LTYPE
  5
11
330
4
100
AcDbSymbolTableRecord
100
AcDbLinetypeTableRecord
  2
ByBlock
 70
     0
  3

 72
    65
 73
     0
 40
0.0
  0
LTYPE
  5
12
330
4
100
AcDbSymbolTableRecord
100
AcDbLinetypeTableRecord
  2
ByLayer
 70
     0
  3
Solid line
 72
    65
 73
     0
 40
0.0
  0
LTYPE
  5
13
330
4
100
AcDbSymbolTableRecord
100
AcDbLinetypeTableRecord
  2
Continuous
 70
     0
  3
Solid line
 72
    65
 73
     0
 40
0.0
  0
LTYPE
  5
88D
330
4
100
AcDbSymbolTableRecord
100
AcDbLinetypeTableRecord
  2
CENTER
 70
     0
  3
----------  --  ----------  --  
 72
    65
 73
     4
 40
20.0
 49
12.5
 74
     0
 49
-2.5
 74
     0
 49
2.5
 74
     0
 49
-2.5
 74
     0
  0
LTYPE
  5
12C7
330
4
100
AcDbSymbolTableRecord
100
AcDbLinetypeTableRecord
  2
HIDDEN
 70
     0
  3
Hidden _ _ _ _ _ _ _ _ _ _ _ _ _ _ _ _ _ _ _ _ 
 72
    65
 73
     2
 40
9.524999999999999
 49
6.35
 74
     0
 49
-3.175
 74
     0
  0
ENDTAB
  0
TABLE
  2
LAYER
  5
2
102
{ACAD_XDICTIONARY
360
2E1
102
}
330
0
100
AcDbSymbolTable
 70
    10
  0
LAYER
  5
14
330
2
100
AcDbSymbolTableRecord
100
AcDbLayerTableRecord
  2
0
 70
     0
 62
     7
  6
Continuous
370
    -3
390
1D
347
266
  0
LAYER
  5
4A
330
2
100
AcDbSymbolTableRecord
100
AcDbLayerTableRecord
  2
Defpoints
 70
     0
 62
     7
  6
Continuous
290
     0
370
    -3
390
1D
347
266
  0
LAYER
  5
12CE
330
2
100
AcDbSymbolTableRecord
100
AcDbLayerTableRecord
  2
寸法
 70
     0
 62
     7
  6
Continuous
370
    13
390
1D
347
266
1001
AcAecLayerStandard
1000

1000

  0
LAYER
  5
12CF
330
2
100
AcDbSymbolTableRecord
100
AcDbLayerTableRecord
  2
モデル
 70
     0
 62
     7
  6
Continuous
370
    20
390
1D
347
266
1001
AcAecLayerStandard
1000

1000

  0
LAYER
  5
142A
330
2
100
AcDbSymbolTableRecord
100
AcDbLayerTableRecord
  2
テンプレート
 70
     0
 62
     7
  6
Continuous
370
    20
390
1D
347
266
1001
AcAecLayerStandard
1000

1000

  0
LAYER
  5
1D5C
330
2
100
AcDbSymbolTableRecord
100
AcDbLayerTableRecord
  2
TFORMLOGO
 70
     0
 62
     7
  6
Continuous
370
    20
390
1D
347
266
  0
LAYER
  5
3848
330
2
100
AcDbSymbolTableRecord
100
AcDbLayerTableRecord
  2
PRINT BORDER
 70
     0
 62
    -4
  6
Continuous
370
    -3
390
1D
347
266
1001
AcAecLayerStandard
1000

1000

  0
LAYER
  5
387B
330
2
100
AcDbSymbolTableRecord
100
AcDbLayerTableRecord
  2
レイヤー 2
 70
     0
 62
     7
  6
Continuous
370
    -3
390
1D
347
266
  0
LAYER
  5
3EDC
330
2
100
AcDbSymbolTableRecord
100
AcDbLayerTableRecord
  2
CutoutOverlay
 70
     0
 62
     7
  6
Continuous
370
    20
390
1D
347
266
1001
AcAecLayerStandard
1000

1000

  0
LAYER
  5
3EDD
330
2
100
AcDbSymbolTableRecord
100
AcDbLayerTableRecord
  2
CutoutUnderlay
 70
     0
 62
   254
  6
Continuous
370
    20
390
1D
347
266
1001
AcAecLayerStandard
1000

1000

  0
ENDTAB
  0
TABLE
  2
STYLE
  5
3
330
0
100
AcDbSymbolTable
 70
     2
  0
STYLE
  5
17
330
3
100
AcDbSymbolTableRecord
100
AcDbTextStyleTableRecord
  2
Standard
 70
     0
 40
0.0
 41
1.0
 50
0.0
 71
     0
 42
2.5
  3
txt
  4
BIGFONT.SHX
  0
STYLE
  5
39
330
3
100
AcDbSymbolTableRecord
100
AcDbTextStyleTableRecord
  2
ＭＳ ゴシック
 70
     0
 40
0.0
 41
1.0
 50
0.0
 71
     0
 42
136.139079520063
  3
msgothic.ttc
  4
ＭＳ ゴシック
1001
ACAD
1000
ＭＳ ゴシック
1071
        0
  0
ENDTAB
  0
TABLE
  2
VIEW
  5
5
330
0
100
AcDbSymbolTable
 70
     0
  0
ENDTAB
  0
TABLE
  2
UCS
  5
6
330
0
100
AcDbSymbolTable
 70
     0
  0
ENDTAB
  0
TABLE
  2
APPID
  5
8
330
0
100
AcDbSymbolTable
 70
     2
  0
APPID
  5
16
330
8
100
AcDbSymbolTableRecord
100
AcDbRegAppTableRecord
  2
ACAD
 70
     0
  0
APPID
  5
7AC
330
8
100
AcDbSymbolTableRecord
100
AcDbRegAppTableRecord
  2
AcAecLayerStandard
 70
     0
  0
ENDTAB
  0
TABLE
  2
DIMSTYLE
  5
9
330
0
100
AcDbSymbolTable
 70
     2
100
AcDbDimStyleTable
  0
DIMSTYLE
105
18
330
9
100
AcDbSymbolTableRecord
100
AcDbDimStyleTableRecord
  2
Standard
 70
     0
178
     0
340
17
  0
DIMSTYLE
105
57
102
{ACAD_REACTORS
330
3CBE
330
3CC1
330
3CC4
330
3CC7
330
3CC9
330
3CDF
330
3DEF
330
3E00
330
3F09
330
3F16
330
3F23
330
3F28
330
3F36
330
3F45
330
3F46
330
3F47
330
3F4C
330
3F4D
102
}
330
9
100
AcDbSymbolTableRecord
100
AcDbDimStyleTableRecord
  2
tfrom線あり
 70
     0
  3
<>
  4
[]
 41
2.0
 42
5.0
 43
0.9999999999999999
 44
0.0
 73
     0
 74
     0
 77
     1
 78
    11
140
5.0
141
0.0
143
1.0
147
5.0
171
     1
174
     1
178
     0
179
     2
271
     0
272
     1
276
     2
284
    11
285
    11
286
    11
289
     0
340
39
341
4E
342
4E
  0
ENDTAB
  0
TABLE
  2
BLOCK_RECORD
  5
1
330
0
100
AcDbSymbolTable
 70
    68
  0
BLOCK_RECORD
  5
A
102
{ACAD_XDICTIONARY
360
3FE4
102
}
330
1
100
AcDbSymbolTableRecord
100
AcDbBlockTableRecord
  2
*MODEL_SPACE
340
20
 70
     0
280
     1
281
     0
  0
BLOCK_RECORD
  5
B
330
1
100
AcDbSymbolTableRecord
100
AcDbBlockTableRecord
  2
*PAPER_SPACE
340
21
 70
     0
280
     1
281
     0
  0
BLOCK_RECORD
  5
4E
330
1
100
AcDbSymbolTableRecord
100
AcDbBlockTableRecord
  2
_DOT
340
0
102
{BLKREFS
331
37E4
331
37E5
331
37F0
331
37F1
331
37FC
331
37FD
331
3808
331
3809
331
3814
331
3815
331
3820
331
3821
331
382C
331
382D
331
3838
331
3839
331
3964
331
3965
331
3973
331
3974
331
3982
331
3983
331
3991
331
3992
331
399E
331
399F
331
39AD
331
39AE
331
39BC
331
39BD
331
39CB
331
39CC
331
39E7
331
39E8
331
39F6
331
39F7
331
3AE6
331
3AE7
331
3AF2
331
3AF3
331
3AFE
331
3AFF
331
3B0A
331
3B0B
331
3B16
331
3B17
331
3B22
331
3B23
331
3B2E
331
3B2F
331
3B3A
331
3B3B
331
3B46
331
3B47
331
3B52
331
3B53
331
3BDF
331
3BE0
331
3BEE
331
3BEF
331
3BFD
331
3BFE
331
3C0C
331
3C0D
331
3C19
331
3C1A
331
3C26
331
3C27
331
3C35
331
3C36
331
3C54
331
3C55
331
3C63
331
3C64
331
3C72
331
3C73
331
3CEB
331
3CEC
331
3CF7
331
3CF8
331
3D03
331
3D04
331
3D0F
331
3D10
331
3D1B
331
3D1C
331
3D27
331
3D28
331
3D33
331
3D34
331
3D3F
331
3D40
331
3D4B
331
3D4C
331
3D57
331
3D58
331
3DDD
331
3DDE
331
3DF9
331
3DFA
331
3E09
331
3E0A
331
3F5B
331
3F5C
331
3F67
331
3F68
331
3F74
331
3F75
331
3FDB
331
3FDC
102
}
 70
     0
280
     1
281
     0
  0
BLOCK_RECORD
  5
12C3
330
1
100
AcDbSymbolTableRecord
100
AcDbBlockTableRecord
  2
*Paper_Space1
340
12C4
 70
     0
280
     1
281
     0
  0
BLOCK_RECORD
  5
1D88
330
1
100
AcDbSymbolTableRecord
100
AcDbBlockTableRecord
  2
名称未設定-1
340
0
102
{BLKREFS
331
36E3
102
}
 70
     1
280
     1
281
     0
  0
BLOCK_RECORD
  5
1D8B
330
1
100
AcDbSymbolTableRecord
100
AcDbBlockTableRecord
  2
block 2
340
0
102
{BLKREFS
331
1D8A
102
}
 70
     0
280
     1
281
     0
  0
BLOCK_RECORD
  5
1D8E
330
1
100
AcDbSymbolTableRecord
100
AcDbBlockTableRecord
  2
block 3
340
0
102
{BLKREFS
331
1D8D
102
}
 70
     0
280
     1
281
     0
  0
BLOCK_RECORD
  5
1D91
330
1
100
AcDbSymbolTableRecord
100
AcDbBlockTableRecord
  2
block 4
340
0
102
{BLKREFS
331
1D90
102
}
 70
     0
280
     1
281
     0
  0
BLOCK_RECORD
  5
1DA0
330
1
100
AcDbSymbolTableRecord
100
AcDbBlockTableRecord
  2
block 5
340
0
102
{BLKREFS
331
1D9F
102
}
 70
     0
280
     1
281
     0
  0
BLOCK_RECORD
  5
37DF
330
1
100
AcDbSymbolTableRecord
100
AcDbBlockTableRecord
  2
*D7
340
0
 70
     0
280
     1
281
     0
  0
BLOCK_RECORD
  5
37EA
330
1
100
AcDbSymbolTableRecord
100
AcDbBlockTableRecord
  2
*D8
340
0
 70
     0
280
     1
281
     0
  0
BLOCK_RECORD
  5
37F6
330
1
100
AcDbSymbolTableRecord
100
AcDbBlockTableRecord
  2
*D9
340
0
 70
     0
280
     1
281
     0
  0
BLOCK_RECORD
  5
3802
330
1
100
AcDbSymbolTableRecord
100
AcDbBlockTableRecord
  2
*D10
340
0
 70
     0
280
     1
281
     0
  0
BLOCK_RECORD
  5
380E
330
1
100
AcDbSymbolTableRecord
100
AcDbBlockTableRecord
  2
*D11
340
0
 70
     0
280
     1
281
     0
  0
BLOCK_RECORD
  5
381A
330
1
100
AcDbSymbolTableRecord
100
AcDbBlockTableRecord
  2
*D12
340
0
 70
     0
280
     1
281
     0
  0
BLOCK_RECORD
  5
3826
330
1
100
AcDbSymbolTableRecord
100
AcDbBlockTableRecord
  2
*D13
340
0
 70
     0
280
     1
281
     0
  0
BLOCK_RECORD
  5
3832
330
1
100
AcDbSymbolTableRecord
100
AcDbBlockTableRecord
  2
*D14
340
0
 70
     0
280
     1
281
     0
  0
BLOCK_RECORD
  5
395F
330
1
100
AcDbSymbolTableRecord
100
AcDbBlockTableRecord
  2
*D15
340
0
 70
     0
280
     1
281
     0
  0
BLOCK_RECORD
  5
396E
330
1
100
AcDbSymbolTableRecord
100
AcDbBlockTableRecord
  2
*D16
340
0
 70
     0
280
     1
281
     0
  0
BLOCK_RECORD
  5
397D
330
1
100
AcDbSymbolTableRecord
100
AcDbBlockTableRecord
  2
*D17
340
0
 70
     0
280
     1
281
     0
  0
BLOCK_RECORD
  5
398C
330
1
100
AcDbSymbolTableRecord
100
AcDbBlockTableRecord
  2
*D18
340
0
 70
     0
280
     1
281
     0
  0
BLOCK_RECORD
  5
3999
330
1
100
AcDbSymbolTableRecord
100
AcDbBlockTableRecord
  2
*D19
340
0
 70
     0
280
     1
281
     0
  0
BLOCK_RECORD
  5
39A8
330
1
100
AcDbSymbolTableRecord
100
AcDbBlockTableRecord
  2
*D20
340
0
 70
     0
280
     1
281
     0
  0
BLOCK_RECORD
  5
39B7
330
1
100
AcDbSymbolTableRecord
100
AcDbBlockTableRecord
  2
*D21
340
0
 70
     0
280
     1
281
     0
  0
BLOCK_RECORD
  5
39C6
330
1
100
AcDbSymbolTableRecord
100
AcDbBlockTableRecord
  2
*D22
340
0
 70
     0
280
     1
281
     0
  0
BLOCK_RECORD
  5
39E2
330
1
100
AcDbSymbolTableRecord
100
AcDbBlockTableRecord
  2
*D23
340
0
 70
     0
280
     1
281
     0
  0
BLOCK_RECORD
  5
39F1
330
1
100
AcDbSymbolTableRecord
100
AcDbBlockTableRecord
  2
*D24
340
0
 70
     0
280
     1
281
     0
  0
BLOCK_RECORD
  5
3AE0
330
1
100
AcDbSymbolTableRecord
100
AcDbBlockTableRecord
  2
*D25
340
0
 70
     0
280
     1
281
     0
  0
BLOCK_RECORD
  5
3AEC
330
1
100
AcDbSymbolTableRecord
100
AcDbBlockTableRecord
  2
*D26
340
0
 70
     0
280
     1
281
     0
  0
BLOCK_RECORD
  5
3AF8
330
1
100
AcDbSymbolTableRecord
100
AcDbBlockTableRecord
  2
*D27
340
0
 70
     0
280
     1
281
     0
  0
BLOCK_RECORD
  5
3B04
330
1
100
AcDbSymbolTableRecord
100
AcDbBlockTableRecord
  2
*D28
340
0
 70
     0
280
     1
281
     0
  0
BLOCK_RECORD
  5
3B10
330
1
100
AcDbSymbolTableRecord
100
AcDbBlockTableRecord
  2
*D29
340
0
 70
     0
280
     1
281
     0
  0
BLOCK_RECORD
  5
3B1C
330
1
100
AcDbSymbolTableRecord
100
AcDbBlockTableRecord
  2
*D30
340
0
 70
     0
280
     1
281
     0
  0
BLOCK_RECORD
  5
3B28
330
1
100
AcDbSymbolTableRecord
100
AcDbBlockTableRecord
  2
*D31
340
0
 70
     0
280
     1
281
     0
  0
BLOCK_RECORD
  5
3B34
330
1
100
AcDbSymbolTableRecord
100
AcDbBlockTableRecord
  2
*D32
340
0
 70
     0
280
     1
281
     0
  0
BLOCK_RECORD
  5
3B40
330
1
100
AcDbSymbolTableRecord
100
AcDbBlockTableRecord
  2
*D33
340
0
 70
     0
280
     1
281
     0
  0
BLOCK_RECORD
  5
3B4C
330
1
100
AcDbSymbolTableRecord
100
AcDbBlockTableRecord
  2
*D34
340
0
 70
     0
280
     1
281
     0
  0
BLOCK_RECORD
  5
3BDA
330
1
100
AcDbSymbolTableRecord
100
AcDbBlockTableRecord
  2
*D35
340
0
 70
     0
280
     1
281
     0
  0
BLOCK_RECORD
  5
3BE9
330
1
100
AcDbSymbolTableRecord
100
AcDbBlockTableRecord
  2
*D36
340
0
 70
     0
280
     1
281
     0
  0
BLOCK_RECORD
  5
3BF8
330
1
100
AcDbSymbolTableRecord
100
AcDbBlockTableRecord
  2
*D37
340
0
 70
     0
280
     1
281
     0
  0
BLOCK_RECORD
  5
3C07
330
1
100
AcDbSymbolTableRecord
100
AcDbBlockTableRecord
  2
*D38
340
0
 70
     0
280
     1
281
     0
  0
BLOCK_RECORD
  5
3C14
330
1
100
AcDbSymbolTableRecord
100
AcDbBlockTableRecord
  2
*D39
340
0
 70
     0
280
     1
281
     0
  0
BLOCK_RECORD
  5
3C21
330
1
100
AcDbSymbolTableRecord
100
AcDbBlockTableRecord
  2
*D40
340
0
 70
     0
280
     1
281
     0
  0
BLOCK_RECORD
  5
3C30
330
1
100
AcDbSymbolTableRecord
100
AcDbBlockTableRecord
  2
*D41
340
0
 70
     0
280
     1
281
     0
  0
BLOCK_RECORD
  5
3C4F
330
1
100
AcDbSymbolTableRecord
100
AcDbBlockTableRecord
  2
*D42
340
0
 70
     0
280
     1
281
     0
  0
BLOCK_RECORD
  5
3C5E
330
1
100
AcDbSymbolTableRecord
100
AcDbBlockTableRecord
  2
*D43
340
0
 70
     0
280
     1
281
     0
  0
BLOCK_RECORD
  5
3C6D
330
1
100
AcDbSymbolTableRecord
100
AcDbBlockTableRecord
  2
*D44
340
0
 70
     0
280
     1
281
     0
  0
BLOCK_RECORD
  5
3CE5
330
1
100
AcDbSymbolTableRecord
100
AcDbBlockTableRecord
  2
*D45
340
0
 70
     0
280
     1
281
     0
  0
BLOCK_RECORD
  5
3CF1
330
1
100
AcDbSymbolTableRecord
100
AcDbBlockTableRecord
  2
*D46
340
0
 70
     0
280
     1
281
     0
  0
BLOCK_RECORD
  5
3CFD
330
1
100
AcDbSymbolTableRecord
100
AcDbBlockTableRecord
  2
*D47
340
0
 70
     0
280
     1
281
     0
  0
BLOCK_RECORD
  5
3D09
330
1
100
AcDbSymbolTableRecord
100
AcDbBlockTableRecord
  2
*D48
340
0
 70
     0
280
     1
281
     0
  0
BLOCK_RECORD
  5
3D15
330
1
100
AcDbSymbolTableRecord
100
AcDbBlockTableRecord
  2
*D49
340
0
 70
     0
280
     1
281
     0
  0
BLOCK_RECORD
  5
3D21
330
1
100
AcDbSymbolTableRecord
100
AcDbBlockTableRecord
  2
*D50
340
0
 70
     0
280
     1
281
     0
  0
BLOCK_RECORD
  5
3D2D
330
1
100
AcDbSymbolTableRecord
100
AcDbBlockTableRecord
  2
*D51
340
0
 70
     0
280
     1
281
     0
  0
BLOCK_RECORD
  5
3D39
330
1
100
AcDbSymbolTableRecord
100
AcDbBlockTableRecord
  2
*D52
340
0
 70
     0
280
     1
281
     0
  0
BLOCK_RECORD
  5
3D45
330
1
100
AcDbSymbolTableRecord
100
AcDbBlockTableRecord
  2
*D53
340
0
 70
     0
280
     1
281
     0
  0
BLOCK_RECORD
  5
3D51
330
1
100
AcDbSymbolTableRecord
100
AcDbBlockTableRecord
  2
*D54
340
0
 70
     0
280
     1
281
     0
  0
BLOCK_RECORD
  5
3DD8
330
1
100
AcDbSymbolTableRecord
100
AcDbBlockTableRecord
  2
*D55
340
0
 70
     0
280
     1
281
     0
  0
BLOCK_RECORD
  5
3DF3
330
1
100
AcDbSymbolTableRecord
100
AcDbBlockTableRecord
  2
*D56
340
0
 70
     0
280
     1
281
     0
  0
BLOCK_RECORD
  5
3E03
330
1
100
AcDbSymbolTableRecord
100
AcDbBlockTableRecord
  2
*D57
340
0
 70
     0
280
     1
281
     0
  0
BLOCK_RECORD
  5
3F0A
330
1
100
AcDbSymbolTableRecord
100
AcDbBlockTableRecord
  2
*D59
340
0
 70
     0
280
     1
281
     0
  0
BLOCK_RECORD
  5
3F17
330
1
100
AcDbSymbolTableRecord
100
AcDbBlockTableRecord
  2
*D60
340
0
 70
     0
280
     1
281
     0
  0
BLOCK_RECORD
  5
3F29
330
1
100
AcDbSymbolTableRecord
100
AcDbBlockTableRecord
  2
*D61
340
0
 70
     0
280
     1
281
     0
  0
BLOCK_RECORD
  5
3F55
330
1
100
AcDbSymbolTableRecord
100
AcDbBlockTableRecord
  2
*D62
340
0
 70
     0
280
     1
281
     0
  0
BLOCK_RECORD
  5
3F61
330
1
100
AcDbSymbolTableRecord
100
AcDbBlockTableRecord
  2
*D63
340
0
 70
     0
280
     1
281
     0
  0
BLOCK_RECORD
  5
3F6D
330
1
100
AcDbSymbolTableRecord
100
AcDbBlockTableRecord
  2
*D64
340
0
 70
     0
280
     1
281
     0
  0
BLOCK_RECORD
  5
3FD5
330
1
100
AcDbSymbolTableRecord
100
AcDbBlockTableRecord
  2
*D66
340
0
 70
     0
280
     1
281
     0
  0
ENDTAB
  0
ENDSEC
  0
SECTION
  2
BLOCKS
  0
BLOCK
  5
D
330
A
100
AcDbEntity
  8
0
390
1D
100
AcDbBlockBegin
  2
*MODEL_SPACE
 70
     0
 10
0.0
 20
0.0
 30
0.0
  3
*MODEL_SPACE
  1
*MODEL_SPACE
  0
ENDBLK
  5
E
330
A
100
AcDbEntity
  8
0
390
1D
100
AcDbBlockEnd
  0
BLOCK
  5
F
330
B
100
AcDbEntity
 67
     1
  8
0
390
1D
100
AcDbBlockBegin
  2
*PAPER_SPACE
 70
     0
 10
0.0
 20
0.0
 30
0.0
  3
*PAPER_SPACE
  1
*PAPER_SPACE
  0
ENDBLK
  5
10
330
B
100
AcDbEntity
 67
     1
  8
0
390
1D
100
AcDbBlockEnd
  0
BLOCK
  5
1066
330
4E
100
AcDbEntity
  8
0
390
1D
100
AcDbBlockBegin
  2
_DOT
 70
     0
 10
0.0
 20
0.0
 30
0.0
  3
_DOT
  1
_DOT
  0
POLYLINE
  5
1068
330
4E
100
AcDbEntity
  8
0
  6
ByBlock
 62
     0
370
    -2
390
1D
100
AcDb2dPolyline
 66
     1
 10
0.0
 20
0.0
 30
0.0
 70
     1
 40
0.5
 41
0.5
  0
VERTEX
  5
1069
330
1068
100
AcDbEntity
  8
0
  6
ByBlock
 62
     0
370
    -2
390
1D
100
AcDbVertex
100
AcDb2dVertex
 10
-0.25
 20
0.0
 30
0.0
 42
1.0
  0
VERTEX
  5
106A
330
1068
100
AcDbEntity
  8
0
  6
ByBlock
 62
     0
370
    -2
390
1D
100
AcDbVertex
100
AcDb2dVertex
 10
0.25
 20
0.0
 30
0.0
 42
1.0
  0
SEQEND
  5
106B
330
1068
100
AcDbEntity
  8
0
390
1D
  0
LINE
  5
106C
330
4E
100
AcDbEntity
  8
0
  6
ByBlock
 62
     0
370
    -2
390
1D
100
AcDbLine
 10
-0.5
 20
0.0
 30
0.0
 11
-1.0
 21
0.0
 31
0.0
  0
ENDBLK
  5
106D
330
4E
100
AcDbEntity
  8
0
390
1D
100
AcDbBlockEnd
  0
BLOCK
  5
12C5
330
12C3
100
AcDbEntity
  8
0
100
AcDbBlockBegin
  2
*Paper_Space1
 70
     0
 10
0.0
 20
0.0
 30
0.0
  3
*Paper_Space1
  1
*Paper_Space83
  0
ENDBLK
  5
12C6
330
12C3
100
AcDbEntity
  8
0
100
AcDbBlockEnd
  0
BLOCK
  5
1D89
330
1D88
100
AcDbEntity
  8
0
100
AcDbBlockBegin
  2
名称未設定-1
 70
     0
 10
0.0
 20
0.0
 30
0.0
  3
名称未設定-1
  1
名称未設定-1
  0
INSERT
  5
1D8A
330
1D88
100
AcDbEntity
  8
TFORMLOGO
100
AcDbBlockReference
  2
block 2
 10
0.0
 20
0.0
 30
0.0
  0
ENDBLK
  5
1DAF
330
1D88
100
AcDbEntity
  8
0
100
AcDbBlockEnd
  0
BLOCK
  5
1D8C
330
1D8B
100
AcDbEntity
  8
0
100
AcDbBlockBegin
  2
block 2
 70
     0
 10
0.0
 20
0.0
 30
0.0
  3
block 2
  1
block 2
  0
INSERT
  5
1D8D
330
1D8B
100
AcDbEntity
  8
TFORMLOGO
100
AcDbBlockReference
  2
block 3
 10
0.0
 20
0.0
 30
0.0
  0
ENDBLK
  5
1DAE
330
1D8B
100
AcDbEntity
  8
0
100
AcDbBlockEnd
  0
BLOCK
  5
1D8F
330
1D8E
100
AcDbEntity
  8
0
100
AcDbBlockBegin
  2
block 3
 70
     0
 10
0.0
 20
0.0
 30
0.0
  3
block 3
  1
block 3
  0
INSERT
  5
1D90
330
1D8E
100
AcDbEntity
  8
TFORMLOGO
100
AcDbBlockReference
  2
block 4
 10
0.0
 20
0.0
 30
0.0
  0
ENDBLK
  5
1DAD
330
1D8E
100
AcDbEntity
  8
0
100
AcDbBlockEnd
  0
BLOCK
  5
1D92
330
1D91
100
AcDbEntity
  8
0
100
AcDbBlockBegin
  2
block 4
 70
     0
 10
0.0
 20
0.0
 30
0.0
  3
block 4
  1
block 4
  0
POLYLINE
  5
1D93
330
1D91
100
AcDbEntity
  8
TFORMLOGO
370
     0
100
AcDb2dPolyline
 66
     1
 10
0.0
 20
0.0
 30
0.0
  0
VERTEX
  5
1D94
330
1D93
100
AcDbEntity
  8
TFORMLOGO
370
     0
100
AcDbVertex
100
AcDb2dVertex
 10
83.79545727667795
 20
167.6444858234922
 30
0.0
  0
VERTEX
  5
1D95
330
1D93
100
AcDbEntity
  8
TFORMLOGO
370
     0
100
AcDbVertex
100
AcDb2dVertex
 10
83.79545727667795
 20
159.7968976406313
 30
0.0
  0
VERTEX
  5
1D96
330
1D93
100
AcDbEntity
  8
TFORMLOGO
370
     0
100
AcDbVertex
100
AcDb2dVertex
 10
71.3631329975216
 20
159.7968976406313
 30
0.0
  0
VERTEX
  5
1D97
330
1D93
100
AcDbEntity
  8
TFORMLOGO
370
     0
100
AcDbVertex
100
AcDb2dVertex
 10
71.3631329975216
 20
127.8027915271048
 30
0.0
  0
VERTEX
  5
1D98
330
1D93
100
AcDbEntity
  8
TFORMLOGO
370
     0
100
AcDbVertex
100
AcDb2dVertex
 10
60.43011526263018
 20
127.8027915271048
 30
0.0
  0
VERTEX
  5
1D99
330
1D93
100
AcDbEntity
  8
TFORMLOGO
370
     0
100
AcDbVertex
100
AcDb2dVertex
 10
60.43011526263018
 20
159.7968976406313
 30
0.0
  0
VERTEX
  5
1D9A
330
1D93
100
AcDbEntity
  8
TFORMLOGO
370
     0
100
AcDbVertex
100
AcDb2dVertex
 10
48.21793273020759
 20
159.7968976406313
 30
0.0
  0
VERTEX
  5
1D9B
330
1D93
100
AcDbEntity
  8
TFORMLOGO
370
     0
100
AcDbVertex
100
AcDb2dVertex
 10
48.21793273020759
 20
167.6444858234922
 30
0.0
  0
VERTEX
  5
1D9C
330
1D93
100
AcDbEntity
  8
TFORMLOGO
370
     0
100
AcDbVertex
100
AcDb2dVertex
 10
83.79545727667795
 20
167.6444858234922
 30
0.0
  0
SEQEND
  5
1D9D
330
1D93
100
AcDbEntity
  8
TFORMLOGO
370
     0
  0
HATCH
  5
1D9E
330
1D91
100
AcDbEntity
  8
TFORMLOGO
 62
   250
420
  2234388
100
AcDbHatch
 10
0.0
 20
0.0
 30
0.0
210
0.0
220
0.0
230
1.0
  2
SOLID
 70
     1
 71
     0
 91
        1
 92
        1
 93
        8
 72
     1
 10
83.79545727667795
 20
167.6444858234922
 11
83.79545727667795
 21
159.7968976406313
 72
     1
 10
83.79545727667795
 20
159.7968976406313
 11
71.3631329975216
 21
159.7968976406313
 72
     1
 10
71.3631329975216
 20
159.7968976406313
 11
71.3631329975216
 21
127.8027915271048
 72
     1
 10
71.3631329975216
 20
127.8027915271048
 11
60.43011526263018
 21
127.8027915271048
 72
     1
 10
60.43011526263018
 20
127.8027915271048
 11
60.43011526263018
 21
159.7968976406313
 72
     1
 10
60.43011526263018
 20
159.7968976406313
 11
48.21793273020759
 21
159.7968976406313
 72
     1
 10
48.21793273020759
 20
159.7968976406313
 11
48.21793273020759
 21
167.6444858234922
 72
     1
 10
48.21793273020759
 20
167.6444858234922
 11
83.79545727667795
 21
167.6444858234922
 97
        0
 75
     2
 76
     1
 98
        0
  0
INSERT
  5
1D9F
330
1D91
100
AcDbEntity
  8
TFORMLOGO
100
AcDbBlockReference
  2
block 5
 10
0.0
 20
0.0
 30
0.0
  0
ENDBLK
  5
1DAC
330
1D91
100
AcDbEntity
  8
0
100
AcDbBlockEnd
  0
BLOCK
  5
1DA1
330
1DA0
100
AcDbEntity
  8
0
100
AcDbBlockBegin
  2
block 5
 70
     0
 10
0.0
 20
0.0
 30
0.0
  3
block 5
  1
block 5
  0
SPLINE
  5
1DA2
330
1DA0
100
AcDbEntity
  8
TFORMLOGO
370
     0
100
AcDbSpline
210
0.0
220
0.0
230
1.0
 70
    11
 71
     3
 72
    56
 73
    52
 74
     0
 42
0.000000001
 43
0.0000000001
 40
0.0
 40
0.0
 40
0.0
 40
0.0
 40
1.0
 40
1.0
 40
1.0
 40
2.0
 40
2.0
 40
2.0
 40
3.0
 40
3.0
 40
3.0
 40
4.0
 40
4.0
 40
4.0
 40
5.0
 40
5.0
 40
5.0
 40
6.0
 40
6.0
 40
6.0
 40
7.0
 40
7.0
 40
7.0
 40
8.0
 40
8.0
 40
8.0
 40
9.0
 40
9.0
 40
9.0
 40
10.0
 40
10.0
 40
10.0
 40
11.0
 40
11.0
 40
11.0
 40
12.0
 40
12.0
 40
12.0
 40
13.0
 40
13.0
 40
13.0
 40
14.0
 40
14.0
 40
14.0
 40
15.0
 40
15.0
 40
15.0
 40
16.0
 40
16.0
 40
16.0
 40
17.0
 40
17.0
 40
17.0
 40
17.0
 10
100.4504378777679
 20
166.69157178364
 30
0.0
 10
101.9848844191641
 20
167.1313385124438
 30
0.0
 10
103.9637485713373
 20
166.7649523658846
 30
0.0
 10
103.9637485713373
 20
166.7649523658846
 30
0.0
 10
103.9637485713373
 20
166.7649523658846
 30
0.0
 10
103.0132460999156
 20
163.911205638077
 30
0.0
 10
103.0132460999156
 20
163.911205638077
 30
0.0
 10
103.0132460999156
 20
163.911205638077
 30
0.0
 10
101.0674548862189
 20
164.3601018759394
 30
0.0
 10
99.57090442016032
 20
163.1805004036133
 30
0.0
 10
98.40508333886608
 20
162.258247733807
 30
0.0
 10
97.65301849830304
 20
159.804132345923
 30
0.0
 10
97.3598406791005
 20
158.8699940888517
 30
0.0
 10
97.3598406791005
 20
158.8699940888517
 30
0.0
 10
96.07137411762282
 20
154.9119212747295
 30
0.0
 10
96.07137411762282
 20
154.9119212747295
 30
0.0
 10
96.07137411762282
 20
154.9119212747295
 30
0.0
 10
100.3012651448482
 20
154.9119212747295
 30
0.0
 10
100.3012651448482
 20
154.9119212747295
 30
0.0
 10
100.3012651448482
 20
154.9119212747295
 30
0.0
 10
99.64152892419852
 20
152.4199098115079
 30
0.0
 10
99.64152892419852
 20
152.4199098115079
 30
0.0
 10
99.64152892419852
 20
152.4199098115079
 30
0.0
 10
95.38097652692731
 20
152.4199098115079
 30
0.0
 10
95.38097652692731
 20
152.4199098115079
 30
0.0
 10
95.38097652692731
 20
152.4199098115079
 30
0.0
 10
87.75353009080013
 20
127.8027915271048
 30
0.0
 10
87.75353009080013
 20
127.8027915271048
 30
0.0
 10
87.75353009080013
 20
127.8027915271048
 30
0.0
 10
85.36538832498108
 20
127.8027915271048
 30
0.0
 10
85.36538832498108
 20
127.8027915271048
 30
0.0
 10
85.36538832498108
 20
127.8027915271048
 30
0.0
 10
93.00006946639998
 20
152.4199098115079
 30
0.0
 10
93.00006946639998
 20
152.4199098115079
 30
0.0
 10
93.00006946639998
 20
152.4199098115079
 30
0.0
 10
89.85297266450198
 20
152.4199098115079
 30
0.0
 10
89.85297266450198
 20
152.4199098115079
 30
0.0
 10
89.85297266450198
 20
152.4199098115079
 30
0.0
 10
90.51270888515164
 20
154.9119212747295
 30
0.0
 10
90.51270888515164
 20
154.9119212747295
 30
0.0
 10
90.51270888515164
 20
154.9119212747295
 30
0.0
 10
93.6904670570955
 20
154.9119212747295
 30
0.0
 10
93.6904670570955
 20
154.9119212747295
 30
0.0
 10
93.6904670570955
 20
154.9119212747295
 30
0.0
 10
94.81598049462158
 20
158.3616699146644
 30
0.0
 10
94.81598049462158
 20
158.3616699146644
 30
0.0
 10
95.7237637538445
 20
161.2605474231013
 30
0.0
 10
96.4968436907311
 20
162.8139420021662
 30
0.0
 10
97.15657991138076
 20
163.9844139654337
 30
0.0
 10
97.81183750494507
 20
165.1523021053827
 30
0.0
 10
99.1047826935081
 20
166.3084769129547
 30
0.0
 10
100.4504378777679
 20
166.69157178364
 30
0.0
  0
HATCH
  5
1DA3
330
1DA0
100
AcDbEntity
  8
TFORMLOGO
 62
   250
420
  2234388
100
AcDbHatch
 10
0.0
 20
0.0
 30
0.0
210
0.0
220
0.0
230
1.0
  2
SOLID
 70
     1
 71
     0
 91
        1
 92
        1
 93
        1
 72
     4
 94
        3
 73
     0
 74
     1
 95
       56
 96
       52
 40
0.0
 40
0.0
 40
0.0
 40
0.0
 40
1.0
 40
1.0
 40
1.0
 40
2.0
 40
2.0
 40
2.0
 40
3.0
 40
3.0
 40
3.0
 40
4.0
 40
4.0
 40
4.0
 40
5.0
 40
5.0
 40
5.0
 40
6.0
 40
6.0
 40
6.0
 40
7.0
 40
7.0
 40
7.0
 40
8.0
 40
8.0
 40
8.0
 40
9.0
 40
9.0
 40
9.0
 40
10.0
 40
10.0
 40
10.0
 40
11.0
 40
11.0
 40
11.0
 40
12.0
 40
12.0
 40
12.0
 40
13.0
 40
13.0
 40
13.0
 40
14.0
 40
14.0
 40
14.0
 40
15.0
 40
15.0
 40
15.0
 40
16.0
 40
16.0
 40
16.0
 40
17.0
 40
17.0
 40
17.0
 40
17.0
 10
100.4504378777679
 20
166.69157178364
 10
101.9848844191641
 20
167.1313385124438
 10
103.9637485713373
 20
166.7649523658846
 10
103.9637485713373
 20
166.7649523658846
 10
103.9637485713373
 20
166.7649523658846
 10
103.0132460999156
 20
163.911205638077
 10
103.0132460999156
 20
163.911205638077
 10
103.0132460999156
 20
163.911205638077
 10
101.0674548862189
 20
164.3601018759394
 10
99.57090442016032
 20
163.1805004036133
 10
98.40508333886608
 20
162.258247733807
 10
97.65301849830304
 20
159.804132345923
 10
97.3598406791005
 20
158.8699940888517
 10
97.3598406791005
 20
158.8699940888517
 10
96.07137411762282
 20
154.9119212747295
 10
96.07137411762282
 20
154.9119212747295
 10
96.07137411762282
 20
154.9119212747295
 10
100.3012651448482
 20
154.9119212747295
 10
100.3012651448482
 20
154.9119212747295
 10
100.3012651448482
 20
154.9119212747295
 10
99.64152892419852
 20
152.4199098115079
 10
99.64152892419852
 20
152.4199098115079
 10
99.64152892419852
 20
152.4199098115079
 10
95.38097652692731
 20
152.4199098115079
 10
95.38097652692731
 20
152.4199098115079
 10
95.38097652692731
 20
152.4199098115079
 10
87.75353009080013
 20
127.8027915271048
 10
87.75353009080013
 20
127.8027915271048
 10
87.75353009080013
 20
127.8027915271048
 10
85.36538832498108
 20
127.8027915271048
 10
85.36538832498108
 20
127.8027915271048
 10
85.36538832498108
 20
127.8027915271048
 10
93.00006946639998
 20
152.4199098115079
 10
93.00006946639998
 20
152.4199098115079
 10
93.00006946639998
 20
152.4199098115079
 10
89.85297266450198
 20
152.4199098115079
 10
89.85297266450198
 20
152.4199098115079
 10
89.85297266450198
 20
152.4199098115079
 10
90.51270888515164
 20
154.9119212747295
 10
90.51270888515164
 20
154.9119212747295
 10
90.51270888515164
 20
154.9119212747295
 10
93.6904670570955
 20
154.9119212747295
 10
93.6904670570955
 20
154.9119212747295
 10
93.6904670570955
 20
154.9119212747295
 10
94.81598049462158
 20
158.3616699146644
 10
94.81598049462158
 20
158.3616699146644
 10
95.7237637538445
 20
161.2605474231013
 10
96.4968436907311
 20
162.8139420021662
 10
97.15657991138076
 20
163.9844139654337
 10
97.81183750494507
 20
165.1523021053827
 10
99.1047826935081
 20
166.3084769129547
 10
100.4504378777679
 20
166.69157178364
 97
        0
 75
     2
 76
     1
 98
        0
  0
SPLINE
  5
1DA4
330
1DA0
100
AcDbEntity
  8
TFORMLOGO
370
     0
100
AcDbSpline
210
0.0
220
0.0
230
1.0
 70
    11
 71
     3
 72
    38
 73
    34
 74
     0
 42
0.000000001
 43
0.0000000001
 40
0.0
 40
0.0
 40
0.0
 40
0.0
 40
1.0
 40
1.0
 40
1.0
 40
2.0
 40
2.0
 40
2.0
 40
3.0
 40
3.0
 40
3.0
 40
4.0
 40
4.0
 40
4.0
 40
5.0
 40
5.0
 40
5.0
 40
6.0
 40
6.0
 40
6.0
 40
7.0
 40
7.0
 40
7.0
 40
8.0
 40
8.0
 40
8.0
 40
9.0
 40
9.0
 40
9.0
 40
10.0
 40
10.0
 40
10.0
 40
11.0
 40
11.0
 40
11.0
 40
11.0
 10
126.377554584636
 20
154.8151140277308
 30
0.0
 10
126.377554584636
 20
154.8151140277308
 30
0.0
 10
128.8311532078563
 20
154.8151140277308
 30
0.0
 10
128.8311532078563
 20
154.8151140277308
 30
0.0
 10
128.8311532078563
 20
154.8151140277308
 30
0.0
 10
127.7345785914971
 20
151.3062819612468
 30
0.0
 10
127.7345785914971
 20
151.3062819612468
 30
0.0
 10
128.571392836906
 20
152.2922689395754
 30
0.0
 10
129.8860421413442
 20
153.604506675583
 30
0.0
 10
131.0163787157314
 20
154.2664822097754
 30
0.0
 10
132.7044766171327
 20
155.2500576196734
 30
0.0
 10
133.6642808525008
 20
155.3847609420097
 30
0.0
 10
134.7284715499351
 20
155.3565111403944
 30
0.0
 10
134.7284715499351
 20
155.3565111403944
 30
0.0
 10
133.6877075172549
 20
152.0345756272799
 30
0.0
 10
133.6877075172549
 20
152.0345756272799
 30
0.0
 10
133.011434827367
 20
152.3184516825359
 30
0.0
 10
130.930940291334
 20
151.7768823149844
 30
0.0
 10
129.739280976855
 20
150.9162968950455
 30
0.0
 10
128.66613302525
 20
150.1454562717016
 30
0.0
 10
127.9192358313239
 20
149.4857200510519
 30
0.0
 10
127.0393578639405
 20
147.8282835196966
 30
0.0
 10
126.164647543194
 20
146.1699857139017
 30
0.0
 10
125.4742499524985
 20
143.5262176944419
 30
0.0
 10
124.2822461282437
 20
139.6959580071401
 30
0.0
 10
124.2822461282437
 20
139.6959580071401
 30
0.0
 10
120.5753209406769
 20
127.8027915271048
 30
0.0
 10
120.5753209406769
 20
127.8027915271048
 30
0.0
 10
120.5753209406769
 20
127.8027915271048
 30
0.0
 10
118.1964809388044
 20
127.8027915271048
 30
0.0
 10
118.1964809388044
 20
127.8027915271048
 30
0.0
 10
118.1964809388044
 20
127.8027915271048
 30
0.0
 10
126.377554584636
 20
154.8151140277308
 30
0.0
 10
126.377554584636
 20
154.8151140277308
 30
0.0
  0
HATCH
  5
1DA5
330
1DA0
100
AcDbEntity
  8
TFORMLOGO
 62
   250
420
  2234388
100
AcDbHatch
 10
0.0
 20
0.0
 30
0.0
210
0.0
220
0.0
230
1.0
  2
SOLID
 70
     1
 71
     0
 91
        1
 92
        1
 93
        1
 72
     4
 94
        3
 73
     0
 74
     1
 95
       38
 96
       34
 40
0.0
 40
0.0
 40
0.0
 40
0.0
 40
1.0
 40
1.0
 40
1.0
 40
2.0
 40
2.0
 40
2.0
 40
3.0
 40
3.0
 40
3.0
 40
4.0
 40
4.0
 40
4.0
 40
5.0
 40
5.0
 40
5.0
 40
6.0
 40
6.0
 40
6.0
 40
7.0
 40
7.0
 40
7.0
 40
8.0
 40
8.0
 40
8.0
 40
9.0
 40
9.0
 40
9.0
 40
10.0
 40
10.0
 40
10.0
 40
11.0
 40
11.0
 40
11.0
 40
11.0
 10
126.377554584636
 20
154.8151140277308
 10
126.377554584636
 20
154.8151140277308
 10
128.8311532078563
 20
154.8151140277308
 10
128.8311532078563
 20
154.8151140277308
 10
128.8311532078563
 20
154.8151140277308
 10
127.7345785914971
 20
151.3062819612468
 10
127.7345785914971
 20
151.3062819612468
 10
128.571392836906
 20
152.2922689395754
 10
129.8860421413442
 20
153.604506675583
 10
131.0163787157314
 20
154.2664822097754
 10
132.7044766171327
 20
155.2500576196734
 10
133.6642808525008
 20
155.3847609420097
 10
134.7284715499351
 20
155.3565111403944
 10
134.7284715499351
 20
155.3565111403944
 10
133.6877075172549
 20
152.0345756272799
 10
133.6877075172549
 20
152.0345756272799
 10
133.011434827367
 20
152.3184516825359
 10
130.930940291334
 20
151.7768823149844
 10
129.739280976855
 20
150.9162968950455
 10
128.66613302525
 20
150.1454562717016
 10
127.9192358313239
 20
149.4857200510519
 10
127.0393578639405
 20
147.8282835196966
 10
126.164647543194
 20
146.1699857139017
 10
125.4742499524985
 20
143.5262176944419
 10
124.2822461282437
 20
139.6959580071401
 10
124.2822461282437
 20
139.6959580071401
 10
120.5753209406769
 20
127.8027915271048
 10
120.5753209406769
 20
127.8027915271048
 10
120.5753209406769
 20
127.8027915271048
 10
118.1964809388044
 20
127.8027915271048
 10
118.1964809388044
 20
127.8027915271048
 10
118.1964809388044
 20
127.8027915271048
 10
126.377554584636
 20
154.8151140277308
 10
126.377554584636
 20
154.8151140277308
 97
        0
 75
     2
 76
     1
 98
        0
  0
SPLINE
  5
1DA6
330
1DA0
100
AcDbEntity
  8
TFORMLOGO
370
     0
100
AcDbSpline
210
0.0
220
0.0
230
1.0
 70
    11
 71
     3
 72
   104
 73
   100
 74
     0
 42
0.000000001
 43
0.0000000001
 40
0.0
 40
0.0
 40
0.0
 40
0.0
 40
1.0
 40
1.0
 40
1.0
 40
2.0
 40
2.0
 40
2.0
 40
3.0
 40
3.0
 40
3.0
 40
4.0
 40
4.0
 40
4.0
 40
5.0
 40
5.0
 40
5.0
 40
6.0
 40
6.0
 40
6.0
 40
7.0
 40
7.0
 40
7.0
 40
8.0
 40
8.0
 40
8.0
 40
9.0
 40
9.0
 40
9.0
 40
10.0
 40
10.0
 40
10.0
 40
11.0
 40
11.0
 40
11.0
 40
12.0
 40
12.0
 40
12.0
 40
13.0
 40
13.0
 40
13.0
 40
14.0
 40
14.0
 40
14.0
 40
15.0
 40
15.0
 40
15.0
 40
16.0
 40
16.0
 40
16.0
 40
17.0
 40
17.0
 40
17.0
 40
18.0
 40
18.0
 40
18.0
 40
19.0
 40
19.0
 40
19.0
 40
20.0
 40
20.0
 40
20.0
 40
21.0
 40
21.0
 40
21.0
 40
22.0
 40
22.0
 40
22.0
 40
23.0
 40
23.0
 40
23.0
 40
24.0
 40
24.0
 40
24.0
 40
25.0
 40
25.0
 40
25.0
 40
26.0
 40
26.0
 40
26.0
 40
27.0
 40
27.0
 40
27.0
 40
28.0
 40
28.0
 40
28.0
 40
29.0
 40
29.0
 40
29.0
 40
30.0
 40
30.0
 40
30.0
 40
31.0
 40
31.0
 40
31.0
 40
32.0
 40
32.0
 40
32.0
 40
33.0
 40
33.0
 40
33.0
 40
33.0
 10
139.8926730891197
 20
154.8294111834263
 30
0.0
 10
139.8926730891197
 20
154.8294111834263
 30
0.0
 10
142.0344903652445
 20
154.8294111834263
 30
0.0
 10
142.0344903652445
 20
154.8294111834263
 30
0.0
 10
142.0344903652445
 20
154.8294111834263
 30
0.0
 10
140.9516961399171
 20
151.3157559800812
 30
0.0
 10
140.9516961399171
 20
151.3157559800812
 30
0.0
 10
141.8928968473923
 20
152.7887075264977
 30
0.0
 10
142.7341897198865
 20
153.4484437471474
 30
0.0
 10
143.8552245303272
 20
154.2926649527359
 30
0.0
 10
144.9803934580775
 20
155.1296514530327
 30
0.0
 10
146.3139908001845
 20
155.3044901642492
 30
0.0
 10
147.241066606852
 20
155.3044901642492
 30
0.0
 10
148.3855280820469
 20
155.3044901642492
 30
0.0
 10
149.4969166187653
 20
155.0752189084569
 30
0.0
 10
150.0784491203092
 20
153.8172414621372
 30
0.0
 10
150.5228667310863
 20
152.833838307127
 30
0.0
 10
150.5414702589793
 20
152.7201500811143
 30
0.0
 10
150.4140016419347
 20
150.7765981809602
 30
0.0
 10
151.5818897818837
 20
152.7699317437168
 30
0.0
 10
152.4424752018226
 20
153.6256940267945
 30
0.0
 10
153.9038856707499
 20
154.4507949398263
 30
0.0
 10
155.4455669174378
 20
155.3044901642492
 30
0.0
 10
156.339225275853
 20
155.3659851592288
 30
0.0
 10
157.3748216618963
 20
155.2147453676543
 30
0.0
 10
158.911679771723
 20
154.9877134254046
 30
0.0
 10
159.8859534176746
 20
154.4390816074493
 30
0.0
 10
160.3965169054045
 20
152.7816450760939
 30
0.0
 10
160.9070803931344
 20
151.1219692311958
 30
0.0
 10
160.6328506116007
 20
150.2303779314354
 30
0.0
 10
159.9992971339115
 20
147.597634224801
 30
0.0
 10
159.7105979417943
 20
146.4014962832367
 30
0.0
 10
159.2947746424084
 20
144.9400858143094
 30
0.0
 10
158.7463150793409
 20
143.2092687007094
 30
0.0
 10
158.7463150793409
 20
143.2092687007094
 30
0.0
 10
153.9038856707499
 20
127.8027915271048
 30
0.0
 10
153.9038856707499
 20
127.8027915271048
 30
0.0
 10
153.9038856707499
 20
127.8027915271048
 30
0.0
 10
151.3882752878863
 20
127.8027915271048
 30
0.0
 10
151.3882752878863
 20
127.8027915271048
 30
0.0
 10
151.3882752878863
 20
127.8027915271048
 30
0.0
 10
155.6250565106276
 20
141.2751908193897
 30
0.0
 10
155.6250565106276
 20
141.2751908193897
 30
0.0
 10
156.5094131050963
 20
144.0936252951782
 30
0.0
 10
157.109893644309
 20
146.1506931664571
 30
0.0
 10
157.4220195011804
 20
147.4415712963654
 30
0.0
 10
157.8095929989511
 20
149.0530157726519
 30
0.0
 10
157.9656559273867
 20
149.5826995529385
 30
0.0
 10
157.7816877071116
 20
150.7529992613181
 30
0.0
 10
157.6111553680925
 20
151.8430281919372
 30
0.0
 10
157.0582171779396
 20
152.5547853887321
 30
0.0
 10
156.1170164704645
 20
152.5547853887321
 30
0.0
 10
155.1096698860365
 20
152.5547853887321
 30
0.0
 10
154.2962823053817
 20
152.4412694176073
 30
0.0
 10
153.156643967048
 20
151.2945686288697
 30
0.0
 10
152.0170056287143
 20
150.1476955852443
 30
0.0
 10
151.076149431015
 20
148.7930831468137
 30
0.0
 10
150.3337308641742
 20
147.2290087646991
 30
0.0
 10
149.5957909244188
 20
145.6683794803425
 30
0.0
 10
148.8530278478023
 20
143.6822806228776
 30
0.0
 10
148.0964843801539
 20
141.2751908193897
 30
0.0
 10
148.0964843801539
 20
141.2751908193897
 30
0.0
 10
143.8552245303272
 20
127.8027915271048
 30
0.0
 10
143.8552245303272
 20
127.8027915271048
 30
0.0
 10
143.8552245303272
 20
127.8027915271048
 30
0.0
 10
141.486030802177
 20
127.8027915271048
 30
0.0
 10
141.486030802177
 20
127.8027915271048
 30
0.0
 10
141.486030802177
 20
127.8027915271048
 30
0.0
 10
146.3329388378533
 20
143.2092687007094
 30
0.0
 10
146.3329388378533
 20
143.2092687007094
 30
0.0
 10
146.8483254624444
 20
144.8408669988801
 30
0.0
 10
147.2314203331297
 20
146.1837661049335
 30
0.0
 10
147.4867020769946
 20
147.224185627838
 30
0.0
 10
147.9169947869641
 20
149.0197705792876
 30
0.0
 10
148.0306830129768
 20
150.2400242051577
 30
0.0
 10
147.709255392159
 20
151.3157559800812
 30
0.0
 10
147.3874832615654
 20
152.3916600098926
 30
0.0
 10
146.8245542879144
 20
152.6683013598569
 30
0.0
 10
145.8840425999909
 20
152.6683013598569
 30
0.0
 10
145.0989048209514
 20
152.6683013598569
 30
0.0
 10
144.3282364524954
 20
152.3275811915945
 30
0.0
 10
143.4531816219731
 20
151.6538923250251
 30
0.0
 10
142.34627171234
 20
150.8074318058939
 30
0.0
 10
141.901854101563
 20
150.1097995099067
 30
0.0
 10
141.3578731655808
 20
149.289521733736
 30
0.0
 10
140.6299240093235
 20
148.192602607601
 30
0.0
 10
140.2850697237515
 20
147.455696197173
 30
0.0
 10
139.6652966370942
 20
145.8385673095858
 30
0.0
 10
139.0506911970739
 20
144.2214384219986
 30
0.0
 10
138.463991048893
 20
142.3252566160164
 30
0.0
 10
138.0571250036777
 20
141.0154304484394
 30
0.0
 10
138.0571250036777
 20
141.0154304484394
 30
0.0
 10
133.9009590684727
 20
127.8027915271048
 30
0.0
 10
133.9009590684727
 20
127.8027915271048
 30
0.0
 10
133.9009590684727
 20
127.8027915271048
 30
0.0
 10
131.4180771143097
 20
127.8027915271048
 30
0.0
 10
131.4180771143097
 20
127.8027915271048
 30
0.0
 10
131.4180771143097
 20
127.8027915271048
 30
0.0
 10
139.8926730891197
 20
154.8294111834263
 30
0.0
 10
139.8926730891197
 20
154.8294111834263
 30
0.0
  0
HATCH
  5
1DA7
330
1DA0
100
AcDbEntity
  8
TFORMLOGO
 62
   250
420
  2234388
100
AcDbHatch
 10
0.0
 20
0.0
 30
0.0
210
0.0
220
0.0
230
1.0
  2
SOLID
 70
     1
 71
     0
 91
        1
 92
        1
 93
        1
 72
     4
 94
        3
 73
     0
 74
     1
 95
      104
 96
      100
 40
0.0
 40
0.0
 40
0.0
 40
0.0
 40
1.0
 40
1.0
 40
1.0
 40
2.0
 40
2.0
 40
2.0
 40
3.0
 40
3.0
 40
3.0
 40
4.0
 40
4.0
 40
4.0
 40
5.0
 40
5.0
 40
5.0
 40
6.0
 40
6.0
 40
6.0
 40
7.0
 40
7.0
 40
7.0
 40
8.0
 40
8.0
 40
8.0
 40
9.0
 40
9.0
 40
9.0
 40
10.0
 40
10.0
 40
10.0
 40
11.0
 40
11.0
 40
11.0
 40
12.0
 40
12.0
 40
12.0
 40
13.0
 40
13.0
 40
13.0
 40
14.0
 40
14.0
 40
14.0
 40
15.0
 40
15.0
 40
15.0
 40
16.0
 40
16.0
 40
16.0
 40
17.0
 40
17.0
 40
17.0
 40
18.0
 40
18.0
 40
18.0
 40
19.0
 40
19.0
 40
19.0
 40
20.0
 40
20.0
 40
20.0
 40
21.0
 40
21.0
 40
21.0
 40
22.0
 40
22.0
 40
22.0
 40
23.0
 40
23.0
 40
23.0
 40
24.0
 40
24.0
 40
24.0
 40
25.0
 40
25.0
 40
25.0
 40
26.0
 40
26.0
 40
26.0
 40
27.0
 40
27.0
 40
27.0
 40
28.0
 40
28.0
 40
28.0
 40
29.0
 40
29.0
 40
29.0
 40
30.0
 40
30.0
 40
30.0
 40
31.0
 40
31.0
 40
31.0
 40
32.0
 40
32.0
 40
32.0
 40
33.0
 40
33.0
 40
33.0
 40
33.0
 10
139.8926730891197
 20
154.8294111834263
 10
139.8926730891197
 20
154.8294111834263
 10
142.0344903652445
 20
154.8294111834263
 10
142.0344903652445
 20
154.8294111834263
 10
142.0344903652445
 20
154.8294111834263
 10
140.9516961399171
 20
151.3157559800812
 10
140.9516961399171
 20
151.3157559800812
 10
141.8928968473923
 20
152.7887075264977
 10
142.7341897198865
 20
153.4484437471474
 10
143.8552245303272
 20
154.2926649527359
 10
144.9803934580775
 20
155.1296514530327
 10
146.3139908001845
 20
155.3044901642492
 10
147.241066606852
 20
155.3044901642492
 10
148.3855280820469
 20
155.3044901642492
 10
149.4969166187653
 20
155.0752189084569
 10
150.0784491203092
 20
153.8172414621372
 10
150.5228667310863
 20
152.833838307127
 10
150.5414702589793
 20
152.7201500811143
 10
150.4140016419347
 20
150.7765981809602
 10
151.5818897818837
 20
152.7699317437168
 10
152.4424752018226
 20
153.6256940267945
 10
153.9038856707499
 20
154.4507949398263
 10
155.4455669174378
 20
155.3044901642492
 10
156.339225275853
 20
155.3659851592288
 10
157.3748216618963
 20
155.2147453676543
 10
158.911679771723
 20
154.9877134254046
 10
159.8859534176746
 20
154.4390816074493
 10
160.3965169054045
 20
152.7816450760939
 10
160.9070803931344
 20
151.1219692311958
 10
160.6328506116007
 20
150.2303779314354
 10
159.9992971339115
 20
147.597634224801
 10
159.7105979417943
 20
146.4014962832367
 10
159.2947746424084
 20
144.9400858143094
 10
158.7463150793409
 20
143.2092687007094
 10
158.7463150793409
 20
143.2092687007094
 10
153.9038856707499
 20
127.8027915271048
 10
153.9038856707499
 20
127.8027915271048
 10
153.9038856707499
 20
127.8027915271048
 10
151.3882752878863
 20
127.8027915271048
 10
151.3882752878863
 20
127.8027915271048
 10
151.3882752878863
 20
127.8027915271048
 10
155.6250565106276
 20
141.2751908193897
 10
155.6250565106276
 20
141.2751908193897
 10
156.5094131050963
 20
144.0936252951782
 10
157.109893644309
 20
146.1506931664571
 10
157.4220195011804
 20
147.4415712963654
 10
157.8095929989511
 20
149.0530157726519
 10
157.9656559273867
 20
149.5826995529385
 10
157.7816877071116
 20
150.7529992613181
 10
157.6111553680925
 20
151.8430281919372
 10
157.0582171779396
 20
152.5547853887321
 10
156.1170164704645
 20
152.5547853887321
 10
155.1096698860365
 20
152.5547853887321
 10
154.2962823053817
 20
152.4412694176073
 10
153.156643967048
 20
151.2945686288697
 10
152.0170056287143
 20
150.1476955852443
 10
151.076149431015
 20
148.7930831468137
 10
150.3337308641742
 20
147.2290087646991
 10
149.5957909244188
 20
145.6683794803425
 10
148.8530278478023
 20
143.6822806228776
 10
148.0964843801539
 20
141.2751908193897
 10
148.0964843801539
 20
141.2751908193897
 10
143.8552245303272
 20
127.8027915271048
 10
143.8552245303272
 20
127.8027915271048
 10
143.8552245303272
 20
127.8027915271048
 10
141.486030802177
 20
127.8027915271048
 10
141.486030802177
 20
127.8027915271048
 10
141.486030802177
 20
127.8027915271048
 10
146.3329388378533
 20
143.2092687007094
 10
146.3329388378533
 20
143.2092687007094
 10
146.8483254624444
 20
144.8408669988801
 10
147.2314203331297
 20
146.1837661049335
 10
147.4867020769946
 20
147.224185627838
 10
147.9169947869641
 20
149.0197705792876
 10
148.0306830129768
 20
150.2400242051577
 10
147.709255392159
 20
151.3157559800812
 10
147.3874832615654
 20
152.3916600098926
 10
146.8245542879144
 20
152.6683013598569
 10
145.8840425999909
 20
152.6683013598569
 10
145.0989048209514
 20
152.6683013598569
 10
144.3282364524954
 20
152.3275811915945
 10
143.4531816219731
 20
151.6538923250251
 10
142.34627171234
 20
150.8074318058939
 10
141.901854101563
 20
150.1097995099067
 10
141.3578731655808
 20
149.289521733736
 10
140.6299240093235
 20
148.192602607601
 10
140.2850697237515
 20
147.455696197173
 10
139.6652966370942
 20
145.8385673095858
 10
139.0506911970739
 20
144.2214384219986
 10
138.463991048893
 20
142.3252566160164
 10
138.0571250036777
 20
141.0154304484394
 10
138.0571250036777
 20
141.0154304484394
 10
133.9009590684727
 20
127.8027915271048
 10
133.9009590684727
 20
127.8027915271048
 10
133.9009590684727
 20
127.8027915271048
 10
131.4180771143097
 20
127.8027915271048
 10
131.4180771143097
 20
127.8027915271048
 10
131.4180771143097
 20
127.8027915271048
 10
139.8926730891197
 20
154.8294111834263
 10
139.8926730891197
 20
154.8294111834263
 97
        0
 75
     2
 76
     1
 98
        0
  0
SPLINE
  5
1DA8
330
1DA0
100
AcDbEntity
  8
TFORMLOGO
370
     0
100
AcDbSpline
210
0.0
220
0.0
230
1.0
 70
    11
 71
     3
 72
    29
 73
    25
 74
     0
 42
0.000000001
 43
0.0000000001
 40
0.0
 40
0.0
 40
0.0
 40
0.0
 40
1.0
 40
1.0
 40
1.0
 40
2.0
 40
2.0
 40
2.0
 40
3.0
 40
3.0
 40
3.0
 40
4.0
 40
4.0
 40
4.0
 40
5.0
 40
5.0
 40
5.0
 40
6.0
 40
6.0
 40
6.0
 40
7.0
 40
7.0
 40
7.0
 40
8.0
 40
8.0
 40
8.0
 40
8.0
 10
101.6420971922469
 20
132.8388354296931
 30
0.0
 10
101.630039350094
 20
134.7164137077823
 30
0.0
 10
102.2236296937908
 20
138.0598810818841
 30
0.0
 10
103.7487744712405
 20
142.5378191476827
 30
0.0
 10
105.819967243327
 20
148.5896501242061
 30
0.0
 10
107.0602024361932
 20
150.8074318058939
 30
0.0
 10
108.1522984254671
 20
151.8833358357054
 30
0.0
 10
109.741177511439
 20
153.4532668840085
 30
0.0
 10
111.8740375333931
 20
153.5290590346837
 30
0.0
 10
112.5075910110823
 20
153.4532668840085
 30
0.0
 10
113.4012493694975
 20
153.3490526768302
 30
0.0
 10
114.6683563248758
 20
152.7580461564518
 30
0.0
 10
114.7493161221879
 20
150.7838328862519
 30
0.0
 10
114.8106388622796
 20
149.0909118479895
 30
0.0
 10
114.3186789024427
 20
145.9191825971221
 30
0.0
 10
112.6164561002338
 20
140.9489400617108
 30
0.0
 10
110.6444821435766
 20
135.1746117095912
 30
0.0
 10
109.4669477299053
 20
132.8960240524753
 30
0.0
 10
108.5212683953448
 20
131.9072809959403
 30
0.0
 10
106.7346406980658
 20
130.0538184021569
 30
0.0
 10
104.8222669326213
 20
130.2336525051225
 30
0.0
 10
104.5408024457958
 20
130.2336525051225
 30
0.0
 10
104.1721769856939
 20
130.2336525051225
 30
0.0
 10
101.6465758193322
 20
130.6305277668397
 30
0.0
 10
101.6420971922469
 20
132.8388354296931
 30
0.0
  0
SPLINE
  5
1DA9
330
1DA0
100
AcDbEntity
  8
TFORMLOGO
370
     0
100
AcDbSpline
210
0.0
220
0.0
230
1.0
 70
    11
 71
     3
 72
    32
 73
    28
 74
     0
 42
0.000000001
 43
0.0000000001
 40
0.0
 40
0.0
 40
0.0
 40
0.0
 40
1.0
 40
1.0
 40
1.0
 40
2.0
 40
2.0
 40
2.0
 40
3.0
 40
3.0
 40
3.0
 40
4.0
 40
4.0
 40
4.0
 40
5.0
 40
5.0
 40
5.0
 40
6.0
 40
6.0
 40
6.0
 40
7.0
 40
7.0
 40
7.0
 40
8.0
 40
8.0
 40
8.0
 40
9.0
 40
9.0
 40
9.0
 40
9.0
 10
106.2595617172429
 20
153.4105476718098
 30
0.0
 10
104.8222669326213
 20
151.5474388043041
 30
0.0
 10
103.7177685914188
 20
149.8758773721411
 30
0.0
 10
101.9232171692965
 20
144.6141795664062
 30
0.0
 10
100.2754269116635
 20
139.7999999594306
 30
0.0
 10
99.22777268346732
 20
136.3052927937542
 30
0.0
 10
99.06964269637689
 20
132.039572749846
 30
0.0
 10
98.94665270641765
 20
128.8673267343149
 30
0.0
 10
100.8807305877373
 20
127.8027915271048
 30
0.0
 10
103.7129454545577
 20
127.8027915271048
 30
0.0
 10
104.9352661390825
 20
127.8027915271048
 30
0.0
 10
108.0151835347002
 20
127.8827177950895
 30
0.0
 10
110.2045431598849
 20
130.5926316915021
 30
0.0
 10
111.7417457794874
 20
132.4984597712065
 30
0.0
 10
113.155269389579
 20
134.475256864725
 30
0.0
 10
115.0562743324223
 20
140.9489400617108
 30
0.0
 10
116.6361961642235
 20
146.3680788349845
 30
0.0
 10
117.7282921534974
 20
149.8639917848761
 30
0.0
 10
117.6480213757369
 20
151.8595646611754
 30
0.0
 10
117.6480213757369
 20
151.8595646611754
 30
0.0
 10
117.6480213757369
 20
151.8595646611754
 30
0.0
 10
117.6480213757369
 20
151.8595646611754
 30
0.0
 10
117.13229024137
 20
155.18150017429
 30
0.0
 10
114.7162431837115
 20
155.886194920681
 30
0.0
 10
113.3351034925446
 20
155.886194920681
 30
0.0
 10
111.9829026225447
 20
155.886194920681
 30
0.0
 10
108.3414342923792
 20
156.1251124501957
 30
0.0
 10
106.2595617172429
 20
153.4105476718098
 30
0.0
  0
HATCH
  5
1DAA
330
1DA0
100
AcDbEntity
  8
TFORMLOGO
 62
   250
420
  2234388
100
AcDbHatch
 10
0.0
 20
0.0
 30
0.0
210
0.0
220
0.0
230
1.0
  2
SOLID
 70
     1
 71
     0
 91
        2
 92
        1
 93
        1
 72
     4
 94
        3
 73
     0
 74
     1
 95
       29
 96
       25
 40
0.0
 40
0.0
 40
0.0
 40
0.0
 40
1.0
 40
1.0
 40
1.0
 40
2.0
 40
2.0
 40
2.0
 40
3.0
 40
3.0
 40
3.0
 40
4.0
 40
4.0
 40
4.0
 40
5.0
 40
5.0
 40
5.0
 40
6.0
 40
6.0
 40
6.0
 40
7.0
 40
7.0
 40
7.0
 40
8.0
 40
8.0
 40
8.0
 40
8.0
 10
101.6420971922469
 20
132.8388354296931
 10
101.630039350094
 20
134.7164137077823
 10
102.2236296937908
 20
138.0598810818841
 10
103.7487744712405
 20
142.5378191476827
 10
105.819967243327
 20
148.5896501242061
 10
107.0602024361932
 20
150.8074318058939
 10
108.1522984254671
 20
151.8833358357054
 10
109.741177511439
 20
153.4532668840085
 10
111.8740375333931
 20
153.5290590346837
 10
112.5075910110823
 20
153.4532668840085
 10
113.4012493694975
 20
153.3490526768302
 10
114.6683563248758
 20
152.7580461564518
 10
114.7493161221879
 20
150.7838328862519
 10
114.8106388622796
 20
149.0909118479895
 10
114.3186789024427
 20
145.9191825971221
 10
112.6164561002338
 20
140.9489400617108
 10
110.6444821435766
 20
135.1746117095912
 10
109.4669477299053
 20
132.8960240524753
 10
108.5212683953448
 20
131.9072809959403
 10
106.7346406980658
 20
130.0538184021569
 10
104.8222669326213
 20
130.2336525051225
 10
104.5408024457958
 20
130.2336525051225
 10
104.1721769856939
 20
130.2336525051225
 10
101.6465758193322
 20
130.6305277668397
 10
101.6420971922469
 20
132.8388354296931
 97
        0
 92
        1
 93
        1
 72
     4
 94
        3
 73
     0
 74
     1
 95
       32
 96
       28
 40
0.0
 40
0.0
 40
0.0
 40
0.0
 40
1.0
 40
1.0
 40
1.0
 40
2.0
 40
2.0
 40
2.0
 40
3.0
 40
3.0
 40
3.0
 40
4.0
 40
4.0
 40
4.0
 40
5.0
 40
5.0
 40
5.0
 40
6.0
 40
6.0
 40
6.0
 40
7.0
 40
7.0
 40
7.0
 40
8.0
 40
8.0
 40
8.0
 40
9.0
 40
9.0
 40
9.0
 40
9.0
 10
106.2595617172429
 20
153.4105476718098
 10
104.8222669326213
 20
151.5474388043041
 10
103.7177685914188
 20
149.8758773721411
 10
101.9232171692965
 20
144.6141795664062
 10
100.2754269116635
 20
139.7999999594306
 10
99.22777268346732
 20
136.3052927937542
 10
99.06964269637689
 20
132.039572749846
 10
98.94665270641765
 20
128.8673267343149
 10
100.8807305877373
 20
127.8027915271048
 10
103.7129454545577
 20
127.8027915271048
 10
104.9352661390825
 20
127.8027915271048
 10
108.0151835347002
 20
127.8827177950895
 10
110.2045431598849
 20
130.5926316915021
 10
111.7417457794874
 20
132.4984597712065
 10
113.155269389579
 20
134.475256864725
 10
115.0562743324223
 20
140.9489400617108
 10
116.6361961642235
 20
146.3680788349845
 10
117.7282921534974
 20
149.8639917848761
 10
117.6480213757369
 20
151.8595646611754
 10
117.6480213757369
 20
151.8595646611754
 10
117.6480213757369
 20
151.8595646611754
 10
117.6480213757369
 20
151.8595646611754
 10
117.13229024137
 20
155.18150017429
 10
114.7162431837115
 20
155.886194920681
 10
113.3351034925446
 20
155.886194920681
 10
111.9829026225447
 20
155.886194920681
 10
108.3414342923792
 20
156.1251124501957
 10
106.2595617172429
 20
153.4105476718098
 97
        0
 75
     2
 76
     1
 98
        0
  0
ENDBLK
  5
1DAB
330
1DA0
100
AcDbEntity
  8
0
100
AcDbBlockEnd
  0
BLOCK
  5
37E0
330
37DF
100
AcDbEntity
  8
0
100
AcDbBlockBegin
  2
*D7
 70
     1
 10
0.0
 20
0.0
 30
0.0
  3
*D7
  1
*D156
  0
LINE
  5
37E2
330
37DF
100
AcDbEntity
  8
寸法
 62
     0
370
    -2
100
AcDbLine
 10
202.2957663671774
 20
349.3799946242279
 30
0.0
 11
200.389510035032
 21
349.3799946242279
 31
0.0
  0
LINE
  5
37E3
330
37DF
100
AcDbEntity
  8
寸法
 62
     0
370
    -2
100
AcDbLine
 10
202.2957663671774
 20
347.4048052429969
 30
0.0
 11
200.389510035032
 21
347.4048052429969
 31
0.0
  0
INSERT
  5
37E4
330
37DF
100
AcDbEntity
  8
寸法
 62
     0
370
    -2
100
AcDbBlockReference
  2
_DOT
 10
200.389510035032
 20
349.3799946242279
 30
0.0
 41
2.0
 42
2.0
 43
2.0
 50
90.0
  0
INSERT
  5
37E5
330
37DF
100
AcDbEntity
  8
寸法
 62
     0
370
    -2
100
AcDbBlockReference
  2
_DOT
 10
200.389510035032
 20
347.4048052429969
 30
0.0
 41
2.0
 42
2.0
 43
2.0
 50
270.0
  0
MTEXT
  5
37E6
330
37DF
100
AcDbEntity
  8
寸法
 62
     0
100
AcDbMText
 10
192.889510035032
 20
348.3923999336124
 30
0.0
 40
5.0
 41
0.0
 46
0.0
 71
     5
 72
     1
  1
\A1;2
  7
ＭＳ ゴシック
 11
0.0
 21
1.0
 31
0.0
 73
     1
 44
1.0
  0
POINT
  5
37E7
330
37DF
100
AcDbEntity
  8
Defpoints
 62
     0
100
AcDbPoint
 10
207.2957663671774
 20
349.3799946242279
 30
0.0
  0
POINT
  5
37E8
330
37DF
100
AcDbEntity
  8
Defpoints
 62
     0
100
AcDbPoint
 10
207.2957663671774
 20
347.4048052429969
 30
0.0
  0
POINT
  5
37E9
330
37DF
100
AcDbEntity
  8
Defpoints
 62
     0
100
AcDbPoint
 10
200.389510035032
 20
347.4048052429969
 30
0.0
  0
ENDBLK
  5
37E1
330
37DF
100
AcDbEntity
  8
0
100
AcDbBlockEnd
  0
BLOCK
  5
37EB
330
37EA
100
AcDbEntity
  8
0
100
AcDbBlockBegin
  2
*D8
 70
     1
 10
0.0
 20
0.0
 30
0.0
  3
*D8
  1
*D157
  0
LINE
  5
37ED
330
37EA
100
AcDbEntity
  8
寸法
 62
     0
370
    -2
100
AcDbLine
 10
315.5889840782232
 20
306.1991393259359
 30
0.0
 11
328.2278845989873
 21
306.1991393259359
 31
0.0
  0
LINE
  5
37EE
330
37EA
100
AcDbEntity
  8
寸法
 62
     0
370
    -2
100
AcDbLine
 10
315.7302330862998
 20
322.8504451560839
 30
0.0
 11
328.2278845989873
 21
322.8504451560839
 31
0.0
  0
LINE
  5
37EF
330
37EA
100
AcDbEntity
  8
寸法
 62
     0
370
    -2
100
AcDbLine
 10
328.2278845989873
 20
308.1991393259359
 30
0.0
 11
328.2278845989873
 21
320.8504451560839
 31
0.0
  0
INSERT
  5
37F0
330
37EA
100
AcDbEntity
  8
寸法
 62
     0
370
    -2
100
AcDbBlockReference
  2
_DOT
 10
328.2278845989873
 20
306.1991393259359
 30
0.0
 41
2.0
 42
2.0
 43
2.0
 50
270.0
  0
INSERT
  5
37F1
330
37EA
100
AcDbEntity
  8
寸法
 62
     0
370
    -2
100
AcDbBlockReference
  2
_DOT
 10
328.2278845989873
 20
322.8504451560839
 30
0.0
 41
2.0
 42
2.0
 43
2.0
 50
90.0
  0
MTEXT
  5
37F2
330
37EA
100
AcDbEntity
  8
寸法
 62
     0
100
AcDbMText
 10
320.7278845989873
 20
314.5247922410099
 30
0.0
 40
5.0
 41
0.0
 46
0.0
 71
     5
 72
     1
  1
\A1;17
  7
ＭＳ ゴシック
 11
0.0
 21
1.0
 31
0.0
 73
     1
 44
1.0
  0
POINT
  5
37F3
330
37EA
100
AcDbEntity
  8
Defpoints
 62
     0
100
AcDbPoint
 10
310.5889840782232
 20
306.1991393259359
 30
0.0
  0
POINT
  5
37F4
330
37EA
100
AcDbEntity
  8
Defpoints
 62
     0
100
AcDbPoint
 10
310.7302330862998
 20
322.8504451560839
 30
0.0
  0
POINT
  5
37F5
330
37EA
100
AcDbEntity
  8
Defpoints
 62
     0
100
AcDbPoint
 10
328.2278845989873
 20
322.8504451560839
 30
0.0
  0
ENDBLK
  5
37EC
330
37EA
100
AcDbEntity
  8
0
100
AcDbBlockEnd
  0
BLOCK
  5
37F7
330
37F6
100
AcDbEntity
  8
0
100
AcDbBlockBegin
  2
*D9
 70
     1
 10
0.0
 20
0.0
 30
0.0
  3
*D9
  1
*D158
  0
LINE
  5
37F9
330
37F6
100
AcDbEntity
  8
寸法
 62
     0
370
    -2
100
AcDbLine
 10
315.5889840782232
 20
306.1991393259359
 30
0.0
 11
349.1700500172429
 21
306.1991393259359
 31
0.0
  0
LINE
  5
37FA
330
37F6
100
AcDbEntity
  8
寸法
 62
     0
370
    -2
100
AcDbLine
 10
239.1066654855546
 20
349.3799946242279
 30
0.0
 11
349.1700500172429
 21
349.3799946242279
 31
0.0
  0
LINE
  5
37FB
330
37F6
100
AcDbEntity
  8
寸法
 62
     0
370
    -2
100
AcDbLine
 10
349.1700500172429
 20
308.1991393259359
 30
0.0
 11
349.1700500172429
 21
347.3799946242279
 31
0.0
  0
INSERT
  5
37FC
330
37F6
100
AcDbEntity
  8
寸法
 62
     0
370
    -2
100
AcDbBlockReference
  2
_DOT
 10
349.1700500172429
 20
306.1991393259359
 30
0.0
 41
2.0
 42
2.0
 43
2.0
 50
270.0
  0
INSERT
  5
37FD
330
37F6
100
AcDbEntity
  8
寸法
 62
     0
370
    -2
100
AcDbBlockReference
  2
_DOT
 10
349.1700500172429
 20
349.3799946242279
 30
0.0
 41
2.0
 42
2.0
 43
2.0
 50
90.0
  0
MTEXT
  5
37FE
330
37F6
100
AcDbEntity
  8
寸法
 62
     0
100
AcDbMText
 10
341.6700500172429
 20
327.7895669750819
 30
0.0
 40
5.0
 41
0.0
 46
0.0
 71
     5
 72
     1
  1
\A1;43
  7
ＭＳ ゴシック
 11
0.0
 21
1.0
 31
0.0
 73
     1
 44
1.0
  0
POINT
  5
37FF
330
37F6
100
AcDbEntity
  8
Defpoints
 62
     0
100
AcDbPoint
 10
310.5889840782232
 20
306.1991393259359
 30
0.0
  0
POINT
  5
3800
330
37F6
100
AcDbEntity
  8
Defpoints
 62
     0
100
AcDbPoint
 10
234.1066654855546
 20
349.3799946242279
 30
0.0
  0
POINT
  5
3801
330
37F6
100
AcDbEntity
  8
Defpoints
 62
     0
100
AcDbPoint
 10
349.1700500172429
 20
349.3799946242279
 30
0.0
  0
ENDBLK
  5
37F8
330
37F6
100
AcDbEntity
  8
0
100
AcDbBlockEnd
  0
BLOCK
  5
3803
330
3802
100
AcDbEntity
  8
0
100
AcDbBlockBegin
  2
*D10
 70
     1
 10
0.0
 20
0.0
 30
0.0
  3
*D10
  1
*D159
  0
LINE
  5
3805
330
3802
100
AcDbEntity
  8
寸法
 62
     0
370
    -2
100
AcDbLine
 10
311.4353297607628
 20
301.7641353582419
 30
0.0
 11
311.4353297607628
 21
289.5478334957879
 31
0.0
  0
LINE
  5
3806
330
3802
100
AcDbEntity
  8
寸法
 62
     0
370
    -2
100
AcDbLine
 10
214.633824591636
 20
301.1991393259359
 30
0.0
 11
214.633824591636
 21
289.5478334957879
 31
0.0
  0
LINE
  5
3807
330
3802
100
AcDbEntity
  8
寸法
 62
     0
370
    -2
100
AcDbLine
 10
309.4353297607628
 20
289.5478334957879
 30
0.0
 11
216.633824591636
 21
289.5478334957879
 31
0.0
  0
INSERT
  5
3808
330
3802
100
AcDbEntity
  8
寸法
 62
     0
370
    -2
100
AcDbBlockReference
  2
_DOT
 10
311.4353297607628
 20
289.5478334957879
 30
0.0
 41
2.0
 42
2.0
 43
2.0
  0
INSERT
  5
3809
330
3802
100
AcDbEntity
  8
寸法
 62
     0
370
    -2
100
AcDbBlockReference
  2
_DOT
 10
214.633824591636
 20
289.5478334957879
 30
0.0
 41
2.0
 42
2.0
 43
2.0
 50
180.0
  0
MTEXT
  5
380A
330
3802
100
AcDbEntity
  8
寸法
 62
     0
100
AcDbMText
 10
263.0345771761994
 20
297.0478334957879
 30
0.0
 40
5.0
 41
0.0
 46
0.0
 71
     5
 72
     1
  1
\A1;97
  7
ＭＳ ゴシック
 73
     1
 44
1.0
  0
POINT
  5
380B
330
3802
100
AcDbEntity
  8
Defpoints
 62
     0
100
AcDbPoint
 10
311.4353297607628
 20
306.7641353582419
 30
0.0
  0
POINT
  5
380C
330
3802
100
AcDbEntity
  8
Defpoints
 62
     0
100
AcDbPoint
 10
214.633824591636
 20
306.1991393259359
 30
0.0
  0
POINT
  5
380D
330
3802
100
AcDbEntity
  8
Defpoints
 62
     0
100
AcDbPoint
 10
214.633824591636
 20
289.5478334957879
 30
0.0
  0
ENDBLK
  5
3804
330
3802
100
AcDbEntity
  8
0
100
AcDbBlockEnd
  0
BLOCK
  5
380F
330
380E
100
AcDbEntity
  8
0
100
AcDbBlockBegin
  2
*D11
 70
     1
 10
0.0
 20
0.0
 30
0.0
  3
*D11
  1
*D160
  0
LINE
  5
3811
330
380E
100
AcDbEntity
  8
寸法
 62
     0
370
    -2
100
AcDbLine
 10
209.633824591636
 20
306.1991393259359
 30
0.0
 11
200.389510035032
 21
306.1991393259359
 31
0.0
  0
LINE
  5
3812
330
380E
100
AcDbEntity
  8
寸法
 62
     0
370
    -2
100
AcDbLine
 10
202.2957663671774
 20
347.4048052429969
 30
0.0
 11
200.389510035032
 21
347.4048052429969
 31
0.0
  0
LINE
  5
3813
330
380E
100
AcDbEntity
  8
寸法
 62
     0
370
    -2
100
AcDbLine
 10
200.389510035032
 20
308.1991393259359
 30
0.0
 11
200.389510035032
 21
345.4048052429969
 31
0.0
  0
INSERT
  5
3814
330
380E
100
AcDbEntity
  8
寸法
 62
     0
370
    -2
100
AcDbBlockReference
  2
_DOT
 10
200.389510035032
 20
306.1991393259359
 30
0.0
 41
2.0
 42
2.0
 43
2.0
 50
270.0
  0
INSERT
  5
3815
330
380E
100
AcDbEntity
  8
寸法
 62
     0
370
    -2
100
AcDbBlockReference
  2
_DOT
 10
200.389510035032
 20
347.4048052429969
 30
0.0
 41
2.0
 42
2.0
 43
2.0
 50
90.0
  0
MTEXT
  5
3816
330
380E
100
AcDbEntity
  8
寸法
 62
     0
100
AcDbMText
 10
192.889510035032
 20
326.8019722844664
 30
0.0
 40
5.0
 41
0.0
 46
0.0
 71
     5
 72
     1
  1
\A1;41
  7
ＭＳ ゴシック
 11
0.0
 21
1.0
 31
0.0
 73
     1
 44
1.0
  0
POINT
  5
3817
330
380E
100
AcDbEntity
  8
Defpoints
 62
     0
100
AcDbPoint
 10
214.633824591636
 20
306.1991393259359
 30
0.0
  0
POINT
  5
3818
330
380E
100
AcDbEntity
  8
Defpoints
 62
     0
100
AcDbPoint
 10
207.2957663671774
 20
347.4048052429969
 30
0.0
  0
POINT
  5
3819
330
380E
100
AcDbEntity
  8
Defpoints
 62
     0
100
AcDbPoint
 10
200.389510035032
 20
347.4048052429969
 30
0.0
  0
ENDBLK
  5
3810
330
380E
100
AcDbEntity
  8
0
100
AcDbBlockEnd
  0
BLOCK
  5
381B
330
381A
100
AcDbEntity
  8
0
100
AcDbBlockBegin
  2
*D12
 70
     1
 10
0.0
 20
0.0
 30
0.0
  3
*D12
  1
*D161
  0
LINE
  5
381D
330
381A
100
AcDbEntity
  8
寸法
 62
     0
370
    -2
100
AcDbLine
 10
202.2957663671774
 20
256.24751856733
 30
0.0
 11
190.6444605370293
 21
256.24751856733
 31
0.0
  0
LINE
  5
381E
330
381A
100
AcDbEntity
  8
寸法
 62
     0
370
    -2
100
AcDbLine
 10
202.2957663671774
 20
109.490947541839
 30
0.0
 11
190.6444605370293
 21
109.490947541839
 31
0.0
  0
LINE
  5
381F
330
381A
100
AcDbEntity
  8
寸法
 62
     0
370
    -2
100
AcDbLine
 10
190.6444605370293
 20
254.24751856733
 30
0.0
 11
190.6444605370293
 21
111.490947541839
 31
0.0
  0
INSERT
  5
3820
330
381A
100
AcDbEntity
  8
寸法
 62
     0
370
    -2
100
AcDbBlockReference
  2
_DOT
 10
190.6444605370293
 20
256.24751856733
 30
0.0
 41
2.0
 42
2.0
 43
2.0
 50
90.0
  0
INSERT
  5
3821
330
381A
100
AcDbEntity
  8
寸法
 62
     0
370
    -2
100
AcDbBlockReference
  2
_DOT
 10
190.6444605370293
 20
109.490947541839
 30
0.0
 41
2.0
 42
2.0
 43
2.0
 50
270.0
  0
MTEXT
  5
3822
330
381A
100
AcDbEntity
  8
寸法
 62
     0
100
AcDbMText
 10
183.1444605370293
 20
182.8692330545845
 30
0.0
 40
5.0
 41
0.0
 46
0.0
 71
     5
 72
     1
  1
\A1;147
  7
ＭＳ ゴシック
 11
0.0
 21
1.0
 31
0.0
 73
     1
 44
1.0
  0
POINT
  5
3823
330
381A
100
AcDbEntity
  8
Defpoints
 62
     0
100
AcDbPoint
 10
207.2957663671774
 20
256.24751856733
 30
0.0
  0
POINT
  5
3824
330
381A
100
AcDbEntity
  8
Defpoints
 62
     0
100
AcDbPoint
 10
207.2957663671774
 20
109.490947541839
 30
0.0
  0
POINT
  5
3825
330
381A
100
AcDbEntity
  8
Defpoints
 62
     0
100
AcDbPoint
 10
190.6444605370293
 20
109.490947541839
 30
0.0
  0
ENDBLK
  5
381C
330
381A
100
AcDbEntity
  8
0
100
AcDbBlockEnd
  0
BLOCK
  5
3827
330
3826
100
AcDbEntity
  8
0
100
AcDbBlockBegin
  2
*D13
 70
     1
 10
0.0
 20
0.0
 30
0.0
  3
*D13
  1
*D162
  0
LINE
  5
3829
330
3826
100
AcDbEntity
  8
寸法
 62
     0
370
    -2
100
AcDbLine
 10
207.2957663671774
 20
104.490947541839
 30
0.0
 11
207.2957663671774
 21
94.18180669859589
 31
0.0
  0
LINE
  5
382A
330
3826
100
AcDbEntity
  8
寸法
 62
     0
370
    -2
100
AcDbLine
 10
234.1066654855546
 20
104.490947541839
 30
0.0
 11
234.1066654855546
 21
94.18180669859589
 31
0.0
  0
LINE
  5
382B
330
3826
100
AcDbEntity
  8
寸法
 62
     0
370
    -2
100
AcDbLine
 10
209.2957663671774
 20
94.18180669859589
 30
0.0
 11
232.1066654855546
 21
94.18180669859589
 31
0.0
  0
INSERT
  5
382C
330
3826
100
AcDbEntity
  8
寸法
 62
     0
370
    -2
100
AcDbBlockReference
  2
_DOT
 10
207.2957663671774
 20
94.18180669859589
 30
0.0
 41
2.0
 42
2.0
 43
2.0
 50
180.0
  0
INSERT
  5
382D
330
3826
100
AcDbEntity
  8
寸法
 62
     0
370
    -2
100
AcDbBlockReference
  2
_DOT
 10
234.1066654855546
 20
94.18180669859589
 30
0.0
 41
2.0
 42
2.0
 43
2.0
  0
MTEXT
  5
382E
330
3826
100
AcDbEntity
  8
寸法
 62
     0
100
AcDbMText
 10
220.701215926366
 20
101.6818066985959
 30
0.0
 40
5.0
 41
0.0
 46
0.0
 71
     5
 72
     1
  1
\A1;27
  7
ＭＳ ゴシック
 73
     1
 44
1.0
  0
POINT
  5
382F
330
3826
100
AcDbEntity
  8
Defpoints
 62
     0
100
AcDbPoint
 10
207.2957663671774
 20
109.490947541839
 30
0.0
  0
POINT
  5
3830
330
3826
100
AcDbEntity
  8
Defpoints
 62
     0
100
AcDbPoint
 10
234.1066654855546
 20
109.490947541839
 30
0.0
  0
POINT
  5
3831
330
3826
100
AcDbEntity
  8
Defpoints
 62
     0
100
AcDbPoint
 10
234.1066654855546
 20
94.18180669859589
 30
0.0
  0
ENDBLK
  5
3828
330
3826
100
AcDbEntity
  8
0
100
AcDbBlockEnd
  0
BLOCK
  5
3833
330
3832
100
AcDbEntity
  8
0
100
AcDbBlockBegin
  2
*D14
 70
     1
 10
0.0
 20
0.0
 30
0.0
  3
*D14
  1
*D163
  0
LINE
  5
3835
330
3832
100
AcDbEntity
  8
寸法
 62
     0
370
    -2
100
AcDbLine
 10
316.4353297607628
 20
204.1760143216588
 30
0.0
 11
328.086635590911
 21
204.1760143216588
 31
0.0
  0
LINE
  5
3836
330
3832
100
AcDbEntity
  8
寸法
 62
     0
370
    -2
100
AcDbLine
 10
239.1066654855546
 20
256.24751856733
 30
0.0
 11
328.086635590911
 21
256.24751856733
 31
0.0
  0
LINE
  5
3837
330
3832
100
AcDbEntity
  8
寸法
 62
     0
370
    -2
100
AcDbLine
 10
328.086635590911
 20
206.1760143216588
 30
0.0
 11
328.086635590911
 21
254.24751856733
 31
0.0
  0
INSERT
  5
3838
330
3832
100
AcDbEntity
  8
寸法
 62
     0
370
    -2
100
AcDbBlockReference
  2
_DOT
 10
328.086635590911
 20
204.1760143216588
 30
0.0
 41
2.0
 42
2.0
 43
2.0
 50
270.0
  0
INSERT
  5
3839
330
3832
100
AcDbEntity
  8
寸法
 62
     0
370
    -2
100
AcDbBlockReference
  2
_DOT
 10
328.086635590911
 20
256.24751856733
 30
0.0
 41
2.0
 42
2.0
 43
2.0
 50
90.0
  0
MTEXT
  5
383A
330
3832
100
AcDbEntity
  8
寸法
 62
     0
100
AcDbMText
 10
320.586635590911
 20
230.2117664444944
 30
0.0
 40
5.0
 41
0.0
 46
0.0
 71
     5
 72
     1
  1
\A1;52
  7
ＭＳ ゴシック
 11
0.0
 21
1.0
 31
0.0
 73
     1
 44
1.0
  0
POINT
  5
383B
330
3832
100
AcDbEntity
  8
Defpoints
 62
     0
100
AcDbPoint
 10
311.4353297607628
 20
204.1760143216588
 30
0.0
  0
POINT
  5
383C
330
3832
100
AcDbEntity
  8
Defpoints
 62
     0
100
AcDbPoint
 10
234.1066654855546
 20
256.24751856733
 30
0.0
  0
POINT
  5
383D
330
3832
100
AcDbEntity
  8
Defpoints
 62
     0
100
AcDbPoint
 10
328.086635590911
 20
256.24751856733
 30
0.0
  0
ENDBLK
  5
3834
330
3832
100
AcDbEntity
  8
0
100
AcDbBlockEnd
  0
BLOCK
  5
3960
330
395F
100
AcDbEntity
  8
0
100
AcDbBlockBegin
  2
*D15
 70
     1
 10
0.0
 20
0.0
 30
0.0
  3
*D15
  1
*D40
  0
LINE
  5
3961
330
395F
100
AcDbEntity
  8
寸法
 62
     0
370
    -2
100
AcDbLine
 10
14.74478791698148
 20
224.0104347839655
 30
0.0
 11
9.999999999999986
 21
224.0104347839655
 31
0.0
  0
LINE
  5
3962
330
395F
100
AcDbEntity
  8
寸法
 62
     0
370
    -2
100
AcDbLine
 10
14.74478791698148
 20
219.3526626152015
 30
0.0
 11
9.999999999999986
 21
219.3526626152015
 31
0.0
  0
LINE
  5
3963
330
395F
100
AcDbEntity
  8
寸法
 62
     0
370
    -2
100
AcDbLine
 10
9.999999999999986
 20
222.0104347839655
 30
0.0
 11
9.999999999999986
 21
221.3526626152015
 31
0.0
  0
INSERT
  5
3964
330
395F
100
AcDbEntity
  8
寸法
 62
     0
370
    -2
100
AcDbBlockReference
  2
_DOT
 10
9.999999999999986
 20
224.0104347839655
 30
0.0
 41
2.0
 42
2.0
 43
2.0
 50
90.0
  0
INSERT
  5
3965
330
395F
100
AcDbEntity
  8
寸法
 62
     0
370
    -2
100
AcDbBlockReference
  2
_DOT
 10
9.999999999999986
 20
219.3526626152015
 30
0.0
 41
2.0
 42
2.0
 43
2.0
 50
270.0
  0
MTEXT
  5
3966
330
395F
100
AcDbEntity
  8
寸法
 62
     0
100
AcDbMText
 10
2.499999999999986
 20
221.6357466385695
 30
0.0
 40
5.0
 41
0.0
 46
0.0
 71
     5
 72
     1
  1
\A1;5
  7
ＭＳ ゴシック
 11
0.0
 21
1.0
 31
0.0
 73
     1
 44
1.0
  0
POINT
  5
3967
330
395F
100
AcDbEntity
  8
Defpoints
 62
     0
100
AcDbPoint
 10
19.74478791698148
 20
224.0104347839655
 30
0.0
  0
POINT
  5
3968
330
395F
100
AcDbEntity
  8
Defpoints
 62
     0
100
AcDbPoint
 10
19.74478791698148
 20
219.3526626152015
 30
0.0
  0
POINT
  5
3969
330
395F
100
AcDbEntity
  8
Defpoints
 62
     0
100
AcDbPoint
 10
9.999999999999986
 20
219.3526626152015
 30
0.0
  0
ENDBLK
  5
396A
330
395F
100
AcDbEntity
  8
0
100
AcDbBlockEnd
  0
BLOCK
  5
396F
330
396E
100
AcDbEntity
  8
0
100
AcDbBlockBegin
  2
*D16
 70
     1
 10
0.0
 20
0.0
 30
0.0
  3
*D16
  1
*D41
  0
LINE
  5
3970
330
396E
100
AcDbEntity
  8
寸法
 62
     0
370
    -2
100
AcDbLine
 10
29.98417784932528
 20
164.3206710295212
 30
0.0
 11
9.999999999999984
 21
164.3206710295212
 31
0.0
  0
LINE
  5
3971
330
396E
100
AcDbEntity
  8
寸法
 62
     0
370
    -2
100
AcDbLine
 10
29.98417784932528
 20
184.2161105817494
 30
0.0
 11
9.999999999999986
 21
184.2161105817494
 31
0.0
  0
LINE
  5
3972
330
396E
100
AcDbEntity
  8
寸法
 62
     0
370
    -2
100
AcDbLine
 10
9.999999999999984
 20
166.3206710295212
 30
0.0
 11
9.999999999999986
 21
182.2161105817494
 31
0.0
  0
INSERT
  5
3973
330
396E
100
AcDbEntity
  8
寸法
 62
     0
370
    -2
100
AcDbBlockReference
  2
_DOT
 10
9.999999999999984
 20
164.3206710295212
 30
0.0
 41
2.0
 42
2.0
 43
2.0
 50
270.0
  0
INSERT
  5
3974
330
396E
100
AcDbEntity
  8
寸法
 62
     0
370
    -2
100
AcDbBlockReference
  2
_DOT
 10
9.999999999999986
 20
184.2161105817494
 30
0.0
 41
2.0
 42
2.0
 43
2.0
 50
90.0
  0
MTEXT
  5
3975
330
396E
100
AcDbEntity
  8
寸法
 62
     0
100
AcDbMText
 10
2.499999999999986
 20
174.2683908056353
 30
0.0
 40
5.0
 41
0.0
 46
0.0
 71
     5
 72
     1
  1
\A1;20
  7
ＭＳ ゴシック
 11
8.928462398315330E-17
 21
1.0
 31
0.0
 73
     1
 44
1.0
  0
POINT
  5
3976
330
396E
100
AcDbEntity
  8
Defpoints
 62
     0
100
AcDbPoint
 10
34.98417784932528
 20
164.3206710295212
 30
0.0
  0
POINT
  5
3977
330
396E
100
AcDbEntity
  8
Defpoints
 62
     0
100
AcDbPoint
 10
34.98417784932528
 20
184.2161105817494
 30
0.0
  0
POINT
  5
3978
330
396E
100
AcDbEntity
  8
Defpoints
 62
     0
100
AcDbPoint
 10
9.999999999999986
 20
184.2161105817494
 30
0.0
  0
ENDBLK
  5
3979
330
396E
100
AcDbEntity
  8
0
100
AcDbBlockEnd
  0
BLOCK
  5
397E
330
397D
100
AcDbEntity
  8
0
100
AcDbBlockBegin
  2
*D17
 70
     1
 10
0.0
 20
0.0
 30
0.0
  3
*D17
  1
*D42
  0
LINE
  5
397F
330
397D
100
AcDbEntity
  8
寸法
 62
     0
370
    -2
100
AcDbLine
 10
134.4682658059849
 20
161.8597080771391
 30
0.0
 11
134.4682658059849
 21
145.2942155193206
 31
0.0
  0
LINE
  5
3980
330
397D
100
AcDbEntity
  8
寸法
 62
     0
370
    -2
100
AcDbLine
 10
34.56215337397478
 20
159.7426955048717
 30
0.0
 11
34.56215337397478
 21
145.2942155193206
 31
0.0
  0
LINE
  5
3981
330
397D
100
AcDbEntity
  8
寸法
 62
     0
370
    -2
100
AcDbLine
 10
132.4682658059849
 20
145.2942155193206
 30
0.0
 11
36.56215337397478
 21
145.2942155193206
 31
0.0
  0
INSERT
  5
3982
330
397D
100
AcDbEntity
  8
寸法
 62
     0
370
    -2
100
AcDbBlockReference
  2
_DOT
 10
134.4682658059849
 20
145.2942155193206
 30
0.0
 41
2.0
 42
2.0
 43
2.0
  0
INSERT
  5
3983
330
397D
100
AcDbEntity
  8
寸法
 62
     0
370
    -2
100
AcDbBlockReference
  2
_DOT
 10
34.56215337397478
 20
145.2942155193206
 30
0.0
 41
2.0
 42
2.0
 43
2.0
 50
180.0
  0
MTEXT
  5
3984
330
397D
100
AcDbEntity
  8
寸法
 62
     0
100
AcDbMText
 10
84.51520958997983
 20
152.7942155193206
 30
0.0
 40
5.0
 41
0.0
 46
0.0
 71
     5
 72
     1
  1
\A1;100
  7
ＭＳ ゴシック
 73
     1
 44
1.0
  0
POINT
  5
3985
330
397D
100
AcDbEntity
  8
Defpoints
 62
     0
100
AcDbPoint
 10
134.4682658059849
 20
166.8597080771391
 30
0.0
  0
POINT
  5
3986
330
397D
100
AcDbEntity
  8
Defpoints
 62
     0
100
AcDbPoint
 10
34.56215337397478
 20
164.7426955048717
 30
0.0
  0
POINT
  5
3987
330
397D
100
AcDbEntity
  8
Defpoints
 62
     0
100
AcDbPoint
 10
34.56215337397478
 20
145.2942155193206
 30
0.0
  0
ENDBLK
  5
3988
330
397D
100
AcDbEntity
  8
0
100
AcDbBlockEnd
  0
BLOCK
  5
398D
330
398C
100
AcDbEntity
  8
0
100
AcDbBlockBegin
  2
*D18
 70
     1
 10
0.0
 20
0.0
 30
0.0
  3
*D18
  1
*D43
  0
LINE
  5
398E
330
398C
100
AcDbEntity
  8
寸法
 62
     0
370
    -2
100
AcDbLine
 10
29.98417784932528
 20
184.2161105817494
 30
0.0
 11
9.999999999999984
 21
184.2161105817494
 31
0.0
  0
LINE
  5
398F
330
398C
100
AcDbEntity
  8
寸法
 62
     0
370
    -2
100
AcDbLine
 10
14.74478791698148
 20
219.3526626152015
 30
0.0
 11
9.999999999999986
 21
219.3526626152015
 31
0.0
  0
LINE
  5
3990
330
398C
100
AcDbEntity
  8
寸法
 62
     0
370
    -2
100
AcDbLine
 10
9.999999999999984
 20
186.2161105817494
 30
0.0
 11
9.999999999999986
 21
217.3526626152015
 31
0.0
  0
INSERT
  5
3991
330
398C
100
AcDbEntity
  8
寸法
 62
     0
370
    -2
100
AcDbBlockReference
  2
_DOT
 10
9.999999999999984
 20
184.2161105817494
 30
0.0
 41
2.0
 42
2.0
 43
2.0
 50
270.0
  0
INSERT
  5
3992
330
398C
100
AcDbEntity
  8
寸法
 62
     0
370
    -2
100
AcDbBlockReference
  2
_DOT
 10
9.999999999999986
 20
219.3526626152015
 30
0.0
 41
2.0
 42
2.0
 43
2.0
 50
90.0
  0
MTEXT
  5
3993
330
398C
100
AcDbEntity
  8
寸法
 62
     0
100
AcDbMText
 10
2.499999999999986
 20
201.7843865984755
 30
0.0
 40
5.0
 41
0.0
 46
0.0
 71
     5
 72
     1
  1
\A1;35
  7
ＭＳ ゴシック
 11
5.055580973651175E-17
 21
1.0
 31
0.0
 73
     1
 44
1.0
  0
POINT
  5
3994
330
398C
100
AcDbEntity
  8
Defpoints
 62
     0
100
AcDbPoint
 10
34.98417784932528
 20
184.2161105817494
 30
0.0
  0
POINT
  5
3995
330
398C
100
AcDbEntity
  8
Defpoints
 62
     0
100
AcDbPoint
 10
19.74478791698148
 20
219.3526626152015
 30
0.0
  0
POINT
  5
3996
330
398C
100
AcDbEntity
  8
Defpoints
 62
     0
100
AcDbPoint
 10
9.999999999999986
 20
219.3526626152015
 30
0.0
  0
ENDBLK
  5
3997
330
398C
100
AcDbEntity
  8
0
100
AcDbBlockEnd
  0
BLOCK
  5
399A
330
3999
100
AcDbEntity
  8
0
100
AcDbBlockBegin
  2
*D19
 70
     1
 10
0.0
 20
0.0
 30
0.0
  3
*D19
  1
*D44
  0
LINE
  5
399B
330
3999
100
AcDbEntity
  8
寸法
 62
     0
370
    -2
100
AcDbLine
 10
39.72088538776438
 20
17.8237685643322
 30
0.0
 11
9.999999999999982
 21
17.8237685643322
 31
0.0
  0
LINE
  5
399C
330
3999
100
AcDbEntity
  8
寸法
 62
     0
370
    -2
100
AcDbLine
 10
39.72088538776438
 20
68.20192514080222
 30
0.0
 11
9.999999999999986
 21
68.20192514080222
 31
0.0
  0
LINE
  5
399D
330
3999
100
AcDbEntity
  8
寸法
 62
     0
370
    -2
100
AcDbLine
 10
9.999999999999982
 20
19.8237685643322
 30
0.0
 11
9.999999999999986
 21
66.20192514080222
 31
0.0
  0
INSERT
  5
399E
330
3999
100
AcDbEntity
  8
寸法
 62
     0
370
    -2
100
AcDbBlockReference
  2
_DOT
 10
9.999999999999982
 20
17.8237685643322
 30
0.0
 41
2.0
 42
2.0
 43
2.0
 50
270.0
  0
INSERT
  5
399F
330
3999
100
AcDbEntity
  8
寸法
 62
     0
370
    -2
100
AcDbBlockReference
  2
_DOT
 10
9.999999999999986
 20
68.20192514080222
 30
0.0
 41
2.0
 42
2.0
 43
2.0
 50
90.0
  0
MTEXT
  5
39A0
330
3999
100
AcDbEntity
  8
寸法
 62
     0
100
AcDbMText
 10
2.499999999999984
 20
43.01284685256721
 30
0.0
 40
5.0
 41
0.0
 46
0.0
 71
     5
 72
     1
  1
\A1;50
  7
ＭＳ ゴシック
 11
7.052091462314159E-17
 21
1.0
 31
0.0
 73
     1
 44
1.0
  0
POINT
  5
39A1
330
3999
100
AcDbEntity
  8
Defpoints
 62
     0
100
AcDbPoint
 10
44.72088538776438
 20
17.8237685643322
 30
0.0
  0
POINT
  5
39A2
330
3999
100
AcDbEntity
  8
Defpoints
 62
     0
100
AcDbPoint
 10
44.72088538776438
 20
68.20192514080222
 30
0.0
  0
POINT
  5
39A3
330
3999
100
AcDbEntity
  8
Defpoints
 62
     0
100
AcDbPoint
 10
9.999999999999986
 20
68.20192514080222
 30
0.0
  0
ENDBLK
  5
39A4
330
3999
100
AcDbEntity
  8
0
100
AcDbBlockEnd
  0
BLOCK
  5
39A9
330
39A8
100
AcDbEntity
  8
0
100
AcDbBlockBegin
  2
*D20
 70
     1
 10
0.0
 20
0.0
 30
0.0
  3
*D20
  1
*D45
  0
LINE
  5
39AA
330
39A8
100
AcDbEntity
  8
寸法
 62
     0
370
    -2
100
AcDbLine
 10
139.4682658059849
 20
50.4215216741176
 30
0.0
 11
156.8315585182279
 21
50.4215216741176
 31
0.0
  0
LINE
  5
39AB
330
39A8
100
AcDbEntity
  8
寸法
 62
     0
370
    -2
100
AcDbLine
 10
139.4682658059849
 20
35.6041562171234
 30
0.0
 11
156.8315585182279
 21
35.6041562171234
 31
0.0
  0
LINE
  5
39AC
330
39A8
100
AcDbEntity
  8
寸法
 62
     0
370
    -2
100
AcDbLine
 10
156.8315585182279
 20
48.4215216741176
 30
0.0
 11
156.8315585182279
 21
37.6041562171234
 31
0.0
  0
INSERT
  5
39AD
330
39A8
100
AcDbEntity
  8
寸法
 62
     0
370
    -2
100
AcDbBlockReference
  2
_DOT
 10
156.8315585182279
 20
50.4215216741176
 30
0.0
 41
2.0
 42
2.0
 43
2.0
 50
90.0
  0
INSERT
  5
39AE
330
39A8
100
AcDbEntity
  8
寸法
 62
     0
370
    -2
100
AcDbBlockReference
  2
_DOT
 10
156.8315585182279
 20
35.6041562171234
 30
0.0
 41
2.0
 42
2.0
 43
2.0
 50
270.0
  0
MTEXT
  5
39AF
330
39A8
100
AcDbEntity
  8
寸法
 62
     0
100
AcDbMText
 10
149.3315585182279
 20
43.26831551848721
 30
0.0
 40
5.0
 41
0.0
 46
0.0
 71
     5
 72
     1
  1
\A1;15
  7
ＭＳ ゴシック
 11
0.0
 21
1.0
 31
0.0
 73
     1
 44
1.0
  0
POINT
  5
39B0
330
39A8
100
AcDbEntity
  8
Defpoints
 62
     0
100
AcDbPoint
 10
134.4682658059849
 20
50.4215216741176
 30
0.0
  0
POINT
  5
39B1
330
39A8
100
AcDbEntity
  8
Defpoints
 62
     0
100
AcDbPoint
 10
134.4682658059849
 20
35.6041562171234
 30
0.0
  0
POINT
  5
39B2
330
39A8
100
AcDbEntity
  8
Defpoints
 62
     0
100
AcDbPoint
 10
156.8315585182279
 20
35.6041562171234
 30
0.0
  0
ENDBLK
  5
39B3
330
39A8
100
AcDbEntity
  8
0
100
AcDbBlockEnd
  0
BLOCK
  5
39B8
330
39B7
100
AcDbEntity
  8
0
100
AcDbBlockBegin
  2
*D21
 70
     1
 10
0.0
 20
0.0
 30
0.0
  3
*D21
  1
*D46
  0
LINE
  5
39B9
330
39B7
100
AcDbEntity
  8
寸法
 62
     0
370
    -2
100
AcDbLine
 10
139.4682658059849
 20
166.8597080771391
 30
0.0
 11
173.677299873684
 21
166.8597080771391
 31
0.0
  0
LINE
  5
39BA
330
39B7
100
AcDbEntity
  8
寸法
 62
     0
370
    -2
100
AcDbLine
 10
74.69870540742588
 20
224.0104347839655
 30
0.0
 11
173.677299873684
 21
224.0104347839655
 31
0.0
  0
LINE
  5
39BB
330
39B7
100
AcDbEntity
  8
寸法
 62
     0
370
    -2
100
AcDbLine
 10
173.677299873684
 20
168.8597080771391
 30
0.0
 11
173.677299873684
 21
222.0104347839655
 31
0.0
  0
INSERT
  5
39BC
330
39B7
100
AcDbEntity
  8
寸法
 62
     0
370
    -2
100
AcDbBlockReference
  2
_DOT
 10
173.677299873684
 20
166.8597080771391
 30
0.0
 41
2.0
 42
2.0
 43
2.0
 50
270.0
  0
INSERT
  5
39BD
330
39B7
100
AcDbEntity
  8
寸法
 62
     0
370
    -2
100
AcDbBlockReference
  2
_DOT
 10
173.677299873684
 20
224.0104347839655
 30
0.0
 41
2.0
 42
2.0
 43
2.0
 50
90.0
  0
MTEXT
  5
39BE
330
39B7
100
AcDbEntity
  8
寸法
 62
     0
100
AcDbMText
 10
166.177299873684
 20
195.4350714305523
 30
0.0
 40
5.0
 41
0.0
 46
0.0
 71
     5
 72
     1
  1
\A1;57
  7
ＭＳ ゴシック
 11
0.0
 21
1.0
 31
0.0
 73
     1
 44
1.0
  0
POINT
  5
39BF
330
39B7
100
AcDbEntity
  8
Defpoints
 62
     0
100
AcDbPoint
 10
134.4682658059849
 20
166.8597080771391
 30
0.0
  0
POINT
  5
39C0
330
39B7
100
AcDbEntity
  8
Defpoints
 62
     0
100
AcDbPoint
 10
69.69870540742588
 20
224.0104347839655
 30
0.0
  0
POINT
  5
39C1
330
39B7
100
AcDbEntity
  8
Defpoints
 62
     0
100
AcDbPoint
 10
173.677299873684
 20
224.0104347839655
 30
0.0
  0
ENDBLK
  5
39C2
330
39B7
100
AcDbEntity
  8
0
100
AcDbBlockEnd
  0
BLOCK
  5
39C7
330
39C6
100
AcDbEntity
  8
0
100
AcDbBlockBegin
  2
*D22
 70
     1
 10
0.0
 20
0.0
 30
0.0
  3
*D22
  1
*D47
  0
LINE
  5
39C8
330
39C6
100
AcDbEntity
  8
寸法
 62
     0
370
    -2
100
AcDbLine
 10
74.69870540742588
 20
224.0104347839655
 30
0.0
 11
153.1098097798007
 21
224.0104347839655
 31
0.0
  0
LINE
  5
39C9
330
39C6
100
AcDbEntity
  8
寸法
 62
     0
370
    -2
100
AcDbLine
 10
139.4682658059849
 20
181.6770735341324
 30
0.0
 11
153.1098097798007
 21
181.6770735341324
 31
0.0
  0
LINE
  5
39CA
330
39C6
100
AcDbEntity
  8
寸法
 62
     0
370
    -2
100
AcDbLine
 10
153.1098097798007
 20
222.0104347839655
 30
0.0
 11
153.1098097798007
 21
183.6770735341324
 31
0.0
  0
INSERT
  5
39CB
330
39C6
100
AcDbEntity
  8
寸法
 62
     0
370
    -2
100
AcDbBlockReference
  2
_DOT
 10
153.1098097798007
 20
224.0104347839655
 30
0.0
 41
2.0
 42
2.0
 43
2.0
 50
90.0
  0
INSERT
  5
39CC
330
39C6
100
AcDbEntity
  8
寸法
 62
     0
370
    -2
100
AcDbBlockReference
  2
_DOT
 10
153.1098097798007
 20
181.6770735341324
 30
0.0
 41
2.0
 42
2.0
 43
2.0
 50
270.0
  0
MTEXT
  5
39CD
330
39C6
100
AcDbEntity
  8
寸法
 62
     0
100
AcDbMText
 10
145.6098097798007
 20
202.843754159049
 30
0.0
 40
5.0
 41
0.0
 46
0.0
 71
     5
 72
     1
  1
\A1;42
  7
ＭＳ ゴシック
 11
0.0
 21
1.0
 31
0.0
 73
     1
 44
1.0
  0
POINT
  5
39CE
330
39C6
100
AcDbEntity
  8
Defpoints
 62
     0
100
AcDbPoint
 10
69.69870540742588
 20
224.0104347839655
 30
0.0
  0
POINT
  5
39CF
330
39C6
100
AcDbEntity
  8
Defpoints
 62
     0
100
AcDbPoint
 10
134.4682658059849
 20
181.6770735341324
 30
0.0
  0
POINT
  5
39D0
330
39C6
100
AcDbEntity
  8
Defpoints
 62
     0
100
AcDbPoint
 10
153.1098097798007
 20
181.6770735341324
 30
0.0
  0
ENDBLK
  5
39D1
330
39C6
100
AcDbEntity
  8
0
100
AcDbBlockEnd
  0
BLOCK
  5
39E3
330
39E2
100
AcDbEntity
  8
0
100
AcDbBlockBegin
  2
*D23
 70
     1
 10
0.0
 20
0.0
 30
0.0
  3
*D23
  1
*D51
  0
LINE
  5
39E4
330
39E2
100
AcDbEntity
  8
寸法
 62
     0
370
    -2
100
AcDbLine
 10
63.72088538776438
 20
37.80096543350609
 30
0.0
 11
63.72088538776438
 21
0.5108464693973076
 31
0.0
  0
LINE
  5
39E5
330
39E2
100
AcDbEntity
  8
寸法
 62
     0
370
    -2
100
AcDbLine
 10
25.88395212166938
 20
37.80096543350609
 30
0.0
 11
25.88395212166938
 21
0.5108464693973076
 31
0.0
  0
LINE
  5
39E6
330
39E2
100
AcDbEntity
  8
寸法
 62
     0
370
    -2
100
AcDbLine
 10
61.72088538776438
 20
0.5108464693973076
 30
0.0
 11
27.88395212166938
 21
0.5108464693973076
 31
0.0
  0
INSERT
  5
39E7
330
39E2
100
AcDbEntity
  8
寸法
 62
     0
370
    -2
100
AcDbBlockReference
  2
_DOT
 10
63.72088538776438
 20
0.5108464693973076
 30
0.0
 41
2.0
 42
2.0
 43
2.0
  0
INSERT
  5
39E8
330
39E2
100
AcDbEntity
  8
寸法
 62
     0
370
    -2
100
AcDbBlockReference
  2
_DOT
 10
25.88395212166938
 20
0.5108464693973076
 30
0.0
 41
2.0
 42
2.0
 43
2.0
 50
180.0
  0
MTEXT
  5
39E9
330
39E2
100
AcDbEntity
  8
寸法
 62
     0
100
AcDbMText
 10
44.80241875471688
 20
8.010846469397308
 30
0.0
 40
5.0
 41
0.0
 46
0.0
 71
     5
 72
     1
  1
\A1;38
  7
ＭＳ ゴシック
 73
     1
 44
1.0
  0
POINT
  5
39EA
330
39E2
100
AcDbEntity
  8
Defpoints
 62
     0
100
AcDbPoint
 10
63.72088538776438
 20
42.80096543350609
 30
0.0
  0
POINT
  5
39EB
330
39E2
100
AcDbEntity
  8
Defpoints
 62
     0
100
AcDbPoint
 10
25.88395212166938
 20
42.80096543350609
 30
0.0
  0
POINT
  5
39EC
330
39E2
100
AcDbEntity
  8
Defpoints
 62
     0
100
AcDbPoint
 10
25.88395212166938
 20
0.5108464693973076
 30
0.0
  0
ENDBLK
  5
39ED
330
39E2
100
AcDbEntity
  8
0
100
AcDbBlockEnd
  0
BLOCK
  5
39F2
330
39F1
100
AcDbEntity
  8
0
100
AcDbBlockBegin
  2
*D24
 70
     1
 10
0.0
 20
0.0
 30
0.0
  3
*D24
  1
*D52
  0
LINE
  5
39F3
330
39F1
100
AcDbEntity
  8
寸法
 62
     0
370
    -2
100
AcDbLine
 10
314.8282422312282
 20
12.8237527504389
 30
0.0
 11
314.8282422312282
 21
0.5
 31
0.0
  0
LINE
  5
39F4
330
39F1
100
AcDbEntity
  8
寸法
 62
     0
370
    -2
100
AcDbLine
 10
310.1704700624643
 20
12.8237527504389
 30
0.0
 11
310.1704700624643
 21
0.5
 31
0.0
  0
LINE
  5
39F5
330
39F1
100
AcDbEntity
  8
寸法
 62
     0
370
    -2
100
AcDbLine
 10
312.8282422312282
 20
0.5
 30
0.0
 11
312.1704700624643
 21
0.5
 31
0.0
  0
INSERT
  5
39F6
330
39F1
100
AcDbEntity
  8
寸法
 62
     0
370
    -2
100
AcDbBlockReference
  2
_DOT
 10
314.8282422312282
 20
0.5
 30
0.0
 41
2.0
 42
2.0
 43
2.0
  0
INSERT
  5
39F7
330
39F1
100
AcDbEntity
  8
寸法
 62
     0
370
    -2
100
AcDbBlockReference
  2
_DOT
 10
310.1704700624643
 20
0.5
 30
0.0
 41
2.0
 42
2.0
 43
2.0
 50
180.0
  0
MTEXT
  5
39F8
330
39F1
100
AcDbEntity
  8
寸法
 62
     0
100
AcDbMText
 10
312.4993561468462
 20
8.0
 30
0.0
 40
5.0
 41
0.0
 46
0.0
 71
     5
 72
     1
  1
\A1;5
  7
ＭＳ ゴシック
 73
     1
 44
1.0
  0
POINT
  5
39F9
330
39F1
100
AcDbEntity
  8
Defpoints
 62
     0
100
AcDbPoint
 10
314.8282422312282
 20
17.8237527504389
 30
0.0
  0
POINT
  5
39FA
330
39F1
100
AcDbEntity
  8
Defpoints
 62
     0
100
AcDbPoint
 10
310.1704700624643
 20
17.8237527504389
 30
0.0
  0
POINT
  5
39FB
330
39F1
100
AcDbEntity
  8
Defpoints
 62
     0
100
AcDbPoint
 10
310.1704700624643
 20
0.5
 30
0.0
  0
ENDBLK
  5
39FC
330
39F1
100
AcDbEntity
  8
0
100
AcDbBlockEnd
  0
BLOCK
  5
3AE1
330
3AE0
100
AcDbEntity
  8
0
100
AcDbBlockBegin
  2
*D25
 70
     1
 10
0.0
 20
0.0
 30
0.0
  3
*D25
  1
*D26
  0
LINE
  5
3AE3
330
3AE0
100
AcDbEntity
  8
寸法
 62
     0
370
    -2
100
AcDbLine
 10
141.8419307741243
 20
350.9532919268227
 30
0.0
 11
137.0971428571428
 21
350.9532919268227
 31
0.0
  0
LINE
  5
3AE4
330
3AE0
100
AcDbEntity
  8
寸法
 62
     0
370
    -2
100
AcDbLine
 10
141.8419307741243
 20
346.2955197580586
 30
0.0
 11
137.0971428571428
 21
346.2955197580586
 31
0.0
  0
LINE
  5
3AE5
330
3AE0
100
AcDbEntity
  8
寸法
 62
     0
370
    -2
100
AcDbLine
 10
137.0971428571428
 20
348.9532919268227
 30
0.0
 11
137.0971428571428
 21
348.2955197580586
 31
0.0
  0
INSERT
  5
3AE6
330
3AE0
100
AcDbEntity
  8
寸法
 62
     0
370
    -2
100
AcDbBlockReference
  2
_DOT
 10
137.0971428571428
 20
350.9532919268227
 30
0.0
 41
2.0
 42
2.0
 43
2.0
 50
90.0
  0
INSERT
  5
3AE7
330
3AE0
100
AcDbEntity
  8
寸法
 62
     0
370
    -2
100
AcDbBlockReference
  2
_DOT
 10
137.0971428571428
 20
346.2955197580586
 30
0.0
 41
2.0
 42
2.0
 43
2.0
 50
270.0
  0
MTEXT
  5
3AE8
330
3AE0
100
AcDbEntity
  8
寸法
 62
     0
100
AcDbMText
 10
129.5971428571428
 20
348.5786037814266
 30
0.0
 40
5.0
 41
0.0
 46
0.0
 71
     5
 72
     1
  1
\A1;5
  7
ＭＳ ゴシック
 11
0.0
 21
1.0
 31
0.0
 73
     1
 44
1.0
  0
POINT
  5
3AE9
330
3AE0
100
AcDbEntity
  8
Defpoints
 62
     0
100
AcDbPoint
 10
146.8419307741243
 20
350.9532919268227
 30
0.0
  0
POINT
  5
3AEA
330
3AE0
100
AcDbEntity
  8
Defpoints
 62
     0
100
AcDbPoint
 10
146.8419307741243
 20
346.2955197580586
 30
0.0
  0
POINT
  5
3AEB
330
3AE0
100
AcDbEntity
  8
Defpoints
 62
     0
100
AcDbPoint
 10
137.0971428571428
 20
346.2955197580586
 30
0.0
  0
ENDBLK
  5
3AE2
330
3AE0
100
AcDbEntity
  8
0
100
AcDbBlockEnd
  0
BLOCK
  5
3AED
330
3AEC
100
AcDbEntity
  8
0
100
AcDbBlockBegin
  2
*D26
 70
     1
 10
0.0
 20
0.0
 30
0.0
  3
*D26
  1
*D27
  0
LINE
  5
3AEF
330
3AEC
100
AcDbEntity
  8
寸法
 62
     0
370
    -2
100
AcDbLine
 10
157.0813207064681
 20
291.2635281723783
 30
0.0
 11
137.0971428571428
 21
291.2635281723783
 31
0.0
  0
LINE
  5
3AF0
330
3AEC
100
AcDbEntity
  8
寸法
 62
     0
370
    -2
100
AcDbLine
 10
157.0813207064681
 20
311.1589677246066
 30
0.0
 11
137.0971428571428
 21
311.1589677246066
 31
0.0
  0
LINE
  5
3AF1
330
3AEC
100
AcDbEntity
  8
寸法
 62
     0
370
    -2
100
AcDbLine
 10
137.0971428571428
 20
293.2635281723783
 30
0.0
 11
137.0971428571428
 21
309.1589677246066
 31
0.0
  0
INSERT
  5
3AF2
330
3AEC
100
AcDbEntity
  8
寸法
 62
     0
370
    -2
100
AcDbBlockReference
  2
_DOT
 10
137.0971428571428
 20
291.2635281723783
 30
0.0
 41
2.0
 42
2.0
 43
2.0
 50
270.0
  0
INSERT
  5
3AF3
330
3AEC
100
AcDbEntity
  8
寸法
 62
     0
370
    -2
100
AcDbBlockReference
  2
_DOT
 10
137.0971428571428
 20
311.1589677246066
 30
0.0
 41
2.0
 42
2.0
 43
2.0
 50
90.0
  0
MTEXT
  5
3AF4
330
3AEC
100
AcDbEntity
  8
寸法
 62
     0
100
AcDbMText
 10
129.5971428571428
 20
301.2112479484924
 30
0.0
 40
5.0
 41
0.0
 46
0.0
 71
     5
 72
     1
  1
\A1;20
  7
ＭＳ ゴシック
 11
0.0
 21
1.0
 31
0.0
 73
     1
 44
1.0
  0
POINT
  5
3AF5
330
3AEC
100
AcDbEntity
  8
Defpoints
 62
     0
100
AcDbPoint
 10
162.0813207064681
 20
291.2635281723783
 30
0.0
  0
POINT
  5
3AF6
330
3AEC
100
AcDbEntity
  8
Defpoints
 62
     0
100
AcDbPoint
 10
162.0813207064681
 20
311.1589677246066
 30
0.0
  0
POINT
  5
3AF7
330
3AEC
100
AcDbEntity
  8
Defpoints
 62
     0
100
AcDbPoint
 10
137.0971428571428
 20
311.1589677246066
 30
0.0
  0
ENDBLK
  5
3AEE
330
3AEC
100
AcDbEntity
  8
0
100
AcDbBlockEnd
  0
BLOCK
  5
3AF9
330
3AF8
100
AcDbEntity
  8
0
100
AcDbBlockBegin
  2
*D27
 70
     1
 10
0.0
 20
0.0
 30
0.0
  3
*D27
  1
*D28
  0
LINE
  5
3AFB
330
3AF8
100
AcDbEntity
  8
寸法
 62
     0
370
    -2
100
AcDbLine
 10
261.5654086631278
 20
288.8025652199963
 30
0.0
 11
261.5654086631278
 21
272.2370726621778
 31
0.0
  0
LINE
  5
3AFC
330
3AF8
100
AcDbEntity
  8
寸法
 62
     0
370
    -2
100
AcDbLine
 10
161.6592962311176
 20
286.6855526477289
 30
0.0
 11
161.6592962311176
 21
272.2370726621778
 31
0.0
  0
LINE
  5
3AFD
330
3AF8
100
AcDbEntity
  8
寸法
 62
     0
370
    -2
100
AcDbLine
 10
259.5654086631278
 20
272.2370726621778
 30
0.0
 11
163.6592962311176
 21
272.2370726621778
 31
0.0
  0
INSERT
  5
3AFE
330
3AF8
100
AcDbEntity
  8
寸法
 62
     0
370
    -2
100
AcDbBlockReference
  2
_DOT
 10
261.5654086631278
 20
272.2370726621778
 30
0.0
 41
2.0
 42
2.0
 43
2.0
  0
INSERT
  5
3AFF
330
3AF8
100
AcDbEntity
  8
寸法
 62
     0
370
    -2
100
AcDbBlockReference
  2
_DOT
 10
161.6592962311176
 20
272.2370726621778
 30
0.0
 41
2.0
 42
2.0
 43
2.0
 50
180.0
  0
MTEXT
  5
3B00
330
3AF8
100
AcDbEntity
  8
寸法
 62
     0
100
AcDbMText
 10
211.6123524471227
 20
279.7370726621778
 30
0.0
 40
5.0
 41
0.0
 46
0.0
 71
     5
 72
     1
  1
\A1;100
  7
ＭＳ ゴシック
 73
     1
 44
1.0
  0
POINT
  5
3B01
330
3AF8
100
AcDbEntity
  8
Defpoints
 62
     0
100
AcDbPoint
 10
261.5654086631278
 20
293.8025652199963
 30
0.0
  0
POINT
  5
3B02
330
3AF8
100
AcDbEntity
  8
Defpoints
 62
     0
100
AcDbPoint
 10
161.6592962311176
 20
291.6855526477289
 30
0.0
  0
POINT
  5
3B03
330
3AF8
100
AcDbEntity
  8
Defpoints
 62
     0
100
AcDbPoint
 10
161.6592962311176
 20
272.2370726621778
 30
0.0
  0
ENDBLK
  5
3AFA
330
3AF8
100
AcDbEntity
  8
0
100
AcDbBlockEnd
  0
BLOCK
  5
3B05
330
3B04
100
AcDbEntity
  8
0
100
AcDbBlockBegin
  2
*D28
 70
     1
 10
0.0
 20
0.0
 30
0.0
  3
*D28
  1
*D29
  0
LINE
  5
3B07
330
3B04
100
AcDbEntity
  8
寸法
 62
     0
370
    -2
100
AcDbLine
 10
157.0813207064681
 20
311.1589677246066
 30
0.0
 11
137.0971428571428
 21
311.1589677246066
 31
0.0
  0
LINE
  5
3B08
330
3B04
100
AcDbEntity
  8
寸法
 62
     0
370
    -2
100
AcDbLine
 10
141.8419307741243
 20
346.2955197580586
 30
0.0
 11
137.0971428571428
 21
346.2955197580586
 31
0.0
  0
LINE
  5
3B09
330
3B04
100
AcDbEntity
  8
寸法
 62
     0
370
    -2
100
AcDbLine
 10
137.0971428571428
 20
313.1589677246066
 30
0.0
 11
137.0971428571428
 21
344.2955197580586
 31
0.0
  0
INSERT
  5
3B0A
330
3B04
100
AcDbEntity
  8
寸法
 62
     0
370
    -2
100
AcDbBlockReference
  2
_DOT
 10
137.0971428571428
 20
311.1589677246066
 30
0.0
 41
2.0
 42
2.0
 43
2.0
 50
270.0
  0
INSERT
  5
3B0B
330
3B04
100
AcDbEntity
  8
寸法
 62
     0
370
    -2
100
AcDbBlockReference
  2
_DOT
 10
137.0971428571428
 20
346.2955197580586
 30
0.0
 41
2.0
 42
2.0
 43
2.0
 50
90.0
  0
MTEXT
  5
3B0C
330
3B04
100
AcDbEntity
  8
寸法
 62
     0
100
AcDbMText
 10
129.5971428571428
 20
328.7272437413326
 30
0.0
 40
5.0
 41
0.0
 46
0.0
 71
     5
 72
     1
  1
\A1;35
  7
ＭＳ ゴシック
 11
0.0
 21
1.0
 31
0.0
 73
     1
 44
1.0
  0
POINT
  5
3B0D
330
3B04
100
AcDbEntity
  8
Defpoints
 62
     0
100
AcDbPoint
 10
162.0813207064681
 20
311.1589677246066
 30
0.0
  0
POINT
  5
3B0E
330
3B04
100
AcDbEntity
  8
Defpoints
 62
     0
100
AcDbPoint
 10
146.8419307741243
 20
346.2955197580586
 30
0.0
  0
POINT
  5
3B0F
330
3B04
100
AcDbEntity
  8
Defpoints
 62
     0
100
AcDbPoint
 10
137.0971428571428
 20
346.2955197580586
 30
0.0
  0
ENDBLK
  5
3B06
330
3B04
100
AcDbEntity
  8
0
100
AcDbBlockEnd
  0
BLOCK
  5
3B11
330
3B10
100
AcDbEntity
  8
0
100
AcDbBlockBegin
  2
*D29
 70
     1
 10
0.0
 20
0.0
 30
0.0
  3
*D29
  1
*D30
  0
LINE
  5
3B13
330
3B10
100
AcDbEntity
  8
寸法
 62
     0
370
    -2
100
AcDbLine
 10
166.8180282449072
 20
144.7666257071893
 30
0.0
 11
137.0971428571428
 21
144.7666257071893
 31
0.0
  0
LINE
  5
3B14
330
3B10
100
AcDbEntity
  8
寸法
 62
     0
370
    -2
100
AcDbLine
 10
166.8180282449072
 20
195.1447822836593
 30
0.0
 11
137.0971428571428
 21
195.1447822836593
 31
0.0
  0
LINE
  5
3B15
330
3B10
100
AcDbEntity
  8
寸法
 62
     0
370
    -2
100
AcDbLine
 10
137.0971428571428
 20
146.7666257071893
 30
0.0
 11
137.0971428571428
 21
193.1447822836593
 31
0.0
  0
INSERT
  5
3B16
330
3B10
100
AcDbEntity
  8
寸法
 62
     0
370
    -2
100
AcDbBlockReference
  2
_DOT
 10
137.0971428571428
 20
144.7666257071893
 30
0.0
 41
2.0
 42
2.0
 43
2.0
 50
270.0
  0
INSERT
  5
3B17
330
3B10
100
AcDbEntity
  8
寸法
 62
     0
370
    -2
100
AcDbBlockReference
  2
_DOT
 10
137.0971428571428
 20
195.1447822836593
 30
0.0
 41
2.0
 42
2.0
 43
2.0
 50
90.0
  0
MTEXT
  5
3B18
330
3B10
100
AcDbEntity
  8
寸法
 62
     0
100
AcDbMText
 10
129.5971428571428
 20
169.9557039954243
 30
0.0
 40
5.0
 41
0.0
 46
0.0
 71
     5
 72
     1
  1
\A1;50
  7
ＭＳ ゴシック
 11
0.0
 21
1.0
 31
0.0
 73
     1
 44
1.0
  0
POINT
  5
3B19
330
3B10
100
AcDbEntity
  8
Defpoints
 62
     0
100
AcDbPoint
 10
171.8180282449072
 20
144.7666257071893
 30
0.0
  0
POINT
  5
3B1A
330
3B10
100
AcDbEntity
  8
Defpoints
 62
     0
100
AcDbPoint
 10
171.8180282449072
 20
195.1447822836593
 30
0.0
  0
POINT
  5
3B1B
330
3B10
100
AcDbEntity
  8
Defpoints
 62
     0
100
AcDbPoint
 10
137.0971428571428
 20
195.1447822836593
 30
0.0
  0
ENDBLK
  5
3B12
330
3B10
100
AcDbEntity
  8
0
100
AcDbBlockEnd
  0
BLOCK
  5
3B1D
330
3B1C
100
AcDbEntity
  8
0
100
AcDbBlockBegin
  2
*D30
 70
     1
 10
0.0
 20
0.0
 30
0.0
  3
*D30
  1
*D31
  0
LINE
  5
3B1F
330
3B1C
100
AcDbEntity
  8
寸法
 62
     0
370
    -2
100
AcDbLine
 10
266.5654086631278
 20
177.3643788169747
 30
0.0
 11
283.9287013753707
 21
177.3643788169747
 31
0.0
  0
LINE
  5
3B20
330
3B1C
100
AcDbEntity
  8
寸法
 62
     0
370
    -2
100
AcDbLine
 10
266.5654086631278
 20
162.5470133599805
 30
0.0
 11
283.9287013753707
 21
162.5470133599805
 31
0.0
  0
LINE
  5
3B21
330
3B1C
100
AcDbEntity
  8
寸法
 62
     0
370
    -2
100
AcDbLine
 10
283.9287013753707
 20
175.3643788169747
 30
0.0
 11
283.9287013753707
 21
164.5470133599805
 31
0.0
  0
INSERT
  5
3B22
330
3B1C
100
AcDbEntity
  8
寸法
 62
     0
370
    -2
100
AcDbBlockReference
  2
_DOT
 10
283.9287013753707
 20
177.3643788169747
 30
0.0
 41
2.0
 42
2.0
 43
2.0
 50
90.0
  0
INSERT
  5
3B23
330
3B1C
100
AcDbEntity
  8
寸法
 62
     0
370
    -2
100
AcDbBlockReference
  2
_DOT
 10
283.9287013753707
 20
162.5470133599805
 30
0.0
 41
2.0
 42
2.0
 43
2.0
 50
270.0
  0
MTEXT
  5
3B24
330
3B1C
100
AcDbEntity
  8
寸法
 62
     0
100
AcDbMText
 10
276.4287013753707
 20
170.2111726613443
 30
0.0
 40
5.0
 41
0.0
 46
0.0
 71
     5
 72
     1
  1
\A1;15
  7
ＭＳ ゴシック
 11
0.0
 21
1.0
 31
0.0
 73
     1
 44
1.0
  0
POINT
  5
3B25
330
3B1C
100
AcDbEntity
  8
Defpoints
 62
     0
100
AcDbPoint
 10
261.5654086631278
 20
177.3643788169747
 30
0.0
  0
POINT
  5
3B26
330
3B1C
100
AcDbEntity
  8
Defpoints
 62
     0
100
AcDbPoint
 10
261.5654086631278
 20
162.5470133599805
 30
0.0
  0
POINT
  5
3B27
330
3B1C
100
AcDbEntity
  8
Defpoints
 62
     0
100
AcDbPoint
 10
283.9287013753707
 20
162.5470133599805
 30
0.0
  0
ENDBLK
  5
3B1E
330
3B1C
100
AcDbEntity
  8
0
100
AcDbBlockEnd
  0
BLOCK
  5
3B29
330
3B28
100
AcDbEntity
  8
0
100
AcDbBlockBegin
  2
*D31
 70
     1
 10
0.0
 20
0.0
 30
0.0
  3
*D31
  1
*D32
  0
LINE
  5
3B2B
330
3B28
100
AcDbEntity
  8
寸法
 62
     0
370
    -2
100
AcDbLine
 10
266.5654086631278
 20
293.8025652199963
 30
0.0
 11
300.7744427308268
 21
293.8025652199963
 31
0.0
  0
LINE
  5
3B2C
330
3B28
100
AcDbEntity
  8
寸法
 62
     0
370
    -2
100
AcDbLine
 10
201.7958482645687
 20
350.9532919268227
 30
0.0
 11
300.7744427308268
 21
350.9532919268227
 31
0.0
  0
LINE
  5
3B2D
330
3B28
100
AcDbEntity
  8
寸法
 62
     0
370
    -2
100
AcDbLine
 10
300.7744427308268
 20
295.8025652199963
 30
0.0
 11
300.7744427308268
 21
348.9532919268227
 31
0.0
  0
INSERT
  5
3B2E
330
3B28
100
AcDbEntity
  8
寸法
 62
     0
370
    -2
100
AcDbBlockReference
  2
_DOT
 10
300.7744427308268
 20
293.8025652199963
 30
0.0
 41
2.0
 42
2.0
 43
2.0
 50
270.0
  0
INSERT
  5
3B2F
330
3B28
100
AcDbEntity
  8
寸法
 62
     0
370
    -2
100
AcDbBlockReference
  2
_DOT
 10
300.7744427308268
 20
350.9532919268227
 30
0.0
 41
2.0
 42
2.0
 43
2.0
 50
90.0
  0
MTEXT
  5
3B30
330
3B28
100
AcDbEntity
  8
寸法
 62
     0
100
AcDbMText
 10
293.2744427308268
 20
322.3779285734095
 30
0.0
 40
5.0
 41
0.0
 46
0.0
 71
     5
 72
     1
  1
\A1;57
  7
ＭＳ ゴシック
 11
0.0
 21
1.0
 31
0.0
 73
     1
 44
1.0
  0
POINT
  5
3B31
330
3B28
100
AcDbEntity
  8
Defpoints
 62
     0
100
AcDbPoint
 10
261.5654086631278
 20
293.8025652199963
 30
0.0
  0
POINT
  5
3B32
330
3B28
100
AcDbEntity
  8
Defpoints
 62
     0
100
AcDbPoint
 10
196.7958482645687
 20
350.9532919268227
 30
0.0
  0
POINT
  5
3B33
330
3B28
100
AcDbEntity
  8
Defpoints
 62
     0
100
AcDbPoint
 10
300.7744427308268
 20
350.9532919268227
 30
0.0
  0
ENDBLK
  5
3B2A
330
3B28
100
AcDbEntity
  8
0
100
AcDbBlockEnd
  0
BLOCK
  5
3B35
330
3B34
100
AcDbEntity
  8
0
100
AcDbBlockBegin
  2
*D32
 70
     1
 10
0.0
 20
0.0
 30
0.0
  3
*D32
  1
*D33
  0
LINE
  5
3B37
330
3B34
100
AcDbEntity
  8
寸法
 62
     0
370
    -2
100
AcDbLine
 10
201.7958482645687
 20
350.9532919268227
 30
0.0
 11
280.2069526369435
 21
350.9532919268227
 31
0.0
  0
LINE
  5
3B38
330
3B34
100
AcDbEntity
  8
寸法
 62
     0
370
    -2
100
AcDbLine
 10
266.5654086631278
 20
308.6199306769895
 30
0.0
 11
280.2069526369435
 21
308.6199306769895
 31
0.0
  0
LINE
  5
3B39
330
3B34
100
AcDbEntity
  8
寸法
 62
     0
370
    -2
100
AcDbLine
 10
280.2069526369435
 20
348.9532919268227
 30
0.0
 11
280.2069526369435
 21
310.6199306769895
 31
0.0
  0
INSERT
  5
3B3A
330
3B34
100
AcDbEntity
  8
寸法
 62
     0
370
    -2
100
AcDbBlockReference
  2
_DOT
 10
280.2069526369435
 20
350.9532919268227
 30
0.0
 41
2.0
 42
2.0
 43
2.0
 50
90.0
  0
INSERT
  5
3B3B
330
3B34
100
AcDbEntity
  8
寸法
 62
     0
370
    -2
100
AcDbBlockReference
  2
_DOT
 10
280.2069526369435
 20
308.6199306769895
 30
0.0
 41
2.0
 42
2.0
 43
2.0
 50
270.0
  0
MTEXT
  5
3B3C
330
3B34
100
AcDbEntity
  8
寸法
 62
     0
100
AcDbMText
 10
272.7069526369435
 20
329.7866113019061
 30
0.0
 40
5.0
 41
0.0
 46
0.0
 71
     5
 72
     1
  1
\A1;42
  7
ＭＳ ゴシック
 11
0.0
 21
1.0
 31
0.0
 73
     1
 44
1.0
  0
POINT
  5
3B3D
330
3B34
100
AcDbEntity
  8
Defpoints
 62
     0
100
AcDbPoint
 10
196.7958482645687
 20
350.9532919268227
 30
0.0
  0
POINT
  5
3B3E
330
3B34
100
AcDbEntity
  8
Defpoints
 62
     0
100
AcDbPoint
 10
261.5654086631278
 20
308.6199306769895
 30
0.0
  0
POINT
  5
3B3F
330
3B34
100
AcDbEntity
  8
Defpoints
 62
     0
100
AcDbPoint
 10
280.2069526369435
 20
308.6199306769895
 30
0.0
  0
ENDBLK
  5
3B36
330
3B34
100
AcDbEntity
  8
0
100
AcDbBlockEnd
  0
BLOCK
  5
3B41
330
3B40
100
AcDbEntity
  8
0
100
AcDbBlockBegin
  2
*D33
 70
     1
 10
0.0
 20
0.0
 30
0.0
  3
*D33
  1
*D34
  0
LINE
  5
3B43
330
3B40
100
AcDbEntity
  8
寸法
 62
     0
370
    -2
100
AcDbLine
 10
190.8180282449072
 20
164.7438225763632
 30
0.0
 11
190.8180282449072
 21
127.4537036122544
 31
0.0
  0
LINE
  5
3B44
330
3B40
100
AcDbEntity
  8
寸法
 62
     0
370
    -2
100
AcDbLine
 10
152.9810949788122
 20
164.7438225763632
 30
0.0
 11
152.9810949788122
 21
127.4537036122544
 31
0.0
  0
LINE
  5
3B45
330
3B40
100
AcDbEntity
  8
寸法
 62
     0
370
    -2
100
AcDbLine
 10
188.8180282449072
 20
127.4537036122544
 30
0.0
 11
154.9810949788122
 21
127.4537036122544
 31
0.0
  0
INSERT
  5
3B46
330
3B40
100
AcDbEntity
  8
寸法
 62
     0
370
    -2
100
AcDbBlockReference
  2
_DOT
 10
190.8180282449072
 20
127.4537036122544
 30
0.0
 41
2.0
 42
2.0
 43
2.0
  0
INSERT
  5
3B47
330
3B40
100
AcDbEntity
  8
寸法
 62
     0
370
    -2
100
AcDbBlockReference
  2
_DOT
 10
152.9810949788122
 20
127.4537036122544
 30
0.0
 41
2.0
 42
2.0
 43
2.0
 50
180.0
  0
MTEXT
  5
3B48
330
3B40
100
AcDbEntity
  8
寸法
 62
     0
100
AcDbMText
 10
171.8995616118597
 20
134.9537036122544
 30
0.0
 40
5.0
 41
0.0
 46
0.0
 71
     5
 72
     1
  1
\A1;38
  7
ＭＳ ゴシック
 73
     1
 44
1.0
  0
POINT
  5
3B49
330
3B40
100
AcDbEntity
  8
Defpoints
 62
     0
100
AcDbPoint
 10
190.8180282449072
 20
169.7438225763632
 30
0.0
  0
POINT
  5
3B4A
330
3B40
100
AcDbEntity
  8
Defpoints
 62
     0
100
AcDbPoint
 10
152.9810949788122
 20
169.7438225763632
 30
0.0
  0
POINT
  5
3B4B
330
3B40
100
AcDbEntity
  8
Defpoints
 62
     0
100
AcDbPoint
 10
152.9810949788122
 20
127.4537036122544
 30
0.0
  0
ENDBLK
  5
3B42
330
3B40
100
AcDbEntity
  8
0
100
AcDbBlockEnd
  0
BLOCK
  5
3B4D
330
3B4C
100
AcDbEntity
  8
0
100
AcDbBlockBegin
  2
*D34
 70
     1
 10
0.0
 20
0.0
 30
0.0
  3
*D34
  1
*D35
  0
LINE
  5
3B4F
330
3B4C
100
AcDbEntity
  8
寸法
 62
     0
370
    -2
100
AcDbLine
 10
431.4339565169425
 20
139.766609893296
 30
0.0
 11
431.4339565169425
 21
127.4428571428571
 31
0.0
  0
LINE
  5
3B50
330
3B4C
100
AcDbEntity
  8
寸法
 62
     0
370
    -2
100
AcDbLine
 10
426.7761843481786
 20
139.766609893296
 30
0.0
 11
426.7761843481786
 21
127.4428571428571
 31
0.0
  0
LINE
  5
3B51
330
3B4C
100
AcDbEntity
  8
寸法
 62
     0
370
    -2
100
AcDbLine
 10
429.4339565169425
 20
127.4428571428571
 30
0.0
 11
428.7761843481786
 21
127.4428571428571
 31
0.0
  0
INSERT
  5
3B52
330
3B4C
100
AcDbEntity
  8
寸法
 62
     0
370
    -2
100
AcDbBlockReference
  2
_DOT
 10
431.4339565169425
 20
127.4428571428571
 30
0.0
 41
2.0
 42
2.0
 43
2.0
  0
INSERT
  5
3B53
330
3B4C
100
AcDbEntity
  8
寸法
 62
     0
370
    -2
100
AcDbBlockReference
  2
_DOT
 10
426.7761843481786
 20
127.4428571428571
 30
0.0
 41
2.0
 42
2.0
 43
2.0
 50
180.0
  0
MTEXT
  5
3B54
330
3B4C
100
AcDbEntity
  8
寸法
 62
     0
100
AcDbMText
 10
429.1050704325605
 20
134.9428571428571
 30
0.0
 40
5.0
 41
0.0
 46
0.0
 71
     5
 72
     1
  1
\A1;5
  7
ＭＳ ゴシック
 73
     1
 44
1.0
  0
POINT
  5
3B55
330
3B4C
100
AcDbEntity
  8
Defpoints
 62
     0
100
AcDbPoint
 10
431.4339565169425
 20
144.766609893296
 30
0.0
  0
POINT
  5
3B56
330
3B4C
100
AcDbEntity
  8
Defpoints
 62
     0
100
AcDbPoint
 10
426.7761843481786
 20
144.766609893296
 30
0.0
  0
POINT
  5
3B57
330
3B4C
100
AcDbEntity
  8
Defpoints
 62
     0
100
AcDbPoint
 10
426.7761843481786
 20
127.4428571428571
 30
0.0
  0
ENDBLK
  5
3B4E
330
3B4C
100
AcDbEntity
  8
0
100
AcDbBlockEnd
  0
BLOCK
  5
3BDB
330
3BDA
100
AcDbEntity
  8
0
100
AcDbBlockBegin
  2
*D35
 70
     1
 10
0.0
 20
0.0
 30
0.0
  3
*D35
  1
*D16
  0
LINE
  5
3BDC
330
3BDA
100
AcDbEntity
  8
寸法
 62
     0
370
    -2
100
AcDbLine
 10
25.57317123366258
 20
247.0066959944616
 30
0.0
 11
25.57317123366258
 21
258.1589706413739
 31
0.0
  0
LINE
  5
3BDD
330
3BDA
100
AcDbEntity
  8
寸法
 62
     0
370
    -2
100
AcDbLine
 10
77.22207682102433
 20
247.0066959944616
 30
0.0
 11
77.22207682102433
 21
258.1589706413739
 31
0.0
  0
LINE
  5
3BDE
330
3BDA
100
AcDbEntity
  8
寸法
 62
     0
370
    -2
100
AcDbLine
 10
27.57317123366258
 20
258.1589706413739
 30
0.0
 11
75.22207682102433
 21
258.1589706413739
 31
0.0
  0
INSERT
  5
3BDF
330
3BDA
100
AcDbEntity
  8
寸法
 62
     0
370
    -2
100
AcDbBlockReference
  2
_DOT
 10
25.57317123366258
 20
258.1589706413739
 30
0.0
 41
2.0
 42
2.0
 43
2.0
 50
180.0
  0
INSERT
  5
3BE0
330
3BDA
100
AcDbEntity
  8
寸法
 62
     0
370
    -2
100
AcDbBlockReference
  2
_DOT
 10
77.22207682102433
 20
258.1589706413739
 30
0.0
 41
2.0
 42
2.0
 43
2.0
  0
MTEXT
  5
3BE1
330
3BDA
100
AcDbEntity
  8
寸法
 62
     0
100
AcDbMText
 10
51.39762402734345
 20
265.6589706413739
 30
0.0
 40
5.0
 41
0.0
 46
0.0
 71
     5
 72
     1
  1
\A1;52
  7
ＭＳ ゴシック
 73
     1
 44
1.0
  0
POINT
  5
3BE2
330
3BDA
100
AcDbEntity
  8
Defpoints
 62
     0
100
AcDbPoint
 10
25.57317123366258
 20
242.0066959944616
 30
0.0
  0
POINT
  5
3BE3
330
3BDA
100
AcDbEntity
  8
Defpoints
 62
     0
100
AcDbPoint
 10
77.22207682102433
 20
242.0066959944616
 30
0.0
  0
POINT
  5
3BE4
330
3BDA
100
AcDbEntity
  8
Defpoints
 62
     0
100
AcDbPoint
 10
77.22207682102433
 20
258.1589706413739
 30
0.0
  0
ENDBLK
  5
3BE5
330
3BDA
100
AcDbEntity
  8
0
100
AcDbBlockEnd
  0
BLOCK
  5
3BEA
330
3BE9
100
AcDbEntity
  8
0
100
AcDbBlockBegin
  2
*D36
 70
     1
 10
0.0
 20
0.0
 30
0.0
  3
*D36
  1
*D17
  0
LINE
  5
3BEB
330
3BE9
100
AcDbEntity
  8
寸法
 62
     0
370
    -2
100
AcDbLine
 10
20.57317123366258
 20
242.0066959944616
 30
0.0
 11
10.00000000000003
 21
242.0066959944616
 31
0.0
  0
LINE
  5
3BEC
330
3BE9
100
AcDbEntity
  8
寸法
 62
     0
370
    -2
100
AcDbLine
 10
21.20879177000657
 20
236.0794053018885
 30
0.0
 11
10.00000000000003
 21
236.0794053018885
 31
0.0
  0
LINE
  5
3BED
330
3BE9
100
AcDbEntity
  8
寸法
 62
     0
370
    -2
100
AcDbLine
 10
10.00000000000003
 20
240.0066959944616
 30
0.0
 11
10.00000000000003
 21
238.0794053018885
 31
0.0
  0
INSERT
  5
3BEE
330
3BE9
100
AcDbEntity
  8
寸法
 62
     0
370
    -2
100
AcDbBlockReference
  2
_DOT
 10
10.00000000000003
 20
242.0066959944616
 30
0.0
 41
2.0
 42
2.0
 43
2.0
 50
90.0
  0
INSERT
  5
3BEF
330
3BE9
100
AcDbEntity
  8
寸法
 62
     0
370
    -2
100
AcDbBlockReference
  2
_DOT
 10
10.00000000000003
 20
236.0794053018885
 30
0.0
 41
2.0
 42
2.0
 43
2.0
 50
270.0
  0
MTEXT
  5
3BF0
330
3BE9
100
AcDbEntity
  8
寸法
 62
     0
100
AcDbMText
 10
2.500000000000028
 20
239.043050648175
 30
0.0
 40
5.0
 41
0.0
 46
0.0
 71
     5
 72
     1
  1
\A1;6
  7
ＭＳ ゴシック
 11
0.0
 21
1.0
 31
0.0
 73
     1
 44
1.0
  0
POINT
  5
3BF1
330
3BE9
100
AcDbEntity
  8
Defpoints
 62
     0
100
AcDbPoint
 10
25.57317123366258
 20
242.0066959944616
 30
0.0
  0
POINT
  5
3BF2
330
3BE9
100
AcDbEntity
  8
Defpoints
 62
     0
100
AcDbPoint
 10
26.20879177000657
 20
236.0794053018885
 30
0.0
  0
POINT
  5
3BF3
330
3BE9
100
AcDbEntity
  8
Defpoints
 62
     0
100
AcDbPoint
 10
10.00000000000003
 20
236.0794053018885
 30
0.0
  0
ENDBLK
  5
3BF4
330
3BE9
100
AcDbEntity
  8
0
100
AcDbBlockEnd
  0
BLOCK
  5
3BF9
330
3BF8
100
AcDbEntity
  8
0
100
AcDbBlockBegin
  2
*D37
 70
     1
 10
0.0
 20
0.0
 30
0.0
  3
*D37
  1
*D18
  0
LINE
  5
3BFA
330
3BF8
100
AcDbEntity
  8
寸法
 62
     0
370
    -2
100
AcDbLine
 10
177.4704170842699
 20
195.4393096000927
 30
0.0
 11
198.2931473290717
 21
195.4393096000927
 31
0.0
  0
LINE
  5
3BFB
330
3BF8
100
AcDbEntity
  8
寸法
 62
     0
370
    -2
100
AcDbLine
 10
177.4686945353909
 20
179.3524256192906
 30
0.0
 11
198.2931473290717
 21
179.3524256192906
 31
0.0
  0
LINE
  5
3BFC
330
3BF8
100
AcDbEntity
  8
寸法
 62
     0
370
    -2
100
AcDbLine
 10
198.2931473290717
 20
193.4393096000927
 30
0.0
 11
198.2931473290717
 21
181.3524256192906
 31
0.0
  0
INSERT
  5
3BFD
330
3BF8
100
AcDbEntity
  8
寸法
 62
     0
370
    -2
100
AcDbBlockReference
  2
_DOT
 10
198.2931473290717
 20
195.4393096000927
 30
0.0
 41
2.0
 42
2.0
 43
2.0
 50
90.0
  0
INSERT
  5
3BFE
330
3BF8
100
AcDbEntity
  8
寸法
 62
     0
370
    -2
100
AcDbBlockReference
  2
_DOT
 10
198.2931473290717
 20
179.3524256192906
 30
0.0
 41
2.0
 42
2.0
 43
2.0
 50
270.0
  0
MTEXT
  5
3BFF
330
3BF8
100
AcDbEntity
  8
寸法
 62
     0
100
AcDbMText
 10
190.7931473290717
 20
187.3958676096917
 30
0.0
 40
5.0
 41
0.0
 46
0.0
 71
     5
 72
     1
  1
\A1;16
  7
ＭＳ ゴシック
 11
0.0
 21
1.0
 31
0.0
 73
     1
 44
1.0
  0
POINT
  5
3C00
330
3BF8
100
AcDbEntity
  8
Defpoints
 62
     0
100
AcDbPoint
 10
172.4704170842699
 20
195.4393096000927
 30
0.0
  0
POINT
  5
3C01
330
3BF8
100
AcDbEntity
  8
Defpoints
 62
     0
100
AcDbPoint
 10
172.4686945353909
 20
179.3524256192906
 30
0.0
  0
POINT
  5
3C02
330
3BF8
100
AcDbEntity
  8
Defpoints
 62
     0
100
AcDbPoint
 10
198.2931473290717
 20
179.3524256192906
 30
0.0
  0
ENDBLK
  5
3C03
330
3BF8
100
AcDbEntity
  8
0
100
AcDbBlockEnd
  0
BLOCK
  5
3C08
330
3C07
100
AcDbEntity
  8
0
100
AcDbBlockBegin
  2
*D38
 70
     1
 10
0.0
 20
0.0
 30
0.0
  3
*D38
  1
*D19
  0
LINE
  5
3C09
330
3C07
100
AcDbEntity
  8
寸法
 62
     0
370
    -2
100
AcDbLine
 10
43.35332076250292
 20
174.3524256192906
 30
0.0
 11
43.3533207625029
 21
143.4882222725964
 31
0.0
  0
LINE
  5
3C0A
330
3C07
100
AcDbEntity
  8
寸法
 62
     0
370
    -2
100
AcDbLine
 10
173.3161885838495
 20
174.3524256192906
 30
0.0
 11
173.3161885838495
 21
143.4882222725964
 31
0.0
  0
LINE
  5
3C0B
330
3C07
100
AcDbEntity
  8
寸法
 62
     0
370
    -2
100
AcDbLine
 10
45.3533207625029
 20
143.4882222725964
 30
0.0
 11
171.3161885838495
 21
143.4882222725964
 31
0.0
  0
INSERT
  5
3C0C
330
3C07
100
AcDbEntity
  8
寸法
 62
     0
370
    -2
100
AcDbBlockReference
  2
_DOT
 10
43.3533207625029
 20
143.4882222725964
 30
0.0
 41
2.0
 42
2.0
 43
2.0
 50
180.0
  0
INSERT
  5
3C0D
330
3C07
100
AcDbEntity
  8
寸法
 62
     0
370
    -2
100
AcDbBlockReference
  2
_DOT
 10
173.3161885838495
 20
143.4882222725964
 30
0.0
 41
2.0
 42
2.0
 43
2.0
  0
MTEXT
  5
3C0E
330
3C07
100
AcDbEntity
  8
寸法
 62
     0
100
AcDbMText
 10
108.3347546731762
 20
150.9882222725964
 30
0.0
 40
5.0
 41
0.0
 46
0.0
 71
     5
 72
     1
  1
\A1;130
  7
ＭＳ ゴシック
 73
     1
 44
1.0
  0
POINT
  5
3C0F
330
3C07
100
AcDbEntity
  8
Defpoints
 62
     0
100
AcDbPoint
 10
43.35332076250292
 20
179.3524256192906
 30
0.0
  0
POINT
  5
3C10
330
3C07
100
AcDbEntity
  8
Defpoints
 62
     0
100
AcDbPoint
 10
173.3161885838495
 20
179.3524256192906
 30
0.0
  0
POINT
  5
3C11
330
3C07
100
AcDbEntity
  8
Defpoints
 62
     0
100
AcDbPoint
 10
173.3161885838495
 20
143.4882222725964
 30
0.0
  0
ENDBLK
  5
3C12
330
3C07
100
AcDbEntity
  8
0
100
AcDbBlockEnd
  0
BLOCK
  5
3C15
330
3C14
100
AcDbEntity
  8
0
100
AcDbBlockBegin
  2
*D39
 70
     1
 10
0.0
 20
0.0
 30
0.0
  3
*D39
  1
*D20
  0
LINE
  5
3C16
330
3C14
100
AcDbEntity
  8
寸法
 62
     0
370
    -2
100
AcDbLine
 10
46.50269950896121
 20
69.67414061748563
 30
0.0
 11
10.00000000000003
 21
69.67414061748563
 31
0.0
  0
LINE
  5
3C17
330
3C14
100
AcDbEntity
  8
寸法
 62
     0
370
    -2
100
AcDbLine
 10
46.50269950896121
 20
17.67414061748565
 30
0.0
 11
10.00000000000003
 21
17.67414061748565
 31
0.0
  0
LINE
  5
3C18
330
3C14
100
AcDbEntity
  8
寸法
 62
     0
370
    -2
100
AcDbLine
 10
10.00000000000003
 20
67.67414061748563
 30
0.0
 11
10.00000000000003
 21
19.67414061748565
 31
0.0
  0
INSERT
  5
3C19
330
3C14
100
AcDbEntity
  8
寸法
 62
     0
370
    -2
100
AcDbBlockReference
  2
_DOT
 10
10.00000000000003
 20
69.67414061748563
 30
0.0
 41
2.0
 42
2.0
 43
2.0
 50
90.0
  0
INSERT
  5
3C1A
330
3C14
100
AcDbEntity
  8
寸法
 62
     0
370
    -2
100
AcDbBlockReference
  2
_DOT
 10
10.00000000000003
 20
17.67414061748565
 30
0.0
 41
2.0
 42
2.0
 43
2.0
 50
270.0
  0
MTEXT
  5
3C1B
330
3C14
100
AcDbEntity
  8
寸法
 62
     0
100
AcDbMText
 10
2.500000000000028
 20
43.67414061748563
 30
0.0
 40
5.0
 41
0.0
 46
0.0
 71
     5
 72
     1
  1
\A1;52
  7
ＭＳ ゴシック
 11
6.832141690000965E-17
 21
1.0
 31
0.0
 73
     1
 44
1.0
  0
POINT
  5
3C1C
330
3C14
100
AcDbEntity
  8
Defpoints
 62
     0
100
AcDbPoint
 10
51.50269950896121
 20
69.67414061748563
 30
0.0
  0
POINT
  5
3C1D
330
3C14
100
AcDbEntity
  8
Defpoints
 62
     0
100
AcDbPoint
 10
51.50269950896121
 20
17.67414061748565
 30
0.0
  0
POINT
  5
3C1E
330
3C14
100
AcDbEntity
  8
Defpoints
 62
     0
100
AcDbPoint
 10
10.00000000000003
 20
17.67414061748565
 30
0.0
  0
ENDBLK
  5
3C1F
330
3C14
100
AcDbEntity
  8
0
100
AcDbBlockEnd
  0
BLOCK
  5
3C22
330
3C21
100
AcDbEntity
  8
0
100
AcDbBlockBegin
  2
*D40
 70
     1
 10
0.0
 20
0.0
 30
0.0
  3
*D40
  1
*D21
  0
LINE
  5
3C23
330
3C21
100
AcDbEntity
  8
寸法
 62
     0
370
    -2
100
AcDbLine
 10
32.34623342581521
 20
38.67414061748563
 30
0.0
 11
32.34623342581521
 21
0.5
 31
0.0
  0
LINE
  5
3C24
330
3C21
100
AcDbEntity
  8
寸法
 62
     0
370
    -2
100
AcDbLine
 10
70.44729207999262
 20
38.67414061748563
 30
0.0
 11
70.44729207999262
 21
0.5
 31
0.0
  0
LINE
  5
3C25
330
3C21
100
AcDbEntity
  8
寸法
 62
     0
370
    -2
100
AcDbLine
 10
34.34623342581521
 20
0.5
 30
0.0
 11
68.44729207999262
 21
0.5
 31
0.0
  0
INSERT
  5
3C26
330
3C21
100
AcDbEntity
  8
寸法
 62
     0
370
    -2
100
AcDbBlockReference
  2
_DOT
 10
32.34623342581521
 20
0.5
 30
0.0
 41
2.0
 42
2.0
 43
2.0
 50
180.0
  0
INSERT
  5
3C27
330
3C21
100
AcDbEntity
  8
寸法
 62
     0
370
    -2
100
AcDbBlockReference
  2
_DOT
 10
70.44729207999262
 20
0.5
 30
0.0
 41
2.0
 42
2.0
 43
2.0
  0
MTEXT
  5
3C28
330
3C21
100
AcDbEntity
  8
寸法
 62
     0
100
AcDbMText
 10
51.39676275290392
 20
8.0
 30
0.0
 40
5.0
 41
0.0
 46
0.0
 71
     5
 72
     1
  1
\A1;38
  7
ＭＳ ゴシック
 73
     1
 44
1.0
  0
POINT
  5
3C29
330
3C21
100
AcDbEntity
  8
Defpoints
 62
     0
100
AcDbPoint
 10
32.34623342581521
 20
43.67414061748563
 30
0.0
  0
POINT
  5
3C2A
330
3C21
100
AcDbEntity
  8
Defpoints
 62
     0
100
AcDbPoint
 10
70.44729207999262
 20
43.67414061748563
 30
0.0
  0
POINT
  5
3C2B
330
3C21
100
AcDbEntity
  8
Defpoints
 62
     0
100
AcDbPoint
 10
70.44729207999262
 20
0.5
 30
0.0
  0
ENDBLK
  5
3C2C
330
3C21
100
AcDbEntity
  8
0
100
AcDbBlockEnd
  0
BLOCK
  5
3C31
330
3C30
100
AcDbEntity
  8
0
100
AcDbBlockBegin
  2
*D41
 70
     1
 10
0.0
 20
0.0
 30
0.0
  3
*D41
  1
*D23
  0
LINE
  5
3C32
330
3C30
100
AcDbEntity
  8
寸法
 62
     0
370
    -2
100
AcDbLine
 10
177.4686945353909
 20
179.3524256192906
 30
0.0
 11
217.0165546742531
 21
179.3524256192906
 31
0.0
  0
LINE
  5
3C33
330
3C30
100
AcDbEntity
  8
寸法
 62
     0
370
    -2
100
AcDbLine
 10
82.22207682102433
 20
242.0066959944616
 30
0.0
 11
217.0165546742531
 21
242.0066959944616
 31
0.0
  0
LINE
  5
3C34
330
3C30
100
AcDbEntity
  8
寸法
 62
     0
370
    -2
100
AcDbLine
 10
217.0165546742531
 20
181.3524256192906
 30
0.0
 11
217.0165546742531
 21
240.0066959944616
 31
0.0
  0
INSERT
  5
3C35
330
3C30
100
AcDbEntity
  8
寸法
 62
     0
370
    -2
100
AcDbBlockReference
  2
_DOT
 10
217.0165546742531
 20
179.3524256192906
 30
0.0
 41
2.0
 42
2.0
 43
2.0
 50
270.0
  0
INSERT
  5
3C36
330
3C30
100
AcDbEntity
  8
寸法
 62
     0
370
    -2
100
AcDbBlockReference
  2
_DOT
 10
217.0165546742531
 20
242.0066959944616
 30
0.0
 41
2.0
 42
2.0
 43
2.0
 50
90.0
  0
MTEXT
  5
3C37
330
3C30
100
AcDbEntity
  8
寸法
 62
     0
100
AcDbMText
 10
209.5165546742531
 20
210.6795608068761
 30
0.0
 40
5.0
 41
0.0
 46
0.0
 71
     5
 72
     1
  1
\A1;63
  7
ＭＳ ゴシック
 11
0.0
 21
1.0
 31
0.0
 73
     1
 44
1.0
  0
POINT
  5
3C38
330
3C30
100
AcDbEntity
  8
Defpoints
 62
     0
100
AcDbPoint
 10
172.4686945353909
 20
179.3524256192906
 30
0.0
  0
POINT
  5
3C39
330
3C30
100
AcDbEntity
  8
Defpoints
 62
     0
100
AcDbPoint
 10
77.22207682102433
 20
242.0066959944616
 30
0.0
  0
POINT
  5
3C3A
330
3C30
100
AcDbEntity
  8
Defpoints
 62
     0
100
AcDbPoint
 10
217.0165546742531
 20
242.0066959944616
 30
0.0
  0
ENDBLK
  5
3C3B
330
3C30
100
AcDbEntity
  8
0
100
AcDbBlockEnd
  0
BLOCK
  5
3C50
330
3C4F
100
AcDbEntity
  8
0
100
AcDbBlockBegin
  2
*D42
 70
     1
 10
0.0
 20
0.0
 30
0.0
  3
*D42
  1
*D25
  0
LINE
  5
3C51
330
3C4F
100
AcDbEntity
  8
寸法
 62
     0
370
    -2
100
AcDbLine
 10
282.2008533256959
 20
12.60493310365254
 30
0.0
 11
282.2008533256959
 21
0.6695257147134583
 31
0.0
  0
LINE
  5
3C52
330
3C4F
100
AcDbEntity
  8
寸法
 62
     0
370
    -2
100
AcDbLine
 10
276.273562633123
 20
12.60493310365254
 30
0.0
 11
276.273562633123
 21
0.6695257147134583
 31
0.0
  0
LINE
  5
3C53
330
3C4F
100
AcDbEntity
  8
寸法
 62
     0
370
    -2
100
AcDbLine
 10
280.2008533256959
 20
0.6695257147134583
 30
0.0
 11
278.273562633123
 21
0.6695257147134583
 31
0.0
  0
INSERT
  5
3C54
330
3C4F
100
AcDbEntity
  8
寸法
 62
     0
370
    -2
100
AcDbBlockReference
  2
_DOT
 10
282.2008533256959
 20
0.6695257147134583
 30
0.0
 41
2.0
 42
2.0
 43
2.0
  0
INSERT
  5
3C55
330
3C4F
100
AcDbEntity
  8
寸法
 62
     0
370
    -2
100
AcDbBlockReference
  2
_DOT
 10
276.273562633123
 20
0.6695257147134583
 30
0.0
 41
2.0
 42
2.0
 43
2.0
 50
180.0
  0
MTEXT
  5
3C56
330
3C4F
100
AcDbEntity
  8
寸法
 62
     0
100
AcDbMText
 10
279.2372079794095
 20
8.169525714713458
 30
0.0
 40
5.0
 41
0.0
 46
0.0
 71
     5
 72
     1
  1
\A1;6
  7
ＭＳ ゴシック
 73
     1
 44
1.0
  0
POINT
  5
3C57
330
3C4F
100
AcDbEntity
  8
Defpoints
 62
     0
100
AcDbPoint
 10
282.2008533256959
 20
17.60493310365254
 30
0.0
  0
POINT
  5
3C58
330
3C4F
100
AcDbEntity
  8
Defpoints
 62
     0
100
AcDbPoint
 10
276.273562633123
 20
17.60493310365254
 30
0.0
  0
POINT
  5
3C59
330
3C4F
100
AcDbEntity
  8
Defpoints
 62
     0
100
AcDbPoint
 10
276.273562633123
 20
0.6695257147134583
 30
0.0
  0
ENDBLK
  5
3C5A
330
3C4F
100
AcDbEntity
  8
0
100
AcDbBlockEnd
  0
BLOCK
  5
3C5F
330
3C5E
100
AcDbEntity
  8
0
100
AcDbBlockBegin
  2
*D43
 70
     1
 10
0.0
 20
0.0
 30
0.0
  3
*D43
  1
*D26
  0
LINE
  5
3C60
330
3C5E
100
AcDbEntity
  8
寸法
 62
     0
370
    -2
100
AcDbLine
 10
16.20879177000657
 20
236.0794053018885
 30
0.0
 11
10.00000000000003
 21
236.0794053018885
 31
0.0
  0
LINE
  5
3C61
330
3C5E
100
AcDbEntity
  8
寸法
 62
     0
370
    -2
100
AcDbLine
 10
38.35332076250292
 20
179.3524256192906
 30
0.0
 11
10.00000000000003
 21
179.3524256192906
 31
0.0
  0
LINE
  5
3C62
330
3C5E
100
AcDbEntity
  8
寸法
 62
     0
370
    -2
100
AcDbLine
 10
10.00000000000003
 20
234.0794053018885
 30
0.0
 11
10.00000000000003
 21
181.3524256192906
 31
0.0
  0
INSERT
  5
3C63
330
3C5E
100
AcDbEntity
  8
寸法
 62
     0
370
    -2
100
AcDbBlockReference
  2
_DOT
 10
10.00000000000003
 20
236.0794053018885
 30
0.0
 41
2.0
 42
2.0
 43
2.0
 50
90.0
  0
INSERT
  5
3C64
330
3C5E
100
AcDbEntity
  8
寸法
 62
     0
370
    -2
100
AcDbBlockReference
  2
_DOT
 10
10.00000000000003
 20
179.3524256192906
 30
0.0
 41
2.0
 42
2.0
 43
2.0
 50
270.0
  0
MTEXT
  5
3C65
330
3C5E
100
AcDbEntity
  8
寸法
 62
     0
100
AcDbMText
 10
2.50000000000003
 20
207.7159154605896
 30
0.0
 40
5.0
 41
0.0
 46
0.0
 71
     5
 72
     1
  1
\A1;57
  7
ＭＳ ゴシック
 11
6.262828902012500E-17
 21
1.0
 31
0.0
 73
     1
 44
1.0
  0
POINT
  5
3C66
330
3C5E
100
AcDbEntity
  8
Defpoints
 62
     0
100
AcDbPoint
 10
21.20879177000657
 20
236.0794053018885
 30
0.0
  0
POINT
  5
3C67
330
3C5E
100
AcDbEntity
  8
Defpoints
 62
     0
100
AcDbPoint
 10
43.35332076250292
 20
179.3524256192906
 30
0.0
  0
POINT
  5
3C68
330
3C5E
100
AcDbEntity
  8
Defpoints
 62
     0
100
AcDbPoint
 10
10.00000000000003
 20
179.3524256192906
 30
0.0
  0
ENDBLK
  5
3C69
330
3C5E
100
AcDbEntity
  8
0
100
AcDbBlockEnd
  0
BLOCK
  5
3C6E
330
3C6D
100
AcDbEntity
  8
0
100
AcDbBlockBegin
  2
*D44
 70
     1
 10
0.0
 20
0.0
 30
0.0
  3
*D44
  1
*D27
  0
LINE
  5
3C6F
330
3C6D
100
AcDbEntity
  8
寸法
 62
     0
370
    -2
100
AcDbLine
 10
178.3161885838495
 20
51.50484782133263
 30
0.0
 11
198.2931473290717
 21
51.50484782133263
 31
0.0
  0
LINE
  5
3C70
330
3C6D
100
AcDbEntity
  8
寸法
 62
     0
370
    -2
100
AcDbLine
 10
178.3161885838495
 20
35.84343341363864
 30
0.0
 11
198.2931473290717
 21
35.84343341363864
 31
0.0
  0
LINE
  5
3C71
330
3C6D
100
AcDbEntity
  8
寸法
 62
     0
370
    -2
100
AcDbLine
 10
198.2931473290717
 20
49.50484782133263
 30
0.0
 11
198.2931473290717
 21
37.84343341363864
 31
0.0
  0
INSERT
  5
3C72
330
3C6D
100
AcDbEntity
  8
寸法
 62
     0
370
    -2
100
AcDbBlockReference
  2
_DOT
 10
198.2931473290717
 20
51.50484782133263
 30
0.0
 41
2.0
 42
2.0
 43
2.0
 50
90.0
  0
INSERT
  5
3C73
330
3C6D
100
AcDbEntity
  8
寸法
 62
     0
370
    -2
100
AcDbBlockReference
  2
_DOT
 10
198.2931473290717
 20
35.84343341363864
 30
0.0
 41
2.0
 42
2.0
 43
2.0
 50
270.0
  0
MTEXT
  5
3C74
330
3C6D
100
AcDbEntity
  8
寸法
 62
     0
100
AcDbMText
 10
190.7931473290717
 20
43.67414061748563
 30
0.0
 40
5.0
 41
0.0
 46
0.0
 71
     5
 72
     1
  1
\A1;16
  7
ＭＳ ゴシック
 11
0.0
 21
1.0
 31
0.0
 73
     1
 44
1.0
  0
POINT
  5
3C75
330
3C6D
100
AcDbEntity
  8
Defpoints
 62
     0
100
AcDbPoint
 10
173.3161885838495
 20
51.50484782133263
 30
0.0
  0
POINT
  5
3C76
330
3C6D
100
AcDbEntity
  8
Defpoints
 62
     0
100
AcDbPoint
 10
173.3161885838495
 20
35.84343341363864
 30
0.0
  0
POINT
  5
3C77
330
3C6D
100
AcDbEntity
  8
Defpoints
 62
     0
100
AcDbPoint
 10
198.2931473290717
 20
35.84343341363864
 30
0.0
  0
ENDBLK
  5
3C78
330
3C6D
100
AcDbEntity
  8
0
100
AcDbBlockEnd
  0
BLOCK
  5
3CE6
330
3CE5
100
AcDbEntity
  8
0
100
AcDbBlockBegin
  2
*D45
 70
     1
 10
0.0
 20
0.0
 30
0.0
  3
*D45
  1
*D46
  0
LINE
  5
3CE8
330
3CE5
100
AcDbEntity
  8
寸法
 62
     0
370
    -2
100
AcDbLine
 10
150.921742662234
 20
365.2066959944615
 30
0.0
 11
150.921742662234
 21
376.3589706413738
 31
0.0
  0
LINE
  5
3CE9
330
3CE5
100
AcDbEntity
  8
寸法
 62
     0
370
    -2
100
AcDbLine
 10
202.5706482495957
 20
365.2066959944615
 30
0.0
 11
202.5706482495957
 21
376.3589706413738
 31
0.0
  0
LINE
  5
3CEA
330
3CE5
100
AcDbEntity
  8
寸法
 62
     0
370
    -2
100
AcDbLine
 10
152.921742662234
 20
376.3589706413738
 30
0.0
 11
200.5706482495957
 21
376.3589706413738
 31
0.0
  0
INSERT
  5
3CEB
330
3CE5
100
AcDbEntity
  8
寸法
 62
     0
370
    -2
100
AcDbBlockReference
  2
_DOT
 10
150.921742662234
 20
376.3589706413738
 30
0.0
 41
2.0
 42
2.0
 43
2.0
 50
180.0
  0
INSERT
  5
3CEC
330
3CE5
100
AcDbEntity
  8
寸法
 62
     0
370
    -2
100
AcDbBlockReference
  2
_DOT
 10
202.5706482495957
 20
376.3589706413738
 30
0.0
 41
2.0
 42
2.0
 43
2.0
  0
MTEXT
  5
3CED
330
3CE5
100
AcDbEntity
  8
寸法
 62
     0
100
AcDbMText
 10
176.7461954559149
 20
383.8589706413738
 30
0.0
 40
5.0
 41
0.0
 46
0.0
 71
     5
 72
     1
  1
\A1;52
  7
ＭＳ ゴシック
 73
     1
 44
1.0
  0
POINT
  5
3CEE
330
3CE5
100
AcDbEntity
  8
Defpoints
 62
     0
100
AcDbPoint
 10
150.921742662234
 20
360.2066959944615
 30
0.0
  0
POINT
  5
3CEF
330
3CE5
100
AcDbEntity
  8
Defpoints
 62
     0
100
AcDbPoint
 10
202.5706482495957
 20
360.2066959944615
 30
0.0
  0
POINT
  5
3CF0
330
3CE5
100
AcDbEntity
  8
Defpoints
 62
     0
100
AcDbPoint
 10
202.5706482495957
 20
376.3589706413738
 30
0.0
  0
ENDBLK
  5
3CE7
330
3CE5
100
AcDbEntity
  8
0
100
AcDbBlockEnd
  0
BLOCK
  5
3CF2
330
3CF1
100
AcDbEntity
  8
0
100
AcDbBlockBegin
  2
*D46
 70
     1
 10
0.0
 20
0.0
 30
0.0
  3
*D46
  1
*D47
  0
LINE
  5
3CF4
330
3CF1
100
AcDbEntity
  8
寸法
 62
     0
370
    -2
100
AcDbLine
 10
99.92787763155906
 20
346.5399475282038
 30
0.0
 11
89.35470639789645
 21
346.5399475282038
 31
0.0
  0
LINE
  5
3CF5
330
3CF1
100
AcDbEntity
  8
寸法
 62
     0
370
    -2
100
AcDbLine
 10
100.563498167903
 20
340.6126568356308
 30
0.0
 11
89.35470639789645
 21
340.6126568356308
 31
0.0
  0
LINE
  5
3CF6
330
3CF1
100
AcDbEntity
  8
寸法
 62
     0
370
    -2
100
AcDbLine
 10
89.35470639789645
 20
344.5399475282038
 30
0.0
 11
89.35470639789645
 21
342.6126568356308
 31
0.0
  0
INSERT
  5
3CF7
330
3CF1
100
AcDbEntity
  8
寸法
 62
     0
370
    -2
100
AcDbBlockReference
  2
_DOT
 10
89.35470639789645
 20
346.5399475282038
 30
0.0
 41
2.0
 42
2.0
 43
2.0
 50
90.0
  0
INSERT
  5
3CF8
330
3CF1
100
AcDbEntity
  8
寸法
 62
     0
370
    -2
100
AcDbBlockReference
  2
_DOT
 10
89.35470639789645
 20
340.6126568356308
 30
0.0
 41
2.0
 42
2.0
 43
2.0
 50
270.0
  0
MTEXT
  5
3CF9
330
3CF1
100
AcDbEntity
  8
寸法
 62
     0
100
AcDbMText
 10
81.85470639789645
 20
343.5763021819173
 30
0.0
 40
5.0
 41
0.0
 46
0.0
 71
     5
 72
     1
  1
\A1;6
  7
ＭＳ ゴシック
 11
0.0
 21
1.0
 31
0.0
 73
     1
 44
1.0
  0
POINT
  5
3CFA
330
3CF1
100
AcDbEntity
  8
Defpoints
 62
     0
100
AcDbPoint
 10
104.9278776315591
 20
346.5399475282038
 30
0.0
  0
POINT
  5
3CFB
330
3CF1
100
AcDbEntity
  8
Defpoints
 62
     0
100
AcDbPoint
 10
105.563498167903
 20
340.6126568356308
 30
0.0
  0
POINT
  5
3CFC
330
3CF1
100
AcDbEntity
  8
Defpoints
 62
     0
100
AcDbPoint
 10
89.35470639789645
 20
340.6126568356308
 30
0.0
  0
ENDBLK
  5
3CF3
330
3CF1
100
AcDbEntity
  8
0
100
AcDbBlockEnd
  0
BLOCK
  5
3CFE
330
3CFD
100
AcDbEntity
  8
0
100
AcDbBlockBegin
  2
*D47
 70
     1
 10
0.0
 20
0.0
 30
0.0
  3
*D47
  1
*D48
  0
LINE
  5
3D00
330
3CFD
100
AcDbEntity
  8
寸法
 62
     0
370
    -2
100
AcDbLine
 10
256.8251234821664
 20
299.972561133835
 30
0.0
 11
277.6478537269682
 21
299.972561133835
 31
0.0
  0
LINE
  5
3D01
330
3CFD
100
AcDbEntity
  8
寸法
 62
     0
370
    -2
100
AcDbLine
 10
256.8234009332874
 20
283.8856771530329
 30
0.0
 11
277.6478537269682
 21
283.8856771530329
 31
0.0
  0
LINE
  5
3D02
330
3CFD
100
AcDbEntity
  8
寸法
 62
     0
370
    -2
100
AcDbLine
 10
277.6478537269682
 20
297.972561133835
 30
0.0
 11
277.6478537269682
 21
285.8856771530329
 31
0.0
  0
INSERT
  5
3D03
330
3CFD
100
AcDbEntity
  8
寸法
 62
     0
370
    -2
100
AcDbBlockReference
  2
_DOT
 10
277.6478537269682
 20
299.972561133835
 30
0.0
 41
2.0
 42
2.0
 43
2.0
 50
90.0
  0
INSERT
  5
3D04
330
3CFD
100
AcDbEntity
  8
寸法
 62
     0
370
    -2
100
AcDbBlockReference
  2
_DOT
 10
277.6478537269682
 20
283.8856771530329
 30
0.0
 41
2.0
 42
2.0
 43
2.0
 50
270.0
  0
MTEXT
  5
3D05
330
3CFD
100
AcDbEntity
  8
寸法
 62
     0
100
AcDbMText
 10
270.1478537269682
 20
291.9291191434339
 30
0.0
 40
5.0
 41
0.0
 46
0.0
 71
     5
 72
     1
  1
\A1;16
  7
ＭＳ ゴシック
 11
0.0
 21
1.0
 31
0.0
 73
     1
 44
1.0
  0
POINT
  5
3D06
330
3CFD
100
AcDbEntity
  8
Defpoints
 62
     0
100
AcDbPoint
 10
251.8251234821664
 20
299.972561133835
 30
0.0
  0
POINT
  5
3D07
330
3CFD
100
AcDbEntity
  8
Defpoints
 62
     0
100
AcDbPoint
 10
251.8234009332874
 20
283.8856771530329
 30
0.0
  0
POINT
  5
3D08
330
3CFD
100
AcDbEntity
  8
Defpoints
 62
     0
100
AcDbPoint
 10
277.6478537269682
 20
283.8856771530329
 30
0.0
  0
ENDBLK
  5
3CFF
330
3CFD
100
AcDbEntity
  8
0
100
AcDbBlockEnd
  0
BLOCK
  5
3D0A
330
3D09
100
AcDbEntity
  8
0
100
AcDbBlockBegin
  2
*D48
 70
     1
 10
0.0
 20
0.0
 30
0.0
  3
*D48
  1
*D49
  0
LINE
  5
3D0C
330
3D09
100
AcDbEntity
  8
寸法
 62
     0
370
    -2
100
AcDbLine
 10
122.7080271603994
 20
278.8856771530329
 30
0.0
 11
122.7080271603994
 21
248.0214738063387
 31
0.0
  0
LINE
  5
3D0D
330
3D09
100
AcDbEntity
  8
寸法
 62
     0
370
    -2
100
AcDbLine
 10
252.670894981746
 20
278.8856771530329
 30
0.0
 11
252.670894981746
 21
248.0214738063387
 31
0.0
  0
LINE
  5
3D0E
330
3D09
100
AcDbEntity
  8
寸法
 62
     0
370
    -2
100
AcDbLine
 10
124.7080271603994
 20
248.0214738063387
 30
0.0
 11
250.670894981746
 21
248.0214738063387
 31
0.0
  0
INSERT
  5
3D0F
330
3D09
100
AcDbEntity
  8
寸法
 62
     0
370
    -2
100
AcDbBlockReference
  2
_DOT
 10
122.7080271603994
 20
248.0214738063387
 30
0.0
 41
2.0
 42
2.0
 43
2.0
 50
180.0
  0
INSERT
  5
3D10
330
3D09
100
AcDbEntity
  8
寸法
 62
     0
370
    -2
100
AcDbBlockReference
  2
_DOT
 10
252.670894981746
 20
248.0214738063387
 30
0.0
 41
2.0
 42
2.0
 43
2.0
  0
MTEXT
  5
3D11
330
3D09
100
AcDbEntity
  8
寸法
 62
     0
100
AcDbMText
 10
187.6894610710727
 20
255.5214738063387
 30
0.0
 40
5.0
 41
0.0
 46
0.0
 71
     5
 72
     1
  1
\A1;130
  7
ＭＳ ゴシック
 73
     1
 44
1.0
  0
POINT
  5
3D12
330
3D09
100
AcDbEntity
  8
Defpoints
 62
     0
100
AcDbPoint
 10
122.7080271603994
 20
283.8856771530329
 30
0.0
  0
POINT
  5
3D13
330
3D09
100
AcDbEntity
  8
Defpoints
 62
     0
100
AcDbPoint
 10
252.670894981746
 20
283.8856771530329
 30
0.0
  0
POINT
  5
3D14
330
3D09
100
AcDbEntity
  8
Defpoints
 62
     0
100
AcDbPoint
 10
252.670894981746
 20
248.0214738063387
 30
0.0
  0
ENDBLK
  5
3D0B
330
3D09
100
AcDbEntity
  8
0
100
AcDbBlockEnd
  0
BLOCK
  5
3D16
330
3D15
100
AcDbEntity
  8
0
100
AcDbBlockBegin
  2
*D49
 70
     1
 10
0.0
 20
0.0
 30
0.0
  3
*D49
  1
*D50
  0
LINE
  5
3D18
330
3D15
100
AcDbEntity
  8
寸法
 62
     0
370
    -2
100
AcDbLine
 10
386.4253373116019
 20
346.5399475282038
 30
0.0
 11
358.8013866493756
 21
346.5399475282038
 31
0.0
  0
LINE
  5
3D19
330
3D15
100
AcDbEntity
  8
寸法
 62
     0
370
    -2
100
AcDbLine
 10
386.4253373116019
 20
294.5399475282038
 30
0.0
 11
358.8013866493756
 21
294.5399475282038
 31
0.0
  0
LINE
  5
3D1A
330
3D15
100
AcDbEntity
  8
寸法
 62
     0
370
    -2
100
AcDbLine
 10
358.8013866493756
 20
344.5399475282038
 30
0.0
 11
358.8013866493756
 21
296.5399475282038
 31
0.0
  0
INSERT
  5
3D1B
330
3D15
100
AcDbEntity
  8
寸法
 62
     0
370
    -2
100
AcDbBlockReference
  2
_DOT
 10
358.8013866493756
 20
346.5399475282038
 30
0.0
 41
2.0
 42
2.0
 43
2.0
 50
90.0
  0
INSERT
  5
3D1C
330
3D15
100
AcDbEntity
  8
寸法
 62
     0
370
    -2
100
AcDbBlockReference
  2
_DOT
 10
358.8013866493756
 20
294.5399475282038
 30
0.0
 41
2.0
 42
2.0
 43
2.0
 50
270.0
  0
MTEXT
  5
3D1D
330
3D15
100
AcDbEntity
  8
寸法
 62
     0
100
AcDbMText
 10
351.3013866493756
 20
320.5399475282038
 30
0.0
 40
5.0
 41
0.0
 46
0.0
 71
     5
 72
     1
  1
\A1;52
  7
ＭＳ ゴシック
 11
0.0
 21
1.0
 31
0.0
 73
     1
 44
1.0
  0
POINT
  5
3D1E
330
3D15
100
AcDbEntity
  8
Defpoints
 62
     0
100
AcDbPoint
 10
391.4253373116019
 20
346.5399475282038
 30
0.0
  0
POINT
  5
3D1F
330
3D15
100
AcDbEntity
  8
Defpoints
 62
     0
100
AcDbPoint
 10
391.4253373116019
 20
294.5399475282038
 30
0.0
  0
POINT
  5
3D20
330
3D15
100
AcDbEntity
  8
Defpoints
 62
     0
100
AcDbPoint
 10
358.8013866493756
 20
294.5399475282038
 30
0.0
  0
ENDBLK
  5
3D17
330
3D15
100
AcDbEntity
  8
0
100
AcDbBlockEnd
  0
BLOCK
  5
3D22
330
3D21
100
AcDbEntity
  8
0
100
AcDbBlockBegin
  2
*D50
 70
     1
 10
0.0
 20
0.0
 30
0.0
  3
*D50
  1
*D51
  0
LINE
  5
3D24
330
3D21
100
AcDbEntity
  8
寸法
 62
     0
370
    -2
100
AcDbLine
 10
157.6948048543866
 20
156.8741406174856
 30
0.0
 11
157.6948048543866
 21
118.7
 31
0.0
  0
LINE
  5
3D25
330
3D21
100
AcDbEntity
  8
寸法
 62
     0
370
    -2
100
AcDbLine
 10
195.795863508564
 20
156.8741406174856
 30
0.0
 11
195.795863508564
 21
118.7
 31
0.0
  0
LINE
  5
3D26
330
3D21
100
AcDbEntity
  8
寸法
 62
     0
370
    -2
100
AcDbLine
 10
159.6948048543866
 20
118.7
 30
0.0
 11
193.795863508564
 21
118.7
 31
0.0
  0
INSERT
  5
3D27
330
3D21
100
AcDbEntity
  8
寸法
 62
     0
370
    -2
100
AcDbBlockReference
  2
_DOT
 10
157.6948048543866
 20
118.7
 30
0.0
 41
2.0
 42
2.0
 43
2.0
 50
180.0
  0
INSERT
  5
3D28
330
3D21
100
AcDbEntity
  8
寸法
 62
     0
370
    -2
100
AcDbBlockReference
  2
_DOT
 10
195.795863508564
 20
118.7
 30
0.0
 41
2.0
 42
2.0
 43
2.0
  0
MTEXT
  5
3D29
330
3D21
100
AcDbEntity
  8
寸法
 62
     0
100
AcDbMText
 10
176.7453341814753
 20
126.2
 30
0.0
 40
5.0
 41
0.0
 46
0.0
 71
     5
 72
     1
  1
\A1;38
  7
ＭＳ ゴシック
 73
     1
 44
1.0
  0
POINT
  5
3D2A
330
3D21
100
AcDbEntity
  8
Defpoints
 62
     0
100
AcDbPoint
 10
157.6948048543866
 20
161.8741406174856
 30
0.0
  0
POINT
  5
3D2B
330
3D21
100
AcDbEntity
  8
Defpoints
 62
     0
100
AcDbPoint
 10
195.795863508564
 20
161.8741406174856
 30
0.0
  0
POINT
  5
3D2C
330
3D21
100
AcDbEntity
  8
Defpoints
 62
     0
100
AcDbPoint
 10
195.795863508564
 20
118.7
 30
0.0
  0
ENDBLK
  5
3D23
330
3D21
100
AcDbEntity
  8
0
100
AcDbBlockEnd
  0
BLOCK
  5
3D2E
330
3D2D
100
AcDbEntity
  8
0
100
AcDbBlockBegin
  2
*D51
 70
     1
 10
0.0
 20
0.0
 30
0.0
  3
*D51
  1
*D52
  0
LINE
  5
3D30
330
3D2D
100
AcDbEntity
  8
寸法
 62
     0
370
    -2
100
AcDbLine
 10
256.8234009332874
 20
283.8856771530329
 30
0.0
 11
296.3712610721495
 21
283.8856771530329
 31
0.0
  0
LINE
  5
3D31
330
3D2D
100
AcDbEntity
  8
寸法
 62
     0
370
    -2
100
AcDbLine
 10
161.5767832189208
 20
346.5399475282038
 30
0.0
 11
296.3712610721495
 21
346.5399475282038
 31
0.0
  0
LINE
  5
3D32
330
3D2D
100
AcDbEntity
  8
寸法
 62
     0
370
    -2
100
AcDbLine
 10
296.3712610721495
 20
285.8856771530329
 30
0.0
 11
296.3712610721495
 21
344.5399475282038
 31
0.0
  0
INSERT
  5
3D33
330
3D2D
100
AcDbEntity
  8
寸法
 62
     0
370
    -2
100
AcDbBlockReference
  2
_DOT
 10
296.3712610721495
 20
283.8856771530329
 30
0.0
 41
2.0
 42
2.0
 43
2.0
 50
270.0
  0
INSERT
  5
3D34
330
3D2D
100
AcDbEntity
  8
寸法
 62
     0
370
    -2
100
AcDbBlockReference
  2
_DOT
 10
296.3712610721495
 20
346.5399475282038
 30
0.0
 41
2.0
 42
2.0
 43
2.0
 50
90.0
  0
MTEXT
  5
3D35
330
3D2D
100
AcDbEntity
  8
寸法
 62
     0
100
AcDbMText
 10
288.8712610721495
 20
315.2128123406184
 30
0.0
 40
5.0
 41
0.0
 46
0.0
 71
     5
 72
     1
  1
\A1;63
  7
ＭＳ ゴシック
 11
0.0
 21
1.0
 31
0.0
 73
     1
 44
1.0
  0
POINT
  5
3D36
330
3D2D
100
AcDbEntity
  8
Defpoints
 62
     0
100
AcDbPoint
 10
251.8234009332874
 20
283.8856771530329
 30
0.0
  0
POINT
  5
3D37
330
3D2D
100
AcDbEntity
  8
Defpoints
 62
     0
100
AcDbPoint
 10
156.5767832189208
 20
346.5399475282038
 30
0.0
  0
POINT
  5
3D38
330
3D2D
100
AcDbEntity
  8
Defpoints
 62
     0
100
AcDbPoint
 10
296.3712610721495
 20
346.5399475282038
 30
0.0
  0
ENDBLK
  5
3D2F
330
3D2D
100
AcDbEntity
  8
0
100
AcDbBlockEnd
  0
BLOCK
  5
3D3A
330
3D39
100
AcDbEntity
  8
0
100
AcDbBlockBegin
  2
*D52
 70
     1
 10
0.0
 20
0.0
 30
0.0
  3
*D52
  1
*D53
  0
LINE
  5
3D3C
330
3D39
100
AcDbEntity
  8
寸法
 62
     0
370
    -2
100
AcDbLine
 10
407.5494247542673
 20
121.3433380116279
 30
0.0
 11
407.5494247542673
 21
109.4079306226888
 31
0.0
  0
LINE
  5
3D3D
330
3D39
100
AcDbEntity
  8
寸法
 62
     0
370
    -2
100
AcDbLine
 10
401.6221340616944
 20
121.3433380116279
 30
0.0
 11
401.6221340616944
 21
109.4079306226888
 31
0.0
  0
LINE
  5
3D3E
330
3D39
100
AcDbEntity
  8
寸法
 62
     0
370
    -2
100
AcDbLine
 10
405.5494247542673
 20
109.4079306226888
 30
0.0
 11
403.6221340616944
 21
109.4079306226888
 31
0.0
  0
INSERT
  5
3D3F
330
3D39
100
AcDbEntity
  8
寸法
 62
     0
370
    -2
100
AcDbBlockReference
  2
_DOT
 10
407.5494247542673
 20
109.4079306226888
 30
0.0
 41
2.0
 42
2.0
 43
2.0
  0
INSERT
  5
3D40
330
3D39
100
AcDbEntity
  8
寸法
 62
     0
370
    -2
100
AcDbBlockReference
  2
_DOT
 10
401.6221340616944
 20
109.4079306226888
 30
0.0
 41
2.0
 42
2.0
 43
2.0
 50
180.0
  0
MTEXT
  5
3D41
330
3D39
100
AcDbEntity
  8
寸法
 62
     0
100
AcDbMText
 10
404.5857794079809
 20
116.9079306226888
 30
0.0
 40
5.0
 41
0.0
 46
0.0
 71
     5
 72
     1
  1
\A1;6
  7
ＭＳ ゴシック
 73
     1
 44
1.0
  0
POINT
  5
3D42
330
3D39
100
AcDbEntity
  8
Defpoints
 62
     0
100
AcDbPoint
 10
407.5494247542673
 20
126.3433380116279
 30
0.0
  0
POINT
  5
3D43
330
3D39
100
AcDbEntity
  8
Defpoints
 62
     0
100
AcDbPoint
 10
401.6221340616944
 20
126.3433380116279
 30
0.0
  0
POINT
  5
3D44
330
3D39
100
AcDbEntity
  8
Defpoints
 62
     0
100
AcDbPoint
 10
401.6221340616944
 20
109.4079306226888
 30
0.0
  0
ENDBLK
  5
3D3B
330
3D39
100
AcDbEntity
  8
0
100
AcDbBlockEnd
  0
BLOCK
  5
3D46
330
3D45
100
AcDbEntity
  8
0
100
AcDbBlockBegin
  2
*D53
 70
     1
 10
0.0
 20
0.0
 30
0.0
  3
*D53
  1
*D54
  0
LINE
  5
3D48
330
3D45
100
AcDbEntity
  8
寸法
 62
     0
370
    -2
100
AcDbLine
 10
95.56349816790305
 20
340.6126568356308
 30
0.0
 11
89.35470639789645
 21
340.6126568356308
 31
0.0
  0
LINE
  5
3D49
330
3D45
100
AcDbEntity
  8
寸法
 62
     0
370
    -2
100
AcDbLine
 10
117.7080271603994
 20
283.8856771530329
 30
0.0
 11
89.35470639789645
 21
283.8856771530329
 31
0.0
  0
LINE
  5
3D4A
330
3D45
100
AcDbEntity
  8
寸法
 62
     0
370
    -2
100
AcDbLine
 10
89.35470639789645
 20
338.6126568356308
 30
0.0
 11
89.35470639789645
 21
285.8856771530329
 31
0.0
  0
INSERT
  5
3D4B
330
3D45
100
AcDbEntity
  8
寸法
 62
     0
370
    -2
100
AcDbBlockReference
  2
_DOT
 10
89.35470639789645
 20
340.6126568356308
 30
0.0
 41
2.0
 42
2.0
 43
2.0
 50
90.0
  0
INSERT
  5
3D4C
330
3D45
100
AcDbEntity
  8
寸法
 62
     0
370
    -2
100
AcDbBlockReference
  2
_DOT
 10
89.35470639789645
 20
283.8856771530329
 30
0.0
 41
2.0
 42
2.0
 43
2.0
 50
270.0
  0
MTEXT
  5
3D4D
330
3D45
100
AcDbEntity
  8
寸法
 62
     0
100
AcDbMText
 10
81.85470639789645
 20
312.2491669943319
 30
0.0
 40
5.0
 41
0.0
 46
0.0
 71
     5
 72
     1
  1
\A1;57
  7
ＭＳ ゴシック
 11
0.0
 21
1.0
 31
0.0
 73
     1
 44
1.0
  0
POINT
  5
3D4E
330
3D45
100
AcDbEntity
  8
Defpoints
 62
     0
100
AcDbPoint
 10
100.563498167903
 20
340.6126568356308
 30
0.0
  0
POINT
  5
3D4F
330
3D45
100
AcDbEntity
  8
Defpoints
 62
     0
100
AcDbPoint
 10
122.7080271603994
 20
283.8856771530329
 30
0.0
  0
POINT
  5
3D50
330
3D45
100
AcDbEntity
  8
Defpoints
 62
     0
100
AcDbPoint
 10
89.35470639789645
 20
283.8856771530329
 30
0.0
  0
ENDBLK
  5
3D47
330
3D45
100
AcDbEntity
  8
0
100
AcDbBlockEnd
  0
BLOCK
  5
3D52
330
3D51
100
AcDbEntity
  8
0
100
AcDbBlockBegin
  2
*D54
 70
     1
 10
0.0
 20
0.0
 30
0.0
  3
*D54
  1
*D55
  0
LINE
  5
3D54
330
3D51
100
AcDbEntity
  8
寸法
 62
     0
370
    -2
100
AcDbLine
 10
303.6647600124209
 20
169.7048478213326
 30
0.0
 11
323.6417187576431
 21
169.7048478213326
 31
0.0
  0
LINE
  5
3D55
330
3D51
100
AcDbEntity
  8
寸法
 62
     0
370
    -2
100
AcDbLine
 10
303.6647600124209
 20
154.0434334136386
 30
0.0
 11
323.6417187576431
 21
154.0434334136386
 31
0.0
  0
LINE
  5
3D56
330
3D51
100
AcDbEntity
  8
寸法
 62
     0
370
    -2
100
AcDbLine
 10
323.6417187576431
 20
167.7048478213326
 30
0.0
 11
323.6417187576431
 21
156.0434334136386
 31
0.0
  0
INSERT
  5
3D57
330
3D51
100
AcDbEntity
  8
寸法
 62
     0
370
    -2
100
AcDbBlockReference
  2
_DOT
 10
323.6417187576431
 20
169.7048478213326
 30
0.0
 41
2.0
 42
2.0
 43
2.0
 50
90.0
  0
INSERT
  5
3D58
330
3D51
100
AcDbEntity
  8
寸法
 62
     0
370
    -2
100
AcDbBlockReference
  2
_DOT
 10
323.6417187576431
 20
154.0434334136386
 30
0.0
 41
2.0
 42
2.0
 43
2.0
 50
270.0
  0
MTEXT
  5
3D59
330
3D51
100
AcDbEntity
  8
寸法
 62
     0
100
AcDbMText
 10
316.1417187576431
 20
161.8741406174856
 30
0.0
 40
5.0
 41
0.0
 46
0.0
 71
     5
 72
     1
  1
\A1;16
  7
ＭＳ ゴシック
 11
0.0
 21
1.0
 31
0.0
 73
     1
 44
1.0
  0
POINT
  5
3D5A
330
3D51
100
AcDbEntity
  8
Defpoints
 62
     0
100
AcDbPoint
 10
298.6647600124209
 20
169.7048478213326
 30
0.0
  0
POINT
  5
3D5B
330
3D51
100
AcDbEntity
  8
Defpoints
 62
     0
100
AcDbPoint
 10
298.6647600124209
 20
154.0434334136386
 30
0.0
  0
POINT
  5
3D5C
330
3D51
100
AcDbEntity
  8
Defpoints
 62
     0
100
AcDbPoint
 10
323.6417187576431
 20
154.0434334136386
 30
0.0
  0
ENDBLK
  5
3D53
330
3D51
100
AcDbEntity
  8
0
100
AcDbBlockEnd
  0
BLOCK
  5
3DD9
330
3DD8
100
AcDbEntity
  8
0
100
AcDbBlockBegin
  2
*D55
 70
     1
 10
0.0
 20
0.0
 30
0.0
  3
*D55
  1
*D134
  0
LINE
  5
3DDA
330
3DD8
100
AcDbEntity
  8
寸法
 62
     0
370
    -2
100
AcDbLine
 10
106.1908526999577
 20
321.0347727920655
 30
0.0
 11
106.1908526999577
 21
328.402334345169
 31
0.0
  0
LINE
  5
3DDB
330
3DD8
100
AcDbEntity
  8
寸法
 62
     0
370
    -2
100
AcDbLine
 10
144.1908526999577
 20
321.0347727920655
 30
0.0
 11
144.1908526999577
 21
328.402334345169
 31
0.0
  0
LINE
  5
3DDC
330
3DD8
100
AcDbEntity
  8
寸法
 62
     0
370
    -2
100
AcDbLine
 10
108.1908526999577
 20
328.402334345169
 30
0.0
 11
142.1908526999577
 21
328.402334345169
 31
0.0
  0
INSERT
  5
3DDD
330
3DD8
100
AcDbEntity
  8
寸法
 62
     0
370
    -2
100
AcDbBlockReference
  2
_DOT
 10
106.1908526999577
 20
328.402334345169
 30
0.0
 41
2.0
 42
2.0
 43
2.0
 50
180.0
  0
INSERT
  5
3DDE
330
3DD8
100
AcDbEntity
  8
寸法
 62
     0
370
    -2
100
AcDbBlockReference
  2
_DOT
 10
144.1908526999577
 20
328.402334345169
 30
0.0
 41
2.0
 42
2.0
 43
2.0
  0
MTEXT
  5
3DDF
330
3DD8
100
AcDbEntity
  8
寸法
 62
     0
100
AcDbMText
 10
124.1957440104655
 20
335.902334345169
 30
0.0
 40
5.0
 41
0.0
 46
0.0
 71
     5
 72
     1
  1
\A1;38
  7
ＭＳ ゴシック
 73
     1
 44
1.0
  0
POINT
  5
3DE0
330
3DD8
100
AcDbEntity
  8
Defpoints
 62
     0
100
AcDbPoint
 10
106.1908526999577
 20
316.0347727920655
 30
0.0
  0
POINT
  5
3DE1
330
3DD8
100
AcDbEntity
  8
Defpoints
 62
     0
100
AcDbPoint
 10
144.1908526999577
 20
316.0347727920655
 30
0.0
  0
POINT
  5
3DE2
330
3DD8
100
AcDbEntity
  8
Defpoints
 62
     0
100
AcDbPoint
 10
144.1908526999577
 20
328.402334345169
 30
0.0
  0
ENDBLK
  5
3DE3
330
3DD8
100
AcDbEntity
  8
0
100
AcDbBlockEnd
  0
BLOCK
  5
3DF4
330
3DF3
100
AcDbEntity
  8
0
100
AcDbBlockBegin
  2
*D56
 70
     1
 10
0.0
 20
0.0
 30
0.0
  3
*D56
  1
*D57
  0
LINE
  5
3DF6
330
3DF3
100
AcDbEntity
  8
寸法
 62
     0
370
    -2
100
AcDbLine
 10
110.8831322609061
 20
354.4206302727803
 30
0.0
 11
110.8831322609061
 21
361.7881918258838
 31
0.0
  0
LINE
  5
3DF7
330
3DF3
100
AcDbEntity
  8
寸法
 62
     0
370
    -2
100
AcDbLine
 10
148.8831322609061
 20
354.4206302727803
 30
0.0
 11
148.8831322609061
 21
361.7881918258838
 31
0.0
  0
LINE
  5
3DF8
330
3DF3
100
AcDbEntity
  8
寸法
 62
     0
370
    -2
100
AcDbLine
 10
112.8831322609061
 20
361.7881918258838
 30
0.0
 11
146.8831322609061
 21
361.7881918258838
 31
0.0
  0
INSERT
  5
3DF9
330
3DF3
100
AcDbEntity
  8
寸法
 62
     0
370
    -2
100
AcDbBlockReference
  2
_DOT
 10
110.8831322609061
 20
361.7881918258838
 30
0.0
 41
2.0
 42
2.0
 43
2.0
 50
180.0
  0
INSERT
  5
3DFA
330
3DF3
100
AcDbEntity
  8
寸法
 62
     0
370
    -2
100
AcDbBlockReference
  2
_DOT
 10
148.8831322609061
 20
361.7881918258838
 30
0.0
 41
2.0
 42
2.0
 43
2.0
  0
MTEXT
  5
3DFB
330
3DF3
100
AcDbEntity
  8
寸法
 62
     0
100
AcDbMText
 10
128.8880235714138
 20
369.2881918258838
 30
0.0
 40
5.0
 41
0.0
 46
0.0
 71
     5
 72
     1
  1
\A1;38
  7
ＭＳ ゴシック
 73
     1
 44
1.0
  0
POINT
  5
3DFC
330
3DF3
100
AcDbEntity
  8
Defpoints
 62
     0
100
AcDbPoint
 10
110.8831322609061
 20
349.4206302727803
 30
0.0
  0
POINT
  5
3DFD
330
3DF3
100
AcDbEntity
  8
Defpoints
 62
     0
100
AcDbPoint
 10
148.8831322609061
 20
349.4206302727803
 30
0.0
  0
POINT
  5
3DFE
330
3DF3
100
AcDbEntity
  8
Defpoints
 62
     0
100
AcDbPoint
 10
148.8831322609061
 20
361.7881918258838
 30
0.0
  0
ENDBLK
  5
3DF5
330
3DF3
100
AcDbEntity
  8
0
100
AcDbBlockEnd
  0
BLOCK
  5
3E04
330
3E03
100
AcDbEntity
  8
0
100
AcDbBlockBegin
  2
*D57
 70
     1
 10
0.0
 20
0.0
 30
0.0
  3
*D57
  1
*D58
  0
LINE
  5
3E06
330
3E03
100
AcDbEntity
  8
寸法
 62
     0
370
    -2
100
AcDbLine
 10
261.8251234821664
 20
299.972561133835
 30
0.0
 11
277.6478537269682
 21
299.972561133835
 31
0.0
  0
LINE
  5
3E07
330
3E03
100
AcDbEntity
  8
寸法
 62
     0
370
    -2
100
AcDbLine
 10
166.5767832189208
 20
346.5399475282038
 30
0.0
 11
277.6478537269682
 21
346.5399475282038
 31
0.0
  0
LINE
  5
3E08
330
3E03
100
AcDbEntity
  8
寸法
 62
     0
370
    -2
100
AcDbLine
 10
277.6478537269682
 20
301.972561133835
 30
0.0
 11
277.6478537269682
 21
344.5399475282038
 31
0.0
  0
INSERT
  5
3E09
330
3E03
100
AcDbEntity
  8
寸法
 62
     0
370
    -2
100
AcDbBlockReference
  2
_DOT
 10
277.6478537269682
 20
299.972561133835
 30
0.0
 41
2.0
 42
2.0
 43
2.0
 50
270.0
  0
INSERT
  5
3E0A
330
3E03
100
AcDbEntity
  8
寸法
 62
     0
370
    -2
100
AcDbBlockReference
  2
_DOT
 10
277.6478537269682
 20
346.5399475282038
 30
0.0
 41
2.0
 42
2.0
 43
2.0
 50
90.0
  0
MTEXT
  5
3E0B
330
3E03
100
AcDbEntity
  8
寸法
 62
     0
100
AcDbMText
 10
270.1478537269682
 20
323.2562543310194
 30
0.0
 40
5.0
 41
0.0
 46
0.0
 71
     5
 72
     1
  1
\A1;47
  7
ＭＳ ゴシック
 11
0.0
 21
1.0
 31
0.0
 73
     1
 44
1.0
  0
POINT
  5
3E0C
330
3E03
100
AcDbEntity
  8
Defpoints
 62
     0
100
AcDbPoint
 10
256.8251234821664
 20
299.972561133835
 30
0.0
  0
POINT
  5
3E0D
330
3E03
100
AcDbEntity
  8
Defpoints
 62
     0
100
AcDbPoint
 10
161.5767832189208
 20
346.5399475282038
 30
0.0
  0
POINT
  5
3E0E
330
3E03
100
AcDbEntity
  8
Defpoints
 62
     0
100
AcDbPoint
 10
277.6478537269682
 20
346.5399475282038
 30
0.0
  0
ENDBLK
  5
3E05
330
3E03
100
AcDbEntity
  8
0
100
AcDbBlockEnd
  0
BLOCK
  5
3F0B
330
3F0A
100
AcDbEntity
  8
0
100
AcDbBlockBegin
  2
*D59
 70
     1
 10
0.0
 20
0.0
 30
0.0
  3
*D59
  1
*D255
  0
LINE
  5
3F0C
330
3F0A
100
AcDbEntity
  8
寸法
 62
     0
370
    -2
100
AcDbLine
 10
423.0504562653293
 20
94.23428799894805
 30
0.0
 11
423.0504562653293
 21
117.0209115764301
 31
0.0
  0
LINE
  5
3F0D
330
3F0A
100
AcDbEntity
  8
寸法
 62
     0
370
    -2
100
AcDbLine
 10
442.0504562653293
 20
108.409800519157
 30
0.0
 11
442.0504562653293
 21
117.0209115764301
 31
0.0
  0
LINE
  5
3F0E
330
3F0A
100
AcDbEntity
  8
寸法
 62
     0
370
    -2
100
AcDbLine
 10
425.0504562653293
 20
117.0209115764301
 30
0.0
 11
440.0504562653293
 21
117.0209115764301
 31
0.0
  0
INSERT
  5
3F0F
330
3F0A
100
AcDbEntity
  8
寸法
 62
     0
370
    -2
100
AcDbBlockReference
  2
_DOT
 10
423.0504562653293
 20
117.0209115764301
 30
0.0
 41
2.0
 42
2.0
 43
2.0
 50
180.0
  0
INSERT
  5
3F10
330
3F0A
100
AcDbEntity
  8
寸法
 62
     0
370
    -2
100
AcDbBlockReference
  2
_DOT
 10
442.0504562653293
 20
117.0209115764301
 30
0.0
 41
2.0
 42
2.0
 43
2.0
  0
MTEXT
  5
3F11
330
3F0A
100
AcDbEntity
  8
寸法
 62
     0
100
AcDbMText
 10
432.5504562653293
 20
124.5209115764301
 30
0.0
 40
5.0
 41
0.0
 46
0.0
 71
     5
 72
     1
  1
\A1;19
  7
ＭＳ ゴシック
 73
     1
 44
1.0
  0
POINT
  5
3F12
330
3F0A
100
AcDbEntity
  8
Defpoints
 62
     0
100
AcDbPoint
 10
423.0504562653293
 20
89.23428799894805
 30
0.0
  0
POINT
  5
3F13
330
3F0A
100
AcDbEntity
  8
Defpoints
 62
     0
100
AcDbPoint
 10
442.0504562653293
 20
103.409800519157
 30
0.0
  0
POINT
  5
3F14
330
3F0A
100
AcDbEntity
  8
Defpoints
 62
     0
100
AcDbPoint
 10
442.0504562653293
 20
117.0209115764301
 30
0.0
  0
ENDBLK
  5
3F15
330
3F0A
100
AcDbEntity
  8
0
100
AcDbBlockEnd
  0
BLOCK
  5
3F18
330
3F17
100
AcDbEntity
  8
0
100
AcDbBlockBegin
  2
*D60
 70
     1
 10
0.0
 20
0.0
 30
0.0
  3
*D60
  1
*D256
  0
LINE
  5
3F19
330
3F17
100
AcDbEntity
  8
寸法
 62
     0
370
    -2
100
AcDbLine
 10
442.0504562653293
 20
108.409800519157
 30
0.0
 11
442.0504562653293
 21
117.0209115764301
 31
0.0
  0
LINE
  5
3F1A
330
3F17
100
AcDbEntity
  8
寸法
 62
     0
370
    -2
100
AcDbLine
 10
461.0504562653293
 20
94.23428799894805
 30
0.0
 11
461.0504562653293
 21
117.0209115764301
 31
0.0
  0
LINE
  5
3F1B
330
3F17
100
AcDbEntity
  8
寸法
 62
     0
370
    -2
100
AcDbLine
 10
444.0504562653293
 20
117.0209115764301
 30
0.0
 11
459.0504562653293
 21
117.0209115764301
 31
0.0
  0
INSERT
  5
3F1C
330
3F17
100
AcDbEntity
  8
寸法
 62
     0
370
    -2
100
AcDbBlockReference
  2
_DOT
 10
442.0504562653293
 20
117.0209115764301
 30
0.0
 41
2.0
 42
2.0
 43
2.0
 50
180.0
  0
INSERT
  5
3F1D
330
3F17
100
AcDbEntity
  8
寸法
 62
     0
370
    -2
100
AcDbBlockReference
  2
_DOT
 10
461.0504562653293
 20
117.0209115764301
 30
0.0
 41
2.0
 42
2.0
 43
2.0
  0
MTEXT
  5
3F1E
330
3F17
100
AcDbEntity
  8
寸法
 62
     0
100
AcDbMText
 10
451.5504562653293
 20
124.5209115764301
 30
0.0
 40
5.0
 41
0.0
 46
0.0
 71
     5
 72
     1
  1
\A1;19
  7
ＭＳ ゴシック
 73
     1
 44
1.0
  0
POINT
  5
3F1F
330
3F17
100
AcDbEntity
  8
Defpoints
 62
     0
100
AcDbPoint
 10
442.0504562653293
 20
103.409800519157
 30
0.0
  0
POINT
  5
3F20
330
3F17
100
AcDbEntity
  8
Defpoints
 62
     0
100
AcDbPoint
 10
461.0504562653293
 20
89.23428799894805
 30
0.0
  0
POINT
  5
3F21
330
3F17
100
AcDbEntity
  8
Defpoints
 62
     0
100
AcDbPoint
 10
461.0504562653293
 20
117.0209115764301
 30
0.0
  0
ENDBLK
  5
3F22
330
3F17
100
AcDbEntity
  8
0
100
AcDbBlockEnd
  0
BLOCK
  5
3F2A
330
3F29
100
AcDbEntity
  8
0
100
AcDbBlockBegin
  2
*D61
 70
     1
 10
0.0
 20
0.0
 30
0.0
  3
*D61
  1
*D257
  0
LINE
  5
3F2B
330
3F29
100
AcDbEntity
  8
寸法
 62
     0
370
    -2
100
AcDbLine
 10
461.0504562653293
 20
75.08142496236405
 30
0.0
 11
461.0504562653293
 21
47.29351738067089
 31
0.0
  0
LINE
  5
3F2C
330
3F29
100
AcDbEntity
  8
寸法
 62
     0
370
    -2
100
AcDbLine
 10
423.0504562653293
 20
75.08142496236405
 30
0.0
 11
423.0504562653293
 21
47.29351738067089
 31
0.0
  0
LINE
  5
3F2D
330
3F29
100
AcDbEntity
  8
寸法
 62
     0
370
    -2
100
AcDbLine
 10
423.0504562653293
 20
47.29351738067089
 30
0.0
 11
409.0604562653293
 21
47.29351738067089
 31
0.0
  0
LINE
  5
3F2E
330
3F29
100
AcDbEntity
  8
寸法
 62
     0
370
    -2
100
AcDbLine
 10
459.0504562653293
 20
47.29351738067089
 30
0.0
 11
425.0504562653293
 21
47.29351738067089
 31
0.0
  0
INSERT
  5
3F2F
330
3F29
100
AcDbEntity
  8
寸法
 62
     0
370
    -2
100
AcDbBlockReference
  2
_DOT
 10
461.0504562653293
 20
47.29351738067089
 30
0.0
 41
2.0
 42
2.0
 43
2.0
  0
INSERT
  5
3F30
330
3F29
100
AcDbEntity
  8
寸法
 62
     0
370
    -2
100
AcDbBlockReference
  2
_DOT
 10
423.0504562653293
 20
47.29351738067089
 30
0.0
 41
2.0
 42
2.0
 43
2.0
 50
180.0
  0
MTEXT
  5
3F31
330
3F29
100
AcDbEntity
  8
寸法
 62
     0
100
AcDbMText
 10
414.0554562653293
 20
51.81851738067089
 30
0.0
 40
5.0
 41
0.0
 46
0.0
 71
     5
 72
     1
  1
\A1;ø8
  7
ＭＳ ゴシック
 73
     1
 44
1.0
  0
POINT
  5
3F32
330
3F29
100
AcDbEntity
  8
Defpoints
 62
     0
100
AcDbPoint
 10
461.0504562653293
 20
80.08142496236405
 30
0.0
  0
POINT
  5
3F33
330
3F29
100
AcDbEntity
  8
Defpoints
 62
     0
100
AcDbPoint
 10
423.0504562653293
 20
80.08142496236405
 30
0.0
  0
POINT
  5
3F34
330
3F29
100
AcDbEntity
  8
Defpoints
 62
     0
100
AcDbPoint
 10
423.0504562653293
 20
47.29351738067089
 30
0.0
  0
ENDBLK
  5
3F35
330
3F29
100
AcDbEntity
  8
0
100
AcDbBlockEnd
  0
BLOCK
  5
3F56
330
3F55
100
AcDbEntity
  8
0
100
AcDbBlockBegin
  2
*D62
 70
     1
 10
0.0
 20
0.0
 30
0.0
  3
*D62
  1
*D62
  0
LINE
  5
3F58
330
3F55
100
AcDbEntity
  8
寸法
 62
     0
370
    -2
100
AcDbLine
 10
381.3040861583368
 20
162.565408562045
 30
0.0
 11
381.3040861583368
 21
185.352032139527
 31
0.0
  0
LINE
  5
3F59
330
3F55
100
AcDbEntity
  8
寸法
 62
     0
370
    -2
100
AcDbLine
 10
400.3040861583368
 20
176.7409210822539
 30
0.0
 11
400.3040861583368
 21
185.352032139527
 31
0.0
  0
LINE
  5
3F5A
330
3F55
100
AcDbEntity
  8
寸法
 62
     0
370
    -2
100
AcDbLine
 10
383.3040861583368
 20
185.352032139527
 30
0.0
 11
398.3040861583368
 21
185.352032139527
 31
0.0
  0
INSERT
  5
3F5B
330
3F55
100
AcDbEntity
  8
寸法
 62
     0
370
    -2
100
AcDbBlockReference
  2
_DOT
 10
381.3040861583368
 20
185.352032139527
 30
0.0
 41
2.0
 42
2.0
 43
2.0
 50
180.0
  0
INSERT
  5
3F5C
330
3F55
100
AcDbEntity
  8
寸法
 62
     0
370
    -2
100
AcDbBlockReference
  2
_DOT
 10
400.3040861583368
 20
185.352032139527
 30
0.0
 41
2.0
 42
2.0
 43
2.0
  0
MTEXT
  5
3F5D
330
3F55
100
AcDbEntity
  8
寸法
 62
     0
100
AcDbMText
 10
390.8040861583368
 20
192.852032139527
 30
0.0
 40
5.0
 41
0.0
 46
0.0
 71
     5
 72
     1
  1
\A1;19
  7
ＭＳ ゴシック
 73
     1
 44
1.0
  0
POINT
  5
3F5E
330
3F55
100
AcDbEntity
  8
Defpoints
 62
     0
100
AcDbPoint
 10
381.3040861583368
 20
157.565408562045
 30
0.0
  0
POINT
  5
3F5F
330
3F55
100
AcDbEntity
  8
Defpoints
 62
     0
100
AcDbPoint
 10
400.3040861583368
 20
171.7409210822539
 30
0.0
  0
POINT
  5
3F60
330
3F55
100
AcDbEntity
  8
Defpoints
 62
     0
100
AcDbPoint
 10
400.3040861583368
 20
185.352032139527
 30
0.0
  0
ENDBLK
  5
3F57
330
3F55
100
AcDbEntity
  8
0
100
AcDbBlockEnd
  0
BLOCK
  5
3F62
330
3F61
100
AcDbEntity
  8
0
100
AcDbBlockBegin
  2
*D63
 70
     1
 10
0.0
 20
0.0
 30
0.0
  3
*D63
  1
*D63
  0
LINE
  5
3F64
330
3F61
100
AcDbEntity
  8
寸法
 62
     0
370
    -2
100
AcDbLine
 10
400.3040861583368
 20
176.7409210822539
 30
0.0
 11
400.3040861583368
 21
185.352032139527
 31
0.0
  0
LINE
  5
3F65
330
3F61
100
AcDbEntity
  8
寸法
 62
     0
370
    -2
100
AcDbLine
 10
419.3040861583368
 20
162.565408562045
 30
0.0
 11
419.3040861583368
 21
185.352032139527
 31
0.0
  0
LINE
  5
3F66
330
3F61
100
AcDbEntity
  8
寸法
 62
     0
370
    -2
100
AcDbLine
 10
402.3040861583368
 20
185.352032139527
 30
0.0
 11
417.3040861583368
 21
185.352032139527
 31
0.0
  0
INSERT
  5
3F67
330
3F61
100
AcDbEntity
  8
寸法
 62
     0
370
    -2
100
AcDbBlockReference
  2
_DOT
 10
400.3040861583368
 20
185.352032139527
 30
0.0
 41
2.0
 42
2.0
 43
2.0
 50
180.0
  0
INSERT
  5
3F68
330
3F61
100
AcDbEntity
  8
寸法
 62
     0
370
    -2
100
AcDbBlockReference
  2
_DOT
 10
419.3040861583368
 20
185.352032139527
 30
0.0
 41
2.0
 42
2.0
 43
2.0
  0
MTEXT
  5
3F69
330
3F61
100
AcDbEntity
  8
寸法
 62
     0
100
AcDbMText
 10
409.8040861583368
 20
192.852032139527
 30
0.0
 40
5.0
 41
0.0
 46
0.0
 71
     5
 72
     1
  1
\A1;19
  7
ＭＳ ゴシック
 73
     1
 44
1.0
  0
POINT
  5
3F6A
330
3F61
100
AcDbEntity
  8
Defpoints
 62
     0
100
AcDbPoint
 10
400.3040861583368
 20
171.7409210822539
 30
0.0
  0
POINT
  5
3F6B
330
3F61
100
AcDbEntity
  8
Defpoints
 62
     0
100
AcDbPoint
 10
419.3040861583368
 20
157.565408562045
 30
0.0
  0
POINT
  5
3F6C
330
3F61
100
AcDbEntity
  8
Defpoints
 62
     0
100
AcDbPoint
 10
419.3040861583368
 20
185.352032139527
 30
0.0
  0
ENDBLK
  5
3F63
330
3F61
100
AcDbEntity
  8
0
100
AcDbBlockEnd
  0
BLOCK
  5
3F6E
330
3F6D
100
AcDbEntity
  8
0
100
AcDbBlockBegin
  2
*D64
 70
     1
 10
0.0
 20
0.0
 30
0.0
  3
*D64
  1
*D64
  0
LINE
  5
3F70
330
3F6D
100
AcDbEntity
  8
寸法
 62
     0
370
    -2
100
AcDbLine
 10
419.3040861583368
 20
143.412545525461
 30
0.0
 11
419.3040861583368
 21
115.6246379437679
 31
0.0
  0
LINE
  5
3F71
330
3F6D
100
AcDbEntity
  8
寸法
 62
     0
370
    -2
100
AcDbLine
 10
381.3040861583368
 20
143.412545525461
 30
0.0
 11
381.3040861583368
 21
115.6246379437679
 31
0.0
  0
LINE
  5
3F72
330
3F6D
100
AcDbEntity
  8
寸法
 62
     0
370
    -2
100
AcDbLine
 10
381.3040861583368
 20
115.6246379437679
 30
0.0
 11
367.3140861583367
 21
115.6246379437679
 31
0.0
  0
LINE
  5
3F73
330
3F6D
100
AcDbEntity
  8
寸法
 62
     0
370
    -2
100
AcDbLine
 10
417.3040861583368
 20
115.6246379437679
 30
0.0
 11
383.3040861583368
 21
115.6246379437679
 31
0.0
  0
INSERT
  5
3F74
330
3F6D
100
AcDbEntity
  8
寸法
 62
     0
370
    -2
100
AcDbBlockReference
  2
_DOT
 10
419.3040861583368
 20
115.6246379437679
 30
0.0
 41
2.0
 42
2.0
 43
2.0
  0
INSERT
  5
3F75
330
3F6D
100
AcDbEntity
  8
寸法
 62
     0
370
    -2
100
AcDbBlockReference
  2
_DOT
 10
381.3040861583368
 20
115.6246379437679
 30
0.0
 41
2.0
 42
2.0
 43
2.0
 50
180.0
  0
MTEXT
  5
3F76
330
3F6D
100
AcDbEntity
  8
寸法
 62
     0
100
AcDbMText
 10
372.3090861583367
 20
120.1496379437679
 30
0.0
 40
5.0
 41
0.0
 46
0.0
 71
     5
 72
     1
  1
\A1;ø8
  7
ＭＳ ゴシック
 73
     1
 44
1.0
  0
POINT
  5
3F77
330
3F6D
100
AcDbEntity
  8
Defpoints
 62
     0
100
AcDbPoint
 10
419.3040861583368
 20
148.412545525461
 30
0.0
  0
POINT
  5
3F78
330
3F6D
100
AcDbEntity
  8
Defpoints
 62
     0
100
AcDbPoint
 10
381.3040861583368
 20
148.412545525461
 30
0.0
  0
POINT
  5
3F79
330
3F6D
100
AcDbEntity
  8
Defpoints
 62
     0
100
AcDbPoint
 10
381.3040861583368
 20
115.6246379437679
 30
0.0
  0
ENDBLK
  5
3F6F
330
3F6D
100
AcDbEntity
  8
0
100
AcDbBlockEnd
  0
BLOCK
  5
3FD6
330
3FD5
100
AcDbEntity
  8
0
100
AcDbBlockBegin
  2
*D66
 70
     1
 10
0.0
 20
0.0
 30
0.0
  3
*D66
  1
*D66
  0
LINE
  5
3FD8
330
3FD5
100
AcDbEntity
  8
寸法
 62
     0
370
    -2
100
AcDbLine
 10
386.4253373116019
 20
178.412545525461
 30
0.0
 11
358.8013866493756
 21
178.412545525461
 31
0.0
  0
LINE
  5
3FD9
330
3FD5
100
AcDbEntity
  8
寸法
 62
     0
370
    -2
100
AcDbLine
 10
386.4253373116019
 20
126.412545525461
 30
0.0
 11
358.8013866493756
 21
126.412545525461
 31
0.0
  0
LINE
  5
3FDA
330
3FD5
100
AcDbEntity
  8
寸法
 62
     0
370
    -2
100
AcDbLine
 10
358.8013866493756
 20
176.412545525461
 30
0.0
 11
358.8013866493756
 21
128.412545525461
 31
0.0
  0
INSERT
  5
3FDB
330
3FD5
100
AcDbEntity
  8
寸法
 62
     0
370
    -2
100
AcDbBlockReference
  2
_DOT
 10
358.8013866493756
 20
178.412545525461
 30
0.0
 41
2.0
 42
2.0
 43
2.0
 50
90.0
  0
INSERT
  5
3FDC
330
3FD5
100
AcDbEntity
  8
寸法
 62
     0
370
    -2
100
AcDbBlockReference
  2
_DOT
 10
358.8013866493756
 20
126.412545525461
 30
0.0
 41
2.0
 42
2.0
 43
2.0
 50
270.0
  0
MTEXT
  5
3FDD
330
3FD5
100
AcDbEntity
  8
寸法
 62
     0
100
AcDbMText
 10
351.3013866493756
 20
152.412545525461
 30
0.0
 40
5.0
 41
0.0
 46
0.0
 71
     5
 72
     1
  1
\A1;52
  7
ＭＳ ゴシック
 11
0.0
 21
1.0
 31
0.0
 73
     1
 44
1.0
  0
POINT
  5
3FDE
330
3FD5
100
AcDbEntity
  8
Defpoints
 62
     0
100
AcDbPoint
 10
391.4253373116019
 20
178.412545525461
 30
0.0
  0
POINT
  5
3FDF
330
3FD5
100
AcDbEntity
  8
Defpoints
 62
     0
100
AcDbPoint
 10
391.4253373116019
 20
126.412545525461
 30
0.0
  0
POINT
  5
3FE0
330
3FD5
100
AcDbEntity
  8
Defpoints
 62
     0
100
AcDbPoint
 10
358.8013866493756
 20
126.412545525461
 30
0.0
  0
ENDBLK
  5
3FD7
330
3FD5
100
AcDbEntity
  8
0
100
AcDbBlockEnd
  0
ENDSEC
  0
SECTION
  2
ENTITIES
  0
LINE
  5
36CD
330
A
100
AcDbEntity
  8
PRINT BORDER
100
AcDbLine
 10
296.9999999999999
 20
0.0
 30
0.0
 11
296.9999999999999
 21
15.30952622855898
 31
0.0
  0
LINE
  5
36CE
330
A
100
AcDbEntity
  8
テンプレート
100
AcDbLine
 10
437.9999999999999
 20
38.27810890422097
 30
0.0
 11
15.30952622855898
 21
38.27810890422097
 31
0.0
  0
LINE
  5
36CF
330
A
100
AcDbEntity
  8
テンプレート
100
AcDbLine
 10
15.30952622855898
 20
26.22153683920783
 30
0.0
 11
578.6904737714407
 21
26.22153683920783
 31
0.0
  0
TEXT
  5
36D0
330
A
100
AcDbEntity
  8
テンプレート
100
AcDbText
 10
18.06121699514119
 20
32.16825981613692
 30
0.0
 40
3.5
  1
材質
  7
ＭＳ ゴシック
100
AcDbText
  0
TEXT
  5
36D3
330
A
100
AcDbEntity
  8
テンプレート
100
AcDbText
 10
18.06121699514119
 20
56.50959028673083
 30
0.0
 40
3.5
  1
品名
  7
ＭＳ ゴシック
100
AcDbText
  0
TEXT
  5
36D4
330
A
100
AcDbEntity
  8
テンプレート
100
AcDbText
 10
18.06121699514119
 20
44.65099339080098
 30
0.0
 40
3.5
  1
仕上げ
  7
ＭＳ ゴシック
100
AcDbText
  0
TEXT
  5
36D5
330
A
100
AcDbEntity
  8
テンプレート
100
AcDbText
 10
298.8233485179306
 20
56.58523052309897
 30
0.0
 40
3.5
  1
品番
  7
ＭＳ ゴシック
100
AcDbText
  0
TEXT
  5
36D6
330
A
100
AcDbEntity
  8
テンプレート
100
AcDbText
 10
36.7528253083583
 20
53.09440584367189
 30
0.0
 40
5.5
  1
レバーハンドル - FORMANI,Basic -
  7
ＭＳ ゴシック
100
AcDbText
  0
LINE
  5
36D8
330
A
100
AcDbEntity
  8
テンプレート
100
AcDbLine
 10
437.9999999999999
 20
50.16496477419605
 30
0.0
 11
15.30952622855898
 21
50.16496477419605
 31
0.0
  0
LINE
  5
36D9
330
A
100
AcDbEntity
  8
テンプレート
100
AcDbLine
 10
578.6904737714411
 20
62.22153683920783
 30
0.0
 11
15.30952622855898
 21
62.22153683920783
 31
0.0
  0
LINE
  5
36DA
330
A
100
AcDbEntity
  8
PRINT BORDER
100
AcDbLine
 10
593.9999999999999
 20
210.0
 30
0.0
 11
578.6904737714411
 21
210.0
 31
0.0
  0
LINE
  5
36DB
330
A
100
AcDbEntity
  8
PRINT BORDER
100
AcDbLine
 10
0.0
 20
210.0
 30
0.0
 11
15.30952622855898
 21
210.0
 31
0.0
  0
LINE
  5
36DC
330
A
100
AcDbEntity
  8
PRINT BORDER
100
AcDbLine
 10
296.9999999999999
 20
420.0
 30
0.0
 11
296.9999999999999
 21
404.690473771441
 31
0.0
  0
LINE
  5
36DD
330
A
100
AcDbEntity
  8
テンプレート
100
AcDbLine
 10
578.6904737714411
 20
62.22153683920783
 30
0.0
 11
578.6904737714411
 21
26.22153683920783
 31
0.0
  0
LINE
  5
36DE
330
A
100
AcDbEntity
  8
テンプレート
100
AcDbLine
 10
15.30952622855898
 20
62.22153683920783
 30
0.0
 11
15.30952622855898
 21
26.22153683920783
 31
0.0
  0
TEXT
  5
36DF
330
A
100
AcDbEntity
  8
テンプレート
100
AcDbText
 10
440.0887524673468
 20
56.58523052309897
 30
0.0
 40
3.5
  1
備考
  7
ＭＳ ゴシック
100
AcDbText
  0
TEXT
  5
36E0
330
A
100
AcDbEntity
  8
テンプレート
100
AcDbText
 10
494.9733384955217
 20
16.51938390313694
 30
0.0
 40
5.5
  1
大洋金物株式会社  
  7
ＭＳ ゴシック
100
AcDbText
  0
LINE
  5
36E1
330
A
100
AcDbEntity
  8
テンプレート
100
AcDbLine
 10
437.9999999999999
 20
62.22153683920783
 30
0.0
 11
437.9999999999999
 21
26.22153683920783
 31
0.0
  0
LINE
  5
36E2
330
A
100
AcDbEntity
  8
テンプレート
100
AcDbLine
 10
296.9999999999999
 20
62.22153683920783
 30
0.0
 11
296.9999999999999
 21
26.22153683920783
 31
0.0
  0
INSERT
  5
36E3
330
A
100
AcDbEntity
  8
テンプレート
100
AcDbBlockReference
  2
名称未設定-1
 10
548.3945198859805
 20
-7.642344203993161
 30
0.0
 41
0.180975
 42
0.180975
 43
0.180975
  0
TEXT
  5
36E4
330
A
100
AcDbEntity
  8
テンプレート
100
AcDbText
 10
18.42255191974346
 20
18.90483678917599
 30
0.0
 40
4.0
  1
20150101XX
  7
ＭＳ ゴシック
100
AcDbText
  0
LINE
  5
36E5
330
A
100
AcDbEntity
  8
テンプレート
100
AcDbLine
 10
15.30952622855898
 20
210.0
 30
0.0
 11
15.30952622855898
 21
26.22153683920783
 31
0.0
  0
LINE
  5
36E6
330
A
100
AcDbEntity
  8
テンプレート
100
AcDbLine
 10
15.30952622855898
 20
210.0
 30
0.0
 11
15.30952622855898
 21
404.690473771441
 31
0.0
  0
LINE
  5
36E7
330
A
100
AcDbEntity
  8
テンプレート
100
AcDbLine
 10
296.9999999999999
 20
404.690473771441
 30
0.0
 11
15.30952622855887
 21
404.690473771441
 31
0.0
  0
LINE
  5
36E8
330
A
100
AcDbEntity
  8
テンプレート
100
AcDbLine
 10
296.9999999999999
 20
404.690473771441
 30
0.0
 11
578.6904737714411
 21
404.690473771441
 31
0.0
  0
LINE
  5
36E9
330
A
100
AcDbEntity
  8
テンプレート
100
AcDbLine
 10
578.6904737714411
 20
210.0
 30
0.0
 11
578.6904737714411
 21
404.690473771441
 31
0.0
  0
LINE
  5
36EA
330
A
100
AcDbEntity
  8
テンプレート
100
AcDbLine
 10
578.6904737714411
 20
210.0
 30
0.0
 11
578.6904737714411
 21
26.22153683920783
 31
0.0
  0
LWPOLYLINE
  5
36EB
330
A
100
AcDbEntity
  8
PRINT BORDER
  6
HIDDEN
 48
3.0
100
AcDbPolyline
 90
        4
 70
     1
 43
0.0
 10
0.0
 20
0.0
 10
0.0
 20
420.0
 10
593.9999999999999
 20
420.0
 10
593.9999999999999
 20
0.0
  0
TEXT
  5
36EC
330
A
100
AcDbEntity
  8
テンプレート
100
AcDbText
 10
298.7989156222221
 20
32.62405342819488
 30
0.0
 40
3.5
  1
縮尺
  7
ＭＳ ゴシック
100
AcDbText
  0
TEXT
  5
36ED
330
A
100
AcDbEntity
  8
テンプレート
100
AcDbText
 10
313.0171205424464
 20
28.29362070227194
 30
0.0
 40
5.5
  1
1/2
  7
ＭＳ ゴシック
100
AcDbText
  0
TEXT
  5
37DE
330
A
100
AcDbEntity
  8
テンプレート
100
AcDbText
 10
298.8233485179306
 20
44.52865845808583
 30
0.0
 40
3.5
  1
扉厚
  7
ＭＳ ゴシック
100
AcDbText
  0
SPLINE
  5
3C7C
330
A
100
AcDbEntity
  8
モデル
100
AcDbSpline
210
0.0
220
0.0
230
1.0
 70
     8
 71
     3
 72
    14
 73
    10
 74
     0
 42
0.000000001
 43
0.0000000001
 40
0.0
 40
0.0
 40
0.0
 40
0.0
 40
1.0
 40
1.0
 40
1.0
 40
2.0
 40
2.0
 40
2.0
 40
3.0
 40
3.0
 40
3.0
 40
3.0
 10
408.9357785909098
 20
328.8908644935028
 30
0.0
 10
405.6767161118781
 20
332.3945289133497
 30
0.0
 10
400.6072547610375
 20
333.5486366622667
 30
0.0
 10
396.1510208111141
 20
331.7985270012226
 30
0.0
 10
391.6947868611906
 20
330.0484173401776
 30
0.0
 10
388.7681763158021
 20
325.7489353382416
 30
0.0
 10
388.7681763158021
 20
320.9636945524327
 30
0.0
 10
388.7681763158021
 20
316.1784537666248
 30
0.0
 10
391.6947868611906
 20
311.8789717646876
 30
0.0
 10
396.1510208111141
 20
310.1288621036437
 30
0.0
  0
POLYLINE
  5
3C7D
330
A
100
AcDbEntity
  8
モデル
100
AcDb2dPolyline
 66
     1
 10
0.0
 20
0.0
 30
0.0
  0
VERTEX
  5
3C7E
330
3C7D
100
AcDbEntity
  8
モデル
100
AcDbVertex
100
AcDb2dVertex
 10
522.1175752332251
 20
328.3706547320508
 30
0.0
  0
VERTEX
  5
3C7F
330
3C7D
100
AcDbEntity
  8
モデル
100
AcDbVertex
100
AcDb2dVertex
 10
521.2700811847665
 20
328.3706547320508
 30
0.0
  0
SEQEND
  5
3C80
330
3C7D
100
AcDbEntity
  8
モデル
  0
POLYLINE
  5
3C81
330
A
100
AcDbEntity
  8
モデル
100
AcDb2dPolyline
 66
     1
 10
0.0
 20
0.0
 30
0.0
  0
VERTEX
  5
3C82
330
3C81
100
AcDbEntity
  8
モデル
100
AcDbVertex
100
AcDb2dVertex
 10
522.1175752332251
 20
312.7092403243568
 30
0.0
  0
VERTEX
  5
3C83
330
3C81
100
AcDbEntity
  8
モデル
100
AcDbVertex
100
AcDb2dVertex
 10
521.2700811847665
 20
312.7092403243568
 30
0.0
  0
SEQEND
  5
3C84
330
3C81
100
AcDbEntity
  8
モデル
  0
SPLINE
  5
3C85
330
A
100
AcDbEntity
  8
モデル
100
AcDbSpline
210
0.0
220
0.0
230
1.0
 70
     8
 71
     3
 72
    14
 73
    10
 74
     0
 42
0.000000001
 43
0.0000000001
 40
0.0
 40
0.0
 40
0.0
 40
0.0
 40
1.0
 40
1.0
 40
1.0
 40
2.0
 40
2.0
 40
2.0
 40
3.0
 40
3.0
 40
3.0
 40
3.0
 10
405.3993857423623
 20
328.4843429580638
 30
0.0
 10
401.5718821332667
 20
330.4583839733757
 30
0.0
 10
396.061448269407
 20
330.0449722424198
 30
0.0
 10
393.3449886872542
 20
326.7032274171978
 30
0.0
 10
390.6285291051014
 20
323.3580374942166
 30
0.0
 10
390.6285291051014
 20
318.5693516106496
 30
0.0
 10
393.3449886872542
 20
315.2241616876688
 30
0.0
 10
396.061448269407
 20
311.8824168624456
 30
0.0
 10
400.5762488812159
 20
310.7455346023187
 30
0.0
 10
404.4089201369483
 20
312.7195756176305
 30
0.0
  0
POLYLINE
  5
3C86
330
A
100
AcDbEntity
  8
モデル
100
AcDb2dPolyline
 66
     1
 10
0.0
 20
0.0
 30
0.0
  0
VERTEX
  5
3C87
330
3C86
100
AcDbEntity
  8
モデル
100
AcDbVertex
100
AcDb2dVertex
 10
522.1175752332251
 20
312.7092403243568
 30
0.0
  0
VERTEX
  5
3C88
330
3C86
100
AcDbEntity
  8
モデル
100
AcDbVertex
100
AcDb2dVertex
 10
522.1175752332251
 20
328.3706547320508
 30
0.0
  0
SEQEND
  5
3C89
330
3C86
100
AcDbEntity
  8
モデル
  0
POLYLINE
  5
3C8A
330
A
100
AcDbEntity
  8
モデル
100
AcDb2dPolyline
 66
     1
 10
0.0
 20
0.0
 30
0.0
  0
VERTEX
  5
3C8B
330
3C8A
100
AcDbEntity
  8
モデル
100
AcDbVertex
100
AcDb2dVertex
 10
400.19728812784
 20
312.7092403243568
 30
0.0
  0
VERTEX
  5
3C8C
330
3C8A
100
AcDbEntity
  8
モデル
100
AcDbVertex
100
AcDb2dVertex
 10
521.2700811847665
 20
312.7092403243568
 30
0.0
  0
SEQEND
  5
3C8D
330
3C8A
100
AcDbEntity
  8
モデル
  0
POLYLINE
  5
3C8E
330
A
100
AcDbEntity
  8
モデル
100
AcDb2dPolyline
 66
     1
 10
0.0
 20
0.0
 30
0.0
  0
VERTEX
  5
3C8F
330
3C8E
100
AcDbEntity
  8
モデル
100
AcDbVertex
100
AcDb2dVertex
 10
400.19728812784
 20
328.3706547320508
 30
0.0
  0
VERTEX
  5
3C90
330
3C8E
100
AcDbEntity
  8
モデル
100
AcDbVertex
100
AcDb2dVertex
 10
521.2700811847665
 20
328.3706547320508
 30
0.0
  0
SEQEND
  5
3C91
330
3C8E
100
AcDbEntity
  8
モデル
  0
SPLINE
  5
3C92
330
A
100
AcDbEntity
  8
モデル
100
AcDbSpline
210
0.0
220
0.0
230
1.0
 70
     8
 71
     3
 72
    17
 73
    13
 74
     0
 42
0.000000001
 43
0.0000000001
 40
0.0
 40
0.0
 40
0.0
 40
0.0
 40
1.0
 40
1.0
 40
1.0
 40
2.0
 40
2.0
 40
2.0
 40
3.0
 40
3.0
 40
3.0
 40
4.0
 40
4.0
 40
4.0
 40
4.0
 10
408.7376854698271
 20
329.0975703589807
 30
0.0
 10
405.4286690733048
 20
332.4841014550568
 30
0.0
 10
400.4022714444388
 20
333.5314111734777
 30
0.0
 10
396.0201070963114
 20
331.7434054370957
 30
0.0
 10
391.6344976504261
 20
329.9588447984707
 30
0.0
 10
388.7664537669231
 20
325.6972588718727
 30
0.0
 10
388.7664537669231
 20
320.9636945524327
 30
0.0
 10
388.7664537669231
 20
316.2301302329936
 30
0.0
 10
391.6344976504261
 20
311.9685443063946
 30
0.0
 10
396.0201070963114
 20
310.1805385700126
 30
0.0
 10
400.4022714444388
 20
308.3959779313886
 30
0.0
 10
405.3442641782348
 20
309.2228013932998
 30
0.0
 10
408.6532805747569
 20
312.6093324893756
 30
0.0
  0
SPLINE
  5
3C93
330
A
100
AcDbEntity
  8
モデル
100
AcDbSpline
210
0.0
220
0.0
230
1.0
 70
     8
 71
     3
 72
    11
 73
     7
 74
     0
 42
0.000000001
 43
0.0000000001
 40
0.0
 40
0.0
 40
0.0
 40
0.0
 40
1.0
 40
1.0
 40
1.0
 40
2.0
 40
2.0
 40
2.0
 40
2.0
 10
400.5486880991521
 20
328.3189782656816
 30
0.0
 10
396.2233678640312
 20
328.3189782656816
 30
0.0
 10
392.5801769849866
 20
325.2872922386748
 30
0.0
 10
392.5801769849866
 20
320.9636945524327
 30
0.0
 10
392.5801769849866
 20
316.6332066706758
 30
0.0
 10
396.4421315716617
 20
312.7195756176305
 30
0.0
 10
400.7708969045406
 20
312.7195756176305
 30
0.0
  0
POLYLINE
  5
3C94
102
{ACAD_REACTORS
330
3CC0
102
}
330
A
100
AcDbEntity
  8
モデル
100
AcDb2dPolyline
 66
     1
 10
0.0
 20
0.0
 30
0.0
  0
VERTEX
  5
3C95
330
3C94
100
AcDbEntity
  8
モデル
100
AcDbVertex
100
AcDb2dVertex
 10
156.1513136458125
 20
340.6126568356308
 30
0.0
  0
VERTEX
  5
3C96
330
3C94
100
AcDbEntity
  8
モデル
100
AcDbVertex
100
AcDb2dVertex
 10
105.563498167903
 20
340.6126568356308
 30
0.0
  0
SEQEND
  5
3C97
330
3C94
100
AcDbEntity
  8
モデル
  0
POLYLINE
  5
3C98
330
A
100
AcDbEntity
  8
モデル
100
AcDb2dPolyline
 66
     1
 10
0.0
 20
0.0
 30
0.0
  0
VERTEX
  5
3C99
330
3C98
100
AcDbEntity
  8
モデル
100
AcDbVertex
100
AcDb2dVertex
 10
252.670894981746
 20
299.972561133835
 30
0.0
  0
VERTEX
  5
3C9A
330
3C98
100
AcDbEntity
  8
モデル
100
AcDbVertex
100
AcDb2dVertex
 10
251.8234009332874
 20
299.972561133835
 30
0.0
  0
SEQEND
  5
3C9B
330
3C98
100
AcDbEntity
  8
モデル
  0
POLYLINE
  5
3C9C
102
{ACAD_REACTORS
330
3CC3
330
3CC6
330
3CCB
102
}
330
A
100
AcDbEntity
  8
モデル
100
AcDb2dPolyline
 66
     1
 10
0.0
 20
0.0
 30
0.0
  0
VERTEX
  5
3C9D
330
3C9C
100
AcDbEntity
  8
モデル
100
AcDbVertex
100
AcDb2dVertex
 10
252.670894981746
 20
299.972561133835
 30
0.0
  0
VERTEX
  5
3C9E
330
3C9C
100
AcDbEntity
  8
モデル
100
AcDbVertex
100
AcDb2dVertex
 10
252.670894981746
 20
283.8856771530329
 30
0.0
  0
VERTEX
  5
3C9F
330
3C9C
100
AcDbEntity
  8
モデル
100
AcDbVertex
100
AcDb2dVertex
 10
251.8234009332874
 20
283.8856771530329
 30
0.0
  0
SEQEND
  5
3CA0
330
3C9C
100
AcDbEntity
  8
モデル
  0
POLYLINE
  5
3CA1
330
A
100
AcDbEntity
  8
モデル
100
AcDb2dPolyline
 66
     1
 10
0.0
 20
0.0
 30
0.0
  0
VERTEX
  5
3CA2
330
3CA1
100
AcDbEntity
  8
モデル
100
AcDbVertex
100
AcDb2dVertex
 10
139.6406826407811
 20
338.9193912875917
 30
0.0
  0
VERTEX
  5
3CA3
330
3CA1
100
AcDbEntity
  8
モデル
100
AcDbVertex
100
AcDb2dVertex
 10
142.1814422372777
 20
340.6126568356308
 30
0.0
  0
SEQEND
  5
3CA4
330
3CA1
100
AcDbEntity
  8
モデル
  0
POLYLINE
  5
3CA5
330
A
100
AcDbEntity
  8
モデル
100
AcDb2dPolyline
 66
     1
 10
0.0
 20
0.0
 30
0.0
  0
VERTEX
  5
3CA6
330
3CA5
100
AcDbEntity
  8
モデル
100
AcDbVertex
100
AcDb2dVertex
 10
139.6406826407811
 20
338.9193912875917
 30
0.0
  0
VERTEX
  5
3CA7
330
3CA5
100
AcDbEntity
  8
モデル
100
AcDbVertex
100
AcDb2dVertex
 10
121.8605331119408
 20
338.9193912875917
 30
0.0
  0
VERTEX
  5
3CA8
330
3CA5
100
AcDbEntity
  8
モデル
100
AcDbVertex
100
AcDb2dVertex
 10
119.321496064323
 20
340.6126568356308
 30
0.0
  0
SEQEND
  5
3CA9
330
3CA5
100
AcDbEntity
  8
モデル
  0
POLYLINE
  5
3CAA
102
{ACAD_REACTORS
330
3CC6
330
3CE1
102
}
330
A
100
AcDbEntity
  8
モデル
100
AcDb2dPolyline
 66
     1
 10
0.0
 20
0.0
 30
0.0
  0
VERTEX
  5
3CAB
330
3CAA
100
AcDbEntity
  8
モデル
100
AcDbVertex
100
AcDb2dVertex
 10
122.7080271603994
 20
338.9193912875917
 30
0.0
  0
VERTEX
  5
3CAC
330
3CAA
100
AcDbEntity
  8
モデル
100
AcDbVertex
100
AcDb2dVertex
 10
122.7080271603994
 20
283.8856771530329
 30
0.0
  0
SEQEND
  5
3CAD
330
3CAA
100
AcDbEntity
  8
モデル
  0
POLYLINE
  5
3CAE
330
A
100
AcDbEntity
  8
モデル
100
AcDb2dPolyline
 66
     1
 10
0.0
 20
0.0
 30
0.0
  0
VERTEX
  5
3CAF
330
3CAE
100
AcDbEntity
  8
モデル
100
AcDbVertex
100
AcDb2dVertex
 10
138.7949111412015
 20
338.9193912875917
 30
0.0
  0
VERTEX
  5
3CB0
330
3CAE
100
AcDbEntity
  8
モデル
100
AcDbVertex
100
AcDb2dVertex
 10
138.7949111412015
 20
299.972561133835
 30
0.0
  0
SEQEND
  5
3CB1
330
3CAE
100
AcDbEntity
  8
モデル
  0
POLYLINE
  5
3CB2
330
A
100
AcDbEntity
  8
モデル
100
AcDb2dPolyline
 66
     1
 10
0.0
 20
0.0
 30
0.0
  0
VERTEX
  5
3CB3
330
3CB2
100
AcDbEntity
  8
モデル
100
AcDbVertex
100
AcDb2dVertex
 10
122.7080271603994
 20
283.8856771530329
 30
0.0
  0
VERTEX
  5
3CB4
330
3CB2
100
AcDbEntity
  8
モデル
100
AcDbVertex
100
AcDb2dVertex
 10
251.8251234821664
 20
283.8856771530329
 30
0.0
  0
SEQEND
  5
3CB5
330
3CB2
100
AcDbEntity
  8
モデル
  0
SPLINE
  5
3CB6
330
A
100
AcDbEntity
  8
モデル
100
AcDbSpline
210
0.0
220
0.0
230
1.0
 70
     8
 71
     3
 72
     8
 73
     4
 74
     0
 42
0.000000001
 43
0.0000000001
 40
0.0
 40
0.0
 40
0.0
 40
0.0
 40
1.0
 40
1.0
 40
1.0
 40
1.0
 10
104.9278776315591
 20
341.2482773719737
 30
0.0
 10
104.9278776315591
 20
340.8951548517829
 30
0.0
 10
105.2138207454699
 20
340.6126568356308
 30
0.0
 10
105.563498167903
 20
340.6126568356308
 30
0.0
  0
POLYLINE
  5
3CB7
102
{ACAD_REACTORS
330
3CC3
102
}
330
A
100
AcDbEntity
  8
モデル
100
AcDb2dPolyline
 66
     1
 10
0.0
 20
0.0
 30
0.0
  0
VERTEX
  5
3CB8
330
3CB7
100
AcDbEntity
  8
モデル
100
AcDbVertex
100
AcDb2dVertex
 10
122.7080271603994
 20
283.8856771530329
 30
0.0
  0
VERTEX
  5
3CB9
330
3CB7
100
AcDbEntity
  8
モデル
100
AcDbVertex
100
AcDb2dVertex
 10
130.7506078763608
 20
291.9299804178739
 30
0.0
  0
VERTEX
  5
3CBA
330
3CB7
100
AcDbEntity
  8
モデル
100
AcDbVertex
100
AcDb2dVertex
 10
138.7949111412015
 20
299.972561133835
 30
0.0
  0
VERTEX
  5
3CBB
330
3CB7
100
AcDbEntity
  8
モデル
100
AcDbVertex
100
AcDb2dVertex
 10
251.8251234821664
 20
299.972561133835
 30
0.0
  0
SEQEND
  5
3CBC
330
3CB7
100
AcDbEntity
  8
モデル
  0
DIMENSION
  5
3CBE
102
{ACAD_REACTORS
330
3CC0
102
}
102
{ACAD_XDICTIONARY
360
3CBF
102
}
330
A
100
AcDbEntity
  8
寸法
100
AcDbDimension
  2
*D46
 10
89.35470639789645
 20
340.6126568356308
 30
0.0
 11
89.35470639789645
 21
343.5763021819173
 31
0.0
 70
   160
 71
     5
 42
5.927290692573024
 73
     0
 74
     0
 75
     0
  3
tfrom線あり
100
AcDbAlignedDimension
 13
104.9278776315591
 23
346.5399475282038
 33
0.0
 14
105.563498167903
 24
340.6126568356308
 34
0.0
 50
90.0
100
AcDbRotatedDimension
  0
DIMENSION
  5
3CC1
102
{ACAD_REACTORS
330
3CC3
102
}
102
{ACAD_XDICTIONARY
360
3CC2
102
}
330
A
100
AcDbEntity
  8
寸法
100
AcDbDimension
  2
*D47
 10
277.6478537269682
 20
283.8856771530329
 30
0.0
 11
270.1478537269682
 21
291.9291191434339
 31
0.0
 70
    32
 71
     5
 42
16.0868839808021
 73
     0
 74
     0
 75
     0
  3
tfrom線あり
100
AcDbAlignedDimension
 13
251.8251234821664
 23
299.972561133835
 33
0.0
 14
251.8234009332874
 24
283.8856771530329
 34
0.0
 50
90.0
100
AcDbRotatedDimension
  0
DIMENSION
  5
3CC4
102
{ACAD_REACTORS
330
3CC6
102
}
102
{ACAD_XDICTIONARY
360
3CC5
102
}
330
A
100
AcDbEntity
  8
寸法
100
AcDbDimension
  2
*D48
 10
252.670894981746
 20
248.0214738063387
 30
0.0
 11
187.6894610710727
 21
255.5214738063387
 31
0.0
 70
    32
 71
     5
 42
129.9628678213466
 73
     0
 74
     0
 75
     0
  3
tfrom線あり
100
AcDbAlignedDimension
 13
122.7080271603994
 23
283.8856771530329
 33
0.0
 14
252.670894981746
 24
283.8856771530329
 34
0.0
100
AcDbRotatedDimension
  0
DIMENSION
  5
3CC7
330
A
100
AcDbEntity
  8
寸法
100
AcDbDimension
  2
*D49
 10
358.8013866493756
 20
294.5399475282038
 30
0.0
 11
358.8013866493756
 21
320.5399475282038
 31
0.0
 70
   160
 71
     5
 42
52.0
 73
     0
 74
     0
 75
     0
  3
tfrom線あり
100
AcDbAlignedDimension
 13
391.4253373116019
 23
346.5399475282038
 33
0.0
 14
391.4253373116019
 24
294.5399475282038
 34
0.0
 50
90.0
100
AcDbRotatedDimension
  0
DIMENSION
  5
3CC9
102
{ACAD_REACTORS
330
3CCB
102
}
102
{ACAD_XDICTIONARY
360
3CCA
102
}
330
A
100
AcDbEntity
  8
寸法
100
AcDbDimension
  2
*D51
 10
296.3712610721495
 20
346.5399475282038
 30
0.0
 11
288.8712610721495
 21
315.2128123406184
 31
0.0
 70
    32
 71
     5
 42
62.65427037517093
 73
     0
 74
     0
 75
     0
  3
tfrom線あり
100
AcDbAlignedDimension
 13
251.8234009332874
 23
283.8856771530329
 33
0.0
 14
156.5767832189208
 24
346.5399475282038
 34
0.0
 50
90.0
100
AcDbRotatedDimension
  0
LINE
  5
3CCC
330
A
100
AcDbEntity
  8
モデル
100
AcDbLine
 10
104.9278776315591
 20
341.2482773719737
 30
0.0
 11
104.9278776315591
 21
346.5399475282038
 31
0.0
  0
LINE
  5
3CCD
330
A
100
AcDbEntity
  8
モデル
100
AcDbLine
 10
104.9278776315591
 20
346.5399475282038
 30
0.0
 11
156.7869341821564
 21
346.5399475282038
 31
0.0
  0
SPLINE
  5
3CCE
330
A
100
AcDbEntity
  8
モデル
100
AcDbSpline
210
0.0
220
0.0
230
1.0
 70
     8
 71
     3
 72
     8
 73
     4
 74
     0
 42
0.000000001
 43
0.0000000001
 40
0.0
 40
0.0
 40
0.0
 40
0.0
 40
1.0
 40
1.0
 40
1.0
 40
1.0
 10
156.7869341821564
 20
341.2482773719737
 30
0.0
 10
156.7869341821564
 20
340.8951548517829
 30
0.0
 10
156.5009910682454
 20
340.6126568356308
 30
0.0
 10
156.1513136458125
 20
340.6126568356308
 30
0.0
  0
LINE
  5
3CCF
330
A
100
AcDbEntity
  8
モデル
100
AcDbLine
 10
156.7869341821564
 20
341.2482773719737
 30
0.0
 11
156.7869341821564
 21
346.5399475282038
 31
0.0
  0
LINE
  5
3CD0
330
A
100
AcDbEntity
  8
モデル
100
AcDbLine
 10
136.7846965994305
 20
126.3433380116279
 30
0.0
 11
130.8574059068577
 21
126.3433380116279
 31
0.0
  0
LINE
  5
3CD1
330
A
100
AcDbEntity
  8
モデル
100
AcDbLine
 10
136.7846965994305
 20
178.412545525461
 30
0.0
 11
130.8574059068577
 21
178.412545525461
 31
0.0
  0
ARC
  5
3CD2
330
A
100
AcDbEntity
  8
モデル
100
AcDbCircle
 10
400.3040861583368
 20
320.5399475282038
 30
0.0
 40
26.0
100
AcDbArc
 50
17.52855331058284
 51
342.471446689417
  0
LINE
  5
3CD3
330
A
100
AcDbEntity
  8
モデル
100
AcDbLine
 10
185.4682342916275
 20
160.243252729308
 30
0.0
 11
138.4779621474697
 21
160.243252729308
 31
0.0
  0
LINE
  5
3CD4
330
A
100
AcDbEntity
  8
モデル
100
AcDbLine
 10
185.4682342916275
 20
144.581838321614
 30
0.0
 11
138.4779621474697
 21
144.581838321614
 31
0.0
  0
LINE
  5
3CD5
330
A
100
AcDbEntity
  8
モデル
100
AcDbLine
 10
130.8574059068577
 20
178.412545525461
 30
0.0
 11
130.8574059068577
 21
126.3433380116279
 31
0.0
  0
LINE
  5
3CD6
330
A
100
AcDbEntity
  8
モデル
100
AcDbLine
 10
136.7846965994306
 20
178.412545525461
 30
0.0
 11
136.7846965994306
 21
126.3433380116279
 31
0.0
  0
LINE
  5
3CD7
330
A
100
AcDbEntity
  8
モデル
100
AcDbLine
 10
138.4779621474697
 20
161.5452764507738
 30
0.0
 11
138.4779621474697
 21
143.2798146001481
 31
0.0
  0
LINE
  5
3CD8
330
A
100
AcDbEntity
  8
モデル
100
AcDbLine
 10
136.7846965994305
 20
164.4775121424128
 30
0.0
 11
138.4779621474697
 21
161.5452764507739
 31
0.0
  0
LINE
  5
3CD9
330
A
100
AcDbEntity
  8
モデル
100
AcDbLine
 10
136.7846965994305
 20
140.3475789085091
 30
0.0
 11
138.4779621474697
 21
143.2798146001481
 31
0.0
  0
ARC
  5
3CDA
330
A
100
AcDbEntity
  8
モデル
  6
HIDDEN
100
AcDbCircle
 10
185.4682342916275
 20
152.412545525461
 30
0.0
 40
7.830707203846998
100
AcDbArc
 50
90.0
 51
270.0
  0
ARC
  5
3CDB
330
A
100
AcDbEntity
  8
モデル
100
AcDbCircle
 10
185.4682342916275
 20
152.412545525461
 30
0.0
 40
7.830707203846998
100
AcDbArc
 50
270.0
 51
90.0
  0
DIMENSION
  5
3CDF
102
{ACAD_REACTORS
330
3CE1
102
}
102
{ACAD_XDICTIONARY
360
3CE0
102
}
330
A
100
AcDbEntity
  8
寸法
100
AcDbDimension
  2
*D53
 10
89.35470639789645
 20
283.8856771530329
 30
0.0
 11
81.85470639789645
 21
312.2491669943319
 31
0.0
 70
    32
 71
     5
 42
56.72697968259791
 73
     0
 74
     0
 75
     0
  3
tfrom線あり
100
AcDbAlignedDimension
 13
100.563498167903
 23
340.6126568356308
 33
0.0
 14
122.7080271603994
 24
283.8856771530329
 34
0.0
 50
90.0
100
AcDbRotatedDimension
  0
TEXT
  5
3DEA
330
A
100
AcDbEntity
  8
テンプレート
100
AcDbText
 10
448.3298113438826
 20
37.16543050686116
 30
0.0
 40
5.5
  1
バネ付き座金
  7
ＭＳ ゴシック
100
AcDbText
  0
LINE
  5
3DED
330
A
100
AcDbEntity
  8
寸法
  6
CENTER
 48
0.5
100
AcDbLine
 10
110.8831322609061
 20
349.4206302727803
 30
0.0
 11
110.8831322609061
 21
343.3584515437879
 31
0.0
  0
LINE
  5
3DEE
330
A
100
AcDbEntity
  8
寸法
  6
CENTER
 48
0.5
100
AcDbLine
 10
148.8831322609061
 20
349.4206302727803
 30
0.0
 11
148.8831322609061
 21
343.3584515437879
 31
0.0
  0
DIMENSION
  5
3DEF
330
A
100
AcDbEntity
  8
寸法
100
AcDbDimension
  2
*D56
 10
148.8831322609061
 20
361.7881918258838
 30
0.0
 11
128.8880235714138
 21
361.7881918258838
 31
0.0
 70
   160
 71
     5
 42
38.0
 73
     0
 74
     0
 75
     0
  3
tfrom線あり
100
AcDbAlignedDimension
 13
110.8831322609061
 23
349.4206302727803
 33
0.0
 14
148.8831322609061
 24
349.4206302727803
 34
0.0
100
AcDbRotatedDimension
  0
LINE
  5
3DF0
330
A
100
AcDbEntity
  8
モデル
100
AcDbLine
 10
104.9278776315591
 20
346.5399475282038
 30
0.0
 11
104.9278776315591
 21
341.4599786292014
 31
0.0
  0
TEXT
  5
3DF1
330
A
100
AcDbEntity
  8
テンプレート
100
AcDbText
 10
36.7528253083583
 20
41.03783377866012
 30
0.0
 40
5.5
  1
サテン
  7
ＭＳ ゴシック
100
AcDbText
  0
TEXT
  5
3DF2
330
A
100
AcDbEntity
  8
テンプレート
100
AcDbText
 10
36.7528253083583
 20
29.15097790868504
 30
0.0
 40
5.5
  1
ステンレス
  7
ＭＳ ゴシック
100
AcDbText
  0
TEXT
  5
3DFF
330
A
100
AcDbEntity
  8
テンプレート
100
AcDbText
 10
313.0171205424464
 20
52.23704863725879
 30
0.0
 40
5.5
  1
FOR10-BS02S-C
  7
ＭＳ ゴシック
100
AcDbText
  0
DIMENSION
  5
3E00
330
A
100
AcDbEntity
  8
寸法
100
AcDbDimension
  2
*D57
 10
277.6478537269682
 20
346.5399475282038
 30
0.0
 11
270.1478537269682
 21
323.2562543310194
 31
0.0
 70
    32
 71
     5
 42
46.56738639436883
 73
     0
 74
     0
 75
     0
  3
tfrom線あり
100
AcDbAlignedDimension
 13
256.8251234821664
 23
299.972561133835
 33
0.0
 14
161.5767832189208
 24
346.5399475282038
 34
0.0
 50
90.0
100
AcDbRotatedDimension
  0
TEXT
  5
3E6C
330
A
100
AcDbEntity
  8
テンプレート
100
AcDbText
 10
449.0017237694899
 20
47.28154793898159
 30
0.0
 40
5.5
  1
取付方＝呼込み(ビス・ナット付)
  7
ＭＳ ゴシック
100
AcDbText
  0
HATCH
  5
3F41
330
A
100
AcDbEntity
  8
CutoutOverlay
100
AcDbHatch
 10
0.0
 20
0.0
 30
0.0
210
0.0
220
0.0
230
1.0
  2
ANSI31
 70
     0
 71
     1
 91
        3
 92
        1
 93
        1
 72
     2
 10
381.3040861583368
 20
152.412545525461
 40
4.0
 50
0.0
 51
360.0
 73
     1
 97
        1
330
3F43
 92
        1
 93
        1
 72
     2
 10
400.3040861583368
 20
152.412545525461
 40
15.0
 50
0.0
 51
360.0
 73
     1
 97
        1
330
3F44
 92
        1
 93
        1
 72
     2
 10
419.3040861583368
 20
152.412545525461
 40
4.0
 50
0.0
 51
360.0
 73
     1
 97
        1
330
3F42
 75
     0
 76
     1
 52
0.0
 41
1.0
 77
     0
 78
     1
 53
45.0
 43
-8.568038353218014
 44
-28.45030139457756
 45
-2.245064030267288
 46
2.245064030267288
 79
     0
 98
        1
 10
-8.568038353218014
 20
-28.45030139457756
1001
ACAD
1010
0.0
1020
0.0
1030
0.0
  0
CIRCLE
  5
3F42
102
{ACAD_REACTORS
330
3F41
102
}
330
A
100
AcDbEntity
  8
CutoutOverlay
100
AcDbCircle
 10
419.3040861583368
 20
152.412545525461
 30
0.0
 40
4.0
  0
CIRCLE
  5
3F43
102
{ACAD_REACTORS
330
3F41
102
}
330
A
100
AcDbEntity
  8
CutoutOverlay
100
AcDbCircle
 10
381.3040861583368
 20
152.412545525461
 30
0.0
 40
4.0
  0
CIRCLE
  5
3F44
102
{ACAD_REACTORS
330
3F49
330
3F41
102
}
330
A
100
AcDbEntity
  8
CutoutOverlay
100
AcDbCircle
 10
400.3040861583368
 20
152.412545525461
 30
0.0
 40
15.0
  0
DIMENSION
  5
3F45
330
A
100
AcDbEntity
  8
寸法
100
AcDbDimension
  2
*D62
 10
400.3040861583368
 20
185.352032139527
 30
0.0
 11
390.8040861583368
 21
192.852032139527
 31
0.0
 70
    32
 71
     5
 42
19.0
 73
     0
 74
     0
 75
     0
  3
tfrom線あり
100
AcDbAlignedDimension
 13
381.3040861583368
 23
157.565408562045
 33
0.0
 14
400.3040861583368
 24
171.7409210822539
 34
0.0
100
AcDbRotatedDimension
  0
DIMENSION
  5
3F46
330
A
100
AcDbEntity
  8
寸法
100
AcDbDimension
  2
*D63
 10
419.3040861583368
 20
185.352032139527
 30
0.0
 11
409.8040861583368
 21
192.852032139527
 31
0.0
 70
    32
 71
     5
 42
19.0
 73
     0
 74
     0
 75
     0
  3
tfrom線あり
100
AcDbAlignedDimension
 13
400.3040861583368
 23
171.7409210822539
 33
0.0
 14
419.3040861583368
 24
157.565408562045
 34
0.0
100
AcDbRotatedDimension
  0
LEADER
  5
3F47
102
{ACAD_REACTORS
330
3F49
102
}
102
{ACAD_XDICTIONARY
360
3F48
102
}
330
A
100
AcDbEntity
  8
寸法
100
AcDbLeader
  3
tfrom線あり
 76
     3
 10
400.3040861583368
 20
167.412545525461
 30
0.0
 10
400.3040861583368
 20
172.2834738936488
 30
0.0
 10
439.3850686963247
 20
172.2834738936488
 30
0.0
  0
TEXT
  5
3F4A
330
A
100
AcDbEntity
  8
寸法
100
AcDbText
 10
429.5015167630728
 20
174.5923483211251
 30
0.0
 40
5.0
  1
ø30
  7
ＭＳ ゴシック
100
AcDbText
  0
TEXT
  5
3F4B
330
A
100
AcDbEntity
  8
寸法
100
AcDbText
 10
327.7685961533232
 20
195.06908920685
 30
0.0
 40
5.0
  1
<切欠図>
  7
ＭＳ ゴシック
100
AcDbText
  0
DIMENSION
  5
3F4C
330
A
100
AcDbEntity
  8
寸法
100
AcDbDimension
  2
*D64
 10
381.3040861583368
 20
115.6246379437679
 30
0.0
 11
372.3090861583367
 21
115.6246379437679
 31
0.0
 70
   160
  1
ø8
 71
     5
 42
38.0
 73
     0
 74
     1
 75
     1
  3
tfrom線あり
100
AcDbAlignedDimension
 13
419.3040861583368
 23
148.412545525461
 33
0.0
 14
381.3040861583368
 24
148.412545525461
 34
0.0
100
AcDbRotatedDimension
1001
ACAD
1000
DSTYLE
1002
{
1070
    73
1070
     0
1070
   147
1040
2.0
1070
   172
1070
     1
1002
}
  0
LEADER
  5
3F4D
102
{ACAD_XDICTIONARY
360
3F4E
102
}
330
A
100
AcDbEntity
  8
寸法
100
AcDbLeader
  3
tfrom線あり
 76
     3
 10
400.3040861583368
 20
152.412545525461
 30
0.0
 10
433.5849730598898
 20
128.116648054243
 30
0.0
 10
501.5402515874978
 20
128.116648054243
 30
0.0
  0
TEXT
  5
3F4F
330
A
100
AcDbEntity
  8
寸法
100
AcDbText
 10
435.1659101295129
 20
130.7521010039389
 30
0.0
 40
5.0
  1
レバー角芯 センター
  7
ＭＳ ゴシック
100
AcDbText
  0
TEXT
  5
3F7A
330
A
100
AcDbEntity
  8
テンプレート
100
AcDbText
 10
192.6640855805966
 20
77.17630111113886
 30
0.0
 40
5.0
  1
　 加工は現物合わせの上行って下さい。
  7
ＭＳ ゴシック
100
AcDbText
  0
TEXT
  5
3F7B
330
A
100
AcDbEntity
  8
テンプレート
100
AcDbText
 10
192.8363286628052
 20
85.28008520727872
 30
0.0
 40
5.0
  1
※ 輸入製品の為、国内製品と比べ製品寸法の個体差に幅が有ります。
  7
ＭＳ ゴシック
100
AcDbText
  0
TEXT
  5
3F7C
330
A
100
AcDbEntity
  8
テンプレート
100
AcDbText
 10
192.6640855805966
 20
67.80466980665778
 30
0.0
 40
5.0
  1
※ ご注文の際は正確な扉厚の指示をしてください。
  7
ＭＳ ゴシック
100
AcDbText
  0
TEXT
  5
3FB0
330
A
100
AcDbEntity
  8
テンプレート
100
AcDbText
 10
313.0505831322699
 20
39.8279918743558
 30
0.0
 40
4.0
  1
ユーロケース(DIN規格)：36～55
  7
ＭＳ ゴシック
100
AcDbText
  0
TEXT
  5
3FB1
330
A
100
AcDbEntity
  8
テンプレート
100
AcDbText
 10
313.0505831322699
 20
44.82304125840494
 30
0.0
 40
4.0
  1
MIWAケース：37～57
  7
ＭＳ ゴシック
100
AcDbText
  0
SPLINE
  5
3FBB
330
A
100
AcDbEntity
  8
CutoutUnderlay
100
AcDbSpline
210
0.0
220
0.0
230
1.0
 70
     8
 71
     3
 72
    14
 73
    10
 74
     0
 42
0.000000001
 43
0.0000000001
 40
0.0
 40
0.0
 40
0.0
 40
0.0
 40
1.0
 40
1.0
 40
1.0
 40
2.0
 40
2.0
 40
2.0
 40
3.0
 40
3.0
 40
3.0
 40
3.0
 10
408.9357785909098
 20
160.76346249076
 30
0.0
 10
405.6767161118781
 20
164.2671269106069
 30
0.0
 10
400.6072547610375
 20
165.4212346595239
 30
0.0
 10
396.1510208111141
 20
163.6711249984798
 30
0.0
 10
391.6947868611906
 20
161.9210153374348
 30
0.0
 10
388.7681763158021
 20
157.6215333354988
 30
0.0
 10
388.7681763158021
 20
152.8362925496899
 30
0.0
 10
388.7681763158021
 20
148.051051763882
 30
0.0
 10
391.6947868611906
 20
143.7515697619448
 30
0.0
 10
396.1510208111141
 20
142.0014601009009
 30
0.0
  0
POLYLINE
  5
3FBC
330
A
100
AcDbEntity
  8
CutoutUnderlay
100
AcDb2dPolyline
 66
     1
 10
0.0
 20
0.0
 30
0.0
  0
VERTEX
  5
3FBD
330
3FBC
100
AcDbEntity
  8
CutoutUnderlay
100
AcDbVertex
100
AcDb2dVertex
 10
522.1175752332251
 20
160.243252729308
 30
0.0
  0
VERTEX
  5
3FBE
330
3FBC
100
AcDbEntity
  8
CutoutUnderlay
100
AcDbVertex
100
AcDb2dVertex
 10
521.2700811847665
 20
160.243252729308
 30
0.0
  0
SEQEND
  5
3FBF
330
3FBC
100
AcDbEntity
  8
CutoutUnderlay
  0
POLYLINE
  5
3FC0
330
A
100
AcDbEntity
  8
CutoutUnderlay
100
AcDb2dPolyline
 66
     1
 10
0.0
 20
0.0
 30
0.0
  0
VERTEX
  5
3FC1
330
3FC0
100
AcDbEntity
  8
CutoutUnderlay
100
AcDbVertex
100
AcDb2dVertex
 10
522.1175752332251
 20
144.5818383216139
 30
0.0
  0
VERTEX
  5
3FC2
330
3FC0
100
AcDbEntity
  8
CutoutUnderlay
100
AcDbVertex
100
AcDb2dVertex
 10
521.2700811847665
 20
144.5818383216139
 30
0.0
  0
SEQEND
  5
3FC3
330
3FC0
100
AcDbEntity
  8
CutoutUnderlay
  0
SPLINE
  5
3FC4
330
A
100
AcDbEntity
  8
CutoutUnderlay
100
AcDbSpline
210
0.0
220
0.0
230
1.0
 70
     8
 71
     3
 72
    14
 73
    10
 74
     0
 42
0.000000001
 43
0.0000000001
 40
0.0
 40
0.0
 40
0.0
 40
0.0
 40
1.0
 40
1.0
 40
1.0
 40
2.0
 40
2.0
 40
2.0
 40
3.0
 40
3.0
 40
3.0
 40
3.0
 10
405.3993857423623
 20
160.356940955321
 30
0.0
 10
401.5718821332667
 20
162.3309819706329
 30
0.0
 10
396.061448269407
 20
161.917570239677
 30
0.0
 10
393.3449886872542
 20
158.575825414455
 30
0.0
 10
390.6285291051014
 20
155.2306354914738
 30
0.0
 10
390.6285291051014
 20
150.4419496079068
 30
0.0
 10
393.3449886872542
 20
147.096759684926
 30
0.0
 10
396.061448269407
 20
143.7550148597028
 30
0.0
 10
400.5762488812159
 20
142.6181325995759
 30
0.0
 10
404.4089201369483
 20
144.5921736148877
 30
0.0
  0
POLYLINE
  5
3FC5
330
A
100
AcDbEntity
  8
CutoutUnderlay
100
AcDb2dPolyline
 66
     1
 10
0.0
 20
0.0
 30
0.0
  0
VERTEX
  5
3FC6
330
3FC5
100
AcDbEntity
  8
CutoutUnderlay
100
AcDbVertex
100
AcDb2dVertex
 10
522.1175752332251
 20
144.5818383216139
 30
0.0
  0
VERTEX
  5
3FC7
330
3FC5
100
AcDbEntity
  8
CutoutUnderlay
100
AcDbVertex
100
AcDb2dVertex
 10
522.1175752332251
 20
160.243252729308
 30
0.0
  0
SEQEND
  5
3FC8
330
3FC5
100
AcDbEntity
  8
CutoutUnderlay
  0
POLYLINE
  5
3FC9
330
A
100
AcDbEntity
  8
CutoutUnderlay
100
AcDb2dPolyline
 66
     1
 10
0.0
 20
0.0
 30
0.0
  0
VERTEX
  5
3FCA
330
3FC9
100
AcDbEntity
  8
CutoutUnderlay
100
AcDbVertex
100
AcDb2dVertex
 10
400.19728812784
 20
144.5818383216139
 30
0.0
  0
VERTEX
  5
3FCB
330
3FC9
100
AcDbEntity
  8
CutoutUnderlay
100
AcDbVertex
100
AcDb2dVertex
 10
521.2700811847665
 20
144.5818383216139
 30
0.0
  0
SEQEND
  5
3FCC
330
3FC9
100
AcDbEntity
  8
CutoutUnderlay
  0
POLYLINE
  5
3FCD
330
A
100
AcDbEntity
  8
CutoutUnderlay
100
AcDb2dPolyline
 66
     1
 10
0.0
 20
0.0
 30
0.0
  0
VERTEX
  5
3FCE
330
3FCD
100
AcDbEntity
  8
CutoutUnderlay
100
AcDbVertex
100
AcDb2dVertex
 10
400.19728812784
 20
160.243252729308
 30
0.0
  0
VERTEX
  5
3FCF
330
3FCD
100
AcDbEntity
  8
CutoutUnderlay
100
AcDbVertex
100
AcDb2dVertex
 10
521.2700811847665
 20
160.243252729308
 30
0.0
  0
SEQEND
  5
3FD0
330
3FCD
100
AcDbEntity
  8
CutoutUnderlay
  0
SPLINE
  5
3FD1
330
A
100
AcDbEntity
  8
CutoutUnderlay
100
AcDbSpline
210
0.0
220
0.0
230
1.0
 70
     8
 71
     3
 72
    17
 73
    13
 74
     0
 42
0.000000001
 43
0.0000000001
 40
0.0
 40
0.0
 40
0.0
 40
0.0
 40
1.0
 40
1.0
 40
1.0
 40
2.0
 40
2.0
 40
2.0
 40
3.0
 40
3.0
 40
3.0
 40
4.0
 40
4.0
 40
4.0
 40
4.0
 10
408.7376854698271
 20
160.9701683562379
 30
0.0
 10
405.4286690733048
 20
164.356699452314
 30
0.0
 10
400.4022714444388
 20
165.4040091707349
 30
0.0
 10
396.0201070963114
 20
163.6160034343529
 30
0.0
 10
391.6344976504261
 20
161.8314427957279
 30
0.0
 10
388.7664537669231
 20
157.5698568691299
 30
0.0
 10
388.7664537669231
 20
152.8362925496899
 30
0.0
 10
388.7664537669231
 20
148.1027282302508
 30
0.0
 10
391.6344976504261
 20
143.8411423036518
 30
0.0
 10
396.0201070963114
 20
142.0531365672697
 30
0.0
 10
400.4022714444388
 20
140.2685759286458
 30
0.0
 10
405.3442641782348
 20
141.095399390557
 30
0.0
 10
408.6532805747569
 20
144.4819304866327
 30
0.0
  0
SPLINE
  5
3FD2
330
A
100
AcDbEntity
  8
CutoutUnderlay
100
AcDbSpline
210
0.0
220
0.0
230
1.0
 70
     8
 71
     3
 72
    11
 73
     7
 74
     0
 42
0.000000001
 43
0.0000000001
 40
0.0
 40
0.0
 40
0.0
 40
0.0
 40
1.0
 40
1.0
 40
1.0
 40
2.0
 40
2.0
 40
2.0
 40
2.0
 10
400.5486880991521
 20
160.1915762629388
 30
0.0
 10
396.2233678640312
 20
160.1915762629388
 30
0.0
 10
392.5801769849866
 20
157.159890235932
 30
0.0
 10
392.5801769849866
 20
152.8362925496899
 30
0.0
 10
392.5801769849866
 20
148.505804667933
 30
0.0
 10
396.4421315716617
 20
144.5921736148877
 30
0.0
 10
400.7708969045406
 20
144.5921736148877
 30
0.0
  0
ARC
  5
3FD4
330
A
100
AcDbEntity
  8
CutoutUnderlay
100
AcDbCircle
 10
400.3040861583368
 20
152.412545525461
 30
0.0
 40
26.0
100
AcDbArc
 50
17.52855331058284
 51
342.471446689417
  0
VIEWPORT
  5
349
330
B
100
AcDbEntity
 67
     1
  8
0
100
AcDbViewport
 10
202.5
 20
128.5
 30
0.0
 40
486.0
 41
308.4
 68
     1
 69
     1
 12
202.5
 22
128.5
 13
0.0
 23
0.0
 14
0.5
 24
0.5
 15
0.0
 25
0.0
 16
0.0
 26
0.0
 36
1.0
 17
0.0
 27
0.0
 37
0.0
 42
50.0
 43
0.0
 44
0.0
 45
308.4
 50
0.0
 51
0.0
 72
   100
 90
   557152
  1

281
     0
 71
     1
 74
     0
110
0.0
120
0.0
130
0.0
111
1.0
121
0.0
131
0.0
112
0.0
122
1.0
132
0.0
 79
     0
146
0.0
170
     0
 61
     5
348
26C
292
     1
282
     1
141
0.0
142
0.0
 63
   256
  0
VIEWPORT
  5
34A
330
B
100
AcDbEntity
 67
     1
  8
0
100
AcDbViewport
 10
202.5
 20
128.5
 30
0.0
 40
324.0
 41
205.6
 68
     2
 69
     2
 12
986.6781359294573
 22
1427.077061889956
 13
0.0
 23
0.0
 14
0.5
 24
0.5
 15
0.0
 25
0.0
 16
0.0
 26
0.0
 36
1.0
 17
0.0
 27
0.0
 37
0.0
 42
50.0
 43
0.0
 44
0.0
 45
2890.021615685494
 50
0.0
 51
0.0
 72
   100
 90
   557152
  1

281
     0
 71
     1
 74
     0
110
0.0
120
0.0
130
0.0
111
1.0
121
0.0
131
0.0
112
0.0
122
1.0
132
0.0
 79
     0
146
0.0
170
     0
 61
     5
348
26C
292
     1
282
     1
141
0.0
142
0.0
 63
   256
  0
ENDSEC
  0
SECTION
  2
OBJECTS
  0
DICTIONARY
  5
19
330
0
100
AcDbDictionary
281
     1
  3
ACAD_COLOR
350
674
  3
ACAD_DETAILVIEWSTYLE
350
12F4
  3
ACAD_GROUP
350
1A
  3
ACAD_IMAGE_VARS
350
27B
  3
ACAD_LAYOUT
350
1E
  3
ACAD_MATERIAL
350
263
  3
ACAD_MLEADERSTYLE
350
336
  3
ACAD_MLINESTYLE
350
1B
  3
ACAD_PLOTSETTINGS
350
22
  3
ACAD_PLOTSTYLENAME
350
1F
  3
ACAD_SCALELIST
350
241
  3
ACAD_SECTIONVIEWSTYLE
350
12F5
  3
ACAD_TABLESTYLE
350
278
  3
ACAD_VISUALSTYLE
350
267
  3
ACDB_RECOMPOSE_DATA
350
4030
  3
AcDbVariableDictionary
350
330
  3
AcStStandard
350
12B9
  3
APPDATA
350
27A
  0
SUN
  5
10E8
330
15
100
AcDbSun
 90
        1
290
     0
 63
     7
421
 16777215
 40
1.0
291
     1
 91
  2455826
 92
 54000000
292
     0
 70
     2
 71
   256
280
     1
  0
DICTIONARY
  5
2E1
330
2
100
AcDbDictionary
280
     1
281
     1
  3
ACAD_LAYERSTATES
360
2E2
  3
ACLYDICTIONARY
360
3863
  0
DICTIONARY
  5
3FE4
330
A
100
AcDbDictionary
280
     1
281
     1
  3
ACAD_SORTENTS
360
3FE5
  0
DICTIONARY
  5
3CBF
330
3CBE
100
AcDbDictionary
280
     1
281
     1
  3
ACAD_DIMASSOC
360
3CC0
  0
DICTIONARY
  5
3CC2
330
3CC1
100
AcDbDictionary
280
     1
281
     1
  3
ACAD_DIMASSOC
360
3CC3
  0
DICTIONARY
  5
3CC5
330
3CC4
100
AcDbDictionary
280
     1
281
     1
  3
ACAD_DIMASSOC
360
3CC6
  0
DICTIONARY
  5
3CCA
330
3CC9
100
AcDbDictionary
280
     1
281
     1
  3
ACAD_DIMASSOC
360
3CCB
  0
DICTIONARY
  5
3CE0
330
3CDF
100
AcDbDictionary
280
     1
281
     1
  3
ACAD_DIMASSOC
360
3CE1
  0
DICTIONARY
  5
3F48
330
3F47
100
AcDbDictionary
280
     1
281
     1
  3
ACAD_DIMASSOC
360
3F49
  0
DICTIONARY
  5
3F4E
330
3F4D
100
AcDbDictionary
280
     1
281
     1
  0
DICTIONARY
  5
674
102
{ACAD_REACTORS
330
19
102
}
330
19
100
AcDbDictionary
281
     1
  0
DICTIONARY
  5
12F4
102
{ACAD_REACTORS
330
19
102
}
330
19
100
AcDbDictionary
281
     1
  0
DICTIONARY
  5
1A
102
{ACAD_REACTORS
330
19
102
}
330
19
100
AcDbDictionary
281
     1
  0
RASTERVARIABLES
  5
27B
102
{ACAD_REACTORS
330
19
102
}
330
19
100
AcDbRasterVariables
 90
        0
 70
     1
 71
     1
 72
     1
  0
DICTIONARY
  5
1E
102
{ACAD_REACTORS
330
19
102
}
330
19
100
AcDbDictionary
281
     1
  3
Layout1
350
21
  3
Layout2
350
12C4
  3
Model
350
20
  0
DICTIONARY
  5
263
102
{ACAD_REACTORS
330
19
102
}
330
19
100
AcDbDictionary
281
     1
  3
ByBlock
350
385B
  3
ByLayer
350
264
  3
Global
350
266
  0
DICTIONARY
  5
336
102
{ACAD_REACTORS
330
19
102
}
330
19
100
AcDbDictionary
281
     1
  0
DICTIONARY
  5
1B
102
{ACAD_REACTORS
330
19
102
}
330
19
100
AcDbDictionary
281
     1
  3
Standard
350
1C
  0
DICTIONARY
  5
22
102
{ACAD_REACTORS
330
19
102
}
330
19
100
AcDbDictionary
281
     1
  0
ACDBDICTIONARYWDFLT
  5
1F
102
{ACAD_REACTORS
330
19
102
}
330
19
100
AcDbDictionary
281
     1
  3
Normal
350
1D
100
AcDbDictionaryWithDefault
340
1D
  0
DICTIONARY
  5
241
102
{ACAD_REACTORS
330
19
102
}
330
19
100
AcDbDictionary
281
     1
  3
A0
350
242
  3
A1
350
243
  3
A2
350
244
  3
A3
350
245
  3
A4
350
246
  3
A5
350
247
  3
A6
350
248
  3
A7
350
249
  3
A8
350
24A
  3
A9
350
24B
  3
B0
350
24C
  3
B1
350
24D
  3
B2
350
24E
  3
B3
350
24F
  3
B4
350
250
  3
B5
350
251
  3
B6
350
252
  3
B7
350
253
  3
B8
350
254
  3
B9
350
255
  3
C0
350
256
  3
C1
350
257
  3
C2
350
258
  3
C3
350
259
  3
C4
350
25A
  3
C5
350
25B
  3
C6
350
25C
  3
C7
350
25D
  3
C8
350
25E
  3
C9
350
25F
  3
D0
350
260
  3
D1
350
261
  3
D2
350
262
  0
DICTIONARY
  5
12F5
102
{ACAD_REACTORS
330
19
102
}
330
19
100
AcDbDictionary
281
     1
  0
DICTIONARY
  5
278
102
{ACAD_REACTORS
330
19
102
}
330
19
100
AcDbDictionary
281
     1
  3
Standard
350
279
  0
DICTIONARY
  5
267
102
{ACAD_REACTORS
330
19
102
}
330
19
100
AcDbDictionary
281
     1
  3
2dWireframe
350
26C
  3
3D Hidden
350
26E
  3
3dWireframe
350
26D
  3
Basic
350
26F
  3
Brighten
350
273
  3
ColorChange
350
277
  3
Conceptual
350
271
  3
Dim
350
272
  3
EdgeColorOff
350
10E2
  3
Facepattern
350
276
  3
Flat
350
268
  3
FlatWithEdges
350
269
  3
Gouraud
350
26A
  3
GouraudWithEdges
350
26B
  3
Hidden
350
10DF
  3
JitterOff
350
10E0
  3
Linepattern
350
275
  3
OverhangOff
350
10E1
  3
Realistic
350
270
  3
Shaded
350
10E7
  3
Shaded with edges
350
10E6
  3
Shades of Gray
350
10E3
  3
Sketchy
350
10E4
  3
Thicken
350
274
  3
Wireframe
350
10DE
  3
X-Ray
350
10E5
  0
XRECORD
  5
4030
102
{ACAD_REACTORS
330
19
102
}
330
19
100
AcDbXrecord
280
     1
 90
        1
330
279
  0
DICTIONARY
  5
330
102
{ACAD_REACTORS
330
19
102
}
330
19
100
AcDbDictionary
281
     1
  3
CANNOSCALE
350
331
  3
CTABLESTYLE
350
335
  3
XCLIPFRAME
350
109E
  0
DICTIONARY
  5
12B9
102
{ACAD_REACTORS
330
19
102
}
330
19
100
AcDbDictionary
281
     1
  0
DICTIONARY
  5
27A
102
{ACAD_REACTORS
330
19
102
}
330
19
100
AcDbDictionary
281
     1
  0
DICTIONARY
  5
2E2
102
{ACAD_REACTORS
330
2E1
102
}
330
2E1
100
AcDbDictionary
281
     1
  3
ARGON_LAYERP_5
350
1E12
  3
ARGON_LAYERP_6
350
10DB
  3
ARGON_LAYERP_7
350
DEA
  3
ARGON_LAYERP_8
350
C70
  3
ARGON_LAYERP_9
350
7AA
  0
DICTIONARY
  5
3863
102
{ACAD_REACTORS
330
2E1
102
}
330
2E1
100
AcDbDictionary
281
     1
1001
ACAD
1000
<All
  0
SORTENTSTABLE
  5
3FE5
102
{ACAD_REACTORS
330
3FE4
102
}
330
3FE4
100
AcDbSortentsTable
330
A
331
36CD
  5
36DA
331
36CE
  5
36DB
331
36CF
  5
36DC
331
36D0
  5
36DD
331
36D3
  5
36DE
331
36D4
  5
36DF
331
36D5
  5
36E0
331
36D6
  5
36E1
331
36D8
  5
36E2
331
36D9
  5
36E3
331
36DA
  5
36E4
331
36DB
  5
36E5
331
36DC
  5
36E6
331
36DD
  5
36E7
331
36DE
  5
36E8
331
36DF
  5
36E9
331
36E0
  5
36EA
331
36E1
  5
36EB
331
36E2
  5
36EC
331
36E3
  5
36ED
331
36E4
  5
37DE
331
36E5
  5
3C7C
331
36E6
  5
3C7D
331
36E7
  5
3C81
331
36E8
  5
3C85
331
36E9
  5
3C86
331
36EA
  5
3C8A
331
36EB
  5
3C8E
331
36EC
  5
3C92
331
36ED
  5
3C93
331
37DE
  5
3C94
331
3C7C
  5
3C98
331
3C7D
  5
3C9C
331
3C81
  5
3CA1
331
3C85
  5
3CA5
331
3C86
  5
3CAA
331
3C8A
  5
3CAE
331
3C8E
  5
3CB2
331
3C92
  5
3CB6
331
3C93
  5
3CB7
331
3C94
  5
3CBE
331
3C98
  5
3CC1
331
3C9C
  5
3CC4
331
3CA1
  5
3CC7
331
3CA5
  5
3CC9
331
3CAA
  5
3CCC
331
3CAE
  5
3CCD
331
3CB2
  5
3CCE
331
3CB6
  5
3CCF
331
3CB7
  5
3CD0
331
3CBE
  5
3CD1
331
3CC1
  5
3CD2
331
3CC4
  5
3CD3
331
3CC7
  5
3CD4
331
3CC9
  5
3CD5
331
3CCC
  5
3CD6
331
3CCD
  5
3CD7
331
3CCE
  5
3CD8
331
3CCF
  5
3CD9
331
3CD0
  5
3CDA
331
3CD1
  5
3CDB
331
3CD2
  5
3CDF
331
3CD3
  5
3DEA
331
3CD4
  5
3DED
331
3CD5
  5
3DEE
331
3CD6
  5
3DEF
331
3CD7
  5
3DF0
331
3CD8
  5
3DF1
331
3CD9
  5
3DF2
331
3CDA
  5
3DFF
331
3CDB
  5
3E00
331
3CDF
  5
3E62
331
3DEA
  5
3E63
331
3DED
  5
3E64
331
3DEE
  5
3E65
331
3DEF
  5
3E66
331
3DF0
  5
3E67
331
3DF1
  5
3E68
331
3DF2
  5
3E69
331
3DFF
  5
3E6A
331
3E00
  5
3E6B
331
0
  5
3E6C
331
0
  5
3EA6
331
0
  5
3F40
331
0
  5
3F41
331
0
  5
3F42
331
0
  5
3F43
331
0
  5
3F44
331
0
  5
3F45
331
0
  5
3F46
331
0
  5
3F47
331
3E6C
  5
3F4A
331
0
  5
3F4B
331
0
  5
3F4C
331
3F41
  5
3F4D
331
3F42
  5
3F4F
331
3F43
  5
3F50
331
3F44
  5
3F51
331
3F45
  5
3F52
331
3F46
  5
3F53
331
3F47
  5
3F54
331
3F4A
  5
3F7A
331
3F4B
  5
3F7B
331
3F4C
  5
3F7C
331
3F4D
  5
3FAE
331
3F4F
  5
3FAF
331
0
  5
3FB0
331
0
  5
3FB1
331
0
  5
3FB8
331
0
  5
3FB9
331
0
  5
3FBA
331
3F7A
  5
3FBB
331
3F7B
  5
3FBC
331
3F7C
  5
3FC0
331
0
  5
3FC4
331
0
  5
3FC5
331
3FB0
  5
3FC9
331
3FB1
  5
3FCD
331
0
  5
3FD1
331
0
  5
3FD2
331
0
  5
3FD3
331
3FBB
  5
36CD
331
3FBC
  5
36CE
331
3FC0
  5
36CF
331
3FC4
  5
36D0
331
3FC5
  5
36D3
331
3FC9
  5
36D4
331
3FCD
  5
36D5
331
3FD1
  5
36D6
331
3FD2
  5
36D8
331
0
  5
3FD4
331
3FD4
  5
36D9
  0
DIMASSOC
  5
3CC0
102
{ACAD_REACTORS
330
3CBF
102
}
330
3CBF
100
AcDbDimAssoc
330
3CBE
 90
        2
 70
     0
 71
     1
  1
AcDbOsnapPointRef
 72
     1
331
3C94
 73
     2
 91
        1
 40
1.0
 10
0.0
 20
0.0
 30
0.0
 75
     0
  0
DIMASSOC
  5
3CC3
102
{ACAD_REACTORS
330
3CC2
102
}
330
3CC2
100
AcDbDimAssoc
330
3CC1
 90
        3
 70
     0
 71
     1
  1
AcDbOsnapPointRef
 72
     1
331
3CB7
 73
     2
 91
        3
 40
1.0
 10
0.0
 20
0.0
 30
0.0
 75
     0
  1
AcDbOsnapPointRef
 72
     1
331
3C9C
 73
     2
 91
        2
 40
1.0
 10
0.0
 20
0.0
 30
0.0
 75
     0
  0
DIMASSOC
  5
3CC6
102
{ACAD_REACTORS
330
3CC5
102
}
330
3CC5
100
AcDbDimAssoc
330
3CC4
 90
        3
 70
     0
 71
     1
  1
AcDbOsnapPointRef
 72
     1
331
3CAA
 73
     2
 91
        1
 40
1.0
 10
0.0
 20
0.0
 30
0.0
 75
     0
  1
AcDbOsnapPointRef
 72
     1
331
3C9C
 73
     2
 91
        1
 40
1.0
 10
0.0
 20
0.0
 30
0.0
 75
     0
  0
DIMASSOC
  5
3CCB
102
{ACAD_REACTORS
330
3CCA
102
}
330
3CCA
100
AcDbDimAssoc
330
3CC9
 90
        1
 70
     0
 71
     1
  1
AcDbOsnapPointRef
 72
     1
331
3C9C
 73
     2
 91
        2
 40
1.0
 10
0.0
 20
0.0
 30
0.0
 75
     0
  0
DIMASSOC
  5
3CE1
102
{ACAD_REACTORS
330
3CE0
102
}
330
3CE0
100
AcDbDimAssoc
330
3CDF
 90
        2
 70
     0
 71
     1
  1
AcDbOsnapPointRef
 72
     1
331
3CAA
 73
     2
 91
        1
 40
1.0
 10
0.0
 20
0.0
 30
0.0
 75
     0
  0
DIMASSOC
  5
3F49
102
{ACAD_REACTORS
330
3F48
102
}
330
3F48
100
AcDbDimAssoc
330
3F47
 90
        1
 70
     0
 71
     1
  1
AcDbOsnapPointRef
 72
     5
331
3F44
 73
     0
 91
        0
 40
1.570796326794897
 10
0.0
 20
0.0
 30
0.0
 75
     0
  0
LAYOUT
  5
21
102
{ACAD_REACTORS
330
1E
102
}
330
1E
100
AcDbPlotSettings
  1

  2
none_device
  4
ISO_A3_(420.00_x_297.00_MM)
  6

 40
7.5
 41
20.0
 42
7.5
 43
20.0
 44
420.0
 45
297.0
 46
0.0
 47
0.0
 48
0.0
 49
0.0
140
0.0
141
0.0
142
1.0
143
1.0
 70
     0
 72
     1
 73
     0
 74
     0
  7

 75
     0
 76
     0
 77
     2
 78
   300
147
1.0
148
0.0
149
0.0
100
AcDbLayout
  1
Layout1
 70
     0
 71
     0
 10
-7.5
 20
-20.0
 11
412.5
 21
277.0
 12
0.0
 22
0.0
 32
0.0
 14
0.0
 24
0.0
 34
0.0
 15
0.0
 25
0.0
 35
0.0
146
0.0
 13
0.0
 23
0.0
 33
0.0
 16
0.0
 26
0.0
 36
0.0
 17
0.0
 27
0.0
 37
0.0
 76
     0
330
B
331
349
  0
LAYOUT
  5
12C4
102
{ACAD_REACTORS
330
1E
102
}
330
1E
100
AcDbPlotSettings
  1

  2
none_device
  4

  6

 40
0.0
 41
0.0
 42
0.0
 43
0.0
 44
0.0
 45
0.0
 46
0.0
 47
0.0
 48
0.0
 49
0.0
140
0.0
141
0.0
142
1.0
143
1.0
 70
   688
 72
     1
 73
     0
 74
     5
  7

 75
    16
 76
     0
 77
     2
 78
   300
147
1.0
148
0.0
149
0.0
100
AcDbLayout
  1
Layout2
 70
     1
 71
     2
 10
0.0
 20
0.0
 11
0.0
 21
0.0
 12
0.0
 22
0.0
 32
0.0
 14
0.0
 24
0.0
 34
0.0
 15
0.0
 25
0.0
 35
0.0
146
0.0
 13
0.0
 23
0.0
 33
0.0
 16
1.0
 26
0.0
 36
0.0
 17
0.0
 27
1.0
 37
0.0
 76
     0
330
12C3
  0
LAYOUT
  5
20
102
{ACAD_REACTORS
330
1E
102
}
330
1E
100
AcDbPlotSettings
  1

  2
none_device
  4
ISO_A3_(420.00_x_297.00_MM)
  6

 40
7.5
 41
20.0
 42
7.5
 43
20.0
 44
420.0
 45
297.0
 46
0.0
 47
0.0
 48
0.0
 49
0.0
140
0.0
141
0.0
142
1.0
143
1.0
 70
  1024
 72
     1
 73
     0
 74
     0
  7

 75
     0
 76
     0
 77
     2
 78
   300
147
1.0
148
0.0
149
0.0
100
AcDbLayout
  1
Model
 70
     0
 71
     1
 10
0.0
 20
0.0
 11
593.9999999999999
 21
420.0
 12
0.0
 22
0.0
 32
0.0
 14
0.0
 24
0.0
 34
0.0
 15
593.9999999999999
 25
420.0
 35
0.0
146
0.0
 13
0.0
 23
0.0
 33
0.0
 16
0.0
 26
0.0
 36
0.0
 17
0.0
 27
0.0
 37
0.0
 76
     0
330
A
331
15
  0
MATERIAL
  5
385B
102
{ACAD_REACTORS
330
263
102
}
330
263
100
AcDbMaterial
  1
ByBlock
 72
     1
 94
      127
  0
MATERIAL
  5
264
102
{ACAD_REACTORS
330
263
102
}
330
263
100
AcDbMaterial
  1
ByLayer
 72
     1
 94
      127
  0
MATERIAL
  5
266
102
{ACAD_REACTORS
330
263
102
}
330
263
100
AcDbMaterial
  1
Global
 72
     1
 94
      127
  0
MLINESTYLE
  5
1C
102
{ACAD_REACTORS
330
1B
102
}
330
1B
100
AcDbMlineStyle
  2
Standard
 70
     0
  3

 62
     0
 51
90.0
 52
90.0
 71
     2
 49
0.5
 62
   256
  6
BYLAYER
 49
-0.5
 62
   256
  6
BYLAYER
  0
ACDBPLACEHOLDER
  5
1D
102
{ACAD_REACTORS
330
1F
102
}
330
1F
  0
SCALE
  5
242
102
{ACAD_REACTORS
330
241
102
}
330
241
100
AcDbScale
 70
     0
300
1:1
140
1.0
141
1.0
290
     1
  0
SCALE
  5
243
102
{ACAD_REACTORS
330
241
102
}
330
241
100
AcDbScale
 70
     0
300
1:2
140
1.0
141
2.0
290
     0
  0
SCALE
  5
244
102
{ACAD_REACTORS
330
241
102
}
330
241
100
AcDbScale
 70
     0
300
1:4
140
1.0
141
4.0
290
     0
  0
SCALE
  5
245
102
{ACAD_REACTORS
330
241
102
}
330
241
100
AcDbScale
 70
     0
300
1:5
140
1.0
141
5.0
290
     0
  0
SCALE
  5
246
102
{ACAD_REACTORS
330
241
102
}
330
241
100
AcDbScale
 70
     0
300
1:8
140
1.0
141
8.0
290
     0
  0
SCALE
  5
247
102
{ACAD_REACTORS
330
241
102
}
330
241
100
AcDbScale
 70
     0
300
1:10
140
1.0
141
10.0
290
     0
  0
SCALE
  5
248
102
{ACAD_REACTORS
330
241
102
}
330
241
100
AcDbScale
 70
     0
300
1:16
140
1.0
141
16.0
290
     0
  0
SCALE
  5
249
102
{ACAD_REACTORS
330
241
102
}
330
241
100
AcDbScale
 70
     0
300
1:20
140
1.0
141
20.0
290
     0
  0
SCALE
  5
24A
102
{ACAD_REACTORS
330
241
102
}
330
241
100
AcDbScale
 70
     0
300
1:30
140
1.0
141
30.0
290
     0
  0
SCALE
  5
24B
102
{ACAD_REACTORS
330
241
102
}
330
241
100
AcDbScale
 70
     0
300
1:40
140
1.0
141
40.0
290
     0
  0
SCALE
  5
24C
102
{ACAD_REACTORS
330
241
102
}
330
241
100
AcDbScale
 70
     0
300
1:50
140
1.0
141
50.0
290
     0
  0
SCALE
  5
24D
102
{ACAD_REACTORS
330
241
102
}
330
241
100
AcDbScale
 70
     0
300
1:100
140
1.0
141
100.0
290
     0
  0
SCALE
  5
24E
102
{ACAD_REACTORS
330
241
102
}
330
241
100
AcDbScale
 70
     0
300
2:1
140
2.0
141
1.0
290
     0
  0
SCALE
  5
24F
102
{ACAD_REACTORS
330
241
102
}
330
241
100
AcDbScale
 70
     0
300
4:1
140
4.0
141
1.0
290
     0
  0
SCALE
  5
250
102
{ACAD_REACTORS
330
241
102
}
330
241
100
AcDbScale
 70
     0
300
8:1
140
8.0
141
1.0
290
     0
  0
SCALE
  5
251
102
{ACAD_REACTORS
330
241
102
}
330
241
100
AcDbScale
 70
     0
300
10:1
140
10.0
141
1.0
290
     0
  0
SCALE
  5
252
102
{ACAD_REACTORS
330
241
102
}
330
241
100
AcDbScale
 70
     0
300
100:1
140
100.0
141
1.0
290
     0
  0
SCALE
  5
253
102
{ACAD_REACTORS
330
241
102
}
330
241
100
AcDbScale
 70
     0
300
1/128" = 1'-0"
140
0.0078125
141
12.0
290
     0
  0
SCALE
  5
254
102
{ACAD_REACTORS
330
241
102
}
330
241
100
AcDbScale
 70
     0
300
1/64" = 1'-0"
140
0.015625
141
12.0
290
     0
  0
SCALE
  5
255
102
{ACAD_REACTORS
330
241
102
}
330
241
100
AcDbScale
 70
     0
300
1/32" = 1'-0"
140
0.03125
141
12.0
290
     0
  0
SCALE
  5
256
102
{ACAD_REACTORS
330
241
102
}
330
241
100
AcDbScale
 70
     0
300
1/16" = 1'-0"
140
0.0625
141
12.0
290
     0
  0
SCALE
  5
257
102
{ACAD_REACTORS
330
241
102
}
330
241
100
AcDbScale
 70
     0
300
3/32" = 1'-0"
140
0.09375
141
12.0
290
     0
  0
SCALE
  5
258
102
{ACAD_REACTORS
330
241
102
}
330
241
100
AcDbScale
 70
     0
300
1/8" = 1'-0"
140
0.125
141
12.0
290
     0
  0
SCALE
  5
259
102
{ACAD_REACTORS
330
241
102
}
330
241
100
AcDbScale
 70
     0
300
3/16" = 1'-0"
140
0.1875
141
12.0
290
     0
  0
SCALE
  5
25A
102
{ACAD_REACTORS
330
241
102
}
330
241
100
AcDbScale
 70
     0
300
1/4" = 1'-0"
140
0.25
141
12.0
290
     0
  0
SCALE
  5
25B
102
{ACAD_REACTORS
330
241
102
}
330
241
100
AcDbScale
 70
     0
300
3/8" = 1'-0"
140
0.375
141
12.0
290
     0
  0
SCALE
  5
25C
102
{ACAD_REACTORS
330
241
102
}
330
241
100
AcDbScale
 70
     0
300
1/2" = 1'-0"
140
0.5
141
12.0
290
     0
  0
SCALE
  5
25D
102
{ACAD_REACTORS
330
241
102
}
330
241
100
AcDbScale
 70
     0
300
3/4" = 1'-0"
140
0.75
141
12.0
290
     0
  0
SCALE
  5
25E
102
{ACAD_REACTORS
330
241
102
}
330
241
100
AcDbScale
 70
     0
300
1" = 1'-0"
140
1.0
141
12.0
290
     0
  0
SCALE
  5
25F
102
{ACAD_REACTORS
330
241
102
}
330
241
100
AcDbScale
 70
     0
300
1-1/2" = 1'-0"
140
1.5
141
12.0
290
     0
  0
SCALE
  5
260
102
{ACAD_REACTORS
330
241
102
}
330
241
100
AcDbScale
 70
     0
300
3" = 1'-0"
140
3.0
141
12.0
290
     0
  0
SCALE
  5
261
102
{ACAD_REACTORS
330
241
102
}
330
241
100
AcDbScale
 70
     0
300
6" = 1'-0"
140
6.0
141
12.0
290
     0
  0
SCALE
  5
262
102
{ACAD_REACTORS
330
241
102
}
330
241
100
AcDbScale
 70
     0
300
1'-0" = 1'-0"
140
12.0
141
12.0
290
     0
  0
TABLESTYLE
  5
279
102
{ACAD_REACTORS
330
278
102
}
102
{ACAD_XDICTIONARY
360
402E
102
}
330
278
100
AcDbTableStyle
  3
Standard
 70
     0
 71
     0
 40
0.06
 41
0.06
280
     0
281
     0
  7
Standard
140
4.5
170
     2
 62
     0
 63
   257
283
     0
 90
        4
 91
        0
  1

274
    -2
284
     1
 64
     0
275
    -2
285
     1
 65
     0
276
    -2
286
     1
 66
     0
277
    -2
287
     1
 67
     0
278
    -2
288
     1
 68
     0
279
    -2
289
     1
 69
     0
  7
Standard
140
6.0
170
     5
 62
     0
 63
   257
283
     0
 90
        4
 91
        0
  1

274
    -2
284
     1
 64
     0
275
    -2
285
     1
 65
     0
276
    -2
286
     1
 66
     0
277
    -2
287
     1
 67
     0
278
    -2
288
     1
 68
     0
279
    -2
289
     1
 69
     0
  7
Standard
140
4.5
170
     5
 62
     0
 63
   257
283
     0
 90
        4
 91
        0
  1

274
    -2
284
     1
 64
     0
275
    -2
285
     1
 65
     0
276
    -2
286
     1
 66
     0
277
    -2
287
     1
 67
     0
278
    -2
288
     1
 68
     0
279
    -2
289
     1
 69
     0
  0
VISUALSTYLE
  5
26C
102
{ACAD_REACTORS
330
267
102
}
330
267
100
AcDbVisualStyle
  2
2dWireframe
 70
     4
 71
     0
 72
     2
 73
     0
 90
        0
 40
-0.6
 41
-30.0
 62
     5
 63
     7
421
 16777215
 74
     1
 91
        4
 64
     7
 65
   257
 75
     1
175
     1
 42
1.0
 92
        0
 66
   257
 43
1.0
 76
     1
 77
     6
 78
     2
 67
     7
 79
     5
170
     0
171
     0
290
     0
174
     0
 93
        1
 44
0.0
173
     0
291
     0
 45
0.0
  0
VISUALSTYLE
  5
26E
102
{ACAD_REACTORS
330
267
102
}
330
267
100
AcDbVisualStyle
  2
3D Hidden
 70
     6
 71
     1
 72
     2
 73
     2
 90
        0
 40
-0.6
 41
-30.0
 62
     5
 63
     7
421
 16777215
 74
     2
 91
        2
 64
     7
 65
   257
 75
     2
175
     1
 42
40.0
 92
        0
 66
   257
 43
1.0
 76
     1
 77
     6
 78
     2
 67
     7
 79
     3
170
     0
171
     0
290
     0
174
     0
 93
        1
 44
0.0
173
     0
291
     0
 45
0.0
  0
VISUALSTYLE
  5
26D
102
{ACAD_REACTORS
330
267
102
}
330
267
100
AcDbVisualStyle
  2
3dWireframe
 70
     5
 71
     0
 72
     2
 73
     0
 90
        0
 40
-0.6
 41
-30.0
 62
     5
 63
     7
421
 16777215
 74
     1
 91
        4
 64
     7
 65
   257
 75
     1
175
     1
 42
1.0
 92
        0
 66
   257
 43
1.0
 76
     1
 77
     6
 78
     2
 67
     7
 79
     5
170
     0
171
     0
290
     0
174
     0
 93
        1
 44
0.0
173
     0
291
     0
 45
0.0
  0
VISUALSTYLE
  5
26F
102
{ACAD_REACTORS
330
267
102
}
330
267
100
AcDbVisualStyle
  2
Basic
 70
     7
 71
     1
 72
     0
 73
     1
 90
        0
 40
-0.6
 41
-30.0
 62
     5
 63
     7
421
 16777215
 74
     0
 91
        4
 64
     7
 65
   257
 75
     1
175
     1
 42
1.0
 92
        8
 66
     7
 43
1.0
 76
     1
 77
     6
 78
     2
 67
     7
 79
     5
170
     0
171
     0
290
     0
174
     0
 93
        1
 44
0.0
173
     0
291
     1
 45
0.0
  0
VISUALSTYLE
  5
273
102
{ACAD_REACTORS
330
267
102
}
330
267
100
AcDbVisualStyle
  2
Brighten
 70
    12
 71
     2
 72
     2
 73
     0
 90
        0
 40
-0.6
 41
-30.0
 62
     5
 63
     7
421
 16777215
 74
     1
 91
        4
 64
     7
 65
   257
 75
     1
175
     1
 42
1.0
 92
        8
 66
     7
 43
1.0
 76
     1
 77
     6
 78
     2
 67
     7
 79
     5
170
     0
171
     0
290
     0
174
     0
 93
        1
 44
50.0
173
     0
291
     1
 45
0.0
  0
VISUALSTYLE
  5
277
102
{ACAD_REACTORS
330
267
102
}
330
267
100
AcDbVisualStyle
  2
ColorChange
 70
    16
 71
     2
 72
     2
 73
     3
 90
        0
 40
-0.6
 41
-30.0
 62
     5
 63
     8
421
  8421504
 74
     1
 91
        4
 64
     7
 65
   257
 75
     1
175
     1
 42
1.0
 92
        8
 66
     8
424
  8421504
 43
1.0
 76
     1
 77
     6
 78
     2
 67
     7
 79
     5
170
     0
171
     0
290
     0
174
     0
 93
        1
 44
0.0
173
     0
291
     1
 45
0.0
  0
VISUALSTYLE
  5
271
102
{ACAD_REACTORS
330
267
102
}
330
267
100
AcDbVisualStyle
  2
Conceptual
 70
     9
 71
     3
 72
     2
 73
     0
 90
        0
 40
-0.6
 41
-30.0
 62
     5
 63
     7
421
 16777215
 74
     2
 91
        2
 64
     7
 65
   257
 75
     1
175
     1
 42
40.0
 92
        8
 66
     7
 43
1.0
 76
     1
 77
     6
 78
     2
 67
     7
 79
     3
170
     0
171
     0
290
     0
174
     0
 93
        1
 44
0.0
173
     0
291
     0
 45
0.0
  0
VISUALSTYLE
  5
272
102
{ACAD_REACTORS
330
267
102
}
330
267
100
AcDbVisualStyle
  2
Dim
 70
    11
 71
     2
 72
     2
 73
     0
 90
        0
 40
-0.6
 41
-30.0
 62
     5
 63
     7
421
 16777215
 74
     1
 91
        4
 64
     7
 65
   257
 75
     1
175
     1
 42
1.0
 92
        8
 66
     7
 43
1.0
 76
     1
 77
     6
 78
     2
 67
     7
 79
     5
170
     0
171
     0
290
     0
174
     0
 93
        1
 44
-50.0
173
     0
291
     1
 45
0.0
  0
VISUALSTYLE
  5
10E2
102
{ACAD_REACTORS
330
267
102
}
330
267
100
AcDbVisualStyle
  2
EdgeColorOff
 70
    22
 71
     2
 72
     2
 73
     0
 90
        0
 40
0.6
 41
30.0
 62
     5
 63
     7
421
 16777215
 74
     1
 91
        4
 64
     7
 65
   257
 75
     1
175
     1
 42
1.0
 92
        8
 66
     7
 43
1.0
 76
     1
 77
     6
 78
     2
 67
     7
 79
     5
170
     0
171
     0
290
     0
174
     0
 93
        1
 44
0.0
173
     0
291
     1
 45
0.0
  0
VISUALSTYLE
  5
276
102
{ACAD_REACTORS
330
267
102
}
330
267
100
AcDbVisualStyle
  2
Facepattern
 70
    15
 71
     2
 72
     2
 73
     0
 90
        0
 40
-0.6
 41
-30.0
 62
     5
 63
     7
421
 16777215
 74
     1
 91
        4
 64
     7
 65
   257
 75
     1
175
     1
 42
1.0
 92
        8
 66
     7
 43
1.0
 76
     1
 77
     6
 78
     2
 67
     7
 79
     5
170
     0
171
     0
290
     0
174
     0
 93
        1
 44
0.0
173
     0
291
     1
 45
0.0
  0
VISUALSTYLE
  5
268
102
{ACAD_REACTORS
330
267
102
}
330
267
100
AcDbVisualStyle
  2
Flat
 70
     0
 71
     2
 72
     1
 73
     1
 90
        2
 40
-0.6
 41
30.0
 62
     5
 63
     7
421
 16777215
 74
     0
 91
        4
 64
     7
 65
   257
 75
     1
175
     1
 42
1.0
 92
        8
 66
     7
 43
1.0
 76
     1
 77
     6
 78
     2
 67
     7
 79
     5
170
     0
171
     0
290
     0
174
     0
 93
       13
 44
0.0
173
     0
291
     1
 45
0.0
  0
VISUALSTYLE
  5
269
102
{ACAD_REACTORS
330
267
102
}
330
267
100
AcDbVisualStyle
  2
FlatWithEdges
 70
     1
 71
     2
 72
     1
 73
     1
 90
        2
 40
-0.6
 41
30.0
 62
     5
 63
     7
421
 16777215
 74
     1
 91
        4
 64
     7
 65
   257
 75
     1
175
     1
 42
1.0
 92
        0
 66
   257
 43
1.0
 76
     1
 77
     6
 78
     2
 67
     7
 79
     5
170
     0
171
     0
290
     0
174
     0
 93
       13
 44
0.0
173
     0
291
     1
 45
0.0
  0
VISUALSTYLE
  5
26A
102
{ACAD_REACTORS
330
267
102
}
330
267
100
AcDbVisualStyle
  2
Gouraud
 70
     2
 71
     2
 72
     2
 73
     1
 90
        2
 40
-0.6
 41
30.0
 62
     5
 63
     7
421
 16777215
 74
     0
 91
        4
 64
     7
 65
   257
 75
     1
175
     1
 42
1.0
 92
        0
 66
     7
 43
1.0
 76
     1
 77
     6
 78
     2
 67
     7
 79
     5
170
     0
171
     0
290
     0
174
     0
 93
       13
 44
0.0
173
     0
291
     1
 45
0.0
  0
VISUALSTYLE
  5
26B
102
{ACAD_REACTORS
330
267
102
}
330
267
100
AcDbVisualStyle
  2
GouraudWithEdges
 70
     3
 71
     2
 72
     2
 73
     1
 90
        2
 40
-0.6
 41
30.0
 62
     5
 63
     7
421
 16777215
 74
     1
 91
        4
 64
     7
 65
   257
 75
     1
175
     1
 42
1.0
 92
        0
 66
   257
 43
1.0
 76
     1
 77
     6
 78
     2
 67
     7
 79
     5
170
     0
171
     0
290
     0
174
     0
 93
       13
 44
0.0
173
     0
291
     1
 45
0.0
  0
VISUALSTYLE
  5
10DF
102
{ACAD_REACTORS
330
267
102
}
330
267
100
AcDbVisualStyle
  2
Hidden
 70
     6
 71
     1
 72
     2
 73
     2
 90
        0
 40
0.6
 41
30.0
 62
     5
 63
     7
421
 16777215
 74
     2
 91
        2
 64
     7
 65
   257
 75
     2
175
     1
 42
40.0
 92
        0
 66
   257
 43
1.0
 76
     1
 77
     6
 78
     2
 67
     7
 79
     3
170
     0
171
     0
290
     0
174
     0
 93
        1
 44
0.0
173
     0
291
     0
 45
0.0
  0
VISUALSTYLE
  5
10E0
102
{ACAD_REACTORS
330
267
102
}
330
267
100
AcDbVisualStyle
  2
JitterOff
 70
    20
 71
     2
 72
     2
 73
     0
 90
        0
 40
0.6
 41
30.0
 62
     5
 63
     7
421
 16777215
 74
     1
 91
        4
 64
     7
 65
   257
 75
     1
175
     1
 42
1.0
 92
       10
 66
     7
 43
1.0
 76
     1
 77
     6
 78
     2
 67
     7
 79
     5
170
     0
171
     0
290
     0
174
     0
 93
        1
 44
0.0
173
     0
291
     1
 45
0.0
  0
VISUALSTYLE
  5
275
102
{ACAD_REACTORS
330
267
102
}
330
267
100
AcDbVisualStyle
  2
Linepattern
 70
    14
 71
     2
 72
     2
 73
     0
 90
        0
 40
-0.6
 41
-30.0
 62
     5
 63
     7
421
 16777215
 74
     1
 91
        4
 64
     7
 65
   257
 75
     7
175
     7
 42
1.0
 92
        8
 66
     7
 43
1.0
 76
     1
 77
     6
 78
     2
 67
     7
 79
     5
170
     0
171
     0
290
     0
174
     0
 93
        1
 44
0.0
173
     0
291
     1
 45
0.0
  0
VISUALSTYLE
  5
10E1
102
{ACAD_REACTORS
330
267
102
}
330
267
100
AcDbVisualStyle
  2
OverhangOff
 70
    21
 71
     2
 72
     2
 73
     0
 90
        0
 40
0.6
 41
30.0
 62
     5
 63
     7
421
 16777215
 74
     1
 91
        4
 64
     7
 65
   257
 75
     1
175
     1
 42
1.0
 92
        9
 66
     7
 43
1.0
 76
     1
 77
     6
 78
     2
 67
     7
 79
     5
170
     0
171
     0
290
     0
174
     0
 93
        1
 44
0.0
173
     0
291
     1
 45
0.0
  0
VISUALSTYLE
  5
270
102
{ACAD_REACTORS
330
267
102
}
330
267
100
AcDbVisualStyle
  2
Realistic
 70
     8
 71
     2
 72
     2
 73
     0
 90
        0
 40
-0.6
 41
-30.0
 62
     5
 63
     7
421
 16777215
 74
     1
 91
        0
 64
     7
 65
   257
 75
     1
175
     1
 42
1.0
 92
        8
 66
     8
424
  7895160
 43
1.0
 76
     1
 77
     6
 78
     2
 67
     7
 79
     5
170
     0
171
     0
290
     0
174
     0
 93
       13
 44
0.0
173
     0
291
     0
 45
0.0
  0
VISUALSTYLE
  5
10E7
102
{ACAD_REACTORS
330
267
102
}
330
267
100
AcDbVisualStyle
  2
Shaded
 70
    27
 71
     2
 72
     2
 73
     1
 90
        2
 40
0.6
 41
30.0
 62
     5
 63
     7
421
 16777215
 74
     0
 91
        4
 64
     7
 65
   257
 75
     1
175
     1
 42
1.0
 92
        8
 66
   257
 43
1.0
 76
     1
 77
     6
 78
     2
 67
     8
425
  7895160
 79
     3
170
     0
171
     0
290
     0
174
     0
 93
        5
 44
0.0
173
     0
291
     0
 45
0.0
  0
VISUALSTYLE
  5
10E6
102
{ACAD_REACTORS
330
267
102
}
330
267
100
AcDbVisualStyle
  2
Shaded with edges
 70
    26
 71
     2
 72
     2
 73
     1
 90
        2
 40
0.6
 41
30.0
 62
     5
 63
     7
421
 16777215
 74
     1
 91
       10
 64
     7
 65
   257
 75
     2
175
     1
 42
1.0
 92
        8
 66
   257
 43
1.0
 76
     1
 77
     6
 78
     2
 67
     7
 79
     3
170
     0
171
     0
290
     0
174
     0
 93
        5
 44
0.0
173
     0
291
     0
 45
0.0
  0
VISUALSTYLE
  5
10E3
102
{ACAD_REACTORS
330
267
102
}
330
267
100
AcDbVisualStyle
  2
Shades of Gray
 70
    23
 71
     2
 72
     2
 73
     3
 90
        0
 40
0.6
 41
30.0
 62
     5
 63
     7
421
 16777215
 74
     2
 91
        2
 64
     7
 65
     7
 75
     1
175
     1
 42
40.0
 92
        8
 66
     7
 43
1.0
 76
     1
 77
     6
 78
     2
 67
     7
 79
     3
170
     0
171
     0
290
     0
174
     0
 93
        1
 44
0.0
173
     0
291
     0
 45
0.0
  0
VISUALSTYLE
  5
10E4
102
{ACAD_REACTORS
330
267
102
}
330
267
100
AcDbVisualStyle
  2
Sketchy
 70
    24
 71
     1
 72
     2
 73
     2
 90
        0
 40
0.6
 41
30.0
 62
     5
 63
     7
421
 16777215
 74
     2
 91
        2
 64
     7
 65
     7
 75
     1
175
     1
 42
40.0
 92
       11
 66
     7
 43
1.0
 76
     1
 77
     6
 78
     2
 67
     7
 79
     6
170
     0
171
     0
290
     0
174
     0
 93
        1
 44
0.0
173
     0
291
     0
 45
0.0
  0
VISUALSTYLE
  5
274
102
{ACAD_REACTORS
330
267
102
}
330
267
100
AcDbVisualStyle
  2
Thicken
 70
    13
 71
     2
 72
     2
 73
     0
 90
        0
 40
-0.6
 41
-30.0
 62
     5
 63
     7
421
 16777215
 74
     1
 91
        4
 64
     7
 65
   257
 75
     1
175
     1
 42
1.0
 92
       12
 66
     7
 43
1.0
 76
     1
 77
     6
 78
     2
 67
     7
 79
     5
170
     0
171
     0
290
     0
174
     0
 93
        1
 44
0.0
173
     0
291
     1
 45
0.0
  0
VISUALSTYLE
  5
10DE
102
{ACAD_REACTORS
330
267
102
}
330
267
100
AcDbVisualStyle
  2
Wireframe
 70
     5
 71
     0
 72
     2
 73
     0
 90
        0
 40
0.6
 41
30.0
 62
     5
 63
     7
421
 16777215
 74
     1
 91
        4
 64
     7
 65
   257
 75
     1
175
     1
 42
1.0
 92
        0
 66
   257
 43
1.0
 76
     1
 77
     6
 78
     2
 67
     7
 79
     3
170
     0
171
     0
290
     0
174
     0
 93
        1
 44
0.0
173
     0
291
     0
 45
0.0
  0
VISUALSTYLE
  5
10E5
102
{ACAD_REACTORS
330
267
102
}
330
267
100
AcDbVisualStyle
  2
X-Ray
 70
    25
 71
     2
 72
     2
 73
     1
 90
        1
 40
0.5
 41
30.0
 62
     5
 63
     7
421
 16777215
 74
     1
 91
        0
 64
     7
 65
   257
 75
     1
175
     1
 42
1.0
 92
        8
 66
     7
 43
1.0
 76
     1
 77
     6
 78
     2
 67
     7
 79
     3
170
     0
171
     0
290
     0
174
     0
 93
       13
 44
0.0
173
     0
291
     0
 45
0.0
  0
DICTIONARYVAR
  5
331
102
{ACAD_REACTORS
330
330
102
}
330
330
100
DictionaryVariables
280
     0
  1
1:1
  0
DICTIONARYVAR
  5
335
102
{ACAD_REACTORS
330
330
102
}
330
330
100
DictionaryVariables
280
     0
  1
Standard
  0
DICTIONARYVAR
  5
109E
102
{ACAD_REACTORS
330
330
102
}
330
330
100
DictionaryVariables
280
     0
  1
0
  0
XRECORD
  5
1E12
102
{ACAD_REACTORS
330
2E2
102
}
330
2E2
100
AcDbXrecord
280
     1
 91
     1023
301

290
     0
302
モデル
330
14
 90
        8
 62
     7
370
    -3
331
13
  1
Color_7
330
4A
 90
        0
 62
     7
370
    -3
331
13
  1
Color_7
330
0
 90
        8
 62
     7
370
     9
331
13
  1
Color_7
330
12CE
 90
        9
 62
     7
370
    13
331
13
  1
Color_7
330
12CF
 90
        8
 62
     7
370
    20
331
13
  1
Color_7
330
142A
 90
        8
 62
     7
370
    20
331
13
  1
Color_7
330
0
 90
        8
 62
     7
370
    -3
331
13
  1
Color_7
330
0
 90
        8
 62
     7
370
    -3
331
13
  1
Color_7
330
0
 90
        8
 62
     7
370
    -3
331
13
  1
Color_7
330
0
 90
        8
 62
     7
370
    -3
331
13
  1
Color_7
330
0
 90
        8
 62
     7
370
    20
331
13
  1
Color_7
330
1D5C
 90
        8
 62
     7
370
    20
331
13
  1
Color_7
330
0
 90
        8
 62
     7
370
    13
331
13
  1
Color_7
  0
XRECORD
  5
10DB
102
{ACAD_REACTORS
330
2E2
102
}
330
2E2
100
AcDbXrecord
280
     1
 91
     1023
301

290
     0
302
TFORMLOGO
330
14
 90
        8
 62
     7
370
    -3
331
13
  1
Color_7
330
4A
 90
        0
 62
     7
370
    -3
331
13
  1
Color_7
330
0
 90
        9
 62
     7
370
     9
331
13
  1
Color_7
330
12CE
 90
        8
 62
     7
370
    13
331
13
  1
Color_7
330
12CF
 90
        8
 62
     7
370
    20
331
13
  1
Color_7
330
142A
 90
        8
 62
     7
370
    20
331
13
  1
Color_7
330
1D5C
 90
        8
 62
     7
370
    20
331
13
  1
Color_7
330
3848
 90
        9
 62
     4
370
    -3
331
13
  1
Color_4
  0
XRECORD
  5
DEA
102
{ACAD_REACTORS
330
2E2
102
}
330
2E2
100
AcDbXrecord
280
     1
 91
     1023
301

290
     0
302
テンプレート
330
14
 90
        8
 62
     7
370
    -3
331
13
  1
Color_7
330
4A
 90
        0
 62
     7
370
    -3
331
13
  1
Color_7
330
0
 90
        8
 62
     7
370
     9
331
13
  1
Color_7
330
12CE
 90
        9
 62
     7
370
    13
331
13
  1
Color_7
330
12CF
 90
        8
 62
     7
370
    20
331
13
  1
Color_7
330
142A
 90
        8
 62
     7
370
    20
331
13
  1
Color_7
330
0
 90
        8
 62
     7
370
    -3
331
13
  1
Color_7
330
0
 90
        8
 62
     7
370
    -3
331
13
  1
Color_7
330
0
 90
        8
 62
     7
370
    -3
331
13
  1
Color_7
330
0
 90
        8
 62
     7
370
    -3
331
13
  1
Color_7
  0
XRECORD
  5
C70
102
{ACAD_REACTORS
330
2E2
102
}
330
2E2
100
AcDbXrecord
280
     1
 91
     1023
301

290
     0
302
Defpoints
330
14
 90
        8
 62
     7
370
    -3
331
13
  1
Color_7
330
4A
 90
        0
 62
     7
370
    -3
331
13
  1
Color_7
330
0
 90
        8
 62
     7
370
    -3
331
13
  1
Color_7
330
0
 90
        8
 62
     7
370
    -3
331
13
  1
Color_7
330
0
 90
        8
 62
     7
370
    -3
331
13
  1
Color_7
330
0
 90
       12
 62
     7
370
    -3
331
13
  1
Color_7
330
0
 90
        8
 62
     7
370
    -3
331
13
  1
Color_7
  0
XRECORD
  5
7AA
102
{ACAD_REACTORS
330
2E2
102
}
330
2E2
100
AcDbXrecord
280
     1
 91
     1023
301

290
     0
302
レイヤー 1
330
14
 90
        9
 62
     7
370
    -3
331
13
  1
Color_7
330
4A
 90
        1
 62
     7
370
    -3
331
13
  1
Color_7
330
0
 90
        8
 62
     7
370
    -3
331
13
  1
Color_7
330
0
 90
        9
 62
     7
370
    -3
331
13
  1
Color_7
330
0
 90
        9
 62
     7
370
    -3
331
13
  1
Color_7
330
0
 90
       13
 62
     7
370
    -3
331
13
  1
Color_7
330
0
 90
        9
 62
     7
370
    -3
331
13
  1
Color_7
330
0
 90
        9
 62
     7
370
    -3
331
13
  1
Color_7
330
0
 90
        9
 62
     7
370
    -3
331
13
  1
Color_7
330
0
 90
        9
 62
     7
370
    -3
331
13
  1
Color_7
330
0
 90
        9
 62
     7
370
    -3
331
13
  1
Color_7
330
0
 90
        8
 62
     7
370
    -3
331
13
  1
Color_7
  0
DICTIONARY
  5
402E
330
279
100
AcDbDictionary
280
     1
281
     1
  3
ACAD_ROUNDTRIP_2008_TABLESTYLE_CELLSTYLEMAP
360
402F
  0
CELLSTYLEMAP
  5
402F
102
{ACAD_REACTORS
330
402E
102
}
330
402E
100
AcDbCellStyleMap
 90
        3
300
CELLSTYLE
  1
TABLEFORMAT_BEGIN
 90
        5
170
     1
 91
        0
 92
    32768
 62
   257
 93
        1
300
CONTENTFORMAT
  1
CONTENTFORMAT_BEGIN
 90
        0
 91
        0
 92
        4
 93
        0
300

 40
0.0
140
1.0
 94
        5
 62
     0
340
17
144
6.0
309
CONTENTFORMAT_END
171
     1
301
MARGIN
  1
CELLMARGIN_BEGIN
 40
0.06
 40
0.06
 40
0.06
 40
0.06
 40
0.18
 40
0.18
309
CELLMARGIN_END
 94
        6
 95
        1
302
GRIDFORMAT
  1
GRIDFORMAT_BEGIN
 90
        0
 91
        1
 62
     0
 92
       -2
340
0
 93
        0
 40
0.045
309
GRIDFORMAT_END
 95
        2
302
GRIDFORMAT
  1
GRIDFORMAT_BEGIN
 90
        0
 91
        1
 62
     0
 92
       -2
340
0
 93
        0
 40
0.045
309
GRIDFORMAT_END
 95
        4
302
GRIDFORMAT
  1
GRIDFORMAT_BEGIN
 90
        0
 91
        1
 62
     0
 92
       -2
340
0
 93
        0
 40
0.045
309
GRIDFORMAT_END
 95
        8
302
GRIDFORMAT
  1
GRIDFORMAT_BEGIN
 90
        0
 91
        1
 62
     0
 92
       -2
340
0
 93
        0
 40
0.045
309
GRIDFORMAT_END
 95
       16
302
GRIDFORMAT
  1
GRIDFORMAT_BEGIN
 90
        0
 91
        1
 62
     0
 92
       -2
340
0
 93
        0
 40
0.045
309
GRIDFORMAT_END
 95
       32
302
GRIDFORMAT
  1
GRIDFORMAT_BEGIN
 90
        0
 91
        1
 62
     0
 92
       -2
340
0
 93
        0
 40
0.045
309
GRIDFORMAT_END
309
TABLEFORMAT_END
  1
CELLSTYLE_BEGIN
 90
        1
 91
        1
300
_TITLE
309
CELLSTYLE_END
300
CELLSTYLE
  1
TABLEFORMAT_BEGIN
 90
        5
170
     1
 91
        0
 92
        0
 62
   257
 93
        1
300
CONTENTFORMAT
  1
CONTENTFORMAT_BEGIN
 90
        0
 91
        0
 92
        4
 93
        0
300

 40
0.0
140
1.0
 94
        5
 62
     0
340
17
144
4.5
309
CONTENTFORMAT_END
171
     1
301
MARGIN
  1
CELLMARGIN_BEGIN
 40
0.06
 40
0.06
 40
0.06
 40
0.06
 40
0.18
 40
0.18
309
CELLMARGIN_END
 94
        6
 95
        1
302
GRIDFORMAT
  1
GRIDFORMAT_BEGIN
 90
        0
 91
        1
 62
     0
 92
       -2
340
0
 93
        0
 40
0.045
309
GRIDFORMAT_END
 95
        2
302
GRIDFORMAT
  1
GRIDFORMAT_BEGIN
 90
        0
 91
        1
 62
     0
 92
       -2
340
0
 93
        0
 40
0.045
309
GRIDFORMAT_END
 95
        4
302
GRIDFORMAT
  1
GRIDFORMAT_BEGIN
 90
        0
 91
        1
 62
     0
 92
       -2
340
0
 93
        0
 40
0.045
309
GRIDFORMAT_END
 95
        8
302
GRIDFORMAT
  1
GRIDFORMAT_BEGIN
 90
        0
 91
        1
 62
     0
 92
       -2
340
0
 93
        0
 40
0.045
309
GRIDFORMAT_END
 95
       16
302
GRIDFORMAT
  1
GRIDFORMAT_BEGIN
 90
        0
 91
        1
 62
     0
 92
       -2
340
0
 93
        0
 40
0.045
309
GRIDFORMAT_END
 95
       32
302
GRIDFORMAT
  1
GRIDFORMAT_BEGIN
 90
        0
 91
        1
 62
     0
 92
       -2
340
0
 93
        0
 40
0.045
309
GRIDFORMAT_END
309
TABLEFORMAT_END
  1
CELLSTYLE_BEGIN
 90
        2
 91
        1
300
_HEADER
309
CELLSTYLE_END
300
CELLSTYLE
  1
TABLEFORMAT_BEGIN
 90
        5
170
     1
 91
        0
 92
        0
 62
   257
 93
        1
300
CONTENTFORMAT
  1
CONTENTFORMAT_BEGIN
 90
        0
 91
        0
 92
        4
 93
        0
300

 40
0.0
140
1.0
 94
        2
 62
     0
340
17
144
4.5
309
CONTENTFORMAT_END
171
     1
301
MARGIN
  1
CELLMARGIN_BEGIN
 40
0.06
 40
0.06
 40
0.06
 40
0.06
 40
0.18
 40
0.18
309
CELLMARGIN_END
 94
        6
 95
        1
302
GRIDFORMAT
  1
GRIDFORMAT_BEGIN
 90
        0
 91
        1
 62
     0
 92
       -2
340
0
 93
        0
 40
0.045
309
GRIDFORMAT_END
 95
        2
302
GRIDFORMAT
  1
GRIDFORMAT_BEGIN
 90
        0
 91
        1
 62
     0
 92
       -2
340
0
 93
        0
 40
0.045
309
GRIDFORMAT_END
 95
        4
302
GRIDFORMAT
  1
GRIDFORMAT_BEGIN
 90
        0
 91
        1
 62
     0
 92
       -2
340
0
 93
        0
 40
0.045
309
GRIDFORMAT_END
 95
        8
302
GRIDFORMAT
  1
GRIDFORMAT_BEGIN
 90
        0
 91
        1
 62
     0
 92
       -2
340
0
 93
        0
 40
0.045
309
GRIDFORMAT_END
 95
       16
302
GRIDFORMAT
  1
GRIDFORMAT_BEGIN
 90
        0
 91
        1
 62
     0
 92
       -2
340
0
 93
        0
 40
0.045
309
GRIDFORMAT_END
 95
       32
302
GRIDFORMAT
  1
GRIDFORMAT_BEGIN
 90
        0
 91
        1
 62
     0
 92
       -2
340
0
 93
        0
 40
0.045
309
GRIDFORMAT_END
309
TABLEFORMAT_END
  1
CELLSTYLE_BEGIN
 90
        3
 91
        2
300
_DATA
309
CELLSTYLE_END
  0
ENDSEC
  0
EOF
