  0
SECTION
  2
HEADER
  9
$ACADVER
  1
AC1021
  9
$ACADMAINTVER
 70
    25
  9
$DWGCODEPAGE
  3
ANSI_932
  9
$LASTSAVEDBY
  1
tform
  9
$INSBASE
 10
0.0
 20
0.0
 30
0.0
  9
$EXTMIN
 10
0.0
 20
0.0
 30
0.0
  9
$EXTMAX
 10
593.9999999999999
 20
420.0
 30
0.0
  9
$LIMMIN
 10
0.0
 20
0.0
  9
$LIMMAX
 10
594.0
 20
419.9999999999996
  9
$ORTHOMODE
 70
     1
  9
$REGENMODE
 70
     1
  9
$FILLMODE
 70
     1
  9
$QTEXTMODE
 70
     0
  9
$MIRRTEXT
 70
     1
  9
$LTSCALE
 40
2.0
  9
$ATTMODE
 70
     1
  9
$TEXTSIZE
 40
2.5
  9
$TRACEWID
 40
1.0
  9
$TEXTSTYLE
  7
ＭＳ ゴシック
  9
$CLAYER
  8
寸法
  9
$CELTYPE
  6
Continuous
  9
$CECOLOR
 62
   256
  9
$CELTSCALE
 40
1.0
  9
$DISPSILH
 70
     0
  9
$DIMSCALE
 40
1.0
  9
$DIMASZ
 40
1.5
  9
$DIMEXO
 40
5.0
  9
$DIMDLI
 40
0.9999999999999999
  9
$DIMRND
 40
0.0
  9
$DIMDLE
 40
0.0
  9
$DIMEXE
 40
0.0
  9
$DIMTP
 40
0.0
  9
$DIMTM
 40
0.0
  9
$DIMTXT
 40
5.0
  9
$DIMCEN
 40
0.0
  9
$DIMTSZ
 40
0.0
  9
$DIMTOL
 70
     0
  9
$DIMLIM
 70
     0
  9
$DIMTIH
 70
     0
  9
$DIMTOH
 70
     0
  9
$DIMSE1
 70
     0
  9
$DIMSE2
 70
     0
  9
$DIMTAD
 70
     1
  9
$DIMZIN
 70
    11
  9
$DIMBLK
  1
DOT
  9
$DIMASO
 70
     1
  9
$DIMSHO
 70
     1
  9
$DIMPOST
  1
<>
  9
$DIMAPOST
  1
[]
  9
$DIMALT
 70
     0
  9
$DIMALTD
 70
     1
  9
$DIMALTF
 40
1.0
  9
$DIMLFAC
 40
1.0
  9
$DIMTOFL
 70
     0
  9
$DIMTVP
 40
0.0
  9
$DIMTIX
 70
     1
  9
$DIMSOXD
 70
     0
  9
$DIMSAH
 70
     0
  9
$DIMBLK1
  1

  9
$DIMBLK2
  1

  9
$DIMSTYLE
  2
tfrom線あり
  9
$DIMCLRD
 70
     0
  9
$DIMCLRE
 70
     0
  9
$DIMCLRT
 70
     0
  9
$DIMTFAC
 40
1.0
  9
$DIMGAP
 40
2.0
  9
$DIMJUST
 70
     0
  9
$DIMSD1
 70
     0
  9
$DIMSD2
 70
     0
  9
$DIMTOLJ
 70
     1
  9
$DIMTZIN
 70
    11
  9
$DIMALTZ
 70
    11
  9
$DIMALTTZ
 70
    11
  9
$DIMUPT
 70
     0
  9
$DIMDEC
 70
     0
  9
$DIMTDEC
 70
     1
  9
$DIMALTU
 70
     2
  9
$DIMALTTD
 70
     2
  9
$DIMTXSTY
  7
ＭＳ ゴシック
  9
$DIMAUNIT
 70
     0
  9
$DIMADEC
 70
     2
  9
$DIMALTRND
 40
0.0
  9
$DIMAZIN
 70
     0
  9
$DIMDSEP
 70
    46
  9
$DIMATFIT
 70
     0
  9
$DIMFRAC
 70
     2
  9
$DIMLDRBLK
  1
DOT
  9
$DIMLUNIT
 70
     2
  9
$DIMLWD
 70
    -2
  9
$DIMLWE
 70
    -2
  9
$DIMTMOVE
 70
     0
  9
$DIMFXL
 40
1.0
  9
$DIMFXLON
 70
     0
  9
$DIMJOGANG
 40
0.7853981633974483
  9
$DIMTFILL
 70
     0
  9
$DIMTFILLCLR
 70
     0
  9
$DIMARCSYM
 70
     0
  9
$DIMLTYPE
  6

  9
$DIMLTEX1
  6

  9
$DIMLTEX2
  6

  9
$LUNITS
 70
     2
  9
$LUPREC
 70
     0
  9
$SKETCHINC
 40
0.1
  9
$FILLETRAD
 40
0.0
  9
$AUNITS
 70
     0
  9
$AUPREC
 70
     0
  9
$MENU
  1
acad
  9
$ELEVATION
 40
0.0
  9
$PELEVATION
 40
0.0
  9
$THICKNESS
 40
0.0
  9
$LIMCHECK
 70
     0
  9
$CHAMFERA
 40
0.0
  9
$CHAMFERB
 40
0.0
  9
$CHAMFERC
 40
0.0
  9
$CHAMFERD
 40
0.0
  9
$SKPOLY
 70
     0
  9
$TDCREATE
 40
2447893.375
  9
$TDUCREATE
 40
0.0
  9
$TDUPDATE
 40
2459877.485463298
  9
$TDUUPDATE
 40
2459877.110463298
  9
$TDINDWG
 40
0.0245169907
  9
$TDUSRTIMER
 40
0.0025039005
  9
$USRTIMER
 70
     1
  9
$ANGBASE
 50
0.0
  9
$ANGDIR
 70
     0
  9
$PDMODE
 70
     1
  9
$PDSIZE
 40
-2.0
  9
$PLINEWID
 40
0.0
  9
$SPLFRAME
 70
     0
  9
$SPLINETYPE
 70
     6
  9
$SPLINESEGS
 70
     8
  9
$HANDSEED
  5
7452
  9
$SURFTAB1
 70
     6
  9
$SURFTAB2
 70
     6
  9
$SURFTYPE
 70
     6
  9
$SURFU
 70
     6
  9
$SURFV
 70
     6
  9
$UCSBASE
  2

  9
$UCSNAME
  2

  9
$UCSORG
 10
0.0
 20
0.0
 30
0.0
  9
$UCSXDIR
 10
1.0
 20
0.0
 30
0.0
  9
$UCSYDIR
 10
0.0
 20
1.0
 30
0.0
  9
$UCSORTHOREF
  2

  9
$UCSORTHOVIEW
 70
     1
  9
$UCSORGTOP
 10
0.0
 20
0.0
 30
0.0
  9
$UCSORGBOTTOM
 10
0.0
 20
0.0
 30
0.0
  9
$UCSORGLEFT
 10
0.0
 20
0.0
 30
0.0
  9
$UCSORGRIGHT
 10
0.0
 20
0.0
 30
0.0
  9
$UCSORGFRONT
 10
0.0
 20
0.0
 30
0.0
  9
$UCSORGBACK
 10
0.0
 20
0.0
 30
0.0
  9
$PUCSBASE
  2

  9
$PUCSNAME
  2

  9
$PUCSORG
 10
0.0
 20
0.0
 30
0.0
  9
$PUCSXDIR
 10
1.0
 20
0.0
 30
0.0
  9
$PUCSYDIR
 10
0.0
 20
1.0
 30
0.0
  9
$PUCSORTHOREF
  2

  9
$PUCSORTHOVIEW
 70
     0
  9
$PUCSORGTOP
 10
0.0
 20
0.0
 30
0.0
  9
$PUCSORGBOTTOM
 10
0.0
 20
0.0
 30
0.0
  9
$PUCSORGLEFT
 10
0.0
 20
0.0
 30
0.0
  9
$PUCSORGRIGHT
 10
0.0
 20
0.0
 30
0.0
  9
$PUCSORGFRONT
 10
0.0
 20
0.0
 30
0.0
  9
$PUCSORGBACK
 10
0.0
 20
0.0
 30
0.0
  9
$USERI1
 70
     0
  9
$USERI2
 70
     0
  9
$USERI3
 70
     0
  9
$USERI4
 70
     0
  9
$USERI5
 70
     0
  9
$USERR1
 40
0.0
  9
$USERR2
 40
0.0
  9
$USERR3
 40
0.0
  9
$USERR4
 40
0.0
  9
$USERR5
 40
0.0
  9
$WORLDVIEW
 70
     1
  9
$SHADEDGE
 70
     3
  9
$SHADEDIF
 70
    70
  9
$TILEMODE
 70
     1
  9
$MAXACTVP
 70
    64
  9
$PINSBASE
 10
0.0
 20
0.0
 30
0.0
  9
$PLIMCHECK
 70
     0
  9
$PEXTMIN
 10
0.0
 20
0.0
 30
0.0
  9
$PEXTMAX
 10
0.0
 20
0.0
 30
0.0
  9
$PLIMMIN
 10
-7.5
 20
-20.0
  9
$PLIMMAX
 10
412.5
 20
277.0
  9
$UNITMODE
 70
     0
  9
$VISRETAIN
 70
     0
  9
$PLINEGEN
 70
     1
  9
$PSLTSCALE
 70
     1
  9
$TREEDEPTH
 70
  3020
  9
$CMLSTYLE
  2
Standard
  9
$CMLJUST
 70
     0
  9
$CMLSCALE
 40
1.0
  9
$PROXYGRAPHICS
 70
     0
  9
$MEASUREMENT
 70
     1
  9
$CELWEIGHT
370
    -1
  9
$ENDCAPS
280
     0
  9
$JOINSTYLE
280
     0
  9
$LWDISPLAY
290
     1
  9
$INSUNITS
 70
     4
  9
$HYPERLINKBASE
  1

  9
$STYLESHEET
  1

  9
$XEDIT
290
     1
  9
$CEPSNTYPE
380
     0
  9
$PSTYLEMODE
290
     1
  9
$FINGERPRINTGUID
  2

  9
$VERSIONGUID
  2

  9
$EXTNAMES
290
     1
  9
$PSVPSCALE
 40
0.0
  9
$OLESTARTUP
290
     0
  9
$SORTENTS
280
   127
  9
$INDEXCTL
280
     0
  9
$HIDETEXT
280
     1
  9
$XCLIPFRAME
290
     0
  9
$HALOGAP
280
     0
  9
$OBSCOLOR
 70
   257
  9
$OBSLTYPE
280
     0
  9
$INTERSECTIONDISPLAY
280
     0
  9
$INTERSECTIONCOLOR
 70
   257
  9
$DIMASSOC
280
     2
  9
$PROJECTNAME
  1

  9
$CAMERADISPLAY
290
     0
  9
$LENSLENGTH
 40
50.0
  9
$CAMERAHEIGHT
 40
0.0
  9
$STEPSPERSEC
 40
2.0
  9
$STEPSIZE
 40
6.0
  9
$3DDWFPREC
 40
2.0
  9
$PSOLWIDTH
 40
0.25
  9
$PSOLHEIGHT
 40
4.0
  9
$LOFTANG1
 40
1.570796326794897
  9
$LOFTANG2
 40
1.570796326794897
  9
$LOFTMAG1
 40
0.0
  9
$LOFTMAG2
 40
0.0
  9
$LOFTPARAM
 70
     7
  9
$LOFTNORMALS
280
     1
  9
$LATITUDE
 40
37.795
  9
$LONGITUDE
 40
-122.394
  9
$NORTHDIRECTION
 40
0.0
  9
$TIMEZONE
 70
 -8000
  9
$LIGHTGLYPHDISPLAY
280
     1
  9
$TILEMODELIGHTSYNCH
280
     1
  9
$SOLIDHIST
280
     1
  9
$SHOWHIST
280
     1
  9
$DWFFRAME
280
     2
  9
$DGNFRAME
280
     2
  9
$REALWORLDSCALE
290
     1
  9
$INTERFERECOLOR
 62
   256
  9
$CSHADOW
280
     0
  9
$SHADOWPLANELOCATION
 40
0.0
  0
ENDSEC
  0
SECTION
  2
CLASSES
  0
CLASS
  1
LWPOLYLINE
  2
AcDbPolyline
  3
ObjectDBX Classes
 90
        0
 91
        1
280
     0
281
     1
  0
CLASS
  1
IMAGE
  2
AcDbRasterImage
  3
ISM
 90
      127
 91
        4
280
     0
281
     1
  0
CLASS
  1
OLE2FRAME
  2
AcDbOle2Frame
  3
ObjectDBX Classes
 90
        0
 91
        1
280
     0
281
     1
  0
CLASS
  1
HATCH
  2
AcDbHatch
  3
ObjectDBX Classes
 90
        0
 91
        1
280
     0
281
     1
  0
CLASS
  1
DICTIONARYVAR
  2
AcDbDictionaryVar
  3
ObjectDBX Classes
 90
        0
 91
        3
280
     0
281
     0
  0
CLASS
  1
RASTERVARIABLES
  2
AcDbRasterVariables
  3
ISM
 90
        0
 91
        3
280
     0
281
     0
  0
CLASS
  1
IMAGEDEF
  2
AcDbRasterImageDef
  3
ISM
 90
        0
 91
        3
280
     0
281
     0
  0
CLASS
  1
IMAGEDEF_REACTOR
  2
AcDbRasterImageDefReactor
  3
ISM
 90
        1
 91
        3
280
     0
281
     0
  0
CLASS
  1
IDBUFFER
  2
AcDbIdBuffer
  3
ObjectDBX Classes
 90
        0
 91
        3
280
     0
281
     0
  0
CLASS
  1
SPATIAL_FILTER
  2
AcDbSpatialFilter
  3
ObjectDBX Classes
 90
        0
 91
        3
280
     0
281
     0
  0
CLASS
  1
XRECORD
  2
AcDbXrecord
  3
ObjectDBX Classes
 90
        0
 91
        1
280
     0
281
     0
  0
CLASS
  1
SORTENTSTABLE
  2
AcDbSortentsTable
  3
ObjectDBX Classes
 90
        0
 91
        3
280
     0
281
     0
  0
CLASS
  1
LAYER_INDEX
  2
AcDbLayerIndex
  3
ObjectDBX Classes
 90
        0
 91
        3
280
     0
281
     0
  0
CLASS
  1
SPATIAL_INDEX
  2
AcDbSpatialIndex
  3
AutoCAD 2000
 90
        0
 91
        3
280
     0
281
     0
  0
CLASS
  1
OBJECT_PTR
  2
CAseDLPNTableRecord
  3
ASE-LPNTableRecord
 90
        1
 91
        3
280
     0
281
     0
  0
CLASS
  1
LAYOUT
  2
AcDbLayout
  3
ObjectDBX Classes
 90
        0
 91
        1
280
     0
281
     0
  0
CLASS
  1
PLOTSETTINGS
  2
AcDbPlotSettings
  3
ObjectDBX Classes
 90
        0
 91
        3
280
     0
281
     0
  0
CLASS
  1
ACDBDICTIONARYWDFLT
  2
AcDbDictionaryWithDefault
  3
ObjectDBX Classes
 90
        0
 91
        3
280
     0
281
     0
  0
CLASS
  1
ACDBPLACEHOLDER
  2
AcDbPlaceHolder
  3
ObjectDBX Classes
 90
        0
 91
        1
280
     0
281
     0
  0
CLASS
  1
SCALE
  2
AcDbScale
  3
ObjectDBX Classes
 90
     1153
 91
        3
280
     0
281
     0
  0
CLASS
  1
MATERIAL
  2
AcDbMaterial
  3
ObjectDBX Classes
 90
     1153
 91
        3
280
     0
281
     0
  0
CLASS
  1
VISUALSTYLE
  2
AcDbVisualStyle
  3
ObjectDBX Classes
 90
     4095
 91
        3
280
     0
281
     0
  0
CLASS
  1
TABLESTYLE
  2
AcDbTableStyle
  3
ObjectDBX Classes
 90
     4095
 91
        3
280
     0
281
     0
  0
CLASS
  1
DIMASSOC
  2
AcDbDimAssoc
  3
"AcDbDimAssoc|Product Desc:     AcDim ARX App For Dimension|Company:          Autodesk, Inc.|WEB Address:      www.autodesk.com"
 90
        0
 91
        3
280
     0
281
     0
  0
CLASS
  1
CELLSTYLEMAP
  2
AcDbCellStyleMap
  3
ObjectDBX Classes
 90
     1152
 91
        3
280
     0
281
     0
  0
CLASS
  1
SUN
  2
AcDbSun
  3
SCENEOE
 90
     1153
 91
        3
280
     0
281
     0
  0
CLASS
  1
MLEADERSTYLE
  2
AcDbMLeaderStyle
  3
ACDB_MLEADERSTYLE_CLASS
 90
     4095
 91
        3
280
     0
281
     0
  0
CLASS
  1
FIELD
  2
AcDbField
  3
ObjectDBX Classes
 90
     1152
 91
        3
280
     0
281
     0
  0
CLASS
  1
FIELDLIST
  2
AcDbFieldList
  3
ObjectDBX Classes
 90
     1152
 91
        3
280
     0
281
     0
  0
ENDSEC
  0
SECTION
  2
TABLES
  0
TABLE
  2
VPORT
  5
7
330
0
100
AcDbSymbolTable
 70
     1
  0
VPORT
  5
15
330
7
100
AcDbSymbolTableRecord
100
AcDbViewportTableRecord
  2
*ACTIVE
 70
     0
 10
0.0
 20
0.0
 11
1.0
 21
1.0
 12
296.9999999999999
 22
0.0000000000001137
 13
0.0
 23
0.0
 14
1.0
 24
1.0
 15
0.0
 25
0.0
 16
0.0
 26
0.0
 36
1.0
 17
0.0
 27
209.9999999999999
 37
0.0
 40
428.4
 41
2.120713305898491
 42
50.0
 43
0.0
 44
0.0
 50
0.0
 51
0.0
 71
    16
 72
  2000
 73
     1
 74
     1
 75
     0
 76
     0
 77
     0
 78
     0
281
     0
 65
     1
110
0.0
120
0.0
130
0.0
111
1.0
121
0.0
131
0.0
112
0.0
122
1.0
132
0.0
 79
     1
146
0.0
348
26C
 60
     3
 61
     5
292
     1
282
     1
141
0.0
142
0.0
 63
   256
361
F1A
  0
ENDTAB
  0
TABLE
  2
LTYPE
  5
4
330
0
100
AcDbSymbolTable
 70
     3
  0
LTYPE
  5
11
330
4
100
AcDbSymbolTableRecord
100
AcDbLinetypeTableRecord
  2
ByBlock
 70
     0
  3

 72
    65
 73
     0
 40
0.0
  0
LTYPE
  5
12
330
4
100
AcDbSymbolTableRecord
100
AcDbLinetypeTableRecord
  2
ByLayer
 70
     0
  3
Solid line
 72
    65
 73
     0
 40
0.0
  0
LTYPE
  5
13
330
4
100
AcDbSymbolTableRecord
100
AcDbLinetypeTableRecord
  2
Continuous
 70
     0
  3
Solid line
 72
    65
 73
     0
 40
0.0
  0
LTYPE
  5
529A
330
4
100
AcDbSymbolTableRecord
100
AcDbLinetypeTableRecord
  2
CENTER
 70
     0
  3
----------  --  ----------  --  
 72
    65
 73
     4
 40
20.0
 49
12.5
 74
     0
 49
-2.5
 74
     0
 49
2.5
 74
     0
 49
-2.5
 74
     0
  0
LTYPE
  5
529B
330
4
100
AcDbSymbolTableRecord
100
AcDbLinetypeTableRecord
  2
HIDDEN
 70
     0
  3
Hidden _ _ _ _ _ _ _ _ _ _ _ _ _ _ _ _ _ _ _ _ 
 72
    65
 73
     2
 40
9.524999999999999
 49
6.35
 74
     0
 49
-3.175
 74
     0
  0
ENDTAB
  0
TABLE
  2
LAYER
  5
2
102
{ACAD_XDICTIONARY
360
2E1
102
}
330
0
100
AcDbSymbolTable
 70
    10
  0
LAYER
  5
14
330
2
100
AcDbSymbolTableRecord
100
AcDbLayerTableRecord
  2
0
 70
     0
 62
     7
  6
Continuous
370
    -3
390
1D
347
266
  0
LAYER
  5
4A
330
2
100
AcDbSymbolTableRecord
100
AcDbLayerTableRecord
  2
Defpoints
 70
     0
 62
    -7
  6
Continuous
290
     0
370
    -3
390
1D
347
266
  0
LAYER
  5
4D
330
2
100
AcDbSymbolTableRecord
100
AcDbLayerTableRecord
  2
MODEL
 70
     0
 62
     7
  6
Continuous
370
    20
390
1D
347
266
  0
LAYER
  5
667
330
2
100
AcDbSymbolTableRecord
100
AcDbLayerTableRecord
  2
レイヤー 1
 70
     0
 62
     7
  6
Continuous
370
    -3
390
1D
347
266
  0
LAYER
  5
528F
330
2
100
AcDbSymbolTableRecord
100
AcDbLayerTableRecord
  2
寸法
 70
     0
 62
     7
  6
Continuous
370
    13
390
1D
347
266
1001
AcAecLayerStandard
1000

1000

  0
LAYER
  5
5293
330
2
100
AcDbSymbolTableRecord
100
AcDbLayerTableRecord
  2
テンプレート
 70
     0
 62
     7
  6
Continuous
370
    20
390
1D
347
266
1001
AcAecLayerStandard
1000

1000

  0
LAYER
  5
5294
330
2
100
AcDbSymbolTableRecord
100
AcDbLayerTableRecord
  2
TFORMLOGO
 70
     0
 62
     7
  6
Continuous
370
    20
390
1D
347
266
  0
LAYER
  5
5295
330
2
100
AcDbSymbolTableRecord
100
AcDbLayerTableRecord
  2
PRINT BORDER
 70
     0
 62
     4
  6
Continuous
290
     0
370
    -3
390
1D
347
266
1001
AcAecLayerStandard
1000

1000

  0
LAYER
  5
5298
330
2
100
AcDbSymbolTableRecord
100
AcDbLayerTableRecord
  2
CutoutUnderlay
 70
     0
 62
   254
  6
Continuous
370
    20
390
1D
347
266
1001
AcAecLayerStandard
1000

1000

  0
LAYER
  5
5299
330
2
100
AcDbSymbolTableRecord
100
AcDbLayerTableRecord
  2
CutoutOverlay
 70
     0
 62
     7
  6
Continuous
370
    20
390
1D
347
266
1001
AcAecLayerStandard
1000

1000

  0
ENDTAB
  0
TABLE
  2
STYLE
  5
3
330
0
100
AcDbSymbolTable
 70
     2
  0
STYLE
  5
17
330
3
100
AcDbSymbolTableRecord
100
AcDbTextStyleTableRecord
  2
Standard
 70
     0
 40
0.0
 41
1.0
 50
0.0
 71
     0
 42
2.5
  3
txt
  4
BIGFONT.SHX
  0
STYLE
  5
39
330
3
100
AcDbSymbolTableRecord
100
AcDbTextStyleTableRecord
  2
ＭＳ ゴシック
 70
     0
 40
0.0
 41
1.0
 50
0.0
 71
     0
 42
2.5
  3
msgothic.ttc
  4
ＭＳ ゴシック
1001
ACAD
1000
ＭＳ ゴシック
1071
        0
  0
ENDTAB
  0
TABLE
  2
VIEW
  5
5
330
0
100
AcDbSymbolTable
 70
     0
  0
ENDTAB
  0
TABLE
  2
UCS
  5
6
330
0
100
AcDbSymbolTable
 70
     0
  0
ENDTAB
  0
TABLE
  2
APPID
  5
8
330
0
100
AcDbSymbolTable
 70
     6
  0
APPID
  5
16
330
8
100
AcDbSymbolTableRecord
100
AcDbRegAppTableRecord
  2
ACAD
 70
     0
  0
APPID
  5
7AC
330
8
100
AcDbSymbolTableRecord
100
AcDbRegAppTableRecord
  2
AcAecLayerStandard
 70
     0
  0
APPID
  5
5992
330
8
100
AcDbSymbolTableRecord
100
AcDbRegAppTableRecord
  2
ACAD_MLEADERVER
 70
     0
  0
APPID
  5
6C9A
330
8
100
AcDbSymbolTableRecord
100
AcDbRegAppTableRecord
  2
PLOTTRANSPARENCY
 70
     0
  0
APPID
  5
6D11
330
8
100
AcDbSymbolTableRecord
100
AcDbRegAppTableRecord
  2
IDW_INSPOINT
 70
     0
  0
APPID
  5
7025
330
8
100
AcDbSymbolTableRecord
100
AcDbRegAppTableRecord
  2
PE_DIMMEASUREMENT
 70
     0
  0
ENDTAB
  0
TABLE
  2
DIMSTYLE
  5
9
330
0
100
AcDbSymbolTable
 70
     1
100
AcDbDimStyleTable
  0
DIMSTYLE
105
57
102
{ACAD_REACTORS
330
5545
330
704E
330
714C
330
714F
330
7150
330
7358
330
736A
330
7379
330
7388
330
7397
330
73D2
330
73E0
330
73EF
330
73FE
330
740E
102
}
330
9
100
AcDbSymbolTableRecord
100
AcDbDimStyleTableRecord
  2
tfrom線あり
 70
     0
  3
<>
  4
[]
 41
1.5
 42
5.0
 43
0.9999999999999999
 44
0.0
 73
     0
 74
     0
 77
     1
 78
    11
140
5.0
141
0.0
143
1.0
147
2.0
171
     1
174
     1
178
     0
179
     2
271
     0
272
     1
276
     2
284
    11
285
    11
286
    11
289
     0
340
39
341
4E
342
4E
  0
ENDTAB
  0
TABLE
  2
BLOCK_RECORD
  5
1
330
0
100
AcDbSymbolTable
 70
    19
  0
BLOCK_RECORD
  5
A
102
{ACAD_XDICTIONARY
360
59FD
102
}
330
1
100
AcDbSymbolTableRecord
100
AcDbBlockTableRecord
  2
*MODEL_SPACE
340
20
 70
     0
280
     1
281
     0
  0
BLOCK_RECORD
  5
B
330
1
100
AcDbSymbolTableRecord
100
AcDbBlockTableRecord
  2
*PAPER_SPACE
340
21
 70
     0
280
     1
281
     0
  0
BLOCK_RECORD
  5
4E
330
1
100
AcDbSymbolTableRecord
100
AcDbBlockTableRecord
  2
_DOT
340
0
102
{BLKREFS
331
6E1E
331
6E1F
331
7157
331
7158
331
7163
331
7164
331
7361
331
7362
331
7373
331
7374
331
7382
331
7383
331
7391
331
7392
331
73A0
331
73A1
331
73D9
331
73DA
331
73E9
331
73EA
331
73F8
331
73F9
331
0
331
0
331
7417
331
7418
102
}
 70
     0
280
     1
281
     0
  0
BLOCK_RECORD
  5
690
330
1
100
AcDbSymbolTableRecord
100
AcDbBlockTableRecord
  2
block 3
340
0
102
{BLKREFS
331
52DC
102
}
 70
     0
280
     1
281
     0
  0
BLOCK_RECORD
  5
693
330
1
100
AcDbSymbolTableRecord
100
AcDbBlockTableRecord
  2
block 4
340
0
102
{BLKREFS
331
692
102
}
 70
     0
280
     1
281
     0
  0
BLOCK_RECORD
  5
6A2
330
1
100
AcDbSymbolTableRecord
100
AcDbBlockTableRecord
  2
block 5
340
0
102
{BLKREFS
331
6A1
102
}
 70
     0
280
     1
281
     0
  0
BLOCK_RECORD
  5
52D7
330
1
100
AcDbSymbolTableRecord
100
AcDbBlockTableRecord
  2
名称未設定-1
340
0
102
{BLKREFS
331
54B3
102
}
 70
     1
280
     1
281
     0
  0
BLOCK_RECORD
  5
52DA
330
1
100
AcDbSymbolTableRecord
100
AcDbBlockTableRecord
  2
block 2
340
0
102
{BLKREFS
331
52D9
102
}
 70
     0
280
     1
281
     0
  0
BLOCK_RECORD
  5
6E16
330
1
100
AcDbSymbolTableRecord
100
AcDbBlockTableRecord
  2
*D6
340
0
 70
     0
280
     1
281
     0
  0
BLOCK_RECORD
  5
7151
330
1
100
AcDbSymbolTableRecord
100
AcDbBlockTableRecord
  2
*D7
340
0
 70
     0
280
     1
281
     0
  0
BLOCK_RECORD
  5
715D
330
1
100
AcDbSymbolTableRecord
100
AcDbBlockTableRecord
  2
*D8
340
0
 70
     0
280
     1
281
     0
  0
BLOCK_RECORD
  5
735B
330
1
100
AcDbSymbolTableRecord
100
AcDbBlockTableRecord
  2
*D9
340
0
 70
     0
280
     1
281
     0
  0
BLOCK_RECORD
  5
736D
330
1
100
AcDbSymbolTableRecord
100
AcDbBlockTableRecord
  2
*D10
340
0
 70
     0
280
     1
281
     0
  0
BLOCK_RECORD
  5
737C
330
1
100
AcDbSymbolTableRecord
100
AcDbBlockTableRecord
  2
*D11
340
0
 70
     0
280
     1
281
     0
  0
BLOCK_RECORD
  5
738B
330
1
100
AcDbSymbolTableRecord
100
AcDbBlockTableRecord
  2
*D12
340
0
 70
     0
280
     1
281
     0
  0
BLOCK_RECORD
  5
739A
330
1
100
AcDbSymbolTableRecord
100
AcDbBlockTableRecord
  2
*D13
340
0
 70
     0
280
     1
281
     0
  0
BLOCK_RECORD
  5
73D3
330
1
100
AcDbSymbolTableRecord
100
AcDbBlockTableRecord
  2
*D14
340
0
 70
     0
280
     1
281
     0
  0
BLOCK_RECORD
  5
73E3
330
1
100
AcDbSymbolTableRecord
100
AcDbBlockTableRecord
  2
*D15
340
0
 70
     0
280
     1
281
     0
  0
BLOCK_RECORD
  5
73F2
330
1
100
AcDbSymbolTableRecord
100
AcDbBlockTableRecord
  2
*D16
340
0
 70
     0
280
     1
281
     0
  0
BLOCK_RECORD
  5
7401
330
1
100
AcDbSymbolTableRecord
100
AcDbBlockTableRecord
  2
*D17
340
0
 70
     0
280
     1
281
     0
  0
BLOCK_RECORD
  5
7411
330
1
100
AcDbSymbolTableRecord
100
AcDbBlockTableRecord
  2
*D18
340
0
 70
     0
280
     1
281
     0
  0
ENDTAB
  0
ENDSEC
  0
SECTION
  2
BLOCKS
  0
BLOCK
  5
D
330
A
100
AcDbEntity
  8
0
390
1D
100
AcDbBlockBegin
  2
*MODEL_SPACE
 70
     0
 10
0.0
 20
0.0
 30
0.0
  3
*MODEL_SPACE
  1
*MODEL_SPACE
  0
ENDBLK
  5
E
330
A
100
AcDbEntity
  8
0
390
1D
100
AcDbBlockEnd
  0
BLOCK
  5
F
330
B
100
AcDbEntity
 67
     1
  8
0
390
1D
100
AcDbBlockBegin
  2
*PAPER_SPACE
 70
     0
 10
0.0
 20
0.0
 30
0.0
  3
*PAPER_SPACE
  1
*PAPER_SPACE
  0
ENDBLK
  5
10
330
B
100
AcDbEntity
 67
     1
  8
0
390
1D
100
AcDbBlockEnd
  0
BLOCK
  5
5282
330
4E
100
AcDbEntity
  8
0
390
1D
100
AcDbBlockBegin
  2
_DOT
 70
     0
 10
0.0
 20
0.0
 30
0.0
  3
_DOT
  1
_DOT
  0
POLYLINE
  5
5284
330
4E
100
AcDbEntity
  8
0
  6
ByBlock
 62
     0
370
    -2
390
1D
100
AcDb2dPolyline
 66
     1
 10
0.0
 20
0.0
 30
0.0
 70
     1
 40
0.5
 41
0.5
  0
VERTEX
  5
5285
330
5284
100
AcDbEntity
  8
0
  6
ByBlock
 62
     0
370
    -2
390
1D
100
AcDbVertex
100
AcDb2dVertex
 10
-0.25
 20
0.0
 30
0.0
 42
1.0
  0
VERTEX
  5
5286
330
5284
100
AcDbEntity
  8
0
  6
ByBlock
 62
     0
370
    -2
390
1D
100
AcDbVertex
100
AcDb2dVertex
 10
0.25
 20
0.0
 30
0.0
 42
1.0
  0
SEQEND
  5
5287
330
5284
100
AcDbEntity
  8
0
390
1D
  0
LINE
  5
5288
330
4E
100
AcDbEntity
  8
0
  6
ByBlock
 62
     0
370
    -2
390
1D
100
AcDbLine
 10
-0.5
 20
0.0
 30
0.0
 11
-1.0
 21
0.0
 31
0.0
  0
ENDBLK
  5
5289
330
4E
100
AcDbEntity
  8
0
390
1D
100
AcDbBlockEnd
  0
BLOCK
  5
691
330
690
100
AcDbEntity
  8
0
100
AcDbBlockBegin
  2
block 3
 70
     0
 10
0.0
 20
0.0
 30
0.0
  3
block 3
  1
block 3
  0
INSERT
  5
692
330
690
100
AcDbEntity
  8
レイヤー 1
100
AcDbBlockReference
  2
block 4
 10
0.0
 20
0.0
 30
0.0
  0
ENDBLK
  5
6AF
330
690
100
AcDbEntity
  8
0
100
AcDbBlockEnd
  0
BLOCK
  5
694
330
693
100
AcDbEntity
  8
0
100
AcDbBlockBegin
  2
block 4
 70
     0
 10
0.0
 20
0.0
 30
0.0
  3
block 4
  1
block 4
  0
POLYLINE
  5
695
330
693
100
AcDbEntity
  8
レイヤー 1
370
     0
100
AcDb2dPolyline
 66
     1
 10
0.0
 20
0.0
 30
0.0
  0
VERTEX
  5
696
330
695
100
AcDbEntity
  8
レイヤー 1
370
     0
100
AcDbVertex
100
AcDb2dVertex
 10
83.79545727667795
 20
167.6444858234922
 30
0.0
  0
VERTEX
  5
697
330
695
100
AcDbEntity
  8
レイヤー 1
370
     0
100
AcDbVertex
100
AcDb2dVertex
 10
83.79545727667795
 20
159.7968976406313
 30
0.0
  0
VERTEX
  5
698
330
695
100
AcDbEntity
  8
レイヤー 1
370
     0
100
AcDbVertex
100
AcDb2dVertex
 10
71.3631329975216
 20
159.7968976406313
 30
0.0
  0
VERTEX
  5
699
330
695
100
AcDbEntity
  8
レイヤー 1
370
     0
100
AcDbVertex
100
AcDb2dVertex
 10
71.3631329975216
 20
127.8027915271048
 30
0.0
  0
VERTEX
  5
69A
330
695
100
AcDbEntity
  8
レイヤー 1
370
     0
100
AcDbVertex
100
AcDb2dVertex
 10
60.43011526263018
 20
127.8027915271048
 30
0.0
  0
VERTEX
  5
69B
330
695
100
AcDbEntity
  8
レイヤー 1
370
     0
100
AcDbVertex
100
AcDb2dVertex
 10
60.43011526263018
 20
159.7968976406313
 30
0.0
  0
VERTEX
  5
69C
330
695
100
AcDbEntity
  8
レイヤー 1
370
     0
100
AcDbVertex
100
AcDb2dVertex
 10
48.21793273020759
 20
159.7968976406313
 30
0.0
  0
VERTEX
  5
69D
330
695
100
AcDbEntity
  8
レイヤー 1
370
     0
100
AcDbVertex
100
AcDb2dVertex
 10
48.21793273020759
 20
167.6444858234922
 30
0.0
  0
VERTEX
  5
69E
330
695
100
AcDbEntity
  8
レイヤー 1
370
     0
100
AcDbVertex
100
AcDb2dVertex
 10
83.79545727667795
 20
167.6444858234922
 30
0.0
  0
SEQEND
  5
69F
330
695
100
AcDbEntity
  8
レイヤー 1
370
     0
  0
HATCH
  5
6A0
330
693
100
AcDbEntity
  8
レイヤー 1
 62
   250
420
  2234388
100
AcDbHatch
 10
0.0
 20
0.0
 30
0.0
210
0.0
220
0.0
230
1.0
  2
SOLID
 70
     1
 71
     0
 91
        1
 92
        1
 93
        8
 72
     1
 10
83.79545727667795
 20
167.6444858234922
 11
83.79545727667795
 21
159.7968976406313
 72
     1
 10
83.79545727667795
 20
159.7968976406313
 11
71.3631329975216
 21
159.7968976406313
 72
     1
 10
71.3631329975216
 20
159.7968976406313
 11
71.3631329975216
 21
127.8027915271048
 72
     1
 10
71.3631329975216
 20
127.8027915271048
 11
60.43011526263018
 21
127.8027915271048
 72
     1
 10
60.43011526263018
 20
127.8027915271048
 11
60.43011526263018
 21
159.7968976406313
 72
     1
 10
60.43011526263018
 20
159.7968976406313
 11
48.21793273020759
 21
159.7968976406313
 72
     1
 10
48.21793273020759
 20
159.7968976406313
 11
48.21793273020759
 21
167.6444858234922
 72
     1
 10
48.21793273020759
 20
167.6444858234922
 11
83.79545727667795
 21
167.6444858234922
 97
        0
 75
     2
 76
     1
 98
        0
  0
INSERT
  5
6A1
330
693
100
AcDbEntity
  8
レイヤー 1
100
AcDbBlockReference
  2
block 5
 10
0.0
 20
0.0
 30
0.0
  0
ENDBLK
  5
6AE
330
693
100
AcDbEntity
  8
0
100
AcDbBlockEnd
  0
BLOCK
  5
6A3
330
6A2
100
AcDbEntity
  8
0
100
AcDbBlockBegin
  2
block 5
 70
     0
 10
0.0
 20
0.0
 30
0.0
  3
block 5
  1
block 5
  0
SPLINE
  5
6A4
330
6A2
100
AcDbEntity
  8
レイヤー 1
370
     0
100
AcDbSpline
210
0.0
220
0.0
230
1.0
 70
    11
 71
     3
 72
    56
 73
    52
 74
     0
 42
0.000000001
 43
0.0000000001
 40
0.0
 40
0.0
 40
0.0
 40
0.0
 40
1.0
 40
1.0
 40
1.0
 40
2.0
 40
2.0
 40
2.0
 40
3.0
 40
3.0
 40
3.0
 40
4.0
 40
4.0
 40
4.0
 40
5.0
 40
5.0
 40
5.0
 40
6.0
 40
6.0
 40
6.0
 40
7.0
 40
7.0
 40
7.0
 40
8.0
 40
8.0
 40
8.0
 40
9.0
 40
9.0
 40
9.0
 40
10.0
 40
10.0
 40
10.0
 40
11.0
 40
11.0
 40
11.0
 40
12.0
 40
12.0
 40
12.0
 40
13.0
 40
13.0
 40
13.0
 40
14.0
 40
14.0
 40
14.0
 40
15.0
 40
15.0
 40
15.0
 40
16.0
 40
16.0
 40
16.0
 40
17.0
 40
17.0
 40
17.0
 40
17.0
 10
100.4504378777679
 20
166.69157178364
 30
0.0
 10
101.9848844191641
 20
167.1313385124438
 30
0.0
 10
103.9637485713373
 20
166.7649523658846
 30
0.0
 10
103.9637485713373
 20
166.7649523658846
 30
0.0
 10
103.9637485713373
 20
166.7649523658846
 30
0.0
 10
103.0132460999156
 20
163.911205638077
 30
0.0
 10
103.0132460999156
 20
163.911205638077
 30
0.0
 10
103.0132460999156
 20
163.911205638077
 30
0.0
 10
101.0674548862189
 20
164.3601018759394
 30
0.0
 10
99.57090442016032
 20
163.1805004036133
 30
0.0
 10
98.40508333886608
 20
162.258247733807
 30
0.0
 10
97.65301849830304
 20
159.804132345923
 30
0.0
 10
97.3598406791005
 20
158.8699940888517
 30
0.0
 10
97.3598406791005
 20
158.8699940888517
 30
0.0
 10
96.07137411762282
 20
154.9119212747295
 30
0.0
 10
96.07137411762282
 20
154.9119212747295
 30
0.0
 10
96.07137411762282
 20
154.9119212747295
 30
0.0
 10
100.3012651448482
 20
154.9119212747295
 30
0.0
 10
100.3012651448482
 20
154.9119212747295
 30
0.0
 10
100.3012651448482
 20
154.9119212747295
 30
0.0
 10
99.64152892419852
 20
152.4199098115079
 30
0.0
 10
99.64152892419852
 20
152.4199098115079
 30
0.0
 10
99.64152892419852
 20
152.4199098115079
 30
0.0
 10
95.38097652692731
 20
152.4199098115079
 30
0.0
 10
95.38097652692731
 20
152.4199098115079
 30
0.0
 10
95.38097652692731
 20
152.4199098115079
 30
0.0
 10
87.75353009080013
 20
127.8027915271048
 30
0.0
 10
87.75353009080013
 20
127.8027915271048
 30
0.0
 10
87.75353009080013
 20
127.8027915271048
 30
0.0
 10
85.36538832498108
 20
127.8027915271048
 30
0.0
 10
85.36538832498108
 20
127.8027915271048
 30
0.0
 10
85.36538832498108
 20
127.8027915271048
 30
0.0
 10
93.00006946639998
 20
152.4199098115079
 30
0.0
 10
93.00006946639998
 20
152.4199098115079
 30
0.0
 10
93.00006946639998
 20
152.4199098115079
 30
0.0
 10
89.85297266450198
 20
152.4199098115079
 30
0.0
 10
89.85297266450198
 20
152.4199098115079
 30
0.0
 10
89.85297266450198
 20
152.4199098115079
 30
0.0
 10
90.51270888515164
 20
154.9119212747295
 30
0.0
 10
90.51270888515164
 20
154.9119212747295
 30
0.0
 10
90.51270888515164
 20
154.9119212747295
 30
0.0
 10
93.6904670570955
 20
154.9119212747295
 30
0.0
 10
93.6904670570955
 20
154.9119212747295
 30
0.0
 10
93.6904670570955
 20
154.9119212747295
 30
0.0
 10
94.81598049462158
 20
158.3616699146644
 30
0.0
 10
94.81598049462158
 20
158.3616699146644
 30
0.0
 10
95.7237637538445
 20
161.2605474231013
 30
0.0
 10
96.4968436907311
 20
162.8139420021662
 30
0.0
 10
97.15657991138076
 20
163.9844139654337
 30
0.0
 10
97.81183750494507
 20
165.1523021053827
 30
0.0
 10
99.1047826935081
 20
166.3084769129547
 30
0.0
 10
100.4504378777679
 20
166.69157178364
 30
0.0
  0
HATCH
  5
6A5
330
6A2
100
AcDbEntity
  8
レイヤー 1
 62
   250
420
  2234388
100
AcDbHatch
 10
0.0
 20
0.0
 30
0.0
210
0.0
220
0.0
230
1.0
  2
SOLID
 70
     1
 71
     0
 91
        1
 92
        1
 93
        1
 72
     4
 94
        3
 73
     0
 74
     1
 95
       56
 96
       52
 40
0.0
 40
0.0
 40
0.0
 40
0.0
 40
1.0
 40
1.0
 40
1.0
 40
2.0
 40
2.0
 40
2.0
 40
3.0
 40
3.0
 40
3.0
 40
4.0
 40
4.0
 40
4.0
 40
5.0
 40
5.0
 40
5.0
 40
6.0
 40
6.0
 40
6.0
 40
7.0
 40
7.0
 40
7.0
 40
8.0
 40
8.0
 40
8.0
 40
9.0
 40
9.0
 40
9.0
 40
10.0
 40
10.0
 40
10.0
 40
11.0
 40
11.0
 40
11.0
 40
12.0
 40
12.0
 40
12.0
 40
13.0
 40
13.0
 40
13.0
 40
14.0
 40
14.0
 40
14.0
 40
15.0
 40
15.0
 40
15.0
 40
16.0
 40
16.0
 40
16.0
 40
17.0
 40
17.0
 40
17.0
 40
17.0
 10
100.4504378777679
 20
166.69157178364
 10
101.9848844191641
 20
167.1313385124438
 10
103.9637485713373
 20
166.7649523658846
 10
103.9637485713373
 20
166.7649523658846
 10
103.9637485713373
 20
166.7649523658846
 10
103.0132460999156
 20
163.911205638077
 10
103.0132460999156
 20
163.911205638077
 10
103.0132460999156
 20
163.911205638077
 10
101.0674548862189
 20
164.3601018759394
 10
99.57090442016032
 20
163.1805004036133
 10
98.40508333886608
 20
162.258247733807
 10
97.65301849830304
 20
159.804132345923
 10
97.3598406791005
 20
158.8699940888517
 10
97.3598406791005
 20
158.8699940888517
 10
96.07137411762282
 20
154.9119212747295
 10
96.07137411762282
 20
154.9119212747295
 10
96.07137411762282
 20
154.9119212747295
 10
100.3012651448482
 20
154.9119212747295
 10
100.3012651448482
 20
154.9119212747295
 10
100.3012651448482
 20
154.9119212747295
 10
99.64152892419852
 20
152.4199098115079
 10
99.64152892419852
 20
152.4199098115079
 10
99.64152892419852
 20
152.4199098115079
 10
95.38097652692731
 20
152.4199098115079
 10
95.38097652692731
 20
152.4199098115079
 10
95.38097652692731
 20
152.4199098115079
 10
87.75353009080013
 20
127.8027915271048
 10
87.75353009080013
 20
127.8027915271048
 10
87.75353009080013
 20
127.8027915271048
 10
85.36538832498108
 20
127.8027915271048
 10
85.36538832498108
 20
127.8027915271048
 10
85.36538832498108
 20
127.8027915271048
 10
93.00006946639998
 20
152.4199098115079
 10
93.00006946639998
 20
152.4199098115079
 10
93.00006946639998
 20
152.4199098115079
 10
89.85297266450198
 20
152.4199098115079
 10
89.85297266450198
 20
152.4199098115079
 10
89.85297266450198
 20
152.4199098115079
 10
90.51270888515164
 20
154.9119212747295
 10
90.51270888515164
 20
154.9119212747295
 10
90.51270888515164
 20
154.9119212747295
 10
93.6904670570955
 20
154.9119212747295
 10
93.6904670570955
 20
154.9119212747295
 10
93.6904670570955
 20
154.9119212747295
 10
94.81598049462158
 20
158.3616699146644
 10
94.81598049462158
 20
158.3616699146644
 10
95.7237637538445
 20
161.2605474231013
 10
96.4968436907311
 20
162.8139420021662
 10
97.15657991138076
 20
163.9844139654337
 10
97.81183750494507
 20
165.1523021053827
 10
99.1047826935081
 20
166.3084769129547
 10
100.4504378777679
 20
166.69157178364
 97
        0
 75
     2
 76
     1
 98
        0
  0
SPLINE
  5
6A6
330
6A2
100
AcDbEntity
  8
レイヤー 1
370
     0
100
AcDbSpline
210
0.0
220
0.0
230
1.0
 70
    11
 71
     3
 72
    38
 73
    34
 74
     0
 42
0.000000001
 43
0.0000000001
 40
0.0
 40
0.0
 40
0.0
 40
0.0
 40
1.0
 40
1.0
 40
1.0
 40
2.0
 40
2.0
 40
2.0
 40
3.0
 40
3.0
 40
3.0
 40
4.0
 40
4.0
 40
4.0
 40
5.0
 40
5.0
 40
5.0
 40
6.0
 40
6.0
 40
6.0
 40
7.0
 40
7.0
 40
7.0
 40
8.0
 40
8.0
 40
8.0
 40
9.0
 40
9.0
 40
9.0
 40
10.0
 40
10.0
 40
10.0
 40
11.0
 40
11.0
 40
11.0
 40
11.0
 10
126.377554584636
 20
154.8151140277308
 30
0.0
 10
126.377554584636
 20
154.8151140277308
 30
0.0
 10
128.8311532078563
 20
154.8151140277308
 30
0.0
 10
128.8311532078563
 20
154.8151140277308
 30
0.0
 10
128.8311532078563
 20
154.8151140277308
 30
0.0
 10
127.7345785914971
 20
151.3062819612468
 30
0.0
 10
127.7345785914971
 20
151.3062819612468
 30
0.0
 10
128.571392836906
 20
152.2922689395754
 30
0.0
 10
129.8860421413442
 20
153.604506675583
 30
0.0
 10
131.0163787157314
 20
154.2664822097754
 30
0.0
 10
132.7044766171327
 20
155.2500576196734
 30
0.0
 10
133.6642808525008
 20
155.3847609420097
 30
0.0
 10
134.7284715499351
 20
155.3565111403944
 30
0.0
 10
134.7284715499351
 20
155.3565111403944
 30
0.0
 10
133.6877075172549
 20
152.0345756272799
 30
0.0
 10
133.6877075172549
 20
152.0345756272799
 30
0.0
 10
133.011434827367
 20
152.3184516825359
 30
0.0
 10
130.930940291334
 20
151.7768823149844
 30
0.0
 10
129.739280976855
 20
150.9162968950455
 30
0.0
 10
128.66613302525
 20
150.1454562717016
 30
0.0
 10
127.9192358313239
 20
149.4857200510519
 30
0.0
 10
127.0393578639405
 20
147.8282835196966
 30
0.0
 10
126.164647543194
 20
146.1699857139017
 30
0.0
 10
125.4742499524985
 20
143.5262176944419
 30
0.0
 10
124.2822461282437
 20
139.6959580071401
 30
0.0
 10
124.2822461282437
 20
139.6959580071401
 30
0.0
 10
120.5753209406769
 20
127.8027915271048
 30
0.0
 10
120.5753209406769
 20
127.8027915271048
 30
0.0
 10
120.5753209406769
 20
127.8027915271048
 30
0.0
 10
118.1964809388044
 20
127.8027915271048
 30
0.0
 10
118.1964809388044
 20
127.8027915271048
 30
0.0
 10
118.1964809388044
 20
127.8027915271048
 30
0.0
 10
126.377554584636
 20
154.8151140277308
 30
0.0
 10
126.377554584636
 20
154.8151140277308
 30
0.0
  0
HATCH
  5
6A7
330
6A2
100
AcDbEntity
  8
レイヤー 1
 62
   250
420
  2234388
100
AcDbHatch
 10
0.0
 20
0.0
 30
0.0
210
0.0
220
0.0
230
1.0
  2
SOLID
 70
     1
 71
     0
 91
        1
 92
        1
 93
        1
 72
     4
 94
        3
 73
     0
 74
     1
 95
       38
 96
       34
 40
0.0
 40
0.0
 40
0.0
 40
0.0
 40
1.0
 40
1.0
 40
1.0
 40
2.0
 40
2.0
 40
2.0
 40
3.0
 40
3.0
 40
3.0
 40
4.0
 40
4.0
 40
4.0
 40
5.0
 40
5.0
 40
5.0
 40
6.0
 40
6.0
 40
6.0
 40
7.0
 40
7.0
 40
7.0
 40
8.0
 40
8.0
 40
8.0
 40
9.0
 40
9.0
 40
9.0
 40
10.0
 40
10.0
 40
10.0
 40
11.0
 40
11.0
 40
11.0
 40
11.0
 10
126.377554584636
 20
154.8151140277308
 10
126.377554584636
 20
154.8151140277308
 10
128.8311532078563
 20
154.8151140277308
 10
128.8311532078563
 20
154.8151140277308
 10
128.8311532078563
 20
154.8151140277308
 10
127.7345785914971
 20
151.3062819612468
 10
127.7345785914971
 20
151.3062819612468
 10
128.571392836906
 20
152.2922689395754
 10
129.8860421413442
 20
153.604506675583
 10
131.0163787157314
 20
154.2664822097754
 10
132.7044766171327
 20
155.2500576196734
 10
133.6642808525008
 20
155.3847609420097
 10
134.7284715499351
 20
155.3565111403944
 10
134.7284715499351
 20
155.3565111403944
 10
133.6877075172549
 20
152.0345756272799
 10
133.6877075172549
 20
152.0345756272799
 10
133.011434827367
 20
152.3184516825359
 10
130.930940291334
 20
151.7768823149844
 10
129.739280976855
 20
150.9162968950455
 10
128.66613302525
 20
150.1454562717016
 10
127.9192358313239
 20
149.4857200510519
 10
127.0393578639405
 20
147.8282835196966
 10
126.164647543194
 20
146.1699857139017
 10
125.4742499524985
 20
143.5262176944419
 10
124.2822461282437
 20
139.6959580071401
 10
124.2822461282437
 20
139.6959580071401
 10
120.5753209406769
 20
127.8027915271048
 10
120.5753209406769
 20
127.8027915271048
 10
120.5753209406769
 20
127.8027915271048
 10
118.1964809388044
 20
127.8027915271048
 10
118.1964809388044
 20
127.8027915271048
 10
118.1964809388044
 20
127.8027915271048
 10
126.377554584636
 20
154.8151140277308
 10
126.377554584636
 20
154.8151140277308
 97
        0
 75
     2
 76
     1
 98
        0
  0
SPLINE
  5
6A8
330
6A2
100
AcDbEntity
  8
レイヤー 1
370
     0
100
AcDbSpline
210
0.0
220
0.0
230
1.0
 70
    11
 71
     3
 72
   104
 73
   100
 74
     0
 42
0.000000001
 43
0.0000000001
 40
0.0
 40
0.0
 40
0.0
 40
0.0
 40
1.0
 40
1.0
 40
1.0
 40
2.0
 40
2.0
 40
2.0
 40
3.0
 40
3.0
 40
3.0
 40
4.0
 40
4.0
 40
4.0
 40
5.0
 40
5.0
 40
5.0
 40
6.0
 40
6.0
 40
6.0
 40
7.0
 40
7.0
 40
7.0
 40
8.0
 40
8.0
 40
8.0
 40
9.0
 40
9.0
 40
9.0
 40
10.0
 40
10.0
 40
10.0
 40
11.0
 40
11.0
 40
11.0
 40
12.0
 40
12.0
 40
12.0
 40
13.0
 40
13.0
 40
13.0
 40
14.0
 40
14.0
 40
14.0
 40
15.0
 40
15.0
 40
15.0
 40
16.0
 40
16.0
 40
16.0
 40
17.0
 40
17.0
 40
17.0
 40
18.0
 40
18.0
 40
18.0
 40
19.0
 40
19.0
 40
19.0
 40
20.0
 40
20.0
 40
20.0
 40
21.0
 40
21.0
 40
21.0
 40
22.0
 40
22.0
 40
22.0
 40
23.0
 40
23.0
 40
23.0
 40
24.0
 40
24.0
 40
24.0
 40
25.0
 40
25.0
 40
25.0
 40
26.0
 40
26.0
 40
26.0
 40
27.0
 40
27.0
 40
27.0
 40
28.0
 40
28.0
 40
28.0
 40
29.0
 40
29.0
 40
29.0
 40
30.0
 40
30.0
 40
30.0
 40
31.0
 40
31.0
 40
31.0
 40
32.0
 40
32.0
 40
32.0
 40
33.0
 40
33.0
 40
33.0
 40
33.0
 10
139.8926730891197
 20
154.8294111834263
 30
0.0
 10
139.8926730891197
 20
154.8294111834263
 30
0.0
 10
142.0344903652445
 20
154.8294111834263
 30
0.0
 10
142.0344903652445
 20
154.8294111834263
 30
0.0
 10
142.0344903652445
 20
154.8294111834263
 30
0.0
 10
140.9516961399171
 20
151.3157559800812
 30
0.0
 10
140.9516961399171
 20
151.3157559800812
 30
0.0
 10
141.8928968473923
 20
152.7887075264977
 30
0.0
 10
142.7341897198865
 20
153.4484437471474
 30
0.0
 10
143.8552245303272
 20
154.2926649527359
 30
0.0
 10
144.9803934580775
 20
155.1296514530327
 30
0.0
 10
146.3139908001845
 20
155.3044901642492
 30
0.0
 10
147.241066606852
 20
155.3044901642492
 30
0.0
 10
148.3855280820469
 20
155.3044901642492
 30
0.0
 10
149.4969166187653
 20
155.0752189084569
 30
0.0
 10
150.0784491203092
 20
153.8172414621372
 30
0.0
 10
150.5228667310863
 20
152.833838307127
 30
0.0
 10
150.5414702589793
 20
152.7201500811143
 30
0.0
 10
150.4140016419347
 20
150.7765981809602
 30
0.0
 10
151.5818897818837
 20
152.7699317437168
 30
0.0
 10
152.4424752018226
 20
153.6256940267945
 30
0.0
 10
153.9038856707499
 20
154.4507949398263
 30
0.0
 10
155.4455669174378
 20
155.3044901642492
 30
0.0
 10
156.339225275853
 20
155.3659851592288
 30
0.0
 10
157.3748216618963
 20
155.2147453676543
 30
0.0
 10
158.911679771723
 20
154.9877134254046
 30
0.0
 10
159.8859534176746
 20
154.4390816074493
 30
0.0
 10
160.3965169054045
 20
152.7816450760939
 30
0.0
 10
160.9070803931344
 20
151.1219692311958
 30
0.0
 10
160.6328506116007
 20
150.2303779314354
 30
0.0
 10
159.9992971339115
 20
147.597634224801
 30
0.0
 10
159.7105979417943
 20
146.4014962832367
 30
0.0
 10
159.2947746424084
 20
144.9400858143094
 30
0.0
 10
158.7463150793409
 20
143.2092687007094
 30
0.0
 10
158.7463150793409
 20
143.2092687007094
 30
0.0
 10
153.9038856707499
 20
127.8027915271048
 30
0.0
 10
153.9038856707499
 20
127.8027915271048
 30
0.0
 10
153.9038856707499
 20
127.8027915271048
 30
0.0
 10
151.3882752878863
 20
127.8027915271048
 30
0.0
 10
151.3882752878863
 20
127.8027915271048
 30
0.0
 10
151.3882752878863
 20
127.8027915271048
 30
0.0
 10
155.6250565106276
 20
141.2751908193897
 30
0.0
 10
155.6250565106276
 20
141.2751908193897
 30
0.0
 10
156.5094131050963
 20
144.0936252951782
 30
0.0
 10
157.109893644309
 20
146.1506931664571
 30
0.0
 10
157.4220195011804
 20
147.4415712963654
 30
0.0
 10
157.8095929989511
 20
149.0530157726519
 30
0.0
 10
157.9656559273867
 20
149.5826995529385
 30
0.0
 10
157.7816877071116
 20
150.7529992613181
 30
0.0
 10
157.6111553680925
 20
151.8430281919372
 30
0.0
 10
157.0582171779396
 20
152.5547853887321
 30
0.0
 10
156.1170164704645
 20
152.5547853887321
 30
0.0
 10
155.1096698860365
 20
152.5547853887321
 30
0.0
 10
154.2962823053817
 20
152.4412694176073
 30
0.0
 10
153.156643967048
 20
151.2945686288697
 30
0.0
 10
152.0170056287143
 20
150.1476955852443
 30
0.0
 10
151.076149431015
 20
148.7930831468137
 30
0.0
 10
150.3337308641742
 20
147.2290087646991
 30
0.0
 10
149.5957909244188
 20
145.6683794803425
 30
0.0
 10
148.8530278478023
 20
143.6822806228776
 30
0.0
 10
148.0964843801539
 20
141.2751908193897
 30
0.0
 10
148.0964843801539
 20
141.2751908193897
 30
0.0
 10
143.8552245303272
 20
127.8027915271048
 30
0.0
 10
143.8552245303272
 20
127.8027915271048
 30
0.0
 10
143.8552245303272
 20
127.8027915271048
 30
0.0
 10
141.486030802177
 20
127.8027915271048
 30
0.0
 10
141.486030802177
 20
127.8027915271048
 30
0.0
 10
141.486030802177
 20
127.8027915271048
 30
0.0
 10
146.3329388378533
 20
143.2092687007094
 30
0.0
 10
146.3329388378533
 20
143.2092687007094
 30
0.0
 10
146.8483254624444
 20
144.8408669988801
 30
0.0
 10
147.2314203331297
 20
146.1837661049335
 30
0.0
 10
147.4867020769946
 20
147.224185627838
 30
0.0
 10
147.9169947869641
 20
149.0197705792876
 30
0.0
 10
148.0306830129768
 20
150.2400242051577
 30
0.0
 10
147.709255392159
 20
151.3157559800812
 30
0.0
 10
147.3874832615654
 20
152.3916600098926
 30
0.0
 10
146.8245542879144
 20
152.6683013598569
 30
0.0
 10
145.8840425999909
 20
152.6683013598569
 30
0.0
 10
145.0989048209514
 20
152.6683013598569
 30
0.0
 10
144.3282364524954
 20
152.3275811915945
 30
0.0
 10
143.4531816219731
 20
151.6538923250251
 30
0.0
 10
142.34627171234
 20
150.8074318058939
 30
0.0
 10
141.901854101563
 20
150.1097995099067
 30
0.0
 10
141.3578731655808
 20
149.289521733736
 30
0.0
 10
140.6299240093235
 20
148.192602607601
 30
0.0
 10
140.2850697237515
 20
147.455696197173
 30
0.0
 10
139.6652966370942
 20
145.8385673095858
 30
0.0
 10
139.0506911970739
 20
144.2214384219986
 30
0.0
 10
138.463991048893
 20
142.3252566160164
 30
0.0
 10
138.0571250036777
 20
141.0154304484394
 30
0.0
 10
138.0571250036777
 20
141.0154304484394
 30
0.0
 10
133.9009590684727
 20
127.8027915271048
 30
0.0
 10
133.9009590684727
 20
127.8027915271048
 30
0.0
 10
133.9009590684727
 20
127.8027915271048
 30
0.0
 10
131.4180771143097
 20
127.8027915271048
 30
0.0
 10
131.4180771143097
 20
127.8027915271048
 30
0.0
 10
131.4180771143097
 20
127.8027915271048
 30
0.0
 10
139.8926730891197
 20
154.8294111834263
 30
0.0
 10
139.8926730891197
 20
154.8294111834263
 30
0.0
  0
HATCH
  5
6A9
330
6A2
100
AcDbEntity
  8
レイヤー 1
 62
   250
420
  2234388
100
AcDbHatch
 10
0.0
 20
0.0
 30
0.0
210
0.0
220
0.0
230
1.0
  2
SOLID
 70
     1
 71
     0
 91
        1
 92
        1
 93
        1
 72
     4
 94
        3
 73
     0
 74
     1
 95
      104
 96
      100
 40
0.0
 40
0.0
 40
0.0
 40
0.0
 40
1.0
 40
1.0
 40
1.0
 40
2.0
 40
2.0
 40
2.0
 40
3.0
 40
3.0
 40
3.0
 40
4.0
 40
4.0
 40
4.0
 40
5.0
 40
5.0
 40
5.0
 40
6.0
 40
6.0
 40
6.0
 40
7.0
 40
7.0
 40
7.0
 40
8.0
 40
8.0
 40
8.0
 40
9.0
 40
9.0
 40
9.0
 40
10.0
 40
10.0
 40
10.0
 40
11.0
 40
11.0
 40
11.0
 40
12.0
 40
12.0
 40
12.0
 40
13.0
 40
13.0
 40
13.0
 40
14.0
 40
14.0
 40
14.0
 40
15.0
 40
15.0
 40
15.0
 40
16.0
 40
16.0
 40
16.0
 40
17.0
 40
17.0
 40
17.0
 40
18.0
 40
18.0
 40
18.0
 40
19.0
 40
19.0
 40
19.0
 40
20.0
 40
20.0
 40
20.0
 40
21.0
 40
21.0
 40
21.0
 40
22.0
 40
22.0
 40
22.0
 40
23.0
 40
23.0
 40
23.0
 40
24.0
 40
24.0
 40
24.0
 40
25.0
 40
25.0
 40
25.0
 40
26.0
 40
26.0
 40
26.0
 40
27.0
 40
27.0
 40
27.0
 40
28.0
 40
28.0
 40
28.0
 40
29.0
 40
29.0
 40
29.0
 40
30.0
 40
30.0
 40
30.0
 40
31.0
 40
31.0
 40
31.0
 40
32.0
 40
32.0
 40
32.0
 40
33.0
 40
33.0
 40
33.0
 40
33.0
 10
139.8926730891197
 20
154.8294111834263
 10
139.8926730891197
 20
154.8294111834263
 10
142.0344903652445
 20
154.8294111834263
 10
142.0344903652445
 20
154.8294111834263
 10
142.0344903652445
 20
154.8294111834263
 10
140.9516961399171
 20
151.3157559800812
 10
140.9516961399171
 20
151.3157559800812
 10
141.8928968473923
 20
152.7887075264977
 10
142.7341897198865
 20
153.4484437471474
 10
143.8552245303272
 20
154.2926649527359
 10
144.9803934580775
 20
155.1296514530327
 10
146.3139908001845
 20
155.3044901642492
 10
147.241066606852
 20
155.3044901642492
 10
148.3855280820469
 20
155.3044901642492
 10
149.4969166187653
 20
155.0752189084569
 10
150.0784491203092
 20
153.8172414621372
 10
150.5228667310863
 20
152.833838307127
 10
150.5414702589793
 20
152.7201500811143
 10
150.4140016419347
 20
150.7765981809602
 10
151.5818897818837
 20
152.7699317437168
 10
152.4424752018226
 20
153.6256940267945
 10
153.9038856707499
 20
154.4507949398263
 10
155.4455669174378
 20
155.3044901642492
 10
156.339225275853
 20
155.3659851592288
 10
157.3748216618963
 20
155.2147453676543
 10
158.911679771723
 20
154.9877134254046
 10
159.8859534176746
 20
154.4390816074493
 10
160.3965169054045
 20
152.7816450760939
 10
160.9070803931344
 20
151.1219692311958
 10
160.6328506116007
 20
150.2303779314354
 10
159.9992971339115
 20
147.597634224801
 10
159.7105979417943
 20
146.4014962832367
 10
159.2947746424084
 20
144.9400858143094
 10
158.7463150793409
 20
143.2092687007094
 10
158.7463150793409
 20
143.2092687007094
 10
153.9038856707499
 20
127.8027915271048
 10
153.9038856707499
 20
127.8027915271048
 10
153.9038856707499
 20
127.8027915271048
 10
151.3882752878863
 20
127.8027915271048
 10
151.3882752878863
 20
127.8027915271048
 10
151.3882752878863
 20
127.8027915271048
 10
155.6250565106276
 20
141.2751908193897
 10
155.6250565106276
 20
141.2751908193897
 10
156.5094131050963
 20
144.0936252951782
 10
157.109893644309
 20
146.1506931664571
 10
157.4220195011804
 20
147.4415712963654
 10
157.8095929989511
 20
149.0530157726519
 10
157.9656559273867
 20
149.5826995529385
 10
157.7816877071116
 20
150.7529992613181
 10
157.6111553680925
 20
151.8430281919372
 10
157.0582171779396
 20
152.5547853887321
 10
156.1170164704645
 20
152.5547853887321
 10
155.1096698860365
 20
152.5547853887321
 10
154.2962823053817
 20
152.4412694176073
 10
153.156643967048
 20
151.2945686288697
 10
152.0170056287143
 20
150.1476955852443
 10
151.076149431015
 20
148.7930831468137
 10
150.3337308641742
 20
147.2290087646991
 10
149.5957909244188
 20
145.6683794803425
 10
148.8530278478023
 20
143.6822806228776
 10
148.0964843801539
 20
141.2751908193897
 10
148.0964843801539
 20
141.2751908193897
 10
143.8552245303272
 20
127.8027915271048
 10
143.8552245303272
 20
127.8027915271048
 10
143.8552245303272
 20
127.8027915271048
 10
141.486030802177
 20
127.8027915271048
 10
141.486030802177
 20
127.8027915271048
 10
141.486030802177
 20
127.8027915271048
 10
146.3329388378533
 20
143.2092687007094
 10
146.3329388378533
 20
143.2092687007094
 10
146.8483254624444
 20
144.8408669988801
 10
147.2314203331297
 20
146.1837661049335
 10
147.4867020769946
 20
147.224185627838
 10
147.9169947869641
 20
149.0197705792876
 10
148.0306830129768
 20
150.2400242051577
 10
147.709255392159
 20
151.3157559800812
 10
147.3874832615654
 20
152.3916600098926
 10
146.8245542879144
 20
152.6683013598569
 10
145.8840425999909
 20
152.6683013598569
 10
145.0989048209514
 20
152.6683013598569
 10
144.3282364524954
 20
152.3275811915945
 10
143.4531816219731
 20
151.6538923250251
 10
142.34627171234
 20
150.8074318058939
 10
141.901854101563
 20
150.1097995099067
 10
141.3578731655808
 20
149.289521733736
 10
140.6299240093235
 20
148.192602607601
 10
140.2850697237515
 20
147.455696197173
 10
139.6652966370942
 20
145.8385673095858
 10
139.0506911970739
 20
144.2214384219986
 10
138.463991048893
 20
142.3252566160164
 10
138.0571250036777
 20
141.0154304484394
 10
138.0571250036777
 20
141.0154304484394
 10
133.9009590684727
 20
127.8027915271048
 10
133.9009590684727
 20
127.8027915271048
 10
133.9009590684727
 20
127.8027915271048
 10
131.4180771143097
 20
127.8027915271048
 10
131.4180771143097
 20
127.8027915271048
 10
131.4180771143097
 20
127.8027915271048
 10
139.8926730891197
 20
154.8294111834263
 10
139.8926730891197
 20
154.8294111834263
 97
        0
 75
     2
 76
     1
 98
        0
  0
SPLINE
  5
6AA
330
6A2
100
AcDbEntity
  8
レイヤー 1
370
     0
100
AcDbSpline
210
0.0
220
0.0
230
1.0
 70
    11
 71
     3
 72
    29
 73
    25
 74
     0
 42
0.000000001
 43
0.0000000001
 40
0.0
 40
0.0
 40
0.0
 40
0.0
 40
1.0
 40
1.0
 40
1.0
 40
2.0
 40
2.0
 40
2.0
 40
3.0
 40
3.0
 40
3.0
 40
4.0
 40
4.0
 40
4.0
 40
5.0
 40
5.0
 40
5.0
 40
6.0
 40
6.0
 40
6.0
 40
7.0
 40
7.0
 40
7.0
 40
8.0
 40
8.0
 40
8.0
 40
8.0
 10
101.6420971922469
 20
132.8388354296931
 30
0.0
 10
101.630039350094
 20
134.7164137077823
 30
0.0
 10
102.2236296937908
 20
138.0598810818841
 30
0.0
 10
103.7487744712405
 20
142.5378191476827
 30
0.0
 10
105.819967243327
 20
148.5896501242061
 30
0.0
 10
107.0602024361932
 20
150.8074318058939
 30
0.0
 10
108.1522984254671
 20
151.8833358357054
 30
0.0
 10
109.741177511439
 20
153.4532668840085
 30
0.0
 10
111.8740375333931
 20
153.5290590346837
 30
0.0
 10
112.5075910110823
 20
153.4532668840085
 30
0.0
 10
113.4012493694975
 20
153.3490526768302
 30
0.0
 10
114.6683563248758
 20
152.7580461564518
 30
0.0
 10
114.7493161221879
 20
150.7838328862519
 30
0.0
 10
114.8106388622796
 20
149.0909118479895
 30
0.0
 10
114.3186789024427
 20
145.9191825971221
 30
0.0
 10
112.6164561002338
 20
140.9489400617108
 30
0.0
 10
110.6444821435766
 20
135.1746117095912
 30
0.0
 10
109.4669477299053
 20
132.8960240524753
 30
0.0
 10
108.5212683953448
 20
131.9072809959403
 30
0.0
 10
106.7346406980658
 20
130.0538184021569
 30
0.0
 10
104.8222669326213
 20
130.2336525051225
 30
0.0
 10
104.5408024457958
 20
130.2336525051225
 30
0.0
 10
104.1721769856939
 20
130.2336525051225
 30
0.0
 10
101.6465758193322
 20
130.6305277668397
 30
0.0
 10
101.6420971922469
 20
132.8388354296931
 30
0.0
  0
SPLINE
  5
6AB
330
6A2
100
AcDbEntity
  8
レイヤー 1
370
     0
100
AcDbSpline
210
0.0
220
0.0
230
1.0
 70
    11
 71
     3
 72
    32
 73
    28
 74
     0
 42
0.000000001
 43
0.0000000001
 40
0.0
 40
0.0
 40
0.0
 40
0.0
 40
1.0
 40
1.0
 40
1.0
 40
2.0
 40
2.0
 40
2.0
 40
3.0
 40
3.0
 40
3.0
 40
4.0
 40
4.0
 40
4.0
 40
5.0
 40
5.0
 40
5.0
 40
6.0
 40
6.0
 40
6.0
 40
7.0
 40
7.0
 40
7.0
 40
8.0
 40
8.0
 40
8.0
 40
9.0
 40
9.0
 40
9.0
 40
9.0
 10
106.2595617172429
 20
153.4105476718098
 30
0.0
 10
104.8222669326213
 20
151.5474388043041
 30
0.0
 10
103.7177685914188
 20
149.8758773721411
 30
0.0
 10
101.9232171692965
 20
144.6141795664062
 30
0.0
 10
100.2754269116635
 20
139.7999999594306
 30
0.0
 10
99.22777268346732
 20
136.3052927937542
 30
0.0
 10
99.06964269637689
 20
132.039572749846
 30
0.0
 10
98.94665270641765
 20
128.8673267343149
 30
0.0
 10
100.8807305877373
 20
127.8027915271048
 30
0.0
 10
103.7129454545577
 20
127.8027915271048
 30
0.0
 10
104.9352661390825
 20
127.8027915271048
 30
0.0
 10
108.0151835347002
 20
127.8827177950895
 30
0.0
 10
110.2045431598849
 20
130.5926316915021
 30
0.0
 10
111.7417457794874
 20
132.4984597712065
 30
0.0
 10
113.155269389579
 20
134.475256864725
 30
0.0
 10
115.0562743324223
 20
140.9489400617108
 30
0.0
 10
116.6361961642235
 20
146.3680788349845
 30
0.0
 10
117.7282921534974
 20
149.8639917848761
 30
0.0
 10
117.6480213757369
 20
151.8595646611754
 30
0.0
 10
117.6480213757369
 20
151.8595646611754
 30
0.0
 10
117.6480213757369
 20
151.8595646611754
 30
0.0
 10
117.6480213757369
 20
151.8595646611754
 30
0.0
 10
117.13229024137
 20
155.18150017429
 30
0.0
 10
114.7162431837115
 20
155.886194920681
 30
0.0
 10
113.3351034925446
 20
155.886194920681
 30
0.0
 10
111.9829026225447
 20
155.886194920681
 30
0.0
 10
108.3414342923792
 20
156.1251124501957
 30
0.0
 10
106.2595617172429
 20
153.4105476718098
 30
0.0
  0
HATCH
  5
6AC
330
6A2
100
AcDbEntity
  8
レイヤー 1
 62
   250
420
  2234388
100
AcDbHatch
 10
0.0
 20
0.0
 30
0.0
210
0.0
220
0.0
230
1.0
  2
SOLID
 70
     1
 71
     0
 91
        2
 92
        1
 93
        1
 72
     4
 94
        3
 73
     0
 74
     1
 95
       29
 96
       25
 40
0.0
 40
0.0
 40
0.0
 40
0.0
 40
1.0
 40
1.0
 40
1.0
 40
2.0
 40
2.0
 40
2.0
 40
3.0
 40
3.0
 40
3.0
 40
4.0
 40
4.0
 40
4.0
 40
5.0
 40
5.0
 40
5.0
 40
6.0
 40
6.0
 40
6.0
 40
7.0
 40
7.0
 40
7.0
 40
8.0
 40
8.0
 40
8.0
 40
8.0
 10
101.6420971922469
 20
132.8388354296931
 10
101.630039350094
 20
134.7164137077823
 10
102.2236296937908
 20
138.0598810818841
 10
103.7487744712405
 20
142.5378191476827
 10
105.819967243327
 20
148.5896501242061
 10
107.0602024361932
 20
150.8074318058939
 10
108.1522984254671
 20
151.8833358357054
 10
109.741177511439
 20
153.4532668840085
 10
111.8740375333931
 20
153.5290590346837
 10
112.5075910110823
 20
153.4532668840085
 10
113.4012493694975
 20
153.3490526768302
 10
114.6683563248758
 20
152.7580461564518
 10
114.7493161221879
 20
150.7838328862519
 10
114.8106388622796
 20
149.0909118479895
 10
114.3186789024427
 20
145.9191825971221
 10
112.6164561002338
 20
140.9489400617108
 10
110.6444821435766
 20
135.1746117095912
 10
109.4669477299053
 20
132.8960240524753
 10
108.5212683953448
 20
131.9072809959403
 10
106.7346406980658
 20
130.0538184021569
 10
104.8222669326213
 20
130.2336525051225
 10
104.5408024457958
 20
130.2336525051225
 10
104.1721769856939
 20
130.2336525051225
 10
101.6465758193322
 20
130.6305277668397
 10
101.6420971922469
 20
132.8388354296931
 97
        0
 92
        1
 93
        1
 72
     4
 94
        3
 73
     0
 74
     1
 95
       32
 96
       28
 40
0.0
 40
0.0
 40
0.0
 40
0.0
 40
1.0
 40
1.0
 40
1.0
 40
2.0
 40
2.0
 40
2.0
 40
3.0
 40
3.0
 40
3.0
 40
4.0
 40
4.0
 40
4.0
 40
5.0
 40
5.0
 40
5.0
 40
6.0
 40
6.0
 40
6.0
 40
7.0
 40
7.0
 40
7.0
 40
8.0
 40
8.0
 40
8.0
 40
9.0
 40
9.0
 40
9.0
 40
9.0
 10
106.2595617172429
 20
153.4105476718098
 10
104.8222669326213
 20
151.5474388043041
 10
103.7177685914188
 20
149.8758773721411
 10
101.9232171692965
 20
144.6141795664062
 10
100.2754269116635
 20
139.7999999594306
 10
99.22777268346732
 20
136.3052927937542
 10
99.06964269637689
 20
132.039572749846
 10
98.94665270641765
 20
128.8673267343149
 10
100.8807305877373
 20
127.8027915271048
 10
103.7129454545577
 20
127.8027915271048
 10
104.9352661390825
 20
127.8027915271048
 10
108.0151835347002
 20
127.8827177950895
 10
110.2045431598849
 20
130.5926316915021
 10
111.7417457794874
 20
132.4984597712065
 10
113.155269389579
 20
134.475256864725
 10
115.0562743324223
 20
140.9489400617108
 10
116.6361961642235
 20
146.3680788349845
 10
117.7282921534974
 20
149.8639917848761
 10
117.6480213757369
 20
151.8595646611754
 10
117.6480213757369
 20
151.8595646611754
 10
117.6480213757369
 20
151.8595646611754
 10
117.6480213757369
 20
151.8595646611754
 10
117.13229024137
 20
155.18150017429
 10
114.7162431837115
 20
155.886194920681
 10
113.3351034925446
 20
155.886194920681
 10
111.9829026225447
 20
155.886194920681
 10
108.3414342923792
 20
156.1251124501957
 10
106.2595617172429
 20
153.4105476718098
 97
        0
 75
     2
 76
     1
 98
        0
  0
ENDBLK
  5
6AD
330
6A2
100
AcDbEntity
  8
0
100
AcDbBlockEnd
  0
BLOCK
  5
52D8
330
52D7
100
AcDbEntity
  8
0
100
AcDbBlockBegin
  2
名称未設定-1
 70
     0
 10
0.0
 20
0.0
 30
0.0
  3
名称未設定-1
  1
名称未設定-1
  0
INSERT
  5
52D9
330
52D7
100
AcDbEntity
  8
TFORMLOGO
100
AcDbBlockReference
  2
block 2
 10
0.0
 20
0.0
 30
0.0
  0
ENDBLK
  5
52FE
330
52D7
100
AcDbEntity
  8
0
100
AcDbBlockEnd
  0
BLOCK
  5
52DB
330
52DA
100
AcDbEntity
  8
0
100
AcDbBlockBegin
  2
block 2
 70
     0
 10
0.0
 20
0.0
 30
0.0
  3
block 2
  1
block 2
  0
INSERT
  5
52DC
330
52DA
100
AcDbEntity
  8
TFORMLOGO
100
AcDbBlockReference
  2
block 3
 10
0.0
 20
0.0
 30
0.0
  0
ENDBLK
  5
52FD
330
52DA
100
AcDbEntity
  8
0
100
AcDbBlockEnd
  0
BLOCK
  5
6E17
330
6E16
100
AcDbEntity
  8
0
100
AcDbBlockBegin
  2
*D6
 70
     1
 10
0.0
 20
0.0
 30
0.0
  3
*D6
  1

  0
LINE
  5
6E19
330
6E16
100
AcDbEntity
  8
寸法
 62
     0
370
    -2
100
AcDbLine
 10
418.3880515548078
 20
160.9870797291797
 30
0.0
 11
418.3880515548078
 21
133.1991721474874
 31
0.0
  0
LINE
  5
6E1A
330
6E16
100
AcDbEntity
  8
寸法
 62
     0
370
    -2
100
AcDbLine
 10
380.3880515548078
 20
160.9870797291797
 30
0.0
 11
380.3880515548078
 21
133.1991721474874
 31
0.0
  0
LINE
  5
6E1B
330
6E16
100
AcDbEntity
  8
寸法
 62
     0
370
    -2
100
AcDbLine
 10
380.3880515548078
 20
133.1991721474874
 30
0.0
 11
363.1049419512065
 21
133.1991721474874
 31
0.0
  0
LINE
  5
6E1C
330
6E16
100
AcDbEntity
  8
寸法
 62
     0
370
    -2
100
AcDbLine
 10
416.8880515548078
 20
133.1991721474874
 30
0.0
 11
381.8880515548078
 21
133.1991721474874
 31
0.0
  0
LINE
  5
6E1D
330
6E16
100
AcDbEntity
  8
寸法
 62
     0
370
    -2
100
AcDbLine
 10
381.8880515548078
 20
133.1991721474874
 30
0.0
 11
383.3880515548078
 21
133.1991721474874
 31
0.0
  0
INSERT
  5
6E1E
330
6E16
100
AcDbEntity
  8
寸法
 62
     0
370
    -2
100
AcDbBlockReference
  2
_DOT
 10
418.3880515548078
 20
133.1991721474874
 30
0.0
 41
1.5
 42
1.5
 43
1.5
  0
INSERT
  5
6E1F
330
6E16
100
AcDbEntity
  8
寸法
 62
     0
370
    -2
100
AcDbBlockReference
  2
_DOT
 10
380.3880515548078
 20
133.1991721474874
 30
0.0
 41
1.5
 42
1.5
 43
1.5
 50
180.0
  0
MTEXT
  5
6E20
330
6E16
100
AcDbEntity
  8
寸法
  6
Continuous
 62
     0
100
AcDbMText
 10
366.7305515548078
 20
137.6991721474874
 30
0.0
 40
5.0
 41
0.0
 46
0.0
 71
     5
 72
     1
  1
\A1; 
  7
ＭＳ ゴシック
 73
     1
 44
1.0
  0
POINT
  5
6E21
330
6E16
100
AcDbEntity
  8
Defpoints
 62
     0
100
AcDbPoint
 10
418.3880515548078
 20
165.9870797291797
 30
0.0
  0
POINT
  5
6E22
330
6E16
100
AcDbEntity
  8
Defpoints
 62
     0
100
AcDbPoint
 10
380.3880515548078
 20
165.9870797291797
 30
0.0
  0
POINT
  5
6E23
330
6E16
100
AcDbEntity
  8
Defpoints
 62
     0
100
AcDbPoint
 10
380.3880515548078
 20
133.1991721474874
 30
0.0
  0
ENDBLK
  5
6E18
330
6E16
100
AcDbEntity
  8
0
100
AcDbBlockEnd
  0
BLOCK
  5
7152
330
7151
100
AcDbEntity
  8
0
100
AcDbBlockBegin
  2
*D7
 70
     1
 10
0.0
 20
0.0
 30
0.0
  3
*D7
  1

  0
LINE
  5
7154
330
7151
100
AcDbEntity
  8
寸法
 62
     0
370
    -2
100
AcDbLine
 10
399.2309504458343
 20
193.1595059639388
 30
0.0
 11
399.2309504458343
 21
201.7706170212118
 31
0.0
  0
LINE
  5
7155
330
7151
100
AcDbEntity
  8
寸法
 62
     0
370
    -2
100
AcDbLine
 10
418.2309504458343
 20
178.9839934437299
 30
0.0
 11
418.2309504458343
 21
201.7706170212118
 31
0.0
  0
LINE
  5
7156
330
7151
100
AcDbEntity
  8
寸法
 62
     0
370
    -2
100
AcDbLine
 10
400.7309504458343
 20
201.7706170212118
 30
0.0
 11
416.7309504458343
 21
201.7706170212118
 31
0.0
  0
INSERT
  5
7157
330
7151
100
AcDbEntity
  8
寸法
 62
     0
370
    -2
100
AcDbBlockReference
  2
_DOT
 10
399.2309504458343
 20
201.7706170212118
 30
0.0
 41
1.5
 42
1.5
 43
1.5
 50
180.0
  0
INSERT
  5
7158
330
7151
100
AcDbEntity
  8
寸法
 62
     0
370
    -2
100
AcDbBlockReference
  2
_DOT
 10
418.2309504458343
 20
201.7706170212118
 30
0.0
 41
1.5
 42
1.5
 43
1.5
  0
MTEXT
  5
7159
330
7151
100
AcDbEntity
  8
寸法
  6
Continuous
 62
     0
100
AcDbMText
 10
408.7309504458343
 20
206.2715548729062
 30
0.0
 40
5.0
 41
0.0
 46
0.0
 71
     5
 72
     1
  1
\A1;19
  7
ＭＳ ゴシック
 73
     1
 44
1.0
  0
POINT
  5
715A
330
7151
100
AcDbEntity
  8
Defpoints
 62
     0
100
AcDbPoint
 10
399.2309504458343
 20
188.1595059639388
 30
0.0
  0
POINT
  5
715B
330
7151
100
AcDbEntity
  8
Defpoints
 62
     0
100
AcDbPoint
 10
418.2309504458343
 20
173.9839934437299
 30
0.0
  0
POINT
  5
715C
330
7151
100
AcDbEntity
  8
Defpoints
 62
     0
100
AcDbPoint
 10
418.2309504458343
 20
201.7706170212118
 30
0.0
  0
ENDBLK
  5
7153
330
7151
100
AcDbEntity
  8
0
100
AcDbBlockEnd
  0
BLOCK
  5
715E
330
715D
100
AcDbEntity
  8
0
100
AcDbBlockBegin
  2
*D8
 70
     1
 10
0.0
 20
0.0
 30
0.0
  3
*D8
  1

  0
LINE
  5
7160
330
715D
100
AcDbEntity
  8
寸法
 62
     0
370
    -2
100
AcDbLine
 10
380.2309504458343
 20
178.9839934437299
 30
0.0
 11
380.2309504458343
 21
201.7706170212118
 31
0.0
  0
LINE
  5
7161
330
715D
100
AcDbEntity
  8
寸法
 62
     0
370
    -2
100
AcDbLine
 10
399.2309504458343
 20
193.1595059639388
 30
0.0
 11
399.2309504458343
 21
201.7706170212118
 31
0.0
  0
LINE
  5
7162
330
715D
100
AcDbEntity
  8
寸法
 62
     0
370
    -2
100
AcDbLine
 10
381.7309504458343
 20
201.7706170212118
 30
0.0
 11
397.7309504458343
 21
201.7706170212118
 31
0.0
  0
INSERT
  5
7163
330
715D
100
AcDbEntity
  8
寸法
 62
     0
370
    -2
100
AcDbBlockReference
  2
_DOT
 10
380.2309504458343
 20
201.7706170212118
 30
0.0
 41
1.5
 42
1.5
 43
1.5
 50
180.0
  0
INSERT
  5
7164
330
715D
100
AcDbEntity
  8
寸法
 62
     0
370
    -2
100
AcDbBlockReference
  2
_DOT
 10
399.2309504458343
 20
201.7706170212118
 30
0.0
 41
1.5
 42
1.5
 43
1.5
  0
MTEXT
  5
7165
330
715D
100
AcDbEntity
  8
寸法
  6
Continuous
 62
     0
100
AcDbMText
 10
389.7309504458343
 20
206.2715548729062
 30
0.0
 40
5.0
 41
0.0
 46
0.0
 71
     5
 72
     1
  1
\A1;19
  7
ＭＳ ゴシック
 73
     1
 44
1.0
  0
POINT
  5
7166
330
715D
100
AcDbEntity
  8
Defpoints
 62
     0
100
AcDbPoint
 10
380.2309504458343
 20
173.9839934437299
 30
0.0
  0
POINT
  5
7167
330
715D
100
AcDbEntity
  8
Defpoints
 62
     0
100
AcDbPoint
 10
399.2309504458343
 20
188.1595059639388
 30
0.0
  0
POINT
  5
7168
330
715D
100
AcDbEntity
  8
Defpoints
 62
     0
100
AcDbPoint
 10
399.2309504458343
 20
201.7706170212118
 30
0.0
  0
ENDBLK
  5
715F
330
715D
100
AcDbEntity
  8
0
100
AcDbBlockEnd
  0
BLOCK
  5
735C
330
735B
100
AcDbEntity
  8
0
100
AcDbBlockBegin
  2
*D9
 70
     1
 10
0.0
 20
0.0
 30
0.0
  3
*D9
  1

  0
LINE
  5
735E
330
735B
100
AcDbEntity
  8
寸法
  6
Continuous
 62
     0
370
    -2
100
AcDbLine
 10
80.01996036358946
 20
346.856796730158
 30
0.0
 11
66.3856476414864
 21
346.856796730158
 31
0.0
  0
LINE
  5
735F
330
735B
100
AcDbEntity
  8
寸法
  6
Continuous
 62
     0
370
    -2
100
AcDbLine
 10
80.37577904231718
 20
340.356796730158
 30
0.0
 11
66.3856476414864
 21
340.356796730158
 31
0.0
  0
LINE
  5
7360
330
735B
100
AcDbEntity
  8
寸法
  6
Continuous
 62
     0
370
    -2
100
AcDbLine
 10
66.3856476414864
 20
345.356796730158
 30
0.0
 11
66.3856476414864
 21
341.856796730158
 31
0.0
  0
INSERT
  5
7361
330
735B
100
AcDbEntity
  8
寸法
 62
     0
370
    -2
100
AcDbBlockReference
  2
_DOT
 10
66.3856476414864
 20
346.856796730158
 30
0.0
 41
1.5
 42
1.5
 43
1.5
 50
90.0
  0
INSERT
  5
7362
330
735B
100
AcDbEntity
  8
寸法
 62
     0
370
    -2
100
AcDbBlockReference
  2
_DOT
 10
66.3856476414864
 20
340.356796730158
 30
0.0
 41
1.5
 42
1.5
 43
1.5
 50
270.0
  0
MTEXT
  5
7363
330
735B
100
AcDbEntity
  8
寸法
  6
Continuous
 62
     0
100
AcDbMText
 10
61.884709789792
 20
342.4013446856413
 30
0.0
 40
5.0
 41
0.0
 46
0.0
 71
     5
 72
     1
  1
\A1;6.5
  7
ＭＳ ゴシック
 11
0.0
 21
1.0
 31
0.0
 73
     1
 44
1.0
  0
POINT
  5
7364
330
735B
100
AcDbEntity
  8
Defpoints
 62
     0
100
AcDbPoint
 10
85.01996036358946
 20
346.856796730158
 30
0.0
  0
POINT
  5
7365
330
735B
100
AcDbEntity
  8
Defpoints
 62
     0
100
AcDbPoint
 10
85.37577904231718
 20
340.356796730158
 30
0.0
  0
POINT
  5
7366
330
735B
100
AcDbEntity
  8
Defpoints
 62
     0
100
AcDbPoint
 10
66.3856476414864
 20
340.356796730158
 30
0.0
  0
ENDBLK
  5
735D
330
735B
100
AcDbEntity
  8
0
100
AcDbBlockEnd
  0
BLOCK
  5
736E
330
736D
100
AcDbEntity
  8
0
100
AcDbBlockBegin
  2
*D10
 70
     1
 10
0.0
 20
0.0
 30
0.0
  3
*D10
  1

  0
LINE
  5
7370
330
736D
100
AcDbEntity
  8
寸法
  6
Continuous
 62
     0
370
    -2
100
AcDbLine
 10
80.22303692259811
 20
340.356796730158
 30
0.0
 11
66.3856476414864
 21
340.356796730158
 31
0.0
  0
LINE
  5
7371
330
736D
100
AcDbEntity
  8
寸法
  6
Continuous
 62
     0
370
    -2
100
AcDbLine
 10
94.87303692259809
 20
286.4917085614688
 30
0.0
 11
66.3856476414864
 21
286.4917085614688
 31
0.0
  0
LINE
  5
7372
330
736D
100
AcDbEntity
  8
寸法
  6
Continuous
 62
     0
370
    -2
100
AcDbLine
 10
66.3856476414864
 20
338.856796730158
 30
0.0
 11
66.3856476414864
 21
287.9917085614688
 31
0.0
  0
INSERT
  5
7373
330
736D
100
AcDbEntity
  8
寸法
 62
     0
370
    -2
100
AcDbBlockReference
  2
_DOT
 10
66.3856476414864
 20
340.356796730158
 30
0.0
 41
1.5
 42
1.5
 43
1.5
 50
90.0
  0
INSERT
  5
7374
330
736D
100
AcDbEntity
  8
寸法
 62
     0
370
    -2
100
AcDbBlockReference
  2
_DOT
 10
66.3856476414864
 20
286.4917085614688
 30
0.0
 41
1.5
 42
1.5
 43
1.5
 50
270.0
  0
MTEXT
  5
7375
330
736D
100
AcDbEntity
  8
寸法
  6
Continuous
 62
     0
100
AcDbMText
 10
61.884709789792
 20
313.4242526458134
 30
0.0
 40
5.0
 41
0.0
 46
0.0
 71
     5
 72
     1
  1
\A1;54
  7
ＭＳ ゴシック
 11
0.0
 21
1.0
 31
0.0
 73
     1
 44
1.0
  0
POINT
  5
7376
330
736D
100
AcDbEntity
  8
Defpoints
 62
     0
100
AcDbPoint
 10
85.22303692259811
 20
340.356796730158
 30
0.0
  0
POINT
  5
7377
330
736D
100
AcDbEntity
  8
Defpoints
 62
     0
100
AcDbPoint
 10
99.87303692259809
 20
286.4917085614688
 30
0.0
  0
POINT
  5
7378
330
736D
100
AcDbEntity
  8
Defpoints
 62
     0
100
AcDbPoint
 10
66.3856476414864
 20
286.4917085614688
 30
0.0
  0
ENDBLK
  5
736F
330
736D
100
AcDbEntity
  8
0
100
AcDbBlockEnd
  0
BLOCK
  5
737D
330
737C
100
AcDbEntity
  8
0
100
AcDbBlockBegin
  2
*D11
 70
     1
 10
0.0
 20
0.0
 30
0.0
  3
*D11
  1

  0
LINE
  5
737F
330
737C
100
AcDbEntity
  8
寸法
  6
Continuous
 62
     0
370
    -2
100
AcDbLine
 10
142.8282867502496
 20
347.1980355275072
 30
0.0
 11
255.3623703108362
 21
347.1980355275072
 31
0.0
  0
LINE
  5
7380
330
737C
100
AcDbEntity
  8
寸法
  6
Continuous
 62
     0
370
    -2
100
AcDbLine
 10
239.873036922598
 20
309.4917085614688
 30
0.0
 11
255.3623703108362
 21
309.4917085614688
 31
0.0
  0
LINE
  5
7381
330
737C
100
AcDbEntity
  8
寸法
  6
Continuous
 62
     0
370
    -2
100
AcDbLine
 10
255.3623703108362
 20
345.6980355275072
 30
0.0
 11
255.3623703108362
 21
310.9917085614688
 31
0.0
  0
INSERT
  5
7382
330
737C
100
AcDbEntity
  8
寸法
 62
     0
370
    -2
100
AcDbBlockReference
  2
_DOT
 10
255.3623703108362
 20
347.1980355275072
 30
0.0
 41
1.5
 42
1.5
 43
1.5
 50
90.0
  0
INSERT
  5
7383
330
737C
100
AcDbEntity
  8
寸法
 62
     0
370
    -2
100
AcDbBlockReference
  2
_DOT
 10
255.3623703108362
 20
309.4917085614688
 30
0.0
 41
1.5
 42
1.5
 43
1.5
 50
270.0
  0
MTEXT
  5
7384
330
737C
100
AcDbEntity
  8
寸法
  6
Continuous
 62
     0
100
AcDbMText
 10
250.8614324591418
 20
328.344872044488
 30
0.0
 40
5.0
 41
0.0
 46
0.0
 71
     5
 72
     1
  1
\A1;37
  7
ＭＳ ゴシック
 11
0.0
 21
1.0
 31
0.0
 73
     1
 44
1.0
  0
POINT
  5
7385
330
737C
100
AcDbEntity
  8
Defpoints
 62
     0
100
AcDbPoint
 10
137.8282867502496
 20
347.1980355275072
 30
0.0
  0
POINT
  5
7386
330
737C
100
AcDbEntity
  8
Defpoints
 62
     0
100
AcDbPoint
 10
234.873036922598
 20
309.4917085614688
 30
0.0
  0
POINT
  5
7387
330
737C
100
AcDbEntity
  8
Defpoints
 62
     0
100
AcDbPoint
 10
255.3623703108362
 20
309.4917085614688
 30
0.0
  0
ENDBLK
  5
737E
330
737C
100
AcDbEntity
  8
0
100
AcDbBlockEnd
  0
BLOCK
  5
738C
330
738B
100
AcDbEntity
  8
0
100
AcDbBlockBegin
  2
*D12
 70
     1
 10
0.0
 20
0.0
 30
0.0
  3
*D12
  1

  0
LINE
  5
738E
330
738B
100
AcDbEntity
  8
寸法
  6
Continuous
 62
     0
370
    -2
100
AcDbLine
 10
239.873036922598
 20
286.8786946901566
 30
0.0
 11
255.3623703108362
 21
286.8786946901566
 31
0.0
  0
LINE
  5
738F
330
738B
100
AcDbEntity
  8
寸法
  6
Continuous
 62
     0
370
    -2
100
AcDbLine
 10
239.873036922598
 20
309.4917085614688
 30
0.0
 11
255.3623703108362
 21
309.4917085614688
 31
0.0
  0
LINE
  5
7390
330
738B
100
AcDbEntity
  8
寸法
  6
Continuous
 62
     0
370
    -2
100
AcDbLine
 10
255.3623703108362
 20
288.3786946901566
 30
0.0
 11
255.3623703108362
 21
307.9917085614688
 31
0.0
  0
INSERT
  5
7391
330
738B
100
AcDbEntity
  8
寸法
 62
     0
370
    -2
100
AcDbBlockReference
  2
_DOT
 10
255.3623703108362
 20
286.8786946901566
 30
0.0
 41
1.5
 42
1.5
 43
1.5
 50
270.0
  0
INSERT
  5
7392
330
738B
100
AcDbEntity
  8
寸法
 62
     0
370
    -2
100
AcDbBlockReference
  2
_DOT
 10
255.3623703108362
 20
309.4917085614688
 30
0.0
 41
1.5
 42
1.5
 43
1.5
 50
90.0
  0
MTEXT
  5
7393
330
738B
100
AcDbEntity
  8
寸法
  6
Continuous
 62
     0
100
AcDbMText
 10
250.8614324591418
 20
298.1852016258127
 30
0.0
 40
5.0
 41
0.0
 46
0.0
 71
     5
 72
     1
  1
\A1;23
  7
ＭＳ ゴシック
 11
0.0
 21
1.0
 31
0.0
 73
     1
 44
1.0
  0
POINT
  5
7394
330
738B
100
AcDbEntity
  8
Defpoints
 62
     0
100
AcDbPoint
 10
234.873036922598
 20
286.8786946901566
 30
0.0
  0
POINT
  5
7395
330
738B
100
AcDbEntity
  8
Defpoints
 62
     0
100
AcDbPoint
 10
234.873036922598
 20
309.4917085614688
 30
0.0
  0
POINT
  5
7396
330
738B
100
AcDbEntity
  8
Defpoints
 62
     0
100
AcDbPoint
 10
255.3623703108362
 20
309.4917085614688
 30
0.0
  0
ENDBLK
  5
738D
330
738B
100
AcDbEntity
  8
0
100
AcDbBlockEnd
  0
BLOCK
  5
739B
330
739A
100
AcDbEntity
  8
0
100
AcDbBlockBegin
  2
*D13
 70
     1
 10
0.0
 20
0.0
 30
0.0
  3
*D13
  1

  0
LINE
  5
739D
330
739A
100
AcDbEntity
  8
寸法
  6
Continuous
 62
     0
370
    -2
100
AcDbLine
 10
238.894152159648
 20
347.1980355275072
 30
0.0
 11
277.5538033217359
 21
347.1980355275072
 31
0.0
  0
LINE
  5
739E
330
739A
100
AcDbEntity
  8
寸法
  6
Continuous
 62
     0
370
    -2
100
AcDbLine
 10
239.873036922598
 20
286.8786946901566
 30
0.0
 11
277.5538033217359
 21
286.8786946901566
 31
0.0
  0
LINE
  5
739F
330
739A
100
AcDbEntity
  8
寸法
  6
Continuous
 62
     0
370
    -2
100
AcDbLine
 10
277.5538033217359
 20
345.6980355275072
 30
0.0
 11
277.5538033217359
 21
288.3786946901566
 31
0.0
  0
INSERT
  5
73A0
330
739A
100
AcDbEntity
  8
寸法
 62
     0
370
    -2
100
AcDbBlockReference
  2
_DOT
 10
277.5538033217359
 20
347.1980355275072
 30
0.0
 41
1.5
 42
1.5
 43
1.5
 50
90.0
  0
INSERT
  5
73A1
330
739A
100
AcDbEntity
  8
寸法
 62
     0
370
    -2
100
AcDbBlockReference
  2
_DOT
 10
277.5538033217359
 20
286.8786946901566
 30
0.0
 41
1.5
 42
1.5
 43
1.5
 50
270.0
  0
MTEXT
  5
73A2
330
739A
100
AcDbEntity
  8
寸法
  6
Continuous
 62
     0
100
AcDbMText
 10
273.0538033217359
 20
317.0383651088319
 30
0.0
 40
5.0
 41
0.0
 46
0.0
 71
     5
 72
     1
  1
\A1;60
  7
ＭＳ ゴシック
 11
0.0
 21
1.0
 31
0.0
 73
     1
 44
1.0
  0
POINT
  5
73A3
330
739A
100
AcDbEntity
  8
Defpoints
 62
     0
100
AcDbPoint
 10
233.894152159648
 20
347.1980355275072
 30
0.0
  0
POINT
  5
73A4
330
739A
100
AcDbEntity
  8
Defpoints
 62
     0
100
AcDbPoint
 10
234.873036922598
 20
286.8786946901566
 30
0.0
  0
POINT
  5
73A5
330
739A
100
AcDbEntity
  8
Defpoints
 62
     0
100
AcDbPoint
 10
277.5538033217359
 20
286.8786946901566
 30
0.0
  0
ENDBLK
  5
739C
330
739A
100
AcDbEntity
  8
0
100
AcDbBlockEnd
  0
BLOCK
  5
73D4
330
73D3
100
AcDbEntity
  8
0
100
AcDbBlockBegin
  2
*D14
 70
     1
 10
0.0
 20
0.0
 30
0.0
  3
*D14
  1

  0
LINE
  5
73D6
330
73D3
100
AcDbEntity
  8
寸法
 62
     0
370
    -2
100
AcDbLine
 10
92.37303692259815
 20
355.4977880492165
 30
0.0
 11
92.37303692259815
 21
366.0266302359436
 31
0.0
  0
LINE
  5
73D7
330
73D3
100
AcDbEntity
  8
寸法
 62
     0
370
    -2
100
AcDbLine
 10
130.3730369225981
 20
355.4977880492165
 30
0.0
 11
130.3730369225981
 21
366.0266302359436
 31
0.0
  0
LINE
  5
73D8
330
73D3
100
AcDbEntity
  8
寸法
 62
     0
370
    -2
100
AcDbLine
 10
93.87303692259815
 20
366.0266302359436
 30
0.0
 11
128.8730369225981
 21
366.0266302359436
 31
0.0
  0
INSERT
  5
73D9
330
73D3
100
AcDbEntity
  8
寸法
 62
     0
370
    -2
100
AcDbBlockReference
  2
_DOT
 10
92.37303692259815
 20
366.0266302359436
 30
0.0
 41
1.5
 42
1.5
 43
1.5
 50
180.0
  0
INSERT
  5
73DA
330
73D3
100
AcDbEntity
  8
寸法
 62
     0
370
    -2
100
AcDbBlockReference
  2
_DOT
 10
130.3730369225981
 20
366.0266302359436
 30
0.0
 41
1.5
 42
1.5
 43
1.5
  0
MTEXT
  5
73DB
330
73D3
100
AcDbEntity
  8
寸法
  6
Continuous
 62
     0
100
AcDbMText
 10
111.3730369225982
 20
370.527568087638
 30
0.0
 40
5.0
 41
0.0
 46
0.0
 71
     5
 72
     1
  1
\A1;38
  7
ＭＳ ゴシック
 73
     1
 44
1.0
  0
POINT
  5
73DC
330
73D3
100
AcDbEntity
  8
Defpoints
 62
     0
100
AcDbPoint
 10
92.37303692259815
 20
350.4977880492165
 30
0.0
  0
POINT
  5
73DD
330
73D3
100
AcDbEntity
  8
Defpoints
 62
     0
100
AcDbPoint
 10
130.3730369225981
 20
350.4977880492165
 30
0.0
  0
POINT
  5
73DE
330
73D3
100
AcDbEntity
  8
Defpoints
 62
     0
100
AcDbPoint
 10
130.3730369225981
 20
366.0266302359436
 30
0.0
  0
ENDBLK
  5
73D5
330
73D3
100
AcDbEntity
  8
0
100
AcDbBlockEnd
  0
BLOCK
  5
73E4
330
73E3
100
AcDbEntity
  8
0
100
AcDbBlockBegin
  2
*D15
 70
     1
 10
0.0
 20
0.0
 30
0.0
  3
*D15
  1

  0
LINE
  5
73E6
330
73E3
100
AcDbEntity
  8
寸法
  6
Continuous
 62
     0
370
    -2
100
AcDbLine
 10
99.87303692259809
 20
281.4917085614688
 30
0.0
 11
99.87303692259809
 21
251.6359246242545
 31
0.0
  0
LINE
  5
73E7
330
73E3
100
AcDbEntity
  8
寸法
  6
Continuous
 62
     0
370
    -2
100
AcDbLine
 10
234.873036922598
 20
281.4917085614688
 30
0.0
 11
234.873036922598
 21
251.6359246242545
 31
0.0
  0
LINE
  5
73E8
330
73E3
100
AcDbEntity
  8
寸法
  6
Continuous
 62
     0
370
    -2
100
AcDbLine
 10
101.3730369225981
 20
251.6359246242545
 30
0.0
 11
233.373036922598
 21
251.6359246242545
 31
0.0
  0
INSERT
  5
73E9
330
73E3
100
AcDbEntity
  8
寸法
 62
     0
370
    -2
100
AcDbBlockReference
  2
_DOT
 10
99.87303692259809
 20
251.6359246242545
 30
0.0
 41
1.5
 42
1.5
 43
1.5
 50
180.0
  0
INSERT
  5
73EA
330
73E3
100
AcDbEntity
  8
寸法
 62
     0
370
    -2
100
AcDbBlockReference
  2
_DOT
 10
234.873036922598
 20
251.6359246242545
 30
0.0
 41
1.5
 42
1.5
 43
1.5
  0
MTEXT
  5
73EB
330
73E3
100
AcDbEntity
  8
寸法
  6
Continuous
 62
     0
100
AcDbMText
 10
167.373036922598
 20
256.1368624759489
 30
0.0
 40
5.0
 41
0.0
 46
0.0
 71
     5
 72
     1
  1
\A1;135
  7
ＭＳ ゴシック
 73
     1
 44
1.0
  0
POINT
  5
73EC
330
73E3
100
AcDbEntity
  8
Defpoints
 62
     0
100
AcDbPoint
 10
99.87303692259809
 20
286.4917085614688
 30
0.0
  0
POINT
  5
73ED
330
73E3
100
AcDbEntity
  8
Defpoints
 62
     0
100
AcDbPoint
 10
234.873036922598
 20
286.4917085614688
 30
0.0
  0
POINT
  5
73EE
330
73E3
100
AcDbEntity
  8
Defpoints
 62
     0
100
AcDbPoint
 10
234.873036922598
 20
251.6359246242545
 30
0.0
  0
ENDBLK
  5
73E5
330
73E3
100
AcDbEntity
  8
0
100
AcDbBlockEnd
  0
BLOCK
  5
73F3
330
73F2
100
AcDbEntity
  8
0
100
AcDbBlockBegin
  2
*D16
 70
     1
 10
0.0
 20
0.0
 30
0.0
  3
*D16
  1

  0
LINE
  5
73F5
330
73F2
100
AcDbEntity
  8
寸法
  6
Continuous
 62
     0
370
    -2
100
AcDbLine
 10
383.5779142959905
 20
338.3301258053131
 30
0.0
 11
350.6223074737031
 21
338.3301258053131
 31
0.0
  0
LINE
  5
73F6
330
73F2
100
AcDbEntity
  8
寸法
  6
Continuous
 62
     0
370
    -2
100
AcDbLine
 10
383.3671412949817
 20
285.4608950360822
 30
0.0
 11
350.6223074737031
 21
285.4608950360822
 31
0.0
  0
LINE
  5
73F7
330
73F2
100
AcDbEntity
  8
寸法
  6
Continuous
 62
     0
370
    -2
100
AcDbLine
 10
350.6223074737031
 20
336.8301258053131
 30
0.0
 11
350.6223074737031
 21
286.9608950360822
 31
0.0
  0
INSERT
  5
73F8
330
73F2
100
AcDbEntity
  8
寸法
 62
     0
370
    -2
100
AcDbBlockReference
  2
_DOT
 10
350.6223074737031
 20
338.3301258053131
 30
0.0
 41
1.5
 42
1.5
 43
1.5
 50
90.0
  0
INSERT
  5
73F9
330
73F2
100
AcDbEntity
  8
寸法
 62
     0
370
    -2
100
AcDbBlockReference
  2
_DOT
 10
350.6223074737031
 20
285.4608950360822
 30
0.0
 41
1.5
 42
1.5
 43
1.5
 50
270.0
  0
MTEXT
  5
73FA
330
73F2
100
AcDbEntity
  8
寸法
  6
Continuous
 62
     0
100
AcDbMText
 10
346.1213696220087
 20
311.8955104206976
 30
0.0
 40
5.0
 41
0.0
 46
0.0
 71
     5
 72
     1
  1
\A1;%%c53
  7
ＭＳ ゴシック
 11
0.0
 21
1.0
 31
0.0
 73
     1
 44
1.0
  0
POINT
  5
73FB
330
73F2
100
AcDbEntity
  8
Defpoints
 62
     0
100
AcDbPoint
 10
388.5779142959905
 20
338.3301258053131
 30
0.0
  0
POINT
  5
73FC
330
73F2
100
AcDbEntity
  8
Defpoints
 62
     0
100
AcDbPoint
 10
388.3671412949817
 20
285.4608950360822
 30
0.0
  0
POINT
  5
73FD
330
73F2
100
AcDbEntity
  8
Defpoints
 62
     0
100
AcDbPoint
 10
350.6223074737031
 20
285.4608950360822
 30
0.0
  0
ENDBLK
  5
73F4
330
73F2
100
AcDbEntity
  8
0
100
AcDbBlockEnd
  0
BLOCK
  5
7402
330
7401
100
AcDbEntity
  8
0
100
AcDbBlockBegin
  2
*D17
 70
     1
 10
0.0
 20
0.0
 30
0.0
  3
*D17
  1

  0
LINE
  5
7404
330
7401
100
AcDbEntity
  8
寸法
  6
Continuous
 62
     0
370
    -2
100
AcDbLine
 10
117.873036922598
 20
139.5362362001525
 30
0.0
 11
117.873036922598
 21
126.8410890121899
 31
0.0
  0
LINE
  5
7405
330
7401
100
AcDbEntity
  8
寸法
  6
Continuous
 62
     0
370
    -2
100
AcDbLine
 10
111.373036922598
 20
139.5362362001525
 30
0.0
 11
111.373036922598
 21
126.8410890121899
 31
0.0
  0
LINE
  5
7406
330
7401
100
AcDbEntity
  8
寸法
  6
Continuous
 62
     0
370
    -2
100
AcDbLine
 10
117.873036922598
 20
126.8410890121899
 30
0.0
 11
133.886182477181
 21
126.8410890121899
 31
0.0
  0
LINE
  5
7407
330
7401
100
AcDbEntity
  8
寸法
  6
Continuous
 62
     0
370
    -2
100
AcDbLine
 10
116.373036922598
 20
126.8410890121899
 30
0.0
 11
112.873036922598
 21
126.8410890121899
 31
0.0
  0
LINE
  5
7408
330
7401
100
AcDbEntity
  8
寸法
  6
Continuous
 62
     0
370
    -2
100
AcDbLine
 10
116.373036922598
 20
126.8410890121899
 30
0.0
 11
114.873036922598
 21
126.8410890121899
 31
0.0
  0
INSERT
  5
7409
330
7401
100
AcDbEntity
  8
寸法
 62
     0
370
    -2
100
AcDbBlockReference
  2
_DOT
 10
117.873036922598
 20
126.8410890121899
 30
0.0
 41
1.5
 42
1.5
 43
1.5
  0
INSERT
  5
740A
330
7401
100
AcDbEntity
  8
寸法
 62
     0
370
    -2
100
AcDbBlockReference
  2
_DOT
 10
111.373036922598
 20
126.8410890121899
 30
0.0
 41
1.5
 42
1.5
 43
1.5
 50
180.0
  0
MTEXT
  5
740B
330
7401
100
AcDbEntity
  8
寸法
  6
Continuous
 62
     0
100
AcDbMText
 10
127.3796096998895
 20
131.3420268638843
 30
0.0
 40
5.0
 41
0.0
 46
0.0
 71
     5
 72
     1
  1
\A1;6.5
  7
ＭＳ ゴシック
 73
     1
 44
1.0
  0
POINT
  5
740C
330
7401
100
AcDbEntity
  8
Defpoints
 62
     0
100
AcDbPoint
 10
117.873036922598
 20
144.5362362001525
 30
0.0
  0
POINT
  5
7447
330
7401
100
AcDbEntity
  8
Defpoints
 62
     0
100
AcDbPoint
 10
111.373036922598
 20
144.5362362001525
 30
0.0
  0
POINT
  5
7448
330
7401
100
AcDbEntity
  8
Defpoints
 62
     0
100
AcDbPoint
 10
111.373036922598
 20
126.8410890121899
 30
0.0
  0
ENDBLK
  5
7403
330
7401
100
AcDbEntity
  8
0
100
AcDbBlockEnd
  0
BLOCK
  5
7412
330
7411
100
AcDbEntity
  8
0
100
AcDbBlockBegin
  2
*D18
 70
     1
 10
0.0
 20
0.0
 30
0.0
  3
*D18
  1

  0
LINE
  5
7414
330
7411
100
AcDbEntity
  8
寸法
  6
Continuous
 62
     0
370
    -2
100
AcDbLine
 10
527.7309504458342
 20
323.380125805313
 30
0.0
 11
541.7819086339002
 21
323.380125805313
 31
0.0
  0
LINE
  5
7415
330
7411
100
AcDbEntity
  8
寸法
  6
Continuous
 62
     0
370
    -2
100
AcDbLine
 10
527.7309504458342
 20
300.380125805313
 30
0.0
 11
541.7819086339002
 21
300.380125805313
 31
0.0
  0
LINE
  5
7416
330
7411
100
AcDbEntity
  8
寸法
  6
Continuous
 62
     0
370
    -2
100
AcDbLine
 10
541.7819086339002
 20
321.880125805313
 30
0.0
 11
541.7819086339002
 21
301.880125805313
 31
0.0
  0
INSERT
  5
7417
330
7411
100
AcDbEntity
  8
寸法
 62
     0
370
    -2
100
AcDbBlockReference
  2
_DOT
 10
541.7819086339002
 20
323.380125805313
 30
0.0
 41
1.5
 42
1.5
 43
1.5
 50
90.0
  0
INSERT
  5
7418
330
7411
100
AcDbEntity
  8
寸法
 62
     0
370
    -2
100
AcDbBlockReference
  2
_DOT
 10
541.7819086339002
 20
300.380125805313
 30
0.0
 41
1.5
 42
1.5
 43
1.5
 50
270.0
  0
MTEXT
  5
7419
330
7411
100
AcDbEntity
  8
寸法
  6
Continuous
 62
     0
100
AcDbMText
 10
537.2809707822058
 20
311.880125805313
 30
0.0
 40
5.0
 41
0.0
 46
0.0
 71
     5
 72
     1
  1
\A1;23
  7
ＭＳ ゴシック
 11
0.0
 21
1.0
 31
0.0
 73
     1
 44
1.0
  0
POINT
  5
741A
330
7411
100
AcDbEntity
  8
Defpoints
 62
     0
100
AcDbPoint
 10
522.7309504458342
 20
323.380125805313
 30
0.0
  0
POINT
  5
741B
330
7411
100
AcDbEntity
  8
Defpoints
 62
     0
100
AcDbPoint
 10
522.7309504458342
 20
300.380125805313
 30
0.0
  0
POINT
  5
741C
330
7411
100
AcDbEntity
  8
Defpoints
 62
     0
100
AcDbPoint
 10
541.7819086339002
 20
300.380125805313
 30
0.0
  0
ENDBLK
  5
7413
330
7411
100
AcDbEntity
  8
0
100
AcDbBlockEnd
  0
ENDSEC
  0
SECTION
  2
ENTITIES
  0
LINE
  5
54A0
330
A
100
AcDbEntity
  8
PRINT BORDER
100
AcDbLine
 10
296.9999999999999
 20
0.0
 30
0.0
 11
296.9999999999999
 21
15.30952622855898
 31
0.0
  0
LINE
  5
54A1
330
A
100
AcDbEntity
  8
テンプレート
100
AcDbLine
 10
437.9999999999999
 20
38.27810890422097
 30
0.0
 11
15.30952622855898
 21
38.27810890422097
 31
0.0
  0
LINE
  5
54A2
330
A
100
AcDbEntity
  8
テンプレート
100
AcDbLine
 10
15.30952622855898
 20
26.22153683920783
 30
0.0
 11
578.6904737714407
 21
26.22153683920783
 31
0.0
  0
TEXT
  5
54A3
330
A
100
AcDbEntity
  8
テンプレート
100
AcDbText
 10
18.06121699514119
 20
32.16825981613692
 30
0.0
 40
3.5
  1
材質
  7
ＭＳ ゴシック
100
AcDbText
  0
TEXT
  5
54A4
330
A
100
AcDbEntity
  8
テンプレート
100
AcDbText
 10
18.06121699514119
 20
56.50959028673083
 30
0.0
 40
3.5
  1
品名
  7
ＭＳ ゴシック
100
AcDbText
  0
TEXT
  5
54A5
330
A
100
AcDbEntity
  8
テンプレート
100
AcDbText
 10
18.06121699514119
 20
44.65099339080098
 30
0.0
 40
3.5
  1
仕上げ
  7
ＭＳ ゴシック
100
AcDbText
  0
TEXT
  5
54A6
330
A
100
AcDbEntity
  8
テンプレート
100
AcDbText
 10
334.2723666997488
 20
56.58523052309897
 30
0.0
 40
3.5
  1
品番
  7
ＭＳ ゴシック
100
AcDbText
  0
TEXT
  5
54A7
330
A
100
AcDbEntity
  8
テンプレート
100
AcDbText
 10
36.7528253083583
 20
53.09440584367189
 30
0.0
 40
5.5
  1
レバーハンドル - FORMANI,Eclipse -
  7
ＭＳ ゴシック
100
AcDbText
  0
TEXT
  5
54A8
330
A
100
AcDbEntity
  8
テンプレート
100
AcDbText
 10
348.4661387242646
 20
52.977080524553
 30
0.0
 40
5.5
  1
FOR10-EC02-C
  7
ＭＳ ゴシック
100
AcDbText
  0
LINE
  5
54A9
330
A
100
AcDbEntity
  8
テンプレート
100
AcDbLine
 10
437.9999999999999
 20
50.16496477419605
 30
0.0
 11
15.30952622855898
 21
50.16496477419605
 31
0.0
  0
LINE
  5
54AA
330
A
100
AcDbEntity
  8
テンプレート
100
AcDbLine
 10
578.6904737714411
 20
62.22153683920783
 30
0.0
 11
15.30952622855898
 21
62.22153683920783
 31
0.0
  0
LINE
  5
54AB
330
A
100
AcDbEntity
  8
PRINT BORDER
100
AcDbLine
 10
593.9999999999999
 20
210.0
 30
0.0
 11
578.6904737714411
 21
210.0
 31
0.0
  0
LINE
  5
54AC
330
A
100
AcDbEntity
  8
PRINT BORDER
100
AcDbLine
 10
0.0
 20
210.0
 30
0.0
 11
15.30952622855898
 21
210.0
 31
0.0
  0
LINE
  5
54AD
330
A
100
AcDbEntity
  8
PRINT BORDER
100
AcDbLine
 10
296.9999999999999
 20
420.0
 30
0.0
 11
296.9999999999999
 21
404.690473771441
 31
0.0
  0
LINE
  5
54AE
330
A
100
AcDbEntity
  8
テンプレート
100
AcDbLine
 10
578.6904737714411
 20
62.22153683920783
 30
0.0
 11
578.6904737714411
 21
26.22153683920783
 31
0.0
  0
LINE
  5
54AF
330
A
100
AcDbEntity
  8
テンプレート
100
AcDbLine
 10
15.30952622855898
 20
62.22153683920783
 30
0.0
 11
15.30952622855898
 21
26.22153683920783
 31
0.0
  0
TEXT
  5
54B0
330
A
100
AcDbEntity
  8
テンプレート
100
AcDbText
 10
494.9733384955217
 20
16.51938390313694
 30
0.0
 40
5.5
  1
大洋金物株式会社  
  7
ＭＳ ゴシック
100
AcDbText
  0
LINE
  5
54B1
330
A
100
AcDbEntity
  8
テンプレート
100
AcDbLine
 10
437.9999999999999
 20
62.22153683920783
 30
0.0
 11
437.9999999999999
 21
26.22153683920783
 31
0.0
  0
LINE
  5
54B2
330
A
100
AcDbEntity
  8
テンプレート
100
AcDbLine
 10
332.4490181818181
 20
62.22153683920783
 30
0.0
 11
332.4490181818181
 21
26.22153683920783
 31
0.0
  0
INSERT
  5
54B3
330
A
100
AcDbEntity
  8
テンプレート
100
AcDbBlockReference
  2
名称未設定-1
 10
548.3945198859805
 20
-7.642344203993161
 30
0.0
 41
0.180975
 42
0.180975
 43
0.180975
  0
LINE
  5
54B5
330
A
100
AcDbEntity
  8
テンプレート
100
AcDbLine
 10
15.30952622855898
 20
210.0
 30
0.0
 11
15.30952622855898
 21
26.22153683920783
 31
0.0
  0
LINE
  5
54B6
330
A
100
AcDbEntity
  8
テンプレート
100
AcDbLine
 10
15.30952622855898
 20
210.0
 30
0.0
 11
15.30952622855898
 21
404.690473771441
 31
0.0
  0
LINE
  5
54B7
330
A
100
AcDbEntity
  8
テンプレート
100
AcDbLine
 10
296.9999999999999
 20
404.690473771441
 30
0.0
 11
15.30952622855887
 21
404.690473771441
 31
0.0
  0
LINE
  5
54B8
330
A
100
AcDbEntity
  8
テンプレート
100
AcDbLine
 10
296.9999999999999
 20
404.690473771441
 30
0.0
 11
578.6904737714411
 21
404.690473771441
 31
0.0
  0
LINE
  5
54B9
330
A
100
AcDbEntity
  8
テンプレート
100
AcDbLine
 10
578.6904737714411
 20
210.0
 30
0.0
 11
578.6904737714411
 21
404.690473771441
 31
0.0
  0
LINE
  5
54BA
330
A
100
AcDbEntity
  8
テンプレート
100
AcDbLine
 10
578.6904737714411
 20
210.0
 30
0.0
 11
578.6904737714411
 21
26.22153683920783
 31
0.0
  0
LWPOLYLINE
  5
54BB
330
A
100
AcDbEntity
  8
PRINT BORDER
  6
HIDDEN
 48
3.0
100
AcDbPolyline
 90
        4
 70
     1
 43
0.0
 10
0.0
 20
0.0
 10
0.0
 20
420.0
 10
593.9999999999999
 20
420.0
 10
593.9999999999999
 20
0.0
  0
TEXT
  5
54BC
330
A
100
AcDbEntity
  8
テンプレート
100
AcDbText
 10
334.2479338040403
 20
32.62405342819488
 30
0.0
 40
3.5
  1
縮尺
  7
ＭＳ ゴシック
100
AcDbText
  0
TEXT
  5
54BD
330
A
100
AcDbEntity
  8
テンプレート
100
AcDbText
 10
348.4661387242646
 20
28.29362070227194
 30
0.0
 40
5.5
  1
1/2
  7
ＭＳ ゴシック
100
AcDbText
  0
TEXT
  5
54BE
330
A
100
AcDbEntity
  8
テンプレート
100
AcDbText
 10
334.2723666997488
 20
44.52865845808583
 30
0.0
 40
3.5
  1
扉厚
  7
ＭＳ ゴシック
100
AcDbText
  0
TEXT
  5
54BF
330
A
100
AcDbEntity
  8
テンプレート
100
AcDbText
 10
440.0887524673468
 20
56.58523052309897
 30
0.0
 40
3.5
  1
備考
  7
ＭＳ ゴシック
100
AcDbText
  0
LWPOLYLINE
  5
5528
330
A
100
AcDbEntity
  8
Defpoints
100
AcDbPolyline
 90
        4
 70
     1
 43
0.0
 10
161.5928474918056
 20
97.1045060433407
 10
161.5928474918056
 20
69.6571102646527
 10
432.4071525081941
 20
69.6571102646527
 10
432.4071525081941
 20
97.1045060433407
  0
LINE
  5
5529
330
A
100
AcDbEntity
  8
Defpoints
  6
CENTER
 48
3.0
100
AcDbLine
 10
296.9999999999999
 20
404.690473771441
 30
0.0
 11
297.0
 21
106.25363796957
 31
0.0
  0
LINE
  5
552A
330
A
100
AcDbEntity
  8
Defpoints
  6
CENTER
 48
3.0
100
AcDbLine
 10
15.30952622855898
 20
255.4720558705055
 30
0.0
 11
578.690473771441
 21
255.4720558705055
 31
0.0
  0
LINE
  5
552B
330
A
100
AcDbEntity
  8
Defpoints
  6
CENTER
 48
3.0
100
AcDbLine
 10
15.30952622855898
 20
106.25363796957
 30
0.0
 11
578.690473771441
 21
106.25363796957
 31
0.0
  0
LINE
  5
552C
330
A
100
AcDbEntity
  8
Defpoints
  6
CENTER
 48
3.0
100
AcDbLine
 10
408.8721245115548
 20
224.6771809568476
 30
0.0
 11
408.8721245115548
 21
137.0485128832279
 31
0.0
  0
LINE
  5
552D
330
A
100
AcDbEntity
  8
Defpoints
  6
CENTER
 48
3.0
100
AcDbLine
 10
365.057790474745
 20
180.8628469200378
 30
0.0
 11
452.6864585483647
 21
180.8628469200378
 31
0.0
  0
DIMENSION
  5
5545
330
A
100
AcDbEntity
  8
寸法
100
AcDbDimension
  2
*D6
 10
380.3880515548078
 20
133.1991721474874
 30
0.0
 11
366.7305515548078
 21
133.1991721474874
 31
0.0
 70
   160
  1
 
 71
     5
 42
38.0
 73
     0
 74
     1
 75
     1
  3
tfrom線あり
100
AcDbAlignedDimension
 13
418.3880515548078
 23
165.9870797291797
 33
0.0
 14
380.3880515548078
 24
165.9870797291797
 34
0.0
100
AcDbRotatedDimension
1001
ACAD
1000
DSTYLE
1002
{
1070
   172
1070
     1
1002
}
  0
TEXT
  5
55CA
330
A
100
AcDbEntity
  8
寸法
100
AcDbText
 10
344.3078917704622
 20
214.1820444355895
 30
0.0
 40
5.0
  1
<切欠図>
  7
ＭＳ ゴシック
100
AcDbText
  0
TEXT
  5
55D4
330
A
100
AcDbEntity
  8
寸法
100
AcDbText
 10
366.3465435159121
 20
135.6941880079757
 30
0.0
 40
5.0
  1
ø8
  7
ＭＳ ゴシック
100
AcDbText
  0
LINE
  5
59F5
330
A
100
AcDbEntity
  8
テンプレート
  6
Continuous
100
AcDbLine
 10
33.63100153769659
 20
26.22153683920783
 30
0.0
 11
33.63100153769659
 21
50.16496477419605
 31
0.0
  0
MTEXT
  5
59F7
102
{ACAD_XDICTIONARY
360
59F8
102
}
330
A
100
AcDbEntity
  8
寸法
  6
Continuous
370
     0
100
AcDbMText
 10
16.03746315898582
 20
23.37395828580276
 30
0.0
 40
4.0
 41
0.0
 46
4.0
 71
     1
 72
     1
  1
{20221024M}
  7
ＭＳ ゴシック
 73
     1
 44
1.0
1001
ACAD
1000
ACAD_MTEXT_DEFINED_HEIGHT_BEGIN
1070
    46
1040
4.0
1000
ACAD_MTEXT_DEFINED_HEIGHT_END
  0
TEXT
  5
5A3E
330
A
100
AcDbEntity
  8
テンプレート
100
AcDbText
 10
198.3644813968004
 20
95.5884545316406
 30
0.0
 40
5.0
  1
　 加工は現物合わせの上行って下さい。
  7
ＭＳ ゴシック
100
AcDbText
  0
TEXT
  5
5A3F
330
A
100
AcDbEntity
  8
テンプレート
100
AcDbText
 10
198.536724479009
 20
103.6922386277808
 30
0.0
 40
5.0
  1
※ 輸入製品の為、国内製品と比べ製品寸法の個体差に幅が有ります。
  7
ＭＳ ゴシック
100
AcDbText
  0
TEXT
  5
5A40
330
A
100
AcDbEntity
  8
テンプレート
100
AcDbText
 10
198.3644813968004
 20
86.21682322716009
 30
0.0
 40
5.0
  1
※ ご注文の際は正確な扉厚の指示をしてください。
  7
ＭＳ ゴシック
100
AcDbText
  0
TEXT
  5
5A41
330
A
100
AcDbEntity
  8
テンプレート
100
AcDbText
 10
198.3644813968004
 20
77.51733459617417
 30
0.0
 40
5.0
  1
※ イモネジ・ビスのゆるみ止め防止のために金属製ネジ用ゆるみ止め剤(中強度タイプ)
  7
ＭＳ ゴシック
100
AcDbText
  0
TEXT
  5
5A42
330
A
100
AcDbEntity
  8
テンプレート
100
AcDbText
 10
194.6000357179499
 20
68.07646144979792
 30
0.0
 40
5.0
  1
　　を用意して塗布してください。(推奨商品　住友3M社TL42J等)
  7
ＭＳ ゴシック
100
AcDbText
  0
MTEXT
  5
5A9F
330
A
100
AcDbEntity
  8
テンプレート
390
1D
100
AcDbMText
 10
40.82496584043753
 20
34.57354675141926
 30
0.0
 40
5.0
 41
0.0
 46
5.075
 71
     1
 72
     1
  1
{ステンレス}
  7
ＭＳ ゴシック
 73
     1
 44
0.7828267384257843
1001
ACAD
1000
ACAD_MTEXT_DEFINED_HEIGHT_BEGIN
1070
    46
1040
5.075
1000
ACAD_MTEXT_DEFINED_HEIGHT_END
  0
LINE
  5
5AA7
330
A
100
AcDbEntity
  8
テンプレート
  6
Continuous
100
AcDbLine
 10
224.2453682111437
 20
50.16496477419606
 30
0.0
 11
224.2453682111437
 21
38.27810890422099
 31
0.0
  0
LINE
  5
5AA8
330
A
100
AcDbEntity
  8
テンプレート
  6
Continuous
100
AcDbLine
 10
147.2638229208211
 20
50.16496477419603
 30
0.0
 11
147.2638229208211
 21
38.27810890422096
 31
0.0
  0
LINE
  5
5AA9
330
A
100
AcDbEntity
  8
テンプレート
  6
Continuous
100
AcDbLine
 10
86.44498978318508
 20
50.16496477419605
 30
0.0
 11
86.44498978318518
 21
38.27810890422097
 31
0.0
  0
LINE
  5
6CFF
330
A
100
AcDbEntity
  8
寸法
  6
Continuous
100
AcDbLine
 10
224.2453682111437
 20
38.27810890422099
 30
0.0
 11
224.2453682111437
 21
26.22153683920781
 31
0.0
  0
HATCH
  5
6F32
330
A
100
AcDbEntity
  8
CutoutOverlay
100
AcDbHatch
 10
0.0
 20
0.0
 30
0.0
210
0.0
220
0.0
230
1.0
  2
ANSI31
 70
     0
 71
     1
 91
        3
 92
        1
 93
        1
 72
     2
 10
380.2309504458343
 20
169.9839934437299
 40
4.0
 50
0.0
 51
360.0
 73
     1
 97
        1
330
6F34
 92
        1
 93
        1
 72
     2
 10
399.2309504458343
 20
169.9839934437299
 40
15.0
 50
0.0
 51
360.0
 73
     1
 97
        1
330
6F35
 92
        1
 93
        1
 72
     2
 10
418.2309504458343
 20
169.9839934437299
 40
4.0
 50
0.0
 51
360.0
 73
     1
 97
        1
330
6F33
 75
     0
 76
     1
 52
0.0
 41
1.0
 77
     0
 78
     1
 53
45.0
 43
-9.641174065720634
 44
-10.87885347630805
 45
-2.245064030267288
 46
2.245064030267288
 79
     0
 98
        1
 10
-9.641174065720634
 20
-10.87885347630805
1001
ACAD
1010
0.0
1020
0.0
1030
0.0
  0
CIRCLE
  5
6F33
102
{ACAD_REACTORS
330
6F32
102
}
330
A
100
AcDbEntity
  8
CutoutOverlay
100
AcDbCircle
 10
418.2309504458343
 20
169.9839934437299
 30
0.0
 40
4.0
  0
CIRCLE
  5
6F34
102
{ACAD_REACTORS
330
6F32
102
}
330
A
100
AcDbEntity
  8
CutoutOverlay
100
AcDbCircle
 10
380.2309504458343
 20
169.9839934437299
 30
0.0
 40
4.0
  0
CIRCLE
  5
6F35
102
{ACAD_REACTORS
330
6F32
102
}
330
A
100
AcDbEntity
  8
CutoutOverlay
100
AcDbCircle
 10
399.2309504458343
 20
169.9839934437299
 30
0.0
 40
15.0
  0
LEADER
  5
704E
102
{ACAD_REACTORS
330
7050
102
}
102
{ACAD_XDICTIONARY
360
704F
102
}
330
A
100
AcDbEntity
  8
寸法
100
AcDbLeader
  3
tfrom線あり
 76
     3
 10
399.0834933150218
 20
169.8639994789273
 30
0.0
 10
432.3643802165752
 20
145.5681020077099
 30
0.0
 10
500.3196587441826
 20
145.5681020077099
 30
0.0
  0
TEXT
  5
7051
330
A
100
AcDbEntity
  8
寸法
100
AcDbText
 10
433.9453172861976
 20
148.2035549574053
 30
0.0
 40
5.0
  1
レバー角芯 センター
  7
ＭＳ ゴシック
100
AcDbText
  0
TEXT
  5
714B
330
A
100
AcDbEntity
  8
寸法
100
AcDbText
 10
428.4283810505703
 20
191.0109332028099
 30
0.0
 40
5.0
  1
ø30
  7
ＭＳ ゴシック
100
AcDbText
  0
LEADER
  5
714C
102
{ACAD_REACTORS
330
714E
102
}
102
{ACAD_XDICTIONARY
360
714D
102
}
330
A
100
AcDbEntity
  8
寸法
100
AcDbLeader
  3
tfrom線あり
 76
     3
 10
399.3273538969544
 20
184.7951649183478
 30
0.0
 10
399.3273538969544
 20
189.6660932865356
 30
0.0
 10
438.4083364349424
 20
189.6660932865356
 30
0.0
  0
DIMENSION
  5
714F
330
A
100
AcDbEntity
  8
寸法
100
AcDbDimension
  2
*D7
 10
418.2309504458343
 20
201.7706170212118
 30
0.0
 11
408.7309504458343
 21
206.2715548729062
 31
0.0
 70
    32
 71
     5
 42
19.0
 73
     0
 74
     0
 75
     0
  3
tfrom線あり
100
AcDbAlignedDimension
 13
399.2309504458343
 23
188.1595059639388
 33
0.0
 14
418.2309504458343
 24
173.9839934437299
 34
0.0
100
AcDbRotatedDimension
  0
DIMENSION
  5
7150
330
A
100
AcDbEntity
  8
寸法
100
AcDbDimension
  2
*D8
 10
399.2309504458343
 20
201.7706170212118
 30
0.0
 11
389.7309504458343
 21
206.2715548729062
 31
0.0
 70
    32
 71
     5
 42
19.0
 73
     0
 74
     0
 75
     0
  3
tfrom線あり
100
AcDbAlignedDimension
 13
380.2309504458343
 23
173.9839934437299
 33
0.0
 14
399.2309504458343
 24
188.1595059639388
 34
0.0
100
AcDbRotatedDimension
  0
MTEXT
  5
718F
330
A
100
AcDbEntity
  8
テンプレート
390
1D
100
AcDbMText
 10
40.82496584043753
 20
46.67269218827177
 30
0.0
 40
5.0
 41
0.0
 46
5.190383893960235
 71
     1
 72
     1
  1
{サテン}
  7
ＭＳ ゴシック
 73
     1
 44
0.7828267384257843
1001
ACAD
1000
ACAD_MTEXT_DEFINED_HEIGHT_BEGIN
1070
    46
1040
5.190383893960235
1000
ACAD_MTEXT_DEFINED_HEIGHT_END
  0
MTEXT
  5
7190
330
A
100
AcDbEntity
  8
テンプレート
390
1D
100
AcDbMText
 10
89.3679633832603
 20
46.67269218827177
 30
0.0
 40
5.0
 41
0.0
 46
5.228445041890709
 71
     1
 72
     1
  1
{サテンゴールド}
  7
ＭＳ ゴシック
 73
     1
 44
0.7828267384257843
1001
ACAD
1000
ACAD_MTEXT_DEFINED_HEIGHT_BEGIN
1070
    46
1040
5.228445041890709
1000
ACAD_MTEXT_DEFINED_HEIGHT_END
  0
MTEXT
  5
7191
330
A
100
AcDbEntity
  8
テンプレート
390
1D
100
AcDbMText
 10
153.4388131847507
 20
46.67269218827178
 30
0.0
 40
5.0
 41
0.0
 46
5.480180067525322
 71
     1
 72
     1
  1
{PVDブラック}
  7
ＭＳ ゴシック
 73
     1
 44
0.7828267384257843
1001
ACAD
1000
ACAD_MTEXT_DEFINED_HEIGHT_BEGIN
1070
    46
1040
5.480180067525322
1000
ACAD_MTEXT_DEFINED_HEIGHT_END
  0
TEXT
  5
71B0
330
A
100
AcDbEntity
  8
テンプレート
100
AcDbText
 10
348.287419050599
 20
39.95597239419318
 30
0.0
 40
4.0
  1
ユーロケース(DIN規格)：36～55
  7
ＭＳ ゴシック
100
AcDbText
  0
TEXT
  5
71B1
330
A
100
AcDbEntity
  8
テンプレート
100
AcDbText
 10
348.7266559821136
 20
44.53513632240244
 30
0.0
 40
4.0
  1
MIWAケース：37～57
  7
ＭＳ ゴシック
100
AcDbText
  0
ARC
  5
721F
330
A
100
AcDbEntity
  8
CutoutUnderlay
  6
HIDDEN
 48
0.2
100
AcDbCircle
 10
397.7110196087127
 20
170.0200485538075
 30
0.0
 40
27.81171841588826
100
AcDbArc
 50
336.2493277876304
 51
24.34300773395566
  0
LINE
  5
72B0
330
A
100
AcDbEntity
  8
MODEL
100
AcDbLine
 10
113.3730369225971
 20
143.864762674499
 30
0.0
 11
113.3730369225971
 21
144.0356457921561
 31
0.0
  0
LINE
  5
72B1
330
A
100
AcDbEntity
  8
MODEL
100
AcDbLine
 10
111.3730369225971
 20
144.0046764815254
 30
0.0
 11
113.3730369225971
 21
144.0356457921561
 31
0.0
  0
LINE
  5
72B2
330
A
100
AcDbEntity
  8
MODEL
100
AcDbLine
 10
117.6730605870364
 20
196.6370700027384
 30
0.0
 11
111.373036922598
 21
196.7339934437298
 31
0.0
  0
LINE
  5
72B3
330
A
100
AcDbEntity
  8
MODEL
100
AcDbLine
 10
117.6730605870364
 20
143.9309168847211
 30
0.0
 11
113.373036922598
 21
143.864762674499
 31
0.0
  0
LINE
  5
72B4
102
{ACAD_REACTORS
330
7400
102
}
330
A
100
AcDbEntity
  8
MODEL
100
AcDbLine
 10
111.373036922598
 20
144.0046764815254
 30
0.0
 11
111.373036922598
 21
196.7339934437298
 31
0.0
  0
LINE
  5
72B5
330
A
100
AcDbEntity
  8
MODEL
100
AcDbLine
 10
117.8730369225979
 20
196.4339934437297
 30
0.0
 11
117.6730605870363
 21
196.6370700027383
 31
0.0
  0
LINE
  5
72B6
330
A
100
AcDbEntity
  8
MODEL
100
AcDbLine
 10
117.8730369225981
 20
144.1339934437296
 30
0.0
 11
117.6730605870365
 21
143.930916884721
 31
0.0
  0
LINE
  5
72B7
102
{ACAD_REACTORS
330
7400
102
}
330
A
100
AcDbEntity
  8
MODEL
100
AcDbLine
 10
117.873036922598
 20
196.4339934437298
 30
0.0
 11
117.873036922598
 21
144.1339934437297
 31
0.0
  0
LINE
  5
72B8
330
A
100
AcDbEntity
  8
MODEL
100
AcDbLine
 10
125.1966250912873
 20
158.7839934437298
 30
0.0
 11
160.2381250912872
 21
158.7839934437298
 31
0.0
  0
SPLINE
  5
72B9
330
A
100
AcDbEntity
  8
MODEL
100
AcDbSpline
210
0.0
220
0.0
230
1.0
 70
     8
 71
     3
 72
    23
 73
    19
 74
     0
 42
0.000000001
 43
0.0000000001
 40
1.115012706275244
 40
1.115012706275244
 40
1.115012706275244
 40
1.115012706275244
 40
1.207927014405055
 40
1.207927014405055
 40
1.300841322534866
 40
1.300841322534866
 40
1.393762465450929
 40
1.393762465450929
 40
1.486683608366991
 40
1.486683608366991
 40
1.486683608366991
 40
1.579604751283054
 40
1.579604751283054
 40
1.672525894199117
 40
1.672525894199117
 40
1.765440202328928
 40
1.765440202328928
 40
1.858354510458739
 40
1.858354510458739
 40
1.858354510458739
 40
1.858354510458739
 10
120.2796250912873
 20
158.7839934437298
 30
0.0
 10
120.2796250912873
 20
158.7839934437298
 30
0.0
 10
120.3417168078073
 20
158.7977671538621
 30
0.0
 10
120.5929159039773
 20
158.8475366390952
 30
0.0
 10
120.7819712098124
 20
158.8828523931777
 30
0.0
 10
121.2174509460454
 20
158.9494479172922
 30
0.0
 10
121.4932579574703
 20
158.9851228570114
 30
0.0
 10
122.0986835588037
 20
159.035719418549
 30
0.0
 10
122.428387948233
 20
159.0498589532583
 30
0.0
 10
122.7381250912865
 20
159.0498589532583
 30
0.0
 10
123.0478622343401
 20
159.0498589532583
 30
0.0
 10
123.3775666237695
 20
159.035719418549
 30
0.0
 10
123.9829922251031
 20
158.9851228570114
 30
0.0
 10
124.2587992365281
 20
158.9494479172922
 30
0.0
 10
124.6942789727613
 20
158.8828523931777
 30
0.0
 10
124.8833342785965
 20
158.8475366390952
 30
0.0
 10
125.134533374767
 20
158.7977671538621
 30
0.0
 10
125.1966250912872
 20
158.7839934437298
 30
0.0
 10
125.1966250912873
 20
158.7839934437298
 30
0.0
  0
ARC
  5
72BA
330
A
100
AcDbEntity
  8
MODEL
100
AcDbCircle
 10
160.2381250912872
 20
170.2839934437298
 30
0.0
 40
11.49999999999999
100
AcDbArc
 50
270.0
 51
90.0
  0
LINE
  5
72BB
330
A
100
AcDbEntity
  8
MODEL
100
AcDbLine
 10
117.873036922598
 20
158.7839934437298
 30
0.0
 11
120.2796250912873
 21
158.7839934437298
 31
0.0
  0
LINE
  5
72BC
330
A
100
AcDbEntity
  8
MODEL
100
AcDbLine
 10
117.873036922598
 20
181.7839934437298
 30
0.0
 11
160.2381250912872
 21
181.7839934437298
 31
0.0
  0
LINE
  5
72BD
330
A
100
AcDbEntity
  8
MODEL
100
AcDbLine
 10
110.723036922598
 20
162.4089934437298
 30
0.0
 11
109.3381250912874
 21
162.4089934437298
 31
0.0
  0
LINE
  5
72BE
330
A
100
AcDbEntity
  8
MODEL
100
AcDbLine
 10
110.723036922598
 20
178.1589934437297
 30
0.0
 11
109.3381250912874
 21
178.1589934437297
 31
0.0
  0
LINE
  5
72BF
330
A
100
AcDbEntity
  8
MODEL
100
AcDbLine
 10
109.3381250912874
 20
163.0839934437298
 30
0.0
 11
108.0381250912873
 21
163.0839934437298
 31
0.0
  0
LINE
  5
72C0
330
A
100
AcDbEntity
  8
MODEL
100
AcDbLine
 10
109.3381250912874
 20
177.4839934437298
 30
0.0
 11
108.0381250912873
 21
177.4839934437298
 31
0.0
  0
LINE
  5
72C1
330
A
100
AcDbEntity
  8
MODEL
100
AcDbLine
 10
108.0381250912873
 20
162.4089934437298
 30
0.0
 11
106.7381250912873
 21
162.4089934437298
 31
0.0
  0
LINE
  5
72C2
330
A
100
AcDbEntity
  8
MODEL
100
AcDbLine
 10
108.0381250912873
 20
178.1589934437297
 30
0.0
 11
106.7381250912873
 21
178.1589934437297
 31
0.0
  0
LINE
  5
72C3
330
A
100
AcDbEntity
  8
MODEL
100
AcDbLine
 10
109.3381250912874
 20
168.6839934437297
 30
0.0
 11
109.3381250912874
 21
162.4089934437298
 31
0.0
  0
LINE
  5
72C4
330
A
100
AcDbEntity
  8
MODEL
100
AcDbLine
 10
109.3381250912869
 20
178.1589934437297
 30
0.0
 11
109.338125091285
 21
171.8839934437298
 31
0.0
  0
LINE
  5
72C5
330
A
100
AcDbEntity
  8
MODEL
100
AcDbLine
 10
108.0381250912873
 20
168.6839934437297
 30
0.0
 11
108.0381250912873
 21
162.4089934437298
 31
0.0
  0
LINE
  5
72C6
330
A
100
AcDbEntity
  8
MODEL
100
AcDbLine
 10
108.0381250912868
 20
178.1589934437297
 30
0.0
 11
108.038125091285
 21
171.8839934437298
 31
0.0
  0
LINE
  5
72C7
330
A
100
AcDbEntity
  8
MODEL
100
AcDbLine
 10
106.7381250912873
 20
168.6839934437297
 30
0.0
 11
106.7381250912873
 21
162.4089934437298
 31
0.0
  0
LINE
  5
72C8
330
A
100
AcDbEntity
  8
MODEL
100
AcDbLine
 10
106.7381250912869
 20
178.1589934437297
 30
0.0
 11
106.7381250912851
 21
171.8839934437298
 31
0.0
  0
LINE
  5
72C9
330
A
100
AcDbEntity
  8
MODEL
100
AcDbLine
 10
106.7381250912851
 20
171.8839934437298
 30
0.0
 11
108.038125091285
 21
171.8839934437298
 31
0.0
  0
LINE
  5
72CA
330
A
100
AcDbEntity
  8
MODEL
100
AcDbLine
 10
108.0381250912853
 20
171.8839934437298
 30
0.0
 11
109.3381250912852
 21
171.8839934437298
 31
0.0
  0
LINE
  5
72CB
330
A
100
AcDbEntity
  8
MODEL
100
AcDbLine
 10
109.338125091285
 20
171.8839934437298
 30
0.0
 11
110.7230369225958
 21
171.8839934437298
 31
0.0
  0
LINE
  5
72CC
330
A
100
AcDbEntity
  8
MODEL
100
AcDbLine
 10
110.7230369225958
 20
168.6839934437297
 30
0.0
 11
109.338125091285
 21
168.6839934437297
 31
0.0
  0
LINE
  5
72CD
330
A
100
AcDbEntity
  8
MODEL
100
AcDbLine
 10
109.3381250912852
 20
168.6839934437297
 30
0.0
 11
108.0381250912853
 21
168.6839934437297
 31
0.0
  0
LINE
  5
72CE
330
A
100
AcDbEntity
  8
MODEL
100
AcDbLine
 10
108.038125091285
 20
168.6839934437297
 30
0.0
 11
106.7381250912851
 21
168.6839934437297
 31
0.0
  0
LINE
  5
72CF
330
A
100
AcDbEntity
  8
MODEL
100
AcDbLine
 10
111.373036922598
 20
160.5839934437298
 30
0.0
 11
110.723036922598
 21
160.5839934437298
 31
0.0
  0
LINE
  5
72D0
330
A
100
AcDbEntity
  8
MODEL
100
AcDbLine
 10
110.7230369225979
 20
180.8382887648247
 30
0.0
 11
110.7230369225979
 21
181.0213511480907
 31
0.0
  0
LINE
  5
72D1
330
A
100
AcDbEntity
  8
MODEL
100
AcDbLine
 10
111.3730369225979
 20
181.0213511480907
 30
0.0
 11
110.7230369225979
 21
181.0213511480907
 31
0.0
  0
LINE
  5
72D2
330
A
100
AcDbEntity
  8
MODEL
100
AcDbLine
 10
110.7230369225992
 20
160.5839934437298
 30
0.0
 11
110.7230369225968
 21
177.8115304042553
 31
0.0
  0
LINE
  5
72D3
330
A
100
AcDbEntity
  8
MODEL
100
AcDbLine
 10
111.3730369225968
 20
177.8115304042553
 30
0.0
 11
110.7230369225968
 21
177.8115304042553
 31
0.0
  0
LINE
  5
72D4
330
A
100
AcDbEntity
  8
MODEL
100
AcDbLine
 10
110.723036922597
 20
179.2404273363491
 30
0.0
 11
110.7230369225968
 21
177.8115304042553
 31
0.0
  0
LINE
  5
72D5
330
A
100
AcDbEntity
  8
MODEL
100
AcDbLine
 10
111.3730369225974
 20
180.8382887648247
 30
0.0
 11
110.7230369225975
 21
180.8382887648247
 31
0.0
  0
LINE
  5
72D6
330
A
100
AcDbEntity
  8
MODEL
100
AcDbLine
 10
111.373036922597
 20
179.2404273363491
 30
0.0
 11
110.723036922597
 21
179.2404273363491
 31
0.0
  0
LINE
  5
72D7
330
A
100
AcDbEntity
  8
MODEL
100
AcDbLine
 10
110.7230369225976
 20
179.2404273363491
 30
0.0
 11
110.7230369225975
 21
180.8382887648247
 31
0.0
  0
LINE
  5
72D8
330
A
100
AcDbEntity
  8
MODEL
100
AcDbLine
 10
137.7261134816068
 20
340.5567730657197
 30
0.0
 11
137.8230369225981
 21
346.856796730158
 31
0.0
  0
LINE
  5
72D9
330
A
100
AcDbEntity
  8
MODEL
100
AcDbLine
 10
85.01996036358946
 20
340.5567730657197
 30
0.0
 11
84.92303692259804
 21
346.8567967301581
 31
0.0
  0
LINE
  5
72DA
102
{ACAD_REACTORS
330
735A
102
}
330
A
100
AcDbEntity
  8
MODEL
100
AcDbLine
 10
84.92303692259804
 20
346.856796730158
 30
0.0
 11
137.8230369225981
 21
346.856796730158
 31
0.0
  0
LINE
  5
72DB
330
A
100
AcDbEntity
  8
MODEL
100
AcDbLine
 10
137.5230369225982
 20
340.356796730158
 30
0.0
 11
137.7261134816068
 21
340.5567730657197
 31
0.0
  0
LINE
  5
72DC
330
A
100
AcDbEntity
  8
MODEL
100
AcDbLine
 10
85.22303692259811
 20
340.356796730158
 30
0.0
 11
85.01996036358946
 21
340.5567730657197
 31
0.0
  0
LINE
  5
72DD
102
{ACAD_REACTORS
330
735A
330
736C
102
}
330
A
100
AcDbEntity
  8
MODEL
100
AcDbLine
 10
137.5230369225982
 20
340.356796730158
 30
0.0
 11
85.22303692259811
 21
340.356796730158
 31
0.0
  0
LINE
  5
72DE
330
A
100
AcDbEntity
  8
MODEL
100
AcDbLine
 10
234.873036922598
 20
309.4917085614688
 30
0.0
 11
122.8730369225981
 21
309.4917085614688
 31
0.0
  0
LINE
  5
72DF
330
A
100
AcDbEntity
  8
MODEL
100
AcDbLine
 10
123.9382921773687
 20
286.4917085614688
 30
0.0
 11
99.87303692259809
 21
286.4917085614688
 31
0.0
  0
LINE
  5
72E0
102
{ACAD_REACTORS
330
737B
330
738A
102
}
330
A
100
AcDbEntity
  8
MODEL
100
AcDbLine
 10
234.873036922598
 20
286.8786946901566
 30
0.0
 11
234.873036922598
 21
309.4917085614688
 31
0.0
  0
LINE
  5
72E1
102
{ACAD_REACTORS
330
738A
102
}
330
A
100
AcDbEntity
  8
MODEL
100
AcDbLine
 10
234.873036922598
 20
286.8786946901566
 30
0.0
 11
134.1730369225982
 21
286.8786946901566
 31
0.0
  0
LINE
  5
72E2
330
A
100
AcDbEntity
  8
MODEL
100
AcDbLine
 10
99.87303692259809
 20
340.356796730158
 30
0.0
 11
99.87303692259809
 21
286.4917085614688
 31
0.0
  0
LINE
  5
72E3
330
A
100
AcDbEntity
  8
MODEL
100
AcDbLine
 10
122.8730369225981
 20
340.356796730158
 30
0.0
 11
122.8730369225981
 21
309.4917085614688
 31
0.0
  0
LINE
  5
72E4
102
{ACAD_REACTORS
330
736C
330
73E2
102
}
330
A
100
AcDbEntity
  8
MODEL
100
AcDbLine
 10
111.3730369225981
 20
297.9917085614688
 30
0.0
 11
99.87303692259809
 21
286.4917085614688
 31
0.0
  0
LINE
  5
72E5
330
A
100
AcDbEntity
  8
MODEL
100
AcDbLine
 10
122.8730369225981
 20
309.4917085614688
 30
0.0
 11
111.3730369225981
 21
297.9917085614688
 31
0.0
  0
LINE
  5
72E6
330
A
100
AcDbEntity
  8
MODEL
100
AcDbLine
 10
111.7980369225983
 20
347.191708561471
 30
0.0
 11
110.9480369225982
 21
347.191708561471
 31
0.0
  0
LINE
  5
72E7
330
A
100
AcDbEntity
  8
MODEL
100
AcDbLine
 10
119.0837842923412
 20
348.8917085614682
 30
0.0
 11
103.662289552855
 21
348.8917085614692
 31
0.0
  0
LINE
  5
72E8
330
A
100
AcDbEntity
  8
MODEL
100
AcDbLine
 10
119.0837842923412
 20
350.1917085614683
 30
0.0
 11
103.662289552855
 21
350.1917085614692
 31
0.0
  0
LINE
  5
72E9
330
A
100
AcDbEntity
  8
MODEL
100
AcDbLine
 10
119.0837842923412
 20
351.4917085614683
 30
0.0
 11
103.662289552855
 21
351.4917085614692
 31
0.0
  0
SPLINE
  5
72EA
330
A
100
AcDbEntity
  8
MODEL
100
AcDbSpline
210
0.0
220
0.0
230
1.0
 70
     8
 71
     3
 72
    14
 73
    10
 74
     0
 42
0.000000001
 43
0.0000000001
 40
6.081444821479953
 40
6.081444821479953
 40
6.081444821479953
 40
6.081444821479953
 40
6.105503103298767
 40
6.105503103298767
 40
6.447782715374686
 40
6.447782715374686
 40
6.790062327450604
 40
6.790062327450604
 40
7.132341939526523
 40
7.132341939526523
 40
7.132341939526523
 40
7.132341939526523
 10
123.9382545716513
 20
286.4916471140953
 30
0.0
 10
124.0039218166312
 20
286.4916854252689
 30
0.0
 10
124.0700874862945
 20
286.4919885119762
 30
0.0
 10
125.0848856776886
 20
286.5002109705147
 30
0.0
 10
126.1323289840585
 20
286.5588076737147
 30
0.0
 10
128.343335371294
 20
286.6869378015826
 30
0.0
 10
129.5060479263458
 20
286.7562869549402
 30
0.0
 10
131.8504146526116
 20
286.8522030785967
 30
0.0
 10
133.032104882345
 20
286.8786946901566
 30
0.0
 10
134.1730369225982
 20
286.8786946901566
 30
0.0
  0
LINE
  5
72EB
330
A
100
AcDbEntity
  8
MODEL
100
AcDbLine
 10
119.0837842923412
 20
347.5067967301584
 30
0.0
 11
119.0837842923412
 21
348.8917085614692
 31
0.0
  0
LINE
  5
72EC
330
A
100
AcDbEntity
  8
MODEL
100
AcDbLine
 10
118.3930084325118
 20
348.8917085614692
 30
0.0
 11
118.3930084325118
 21
350.1917085614692
 31
0.0
  0
LINE
  5
72ED
330
A
100
AcDbEntity
  8
MODEL
100
AcDbLine
 10
119.0837842923412
 20
350.1917085614692
 30
0.0
 11
119.0837842923412
 21
351.4917085614692
 31
0.0
  0
LINE
  5
72EE
330
A
100
AcDbEntity
  8
MODEL
100
AcDbLine
 10
103.662289552855
 20
351.4917085614692
 30
0.0
 11
103.662289552855
 21
350.1917085614692
 31
0.0
  0
LINE
  5
72EF
330
A
100
AcDbEntity
  8
MODEL
100
AcDbLine
 10
104.3530654126845
 20
350.1917085614692
 30
0.0
 11
104.3530654126845
 21
348.8917085614692
 31
0.0
  0
LINE
  5
72F0
330
A
100
AcDbEntity
  8
MODEL
100
AcDbLine
 10
103.662289552855
 20
348.8917085614692
 30
0.0
 11
103.662289552855
 21
347.5067967301584
 31
0.0
  0
LINE
  5
72F1
330
A
100
AcDbEntity
  8
MODEL
100
AcDbLine
 10
120.5230369225981
 20
346.8567967301578
 30
0.0
 11
120.5230369225981
 21
347.5067967301578
 31
0.0
  0
LINE
  5
72F2
330
A
100
AcDbEntity
  8
MODEL
100
AcDbLine
 10
102.2230369225981
 20
346.8567967301578
 30
0.0
 11
102.2230369225981
 21
347.5067967301578
 31
0.0
  0
LINE
  5
72F3
330
A
100
AcDbEntity
  8
MODEL
100
AcDbLine
 10
109.3535504169455
 20
347.5067967301611
 30
0.0
 11
110.9480369225981
 21
347.5067967301612
 31
0.0
  0
LINE
  5
72F4
330
A
100
AcDbEntity
  8
MODEL
100
AcDbLine
 10
110.9480369225981
 20
346.8567967301612
 30
0.0
 11
110.9480369225981
 21
347.5067967301612
 31
0.0
  0
LINE
  5
72F5
330
A
100
AcDbEntity
  8
MODEL
100
AcDbLine
 10
111.7980369225982
 20
346.8567967301612
 30
0.0
 11
111.7980369225982
 21
347.5067967301612
 31
0.0
  0
LINE
  5
72F6
330
A
100
AcDbEntity
  8
MODEL
100
AcDbLine
 10
111.7980369225982
 20
347.5067967301611
 30
0.0
 11
113.3925234282508
 21
347.5067967301611
 31
0.0
  0
LINE
  5
72F7
330
A
100
AcDbEntity
  8
MODEL
100
AcDbLine
 10
113.3925234282508
 20
346.8567967301611
 30
0.0
 11
113.3925234282508
 21
347.5067967301611
 31
0.0
  0
LINE
  5
72F8
330
A
100
AcDbEntity
  8
MODEL
100
AcDbLine
 10
113.3925234282508
 20
347.5067967301606
 30
0.0
 11
114.7715179842099
 21
347.5067967301607
 31
0.0
  0
LINE
  5
72F9
330
A
100
AcDbEntity
  8
MODEL
100
AcDbLine
 10
114.7715179842099
 20
346.8567967301607
 30
0.0
 11
114.7715179842099
 21
347.5067967301607
 31
0.0
  0
LINE
  5
72FA
330
A
100
AcDbEntity
  8
MODEL
100
AcDbLine
 10
115.671396685501
 20
347.5067967301602
 30
0.0
 11
114.7715179842099
 21
347.5067967301604
 31
0.0
  0
LINE
  5
72FB
330
A
100
AcDbEntity
  8
MODEL
100
AcDbLine
 10
115.671396685501
 20
346.8567967301603
 30
0.0
 11
115.671396685501
 21
347.5067967301602
 31
0.0
  0
LINE
  5
72FC
330
A
100
AcDbEntity
  8
MODEL
100
AcDbLine
 10
115.671396685501
 20
347.5067967301578
 30
0.0
 11
120.5230369225981
 21
347.5067967301578
 31
0.0
  0
LINE
  5
72FD
330
A
100
AcDbEntity
  8
MODEL
100
AcDbLine
 10
102.2230369225981
 20
347.506796730159
 30
0.0
 11
107.0746771596952
 21
347.5067967301602
 31
0.0
  0
LINE
  5
72FE
330
A
100
AcDbEntity
  8
MODEL
100
AcDbLine
 10
107.0746771596952
 20
346.8567967301603
 30
0.0
 11
107.0746771596952
 21
347.5067967301602
 31
0.0
  0
LINE
  5
72FF
330
A
100
AcDbEntity
  8
MODEL
100
AcDbLine
 10
107.9745558609862
 20
347.5067967301607
 30
0.0
 11
107.0746771596952
 21
347.5067967301607
 31
0.0
  0
LINE
  5
7300
330
A
100
AcDbEntity
  8
MODEL
100
AcDbLine
 10
109.3535504169454
 20
346.8567967301611
 30
0.0
 11
109.3535504169454
 21
347.5067967301611
 31
0.0
  0
LINE
  5
7301
330
A
100
AcDbEntity
  8
MODEL
100
AcDbLine
 10
107.9745558609862
 20
346.8567967301607
 30
0.0
 11
107.9745558609862
 21
347.5067967301607
 31
0.0
  0
LINE
  5
7302
330
A
100
AcDbEntity
  8
MODEL
100
AcDbLine
 10
107.9745558609862
 20
347.5067967301607
 30
0.0
 11
109.3535504169454
 21
347.5067967301611
 31
0.0
  0
SPLINE
  5
7303
330
A
100
AcDbEntity
  8
MODEL
100
AcDbSpline
210
0.0
220
0.0
230
1.0
 70
     8
 71
     3
 72
    30
 73
    26
 74
     0
 42
0.000000001
 43
0.0000000001
 40
3.566170969763262
 40
3.566170969763262
 40
3.566170969763262
 40
3.566170969763262
 40
3.908450581839181
 40
3.908450581839181
 40
4.250730193915099
 40
4.250730193915099
 40
4.593009805991018
 40
4.593009805991018
 40
4.935289418066937
 40
4.935289418066937
 40
5.142272936355914
 40
5.142272936355914
 40
5.349256454644892
 40
5.349256454644892
 40
5.55623997293387
 40
5.55623997293387
 40
5.763223491222848
 40
5.763223491222848
 40
6.105503103298767
 40
6.105503103298767
 40
6.447782715374686
 40
6.447782715374686
 40
6.790062327450604
 40
6.790062327450604
 40
7.132341939526523
 40
7.132341939526523
 40
7.132341939526523
 40
7.132341939526523
 10
422.0309504458344
 20
300.7148047224454
 30
0.0
 10
420.8900184055813
 20
300.7148047224454
 30
0.0
 10
419.7083281758477
 20
300.7367544498107
 30
0.0
 10
417.3639614495819
 20
300.8465786094866
 30
0.0
 10
416.2012488945302
 20
300.9344267801392
 30
0.0
 10
413.9902425072947
 20
301.2267884734495
 30
0.0
 10
412.9427992009248
 20
301.4308357057885
 30
0.0
 10
411.0464912454854
 20
302.0364514298208
 30
0.0
 10
410.1951995576944
 20
302.4336816937393
 30
0.0
 10
409.0764224689776
 20
303.3558336859014
 30
0.0
 10
408.6889605834004
 20
303.7993253470644
 30
0.0
 10
408.1645758233118
 20
304.8349238899131
 30
0.0
 10
408.0293977143552
 20
305.4291848933816
 30
0.0
 10
408.0293977143552
 20
306.6166861571708
 30
0.0
 10
408.1645758233118
 20
307.2795715527213
 30
0.0
 10
408.6889605834004
 20
308.57042153075
 30
0.0
 10
409.0764224689776
 20
309.1981443598822
 30
0.0
 10
410.1951995576944
 20
310.6219929366064
 30
0.0
 10
411.0464912454854
 20
311.3741572231125
 30
0.0
 10
412.9427992009248
 20
312.6607426958043
 30
0.0
 10
413.9902425072947
 20
313.1915458738409
 30
0.0
 10
416.2012488945302
 20
314.0325602540407
 30
0.0
 10
417.363961449582
 20
314.3414667047444
 30
0.0
 10
419.7083281758478
 20
314.7444433387831
 30
0.0
 10
420.8900184055813
 20
314.838321656842
 30
0.0
 10
422.0309504458344
 20
314.838321656842
 30
0.0
  0
LINE
  5
7304
330
A
100
AcDbEntity
  8
MODEL
100
AcDbLine
 10
396.2309504458343
 20
285.6008088431087
 30
0.0
 11
396.2309504458343
 21
285.6317781537393
 31
0.0
  0
LINE
  5
7305
330
A
100
AcDbEntity
  8
MODEL
100
AcDbLine
 10
402.2309504458343
 20
285.6317781537393
 30
0.0
 11
402.2309504458343
 21
285.6008088431087
 31
0.0
  0
LINE
  5
7306
330
A
100
AcDbEntity
  8
MODEL
100
AcDbLine
 10
522.7309504458342
 20
323.380125805313
 30
0.0
 11
399.2309504458343
 21
323.380125805313
 31
0.0
  0
LINE
  5
7307
330
A
100
AcDbEntity
  8
MODEL
100
AcDbLine
 10
522.7309504458342
 20
300.380125805313
 30
0.0
 11
399.2309504458343
 21
300.380125805313
 31
0.0
  0
LINE
  5
7308
330
A
100
AcDbEntity
  8
MODEL
100
AcDbLine
 10
522.7309504458342
 20
314.838321656842
 30
0.0
 11
522.7309504458342
 21
300.7148047224454
 31
0.0
  0
ARC
  5
7309
330
A
100
AcDbEntity
  8
MODEL
100
AcDbCircle
 10
399.2309504458343
 20
311.880125805313
 30
0.0
 40
26.45000000000003
100
AcDbArc
 50
25.77146174055063
 51
263.4874091575088
  0
LINE
  5
730A
330
A
100
AcDbEntity
  8
MODEL
100
AcDbLine
 10
522.7309504458342
 20
300.7148047224454
 30
0.0
 11
422.0309504458344
 21
300.7148047224454
 31
0.0
  0
LINE
  5
730B
102
{ACAD_REACTORS
330
7410
102
}
330
A
100
AcDbEntity
  8
MODEL
100
AcDbLine
 10
522.7309504458342
 20
314.838321656842
 30
0.0
 11
522.7309504458342
 21
323.380125805313
 31
0.0
  0
ARC
  5
730C
330
A
100
AcDbEntity
  8
MODEL
100
AcDbCircle
 10
399.2309504458343
 20
311.880125805313
 30
0.0
 40
26.45000000000002
100
AcDbArc
 50
276.5125908424912
 51
334.2285382594495
  0
LINE
  5
730D
102
{ACAD_REACTORS
330
7410
102
}
330
A
100
AcDbEntity
  8
MODEL
100
AcDbLine
 10
522.7309504458342
 20
300.380125805313
 30
0.0
 11
522.7309504458342
 21
300.7148047224454
 31
0.0
  0
LINE
  5
730E
330
A
100
AcDbEntity
  8
MODEL
100
AcDbLine
 10
522.7309504458342
 20
314.838321656842
 30
0.0
 11
422.0309504458344
 21
314.838321656842
 31
0.0
  0
ARC
  5
730F
330
A
100
AcDbEntity
  8
MODEL
100
AcDbCircle
 10
399.2309504458343
 20
311.8801258053135
 30
0.0
 40
26.41923076923126
100
AcDbArc
 50
263.4797913572383
 51
276.5202086427617
  0
ARC
  5
7310
330
A
100
AcDbEntity
  8
MODEL
100
AcDbCircle
 10
-399.2309504458343
 20
311.880125805313
 30
0.0
 40
12.00000000000001
210
0.0
220
0.0
230
-1.0
100
AcDbArc
 50
253.4021578641334
 51
106.5978421358666
  0
ARC
  5
7311
330
A
100
AcDbEntity
  8
MODEL
100
AcDbCircle
 10
-399.2309504458343
 20
311.880125805313
 30
0.0
 40
11.49999999999999
210
0.0
220
0.0
230
-1.0
100
AcDbArc
 50
270.0
 51
90.0
  0
SPLINE
  5
7349
330
A
100
AcDbEntity
  8
CutoutUnderlay
100
AcDbSpline
210
0.0
220
0.0
230
1.0
 70
     8
 71
     3
 72
    30
 73
    26
 74
     0
 42
0.000000001
 43
0.0000000001
 40
3.566170969763262
 40
3.566170969763262
 40
3.566170969763262
 40
3.566170969763262
 40
3.908450581839181
 40
3.908450581839181
 40
4.250730193915099
 40
4.250730193915099
 40
4.593009805991018
 40
4.593009805991018
 40
4.935289418066937
 40
4.935289418066937
 40
5.142272936355914
 40
5.142272936355914
 40
5.349256454644892
 40
5.349256454644892
 40
5.55623997293387
 40
5.55623997293387
 40
5.763223491222848
 40
5.763223491222848
 40
6.105503103298767
 40
6.105503103298767
 40
6.447782715374686
 40
6.447782715374686
 40
6.790062327450604
 40
6.790062327450604
 40
7.132341939526523
 40
7.132341939526523
 40
7.132341939526523
 40
7.132341939526523
 10
422.0309504458344
 20
159.1186723608621
 30
0.0
 10
420.8900184055813
 20
159.1186723608621
 30
0.0
 10
419.7083281758477
 20
159.1406220882275
 30
0.0
 10
417.3639614495819
 20
159.2504462479033
 30
0.0
 10
416.2012488945302
 20
159.338294418556
 30
0.0
 10
413.9902425072947
 20
159.6306561118662
 30
0.0
 10
412.9427992009248
 20
159.8347033442052
 30
0.0
 10
411.0464912454854
 20
160.4403190682375
 30
0.0
 10
410.1951995576944
 20
160.837549332156
 30
0.0
 10
409.0764224689776
 20
161.7597013243181
 30
0.0
 10
408.6889605834004
 20
162.2031929854811
 30
0.0
 10
408.1645758233118
 20
163.2387915283298
 30
0.0
 10
408.0293977143552
 20
163.8330525317984
 30
0.0
 10
408.0293977143552
 20
165.0205537955875
 30
0.0
 10
408.1645758233118
 20
165.683439191138
 30
0.0
 10
408.6889605834004
 20
166.9742891691667
 30
0.0
 10
409.0764224689776
 20
167.602011998299
 30
0.0
 10
410.1951995576944
 20
169.0258605750231
 30
0.0
 10
411.0464912454854
 20
169.7780248615293
 30
0.0
 10
412.9427992009248
 20
171.064610334221
 30
0.0
 10
413.9902425072947
 20
171.5954135122577
 30
0.0
 10
416.2012488945302
 20
172.4364278924574
 30
0.0
 10
417.363961449582
 20
172.7453343431612
 30
0.0
 10
419.7083281758478
 20
173.1483109771998
 30
0.0
 10
420.8900184055813
 20
173.2421892952588
 30
0.0
 10
422.0309504458344
 20
173.2421892952588
 30
0.0
  0
LINE
  5
734A
330
A
100
AcDbEntity
  8
CutoutUnderlay
100
AcDbLine
 10
396.2309504458343
 20
144.0046764815254
 30
0.0
 11
396.2309504458343
 21
144.0356457921561
 31
0.0
  0
LINE
  5
734B
330
A
100
AcDbEntity
  8
CutoutUnderlay
100
AcDbLine
 10
402.2309504458343
 20
144.0356457921561
 30
0.0
 11
402.2309504458343
 21
144.0046764815254
 31
0.0
  0
LINE
  5
734C
330
A
100
AcDbEntity
  8
CutoutUnderlay
100
AcDbLine
 10
522.7309504458342
 20
181.7839934437298
 30
0.0
 11
399.2309504458343
 21
181.7839934437298
 31
0.0
  0
LINE
  5
734D
330
A
100
AcDbEntity
  8
CutoutUnderlay
100
AcDbLine
 10
522.7309504458342
 20
158.7839934437298
 30
0.0
 11
399.2309504458343
 21
158.7839934437298
 31
0.0
  0
LINE
  5
734E
330
A
100
AcDbEntity
  8
CutoutUnderlay
100
AcDbLine
 10
522.7309504458342
 20
173.2421892952588
 30
0.0
 11
522.7309504458342
 21
159.1186723608621
 31
0.0
  0
ARC
  5
734F
330
A
100
AcDbEntity
  8
CutoutUnderlay
100
AcDbCircle
 10
399.2309504458343
 20
170.2839934437298
 30
0.0
 40
26.45000000000003
100
AcDbArc
 50
25.77146174055063
 51
263.4874091575088
  0
LINE
  5
7350
330
A
100
AcDbEntity
  8
CutoutUnderlay
100
AcDbLine
 10
522.7309504458342
 20
159.1186723608621
 30
0.0
 11
422.0309504458344
 21
159.1186723608621
 31
0.0
  0
LINE
  5
7351
330
A
100
AcDbEntity
  8
CutoutUnderlay
100
AcDbLine
 10
522.7309504458342
 20
173.2421892952588
 30
0.0
 11
522.7309504458342
 21
181.7839934437298
 31
0.0
  0
ARC
  5
7352
330
A
100
AcDbEntity
  8
CutoutUnderlay
100
AcDbCircle
 10
399.2309504458343
 20
170.2839934437298
 30
0.0
 40
26.45000000000002
100
AcDbArc
 50
276.5125908424912
 51
334.2285382594495
  0
LINE
  5
7353
330
A
100
AcDbEntity
  8
CutoutUnderlay
100
AcDbLine
 10
522.7309504458342
 20
158.7839934437298
 30
0.0
 11
522.7309504458342
 21
159.1186723608621
 31
0.0
  0
LINE
  5
7354
330
A
100
AcDbEntity
  8
CutoutUnderlay
100
AcDbLine
 10
522.7309504458342
 20
173.2421892952588
 30
0.0
 11
422.0309504458344
 21
173.2421892952587
 31
0.0
  0
ARC
  5
7355
330
A
100
AcDbEntity
  8
CutoutUnderlay
100
AcDbCircle
 10
399.2309504458343
 20
170.2839934437302
 30
0.0
 40
26.41923076923126
100
AcDbArc
 50
263.4797913572382
 51
276.5202086427617
  0
ARC
  5
7356
330
A
100
AcDbEntity
  8
CutoutUnderlay
100
AcDbCircle
 10
-399.2309504458343
 20
170.2839934437298
 30
0.0
 40
12.00000000000001
210
0.0
220
0.0
230
-1.0
100
AcDbArc
 50
253.4021578641334
 51
106.5978421358666
  0
ARC
  5
7357
330
A
100
AcDbEntity
  8
CutoutUnderlay
100
AcDbCircle
 10
-399.2309504458343
 20
170.2839934437298
 30
0.0
 40
11.49999999999999
210
0.0
220
0.0
230
-1.0
100
AcDbArc
 50
270.0
 51
90.0
  0
DIMENSION
  5
7358
102
{ACAD_REACTORS
330
735A
102
}
102
{ACAD_XDICTIONARY
360
7359
102
}
330
A
100
AcDbEntity
  8
寸法
  6
Continuous
100
AcDbDimension
  2
*D9
 10
66.3856476414864
 20
340.356796730158
 30
0.0
 11
66.3856476414864
 21
342.4013446856413
 31
0.0
 70
   160
  1
6.5
 71
     5
 42
6.5
 73
     0
 74
     0
 75
     0
  3
tfrom線あり
100
AcDbAlignedDimension
 13
85.01996036358946
 23
346.856796730158
 33
0.0
 14
85.37577904231718
 24
340.356796730158
 34
0.0
 50
90.0
100
AcDbRotatedDimension
1001
ACAD
1000
DSTYLE
1002
{
1070
   172
1070
     1
1002
}
  0
DIMENSION
  5
736A
102
{ACAD_REACTORS
330
736C
102
}
102
{ACAD_XDICTIONARY
360
736B
102
}
330
A
100
AcDbEntity
  8
寸法
  6
Continuous
100
AcDbDimension
  2
*D10
 10
66.3856476414864
 20
286.4917085614688
 30
0.0
 11
61.884709789792
 21
313.4242526458134
 31
0.0
 70
    32
 71
     5
 42
53.86508816868923
 73
     0
 74
     0
 75
     0
  3
tfrom線あり
100
AcDbAlignedDimension
 13
85.22303692259811
 23
340.356796730158
 33
0.0
 14
99.87303692259809
 24
286.4917085614688
 34
0.0
 50
90.0
100
AcDbRotatedDimension
  0
DIMENSION
  5
7379
102
{ACAD_REACTORS
330
737B
102
}
102
{ACAD_XDICTIONARY
360
737A
102
}
330
A
100
AcDbEntity
  8
寸法
  6
Continuous
100
AcDbDimension
  2
*D11
 10
255.3623703108362
 20
309.4917085614688
 30
0.0
 11
250.8614324591418
 21
328.344872044488
 31
0.0
 70
    32
  1
37
 71
     5
 42
37.70632696603843
 73
     0
 74
     0
 75
     0
  3
tfrom線あり
100
AcDbAlignedDimension
 13
137.8282867502496
 23
347.1980355275072
 33
0.0
 14
234.873036922598
 24
309.4917085614688
 34
0.0
 50
90.0
100
AcDbRotatedDimension
  0
DIMENSION
  5
7388
102
{ACAD_REACTORS
330
738A
102
}
102
{ACAD_XDICTIONARY
360
7389
102
}
330
A
100
AcDbEntity
  8
寸法
  6
Continuous
100
AcDbDimension
  2
*D12
 10
255.3623703108362
 20
309.4917085614688
 30
0.0
 11
250.8614324591418
 21
298.1852016258127
 31
0.0
 70
    32
 71
     5
 42
22.61301387131221
 73
     0
 74
     0
 75
     0
  3
tfrom線あり
100
AcDbAlignedDimension
 13
234.873036922598
 23
286.8786946901566
 33
0.0
 14
234.873036922598
 24
309.4917085614688
 34
0.0
 50
90.0
100
AcDbRotatedDimension
  0
DIMENSION
  5
7397
330
A
100
AcDbEntity
  8
寸法
  6
Continuous
100
AcDbDimension
  2
*D13
 10
277.5538033217359
 20
286.8786946901566
 30
0.0
 11
273.0538033217359
 21
317.0383651088319
 31
0.0
 70
    32
 71
     5
 42
60.31934083735064
 73
     0
 74
     0
 75
     0
  3
tfrom線あり
100
AcDbAlignedDimension
 13
233.894152159648
 23
347.1980355275072
 33
0.0
 14
234.873036922598
 24
286.8786946901566
 34
0.0
 50
90.0
100
AcDbRotatedDimension
  0
LINE
  5
73D0
330
A
100
AcDbEntity
  8
MODEL
  6
HIDDEN
 48
0.1
100
AcDbLine
 10
130.3730369225981
 20
350.4977880492165
 30
0.0
 11
130.3730369225981
 21
344.4356093202239
 31
0.0
  0
LINE
  5
73D1
330
A
100
AcDbEntity
  8
寸法
  6
HIDDEN
 48
0.1
100
AcDbLine
 10
92.37303692259815
 20
350.4977880492165
 30
0.0
 11
92.37303692259815
 21
344.4356093202239
 31
0.0
  0
DIMENSION
  5
73D2
330
A
100
AcDbEntity
  8
寸法
100
AcDbDimension
  2
*D14
 10
130.3730369225981
 20
366.0266302359436
 30
0.0
 11
111.3730369225982
 21
366.0266302359436
 31
0.0
 70
   160
 71
     5
 42
38.0
 73
     0
 74
     0
 75
     0
  3
tfrom線あり
100
AcDbAlignedDimension
 13
92.37303692259815
 23
350.4977880492165
 33
0.0
 14
130.3730369225981
 24
350.4977880492165
 34
0.0
100
AcDbRotatedDimension
  0
DIMENSION
  5
73E0
102
{ACAD_REACTORS
330
73E2
102
}
102
{ACAD_XDICTIONARY
360
73E1
102
}
330
A
100
AcDbEntity
  8
寸法
  6
Continuous
100
AcDbDimension
  2
*D15
 10
234.873036922598
 20
251.6359246242545
 30
0.0
 11
167.373036922598
 21
256.1368624759489
 31
0.0
 70
    32
 71
     5
 42
134.9999999999999
 73
     0
 74
     0
 75
     0
  3
tfrom線あり
100
AcDbAlignedDimension
 13
99.87303692259809
 23
286.4917085614688
 33
0.0
 14
234.873036922598
 24
286.4917085614688
 34
0.0
100
AcDbRotatedDimension
  0
DIMENSION
  5
73EF
330
A
100
AcDbEntity
  8
寸法
  6
Continuous
100
AcDbDimension
  2
*D16
 10
350.6223074737031
 20
285.4608950360822
 30
0.0
 11
346.1213696220087
 21
311.8955104206976
 31
0.0
 70
    32
 71
     5
 42
52.86923076923085
 73
     0
 74
     0
 75
     0
  3
tfrom線あり
100
AcDbAlignedDimension
 13
388.5779142959905
 23
338.3301258053131
 33
0.0
 14
388.3671412949817
 24
285.4608950360822
 34
0.0
 50
90.0
100
AcDbRotatedDimension
1001
ACAD
1000
DSTYLE
1002
{
1070
     3
1000
%%c<>
1002
}
  0
DIMENSION
  5
73FE
102
{ACAD_REACTORS
330
7400
102
}
102
{ACAD_XDICTIONARY
360
73FF
102
}
330
A
100
AcDbEntity
  8
寸法
  6
Continuous
100
AcDbDimension
  2
*D17
 10
111.373036922598
 20
126.8410890121899
 30
0.0
 11
127.3796096998895
 21
126.8410890121899
 31
0.0
 70
   160
  1
6.5
 71
     5
 42
6.5
 73
     0
 74
     1
 75
     1
  3
tfrom線あり
100
AcDbAlignedDimension
 13
117.873036922598
 23
144.5362362001525
 33
0.0
 14
111.373036922598
 24
144.5362362001525
 34
0.0
100
AcDbRotatedDimension
1001
ACAD
1000
DSTYLE
1002
{
1070
   172
1070
     1
1002
}
  0
DIMENSION
  5
740E
102
{ACAD_REACTORS
330
7410
102
}
102
{ACAD_XDICTIONARY
360
740F
102
}
330
A
100
AcDbEntity
  8
寸法
  6
Continuous
100
AcDbDimension
  2
*D18
 10
541.7819086339002
 20
300.380125805313
 30
0.0
 11
537.2809707822058
 21
311.880125805313
 31
0.0
 70
    32
 71
     5
 42
23.0
 73
     0
 74
     0
 75
     0
  3
tfrom線あり
100
AcDbAlignedDimension
 13
522.7309504458342
 23
323.380125805313
 33
0.0
 14
522.7309504458342
 24
300.380125805313
 34
0.0
 50
90.0
100
AcDbRotatedDimension
  0
TEXT
  5
743C
330
A
100
AcDbEntity
  8
テンプレート
100
AcDbText
 10
452.2033001098652
 20
46.67273656706038
 30
0.0
 40
5.5
  1
取付方＝呼込み(ビス・ナット付き)
  7
ＭＳ ゴシック
100
AcDbText
  0
MTEXT
  5
743D
330
A
100
AcDbEntity
  8
寸法
  6
Continuous
100
AcDbMText
 10
452.1913548387097
 20
41.37356492555673
 30
0.0
 40
6.0
 41
143.622595185361
 46
6.365480805301988
 71
     1
 72
     1
  1
{バネ無し座金}
  7
ＭＳ ゴシック
 73
     1
 44
1.0
1001
ACAD
1000
ACAD_MTEXT_DEFINED_HEIGHT_BEGIN
1070
    46
1040
6.365480805301988
1000
ACAD_MTEXT_DEFINED_HEIGHT_END
  0
VIEWPORT
  5
349
330
B
100
AcDbEntity
 67
     1
  8
0
100
AcDbViewport
 10
202.5
 20
128.5
 30
0.0
 40
486.0
 41
308.4
 68
     1
 69
     1
 12
202.5
 22
128.5
 13
0.0
 23
0.0
 14
0.5
 24
0.5
 15
0.0
 25
0.0
 16
0.0
 26
0.0
 36
1.0
 17
0.0
 27
0.0
 37
0.0
 42
50.0
 43
0.0
 44
0.0
 45
308.4
 50
0.0
 51
0.0
 72
   100
 90
   557152
  1

281
     0
 71
     1
 74
     0
110
0.0
120
0.0
130
0.0
111
1.0
121
0.0
131
0.0
112
0.0
122
1.0
132
0.0
 79
     0
146
0.0
170
     0
 61
     5
348
26C
292
     1
282
     1
141
0.0
142
0.0
 63
   256
361
44F1
  0
VIEWPORT
  5
34A
330
B
100
AcDbEntity
 67
     1
  8
0
100
AcDbViewport
 10
202.5
 20
128.5
 30
0.0
 40
324.0
 41
205.6
 68
     2
 69
     2
 12
986.6781359294573
 22
1427.077061889956
 13
0.0
 23
0.0
 14
0.5
 24
0.5
 15
0.0
 25
0.0
 16
0.0
 26
0.0
 36
1.0
 17
0.0
 27
0.0
 37
0.0
 42
50.0
 43
0.0
 44
0.0
 45
2890.021615685494
 50
0.0
 51
0.0
 72
   100
 90
   557152
  1

281
     0
 71
     1
 74
     0
110
0.0
120
0.0
130
0.0
111
1.0
121
0.0
131
0.0
112
0.0
122
1.0
132
0.0
 79
     0
146
0.0
170
     0
 61
     5
348
26C
292
     1
282
     1
141
0.0
142
0.0
 63
   256
  0
ENDSEC
  0
SECTION
  2
OBJECTS
  0
DICTIONARY
  5
19
330
0
100
AcDbDictionary
281
     1
  3
ACAD_COLOR
350
674
  3
ACAD_DETAILVIEWSTYLE
350
13B5
  3
ACAD_FIELDLIST
350
59E4
  3
ACAD_GROUP
350
1A
  3
ACAD_IMAGE_VARS
350
27B
  3
ACAD_LAYOUT
350
1E
  3
ACAD_MATERIAL
350
263
  3
ACAD_MLEADERSTYLE
350
336
  3
ACAD_MLINESTYLE
350
1B
  3
ACAD_PLOTSETTINGS
350
22
  3
ACAD_PLOTSTYLENAME
350
1F
  3
ACAD_SCALELIST
350
241
  3
ACAD_SECTIONVIEWSTYLE
350
13B6
  3
ACAD_TABLESTYLE
350
278
  3
ACAD_VISUALSTYLE
350
267
  3
ACDB_RECOMPOSE_DATA
350
7451
  3
AcDbVariableDictionary
350
330
  3
APPDATA
350
27A
  0
SUN
  5
F1A
330
15
100
AcDbSun
 90
        1
290
     0
 63
     7
421
 16777215
 40
1.0
291
     1
 91
  2455826
 92
 54000000
292
     0
 70
     2
 71
   256
280
     1
  0
DICTIONARY
  5
2E1
330
2
100
AcDbDictionary
280
     1
281
     1
  3
ACAD_LAYERSTATES
360
2E2
  3
ACLYDICTIONARY
360
5173
  0
DICTIONARY
  5
59FD
330
A
100
AcDbDictionary
280
     1
281
     1
  3
ACAD_SORTENTS
360
59FE
  0
DICTIONARY
  5
59F8
330
59F7
100
AcDbDictionary
280
     1
281
     1
  0
DICTIONARY
  5
704F
330
704E
100
AcDbDictionary
280
     1
281
     1
  3
ACAD_DIMASSOC
360
7050
  0
DICTIONARY
  5
714D
330
714C
100
AcDbDictionary
280
     1
281
     1
  3
ACAD_DIMASSOC
360
714E
  0
DICTIONARY
  5
7359
330
7358
100
AcDbDictionary
280
     1
281
     1
  3
ACAD_DIMASSOC
360
735A
  0
DICTIONARY
  5
736B
330
736A
100
AcDbDictionary
280
     1
281
     1
  3
ACAD_DIMASSOC
360
736C
  0
DICTIONARY
  5
737A
330
7379
100
AcDbDictionary
280
     1
281
     1
  3
ACAD_DIMASSOC
360
737B
  0
DICTIONARY
  5
7389
330
7388
100
AcDbDictionary
280
     1
281
     1
  3
ACAD_DIMASSOC
360
738A
  0
DICTIONARY
  5
73E1
330
73E0
100
AcDbDictionary
280
     1
281
     1
  3
ACAD_DIMASSOC
360
73E2
  0
DICTIONARY
  5
73FF
330
73FE
100
AcDbDictionary
280
     1
281
     1
  3
ACAD_DIMASSOC
360
7400
  0
DICTIONARY
  5
740F
330
740E
100
AcDbDictionary
280
     1
281
     1
  3
ACAD_DIMASSOC
360
7410
  0
SUN
  5
44F1
330
349
100
AcDbSun
 90
        1
290
     0
 63
     7
421
 16777215
 40
1.0
291
     1
 91
  2455826
 92
 54000000
292
     0
 70
     2
 71
   256
280
     1
  0
DICTIONARY
  5
674
102
{ACAD_REACTORS
330
19
102
}
330
19
100
AcDbDictionary
281
     1
  0
DICTIONARY
  5
13B5
102
{ACAD_REACTORS
330
19
102
}
330
19
100
AcDbDictionary
281
     1
  0
FIELDLIST
  5
59E4
102
{ACAD_REACTORS
330
19
102
}
330
19
100
AcDbIdSet
 90
        1
330
59FB
100
AcDbFieldList
  0
DICTIONARY
  5
1A
102
{ACAD_REACTORS
330
19
102
}
330
19
100
AcDbDictionary
281
     1
  0
RASTERVARIABLES
  5
27B
102
{ACAD_REACTORS
330
19
102
}
330
19
100
AcDbRasterVariables
 90
        0
 70
     1
 71
     1
 72
     1
  0
DICTIONARY
  5
1E
102
{ACAD_REACTORS
330
19
102
}
330
19
100
AcDbDictionary
281
     1
  3
Layout1
350
21
  3
Model
350
20
  0
DICTIONARY
  5
263
102
{ACAD_REACTORS
330
19
102
}
330
19
100
AcDbDictionary
281
     1
  3
ByBlock
350
518C
  3
ByLayer
350
264
  3
Global
350
266
  0
DICTIONARY
  5
336
102
{ACAD_REACTORS
330
19
102
}
330
19
100
AcDbDictionary
281
     1
  3
Standard
350
5908
  0
DICTIONARY
  5
1B
102
{ACAD_REACTORS
330
19
102
}
330
19
100
AcDbDictionary
281
     1
  3
Standard
350
1C
  0
DICTIONARY
  5
22
102
{ACAD_REACTORS
330
19
102
}
330
19
100
AcDbDictionary
281
     1
  0
ACDBDICTIONARYWDFLT
  5
1F
102
{ACAD_REACTORS
330
19
102
}
330
19
100
AcDbDictionary
281
     1
  3
Normal
350
1D
100
AcDbDictionaryWithDefault
340
1D
  0
DICTIONARY
  5
241
102
{ACAD_REACTORS
330
19
102
}
330
19
100
AcDbDictionary
281
     1
  3
A0
350
242
  3
A1
350
243
  3
A2
350
244
  3
A3
350
245
  3
A4
350
246
  3
A5
350
247
  3
A6
350
248
  3
A7
350
249
  3
A8
350
24A
  3
A9
350
24B
  3
B0
350
24C
  3
B1
350
24D
  3
B2
350
24E
  3
B3
350
24F
  3
B4
350
250
  3
B5
350
251
  3
B6
350
252
  3
B7
350
253
  3
B8
350
254
  3
B9
350
255
  3
C0
350
256
  3
C1
350
257
  3
C2
350
258
  3
C3
350
259
  3
C4
350
25A
  3
C5
350
25B
  3
C6
350
25C
  3
C7
350
25D
  3
C8
350
25E
  3
C9
350
25F
  3
D0
350
260
  3
D1
350
261
  3
D2
350
262
  0
DICTIONARY
  5
13B6
102
{ACAD_REACTORS
330
19
102
}
330
19
100
AcDbDictionary
281
     1
  0
DICTIONARY
  5
278
102
{ACAD_REACTORS
330
19
102
}
330
19
100
AcDbDictionary
281
     1
  3
Standard
350
279
  0
DICTIONARY
  5
267
102
{ACAD_REACTORS
330
19
102
}
330
19
100
AcDbDictionary
281
     1
  3
2dWireframe
350
26C
  3
3D Hidden
350
26E
  3
3dWireframe
350
26D
  3
Basic
350
26F
  3
Brighten
350
273
  3
ColorChange
350
277
  3
Conceptual
350
271
  3
Dim
350
272
  3
EdgeColorOff
350
F14
  3
Facepattern
350
276
  3
Flat
350
268
  3
FlatWithEdges
350
269
  3
Gouraud
350
26A
  3
GouraudWithEdges
350
26B
  3
Hidden
350
F11
  3
JitterOff
350
F12
  3
Linepattern
350
275
  3
OverhangOff
350
F13
  3
Realistic
350
270
  3
Shaded
350
F19
  3
Shaded with edges
350
F18
  3
Shades of Gray
350
F15
  3
Sketchy
350
F16
  3
Thicken
350
274
  3
Wireframe
350
F10
  3
X-Ray
350
F17
  0
XRECORD
  5
7451
102
{ACAD_REACTORS
330
19
102
}
330
19
100
AcDbXrecord
280
     1
 90
        1
330
279
  0
DICTIONARY
  5
330
102
{ACAD_REACTORS
330
19
102
}
330
19
100
AcDbDictionary
281
     1
  3
CANNOSCALE
350
331
  3
CMLEADERSTYLE
350
598D
  3
CTABLESTYLE
350
335
  3
HPTRANSPARENCY
350
528A
  3
XCLIPFRAME
350
13B4
  0
DICTIONARY
  5
27A
102
{ACAD_REACTORS
330
19
102
}
330
19
100
AcDbDictionary
281
     1
  0
DICTIONARY
  5
2E2
102
{ACAD_REACTORS
330
2E1
102
}
330
2E1
100
AcDbDictionary
281
     1
  0
DICTIONARY
  5
5173
102
{ACAD_REACTORS
330
2E1
102
}
330
2E1
100
AcDbDictionary
281
     1
1001
ACAD
1000
<All
  0
SORTENTSTABLE
  5
59FE
102
{ACAD_REACTORS
330
59FD
102
}
330
59FD
100
AcDbSortentsTable
330
A
331
54A0
  5
55C8
331
54A1
  5
55CA
331
54A2
  5
55CB
331
54A3
  5
55CE
331
54A4
  5
55D1
331
54A5
  5
55D2
331
54A6
  5
55D3
331
54A7
  5
55D4
331
54A8
  5
55D7
331
54A9
  5
55FC
331
54AA
  5
55FD
331
54AB
  5
55FE
331
54AC
  5
55FF
331
54AD
  5
5600
331
54AE
  5
5601
331
54AF
  5
5602
331
54B0
  5
5603
331
54B1
  5
5604
331
54B2
  5
5605
331
54B3
  5
5606
331
54B5
  5
5607
331
54B6
  5
5608
331
54B7
  5
5609
331
54B8
  5
560A
331
54B9
  5
560B
331
54BA
  5
560C
331
54BB
  5
58AA
331
54BC
  5
58FC
331
54BD
  5
58FD
331
54BE
  5
5963
331
54BF
  5
5966
331
5528
  5
5970
331
5529
  5
5971
331
552A
  5
59F5
331
552B
  5
59F7
331
552C
  5
5A3E
331
552D
  5
5A3F
331
5545
  5
73EF
331
55CA
  5
5A9E
331
55D4
  5
5AA4
331
59F5
  5
5AAA
331
59F7
  5
5C6B
331
5A3E
  5
5C6C
331
5A3F
  5
5C6D
331
5A40
  5
5C6E
331
5A41
  5
5C6F
331
5A42
  5
5C70
331
5A9F
  5
5C71
331
5AA7
  5
5C73
331
5AA8
  5
5C7B
331
5AA9
  5
5C7C
331
6CFF
  5
5C7D
331
6F32
  5
6CFF
331
6F33
  5
6F32
331
6F34
  5
6F33
331
6F35
  5
6F34
331
704E
  5
73FE
331
7051
  5
6F35
331
714B
  5
704E
331
714C
  5
740E
331
714F
  5
743C
331
7150
  5
743D
331
718F
  5
7051
331
7190
  5
714B
331
7191
  5
714C
331
71B0
  5
714F
331
71B1
  5
7150
331
721F
  5
718F
331
72B0
  5
7190
331
72B1
  5
7191
331
72B2
  5
71B0
331
72B3
  5
71B1
331
72B4
  5
721F
331
72B5
  5
72B0
331
72B6
  5
72B1
331
72B7
  5
72B2
331
72B8
  5
72B3
331
72B9
  5
72B4
331
72BA
  5
72B5
331
72BB
  5
72B6
331
72BC
  5
72B7
331
72BD
  5
72B8
331
72BE
  5
72B9
331
72BF
  5
72BA
331
72C0
  5
72BB
331
72C1
  5
72BC
331
72C2
  5
72BD
331
72C3
  5
72BE
331
72C4
  5
72BF
331
72C5
  5
72C0
331
72C6
  5
72C1
331
72C7
  5
72C2
331
72C8
  5
72C3
331
72C9
  5
72C4
331
72CA
  5
72C5
331
72CB
  5
72C6
331
72CC
  5
72C7
331
72CD
  5
72C8
331
72CE
  5
72C9
331
72CF
  5
72CA
331
72D0
  5
72CB
331
72D1
  5
72CC
331
72D2
  5
72CD
331
72D3
  5
72CE
331
72D4
  5
72CF
331
72D5
  5
72D0
331
72D6
  5
72D1
331
72D7
  5
72D2
331
72D8
  5
72D3
331
72D9
  5
72D4
331
72DA
  5
72D5
331
72DB
  5
72D6
331
72DC
  5
72D7
331
72DD
  5
72D8
331
72DE
  5
72D9
331
72DF
  5
72DA
331
72E0
  5
72DB
331
72E1
  5
72DC
331
72E2
  5
72DD
331
72E3
  5
72DE
331
72E4
  5
72DF
331
72E5
  5
72E0
331
72E6
  5
72E1
331
72E7
  5
72E2
331
72E8
  5
72E3
331
72E9
  5
72E4
331
72EA
  5
72E5
331
72EB
  5
72E6
331
72EC
  5
72E7
331
72ED
  5
72E8
331
72EE
  5
72E9
331
72EF
  5
72EA
331
72F0
  5
72EB
331
72F1
  5
72EC
331
72F2
  5
72ED
331
72F3
  5
72EE
331
72F4
  5
72EF
331
72F5
  5
72F0
331
72F6
  5
72F1
331
72F7
  5
72F2
331
72F8
  5
72F3
331
72F9
  5
72F4
331
72FA
  5
72F5
331
72FB
  5
72F6
331
72FC
  5
72F7
331
72FD
  5
72F8
331
72FE
  5
72F9
331
72FF
  5
72FA
331
7300
  5
72FB
331
7301
  5
72FC
331
7302
  5
72FD
331
7303
  5
72FE
331
7304
  5
72FF
331
7305
  5
7300
331
7306
  5
7301
331
7307
  5
7302
331
7308
  5
7303
331
7309
  5
7304
331
730A
  5
7305
331
730B
  5
7306
331
730C
  5
7307
331
730D
  5
7308
331
730E
  5
7309
331
730F
  5
730A
331
7310
  5
730B
331
7311
  5
730C
331
7349
  5
730D
331
734A
  5
730E
331
734B
  5
730F
331
734C
  5
7310
331
734D
  5
7311
331
734E
  5
7349
331
734F
  5
734A
331
7350
  5
734B
331
7351
  5
734C
331
7352
  5
734D
331
7353
  5
734E
331
7354
  5
734F
331
7355
  5
7350
331
7356
  5
7351
331
7357
  5
7352
331
7358
  5
7353
331
736A
  5
7354
331
7379
  5
7355
331
7388
  5
7356
331
7397
  5
7357
331
73D0
  5
7358
331
73D1
  5
736A
331
73D2
  5
7379
331
73E0
  5
7388
331
73EF
  5
7397
331
73FE
  5
73D0
331
740E
  5
73D1
331
743C
  5
73D2
331
743D
  5
73E0
  0
DIMASSOC
  5
7050
102
{ACAD_REACTORS
330
704F
102
}
330
704F
100
AcDbDimAssoc
330
704E
 90
        0
 70
     0
 71
     1
  0
DIMASSOC
  5
714E
102
{ACAD_REACTORS
330
714D
102
}
330
714D
100
AcDbDimAssoc
330
714C
 90
        0
 70
     0
 71
     1
  0
DIMASSOC
  5
735A
102
{ACAD_REACTORS
330
7359
102
}
330
7359
100
AcDbDimAssoc
330
7358
 90
        3
 70
     0
 71
     1
  1
AcDbOsnapPointRef
 72
     8
331
72DA
 73
     0
 91
        0
 40
0.0018322011529569
 10
0.0
 20
0.0
 30
0.0
 75
     1
  1
AcDbOsnapPointRef
 72
     1
 40
0.0
 10
85.01996036358946
 20
340.5567730657197
 30
0.0
 75
     0
  1
AcDbOsnapPointRef
 72
    10
331
72DD
 73
     0
 91
        0
 40
0.9970795005789854
 10
0.0
 20
0.0
 30
0.0
 75
     0
  0
DIMASSOC
  5
736C
102
{ACAD_REACTORS
330
736B
102
}
330
736B
100
AcDbDimAssoc
330
736A
 90
        3
 70
     0
 71
     1
  1
AcDbOsnapPointRef
 72
     1
331
72DD
 73
     0
 91
        0
 40
0.0
 10
0.0
 20
0.0
 30
0.0
 75
     0
  1
AcDbOsnapPointRef
 72
     1
331
72E4
 73
     0
 91
        0
 40
0.0
 10
0.0
 20
0.0
 30
0.0
 75
     0
  0
DIMASSOC
  5
737B
102
{ACAD_REACTORS
330
737A
102
}
330
737A
100
AcDbDimAssoc
330
7379
 90
        2
 70
     0
 71
     1
  1
AcDbOsnapPointRef
 72
     1
331
72E0
 73
     0
 91
        0
 40
0.0
 10
0.0
 20
0.0
 30
0.0
 75
     0
  0
DIMASSOC
  5
738A
102
{ACAD_REACTORS
330
7389
102
}
330
7389
100
AcDbDimAssoc
330
7388
 90
        3
 70
     0
 71
     1
  1
AcDbOsnapPointRef
 72
    13
331
72E1
 73
     0
 91
        0
 40
0.0
 10
0.0
 20
0.0
 30
0.0
 75
     0
  1
AcDbOsnapPointRef
 72
     1
331
72E0
 73
     0
 91
        0
 40
0.0
 10
0.0
 20
0.0
 30
0.0
 75
     0
  0
DIMASSOC
  5
73E2
102
{ACAD_REACTORS
330
73E1
102
}
330
73E1
100
AcDbDimAssoc
330
73E0
 90
        1
 70
     0
 71
     1
  1
AcDbOsnapPointRef
 72
     1
331
72E4
 73
     0
 91
        0
 40
0.0
 10
0.0
 20
0.0
 30
0.0
 75
     0
  0
DIMASSOC
  5
7400
102
{ACAD_REACTORS
330
73FF
102
}
330
73FF
100
AcDbDimAssoc
330
73FE
 90
        3
 70
     0
 71
     1
  1
AcDbOsnapPointRef
 72
    10
331
72B7
 73
     0
 91
        0
 40
0.9923089339116101
 10
0.0
 20
0.0
 30
0.0
 75
     0
  1
AcDbOsnapPointRef
 72
     8
331
72B4
 73
     0
 91
        0
 40
0.010080914171677
 10
0.0
 20
0.0
 30
0.0
 75
     1
  1
AcDbOsnapPointRef
 72
    10
331
72B7
 73
     0
 91
        0
 40
0.9923089339116101
 10
0.0
 20
0.0
 30
0.0
 75
     0
  0
DIMASSOC
  5
7410
102
{ACAD_REACTORS
330
740F
102
}
330
740F
100
AcDbDimAssoc
330
740E
 90
        3
 70
     0
 71
     1
  1
AcDbOsnapPointRef
 72
     1
331
730B
 73
     0
 91
        0
 40
0.0
 10
0.0
 20
0.0
 30
0.0
 75
     0
  1
AcDbOsnapPointRef
 72
    13
331
730D
 73
     0
 91
        0
 40
0.0
 10
0.0
 20
0.0
 30
0.0
 75
     0
  0
LAYOUT
  5
21
102
{ACAD_REACTORS
330
1E
102
}
330
1E
100
AcDbPlotSettings
  1

  2
none_device
  4
ISO_A3_(420.00_x_297.00_MM)
  6

 40
7.5
 41
20.0
 42
7.5
 43
20.0
 44
420.0
 45
297.0
 46
0.0
 47
0.0
 48
0.0
 49
0.0
140
0.0
141
0.0
142
1.0
143
1.0
 70
     0
 72
     1
 73
     0
 74
     0
  7

 75
     0
 76
     0
 77
     2
 78
   300
147
1.0
148
0.0
149
0.0
100
AcDbLayout
  1
Layout1
 70
     1
 71
     0
 10
-7.5
 20
-20.0
 11
412.5
 21
277.0
 12
0.0
 22
0.0
 32
0.0
 14
0.0
 24
0.0
 34
0.0
 15
0.0
 25
0.0
 35
0.0
146
0.0
 13
0.0
 23
0.0
 33
0.0
 16
0.0
 26
0.0
 36
0.0
 17
0.0
 27
0.0
 37
0.0
 76
     0
330
B
331
349
  0
LAYOUT
  5
20
102
{ACAD_REACTORS
330
1E
102
}
330
1E
100
AcDbPlotSettings
  1

  2
none_device
  4
ISO_A3_(420.00_x_297.00_MM)
  6

 40
7.5
 41
20.0
 42
7.5
 43
20.0
 44
420.0
 45
297.0
 46
0.0
 47
0.0
 48
0.0
 49
0.0
140
0.0
141
0.0
142
1.0
143
1.0
 70
  1024
 72
     1
 73
     0
 74
     0
  7

 75
     0
 76
     0
 77
     2
 78
   300
147
1.0
148
0.0
149
0.0
100
AcDbLayout
  1
Model
 70
     0
 71
     1
 10
0.0
 20
0.0
 11
594.0
 21
419.9999999999996
 12
0.0
 22
0.0
 32
0.0
 14
0.0
 24
0.0
 34
0.0
 15
593.9999999999999
 25
420.0
 35
0.0
146
0.0
 13
0.0
 23
0.0
 33
0.0
 16
0.0
 26
0.0
 36
0.0
 17
0.0
 27
0.0
 37
0.0
 76
     0
330
A
331
15
  0
MATERIAL
  5
518C
102
{ACAD_REACTORS
330
263
102
}
330
263
100
AcDbMaterial
  1
ByBlock
 72
     1
 94
      127
  0
MATERIAL
  5
264
102
{ACAD_REACTORS
330
263
102
}
330
263
100
AcDbMaterial
  1
ByLayer
 72
     1
 94
      127
  0
MATERIAL
  5
266
102
{ACAD_REACTORS
330
263
102
}
330
263
100
AcDbMaterial
  1
Global
 72
     1
 94
      127
  0
MLEADERSTYLE
  5
5908
102
{ACAD_REACTORS
330
336
102
}
330
336
100
AcDbMLeaderStyle
170
     2
171
     1
172
     0
 90
        2
 40
0.0
 41
0.0
173
     1
 91
-1056964608
340
11
 92
       -2
290
     1
 42
2.0
291
     1
 43
8.0
  3
Standard
341
0
 44
4.0
300

342
17
174
     1
178
     6
175
     1
176
     0
 93
-1056964608
 45
4.0
292
     0
297
     0
 46
4.0
343
0
 94
-1056964608
 47
1.0
 49
1.0
140
1.0
293
     1
141
0.0
294
     1
177
     0
142
1.0
295
     0
296
     0
143
3.75
1001
ACAD_MLEADERVER
1070
     2
  0
MLINESTYLE
  5
1C
102
{ACAD_REACTORS
330
1B
102
}
330
1B
100
AcDbMlineStyle
  2
Standard
 70
     0
  3

 62
     0
 51
90.0
 52
90.0
 71
     2
 49
0.5
 62
   256
  6
BYLAYER
 49
-0.5
 62
   256
  6
BYLAYER
  0
ACDBPLACEHOLDER
  5
1D
102
{ACAD_REACTORS
330
1F
102
}
330
1F
  0
SCALE
  5
242
102
{ACAD_REACTORS
330
241
102
}
330
241
100
AcDbScale
 70
     0
300
1:1
140
1.0
141
1.0
290
     1
  0
SCALE
  5
243
102
{ACAD_REACTORS
330
241
102
}
330
241
100
AcDbScale
 70
     0
300
1:2
140
1.0
141
2.0
290
     0
  0
SCALE
  5
244
102
{ACAD_REACTORS
330
241
102
}
330
241
100
AcDbScale
 70
     0
300
1:4
140
1.0
141
4.0
290
     0
  0
SCALE
  5
245
102
{ACAD_REACTORS
330
241
102
}
330
241
100
AcDbScale
 70
     0
300
1:5
140
1.0
141
5.0
290
     0
  0
SCALE
  5
246
102
{ACAD_REACTORS
330
241
102
}
330
241
100
AcDbScale
 70
     0
300
1:8
140
1.0
141
8.0
290
     0
  0
SCALE
  5
247
102
{ACAD_REACTORS
330
241
102
}
330
241
100
AcDbScale
 70
     0
300
1:10
140
1.0
141
10.0
290
     0
  0
SCALE
  5
248
102
{ACAD_REACTORS
330
241
102
}
330
241
100
AcDbScale
 70
     0
300
1:16
140
1.0
141
16.0
290
     0
  0
SCALE
  5
249
102
{ACAD_REACTORS
330
241
102
}
330
241
100
AcDbScale
 70
     0
300
1:20
140
1.0
141
20.0
290
     0
  0
SCALE
  5
24A
102
{ACAD_REACTORS
330
241
102
}
330
241
100
AcDbScale
 70
     0
300
1:30
140
1.0
141
30.0
290
     0
  0
SCALE
  5
24B
102
{ACAD_REACTORS
330
241
102
}
330
241
100
AcDbScale
 70
     0
300
1:40
140
1.0
141
40.0
290
     0
  0
SCALE
  5
24C
102
{ACAD_REACTORS
330
241
102
}
330
241
100
AcDbScale
 70
     0
300
1:50
140
1.0
141
50.0
290
     0
  0
SCALE
  5
24D
102
{ACAD_REACTORS
330
241
102
}
330
241
100
AcDbScale
 70
     0
300
1:100
140
1.0
141
100.0
290
     0
  0
SCALE
  5
24E
102
{ACAD_REACTORS
330
241
102
}
330
241
100
AcDbScale
 70
     0
300
2:1
140
2.0
141
1.0
290
     0
  0
SCALE
  5
24F
102
{ACAD_REACTORS
330
241
102
}
330
241
100
AcDbScale
 70
     0
300
4:1
140
4.0
141
1.0
290
     0
  0
SCALE
  5
250
102
{ACAD_REACTORS
330
241
102
}
330
241
100
AcDbScale
 70
     0
300
8:1
140
8.0
141
1.0
290
     0
  0
SCALE
  5
251
102
{ACAD_REACTORS
330
241
102
}
330
241
100
AcDbScale
 70
     0
300
10:1
140
10.0
141
1.0
290
     0
  0
SCALE
  5
252
102
{ACAD_REACTORS
330
241
102
}
330
241
100
AcDbScale
 70
     0
300
100:1
140
100.0
141
1.0
290
     0
  0
SCALE
  5
253
102
{ACAD_REACTORS
330
241
102
}
330
241
100
AcDbScale
 70
     0
300
1/128" = 1'-0"
140
0.0078125
141
12.0
290
     0
  0
SCALE
  5
254
102
{ACAD_REACTORS
330
241
102
}
330
241
100
AcDbScale
 70
     0
300
1/64" = 1'-0"
140
0.015625
141
12.0
290
     0
  0
SCALE
  5
255
102
{ACAD_REACTORS
330
241
102
}
330
241
100
AcDbScale
 70
     0
300
1/32" = 1'-0"
140
0.03125
141
12.0
290
     0
  0
SCALE
  5
256
102
{ACAD_REACTORS
330
241
102
}
330
241
100
AcDbScale
 70
     0
300
1/16" = 1'-0"
140
0.0625
141
12.0
290
     0
  0
SCALE
  5
257
102
{ACAD_REACTORS
330
241
102
}
330
241
100
AcDbScale
 70
     0
300
3/32" = 1'-0"
140
0.09375
141
12.0
290
     0
  0
SCALE
  5
258
102
{ACAD_REACTORS
330
241
102
}
330
241
100
AcDbScale
 70
     0
300
1/8" = 1'-0"
140
0.125
141
12.0
290
     0
  0
SCALE
  5
259
102
{ACAD_REACTORS
330
241
102
}
330
241
100
AcDbScale
 70
     0
300
3/16" = 1'-0"
140
0.1875
141
12.0
290
     0
  0
SCALE
  5
25A
102
{ACAD_REACTORS
330
241
102
}
330
241
100
AcDbScale
 70
     0
300
1/4" = 1'-0"
140
0.25
141
12.0
290
     0
  0
SCALE
  5
25B
102
{ACAD_REACTORS
330
241
102
}
330
241
100
AcDbScale
 70
     0
300
3/8" = 1'-0"
140
0.375
141
12.0
290
     0
  0
SCALE
  5
25C
102
{ACAD_REACTORS
330
241
102
}
330
241
100
AcDbScale
 70
     0
300
1/2" = 1'-0"
140
0.5
141
12.0
290
     0
  0
SCALE
  5
25D
102
{ACAD_REACTORS
330
241
102
}
330
241
100
AcDbScale
 70
     0
300
3/4" = 1'-0"
140
0.75
141
12.0
290
     0
  0
SCALE
  5
25E
102
{ACAD_REACTORS
330
241
102
}
330
241
100
AcDbScale
 70
     0
300
1" = 1'-0"
140
1.0
141
12.0
290
     0
  0
SCALE
  5
25F
102
{ACAD_REACTORS
330
241
102
}
330
241
100
AcDbScale
 70
     0
300
1-1/2" = 1'-0"
140
1.5
141
12.0
290
     0
  0
SCALE
  5
260
102
{ACAD_REACTORS
330
241
102
}
330
241
100
AcDbScale
 70
     0
300
3" = 1'-0"
140
3.0
141
12.0
290
     0
  0
SCALE
  5
261
102
{ACAD_REACTORS
330
241
102
}
330
241
100
AcDbScale
 70
     0
300
6" = 1'-0"
140
6.0
141
12.0
290
     0
  0
SCALE
  5
262
102
{ACAD_REACTORS
330
241
102
}
330
241
100
AcDbScale
 70
     0
300
1'-0" = 1'-0"
140
12.0
141
12.0
290
     0
  0
TABLESTYLE
  5
279
102
{ACAD_REACTORS
330
278
102
}
102
{ACAD_XDICTIONARY
360
744F
102
}
330
278
100
AcDbTableStyle
  3
Standard
 70
     0
 71
     0
 40
0.06
 41
0.06
280
     0
281
     0
  7
Standard
140
4.5
170
     2
 62
     0
 63
   257
283
     0
 90
        4
 91
        0
  1

274
    -2
284
     1
 64
     0
275
    -2
285
     1
 65
     0
276
    -2
286
     1
 66
     0
277
    -2
287
     1
 67
     0
278
    -2
288
     1
 68
     0
279
    -2
289
     1
 69
     0
  7
Standard
140
6.0
170
     5
 62
     0
 63
   257
283
     0
 90
        4
 91
        0
  1

274
    -2
284
     1
 64
     0
275
    -2
285
     1
 65
     0
276
    -2
286
     1
 66
     0
277
    -2
287
     1
 67
     0
278
    -2
288
     1
 68
     0
279
    -2
289
     1
 69
     0
  7
Standard
140
4.5
170
     5
 62
     0
 63
   257
283
     0
 90
        4
 91
        0
  1

274
    -2
284
     1
 64
     0
275
    -2
285
     1
 65
     0
276
    -2
286
     1
 66
     0
277
    -2
287
     1
 67
     0
278
    -2
288
     1
 68
     0
279
    -2
289
     1
 69
     0
  0
VISUALSTYLE
  5
26C
102
{ACAD_REACTORS
330
267
102
}
330
267
100
AcDbVisualStyle
  2
2dWireframe
 70
     4
 71
     0
 72
     2
 73
     0
 90
        0
 40
-0.6
 41
-30.0
 62
     5
 63
     7
421
 16777215
 74
     1
 91
        4
 64
     7
 65
   257
 75
     1
175
     1
 42
1.0
 92
        0
 66
   257
 43
1.0
 76
     1
 77
     6
 78
     2
 67
     7
 79
     5
170
     0
171
     0
290
     0
174
     0
 93
        1
 44
0.0
173
     0
291
     0
 45
0.0
  0
VISUALSTYLE
  5
26E
102
{ACAD_REACTORS
330
267
102
}
330
267
100
AcDbVisualStyle
  2
3D Hidden
 70
     6
 71
     1
 72
     2
 73
     2
 90
        0
 40
-0.6
 41
-30.0
 62
     5
 63
     7
421
 16777215
 74
     2
 91
        2
 64
     7
 65
   257
 75
     2
175
     1
 42
40.0
 92
        0
 66
   257
 43
1.0
 76
     1
 77
     6
 78
     2
 67
     7
 79
     3
170
     0
171
     0
290
     0
174
     0
 93
        1
 44
0.0
173
     0
291
     0
 45
0.0
  0
VISUALSTYLE
  5
26D
102
{ACAD_REACTORS
330
267
102
}
330
267
100
AcDbVisualStyle
  2
3dWireframe
 70
     5
 71
     0
 72
     2
 73
     0
 90
        0
 40
-0.6
 41
-30.0
 62
     5
 63
     7
421
 16777215
 74
     1
 91
        4
 64
     7
 65
   257
 75
     1
175
     1
 42
1.0
 92
        0
 66
   257
 43
1.0
 76
     1
 77
     6
 78
     2
 67
     7
 79
     5
170
     0
171
     0
290
     0
174
     0
 93
        1
 44
0.0
173
     0
291
     0
 45
0.0
  0
VISUALSTYLE
  5
26F
102
{ACAD_REACTORS
330
267
102
}
330
267
100
AcDbVisualStyle
  2
Basic
 70
     7
 71
     1
 72
     0
 73
     1
 90
        0
 40
-0.6
 41
-30.0
 62
     5
 63
     7
421
 16777215
 74
     0
 91
        4
 64
     7
 65
   257
 75
     1
175
     1
 42
1.0
 92
        8
 66
     7
 43
1.0
 76
     1
 77
     6
 78
     2
 67
     7
 79
     5
170
     0
171
     0
290
     0
174
     0
 93
        1
 44
0.0
173
     0
291
     1
 45
0.0
  0
VISUALSTYLE
  5
273
102
{ACAD_REACTORS
330
267
102
}
330
267
100
AcDbVisualStyle
  2
Brighten
 70
    12
 71
     2
 72
     2
 73
     0
 90
        0
 40
-0.6
 41
-30.0
 62
     5
 63
     7
421
 16777215
 74
     1
 91
        4
 64
     7
 65
   257
 75
     1
175
     1
 42
1.0
 92
        8
 66
     7
 43
1.0
 76
     1
 77
     6
 78
     2
 67
     7
 79
     5
170
     0
171
     0
290
     0
174
     0
 93
        1
 44
50.0
173
     0
291
     1
 45
0.0
  0
VISUALSTYLE
  5
277
102
{ACAD_REACTORS
330
267
102
}
330
267
100
AcDbVisualStyle
  2
ColorChange
 70
    16
 71
     2
 72
     2
 73
     3
 90
        0
 40
-0.6
 41
-30.0
 62
     5
 63
     8
421
  8421504
 74
     1
 91
        4
 64
     7
 65
   257
 75
     1
175
     1
 42
1.0
 92
        8
 66
     8
424
  8421504
 43
1.0
 76
     1
 77
     6
 78
     2
 67
     7
 79
     5
170
     0
171
     0
290
     0
174
     0
 93
        1
 44
0.0
173
     0
291
     1
 45
0.0
  0
VISUALSTYLE
  5
271
102
{ACAD_REACTORS
330
267
102
}
330
267
100
AcDbVisualStyle
  2
Conceptual
 70
     9
 71
     3
 72
     2
 73
     0
 90
        0
 40
-0.6
 41
-30.0
 62
     5
 63
     7
421
 16777215
 74
     2
 91
        2
 64
     7
 65
   257
 75
     1
175
     1
 42
40.0
 92
        8
 66
     7
 43
1.0
 76
     1
 77
     6
 78
     2
 67
     7
 79
     3
170
     0
171
     0
290
     0
174
     0
 93
        1
 44
0.0
173
     0
291
     0
 45
0.0
  0
VISUALSTYLE
  5
272
102
{ACAD_REACTORS
330
267
102
}
330
267
100
AcDbVisualStyle
  2
Dim
 70
    11
 71
     2
 72
     2
 73
     0
 90
        0
 40
-0.6
 41
-30.0
 62
     5
 63
     7
421
 16777215
 74
     1
 91
        4
 64
     7
 65
   257
 75
     1
175
     1
 42
1.0
 92
        8
 66
     7
 43
1.0
 76
     1
 77
     6
 78
     2
 67
     7
 79
     5
170
     0
171
     0
290
     0
174
     0
 93
        1
 44
-50.0
173
     0
291
     1
 45
0.0
  0
VISUALSTYLE
  5
F14
102
{ACAD_REACTORS
330
267
102
}
330
267
100
AcDbVisualStyle
  2
EdgeColorOff
 70
    22
 71
     2
 72
     2
 73
     0
 90
        0
 40
0.6
 41
30.0
 62
     5
 63
     7
421
 16777215
 74
     1
 91
        4
 64
     7
 65
   257
 75
     1
175
     1
 42
1.0
 92
        8
 66
     7
 43
1.0
 76
     1
 77
     6
 78
     2
 67
     7
 79
     5
170
     0
171
     0
290
     0
174
     0
 93
        1
 44
0.0
173
     0
291
     1
 45
0.0
  0
VISUALSTYLE
  5
276
102
{ACAD_REACTORS
330
267
102
}
330
267
100
AcDbVisualStyle
  2
Facepattern
 70
    15
 71
     2
 72
     2
 73
     0
 90
        0
 40
-0.6
 41
-30.0
 62
     5
 63
     7
421
 16777215
 74
     1
 91
        4
 64
     7
 65
   257
 75
     1
175
     1
 42
1.0
 92
        8
 66
     7
 43
1.0
 76
     1
 77
     6
 78
     2
 67
     7
 79
     5
170
     0
171
     0
290
     0
174
     0
 93
        1
 44
0.0
173
     0
291
     1
 45
0.0
  0
VISUALSTYLE
  5
268
102
{ACAD_REACTORS
330
267
102
}
330
267
100
AcDbVisualStyle
  2
Flat
 70
     0
 71
     2
 72
     1
 73
     1
 90
        2
 40
-0.6
 41
30.0
 62
     5
 63
     7
421
 16777215
 74
     0
 91
        4
 64
     7
 65
   257
 75
     1
175
     1
 42
1.0
 92
        8
 66
     7
 43
1.0
 76
     1
 77
     6
 78
     2
 67
     7
 79
     5
170
     0
171
     0
290
     0
174
     0
 93
       13
 44
0.0
173
     0
291
     1
 45
0.0
  0
VISUALSTYLE
  5
269
102
{ACAD_REACTORS
330
267
102
}
330
267
100
AcDbVisualStyle
  2
FlatWithEdges
 70
     1
 71
     2
 72
     1
 73
     1
 90
        2
 40
-0.6
 41
30.0
 62
     5
 63
     7
421
 16777215
 74
     1
 91
        4
 64
     7
 65
   257
 75
     1
175
     1
 42
1.0
 92
        0
 66
   257
 43
1.0
 76
     1
 77
     6
 78
     2
 67
     7
 79
     5
170
     0
171
     0
290
     0
174
     0
 93
       13
 44
0.0
173
     0
291
     1
 45
0.0
  0
VISUALSTYLE
  5
26A
102
{ACAD_REACTORS
330
267
102
}
330
267
100
AcDbVisualStyle
  2
Gouraud
 70
     2
 71
     2
 72
     2
 73
     1
 90
        2
 40
-0.6
 41
30.0
 62
     5
 63
     7
421
 16777215
 74
     0
 91
        4
 64
     7
 65
   257
 75
     1
175
     1
 42
1.0
 92
        0
 66
     7
 43
1.0
 76
     1
 77
     6
 78
     2
 67
     7
 79
     5
170
     0
171
     0
290
     0
174
     0
 93
       13
 44
0.0
173
     0
291
     1
 45
0.0
  0
VISUALSTYLE
  5
26B
102
{ACAD_REACTORS
330
267
102
}
330
267
100
AcDbVisualStyle
  2
GouraudWithEdges
 70
     3
 71
     2
 72
     2
 73
     1
 90
        2
 40
-0.6
 41
30.0
 62
     5
 63
     7
421
 16777215
 74
     1
 91
        4
 64
     7
 65
   257
 75
     1
175
     1
 42
1.0
 92
        0
 66
   257
 43
1.0
 76
     1
 77
     6
 78
     2
 67
     7
 79
     5
170
     0
171
     0
290
     0
174
     0
 93
       13
 44
0.0
173
     0
291
     1
 45
0.0
  0
VISUALSTYLE
  5
F11
102
{ACAD_REACTORS
330
267
102
}
330
267
100
AcDbVisualStyle
  2
Hidden
 70
     6
 71
     1
 72
     2
 73
     2
 90
        0
 40
0.6
 41
30.0
 62
     5
 63
     7
421
 16777215
 74
     2
 91
        2
 64
     7
 65
   257
 75
     2
175
     1
 42
40.0
 92
        0
 66
   257
 43
1.0
 76
     1
 77
     6
 78
     2
 67
     7
 79
     3
170
     0
171
     0
290
     0
174
     0
 93
        1
 44
0.0
173
     0
291
     0
 45
0.0
  0
VISUALSTYLE
  5
F12
102
{ACAD_REACTORS
330
267
102
}
330
267
100
AcDbVisualStyle
  2
JitterOff
 70
    20
 71
     2
 72
     2
 73
     0
 90
        0
 40
0.6
 41
30.0
 62
     5
 63
     7
421
 16777215
 74
     1
 91
        4
 64
     7
 65
   257
 75
     1
175
     1
 42
1.0
 92
       10
 66
     7
 43
1.0
 76
     1
 77
     6
 78
     2
 67
     7
 79
     5
170
     0
171
     0
290
     0
174
     0
 93
        1
 44
0.0
173
     0
291
     1
 45
0.0
  0
VISUALSTYLE
  5
275
102
{ACAD_REACTORS
330
267
102
}
330
267
100
AcDbVisualStyle
  2
Linepattern
 70
    14
 71
     2
 72
     2
 73
     0
 90
        0
 40
-0.6
 41
-30.0
 62
     5
 63
     7
421
 16777215
 74
     1
 91
        4
 64
     7
 65
   257
 75
     7
175
     7
 42
1.0
 92
        8
 66
     7
 43
1.0
 76
     1
 77
     6
 78
     2
 67
     7
 79
     5
170
     0
171
     0
290
     0
174
     0
 93
        1
 44
0.0
173
     0
291
     1
 45
0.0
  0
VISUALSTYLE
  5
F13
102
{ACAD_REACTORS
330
267
102
}
330
267
100
AcDbVisualStyle
  2
OverhangOff
 70
    21
 71
     2
 72
     2
 73
     0
 90
        0
 40
0.6
 41
30.0
 62
     5
 63
     7
421
 16777215
 74
     1
 91
        4
 64
     7
 65
   257
 75
     1
175
     1
 42
1.0
 92
        9
 66
     7
 43
1.0
 76
     1
 77
     6
 78
     2
 67
     7
 79
     5
170
     0
171
     0
290
     0
174
     0
 93
        1
 44
0.0
173
     0
291
     1
 45
0.0
  0
VISUALSTYLE
  5
270
102
{ACAD_REACTORS
330
267
102
}
330
267
100
AcDbVisualStyle
  2
Realistic
 70
     8
 71
     2
 72
     2
 73
     0
 90
        0
 40
-0.6
 41
-30.0
 62
     5
 63
     7
421
 16777215
 74
     1
 91
        0
 64
     7
 65
   257
 75
     1
175
     1
 42
1.0
 92
        8
 66
     8
424
  7895160
 43
1.0
 76
     1
 77
     6
 78
     2
 67
     7
 79
     5
170
     0
171
     0
290
     0
174
     0
 93
       13
 44
0.0
173
     0
291
     0
 45
0.0
  0
VISUALSTYLE
  5
F19
102
{ACAD_REACTORS
330
267
102
}
330
267
100
AcDbVisualStyle
  2
Shaded
 70
    27
 71
     2
 72
     2
 73
     1
 90
        2
 40
0.6
 41
30.0
 62
     5
 63
     7
421
 16777215
 74
     0
 91
        4
 64
     7
 65
   257
 75
     1
175
     1
 42
1.0
 92
        8
 66
   257
 43
1.0
 76
     1
 77
     6
 78
     2
 67
     8
425
  7895160
 79
     3
170
     0
171
     0
290
     0
174
     0
 93
        5
 44
0.0
173
     0
291
     0
 45
0.0
  0
VISUALSTYLE
  5
F18
102
{ACAD_REACTORS
330
267
102
}
330
267
100
AcDbVisualStyle
  2
Shaded with edges
 70
    26
 71
     2
 72
     2
 73
     1
 90
        2
 40
0.6
 41
30.0
 62
     5
 63
     7
421
 16777215
 74
     1
 91
       10
 64
     7
 65
   257
 75
     2
175
     1
 42
1.0
 92
        8
 66
   257
 43
1.0
 76
     1
 77
     6
 78
     2
 67
     7
 79
     3
170
     0
171
     0
290
     0
174
     0
 93
        5
 44
0.0
173
     0
291
     0
 45
0.0
  0
VISUALSTYLE
  5
F15
102
{ACAD_REACTORS
330
267
102
}
330
267
100
AcDbVisualStyle
  2
Shades of Gray
 70
    23
 71
     2
 72
     2
 73
     3
 90
        0
 40
0.6
 41
30.0
 62
     5
 63
     7
421
 16777215
 74
     2
 91
        2
 64
     7
 65
     7
 75
     1
175
     1
 42
40.0
 92
        8
 66
     7
 43
1.0
 76
     1
 77
     6
 78
     2
 67
     7
 79
     3
170
     0
171
     0
290
     0
174
     0
 93
        1
 44
0.0
173
     0
291
     0
 45
0.0
  0
VISUALSTYLE
  5
F16
102
{ACAD_REACTORS
330
267
102
}
330
267
100
AcDbVisualStyle
  2
Sketchy
 70
    24
 71
     1
 72
     2
 73
     2
 90
        0
 40
0.6
 41
30.0
 62
     5
 63
     7
421
 16777215
 74
     2
 91
        2
 64
     7
 65
     7
 75
     1
175
     1
 42
40.0
 92
       11
 66
     7
 43
1.0
 76
     1
 77
     6
 78
     2
 67
     7
 79
     6
170
     0
171
     0
290
     0
174
     0
 93
        1
 44
0.0
173
     0
291
     0
 45
0.0
  0
VISUALSTYLE
  5
274
102
{ACAD_REACTORS
330
267
102
}
330
267
100
AcDbVisualStyle
  2
Thicken
 70
    13
 71
     2
 72
     2
 73
     0
 90
        0
 40
-0.6
 41
-30.0
 62
     5
 63
     7
421
 16777215
 74
     1
 91
        4
 64
     7
 65
   257
 75
     1
175
     1
 42
1.0
 92
       12
 66
     7
 43
1.0
 76
     1
 77
     6
 78
     2
 67
     7
 79
     5
170
     0
171
     0
290
     0
174
     0
 93
        1
 44
0.0
173
     0
291
     1
 45
0.0
  0
VISUALSTYLE
  5
F10
102
{ACAD_REACTORS
330
267
102
}
330
267
100
AcDbVisualStyle
  2
Wireframe
 70
     5
 71
     0
 72
     2
 73
     0
 90
        0
 40
0.6
 41
30.0
 62
     5
 63
     7
421
 16777215
 74
     1
 91
        4
 64
     7
 65
   257
 75
     1
175
     1
 42
1.0
 92
        0
 66
   257
 43
1.0
 76
     1
 77
     6
 78
     2
 67
     7
 79
     3
170
     0
171
     0
290
     0
174
     0
 93
        1
 44
0.0
173
     0
291
     0
 45
0.0
  0
VISUALSTYLE
  5
F17
102
{ACAD_REACTORS
330
267
102
}
330
267
100
AcDbVisualStyle
  2
X-Ray
 70
    25
 71
     2
 72
     2
 73
     1
 90
        1
 40
0.5
 41
30.0
 62
     5
 63
     7
421
 16777215
 74
     1
 91
        0
 64
     7
 65
   257
 75
     1
175
     1
 42
1.0
 92
        8
 66
     7
 43
1.0
 76
     1
 77
     6
 78
     2
 67
     7
 79
     3
170
     0
171
     0
290
     0
174
     0
 93
       13
 44
0.0
173
     0
291
     0
 45
0.0
  0
DICTIONARYVAR
  5
331
102
{ACAD_REACTORS
330
330
102
}
330
330
100
DictionaryVariables
280
     0
  1
1:1
  0
DICTIONARYVAR
  5
598D
102
{ACAD_REACTORS
330
330
102
}
330
330
100
DictionaryVariables
280
     0
  1
Standard
  0
DICTIONARYVAR
  5
335
102
{ACAD_REACTORS
330
330
102
}
330
330
100
DictionaryVariables
280
     0
  1
Standard
  0
DICTIONARYVAR
  5
528A
102
{ACAD_REACTORS
330
330
102
}
330
330
100
DictionaryVariables
280
     0
  1
ByLayer
  0
DICTIONARYVAR
  5
13B4
102
{ACAD_REACTORS
330
330
102
}
330
330
100
DictionaryVariables
280
     0
  1
0
  0
DICTIONARY
  5
744F
330
279
100
AcDbDictionary
280
     1
281
     1
  3
ACAD_ROUNDTRIP_2008_TABLESTYLE_CELLSTYLEMAP
360
7450
  0
CELLSTYLEMAP
  5
7450
102
{ACAD_REACTORS
330
744F
102
}
330
744F
100
AcDbCellStyleMap
 90
        3
300
CELLSTYLE
  1
TABLEFORMAT_BEGIN
 90
        5
170
     1
 91
        0
 92
    32768
 62
   257
 93
        1
300
CONTENTFORMAT
  1
CONTENTFORMAT_BEGIN
 90
        0
 91
        0
 92
        4
 93
        0
300

 40
0.0
140
1.0
 94
        5
 62
     0
340
17
144
6.0
309
CONTENTFORMAT_END
171
     1
301
MARGIN
  1
CELLMARGIN_BEGIN
 40
0.06
 40
0.06
 40
0.06
 40
0.06
 40
0.18
 40
0.18
309
CELLMARGIN_END
 94
        6
 95
        1
302
GRIDFORMAT
  1
GRIDFORMAT_BEGIN
 90
        0
 91
        1
 62
     0
 92
       -2
340
0
 93
        0
 40
0.045
309
GRIDFORMAT_END
 95
        2
302
GRIDFORMAT
  1
GRIDFORMAT_BEGIN
 90
        0
 91
        1
 62
     0
 92
       -2
340
0
 93
        0
 40
0.045
309
GRIDFORMAT_END
 95
        4
302
GRIDFORMAT
  1
GRIDFORMAT_BEGIN
 90
        0
 91
        1
 62
     0
 92
       -2
340
0
 93
        0
 40
0.045
309
GRIDFORMAT_END
 95
        8
302
GRIDFORMAT
  1
GRIDFORMAT_BEGIN
 90
        0
 91
        1
 62
     0
 92
       -2
340
0
 93
        0
 40
0.045
309
GRIDFORMAT_END
 95
       16
302
GRIDFORMAT
  1
GRIDFORMAT_BEGIN
 90
        0
 91
        1
 62
     0
 92
       -2
340
0
 93
        0
 40
0.045
309
GRIDFORMAT_END
 95
       32
302
GRIDFORMAT
  1
GRIDFORMAT_BEGIN
 90
        0
 91
        1
 62
     0
 92
       -2
340
0
 93
        0
 40
0.045
309
GRIDFORMAT_END
309
TABLEFORMAT_END
  1
CELLSTYLE_BEGIN
 90
        1
 91
        1
300
_TITLE
309
CELLSTYLE_END
300
CELLSTYLE
  1
TABLEFORMAT_BEGIN
 90
        5
170
     1
 91
        0
 92
        0
 62
   257
 93
        1
300
CONTENTFORMAT
  1
CONTENTFORMAT_BEGIN
 90
        0
 91
        0
 92
        4
 93
        0
300

 40
0.0
140
1.0
 94
        5
 62
     0
340
17
144
4.5
309
CONTENTFORMAT_END
171
     1
301
MARGIN
  1
CELLMARGIN_BEGIN
 40
0.06
 40
0.06
 40
0.06
 40
0.06
 40
0.18
 40
0.18
309
CELLMARGIN_END
 94
        6
 95
        1
302
GRIDFORMAT
  1
GRIDFORMAT_BEGIN
 90
        0
 91
        1
 62
     0
 92
       -2
340
0
 93
        0
 40
0.045
309
GRIDFORMAT_END
 95
        2
302
GRIDFORMAT
  1
GRIDFORMAT_BEGIN
 90
        0
 91
        1
 62
     0
 92
       -2
340
0
 93
        0
 40
0.045
309
GRIDFORMAT_END
 95
        4
302
GRIDFORMAT
  1
GRIDFORMAT_BEGIN
 90
        0
 91
        1
 62
     0
 92
       -2
340
0
 93
        0
 40
0.045
309
GRIDFORMAT_END
 95
        8
302
GRIDFORMAT
  1
GRIDFORMAT_BEGIN
 90
        0
 91
        1
 62
     0
 92
       -2
340
0
 93
        0
 40
0.045
309
GRIDFORMAT_END
 95
       16
302
GRIDFORMAT
  1
GRIDFORMAT_BEGIN
 90
        0
 91
        1
 62
     0
 92
       -2
340
0
 93
        0
 40
0.045
309
GRIDFORMAT_END
 95
       32
302
GRIDFORMAT
  1
GRIDFORMAT_BEGIN
 90
        0
 91
        1
 62
     0
 92
       -2
340
0
 93
        0
 40
0.045
309
GRIDFORMAT_END
309
TABLEFORMAT_END
  1
CELLSTYLE_BEGIN
 90
        2
 91
        1
300
_HEADER
309
CELLSTYLE_END
300
CELLSTYLE
  1
TABLEFORMAT_BEGIN
 90
        5
170
     1
 91
        0
 92
        0
 62
   257
 93
        1
300
CONTENTFORMAT
  1
CONTENTFORMAT_BEGIN
 90
        0
 91
        0
 92
        4
 93
        0
300

 40
0.0
140
1.0
 94
        2
 62
     0
340
17
144
4.5
309
CONTENTFORMAT_END
171
     1
301
MARGIN
  1
CELLMARGIN_BEGIN
 40
0.06
 40
0.06
 40
0.06
 40
0.06
 40
0.18
 40
0.18
309
CELLMARGIN_END
 94
        6
 95
        1
302
GRIDFORMAT
  1
GRIDFORMAT_BEGIN
 90
        0
 91
        1
 62
     0
 92
       -2
340
0
 93
        0
 40
0.045
309
GRIDFORMAT_END
 95
        2
302
GRIDFORMAT
  1
GRIDFORMAT_BEGIN
 90
        0
 91
        1
 62
     0
 92
       -2
340
0
 93
        0
 40
0.045
309
GRIDFORMAT_END
 95
        4
302
GRIDFORMAT
  1
GRIDFORMAT_BEGIN
 90
        0
 91
        1
 62
     0
 92
       -2
340
0
 93
        0
 40
0.045
309
GRIDFORMAT_END
 95
        8
302
GRIDFORMAT
  1
GRIDFORMAT_BEGIN
 90
        0
 91
        1
 62
     0
 92
       -2
340
0
 93
        0
 40
0.045
309
GRIDFORMAT_END
 95
       16
302
GRIDFORMAT
  1
GRIDFORMAT_BEGIN
 90
        0
 91
        1
 62
     0
 92
       -2
340
0
 93
        0
 40
0.045
309
GRIDFORMAT_END
 95
       32
302
GRIDFORMAT
  1
GRIDFORMAT_BEGIN
 90
        0
 91
        1
 62
     0
 92
       -2
340
0
 93
        0
 40
0.045
309
GRIDFORMAT_END
309
TABLEFORMAT_END
  1
CELLSTYLE_BEGIN
 90
        3
 91
        2
300
_DATA
309
CELLSTYLE_END
  0
ENDSEC
  0
EOF
