  0
SECTION
  2
HEADER
  9
$ACADVER
  1
AC1021
  9
$ACADMAINTVER
 70
    25
  9
$DWGCODEPAGE
  3
ANSI_932
  9
$LASTSAVEDBY
  1
howeNelson
  9
$INSBASE
 10
0.0
 20
0.0
 30
0.0
  9
$EXTMIN
 10
0.0
 20
0.0
 30
0.0
  9
$EXTMAX
 10
593.9999999999999
 20
420.0
 30
0.0
  9
$LIMMIN
 10
0.0
 20
0.0
  9
$LIMMAX
 10
593.9999999999999
 20
420.0
  9
$ORTHOMODE
 70
     0
  9
$REGENMODE
 70
     1
  9
$FILLMODE
 70
     1
  9
$QTEXTMODE
 70
     0
  9
$MIRRTEXT
 70
     1
  9
$LTSCALE
 40
0.5
  9
$ATTMODE
 70
     1
  9
$TEXTSIZE
 40
136.139079520063
  9
$TRACEWID
 40
1.0
  9
$TEXTSTYLE
  7
ＭＳ ゴシック
  9
$CLAYER
  8
寸法
  9
$CELTYPE
  6
ByLayer
  9
$CECOLOR
 62
   256
  9
$CELTSCALE
 40
1.0
  9
$DISPSILH
 70
     0
  9
$DIMSCALE
 40
1.0
  9
$DIMASZ
 40
2.0
  9
$DIMEXO
 40
5.0
  9
$DIMDLI
 40
0.9999999999999999
  9
$DIMRND
 40
0.0
  9
$DIMDLE
 40
0.0
  9
$DIMEXE
 40
0.0
  9
$DIMTP
 40
0.0
  9
$DIMTM
 40
0.0
  9
$DIMTXT
 40
5.0
  9
$DIMCEN
 40
0.0
  9
$DIMTSZ
 40
0.0
  9
$DIMTOL
 70
     0
  9
$DIMLIM
 70
     0
  9
$DIMTIH
 70
     0
  9
$DIMTOH
 70
     0
  9
$DIMSE1
 70
     0
  9
$DIMSE2
 70
     0
  9
$DIMTAD
 70
     1
  9
$DIMZIN
 70
    11
  9
$DIMBLK
  1
DOT
  9
$DIMASO
 70
     1
  9
$DIMSHO
 70
     1
  9
$DIMPOST
  1
<>
  9
$DIMAPOST
  1
[]
  9
$DIMALT
 70
     0
  9
$DIMALTD
 70
     1
  9
$DIMALTF
 40
1.0
  9
$DIMLFAC
 40
1.0
  9
$DIMTOFL
 70
     0
  9
$DIMTVP
 40
0.0
  9
$DIMTIX
 70
     1
  9
$DIMSOXD
 70
     0
  9
$DIMSAH
 70
     0
  9
$DIMBLK1
  1

  9
$DIMBLK2
  1

  9
$DIMSTYLE
  2
tfrom線あり
  9
$DIMCLRD
 70
     0
  9
$DIMCLRE
 70
     0
  9
$DIMCLRT
 70
     0
  9
$DIMTFAC
 40
1.0
  9
$DIMGAP
 40
5.0
  9
$DIMJUST
 70
     0
  9
$DIMSD1
 70
     0
  9
$DIMSD2
 70
     0
  9
$DIMTOLJ
 70
     1
  9
$DIMTZIN
 70
    11
  9
$DIMALTZ
 70
    11
  9
$DIMALTTZ
 70
    11
  9
$DIMUPT
 70
     0
  9
$DIMDEC
 70
     0
  9
$DIMTDEC
 70
     1
  9
$DIMALTU
 70
     2
  9
$DIMALTTD
 70
     2
  9
$DIMTXSTY
  7
ＭＳ ゴシック
  9
$DIMAUNIT
 70
     0
  9
$DIMADEC
 70
     2
  9
$DIMALTRND
 40
0.0
  9
$DIMAZIN
 70
     0
  9
$DIMDSEP
 70
    46
  9
$DIMATFIT
 70
     0
  9
$DIMFRAC
 70
     2
  9
$DIMLDRBLK
  1
DOT
  9
$DIMLUNIT
 70
     2
  9
$DIMLWD
 70
    -2
  9
$DIMLWE
 70
    -2
  9
$DIMTMOVE
 70
     0
  9
$DIMFXL
 40
1.0
  9
$DIMFXLON
 70
     0
  9
$DIMJOGANG
 40
0.7853981633974483
  9
$DIMTFILL
 70
     0
  9
$DIMTFILLCLR
 70
     0
  9
$DIMARCSYM
 70
     0
  9
$DIMLTYPE
  6

  9
$DIMLTEX1
  6

  9
$DIMLTEX2
  6

  9
$LUNITS
 70
     2
  9
$LUPREC
 70
     0
  9
$SKETCHINC
 40
0.1
  9
$FILLETRAD
 40
0.0
  9
$AUNITS
 70
     0
  9
$AUPREC
 70
     0
  9
$MENU
  1
acad
  9
$ELEVATION
 40
0.0
  9
$PELEVATION
 40
0.0
  9
$THICKNESS
 40
0.0
  9
$LIMCHECK
 70
     0
  9
$CHAMFERA
 40
0.0
  9
$CHAMFERB
 40
0.0
  9
$CHAMFERC
 40
0.0
  9
$CHAMFERD
 40
0.0
  9
$SKPOLY
 70
     0
  9
$TDCREATE
 40
2447893.375
  9
$TDUCREATE
 40
0.0
  9
$TDUPDATE
 40
2458772.704848657
  9
$TDUUPDATE
 40
2458772.329848657
  9
$TDINDWG
 40
0.0
  9
$TDUSRTIMER
 40
0.0
  9
$USRTIMER
 70
     1
  9
$ANGBASE
 50
0.0
  9
$ANGDIR
 70
     0
  9
$PDMODE
 70
     1
  9
$PDSIZE
 40
-2.0
  9
$PLINEWID
 40
0.0
  9
$SPLFRAME
 70
     0
  9
$SPLINETYPE
 70
     6
  9
$SPLINESEGS
 70
     8
  9
$HANDSEED
  5
47D4
  9
$SURFTAB1
 70
     6
  9
$SURFTAB2
 70
     6
  9
$SURFTYPE
 70
     6
  9
$SURFU
 70
     6
  9
$SURFV
 70
     6
  9
$UCSBASE
  2

  9
$UCSNAME
  2

  9
$UCSORG
 10
0.0
 20
0.0
 30
0.0
  9
$UCSXDIR
 10
1.0
 20
0.0
 30
0.0
  9
$UCSYDIR
 10
0.0
 20
1.0
 30
0.0
  9
$UCSORTHOREF
  2

  9
$UCSORTHOVIEW
 70
     1
  9
$UCSORGTOP
 10
0.0
 20
0.0
 30
0.0
  9
$UCSORGBOTTOM
 10
0.0
 20
0.0
 30
0.0
  9
$UCSORGLEFT
 10
0.0
 20
0.0
 30
0.0
  9
$UCSORGRIGHT
 10
0.0
 20
0.0
 30
0.0
  9
$UCSORGFRONT
 10
0.0
 20
0.0
 30
0.0
  9
$UCSORGBACK
 10
0.0
 20
0.0
 30
0.0
  9
$PUCSBASE
  2

  9
$PUCSNAME
  2

  9
$PUCSORG
 10
0.0
 20
0.0
 30
0.0
  9
$PUCSXDIR
 10
1.0
 20
0.0
 30
0.0
  9
$PUCSYDIR
 10
0.0
 20
1.0
 30
0.0
  9
$PUCSORTHOREF
  2

  9
$PUCSORTHOVIEW
 70
     0
  9
$PUCSORGTOP
 10
0.0
 20
0.0
 30
0.0
  9
$PUCSORGBOTTOM
 10
0.0
 20
0.0
 30
0.0
  9
$PUCSORGLEFT
 10
0.0
 20
0.0
 30
0.0
  9
$PUCSORGRIGHT
 10
0.0
 20
0.0
 30
0.0
  9
$PUCSORGFRONT
 10
0.0
 20
0.0
 30
0.0
  9
$PUCSORGBACK
 10
0.0
 20
0.0
 30
0.0
  9
$USERI1
 70
     0
  9
$USERI2
 70
     0
  9
$USERI3
 70
     0
  9
$USERI4
 70
     0
  9
$USERI5
 70
     0
  9
$USERR1
 40
0.0
  9
$USERR2
 40
0.0
  9
$USERR3
 40
0.0
  9
$USERR4
 40
0.0
  9
$USERR5
 40
0.0
  9
$WORLDVIEW
 70
     1
  9
$SHADEDGE
 70
     3
  9
$SHADEDIF
 70
    70
  9
$TILEMODE
 70
     1
  9
$MAXACTVP
 70
    64
  9
$PINSBASE
 10
0.0
 20
0.0
 30
0.0
  9
$PLIMCHECK
 70
     0
  9
$PEXTMIN
 10
0.0
 20
0.0
 30
0.0
  9
$PEXTMAX
 10
0.0
 20
0.0
 30
0.0
  9
$PLIMMIN
 10
-7.5
 20
-20.0
  9
$PLIMMAX
 10
412.5
 20
277.0
  9
$UNITMODE
 70
     0
  9
$VISRETAIN
 70
     0
  9
$PLINEGEN
 70
     1
  9
$PSLTSCALE
 70
     0
  9
$TREEDEPTH
 70
  3020
  9
$CMLSTYLE
  2
Standard
  9
$CMLJUST
 70
     0
  9
$CMLSCALE
 40
1.0
  9
$PROXYGRAPHICS
 70
     0
  9
$MEASUREMENT
 70
     1
  9
$CELWEIGHT
370
    -1
  9
$ENDCAPS
280
     0
  9
$JOINSTYLE
280
     0
  9
$LWDISPLAY
290
     1
  9
$INSUNITS
 70
     4
  9
$HYPERLINKBASE
  1

  9
$STYLESHEET
  1

  9
$XEDIT
290
     1
  9
$CEPSNTYPE
380
     0
  9
$PSTYLEMODE
290
     1
  9
$FINGERPRINTGUID
  2

  9
$VERSIONGUID
  2

  9
$EXTNAMES
290
     1
  9
$PSVPSCALE
 40
0.0
  9
$OLESTARTUP
290
     0
  9
$SORTENTS
280
   127
  9
$INDEXCTL
280
     0
  9
$HIDETEXT
280
     1
  9
$XCLIPFRAME
290
     0
  9
$HALOGAP
280
     0
  9
$OBSCOLOR
 70
   257
  9
$OBSLTYPE
280
     0
  9
$INTERSECTIONDISPLAY
280
     0
  9
$INTERSECTIONCOLOR
 70
   257
  9
$DIMASSOC
280
     2
  9
$PROJECTNAME
  1

  9
$CAMERADISPLAY
290
     0
  9
$LENSLENGTH
 40
50.0
  9
$CAMERAHEIGHT
 40
0.0
  9
$STEPSPERSEC
 40
2.0
  9
$STEPSIZE
 40
6.0
  9
$3DDWFPREC
 40
2.0
  9
$PSOLWIDTH
 40
0.25
  9
$PSOLHEIGHT
 40
4.0
  9
$LOFTANG1
 40
1.570796326794897
  9
$LOFTANG2
 40
1.570796326794897
  9
$LOFTMAG1
 40
0.0
  9
$LOFTMAG2
 40
0.0
  9
$LOFTPARAM
 70
     7
  9
$LOFTNORMALS
280
     1
  9
$LATITUDE
 40
37.795
  9
$LONGITUDE
 40
-122.394
  9
$NORTHDIRECTION
 40
0.0
  9
$TIMEZONE
 70
 -8000
  9
$LIGHTGLYPHDISPLAY
280
     1
  9
$TILEMODELIGHTSYNCH
280
     1
  9
$SOLIDHIST
280
     1
  9
$SHOWHIST
280
     1
  9
$DWFFRAME
280
     2
  9
$DGNFRAME
280
     2
  9
$REALWORLDSCALE
290
     1
  9
$INTERFERECOLOR
 62
   256
  9
$CSHADOW
280
     0
  9
$SHADOWPLANELOCATION
 40
0.0
  0
ENDSEC
  0
SECTION
  2
CLASSES
  0
CLASS
  1
LWPOLYLINE
  2
AcDbPolyline
  3
ObjectDBX Classes
 90
        0
 91
        1
280
     0
281
     1
  0
CLASS
  1
IMAGE
  2
AcDbRasterImage
  3
ISM
 90
      127
 91
       31
280
     0
281
     1
  0
CLASS
  1
OLE2FRAME
  2
AcDbOle2Frame
  3
ObjectDBX Classes
 90
        0
 91
        1
280
     0
281
     1
  0
CLASS
  1
HATCH
  2
AcDbHatch
  3
ObjectDBX Classes
 90
        0
 91
        1
280
     0
281
     1
  0
CLASS
  1
DICTIONARYVAR
  2
AcDbDictionaryVar
  3
ObjectDBX Classes
 90
        0
 91
       30
280
     0
281
     0
  0
CLASS
  1
RASTERVARIABLES
  2
AcDbRasterVariables
  3
ISM
 90
        0
 91
       30
280
     0
281
     0
  0
CLASS
  1
IMAGEDEF
  2
AcDbRasterImageDef
  3
ISM
 90
        0
 91
       30
280
     0
281
     0
  0
CLASS
  1
IMAGEDEF_REACTOR
  2
AcDbRasterImageDefReactor
  3
ISM
 90
        1
 91
       30
280
     0
281
     0
  0
CLASS
  1
IDBUFFER
  2
AcDbIdBuffer
  3
ObjectDBX Classes
 90
        0
 91
       30
280
     0
281
     0
  0
CLASS
  1
SPATIAL_FILTER
  2
AcDbSpatialFilter
  3
ObjectDBX Classes
 90
        0
 91
       30
280
     0
281
     0
  0
CLASS
  1
XRECORD
  2
AcDbXrecord
  3
ObjectDBX Classes
 90
        0
 91
        1
280
     0
281
     0
  0
CLASS
  1
SORTENTSTABLE
  2
AcDbSortentsTable
  3
ObjectDBX Classes
 90
        0
 91
       30
280
     0
281
     0
  0
CLASS
  1
LAYER_INDEX
  2
AcDbLayerIndex
  3
ObjectDBX Classes
 90
        0
 91
       30
280
     0
281
     0
  0
CLASS
  1
SPATIAL_INDEX
  2
AcDbSpatialIndex
  3
AutoCAD 2000
 90
        0
 91
       30
280
     0
281
     0
  0
CLASS
  1
OBJECT_PTR
  2
CAseDLPNTableRecord
  3
ASE-LPNTableRecord
 90
        1
 91
       30
280
     0
281
     0
  0
CLASS
  1
LAYOUT
  2
AcDbLayout
  3
ObjectDBX Classes
 90
        0
 91
        1
280
     0
281
     0
  0
CLASS
  1
PLOTSETTINGS
  2
AcDbPlotSettings
  3
ObjectDBX Classes
 90
        0
 91
       30
280
     0
281
     0
  0
CLASS
  1
ACDBDICTIONARYWDFLT
  2
AcDbDictionaryWithDefault
  3
ObjectDBX Classes
 90
        0
 91
       30
280
     0
281
     0
  0
CLASS
  1
ACDBPLACEHOLDER
  2
AcDbPlaceHolder
  3
ObjectDBX Classes
 90
        0
 91
        1
280
     0
281
     0
  0
CLASS
  1
SCALE
  2
AcDbScale
  3
ObjectDBX Classes
 90
     1153
 91
       30
280
     0
281
     0
  0
CLASS
  1
MATERIAL
  2
AcDbMaterial
  3
ObjectDBX Classes
 90
     1153
 91
       30
280
     0
281
     0
  0
CLASS
  1
VISUALSTYLE
  2
AcDbVisualStyle
  3
ObjectDBX Classes
 90
     4095
 91
       30
280
     0
281
     0
  0
CLASS
  1
TABLESTYLE
  2
AcDbTableStyle
  3
ObjectDBX Classes
 90
     4095
 91
       30
280
     0
281
     0
  0
CLASS
  1
DIMASSOC
  2
AcDbDimAssoc
  3
"AcDbDimAssoc|Product Desc:     AcDim ARX App For Dimension|Company:          Autodesk, Inc.|WEB Address:      www.autodesk.com"
 90
        0
 91
       30
280
     0
281
     0
  0
CLASS
  1
CELLSTYLEMAP
  2
AcDbCellStyleMap
  3
ObjectDBX Classes
 90
     1152
 91
       30
280
     0
281
     0
  0
CLASS
  1
SUN
  2
AcDbSun
  3
SCENEOE
 90
     1153
 91
       30
280
     0
281
     0
  0
CLASS
  1
MLEADERSTYLE
  2
AcDbMLeaderStyle
  3
ACDB_MLEADERSTYLE_CLASS
 90
     4095
 91
       30
280
     0
281
     0
  0
ENDSEC
  0
SECTION
  2
TABLES
  0
TABLE
  2
VPORT
  5
7
330
0
100
AcDbSymbolTable
 70
     1
  0
VPORT
  5
15
330
7
100
AcDbSymbolTableRecord
100
AcDbViewportTableRecord
  2
*ACTIVE
 70
     0
 10
0.0
 20
0.0
 11
1.0
 21
1.0
 12
296.9999999999999
 22
210.0
 13
0.0
 23
0.0
 14
1.0
 24
1.0
 15
0.0
 25
0.0
 16
0.0
 26
0.0
 36
1.0
 17
0.0
 27
0.0
 37
0.0
 40
428.4
 41
2.310294117647059
 42
50.0
 43
0.0
 44
0.0
 50
0.0
 51
0.0
 71
    16
 72
  2000
 73
     1
 74
     1
 75
     0
 76
     0
 77
     0
 78
     0
281
     0
 65
     0
110
0.0
120
0.0
130
0.0
111
1.0
121
0.0
131
0.0
112
0.0
122
1.0
132
0.0
 79
     0
146
0.0
348
26C
 60
     3
 61
     5
292
     1
282
     1
141
0.0
142
0.0
 63
   256
361
10E8
  0
ENDTAB
  0
TABLE
  2
LTYPE
  5
4
330
0
100
AcDbSymbolTable
 70
     3
  0
LTYPE
  5
11
330
4
100
AcDbSymbolTableRecord
100
AcDbLinetypeTableRecord
  2
ByBlock
 70
     0
  3

 72
    65
 73
     0
 40
0.0
  0
LTYPE
  5
12
330
4
100
AcDbSymbolTableRecord
100
AcDbLinetypeTableRecord
  2
ByLayer
 70
     0
  3
Solid line
 72
    65
 73
     0
 40
0.0
  0
LTYPE
  5
13
330
4
100
AcDbSymbolTableRecord
100
AcDbLinetypeTableRecord
  2
Continuous
 70
     0
  3
Solid line
 72
    65
 73
     0
 40
0.0
  0
LTYPE
  5
88D
330
4
100
AcDbSymbolTableRecord
100
AcDbLinetypeTableRecord
  2
CENTER
 70
     0
  3
----------  --  ----------  --  
 72
    65
 73
     4
 40
20.0
 49
12.5
 74
     0
 49
-2.5
 74
     0
 49
2.5
 74
     0
 49
-2.5
 74
     0
  0
LTYPE
  5
12C7
330
4
100
AcDbSymbolTableRecord
100
AcDbLinetypeTableRecord
  2
HIDDEN
 70
     0
  3
Hidden _ _ _ _ _ _ _ _ _ _ _ _ _ _ _ _ _ _ _ _ 
 72
    65
 73
     2
 40
9.524999999999999
 49
6.35
 74
     0
 49
-3.175
 74
     0
  0
ENDTAB
  0
TABLE
  2
LAYER
  5
2
102
{ACAD_XDICTIONARY
360
2E1
102
}
330
0
100
AcDbSymbolTable
 70
    11
  0
LAYER
  5
14
330
2
100
AcDbSymbolTableRecord
100
AcDbLayerTableRecord
  2
0
 70
     0
 62
     7
  6
Continuous
370
    -3
390
1D
347
266
  0
LAYER
  5
4A
330
2
100
AcDbSymbolTableRecord
100
AcDbLayerTableRecord
  2
Defpoints
 70
     0
 62
     7
  6
Continuous
290
     0
370
    -3
390
1D
347
266
  0
LAYER
  5
12CE
330
2
100
AcDbSymbolTableRecord
100
AcDbLayerTableRecord
  2
寸法
 70
     0
 62
     7
  6
Continuous
370
    13
390
1D
347
266
1001
AcAecLayerStandard
1000

1000

  0
LAYER
  5
12CF
330
2
100
AcDbSymbolTableRecord
100
AcDbLayerTableRecord
  2
モデル
 70
     0
 62
     7
  6
Continuous
370
    20
390
1D
347
266
1001
AcAecLayerStandard
1000

1000

  0
LAYER
  5
142A
330
2
100
AcDbSymbolTableRecord
100
AcDbLayerTableRecord
  2
テンプレート
 70
     0
 62
     7
  6
Continuous
370
    20
390
1D
347
266
1001
AcAecLayerStandard
1000

1000

  0
LAYER
  5
1D5C
330
2
100
AcDbSymbolTableRecord
100
AcDbLayerTableRecord
  2
TFORMLOGO
 70
     0
 62
     7
  6
Continuous
370
    20
390
1D
347
266
  0
LAYER
  5
3848
330
2
100
AcDbSymbolTableRecord
100
AcDbLayerTableRecord
  2
PRINT BORDER
 70
     0
 62
    -4
  6
Continuous
370
    -3
390
1D
347
266
1001
AcAecLayerStandard
1000

1000

  0
LAYER
  5
387B
330
2
100
AcDbSymbolTableRecord
100
AcDbLayerTableRecord
  2
レイヤー 2
 70
     0
 62
     7
  6
Continuous
370
    -3
390
1D
347
266
  0
LAYER
  5
3E71
330
2
100
AcDbSymbolTableRecord
100
AcDbLayerTableRecord
  2
Laag 1
 70
     0
 62
     7
  6
Continuous
370
    -3
390
1D
347
266
  0
LAYER
  5
449F
330
2
100
AcDbSymbolTableRecord
100
AcDbLayerTableRecord
  2
CutoutOverlay
 70
     0
 62
     7
  6
Continuous
370
    20
390
1D
347
266
1001
AcAecLayerStandard
1000

1000

  0
LAYER
  5
44A0
330
2
100
AcDbSymbolTableRecord
100
AcDbLayerTableRecord
  2
CutoutUnderlay
 70
     0
 62
   254
  6
Continuous
370
    20
390
1D
347
266
1001
AcAecLayerStandard
1000

1000

  0
ENDTAB
  0
TABLE
  2
STYLE
  5
3
330
0
100
AcDbSymbolTable
 70
     2
  0
STYLE
  5
17
330
3
100
AcDbSymbolTableRecord
100
AcDbTextStyleTableRecord
  2
Standard
 70
     0
 40
0.0
 41
1.0
 50
0.0
 71
     0
 42
2.5
  3
txt
  4
BIGFONT.SHX
  0
STYLE
  5
39
330
3
100
AcDbSymbolTableRecord
100
AcDbTextStyleTableRecord
  2
ＭＳ ゴシック
 70
     0
 40
0.0
 41
1.0
 50
0.0
 71
     0
 42
136.139079520063
  3
msgothic.ttc
  4
ＭＳ ゴシック
1001
ACAD
1000
ＭＳ ゴシック
1071
        0
  0
ENDTAB
  0
TABLE
  2
VIEW
  5
5
330
0
100
AcDbSymbolTable
 70
     0
  0
ENDTAB
  0
TABLE
  2
UCS
  5
6
330
0
100
AcDbSymbolTable
 70
     0
  0
ENDTAB
  0
TABLE
  2
APPID
  5
8
330
0
100
AcDbSymbolTable
 70
     3
  0
APPID
  5
16
330
8
100
AcDbSymbolTableRecord
100
AcDbRegAppTableRecord
  2
ACAD
 70
     0
  0
APPID
  5
7AC
330
8
100
AcDbSymbolTableRecord
100
AcDbRegAppTableRecord
  2
AcAecLayerStandard
 70
     0
  0
APPID
  5
46EE
330
8
100
AcDbSymbolTableRecord
100
AcDbRegAppTableRecord
  2
ACAD_MLEADERVER
 70
     0
  0
ENDTAB
  0
TABLE
  2
DIMSTYLE
  5
9
330
0
100
AcDbSymbolTable
 70
     2
100
AcDbDimStyleTable
  0
DIMSTYLE
105
18
330
9
100
AcDbSymbolTableRecord
100
AcDbDimStyleTableRecord
  2
Standard
 70
     0
178
     0
340
17
  0
DIMSTYLE
105
57
102
{ACAD_REACTORS
330
40A5
330
40A8
330
40AB
330
40AE
330
4122
330
4193
330
41A8
330
428C
330
4598
330
4599
330
459A
330
45A0
330
45A1
330
4630
330
4631
102
}
330
9
100
AcDbSymbolTableRecord
100
AcDbDimStyleTableRecord
  2
tfrom線あり
 70
     0
  3
<>
  4
[]
 41
2.0
 42
5.0
 43
0.9999999999999999
 44
0.0
 73
     0
 74
     0
 77
     1
 78
    11
140
5.0
141
0.0
143
1.0
147
5.0
171
     1
174
     1
178
     0
179
     2
271
     0
272
     1
276
     2
284
    11
285
    11
286
    11
289
     0
340
39
341
4E
342
4E
  0
ENDTAB
  0
TABLE
  2
BLOCK_RECORD
  5
1
330
0
100
AcDbSymbolTable
 70
    93
  0
BLOCK_RECORD
  5
A
330
1
100
AcDbSymbolTableRecord
100
AcDbBlockTableRecord
  2
*MODEL_SPACE
340
20
 70
     0
280
     1
281
     0
  0
BLOCK_RECORD
  5
B
330
1
100
AcDbSymbolTableRecord
100
AcDbBlockTableRecord
  2
*PAPER_SPACE
340
21
 70
     0
280
     1
281
     0
  0
BLOCK_RECORD
  5
4E
330
1
100
AcDbSymbolTableRecord
100
AcDbBlockTableRecord
  2
_DOT
340
0
102
{BLKREFS
331
37E4
331
37E5
331
37F0
331
37F1
331
37FC
331
37FD
331
3808
331
3809
331
3814
331
3815
331
3820
331
3821
331
382C
331
382D
331
3838
331
3839
331
3964
331
3965
331
3973
331
3974
331
3982
331
3983
331
3991
331
3992
331
399E
331
399F
331
39AD
331
39AE
331
39BC
331
39BD
331
39CB
331
39CC
331
39E7
331
39E8
331
39F6
331
39F7
331
3AE6
331
3AE7
331
3AF2
331
3AF3
331
3AFE
331
3AFF
331
3B0A
331
3B0B
331
3B16
331
3B17
331
3B22
331
3B23
331
3B2E
331
3B2F
331
3B3A
331
3B3B
331
3B46
331
3B47
331
3B52
331
3B53
331
3C50
331
3C51
331
3C5F
331
3C60
331
3C6E
331
3C6F
331
3C7D
331
3C7E
331
3C8A
331
3C8B
331
3C99
331
3C9A
331
3CA8
331
3CA9
331
3CB7
331
3CB8
331
3CD0
331
3CD1
331
3CDF
331
3CE0
331
3DCD
331
3DCE
331
3DD9
331
3DDA
331
3DE5
331
3DE6
331
3DF1
331
3DF2
331
3DFD
331
3DFE
331
3E09
331
3E0A
331
3E15
331
3E16
331
3E21
331
3E22
331
3E2D
331
3E2E
331
3E39
331
3E3A
331
3F35
331
3F36
331
3F44
331
3F45
331
3F53
331
3F54
331
3F60
331
3F61
331
3F6D
331
3F6E
331
3F7A
331
3F7B
331
3F87
331
3F88
331
4006
331
4007
331
412D
331
412E
331
4139
331
413A
331
4145
331
4146
331
4151
331
4152
331
415D
331
415E
331
4169
331
416A
331
4175
331
4176
331
4181
331
4182
331
419C
331
419D
331
41B1
331
41B2
331
4235
331
4236
331
4246
331
4247
331
4280
331
4281
331
4293
331
4294
331
44D4
331
44D5
331
44E0
331
44E1
331
44ED
331
44EE
331
4512
331
4513
331
451D
331
451E
331
4529
331
452A
331
4566
331
4567
331
4573
331
4574
331
4587
331
4588
331
45AA
331
45AB
331
45B6
331
45B7
331
45C4
331
45C5
331
463A
331
463B
331
4646
331
4647
102
}
 70
     0
280
     1
281
     0
  0
BLOCK_RECORD
  5
12C3
330
1
100
AcDbSymbolTableRecord
100
AcDbBlockTableRecord
  2
*Paper_Space1
340
12C4
 70
     0
280
     1
281
     0
  0
BLOCK_RECORD
  5
1D88
330
1
100
AcDbSymbolTableRecord
100
AcDbBlockTableRecord
  2
名称未設定-1
340
0
102
{BLKREFS
331
36E3
102
}
 70
     1
280
     1
281
     0
  0
BLOCK_RECORD
  5
1D8B
330
1
100
AcDbSymbolTableRecord
100
AcDbBlockTableRecord
  2
block 2
340
0
102
{BLKREFS
331
1D8A
102
}
 70
     0
280
     1
281
     0
  0
BLOCK_RECORD
  5
1D8E
330
1
100
AcDbSymbolTableRecord
100
AcDbBlockTableRecord
  2
block 3
340
0
102
{BLKREFS
331
1D8D
102
}
 70
     0
280
     1
281
     0
  0
BLOCK_RECORD
  5
1D91
330
1
100
AcDbSymbolTableRecord
100
AcDbBlockTableRecord
  2
block 4
340
0
102
{BLKREFS
331
1D90
102
}
 70
     0
280
     1
281
     0
  0
BLOCK_RECORD
  5
1DA0
330
1
100
AcDbSymbolTableRecord
100
AcDbBlockTableRecord
  2
block 5
340
0
102
{BLKREFS
331
1D9F
102
}
 70
     0
280
     1
281
     0
  0
BLOCK_RECORD
  5
37DF
330
1
100
AcDbSymbolTableRecord
100
AcDbBlockTableRecord
  2
*D7
340
0
 70
     0
280
     1
281
     0
  0
BLOCK_RECORD
  5
37EA
330
1
100
AcDbSymbolTableRecord
100
AcDbBlockTableRecord
  2
*D8
340
0
 70
     0
280
     1
281
     0
  0
BLOCK_RECORD
  5
37F6
330
1
100
AcDbSymbolTableRecord
100
AcDbBlockTableRecord
  2
*D9
340
0
 70
     0
280
     1
281
     0
  0
BLOCK_RECORD
  5
3802
330
1
100
AcDbSymbolTableRecord
100
AcDbBlockTableRecord
  2
*D10
340
0
 70
     0
280
     1
281
     0
  0
BLOCK_RECORD
  5
380E
330
1
100
AcDbSymbolTableRecord
100
AcDbBlockTableRecord
  2
*D11
340
0
 70
     0
280
     1
281
     0
  0
BLOCK_RECORD
  5
381A
330
1
100
AcDbSymbolTableRecord
100
AcDbBlockTableRecord
  2
*D12
340
0
 70
     0
280
     1
281
     0
  0
BLOCK_RECORD
  5
3826
330
1
100
AcDbSymbolTableRecord
100
AcDbBlockTableRecord
  2
*D13
340
0
 70
     0
280
     1
281
     0
  0
BLOCK_RECORD
  5
3832
330
1
100
AcDbSymbolTableRecord
100
AcDbBlockTableRecord
  2
*D14
340
0
 70
     0
280
     1
281
     0
  0
BLOCK_RECORD
  5
395F
330
1
100
AcDbSymbolTableRecord
100
AcDbBlockTableRecord
  2
*D15
340
0
 70
     0
280
     1
281
     0
  0
BLOCK_RECORD
  5
396E
330
1
100
AcDbSymbolTableRecord
100
AcDbBlockTableRecord
  2
*D16
340
0
 70
     0
280
     1
281
     0
  0
BLOCK_RECORD
  5
397D
330
1
100
AcDbSymbolTableRecord
100
AcDbBlockTableRecord
  2
*D17
340
0
 70
     0
280
     1
281
     0
  0
BLOCK_RECORD
  5
398C
330
1
100
AcDbSymbolTableRecord
100
AcDbBlockTableRecord
  2
*D18
340
0
 70
     0
280
     1
281
     0
  0
BLOCK_RECORD
  5
3999
330
1
100
AcDbSymbolTableRecord
100
AcDbBlockTableRecord
  2
*D19
340
0
 70
     0
280
     1
281
     0
  0
BLOCK_RECORD
  5
39A8
330
1
100
AcDbSymbolTableRecord
100
AcDbBlockTableRecord
  2
*D20
340
0
 70
     0
280
     1
281
     0
  0
BLOCK_RECORD
  5
39B7
330
1
100
AcDbSymbolTableRecord
100
AcDbBlockTableRecord
  2
*D21
340
0
 70
     0
280
     1
281
     0
  0
BLOCK_RECORD
  5
39C6
330
1
100
AcDbSymbolTableRecord
100
AcDbBlockTableRecord
  2
*D22
340
0
 70
     0
280
     1
281
     0
  0
BLOCK_RECORD
  5
39E2
330
1
100
AcDbSymbolTableRecord
100
AcDbBlockTableRecord
  2
*D23
340
0
 70
     0
280
     1
281
     0
  0
BLOCK_RECORD
  5
39F1
330
1
100
AcDbSymbolTableRecord
100
AcDbBlockTableRecord
  2
*D24
340
0
 70
     0
280
     1
281
     0
  0
BLOCK_RECORD
  5
3AE0
330
1
100
AcDbSymbolTableRecord
100
AcDbBlockTableRecord
  2
*D25
340
0
 70
     0
280
     1
281
     0
  0
BLOCK_RECORD
  5
3AEC
330
1
100
AcDbSymbolTableRecord
100
AcDbBlockTableRecord
  2
*D26
340
0
 70
     0
280
     1
281
     0
  0
BLOCK_RECORD
  5
3AF8
330
1
100
AcDbSymbolTableRecord
100
AcDbBlockTableRecord
  2
*D27
340
0
 70
     0
280
     1
281
     0
  0
BLOCK_RECORD
  5
3B04
330
1
100
AcDbSymbolTableRecord
100
AcDbBlockTableRecord
  2
*D28
340
0
 70
     0
280
     1
281
     0
  0
BLOCK_RECORD
  5
3B10
330
1
100
AcDbSymbolTableRecord
100
AcDbBlockTableRecord
  2
*D29
340
0
 70
     0
280
     1
281
     0
  0
BLOCK_RECORD
  5
3B1C
330
1
100
AcDbSymbolTableRecord
100
AcDbBlockTableRecord
  2
*D30
340
0
 70
     0
280
     1
281
     0
  0
BLOCK_RECORD
  5
3B28
330
1
100
AcDbSymbolTableRecord
100
AcDbBlockTableRecord
  2
*D31
340
0
 70
     0
280
     1
281
     0
  0
BLOCK_RECORD
  5
3B34
330
1
100
AcDbSymbolTableRecord
100
AcDbBlockTableRecord
  2
*D32
340
0
 70
     0
280
     1
281
     0
  0
BLOCK_RECORD
  5
3B40
330
1
100
AcDbSymbolTableRecord
100
AcDbBlockTableRecord
  2
*D33
340
0
 70
     0
280
     1
281
     0
  0
BLOCK_RECORD
  5
3B4C
330
1
100
AcDbSymbolTableRecord
100
AcDbBlockTableRecord
  2
*D34
340
0
 70
     0
280
     1
281
     0
  0
BLOCK_RECORD
  5
3C4B
330
1
100
AcDbSymbolTableRecord
100
AcDbBlockTableRecord
  2
*D35
340
0
 70
     0
280
     1
281
     0
  0
BLOCK_RECORD
  5
3C5A
330
1
100
AcDbSymbolTableRecord
100
AcDbBlockTableRecord
  2
*D36
340
0
 70
     0
280
     1
281
     0
  0
BLOCK_RECORD
  5
3C69
330
1
100
AcDbSymbolTableRecord
100
AcDbBlockTableRecord
  2
*D37
340
0
 70
     0
280
     1
281
     0
  0
BLOCK_RECORD
  5
3C78
330
1
100
AcDbSymbolTableRecord
100
AcDbBlockTableRecord
  2
*D38
340
0
 70
     0
280
     1
281
     0
  0
BLOCK_RECORD
  5
3C85
330
1
100
AcDbSymbolTableRecord
100
AcDbBlockTableRecord
  2
*D39
340
0
 70
     0
280
     1
281
     0
  0
BLOCK_RECORD
  5
3C94
330
1
100
AcDbSymbolTableRecord
100
AcDbBlockTableRecord
  2
*D40
340
0
 70
     0
280
     1
281
     0
  0
BLOCK_RECORD
  5
3CA3
330
1
100
AcDbSymbolTableRecord
100
AcDbBlockTableRecord
  2
*D41
340
0
 70
     0
280
     1
281
     0
  0
BLOCK_RECORD
  5
3CB2
330
1
100
AcDbSymbolTableRecord
100
AcDbBlockTableRecord
  2
*D42
340
0
 70
     0
280
     1
281
     0
  0
BLOCK_RECORD
  5
3CCB
330
1
100
AcDbSymbolTableRecord
100
AcDbBlockTableRecord
  2
*D43
340
0
 70
     0
280
     1
281
     0
  0
BLOCK_RECORD
  5
3CDA
330
1
100
AcDbSymbolTableRecord
100
AcDbBlockTableRecord
  2
*D44
340
0
 70
     0
280
     1
281
     0
  0
BLOCK_RECORD
  5
3DC7
330
1
100
AcDbSymbolTableRecord
100
AcDbBlockTableRecord
  2
*D45
340
0
 70
     0
280
     1
281
     0
  0
BLOCK_RECORD
  5
3DD3
330
1
100
AcDbSymbolTableRecord
100
AcDbBlockTableRecord
  2
*D46
340
0
 70
     0
280
     1
281
     0
  0
BLOCK_RECORD
  5
3DDF
330
1
100
AcDbSymbolTableRecord
100
AcDbBlockTableRecord
  2
*D47
340
0
 70
     0
280
     1
281
     0
  0
BLOCK_RECORD
  5
3DEB
330
1
100
AcDbSymbolTableRecord
100
AcDbBlockTableRecord
  2
*D48
340
0
 70
     0
280
     1
281
     0
  0
BLOCK_RECORD
  5
3DF7
330
1
100
AcDbSymbolTableRecord
100
AcDbBlockTableRecord
  2
*D49
340
0
 70
     0
280
     1
281
     0
  0
BLOCK_RECORD
  5
3E03
330
1
100
AcDbSymbolTableRecord
100
AcDbBlockTableRecord
  2
*D50
340
0
 70
     0
280
     1
281
     0
  0
BLOCK_RECORD
  5
3E0F
330
1
100
AcDbSymbolTableRecord
100
AcDbBlockTableRecord
  2
*D51
340
0
 70
     0
280
     1
281
     0
  0
BLOCK_RECORD
  5
3E1B
330
1
100
AcDbSymbolTableRecord
100
AcDbBlockTableRecord
  2
*D52
340
0
 70
     0
280
     1
281
     0
  0
BLOCK_RECORD
  5
3E27
330
1
100
AcDbSymbolTableRecord
100
AcDbBlockTableRecord
  2
*D53
340
0
 70
     0
280
     1
281
     0
  0
BLOCK_RECORD
  5
3E33
330
1
100
AcDbSymbolTableRecord
100
AcDbBlockTableRecord
  2
*D54
340
0
 70
     0
280
     1
281
     0
  0
BLOCK_RECORD
  5
3F30
330
1
100
AcDbSymbolTableRecord
100
AcDbBlockTableRecord
  2
*D55
340
0
 70
     0
280
     1
281
     0
  0
BLOCK_RECORD
  5
3F3F
330
1
100
AcDbSymbolTableRecord
100
AcDbBlockTableRecord
  2
*D56
340
0
 70
     0
280
     1
281
     0
  0
BLOCK_RECORD
  5
3F4E
330
1
100
AcDbSymbolTableRecord
100
AcDbBlockTableRecord
  2
*D57
340
0
 70
     0
280
     1
281
     0
  0
BLOCK_RECORD
  5
3F5B
330
1
100
AcDbSymbolTableRecord
100
AcDbBlockTableRecord
  2
*D58
340
0
 70
     0
280
     1
281
     0
  0
BLOCK_RECORD
  5
3F68
330
1
100
AcDbSymbolTableRecord
100
AcDbBlockTableRecord
  2
*D59
340
0
 70
     0
280
     1
281
     0
  0
BLOCK_RECORD
  5
3F75
330
1
100
AcDbSymbolTableRecord
100
AcDbBlockTableRecord
  2
*D60
340
0
 70
     0
280
     1
281
     0
  0
BLOCK_RECORD
  5
3F82
330
1
100
AcDbSymbolTableRecord
100
AcDbBlockTableRecord
  2
*D61
340
0
 70
     0
280
     1
281
     0
  0
BLOCK_RECORD
  5
4001
330
1
100
AcDbSymbolTableRecord
100
AcDbBlockTableRecord
  2
*D62
340
0
 70
     0
280
     1
281
     0
  0
BLOCK_RECORD
  5
4127
330
1
100
AcDbSymbolTableRecord
100
AcDbBlockTableRecord
  2
*D63
340
0
 70
     0
280
     1
281
     0
  0
BLOCK_RECORD
  5
4133
330
1
100
AcDbSymbolTableRecord
100
AcDbBlockTableRecord
  2
*D64
340
0
 70
     0
280
     1
281
     0
  0
BLOCK_RECORD
  5
413F
330
1
100
AcDbSymbolTableRecord
100
AcDbBlockTableRecord
  2
*D65
340
0
 70
     0
280
     1
281
     0
  0
BLOCK_RECORD
  5
414B
330
1
100
AcDbSymbolTableRecord
100
AcDbBlockTableRecord
  2
*D66
340
0
 70
     0
280
     1
281
     0
  0
BLOCK_RECORD
  5
4157
330
1
100
AcDbSymbolTableRecord
100
AcDbBlockTableRecord
  2
*D67
340
0
 70
     0
280
     1
281
     0
  0
BLOCK_RECORD
  5
4163
330
1
100
AcDbSymbolTableRecord
100
AcDbBlockTableRecord
  2
*D68
340
0
 70
     0
280
     1
281
     0
  0
BLOCK_RECORD
  5
416F
330
1
100
AcDbSymbolTableRecord
100
AcDbBlockTableRecord
  2
*D69
340
0
 70
     0
280
     1
281
     0
  0
BLOCK_RECORD
  5
417B
330
1
100
AcDbSymbolTableRecord
100
AcDbBlockTableRecord
  2
*D70
340
0
 70
     0
280
     1
281
     0
  0
BLOCK_RECORD
  5
4196
330
1
100
AcDbSymbolTableRecord
100
AcDbBlockTableRecord
  2
*D71
340
0
 70
     0
280
     1
281
     0
  0
BLOCK_RECORD
  5
41AB
330
1
100
AcDbSymbolTableRecord
100
AcDbBlockTableRecord
  2
*D72
340
0
 70
     0
280
     1
281
     0
  0
BLOCK_RECORD
  5
4230
330
1
100
AcDbSymbolTableRecord
100
AcDbBlockTableRecord
  2
*D73
340
0
 70
     0
280
     1
281
     0
  0
BLOCK_RECORD
  5
4240
330
1
100
AcDbSymbolTableRecord
100
AcDbBlockTableRecord
  2
*D74
340
0
 70
     0
280
     1
281
     0
  0
BLOCK_RECORD
  5
427B
330
1
100
AcDbSymbolTableRecord
100
AcDbBlockTableRecord
  2
*D75
340
0
 70
     0
280
     1
281
     0
  0
BLOCK_RECORD
  5
428D
330
1
100
AcDbSymbolTableRecord
100
AcDbBlockTableRecord
  2
*D76
340
0
 70
     0
280
     1
281
     0
  0
BLOCK_RECORD
  5
44CE
330
1
100
AcDbSymbolTableRecord
100
AcDbBlockTableRecord
  2
*D77
340
0
 70
     0
280
     1
281
     0
  0
BLOCK_RECORD
  5
44DB
330
1
100
AcDbSymbolTableRecord
100
AcDbBlockTableRecord
  2
*D78
340
0
 70
     0
280
     1
281
     0
  0
BLOCK_RECORD
  5
44E8
330
1
100
AcDbSymbolTableRecord
100
AcDbBlockTableRecord
  2
*D79
340
0
 70
     0
280
     1
281
     0
  0
BLOCK_RECORD
  5
450B
330
1
100
AcDbSymbolTableRecord
100
AcDbBlockTableRecord
  2
*D80
340
0
 70
     0
280
     1
281
     0
  0
BLOCK_RECORD
  5
4517
330
1
100
AcDbSymbolTableRecord
100
AcDbBlockTableRecord
  2
*D81
340
0
 70
     0
280
     1
281
     0
  0
BLOCK_RECORD
  5
4523
330
1
100
AcDbSymbolTableRecord
100
AcDbBlockTableRecord
  2
*D82
340
0
 70
     0
280
     1
281
     0
  0
BLOCK_RECORD
  5
4561
330
1
100
AcDbSymbolTableRecord
100
AcDbBlockTableRecord
  2
*D83
340
0
 70
     0
280
     1
281
     0
  0
BLOCK_RECORD
  5
456E
330
1
100
AcDbSymbolTableRecord
100
AcDbBlockTableRecord
  2
*D84
340
0
 70
     0
280
     1
281
     0
  0
BLOCK_RECORD
  5
4581
330
1
100
AcDbSymbolTableRecord
100
AcDbBlockTableRecord
  2
*D85
340
0
 70
     0
280
     1
281
     0
  0
BLOCK_RECORD
  5
45A4
330
1
100
AcDbSymbolTableRecord
100
AcDbBlockTableRecord
  2
*D86
340
0
 70
     0
280
     1
281
     0
  0
BLOCK_RECORD
  5
45B0
330
1
100
AcDbSymbolTableRecord
100
AcDbBlockTableRecord
  2
*D87
340
0
 70
     0
280
     1
281
     0
  0
BLOCK_RECORD
  5
45BC
330
1
100
AcDbSymbolTableRecord
100
AcDbBlockTableRecord
  2
*D88
340
0
 70
     0
280
     1
281
     0
  0
BLOCK_RECORD
  5
45F5
330
1
100
AcDbSymbolTableRecord
100
AcDbBlockTableRecord
  2
template
340
0
 70
     4
280
     1
281
     0
  0
BLOCK_RECORD
  5
4634
330
1
100
AcDbSymbolTableRecord
100
AcDbBlockTableRecord
  2
*D90
340
0
 70
     0
280
     1
281
     0
  0
BLOCK_RECORD
  5
4640
330
1
100
AcDbSymbolTableRecord
100
AcDbBlockTableRecord
  2
*D91
340
0
 70
     0
280
     1
281
     0
  0
BLOCK_RECORD
  5
4651
330
1
100
AcDbSymbolTableRecord
100
AcDbBlockTableRecord
  2
test
340
0
 70
     4
280
     1
281
     0
  0
ENDTAB
  0
ENDSEC
  0
SECTION
  2
BLOCKS
  0
BLOCK
  5
D
330
A
100
AcDbEntity
  8
0
390
1D
100
AcDbBlockBegin
  2
*MODEL_SPACE
 70
     0
 10
0.0
 20
0.0
 30
0.0
  3
*MODEL_SPACE
  1
*MODEL_SPACE
  0
ENDBLK
  5
E
330
A
100
AcDbEntity
  8
0
390
1D
100
AcDbBlockEnd
  0
BLOCK
  5
F
330
B
100
AcDbEntity
 67
     1
  8
0
390
1D
100
AcDbBlockBegin
  2
*PAPER_SPACE
 70
     0
 10
0.0
 20
0.0
 30
0.0
  3
*PAPER_SPACE
  1
*PAPER_SPACE
  0
ENDBLK
  5
10
330
B
100
AcDbEntity
 67
     1
  8
0
390
1D
100
AcDbBlockEnd
  0
BLOCK
  5
1066
330
4E
100
AcDbEntity
  8
0
390
1D
100
AcDbBlockBegin
  2
_DOT
 70
     0
 10
0.0
 20
0.0
 30
0.0
  3
_DOT
  1
_DOT
  0
POLYLINE
  5
1068
330
4E
100
AcDbEntity
  8
0
  6
ByBlock
 62
     0
370
    -2
390
1D
100
AcDb2dPolyline
 66
     1
 10
0.0
 20
0.0
 30
0.0
 70
     1
 40
0.5
 41
0.5
  0
VERTEX
  5
1069
330
1068
100
AcDbEntity
  8
0
  6
ByBlock
 62
     0
370
    -2
390
1D
100
AcDbVertex
100
AcDb2dVertex
 10
-0.25
 20
0.0
 30
0.0
 42
1.0
  0
VERTEX
  5
106A
330
1068
100
AcDbEntity
  8
0
  6
ByBlock
 62
     0
370
    -2
390
1D
100
AcDbVertex
100
AcDb2dVertex
 10
0.25
 20
0.0
 30
0.0
 42
1.0
  0
SEQEND
  5
106B
330
1068
100
AcDbEntity
  8
0
390
1D
  0
LINE
  5
106C
330
4E
100
AcDbEntity
  8
0
  6
ByBlock
 62
     0
370
    -2
390
1D
100
AcDbLine
 10
-0.5
 20
0.0
 30
0.0
 11
-1.0
 21
0.0
 31
0.0
  0
ENDBLK
  5
106D
330
4E
100
AcDbEntity
  8
0
390
1D
100
AcDbBlockEnd
  0
BLOCK
  5
12C5
330
12C3
100
AcDbEntity
  8
0
100
AcDbBlockBegin
  2
*Paper_Space1
 70
     0
 10
0.0
 20
0.0
 30
0.0
  3
*Paper_Space1
  1
*Paper_Space83
  0
ENDBLK
  5
12C6
330
12C3
100
AcDbEntity
  8
0
100
AcDbBlockEnd
  0
BLOCK
  5
1D89
330
1D88
100
AcDbEntity
  8
0
100
AcDbBlockBegin
  2
名称未設定-1
 70
     0
 10
0.0
 20
0.0
 30
0.0
  3
名称未設定-1
  1
名称未設定-1
  0
INSERT
  5
1D8A
330
1D88
100
AcDbEntity
  8
TFORMLOGO
100
AcDbBlockReference
  2
block 2
 10
0.0
 20
0.0
 30
0.0
  0
ENDBLK
  5
1DAF
330
1D88
100
AcDbEntity
  8
0
100
AcDbBlockEnd
  0
BLOCK
  5
1D8C
330
1D8B
100
AcDbEntity
  8
0
100
AcDbBlockBegin
  2
block 2
 70
     0
 10
0.0
 20
0.0
 30
0.0
  3
block 2
  1
block 2
  0
INSERT
  5
1D8D
330
1D8B
100
AcDbEntity
  8
TFORMLOGO
100
AcDbBlockReference
  2
block 3
 10
0.0
 20
0.0
 30
0.0
  0
ENDBLK
  5
1DAE
330
1D8B
100
AcDbEntity
  8
0
100
AcDbBlockEnd
  0
BLOCK
  5
1D8F
330
1D8E
100
AcDbEntity
  8
0
100
AcDbBlockBegin
  2
block 3
 70
     0
 10
0.0
 20
0.0
 30
0.0
  3
block 3
  1
block 3
  0
INSERT
  5
1D90
330
1D8E
100
AcDbEntity
  8
TFORMLOGO
100
AcDbBlockReference
  2
block 4
 10
0.0
 20
0.0
 30
0.0
  0
ENDBLK
  5
1DAD
330
1D8E
100
AcDbEntity
  8
0
100
AcDbBlockEnd
  0
BLOCK
  5
1D92
330
1D91
100
AcDbEntity
  8
0
100
AcDbBlockBegin
  2
block 4
 70
     0
 10
0.0
 20
0.0
 30
0.0
  3
block 4
  1
block 4
  0
POLYLINE
  5
1D93
330
1D91
100
AcDbEntity
  8
TFORMLOGO
370
     0
100
AcDb2dPolyline
 66
     1
 10
0.0
 20
0.0
 30
0.0
  0
VERTEX
  5
1D94
330
1D93
100
AcDbEntity
  8
TFORMLOGO
370
     0
100
AcDbVertex
100
AcDb2dVertex
 10
83.79545727667795
 20
167.6444858234922
 30
0.0
  0
VERTEX
  5
1D95
330
1D93
100
AcDbEntity
  8
TFORMLOGO
370
     0
100
AcDbVertex
100
AcDb2dVertex
 10
83.79545727667795
 20
159.7968976406313
 30
0.0
  0
VERTEX
  5
1D96
330
1D93
100
AcDbEntity
  8
TFORMLOGO
370
     0
100
AcDbVertex
100
AcDb2dVertex
 10
71.3631329975216
 20
159.7968976406313
 30
0.0
  0
VERTEX
  5
1D97
330
1D93
100
AcDbEntity
  8
TFORMLOGO
370
     0
100
AcDbVertex
100
AcDb2dVertex
 10
71.3631329975216
 20
127.8027915271048
 30
0.0
  0
VERTEX
  5
1D98
330
1D93
100
AcDbEntity
  8
TFORMLOGO
370
     0
100
AcDbVertex
100
AcDb2dVertex
 10
60.43011526263018
 20
127.8027915271048
 30
0.0
  0
VERTEX
  5
1D99
330
1D93
100
AcDbEntity
  8
TFORMLOGO
370
     0
100
AcDbVertex
100
AcDb2dVertex
 10
60.43011526263018
 20
159.7968976406313
 30
0.0
  0
VERTEX
  5
1D9A
330
1D93
100
AcDbEntity
  8
TFORMLOGO
370
     0
100
AcDbVertex
100
AcDb2dVertex
 10
48.21793273020759
 20
159.7968976406313
 30
0.0
  0
VERTEX
  5
1D9B
330
1D93
100
AcDbEntity
  8
TFORMLOGO
370
     0
100
AcDbVertex
100
AcDb2dVertex
 10
48.21793273020759
 20
167.6444858234922
 30
0.0
  0
VERTEX
  5
1D9C
330
1D93
100
AcDbEntity
  8
TFORMLOGO
370
     0
100
AcDbVertex
100
AcDb2dVertex
 10
83.79545727667795
 20
167.6444858234922
 30
0.0
  0
SEQEND
  5
1D9D
330
1D93
100
AcDbEntity
  8
TFORMLOGO
370
     0
  0
HATCH
  5
1D9E
330
1D91
100
AcDbEntity
  8
TFORMLOGO
 62
   250
420
  2234388
100
AcDbHatch
 10
0.0
 20
0.0
 30
0.0
210
0.0
220
0.0
230
1.0
  2
SOLID
 70
     1
 71
     0
 91
        1
 92
        1
 93
        8
 72
     1
 10
83.79545727667795
 20
167.6444858234922
 11
83.79545727667795
 21
159.7968976406313
 72
     1
 10
83.79545727667795
 20
159.7968976406313
 11
71.3631329975216
 21
159.7968976406313
 72
     1
 10
71.3631329975216
 20
159.7968976406313
 11
71.3631329975216
 21
127.8027915271048
 72
     1
 10
71.3631329975216
 20
127.8027915271048
 11
60.43011526263018
 21
127.8027915271048
 72
     1
 10
60.43011526263018
 20
127.8027915271048
 11
60.43011526263018
 21
159.7968976406313
 72
     1
 10
60.43011526263018
 20
159.7968976406313
 11
48.21793273020759
 21
159.7968976406313
 72
     1
 10
48.21793273020759
 20
159.7968976406313
 11
48.21793273020759
 21
167.6444858234922
 72
     1
 10
48.21793273020759
 20
167.6444858234922
 11
83.79545727667795
 21
167.6444858234922
 97
        0
 75
     2
 76
     1
 98
        0
  0
INSERT
  5
1D9F
330
1D91
100
AcDbEntity
  8
TFORMLOGO
100
AcDbBlockReference
  2
block 5
 10
0.0
 20
0.0
 30
0.0
  0
ENDBLK
  5
1DAC
330
1D91
100
AcDbEntity
  8
0
100
AcDbBlockEnd
  0
BLOCK
  5
1DA1
330
1DA0
100
AcDbEntity
  8
0
100
AcDbBlockBegin
  2
block 5
 70
     0
 10
0.0
 20
0.0
 30
0.0
  3
block 5
  1
block 5
  0
SPLINE
  5
1DA2
330
1DA0
100
AcDbEntity
  8
TFORMLOGO
370
     0
100
AcDbSpline
210
0.0
220
0.0
230
1.0
 70
    11
 71
     3
 72
    56
 73
    52
 74
     0
 42
0.000000001
 43
0.0000000001
 40
0.0
 40
0.0
 40
0.0
 40
0.0
 40
1.0
 40
1.0
 40
1.0
 40
2.0
 40
2.0
 40
2.0
 40
3.0
 40
3.0
 40
3.0
 40
4.0
 40
4.0
 40
4.0
 40
5.0
 40
5.0
 40
5.0
 40
6.0
 40
6.0
 40
6.0
 40
7.0
 40
7.0
 40
7.0
 40
8.0
 40
8.0
 40
8.0
 40
9.0
 40
9.0
 40
9.0
 40
10.0
 40
10.0
 40
10.0
 40
11.0
 40
11.0
 40
11.0
 40
12.0
 40
12.0
 40
12.0
 40
13.0
 40
13.0
 40
13.0
 40
14.0
 40
14.0
 40
14.0
 40
15.0
 40
15.0
 40
15.0
 40
16.0
 40
16.0
 40
16.0
 40
17.0
 40
17.0
 40
17.0
 40
17.0
 10
100.4504378777679
 20
166.69157178364
 30
0.0
 10
101.9848844191641
 20
167.1313385124438
 30
0.0
 10
103.9637485713373
 20
166.7649523658846
 30
0.0
 10
103.9637485713373
 20
166.7649523658846
 30
0.0
 10
103.9637485713373
 20
166.7649523658846
 30
0.0
 10
103.0132460999156
 20
163.911205638077
 30
0.0
 10
103.0132460999156
 20
163.911205638077
 30
0.0
 10
103.0132460999156
 20
163.911205638077
 30
0.0
 10
101.0674548862189
 20
164.3601018759394
 30
0.0
 10
99.57090442016032
 20
163.1805004036133
 30
0.0
 10
98.40508333886608
 20
162.258247733807
 30
0.0
 10
97.65301849830304
 20
159.804132345923
 30
0.0
 10
97.3598406791005
 20
158.8699940888517
 30
0.0
 10
97.3598406791005
 20
158.8699940888517
 30
0.0
 10
96.07137411762282
 20
154.9119212747295
 30
0.0
 10
96.07137411762282
 20
154.9119212747295
 30
0.0
 10
96.07137411762282
 20
154.9119212747295
 30
0.0
 10
100.3012651448482
 20
154.9119212747295
 30
0.0
 10
100.3012651448482
 20
154.9119212747295
 30
0.0
 10
100.3012651448482
 20
154.9119212747295
 30
0.0
 10
99.64152892419852
 20
152.4199098115079
 30
0.0
 10
99.64152892419852
 20
152.4199098115079
 30
0.0
 10
99.64152892419852
 20
152.4199098115079
 30
0.0
 10
95.38097652692731
 20
152.4199098115079
 30
0.0
 10
95.38097652692731
 20
152.4199098115079
 30
0.0
 10
95.38097652692731
 20
152.4199098115079
 30
0.0
 10
87.75353009080013
 20
127.8027915271048
 30
0.0
 10
87.75353009080013
 20
127.8027915271048
 30
0.0
 10
87.75353009080013
 20
127.8027915271048
 30
0.0
 10
85.36538832498108
 20
127.8027915271048
 30
0.0
 10
85.36538832498108
 20
127.8027915271048
 30
0.0
 10
85.36538832498108
 20
127.8027915271048
 30
0.0
 10
93.00006946639998
 20
152.4199098115079
 30
0.0
 10
93.00006946639998
 20
152.4199098115079
 30
0.0
 10
93.00006946639998
 20
152.4199098115079
 30
0.0
 10
89.85297266450198
 20
152.4199098115079
 30
0.0
 10
89.85297266450198
 20
152.4199098115079
 30
0.0
 10
89.85297266450198
 20
152.4199098115079
 30
0.0
 10
90.51270888515164
 20
154.9119212747295
 30
0.0
 10
90.51270888515164
 20
154.9119212747295
 30
0.0
 10
90.51270888515164
 20
154.9119212747295
 30
0.0
 10
93.6904670570955
 20
154.9119212747295
 30
0.0
 10
93.6904670570955
 20
154.9119212747295
 30
0.0
 10
93.6904670570955
 20
154.9119212747295
 30
0.0
 10
94.81598049462158
 20
158.3616699146644
 30
0.0
 10
94.81598049462158
 20
158.3616699146644
 30
0.0
 10
95.7237637538445
 20
161.2605474231013
 30
0.0
 10
96.4968436907311
 20
162.8139420021662
 30
0.0
 10
97.15657991138076
 20
163.9844139654337
 30
0.0
 10
97.81183750494507
 20
165.1523021053827
 30
0.0
 10
99.1047826935081
 20
166.3084769129547
 30
0.0
 10
100.4504378777679
 20
166.69157178364
 30
0.0
  0
HATCH
  5
1DA3
330
1DA0
100
AcDbEntity
  8
TFORMLOGO
 62
   250
420
  2234388
100
AcDbHatch
 10
0.0
 20
0.0
 30
0.0
210
0.0
220
0.0
230
1.0
  2
SOLID
 70
     1
 71
     0
 91
        1
 92
        1
 93
        1
 72
     4
 94
        3
 73
     0
 74
     1
 95
       56
 96
       52
 40
0.0
 40
0.0
 40
0.0
 40
0.0
 40
1.0
 40
1.0
 40
1.0
 40
2.0
 40
2.0
 40
2.0
 40
3.0
 40
3.0
 40
3.0
 40
4.0
 40
4.0
 40
4.0
 40
5.0
 40
5.0
 40
5.0
 40
6.0
 40
6.0
 40
6.0
 40
7.0
 40
7.0
 40
7.0
 40
8.0
 40
8.0
 40
8.0
 40
9.0
 40
9.0
 40
9.0
 40
10.0
 40
10.0
 40
10.0
 40
11.0
 40
11.0
 40
11.0
 40
12.0
 40
12.0
 40
12.0
 40
13.0
 40
13.0
 40
13.0
 40
14.0
 40
14.0
 40
14.0
 40
15.0
 40
15.0
 40
15.0
 40
16.0
 40
16.0
 40
16.0
 40
17.0
 40
17.0
 40
17.0
 40
17.0
 10
100.4504378777679
 20
166.69157178364
 10
101.9848844191641
 20
167.1313385124438
 10
103.9637485713373
 20
166.7649523658846
 10
103.9637485713373
 20
166.7649523658846
 10
103.9637485713373
 20
166.7649523658846
 10
103.0132460999156
 20
163.911205638077
 10
103.0132460999156
 20
163.911205638077
 10
103.0132460999156
 20
163.911205638077
 10
101.0674548862189
 20
164.3601018759394
 10
99.57090442016032
 20
163.1805004036133
 10
98.40508333886608
 20
162.258247733807
 10
97.65301849830304
 20
159.804132345923
 10
97.3598406791005
 20
158.8699940888517
 10
97.3598406791005
 20
158.8699940888517
 10
96.07137411762282
 20
154.9119212747295
 10
96.07137411762282
 20
154.9119212747295
 10
96.07137411762282
 20
154.9119212747295
 10
100.3012651448482
 20
154.9119212747295
 10
100.3012651448482
 20
154.9119212747295
 10
100.3012651448482
 20
154.9119212747295
 10
99.64152892419852
 20
152.4199098115079
 10
99.64152892419852
 20
152.4199098115079
 10
99.64152892419852
 20
152.4199098115079
 10
95.38097652692731
 20
152.4199098115079
 10
95.38097652692731
 20
152.4199098115079
 10
95.38097652692731
 20
152.4199098115079
 10
87.75353009080013
 20
127.8027915271048
 10
87.75353009080013
 20
127.8027915271048
 10
87.75353009080013
 20
127.8027915271048
 10
85.36538832498108
 20
127.8027915271048
 10
85.36538832498108
 20
127.8027915271048
 10
85.36538832498108
 20
127.8027915271048
 10
93.00006946639998
 20
152.4199098115079
 10
93.00006946639998
 20
152.4199098115079
 10
93.00006946639998
 20
152.4199098115079
 10
89.85297266450198
 20
152.4199098115079
 10
89.85297266450198
 20
152.4199098115079
 10
89.85297266450198
 20
152.4199098115079
 10
90.51270888515164
 20
154.9119212747295
 10
90.51270888515164
 20
154.9119212747295
 10
90.51270888515164
 20
154.9119212747295
 10
93.6904670570955
 20
154.9119212747295
 10
93.6904670570955
 20
154.9119212747295
 10
93.6904670570955
 20
154.9119212747295
 10
94.81598049462158
 20
158.3616699146644
 10
94.81598049462158
 20
158.3616699146644
 10
95.7237637538445
 20
161.2605474231013
 10
96.4968436907311
 20
162.8139420021662
 10
97.15657991138076
 20
163.9844139654337
 10
97.81183750494507
 20
165.1523021053827
 10
99.1047826935081
 20
166.3084769129547
 10
100.4504378777679
 20
166.69157178364
 97
        0
 75
     2
 76
     1
 98
        0
  0
SPLINE
  5
1DA4
330
1DA0
100
AcDbEntity
  8
TFORMLOGO
370
     0
100
AcDbSpline
210
0.0
220
0.0
230
1.0
 70
    11
 71
     3
 72
    38
 73
    34
 74
     0
 42
0.000000001
 43
0.0000000001
 40
0.0
 40
0.0
 40
0.0
 40
0.0
 40
1.0
 40
1.0
 40
1.0
 40
2.0
 40
2.0
 40
2.0
 40
3.0
 40
3.0
 40
3.0
 40
4.0
 40
4.0
 40
4.0
 40
5.0
 40
5.0
 40
5.0
 40
6.0
 40
6.0
 40
6.0
 40
7.0
 40
7.0
 40
7.0
 40
8.0
 40
8.0
 40
8.0
 40
9.0
 40
9.0
 40
9.0
 40
10.0
 40
10.0
 40
10.0
 40
11.0
 40
11.0
 40
11.0
 40
11.0
 10
126.377554584636
 20
154.8151140277308
 30
0.0
 10
126.377554584636
 20
154.8151140277308
 30
0.0
 10
128.8311532078563
 20
154.8151140277308
 30
0.0
 10
128.8311532078563
 20
154.8151140277308
 30
0.0
 10
128.8311532078563
 20
154.8151140277308
 30
0.0
 10
127.7345785914971
 20
151.3062819612468
 30
0.0
 10
127.7345785914971
 20
151.3062819612468
 30
0.0
 10
128.571392836906
 20
152.2922689395754
 30
0.0
 10
129.8860421413442
 20
153.604506675583
 30
0.0
 10
131.0163787157314
 20
154.2664822097754
 30
0.0
 10
132.7044766171327
 20
155.2500576196734
 30
0.0
 10
133.6642808525008
 20
155.3847609420097
 30
0.0
 10
134.7284715499351
 20
155.3565111403944
 30
0.0
 10
134.7284715499351
 20
155.3565111403944
 30
0.0
 10
133.6877075172549
 20
152.0345756272799
 30
0.0
 10
133.6877075172549
 20
152.0345756272799
 30
0.0
 10
133.011434827367
 20
152.3184516825359
 30
0.0
 10
130.930940291334
 20
151.7768823149844
 30
0.0
 10
129.739280976855
 20
150.9162968950455
 30
0.0
 10
128.66613302525
 20
150.1454562717016
 30
0.0
 10
127.9192358313239
 20
149.4857200510519
 30
0.0
 10
127.0393578639405
 20
147.8282835196966
 30
0.0
 10
126.164647543194
 20
146.1699857139017
 30
0.0
 10
125.4742499524985
 20
143.5262176944419
 30
0.0
 10
124.2822461282437
 20
139.6959580071401
 30
0.0
 10
124.2822461282437
 20
139.6959580071401
 30
0.0
 10
120.5753209406769
 20
127.8027915271048
 30
0.0
 10
120.5753209406769
 20
127.8027915271048
 30
0.0
 10
120.5753209406769
 20
127.8027915271048
 30
0.0
 10
118.1964809388044
 20
127.8027915271048
 30
0.0
 10
118.1964809388044
 20
127.8027915271048
 30
0.0
 10
118.1964809388044
 20
127.8027915271048
 30
0.0
 10
126.377554584636
 20
154.8151140277308
 30
0.0
 10
126.377554584636
 20
154.8151140277308
 30
0.0
  0
HATCH
  5
1DA5
330
1DA0
100
AcDbEntity
  8
TFORMLOGO
 62
   250
420
  2234388
100
AcDbHatch
 10
0.0
 20
0.0
 30
0.0
210
0.0
220
0.0
230
1.0
  2
SOLID
 70
     1
 71
     0
 91
        1
 92
        1
 93
        1
 72
     4
 94
        3
 73
     0
 74
     1
 95
       38
 96
       34
 40
0.0
 40
0.0
 40
0.0
 40
0.0
 40
1.0
 40
1.0
 40
1.0
 40
2.0
 40
2.0
 40
2.0
 40
3.0
 40
3.0
 40
3.0
 40
4.0
 40
4.0
 40
4.0
 40
5.0
 40
5.0
 40
5.0
 40
6.0
 40
6.0
 40
6.0
 40
7.0
 40
7.0
 40
7.0
 40
8.0
 40
8.0
 40
8.0
 40
9.0
 40
9.0
 40
9.0
 40
10.0
 40
10.0
 40
10.0
 40
11.0
 40
11.0
 40
11.0
 40
11.0
 10
126.377554584636
 20
154.8151140277308
 10
126.377554584636
 20
154.8151140277308
 10
128.8311532078563
 20
154.8151140277308
 10
128.8311532078563
 20
154.8151140277308
 10
128.8311532078563
 20
154.8151140277308
 10
127.7345785914971
 20
151.3062819612468
 10
127.7345785914971
 20
151.3062819612468
 10
128.571392836906
 20
152.2922689395754
 10
129.8860421413442
 20
153.604506675583
 10
131.0163787157314
 20
154.2664822097754
 10
132.7044766171327
 20
155.2500576196734
 10
133.6642808525008
 20
155.3847609420097
 10
134.7284715499351
 20
155.3565111403944
 10
134.7284715499351
 20
155.3565111403944
 10
133.6877075172549
 20
152.0345756272799
 10
133.6877075172549
 20
152.0345756272799
 10
133.011434827367
 20
152.3184516825359
 10
130.930940291334
 20
151.7768823149844
 10
129.739280976855
 20
150.9162968950455
 10
128.66613302525
 20
150.1454562717016
 10
127.9192358313239
 20
149.4857200510519
 10
127.0393578639405
 20
147.8282835196966
 10
126.164647543194
 20
146.1699857139017
 10
125.4742499524985
 20
143.5262176944419
 10
124.2822461282437
 20
139.6959580071401
 10
124.2822461282437
 20
139.6959580071401
 10
120.5753209406769
 20
127.8027915271048
 10
120.5753209406769
 20
127.8027915271048
 10
120.5753209406769
 20
127.8027915271048
 10
118.1964809388044
 20
127.8027915271048
 10
118.1964809388044
 20
127.8027915271048
 10
118.1964809388044
 20
127.8027915271048
 10
126.377554584636
 20
154.8151140277308
 10
126.377554584636
 20
154.8151140277308
 97
        0
 75
     2
 76
     1
 98
        0
  0
SPLINE
  5
1DA6
330
1DA0
100
AcDbEntity
  8
TFORMLOGO
370
     0
100
AcDbSpline
210
0.0
220
0.0
230
1.0
 70
    11
 71
     3
 72
   104
 73
   100
 74
     0
 42
0.000000001
 43
0.0000000001
 40
0.0
 40
0.0
 40
0.0
 40
0.0
 40
1.0
 40
1.0
 40
1.0
 40
2.0
 40
2.0
 40
2.0
 40
3.0
 40
3.0
 40
3.0
 40
4.0
 40
4.0
 40
4.0
 40
5.0
 40
5.0
 40
5.0
 40
6.0
 40
6.0
 40
6.0
 40
7.0
 40
7.0
 40
7.0
 40
8.0
 40
8.0
 40
8.0
 40
9.0
 40
9.0
 40
9.0
 40
10.0
 40
10.0
 40
10.0
 40
11.0
 40
11.0
 40
11.0
 40
12.0
 40
12.0
 40
12.0
 40
13.0
 40
13.0
 40
13.0
 40
14.0
 40
14.0
 40
14.0
 40
15.0
 40
15.0
 40
15.0
 40
16.0
 40
16.0
 40
16.0
 40
17.0
 40
17.0
 40
17.0
 40
18.0
 40
18.0
 40
18.0
 40
19.0
 40
19.0
 40
19.0
 40
20.0
 40
20.0
 40
20.0
 40
21.0
 40
21.0
 40
21.0
 40
22.0
 40
22.0
 40
22.0
 40
23.0
 40
23.0
 40
23.0
 40
24.0
 40
24.0
 40
24.0
 40
25.0
 40
25.0
 40
25.0
 40
26.0
 40
26.0
 40
26.0
 40
27.0
 40
27.0
 40
27.0
 40
28.0
 40
28.0
 40
28.0
 40
29.0
 40
29.0
 40
29.0
 40
30.0
 40
30.0
 40
30.0
 40
31.0
 40
31.0
 40
31.0
 40
32.0
 40
32.0
 40
32.0
 40
33.0
 40
33.0
 40
33.0
 40
33.0
 10
139.8926730891197
 20
154.8294111834263
 30
0.0
 10
139.8926730891197
 20
154.8294111834263
 30
0.0
 10
142.0344903652445
 20
154.8294111834263
 30
0.0
 10
142.0344903652445
 20
154.8294111834263
 30
0.0
 10
142.0344903652445
 20
154.8294111834263
 30
0.0
 10
140.9516961399171
 20
151.3157559800812
 30
0.0
 10
140.9516961399171
 20
151.3157559800812
 30
0.0
 10
141.8928968473923
 20
152.7887075264977
 30
0.0
 10
142.7341897198865
 20
153.4484437471474
 30
0.0
 10
143.8552245303272
 20
154.2926649527359
 30
0.0
 10
144.9803934580775
 20
155.1296514530327
 30
0.0
 10
146.3139908001845
 20
155.3044901642492
 30
0.0
 10
147.241066606852
 20
155.3044901642492
 30
0.0
 10
148.3855280820469
 20
155.3044901642492
 30
0.0
 10
149.4969166187653
 20
155.0752189084569
 30
0.0
 10
150.0784491203092
 20
153.8172414621372
 30
0.0
 10
150.5228667310863
 20
152.833838307127
 30
0.0
 10
150.5414702589793
 20
152.7201500811143
 30
0.0
 10
150.4140016419347
 20
150.7765981809602
 30
0.0
 10
151.5818897818837
 20
152.7699317437168
 30
0.0
 10
152.4424752018226
 20
153.6256940267945
 30
0.0
 10
153.9038856707499
 20
154.4507949398263
 30
0.0
 10
155.4455669174378
 20
155.3044901642492
 30
0.0
 10
156.339225275853
 20
155.3659851592288
 30
0.0
 10
157.3748216618963
 20
155.2147453676543
 30
0.0
 10
158.911679771723
 20
154.9877134254046
 30
0.0
 10
159.8859534176746
 20
154.4390816074493
 30
0.0
 10
160.3965169054045
 20
152.7816450760939
 30
0.0
 10
160.9070803931344
 20
151.1219692311958
 30
0.0
 10
160.6328506116007
 20
150.2303779314354
 30
0.0
 10
159.9992971339115
 20
147.597634224801
 30
0.0
 10
159.7105979417943
 20
146.4014962832367
 30
0.0
 10
159.2947746424084
 20
144.9400858143094
 30
0.0
 10
158.7463150793409
 20
143.2092687007094
 30
0.0
 10
158.7463150793409
 20
143.2092687007094
 30
0.0
 10
153.9038856707499
 20
127.8027915271048
 30
0.0
 10
153.9038856707499
 20
127.8027915271048
 30
0.0
 10
153.9038856707499
 20
127.8027915271048
 30
0.0
 10
151.3882752878863
 20
127.8027915271048
 30
0.0
 10
151.3882752878863
 20
127.8027915271048
 30
0.0
 10
151.3882752878863
 20
127.8027915271048
 30
0.0
 10
155.6250565106276
 20
141.2751908193897
 30
0.0
 10
155.6250565106276
 20
141.2751908193897
 30
0.0
 10
156.5094131050963
 20
144.0936252951782
 30
0.0
 10
157.109893644309
 20
146.1506931664571
 30
0.0
 10
157.4220195011804
 20
147.4415712963654
 30
0.0
 10
157.8095929989511
 20
149.0530157726519
 30
0.0
 10
157.9656559273867
 20
149.5826995529385
 30
0.0
 10
157.7816877071116
 20
150.7529992613181
 30
0.0
 10
157.6111553680925
 20
151.8430281919372
 30
0.0
 10
157.0582171779396
 20
152.5547853887321
 30
0.0
 10
156.1170164704645
 20
152.5547853887321
 30
0.0
 10
155.1096698860365
 20
152.5547853887321
 30
0.0
 10
154.2962823053817
 20
152.4412694176073
 30
0.0
 10
153.156643967048
 20
151.2945686288697
 30
0.0
 10
152.0170056287143
 20
150.1476955852443
 30
0.0
 10
151.076149431015
 20
148.7930831468137
 30
0.0
 10
150.3337308641742
 20
147.2290087646991
 30
0.0
 10
149.5957909244188
 20
145.6683794803425
 30
0.0
 10
148.8530278478023
 20
143.6822806228776
 30
0.0
 10
148.0964843801539
 20
141.2751908193897
 30
0.0
 10
148.0964843801539
 20
141.2751908193897
 30
0.0
 10
143.8552245303272
 20
127.8027915271048
 30
0.0
 10
143.8552245303272
 20
127.8027915271048
 30
0.0
 10
143.8552245303272
 20
127.8027915271048
 30
0.0
 10
141.486030802177
 20
127.8027915271048
 30
0.0
 10
141.486030802177
 20
127.8027915271048
 30
0.0
 10
141.486030802177
 20
127.8027915271048
 30
0.0
 10
146.3329388378533
 20
143.2092687007094
 30
0.0
 10
146.3329388378533
 20
143.2092687007094
 30
0.0
 10
146.8483254624444
 20
144.8408669988801
 30
0.0
 10
147.2314203331297
 20
146.1837661049335
 30
0.0
 10
147.4867020769946
 20
147.224185627838
 30
0.0
 10
147.9169947869641
 20
149.0197705792876
 30
0.0
 10
148.0306830129768
 20
150.2400242051577
 30
0.0
 10
147.709255392159
 20
151.3157559800812
 30
0.0
 10
147.3874832615654
 20
152.3916600098926
 30
0.0
 10
146.8245542879144
 20
152.6683013598569
 30
0.0
 10
145.8840425999909
 20
152.6683013598569
 30
0.0
 10
145.0989048209514
 20
152.6683013598569
 30
0.0
 10
144.3282364524954
 20
152.3275811915945
 30
0.0
 10
143.4531816219731
 20
151.6538923250251
 30
0.0
 10
142.34627171234
 20
150.8074318058939
 30
0.0
 10
141.901854101563
 20
150.1097995099067
 30
0.0
 10
141.3578731655808
 20
149.289521733736
 30
0.0
 10
140.6299240093235
 20
148.192602607601
 30
0.0
 10
140.2850697237515
 20
147.455696197173
 30
0.0
 10
139.6652966370942
 20
145.8385673095858
 30
0.0
 10
139.0506911970739
 20
144.2214384219986
 30
0.0
 10
138.463991048893
 20
142.3252566160164
 30
0.0
 10
138.0571250036777
 20
141.0154304484394
 30
0.0
 10
138.0571250036777
 20
141.0154304484394
 30
0.0
 10
133.9009590684727
 20
127.8027915271048
 30
0.0
 10
133.9009590684727
 20
127.8027915271048
 30
0.0
 10
133.9009590684727
 20
127.8027915271048
 30
0.0
 10
131.4180771143097
 20
127.8027915271048
 30
0.0
 10
131.4180771143097
 20
127.8027915271048
 30
0.0
 10
131.4180771143097
 20
127.8027915271048
 30
0.0
 10
139.8926730891197
 20
154.8294111834263
 30
0.0
 10
139.8926730891197
 20
154.8294111834263
 30
0.0
  0
HATCH
  5
1DA7
330
1DA0
100
AcDbEntity
  8
TFORMLOGO
 62
   250
420
  2234388
100
AcDbHatch
 10
0.0
 20
0.0
 30
0.0
210
0.0
220
0.0
230
1.0
  2
SOLID
 70
     1
 71
     0
 91
        1
 92
        1
 93
        1
 72
     4
 94
        3
 73
     0
 74
     1
 95
      104
 96
      100
 40
0.0
 40
0.0
 40
0.0
 40
0.0
 40
1.0
 40
1.0
 40
1.0
 40
2.0
 40
2.0
 40
2.0
 40
3.0
 40
3.0
 40
3.0
 40
4.0
 40
4.0
 40
4.0
 40
5.0
 40
5.0
 40
5.0
 40
6.0
 40
6.0
 40
6.0
 40
7.0
 40
7.0
 40
7.0
 40
8.0
 40
8.0
 40
8.0
 40
9.0
 40
9.0
 40
9.0
 40
10.0
 40
10.0
 40
10.0
 40
11.0
 40
11.0
 40
11.0
 40
12.0
 40
12.0
 40
12.0
 40
13.0
 40
13.0
 40
13.0
 40
14.0
 40
14.0
 40
14.0
 40
15.0
 40
15.0
 40
15.0
 40
16.0
 40
16.0
 40
16.0
 40
17.0
 40
17.0
 40
17.0
 40
18.0
 40
18.0
 40
18.0
 40
19.0
 40
19.0
 40
19.0
 40
20.0
 40
20.0
 40
20.0
 40
21.0
 40
21.0
 40
21.0
 40
22.0
 40
22.0
 40
22.0
 40
23.0
 40
23.0
 40
23.0
 40
24.0
 40
24.0
 40
24.0
 40
25.0
 40
25.0
 40
25.0
 40
26.0
 40
26.0
 40
26.0
 40
27.0
 40
27.0
 40
27.0
 40
28.0
 40
28.0
 40
28.0
 40
29.0
 40
29.0
 40
29.0
 40
30.0
 40
30.0
 40
30.0
 40
31.0
 40
31.0
 40
31.0
 40
32.0
 40
32.0
 40
32.0
 40
33.0
 40
33.0
 40
33.0
 40
33.0
 10
139.8926730891197
 20
154.8294111834263
 10
139.8926730891197
 20
154.8294111834263
 10
142.0344903652445
 20
154.8294111834263
 10
142.0344903652445
 20
154.8294111834263
 10
142.0344903652445
 20
154.8294111834263
 10
140.9516961399171
 20
151.3157559800812
 10
140.9516961399171
 20
151.3157559800812
 10
141.8928968473923
 20
152.7887075264977
 10
142.7341897198865
 20
153.4484437471474
 10
143.8552245303272
 20
154.2926649527359
 10
144.9803934580775
 20
155.1296514530327
 10
146.3139908001845
 20
155.3044901642492
 10
147.241066606852
 20
155.3044901642492
 10
148.3855280820469
 20
155.3044901642492
 10
149.4969166187653
 20
155.0752189084569
 10
150.0784491203092
 20
153.8172414621372
 10
150.5228667310863
 20
152.833838307127
 10
150.5414702589793
 20
152.7201500811143
 10
150.4140016419347
 20
150.7765981809602
 10
151.5818897818837
 20
152.7699317437168
 10
152.4424752018226
 20
153.6256940267945
 10
153.9038856707499
 20
154.4507949398263
 10
155.4455669174378
 20
155.3044901642492
 10
156.339225275853
 20
155.3659851592288
 10
157.3748216618963
 20
155.2147453676543
 10
158.911679771723
 20
154.9877134254046
 10
159.8859534176746
 20
154.4390816074493
 10
160.3965169054045
 20
152.7816450760939
 10
160.9070803931344
 20
151.1219692311958
 10
160.6328506116007
 20
150.2303779314354
 10
159.9992971339115
 20
147.597634224801
 10
159.7105979417943
 20
146.4014962832367
 10
159.2947746424084
 20
144.9400858143094
 10
158.7463150793409
 20
143.2092687007094
 10
158.7463150793409
 20
143.2092687007094
 10
153.9038856707499
 20
127.8027915271048
 10
153.9038856707499
 20
127.8027915271048
 10
153.9038856707499
 20
127.8027915271048
 10
151.3882752878863
 20
127.8027915271048
 10
151.3882752878863
 20
127.8027915271048
 10
151.3882752878863
 20
127.8027915271048
 10
155.6250565106276
 20
141.2751908193897
 10
155.6250565106276
 20
141.2751908193897
 10
156.5094131050963
 20
144.0936252951782
 10
157.109893644309
 20
146.1506931664571
 10
157.4220195011804
 20
147.4415712963654
 10
157.8095929989511
 20
149.0530157726519
 10
157.9656559273867
 20
149.5826995529385
 10
157.7816877071116
 20
150.7529992613181
 10
157.6111553680925
 20
151.8430281919372
 10
157.0582171779396
 20
152.5547853887321
 10
156.1170164704645
 20
152.5547853887321
 10
155.1096698860365
 20
152.5547853887321
 10
154.2962823053817
 20
152.4412694176073
 10
153.156643967048
 20
151.2945686288697
 10
152.0170056287143
 20
150.1476955852443
 10
151.076149431015
 20
148.7930831468137
 10
150.3337308641742
 20
147.2290087646991
 10
149.5957909244188
 20
145.6683794803425
 10
148.8530278478023
 20
143.6822806228776
 10
148.0964843801539
 20
141.2751908193897
 10
148.0964843801539
 20
141.2751908193897
 10
143.8552245303272
 20
127.8027915271048
 10
143.8552245303272
 20
127.8027915271048
 10
143.8552245303272
 20
127.8027915271048
 10
141.486030802177
 20
127.8027915271048
 10
141.486030802177
 20
127.8027915271048
 10
141.486030802177
 20
127.8027915271048
 10
146.3329388378533
 20
143.2092687007094
 10
146.3329388378533
 20
143.2092687007094
 10
146.8483254624444
 20
144.8408669988801
 10
147.2314203331297
 20
146.1837661049335
 10
147.4867020769946
 20
147.224185627838
 10
147.9169947869641
 20
149.0197705792876
 10
148.0306830129768
 20
150.2400242051577
 10
147.709255392159
 20
151.3157559800812
 10
147.3874832615654
 20
152.3916600098926
 10
146.8245542879144
 20
152.6683013598569
 10
145.8840425999909
 20
152.6683013598569
 10
145.0989048209514
 20
152.6683013598569
 10
144.3282364524954
 20
152.3275811915945
 10
143.4531816219731
 20
151.6538923250251
 10
142.34627171234
 20
150.8074318058939
 10
141.901854101563
 20
150.1097995099067
 10
141.3578731655808
 20
149.289521733736
 10
140.6299240093235
 20
148.192602607601
 10
140.2850697237515
 20
147.455696197173
 10
139.6652966370942
 20
145.8385673095858
 10
139.0506911970739
 20
144.2214384219986
 10
138.463991048893
 20
142.3252566160164
 10
138.0571250036777
 20
141.0154304484394
 10
138.0571250036777
 20
141.0154304484394
 10
133.9009590684727
 20
127.8027915271048
 10
133.9009590684727
 20
127.8027915271048
 10
133.9009590684727
 20
127.8027915271048
 10
131.4180771143097
 20
127.8027915271048
 10
131.4180771143097
 20
127.8027915271048
 10
131.4180771143097
 20
127.8027915271048
 10
139.8926730891197
 20
154.8294111834263
 10
139.8926730891197
 20
154.8294111834263
 97
        0
 75
     2
 76
     1
 98
        0
  0
SPLINE
  5
1DA8
330
1DA0
100
AcDbEntity
  8
TFORMLOGO
370
     0
100
AcDbSpline
210
0.0
220
0.0
230
1.0
 70
    11
 71
     3
 72
    29
 73
    25
 74
     0
 42
0.000000001
 43
0.0000000001
 40
0.0
 40
0.0
 40
0.0
 40
0.0
 40
1.0
 40
1.0
 40
1.0
 40
2.0
 40
2.0
 40
2.0
 40
3.0
 40
3.0
 40
3.0
 40
4.0
 40
4.0
 40
4.0
 40
5.0
 40
5.0
 40
5.0
 40
6.0
 40
6.0
 40
6.0
 40
7.0
 40
7.0
 40
7.0
 40
8.0
 40
8.0
 40
8.0
 40
8.0
 10
101.6420971922469
 20
132.8388354296931
 30
0.0
 10
101.630039350094
 20
134.7164137077823
 30
0.0
 10
102.2236296937908
 20
138.0598810818841
 30
0.0
 10
103.7487744712405
 20
142.5378191476827
 30
0.0
 10
105.819967243327
 20
148.5896501242061
 30
0.0
 10
107.0602024361932
 20
150.8074318058939
 30
0.0
 10
108.1522984254671
 20
151.8833358357054
 30
0.0
 10
109.741177511439
 20
153.4532668840085
 30
0.0
 10
111.8740375333931
 20
153.5290590346837
 30
0.0
 10
112.5075910110823
 20
153.4532668840085
 30
0.0
 10
113.4012493694975
 20
153.3490526768302
 30
0.0
 10
114.6683563248758
 20
152.7580461564518
 30
0.0
 10
114.7493161221879
 20
150.7838328862519
 30
0.0
 10
114.8106388622796
 20
149.0909118479895
 30
0.0
 10
114.3186789024427
 20
145.9191825971221
 30
0.0
 10
112.6164561002338
 20
140.9489400617108
 30
0.0
 10
110.6444821435766
 20
135.1746117095912
 30
0.0
 10
109.4669477299053
 20
132.8960240524753
 30
0.0
 10
108.5212683953448
 20
131.9072809959403
 30
0.0
 10
106.7346406980658
 20
130.0538184021569
 30
0.0
 10
104.8222669326213
 20
130.2336525051225
 30
0.0
 10
104.5408024457958
 20
130.2336525051225
 30
0.0
 10
104.1721769856939
 20
130.2336525051225
 30
0.0
 10
101.6465758193322
 20
130.6305277668397
 30
0.0
 10
101.6420971922469
 20
132.8388354296931
 30
0.0
  0
SPLINE
  5
1DA9
330
1DA0
100
AcDbEntity
  8
TFORMLOGO
370
     0
100
AcDbSpline
210
0.0
220
0.0
230
1.0
 70
    11
 71
     3
 72
    32
 73
    28
 74
     0
 42
0.000000001
 43
0.0000000001
 40
0.0
 40
0.0
 40
0.0
 40
0.0
 40
1.0
 40
1.0
 40
1.0
 40
2.0
 40
2.0
 40
2.0
 40
3.0
 40
3.0
 40
3.0
 40
4.0
 40
4.0
 40
4.0
 40
5.0
 40
5.0
 40
5.0
 40
6.0
 40
6.0
 40
6.0
 40
7.0
 40
7.0
 40
7.0
 40
8.0
 40
8.0
 40
8.0
 40
9.0
 40
9.0
 40
9.0
 40
9.0
 10
106.2595617172429
 20
153.4105476718098
 30
0.0
 10
104.8222669326213
 20
151.5474388043041
 30
0.0
 10
103.7177685914188
 20
149.8758773721411
 30
0.0
 10
101.9232171692965
 20
144.6141795664062
 30
0.0
 10
100.2754269116635
 20
139.7999999594306
 30
0.0
 10
99.22777268346732
 20
136.3052927937542
 30
0.0
 10
99.06964269637689
 20
132.039572749846
 30
0.0
 10
98.94665270641765
 20
128.8673267343149
 30
0.0
 10
100.8807305877373
 20
127.8027915271048
 30
0.0
 10
103.7129454545577
 20
127.8027915271048
 30
0.0
 10
104.9352661390825
 20
127.8027915271048
 30
0.0
 10
108.0151835347002
 20
127.8827177950895
 30
0.0
 10
110.2045431598849
 20
130.5926316915021
 30
0.0
 10
111.7417457794874
 20
132.4984597712065
 30
0.0
 10
113.155269389579
 20
134.475256864725
 30
0.0
 10
115.0562743324223
 20
140.9489400617108
 30
0.0
 10
116.6361961642235
 20
146.3680788349845
 30
0.0
 10
117.7282921534974
 20
149.8639917848761
 30
0.0
 10
117.6480213757369
 20
151.8595646611754
 30
0.0
 10
117.6480213757369
 20
151.8595646611754
 30
0.0
 10
117.6480213757369
 20
151.8595646611754
 30
0.0
 10
117.6480213757369
 20
151.8595646611754
 30
0.0
 10
117.13229024137
 20
155.18150017429
 30
0.0
 10
114.7162431837115
 20
155.886194920681
 30
0.0
 10
113.3351034925446
 20
155.886194920681
 30
0.0
 10
111.9829026225447
 20
155.886194920681
 30
0.0
 10
108.3414342923792
 20
156.1251124501957
 30
0.0
 10
106.2595617172429
 20
153.4105476718098
 30
0.0
  0
HATCH
  5
1DAA
330
1DA0
100
AcDbEntity
  8
TFORMLOGO
 62
   250
420
  2234388
100
AcDbHatch
 10
0.0
 20
0.0
 30
0.0
210
0.0
220
0.0
230
1.0
  2
SOLID
 70
     1
 71
     0
 91
        2
 92
        1
 93
        1
 72
     4
 94
        3
 73
     0
 74
     1
 95
       29
 96
       25
 40
0.0
 40
0.0
 40
0.0
 40
0.0
 40
1.0
 40
1.0
 40
1.0
 40
2.0
 40
2.0
 40
2.0
 40
3.0
 40
3.0
 40
3.0
 40
4.0
 40
4.0
 40
4.0
 40
5.0
 40
5.0
 40
5.0
 40
6.0
 40
6.0
 40
6.0
 40
7.0
 40
7.0
 40
7.0
 40
8.0
 40
8.0
 40
8.0
 40
8.0
 10
101.6420971922469
 20
132.8388354296931
 10
101.630039350094
 20
134.7164137077823
 10
102.2236296937908
 20
138.0598810818841
 10
103.7487744712405
 20
142.5378191476827
 10
105.819967243327
 20
148.5896501242061
 10
107.0602024361932
 20
150.8074318058939
 10
108.1522984254671
 20
151.8833358357054
 10
109.741177511439
 20
153.4532668840085
 10
111.8740375333931
 20
153.5290590346837
 10
112.5075910110823
 20
153.4532668840085
 10
113.4012493694975
 20
153.3490526768302
 10
114.6683563248758
 20
152.7580461564518
 10
114.7493161221879
 20
150.7838328862519
 10
114.8106388622796
 20
149.0909118479895
 10
114.3186789024427
 20
145.9191825971221
 10
112.6164561002338
 20
140.9489400617108
 10
110.6444821435766
 20
135.1746117095912
 10
109.4669477299053
 20
132.8960240524753
 10
108.5212683953448
 20
131.9072809959403
 10
106.7346406980658
 20
130.0538184021569
 10
104.8222669326213
 20
130.2336525051225
 10
104.5408024457958
 20
130.2336525051225
 10
104.1721769856939
 20
130.2336525051225
 10
101.6465758193322
 20
130.6305277668397
 10
101.6420971922469
 20
132.8388354296931
 97
        0
 92
        1
 93
        1
 72
     4
 94
        3
 73
     0
 74
     1
 95
       32
 96
       28
 40
0.0
 40
0.0
 40
0.0
 40
0.0
 40
1.0
 40
1.0
 40
1.0
 40
2.0
 40
2.0
 40
2.0
 40
3.0
 40
3.0
 40
3.0
 40
4.0
 40
4.0
 40
4.0
 40
5.0
 40
5.0
 40
5.0
 40
6.0
 40
6.0
 40
6.0
 40
7.0
 40
7.0
 40
7.0
 40
8.0
 40
8.0
 40
8.0
 40
9.0
 40
9.0
 40
9.0
 40
9.0
 10
106.2595617172429
 20
153.4105476718098
 10
104.8222669326213
 20
151.5474388043041
 10
103.7177685914188
 20
149.8758773721411
 10
101.9232171692965
 20
144.6141795664062
 10
100.2754269116635
 20
139.7999999594306
 10
99.22777268346732
 20
136.3052927937542
 10
99.06964269637689
 20
132.039572749846
 10
98.94665270641765
 20
128.8673267343149
 10
100.8807305877373
 20
127.8027915271048
 10
103.7129454545577
 20
127.8027915271048
 10
104.9352661390825
 20
127.8027915271048
 10
108.0151835347002
 20
127.8827177950895
 10
110.2045431598849
 20
130.5926316915021
 10
111.7417457794874
 20
132.4984597712065
 10
113.155269389579
 20
134.475256864725
 10
115.0562743324223
 20
140.9489400617108
 10
116.6361961642235
 20
146.3680788349845
 10
117.7282921534974
 20
149.8639917848761
 10
117.6480213757369
 20
151.8595646611754
 10
117.6480213757369
 20
151.8595646611754
 10
117.6480213757369
 20
151.8595646611754
 10
117.6480213757369
 20
151.8595646611754
 10
117.13229024137
 20
155.18150017429
 10
114.7162431837115
 20
155.886194920681
 10
113.3351034925446
 20
155.886194920681
 10
111.9829026225447
 20
155.886194920681
 10
108.3414342923792
 20
156.1251124501957
 10
106.2595617172429
 20
153.4105476718098
 97
        0
 75
     2
 76
     1
 98
        0
  0
ENDBLK
  5
1DAB
330
1DA0
100
AcDbEntity
  8
0
100
AcDbBlockEnd
  0
BLOCK
  5
37E0
330
37DF
100
AcDbEntity
  8
0
100
AcDbBlockBegin
  2
*D7
 70
     1
 10
0.0
 20
0.0
 30
0.0
  3
*D7
  1
*D156
  0
LINE
  5
37E2
330
37DF
100
AcDbEntity
  8
寸法
 62
     0
370
    -2
100
AcDbLine
 10
202.2957663671774
 20
349.3799946242279
 30
0.0
 11
200.389510035032
 21
349.3799946242279
 31
0.0
  0
LINE
  5
37E3
330
37DF
100
AcDbEntity
  8
寸法
 62
     0
370
    -2
100
AcDbLine
 10
202.2957663671774
 20
347.4048052429969
 30
0.0
 11
200.389510035032
 21
347.4048052429969
 31
0.0
  0
INSERT
  5
37E4
330
37DF
100
AcDbEntity
  8
寸法
 62
     0
370
    -2
100
AcDbBlockReference
  2
_DOT
 10
200.389510035032
 20
349.3799946242279
 30
0.0
 41
2.0
 42
2.0
 43
2.0
 50
90.0
  0
INSERT
  5
37E5
330
37DF
100
AcDbEntity
  8
寸法
 62
     0
370
    -2
100
AcDbBlockReference
  2
_DOT
 10
200.389510035032
 20
347.4048052429969
 30
0.0
 41
2.0
 42
2.0
 43
2.0
 50
270.0
  0
MTEXT
  5
37E6
330
37DF
100
AcDbEntity
  8
寸法
 62
     0
100
AcDbMText
 10
192.889510035032
 20
348.3923999336124
 30
0.0
 40
5.0
 41
0.0
 46
0.0
 71
     5
 72
     1
  1
\A1;2
  7
ＭＳ ゴシック
 11
0.0
 21
1.0
 31
0.0
 73
     1
 44
1.0
  0
POINT
  5
37E7
330
37DF
100
AcDbEntity
  8
Defpoints
 62
     0
100
AcDbPoint
 10
207.2957663671774
 20
349.3799946242279
 30
0.0
  0
POINT
  5
37E8
330
37DF
100
AcDbEntity
  8
Defpoints
 62
     0
100
AcDbPoint
 10
207.2957663671774
 20
347.4048052429969
 30
0.0
  0
POINT
  5
37E9
330
37DF
100
AcDbEntity
  8
Defpoints
 62
     0
100
AcDbPoint
 10
200.389510035032
 20
347.4048052429969
 30
0.0
  0
ENDBLK
  5
37E1
330
37DF
100
AcDbEntity
  8
0
100
AcDbBlockEnd
  0
BLOCK
  5
37EB
330
37EA
100
AcDbEntity
  8
0
100
AcDbBlockBegin
  2
*D8
 70
     1
 10
0.0
 20
0.0
 30
0.0
  3
*D8
  1
*D157
  0
LINE
  5
37ED
330
37EA
100
AcDbEntity
  8
寸法
 62
     0
370
    -2
100
AcDbLine
 10
315.5889840782232
 20
306.1991393259359
 30
0.0
 11
328.2278845989873
 21
306.1991393259359
 31
0.0
  0
LINE
  5
37EE
330
37EA
100
AcDbEntity
  8
寸法
 62
     0
370
    -2
100
AcDbLine
 10
315.7302330862998
 20
322.8504451560839
 30
0.0
 11
328.2278845989873
 21
322.8504451560839
 31
0.0
  0
LINE
  5
37EF
330
37EA
100
AcDbEntity
  8
寸法
 62
     0
370
    -2
100
AcDbLine
 10
328.2278845989873
 20
308.1991393259359
 30
0.0
 11
328.2278845989873
 21
320.8504451560839
 31
0.0
  0
INSERT
  5
37F0
330
37EA
100
AcDbEntity
  8
寸法
 62
     0
370
    -2
100
AcDbBlockReference
  2
_DOT
 10
328.2278845989873
 20
306.1991393259359
 30
0.0
 41
2.0
 42
2.0
 43
2.0
 50
270.0
  0
INSERT
  5
37F1
330
37EA
100
AcDbEntity
  8
寸法
 62
     0
370
    -2
100
AcDbBlockReference
  2
_DOT
 10
328.2278845989873
 20
322.8504451560839
 30
0.0
 41
2.0
 42
2.0
 43
2.0
 50
90.0
  0
MTEXT
  5
37F2
330
37EA
100
AcDbEntity
  8
寸法
 62
     0
100
AcDbMText
 10
320.7278845989873
 20
314.5247922410099
 30
0.0
 40
5.0
 41
0.0
 46
0.0
 71
     5
 72
     1
  1
\A1;17
  7
ＭＳ ゴシック
 11
0.0
 21
1.0
 31
0.0
 73
     1
 44
1.0
  0
POINT
  5
37F3
330
37EA
100
AcDbEntity
  8
Defpoints
 62
     0
100
AcDbPoint
 10
310.5889840782232
 20
306.1991393259359
 30
0.0
  0
POINT
  5
37F4
330
37EA
100
AcDbEntity
  8
Defpoints
 62
     0
100
AcDbPoint
 10
310.7302330862998
 20
322.8504451560839
 30
0.0
  0
POINT
  5
37F5
330
37EA
100
AcDbEntity
  8
Defpoints
 62
     0
100
AcDbPoint
 10
328.2278845989873
 20
322.8504451560839
 30
0.0
  0
ENDBLK
  5
37EC
330
37EA
100
AcDbEntity
  8
0
100
AcDbBlockEnd
  0
BLOCK
  5
37F7
330
37F6
100
AcDbEntity
  8
0
100
AcDbBlockBegin
  2
*D9
 70
     1
 10
0.0
 20
0.0
 30
0.0
  3
*D9
  1
*D158
  0
LINE
  5
37F9
330
37F6
100
AcDbEntity
  8
寸法
 62
     0
370
    -2
100
AcDbLine
 10
315.5889840782232
 20
306.1991393259359
 30
0.0
 11
349.1700500172429
 21
306.1991393259359
 31
0.0
  0
LINE
  5
37FA
330
37F6
100
AcDbEntity
  8
寸法
 62
     0
370
    -2
100
AcDbLine
 10
239.1066654855546
 20
349.3799946242279
 30
0.0
 11
349.1700500172429
 21
349.3799946242279
 31
0.0
  0
LINE
  5
37FB
330
37F6
100
AcDbEntity
  8
寸法
 62
     0
370
    -2
100
AcDbLine
 10
349.1700500172429
 20
308.1991393259359
 30
0.0
 11
349.1700500172429
 21
347.3799946242279
 31
0.0
  0
INSERT
  5
37FC
330
37F6
100
AcDbEntity
  8
寸法
 62
     0
370
    -2
100
AcDbBlockReference
  2
_DOT
 10
349.1700500172429
 20
306.1991393259359
 30
0.0
 41
2.0
 42
2.0
 43
2.0
 50
270.0
  0
INSERT
  5
37FD
330
37F6
100
AcDbEntity
  8
寸法
 62
     0
370
    -2
100
AcDbBlockReference
  2
_DOT
 10
349.1700500172429
 20
349.3799946242279
 30
0.0
 41
2.0
 42
2.0
 43
2.0
 50
90.0
  0
MTEXT
  5
37FE
330
37F6
100
AcDbEntity
  8
寸法
 62
     0
100
AcDbMText
 10
341.6700500172429
 20
327.7895669750819
 30
0.0
 40
5.0
 41
0.0
 46
0.0
 71
     5
 72
     1
  1
\A1;43
  7
ＭＳ ゴシック
 11
0.0
 21
1.0
 31
0.0
 73
     1
 44
1.0
  0
POINT
  5
37FF
330
37F6
100
AcDbEntity
  8
Defpoints
 62
     0
100
AcDbPoint
 10
310.5889840782232
 20
306.1991393259359
 30
0.0
  0
POINT
  5
3800
330
37F6
100
AcDbEntity
  8
Defpoints
 62
     0
100
AcDbPoint
 10
234.1066654855546
 20
349.3799946242279
 30
0.0
  0
POINT
  5
3801
330
37F6
100
AcDbEntity
  8
Defpoints
 62
     0
100
AcDbPoint
 10
349.1700500172429
 20
349.3799946242279
 30
0.0
  0
ENDBLK
  5
37F8
330
37F6
100
AcDbEntity
  8
0
100
AcDbBlockEnd
  0
BLOCK
  5
3803
330
3802
100
AcDbEntity
  8
0
100
AcDbBlockBegin
  2
*D10
 70
     1
 10
0.0
 20
0.0
 30
0.0
  3
*D10
  1
*D159
  0
LINE
  5
3805
330
3802
100
AcDbEntity
  8
寸法
 62
     0
370
    -2
100
AcDbLine
 10
311.4353297607628
 20
301.7641353582419
 30
0.0
 11
311.4353297607628
 21
289.5478334957879
 31
0.0
  0
LINE
  5
3806
330
3802
100
AcDbEntity
  8
寸法
 62
     0
370
    -2
100
AcDbLine
 10
214.633824591636
 20
301.1991393259359
 30
0.0
 11
214.633824591636
 21
289.5478334957879
 31
0.0
  0
LINE
  5
3807
330
3802
100
AcDbEntity
  8
寸法
 62
     0
370
    -2
100
AcDbLine
 10
309.4353297607628
 20
289.5478334957879
 30
0.0
 11
216.633824591636
 21
289.5478334957879
 31
0.0
  0
INSERT
  5
3808
330
3802
100
AcDbEntity
  8
寸法
 62
     0
370
    -2
100
AcDbBlockReference
  2
_DOT
 10
311.4353297607628
 20
289.5478334957879
 30
0.0
 41
2.0
 42
2.0
 43
2.0
  0
INSERT
  5
3809
330
3802
100
AcDbEntity
  8
寸法
 62
     0
370
    -2
100
AcDbBlockReference
  2
_DOT
 10
214.633824591636
 20
289.5478334957879
 30
0.0
 41
2.0
 42
2.0
 43
2.0
 50
180.0
  0
MTEXT
  5
380A
330
3802
100
AcDbEntity
  8
寸法
 62
     0
100
AcDbMText
 10
263.0345771761994
 20
297.0478334957879
 30
0.0
 40
5.0
 41
0.0
 46
0.0
 71
     5
 72
     1
  1
\A1;97
  7
ＭＳ ゴシック
 73
     1
 44
1.0
  0
POINT
  5
380B
330
3802
100
AcDbEntity
  8
Defpoints
 62
     0
100
AcDbPoint
 10
311.4353297607628
 20
306.7641353582419
 30
0.0
  0
POINT
  5
380C
330
3802
100
AcDbEntity
  8
Defpoints
 62
     0
100
AcDbPoint
 10
214.633824591636
 20
306.1991393259359
 30
0.0
  0
POINT
  5
380D
330
3802
100
AcDbEntity
  8
Defpoints
 62
     0
100
AcDbPoint
 10
214.633824591636
 20
289.5478334957879
 30
0.0
  0
ENDBLK
  5
3804
330
3802
100
AcDbEntity
  8
0
100
AcDbBlockEnd
  0
BLOCK
  5
380F
330
380E
100
AcDbEntity
  8
0
100
AcDbBlockBegin
  2
*D11
 70
     1
 10
0.0
 20
0.0
 30
0.0
  3
*D11
  1
*D160
  0
LINE
  5
3811
330
380E
100
AcDbEntity
  8
寸法
 62
     0
370
    -2
100
AcDbLine
 10
209.633824591636
 20
306.1991393259359
 30
0.0
 11
200.389510035032
 21
306.1991393259359
 31
0.0
  0
LINE
  5
3812
330
380E
100
AcDbEntity
  8
寸法
 62
     0
370
    -2
100
AcDbLine
 10
202.2957663671774
 20
347.4048052429969
 30
0.0
 11
200.389510035032
 21
347.4048052429969
 31
0.0
  0
LINE
  5
3813
330
380E
100
AcDbEntity
  8
寸法
 62
     0
370
    -2
100
AcDbLine
 10
200.389510035032
 20
308.1991393259359
 30
0.0
 11
200.389510035032
 21
345.4048052429969
 31
0.0
  0
INSERT
  5
3814
330
380E
100
AcDbEntity
  8
寸法
 62
     0
370
    -2
100
AcDbBlockReference
  2
_DOT
 10
200.389510035032
 20
306.1991393259359
 30
0.0
 41
2.0
 42
2.0
 43
2.0
 50
270.0
  0
INSERT
  5
3815
330
380E
100
AcDbEntity
  8
寸法
 62
     0
370
    -2
100
AcDbBlockReference
  2
_DOT
 10
200.389510035032
 20
347.4048052429969
 30
0.0
 41
2.0
 42
2.0
 43
2.0
 50
90.0
  0
MTEXT
  5
3816
330
380E
100
AcDbEntity
  8
寸法
 62
     0
100
AcDbMText
 10
192.889510035032
 20
326.8019722844664
 30
0.0
 40
5.0
 41
0.0
 46
0.0
 71
     5
 72
     1
  1
\A1;41
  7
ＭＳ ゴシック
 11
0.0
 21
1.0
 31
0.0
 73
     1
 44
1.0
  0
POINT
  5
3817
330
380E
100
AcDbEntity
  8
Defpoints
 62
     0
100
AcDbPoint
 10
214.633824591636
 20
306.1991393259359
 30
0.0
  0
POINT
  5
3818
330
380E
100
AcDbEntity
  8
Defpoints
 62
     0
100
AcDbPoint
 10
207.2957663671774
 20
347.4048052429969
 30
0.0
  0
POINT
  5
3819
330
380E
100
AcDbEntity
  8
Defpoints
 62
     0
100
AcDbPoint
 10
200.389510035032
 20
347.4048052429969
 30
0.0
  0
ENDBLK
  5
3810
330
380E
100
AcDbEntity
  8
0
100
AcDbBlockEnd
  0
BLOCK
  5
381B
330
381A
100
AcDbEntity
  8
0
100
AcDbBlockBegin
  2
*D12
 70
     1
 10
0.0
 20
0.0
 30
0.0
  3
*D12
  1
*D161
  0
LINE
  5
381D
330
381A
100
AcDbEntity
  8
寸法
 62
     0
370
    -2
100
AcDbLine
 10
202.2957663671774
 20
256.24751856733
 30
0.0
 11
190.6444605370293
 21
256.24751856733
 31
0.0
  0
LINE
  5
381E
330
381A
100
AcDbEntity
  8
寸法
 62
     0
370
    -2
100
AcDbLine
 10
202.2957663671774
 20
109.490947541839
 30
0.0
 11
190.6444605370293
 21
109.490947541839
 31
0.0
  0
LINE
  5
381F
330
381A
100
AcDbEntity
  8
寸法
 62
     0
370
    -2
100
AcDbLine
 10
190.6444605370293
 20
254.24751856733
 30
0.0
 11
190.6444605370293
 21
111.490947541839
 31
0.0
  0
INSERT
  5
3820
330
381A
100
AcDbEntity
  8
寸法
 62
     0
370
    -2
100
AcDbBlockReference
  2
_DOT
 10
190.6444605370293
 20
256.24751856733
 30
0.0
 41
2.0
 42
2.0
 43
2.0
 50
90.0
  0
INSERT
  5
3821
330
381A
100
AcDbEntity
  8
寸法
 62
     0
370
    -2
100
AcDbBlockReference
  2
_DOT
 10
190.6444605370293
 20
109.490947541839
 30
0.0
 41
2.0
 42
2.0
 43
2.0
 50
270.0
  0
MTEXT
  5
3822
330
381A
100
AcDbEntity
  8
寸法
 62
     0
100
AcDbMText
 10
183.1444605370293
 20
182.8692330545845
 30
0.0
 40
5.0
 41
0.0
 46
0.0
 71
     5
 72
     1
  1
\A1;147
  7
ＭＳ ゴシック
 11
0.0
 21
1.0
 31
0.0
 73
     1
 44
1.0
  0
POINT
  5
3823
330
381A
100
AcDbEntity
  8
Defpoints
 62
     0
100
AcDbPoint
 10
207.2957663671774
 20
256.24751856733
 30
0.0
  0
POINT
  5
3824
330
381A
100
AcDbEntity
  8
Defpoints
 62
     0
100
AcDbPoint
 10
207.2957663671774
 20
109.490947541839
 30
0.0
  0
POINT
  5
3825
330
381A
100
AcDbEntity
  8
Defpoints
 62
     0
100
AcDbPoint
 10
190.6444605370293
 20
109.490947541839
 30
0.0
  0
ENDBLK
  5
381C
330
381A
100
AcDbEntity
  8
0
100
AcDbBlockEnd
  0
BLOCK
  5
3827
330
3826
100
AcDbEntity
  8
0
100
AcDbBlockBegin
  2
*D13
 70
     1
 10
0.0
 20
0.0
 30
0.0
  3
*D13
  1
*D162
  0
LINE
  5
3829
330
3826
100
AcDbEntity
  8
寸法
 62
     0
370
    -2
100
AcDbLine
 10
207.2957663671774
 20
104.490947541839
 30
0.0
 11
207.2957663671774
 21
94.18180669859589
 31
0.0
  0
LINE
  5
382A
330
3826
100
AcDbEntity
  8
寸法
 62
     0
370
    -2
100
AcDbLine
 10
234.1066654855546
 20
104.490947541839
 30
0.0
 11
234.1066654855546
 21
94.18180669859589
 31
0.0
  0
LINE
  5
382B
330
3826
100
AcDbEntity
  8
寸法
 62
     0
370
    -2
100
AcDbLine
 10
209.2957663671774
 20
94.18180669859589
 30
0.0
 11
232.1066654855546
 21
94.18180669859589
 31
0.0
  0
INSERT
  5
382C
330
3826
100
AcDbEntity
  8
寸法
 62
     0
370
    -2
100
AcDbBlockReference
  2
_DOT
 10
207.2957663671774
 20
94.18180669859589
 30
0.0
 41
2.0
 42
2.0
 43
2.0
 50
180.0
  0
INSERT
  5
382D
330
3826
100
AcDbEntity
  8
寸法
 62
     0
370
    -2
100
AcDbBlockReference
  2
_DOT
 10
234.1066654855546
 20
94.18180669859589
 30
0.0
 41
2.0
 42
2.0
 43
2.0
  0
MTEXT
  5
382E
330
3826
100
AcDbEntity
  8
寸法
 62
     0
100
AcDbMText
 10
220.701215926366
 20
101.6818066985959
 30
0.0
 40
5.0
 41
0.0
 46
0.0
 71
     5
 72
     1
  1
\A1;27
  7
ＭＳ ゴシック
 73
     1
 44
1.0
  0
POINT
  5
382F
330
3826
100
AcDbEntity
  8
Defpoints
 62
     0
100
AcDbPoint
 10
207.2957663671774
 20
109.490947541839
 30
0.0
  0
POINT
  5
3830
330
3826
100
AcDbEntity
  8
Defpoints
 62
     0
100
AcDbPoint
 10
234.1066654855546
 20
109.490947541839
 30
0.0
  0
POINT
  5
3831
330
3826
100
AcDbEntity
  8
Defpoints
 62
     0
100
AcDbPoint
 10
234.1066654855546
 20
94.18180669859589
 30
0.0
  0
ENDBLK
  5
3828
330
3826
100
AcDbEntity
  8
0
100
AcDbBlockEnd
  0
BLOCK
  5
3833
330
3832
100
AcDbEntity
  8
0
100
AcDbBlockBegin
  2
*D14
 70
     1
 10
0.0
 20
0.0
 30
0.0
  3
*D14
  1
*D163
  0
LINE
  5
3835
330
3832
100
AcDbEntity
  8
寸法
 62
     0
370
    -2
100
AcDbLine
 10
316.4353297607628
 20
204.1760143216588
 30
0.0
 11
328.086635590911
 21
204.1760143216588
 31
0.0
  0
LINE
  5
3836
330
3832
100
AcDbEntity
  8
寸法
 62
     0
370
    -2
100
AcDbLine
 10
239.1066654855546
 20
256.24751856733
 30
0.0
 11
328.086635590911
 21
256.24751856733
 31
0.0
  0
LINE
  5
3837
330
3832
100
AcDbEntity
  8
寸法
 62
     0
370
    -2
100
AcDbLine
 10
328.086635590911
 20
206.1760143216588
 30
0.0
 11
328.086635590911
 21
254.24751856733
 31
0.0
  0
INSERT
  5
3838
330
3832
100
AcDbEntity
  8
寸法
 62
     0
370
    -2
100
AcDbBlockReference
  2
_DOT
 10
328.086635590911
 20
204.1760143216588
 30
0.0
 41
2.0
 42
2.0
 43
2.0
 50
270.0
  0
INSERT
  5
3839
330
3832
100
AcDbEntity
  8
寸法
 62
     0
370
    -2
100
AcDbBlockReference
  2
_DOT
 10
328.086635590911
 20
256.24751856733
 30
0.0
 41
2.0
 42
2.0
 43
2.0
 50
90.0
  0
MTEXT
  5
383A
330
3832
100
AcDbEntity
  8
寸法
 62
     0
100
AcDbMText
 10
320.586635590911
 20
230.2117664444944
 30
0.0
 40
5.0
 41
0.0
 46
0.0
 71
     5
 72
     1
  1
\A1;52
  7
ＭＳ ゴシック
 11
0.0
 21
1.0
 31
0.0
 73
     1
 44
1.0
  0
POINT
  5
383B
330
3832
100
AcDbEntity
  8
Defpoints
 62
     0
100
AcDbPoint
 10
311.4353297607628
 20
204.1760143216588
 30
0.0
  0
POINT
  5
383C
330
3832
100
AcDbEntity
  8
Defpoints
 62
     0
100
AcDbPoint
 10
234.1066654855546
 20
256.24751856733
 30
0.0
  0
POINT
  5
383D
330
3832
100
AcDbEntity
  8
Defpoints
 62
     0
100
AcDbPoint
 10
328.086635590911
 20
256.24751856733
 30
0.0
  0
ENDBLK
  5
3834
330
3832
100
AcDbEntity
  8
0
100
AcDbBlockEnd
  0
BLOCK
  5
3960
330
395F
100
AcDbEntity
  8
0
100
AcDbBlockBegin
  2
*D15
 70
     1
 10
0.0
 20
0.0
 30
0.0
  3
*D15
  1
*D40
  0
LINE
  5
3961
330
395F
100
AcDbEntity
  8
寸法
 62
     0
370
    -2
100
AcDbLine
 10
14.74478791698148
 20
224.0104347839655
 30
0.0
 11
9.999999999999986
 21
224.0104347839655
 31
0.0
  0
LINE
  5
3962
330
395F
100
AcDbEntity
  8
寸法
 62
     0
370
    -2
100
AcDbLine
 10
14.74478791698148
 20
219.3526626152015
 30
0.0
 11
9.999999999999986
 21
219.3526626152015
 31
0.0
  0
LINE
  5
3963
330
395F
100
AcDbEntity
  8
寸法
 62
     0
370
    -2
100
AcDbLine
 10
9.999999999999986
 20
222.0104347839655
 30
0.0
 11
9.999999999999986
 21
221.3526626152015
 31
0.0
  0
INSERT
  5
3964
330
395F
100
AcDbEntity
  8
寸法
 62
     0
370
    -2
100
AcDbBlockReference
  2
_DOT
 10
9.999999999999986
 20
224.0104347839655
 30
0.0
 41
2.0
 42
2.0
 43
2.0
 50
90.0
  0
INSERT
  5
3965
330
395F
100
AcDbEntity
  8
寸法
 62
     0
370
    -2
100
AcDbBlockReference
  2
_DOT
 10
9.999999999999986
 20
219.3526626152015
 30
0.0
 41
2.0
 42
2.0
 43
2.0
 50
270.0
  0
MTEXT
  5
3966
330
395F
100
AcDbEntity
  8
寸法
 62
     0
100
AcDbMText
 10
2.499999999999986
 20
221.6357466385695
 30
0.0
 40
5.0
 41
0.0
 46
0.0
 71
     5
 72
     1
  1
\A1;5
  7
ＭＳ ゴシック
 11
0.0
 21
1.0
 31
0.0
 73
     1
 44
1.0
  0
POINT
  5
3967
330
395F
100
AcDbEntity
  8
Defpoints
 62
     0
100
AcDbPoint
 10
19.74478791698148
 20
224.0104347839655
 30
0.0
  0
POINT
  5
3968
330
395F
100
AcDbEntity
  8
Defpoints
 62
     0
100
AcDbPoint
 10
19.74478791698148
 20
219.3526626152015
 30
0.0
  0
POINT
  5
3969
330
395F
100
AcDbEntity
  8
Defpoints
 62
     0
100
AcDbPoint
 10
9.999999999999986
 20
219.3526626152015
 30
0.0
  0
ENDBLK
  5
396A
330
395F
100
AcDbEntity
  8
0
100
AcDbBlockEnd
  0
BLOCK
  5
396F
330
396E
100
AcDbEntity
  8
0
100
AcDbBlockBegin
  2
*D16
 70
     1
 10
0.0
 20
0.0
 30
0.0
  3
*D16
  1
*D41
  0
LINE
  5
3970
330
396E
100
AcDbEntity
  8
寸法
 62
     0
370
    -2
100
AcDbLine
 10
29.98417784932528
 20
164.3206710295212
 30
0.0
 11
9.999999999999984
 21
164.3206710295212
 31
0.0
  0
LINE
  5
3971
330
396E
100
AcDbEntity
  8
寸法
 62
     0
370
    -2
100
AcDbLine
 10
29.98417784932528
 20
184.2161105817494
 30
0.0
 11
9.999999999999986
 21
184.2161105817494
 31
0.0
  0
LINE
  5
3972
330
396E
100
AcDbEntity
  8
寸法
 62
     0
370
    -2
100
AcDbLine
 10
9.999999999999984
 20
166.3206710295212
 30
0.0
 11
9.999999999999986
 21
182.2161105817494
 31
0.0
  0
INSERT
  5
3973
330
396E
100
AcDbEntity
  8
寸法
 62
     0
370
    -2
100
AcDbBlockReference
  2
_DOT
 10
9.999999999999984
 20
164.3206710295212
 30
0.0
 41
2.0
 42
2.0
 43
2.0
 50
270.0
  0
INSERT
  5
3974
330
396E
100
AcDbEntity
  8
寸法
 62
     0
370
    -2
100
AcDbBlockReference
  2
_DOT
 10
9.999999999999986
 20
184.2161105817494
 30
0.0
 41
2.0
 42
2.0
 43
2.0
 50
90.0
  0
MTEXT
  5
3975
330
396E
100
AcDbEntity
  8
寸法
 62
     0
100
AcDbMText
 10
2.499999999999986
 20
174.2683908056353
 30
0.0
 40
5.0
 41
0.0
 46
0.0
 71
     5
 72
     1
  1
\A1;20
  7
ＭＳ ゴシック
 11
8.928462398315330E-17
 21
1.0
 31
0.0
 73
     1
 44
1.0
  0
POINT
  5
3976
330
396E
100
AcDbEntity
  8
Defpoints
 62
     0
100
AcDbPoint
 10
34.98417784932528
 20
164.3206710295212
 30
0.0
  0
POINT
  5
3977
330
396E
100
AcDbEntity
  8
Defpoints
 62
     0
100
AcDbPoint
 10
34.98417784932528
 20
184.2161105817494
 30
0.0
  0
POINT
  5
3978
330
396E
100
AcDbEntity
  8
Defpoints
 62
     0
100
AcDbPoint
 10
9.999999999999986
 20
184.2161105817494
 30
0.0
  0
ENDBLK
  5
3979
330
396E
100
AcDbEntity
  8
0
100
AcDbBlockEnd
  0
BLOCK
  5
397E
330
397D
100
AcDbEntity
  8
0
100
AcDbBlockBegin
  2
*D17
 70
     1
 10
0.0
 20
0.0
 30
0.0
  3
*D17
  1
*D42
  0
LINE
  5
397F
330
397D
100
AcDbEntity
  8
寸法
 62
     0
370
    -2
100
AcDbLine
 10
134.4682658059849
 20
161.8597080771391
 30
0.0
 11
134.4682658059849
 21
145.2942155193206
 31
0.0
  0
LINE
  5
3980
330
397D
100
AcDbEntity
  8
寸法
 62
     0
370
    -2
100
AcDbLine
 10
34.56215337397478
 20
159.7426955048717
 30
0.0
 11
34.56215337397478
 21
145.2942155193206
 31
0.0
  0
LINE
  5
3981
330
397D
100
AcDbEntity
  8
寸法
 62
     0
370
    -2
100
AcDbLine
 10
132.4682658059849
 20
145.2942155193206
 30
0.0
 11
36.56215337397478
 21
145.2942155193206
 31
0.0
  0
INSERT
  5
3982
330
397D
100
AcDbEntity
  8
寸法
 62
     0
370
    -2
100
AcDbBlockReference
  2
_DOT
 10
134.4682658059849
 20
145.2942155193206
 30
0.0
 41
2.0
 42
2.0
 43
2.0
  0
INSERT
  5
3983
330
397D
100
AcDbEntity
  8
寸法
 62
     0
370
    -2
100
AcDbBlockReference
  2
_DOT
 10
34.56215337397478
 20
145.2942155193206
 30
0.0
 41
2.0
 42
2.0
 43
2.0
 50
180.0
  0
MTEXT
  5
3984
330
397D
100
AcDbEntity
  8
寸法
 62
     0
100
AcDbMText
 10
84.51520958997983
 20
152.7942155193206
 30
0.0
 40
5.0
 41
0.0
 46
0.0
 71
     5
 72
     1
  1
\A1;100
  7
ＭＳ ゴシック
 73
     1
 44
1.0
  0
POINT
  5
3985
330
397D
100
AcDbEntity
  8
Defpoints
 62
     0
100
AcDbPoint
 10
134.4682658059849
 20
166.8597080771391
 30
0.0
  0
POINT
  5
3986
330
397D
100
AcDbEntity
  8
Defpoints
 62
     0
100
AcDbPoint
 10
34.56215337397478
 20
164.7426955048717
 30
0.0
  0
POINT
  5
3987
330
397D
100
AcDbEntity
  8
Defpoints
 62
     0
100
AcDbPoint
 10
34.56215337397478
 20
145.2942155193206
 30
0.0
  0
ENDBLK
  5
3988
330
397D
100
AcDbEntity
  8
0
100
AcDbBlockEnd
  0
BLOCK
  5
398D
330
398C
100
AcDbEntity
  8
0
100
AcDbBlockBegin
  2
*D18
 70
     1
 10
0.0
 20
0.0
 30
0.0
  3
*D18
  1
*D43
  0
LINE
  5
398E
330
398C
100
AcDbEntity
  8
寸法
 62
     0
370
    -2
100
AcDbLine
 10
29.98417784932528
 20
184.2161105817494
 30
0.0
 11
9.999999999999984
 21
184.2161105817494
 31
0.0
  0
LINE
  5
398F
330
398C
100
AcDbEntity
  8
寸法
 62
     0
370
    -2
100
AcDbLine
 10
14.74478791698148
 20
219.3526626152015
 30
0.0
 11
9.999999999999986
 21
219.3526626152015
 31
0.0
  0
LINE
  5
3990
330
398C
100
AcDbEntity
  8
寸法
 62
     0
370
    -2
100
AcDbLine
 10
9.999999999999984
 20
186.2161105817494
 30
0.0
 11
9.999999999999986
 21
217.3526626152015
 31
0.0
  0
INSERT
  5
3991
330
398C
100
AcDbEntity
  8
寸法
 62
     0
370
    -2
100
AcDbBlockReference
  2
_DOT
 10
9.999999999999984
 20
184.2161105817494
 30
0.0
 41
2.0
 42
2.0
 43
2.0
 50
270.0
  0
INSERT
  5
3992
330
398C
100
AcDbEntity
  8
寸法
 62
     0
370
    -2
100
AcDbBlockReference
  2
_DOT
 10
9.999999999999986
 20
219.3526626152015
 30
0.0
 41
2.0
 42
2.0
 43
2.0
 50
90.0
  0
MTEXT
  5
3993
330
398C
100
AcDbEntity
  8
寸法
 62
     0
100
AcDbMText
 10
2.499999999999986
 20
201.7843865984755
 30
0.0
 40
5.0
 41
0.0
 46
0.0
 71
     5
 72
     1
  1
\A1;35
  7
ＭＳ ゴシック
 11
5.055580973651175E-17
 21
1.0
 31
0.0
 73
     1
 44
1.0
  0
POINT
  5
3994
330
398C
100
AcDbEntity
  8
Defpoints
 62
     0
100
AcDbPoint
 10
34.98417784932528
 20
184.2161105817494
 30
0.0
  0
POINT
  5
3995
330
398C
100
AcDbEntity
  8
Defpoints
 62
     0
100
AcDbPoint
 10
19.74478791698148
 20
219.3526626152015
 30
0.0
  0
POINT
  5
3996
330
398C
100
AcDbEntity
  8
Defpoints
 62
     0
100
AcDbPoint
 10
9.999999999999986
 20
219.3526626152015
 30
0.0
  0
ENDBLK
  5
3997
330
398C
100
AcDbEntity
  8
0
100
AcDbBlockEnd
  0
BLOCK
  5
399A
330
3999
100
AcDbEntity
  8
0
100
AcDbBlockBegin
  2
*D19
 70
     1
 10
0.0
 20
0.0
 30
0.0
  3
*D19
  1
*D44
  0
LINE
  5
399B
330
3999
100
AcDbEntity
  8
寸法
 62
     0
370
    -2
100
AcDbLine
 10
39.72088538776438
 20
17.8237685643322
 30
0.0
 11
9.999999999999982
 21
17.8237685643322
 31
0.0
  0
LINE
  5
399C
330
3999
100
AcDbEntity
  8
寸法
 62
     0
370
    -2
100
AcDbLine
 10
39.72088538776438
 20
68.20192514080222
 30
0.0
 11
9.999999999999986
 21
68.20192514080222
 31
0.0
  0
LINE
  5
399D
330
3999
100
AcDbEntity
  8
寸法
 62
     0
370
    -2
100
AcDbLine
 10
9.999999999999982
 20
19.8237685643322
 30
0.0
 11
9.999999999999986
 21
66.20192514080222
 31
0.0
  0
INSERT
  5
399E
330
3999
100
AcDbEntity
  8
寸法
 62
     0
370
    -2
100
AcDbBlockReference
  2
_DOT
 10
9.999999999999982
 20
17.8237685643322
 30
0.0
 41
2.0
 42
2.0
 43
2.0
 50
270.0
  0
INSERT
  5
399F
330
3999
100
AcDbEntity
  8
寸法
 62
     0
370
    -2
100
AcDbBlockReference
  2
_DOT
 10
9.999999999999986
 20
68.20192514080222
 30
0.0
 41
2.0
 42
2.0
 43
2.0
 50
90.0
  0
MTEXT
  5
39A0
330
3999
100
AcDbEntity
  8
寸法
 62
     0
100
AcDbMText
 10
2.499999999999984
 20
43.01284685256721
 30
0.0
 40
5.0
 41
0.0
 46
0.0
 71
     5
 72
     1
  1
\A1;50
  7
ＭＳ ゴシック
 11
7.052091462314159E-17
 21
1.0
 31
0.0
 73
     1
 44
1.0
  0
POINT
  5
39A1
330
3999
100
AcDbEntity
  8
Defpoints
 62
     0
100
AcDbPoint
 10
44.72088538776438
 20
17.8237685643322
 30
0.0
  0
POINT
  5
39A2
330
3999
100
AcDbEntity
  8
Defpoints
 62
     0
100
AcDbPoint
 10
44.72088538776438
 20
68.20192514080222
 30
0.0
  0
POINT
  5
39A3
330
3999
100
AcDbEntity
  8
Defpoints
 62
     0
100
AcDbPoint
 10
9.999999999999986
 20
68.20192514080222
 30
0.0
  0
ENDBLK
  5
39A4
330
3999
100
AcDbEntity
  8
0
100
AcDbBlockEnd
  0
BLOCK
  5
39A9
330
39A8
100
AcDbEntity
  8
0
100
AcDbBlockBegin
  2
*D20
 70
     1
 10
0.0
 20
0.0
 30
0.0
  3
*D20
  1
*D45
  0
LINE
  5
39AA
330
39A8
100
AcDbEntity
  8
寸法
 62
     0
370
    -2
100
AcDbLine
 10
139.4682658059849
 20
50.4215216741176
 30
0.0
 11
156.8315585182279
 21
50.4215216741176
 31
0.0
  0
LINE
  5
39AB
330
39A8
100
AcDbEntity
  8
寸法
 62
     0
370
    -2
100
AcDbLine
 10
139.4682658059849
 20
35.6041562171234
 30
0.0
 11
156.8315585182279
 21
35.6041562171234
 31
0.0
  0
LINE
  5
39AC
330
39A8
100
AcDbEntity
  8
寸法
 62
     0
370
    -2
100
AcDbLine
 10
156.8315585182279
 20
48.4215216741176
 30
0.0
 11
156.8315585182279
 21
37.6041562171234
 31
0.0
  0
INSERT
  5
39AD
330
39A8
100
AcDbEntity
  8
寸法
 62
     0
370
    -2
100
AcDbBlockReference
  2
_DOT
 10
156.8315585182279
 20
50.4215216741176
 30
0.0
 41
2.0
 42
2.0
 43
2.0
 50
90.0
  0
INSERT
  5
39AE
330
39A8
100
AcDbEntity
  8
寸法
 62
     0
370
    -2
100
AcDbBlockReference
  2
_DOT
 10
156.8315585182279
 20
35.6041562171234
 30
0.0
 41
2.0
 42
2.0
 43
2.0
 50
270.0
  0
MTEXT
  5
39AF
330
39A8
100
AcDbEntity
  8
寸法
 62
     0
100
AcDbMText
 10
149.3315585182279
 20
43.26831551848721
 30
0.0
 40
5.0
 41
0.0
 46
0.0
 71
     5
 72
     1
  1
\A1;15
  7
ＭＳ ゴシック
 11
0.0
 21
1.0
 31
0.0
 73
     1
 44
1.0
  0
POINT
  5
39B0
330
39A8
100
AcDbEntity
  8
Defpoints
 62
     0
100
AcDbPoint
 10
134.4682658059849
 20
50.4215216741176
 30
0.0
  0
POINT
  5
39B1
330
39A8
100
AcDbEntity
  8
Defpoints
 62
     0
100
AcDbPoint
 10
134.4682658059849
 20
35.6041562171234
 30
0.0
  0
POINT
  5
39B2
330
39A8
100
AcDbEntity
  8
Defpoints
 62
     0
100
AcDbPoint
 10
156.8315585182279
 20
35.6041562171234
 30
0.0
  0
ENDBLK
  5
39B3
330
39A8
100
AcDbEntity
  8
0
100
AcDbBlockEnd
  0
BLOCK
  5
39B8
330
39B7
100
AcDbEntity
  8
0
100
AcDbBlockBegin
  2
*D21
 70
     1
 10
0.0
 20
0.0
 30
0.0
  3
*D21
  1
*D46
  0
LINE
  5
39B9
330
39B7
100
AcDbEntity
  8
寸法
 62
     0
370
    -2
100
AcDbLine
 10
139.4682658059849
 20
166.8597080771391
 30
0.0
 11
173.677299873684
 21
166.8597080771391
 31
0.0
  0
LINE
  5
39BA
330
39B7
100
AcDbEntity
  8
寸法
 62
     0
370
    -2
100
AcDbLine
 10
74.69870540742588
 20
224.0104347839655
 30
0.0
 11
173.677299873684
 21
224.0104347839655
 31
0.0
  0
LINE
  5
39BB
330
39B7
100
AcDbEntity
  8
寸法
 62
     0
370
    -2
100
AcDbLine
 10
173.677299873684
 20
168.8597080771391
 30
0.0
 11
173.677299873684
 21
222.0104347839655
 31
0.0
  0
INSERT
  5
39BC
330
39B7
100
AcDbEntity
  8
寸法
 62
     0
370
    -2
100
AcDbBlockReference
  2
_DOT
 10
173.677299873684
 20
166.8597080771391
 30
0.0
 41
2.0
 42
2.0
 43
2.0
 50
270.0
  0
INSERT
  5
39BD
330
39B7
100
AcDbEntity
  8
寸法
 62
     0
370
    -2
100
AcDbBlockReference
  2
_DOT
 10
173.677299873684
 20
224.0104347839655
 30
0.0
 41
2.0
 42
2.0
 43
2.0
 50
90.0
  0
MTEXT
  5
39BE
330
39B7
100
AcDbEntity
  8
寸法
 62
     0
100
AcDbMText
 10
166.177299873684
 20
195.4350714305523
 30
0.0
 40
5.0
 41
0.0
 46
0.0
 71
     5
 72
     1
  1
\A1;57
  7
ＭＳ ゴシック
 11
0.0
 21
1.0
 31
0.0
 73
     1
 44
1.0
  0
POINT
  5
39BF
330
39B7
100
AcDbEntity
  8
Defpoints
 62
     0
100
AcDbPoint
 10
134.4682658059849
 20
166.8597080771391
 30
0.0
  0
POINT
  5
39C0
330
39B7
100
AcDbEntity
  8
Defpoints
 62
     0
100
AcDbPoint
 10
69.69870540742588
 20
224.0104347839655
 30
0.0
  0
POINT
  5
39C1
330
39B7
100
AcDbEntity
  8
Defpoints
 62
     0
100
AcDbPoint
 10
173.677299873684
 20
224.0104347839655
 30
0.0
  0
ENDBLK
  5
39C2
330
39B7
100
AcDbEntity
  8
0
100
AcDbBlockEnd
  0
BLOCK
  5
39C7
330
39C6
100
AcDbEntity
  8
0
100
AcDbBlockBegin
  2
*D22
 70
     1
 10
0.0
 20
0.0
 30
0.0
  3
*D22
  1
*D47
  0
LINE
  5
39C8
330
39C6
100
AcDbEntity
  8
寸法
 62
     0
370
    -2
100
AcDbLine
 10
74.69870540742588
 20
224.0104347839655
 30
0.0
 11
153.1098097798007
 21
224.0104347839655
 31
0.0
  0
LINE
  5
39C9
330
39C6
100
AcDbEntity
  8
寸法
 62
     0
370
    -2
100
AcDbLine
 10
139.4682658059849
 20
181.6770735341324
 30
0.0
 11
153.1098097798007
 21
181.6770735341324
 31
0.0
  0
LINE
  5
39CA
330
39C6
100
AcDbEntity
  8
寸法
 62
     0
370
    -2
100
AcDbLine
 10
153.1098097798007
 20
222.0104347839655
 30
0.0
 11
153.1098097798007
 21
183.6770735341324
 31
0.0
  0
INSERT
  5
39CB
330
39C6
100
AcDbEntity
  8
寸法
 62
     0
370
    -2
100
AcDbBlockReference
  2
_DOT
 10
153.1098097798007
 20
224.0104347839655
 30
0.0
 41
2.0
 42
2.0
 43
2.0
 50
90.0
  0
INSERT
  5
39CC
330
39C6
100
AcDbEntity
  8
寸法
 62
     0
370
    -2
100
AcDbBlockReference
  2
_DOT
 10
153.1098097798007
 20
181.6770735341324
 30
0.0
 41
2.0
 42
2.0
 43
2.0
 50
270.0
  0
MTEXT
  5
39CD
330
39C6
100
AcDbEntity
  8
寸法
 62
     0
100
AcDbMText
 10
145.6098097798007
 20
202.843754159049
 30
0.0
 40
5.0
 41
0.0
 46
0.0
 71
     5
 72
     1
  1
\A1;42
  7
ＭＳ ゴシック
 11
0.0
 21
1.0
 31
0.0
 73
     1
 44
1.0
  0
POINT
  5
39CE
330
39C6
100
AcDbEntity
  8
Defpoints
 62
     0
100
AcDbPoint
 10
69.69870540742588
 20
224.0104347839655
 30
0.0
  0
POINT
  5
39CF
330
39C6
100
AcDbEntity
  8
Defpoints
 62
     0
100
AcDbPoint
 10
134.4682658059849
 20
181.6770735341324
 30
0.0
  0
POINT
  5
39D0
330
39C6
100
AcDbEntity
  8
Defpoints
 62
     0
100
AcDbPoint
 10
153.1098097798007
 20
181.6770735341324
 30
0.0
  0
ENDBLK
  5
39D1
330
39C6
100
AcDbEntity
  8
0
100
AcDbBlockEnd
  0
BLOCK
  5
39E3
330
39E2
100
AcDbEntity
  8
0
100
AcDbBlockBegin
  2
*D23
 70
     1
 10
0.0
 20
0.0
 30
0.0
  3
*D23
  1
*D51
  0
LINE
  5
39E4
330
39E2
100
AcDbEntity
  8
寸法
 62
     0
370
    -2
100
AcDbLine
 10
63.72088538776438
 20
37.80096543350609
 30
0.0
 11
63.72088538776438
 21
0.5108464693973076
 31
0.0
  0
LINE
  5
39E5
330
39E2
100
AcDbEntity
  8
寸法
 62
     0
370
    -2
100
AcDbLine
 10
25.88395212166938
 20
37.80096543350609
 30
0.0
 11
25.88395212166938
 21
0.5108464693973076
 31
0.0
  0
LINE
  5
39E6
330
39E2
100
AcDbEntity
  8
寸法
 62
     0
370
    -2
100
AcDbLine
 10
61.72088538776438
 20
0.5108464693973076
 30
0.0
 11
27.88395212166938
 21
0.5108464693973076
 31
0.0
  0
INSERT
  5
39E7
330
39E2
100
AcDbEntity
  8
寸法
 62
     0
370
    -2
100
AcDbBlockReference
  2
_DOT
 10
63.72088538776438
 20
0.5108464693973076
 30
0.0
 41
2.0
 42
2.0
 43
2.0
  0
INSERT
  5
39E8
330
39E2
100
AcDbEntity
  8
寸法
 62
     0
370
    -2
100
AcDbBlockReference
  2
_DOT
 10
25.88395212166938
 20
0.5108464693973076
 30
0.0
 41
2.0
 42
2.0
 43
2.0
 50
180.0
  0
MTEXT
  5
39E9
330
39E2
100
AcDbEntity
  8
寸法
 62
     0
100
AcDbMText
 10
44.80241875471688
 20
8.010846469397308
 30
0.0
 40
5.0
 41
0.0
 46
0.0
 71
     5
 72
     1
  1
\A1;38
  7
ＭＳ ゴシック
 73
     1
 44
1.0
  0
POINT
  5
39EA
330
39E2
100
AcDbEntity
  8
Defpoints
 62
     0
100
AcDbPoint
 10
63.72088538776438
 20
42.80096543350609
 30
0.0
  0
POINT
  5
39EB
330
39E2
100
AcDbEntity
  8
Defpoints
 62
     0
100
AcDbPoint
 10
25.88395212166938
 20
42.80096543350609
 30
0.0
  0
POINT
  5
39EC
330
39E2
100
AcDbEntity
  8
Defpoints
 62
     0
100
AcDbPoint
 10
25.88395212166938
 20
0.5108464693973076
 30
0.0
  0
ENDBLK
  5
39ED
330
39E2
100
AcDbEntity
  8
0
100
AcDbBlockEnd
  0
BLOCK
  5
39F2
330
39F1
100
AcDbEntity
  8
0
100
AcDbBlockBegin
  2
*D24
 70
     1
 10
0.0
 20
0.0
 30
0.0
  3
*D24
  1
*D52
  0
LINE
  5
39F3
330
39F1
100
AcDbEntity
  8
寸法
 62
     0
370
    -2
100
AcDbLine
 10
314.8282422312282
 20
12.8237527504389
 30
0.0
 11
314.8282422312282
 21
0.5
 31
0.0
  0
LINE
  5
39F4
330
39F1
100
AcDbEntity
  8
寸法
 62
     0
370
    -2
100
AcDbLine
 10
310.1704700624643
 20
12.8237527504389
 30
0.0
 11
310.1704700624643
 21
0.5
 31
0.0
  0
LINE
  5
39F5
330
39F1
100
AcDbEntity
  8
寸法
 62
     0
370
    -2
100
AcDbLine
 10
312.8282422312282
 20
0.5
 30
0.0
 11
312.1704700624643
 21
0.5
 31
0.0
  0
INSERT
  5
39F6
330
39F1
100
AcDbEntity
  8
寸法
 62
     0
370
    -2
100
AcDbBlockReference
  2
_DOT
 10
314.8282422312282
 20
0.5
 30
0.0
 41
2.0
 42
2.0
 43
2.0
  0
INSERT
  5
39F7
330
39F1
100
AcDbEntity
  8
寸法
 62
     0
370
    -2
100
AcDbBlockReference
  2
_DOT
 10
310.1704700624643
 20
0.5
 30
0.0
 41
2.0
 42
2.0
 43
2.0
 50
180.0
  0
MTEXT
  5
39F8
330
39F1
100
AcDbEntity
  8
寸法
 62
     0
100
AcDbMText
 10
312.4993561468462
 20
8.0
 30
0.0
 40
5.0
 41
0.0
 46
0.0
 71
     5
 72
     1
  1
\A1;5
  7
ＭＳ ゴシック
 73
     1
 44
1.0
  0
POINT
  5
39F9
330
39F1
100
AcDbEntity
  8
Defpoints
 62
     0
100
AcDbPoint
 10
314.8282422312282
 20
17.8237527504389
 30
0.0
  0
POINT
  5
39FA
330
39F1
100
AcDbEntity
  8
Defpoints
 62
     0
100
AcDbPoint
 10
310.1704700624643
 20
17.8237527504389
 30
0.0
  0
POINT
  5
39FB
330
39F1
100
AcDbEntity
  8
Defpoints
 62
     0
100
AcDbPoint
 10
310.1704700624643
 20
0.5
 30
0.0
  0
ENDBLK
  5
39FC
330
39F1
100
AcDbEntity
  8
0
100
AcDbBlockEnd
  0
BLOCK
  5
3AE1
330
3AE0
100
AcDbEntity
  8
0
100
AcDbBlockBegin
  2
*D25
 70
     1
 10
0.0
 20
0.0
 30
0.0
  3
*D25
  1
*D26
  0
LINE
  5
3AE3
330
3AE0
100
AcDbEntity
  8
寸法
 62
     0
370
    -2
100
AcDbLine
 10
141.8419307741243
 20
350.9532919268227
 30
0.0
 11
137.0971428571428
 21
350.9532919268227
 31
0.0
  0
LINE
  5
3AE4
330
3AE0
100
AcDbEntity
  8
寸法
 62
     0
370
    -2
100
AcDbLine
 10
141.8419307741243
 20
346.2955197580586
 30
0.0
 11
137.0971428571428
 21
346.2955197580586
 31
0.0
  0
LINE
  5
3AE5
330
3AE0
100
AcDbEntity
  8
寸法
 62
     0
370
    -2
100
AcDbLine
 10
137.0971428571428
 20
348.9532919268227
 30
0.0
 11
137.0971428571428
 21
348.2955197580586
 31
0.0
  0
INSERT
  5
3AE6
330
3AE0
100
AcDbEntity
  8
寸法
 62
     0
370
    -2
100
AcDbBlockReference
  2
_DOT
 10
137.0971428571428
 20
350.9532919268227
 30
0.0
 41
2.0
 42
2.0
 43
2.0
 50
90.0
  0
INSERT
  5
3AE7
330
3AE0
100
AcDbEntity
  8
寸法
 62
     0
370
    -2
100
AcDbBlockReference
  2
_DOT
 10
137.0971428571428
 20
346.2955197580586
 30
0.0
 41
2.0
 42
2.0
 43
2.0
 50
270.0
  0
MTEXT
  5
3AE8
330
3AE0
100
AcDbEntity
  8
寸法
 62
     0
100
AcDbMText
 10
129.5971428571428
 20
348.5786037814266
 30
0.0
 40
5.0
 41
0.0
 46
0.0
 71
     5
 72
     1
  1
\A1;5
  7
ＭＳ ゴシック
 11
0.0
 21
1.0
 31
0.0
 73
     1
 44
1.0
  0
POINT
  5
3AE9
330
3AE0
100
AcDbEntity
  8
Defpoints
 62
     0
100
AcDbPoint
 10
146.8419307741243
 20
350.9532919268227
 30
0.0
  0
POINT
  5
3AEA
330
3AE0
100
AcDbEntity
  8
Defpoints
 62
     0
100
AcDbPoint
 10
146.8419307741243
 20
346.2955197580586
 30
0.0
  0
POINT
  5
3AEB
330
3AE0
100
AcDbEntity
  8
Defpoints
 62
     0
100
AcDbPoint
 10
137.0971428571428
 20
346.2955197580586
 30
0.0
  0
ENDBLK
  5
3AE2
330
3AE0
100
AcDbEntity
  8
0
100
AcDbBlockEnd
  0
BLOCK
  5
3AED
330
3AEC
100
AcDbEntity
  8
0
100
AcDbBlockBegin
  2
*D26
 70
     1
 10
0.0
 20
0.0
 30
0.0
  3
*D26
  1
*D27
  0
LINE
  5
3AEF
330
3AEC
100
AcDbEntity
  8
寸法
 62
     0
370
    -2
100
AcDbLine
 10
157.0813207064681
 20
291.2635281723783
 30
0.0
 11
137.0971428571428
 21
291.2635281723783
 31
0.0
  0
LINE
  5
3AF0
330
3AEC
100
AcDbEntity
  8
寸法
 62
     0
370
    -2
100
AcDbLine
 10
157.0813207064681
 20
311.1589677246066
 30
0.0
 11
137.0971428571428
 21
311.1589677246066
 31
0.0
  0
LINE
  5
3AF1
330
3AEC
100
AcDbEntity
  8
寸法
 62
     0
370
    -2
100
AcDbLine
 10
137.0971428571428
 20
293.2635281723783
 30
0.0
 11
137.0971428571428
 21
309.1589677246066
 31
0.0
  0
INSERT
  5
3AF2
330
3AEC
100
AcDbEntity
  8
寸法
 62
     0
370
    -2
100
AcDbBlockReference
  2
_DOT
 10
137.0971428571428
 20
291.2635281723783
 30
0.0
 41
2.0
 42
2.0
 43
2.0
 50
270.0
  0
INSERT
  5
3AF3
330
3AEC
100
AcDbEntity
  8
寸法
 62
     0
370
    -2
100
AcDbBlockReference
  2
_DOT
 10
137.0971428571428
 20
311.1589677246066
 30
0.0
 41
2.0
 42
2.0
 43
2.0
 50
90.0
  0
MTEXT
  5
3AF4
330
3AEC
100
AcDbEntity
  8
寸法
 62
     0
100
AcDbMText
 10
129.5971428571428
 20
301.2112479484924
 30
0.0
 40
5.0
 41
0.0
 46
0.0
 71
     5
 72
     1
  1
\A1;20
  7
ＭＳ ゴシック
 11
0.0
 21
1.0
 31
0.0
 73
     1
 44
1.0
  0
POINT
  5
3AF5
330
3AEC
100
AcDbEntity
  8
Defpoints
 62
     0
100
AcDbPoint
 10
162.0813207064681
 20
291.2635281723783
 30
0.0
  0
POINT
  5
3AF6
330
3AEC
100
AcDbEntity
  8
Defpoints
 62
     0
100
AcDbPoint
 10
162.0813207064681
 20
311.1589677246066
 30
0.0
  0
POINT
  5
3AF7
330
3AEC
100
AcDbEntity
  8
Defpoints
 62
     0
100
AcDbPoint
 10
137.0971428571428
 20
311.1589677246066
 30
0.0
  0
ENDBLK
  5
3AEE
330
3AEC
100
AcDbEntity
  8
0
100
AcDbBlockEnd
  0
BLOCK
  5
3AF9
330
3AF8
100
AcDbEntity
  8
0
100
AcDbBlockBegin
  2
*D27
 70
     1
 10
0.0
 20
0.0
 30
0.0
  3
*D27
  1
*D28
  0
LINE
  5
3AFB
330
3AF8
100
AcDbEntity
  8
寸法
 62
     0
370
    -2
100
AcDbLine
 10
261.5654086631278
 20
288.8025652199963
 30
0.0
 11
261.5654086631278
 21
272.2370726621778
 31
0.0
  0
LINE
  5
3AFC
330
3AF8
100
AcDbEntity
  8
寸法
 62
     0
370
    -2
100
AcDbLine
 10
161.6592962311176
 20
286.6855526477289
 30
0.0
 11
161.6592962311176
 21
272.2370726621778
 31
0.0
  0
LINE
  5
3AFD
330
3AF8
100
AcDbEntity
  8
寸法
 62
     0
370
    -2
100
AcDbLine
 10
259.5654086631278
 20
272.2370726621778
 30
0.0
 11
163.6592962311176
 21
272.2370726621778
 31
0.0
  0
INSERT
  5
3AFE
330
3AF8
100
AcDbEntity
  8
寸法
 62
     0
370
    -2
100
AcDbBlockReference
  2
_DOT
 10
261.5654086631278
 20
272.2370726621778
 30
0.0
 41
2.0
 42
2.0
 43
2.0
  0
INSERT
  5
3AFF
330
3AF8
100
AcDbEntity
  8
寸法
 62
     0
370
    -2
100
AcDbBlockReference
  2
_DOT
 10
161.6592962311176
 20
272.2370726621778
 30
0.0
 41
2.0
 42
2.0
 43
2.0
 50
180.0
  0
MTEXT
  5
3B00
330
3AF8
100
AcDbEntity
  8
寸法
 62
     0
100
AcDbMText
 10
211.6123524471227
 20
279.7370726621778
 30
0.0
 40
5.0
 41
0.0
 46
0.0
 71
     5
 72
     1
  1
\A1;100
  7
ＭＳ ゴシック
 73
     1
 44
1.0
  0
POINT
  5
3B01
330
3AF8
100
AcDbEntity
  8
Defpoints
 62
     0
100
AcDbPoint
 10
261.5654086631278
 20
293.8025652199963
 30
0.0
  0
POINT
  5
3B02
330
3AF8
100
AcDbEntity
  8
Defpoints
 62
     0
100
AcDbPoint
 10
161.6592962311176
 20
291.6855526477289
 30
0.0
  0
POINT
  5
3B03
330
3AF8
100
AcDbEntity
  8
Defpoints
 62
     0
100
AcDbPoint
 10
161.6592962311176
 20
272.2370726621778
 30
0.0
  0
ENDBLK
  5
3AFA
330
3AF8
100
AcDbEntity
  8
0
100
AcDbBlockEnd
  0
BLOCK
  5
3B05
330
3B04
100
AcDbEntity
  8
0
100
AcDbBlockBegin
  2
*D28
 70
     1
 10
0.0
 20
0.0
 30
0.0
  3
*D28
  1
*D29
  0
LINE
  5
3B07
330
3B04
100
AcDbEntity
  8
寸法
 62
     0
370
    -2
100
AcDbLine
 10
157.0813207064681
 20
311.1589677246066
 30
0.0
 11
137.0971428571428
 21
311.1589677246066
 31
0.0
  0
LINE
  5
3B08
330
3B04
100
AcDbEntity
  8
寸法
 62
     0
370
    -2
100
AcDbLine
 10
141.8419307741243
 20
346.2955197580586
 30
0.0
 11
137.0971428571428
 21
346.2955197580586
 31
0.0
  0
LINE
  5
3B09
330
3B04
100
AcDbEntity
  8
寸法
 62
     0
370
    -2
100
AcDbLine
 10
137.0971428571428
 20
313.1589677246066
 30
0.0
 11
137.0971428571428
 21
344.2955197580586
 31
0.0
  0
INSERT
  5
3B0A
330
3B04
100
AcDbEntity
  8
寸法
 62
     0
370
    -2
100
AcDbBlockReference
  2
_DOT
 10
137.0971428571428
 20
311.1589677246066
 30
0.0
 41
2.0
 42
2.0
 43
2.0
 50
270.0
  0
INSERT
  5
3B0B
330
3B04
100
AcDbEntity
  8
寸法
 62
     0
370
    -2
100
AcDbBlockReference
  2
_DOT
 10
137.0971428571428
 20
346.2955197580586
 30
0.0
 41
2.0
 42
2.0
 43
2.0
 50
90.0
  0
MTEXT
  5
3B0C
330
3B04
100
AcDbEntity
  8
寸法
 62
     0
100
AcDbMText
 10
129.5971428571428
 20
328.7272437413326
 30
0.0
 40
5.0
 41
0.0
 46
0.0
 71
     5
 72
     1
  1
\A1;35
  7
ＭＳ ゴシック
 11
0.0
 21
1.0
 31
0.0
 73
     1
 44
1.0
  0
POINT
  5
3B0D
330
3B04
100
AcDbEntity
  8
Defpoints
 62
     0
100
AcDbPoint
 10
162.0813207064681
 20
311.1589677246066
 30
0.0
  0
POINT
  5
3B0E
330
3B04
100
AcDbEntity
  8
Defpoints
 62
     0
100
AcDbPoint
 10
146.8419307741243
 20
346.2955197580586
 30
0.0
  0
POINT
  5
3B0F
330
3B04
100
AcDbEntity
  8
Defpoints
 62
     0
100
AcDbPoint
 10
137.0971428571428
 20
346.2955197580586
 30
0.0
  0
ENDBLK
  5
3B06
330
3B04
100
AcDbEntity
  8
0
100
AcDbBlockEnd
  0
BLOCK
  5
3B11
330
3B10
100
AcDbEntity
  8
0
100
AcDbBlockBegin
  2
*D29
 70
     1
 10
0.0
 20
0.0
 30
0.0
  3
*D29
  1
*D30
  0
LINE
  5
3B13
330
3B10
100
AcDbEntity
  8
寸法
 62
     0
370
    -2
100
AcDbLine
 10
166.8180282449072
 20
144.7666257071893
 30
0.0
 11
137.0971428571428
 21
144.7666257071893
 31
0.0
  0
LINE
  5
3B14
330
3B10
100
AcDbEntity
  8
寸法
 62
     0
370
    -2
100
AcDbLine
 10
166.8180282449072
 20
195.1447822836593
 30
0.0
 11
137.0971428571428
 21
195.1447822836593
 31
0.0
  0
LINE
  5
3B15
330
3B10
100
AcDbEntity
  8
寸法
 62
     0
370
    -2
100
AcDbLine
 10
137.0971428571428
 20
146.7666257071893
 30
0.0
 11
137.0971428571428
 21
193.1447822836593
 31
0.0
  0
INSERT
  5
3B16
330
3B10
100
AcDbEntity
  8
寸法
 62
     0
370
    -2
100
AcDbBlockReference
  2
_DOT
 10
137.0971428571428
 20
144.7666257071893
 30
0.0
 41
2.0
 42
2.0
 43
2.0
 50
270.0
  0
INSERT
  5
3B17
330
3B10
100
AcDbEntity
  8
寸法
 62
     0
370
    -2
100
AcDbBlockReference
  2
_DOT
 10
137.0971428571428
 20
195.1447822836593
 30
0.0
 41
2.0
 42
2.0
 43
2.0
 50
90.0
  0
MTEXT
  5
3B18
330
3B10
100
AcDbEntity
  8
寸法
 62
     0
100
AcDbMText
 10
129.5971428571428
 20
169.9557039954243
 30
0.0
 40
5.0
 41
0.0
 46
0.0
 71
     5
 72
     1
  1
\A1;50
  7
ＭＳ ゴシック
 11
0.0
 21
1.0
 31
0.0
 73
     1
 44
1.0
  0
POINT
  5
3B19
330
3B10
100
AcDbEntity
  8
Defpoints
 62
     0
100
AcDbPoint
 10
171.8180282449072
 20
144.7666257071893
 30
0.0
  0
POINT
  5
3B1A
330
3B10
100
AcDbEntity
  8
Defpoints
 62
     0
100
AcDbPoint
 10
171.8180282449072
 20
195.1447822836593
 30
0.0
  0
POINT
  5
3B1B
330
3B10
100
AcDbEntity
  8
Defpoints
 62
     0
100
AcDbPoint
 10
137.0971428571428
 20
195.1447822836593
 30
0.0
  0
ENDBLK
  5
3B12
330
3B10
100
AcDbEntity
  8
0
100
AcDbBlockEnd
  0
BLOCK
  5
3B1D
330
3B1C
100
AcDbEntity
  8
0
100
AcDbBlockBegin
  2
*D30
 70
     1
 10
0.0
 20
0.0
 30
0.0
  3
*D30
  1
*D31
  0
LINE
  5
3B1F
330
3B1C
100
AcDbEntity
  8
寸法
 62
     0
370
    -2
100
AcDbLine
 10
266.5654086631278
 20
177.3643788169747
 30
0.0
 11
283.9287013753707
 21
177.3643788169747
 31
0.0
  0
LINE
  5
3B20
330
3B1C
100
AcDbEntity
  8
寸法
 62
     0
370
    -2
100
AcDbLine
 10
266.5654086631278
 20
162.5470133599805
 30
0.0
 11
283.9287013753707
 21
162.5470133599805
 31
0.0
  0
LINE
  5
3B21
330
3B1C
100
AcDbEntity
  8
寸法
 62
     0
370
    -2
100
AcDbLine
 10
283.9287013753707
 20
175.3643788169747
 30
0.0
 11
283.9287013753707
 21
164.5470133599805
 31
0.0
  0
INSERT
  5
3B22
330
3B1C
100
AcDbEntity
  8
寸法
 62
     0
370
    -2
100
AcDbBlockReference
  2
_DOT
 10
283.9287013753707
 20
177.3643788169747
 30
0.0
 41
2.0
 42
2.0
 43
2.0
 50
90.0
  0
INSERT
  5
3B23
330
3B1C
100
AcDbEntity
  8
寸法
 62
     0
370
    -2
100
AcDbBlockReference
  2
_DOT
 10
283.9287013753707
 20
162.5470133599805
 30
0.0
 41
2.0
 42
2.0
 43
2.0
 50
270.0
  0
MTEXT
  5
3B24
330
3B1C
100
AcDbEntity
  8
寸法
 62
     0
100
AcDbMText
 10
276.4287013753707
 20
170.2111726613443
 30
0.0
 40
5.0
 41
0.0
 46
0.0
 71
     5
 72
     1
  1
\A1;15
  7
ＭＳ ゴシック
 11
0.0
 21
1.0
 31
0.0
 73
     1
 44
1.0
  0
POINT
  5
3B25
330
3B1C
100
AcDbEntity
  8
Defpoints
 62
     0
100
AcDbPoint
 10
261.5654086631278
 20
177.3643788169747
 30
0.0
  0
POINT
  5
3B26
330
3B1C
100
AcDbEntity
  8
Defpoints
 62
     0
100
AcDbPoint
 10
261.5654086631278
 20
162.5470133599805
 30
0.0
  0
POINT
  5
3B27
330
3B1C
100
AcDbEntity
  8
Defpoints
 62
     0
100
AcDbPoint
 10
283.9287013753707
 20
162.5470133599805
 30
0.0
  0
ENDBLK
  5
3B1E
330
3B1C
100
AcDbEntity
  8
0
100
AcDbBlockEnd
  0
BLOCK
  5
3B29
330
3B28
100
AcDbEntity
  8
0
100
AcDbBlockBegin
  2
*D31
 70
     1
 10
0.0
 20
0.0
 30
0.0
  3
*D31
  1
*D32
  0
LINE
  5
3B2B
330
3B28
100
AcDbEntity
  8
寸法
 62
     0
370
    -2
100
AcDbLine
 10
266.5654086631278
 20
293.8025652199963
 30
0.0
 11
300.7744427308268
 21
293.8025652199963
 31
0.0
  0
LINE
  5
3B2C
330
3B28
100
AcDbEntity
  8
寸法
 62
     0
370
    -2
100
AcDbLine
 10
201.7958482645687
 20
350.9532919268227
 30
0.0
 11
300.7744427308268
 21
350.9532919268227
 31
0.0
  0
LINE
  5
3B2D
330
3B28
100
AcDbEntity
  8
寸法
 62
     0
370
    -2
100
AcDbLine
 10
300.7744427308268
 20
295.8025652199963
 30
0.0
 11
300.7744427308268
 21
348.9532919268227
 31
0.0
  0
INSERT
  5
3B2E
330
3B28
100
AcDbEntity
  8
寸法
 62
     0
370
    -2
100
AcDbBlockReference
  2
_DOT
 10
300.7744427308268
 20
293.8025652199963
 30
0.0
 41
2.0
 42
2.0
 43
2.0
 50
270.0
  0
INSERT
  5
3B2F
330
3B28
100
AcDbEntity
  8
寸法
 62
     0
370
    -2
100
AcDbBlockReference
  2
_DOT
 10
300.7744427308268
 20
350.9532919268227
 30
0.0
 41
2.0
 42
2.0
 43
2.0
 50
90.0
  0
MTEXT
  5
3B30
330
3B28
100
AcDbEntity
  8
寸法
 62
     0
100
AcDbMText
 10
293.2744427308268
 20
322.3779285734095
 30
0.0
 40
5.0
 41
0.0
 46
0.0
 71
     5
 72
     1
  1
\A1;57
  7
ＭＳ ゴシック
 11
0.0
 21
1.0
 31
0.0
 73
     1
 44
1.0
  0
POINT
  5
3B31
330
3B28
100
AcDbEntity
  8
Defpoints
 62
     0
100
AcDbPoint
 10
261.5654086631278
 20
293.8025652199963
 30
0.0
  0
POINT
  5
3B32
330
3B28
100
AcDbEntity
  8
Defpoints
 62
     0
100
AcDbPoint
 10
196.7958482645687
 20
350.9532919268227
 30
0.0
  0
POINT
  5
3B33
330
3B28
100
AcDbEntity
  8
Defpoints
 62
     0
100
AcDbPoint
 10
300.7744427308268
 20
350.9532919268227
 30
0.0
  0
ENDBLK
  5
3B2A
330
3B28
100
AcDbEntity
  8
0
100
AcDbBlockEnd
  0
BLOCK
  5
3B35
330
3B34
100
AcDbEntity
  8
0
100
AcDbBlockBegin
  2
*D32
 70
     1
 10
0.0
 20
0.0
 30
0.0
  3
*D32
  1
*D33
  0
LINE
  5
3B37
330
3B34
100
AcDbEntity
  8
寸法
 62
     0
370
    -2
100
AcDbLine
 10
201.7958482645687
 20
350.9532919268227
 30
0.0
 11
280.2069526369435
 21
350.9532919268227
 31
0.0
  0
LINE
  5
3B38
330
3B34
100
AcDbEntity
  8
寸法
 62
     0
370
    -2
100
AcDbLine
 10
266.5654086631278
 20
308.6199306769895
 30
0.0
 11
280.2069526369435
 21
308.6199306769895
 31
0.0
  0
LINE
  5
3B39
330
3B34
100
AcDbEntity
  8
寸法
 62
     0
370
    -2
100
AcDbLine
 10
280.2069526369435
 20
348.9532919268227
 30
0.0
 11
280.2069526369435
 21
310.6199306769895
 31
0.0
  0
INSERT
  5
3B3A
330
3B34
100
AcDbEntity
  8
寸法
 62
     0
370
    -2
100
AcDbBlockReference
  2
_DOT
 10
280.2069526369435
 20
350.9532919268227
 30
0.0
 41
2.0
 42
2.0
 43
2.0
 50
90.0
  0
INSERT
  5
3B3B
330
3B34
100
AcDbEntity
  8
寸法
 62
     0
370
    -2
100
AcDbBlockReference
  2
_DOT
 10
280.2069526369435
 20
308.6199306769895
 30
0.0
 41
2.0
 42
2.0
 43
2.0
 50
270.0
  0
MTEXT
  5
3B3C
330
3B34
100
AcDbEntity
  8
寸法
 62
     0
100
AcDbMText
 10
272.7069526369435
 20
329.7866113019061
 30
0.0
 40
5.0
 41
0.0
 46
0.0
 71
     5
 72
     1
  1
\A1;42
  7
ＭＳ ゴシック
 11
0.0
 21
1.0
 31
0.0
 73
     1
 44
1.0
  0
POINT
  5
3B3D
330
3B34
100
AcDbEntity
  8
Defpoints
 62
     0
100
AcDbPoint
 10
196.7958482645687
 20
350.9532919268227
 30
0.0
  0
POINT
  5
3B3E
330
3B34
100
AcDbEntity
  8
Defpoints
 62
     0
100
AcDbPoint
 10
261.5654086631278
 20
308.6199306769895
 30
0.0
  0
POINT
  5
3B3F
330
3B34
100
AcDbEntity
  8
Defpoints
 62
     0
100
AcDbPoint
 10
280.2069526369435
 20
308.6199306769895
 30
0.0
  0
ENDBLK
  5
3B36
330
3B34
100
AcDbEntity
  8
0
100
AcDbBlockEnd
  0
BLOCK
  5
3B41
330
3B40
100
AcDbEntity
  8
0
100
AcDbBlockBegin
  2
*D33
 70
     1
 10
0.0
 20
0.0
 30
0.0
  3
*D33
  1
*D34
  0
LINE
  5
3B43
330
3B40
100
AcDbEntity
  8
寸法
 62
     0
370
    -2
100
AcDbLine
 10
190.8180282449072
 20
164.7438225763632
 30
0.0
 11
190.8180282449072
 21
127.4537036122544
 31
0.0
  0
LINE
  5
3B44
330
3B40
100
AcDbEntity
  8
寸法
 62
     0
370
    -2
100
AcDbLine
 10
152.9810949788122
 20
164.7438225763632
 30
0.0
 11
152.9810949788122
 21
127.4537036122544
 31
0.0
  0
LINE
  5
3B45
330
3B40
100
AcDbEntity
  8
寸法
 62
     0
370
    -2
100
AcDbLine
 10
188.8180282449072
 20
127.4537036122544
 30
0.0
 11
154.9810949788122
 21
127.4537036122544
 31
0.0
  0
INSERT
  5
3B46
330
3B40
100
AcDbEntity
  8
寸法
 62
     0
370
    -2
100
AcDbBlockReference
  2
_DOT
 10
190.8180282449072
 20
127.4537036122544
 30
0.0
 41
2.0
 42
2.0
 43
2.0
  0
INSERT
  5
3B47
330
3B40
100
AcDbEntity
  8
寸法
 62
     0
370
    -2
100
AcDbBlockReference
  2
_DOT
 10
152.9810949788122
 20
127.4537036122544
 30
0.0
 41
2.0
 42
2.0
 43
2.0
 50
180.0
  0
MTEXT
  5
3B48
330
3B40
100
AcDbEntity
  8
寸法
 62
     0
100
AcDbMText
 10
171.8995616118597
 20
134.9537036122544
 30
0.0
 40
5.0
 41
0.0
 46
0.0
 71
     5
 72
     1
  1
\A1;38
  7
ＭＳ ゴシック
 73
     1
 44
1.0
  0
POINT
  5
3B49
330
3B40
100
AcDbEntity
  8
Defpoints
 62
     0
100
AcDbPoint
 10
190.8180282449072
 20
169.7438225763632
 30
0.0
  0
POINT
  5
3B4A
330
3B40
100
AcDbEntity
  8
Defpoints
 62
     0
100
AcDbPoint
 10
152.9810949788122
 20
169.7438225763632
 30
0.0
  0
POINT
  5
3B4B
330
3B40
100
AcDbEntity
  8
Defpoints
 62
     0
100
AcDbPoint
 10
152.9810949788122
 20
127.4537036122544
 30
0.0
  0
ENDBLK
  5
3B42
330
3B40
100
AcDbEntity
  8
0
100
AcDbBlockEnd
  0
BLOCK
  5
3B4D
330
3B4C
100
AcDbEntity
  8
0
100
AcDbBlockBegin
  2
*D34
 70
     1
 10
0.0
 20
0.0
 30
0.0
  3
*D34
  1
*D35
  0
LINE
  5
3B4F
330
3B4C
100
AcDbEntity
  8
寸法
 62
     0
370
    -2
100
AcDbLine
 10
431.4339565169425
 20
139.766609893296
 30
0.0
 11
431.4339565169425
 21
127.4428571428571
 31
0.0
  0
LINE
  5
3B50
330
3B4C
100
AcDbEntity
  8
寸法
 62
     0
370
    -2
100
AcDbLine
 10
426.7761843481786
 20
139.766609893296
 30
0.0
 11
426.7761843481786
 21
127.4428571428571
 31
0.0
  0
LINE
  5
3B51
330
3B4C
100
AcDbEntity
  8
寸法
 62
     0
370
    -2
100
AcDbLine
 10
429.4339565169425
 20
127.4428571428571
 30
0.0
 11
428.7761843481786
 21
127.4428571428571
 31
0.0
  0
INSERT
  5
3B52
330
3B4C
100
AcDbEntity
  8
寸法
 62
     0
370
    -2
100
AcDbBlockReference
  2
_DOT
 10
431.4339565169425
 20
127.4428571428571
 30
0.0
 41
2.0
 42
2.0
 43
2.0
  0
INSERT
  5
3B53
330
3B4C
100
AcDbEntity
  8
寸法
 62
     0
370
    -2
100
AcDbBlockReference
  2
_DOT
 10
426.7761843481786
 20
127.4428571428571
 30
0.0
 41
2.0
 42
2.0
 43
2.0
 50
180.0
  0
MTEXT
  5
3B54
330
3B4C
100
AcDbEntity
  8
寸法
 62
     0
100
AcDbMText
 10
429.1050704325605
 20
134.9428571428571
 30
0.0
 40
5.0
 41
0.0
 46
0.0
 71
     5
 72
     1
  1
\A1;5
  7
ＭＳ ゴシック
 73
     1
 44
1.0
  0
POINT
  5
3B55
330
3B4C
100
AcDbEntity
  8
Defpoints
 62
     0
100
AcDbPoint
 10
431.4339565169425
 20
144.766609893296
 30
0.0
  0
POINT
  5
3B56
330
3B4C
100
AcDbEntity
  8
Defpoints
 62
     0
100
AcDbPoint
 10
426.7761843481786
 20
144.766609893296
 30
0.0
  0
POINT
  5
3B57
330
3B4C
100
AcDbEntity
  8
Defpoints
 62
     0
100
AcDbPoint
 10
426.7761843481786
 20
127.4428571428571
 30
0.0
  0
ENDBLK
  5
3B4E
330
3B4C
100
AcDbEntity
  8
0
100
AcDbBlockEnd
  0
BLOCK
  5
3C4C
330
3C4B
100
AcDbEntity
  8
0
100
AcDbBlockBegin
  2
*D35
 70
     1
 10
0.0
 20
0.0
 30
0.0
  3
*D35
  1
*D45
  0
LINE
  5
3C4D
330
3C4B
100
AcDbEntity
  8
寸法
 62
     0
370
    -2
100
AcDbLine
 10
14.74478791698161
 20
224.0104347839655
 30
0.0
 11
10.0
 21
224.0104347839655
 31
0.0
  0
LINE
  5
3C4E
330
3C4B
100
AcDbEntity
  8
寸法
 62
     0
370
    -2
100
AcDbLine
 10
14.74478791698161
 20
219.3526626152016
 30
0.0
 11
10.0
 21
219.3526626152016
 31
0.0
  0
LINE
  5
3C4F
330
3C4B
100
AcDbEntity
  8
寸法
 62
     0
370
    -2
100
AcDbLine
 10
10.0
 20
222.0104347839655
 30
0.0
 11
10.0
 21
221.3526626152016
 31
0.0
  0
INSERT
  5
3C50
330
3C4B
100
AcDbEntity
  8
寸法
 62
     0
370
    -2
100
AcDbBlockReference
  2
_DOT
 10
10.0
 20
224.0104347839655
 30
0.0
 41
2.0
 42
2.0
 43
2.0
 50
90.0
  0
INSERT
  5
3C51
330
3C4B
100
AcDbEntity
  8
寸法
 62
     0
370
    -2
100
AcDbBlockReference
  2
_DOT
 10
10.0
 20
219.3526626152016
 30
0.0
 41
2.0
 42
2.0
 43
2.0
 50
270.0
  0
MTEXT
  5
3C52
330
3C4B
100
AcDbEntity
  8
寸法
 62
     0
100
AcDbMText
 10
2.5
 20
221.6357466385695
 30
0.0
 40
5.0
 41
0.0
 46
0.0
 71
     5
 72
     1
  1
\A1;5
  7
ＭＳ ゴシック
 11
0.0
 21
1.0
 31
0.0
 73
     1
 44
1.0
  0
POINT
  5
3C53
330
3C4B
100
AcDbEntity
  8
Defpoints
 62
     0
100
AcDbPoint
 10
19.74478791698161
 20
224.0104347839655
 30
0.0
  0
POINT
  5
3C54
330
3C4B
100
AcDbEntity
  8
Defpoints
 62
     0
100
AcDbPoint
 10
19.74478791698161
 20
219.3526626152016
 30
0.0
  0
POINT
  5
3C55
330
3C4B
100
AcDbEntity
  8
Defpoints
 62
     0
100
AcDbPoint
 10
10.0
 20
219.3526626152016
 30
0.0
  0
ENDBLK
  5
3C56
330
3C4B
100
AcDbEntity
  8
0
100
AcDbBlockEnd
  0
BLOCK
  5
3C5B
330
3C5A
100
AcDbEntity
  8
0
100
AcDbBlockBegin
  2
*D36
 70
     1
 10
0.0
 20
0.0
 30
0.0
  3
*D36
  1
*D46
  0
LINE
  5
3C5C
330
3C5A
100
AcDbEntity
  8
寸法
 62
     0
370
    -2
100
AcDbLine
 10
29.98417784932539
 20
164.3206710295212
 30
0.0
 11
9.999999999999998
 21
164.3206710295212
 31
0.0
  0
LINE
  5
3C5D
330
3C5A
100
AcDbEntity
  8
寸法
 62
     0
370
    -2
100
AcDbLine
 10
29.98417784932539
 20
184.2161105817494
 30
0.0
 11
10.0
 21
184.2161105817494
 31
0.0
  0
LINE
  5
3C5E
330
3C5A
100
AcDbEntity
  8
寸法
 62
     0
370
    -2
100
AcDbLine
 10
9.999999999999998
 20
166.3206710295212
 30
0.0
 11
10.0
 21
182.2161105817494
 31
0.0
  0
INSERT
  5
3C5F
330
3C5A
100
AcDbEntity
  8
寸法
 62
     0
370
    -2
100
AcDbBlockReference
  2
_DOT
 10
9.999999999999998
 20
164.3206710295212
 30
0.0
 41
2.0
 42
2.0
 43
2.0
 50
270.0
  0
INSERT
  5
3C60
330
3C5A
100
AcDbEntity
  8
寸法
 62
     0
370
    -2
100
AcDbBlockReference
  2
_DOT
 10
10.0
 20
184.2161105817494
 30
0.0
 41
2.0
 42
2.0
 43
2.0
 50
90.0
  0
MTEXT
  5
3C61
330
3C5A
100
AcDbEntity
  8
寸法
 62
     0
100
AcDbMText
 10
2.5
 20
174.2683908056353
 30
0.0
 40
5.0
 41
0.0
 46
0.0
 71
     5
 72
     1
  1
\A1;20
  7
ＭＳ ゴシック
 11
8.928462398315356E-17
 21
1.0
 31
0.0
 73
     1
 44
1.0
  0
POINT
  5
3C62
330
3C5A
100
AcDbEntity
  8
Defpoints
 62
     0
100
AcDbPoint
 10
34.98417784932539
 20
164.3206710295212
 30
0.0
  0
POINT
  5
3C63
330
3C5A
100
AcDbEntity
  8
Defpoints
 62
     0
100
AcDbPoint
 10
34.98417784932539
 20
184.2161105817494
 30
0.0
  0
POINT
  5
3C64
330
3C5A
100
AcDbEntity
  8
Defpoints
 62
     0
100
AcDbPoint
 10
10.0
 20
184.2161105817494
 30
0.0
  0
ENDBLK
  5
3C65
330
3C5A
100
AcDbEntity
  8
0
100
AcDbBlockEnd
  0
BLOCK
  5
3C6A
330
3C69
100
AcDbEntity
  8
0
100
AcDbBlockBegin
  2
*D37
 70
     1
 10
0.0
 20
0.0
 30
0.0
  3
*D37
  1
*D47
  0
LINE
  5
3C6B
330
3C69
100
AcDbEntity
  8
寸法
 62
     0
370
    -2
100
AcDbLine
 10
149.4682658059849
 20
161.859708077139
 30
0.0
 11
149.4682658059849
 21
145.2942155193205
 31
0.0
  0
LINE
  5
3C6C
330
3C69
100
AcDbEntity
  8
寸法
 62
     0
370
    -2
100
AcDbLine
 10
34.56215337397481
 20
159.7426955048717
 30
0.0
 11
34.56215337397481
 21
145.2942155193205
 31
0.0
  0
LINE
  5
3C6D
330
3C69
100
AcDbEntity
  8
寸法
 62
     0
370
    -2
100
AcDbLine
 10
147.4682658059849
 20
145.2942155193205
 30
0.0
 11
36.56215337397481
 21
145.2942155193205
 31
0.0
  0
INSERT
  5
3C6E
330
3C69
100
AcDbEntity
  8
寸法
 62
     0
370
    -2
100
AcDbBlockReference
  2
_DOT
 10
149.4682658059849
 20
145.2942155193205
 30
0.0
 41
2.0
 42
2.0
 43
2.0
  0
INSERT
  5
3C6F
330
3C69
100
AcDbEntity
  8
寸法
 62
     0
370
    -2
100
AcDbBlockReference
  2
_DOT
 10
34.56215337397481
 20
145.2942155193205
 30
0.0
 41
2.0
 42
2.0
 43
2.0
 50
180.0
  0
MTEXT
  5
3C70
330
3C69
100
AcDbEntity
  8
寸法
 62
     0
100
AcDbMText
 10
92.01520958997986
 20
152.7942155193205
 30
0.0
 40
5.0
 41
0.0
 46
0.0
 71
     5
 72
     1
  1
\A1;115
  7
ＭＳ ゴシック
 73
     1
 44
1.0
  0
POINT
  5
3C71
330
3C69
100
AcDbEntity
  8
Defpoints
 62
     0
100
AcDbPoint
 10
149.4682658059849
 20
166.859708077139
 30
0.0
  0
POINT
  5
3C72
330
3C69
100
AcDbEntity
  8
Defpoints
 62
     0
100
AcDbPoint
 10
34.56215337397481
 20
164.7426955048717
 30
0.0
  0
POINT
  5
3C73
330
3C69
100
AcDbEntity
  8
Defpoints
 62
     0
100
AcDbPoint
 10
34.56215337397481
 20
145.2942155193205
 30
0.0
  0
ENDBLK
  5
3C74
330
3C69
100
AcDbEntity
  8
0
100
AcDbBlockEnd
  0
BLOCK
  5
3C79
330
3C78
100
AcDbEntity
  8
0
100
AcDbBlockBegin
  2
*D38
 70
     1
 10
0.0
 20
0.0
 30
0.0
  3
*D38
  1
*D48
  0
LINE
  5
3C7A
330
3C78
100
AcDbEntity
  8
寸法
 62
     0
370
    -2
100
AcDbLine
 10
29.98417784932539
 20
184.2161105817494
 30
0.0
 11
9.999999999999998
 21
184.2161105817494
 31
0.0
  0
LINE
  5
3C7B
330
3C78
100
AcDbEntity
  8
寸法
 62
     0
370
    -2
100
AcDbLine
 10
14.74478791698161
 20
219.3526626152016
 30
0.0
 11
10.0
 21
219.3526626152016
 31
0.0
  0
LINE
  5
3C7C
330
3C78
100
AcDbEntity
  8
寸法
 62
     0
370
    -2
100
AcDbLine
 10
9.999999999999998
 20
186.2161105817494
 30
0.0
 11
10.0
 21
217.3526626152016
 31
0.0
  0
INSERT
  5
3C7D
330
3C78
100
AcDbEntity
  8
寸法
 62
     0
370
    -2
100
AcDbBlockReference
  2
_DOT
 10
9.999999999999998
 20
184.2161105817494
 30
0.0
 41
2.0
 42
2.0
 43
2.0
 50
270.0
  0
INSERT
  5
3C7E
330
3C78
100
AcDbEntity
  8
寸法
 62
     0
370
    -2
100
AcDbBlockReference
  2
_DOT
 10
10.0
 20
219.3526626152016
 30
0.0
 41
2.0
 42
2.0
 43
2.0
 50
90.0
  0
MTEXT
  5
3C7F
330
3C78
100
AcDbEntity
  8
寸法
 62
     0
100
AcDbMText
 10
2.5
 20
201.7843865984755
 30
0.0
 40
5.0
 41
0.0
 46
0.0
 71
     5
 72
     1
  1
\A1;35
  7
ＭＳ ゴシック
 11
5.055580973651167E-17
 21
1.0
 31
0.0
 73
     1
 44
1.0
  0
POINT
  5
3C80
330
3C78
100
AcDbEntity
  8
Defpoints
 62
     0
100
AcDbPoint
 10
34.98417784932539
 20
184.2161105817494
 30
0.0
  0
POINT
  5
3C81
330
3C78
100
AcDbEntity
  8
Defpoints
 62
     0
100
AcDbPoint
 10
19.74478791698161
 20
219.3526626152016
 30
0.0
  0
POINT
  5
3C82
330
3C78
100
AcDbEntity
  8
Defpoints
 62
     0
100
AcDbPoint
 10
10.0
 20
219.3526626152016
 30
0.0
  0
ENDBLK
  5
3C83
330
3C78
100
AcDbEntity
  8
0
100
AcDbBlockEnd
  0
BLOCK
  5
3C86
330
3C85
100
AcDbEntity
  8
0
100
AcDbBlockBegin
  2
*D39
 70
     1
 10
0.0
 20
0.0
 30
0.0
  3
*D39
  1
*D49
  0
LINE
  5
3C87
330
3C85
100
AcDbEntity
  8
寸法
 62
     0
370
    -2
100
AcDbLine
 10
39.72088538776441
 20
17.82376856433216
 30
0.0
 11
9.999999999999996
 21
17.82376856433216
 31
0.0
  0
LINE
  5
3C88
330
3C85
100
AcDbEntity
  8
寸法
 62
     0
370
    -2
100
AcDbLine
 10
39.72088538776441
 20
68.20192514080216
 30
0.0
 11
10.0
 21
68.20192514080216
 31
0.0
  0
LINE
  5
3C89
330
3C85
100
AcDbEntity
  8
寸法
 62
     0
370
    -2
100
AcDbLine
 10
9.999999999999996
 20
19.82376856433216
 30
0.0
 11
10.0
 21
66.20192514080216
 31
0.0
  0
INSERT
  5
3C8A
330
3C85
100
AcDbEntity
  8
寸法
 62
     0
370
    -2
100
AcDbBlockReference
  2
_DOT
 10
9.999999999999996
 20
17.82376856433216
 30
0.0
 41
2.0
 42
2.0
 43
2.0
 50
270.0
  0
INSERT
  5
3C8B
330
3C85
100
AcDbEntity
  8
寸法
 62
     0
370
    -2
100
AcDbBlockReference
  2
_DOT
 10
10.0
 20
68.20192514080216
 30
0.0
 41
2.0
 42
2.0
 43
2.0
 50
90.0
  0
MTEXT
  5
3C8C
330
3C85
100
AcDbEntity
  8
寸法
 62
     0
100
AcDbMText
 10
2.499999999999998
 20
43.01284685256716
 30
0.0
 40
5.0
 41
0.0
 46
0.0
 71
     5
 72
     1
  1
\A1;50
  7
ＭＳ ゴシック
 11
7.052091462314160E-17
 21
1.0
 31
0.0
 73
     1
 44
1.0
  0
POINT
  5
3C8D
330
3C85
100
AcDbEntity
  8
Defpoints
 62
     0
100
AcDbPoint
 10
44.72088538776441
 20
17.82376856433216
 30
0.0
  0
POINT
  5
3C8E
330
3C85
100
AcDbEntity
  8
Defpoints
 62
     0
100
AcDbPoint
 10
44.72088538776441
 20
68.20192514080216
 30
0.0
  0
POINT
  5
3C8F
330
3C85
100
AcDbEntity
  8
Defpoints
 62
     0
100
AcDbPoint
 10
10.0
 20
68.20192514080216
 30
0.0
  0
ENDBLK
  5
3C90
330
3C85
100
AcDbEntity
  8
0
100
AcDbBlockEnd
  0
BLOCK
  5
3C95
330
3C94
100
AcDbEntity
  8
0
100
AcDbBlockBegin
  2
*D40
 70
     1
 10
0.0
 20
0.0
 30
0.0
  3
*D40
  1
*D50
  0
LINE
  5
3C96
330
3C94
100
AcDbEntity
  8
寸法
 62
     0
370
    -2
100
AcDbLine
 10
154.4682658059849
 20
50.42152167411766
 30
0.0
 11
186.8315585182279
 21
50.42152167411766
 31
0.0
  0
LINE
  5
3C97
330
3C94
100
AcDbEntity
  8
寸法
 62
     0
370
    -2
100
AcDbLine
 10
154.4682658059849
 20
35.60415621712346
 30
0.0
 11
186.8315585182279
 21
35.60415621712346
 31
0.0
  0
LINE
  5
3C98
330
3C94
100
AcDbEntity
  8
寸法
 62
     0
370
    -2
100
AcDbLine
 10
186.8315585182279
 20
48.42152167411766
 30
0.0
 11
186.8315585182279
 21
37.60415621712346
 31
0.0
  0
INSERT
  5
3C99
330
3C94
100
AcDbEntity
  8
寸法
 62
     0
370
    -2
100
AcDbBlockReference
  2
_DOT
 10
186.8315585182279
 20
50.42152167411766
 30
0.0
 41
2.0
 42
2.0
 43
2.0
 50
90.0
  0
INSERT
  5
3C9A
330
3C94
100
AcDbEntity
  8
寸法
 62
     0
370
    -2
100
AcDbBlockReference
  2
_DOT
 10
186.8315585182279
 20
35.60415621712346
 30
0.0
 41
2.0
 42
2.0
 43
2.0
 50
270.0
  0
MTEXT
  5
3C9B
330
3C94
100
AcDbEntity
  8
寸法
 62
     0
100
AcDbMText
 10
179.3315585182279
 20
43.26831551848716
 30
0.0
 40
5.0
 41
0.0
 46
0.0
 71
     5
 72
     1
  1
\A1;15
  7
ＭＳ ゴシック
 11
0.0
 21
1.0
 31
0.0
 73
     1
 44
1.0
  0
POINT
  5
3C9C
330
3C94
100
AcDbEntity
  8
Defpoints
 62
     0
100
AcDbPoint
 10
149.4682658059849
 20
50.42152167411766
 30
0.0
  0
POINT
  5
3C9D
330
3C94
100
AcDbEntity
  8
Defpoints
 62
     0
100
AcDbPoint
 10
149.4682658059849
 20
35.60415621712346
 30
0.0
  0
POINT
  5
3C9E
330
3C94
100
AcDbEntity
  8
Defpoints
 62
     0
100
AcDbPoint
 10
186.8315585182279
 20
35.60415621712346
 30
0.0
  0
ENDBLK
  5
3C9F
330
3C94
100
AcDbEntity
  8
0
100
AcDbBlockEnd
  0
BLOCK
  5
3CA4
330
3CA3
100
AcDbEntity
  8
0
100
AcDbBlockBegin
  2
*D41
 70
     1
 10
0.0
 20
0.0
 30
0.0
  3
*D41
  1
*D51
  0
LINE
  5
3CA5
330
3CA3
100
AcDbEntity
  8
寸法
 62
     0
370
    -2
100
AcDbLine
 10
154.4682658059849
 20
166.859708077139
 30
0.0
 11
190.7288294023741
 21
166.859708077139
 31
0.0
  0
LINE
  5
3CA6
330
3CA3
100
AcDbEntity
  8
寸法
 62
     0
370
    -2
100
AcDbLine
 10
74.69870540742599
 20
224.0104347839655
 30
0.0
 11
190.7288294023741
 21
224.0104347839655
 31
0.0
  0
LINE
  5
3CA7
330
3CA3
100
AcDbEntity
  8
寸法
 62
     0
370
    -2
100
AcDbLine
 10
190.7288294023741
 20
168.859708077139
 30
0.0
 11
190.7288294023741
 21
222.0104347839655
 31
0.0
  0
INSERT
  5
3CA8
330
3CA3
100
AcDbEntity
  8
寸法
 62
     0
370
    -2
100
AcDbBlockReference
  2
_DOT
 10
190.7288294023741
 20
166.859708077139
 30
0.0
 41
2.0
 42
2.0
 43
2.0
 50
270.0
  0
INSERT
  5
3CA9
330
3CA3
100
AcDbEntity
  8
寸法
 62
     0
370
    -2
100
AcDbBlockReference
  2
_DOT
 10
190.7288294023741
 20
224.0104347839655
 30
0.0
 41
2.0
 42
2.0
 43
2.0
 50
90.0
  0
MTEXT
  5
3CAA
330
3CA3
100
AcDbEntity
  8
寸法
 62
     0
100
AcDbMText
 10
183.2288294023741
 20
195.4350714305523
 30
0.0
 40
5.0
 41
0.0
 46
0.0
 71
     5
 72
     1
  1
\A1;57
  7
ＭＳ ゴシック
 11
0.0
 21
1.0
 31
0.0
 73
     1
 44
1.0
  0
POINT
  5
3CAB
330
3CA3
100
AcDbEntity
  8
Defpoints
 62
     0
100
AcDbPoint
 10
149.4682658059849
 20
166.859708077139
 30
0.0
  0
POINT
  5
3CAC
330
3CA3
100
AcDbEntity
  8
Defpoints
 62
     0
100
AcDbPoint
 10
69.69870540742599
 20
224.0104347839655
 30
0.0
  0
POINT
  5
3CAD
330
3CA3
100
AcDbEntity
  8
Defpoints
 62
     0
100
AcDbPoint
 10
190.7288294023741
 20
224.0104347839655
 30
0.0
  0
ENDBLK
  5
3CAE
330
3CA3
100
AcDbEntity
  8
0
100
AcDbBlockEnd
  0
BLOCK
  5
3CB3
330
3CB2
100
AcDbEntity
  8
0
100
AcDbBlockBegin
  2
*D42
 70
     1
 10
0.0
 20
0.0
 30
0.0
  3
*D42
  1
*D52
  0
LINE
  5
3CB4
330
3CB2
100
AcDbEntity
  8
寸法
 62
     0
370
    -2
100
AcDbLine
 10
74.69870540742599
 20
224.0104347839655
 30
0.0
 11
170.9567683241251
 21
224.0104347839655
 31
0.0
  0
LINE
  5
3CB5
330
3CB2
100
AcDbEntity
  8
寸法
 62
     0
370
    -2
100
AcDbLine
 10
154.4682658059849
 20
181.6770735341324
 30
0.0
 11
170.9567683241251
 21
181.6770735341324
 31
0.0
  0
LINE
  5
3CB6
330
3CB2
100
AcDbEntity
  8
寸法
 62
     0
370
    -2
100
AcDbLine
 10
170.9567683241251
 20
222.0104347839655
 30
0.0
 11
170.9567683241251
 21
183.6770735341324
 31
0.0
  0
INSERT
  5
3CB7
330
3CB2
100
AcDbEntity
  8
寸法
 62
     0
370
    -2
100
AcDbBlockReference
  2
_DOT
 10
170.9567683241251
 20
224.0104347839655
 30
0.0
 41
2.0
 42
2.0
 43
2.0
 50
90.0
  0
INSERT
  5
3CB8
330
3CB2
100
AcDbEntity
  8
寸法
 62
     0
370
    -2
100
AcDbBlockReference
  2
_DOT
 10
170.9567683241251
 20
181.6770735341324
 30
0.0
 41
2.0
 42
2.0
 43
2.0
 50
270.0
  0
MTEXT
  5
3CB9
330
3CB2
100
AcDbEntity
  8
寸法
 62
     0
100
AcDbMText
 10
163.4567683241251
 20
202.843754159049
 30
0.0
 40
5.0
 41
0.0
 46
0.0
 71
     5
 72
     1
  1
\A1;42
  7
ＭＳ ゴシック
 11
0.0
 21
1.0
 31
0.0
 73
     1
 44
1.0
  0
POINT
  5
3CBA
330
3CB2
100
AcDbEntity
  8
Defpoints
 62
     0
100
AcDbPoint
 10
69.69870540742599
 20
224.0104347839655
 30
0.0
  0
POINT
  5
3CBB
330
3CB2
100
AcDbEntity
  8
Defpoints
 62
     0
100
AcDbPoint
 10
149.4682658059849
 20
181.6770735341324
 30
0.0
  0
POINT
  5
3CBC
330
3CB2
100
AcDbEntity
  8
Defpoints
 62
     0
100
AcDbPoint
 10
170.9567683241251
 20
181.6770735341324
 30
0.0
  0
ENDBLK
  5
3CBD
330
3CB2
100
AcDbEntity
  8
0
100
AcDbBlockEnd
  0
BLOCK
  5
3CCC
330
3CCB
100
AcDbEntity
  8
0
100
AcDbBlockBegin
  2
*D43
 70
     1
 10
0.0
 20
0.0
 30
0.0
  3
*D43
  1
*D53
  0
LINE
  5
3CCD
330
3CCB
100
AcDbEntity
  8
寸法
 62
     0
370
    -2
100
AcDbLine
 10
63.72088538776441
 20
37.80096543350615
 30
0.0
 11
63.72088538776441
 21
0.5108464693972792
 31
0.0
  0
LINE
  5
3CCE
330
3CCB
100
AcDbEntity
  8
寸法
 62
     0
370
    -2
100
AcDbLine
 10
25.88395212166941
 20
37.80096543350615
 30
0.0
 11
25.88395212166941
 21
0.5108464693972792
 31
0.0
  0
LINE
  5
3CCF
330
3CCB
100
AcDbEntity
  8
寸法
 62
     0
370
    -2
100
AcDbLine
 10
61.72088538776441
 20
0.5108464693972792
 30
0.0
 11
27.88395212166941
 21
0.5108464693972792
 31
0.0
  0
INSERT
  5
3CD0
330
3CCB
100
AcDbEntity
  8
寸法
 62
     0
370
    -2
100
AcDbBlockReference
  2
_DOT
 10
63.72088538776441
 20
0.5108464693972792
 30
0.0
 41
2.0
 42
2.0
 43
2.0
  0
INSERT
  5
3CD1
330
3CCB
100
AcDbEntity
  8
寸法
 62
     0
370
    -2
100
AcDbBlockReference
  2
_DOT
 10
25.88395212166941
 20
0.5108464693972792
 30
0.0
 41
2.0
 42
2.0
 43
2.0
 50
180.0
  0
MTEXT
  5
3CD2
330
3CCB
100
AcDbEntity
  8
寸法
 62
     0
100
AcDbMText
 10
44.80241875471691
 20
8.01084646939728
 30
0.0
 40
5.0
 41
0.0
 46
0.0
 71
     5
 72
     1
  1
\A1;38
  7
ＭＳ ゴシック
 73
     1
 44
1.0
  0
POINT
  5
3CD3
330
3CCB
100
AcDbEntity
  8
Defpoints
 62
     0
100
AcDbPoint
 10
63.72088538776441
 20
42.80096543350615
 30
0.0
  0
POINT
  5
3CD4
330
3CCB
100
AcDbEntity
  8
Defpoints
 62
     0
100
AcDbPoint
 10
25.88395212166941
 20
42.80096543350615
 30
0.0
  0
POINT
  5
3CD5
330
3CCB
100
AcDbEntity
  8
Defpoints
 62
     0
100
AcDbPoint
 10
25.88395212166941
 20
0.5108464693972792
 30
0.0
  0
ENDBLK
  5
3CD6
330
3CCB
100
AcDbEntity
  8
0
100
AcDbBlockEnd
  0
BLOCK
  5
3CDB
330
3CDA
100
AcDbEntity
  8
0
100
AcDbBlockBegin
  2
*D44
 70
     1
 10
0.0
 20
0.0
 30
0.0
  3
*D44
  1
*D54
  0
LINE
  5
3CDC
330
3CDA
100
AcDbEntity
  8
寸法
 62
     0
370
    -2
100
AcDbLine
 10
314.8282422312282
 20
12.82375275043886
 30
0.0
 11
314.8282422312282
 21
0.5
 31
0.0
  0
LINE
  5
3CDD
330
3CDA
100
AcDbEntity
  8
寸法
 62
     0
370
    -2
100
AcDbLine
 10
310.1704700624643
 20
12.82375275043886
 30
0.0
 11
310.1704700624643
 21
0.5
 31
0.0
  0
LINE
  5
3CDE
330
3CDA
100
AcDbEntity
  8
寸法
 62
     0
370
    -2
100
AcDbLine
 10
312.8282422312282
 20
0.5
 30
0.0
 11
312.1704700624643
 21
0.5
 31
0.0
  0
INSERT
  5
3CDF
330
3CDA
100
AcDbEntity
  8
寸法
 62
     0
370
    -2
100
AcDbBlockReference
  2
_DOT
 10
314.8282422312282
 20
0.5
 30
0.0
 41
2.0
 42
2.0
 43
2.0
  0
INSERT
  5
3CE0
330
3CDA
100
AcDbEntity
  8
寸法
 62
     0
370
    -2
100
AcDbBlockReference
  2
_DOT
 10
310.1704700624643
 20
0.5
 30
0.0
 41
2.0
 42
2.0
 43
2.0
 50
180.0
  0
MTEXT
  5
3CE1
330
3CDA
100
AcDbEntity
  8
寸法
 62
     0
100
AcDbMText
 10
312.4993561468462
 20
8.0
 30
0.0
 40
5.0
 41
0.0
 46
0.0
 71
     5
 72
     1
  1
\A1;5
  7
ＭＳ ゴシック
 73
     1
 44
1.0
  0
POINT
  5
3CE2
330
3CDA
100
AcDbEntity
  8
Defpoints
 62
     0
100
AcDbPoint
 10
314.8282422312282
 20
17.82375275043886
 30
0.0
  0
POINT
  5
3CE3
330
3CDA
100
AcDbEntity
  8
Defpoints
 62
     0
100
AcDbPoint
 10
310.1704700624643
 20
17.82375275043886
 30
0.0
  0
POINT
  5
3CE4
330
3CDA
100
AcDbEntity
  8
Defpoints
 62
     0
100
AcDbPoint
 10
310.1704700624643
 20
0.5
 30
0.0
  0
ENDBLK
  5
3CE5
330
3CDA
100
AcDbEntity
  8
0
100
AcDbBlockEnd
  0
BLOCK
  5
3DC8
330
3DC7
100
AcDbEntity
  8
0
100
AcDbBlockBegin
  2
*D45
 70
     1
 10
0.0
 20
0.0
 30
0.0
  3
*D45
  1
*D46
  0
LINE
  5
3DCA
330
3DC7
100
AcDbEntity
  8
寸法
 62
     0
370
    -2
100
AcDbLine
 10
145.3390736312673
 20
350.3704347839655
 30
0.0
 11
140.5942857142857
 21
350.3704347839655
 31
0.0
  0
LINE
  5
3DCB
330
3DC7
100
AcDbEntity
  8
寸法
 62
     0
370
    -2
100
AcDbLine
 10
145.3390736312673
 20
345.7126626152016
 30
0.0
 11
140.5942857142857
 21
345.7126626152016
 31
0.0
  0
LINE
  5
3DCC
330
3DC7
100
AcDbEntity
  8
寸法
 62
     0
370
    -2
100
AcDbLine
 10
140.5942857142857
 20
348.3704347839655
 30
0.0
 11
140.5942857142857
 21
347.7126626152016
 31
0.0
  0
INSERT
  5
3DCD
330
3DC7
100
AcDbEntity
  8
寸法
 62
     0
370
    -2
100
AcDbBlockReference
  2
_DOT
 10
140.5942857142857
 20
350.3704347839655
 30
0.0
 41
2.0
 42
2.0
 43
2.0
 50
90.0
  0
INSERT
  5
3DCE
330
3DC7
100
AcDbEntity
  8
寸法
 62
     0
370
    -2
100
AcDbBlockReference
  2
_DOT
 10
140.5942857142857
 20
345.7126626152016
 30
0.0
 41
2.0
 42
2.0
 43
2.0
 50
270.0
  0
MTEXT
  5
3DCF
330
3DC7
100
AcDbEntity
  8
寸法
 62
     0
100
AcDbMText
 10
133.0942857142857
 20
347.9957466385695
 30
0.0
 40
5.0
 41
0.0
 46
0.0
 71
     5
 72
     1
  1
\A1;5
  7
ＭＳ ゴシック
 11
0.0
 21
1.0
 31
0.0
 73
     1
 44
1.0
  0
POINT
  5
3DD0
330
3DC7
100
AcDbEntity
  8
Defpoints
 62
     0
100
AcDbPoint
 10
150.3390736312673
 20
350.3704347839655
 30
0.0
  0
POINT
  5
3DD1
330
3DC7
100
AcDbEntity
  8
Defpoints
 62
     0
100
AcDbPoint
 10
150.3390736312673
 20
345.7126626152016
 30
0.0
  0
POINT
  5
3DD2
330
3DC7
100
AcDbEntity
  8
Defpoints
 62
     0
100
AcDbPoint
 10
140.5942857142857
 20
345.7126626152016
 30
0.0
  0
ENDBLK
  5
3DC9
330
3DC7
100
AcDbEntity
  8
0
100
AcDbBlockEnd
  0
BLOCK
  5
3DD4
330
3DD3
100
AcDbEntity
  8
0
100
AcDbBlockBegin
  2
*D46
 70
     1
 10
0.0
 20
0.0
 30
0.0
  3
*D46
  1
*D47
  0
LINE
  5
3DD6
330
3DD3
100
AcDbEntity
  8
寸法
 62
     0
370
    -2
100
AcDbLine
 10
160.5784635636111
 20
290.6806710295212
 30
0.0
 11
140.5942857142857
 21
290.6806710295212
 31
0.0
  0
LINE
  5
3DD7
330
3DD3
100
AcDbEntity
  8
寸法
 62
     0
370
    -2
100
AcDbLine
 10
160.5784635636111
 20
310.5761105817494
 30
0.0
 11
140.5942857142857
 21
310.5761105817494
 31
0.0
  0
LINE
  5
3DD8
330
3DD3
100
AcDbEntity
  8
寸法
 62
     0
370
    -2
100
AcDbLine
 10
140.5942857142857
 20
292.6806710295212
 30
0.0
 11
140.5942857142857
 21
308.5761105817494
 31
0.0
  0
INSERT
  5
3DD9
330
3DD3
100
AcDbEntity
  8
寸法
 62
     0
370
    -2
100
AcDbBlockReference
  2
_DOT
 10
140.5942857142857
 20
290.6806710295212
 30
0.0
 41
2.0
 42
2.0
 43
2.0
 50
270.0
  0
INSERT
  5
3DDA
330
3DD3
100
AcDbEntity
  8
寸法
 62
     0
370
    -2
100
AcDbBlockReference
  2
_DOT
 10
140.5942857142857
 20
310.5761105817494
 30
0.0
 41
2.0
 42
2.0
 43
2.0
 50
90.0
  0
MTEXT
  5
3DDB
330
3DD3
100
AcDbEntity
  8
寸法
 62
     0
100
AcDbMText
 10
133.0942857142857
 20
300.6283908056353
 30
0.0
 40
5.0
 41
0.0
 46
0.0
 71
     5
 72
     1
  1
\A1;20
  7
ＭＳ ゴシック
 11
0.0
 21
1.0
 31
0.0
 73
     1
 44
1.0
  0
POINT
  5
3DDC
330
3DD3
100
AcDbEntity
  8
Defpoints
 62
     0
100
AcDbPoint
 10
165.5784635636111
 20
290.6806710295212
 30
0.0
  0
POINT
  5
3DDD
330
3DD3
100
AcDbEntity
  8
Defpoints
 62
     0
100
AcDbPoint
 10
165.5784635636111
 20
310.5761105817494
 30
0.0
  0
POINT
  5
3DDE
330
3DD3
100
AcDbEntity
  8
Defpoints
 62
     0
100
AcDbPoint
 10
140.5942857142857
 20
310.5761105817494
 30
0.0
  0
ENDBLK
  5
3DD5
330
3DD3
100
AcDbEntity
  8
0
100
AcDbBlockEnd
  0
BLOCK
  5
3DE0
330
3DDF
100
AcDbEntity
  8
0
100
AcDbBlockBegin
  2
*D47
 70
     1
 10
0.0
 20
0.0
 30
0.0
  3
*D47
  1
*D48
  0
LINE
  5
3DE2
330
3DDF
100
AcDbEntity
  8
寸法
 62
     0
370
    -2
100
AcDbLine
 10
280.0625515202706
 20
288.219708077139
 30
0.0
 11
280.0625515202706
 21
271.6542155193206
 31
0.0
  0
LINE
  5
3DE3
330
3DDF
100
AcDbEntity
  8
寸法
 62
     0
370
    -2
100
AcDbLine
 10
165.1564390882605
 20
286.1026955048717
 30
0.0
 11
165.1564390882605
 21
271.6542155193206
 31
0.0
  0
LINE
  5
3DE4
330
3DDF
100
AcDbEntity
  8
寸法
 62
     0
370
    -2
100
AcDbLine
 10
278.0625515202706
 20
271.6542155193206
 30
0.0
 11
167.1564390882605
 21
271.6542155193206
 31
0.0
  0
INSERT
  5
3DE5
330
3DDF
100
AcDbEntity
  8
寸法
 62
     0
370
    -2
100
AcDbBlockReference
  2
_DOT
 10
280.0625515202706
 20
271.6542155193206
 30
0.0
 41
2.0
 42
2.0
 43
2.0
  0
INSERT
  5
3DE6
330
3DDF
100
AcDbEntity
  8
寸法
 62
     0
370
    -2
100
AcDbBlockReference
  2
_DOT
 10
165.1564390882605
 20
271.6542155193206
 30
0.0
 41
2.0
 42
2.0
 43
2.0
 50
180.0
  0
MTEXT
  5
3DE7
330
3DDF
100
AcDbEntity
  8
寸法
 62
     0
100
AcDbMText
 10
222.6094953042655
 20
279.1542155193206
 30
0.0
 40
5.0
 41
0.0
 46
0.0
 71
     5
 72
     1
  1
\A1;115
  7
ＭＳ ゴシック
 73
     1
 44
1.0
  0
POINT
  5
3DE8
330
3DDF
100
AcDbEntity
  8
Defpoints
 62
     0
100
AcDbPoint
 10
280.0625515202706
 20
293.219708077139
 30
0.0
  0
POINT
  5
3DE9
330
3DDF
100
AcDbEntity
  8
Defpoints
 62
     0
100
AcDbPoint
 10
165.1564390882605
 20
291.1026955048717
 30
0.0
  0
POINT
  5
3DEA
330
3DDF
100
AcDbEntity
  8
Defpoints
 62
     0
100
AcDbPoint
 10
165.1564390882605
 20
271.6542155193206
 30
0.0
  0
ENDBLK
  5
3DE1
330
3DDF
100
AcDbEntity
  8
0
100
AcDbBlockEnd
  0
BLOCK
  5
3DEC
330
3DEB
100
AcDbEntity
  8
0
100
AcDbBlockBegin
  2
*D48
 70
     1
 10
0.0
 20
0.0
 30
0.0
  3
*D48
  1
*D49
  0
LINE
  5
3DEE
330
3DEB
100
AcDbEntity
  8
寸法
 62
     0
370
    -2
100
AcDbLine
 10
160.5784635636111
 20
310.5761105817494
 30
0.0
 11
140.5942857142857
 21
310.5761105817494
 31
0.0
  0
LINE
  5
3DEF
330
3DEB
100
AcDbEntity
  8
寸法
 62
     0
370
    -2
100
AcDbLine
 10
145.3390736312673
 20
345.7126626152016
 30
0.0
 11
140.5942857142857
 21
345.7126626152016
 31
0.0
  0
LINE
  5
3DF0
330
3DEB
100
AcDbEntity
  8
寸法
 62
     0
370
    -2
100
AcDbLine
 10
140.5942857142857
 20
312.5761105817494
 30
0.0
 11
140.5942857142857
 21
343.7126626152016
 31
0.0
  0
INSERT
  5
3DF1
330
3DEB
100
AcDbEntity
  8
寸法
 62
     0
370
    -2
100
AcDbBlockReference
  2
_DOT
 10
140.5942857142857
 20
310.5761105817494
 30
0.0
 41
2.0
 42
2.0
 43
2.0
 50
270.0
  0
INSERT
  5
3DF2
330
3DEB
100
AcDbEntity
  8
寸法
 62
     0
370
    -2
100
AcDbBlockReference
  2
_DOT
 10
140.5942857142857
 20
345.7126626152016
 30
0.0
 41
2.0
 42
2.0
 43
2.0
 50
90.0
  0
MTEXT
  5
3DF3
330
3DEB
100
AcDbEntity
  8
寸法
 62
     0
100
AcDbMText
 10
133.0942857142857
 20
328.1443865984755
 30
0.0
 40
5.0
 41
0.0
 46
0.0
 71
     5
 72
     1
  1
\A1;35
  7
ＭＳ ゴシック
 11
0.0
 21
1.0
 31
0.0
 73
     1
 44
1.0
  0
POINT
  5
3DF4
330
3DEB
100
AcDbEntity
  8
Defpoints
 62
     0
100
AcDbPoint
 10
165.5784635636111
 20
310.5761105817494
 30
0.0
  0
POINT
  5
3DF5
330
3DEB
100
AcDbEntity
  8
Defpoints
 62
     0
100
AcDbPoint
 10
150.3390736312673
 20
345.7126626152016
 30
0.0
  0
POINT
  5
3DF6
330
3DEB
100
AcDbEntity
  8
Defpoints
 62
     0
100
AcDbPoint
 10
140.5942857142857
 20
345.7126626152016
 30
0.0
  0
ENDBLK
  5
3DED
330
3DEB
100
AcDbEntity
  8
0
100
AcDbBlockEnd
  0
BLOCK
  5
3DF8
330
3DF7
100
AcDbEntity
  8
0
100
AcDbBlockBegin
  2
*D49
 70
     1
 10
0.0
 20
0.0
 30
0.0
  3
*D49
  1
*D50
  0
LINE
  5
3DFA
330
3DF7
100
AcDbEntity
  8
寸法
 62
     0
370
    -2
100
AcDbLine
 10
170.3151711020501
 20
144.1837685643322
 30
0.0
 11
140.5942857142857
 21
144.1837685643322
 31
0.0
  0
LINE
  5
3DFB
330
3DF7
100
AcDbEntity
  8
寸法
 62
     0
370
    -2
100
AcDbLine
 10
170.3151711020501
 20
194.5619251408022
 30
0.0
 11
140.5942857142857
 21
194.5619251408022
 31
0.0
  0
LINE
  5
3DFC
330
3DF7
100
AcDbEntity
  8
寸法
 62
     0
370
    -2
100
AcDbLine
 10
140.5942857142857
 20
146.1837685643322
 30
0.0
 11
140.5942857142857
 21
192.5619251408022
 31
0.0
  0
INSERT
  5
3DFD
330
3DF7
100
AcDbEntity
  8
寸法
 62
     0
370
    -2
100
AcDbBlockReference
  2
_DOT
 10
140.5942857142857
 20
144.1837685643322
 30
0.0
 41
2.0
 42
2.0
 43
2.0
 50
270.0
  0
INSERT
  5
3DFE
330
3DF7
100
AcDbEntity
  8
寸法
 62
     0
370
    -2
100
AcDbBlockReference
  2
_DOT
 10
140.5942857142857
 20
194.5619251408022
 30
0.0
 41
2.0
 42
2.0
 43
2.0
 50
90.0
  0
MTEXT
  5
3DFF
330
3DF7
100
AcDbEntity
  8
寸法
 62
     0
100
AcDbMText
 10
133.0942857142857
 20
169.3728468525672
 30
0.0
 40
5.0
 41
0.0
 46
0.0
 71
     5
 72
     1
  1
\A1;50
  7
ＭＳ ゴシック
 11
0.0
 21
1.0
 31
0.0
 73
     1
 44
1.0
  0
POINT
  5
3E00
330
3DF7
100
AcDbEntity
  8
Defpoints
 62
     0
100
AcDbPoint
 10
175.3151711020501
 20
144.1837685643322
 30
0.0
  0
POINT
  5
3E01
330
3DF7
100
AcDbEntity
  8
Defpoints
 62
     0
100
AcDbPoint
 10
175.3151711020501
 20
194.5619251408022
 30
0.0
  0
POINT
  5
3E02
330
3DF7
100
AcDbEntity
  8
Defpoints
 62
     0
100
AcDbPoint
 10
140.5942857142857
 20
194.5619251408022
 30
0.0
  0
ENDBLK
  5
3DF9
330
3DF7
100
AcDbEntity
  8
0
100
AcDbBlockEnd
  0
BLOCK
  5
3E04
330
3E03
100
AcDbEntity
  8
0
100
AcDbBlockBegin
  2
*D50
 70
     1
 10
0.0
 20
0.0
 30
0.0
  3
*D50
  1
*D51
  0
LINE
  5
3E06
330
3E03
100
AcDbEntity
  8
寸法
 62
     0
370
    -2
100
AcDbLine
 10
285.0625515202706
 20
176.7815216741177
 30
0.0
 11
317.4258442325136
 21
176.7815216741177
 31
0.0
  0
LINE
  5
3E07
330
3E03
100
AcDbEntity
  8
寸法
 62
     0
370
    -2
100
AcDbLine
 10
285.0625515202706
 20
161.9641562171235
 30
0.0
 11
317.4258442325136
 21
161.9641562171235
 31
0.0
  0
LINE
  5
3E08
330
3E03
100
AcDbEntity
  8
寸法
 62
     0
370
    -2
100
AcDbLine
 10
317.4258442325136
 20
174.7815216741177
 30
0.0
 11
317.4258442325136
 21
163.9641562171235
 31
0.0
  0
INSERT
  5
3E09
330
3E03
100
AcDbEntity
  8
寸法
 62
     0
370
    -2
100
AcDbBlockReference
  2
_DOT
 10
317.4258442325136
 20
176.7815216741177
 30
0.0
 41
2.0
 42
2.0
 43
2.0
 50
90.0
  0
INSERT
  5
3E0A
330
3E03
100
AcDbEntity
  8
寸法
 62
     0
370
    -2
100
AcDbBlockReference
  2
_DOT
 10
317.4258442325136
 20
161.9641562171235
 30
0.0
 41
2.0
 42
2.0
 43
2.0
 50
270.0
  0
MTEXT
  5
3E0B
330
3E03
100
AcDbEntity
  8
寸法
 62
     0
100
AcDbMText
 10
309.9258442325136
 20
169.6283155184872
 30
0.0
 40
5.0
 41
0.0
 46
0.0
 71
     5
 72
     1
  1
\A1;15
  7
ＭＳ ゴシック
 11
0.0
 21
1.0
 31
0.0
 73
     1
 44
1.0
  0
POINT
  5
3E0C
330
3E03
100
AcDbEntity
  8
Defpoints
 62
     0
100
AcDbPoint
 10
280.0625515202706
 20
176.7815216741177
 30
0.0
  0
POINT
  5
3E0D
330
3E03
100
AcDbEntity
  8
Defpoints
 62
     0
100
AcDbPoint
 10
280.0625515202706
 20
161.9641562171235
 30
0.0
  0
POINT
  5
3E0E
330
3E03
100
AcDbEntity
  8
Defpoints
 62
     0
100
AcDbPoint
 10
317.4258442325136
 20
161.9641562171235
 30
0.0
  0
ENDBLK
  5
3E05
330
3E03
100
AcDbEntity
  8
0
100
AcDbBlockEnd
  0
BLOCK
  5
3E10
330
3E0F
100
AcDbEntity
  8
0
100
AcDbBlockBegin
  2
*D51
 70
     1
 10
0.0
 20
0.0
 30
0.0
  3
*D51
  1
*D52
  0
LINE
  5
3E12
330
3E0F
100
AcDbEntity
  8
寸法
 62
     0
370
    -2
100
AcDbLine
 10
285.0625515202706
 20
293.219708077139
 30
0.0
 11
321.3231151166598
 21
293.219708077139
 31
0.0
  0
LINE
  5
3E13
330
3E0F
100
AcDbEntity
  8
寸法
 62
     0
370
    -2
100
AcDbLine
 10
205.2929911217117
 20
350.3704347839655
 30
0.0
 11
321.3231151166598
 21
350.3704347839655
 31
0.0
  0
LINE
  5
3E14
330
3E0F
100
AcDbEntity
  8
寸法
 62
     0
370
    -2
100
AcDbLine
 10
321.3231151166598
 20
295.219708077139
 30
0.0
 11
321.3231151166598
 21
348.3704347839655
 31
0.0
  0
INSERT
  5
3E15
330
3E0F
100
AcDbEntity
  8
寸法
 62
     0
370
    -2
100
AcDbBlockReference
  2
_DOT
 10
321.3231151166598
 20
293.219708077139
 30
0.0
 41
2.0
 42
2.0
 43
2.0
 50
270.0
  0
INSERT
  5
3E16
330
3E0F
100
AcDbEntity
  8
寸法
 62
     0
370
    -2
100
AcDbBlockReference
  2
_DOT
 10
321.3231151166598
 20
350.3704347839655
 30
0.0
 41
2.0
 42
2.0
 43
2.0
 50
90.0
  0
MTEXT
  5
3E17
330
3E0F
100
AcDbEntity
  8
寸法
 62
     0
100
AcDbMText
 10
313.8231151166598
 20
321.7950714305523
 30
0.0
 40
5.0
 41
0.0
 46
0.0
 71
     5
 72
     1
  1
\A1;57
  7
ＭＳ ゴシック
 11
0.0
 21
1.0
 31
0.0
 73
     1
 44
1.0
  0
POINT
  5
3E18
330
3E0F
100
AcDbEntity
  8
Defpoints
 62
     0
100
AcDbPoint
 10
280.0625515202706
 20
293.219708077139
 30
0.0
  0
POINT
  5
3E19
330
3E0F
100
AcDbEntity
  8
Defpoints
 62
     0
100
AcDbPoint
 10
200.2929911217117
 20
350.3704347839655
 30
0.0
  0
POINT
  5
3E1A
330
3E0F
100
AcDbEntity
  8
Defpoints
 62
     0
100
AcDbPoint
 10
321.3231151166598
 20
350.3704347839655
 30
0.0
  0
ENDBLK
  5
3E11
330
3E0F
100
AcDbEntity
  8
0
100
AcDbBlockEnd
  0
BLOCK
  5
3E1C
330
3E1B
100
AcDbEntity
  8
0
100
AcDbBlockBegin
  2
*D52
 70
     1
 10
0.0
 20
0.0
 30
0.0
  3
*D52
  1
*D53
  0
LINE
  5
3E1E
330
3E1B
100
AcDbEntity
  8
寸法
 62
     0
370
    -2
100
AcDbLine
 10
205.2929911217117
 20
350.3704347839655
 30
0.0
 11
301.5510540384108
 21
350.3704347839655
 31
0.0
  0
LINE
  5
3E1F
330
3E1B
100
AcDbEntity
  8
寸法
 62
     0
370
    -2
100
AcDbLine
 10
285.0625515202706
 20
308.0370735341324
 30
0.0
 11
301.5510540384108
 21
308.0370735341324
 31
0.0
  0
LINE
  5
3E20
330
3E1B
100
AcDbEntity
  8
寸法
 62
     0
370
    -2
100
AcDbLine
 10
301.5510540384108
 20
348.3704347839655
 30
0.0
 11
301.5510540384108
 21
310.0370735341324
 31
0.0
  0
INSERT
  5
3E21
330
3E1B
100
AcDbEntity
  8
寸法
 62
     0
370
    -2
100
AcDbBlockReference
  2
_DOT
 10
301.5510540384108
 20
350.3704347839655
 30
0.0
 41
2.0
 42
2.0
 43
2.0
 50
90.0
  0
INSERT
  5
3E22
330
3E1B
100
AcDbEntity
  8
寸法
 62
     0
370
    -2
100
AcDbBlockReference
  2
_DOT
 10
301.5510540384108
 20
308.0370735341324
 30
0.0
 41
2.0
 42
2.0
 43
2.0
 50
270.0
  0
MTEXT
  5
3E23
330
3E1B
100
AcDbEntity
  8
寸法
 62
     0
100
AcDbMText
 10
294.0510540384108
 20
329.203754159049
 30
0.0
 40
5.0
 41
0.0
 46
0.0
 71
     5
 72
     1
  1
\A1;42
  7
ＭＳ ゴシック
 11
0.0
 21
1.0
 31
0.0
 73
     1
 44
1.0
  0
POINT
  5
3E24
330
3E1B
100
AcDbEntity
  8
Defpoints
 62
     0
100
AcDbPoint
 10
200.2929911217117
 20
350.3704347839655
 30
0.0
  0
POINT
  5
3E25
330
3E1B
100
AcDbEntity
  8
Defpoints
 62
     0
100
AcDbPoint
 10
280.0625515202706
 20
308.0370735341324
 30
0.0
  0
POINT
  5
3E26
330
3E1B
100
AcDbEntity
  8
Defpoints
 62
     0
100
AcDbPoint
 10
301.5510540384108
 20
308.0370735341324
 30
0.0
  0
ENDBLK
  5
3E1D
330
3E1B
100
AcDbEntity
  8
0
100
AcDbBlockEnd
  0
BLOCK
  5
3E28
330
3E27
100
AcDbEntity
  8
0
100
AcDbBlockBegin
  2
*D53
 70
     1
 10
0.0
 20
0.0
 30
0.0
  3
*D53
  1
*D54
  0
LINE
  5
3E2A
330
3E27
100
AcDbEntity
  8
寸法
 62
     0
370
    -2
100
AcDbLine
 10
194.3151711020501
 20
164.1609654335062
 30
0.0
 11
194.3151711020501
 21
126.8708464693973
 31
0.0
  0
LINE
  5
3E2B
330
3E27
100
AcDbEntity
  8
寸法
 62
     0
370
    -2
100
AcDbLine
 10
156.4782378359551
 20
164.1609654335062
 30
0.0
 11
156.4782378359551
 21
126.8708464693973
 31
0.0
  0
LINE
  5
3E2C
330
3E27
100
AcDbEntity
  8
寸法
 62
     0
370
    -2
100
AcDbLine
 10
192.3151711020501
 20
126.8708464693973
 30
0.0
 11
158.4782378359551
 21
126.8708464693973
 31
0.0
  0
INSERT
  5
3E2D
330
3E27
100
AcDbEntity
  8
寸法
 62
     0
370
    -2
100
AcDbBlockReference
  2
_DOT
 10
194.3151711020501
 20
126.8708464693973
 30
0.0
 41
2.0
 42
2.0
 43
2.0
  0
INSERT
  5
3E2E
330
3E27
100
AcDbEntity
  8
寸法
 62
     0
370
    -2
100
AcDbBlockReference
  2
_DOT
 10
156.4782378359551
 20
126.8708464693973
 30
0.0
 41
2.0
 42
2.0
 43
2.0
 50
180.0
  0
MTEXT
  5
3E2F
330
3E27
100
AcDbEntity
  8
寸法
 62
     0
100
AcDbMText
 10
175.3967044690026
 20
134.3708464693973
 30
0.0
 40
5.0
 41
0.0
 46
0.0
 71
     5
 72
     1
  1
\A1;38
  7
ＭＳ ゴシック
 73
     1
 44
1.0
  0
POINT
  5
3E30
330
3E27
100
AcDbEntity
  8
Defpoints
 62
     0
100
AcDbPoint
 10
194.3151711020501
 20
169.1609654335062
 30
0.0
  0
POINT
  5
3E31
330
3E27
100
AcDbEntity
  8
Defpoints
 62
     0
100
AcDbPoint
 10
156.4782378359551
 20
169.1609654335062
 30
0.0
  0
POINT
  5
3E32
330
3E27
100
AcDbEntity
  8
Defpoints
 62
     0
100
AcDbPoint
 10
156.4782378359551
 20
126.8708464693973
 30
0.0
  0
ENDBLK
  5
3E29
330
3E27
100
AcDbEntity
  8
0
100
AcDbBlockEnd
  0
BLOCK
  5
3E34
330
3E33
100
AcDbEntity
  8
0
100
AcDbBlockBegin
  2
*D54
 70
     1
 10
0.0
 20
0.0
 30
0.0
  3
*D54
  1
*D55
  0
LINE
  5
3E36
330
3E33
100
AcDbEntity
  8
寸法
 62
     0
370
    -2
100
AcDbLine
 10
445.4225279455139
 20
139.1837527504389
 30
0.0
 11
445.4225279455139
 21
126.86
 31
0.0
  0
LINE
  5
3E37
330
3E33
100
AcDbEntity
  8
寸法
 62
     0
370
    -2
100
AcDbLine
 10
440.76475577675
 20
139.1837527504389
 30
0.0
 11
440.76475577675
 21
126.86
 31
0.0
  0
LINE
  5
3E38
330
3E33
100
AcDbEntity
  8
寸法
 62
     0
370
    -2
100
AcDbLine
 10
443.4225279455139
 20
126.86
 30
0.0
 11
442.76475577675
 21
126.86
 31
0.0
  0
INSERT
  5
3E39
330
3E33
100
AcDbEntity
  8
寸法
 62
     0
370
    -2
100
AcDbBlockReference
  2
_DOT
 10
445.4225279455139
 20
126.86
 30
0.0
 41
2.0
 42
2.0
 43
2.0
  0
INSERT
  5
3E3A
330
3E33
100
AcDbEntity
  8
寸法
 62
     0
370
    -2
100
AcDbBlockReference
  2
_DOT
 10
440.76475577675
 20
126.86
 30
0.0
 41
2.0
 42
2.0
 43
2.0
 50
180.0
  0
MTEXT
  5
3E3B
330
3E33
100
AcDbEntity
  8
寸法
 62
     0
100
AcDbMText
 10
443.0936418611319
 20
134.36
 30
0.0
 40
5.0
 41
0.0
 46
0.0
 71
     5
 72
     1
  1
\A1;5
  7
ＭＳ ゴシック
 73
     1
 44
1.0
  0
POINT
  5
3E3C
330
3E33
100
AcDbEntity
  8
Defpoints
 62
     0
100
AcDbPoint
 10
445.4225279455139
 20
144.1837527504389
 30
0.0
  0
POINT
  5
3E3D
330
3E33
100
AcDbEntity
  8
Defpoints
 62
     0
100
AcDbPoint
 10
440.76475577675
 20
144.1837527504389
 30
0.0
  0
POINT
  5
3E3E
330
3E33
100
AcDbEntity
  8
Defpoints
 62
     0
100
AcDbPoint
 10
440.76475577675
 20
126.86
 30
0.0
  0
ENDBLK
  5
3E35
330
3E33
100
AcDbEntity
  8
0
100
AcDbBlockEnd
  0
BLOCK
  5
3F31
330
3F30
100
AcDbEntity
  8
0
100
AcDbBlockBegin
  2
*D55
 70
     1
 10
0.0
 20
0.0
 30
0.0
  3
*D55
  1
*D15
  0
LINE
  5
3F32
330
3F30
100
AcDbEntity
  8
寸法
 62
     0
370
    -2
100
AcDbLine
 10
25.30469522881698
 20
305.7448256232715
 30
0.0
 11
12.57635824402207
 21
305.7448256232715
 31
0.0
  0
LINE
  5
3F33
330
3F30
100
AcDbEntity
  8
寸法
 62
     0
370
    -2
100
AcDbLine
 10
25.30469522881698
 20
300.6633064302785
 30
0.0
 11
12.57635824402207
 21
300.6633064302785
 31
0.0
  0
LINE
  5
3F34
330
3F30
100
AcDbEntity
  8
寸法
 62
     0
370
    -2
100
AcDbLine
 10
12.57635824402207
 20
303.7448256232715
 30
0.0
 11
12.57635824402207
 21
302.6633064302785
 31
0.0
  0
INSERT
  5
3F35
330
3F30
100
AcDbEntity
  8
寸法
 62
     0
370
    -2
100
AcDbBlockReference
  2
_DOT
 10
12.57635824402207
 20
305.7448256232715
 30
0.0
 41
2.0
 42
2.0
 43
2.0
 50
90.0
  0
INSERT
  5
3F36
330
3F30
100
AcDbEntity
  8
寸法
 62
     0
370
    -2
100
AcDbBlockReference
  2
_DOT
 10
12.57635824402207
 20
300.6633064302785
 30
0.0
 41
2.0
 42
2.0
 43
2.0
 50
270.0
  0
MTEXT
  5
3F37
330
3F30
100
AcDbEntity
  8
寸法
 62
     0
370
     0
100
AcDbMText
 10
5.076358244022074
 20
303.7448256232715
 30
0.0
 40
5.0
 41
0.0
 46
0.0
 71
     5
 72
     1
  1
\A1;5
  7
ＭＳ ゴシック
 11
0.0
 21
1.0
 31
0.0
 73
     1
 44
1.0
  0
POINT
  5
3F38
330
3F30
100
AcDbEntity
  8
Defpoints
 62
     0
100
AcDbPoint
 10
30.30469522881698
 20
305.7448256232715
 30
0.0
  0
POINT
  5
3F39
330
3F30
100
AcDbEntity
  8
Defpoints
 62
     0
100
AcDbPoint
 10
30.30469522881698
 20
300.6633064302785
 30
0.0
  0
POINT
  5
3F3A
330
3F30
100
AcDbEntity
  8
Defpoints
 62
     0
100
AcDbPoint
 10
12.57635824402207
 20
300.6633064302785
 30
0.0
  0
ENDBLK
  5
3F3B
330
3F30
100
AcDbEntity
  8
0
100
AcDbBlockEnd
  0
BLOCK
  5
3F40
330
3F3F
100
AcDbEntity
  8
0
100
AcDbBlockBegin
  2
*D56
 70
     1
 10
0.0
 20
0.0
 30
0.0
  3
*D56
  1
*D16
  0
LINE
  5
3F41
330
3F3F
100
AcDbEntity
  8
寸法
 62
     0
370
    -2
100
AcDbLine
 10
60.49352748615378
 20
238.8582526524456
 30
0.0
 11
127.1795849205755
 21
238.8582526524456
 31
0.0
  0
LINE
  5
3F42
330
3F3F
100
AcDbEntity
  8
寸法
 62
     0
370
    -2
100
AcDbLine
 10
85.25861271926267
 20
305.7448256232715
 30
0.0
 11
127.1795849205755
 21
305.7448256232715
 31
0.0
  0
LINE
  5
3F43
330
3F3F
100
AcDbEntity
  8
寸法
 62
     0
370
    -2
100
AcDbLine
 10
127.1795849205755
 20
240.8582526524456
 30
0.0
 11
127.1795849205755
 21
303.7448256232715
 31
0.0
  0
INSERT
  5
3F44
330
3F3F
100
AcDbEntity
  8
寸法
 62
     0
370
    -2
100
AcDbBlockReference
  2
_DOT
 10
127.1795849205755
 20
238.8582526524456
 30
0.0
 41
2.0
 42
2.0
 43
2.0
 50
270.0
  0
INSERT
  5
3F45
330
3F3F
100
AcDbEntity
  8
寸法
 62
     0
370
    -2
100
AcDbBlockReference
  2
_DOT
 10
127.1795849205755
 20
305.7448256232715
 30
0.0
 41
2.0
 42
2.0
 43
2.0
 50
90.0
  0
MTEXT
  5
3F46
330
3F3F
100
AcDbEntity
  8
寸法
 62
     0
370
     0
100
AcDbMText
 10
119.6795849205755
 20
272.3015391378586
 30
0.0
 40
5.0
 41
0.0
 46
0.0
 71
     5
 72
     1
  1
\A1;67
  7
ＭＳ ゴシック
 11
0.0
 21
1.0
 31
0.0
 73
     1
 44
1.0
  0
POINT
  5
3F47
330
3F3F
100
AcDbEntity
  8
Defpoints
 62
     0
100
AcDbPoint
 10
55.49352748615378
 20
238.8582526524456
 30
0.0
  0
POINT
  5
3F48
330
3F3F
100
AcDbEntity
  8
Defpoints
 62
     0
100
AcDbPoint
 10
80.25861271926267
 20
305.7448256232715
 30
0.0
  0
POINT
  5
3F49
330
3F3F
100
AcDbEntity
  8
Defpoints
 62
     0
100
AcDbPoint
 10
127.1795849205755
 20
305.7448256232715
 30
0.0
  0
ENDBLK
  5
3F4A
330
3F3F
100
AcDbEntity
  8
0
100
AcDbBlockEnd
  0
BLOCK
  5
3F4F
330
3F4E
100
AcDbEntity
  8
0
100
AcDbBlockBegin
  2
*D57
 70
     1
 10
0.0
 20
0.0
 30
0.0
  3
*D57
  1
*D17
  0
LINE
  5
3F50
330
3F4E
100
AcDbEntity
  8
寸法
 62
     0
370
    -2
100
AcDbLine
 10
60.49352748615378
 20
241.3972897000637
 30
0.0
 11
92.95180716492028
 21
241.3972897000637
 31
0.0
  0
LINE
  5
3F51
330
3F4E
100
AcDbEntity
  8
寸法
 62
     0
370
    -2
100
AcDbLine
 10
60.49352748615378
 20
261.2927292522925
 30
0.0
 11
92.95180716492028
 21
261.2927292522925
 31
0.0
  0
LINE
  5
3F52
330
3F4E
100
AcDbEntity
  8
寸法
 62
     0
370
    -2
100
AcDbLine
 10
92.95180716492028
 20
243.3972897000637
 30
0.0
 11
92.95180716492028
 21
259.2927292522925
 31
0.0
  0
INSERT
  5
3F53
330
3F4E
100
AcDbEntity
  8
寸法
 62
     0
370
    -2
100
AcDbBlockReference
  2
_DOT
 10
92.95180716492028
 20
241.3972897000637
 30
0.0
 41
2.0
 42
2.0
 43
2.0
 50
270.0
  0
INSERT
  5
3F54
330
3F4E
100
AcDbEntity
  8
寸法
 62
     0
370
    -2
100
AcDbBlockReference
  2
_DOT
 10
92.95180716492028
 20
261.2927292522925
 30
0.0
 41
2.0
 42
2.0
 43
2.0
 50
90.0
  0
MTEXT
  5
3F55
330
3F4E
100
AcDbEntity
  8
寸法
 62
     0
370
     0
100
AcDbMText
 10
85.45180716492028
 20
251.3450094761781
 30
0.0
 40
5.0
 41
0.0
 46
0.0
 71
     5
 72
     1
  1
\A1;20
  7
ＭＳ ゴシック
 11
0.0
 21
1.0
 31
0.0
 73
     1
 44
1.0
  0
POINT
  5
3F56
330
3F4E
100
AcDbEntity
  8
Defpoints
 62
     0
100
AcDbPoint
 10
55.49352748615378
 20
241.3972897000637
 30
0.0
  0
POINT
  5
3F57
330
3F4E
100
AcDbEntity
  8
Defpoints
 62
     0
100
AcDbPoint
 10
55.49352748615378
 20
261.2927292522925
 30
0.0
  0
POINT
  5
3F58
330
3F4E
100
AcDbEntity
  8
Defpoints
 62
     0
100
AcDbPoint
 10
92.95180716492028
 20
261.2927292522925
 30
0.0
  0
ENDBLK
  5
3F59
330
3F4E
100
AcDbEntity
  8
0
100
AcDbBlockEnd
  0
BLOCK
  5
3F5C
330
3F5B
100
AcDbEntity
  8
0
100
AcDbBlockBegin
  2
*D58
 70
     1
 10
0.0
 20
0.0
 30
0.0
  3
*D58
  1
*D18
  0
LINE
  5
3F5D
330
3F5B
100
AcDbEntity
  8
寸法
 62
     0
370
    -2
100
AcDbLine
 10
42.96946950420049
 20
245.7820979901462
 30
0.0
 11
42.96946950420049
 21
224.5762255045013
 31
0.0
  0
LINE
  5
3F5E
330
3F5B
100
AcDbEntity
  8
寸法
 62
     0
370
    -2
100
AcDbLine
 10
67.96946950420049
 20
245.7820979901462
 30
0.0
 11
67.96946950420049
 21
224.5762255045013
 31
0.0
  0
LINE
  5
3F5F
330
3F5B
100
AcDbEntity
  8
寸法
 62
     0
370
    -2
100
AcDbLine
 10
44.96946950420049
 20
224.5762255045013
 30
0.0
 11
65.96946950420049
 21
224.5762255045013
 31
0.0
  0
INSERT
  5
3F60
330
3F5B
100
AcDbEntity
  8
寸法
 62
     0
370
    -2
100
AcDbBlockReference
  2
_DOT
 10
42.96946950420049
 20
224.5762255045013
 30
0.0
 41
2.0
 42
2.0
 43
2.0
 50
180.0
  0
INSERT
  5
3F61
330
3F5B
100
AcDbEntity
  8
寸法
 62
     0
370
    -2
100
AcDbBlockReference
  2
_DOT
 10
67.96946950420049
 20
224.5762255045013
 30
0.0
 41
2.0
 42
2.0
 43
2.0
  0
MTEXT
  5
3F62
330
3F5B
100
AcDbEntity
  8
寸法
 62
     0
370
     0
100
AcDbMText
 10
55.46946950420049
 20
232.0762255045013
 30
0.0
 40
5.0
 41
0.0
 46
0.0
 71
     5
 72
     1
  1
\A1;25
  7
ＭＳ ゴシック
 73
     1
 44
1.0
  0
POINT
  5
3F63
330
3F5B
100
AcDbEntity
  8
Defpoints
 62
     0
100
AcDbPoint
 10
42.96946950420049
 20
250.7820979901462
 30
0.0
  0
POINT
  5
3F64
330
3F5B
100
AcDbEntity
  8
Defpoints
 62
     0
100
AcDbPoint
 10
67.96946950420049
 20
250.7820979901462
 30
0.0
  0
POINT
  5
3F65
330
3F5B
100
AcDbEntity
  8
Defpoints
 62
     0
100
AcDbPoint
 10
67.96946950420049
 20
224.5762255045013
 30
0.0
  0
ENDBLK
  5
3F66
330
3F5B
100
AcDbEntity
  8
0
100
AcDbBlockEnd
  0
BLOCK
  5
3F69
330
3F68
100
AcDbEntity
  8
0
100
AcDbBlockBegin
  2
*D59
 70
     1
 10
0.0
 20
0.0
 30
0.0
  3
*D59
  1
*D19
  0
LINE
  5
3F6A
330
3F68
100
AcDbEntity
  8
寸法
 62
     0
370
    -2
100
AcDbLine
 10
36.13826435184457
 20
111.6863999992765
 30
0.0
 11
9.99999999999999
 21
111.6863999992765
 31
0.0
  0
LINE
  5
3F6B
330
3F68
100
AcDbEntity
  8
寸法
 62
     0
370
    -2
100
AcDbLine
 10
36.13826435184457
 20
61.68639999927653
 30
0.0
 11
9.999999999999986
 21
61.68639999927653
 31
0.0
  0
LINE
  5
3F6C
330
3F68
100
AcDbEntity
  8
寸法
 62
     0
370
    -2
100
AcDbLine
 10
9.99999999999999
 20
109.6863999992765
 30
0.0
 11
9.999999999999986
 21
63.68639999927653
 31
0.0
  0
INSERT
  5
3F6D
330
3F68
100
AcDbEntity
  8
寸法
 62
     0
370
    -2
100
AcDbBlockReference
  2
_DOT
 10
9.99999999999999
 20
111.6863999992765
 30
0.0
 41
2.0
 42
2.0
 43
2.0
 50
90.0
  0
INSERT
  5
3F6E
330
3F68
100
AcDbEntity
  8
寸法
 62
     0
370
    -2
100
AcDbBlockReference
  2
_DOT
 10
9.999999999999986
 20
61.68639999927653
 30
0.0
 41
2.0
 42
2.0
 43
2.0
 50
270.0
  0
MTEXT
  5
3F6F
330
3F68
100
AcDbEntity
  8
寸法
 62
     0
370
     0
100
AcDbMText
 10
2.499999999999988
 20
86.68639999927655
 30
0.0
 40
5.0
 41
0.0
 46
0.0
 71
     5
 72
     1
  1
\A1;50
  7
ＭＳ ゴシック
 11
7.105427357601000E-17
 21
1.0
 31
0.0
 73
     1
 44
1.0
  0
POINT
  5
3F70
330
3F68
100
AcDbEntity
  8
Defpoints
 62
     0
100
AcDbPoint
 10
41.13826435184457
 20
111.6863999992765
 30
0.0
  0
POINT
  5
3F71
330
3F68
100
AcDbEntity
  8
Defpoints
 62
     0
100
AcDbPoint
 10
41.13826435184457
 20
61.68639999927653
 30
0.0
  0
POINT
  5
3F72
330
3F68
100
AcDbEntity
  8
Defpoints
 62
     0
100
AcDbPoint
 10
9.999999999999986
 20
61.68639999927653
 30
0.0
  0
ENDBLK
  5
3F73
330
3F68
100
AcDbEntity
  8
0
100
AcDbBlockEnd
  0
BLOCK
  5
3F76
330
3F75
100
AcDbEntity
  8
0
100
AcDbBlockBegin
  2
*D60
 70
     1
 10
0.0
 20
0.0
 30
0.0
  3
*D60
  1
*D20
  0
LINE
  5
3F77
330
3F75
100
AcDbEntity
  8
寸法
 62
     0
370
    -2
100
AcDbLine
 10
70.44124726226819
 20
149.3619890803454
 30
0.0
 11
105.2355714644838
 21
149.3619890803454
 31
0.0
  0
LINE
  5
3F78
330
3F75
100
AcDbEntity
  8
寸法
 62
     0
370
    -2
100
AcDbLine
 10
70.44124726226819
 20
24.48064045199222
 30
0.0
 11
105.2355714644838
 21
24.48064045199221
 31
0.0
  0
LINE
  5
3F79
330
3F75
100
AcDbEntity
  8
寸法
 62
     0
370
    -2
100
AcDbLine
 10
105.2355714644838
 20
147.3619890803454
 30
0.0
 11
105.2355714644838
 21
26.48064045199221
 31
0.0
  0
INSERT
  5
3F7A
330
3F75
100
AcDbEntity
  8
寸法
 62
     0
370
    -2
100
AcDbBlockReference
  2
_DOT
 10
105.2355714644838
 20
149.3619890803454
 30
0.0
 41
2.0
 42
2.0
 43
2.0
 50
90.0
  0
INSERT
  5
3F7B
330
3F75
100
AcDbEntity
  8
寸法
 62
     0
370
    -2
100
AcDbBlockReference
  2
_DOT
 10
105.2355714644838
 20
24.48064045199221
 30
0.0
 41
2.0
 42
2.0
 43
2.0
 50
270.0
  0
MTEXT
  5
3F7C
330
3F75
100
AcDbEntity
  8
寸法
 62
     0
370
     0
100
AcDbMText
 10
97.7355714644838
 20
86.92131476616882
 30
0.0
 40
5.0
 41
0.0
 46
0.0
 71
     5
 72
     1
  1
\A1;125
  7
ＭＳ ゴシック
 11
1.137948530448169E-16
 21
1.0
 31
0.0
 73
     1
 44
1.0
  0
POINT
  5
3F7D
330
3F75
100
AcDbEntity
  8
Defpoints
 62
     0
100
AcDbPoint
 10
65.44124726226819
 20
149.3619890803454
 30
0.0
  0
POINT
  5
3F7E
330
3F75
100
AcDbEntity
  8
Defpoints
 62
     0
100
AcDbPoint
 10
65.44124726226819
 20
24.48064045199222
 30
0.0
  0
POINT
  5
3F7F
330
3F75
100
AcDbEntity
  8
Defpoints
 62
     0
100
AcDbPoint
 10
105.2355714644838
 20
24.48064045199221
 30
0.0
  0
ENDBLK
  5
3F80
330
3F75
100
AcDbEntity
  8
0
100
AcDbBlockEnd
  0
BLOCK
  5
3F83
330
3F82
100
AcDbEntity
  8
0
100
AcDbBlockBegin
  2
*D61
 70
     1
 10
0.0
 20
0.0
 30
0.0
  3
*D61
  1
*D21
  0
LINE
  5
3F84
330
3F82
100
AcDbEntity
  8
寸法
 62
     0
370
    -2
100
AcDbLine
 10
36.49352748615429
 20
81.92303731504794
 30
0.0
 11
36.49352748615429
 21
0.5
 31
0.0
  0
LINE
  5
3F85
330
3F82
100
AcDbEntity
  8
寸法
 62
     0
370
    -2
100
AcDbLine
 10
74.49352748615429
 20
81.92303731504794
 30
0.0
 11
74.49352748615429
 21
0.5
 31
0.0
  0
LINE
  5
3F86
330
3F82
100
AcDbEntity
  8
寸法
 62
     0
370
    -2
100
AcDbLine
 10
38.49352748615429
 20
0.5
 30
0.0
 11
72.49352748615429
 21
0.5
 31
0.0
  0
INSERT
  5
3F87
330
3F82
100
AcDbEntity
  8
寸法
 62
     0
370
    -2
100
AcDbBlockReference
  2
_DOT
 10
36.49352748615429
 20
0.5
 30
0.0
 41
2.0
 42
2.0
 43
2.0
 50
180.0
  0
INSERT
  5
3F88
330
3F82
100
AcDbEntity
  8
寸法
 62
     0
370
    -2
100
AcDbBlockReference
  2
_DOT
 10
74.49352748615429
 20
0.5
 30
0.0
 41
2.0
 42
2.0
 43
2.0
  0
MTEXT
  5
3F89
330
3F82
100
AcDbEntity
  8
寸法
 62
     0
370
     0
100
AcDbMText
 10
55.49352748615429
 20
8.0
 30
0.0
 40
5.0
 41
0.0
 46
0.0
 71
     5
 72
     1
  1
\A1;38
  7
ＭＳ ゴシック
 73
     1
 44
1.0
  0
POINT
  5
3F8A
330
3F82
100
AcDbEntity
  8
Defpoints
 62
     0
100
AcDbPoint
 10
36.49352748615429
 20
86.92303731504794
 30
0.0
  0
POINT
  5
3F8B
330
3F82
100
AcDbEntity
  8
Defpoints
 62
     0
100
AcDbPoint
 10
74.49352748615429
 20
86.92303731504794
 30
0.0
  0
POINT
  5
3F8C
330
3F82
100
AcDbEntity
  8
Defpoints
 62
     0
100
AcDbPoint
 10
74.49352748615429
 20
0.5
 30
0.0
  0
ENDBLK
  5
3F8D
330
3F82
100
AcDbEntity
  8
0
100
AcDbBlockEnd
  0
BLOCK
  5
4002
330
4001
100
AcDbEntity
  8
0
100
AcDbBlockBegin
  2
*D62
 70
     1
 10
0.0
 20
0.0
 30
0.0
  3
*D62
  1
*D23
  0
LINE
  5
4003
330
4001
100
AcDbEntity
  8
寸法
 62
     0
370
    -2
100
AcDbLine
 10
50.49352748615378
 20
238.8582526524456
 30
0.0
 11
12.57635824402207
 21
238.8582526524456
 31
0.0
  0
LINE
  5
4004
330
4001
100
AcDbEntity
  8
寸法
 62
     0
370
    -2
100
AcDbLine
 10
25.30469522881698
 20
300.6633064302785
 30
0.0
 11
12.57635824402207
 21
300.6633064302785
 31
0.0
  0
LINE
  5
4005
330
4001
100
AcDbEntity
  8
寸法
 62
     0
370
    -2
100
AcDbLine
 10
12.57635824402207
 20
240.8582526524456
 30
0.0
 11
12.57635824402207
 21
298.6633064302785
 31
0.0
  0
INSERT
  5
4006
330
4001
100
AcDbEntity
  8
寸法
 62
     0
370
    -2
100
AcDbBlockReference
  2
_DOT
 10
12.57635824402207
 20
238.8582526524456
 30
0.0
 41
2.0
 42
2.0
 43
2.0
 50
270.0
  0
INSERT
  5
4007
330
4001
100
AcDbEntity
  8
寸法
 62
     0
370
    -2
100
AcDbBlockReference
  2
_DOT
 10
12.57635824402207
 20
300.6633064302785
 30
0.0
 41
2.0
 42
2.0
 43
2.0
 50
90.0
  0
MTEXT
  5
4008
330
4001
100
AcDbEntity
  8
寸法
 62
     0
100
AcDbMText
 10
5.076358244022073
 20
269.7607795413621
 30
0.0
 40
5.0
 41
0.0
 46
0.0
 71
     5
 72
     1
  1
\A1;62
  7
ＭＳ ゴシック
 11
5.748257564132602E-17
 21
1.0
 31
0.0
 73
     1
 44
1.0
  0
POINT
  5
4009
330
4001
100
AcDbEntity
  8
Defpoints
 62
     0
100
AcDbPoint
 10
55.49352748615378
 20
238.8582526524456
 30
0.0
  0
POINT
  5
400A
330
4001
100
AcDbEntity
  8
Defpoints
 62
     0
100
AcDbPoint
 10
30.30469522881698
 20
300.6633064302785
 30
0.0
  0
POINT
  5
400B
330
4001
100
AcDbEntity
  8
Defpoints
 62
     0
100
AcDbPoint
 10
12.57635824402207
 20
300.6633064302785
 30
0.0
  0
ENDBLK
  5
400C
330
4001
100
AcDbEntity
  8
0
100
AcDbBlockEnd
  0
BLOCK
  5
4128
330
4127
100
AcDbEntity
  8
0
100
AcDbBlockBegin
  2
*D63
 70
     1
 10
0.0
 20
0.0
 30
0.0
  3
*D63
  1
*D64
  0
LINE
  5
412A
330
4127
100
AcDbEntity
  8
寸法
 62
     0
370
    -2
100
AcDbLine
 10
140.9944367256651
 20
360.9892370713511
 30
0.0
 11
128.2660997408702
 21
360.9892370713511
 31
0.0
  0
LINE
  5
412B
330
4127
100
AcDbEntity
  8
寸法
 62
     0
370
    -2
100
AcDbLine
 10
140.9944367256651
 20
355.9077178783579
 30
0.0
 11
128.2660997408702
 21
355.9077178783579
 31
0.0
  0
LINE
  5
412C
330
4127
100
AcDbEntity
  8
寸法
 62
     0
370
    -2
100
AcDbLine
 10
128.2660997408702
 20
358.9892370713511
 30
0.0
 11
128.2660997408702
 21
357.9077178783579
 31
0.0
  0
INSERT
  5
412D
330
4127
100
AcDbEntity
  8
寸法
 62
     0
370
    -2
100
AcDbBlockReference
  2
_DOT
 10
128.2660997408702
 20
360.9892370713511
 30
0.0
 41
2.0
 42
2.0
 43
2.0
 50
90.0
  0
INSERT
  5
412E
330
4127
100
AcDbEntity
  8
寸法
 62
     0
370
    -2
100
AcDbBlockReference
  2
_DOT
 10
128.2660997408702
 20
355.9077178783579
 30
0.0
 41
2.0
 42
2.0
 43
2.0
 50
270.0
  0
MTEXT
  5
412F
330
4127
100
AcDbEntity
  8
寸法
 62
     0
100
AcDbMText
 10
120.7660997408702
 20
358.9892370713511
 30
0.0
 40
5.0
 41
0.0
 46
0.0
 71
     5
 72
     1
  1
\A1;5
  7
ＭＳ ゴシック
 11
0.0
 21
1.0
 31
0.0
 73
     1
 44
1.0
  0
POINT
  5
4130
330
4127
100
AcDbEntity
  8
Defpoints
 62
     0
100
AcDbPoint
 10
145.9944367256651
 20
360.9892370713511
 30
0.0
  0
POINT
  5
4131
330
4127
100
AcDbEntity
  8
Defpoints
 62
     0
100
AcDbPoint
 10
145.9944367256651
 20
355.9077178783579
 30
0.0
  0
POINT
  5
4132
330
4127
100
AcDbEntity
  8
Defpoints
 62
     0
100
AcDbPoint
 10
128.2660997408702
 20
355.9077178783579
 30
0.0
  0
ENDBLK
  5
4129
330
4127
100
AcDbEntity
  8
0
100
AcDbBlockEnd
  0
BLOCK
  5
4134
330
4133
100
AcDbEntity
  8
0
100
AcDbBlockBegin
  2
*D64
 70
     1
 10
0.0
 20
0.0
 30
0.0
  3
*D64
  1
*D65
  0
LINE
  5
4136
330
4133
100
AcDbEntity
  8
寸法
 62
     0
370
    -2
100
AcDbLine
 10
176.1832689830019
 20
296.6417011481431
 30
0.0
 11
242.8693264174237
 21
296.6417011481431
 31
0.0
  0
LINE
  5
4137
330
4133
100
AcDbEntity
  8
寸法
 62
     0
370
    -2
100
AcDbLine
 10
200.9483542161109
 20
360.9892370713511
 30
0.0
 11
242.8693264174237
 21
360.9892370713511
 31
0.0
  0
LINE
  5
4138
330
4133
100
AcDbEntity
  8
寸法
 62
     0
370
    -2
100
AcDbLine
 10
242.8693264174237
 20
298.6417011481431
 30
0.0
 11
242.8693264174237
 21
358.9892370713511
 31
0.0
  0
INSERT
  5
4139
330
4133
100
AcDbEntity
  8
寸法
 62
     0
370
    -2
100
AcDbBlockReference
  2
_DOT
 10
242.8693264174237
 20
296.6417011481431
 30
0.0
 41
2.0
 42
2.0
 43
2.0
 50
270.0
  0
INSERT
  5
413A
330
4133
100
AcDbEntity
  8
寸法
 62
     0
370
    -2
100
AcDbBlockReference
  2
_DOT
 10
242.8693264174237
 20
360.9892370713511
 30
0.0
 41
2.0
 42
2.0
 43
2.0
 50
90.0
  0
MTEXT
  5
413B
330
4133
100
AcDbEntity
  8
寸法
 62
     0
100
AcDbMText
 10
235.3693264174237
 20
328.8154691097471
 30
0.0
 40
5.0
 41
0.0
 46
0.0
 71
     5
 72
     1
  1
\A1;64.5
  7
ＭＳ ゴシック
 11
0.0
 21
1.0
 31
0.0
 73
     1
 44
1.0
  0
POINT
  5
413C
330
4133
100
AcDbEntity
  8
Defpoints
 62
     0
100
AcDbPoint
 10
171.1832689830019
 20
296.6417011481431
 30
0.0
  0
POINT
  5
413D
330
4133
100
AcDbEntity
  8
Defpoints
 62
     0
100
AcDbPoint
 10
195.9483542161109
 20
360.9892370713511
 30
0.0
  0
POINT
  5
413E
330
4133
100
AcDbEntity
  8
Defpoints
 62
     0
100
AcDbPoint
 10
242.8693264174237
 20
360.9892370713511
 30
0.0
  0
ENDBLK
  5
4135
330
4133
100
AcDbEntity
  8
0
100
AcDbBlockEnd
  0
BLOCK
  5
4140
330
413F
100
AcDbEntity
  8
0
100
AcDbBlockBegin
  2
*D65
 70
     1
 10
0.0
 20
0.0
 30
0.0
  3
*D65
  1
*D66
  0
LINE
  5
4142
330
413F
100
AcDbEntity
  8
寸法
 62
     0
370
    -2
100
AcDbLine
 10
176.1832689830019
 20
296.6417011481431
 30
0.0
 11
208.6415486617686
 21
296.6417011481431
 31
0.0
  0
LINE
  5
4143
330
413F
100
AcDbEntity
  8
寸法
 62
     0
370
    -2
100
AcDbLine
 10
176.1832689830019
 20
316.5371407003721
 30
0.0
 11
208.6415486617686
 21
316.5371407003721
 31
0.0
  0
LINE
  5
4144
330
413F
100
AcDbEntity
  8
寸法
 62
     0
370
    -2
100
AcDbLine
 10
208.6415486617686
 20
298.6417011481431
 30
0.0
 11
208.6415486617686
 21
314.5371407003721
 31
0.0
  0
INSERT
  5
4145
330
413F
100
AcDbEntity
  8
寸法
 62
     0
370
    -2
100
AcDbBlockReference
  2
_DOT
 10
208.6415486617686
 20
296.6417011481431
 30
0.0
 41
2.0
 42
2.0
 43
2.0
 50
270.0
  0
INSERT
  5
4146
330
413F
100
AcDbEntity
  8
寸法
 62
     0
370
    -2
100
AcDbBlockReference
  2
_DOT
 10
208.6415486617686
 20
316.5371407003721
 30
0.0
 41
2.0
 42
2.0
 43
2.0
 50
90.0
  0
MTEXT
  5
4147
330
413F
100
AcDbEntity
  8
寸法
 62
     0
100
AcDbMText
 10
201.1415486617686
 20
306.5894209242576
 30
0.0
 40
5.0
 41
0.0
 46
0.0
 71
     5
 72
     1
  1
\A1;20
  7
ＭＳ ゴシック
 11
0.0
 21
1.0
 31
0.0
 73
     1
 44
1.0
  0
POINT
  5
4148
330
413F
100
AcDbEntity
  8
Defpoints
 62
     0
100
AcDbPoint
 10
171.1832689830019
 20
296.6417011481431
 30
0.0
  0
POINT
  5
4149
330
413F
100
AcDbEntity
  8
Defpoints
 62
     0
100
AcDbPoint
 10
171.1832689830019
 20
316.5371407003721
 30
0.0
  0
POINT
  5
414A
330
413F
100
AcDbEntity
  8
Defpoints
 62
     0
100
AcDbPoint
 10
208.6415486617686
 20
316.5371407003721
 30
0.0
  0
ENDBLK
  5
4141
330
413F
100
AcDbEntity
  8
0
100
AcDbBlockEnd
  0
BLOCK
  5
414C
330
414B
100
AcDbEntity
  8
0
100
AcDbBlockBegin
  2
*D66
 70
     1
 10
0.0
 20
0.0
 30
0.0
  3
*D66
  1
*D67
  0
LINE
  5
414E
330
414B
100
AcDbEntity
  8
寸法
 62
     0
370
    -2
100
AcDbLine
 10
158.6592110010487
 20
301.0265094382256
 30
0.0
 11
158.6592110010487
 21
279.8206369525809
 31
0.0
  0
LINE
  5
414F
330
414B
100
AcDbEntity
  8
寸法
 62
     0
370
    -2
100
AcDbLine
 10
183.6592110010487
 20
301.0265094382256
 30
0.0
 11
183.6592110010487
 21
279.8206369525809
 31
0.0
  0
LINE
  5
4150
330
414B
100
AcDbEntity
  8
寸法
 62
     0
370
    -2
100
AcDbLine
 10
160.6592110010487
 20
279.8206369525809
 30
0.0
 11
181.6592110010487
 21
279.8206369525809
 31
0.0
  0
INSERT
  5
4151
330
414B
100
AcDbEntity
  8
寸法
 62
     0
370
    -2
100
AcDbBlockReference
  2
_DOT
 10
158.6592110010487
 20
279.8206369525809
 30
0.0
 41
2.0
 42
2.0
 43
2.0
 50
180.0
  0
INSERT
  5
4152
330
414B
100
AcDbEntity
  8
寸法
 62
     0
370
    -2
100
AcDbBlockReference
  2
_DOT
 10
183.6592110010487
 20
279.8206369525809
 30
0.0
 41
2.0
 42
2.0
 43
2.0
  0
MTEXT
  5
4153
330
414B
100
AcDbEntity
  8
寸法
 62
     0
100
AcDbMText
 10
171.1592110010487
 20
287.3206369525809
 30
0.0
 40
5.0
 41
0.0
 46
0.0
 71
     5
 72
     1
  1
\A1;25
  7
ＭＳ ゴシック
 73
     1
 44
1.0
  0
POINT
  5
4154
330
414B
100
AcDbEntity
  8
Defpoints
 62
     0
100
AcDbPoint
 10
158.6592110010487
 20
306.0265094382256
 30
0.0
  0
POINT
  5
4155
330
414B
100
AcDbEntity
  8
Defpoints
 62
     0
100
AcDbPoint
 10
183.6592110010487
 20
306.0265094382256
 30
0.0
  0
POINT
  5
4156
330
414B
100
AcDbEntity
  8
Defpoints
 62
     0
100
AcDbPoint
 10
183.6592110010487
 20
279.8206369525809
 30
0.0
  0
ENDBLK
  5
414D
330
414B
100
AcDbEntity
  8
0
100
AcDbBlockEnd
  0
BLOCK
  5
4158
330
4157
100
AcDbEntity
  8
0
100
AcDbBlockBegin
  2
*D67
 70
     1
 10
0.0
 20
0.0
 30
0.0
  3
*D67
  1
*D68
  0
LINE
  5
415A
330
4157
100
AcDbEntity
  8
寸法
 62
     0
370
    -2
100
AcDbLine
 10
390.9746693298223
 20
201.4850232912834
 30
0.0
 11
364.8364049779778
 21
201.4850232912834
 31
0.0
  0
LINE
  5
415B
330
4157
100
AcDbEntity
  8
寸法
 62
     0
370
    -2
100
AcDbLine
 10
390.9746693298223
 20
151.4850232912834
 30
0.0
 11
364.8364049779778
 21
151.4850232912834
 31
0.0
  0
LINE
  5
415C
330
4157
100
AcDbEntity
  8
寸法
 62
     0
370
    -2
100
AcDbLine
 10
364.8364049779778
 20
199.4850232912834
 30
0.0
 11
364.8364049779778
 21
153.4850232912834
 31
0.0
  0
INSERT
  5
415D
330
4157
100
AcDbEntity
  8
寸法
 62
     0
370
    -2
100
AcDbBlockReference
  2
_DOT
 10
364.8364049779778
 20
201.4850232912834
 30
0.0
 41
2.0
 42
2.0
 43
2.0
 50
90.0
  0
INSERT
  5
415E
330
4157
100
AcDbEntity
  8
寸法
 62
     0
370
    -2
100
AcDbBlockReference
  2
_DOT
 10
364.8364049779778
 20
151.4850232912834
 30
0.0
 41
2.0
 42
2.0
 43
2.0
 50
270.0
  0
MTEXT
  5
415F
330
4157
100
AcDbEntity
  8
寸法
 62
     0
100
AcDbMText
 10
357.3364049779778
 20
176.4850232912834
 30
0.0
 40
5.0
 41
0.0
 46
0.0
 71
     5
 72
     1
  1
\A1;50
  7
ＭＳ ゴシック
 11
0.0
 21
1.0
 31
0.0
 73
     1
 44
1.0
  0
POINT
  5
4160
330
4157
100
AcDbEntity
  8
Defpoints
 62
     0
100
AcDbPoint
 10
395.9746693298223
 20
201.4850232912834
 30
0.0
  0
POINT
  5
4161
330
4157
100
AcDbEntity
  8
Defpoints
 62
     0
100
AcDbPoint
 10
395.9746693298223
 20
151.4850232912834
 30
0.0
  0
POINT
  5
4162
330
4157
100
AcDbEntity
  8
Defpoints
 62
     0
100
AcDbPoint
 10
364.8364049779778
 20
151.4850232912834
 30
0.0
  0
ENDBLK
  5
4159
330
4157
100
AcDbEntity
  8
0
100
AcDbBlockEnd
  0
BLOCK
  5
4164
330
4163
100
AcDbEntity
  8
0
100
AcDbBlockBegin
  2
*D68
 70
     1
 10
0.0
 20
0.0
 30
0.0
  3
*D68
  1
*D69
  0
LINE
  5
4166
330
4163
100
AcDbEntity
  8
寸法
 62
     0
370
    -2
100
AcDbLine
 10
425.277652240246
 20
239.1606123723522
 30
0.0
 11
460.0719764424615
 21
239.1606123723522
 31
0.0
  0
LINE
  5
4167
330
4163
100
AcDbEntity
  8
寸法
 62
     0
370
    -2
100
AcDbLine
 10
425.277652240246
 20
114.279263743999
 30
0.0
 11
460.0719764424615
 21
114.279263743999
 31
0.0
  0
LINE
  5
4168
330
4163
100
AcDbEntity
  8
寸法
 62
     0
370
    -2
100
AcDbLine
 10
460.0719764424615
 20
237.1606123723522
 30
0.0
 11
460.0719764424615
 21
116.279263743999
 31
0.0
  0
INSERT
  5
4169
330
4163
100
AcDbEntity
  8
寸法
 62
     0
370
    -2
100
AcDbBlockReference
  2
_DOT
 10
460.0719764424615
 20
239.1606123723522
 30
0.0
 41
2.0
 42
2.0
 43
2.0
 50
90.0
  0
INSERT
  5
416A
330
4163
100
AcDbEntity
  8
寸法
 62
     0
370
    -2
100
AcDbBlockReference
  2
_DOT
 10
460.0719764424615
 20
114.279263743999
 30
0.0
 41
2.0
 42
2.0
 43
2.0
 50
270.0
  0
MTEXT
  5
416B
330
4163
100
AcDbEntity
  8
寸法
 62
     0
100
AcDbMText
 10
452.5719764424615
 20
176.7199380581756
 30
0.0
 40
5.0
 41
0.0
 46
0.0
 71
     5
 72
     1
  1
\A1;125
  7
ＭＳ ゴシック
 11
0.0
 21
1.0
 31
0.0
 73
     1
 44
1.0
  0
POINT
  5
416C
330
4163
100
AcDbEntity
  8
Defpoints
 62
     0
100
AcDbPoint
 10
420.277652240246
 20
239.1606123723522
 30
0.0
  0
POINT
  5
416D
330
4163
100
AcDbEntity
  8
Defpoints
 62
     0
100
AcDbPoint
 10
420.277652240246
 20
114.279263743999
 30
0.0
  0
POINT
  5
416E
330
4163
100
AcDbEntity
  8
Defpoints
 62
     0
100
AcDbPoint
 10
460.0719764424615
 20
114.279263743999
 30
0.0
  0
ENDBLK
  5
4165
330
4163
100
AcDbEntity
  8
0
100
AcDbBlockEnd
  0
BLOCK
  5
4170
330
416F
100
AcDbEntity
  8
0
100
AcDbBlockBegin
  2
*D69
 70
     1
 10
0.0
 20
0.0
 30
0.0
  3
*D69
  1
*D70
  0
LINE
  5
4172
330
416F
100
AcDbEntity
  8
寸法
 62
     0
370
    -2
100
AcDbLine
 10
192.2895542718684
 20
171.8280445800331
 30
0.0
 11
192.2895542718684
 21
90.40500726498506
 31
0.0
  0
LINE
  5
4173
330
416F
100
AcDbEntity
  8
寸法
 62
     0
370
    -2
100
AcDbLine
 10
230.2895542718684
 20
171.8280445800331
 30
0.0
 11
230.2895542718684
 21
90.40500726498506
 31
0.0
  0
LINE
  5
4174
330
416F
100
AcDbEntity
  8
寸法
 62
     0
370
    -2
100
AcDbLine
 10
194.2895542718684
 20
90.40500726498506
 30
0.0
 11
228.2895542718684
 21
90.40500726498506
 31
0.0
  0
INSERT
  5
4175
330
416F
100
AcDbEntity
  8
寸法
 62
     0
370
    -2
100
AcDbBlockReference
  2
_DOT
 10
192.2895542718684
 20
90.40500726498506
 30
0.0
 41
2.0
 42
2.0
 43
2.0
 50
180.0
  0
INSERT
  5
4176
330
416F
100
AcDbEntity
  8
寸法
 62
     0
370
    -2
100
AcDbBlockReference
  2
_DOT
 10
230.2895542718684
 20
90.40500726498506
 30
0.0
 41
2.0
 42
2.0
 43
2.0
  0
MTEXT
  5
4177
330
416F
100
AcDbEntity
  8
寸法
 62
     0
100
AcDbMText
 10
211.2895542718684
 20
97.90500726498506
 30
0.0
 40
5.0
 41
0.0
 46
0.0
 71
     5
 72
     1
  1
\A1;38
  7
ＭＳ ゴシック
 73
     1
 44
1.0
  0
POINT
  5
4178
330
416F
100
AcDbEntity
  8
Defpoints
 62
     0
100
AcDbPoint
 10
192.2895542718684
 20
176.8280445800331
 30
0.0
  0
POINT
  5
4179
330
416F
100
AcDbEntity
  8
Defpoints
 62
     0
100
AcDbPoint
 10
230.2895542718684
 20
176.8280445800331
 30
0.0
  0
POINT
  5
417A
330
416F
100
AcDbEntity
  8
Defpoints
 62
     0
100
AcDbPoint
 10
230.2895542718684
 20
90.40500726498506
 30
0.0
  0
ENDBLK
  5
4171
330
416F
100
AcDbEntity
  8
0
100
AcDbBlockEnd
  0
BLOCK
  5
417C
330
417B
100
AcDbEntity
  8
0
100
AcDbBlockBegin
  2
*D70
 70
     1
 10
0.0
 20
0.0
 30
0.0
  3
*D70
  1
*D71
  0
LINE
  5
417E
330
417B
100
AcDbEntity
  8
寸法
 62
     0
370
    -2
100
AcDbLine
 10
166.1832689830019
 20
294.1026641005252
 30
0.0
 11
128.2660997408702
 21
294.1026641005252
 31
0.0
  0
LINE
  5
417F
330
417B
100
AcDbEntity
  8
寸法
 62
     0
370
    -2
100
AcDbLine
 10
140.9944367256651
 20
355.9077178783579
 30
0.0
 11
128.2660997408702
 21
355.9077178783579
 31
0.0
  0
LINE
  5
4180
330
417B
100
AcDbEntity
  8
寸法
 62
     0
370
    -2
100
AcDbLine
 10
128.2660997408702
 20
296.1026641005252
 30
0.0
 11
128.2660997408702
 21
353.9077178783579
 31
0.0
  0
INSERT
  5
4181
330
417B
100
AcDbEntity
  8
寸法
 62
     0
370
    -2
100
AcDbBlockReference
  2
_DOT
 10
128.2660997408702
 20
294.1026641005252
 30
0.0
 41
2.0
 42
2.0
 43
2.0
 50
270.0
  0
INSERT
  5
4182
330
417B
100
AcDbEntity
  8
寸法
 62
     0
370
    -2
100
AcDbBlockReference
  2
_DOT
 10
128.2660997408702
 20
355.9077178783579
 30
0.0
 41
2.0
 42
2.0
 43
2.0
 50
90.0
  0
MTEXT
  5
4183
330
417B
100
AcDbEntity
  8
寸法
 62
     0
100
AcDbMText
 10
120.7660997408702
 20
325.0051909894415
 30
0.0
 40
5.0
 41
0.0
 46
0.0
 71
     5
 72
     1
  1
\A1;62
  7
ＭＳ ゴシック
 11
0.0
 21
1.0
 31
0.0
 73
     1
 44
1.0
  0
POINT
  5
4184
330
417B
100
AcDbEntity
  8
Defpoints
 62
     0
100
AcDbPoint
 10
171.1832689830019
 20
294.1026641005252
 30
0.0
  0
POINT
  5
4185
330
417B
100
AcDbEntity
  8
Defpoints
 62
     0
100
AcDbPoint
 10
145.9944367256651
 20
355.9077178783579
 30
0.0
  0
POINT
  5
4186
330
417B
100
AcDbEntity
  8
Defpoints
 62
     0
100
AcDbPoint
 10
128.2660997408702
 20
355.9077178783579
 30
0.0
  0
ENDBLK
  5
417D
330
417B
100
AcDbEntity
  8
0
100
AcDbBlockEnd
  0
BLOCK
  5
4197
330
4196
100
AcDbEntity
  8
0
100
AcDbBlockBegin
  2
*D71
 70
     1
 10
0.0
 20
0.0
 30
0.0
  3
*D71
  1
*D71
  0
LINE
  5
4199
330
4196
100
AcDbEntity
  8
寸法
 62
     0
370
    -2
100
AcDbLine
 10
140.9944367256651
 20
360.9892370713511
 30
0.0
 11
105.2100392825626
 21
360.9892370713511
 31
0.0
  0
LINE
  5
419A
330
4196
100
AcDbEntity
  8
寸法
 62
     0
370
    -2
100
AcDbLine
 10
166.1832689830019
 20
294.1026641005252
 30
0.0
 11
105.2100392825626
 21
294.1026641005252
 31
0.0
  0
LINE
  5
419B
330
4196
100
AcDbEntity
  8
寸法
 62
     0
370
    -2
100
AcDbLine
 10
105.2100392825626
 20
358.9892370713511
 30
0.0
 11
105.2100392825626
 21
296.1026641005252
 31
0.0
  0
INSERT
  5
419C
330
4196
100
AcDbEntity
  8
寸法
 62
     0
370
    -2
100
AcDbBlockReference
  2
_DOT
 10
105.2100392825626
 20
360.9892370713511
 30
0.0
 41
2.0
 42
2.0
 43
2.0
 50
90.0
  0
INSERT
  5
419D
330
4196
100
AcDbEntity
  8
寸法
 62
     0
370
    -2
100
AcDbBlockReference
  2
_DOT
 10
105.2100392825626
 20
294.1026641005252
 30
0.0
 41
2.0
 42
2.0
 43
2.0
 50
270.0
  0
MTEXT
  5
419E
330
4196
100
AcDbEntity
  8
寸法
 62
     0
100
AcDbMText
 10
97.71003928256265
 20
327.5459505859382
 30
0.0
 40
5.0
 41
0.0
 46
0.0
 71
     5
 72
     1
  1
\A1;67
  7
ＭＳ ゴシック
 11
0.0
 21
1.0
 31
0.0
 73
     1
 44
1.0
  0
POINT
  5
419F
330
4196
100
AcDbEntity
  8
Defpoints
 62
     0
100
AcDbPoint
 10
145.9944367256651
 20
360.9892370713511
 30
0.0
  0
POINT
  5
41A0
330
4196
100
AcDbEntity
  8
Defpoints
 62
     0
100
AcDbPoint
 10
171.1832689830019
 20
294.1026641005252
 30
0.0
  0
POINT
  5
41A1
330
4196
100
AcDbEntity
  8
Defpoints
 62
     0
100
AcDbPoint
 10
105.2100392825626
 20
294.1026641005252
 30
0.0
  0
ENDBLK
  5
4198
330
4196
100
AcDbEntity
  8
0
100
AcDbBlockEnd
  0
BLOCK
  5
41AC
330
41AB
100
AcDbEntity
  8
0
100
AcDbBlockBegin
  2
*D72
 70
     1
 10
0.0
 20
0.0
 30
0.0
  3
*D72
  1
*D72
  0
LINE
  5
41AE
330
41AB
100
AcDbEntity
  8
寸法
 62
     0
370
    -2
100
AcDbLine
 10
200.9483542161109
 20
360.9892370713511
 30
0.0
 11
208.6415486617686
 21
360.9892370713511
 31
0.0
  0
LINE
  5
41AF
330
41AB
100
AcDbEntity
  8
寸法
 62
     0
370
    -2
100
AcDbLine
 10
176.1832689830019
 20
316.5371407003721
 30
0.0
 11
208.6415486617686
 21
316.5371407003721
 31
0.0
  0
LINE
  5
41B0
330
41AB
100
AcDbEntity
  8
寸法
 62
     0
370
    -2
100
AcDbLine
 10
208.6415486617686
 20
358.9892370713511
 30
0.0
 11
208.6415486617686
 21
318.5371407003721
 31
0.0
  0
INSERT
  5
41B1
330
41AB
100
AcDbEntity
  8
寸法
 62
     0
370
    -2
100
AcDbBlockReference
  2
_DOT
 10
208.6415486617686
 20
360.9892370713511
 30
0.0
 41
2.0
 42
2.0
 43
2.0
 50
90.0
  0
INSERT
  5
41B2
330
41AB
100
AcDbEntity
  8
寸法
 62
     0
370
    -2
100
AcDbBlockReference
  2
_DOT
 10
208.6415486617686
 20
316.5371407003721
 30
0.0
 41
2.0
 42
2.0
 43
2.0
 50
270.0
  0
MTEXT
  5
41B3
330
41AB
100
AcDbEntity
  8
寸法
 62
     0
100
AcDbMText
 10
201.1415486617686
 20
338.7631888858616
 30
0.0
 40
5.0
 41
0.0
 46
0.0
 71
     5
 72
     1
  1
\A1;44.5
  7
ＭＳ ゴシック
 11
0.0
 21
1.0
 31
0.0
 73
     1
 44
1.0
  0
POINT
  5
41B4
330
41AB
100
AcDbEntity
  8
Defpoints
 62
     0
100
AcDbPoint
 10
195.9483542161109
 20
360.9892370713511
 30
0.0
  0
POINT
  5
41B5
330
41AB
100
AcDbEntity
  8
Defpoints
 62
     0
100
AcDbPoint
 10
171.1832689830019
 20
316.5371407003721
 30
0.0
  0
POINT
  5
41B6
330
41AB
100
AcDbEntity
  8
Defpoints
 62
     0
100
AcDbPoint
 10
208.6415486617686
 20
316.5371407003721
 30
0.0
  0
ENDBLK
  5
41AD
330
41AB
100
AcDbEntity
  8
0
100
AcDbBlockEnd
  0
BLOCK
  5
4231
330
4230
100
AcDbEntity
  8
0
100
AcDbBlockBegin
  2
*D73
 70
     1
 10
0.0
 20
0.0
 30
0.0
  3
*D73
  1
*D70
  0
LINE
  5
4232
330
4230
100
AcDbEntity
  8
寸法
 62
     0
370
    -2
100
AcDbLine
 10
0.5
 20
67.9786468293337
 30
0.0
 11
0.5
 21
0.5
 31
0.0
  0
LINE
  5
4233
330
4230
100
AcDbEntity
  8
寸法
 62
     0
370
    -2
100
AcDbLine
 10
38.5
 20
67.9786468293337
 30
0.0
 11
38.5
 21
0.5
 31
0.0
  0
LINE
  5
4234
330
4230
100
AcDbEntity
  8
寸法
 62
     0
370
    -2
100
AcDbLine
 10
2.5
 20
0.5
 30
0.0
 11
36.5
 21
0.5
 31
0.0
  0
INSERT
  5
4235
330
4230
100
AcDbEntity
  8
寸法
 62
     0
370
    -2
100
AcDbBlockReference
  2
_DOT
 10
0.5
 20
0.5
 30
0.0
 41
2.0
 42
2.0
 43
2.0
 50
180.0
  0
INSERT
  5
4236
330
4230
100
AcDbEntity
  8
寸法
 62
     0
370
    -2
100
AcDbBlockReference
  2
_DOT
 10
38.5
 20
0.5
 30
0.0
 41
2.0
 42
2.0
 43
2.0
  0
MTEXT
  5
4237
330
4230
100
AcDbEntity
  8
寸法
 62
     0
100
AcDbMText
 10
19.5
 20
8.0
 30
0.0
 40
5.0
 41
0.0
 46
0.0
 71
     5
 72
     1
  1
\A1;38
  7
ＭＳ ゴシック
 73
     1
 44
1.0
  0
POINT
  5
4238
330
4230
100
AcDbEntity
  8
Defpoints
 62
     0
100
AcDbPoint
 10
0.5
 20
72.9786468293337
 30
0.0
  0
POINT
  5
4239
330
4230
100
AcDbEntity
  8
Defpoints
 62
     0
100
AcDbPoint
 10
38.5
 20
72.9786468293337
 30
0.0
  0
POINT
  5
423A
330
4230
100
AcDbEntity
  8
Defpoints
 62
     0
100
AcDbPoint
 10
38.5
 20
0.5
 30
0.0
  0
ENDBLK
  5
423B
330
4230
100
AcDbEntity
  8
0
100
AcDbBlockEnd
  0
BLOCK
  5
4241
330
4240
100
AcDbEntity
  8
0
100
AcDbBlockBegin
  2
*D74
 70
     1
 10
0.0
 20
0.0
 30
0.0
  3
*D74
  1
*D75
  0
LINE
  5
4243
330
4240
100
AcDbEntity
  8
寸法
 62
     0
370
    -2
100
AcDbLine
 10
347.7644647911285
 20
389.9434070254454
 30
0.0
 11
347.7644647911285
 21
322.4647601961117
 31
0.0
  0
LINE
  5
4244
330
4240
100
AcDbEntity
  8
寸法
 62
     0
370
    -2
100
AcDbLine
 10
385.7644647911285
 20
389.9434070254454
 30
0.0
 11
385.7644647911285
 21
322.4647601961117
 31
0.0
  0
LINE
  5
4245
330
4240
100
AcDbEntity
  8
寸法
 62
     0
370
    -2
100
AcDbLine
 10
349.7644647911285
 20
322.4647601961117
 30
0.0
 11
383.7644647911285
 21
322.4647601961117
 31
0.0
  0
INSERT
  5
4246
330
4240
100
AcDbEntity
  8
寸法
 62
     0
370
    -2
100
AcDbBlockReference
  2
_DOT
 10
347.7644647911285
 20
322.4647601961117
 30
0.0
 41
2.0
 42
2.0
 43
2.0
 50
180.0
  0
INSERT
  5
4247
330
4240
100
AcDbEntity
  8
寸法
 62
     0
370
    -2
100
AcDbBlockReference
  2
_DOT
 10
385.7644647911285
 20
322.4647601961117
 30
0.0
 41
2.0
 42
2.0
 43
2.0
  0
MTEXT
  5
4248
330
4240
100
AcDbEntity
  8
寸法
 62
     0
100
AcDbMText
 10
366.7644647911285
 20
329.9647601961117
 30
0.0
 40
5.0
 41
0.0
 46
0.0
 71
     5
 72
     1
  1
\A1;38
  7
ＭＳ ゴシック
 73
     1
 44
1.0
  0
POINT
  5
4249
330
4240
100
AcDbEntity
  8
Defpoints
 62
     0
100
AcDbPoint
 10
347.7644647911285
 20
394.9434070254454
 30
0.0
  0
POINT
  5
424A
330
4240
100
AcDbEntity
  8
Defpoints
 62
     0
100
AcDbPoint
 10
385.7644647911285
 20
394.9434070254454
 30
0.0
  0
POINT
  5
424B
330
4240
100
AcDbEntity
  8
Defpoints
 62
     0
100
AcDbPoint
 10
385.7644647911285
 20
322.4647601961117
 30
0.0
  0
ENDBLK
  5
4242
330
4240
100
AcDbEntity
  8
0
100
AcDbBlockEnd
  0
BLOCK
  5
427C
330
427B
100
AcDbEntity
  8
0
100
AcDbBlockBegin
  2
*D75
 70
     1
 10
0.0
 20
0.0
 30
0.0
  3
*D75
  1
*D40
  0
LINE
  5
427D
330
427B
100
AcDbEntity
  8
寸法
 62
     0
370
    -2
100
AcDbLine
 10
0.5
 20
11.06217872899254
 30
0.0
 11
0.5
 21
27.5113215861353
 31
0.0
  0
LINE
  5
427E
330
427B
100
AcDbEntity
  8
寸法
 62
     0
370
    -2
100
AcDbLine
 10
38.5
 20
11.06217872899254
 30
0.0
 11
38.5
 21
27.5113215861353
 31
0.0
  0
LINE
  5
427F
330
427B
100
AcDbEntity
  8
寸法
 62
     0
370
    -2
100
AcDbLine
 10
2.5
 20
27.5113215861353
 30
0.0
 11
36.5
 21
27.5113215861353
 31
0.0
  0
INSERT
  5
4280
330
427B
100
AcDbEntity
  8
寸法
 62
     0
370
    -2
100
AcDbBlockReference
  2
_DOT
 10
0.5
 20
27.5113215861353
 30
0.0
 41
2.0
 42
2.0
 43
2.0
 50
180.0
  0
INSERT
  5
4281
330
427B
100
AcDbEntity
  8
寸法
 62
     0
370
    -2
100
AcDbBlockReference
  2
_DOT
 10
38.5
 20
27.5113215861353
 30
0.0
 41
2.0
 42
2.0
 43
2.0
  0
MTEXT
  5
4282
330
427B
100
AcDbEntity
  8
寸法
 62
     0
100
AcDbMText
 10
19.5
 20
35.0113215861353
 30
0.0
 40
5.0
 41
0.0
 46
0.0
 71
     5
 72
     1
  1
\A1;38
  7
ＭＳ ゴシック
 73
     1
 44
1.0
  0
POINT
  5
4283
330
427B
100
AcDbEntity
  8
Defpoints
 62
     0
100
AcDbPoint
 10
0.5
 20
6.062178728992535
 30
0.0
  0
POINT
  5
4284
330
427B
100
AcDbEntity
  8
Defpoints
 62
     0
100
AcDbPoint
 10
38.5
 20
6.062178728992535
 30
0.0
  0
POINT
  5
4285
330
427B
100
AcDbEntity
  8
Defpoints
 62
     0
100
AcDbPoint
 10
38.5
 20
27.5113215861353
 30
0.0
  0
ENDBLK
  5
4286
330
427B
100
AcDbEntity
  8
0
100
AcDbBlockEnd
  0
BLOCK
  5
428E
330
428D
100
AcDbEntity
  8
0
100
AcDbBlockBegin
  2
*D76
 70
     1
 10
0.0
 20
0.0
 30
0.0
  3
*D76
  1
*D78
  0
LINE
  5
4290
330
428D
100
AcDbEntity
  8
寸法
 62
     0
370
    -2
100
AcDbLine
 10
151.971395470888
 20
369.1794793475114
 30
0.0
 11
151.971395470888
 21
378.8412856637324
 31
0.0
  0
LINE
  5
4291
330
428D
100
AcDbEntity
  8
寸法
 62
     0
370
    -2
100
AcDbLine
 10
189.971395470888
 20
369.1794793475114
 30
0.0
 11
189.971395470888
 21
378.8412856637324
 31
0.0
  0
LINE
  5
4292
330
428D
100
AcDbEntity
  8
寸法
 62
     0
370
    -2
100
AcDbLine
 10
153.971395470888
 20
378.8412856637324
 30
0.0
 11
187.971395470888
 21
378.8412856637324
 31
0.0
  0
INSERT
  5
4293
330
428D
100
AcDbEntity
  8
寸法
 62
     0
370
    -2
100
AcDbBlockReference
  2
_DOT
 10
151.971395470888
 20
378.8412856637324
 30
0.0
 41
2.0
 42
2.0
 43
2.0
 50
180.0
  0
INSERT
  5
4294
330
428D
100
AcDbEntity
  8
寸法
 62
     0
370
    -2
100
AcDbBlockReference
  2
_DOT
 10
189.971395470888
 20
378.8412856637324
 30
0.0
 41
2.0
 42
2.0
 43
2.0
  0
MTEXT
  5
4295
330
428D
100
AcDbEntity
  8
寸法
 62
     0
100
AcDbMText
 10
170.971395470888
 20
386.3412856637324
 30
0.0
 40
5.0
 41
0.0
 46
0.0
 71
     5
 72
     1
  1
\A1;38
  7
ＭＳ ゴシック
 73
     1
 44
1.0
  0
POINT
  5
4296
330
428D
100
AcDbEntity
  8
Defpoints
 62
     0
100
AcDbPoint
 10
151.971395470888
 20
364.1794793475114
 30
0.0
  0
POINT
  5
4297
330
428D
100
AcDbEntity
  8
Defpoints
 62
     0
100
AcDbPoint
 10
189.971395470888
 20
364.1794793475114
 30
0.0
  0
POINT
  5
4298
330
428D
100
AcDbEntity
  8
Defpoints
 62
     0
100
AcDbPoint
 10
189.971395470888
 20
378.8412856637324
 30
0.0
  0
ENDBLK
  5
428F
330
428D
100
AcDbEntity
  8
0
100
AcDbBlockEnd
  0
BLOCK
  5
44CF
330
44CE
100
AcDbEntity
  8
0
100
AcDbBlockBegin
  2
*D77
 70
     1
 10
0.0
 20
0.0
 30
0.0
  3
*D77
  1
*D81
  0
LINE
  5
44D0
330
44CE
100
AcDbEntity
  8
寸法
 62
     0
370
    -2
100
AcDbLine
 10
108.2542939409664
 20
38.37197429690936
 30
0.0
 11
108.2542939409664
 21
10.58406671521711
 31
0.0
  0
LINE
  5
44D1
330
44CE
100
AcDbEntity
  8
寸法
 62
     0
370
    -2
100
AcDbLine
 10
70.25429394096636
 20
38.37197429690936
 30
0.0
 11
70.25429394096636
 21
10.58406671521711
 31
0.0
  0
LINE
  5
44D2
330
44CE
100
AcDbEntity
  8
寸法
 62
     0
370
    -2
100
AcDbLine
 10
70.25429394096636
 20
10.58406671521711
 30
0.0
 11
70.25429394096636
 21
10.58406671521711
 31
0.0
  0
LINE
  5
44D3
330
44CE
100
AcDbEntity
  8
寸法
 62
     0
370
    -2
100
AcDbLine
 10
106.2542939409664
 20
10.58406671521711
 30
0.0
 11
72.25429394096636
 21
10.58406671521711
 31
0.0
  0
INSERT
  5
44D4
330
44CE
100
AcDbEntity
  8
寸法
 62
     0
370
    -2
100
AcDbBlockReference
  2
_DOT
 10
108.2542939409664
 20
10.58406671521711
 30
0.0
 41
2.0
 42
2.0
 43
2.0
  0
INSERT
  5
44D5
330
44CE
100
AcDbEntity
  8
寸法
 62
     0
370
    -2
100
AcDbBlockReference
  2
_DOT
 10
70.25429394096636
 20
10.58406671521711
 30
0.0
 41
2.0
 42
2.0
 43
2.0
 50
180.0
  0
POINT
  5
44D6
330
44CE
100
AcDbEntity
  8
Defpoints
 62
     0
100
AcDbPoint
 10
108.2542939409664
 20
43.37197429690936
 30
0.0
  0
POINT
  5
44D7
330
44CE
100
AcDbEntity
  8
Defpoints
 62
     0
100
AcDbPoint
 10
70.25429394096636
 20
43.37197429690936
 30
0.0
  0
POINT
  5
44D8
330
44CE
100
AcDbEntity
  8
Defpoints
 62
     0
100
AcDbPoint
 10
70.25429394096636
 20
10.58406671521711
 30
0.0
  0
ENDBLK
  5
44D9
330
44CE
100
AcDbEntity
  8
0
100
AcDbBlockEnd
  0
BLOCK
  5
44DC
330
44DB
100
AcDbEntity
  8
0
100
AcDbBlockBegin
  2
*D78
 70
     1
 10
0.0
 20
0.0
 30
0.0
  3
*D78
  1
*D82
  0
LINE
  5
44DD
330
44DB
100
AcDbEntity
  8
寸法
 62
     0
370
    -2
100
AcDbLine
 10
70.25429394096636
 20
57.04247605834259
 30
0.0
 11
70.25429394096636
 21
79.82909963582439
 31
0.0
  0
LINE
  5
44DE
330
44DB
100
AcDbEntity
  8
寸法
 62
     0
370
    -2
100
AcDbLine
 10
89.25429394096636
 20
71.2179885785521
 30
0.0
 11
89.25429394096636
 21
79.82909963582439
 31
0.0
  0
LINE
  5
44DF
330
44DB
100
AcDbEntity
  8
寸法
 62
     0
370
    -2
100
AcDbLine
 10
72.25429394096636
 20
79.82909963582439
 30
0.0
 11
87.25429394096636
 21
79.82909963582439
 31
0.0
  0
INSERT
  5
44E0
330
44DB
100
AcDbEntity
  8
寸法
 62
     0
370
    -2
100
AcDbBlockReference
  2
_DOT
 10
70.25429394096636
 20
79.82909963582439
 30
0.0
 41
2.0
 42
2.0
 43
2.0
 50
180.0
  0
INSERT
  5
44E1
330
44DB
100
AcDbEntity
  8
寸法
 62
     0
370
    -2
100
AcDbBlockReference
  2
_DOT
 10
89.25429394096636
 20
79.82909963582439
 30
0.0
 41
2.0
 42
2.0
 43
2.0
  0
MTEXT
  5
44E2
330
44DB
100
AcDbEntity
  8
寸法
 62
     0
100
AcDbMText
 10
79.75429394096636
 20
87.32909963582439
 30
0.0
 40
5.0
 41
0.0
 46
0.0
 71
     5
 72
     1
  1
\A1;19
  7
ＭＳ ゴシック
 73
     1
 44
1.0
  0
POINT
  5
44E3
330
44DB
100
AcDbEntity
  8
Defpoints
 62
     0
100
AcDbPoint
 10
70.25429394096636
 20
52.04247605834259
 30
0.0
  0
POINT
  5
44E4
330
44DB
100
AcDbEntity
  8
Defpoints
 62
     0
100
AcDbPoint
 10
89.25429394096636
 20
66.2179885785521
 30
0.0
  0
POINT
  5
44E5
330
44DB
100
AcDbEntity
  8
Defpoints
 62
     0
100
AcDbPoint
 10
89.25429394096636
 20
79.82909963582439
 30
0.0
  0
ENDBLK
  5
44E6
330
44DB
100
AcDbEntity
  8
0
100
AcDbBlockEnd
  0
BLOCK
  5
44E9
330
44E8
100
AcDbEntity
  8
0
100
AcDbBlockBegin
  2
*D79
 70
     1
 10
0.0
 20
0.0
 30
0.0
  3
*D79
  1
*D83
  0
LINE
  5
44EA
330
44E8
100
AcDbEntity
  8
寸法
 62
     0
370
    -2
100
AcDbLine
 10
89.25429394096636
 20
71.2179885785521
 30
0.0
 11
89.25429394096636
 21
79.82909963582439
 31
0.0
  0
LINE
  5
44EB
330
44E8
100
AcDbEntity
  8
寸法
 62
     0
370
    -2
100
AcDbLine
 10
108.2542939409664
 20
57.04247605834259
 30
0.0
 11
108.2542939409664
 21
79.82909963582439
 31
0.0
  0
LINE
  5
44EC
330
44E8
100
AcDbEntity
  8
寸法
 62
     0
370
    -2
100
AcDbLine
 10
91.25429394096636
 20
79.82909963582439
 30
0.0
 11
106.2542939409664
 21
79.82909963582439
 31
0.0
  0
INSERT
  5
44ED
330
44E8
100
AcDbEntity
  8
寸法
 62
     0
370
    -2
100
AcDbBlockReference
  2
_DOT
 10
89.25429394096636
 20
79.82909963582439
 30
0.0
 41
2.0
 42
2.0
 43
2.0
 50
180.0
  0
INSERT
  5
44EE
330
44E8
100
AcDbEntity
  8
寸法
 62
     0
370
    -2
100
AcDbBlockReference
  2
_DOT
 10
108.2542939409664
 20
79.82909963582439
 30
0.0
 41
2.0
 42
2.0
 43
2.0
  0
MTEXT
  5
44EF
330
44E8
100
AcDbEntity
  8
寸法
 62
     0
100
AcDbMText
 10
98.75429394096636
 20
87.32909963582439
 30
0.0
 40
5.0
 41
0.0
 46
0.0
 71
     5
 72
     1
  1
\A1;19
  7
ＭＳ ゴシック
 73
     1
 44
1.0
  0
POINT
  5
44F0
330
44E8
100
AcDbEntity
  8
Defpoints
 62
     0
100
AcDbPoint
 10
89.25429394096636
 20
66.2179885785521
 30
0.0
  0
POINT
  5
44F1
330
44E8
100
AcDbEntity
  8
Defpoints
 62
     0
100
AcDbPoint
 10
108.2542939409664
 20
52.04247605834259
 30
0.0
  0
POINT
  5
44F2
330
44E8
100
AcDbEntity
  8
Defpoints
 62
     0
100
AcDbPoint
 10
108.2542939409664
 20
79.82909963582439
 30
0.0
  0
ENDBLK
  5
44F3
330
44E8
100
AcDbEntity
  8
0
100
AcDbBlockEnd
  0
BLOCK
  5
450C
330
450B
100
AcDbEntity
  8
0
100
AcDbBlockBegin
  2
*D80
 70
     1
 10
0.0
 20
0.0
 30
0.0
  3
*D80
  1
*D84
  0
LINE
  5
450E
330
450B
100
AcDbEntity
  8
寸法
 62
     0
370
    -2
100
AcDbLine
 10
730.3898537569173
 20
163.8828868735964
 30
0.0
 11
730.3898537569173
 21
136.0949792919042
 31
0.0
  0
LINE
  5
450F
330
450B
100
AcDbEntity
  8
寸法
 62
     0
370
    -2
100
AcDbLine
 10
692.3898537569173
 20
163.8828868735964
 30
0.0
 11
692.3898537569173
 21
136.0949792919042
 31
0.0
  0
LINE
  5
4510
330
450B
100
AcDbEntity
  8
寸法
 62
     0
370
    -2
100
AcDbLine
 10
692.3898537569173
 20
136.0949792919042
 30
0.0
 11
692.3898537569173
 21
136.0949792919042
 31
0.0
  0
LINE
  5
4511
330
450B
100
AcDbEntity
  8
寸法
 62
     0
370
    -2
100
AcDbLine
 10
728.3898537569173
 20
136.0949792919042
 30
0.0
 11
694.3898537569173
 21
136.0949792919042
 31
0.0
  0
INSERT
  5
4512
330
450B
100
AcDbEntity
  8
寸法
 62
     0
370
    -2
100
AcDbBlockReference
  2
_DOT
 10
730.3898537569173
 20
136.0949792919042
 30
0.0
 41
2.0
 42
2.0
 43
2.0
  0
INSERT
  5
4513
330
450B
100
AcDbEntity
  8
寸法
 62
     0
370
    -2
100
AcDbBlockReference
  2
_DOT
 10
692.3898537569173
 20
136.0949792919042
 30
0.0
 41
2.0
 42
2.0
 43
2.0
 50
180.0
  0
POINT
  5
4514
330
450B
100
AcDbEntity
  8
Defpoints
 62
     0
100
AcDbPoint
 10
730.3898537569173
 20
168.8828868735964
 30
0.0
  0
POINT
  5
4515
330
450B
100
AcDbEntity
  8
Defpoints
 62
     0
100
AcDbPoint
 10
692.3898537569173
 20
168.8828868735964
 30
0.0
  0
POINT
  5
4516
330
450B
100
AcDbEntity
  8
Defpoints
 62
     0
100
AcDbPoint
 10
692.3898537569173
 20
136.0949792919042
 30
0.0
  0
ENDBLK
  5
450D
330
450B
100
AcDbEntity
  8
0
100
AcDbBlockEnd
  0
BLOCK
  5
4518
330
4517
100
AcDbEntity
  8
0
100
AcDbBlockBegin
  2
*D81
 70
     1
 10
0.0
 20
0.0
 30
0.0
  3
*D81
  1
*D85
  0
LINE
  5
451A
330
4517
100
AcDbEntity
  8
寸法
 62
     0
370
    -2
100
AcDbLine
 10
692.3898537569173
 20
182.5533886350296
 30
0.0
 11
692.3898537569173
 21
205.3400122125115
 31
0.0
  0
LINE
  5
451B
330
4517
100
AcDbEntity
  8
寸法
 62
     0
370
    -2
100
AcDbLine
 10
711.3898537569173
 20
196.7289011552392
 30
0.0
 11
711.3898537569173
 21
205.3400122125115
 31
0.0
  0
LINE
  5
451C
330
4517
100
AcDbEntity
  8
寸法
 62
     0
370
    -2
100
AcDbLine
 10
694.3898537569173
 20
205.3400122125115
 30
0.0
 11
709.3898537569173
 21
205.3400122125115
 31
0.0
  0
INSERT
  5
451D
330
4517
100
AcDbEntity
  8
寸法
 62
     0
370
    -2
100
AcDbBlockReference
  2
_DOT
 10
692.3898537569173
 20
205.3400122125115
 30
0.0
 41
2.0
 42
2.0
 43
2.0
 50
180.0
  0
INSERT
  5
451E
330
4517
100
AcDbEntity
  8
寸法
 62
     0
370
    -2
100
AcDbBlockReference
  2
_DOT
 10
711.3898537569173
 20
205.3400122125115
 30
0.0
 41
2.0
 42
2.0
 43
2.0
  0
MTEXT
  5
451F
330
4517
100
AcDbEntity
  8
寸法
 62
     0
100
AcDbMText
 10
701.8898537569173
 20
212.8400122125115
 30
0.0
 40
5.0
 41
0.0
 46
0.0
 71
     5
 72
     1
  1
\A1;19
  7
ＭＳ ゴシック
 73
     1
 44
1.0
  0
POINT
  5
4520
330
4517
100
AcDbEntity
  8
Defpoints
 62
     0
100
AcDbPoint
 10
692.3898537569173
 20
177.5533886350296
 30
0.0
  0
POINT
  5
4521
330
4517
100
AcDbEntity
  8
Defpoints
 62
     0
100
AcDbPoint
 10
711.3898537569173
 20
191.7289011552392
 30
0.0
  0
POINT
  5
4522
330
4517
100
AcDbEntity
  8
Defpoints
 62
     0
100
AcDbPoint
 10
711.3898537569173
 20
205.3400122125115
 30
0.0
  0
ENDBLK
  5
4519
330
4517
100
AcDbEntity
  8
0
100
AcDbBlockEnd
  0
BLOCK
  5
4524
330
4523
100
AcDbEntity
  8
0
100
AcDbBlockBegin
  2
*D82
 70
     1
 10
0.0
 20
0.0
 30
0.0
  3
*D82
  1
*D86
  0
LINE
  5
4526
330
4523
100
AcDbEntity
  8
寸法
 62
     0
370
    -2
100
AcDbLine
 10
711.3898537569173
 20
196.7289011552392
 30
0.0
 11
711.3898537569173
 21
205.3400122125115
 31
0.0
  0
LINE
  5
4527
330
4523
100
AcDbEntity
  8
寸法
 62
     0
370
    -2
100
AcDbLine
 10
730.3898537569173
 20
182.5533886350296
 30
0.0
 11
730.3898537569173
 21
205.3400122125115
 31
0.0
  0
LINE
  5
4528
330
4523
100
AcDbEntity
  8
寸法
 62
     0
370
    -2
100
AcDbLine
 10
713.3898537569173
 20
205.3400122125115
 30
0.0
 11
728.3898537569173
 21
205.3400122125115
 31
0.0
  0
INSERT
  5
4529
330
4523
100
AcDbEntity
  8
寸法
 62
     0
370
    -2
100
AcDbBlockReference
  2
_DOT
 10
711.3898537569173
 20
205.3400122125115
 30
0.0
 41
2.0
 42
2.0
 43
2.0
 50
180.0
  0
INSERT
  5
452A
330
4523
100
AcDbEntity
  8
寸法
 62
     0
370
    -2
100
AcDbBlockReference
  2
_DOT
 10
730.3898537569173
 20
205.3400122125115
 30
0.0
 41
2.0
 42
2.0
 43
2.0
  0
MTEXT
  5
452B
330
4523
100
AcDbEntity
  8
寸法
 62
     0
100
AcDbMText
 10
720.8898537569173
 20
212.8400122125115
 30
0.0
 40
5.0
 41
0.0
 46
0.0
 71
     5
 72
     1
  1
\A1;19
  7
ＭＳ ゴシック
 73
     1
 44
1.0
  0
POINT
  5
452C
330
4523
100
AcDbEntity
  8
Defpoints
 62
     0
100
AcDbPoint
 10
711.3898537569173
 20
191.7289011552392
 30
0.0
  0
POINT
  5
452D
330
4523
100
AcDbEntity
  8
Defpoints
 62
     0
100
AcDbPoint
 10
730.3898537569173
 20
177.5533886350296
 30
0.0
  0
POINT
  5
452E
330
4523
100
AcDbEntity
  8
Defpoints
 62
     0
100
AcDbPoint
 10
730.3898537569173
 20
205.3400122125115
 30
0.0
  0
ENDBLK
  5
4525
330
4523
100
AcDbEntity
  8
0
100
AcDbBlockEnd
  0
BLOCK
  5
4562
330
4561
100
AcDbEntity
  8
0
100
AcDbBlockBegin
  2
*D83
 70
     1
 10
0.0
 20
0.0
 30
0.0
  3
*D83
  1
*D88
  0
LINE
  5
4563
330
4561
100
AcDbEntity
  8
寸法
 62
     0
370
    -2
100
AcDbLine
 10
53.30549000501355
 20
47.44077061827664
 30
0.0
 11
53.30549000501355
 21
70.22739419575845
 31
0.0
  0
LINE
  5
4564
330
4561
100
AcDbEntity
  8
寸法
 62
     0
370
    -2
100
AcDbLine
 10
72.30549000501355
 20
61.61628313848615
 30
0.0
 11
72.30549000501355
 21
70.22739419575845
 31
0.0
  0
LINE
  5
4565
330
4561
100
AcDbEntity
  8
寸法
 62
     0
370
    -2
100
AcDbLine
 10
55.30549000501355
 20
70.22739419575845
 30
0.0
 11
70.30549000501355
 21
70.22739419575845
 31
0.0
  0
INSERT
  5
4566
330
4561
100
AcDbEntity
  8
寸法
 62
     0
370
    -2
100
AcDbBlockReference
  2
_DOT
 10
53.30549000501355
 20
70.22739419575845
 30
0.0
 41
2.0
 42
2.0
 43
2.0
 50
180.0
  0
INSERT
  5
4567
330
4561
100
AcDbEntity
  8
寸法
 62
     0
370
    -2
100
AcDbBlockReference
  2
_DOT
 10
72.30549000501355
 20
70.22739419575845
 30
0.0
 41
2.0
 42
2.0
 43
2.0
  0
MTEXT
  5
4568
330
4561
100
AcDbEntity
  8
寸法
 62
     0
100
AcDbMText
 10
62.80549000501355
 20
77.72739419575845
 30
0.0
 40
5.0
 41
0.0
 46
0.0
 71
     5
 72
     1
  1
\A1;19
  7
ＭＳ ゴシック
 73
     1
 44
1.0
  0
POINT
  5
4569
330
4561
100
AcDbEntity
  8
Defpoints
 62
     0
100
AcDbPoint
 10
53.30549000501355
 20
42.44077061827664
 30
0.0
  0
POINT
  5
456A
330
4561
100
AcDbEntity
  8
Defpoints
 62
     0
100
AcDbPoint
 10
72.30549000501355
 20
56.61628313848615
 30
0.0
  0
POINT
  5
456B
330
4561
100
AcDbEntity
  8
Defpoints
 62
     0
100
AcDbPoint
 10
72.30549000501355
 20
70.22739419575845
 30
0.0
  0
ENDBLK
  5
456C
330
4561
100
AcDbEntity
  8
0
100
AcDbBlockEnd
  0
BLOCK
  5
456F
330
456E
100
AcDbEntity
  8
0
100
AcDbBlockBegin
  2
*D84
 70
     1
 10
0.0
 20
0.0
 30
0.0
  3
*D84
  1
*D89
  0
LINE
  5
4570
330
456E
100
AcDbEntity
  8
寸法
 62
     0
370
    -2
100
AcDbLine
 10
72.30549000501355
 20
61.61628313848615
 30
0.0
 11
72.30549000501355
 21
70.22739419575845
 31
0.0
  0
LINE
  5
4571
330
456E
100
AcDbEntity
  8
寸法
 62
     0
370
    -2
100
AcDbLine
 10
91.30549000501355
 20
47.44077061827664
 30
0.0
 11
91.30549000501355
 21
70.22739419575845
 31
0.0
  0
LINE
  5
4572
330
456E
100
AcDbEntity
  8
寸法
 62
     0
370
    -2
100
AcDbLine
 10
74.30549000501355
 20
70.22739419575845
 30
0.0
 11
89.30549000501355
 21
70.22739419575845
 31
0.0
  0
INSERT
  5
4573
330
456E
100
AcDbEntity
  8
寸法
 62
     0
370
    -2
100
AcDbBlockReference
  2
_DOT
 10
72.30549000501355
 20
70.22739419575845
 30
0.0
 41
2.0
 42
2.0
 43
2.0
 50
180.0
  0
INSERT
  5
4574
330
456E
100
AcDbEntity
  8
寸法
 62
     0
370
    -2
100
AcDbBlockReference
  2
_DOT
 10
91.30549000501355
 20
70.22739419575845
 30
0.0
 41
2.0
 42
2.0
 43
2.0
  0
MTEXT
  5
4575
330
456E
100
AcDbEntity
  8
寸法
 62
     0
100
AcDbMText
 10
81.80549000501355
 20
77.72739419575845
 30
0.0
 40
5.0
 41
0.0
 46
0.0
 71
     5
 72
     1
  1
\A1;19
  7
ＭＳ ゴシック
 73
     1
 44
1.0
  0
POINT
  5
4576
330
456E
100
AcDbEntity
  8
Defpoints
 62
     0
100
AcDbPoint
 10
72.30549000501355
 20
56.61628313848615
 30
0.0
  0
POINT
  5
4577
330
456E
100
AcDbEntity
  8
Defpoints
 62
     0
100
AcDbPoint
 10
91.30549000501355
 20
42.44077061827664
 30
0.0
  0
POINT
  5
4578
330
456E
100
AcDbEntity
  8
Defpoints
 62
     0
100
AcDbPoint
 10
91.30549000501355
 20
70.22739419575845
 30
0.0
  0
ENDBLK
  5
4579
330
456E
100
AcDbEntity
  8
0
100
AcDbBlockEnd
  0
BLOCK
  5
4582
330
4581
100
AcDbEntity
  8
0
100
AcDbBlockBegin
  2
*D85
 70
     1
 10
0.0
 20
0.0
 30
0.0
  3
*D85
  1
*D90
  0
LINE
  5
4583
330
4581
100
AcDbEntity
  8
寸法
 62
     0
370
    -2
100
AcDbLine
 10
91.30549000501355
 20
28.28790758169225
 30
0.0
 11
91.30549000501355
 21
0.5
 31
0.0
  0
LINE
  5
4584
330
4581
100
AcDbEntity
  8
寸法
 62
     0
370
    -2
100
AcDbLine
 10
53.30549000501355
 20
28.28790758169225
 30
0.0
 11
53.30549000501355
 21
0.5
 31
0.0
  0
LINE
  5
4585
330
4581
100
AcDbEntity
  8
寸法
 62
     0
370
    -2
100
AcDbLine
 10
53.30549000501355
 20
0.5
 30
0.0
 11
39.31549000501344
 21
0.5
 31
0.0
  0
LINE
  5
4586
330
4581
100
AcDbEntity
  8
寸法
 62
     0
370
    -2
100
AcDbLine
 10
89.30549000501355
 20
0.5
 30
0.0
 11
55.30549000501355
 21
0.5
 31
0.0
  0
INSERT
  5
4587
330
4581
100
AcDbEntity
  8
寸法
 62
     0
370
    -2
100
AcDbBlockReference
  2
_DOT
 10
91.30549000501355
 20
0.5
 30
0.0
 41
2.0
 42
2.0
 43
2.0
  0
INSERT
  5
4588
330
4581
100
AcDbEntity
  8
寸法
 62
     0
370
    -2
100
AcDbBlockReference
  2
_DOT
 10
53.30549000501355
 20
0.5
 30
0.0
 41
2.0
 42
2.0
 43
2.0
 50
180.0
  0
MTEXT
  5
4589
330
4581
100
AcDbEntity
  8
寸法
 62
     0
100
AcDbMText
 10
44.31049000501343
 20
5.025
 30
0.0
 40
5.0
 41
0.0
 46
0.0
 71
     5
 72
     1
  1
\A1;ø8
  7
ＭＳ ゴシック
 73
     1
 44
1.0
  0
POINT
  5
458A
330
4581
100
AcDbEntity
  8
Defpoints
 62
     0
100
AcDbPoint
 10
91.30549000501355
 20
33.28790758169225
 30
0.0
  0
POINT
  5
458B
330
4581
100
AcDbEntity
  8
Defpoints
 62
     0
100
AcDbPoint
 10
53.30549000501355
 20
33.28790758169225
 30
0.0
  0
POINT
  5
458C
330
4581
100
AcDbEntity
  8
Defpoints
 62
     0
100
AcDbPoint
 10
53.30549000501355
 20
0.5
 30
0.0
  0
ENDBLK
  5
458D
330
4581
100
AcDbEntity
  8
0
100
AcDbBlockEnd
  0
BLOCK
  5
45A5
330
45A4
100
AcDbEntity
  8
0
100
AcDbBlockBegin
  2
*D86
 70
     1
 10
0.0
 20
0.0
 30
0.0
  3
*D86
  1
*D91
  0
LINE
  5
45A7
330
45A4
100
AcDbEntity
  8
寸法
 62
     0
370
    -2
100
AcDbLine
 10
391.3299324641321
 20
206.6278377646767
 30
0.0
 11
391.3299324641321
 21
229.4144613421585
 31
0.0
  0
LINE
  5
45A8
330
45A4
100
AcDbEntity
  8
寸法
 62
     0
370
    -2
100
AcDbLine
 10
410.3299324641321
 20
220.8033502848862
 30
0.0
 11
410.3299324641321
 21
229.4144613421585
 31
0.0
  0
LINE
  5
45A9
330
45A4
100
AcDbEntity
  8
寸法
 62
     0
370
    -2
100
AcDbLine
 10
393.3299324641321
 20
229.4144613421585
 30
0.0
 11
408.3299324641321
 21
229.4144613421585
 31
0.0
  0
INSERT
  5
45AA
330
45A4
100
AcDbEntity
  8
寸法
 62
     0
370
    -2
100
AcDbBlockReference
  2
_DOT
 10
391.3299324641321
 20
229.4144613421585
 30
0.0
 41
2.0
 42
2.0
 43
2.0
 50
180.0
  0
INSERT
  5
45AB
330
45A4
100
AcDbEntity
  8
寸法
 62
     0
370
    -2
100
AcDbBlockReference
  2
_DOT
 10
410.3299324641321
 20
229.4144613421585
 30
0.0
 41
2.0
 42
2.0
 43
2.0
  0
MTEXT
  5
45AC
330
45A4
100
AcDbEntity
  8
寸法
 62
     0
100
AcDbMText
 10
400.8299324641321
 20
236.9144613421585
 30
0.0
 40
5.0
 41
0.0
 46
0.0
 71
     5
 72
     1
  1
\A1;19
  7
ＭＳ ゴシック
 73
     1
 44
1.0
  0
POINT
  5
45AD
330
45A4
100
AcDbEntity
  8
Defpoints
 62
     0
100
AcDbPoint
 10
391.3299324641321
 20
201.6278377646767
 30
0.0
  0
POINT
  5
45AE
330
45A4
100
AcDbEntity
  8
Defpoints
 62
     0
100
AcDbPoint
 10
410.3299324641321
 20
215.8033502848862
 30
0.0
  0
POINT
  5
45AF
330
45A4
100
AcDbEntity
  8
Defpoints
 62
     0
100
AcDbPoint
 10
410.3299324641321
 20
229.4144613421585
 30
0.0
  0
ENDBLK
  5
45A6
330
45A4
100
AcDbEntity
  8
0
100
AcDbBlockEnd
  0
BLOCK
  5
45B1
330
45B0
100
AcDbEntity
  8
0
100
AcDbBlockBegin
  2
*D87
 70
     1
 10
0.0
 20
0.0
 30
0.0
  3
*D87
  1
*D92
  0
LINE
  5
45B3
330
45B0
100
AcDbEntity
  8
寸法
 62
     0
370
    -2
100
AcDbLine
 10
410.3299324641321
 20
220.8033502848862
 30
0.0
 11
410.3299324641321
 21
229.4144613421585
 31
0.0
  0
LINE
  5
45B4
330
45B0
100
AcDbEntity
  8
寸法
 62
     0
370
    -2
100
AcDbLine
 10
429.3299324641321
 20
206.6278377646767
 30
0.0
 11
429.3299324641321
 21
229.4144613421585
 31
0.0
  0
LINE
  5
45B5
330
45B0
100
AcDbEntity
  8
寸法
 62
     0
370
    -2
100
AcDbLine
 10
412.3299324641321
 20
229.4144613421585
 30
0.0
 11
427.3299324641321
 21
229.4144613421585
 31
0.0
  0
INSERT
  5
45B6
330
45B0
100
AcDbEntity
  8
寸法
 62
     0
370
    -2
100
AcDbBlockReference
  2
_DOT
 10
410.3299324641321
 20
229.4144613421585
 30
0.0
 41
2.0
 42
2.0
 43
2.0
 50
180.0
  0
INSERT
  5
45B7
330
45B0
100
AcDbEntity
  8
寸法
 62
     0
370
    -2
100
AcDbBlockReference
  2
_DOT
 10
429.3299324641321
 20
229.4144613421585
 30
0.0
 41
2.0
 42
2.0
 43
2.0
  0
MTEXT
  5
45B8
330
45B0
100
AcDbEntity
  8
寸法
 62
     0
100
AcDbMText
 10
419.8299324641321
 20
236.9144613421585
 30
0.0
 40
5.0
 41
0.0
 46
0.0
 71
     5
 72
     1
  1
\A1;19
  7
ＭＳ ゴシック
 73
     1
 44
1.0
  0
POINT
  5
45B9
330
45B0
100
AcDbEntity
  8
Defpoints
 62
     0
100
AcDbPoint
 10
410.3299324641321
 20
215.8033502848862
 30
0.0
  0
POINT
  5
45BA
330
45B0
100
AcDbEntity
  8
Defpoints
 62
     0
100
AcDbPoint
 10
429.3299324641321
 20
201.6278377646767
 30
0.0
  0
POINT
  5
45BB
330
45B0
100
AcDbEntity
  8
Defpoints
 62
     0
100
AcDbPoint
 10
429.3299324641321
 20
229.4144613421585
 30
0.0
  0
ENDBLK
  5
45B2
330
45B0
100
AcDbEntity
  8
0
100
AcDbBlockEnd
  0
BLOCK
  5
45BD
330
45BC
100
AcDbEntity
  8
0
100
AcDbBlockBegin
  2
*D88
 70
     1
 10
0.0
 20
0.0
 30
0.0
  3
*D88
  1
*D93
  0
LINE
  5
45BF
330
45BC
100
AcDbEntity
  8
寸法
 62
     0
370
    -2
100
AcDbLine
 10
429.3299324641321
 20
187.4749747280923
 30
0.0
 11
429.3299324641321
 21
159.6870671464
 31
0.0
  0
LINE
  5
45C0
330
45BC
100
AcDbEntity
  8
寸法
 62
     0
370
    -2
100
AcDbLine
 10
391.3299324641321
 20
187.4749747280923
 30
0.0
 11
391.3299324641321
 21
159.6870671464
 31
0.0
  0
LINE
  5
45C1
330
45BC
100
AcDbEntity
  8
寸法
 62
     0
370
    -2
100
AcDbLine
 10
391.3299324641321
 20
159.6870671464
 30
0.0
 11
377.3399324641319
 21
159.6870671464
 31
0.0
  0
LINE
  5
45C2
330
45BC
100
AcDbEntity
  8
寸法
 62
     0
370
    -2
100
AcDbLine
 10
427.3299324641321
 20
159.6870671464
 30
0.0
 11
393.3299324641321
 21
159.6870671464
 31
0.0
  0
LINE
  5
45C3
330
45BC
100
AcDbEntity
  8
寸法
 62
     0
370
    -2
100
AcDbLine
 10
393.3299324641321
 20
159.6870671464
 30
0.0
 11
395.3299324641321
 21
159.6870671464
 31
0.0
  0
INSERT
  5
45C4
330
45BC
100
AcDbEntity
  8
寸法
 62
     0
370
    -2
100
AcDbBlockReference
  2
_DOT
 10
429.3299324641321
 20
159.6870671464
 30
0.0
 41
2.0
 42
2.0
 43
2.0
  0
INSERT
  5
45C5
330
45BC
100
AcDbEntity
  8
寸法
 62
     0
370
    -2
100
AcDbBlockReference
  2
_DOT
 10
391.3299324641321
 20
159.6870671464
 30
0.0
 41
2.0
 42
2.0
 43
2.0
 50
180.0
  0
MTEXT
  5
45C6
330
45BC
100
AcDbEntity
  8
寸法
 62
     0
100
AcDbMText
 10
382.334932464132
 20
164.2120671464
 30
0.0
 40
5.0
 41
0.0
 46
0.0
 71
     5
 72
     1
  1
\A1;ø8
  7
ＭＳ ゴシック
 73
     1
 44
1.0
  0
POINT
  5
45C7
330
45BC
100
AcDbEntity
  8
Defpoints
 62
     0
100
AcDbPoint
 10
429.3299324641321
 20
192.4749747280923
 30
0.0
  0
POINT
  5
45C8
330
45BC
100
AcDbEntity
  8
Defpoints
 62
     0
100
AcDbPoint
 10
391.3299324641321
 20
192.4749747280923
 30
0.0
  0
POINT
  5
4784
330
45BC
100
AcDbEntity
  8
Defpoints
 62
     0
100
AcDbPoint
 10
391.3299324641321
 20
159.6870671464
 30
0.0
  0
ENDBLK
  5
45BE
330
45BC
100
AcDbEntity
  8
0
100
AcDbBlockEnd
  0
BLOCK
  5
45F6
330
45F5
100
AcDbEntity
  8
0
100
AcDbBlockBegin
  2
template
 70
     0
 10
0.0
 20
0.0
 30
0.0
  3
template
  1
template
  0
LINE
  5
45F7
330
45F5
100
AcDbEntity
  8
寸法
 62
     6
100
AcDbLine
 10
171.8188895193465
 20
333.6070342581111
 30
0.0
 11
171.8188895193465
 21
404.690473771441
 31
0.0
  0
LINE
  5
45F8
330
45F5
100
AcDbEntity
  8
寸法
 62
     6
100
AcDbLine
 10
171.8188895193465
 20
127.4203522245843
 30
0.0
 11
171.8188895193465
 21
62.22153683920783
 31
0.0
  0
LINE
  5
45F9
330
45F5
100
AcDbEntity
  8
寸法
 62
     6
100
AcDbLine
 10
410.3290711896925
 20
333.6070342581111
 30
0.0
 11
410.3290711896925
 21
404.690473771441
 31
0.0
  0
LINE
  5
45FA
330
45F5
100
AcDbEntity
  8
寸法
 62
     6
100
AcDbLine
 10
410.3290711896925
 20
62.22153683920783
 30
0.0
 11
410.3290711896925
 21
127.4203680384775
 31
0.0
  0
LWPOLYLINE
  5
45FB
330
45F5
100
AcDbEntity
  8
寸法
 62
     6
100
AcDbPolyline
 90
        4
 70
     1
 43
0.0
 10
15.30952622855898
 20
62.22153683920783
 10
15.30952622855898
 20
83.05693251533738
 10
39.17153374233129
 20
83.05693251533738
 10
39.17153374233129
 20
62.22153683920783
  0
ENDBLK
  5
45FC
330
45F5
100
AcDbEntity
  8
0
100
AcDbBlockEnd
  0
BLOCK
  5
4635
330
4634
100
AcDbEntity
  8
0
100
AcDbBlockBegin
  2
*D90
 70
     1
 10
0.0
 20
0.0
 30
0.0
  3
*D90
  1
*D96
  0
LINE
  5
4637
330
4634
100
AcDbEntity
  8
寸法
 62
     0
370
    -2
100
AcDbLine
 10
390.9746693298222
 20
355.9812372903287
 30
0.0
 11
364.8364049779777
 21
355.9812372903287
 31
0.0
  0
LINE
  5
4638
330
4634
100
AcDbEntity
  8
寸法
 62
     0
370
    -2
100
AcDbLine
 10
390.9746693298222
 20
305.9812372903287
 30
0.0
 11
364.8364049779777
 21
305.9812372903287
 31
0.0
  0
LINE
  5
4639
330
4634
100
AcDbEntity
  8
寸法
 62
     0
370
    -2
100
AcDbLine
 10
364.8364049779777
 20
353.9812372903287
 30
0.0
 11
364.8364049779777
 21
307.9812372903287
 31
0.0
  0
INSERT
  5
463A
330
4634
100
AcDbEntity
  8
寸法
 62
     0
370
    -2
100
AcDbBlockReference
  2
_DOT
 10
364.8364049779777
 20
355.9812372903287
 30
0.0
 41
2.0
 42
2.0
 43
2.0
 50
90.0
  0
INSERT
  5
463B
330
4634
100
AcDbEntity
  8
寸法
 62
     0
370
    -2
100
AcDbBlockReference
  2
_DOT
 10
364.8364049779777
 20
305.9812372903287
 30
0.0
 41
2.0
 42
2.0
 43
2.0
 50
270.0
  0
MTEXT
  5
463C
330
4634
100
AcDbEntity
  8
寸法
 62
     0
100
AcDbMText
 10
357.3364049779777
 20
330.9812372903287
 30
0.0
 40
5.0
 41
0.0
 46
0.0
 71
     5
 72
     1
  1
\A1;50
  7
ＭＳ ゴシック
 11
0.0
 21
1.0
 31
0.0
 73
     1
 44
1.0
  0
POINT
  5
463D
330
4634
100
AcDbEntity
  8
Defpoints
 62
     0
100
AcDbPoint
 10
395.9746693298222
 20
355.9812372903287
 30
0.0
  0
POINT
  5
463E
330
4634
100
AcDbEntity
  8
Defpoints
 62
     0
100
AcDbPoint
 10
395.9746693298222
 20
305.9812372903287
 30
0.0
  0
POINT
  5
463F
330
4634
100
AcDbEntity
  8
Defpoints
 62
     0
100
AcDbPoint
 10
364.8364049779777
 20
305.9812372903287
 30
0.0
  0
ENDBLK
  5
4636
330
4634
100
AcDbEntity
  8
0
100
AcDbBlockEnd
  0
BLOCK
  5
4641
330
4640
100
AcDbEntity
  8
0
100
AcDbBlockBegin
  2
*D91
 70
     1
 10
0.0
 20
0.0
 30
0.0
  3
*D91
  1
*D97
  0
LINE
  5
4643
330
4640
100
AcDbEntity
  8
寸法
 62
     0
370
    -2
100
AcDbLine
 10
425.277652240246
 20
393.6568263713975
 30
0.0
 11
460.0719764424614
 21
393.6568263713975
 31
0.0
  0
LINE
  5
4644
330
4640
100
AcDbEntity
  8
寸法
 62
     0
370
    -2
100
AcDbLine
 10
425.277652240246
 20
268.7754777430443
 30
0.0
 11
460.0719764424614
 21
268.7754777430443
 31
0.0
  0
LINE
  5
4645
330
4640
100
AcDbEntity
  8
寸法
 62
     0
370
    -2
100
AcDbLine
 10
460.0719764424614
 20
391.6568263713975
 30
0.0
 11
460.0719764424614
 21
270.7754777430443
 31
0.0
  0
INSERT
  5
4646
330
4640
100
AcDbEntity
  8
寸法
 62
     0
370
    -2
100
AcDbBlockReference
  2
_DOT
 10
460.0719764424614
 20
393.6568263713975
 30
0.0
 41
2.0
 42
2.0
 43
2.0
 50
90.0
  0
INSERT
  5
4647
330
4640
100
AcDbEntity
  8
寸法
 62
     0
370
    -2
100
AcDbBlockReference
  2
_DOT
 10
460.0719764424614
 20
268.7754777430443
 30
0.0
 41
2.0
 42
2.0
 43
2.0
 50
270.0
  0
MTEXT
  5
4648
330
4640
100
AcDbEntity
  8
寸法
 62
     0
100
AcDbMText
 10
452.5719764424614
 20
331.2161520572209
 30
0.0
 40
5.0
 41
0.0
 46
0.0
 71
     5
 72
     1
  1
\A1;125
  7
ＭＳ ゴシック
 11
0.0
 21
1.0
 31
0.0
 73
     1
 44
1.0
  0
POINT
  5
4649
330
4640
100
AcDbEntity
  8
Defpoints
 62
     0
100
AcDbPoint
 10
420.277652240246
 20
393.6568263713975
 30
0.0
  0
POINT
  5
464A
330
4640
100
AcDbEntity
  8
Defpoints
 62
     0
100
AcDbPoint
 10
420.277652240246
 20
268.7754777430443
 30
0.0
  0
POINT
  5
464B
330
4640
100
AcDbEntity
  8
Defpoints
 62
     0
100
AcDbPoint
 10
460.0719764424614
 20
268.7754777430443
 30
0.0
  0
ENDBLK
  5
4642
330
4640
100
AcDbEntity
  8
0
100
AcDbBlockEnd
  0
BLOCK
  5
4657
330
4651
100
AcDbEntity
  8
0
100
AcDbBlockBegin
  2
test
 70
     0
 10
0.0
 20
0.0
 30
0.0
  3
test
  1
test
  0
LINE
  5
4652
330
4651
100
AcDbEntity
  8
寸法
 62
     6
100
AcDbLine
 10
171.8188895193465
 20
354.1990353422445
 30
0.0
 11
171.8188895193465
 21
404.690473771441
 31
0.0
  0
LINE
  5
4653
330
4651
100
AcDbEntity
  8
寸法
 62
     6
100
AcDbLine
 10
138.4448402434188
 20
151.7677273027159
 30
0.0
 11
138.4448402434188
 21
62.22153683920783
 31
0.0
  0
LINE
  5
4654
330
4651
100
AcDbEntity
  8
寸法
 62
     6
100
AcDbLine
 10
435.5187647214684
 20
324.4276728769934
 30
0.0
 11
578.6904737714411
 21
324.4276728769934
 31
0.0
  0
LWPOLYLINE
  5
4655
330
4651
100
AcDbEntity
  8
寸法
 62
     6
100
AcDbPolyline
 90
        4
 70
     1
 43
0.0
 10
15.30952622855898
 20
62.22153683920783
 10
15.30952622855898
 20
83.05693251533738
 10
39.17153374233129
 20
83.05693251533738
 10
39.17153374233129
 20
62.22153683920783
  0
LINE
  5
4656
330
4651
100
AcDbEntity
  8
寸法
 62
     6
100
AcDbLine
 10
435.5187647214684
 20
176.7216606070547
 30
0.0
 11
578.6904737714411
 21
176.7216606070547
 31
0.0
  0
ENDBLK
  5
4658
330
4651
100
AcDbEntity
  8
0
100
AcDbBlockEnd
  0
ENDSEC
  0
SECTION
  2
ENTITIES
  0
LINE
  5
36CD
330
A
100
AcDbEntity
  8
PRINT BORDER
100
AcDbLine
 10
296.9999999999999
 20
0.0
 30
0.0
 11
296.9999999999999
 21
15.30952622855898
 31
0.0
  0
LINE
  5
36CE
330
A
100
AcDbEntity
  8
テンプレート
100
AcDbLine
 10
437.9999999999999
 20
38.27810890422097
 30
0.0
 11
15.30952622855898
 21
38.27810890422097
 31
0.0
  0
LINE
  5
36CF
330
A
100
AcDbEntity
  8
テンプレート
100
AcDbLine
 10
15.30952622855898
 20
26.22153683920783
 30
0.0
 11
578.6904737714407
 21
26.22153683920783
 31
0.0
  0
TEXT
  5
36D0
330
A
100
AcDbEntity
  8
テンプレート
100
AcDbText
 10
18.06121699514119
 20
32.16825981613692
 30
0.0
 40
3.5
  1
材質
  7
ＭＳ ゴシック
100
AcDbText
  0
TEXT
  5
36D3
330
A
100
AcDbEntity
  8
テンプレート
100
AcDbText
 10
18.06121699514119
 20
56.50959028673083
 30
0.0
 40
3.5
  1
品名
  7
ＭＳ ゴシック
100
AcDbText
  0
TEXT
  5
36D4
330
A
100
AcDbEntity
  8
テンプレート
100
AcDbText
 10
18.06121699514119
 20
44.65099339080098
 30
0.0
 40
3.5
  1
仕上げ
  7
ＭＳ ゴシック
100
AcDbText
  0
TEXT
  5
36D5
330
A
100
AcDbEntity
  8
テンプレート
100
AcDbText
 10
298.8233485179306
 20
56.58523052309897
 30
0.0
 40
3.5
  1
品番
  7
ＭＳ ゴシック
100
AcDbText
  0
TEXT
  5
36D6
330
A
100
AcDbEntity
  8
テンプレート
100
AcDbText
 10
36.7528253083583
 20
53.09440584367189
 30
0.0
 40
5.5
  1
レバーハンドル - FORMANI,One -
  7
ＭＳ ゴシック
100
AcDbText
  0
TEXT
  5
36D7
330
A
100
AcDbEntity
  8
テンプレート
100
AcDbText
 10
313.0171205424464
 20
52.977080524553
 30
0.0
 40
5.5
  1
FOR10-ONT02L-C
  7
ＭＳ ゴシック
100
AcDbText
  0
LINE
  5
36D8
330
A
100
AcDbEntity
  8
テンプレート
100
AcDbLine
 10
437.9999999999999
 20
50.16496477419605
 30
0.0
 11
15.30952622855898
 21
50.16496477419605
 31
0.0
  0
LINE
  5
36D9
330
A
100
AcDbEntity
  8
テンプレート
100
AcDbLine
 10
578.6904737714411
 20
62.22153683920783
 30
0.0
 11
15.30952622855898
 21
62.22153683920783
 31
0.0
  0
LINE
  5
36DA
330
A
100
AcDbEntity
  8
PRINT BORDER
100
AcDbLine
 10
593.9999999999999
 20
210.0
 30
0.0
 11
578.6904737714411
 21
210.0
 31
0.0
  0
LINE
  5
36DB
330
A
100
AcDbEntity
  8
PRINT BORDER
100
AcDbLine
 10
0.0
 20
210.0
 30
0.0
 11
15.30952622855898
 21
210.0
 31
0.0
  0
LINE
  5
36DC
330
A
100
AcDbEntity
  8
PRINT BORDER
100
AcDbLine
 10
296.9999999999999
 20
420.0
 30
0.0
 11
296.9999999999999
 21
404.690473771441
 31
0.0
  0
LINE
  5
36DD
330
A
100
AcDbEntity
  8
テンプレート
100
AcDbLine
 10
578.6904737714411
 20
62.22153683920783
 30
0.0
 11
578.6904737714411
 21
26.22153683920783
 31
0.0
  0
LINE
  5
36DE
330
A
100
AcDbEntity
  8
テンプレート
100
AcDbLine
 10
15.30952622855898
 20
62.22153683920783
 30
0.0
 11
15.30952622855898
 21
26.22153683920783
 31
0.0
  0
TEXT
  5
36E0
330
A
100
AcDbEntity
  8
テンプレート
100
AcDbText
 10
494.9733384955217
 20
16.51938390313694
 30
0.0
 40
5.5
  1
大洋金物株式会社  
  7
ＭＳ ゴシック
100
AcDbText
  0
LINE
  5
36E1
330
A
100
AcDbEntity
  8
テンプレート
100
AcDbLine
 10
437.9999999999999
 20
62.22153683920783
 30
0.0
 11
437.9999999999999
 21
26.22153683920783
 31
0.0
  0
LINE
  5
36E2
330
A
100
AcDbEntity
  8
テンプレート
100
AcDbLine
 10
296.9999999999999
 20
62.22153683920783
 30
0.0
 11
296.9999999999999
 21
26.22153683920783
 31
0.0
  0
INSERT
  5
36E3
330
A
100
AcDbEntity
  8
テンプレート
100
AcDbBlockReference
  2
名称未設定-1
 10
548.3945198859805
 20
-7.642344203993161
 30
0.0
 41
0.180975
 42
0.180975
 43
0.180975
  0
TEXT
  5
36E4
330
A
100
AcDbEntity
  8
テンプレート
100
AcDbText
 10
18.42255191974346
 20
18.90483678917599
 30
0.0
 40
4.0
  1
20150101XX
  7
ＭＳ ゴシック
100
AcDbText
  0
LINE
  5
36E5
330
A
100
AcDbEntity
  8
テンプレート
100
AcDbLine
 10
15.30952622855898
 20
210.0
 30
0.0
 11
15.30952622855898
 21
26.22153683920783
 31
0.0
  0
LINE
  5
36E6
330
A
100
AcDbEntity
  8
テンプレート
100
AcDbLine
 10
15.30952622855898
 20
210.0
 30
0.0
 11
15.30952622855898
 21
404.690473771441
 31
0.0
  0
LINE
  5
36E7
330
A
100
AcDbEntity
  8
テンプレート
100
AcDbLine
 10
296.9999999999999
 20
404.690473771441
 30
0.0
 11
15.30952622855887
 21
404.690473771441
 31
0.0
  0
LINE
  5
36E8
330
A
100
AcDbEntity
  8
テンプレート
100
AcDbLine
 10
296.9999999999999
 20
404.690473771441
 30
0.0
 11
578.6904737714411
 21
404.690473771441
 31
0.0
  0
LINE
  5
36E9
330
A
100
AcDbEntity
  8
テンプレート
100
AcDbLine
 10
578.6904737714411
 20
210.0
 30
0.0
 11
578.6904737714411
 21
404.690473771441
 31
0.0
  0
LINE
  5
36EA
330
A
100
AcDbEntity
  8
テンプレート
100
AcDbLine
 10
578.6904737714411
 20
210.0
 30
0.0
 11
578.6904737714411
 21
26.22153683920783
 31
0.0
  0
LWPOLYLINE
  5
36EB
330
A
100
AcDbEntity
  8
PRINT BORDER
  6
HIDDEN
 48
3.0
100
AcDbPolyline
 90
        4
 70
     1
 43
0.0
 10
0.0
 20
0.0
 10
0.0
 20
420.0
 10
593.9999999999999
 20
420.0
 10
593.9999999999999
 20
0.0
  0
TEXT
  5
36EC
330
A
100
AcDbEntity
  8
テンプレート
100
AcDbText
 10
298.7989156222221
 20
32.62405342819488
 30
0.0
 40
3.5
  1
縮尺
  7
ＭＳ ゴシック
100
AcDbText
  0
TEXT
  5
36ED
330
A
100
AcDbEntity
  8
テンプレート
100
AcDbText
 10
313.0171205424464
 20
28.29362070227194
 30
0.0
 40
5.5
  1
1/2
  7
ＭＳ ゴシック
100
AcDbText
  0
TEXT
  5
37DE
330
A
100
AcDbEntity
  8
テンプレート
100
AcDbText
 10
298.8233485179306
 20
44.52865845808583
 30
0.0
 40
3.5
  1
扉厚
  7
ＭＳ ゴシック
100
AcDbText
  0
SPLINE
  5
4013
330
A
100
AcDbEntity
  8
CutoutUnderlay
100
AcDbSpline
210
0.0
220
0.0
230
1.0
 70
     8
 71
     3
 72
    11
 73
     7
 74
     0
 42
0.000000001
 43
0.0000000001
 40
0.0
 40
0.0
 40
0.0
 40
0.0
 40
1.0
 40
1.0
 40
1.0
 40
2.0
 40
2.0
 40
2.0
 40
2.0
 10
400.2547440709727
 20
219.5605748041935
 30
0.0
 10
391.0752810948837
 20
215.553926111684
 30
0.0
 10
385.1411002067948
 20
206.4898739104869
 30
0.0
 10
385.1411002067948
 20
196.4749747280922
 30
0.0
 10
385.1411002067948
 20
186.4566304479396
 30
0.0
 10
391.0752810948837
 20
177.3925782467424
 30
0.0
 10
400.2547440709727
 20
173.3893746519909
 30
0.0
  0
SPLINE
  5
4014
330
A
100
AcDbEntity
  8
CutoutUnderlay
100
AcDbSpline
210
0.0
220
0.0
230
1.0
 70
     8
 71
     3
 72
    11
 73
     7
 74
     0
 42
0.000000001
 43
0.0000000001
 40
0.0
 40
0.0
 40
0.0
 40
0.0
 40
1.0
 40
1.0
 40
1.0
 40
2.0
 40
2.0
 40
2.0
 40
2.0
 10
420.4051208572914
 20
173.3893746519909
 30
0.0
 10
429.5845838333794
 20
177.3925782467424
 30
0.0
 10
435.5187647214684
 20
186.4566304479396
 30
0.0
 10
435.5187647214684
 20
196.4749747280922
 30
0.0
 10
435.5187647214684
 20
206.4898739104869
 30
0.0
 10
429.5845838333794
 20
215.553926111684
 30
0.0
 10
420.4051208572914
 20
219.5605748041935
 30
0.0
  0
POLYLINE
  5
4015
330
A
100
AcDbEntity
  8
CutoutUnderlay
100
AcDb2dPolyline
 66
     1
 10
0.0
 20
0.0
 30
0.0
  0
VERTEX
  5
4016
330
4015
100
AcDbEntity
  8
CutoutUnderlay
100
AcDbVertex
100
AcDb2dVertex
 10
420.277652240246
 20
208.9634541007034
 30
0.0
  0
VERTEX
  5
4017
330
4015
100
AcDbEntity
  8
CutoutUnderlay
100
AcDbVertex
100
AcDb2dVertex
 10
420.277652240246
 20
258.9139264933897
 30
0.0
  0
SEQEND
  5
4018
330
4015
100
AcDbEntity
  8
CutoutUnderlay
  0
POLYLINE
  5
4019
330
A
100
AcDbEntity
  8
CutoutUnderlay
100
AcDb2dPolyline
 66
     1
 10
0.0
 20
0.0
 30
0.0
  0
VERTEX
  5
401A
330
4019
100
AcDbEntity
  8
CutoutUnderlay
100
AcDbVertex
100
AcDb2dVertex
 10
400.382212688017
 20
208.9634541007034
 30
0.0
  0
VERTEX
  5
401B
330
4019
100
AcDbEntity
  8
CutoutUnderlay
100
AcDbVertex
100
AcDb2dVertex
 10
400.382212688017
 20
258.9139264933897
 30
0.0
  0
SEQEND
  5
401C
330
4019
100
AcDbEntity
  8
CutoutUnderlay
  0
POLYLINE
  5
401D
330
A
100
AcDbEntity
  8
CutoutUnderlay
100
AcDb2dPolyline
 66
     1
 10
0.0
 20
0.0
 30
0.0
  0
VERTEX
  5
401E
330
401D
100
AcDbEntity
  8
CutoutUnderlay
100
AcDbVertex
100
AcDb2dVertex
 10
422.8184118367431
 20
183.9864953554812
 30
0.0
  0
VERTEX
  5
401F
330
401D
100
AcDbEntity
  8
CutoutUnderlay
100
AcDbVertex
100
AcDb2dVertex
 10
422.8184118367431
 20
208.9634541007034
 30
0.0
  0
SEQEND
  5
4020
330
401D
100
AcDbEntity
  8
CutoutUnderlay
  0
POLYLINE
  5
4021
330
A
100
AcDbEntity
  8
CutoutUnderlay
100
AcDb2dPolyline
 66
     1
 10
0.0
 20
0.0
 30
0.0
  0
VERTEX
  5
4022
330
4021
100
AcDbEntity
  8
CutoutUnderlay
100
AcDbVertex
100
AcDb2dVertex
 10
397.841453091521
 20
183.9864953554812
 30
0.0
  0
VERTEX
  5
4023
330
4021
100
AcDbEntity
  8
CutoutUnderlay
100
AcDbVertex
100
AcDb2dVertex
 10
397.841453091521
 20
208.9634541007034
 30
0.0
  0
SEQEND
  5
4024
330
4021
100
AcDbEntity
  8
CutoutUnderlay
  0
POLYLINE
  5
4025
330
A
100
AcDbEntity
  8
CutoutUnderlay
100
AcDb2dPolyline
 66
     1
 10
0.0
 20
0.0
 30
0.0
  0
VERTEX
  5
4026
330
4025
100
AcDbEntity
  8
CutoutUnderlay
100
AcDbVertex
100
AcDb2dVertex
 10
420.277652240246
 20
134.0325778650365
 30
0.0
  0
VERTEX
  5
4027
330
4025
100
AcDbEntity
  8
CutoutUnderlay
100
AcDbVertex
100
AcDb2dVertex
 10
420.277652240246
 20
183.9864953554812
 30
0.0
  0
SEQEND
  5
4028
330
4025
100
AcDbEntity
  8
CutoutUnderlay
  0
POLYLINE
  5
4029
330
A
100
AcDbEntity
  8
CutoutUnderlay
100
AcDb2dPolyline
 66
     1
 10
0.0
 20
0.0
 30
0.0
  0
VERTEX
  5
402A
330
4029
100
AcDbEntity
  8
CutoutUnderlay
100
AcDbVertex
100
AcDb2dVertex
 10
400.382212688017
 20
134.0325778650365
 30
0.0
  0
VERTEX
  5
402B
330
4029
100
AcDbEntity
  8
CutoutUnderlay
100
AcDbVertex
100
AcDb2dVertex
 10
400.382212688017
 20
183.9864953554812
 30
0.0
  0
SEQEND
  5
402C
330
4029
100
AcDbEntity
  8
CutoutUnderlay
  0
POLYLINE
  5
402D
330
A
100
AcDbEntity
  8
CutoutUnderlay
100
AcDb2dPolyline
 66
     1
 10
0.0
 20
0.0
 30
0.0
  0
VERTEX
  5
402E
330
402D
100
AcDbEntity
  8
CutoutUnderlay
100
AcDbVertex
100
AcDb2dVertex
 10
422.8184118367431
 20
208.9634541007034
 30
0.0
  0
VERTEX
  5
402F
330
402D
100
AcDbEntity
  8
CutoutUnderlay
100
AcDbVertex
100
AcDb2dVertex
 10
397.841453091521
 20
208.9634541007034
 30
0.0
  0
SEQEND
  5
4030
330
402D
100
AcDbEntity
  8
CutoutUnderlay
  0
POLYLINE
  5
4031
330
A
100
AcDbEntity
  8
CutoutUnderlay
100
AcDb2dPolyline
 66
     1
 10
0.0
 20
0.0
 30
0.0
  0
VERTEX
  5
4032
330
4031
100
AcDbEntity
  8
CutoutUnderlay
100
AcDbVertex
100
AcDb2dVertex
 10
422.8184118367431
 20
183.9864953554812
 30
0.0
  0
VERTEX
  5
4033
330
4031
100
AcDbEntity
  8
CutoutUnderlay
100
AcDbVertex
100
AcDb2dVertex
 10
397.841453091521
 20
183.9864953554812
 30
0.0
  0
SEQEND
  5
4034
330
4031
100
AcDbEntity
  8
CutoutUnderlay
  0
POLYLINE
  5
4035
330
A
100
AcDbEntity
  8
CutoutUnderlay
100
AcDb2dPolyline
 66
     1
 10
0.0
 20
0.0
 30
0.0
  0
VERTEX
  5
4036
330
4035
100
AcDbEntity
  8
CutoutUnderlay
100
AcDbVertex
100
AcDb2dVertex
 10
400.382212688017
 20
258.9139264933897
 30
0.0
  0
VERTEX
  5
4037
330
4035
100
AcDbEntity
  8
CutoutUnderlay
100
AcDbVertex
100
AcDb2dVertex
 10
420.2793747891261
 20
258.9139264933897
 30
0.0
  0
SEQEND
  5
4038
330
4035
100
AcDbEntity
  8
CutoutUnderlay
  0
POLYLINE
  5
4039
330
A
100
AcDbEntity
  8
CutoutUnderlay
100
AcDb2dPolyline
 66
     1
 10
0.0
 20
0.0
 30
0.0
  0
VERTEX
  5
403A
330
4039
100
AcDbEntity
  8
CutoutUnderlay
100
AcDbVertex
100
AcDb2dVertex
 10
420.277652240246
 20
134.0325778650365
 30
0.0
  0
VERTEX
  5
403B
330
4039
100
AcDbEntity
  8
CutoutUnderlay
100
AcDbVertex
100
AcDb2dVertex
 10
400.3804901391391
 20
134.0325778650365
 30
0.0
  0
SEQEND
  5
403C
330
4039
100
AcDbEntity
  8
CutoutUnderlay
  0
POLYLINE
  5
403D
330
A
100
AcDbEntity
  8
モデル
100
AcDb2dPolyline
 66
     1
 10
0.0
 20
0.0
 30
0.0
  0
VERTEX
  5
403E
330
403D
100
AcDbEntity
  8
モデル
100
AcDbVertex
100
AcDb2dVertex
 10
179.4377232110785
 20
360.9892370713511
 30
0.0
  0
VERTEX
  5
403F
330
403D
100
AcDbEntity
  8
モデル
100
AcDbVertex
100
AcDb2dVertex
 10
179.4377232110785
 20
361.8367311198101
 30
0.0
  0
SEQEND
  5
4040
330
403D
100
AcDbEntity
  8
モデル
  0
POLYLINE
  5
4041
330
A
100
AcDbEntity
  8
モデル
100
AcDb2dPolyline
 66
     1
 10
0.0
 20
0.0
 30
0.0
  0
VERTEX
  5
4042
330
4041
100
AcDbEntity
  8
モデル
100
AcDbVertex
100
AcDb2dVertex
 10
162.9288147549271
 20
360.9892370713511
 30
0.0
  0
VERTEX
  5
4043
330
4041
100
AcDbEntity
  8
モデル
100
AcDbVertex
100
AcDb2dVertex
 10
162.9288147549271
 20
361.8367311198101
 30
0.0
  0
SEQEND
  5
4044
330
4041
100
AcDbEntity
  8
モデル
  0
POLYLINE
  5
4045
330
A
100
AcDbEntity
  8
モデル
100
AcDb2dPolyline
 66
     1
 10
0.0
 20
0.0
 30
0.0
  0
VERTEX
  5
4046
330
4045
100
AcDbEntity
  8
モデル
100
AcDbVertex
100
AcDb2dVertex
 10
176.4749391392311
 20
361.8367311198101
 30
0.0
  0
VERTEX
  5
4047
330
4045
100
AcDbEntity
  8
モデル
100
AcDbVertex
100
AcDb2dVertex
 10
179.4377232110785
 20
361.8367311198101
 30
0.0
  0
SEQEND
  5
4048
330
4045
100
AcDbEntity
  8
モデル
  0
POLYLINE
  5
4049
330
A
100
AcDbEntity
  8
モデル
100
AcDb2dPolyline
 66
     1
 10
0.0
 20
0.0
 30
0.0
  0
VERTEX
  5
404A
330
4049
100
AcDbEntity
  8
モデル
100
AcDbVertex
100
AcDb2dVertex
 10
162.9288147549271
 20
361.8367311198101
 30
0.0
  0
VERTEX
  5
404B
330
4049
100
AcDbEntity
  8
モデル
100
AcDbVertex
100
AcDb2dVertex
 10
165.891598826773
 20
361.8367311198101
 30
0.0
  0
SEQEND
  5
404C
330
4049
100
AcDbEntity
  8
モデル
  0
POLYLINE
  5
404D
330
A
100
AcDbEntity
  8
モデル
100
AcDb2dPolyline
 66
     1
 10
0.0
 20
0.0
 30
0.0
  0
VERTEX
  5
404E
330
404D
100
AcDbEntity
  8
モデル
100
AcDbVertex
100
AcDb2dVertex
 10
170.1256239713078
 20
360.9892370713511
 30
0.0
  0
VERTEX
  5
404F
330
404D
100
AcDbEntity
  8
モデル
100
AcDbVertex
100
AcDb2dVertex
 10
170.1256239713078
 20
361.8367311198101
 30
0.0
  0
VERTEX
  5
4050
330
404D
100
AcDbEntity
  8
モデル
100
AcDbVertex
100
AcDb2dVertex
 10
168.8561054474999
 20
361.8367311198101
 30
0.0
  0
SEQEND
  5
4051
330
404D
100
AcDbEntity
  8
モデル
  0
POLYLINE
  5
4052
330
A
100
AcDbEntity
  8
モデル
100
AcDb2dPolyline
 66
     1
 10
0.0
 20
0.0
 30
0.0
  0
VERTEX
  5
4053
330
4052
100
AcDbEntity
  8
モデル
100
AcDbVertex
100
AcDb2dVertex
 10
171.8188895193464
 20
360.9892370713511
 30
0.0
  0
VERTEX
  5
4054
330
4052
100
AcDbEntity
  8
モデル
100
AcDbVertex
100
AcDb2dVertex
 10
171.8188895193464
 20
361.8367311198101
 30
0.0
  0
VERTEX
  5
4055
330
4052
100
AcDbEntity
  8
モデル
100
AcDbVertex
100
AcDb2dVertex
 10
170.1256239713078
 20
361.8367311198101
 30
0.0
  0
SEQEND
  5
4056
330
4052
100
AcDbEntity
  8
モデル
  0
POLYLINE
  5
4057
330
A
100
AcDbEntity
  8
モデル
100
AcDb2dPolyline
 66
     1
 10
0.0
 20
0.0
 30
0.0
  0
VERTEX
  5
4058
330
4057
100
AcDbEntity
  8
モデル
100
AcDbVertex
100
AcDb2dVertex
 10
173.0884080431555
 20
361.8367311198101
 30
0.0
  0
VERTEX
  5
4059
330
4057
100
AcDbEntity
  8
モデル
100
AcDbVertex
100
AcDb2dVertex
 10
171.8188895193464
 20
361.8367311198101
 30
0.0
  0
SEQEND
  5
405A
330
4057
100
AcDbEntity
  8
モデル
  0
POLYLINE
  5
405B
330
A
100
AcDbEntity
  8
モデル
100
AcDb2dPolyline
 66
     1
 10
0.0
 20
0.0
 30
0.0
  0
VERTEX
  5
405C
330
405B
100
AcDbEntity
  8
モデル
100
AcDbVertex
100
AcDb2dVertex
 10
168.8543828986207
 20
361.8367311198101
 30
0.0
  0
VERTEX
  5
405D
330
405B
100
AcDbEntity
  8
モデル
100
AcDbVertex
100
AcDb2dVertex
 10
166.7373703263523
 20
361.8367311198101
 30
0.0
  0
VERTEX
  5
405E
330
405B
100
AcDbEntity
  8
モデル
100
AcDbVertex
100
AcDb2dVertex
 10
166.7373703263523
 20
360.9892370713511
 30
0.0
  0
SEQEND
  5
405F
330
405B
100
AcDbEntity
  8
モデル
  0
POLYLINE
  5
4060
330
A
100
AcDbEntity
  8
モデル
100
AcDb2dPolyline
 66
     1
 10
0.0
 20
0.0
 30
0.0
  0
VERTEX
  5
4061
330
4060
100
AcDbEntity
  8
モデル
100
AcDbVertex
100
AcDb2dVertex
 10
175.205420615422
 20
360.9892370713511
 30
0.0
  0
VERTEX
  5
4062
330
4060
100
AcDbEntity
  8
モデル
100
AcDbVertex
100
AcDb2dVertex
 10
175.205420615422
 20
361.8367311198101
 30
0.0
  0
VERTEX
  5
4063
330
4060
100
AcDbEntity
  8
モデル
100
AcDbVertex
100
AcDb2dVertex
 10
173.0884080431555
 20
361.8367311198101
 30
0.0
  0
SEQEND
  5
4064
330
4060
100
AcDbEntity
  8
モデル
  0
POLYLINE
  5
4065
330
A
100
AcDbEntity
  8
モデル
100
AcDb2dPolyline
 66
     1
 10
0.0
 20
0.0
 30
0.0
  0
VERTEX
  5
4066
330
4065
100
AcDbEntity
  8
モデル
100
AcDbVertex
100
AcDb2dVertex
 10
161.2355492068876
 20
352.9449338065109
 30
0.0
  0
VERTEX
  5
4067
330
4065
100
AcDbEntity
  8
モデル
100
AcDbVertex
100
AcDb2dVertex
 10
161.2355492068876
 20
313.9981036527539
 30
0.0
  0
SEQEND
  5
4068
330
4065
100
AcDbEntity
  8
モデル
  0
POLYLINE
  5
4069
330
A
100
AcDbEntity
  8
モデル
100
AcDb2dPolyline
 66
     1
 10
0.0
 20
0.0
 30
0.0
  0
VERTEX
  5
406A
330
4069
100
AcDbEntity
  8
モデル
100
AcDbVertex
100
AcDb2dVertex
 10
181.1309887591163
 20
352.9449338065109
 30
0.0
  0
VERTEX
  5
406B
330
4069
100
AcDbEntity
  8
モデル
100
AcDbVertex
100
AcDb2dVertex
 10
181.1309887591163
 20
313.9981036527539
 30
0.0
  0
SEQEND
  5
406C
330
4069
100
AcDbEntity
  8
モデル
  0
POLYLINE
  5
406D
330
A
100
AcDbEntity
  8
モデル
100
AcDb2dPolyline
 66
     1
 10
0.0
 20
0.0
 30
0.0
  0
VERTEX
  5
406E
330
406D
100
AcDbEntity
  8
モデル
100
AcDbVertex
100
AcDb2dVertex
 10
158.6947896103916
 20
355.9077178783579
 30
0.0
  0
VERTEX
  5
406F
330
406D
100
AcDbEntity
  8
モデル
100
AcDbVertex
100
AcDb2dVertex
 10
158.6947896103916
 20
352.9449338065109
 30
0.0
  0
SEQEND
  5
4070
330
406D
100
AcDbEntity
  8
モデル
  0
POLYLINE
  5
4071
330
A
100
AcDbEntity
  8
モデル
100
AcDb2dPolyline
 66
     1
 10
0.0
 20
0.0
 30
0.0
  0
VERTEX
  5
4072
330
4071
100
AcDbEntity
  8
モデル
100
AcDbVertex
100
AcDb2dVertex
 10
183.6717483556134
 20
355.9077178783579
 30
0.0
  0
VERTEX
  5
4073
330
4071
100
AcDbEntity
  8
モデル
100
AcDbVertex
100
AcDb2dVertex
 10
183.6717483556134
 20
352.9449338065109
 30
0.0
  0
SEQEND
  5
4074
330
4071
100
AcDbEntity
  8
モデル
  0
SPLINE
  5
4075
330
A
100
AcDbEntity
  8
モデル
100
AcDbSpline
210
0.0
220
0.0
230
1.0
 70
    11
 71
     3
 72
    17
 73
    13
 74
     0
 42
0.000000001
 43
0.0000000001
 40
0.0
 40
0.0
 40
0.0
 40
0.0
 40
1.0
 40
1.0
 40
1.0
 40
2.0
 40
2.0
 40
2.0
 40
3.0
 40
3.0
 40
3.0
 40
4.0
 40
4.0
 40
4.0
 40
4.0
 10
171.1832689830019
 20
319.0796228457471
 30
0.0
 10
164.2861832715628
 20
319.0796228457471
 30
0.0
 10
158.6947896103916
 20
313.4882291845763
 30
0.0
 10
158.6947896103916
 20
306.591143473136
 30
0.0
 10
158.6947896103916
 20
299.6940577616969
 30
0.0
 10
164.2861832715628
 20
294.1026641005252
 30
0.0
 10
171.1832689830019
 20
294.1026641005252
 30
0.0
 10
178.080354694441
 20
294.1026641005252
 30
0.0
 10
183.6717483556134
 20
299.6940577616969
 30
0.0
 10
183.6717483556134
 20
306.591143473136
 30
0.0
 10
183.6717483556134
 20
313.4882291845763
 30
0.0
 10
178.080354694441
 20
319.0796228457471
 30
0.0
 10
171.1832689830019
 20
319.0796228457471
 30
0.0
  0
SPLINE
  5
4076
102
{ACAD_REACTORS
330
41AA
102
}
330
A
100
AcDbEntity
  8
モデル
100
AcDbSpline
210
0.0
220
0.0
230
1.0
 70
    11
 71
     3
 72
    17
 73
    13
 74
     0
 42
0.000000001
 43
0.0000000001
 40
0.0
 40
0.0
 40
0.0
 40
0.0
 40
1.0
 40
1.0
 40
1.0
 40
2.0
 40
2.0
 40
2.0
 40
3.0
 40
3.0
 40
3.0
 40
4.0
 40
4.0
 40
4.0
 40
4.0
 10
171.1832689830019
 20
316.5371407003721
 30
0.0
 10
165.6866155101737
 20
316.5371407003721
 30
0.0
 10
161.2355492068876
 20
312.0860743970851
 30
0.0
 10
161.2355492068876
 20
306.591143473136
 30
0.0
 10
161.2355492068876
 20
301.0962125491876
 30
0.0
 10
165.6866155101737
 20
296.6417011481431
 30
0.0
 10
171.1832689830019
 20
296.6417011481431
 30
0.0
 10
176.6799224558303
 20
296.6417011481431
 30
0.0
 10
181.1309887591163
 20
301.0962125491876
 30
0.0
 10
181.1309887591163
 20
306.591143473136
 30
0.0
 10
181.1309887591163
 20
312.0860743970851
 30
0.0
 10
176.6799224558303
 20
316.5371407003721
 30
0.0
 10
171.1832689830019
 20
316.5371407003721
 30
0.0
  0
POLYLINE
  5
4077
330
A
100
AcDbEntity
  8
モデル
100
AcDb2dPolyline
 66
     1
 10
0.0
 20
0.0
 30
0.0
  0
VERTEX
  5
4078
330
4077
100
AcDbEntity
  8
モデル
100
AcDbVertex
100
AcDb2dVertex
 10
179.0139761868489
 20
363.5282741189691
 30
0.0
  0
VERTEX
  5
4079
330
4077
100
AcDbEntity
  8
モデル
100
AcDbVertex
100
AcDb2dVertex
 10
179.0139761868489
 20
361.840176217568
 30
0.0
  0
SEQEND
  5
407A
330
4077
100
AcDbEntity
  8
モデル
  0
POLYLINE
  5
407B
330
A
100
AcDbEntity
  8
モデル
100
AcDb2dPolyline
 66
     1
 10
0.0
 20
0.0
 30
0.0
  0
VERTEX
  5
407C
330
407B
100
AcDbEntity
  8
モデル
100
AcDbVertex
100
AcDb2dVertex
 10
162.9288147549271
 20
363.5282741189691
 30
0.0
  0
VERTEX
  5
407D
330
407B
100
AcDbEntity
  8
モデル
100
AcDbVertex
100
AcDb2dVertex
 10
162.9288147549271
 20
361.840176217568
 30
0.0
  0
SEQEND
  5
407E
330
407B
100
AcDbEntity
  8
モデル
  0
POLYLINE
  5
407F
330
A
100
AcDbEntity
  8
モデル
100
AcDb2dPolyline
 66
     1
 10
0.0
 20
0.0
 30
0.0
  0
VERTEX
  5
4080
330
407F
100
AcDbEntity
  8
モデル
100
AcDbVertex
100
AcDb2dVertex
 10
158.6947896103916
 20
352.9449338065109
 30
0.0
  0
VERTEX
  5
4081
330
407F
100
AcDbEntity
  8
モデル
100
AcDbVertex
100
AcDb2dVertex
 10
183.6717483556134
 20
352.9449338065109
 30
0.0
  0
SEQEND
  5
4082
330
407F
100
AcDbEntity
  8
モデル
  0
POLYLINE
  5
4083
330
A
100
AcDbEntity
  8
モデル
100
AcDb2dPolyline
 66
     1
 10
0.0
 20
0.0
 30
0.0
  0
VERTEX
  5
4084
330
4083
100
AcDbEntity
  8
モデル
100
AcDbVertex
100
AcDb2dVertex
 10
172.6646610189258
 20
363.5282741189691
 30
0.0
  0
VERTEX
  5
4085
330
4083
100
AcDbEntity
  8
モデル
100
AcDbVertex
100
AcDb2dVertex
 10
179.0139761868489
 20
363.5282741189691
 30
0.0
  0
SEQEND
  5
4086
330
4083
100
AcDbEntity
  8
モデル
  0
POLYLINE
  5
4087
330
A
100
AcDbEntity
  8
モデル
100
AcDb2dPolyline
 66
     1
 10
0.0
 20
0.0
 30
0.0
  0
VERTEX
  5
4088
330
4087
100
AcDbEntity
  8
モデル
100
AcDbVertex
100
AcDb2dVertex
 10
162.9288147549271
 20
363.5282741189691
 30
0.0
  0
VERTEX
  5
4089
330
4087
100
AcDbEntity
  8
モデル
100
AcDbVertex
100
AcDb2dVertex
 10
169.7018769470791
 20
363.5282741189691
 30
0.0
  0
SEQEND
  5
408A
330
4087
100
AcDbEntity
  8
モデル
  0
POLYLINE
  5
408B
330
A
100
AcDbEntity
  8
モデル
100
AcDb2dPolyline
 66
     1
 10
0.0
 20
0.0
 30
0.0
  0
VERTEX
  5
408C
330
408B
100
AcDbEntity
  8
モデル
100
AcDbVertex
100
AcDb2dVertex
 10
175.205420615422
 20
361.412984095581
 30
0.0
  0
VERTEX
  5
408D
330
408B
100
AcDbEntity
  8
モデル
100
AcDbVertex
100
AcDb2dVertex
 10
176.4749391392311
 20
361.412984095581
 30
0.0
  0
SEQEND
  5
408E
330
408B
100
AcDbEntity
  8
モデル
  0
POLYLINE
  5
408F
330
A
100
AcDbEntity
  8
モデル
100
AcDb2dPolyline
 66
     1
 10
0.0
 20
0.0
 30
0.0
  0
VERTEX
  5
4090
330
408F
100
AcDbEntity
  8
モデル
100
AcDbVertex
100
AcDb2dVertex
 10
165.891598826773
 20
361.412984095581
 30
0.0
  0
VERTEX
  5
4091
330
408F
100
AcDbEntity
  8
モデル
100
AcDbVertex
100
AcDb2dVertex
 10
166.7373703263523
 20
361.412984095581
 30
0.0
  0
SEQEND
  5
4092
330
408F
100
AcDbEntity
  8
モデル
  0
POLYLINE
  5
4093
330
A
100
AcDbEntity
  8
モデル
100
AcDb2dPolyline
 66
     1
 10
0.0
 20
0.0
 30
0.0
  0
VERTEX
  5
4094
330
4093
100
AcDbEntity
  8
モデル
100
AcDbVertex
100
AcDb2dVertex
 10
169.7018769470791
 20
361.8367311198101
 30
0.0
  0
VERTEX
  5
4095
330
4093
100
AcDbEntity
  8
モデル
100
AcDbVertex
100
AcDb2dVertex
 10
169.7018769470791
 20
363.524829021211
 30
0.0
  0
SEQEND
  5
4096
330
4093
100
AcDbEntity
  8
モデル
  0
POLYLINE
  5
4097
330
A
100
AcDbEntity
  8
モデル
100
AcDb2dPolyline
 66
     1
 10
0.0
 20
0.0
 30
0.0
  0
VERTEX
  5
4098
330
4097
100
AcDbEntity
  8
モデル
100
AcDbVertex
100
AcDb2dVertex
 10
172.6646610189258
 20
363.5282741189691
 30
0.0
  0
VERTEX
  5
4099
330
4097
100
AcDbEntity
  8
モデル
100
AcDbVertex
100
AcDb2dVertex
 10
172.6646610189258
 20
361.840176217568
 30
0.0
  0
SEQEND
  5
409A
330
4097
100
AcDbEntity
  8
モデル
  0
POLYLINE
  5
409B
330
A
100
AcDbEntity
  8
モデル
100
AcDb2dPolyline
 66
     1
 10
0.0
 20
0.0
 30
0.0
  0
VERTEX
  5
409C
330
409B
100
AcDbEntity
  8
モデル
100
AcDbVertex
100
AcDb2dVertex
 10
145.9944367256651
 20
360.9892370713511
 30
0.0
  0
VERTEX
  5
409D
330
409B
100
AcDbEntity
  8
モデル
100
AcDbVertex
100
AcDb2dVertex
 10
145.9944367256651
 20
355.9077178783579
 30
0.0
  0
SEQEND
  5
409E
330
409B
100
AcDbEntity
  8
モデル
  0
POLYLINE
  5
409F
102
{ACAD_REACTORS
330
40A7
330
40AA
330
4124
330
4195
330
41AA
102
}
330
A
100
AcDbEntity
  8
モデル
100
AcDb2dPolyline
 66
     1
 10
0.0
 20
0.0
 30
0.0
  0
VERTEX
  5
40A0
330
409F
100
AcDbEntity
  8
モデル
100
AcDbVertex
100
AcDb2dVertex
 10
145.9944367256651
 20
360.9892370713511
 30
0.0
  0
VERTEX
  5
40A1
330
409F
100
AcDbEntity
  8
モデル
100
AcDbVertex
100
AcDb2dVertex
 10
195.9483542161109
 20
360.9892370713511
 30
0.0
  0
VERTEX
  5
40A2
330
409F
100
AcDbEntity
  8
モデル
100
AcDbVertex
100
AcDb2dVertex
 10
195.9483542161109
 20
355.9077178783579
 30
0.0
  0
VERTEX
  5
40A3
330
409F
100
AcDbEntity
  8
モデル
100
AcDbVertex
100
AcDb2dVertex
 10
145.9944367256651
 20
355.9077178783579
 30
0.0
  0
SEQEND
  5
40A4
330
409F
100
AcDbEntity
  8
モデル
  0
DIMENSION
  5
40A5
102
{ACAD_REACTORS
330
40A7
102
}
102
{ACAD_XDICTIONARY
360
40A6
102
}
330
A
100
AcDbEntity
  8
寸法
100
AcDbDimension
  2
*D63
 10
128.2660997408702
 20
355.9077178783579
 30
0.0
 11
128.2660997408702
 21
358.9892370713511
 31
0.0
 70
   160
 71
     5
 42
5.081519192993198
 73
     0
 74
     0
 75
     0
  3
tfrom線あり
100
AcDbAlignedDimension
 13
145.9944367256651
 23
360.9892370713511
 33
0.0
 14
145.9944367256651
 24
355.9077178783579
 34
0.0
 50
90.0
100
AcDbRotatedDimension
  0
DIMENSION
  5
40A8
102
{ACAD_REACTORS
330
40AA
102
}
102
{ACAD_XDICTIONARY
360
40A9
102
}
330
A
100
AcDbEntity
  8
寸法
100
AcDbDimension
  2
*D64
 10
242.8693264174237
 20
360.9892370713511
 30
0.0
 11
235.3693264174237
 21
328.8154691097471
 31
0.0
 70
    32
  1
64.5
 71
     5
 42
64.347535923208
 73
     0
 74
     0
 75
     0
  3
tfrom線あり
100
AcDbAlignedDimension
 13
171.1832689830019
 23
296.6417011481431
 33
0.0
 14
195.9483542161109
 24
360.9892370713511
 34
0.0
 50
90.0
100
AcDbRotatedDimension
  0
DIMENSION
  5
40AB
102
{ACAD_REACTORS
330
40AD
102
}
102
{ACAD_XDICTIONARY
360
40AC
102
}
330
A
100
AcDbEntity
  8
寸法
100
AcDbDimension
  2
*D65
 10
208.6415486617686
 20
316.5371407003721
 30
0.0
 11
201.1415486617686
 21
306.5894209242576
 31
0.0
 70
    32
 71
     5
 42
19.89543955222899
 73
     0
 74
     0
 75
     0
  3
tfrom線あり
100
AcDbAlignedDimension
 13
171.1832689830019
 23
296.6417011481431
 33
0.0
 14
171.1832689830019
 24
316.5371407003721
 34
0.0
 50
90.0
100
AcDbRotatedDimension
  0
DIMENSION
  5
40AE
330
A
100
AcDbEntity
  8
寸法
100
AcDbDimension
  2
*D66
 10
183.6592110010487
 20
279.8206369525809
 30
0.0
 11
171.1592110010487
 21
287.3206369525809
 31
0.0
 70
    32
 71
     5
 42
25.0
 73
     0
 74
     0
 75
     0
  3
tfrom線あり
100
AcDbAlignedDimension
 13
158.6592110010487
 23
306.0265094382256
 33
0.0
 14
183.6592110010487
 24
306.0265094382256
 34
0.0
100
AcDbRotatedDimension
  0
LINE
  5
40B2
330
A
100
AcDbEntity
  8
モデル
100
AcDbLine
 10
202.7923761666266
 20
134.0325620511433
 30
0.0
 11
182.8969366143975
 21
134.0325620511433
 31
0.0
  0
LINE
  5
40B3
330
A
100
AcDbEntity
  8
モデル
100
AcDbLine
 10
202.7923761666266
 20
258.9139106794965
 30
0.0
 11
182.8969366143975
 21
258.9139106794965
 31
0.0
  0
POLYLINE
  5
40B4
330
A
100
AcDbEntity
  8
モデル
100
AcDb2dPolyline
 66
     1
 10
0.0
 20
0.0
 30
0.0
  0
VERTEX
  5
40B5
330
40B4
100
AcDbEntity
  8
モデル
100
AcDbVertex
100
AcDb2dVertex
 10
138.4448402434188
 20
188.0316724287857
 30
0.0
  0
VERTEX
  5
40B6
330
40B4
100
AcDbEntity
  8
モデル
100
AcDbVertex
100
AcDb2dVertex
 10
137.5973461949598
 20
188.0316724287857
 30
0.0
  0
SEQEND
  5
40B7
330
40B4
100
AcDbEntity
  8
モデル
  0
POLYLINE
  5
40B8
330
A
100
AcDbEntity
  8
モデル
100
AcDb2dPolyline
 66
     1
 10
0.0
 20
0.0
 30
0.0
  0
VERTEX
  5
40B9
330
40B8
100
AcDbEntity
  8
モデル
100
AcDbVertex
100
AcDb2dVertex
 10
138.4448402434188
 20
204.5405808849371
 30
0.0
  0
VERTEX
  5
40BA
330
40B8
100
AcDbEntity
  8
モデル
100
AcDbVertex
100
AcDb2dVertex
 10
137.5973461949598
 20
204.5405808849371
 30
0.0
  0
SEQEND
  5
40BB
330
40B8
100
AcDbEntity
  8
モデル
  0
POLYLINE
  5
40BC
330
A
100
AcDbEntity
  8
モデル
100
AcDb2dPolyline
 66
     1
 10
0.0
 20
0.0
 30
0.0
  0
VERTEX
  5
40BD
330
40BC
100
AcDbEntity
  8
モデル
100
AcDbVertex
100
AcDb2dVertex
 10
137.5973461949598
 20
190.9944565006332
 30
0.0
  0
VERTEX
  5
40BE
330
40BC
100
AcDbEntity
  8
モデル
100
AcDbVertex
100
AcDb2dVertex
 10
137.5973461949598
 20
188.0316724287857
 30
0.0
  0
SEQEND
  5
40BF
330
40BC
100
AcDbEntity
  8
モデル
  0
POLYLINE
  5
40C0
330
A
100
AcDbEntity
  8
モデル
100
AcDb2dPolyline
 66
     1
 10
0.0
 20
0.0
 30
0.0
  0
VERTEX
  5
40C1
330
40C0
100
AcDbEntity
  8
モデル
100
AcDbVertex
100
AcDb2dVertex
 10
137.5973461949598
 20
204.5405808849371
 30
0.0
  0
VERTEX
  5
40C2
330
40C0
100
AcDbEntity
  8
モデル
100
AcDbVertex
100
AcDb2dVertex
 10
137.5973461949598
 20
201.5777968130912
 30
0.0
  0
SEQEND
  5
40C3
330
40C0
100
AcDbEntity
  8
モデル
  0
POLYLINE
  5
40C4
330
A
100
AcDbEntity
  8
モデル
100
AcDb2dPolyline
 66
     1
 10
0.0
 20
0.0
 30
0.0
  0
VERTEX
  5
40C5
330
40C4
100
AcDbEntity
  8
モデル
100
AcDbVertex
100
AcDb2dVertex
 10
138.4448402434188
 20
197.3437716685564
 30
0.0
  0
VERTEX
  5
40C6
330
40C4
100
AcDbEntity
  8
モデル
100
AcDbVertex
100
AcDb2dVertex
 10
137.5973461949598
 20
197.3437716685564
 30
0.0
  0
VERTEX
  5
40C7
330
40C4
100
AcDbEntity
  8
モデル
100
AcDbVertex
100
AcDb2dVertex
 10
137.5973461949598
 20
198.6132901923644
 30
0.0
  0
SEQEND
  5
40C8
330
40C4
100
AcDbEntity
  8
モデル
  0
POLYLINE
  5
40C9
330
A
100
AcDbEntity
  8
モデル
100
AcDb2dPolyline
 66
     1
 10
0.0
 20
0.0
 30
0.0
  0
VERTEX
  5
40CA
330
40C9
100
AcDbEntity
  8
モデル
100
AcDbVertex
100
AcDb2dVertex
 10
138.4448402434188
 20
195.6505061205178
 30
0.0
  0
VERTEX
  5
40CB
330
40C9
100
AcDbEntity
  8
モデル
100
AcDbVertex
100
AcDb2dVertex
 10
137.5973461949598
 20
195.6505061205178
 30
0.0
  0
VERTEX
  5
40CC
330
40C9
100
AcDbEntity
  8
モデル
100
AcDbVertex
100
AcDb2dVertex
 10
137.5973461949598
 20
197.3437716685564
 30
0.0
  0
SEQEND
  5
40CD
330
40C9
100
AcDbEntity
  8
モデル
  0
POLYLINE
  5
40CE
330
A
100
AcDbEntity
  8
モデル
100
AcDb2dPolyline
 66
     1
 10
0.0
 20
0.0
 30
0.0
  0
VERTEX
  5
40CF
330
40CE
100
AcDbEntity
  8
モデル
100
AcDbVertex
100
AcDb2dVertex
 10
137.5973461949598
 20
194.3809875967088
 30
0.0
  0
VERTEX
  5
40D0
330
40CE
100
AcDbEntity
  8
モデル
100
AcDbVertex
100
AcDb2dVertex
 10
137.5973461949598
 20
195.6505061205178
 30
0.0
  0
SEQEND
  5
40D1
330
40CE
100
AcDbEntity
  8
モデル
  0
POLYLINE
  5
40D2
330
A
100
AcDbEntity
  8
モデル
100
AcDb2dPolyline
 66
     1
 10
0.0
 20
0.0
 30
0.0
  0
VERTEX
  5
40D3
330
40D2
100
AcDbEntity
  8
モデル
100
AcDbVertex
100
AcDb2dVertex
 10
137.5973461949598
 20
198.6150127412436
 30
0.0
  0
VERTEX
  5
40D4
330
40D2
100
AcDbEntity
  8
モデル
100
AcDbVertex
100
AcDb2dVertex
 10
137.5973461949598
 20
200.732025313512
 30
0.0
  0
VERTEX
  5
40D5
330
40D2
100
AcDbEntity
  8
モデル
100
AcDbVertex
100
AcDb2dVertex
 10
138.4448402434188
 20
200.732025313512
 30
0.0
  0
SEQEND
  5
40D6
330
40D2
100
AcDbEntity
  8
モデル
  0
POLYLINE
  5
40D7
330
A
100
AcDbEntity
  8
モデル
100
AcDb2dPolyline
 66
     1
 10
0.0
 20
0.0
 30
0.0
  0
VERTEX
  5
40D8
330
40D7
100
AcDbEntity
  8
モデル
100
AcDbVertex
100
AcDb2dVertex
 10
138.4448402434188
 20
192.2639750244423
 30
0.0
  0
VERTEX
  5
40D9
330
40D7
100
AcDbEntity
  8
モデル
100
AcDbVertex
100
AcDb2dVertex
 10
137.5973461949598
 20
192.2639750244423
 30
0.0
  0
VERTEX
  5
40DA
330
40D7
100
AcDbEntity
  8
モデル
100
AcDbVertex
100
AcDb2dVertex
 10
137.5973461949598
 20
194.3809875967088
 30
0.0
  0
SEQEND
  5
40DB
330
40D7
100
AcDbEntity
  8
モデル
  0
POLYLINE
  5
40DC
330
A
100
AcDbEntity
  8
モデル
100
AcDb2dPolyline
 66
     1
 10
0.0
 20
0.0
 30
0.0
  0
VERTEX
  5
40DD
330
40DC
100
AcDbEntity
  8
モデル
100
AcDbVertex
100
AcDb2dVertex
 10
146.4891435082587
 20
206.2338464329767
 30
0.0
  0
VERTEX
  5
40DE
330
40DC
100
AcDbEntity
  8
モデル
100
AcDbVertex
100
AcDb2dVertex
 10
180.3544544690226
 20
206.2338464329767
 30
0.0
  0
SEQEND
  5
40DF
330
40DC
100
AcDbEntity
  8
モデル
  0
POLYLINE
  5
40E0
330
A
100
AcDbEntity
  8
モデル
100
AcDb2dPolyline
 66
     1
 10
0.0
 20
0.0
 30
0.0
  0
VERTEX
  5
40E1
330
40E0
100
AcDbEntity
  8
モデル
100
AcDbVertex
100
AcDb2dVertex
 10
146.4891435082587
 20
186.3384068807479
 30
0.0
  0
VERTEX
  5
40E2
330
40E0
100
AcDbEntity
  8
モデル
100
AcDbVertex
100
AcDb2dVertex
 10
180.3544544690226
 20
186.3384068807479
 30
0.0
  0
SEQEND
  5
40E3
330
40E0
100
AcDbEntity
  8
モデル
  0
POLYLINE
  5
40E4
330
A
100
AcDbEntity
  8
モデル
100
AcDb2dPolyline
 66
     1
 10
0.0
 20
0.0
 30
0.0
  0
VERTEX
  5
40E5
330
40E4
100
AcDbEntity
  8
モデル
100
AcDbVertex
100
AcDb2dVertex
 10
143.5263594364118
 20
208.7746060294727
 30
0.0
  0
VERTEX
  5
40E6
330
40E4
100
AcDbEntity
  8
モデル
100
AcDbVertex
100
AcDb2dVertex
 10
146.4891435082587
 20
208.7746060294727
 30
0.0
  0
SEQEND
  5
40E7
330
40E4
100
AcDbEntity
  8
モデル
  0
POLYLINE
  5
40E8
330
A
100
AcDbEntity
  8
モデル
100
AcDb2dPolyline
 66
     1
 10
0.0
 20
0.0
 30
0.0
  0
VERTEX
  5
40E9
330
40E8
100
AcDbEntity
  8
モデル
100
AcDbVertex
100
AcDb2dVertex
 10
143.5263594364118
 20
183.7976472842509
 30
0.0
  0
VERTEX
  5
40EA
330
40E8
100
AcDbEntity
  8
モデル
100
AcDbVertex
100
AcDb2dVertex
 10
146.4891435082587
 20
183.7976472842509
 30
0.0
  0
SEQEND
  5
40EB
330
40E8
100
AcDbEntity
  8
モデル
  0
POLYLINE
  5
40EC
330
A
100
AcDbEntity
  8
モデル
100
AcDb2dPolyline
 66
     1
 10
0.0
 20
0.0
 30
0.0
  0
VERTEX
  5
40ED
330
40EC
100
AcDbEntity
  8
モデル
100
AcDbVertex
100
AcDb2dVertex
 10
135.9058031958006
 20
188.4554194530154
 30
0.0
  0
VERTEX
  5
40EE
330
40EC
100
AcDbEntity
  8
モデル
100
AcDbVertex
100
AcDb2dVertex
 10
137.5939010972018
 20
188.4554194530154
 30
0.0
  0
SEQEND
  5
40EF
330
40EC
100
AcDbEntity
  8
モデル
  0
POLYLINE
  5
40F0
330
A
100
AcDbEntity
  8
モデル
100
AcDb2dPolyline
 66
     1
 10
0.0
 20
0.0
 30
0.0
  0
VERTEX
  5
40F1
330
40F0
100
AcDbEntity
  8
モデル
100
AcDbVertex
100
AcDb2dVertex
 10
135.9058031958006
 20
204.5405808849371
 30
0.0
  0
VERTEX
  5
40F2
330
40F0
100
AcDbEntity
  8
モデル
100
AcDbVertex
100
AcDb2dVertex
 10
137.5939010972018
 20
204.5405808849371
 30
0.0
  0
SEQEND
  5
40F3
330
40F0
100
AcDbEntity
  8
モデル
  0
POLYLINE
  5
40F4
330
A
100
AcDbEntity
  8
モデル
100
AcDb2dPolyline
 66
     1
 10
0.0
 20
0.0
 30
0.0
  0
VERTEX
  5
40F5
330
40F4
100
AcDbEntity
  8
モデル
100
AcDbVertex
100
AcDb2dVertex
 10
146.4891435082587
 20
208.7746060294727
 30
0.0
  0
VERTEX
  5
40F6
330
40F4
100
AcDbEntity
  8
モデル
100
AcDbVertex
100
AcDb2dVertex
 10
146.4891435082587
 20
183.7976472842509
 30
0.0
  0
SEQEND
  5
40F7
330
40F4
100
AcDbEntity
  8
モデル
  0
POLYLINE
  5
40F8
330
A
100
AcDbEntity
  8
モデル
100
AcDb2dPolyline
 66
     1
 10
0.0
 20
0.0
 30
0.0
  0
VERTEX
  5
40F9
330
40F8
100
AcDbEntity
  8
モデル
100
AcDbVertex
100
AcDb2dVertex
 10
135.9058031958006
 20
194.8047346209385
 30
0.0
  0
VERTEX
  5
40FA
330
40F8
100
AcDbEntity
  8
モデル
100
AcDbVertex
100
AcDb2dVertex
 10
135.9058031958006
 20
188.4554194530154
 30
0.0
  0
SEQEND
  5
40FB
330
40F8
100
AcDbEntity
  8
モデル
  0
POLYLINE
  5
40FC
330
A
100
AcDbEntity
  8
モデル
100
AcDb2dPolyline
 66
     1
 10
0.0
 20
0.0
 30
0.0
  0
VERTEX
  5
40FD
330
40FC
100
AcDbEntity
  8
モデル
100
AcDbVertex
100
AcDb2dVertex
 10
135.9058031958006
 20
204.5405808849371
 30
0.0
  0
VERTEX
  5
40FE
330
40FC
100
AcDbEntity
  8
モデル
100
AcDbVertex
100
AcDb2dVertex
 10
135.9058031958006
 20
197.7675186927852
 30
0.0
  0
SEQEND
  5
40FF
330
40FC
100
AcDbEntity
  8
モデル
  0
POLYLINE
  5
4100
330
A
100
AcDbEntity
  8
モデル
100
AcDb2dPolyline
 66
     1
 10
0.0
 20
0.0
 30
0.0
  0
VERTEX
  5
4101
330
4100
100
AcDbEntity
  8
モデル
100
AcDbVertex
100
AcDb2dVertex
 10
138.0210932191889
 20
192.2639750244423
 30
0.0
  0
VERTEX
  5
4102
330
4100
100
AcDbEntity
  8
モデル
100
AcDbVertex
100
AcDb2dVertex
 10
138.0210932191889
 20
190.9944565006332
 30
0.0
  0
SEQEND
  5
4103
330
4100
100
AcDbEntity
  8
モデル
  0
POLYLINE
  5
4104
330
A
100
AcDbEntity
  8
モデル
100
AcDb2dPolyline
 66
     1
 10
0.0
 20
0.0
 30
0.0
  0
VERTEX
  5
4105
330
4104
100
AcDbEntity
  8
モデル
100
AcDbVertex
100
AcDb2dVertex
 10
138.0210932191889
 20
201.5777968130912
 30
0.0
  0
VERTEX
  5
4106
330
4104
100
AcDbEntity
  8
モデル
100
AcDbVertex
100
AcDb2dVertex
 10
138.0210932191889
 20
200.732025313512
 30
0.0
  0
SEQEND
  5
4107
330
4104
100
AcDbEntity
  8
モデル
  0
POLYLINE
  5
4108
330
A
100
AcDbEntity
  8
モデル
100
AcDb2dPolyline
 66
     1
 10
0.0
 20
0.0
 30
0.0
  0
VERTEX
  5
4109
330
4108
100
AcDbEntity
  8
モデル
100
AcDbVertex
100
AcDb2dVertex
 10
137.5973461949598
 20
197.7675186927852
 30
0.0
  0
VERTEX
  5
410A
330
4108
100
AcDbEntity
  8
モデル
100
AcDbVertex
100
AcDb2dVertex
 10
135.9092482935587
 20
197.7675186927852
 30
0.0
  0
SEQEND
  5
410B
330
4108
100
AcDbEntity
  8
モデル
  0
POLYLINE
  5
410C
330
A
100
AcDbEntity
  8
モデル
100
AcDb2dPolyline
 66
     1
 10
0.0
 20
0.0
 30
0.0
  0
VERTEX
  5
410D
330
410C
100
AcDbEntity
  8
モデル
100
AcDbVertex
100
AcDb2dVertex
 10
135.9058031958006
 20
194.8047346209385
 30
0.0
  0
VERTEX
  5
410E
330
410C
100
AcDbEntity
  8
モデル
100
AcDbVertex
100
AcDb2dVertex
 10
137.5939010972018
 20
194.8047346209385
 30
0.0
  0
SEQEND
  5
410F
330
410C
100
AcDbEntity
  8
モデル
  0
POLYLINE
  5
4110
330
A
100
AcDbEntity
  8
モデル
100
AcDb2dPolyline
 66
     1
 10
0.0
 20
0.0
 30
0.0
  0
VERTEX
  5
4111
330
4110
100
AcDbEntity
  8
モデル
100
AcDbVertex
100
AcDb2dVertex
 10
138.4448402434188
 20
221.4749589141991
 30
0.0
  0
VERTEX
  5
4112
330
4110
100
AcDbEntity
  8
モデル
100
AcDbVertex
100
AcDb2dVertex
 10
143.5263594364118
 20
221.4749589141991
 30
0.0
  0
SEQEND
  5
4113
330
4110
100
AcDbEntity
  8
モデル
  0
POLYLINE
  5
4114
330
A
100
AcDbEntity
  8
モデル
100
AcDb2dPolyline
 66
     1
 10
0.0
 20
0.0
 30
0.0
  0
VERTEX
  5
4115
330
4114
100
AcDbEntity
  8
モデル
100
AcDbVertex
100
AcDb2dVertex
 10
138.4448402434188
 20
221.4749589141991
 30
0.0
  0
VERTEX
  5
4116
330
4114
100
AcDbEntity
  8
モデル
100
AcDbVertex
100
AcDb2dVertex
 10
138.4448402434188
 20
171.5210414237534
 30
0.0
  0
VERTEX
  5
4117
330
4114
100
AcDbEntity
  8
モデル
100
AcDbVertex
100
AcDb2dVertex
 10
143.5263594364118
 20
171.5210414237534
 30
0.0
  0
VERTEX
  5
4118
330
4114
100
AcDbEntity
  8
モデル
100
AcDbVertex
100
AcDb2dVertex
 10
143.5263594364118
 20
221.4749589141991
 30
0.0
  0
SEQEND
  5
4119
330
4114
100
AcDbEntity
  8
モデル
  0
LINE
  5
411A
330
A
100
AcDbEntity
  8
モデル
100
AcDbLine
 10
205.3314132142444
 20
208.9634382868102
 30
0.0
 11
205.3314132142444
 21
183.986479541588
 31
0.0
  0
LINE
  5
411B
330
A
100
AcDbEntity
  8
モデル
100
AcDbLine
 10
205.3314132142444
 20
208.9634382868102
 30
0.0
 11
180.3544544690226
 21
208.9634382868102
 31
0.0
  0
LINE
  5
411C
330
A
100
AcDbEntity
  8
モデル
100
AcDbLine
 10
180.3544544690226
 20
208.9634382868102
 30
0.0
 11
180.3544544690226
 21
183.986479541588
 31
0.0
  0
LINE
  5
411D
330
A
100
AcDbEntity
  8
モデル
100
AcDbLine
 10
202.7923761666266
 20
258.9139106794965
 30
0.0
 11
202.7923761666266
 21
208.9634382868102
 31
0.0
  0
LINE
  5
411E
330
A
100
AcDbEntity
  8
モデル
100
AcDbLine
 10
182.8969366143975
 20
258.9139106794965
 30
0.0
 11
182.8969366143975
 21
208.9634382868102
 31
0.0
  0
LINE
  5
411F
330
A
100
AcDbEntity
  8
モデル
100
AcDbLine
 10
182.8969366143975
 20
183.986479541588
 30
0.0
 11
182.8969366143975
 21
134.0325620511434
 31
0.0
  0
LINE
  5
4120
330
A
100
AcDbEntity
  8
モデル
100
AcDbLine
 10
202.7923761666266
 20
183.986479541588
 30
0.0
 11
202.7923761666266
 21
134.0325620511434
 31
0.0
  0
LINE
  5
4121
330
A
100
AcDbEntity
  8
モデル
100
AcDbLine
 10
205.3314132142444
 20
183.986479541588
 30
0.0
 11
180.3544544690226
 21
183.986479541588
 31
0.0
  0
DIMENSION
  5
4122
102
{ACAD_REACTORS
330
4124
102
}
102
{ACAD_XDICTIONARY
360
4123
102
}
330
A
100
AcDbEntity
  8
寸法
100
AcDbDimension
  2
*D70
 10
128.2660997408702
 20
355.9077178783579
 30
0.0
 11
120.7660997408702
 21
325.0051909894415
 31
0.0
 70
    32
 71
     5
 42
61.80505377783271
 73
     0
 74
     0
 75
     0
  3
tfrom線あり
100
AcDbAlignedDimension
 13
171.1832689830019
 23
294.1026641005252
 33
0.0
 14
145.9944367256651
 24
355.9077178783579
 34
0.0
 50
90.0
100
AcDbRotatedDimension
  0
CIRCLE
  5
4125
330
A
100
AcDbEntity
  8
CutoutUnderlay
100
AcDbCircle
 10
391.3299324641321
 20
196.4749747280923
 30
0.0
 40
3.548736555542291
  0
CIRCLE
  5
4126
330
A
100
AcDbEntity
  8
CutoutUnderlay
100
AcDbCircle
 10
429.3299324641321
 20
196.4749747280923
 30
0.0
 40
3.548736555542291
  0
DIMENSION
  5
4193
102
{ACAD_REACTORS
330
4195
102
}
102
{ACAD_XDICTIONARY
360
4194
102
}
330
A
100
AcDbEntity
  8
寸法
100
AcDbDimension
  2
*D71
 10
105.2100392825626
 20
294.1026641005252
 30
0.0
 11
97.71003928256265
 21
327.5459505859382
 31
0.0
 70
    32
 71
     5
 42
66.88657297082591
 73
     0
 74
     0
 75
     0
  3
tfrom線あり
100
AcDbAlignedDimension
 13
145.9944367256651
 23
360.9892370713511
 33
0.0
 14
171.1832689830019
 24
294.1026641005252
 34
0.0
 50
90.0
100
AcDbRotatedDimension
  0
DIMENSION
  5
41A8
102
{ACAD_REACTORS
330
41AA
102
}
102
{ACAD_XDICTIONARY
360
41A9
102
}
330
A
100
AcDbEntity
  8
寸法
100
AcDbDimension
  2
*D72
 10
208.6415486617686
 20
316.5371407003721
 30
0.0
 11
201.1415486617686
 21
338.7631888858616
 31
0.0
 70
    32
  1
44.5
 71
     5
 42
44.45209637097901
 73
     0
 74
     0
 75
     0
  3
tfrom線あり
100
AcDbAlignedDimension
 13
195.9483542161109
 23
360.9892370713511
 33
0.0
 14
171.1832689830019
 24
316.5371407003721
 34
0.0
 50
90.0
100
AcDbRotatedDimension
  0
TEXT
  5
41F2
330
A
100
AcDbEntity
  8
テンプレート
100
AcDbText
 10
36.3348253083583
 20
41.76580421576505
 30
0.0
 40
5.5
  1
サテン・ホワイト・ブラック
  7
ＭＳ ゴシック
100
AcDbText
  0
TEXT
  5
41F3
330
A
100
AcDbEntity
  8
テンプレート
100
AcDbText
 10
36.3348253083583
 20
29.66451340726899
 30
0.0
 40
5.5
  1
ステンレス
  7
ＭＳ ゴシック
100
AcDbText
  0
LINE
  5
428A
330
A
100
AcDbEntity
  8
寸法
  6
CENTER
 48
0.5
100
AcDbLine
 10
151.971395470888
 20
364.1794793475114
 30
0.0
 11
151.971395470888
 21
358.1173006185188
 31
0.0
  0
LINE
  5
428B
330
A
100
AcDbEntity
  8
寸法
  6
CENTER
 48
0.5
100
AcDbLine
 10
189.971395470888
 20
364.1794793475114
 30
0.0
 11
189.971395470888
 21
358.1173006185188
 31
0.0
  0
DIMENSION
  5
428C
330
A
100
AcDbEntity
  8
寸法
100
AcDbDimension
  2
*D76
 10
189.971395470888
 20
378.8412856637324
 30
0.0
 11
170.971395470888
 21
386.3412856637324
 31
0.0
 70
    32
 71
     5
 42
38.0
 73
     0
 74
     0
 75
     0
  3
tfrom線あり
100
AcDbAlignedDimension
 13
151.971395470888
 23
364.1794793475114
 33
0.0
 14
189.971395470888
 24
364.1794793475114
 34
0.0
100
AcDbRotatedDimension
  0
TEXT
  5
4339
330
A
100
AcDbEntity
  8
テンプレート
100
AcDbText
 10
440.0887524673468
 20
56.58523052309891
 30
0.0
 40
3.5
  1
備考
  7
ＭＳ ゴシック
100
AcDbText
  0
TEXT
  5
433A
330
A
100
AcDbEntity
  8
テンプレート
100
AcDbText
 10
449.0017237694899
 20
47.28154793898153
 30
0.0
 40
5.5
  1
取付方＝呼込み(ビス・ナット付)
  7
ＭＳ ゴシック
100
AcDbText
  0
TEXT
  5
43A0
330
A
100
AcDbEntity
  8
テンプレート
100
AcDbText
 10
449.261902996396
 20
38.67481006609808
 30
0.0
 40
5.5
  1
バネ無し座金
  7
ＭＳ ゴシック
100
AcDbText
  0
TEXT
  5
43A1
330
A
100
AcDbEntity
  8
テンプレート
100
AcDbText
 10
449.261902996396
 20
30.67188140838627
 30
0.0
 40
5.5
  1

  7
ＭＳ ゴシック
100
AcDbText
  0
HATCH
  5
4594
330
A
100
AcDbEntity
  8
CutoutOverlay
100
AcDbHatch
 10
0.0
 20
0.0
 30
0.0
210
0.0
220
0.0
230
1.0
  2
ANSI31
 70
     0
 71
     1
 91
        3
 92
        1
 93
        1
 72
     2
 10
391.3299324641321
 20
196.4749747280923
 40
4.0
 50
0.0
 51
360.0
 73
     1
 97
        1
330
4596
 92
        1
 93
        1
 72
     2
 10
410.3299324641321
 20
196.4749747280923
 40
15.0
 50
0.0
 51
360.0
 73
     1
 97
        1
330
4597
 92
        1
 93
        1
 72
     2
 10
429.3299324641321
 20
196.4749747280923
 40
4.0
 50
0.0
 51
360.0
 73
     1
 97
        1
330
4595
 75
     0
 76
     1
 52
0.0
 41
1.0
 77
     0
 78
     1
 53
45.0
 43
1.457807952577184
 44
15.61212780805437
 45
-2.245064030267288
 46
2.245064030267288
 79
     0
 98
        1
 10
1.457807952577184
 20
15.61212780805437
1001
ACAD
1010
0.0
1020
0.0
1030
0.0
  0
CIRCLE
  5
4595
102
{ACAD_REACTORS
330
4594
102
}
330
A
100
AcDbEntity
  8
CutoutOverlay
100
AcDbCircle
 10
429.3299324641321
 20
196.4749747280923
 30
0.0
 40
4.0
  0
CIRCLE
  5
4596
102
{ACAD_REACTORS
330
4594
102
}
330
A
100
AcDbEntity
  8
CutoutOverlay
100
AcDbCircle
 10
391.3299324641321
 20
196.4749747280923
 30
0.0
 40
4.0
  0
CIRCLE
  5
4597
102
{ACAD_REACTORS
330
459C
330
4594
102
}
330
A
100
AcDbEntity
  8
CutoutOverlay
100
AcDbCircle
 10
410.3299324641321
 20
196.4749747280923
 30
0.0
 40
15.0
  0
DIMENSION
  5
4598
330
A
100
AcDbEntity
  8
寸法
100
AcDbDimension
  2
*D86
 10
410.3299324641321
 20
229.4144613421585
 30
0.0
 11
400.8299324641321
 21
236.9144613421585
 31
0.0
 70
    32
 71
     5
 42
19.0
 73
     0
 74
     0
 75
     0
  3
tfrom線あり
100
AcDbAlignedDimension
 13
391.3299324641321
 23
201.6278377646767
 33
0.0
 14
410.3299324641321
 24
215.8033502848862
 34
0.0
100
AcDbRotatedDimension
  0
DIMENSION
  5
4599
330
A
100
AcDbEntity
  8
寸法
100
AcDbDimension
  2
*D87
 10
429.3299324641321
 20
229.4144613421585
 30
0.0
 11
419.8299324641321
 21
236.9144613421585
 31
0.0
 70
    32
 71
     5
 42
19.0
 73
     0
 74
     0
 75
     0
  3
tfrom線あり
100
AcDbAlignedDimension
 13
410.3299324641321
 23
215.8033502848862
 33
0.0
 14
429.3299324641321
 24
201.6278377646767
 34
0.0
100
AcDbRotatedDimension
  0
LEADER
  5
459A
102
{ACAD_REACTORS
330
459C
102
}
102
{ACAD_XDICTIONARY
360
459B
102
}
330
A
100
AcDbEntity
  8
寸法
100
AcDbLeader
  3
tfrom線あり
 76
     3
 10
410.3299324641321
 20
211.4749747280923
 30
0.0
 10
410.3299324641321
 20
216.3459030962811
 30
0.0
 10
449.41091500212
 20
216.3459030962811
 30
0.0
  0
TEXT
  5
459D
330
A
100
AcDbEntity
  8
寸法
100
AcDbText
 10
439.5273630688681
 20
218.6547775237573
 30
0.0
 40
5.0
  1
ø30
  7
ＭＳ ゴシック
100
AcDbText
  0
DIMENSION
  5
45A0
330
A
100
AcDbEntity
  8
寸法
100
AcDbDimension
  2
*D88
 10
391.3299324641321
 20
159.6870671464
 30
0.0
 11
382.334932464132
 21
159.6870671464
 31
0.0
 70
   160
  1
ø8
 71
     5
 42
38.0
 73
     0
 74
     1
 75
     1
  3
tfrom線あり
100
AcDbAlignedDimension
 13
429.3299324641321
 23
192.4749747280923
 33
0.0
 14
391.3299324641321
 24
192.4749747280923
 34
0.0
100
AcDbRotatedDimension
1001
ACAD
1000
DSTYLE
1002
{
1070
    73
1070
     0
1070
   147
1040
2.0
1070
   172
1070
     1
1002
}
  0
LEADER
  5
45A1
102
{ACAD_XDICTIONARY
360
45A2
102
}
330
A
100
AcDbEntity
  8
寸法
100
AcDbLeader
  3
tfrom線あり
 76
     3
 10
410.3299324641321
 20
196.4749747280923
 30
0.0
 10
443.610819365685
 20
172.1790772568748
 30
0.0
 10
511.566097893293
 20
172.1790772568748
 30
0.0
  0
TEXT
  5
45A3
330
A
100
AcDbEntity
  8
寸法
100
AcDbText
 10
445.1917564353082
 20
174.8145302065702
 30
0.0
 40
5.0
  1
レバー角芯 センター
  7
ＭＳ ゴシック
100
AcDbText
  0
SPLINE
  5
4606
330
A
100
AcDbEntity
  8
モデル
100
AcDbSpline
210
0.0
220
0.0
230
1.0
 70
     8
 71
     3
 72
    11
 73
     7
 74
     0
 42
0.000000001
 43
0.0000000001
 40
0.0
 40
0.0
 40
0.0
 40
0.0
 40
1.0
 40
1.0
 40
1.0
 40
2.0
 40
2.0
 40
2.0
 40
2.0
 10
400.2547440709727
 20
354.3034746822013
 30
0.0
 10
391.0752810948837
 20
350.2968259896919
 30
0.0
 10
385.1411002067948
 20
341.2327737884947
 30
0.0
 10
385.1411002067948
 20
331.2178746061001
 30
0.0
 10
385.1411002067948
 20
321.1995303259474
 30
0.0
 10
391.0752810948837
 20
312.1354781247503
 30
0.0
 10
400.2547440709727
 20
308.1322745299987
 30
0.0
  0
SPLINE
  5
4607
330
A
100
AcDbEntity
  8
モデル
100
AcDbSpline
210
0.0
220
0.0
230
1.0
 70
     8
 71
     3
 72
    11
 73
     7
 74
     0
 42
0.000000001
 43
0.0000000001
 40
0.0
 40
0.0
 40
0.0
 40
0.0
 40
1.0
 40
1.0
 40
1.0
 40
2.0
 40
2.0
 40
2.0
 40
2.0
 10
420.4051208572914
 20
308.1322745299987
 30
0.0
 10
429.5845838333794
 20
312.1354781247503
 30
0.0
 10
435.5187647214684
 20
321.1995303259474
 30
0.0
 10
435.5187647214684
 20
331.2178746061001
 30
0.0
 10
435.5187647214684
 20
341.2327737884947
 30
0.0
 10
429.5845838333794
 20
350.2968259896919
 30
0.0
 10
420.4051208572914
 20
354.3034746822013
 30
0.0
  0
POLYLINE
  5
4608
330
A
100
AcDbEntity
  8
モデル
100
AcDb2dPolyline
 66
     1
 10
0.0
 20
0.0
 30
0.0
  0
VERTEX
  5
4609
330
4608
100
AcDbEntity
  8
モデル
100
AcDbVertex
100
AcDb2dVertex
 10
420.277652240246
 20
343.7063539787111
 30
0.0
  0
VERTEX
  5
460A
330
4608
100
AcDbEntity
  8
モデル
100
AcDbVertex
100
AcDb2dVertex
 10
420.277652240246
 20
393.6568263713975
 30
0.0
  0
SEQEND
  5
460B
330
4608
100
AcDbEntity
  8
モデル
  0
POLYLINE
  5
460C
330
A
100
AcDbEntity
  8
モデル
100
AcDb2dPolyline
 66
     1
 10
0.0
 20
0.0
 30
0.0
  0
VERTEX
  5
460D
330
460C
100
AcDbEntity
  8
モデル
100
AcDbVertex
100
AcDb2dVertex
 10
400.382212688017
 20
343.7063539787111
 30
0.0
  0
VERTEX
  5
460E
330
460C
100
AcDbEntity
  8
モデル
100
AcDbVertex
100
AcDb2dVertex
 10
400.382212688017
 20
393.6568263713975
 30
0.0
  0
SEQEND
  5
460F
330
460C
100
AcDbEntity
  8
モデル
  0
POLYLINE
  5
4610
330
A
100
AcDbEntity
  8
モデル
100
AcDb2dPolyline
 66
     1
 10
0.0
 20
0.0
 30
0.0
  0
VERTEX
  5
4611
330
4610
100
AcDbEntity
  8
モデル
100
AcDbVertex
100
AcDb2dVertex
 10
422.8184118367431
 20
318.7293952334889
 30
0.0
  0
VERTEX
  5
4612
330
4610
100
AcDbEntity
  8
モデル
100
AcDbVertex
100
AcDb2dVertex
 10
422.8184118367431
 20
343.7063539787111
 30
0.0
  0
SEQEND
  5
4613
330
4610
100
AcDbEntity
  8
モデル
  0
POLYLINE
  5
4614
330
A
100
AcDbEntity
  8
モデル
100
AcDb2dPolyline
 66
     1
 10
0.0
 20
0.0
 30
0.0
  0
VERTEX
  5
4615
330
4614
100
AcDbEntity
  8
モデル
100
AcDbVertex
100
AcDb2dVertex
 10
397.841453091521
 20
318.7293952334889
 30
0.0
  0
VERTEX
  5
4616
330
4614
100
AcDbEntity
  8
モデル
100
AcDbVertex
100
AcDb2dVertex
 10
397.841453091521
 20
343.7063539787111
 30
0.0
  0
SEQEND
  5
4617
330
4614
100
AcDbEntity
  8
モデル
  0
POLYLINE
  5
4618
330
A
100
AcDbEntity
  8
モデル
100
AcDb2dPolyline
 66
     1
 10
0.0
 20
0.0
 30
0.0
  0
VERTEX
  5
4619
330
4618
100
AcDbEntity
  8
モデル
100
AcDbVertex
100
AcDb2dVertex
 10
420.277652240246
 20
268.7754777430443
 30
0.0
  0
VERTEX
  5
461A
330
4618
100
AcDbEntity
  8
モデル
100
AcDbVertex
100
AcDb2dVertex
 10
420.277652240246
 20
318.7293952334889
 30
0.0
  0
SEQEND
  5
461B
330
4618
100
AcDbEntity
  8
モデル
  0
POLYLINE
  5
461C
330
A
100
AcDbEntity
  8
モデル
100
AcDb2dPolyline
 66
     1
 10
0.0
 20
0.0
 30
0.0
  0
VERTEX
  5
461D
330
461C
100
AcDbEntity
  8
モデル
100
AcDbVertex
100
AcDb2dVertex
 10
400.382212688017
 20
268.7754777430443
 30
0.0
  0
VERTEX
  5
461E
330
461C
100
AcDbEntity
  8
モデル
100
AcDbVertex
100
AcDb2dVertex
 10
400.382212688017
 20
318.7293952334889
 30
0.0
  0
SEQEND
  5
461F
330
461C
100
AcDbEntity
  8
モデル
  0
POLYLINE
  5
4620
330
A
100
AcDbEntity
  8
モデル
100
AcDb2dPolyline
 66
     1
 10
0.0
 20
0.0
 30
0.0
  0
VERTEX
  5
4621
330
4620
100
AcDbEntity
  8
モデル
100
AcDbVertex
100
AcDb2dVertex
 10
422.8184118367431
 20
343.7063539787111
 30
0.0
  0
VERTEX
  5
4622
330
4620
100
AcDbEntity
  8
モデル
100
AcDbVertex
100
AcDb2dVertex
 10
397.841453091521
 20
343.7063539787111
 30
0.0
  0
SEQEND
  5
4623
330
4620
100
AcDbEntity
  8
モデル
  0
POLYLINE
  5
4624
330
A
100
AcDbEntity
  8
モデル
100
AcDb2dPolyline
 66
     1
 10
0.0
 20
0.0
 30
0.0
  0
VERTEX
  5
4625
330
4624
100
AcDbEntity
  8
モデル
100
AcDbVertex
100
AcDb2dVertex
 10
422.8184118367431
 20
318.7293952334889
 30
0.0
  0
VERTEX
  5
4626
330
4624
100
AcDbEntity
  8
モデル
100
AcDbVertex
100
AcDb2dVertex
 10
397.841453091521
 20
318.7293952334889
 30
0.0
  0
SEQEND
  5
4627
330
4624
100
AcDbEntity
  8
モデル
  0
POLYLINE
  5
4628
330
A
100
AcDbEntity
  8
モデル
100
AcDb2dPolyline
 66
     1
 10
0.0
 20
0.0
 30
0.0
  0
VERTEX
  5
4629
330
4628
100
AcDbEntity
  8
モデル
100
AcDbVertex
100
AcDb2dVertex
 10
400.382212688017
 20
393.6568263713975
 30
0.0
  0
VERTEX
  5
462A
330
4628
100
AcDbEntity
  8
モデル
100
AcDbVertex
100
AcDb2dVertex
 10
420.2793747891261
 20
393.6568263713975
 30
0.0
  0
SEQEND
  5
462B
330
4628
100
AcDbEntity
  8
モデル
  0
POLYLINE
  5
462C
330
A
100
AcDbEntity
  8
モデル
100
AcDb2dPolyline
 66
     1
 10
0.0
 20
0.0
 30
0.0
  0
VERTEX
  5
462D
330
462C
100
AcDbEntity
  8
モデル
100
AcDbVertex
100
AcDb2dVertex
 10
420.277652240246
 20
268.7754777430443
 30
0.0
  0
VERTEX
  5
462E
330
462C
100
AcDbEntity
  8
モデル
100
AcDbVertex
100
AcDb2dVertex
 10
400.3804901391391
 20
268.7754777430443
 30
0.0
  0
SEQEND
  5
462F
330
462C
100
AcDbEntity
  8
モデル
  0
DIMENSION
  5
4630
330
A
100
AcDbEntity
  8
寸法
100
AcDbDimension
  2
*D90
 10
364.8364049779777
 20
305.9812372903287
 30
0.0
 11
357.3364049779777
 21
330.9812372903287
 31
0.0
 70
    32
 71
     5
 42
50.0
 73
     0
 74
     0
 75
     0
  3
tfrom線あり
100
AcDbAlignedDimension
 13
395.9746693298222
 23
355.9812372903287
 33
0.0
 14
395.9746693298222
 24
305.9812372903287
 34
0.0
 50
90.0
100
AcDbRotatedDimension
  0
DIMENSION
  5
4631
330
A
100
AcDbEntity
  8
寸法
100
AcDbDimension
  2
*D91
 10
460.0719764424614
 20
268.7754777430443
 30
0.0
 11
452.5719764424614
 21
331.2161520572209
 31
0.0
 70
    32
 71
     5
 42
124.8813486283532
 73
     0
 74
     0
 75
     0
  3
tfrom線あり
100
AcDbAlignedDimension
 13
420.277652240246
 23
393.6568263713975
 33
0.0
 14
420.277652240246
 24
268.7754777430443
 34
0.0
 50
90.0
100
AcDbRotatedDimension
  0
CIRCLE
  5
4632
330
A
100
AcDbEntity
  8
モデル
100
AcDbCircle
 10
391.3299324641321
 20
331.2178746061001
 30
0.0
 40
3.548736555542291
  0
CIRCLE
  5
4633
330
A
100
AcDbEntity
  8
モデル
100
AcDbCircle
 10
429.3299324641321
 20
331.2178746061001
 30
0.0
 40
3.548736555542291
  0
TEXT
  5
46DB
330
A
100
AcDbEntity
  8
寸法
100
AcDbText
 10
363.6017141104294
 20
254.9975325259455
 30
0.0
 40
5.0
  1
<切欠図>
  7
ＭＳ ゴシック
100
AcDbText
  0
LINE
  5
4730
330
A
100
AcDbEntity
  8
寸法
  6
CENTER
 48
0.9
100
AcDbLine
 10
154.7102153753026
 20
181.1508050497453
 30
0.0
 11
154.7102153753025
 21
170.0627756762939
 31
0.0
  0
LINE
  5
4731
330
A
100
AcDbEntity
  8
寸法
100
AcDbLine
 10
153.1711815561957
 20
168.0626910024268
 30
0.0
 11
153.1711815561957
 21
164.9377521613833
 31
0.0
  0
LINE
  5
4732
330
A
100
AcDbEntity
  8
寸法
100
AcDbLine
 10
153.1711815561957
 20
168.0626910024268
 30
0.0
 11
154.6224198203168
 21
168.9229491660999
 31
0.0
  0
LINE
  5
4733
330
A
100
AcDbEntity
  8
寸法
100
AcDbLine
 10
153.1711815561957
 20
164.9377521613833
 30
0.0
 11
154.6224198203168
 21
164.9377521613833
 31
0.0
  0
LINE
  5
4734
330
A
100
AcDbEntity
  8
寸法
100
AcDbLine
 10
156.073658084438
 20
168.0626910024268
 30
0.0
 11
156.073658084438
 21
164.9377521613833
 31
0.0
  0
LINE
  5
4735
330
A
100
AcDbEntity
  8
寸法
100
AcDbLine
 10
156.073658084438
 20
168.0626910024268
 30
0.0
 11
154.6224198203168
 21
168.9229491660999
 31
0.0
  0
LINE
  5
4736
330
A
100
AcDbEntity
  8
寸法
100
AcDbLine
 10
156.073658084438
 20
164.9377521613833
 30
0.0
 11
154.6224198203168
 21
164.9377521613833
 31
0.0
  0
LINE
  5
4737
330
A
100
AcDbEntity
  8
寸法
100
AcDbLine
 10
153.1711815561957
 20
168.0626910024268
 30
0.0
 11
156.073658084438
 21
167.5917752188368
 31
0.0
  0
LINE
  5
4738
330
A
100
AcDbEntity
  8
寸法
100
AcDbLine
 10
153.1711815561957
 20
167.2435070348802
 30
0.0
 11
156.073658084438
 21
166.7725912512903
 31
0.0
  0
LINE
  5
4739
330
A
100
AcDbEntity
  8
寸法
100
AcDbLine
 10
153.1711815561957
 20
166.3901904020193
 30
0.0
 11
156.073658084438
 21
165.9192746184293
 31
0.0
  0
LINE
  5
473A
330
A
100
AcDbEntity
  8
寸法
100
AcDbLine
 10
153.1711815561957
 20
165.6051390997873
 30
0.0
 11
156.073658084438
 21
165.1342233161973
 31
0.0
  0
MTEXT
  5
477E
330
A
100
AcDbEntity
  8
TFORMLOGO
100
AcDbMText
 10
21.75722464232501
 20
101.3378041031601
 30
0.0
 40
5.0
 41
407.626437202454
 46
13.71333333333333
 71
     1
 72
     5
  1
{※ T型レバーは操作時に約30度の傾きが出来るため、一般片開き扉の場合、戸当り枠と干渉することが考えられます。\P   子扉を作り両開きにする。又は、押し勝手側をL型レバーにし、T型レバーとL型レバーの組合せにすることを提案させて頂きます。}
  7
ＭＳ ゴシック
 73
     1
 44
1.0
1001
ACAD
1000
ACAD_MTEXT_DEFINED_HEIGHT_BEGIN
1070
    46
1040
13.71333333333333
1000
ACAD_MTEXT_DEFINED_HEIGHT_END
  0
TEXT
  5
477F
330
A
100
AcDbEntity
  8
テンプレート
100
AcDbText
 10
21.00471371819901
 20
114.7138737105522
 30
0.0
 40
5.0
  1
　 加工は現物合わせの上行って下さい。
  7
ＭＳ ゴシック
100
AcDbText
  0
TEXT
  5
4780
330
A
100
AcDbEntity
  8
テンプレート
100
AcDbText
 10
21.17695680040765
 20
122.8176578066921
 30
0.0
 40
5.0
  1
※ 輸入製品の為、国内製品と比べ製品寸法の個体差に幅が有ります。
  7
ＭＳ ゴシック
100
AcDbText
  0
TEXT
  5
4781
330
A
100
AcDbEntity
  8
テンプレート
100
AcDbText
 10
21.00471371819901
 20
105.3422424060711
 30
0.0
 40
5.0
  1
※ ご注文の際は正確な扉厚の指示をしてください。
  7
ＭＳ ゴシック
100
AcDbText
  0
TEXT
  5
4782
330
A
100
AcDbEntity
  8
テンプレート
100
AcDbText
 10
17.36714697406339
 20
68.04076368876076
 30
0.0
 40
5.0
  1
　　を用意して塗布してください。(推奨商品　住友3M社TL42J等)
  7
ＭＳ ゴシック
100
AcDbText
  0
TEXT
  5
4783
330
A
100
AcDbEntity
  8
テンプレート
100
AcDbText
 10
21.13159265291381
 20
77.48163683513701
 30
0.0
 40
5.0
  1
※ イモネジ・ビスのゆるみ止め防止のために金属製ネジ用ゆるみ止(中強度タイプ)
  7
ＭＳ ゴシック
100
AcDbText
  0
TEXT
  5
47C3
330
A
100
AcDbEntity
  8
テンプレート
100
AcDbText
 10
312.4413446399999
 20
45.31637034404918
 30
0.0
 40
4.0
  1
MIWAケース：37～57
  7
ＭＳ ゴシック
100
AcDbText
  0
TEXT
  5
47C4
330
A
100
AcDbEntity
  8
テンプレート
100
AcDbText
 10
312.4413446399999
 20
40.32132096000003
 30
0.0
 40
4.0
  1
ユーロケース(DIN規格)：36～55
  7
ＭＳ ゴシック
100
AcDbText
  0
VIEWPORT
  5
349
330
B
100
AcDbEntity
 67
     1
  8
0
100
AcDbViewport
 10
202.5
 20
128.5
 30
0.0
 40
486.0
 41
308.4
 68
     1
 69
     1
 12
202.5
 22
128.5
 13
0.0
 23
0.0
 14
0.5
 24
0.5
 15
0.0
 25
0.0
 16
0.0
 26
0.0
 36
1.0
 17
0.0
 27
0.0
 37
0.0
 42
50.0
 43
0.0
 44
0.0
 45
308.4
 50
0.0
 51
0.0
 72
   100
 90
   557152
  1

281
     0
 71
     1
 74
     0
110
0.0
120
0.0
130
0.0
111
1.0
121
0.0
131
0.0
112
0.0
122
1.0
132
0.0
 79
     0
146
0.0
170
     0
 61
     5
348
26C
292
     1
282
     1
141
0.0
142
0.0
 63
   256
  0
VIEWPORT
  5
34A
330
B
100
AcDbEntity
 67
     1
  8
0
100
AcDbViewport
 10
202.5
 20
128.5
 30
0.0
 40
324.0
 41
205.6
 68
     2
 69
     2
 12
986.6781359294573
 22
1427.077061889956
 13
0.0
 23
0.0
 14
0.5
 24
0.5
 15
0.0
 25
0.0
 16
0.0
 26
0.0
 36
1.0
 17
0.0
 27
0.0
 37
0.0
 42
50.0
 43
0.0
 44
0.0
 45
2890.021615685494
 50
0.0
 51
0.0
 72
   100
 90
   557152
  1

281
     0
 71
     1
 74
     0
110
0.0
120
0.0
130
0.0
111
1.0
121
0.0
131
0.0
112
0.0
122
1.0
132
0.0
 79
     0
146
0.0
170
     0
 61
     5
348
26C
292
     1
282
     1
141
0.0
142
0.0
 63
   256
  0
ENDSEC
  0
SECTION
  2
OBJECTS
  0
DICTIONARY
  5
19
330
0
100
AcDbDictionary
281
     1
  3
ACAD_COLOR
350
674
  3
ACAD_DETAILVIEWSTYLE
350
12F4
  3
ACAD_GROUP
350
1A
  3
ACAD_IMAGE_VARS
350
27B
  3
ACAD_LAYOUT
350
1E
  3
ACAD_MATERIAL
350
263
  3
ACAD_MLEADERSTYLE
350
336
  3
ACAD_MLINESTYLE
350
1B
  3
ACAD_PLOTSETTINGS
350
22
  3
ACAD_PLOTSTYLENAME
350
1F
  3
ACAD_SCALELIST
350
241
  3
ACAD_SECTIONVIEWSTYLE
350
12F5
  3
ACAD_TABLESTYLE
350
278
  3
ACAD_VISUALSTYLE
350
267
  3
ACDB_RECOMPOSE_DATA
350
47D3
  3
AcDbVariableDictionary
350
330
  3
AcStStandard
350
12B9
  3
APPDATA
350
27A
  0
SUN
  5
10E8
330
15
100
AcDbSun
 90
        1
290
     0
 63
     7
421
 16777215
 40
1.0
291
     1
 91
  2455826
 92
 54000000
292
     0
 70
     2
 71
   256
280
     1
  0
DICTIONARY
  5
2E1
330
2
100
AcDbDictionary
280
     1
281
     1
  3
ACAD_LAYERSTATES
360
2E2
  3
ACLYDICTIONARY
360
3863
  0
DICTIONARY
  5
40A6
330
40A5
100
AcDbDictionary
280
     1
281
     1
  3
ACAD_DIMASSOC
360
40A7
  0
DICTIONARY
  5
40A9
330
40A8
100
AcDbDictionary
280
     1
281
     1
  3
ACAD_DIMASSOC
360
40AA
  0
DICTIONARY
  5
40AC
330
40AB
100
AcDbDictionary
280
     1
281
     1
  3
ACAD_DIMASSOC
360
40AD
  0
DICTIONARY
  5
4123
330
4122
100
AcDbDictionary
280
     1
281
     1
  3
ACAD_DIMASSOC
360
4124
  0
DICTIONARY
  5
4194
330
4193
100
AcDbDictionary
280
     1
281
     1
  3
ACAD_DIMASSOC
360
4195
  0
DICTIONARY
  5
41A9
330
41A8
100
AcDbDictionary
280
     1
281
     1
  3
ACAD_DIMASSOC
360
41AA
  0
DICTIONARY
  5
459B
330
459A
100
AcDbDictionary
280
     1
281
     1
  3
ACAD_DIMASSOC
360
459C
  0
DICTIONARY
  5
45A2
330
45A1
100
AcDbDictionary
280
     1
281
     1
  0
DICTIONARY
  5
674
102
{ACAD_REACTORS
330
19
102
}
330
19
100
AcDbDictionary
281
     1
  0
DICTIONARY
  5
12F4
102
{ACAD_REACTORS
330
19
102
}
330
19
100
AcDbDictionary
281
     1
  0
DICTIONARY
  5
1A
102
{ACAD_REACTORS
330
19
102
}
330
19
100
AcDbDictionary
281
     1
  0
RASTERVARIABLES
  5
27B
102
{ACAD_REACTORS
330
19
102
}
330
19
100
AcDbRasterVariables
 90
        0
 70
     1
 71
     1
 72
     1
  0
DICTIONARY
  5
1E
102
{ACAD_REACTORS
330
19
102
}
330
19
100
AcDbDictionary
281
     1
  3
Layout1
350
21
  3
Layout2
350
12C4
  3
Model
350
20
  0
DICTIONARY
  5
263
102
{ACAD_REACTORS
330
19
102
}
330
19
100
AcDbDictionary
281
     1
  3
ByBlock
350
385B
  3
ByLayer
350
264
  3
Global
350
266
  0
DICTIONARY
  5
336
102
{ACAD_REACTORS
330
19
102
}
330
19
100
AcDbDictionary
281
     1
  3
Standard
350
46E8
  0
DICTIONARY
  5
1B
102
{ACAD_REACTORS
330
19
102
}
330
19
100
AcDbDictionary
281
     1
  3
Standard
350
1C
  0
DICTIONARY
  5
22
102
{ACAD_REACTORS
330
19
102
}
330
19
100
AcDbDictionary
281
     1
  0
ACDBDICTIONARYWDFLT
  5
1F
102
{ACAD_REACTORS
330
19
102
}
330
19
100
AcDbDictionary
281
     1
  3
Normal
350
1D
100
AcDbDictionaryWithDefault
340
1D
  0
DICTIONARY
  5
241
102
{ACAD_REACTORS
330
19
102
}
330
19
100
AcDbDictionary
281
     1
  3
A0
350
242
  3
A1
350
243
  3
A2
350
244
  3
A3
350
245
  3
A4
350
246
  3
A5
350
247
  3
A6
350
248
  3
A7
350
249
  3
A8
350
24A
  3
A9
350
24B
  3
B0
350
24C
  3
B1
350
24D
  3
B2
350
24E
  3
B3
350
24F
  3
B4
350
250
  3
B5
350
251
  3
B6
350
252
  3
B7
350
253
  3
B8
350
254
  3
B9
350
255
  3
C0
350
256
  3
C1
350
257
  3
C2
350
258
  3
C3
350
259
  3
C4
350
25A
  3
C5
350
25B
  3
C6
350
25C
  3
C7
350
25D
  3
C8
350
25E
  3
C9
350
25F
  3
D0
350
260
  3
D1
350
261
  3
D2
350
262
  0
DICTIONARY
  5
12F5
102
{ACAD_REACTORS
330
19
102
}
330
19
100
AcDbDictionary
281
     1
  0
DICTIONARY
  5
278
102
{ACAD_REACTORS
330
19
102
}
330
19
100
AcDbDictionary
281
     1
  3
Standard
350
279
  0
DICTIONARY
  5
267
102
{ACAD_REACTORS
330
19
102
}
330
19
100
AcDbDictionary
281
     1
  3
2dWireframe
350
26C
  3
3D Hidden
350
26E
  3
3dWireframe
350
26D
  3
Basic
350
26F
  3
Brighten
350
273
  3
ColorChange
350
277
  3
Conceptual
350
271
  3
Dim
350
272
  3
EdgeColorOff
350
10E2
  3
Facepattern
350
276
  3
Flat
350
268
  3
FlatWithEdges
350
269
  3
Gouraud
350
26A
  3
GouraudWithEdges
350
26B
  3
Hidden
350
10DF
  3
JitterOff
350
10E0
  3
Linepattern
350
275
  3
OverhangOff
350
10E1
  3
Realistic
350
270
  3
Shaded
350
10E7
  3
Shaded with edges
350
10E6
  3
Shades of Gray
350
10E3
  3
Sketchy
350
10E4
  3
Thicken
350
274
  3
Wireframe
350
10DE
  3
X-Ray
350
10E5
  0
XRECORD
  5
47D3
102
{ACAD_REACTORS
330
19
102
}
330
19
100
AcDbXrecord
280
     1
 90
        1
330
279
  0
DICTIONARY
  5
330
102
{ACAD_REACTORS
330
19
102
}
330
19
100
AcDbDictionary
281
     1
  3
CANNOSCALE
350
331
  3
CMLEADERSTYLE
350
46ED
  3
CTABLESTYLE
350
335
  3
XCLIPFRAME
350
109E
  0
DICTIONARY
  5
12B9
102
{ACAD_REACTORS
330
19
102
}
330
19
100
AcDbDictionary
281
     1
  0
DICTIONARY
  5
27A
102
{ACAD_REACTORS
330
19
102
}
330
19
100
AcDbDictionary
281
     1
  0
DICTIONARY
  5
2E2
102
{ACAD_REACTORS
330
2E1
102
}
330
2E1
100
AcDbDictionary
281
     1
  0
DICTIONARY
  5
3863
102
{ACAD_REACTORS
330
2E1
102
}
330
2E1
100
AcDbDictionary
281
     1
1001
ACAD
1000
<All
  0
DIMASSOC
  5
40A7
102
{ACAD_REACTORS
330
40A6
102
}
330
40A6
100
AcDbDimAssoc
330
40A5
 90
        3
 70
     0
 71
     1
  1
AcDbOsnapPointRef
 72
    13
331
409F
 73
     2
 91
        1
 40
0.0
 10
0.0
 20
0.0
 30
0.0
 75
     0
  1
AcDbOsnapPointRef
 72
     1
331
409F
 73
     2
 91
        3
 40
1.0
 10
0.0
 20
0.0
 30
0.0
 75
     0
  0
DIMASSOC
  5
40AA
102
{ACAD_REACTORS
330
40A9
102
}
330
40A9
100
AcDbDimAssoc
330
40A8
 90
        2
 70
     0
 71
     1
  1
AcDbOsnapPointRef
 72
     1
331
409F
 73
     2
 91
        1
 40
1.0
 10
0.0
 20
0.0
 30
0.0
 75
     0
  0
DIMASSOC
  5
40AD
102
{ACAD_REACTORS
330
40AC
102
}
330
40AC
100
AcDbDimAssoc
330
40AB
 90
        2
 70
     0
 71
     1
  1
AcDbOsnapPointRef
 72
    13
331
4076
 73
     0
 91
        0
 40
0.0
 10
0.0
 20
0.0
 30
0.0
 75
     0
  0
DIMASSOC
  5
4124
102
{ACAD_REACTORS
330
4123
102
}
330
4123
100
AcDbDimAssoc
330
4122
 90
        2
 70
     0
 71
     1
  1
AcDbOsnapPointRef
 72
     1
331
409F
 73
     2
 91
        3
 40
1.0
 10
0.0
 20
0.0
 30
0.0
 75
     0
  0
DIMASSOC
  5
4195
102
{ACAD_REACTORS
330
4194
102
}
330
4194
100
AcDbDimAssoc
330
4193
 90
        1
 70
     0
 71
     1
  1
AcDbOsnapPointRef
 72
    13
331
409F
 73
     2
 91
        1
 40
0.0
 10
0.0
 20
0.0
 30
0.0
 75
     0
  0
DIMASSOC
  5
41AA
102
{ACAD_REACTORS
330
41A9
102
}
330
41A9
100
AcDbDimAssoc
330
41A8
 90
        3
 70
     0
 71
     1
  1
AcDbOsnapPointRef
 72
     1
331
409F
 73
     2
 91
        1
 40
1.0
 10
0.0
 20
0.0
 30
0.0
 75
     0
  1
AcDbOsnapPointRef
 72
    13
331
4076
 73
     0
 91
        0
 40
0.0
 10
0.0
 20
0.0
 30
0.0
 75
     0
  0
DIMASSOC
  5
459C
102
{ACAD_REACTORS
330
459B
102
}
330
459B
100
AcDbDimAssoc
330
459A
 90
        1
 70
     0
 71
     1
  1
AcDbOsnapPointRef
 72
     5
331
4597
 73
     0
 91
        0
 40
1.570796326794897
 10
0.0
 20
0.0
 30
0.0
 75
     0
  0
LAYOUT
  5
21
102
{ACAD_REACTORS
330
1E
102
}
330
1E
100
AcDbPlotSettings
  1

  2
none_device
  4
ISO_A3_(420.00_x_297.00_MM)
  6

 40
7.5
 41
20.0
 42
7.5
 43
20.0
 44
420.0
 45
297.0
 46
0.0
 47
0.0
 48
0.0
 49
0.0
140
0.0
141
0.0
142
1.0
143
1.0
 70
     0
 72
     1
 73
     0
 74
     0
  7

 75
     0
 76
     0
 77
     2
 78
   300
147
1.0
148
0.0
149
0.0
100
AcDbLayout
  1
Layout1
 70
     0
 71
     0
 10
-7.5
 20
-20.0
 11
412.5
 21
277.0
 12
0.0
 22
0.0
 32
0.0
 14
0.0
 24
0.0
 34
0.0
 15
0.0
 25
0.0
 35
0.0
146
0.0
 13
0.0
 23
0.0
 33
0.0
 16
0.0
 26
0.0
 36
0.0
 17
0.0
 27
0.0
 37
0.0
 76
     0
330
B
331
349
  0
LAYOUT
  5
12C4
102
{ACAD_REACTORS
330
1E
102
}
330
1E
100
AcDbPlotSettings
  1

  2
none_device
  4

  6

 40
0.0
 41
0.0
 42
0.0
 43
0.0
 44
0.0
 45
0.0
 46
0.0
 47
0.0
 48
0.0
 49
0.0
140
0.0
141
0.0
142
1.0
143
1.0
 70
   688
 72
     1
 73
     0
 74
     5
  7

 75
    16
 76
     0
 77
     2
 78
   300
147
1.0
148
0.0
149
0.0
100
AcDbLayout
  1
Layout2
 70
     1
 71
     2
 10
0.0
 20
0.0
 11
0.0
 21
0.0
 12
0.0
 22
0.0
 32
0.0
 14
0.0
 24
0.0
 34
0.0
 15
0.0
 25
0.0
 35
0.0
146
0.0
 13
0.0
 23
0.0
 33
0.0
 16
1.0
 26
0.0
 36
0.0
 17
0.0
 27
1.0
 37
0.0
 76
     0
330
12C3
  0
LAYOUT
  5
20
102
{ACAD_REACTORS
330
1E
102
}
330
1E
100
AcDbPlotSettings
  1

  2
none_device
  4
ISO_A3_(420.00_x_297.00_MM)
  6

 40
7.5
 41
20.0
 42
7.5
 43
20.0
 44
420.0
 45
297.0
 46
0.0
 47
0.0
 48
0.0
 49
0.0
140
0.0
141
0.0
142
1.0
143
1.0
 70
  1024
 72
     1
 73
     0
 74
     0
  7

 75
     0
 76
     0
 77
     2
 78
   300
147
1.0
148
0.0
149
0.0
100
AcDbLayout
  1
Model
 70
     0
 71
     1
 10
0.0
 20
0.0
 11
593.9999999999999
 21
420.0
 12
0.0
 22
0.0
 32
0.0
 14
0.0
 24
0.0
 34
0.0
 15
593.9999999999999
 25
420.0
 35
0.0
146
0.0
 13
0.0
 23
0.0
 33
0.0
 16
0.0
 26
0.0
 36
0.0
 17
0.0
 27
0.0
 37
0.0
 76
     0
330
A
331
15
  0
MATERIAL
  5
385B
102
{ACAD_REACTORS
330
263
102
}
330
263
100
AcDbMaterial
  1
ByBlock
 72
     1
 94
      127
  0
MATERIAL
  5
264
102
{ACAD_REACTORS
330
263
102
}
330
263
100
AcDbMaterial
  1
ByLayer
 72
     1
 94
      127
  0
MATERIAL
  5
266
102
{ACAD_REACTORS
330
263
102
}
330
263
100
AcDbMaterial
  1
Global
 72
     1
 94
      127
  0
MLEADERSTYLE
  5
46E8
102
{ACAD_REACTORS
330
336
102
}
330
336
100
AcDbMLeaderStyle
170
     2
171
     1
172
     0
 90
        2
 40
0.0
 41
0.0
173
     1
 91
-1056964608
340
11
 92
       -2
290
     1
 42
2.0
291
     1
 43
8.0
  3
Standard
341
0
 44
4.0
300

342
17
174
     1
178
     1
175
     1
176
     0
 93
-1056964608
 45
4.0
292
     0
297
     0
 46
4.0
343
0
 94
-1056964608
 47
1.0
 49
1.0
140
1.0
293
     1
141
0.0
294
     1
177
     0
142
1.0
295
     0
296
     0
143
3.75
1001
ACAD_MLEADERVER
1070
     2
  0
MLINESTYLE
  5
1C
102
{ACAD_REACTORS
330
1B
102
}
330
1B
100
AcDbMlineStyle
  2
Standard
 70
     0
  3

 62
     0
 51
90.0
 52
90.0
 71
     2
 49
0.5
 62
   256
  6
BYLAYER
 49
-0.5
 62
   256
  6
BYLAYER
  0
ACDBPLACEHOLDER
  5
1D
102
{ACAD_REACTORS
330
1F
102
}
330
1F
  0
SCALE
  5
242
102
{ACAD_REACTORS
330
241
102
}
330
241
100
AcDbScale
 70
     0
300
1:1
140
1.0
141
1.0
290
     1
  0
SCALE
  5
243
102
{ACAD_REACTORS
330
241
102
}
330
241
100
AcDbScale
 70
     0
300
1:2
140
1.0
141
2.0
290
     0
  0
SCALE
  5
244
102
{ACAD_REACTORS
330
241
102
}
330
241
100
AcDbScale
 70
     0
300
1:4
140
1.0
141
4.0
290
     0
  0
SCALE
  5
245
102
{ACAD_REACTORS
330
241
102
}
330
241
100
AcDbScale
 70
     0
300
1:5
140
1.0
141
5.0
290
     0
  0
SCALE
  5
246
102
{ACAD_REACTORS
330
241
102
}
330
241
100
AcDbScale
 70
     0
300
1:8
140
1.0
141
8.0
290
     0
  0
SCALE
  5
247
102
{ACAD_REACTORS
330
241
102
}
330
241
100
AcDbScale
 70
     0
300
1:10
140
1.0
141
10.0
290
     0
  0
SCALE
  5
248
102
{ACAD_REACTORS
330
241
102
}
330
241
100
AcDbScale
 70
     0
300
1:16
140
1.0
141
16.0
290
     0
  0
SCALE
  5
249
102
{ACAD_REACTORS
330
241
102
}
330
241
100
AcDbScale
 70
     0
300
1:20
140
1.0
141
20.0
290
     0
  0
SCALE
  5
24A
102
{ACAD_REACTORS
330
241
102
}
330
241
100
AcDbScale
 70
     0
300
1:30
140
1.0
141
30.0
290
     0
  0
SCALE
  5
24B
102
{ACAD_REACTORS
330
241
102
}
330
241
100
AcDbScale
 70
     0
300
1:40
140
1.0
141
40.0
290
     0
  0
SCALE
  5
24C
102
{ACAD_REACTORS
330
241
102
}
330
241
100
AcDbScale
 70
     0
300
1:50
140
1.0
141
50.0
290
     0
  0
SCALE
  5
24D
102
{ACAD_REACTORS
330
241
102
}
330
241
100
AcDbScale
 70
     0
300
1:100
140
1.0
141
100.0
290
     0
  0
SCALE
  5
24E
102
{ACAD_REACTORS
330
241
102
}
330
241
100
AcDbScale
 70
     0
300
2:1
140
2.0
141
1.0
290
     0
  0
SCALE
  5
24F
102
{ACAD_REACTORS
330
241
102
}
330
241
100
AcDbScale
 70
     0
300
4:1
140
4.0
141
1.0
290
     0
  0
SCALE
  5
250
102
{ACAD_REACTORS
330
241
102
}
330
241
100
AcDbScale
 70
     0
300
8:1
140
8.0
141
1.0
290
     0
  0
SCALE
  5
251
102
{ACAD_REACTORS
330
241
102
}
330
241
100
AcDbScale
 70
     0
300
10:1
140
10.0
141
1.0
290
     0
  0
SCALE
  5
252
102
{ACAD_REACTORS
330
241
102
}
330
241
100
AcDbScale
 70
     0
300
100:1
140
100.0
141
1.0
290
     0
  0
SCALE
  5
253
102
{ACAD_REACTORS
330
241
102
}
330
241
100
AcDbScale
 70
     0
300
1/128" = 1'-0"
140
0.0078125
141
12.0
290
     0
  0
SCALE
  5
254
102
{ACAD_REACTORS
330
241
102
}
330
241
100
AcDbScale
 70
     0
300
1/64" = 1'-0"
140
0.015625
141
12.0
290
     0
  0
SCALE
  5
255
102
{ACAD_REACTORS
330
241
102
}
330
241
100
AcDbScale
 70
     0
300
1/32" = 1'-0"
140
0.03125
141
12.0
290
     0
  0
SCALE
  5
256
102
{ACAD_REACTORS
330
241
102
}
330
241
100
AcDbScale
 70
     0
300
1/16" = 1'-0"
140
0.0625
141
12.0
290
     0
  0
SCALE
  5
257
102
{ACAD_REACTORS
330
241
102
}
330
241
100
AcDbScale
 70
     0
300
3/32" = 1'-0"
140
0.09375
141
12.0
290
     0
  0
SCALE
  5
258
102
{ACAD_REACTORS
330
241
102
}
330
241
100
AcDbScale
 70
     0
300
1/8" = 1'-0"
140
0.125
141
12.0
290
     0
  0
SCALE
  5
259
102
{ACAD_REACTORS
330
241
102
}
330
241
100
AcDbScale
 70
     0
300
3/16" = 1'-0"
140
0.1875
141
12.0
290
     0
  0
SCALE
  5
25A
102
{ACAD_REACTORS
330
241
102
}
330
241
100
AcDbScale
 70
     0
300
1/4" = 1'-0"
140
0.25
141
12.0
290
     0
  0
SCALE
  5
25B
102
{ACAD_REACTORS
330
241
102
}
330
241
100
AcDbScale
 70
     0
300
3/8" = 1'-0"
140
0.375
141
12.0
290
     0
  0
SCALE
  5
25C
102
{ACAD_REACTORS
330
241
102
}
330
241
100
AcDbScale
 70
     0
300
1/2" = 1'-0"
140
0.5
141
12.0
290
     0
  0
SCALE
  5
25D
102
{ACAD_REACTORS
330
241
102
}
330
241
100
AcDbScale
 70
     0
300
3/4" = 1'-0"
140
0.75
141
12.0
290
     0
  0
SCALE
  5
25E
102
{ACAD_REACTORS
330
241
102
}
330
241
100
AcDbScale
 70
     0
300
1" = 1'-0"
140
1.0
141
12.0
290
     0
  0
SCALE
  5
25F
102
{ACAD_REACTORS
330
241
102
}
330
241
100
AcDbScale
 70
     0
300
1-1/2" = 1'-0"
140
1.5
141
12.0
290
     0
  0
SCALE
  5
260
102
{ACAD_REACTORS
330
241
102
}
330
241
100
AcDbScale
 70
     0
300
3" = 1'-0"
140
3.0
141
12.0
290
     0
  0
SCALE
  5
261
102
{ACAD_REACTORS
330
241
102
}
330
241
100
AcDbScale
 70
     0
300
6" = 1'-0"
140
6.0
141
12.0
290
     0
  0
SCALE
  5
262
102
{ACAD_REACTORS
330
241
102
}
330
241
100
AcDbScale
 70
     0
300
1'-0" = 1'-0"
140
12.0
141
12.0
290
     0
  0
TABLESTYLE
  5
279
102
{ACAD_REACTORS
330
278
102
}
102
{ACAD_XDICTIONARY
360
47D1
102
}
330
278
100
AcDbTableStyle
  3
Standard
 70
     0
 71
     0
 40
0.06
 41
0.06
280
     0
281
     0
  7
Standard
140
4.5
170
     2
 62
     0
 63
   257
283
     0
 90
        4
 91
        0
  1

274
    -2
284
     1
 64
     0
275
    -2
285
     1
 65
     0
276
    -2
286
     1
 66
     0
277
    -2
287
     1
 67
     0
278
    -2
288
     1
 68
     0
279
    -2
289
     1
 69
     0
  7
Standard
140
6.0
170
     5
 62
     0
 63
   257
283
     0
 90
        4
 91
        0
  1

274
    -2
284
     1
 64
     0
275
    -2
285
     1
 65
     0
276
    -2
286
     1
 66
     0
277
    -2
287
     1
 67
     0
278
    -2
288
     1
 68
     0
279
    -2
289
     1
 69
     0
  7
Standard
140
4.5
170
     5
 62
     0
 63
   257
283
     0
 90
        4
 91
        0
  1

274
    -2
284
     1
 64
     0
275
    -2
285
     1
 65
     0
276
    -2
286
     1
 66
     0
277
    -2
287
     1
 67
     0
278
    -2
288
     1
 68
     0
279
    -2
289
     1
 69
     0
  0
VISUALSTYLE
  5
26C
102
{ACAD_REACTORS
330
267
102
}
330
267
100
AcDbVisualStyle
  2
2dWireframe
 70
     4
 71
     0
 72
     2
 73
     0
 90
        0
 40
-0.6
 41
-30.0
 62
     5
 63
     7
421
 16777215
 74
     1
 91
        4
 64
     7
 65
   257
 75
     1
175
     1
 42
1.0
 92
        0
 66
   257
 43
1.0
 76
     1
 77
     6
 78
     2
 67
     7
 79
     5
170
     0
171
     0
290
     0
174
     0
 93
        1
 44
0.0
173
     0
291
     0
 45
0.0
  0
VISUALSTYLE
  5
26E
102
{ACAD_REACTORS
330
267
102
}
330
267
100
AcDbVisualStyle
  2
3D Hidden
 70
     6
 71
     1
 72
     2
 73
     2
 90
        0
 40
-0.6
 41
-30.0
 62
     5
 63
     7
421
 16777215
 74
     2
 91
        2
 64
     7
 65
   257
 75
     2
175
     1
 42
40.0
 92
        0
 66
   257
 43
1.0
 76
     1
 77
     6
 78
     2
 67
     7
 79
     3
170
     0
171
     0
290
     0
174
     0
 93
        1
 44
0.0
173
     0
291
     0
 45
0.0
  0
VISUALSTYLE
  5
26D
102
{ACAD_REACTORS
330
267
102
}
330
267
100
AcDbVisualStyle
  2
3dWireframe
 70
     5
 71
     0
 72
     2
 73
     0
 90
        0
 40
-0.6
 41
-30.0
 62
     5
 63
     7
421
 16777215
 74
     1
 91
        4
 64
     7
 65
   257
 75
     1
175
     1
 42
1.0
 92
        0
 66
   257
 43
1.0
 76
     1
 77
     6
 78
     2
 67
     7
 79
     5
170
     0
171
     0
290
     0
174
     0
 93
        1
 44
0.0
173
     0
291
     0
 45
0.0
  0
VISUALSTYLE
  5
26F
102
{ACAD_REACTORS
330
267
102
}
330
267
100
AcDbVisualStyle
  2
Basic
 70
     7
 71
     1
 72
     0
 73
     1
 90
        0
 40
-0.6
 41
-30.0
 62
     5
 63
     7
421
 16777215
 74
     0
 91
        4
 64
     7
 65
   257
 75
     1
175
     1
 42
1.0
 92
        8
 66
     7
 43
1.0
 76
     1
 77
     6
 78
     2
 67
     7
 79
     5
170
     0
171
     0
290
     0
174
     0
 93
        1
 44
0.0
173
     0
291
     1
 45
0.0
  0
VISUALSTYLE
  5
273
102
{ACAD_REACTORS
330
267
102
}
330
267
100
AcDbVisualStyle
  2
Brighten
 70
    12
 71
     2
 72
     2
 73
     0
 90
        0
 40
-0.6
 41
-30.0
 62
     5
 63
     7
421
 16777215
 74
     1
 91
        4
 64
     7
 65
   257
 75
     1
175
     1
 42
1.0
 92
        8
 66
     7
 43
1.0
 76
     1
 77
     6
 78
     2
 67
     7
 79
     5
170
     0
171
     0
290
     0
174
     0
 93
        1
 44
50.0
173
     0
291
     1
 45
0.0
  0
VISUALSTYLE
  5
277
102
{ACAD_REACTORS
330
267
102
}
330
267
100
AcDbVisualStyle
  2
ColorChange
 70
    16
 71
     2
 72
     2
 73
     3
 90
        0
 40
-0.6
 41
-30.0
 62
     5
 63
     8
421
  8421504
 74
     1
 91
        4
 64
     7
 65
   257
 75
     1
175
     1
 42
1.0
 92
        8
 66
     8
424
  8421504
 43
1.0
 76
     1
 77
     6
 78
     2
 67
     7
 79
     5
170
     0
171
     0
290
     0
174
     0
 93
        1
 44
0.0
173
     0
291
     1
 45
0.0
  0
VISUALSTYLE
  5
271
102
{ACAD_REACTORS
330
267
102
}
330
267
100
AcDbVisualStyle
  2
Conceptual
 70
     9
 71
     3
 72
     2
 73
     0
 90
        0
 40
-0.6
 41
-30.0
 62
     5
 63
     7
421
 16777215
 74
     2
 91
        2
 64
     7
 65
   257
 75
     1
175
     1
 42
40.0
 92
        8
 66
     7
 43
1.0
 76
     1
 77
     6
 78
     2
 67
     7
 79
     3
170
     0
171
     0
290
     0
174
     0
 93
        1
 44
0.0
173
     0
291
     0
 45
0.0
  0
VISUALSTYLE
  5
272
102
{ACAD_REACTORS
330
267
102
}
330
267
100
AcDbVisualStyle
  2
Dim
 70
    11
 71
     2
 72
     2
 73
     0
 90
        0
 40
-0.6
 41
-30.0
 62
     5
 63
     7
421
 16777215
 74
     1
 91
        4
 64
     7
 65
   257
 75
     1
175
     1
 42
1.0
 92
        8
 66
     7
 43
1.0
 76
     1
 77
     6
 78
     2
 67
     7
 79
     5
170
     0
171
     0
290
     0
174
     0
 93
        1
 44
-50.0
173
     0
291
     1
 45
0.0
  0
VISUALSTYLE
  5
10E2
102
{ACAD_REACTORS
330
267
102
}
330
267
100
AcDbVisualStyle
  2
EdgeColorOff
 70
    22
 71
     2
 72
     2
 73
     0
 90
        0
 40
0.6
 41
30.0
 62
     5
 63
     7
421
 16777215
 74
     1
 91
        4
 64
     7
 65
   257
 75
     1
175
     1
 42
1.0
 92
        8
 66
     7
 43
1.0
 76
     1
 77
     6
 78
     2
 67
     7
 79
     5
170
     0
171
     0
290
     0
174
     0
 93
        1
 44
0.0
173
     0
291
     1
 45
0.0
  0
VISUALSTYLE
  5
276
102
{ACAD_REACTORS
330
267
102
}
330
267
100
AcDbVisualStyle
  2
Facepattern
 70
    15
 71
     2
 72
     2
 73
     0
 90
        0
 40
-0.6
 41
-30.0
 62
     5
 63
     7
421
 16777215
 74
     1
 91
        4
 64
     7
 65
   257
 75
     1
175
     1
 42
1.0
 92
        8
 66
     7
 43
1.0
 76
     1
 77
     6
 78
     2
 67
     7
 79
     5
170
     0
171
     0
290
     0
174
     0
 93
        1
 44
0.0
173
     0
291
     1
 45
0.0
  0
VISUALSTYLE
  5
268
102
{ACAD_REACTORS
330
267
102
}
330
267
100
AcDbVisualStyle
  2
Flat
 70
     0
 71
     2
 72
     1
 73
     1
 90
        2
 40
-0.6
 41
30.0
 62
     5
 63
     7
421
 16777215
 74
     0
 91
        4
 64
     7
 65
   257
 75
     1
175
     1
 42
1.0
 92
        8
 66
     7
 43
1.0
 76
     1
 77
     6
 78
     2
 67
     7
 79
     5
170
     0
171
     0
290
     0
174
     0
 93
       13
 44
0.0
173
     0
291
     1
 45
0.0
  0
VISUALSTYLE
  5
269
102
{ACAD_REACTORS
330
267
102
}
330
267
100
AcDbVisualStyle
  2
FlatWithEdges
 70
     1
 71
     2
 72
     1
 73
     1
 90
        2
 40
-0.6
 41
30.0
 62
     5
 63
     7
421
 16777215
 74
     1
 91
        4
 64
     7
 65
   257
 75
     1
175
     1
 42
1.0
 92
        0
 66
   257
 43
1.0
 76
     1
 77
     6
 78
     2
 67
     7
 79
     5
170
     0
171
     0
290
     0
174
     0
 93
       13
 44
0.0
173
     0
291
     1
 45
0.0
  0
VISUALSTYLE
  5
26A
102
{ACAD_REACTORS
330
267
102
}
330
267
100
AcDbVisualStyle
  2
Gouraud
 70
     2
 71
     2
 72
     2
 73
     1
 90
        2
 40
-0.6
 41
30.0
 62
     5
 63
     7
421
 16777215
 74
     0
 91
        4
 64
     7
 65
   257
 75
     1
175
     1
 42
1.0
 92
        0
 66
     7
 43
1.0
 76
     1
 77
     6
 78
     2
 67
     7
 79
     5
170
     0
171
     0
290
     0
174
     0
 93
       13
 44
0.0
173
     0
291
     1
 45
0.0
  0
VISUALSTYLE
  5
26B
102
{ACAD_REACTORS
330
267
102
}
330
267
100
AcDbVisualStyle
  2
GouraudWithEdges
 70
     3
 71
     2
 72
     2
 73
     1
 90
        2
 40
-0.6
 41
30.0
 62
     5
 63
     7
421
 16777215
 74
     1
 91
        4
 64
     7
 65
   257
 75
     1
175
     1
 42
1.0
 92
        0
 66
   257
 43
1.0
 76
     1
 77
     6
 78
     2
 67
     7
 79
     5
170
     0
171
     0
290
     0
174
     0
 93
       13
 44
0.0
173
     0
291
     1
 45
0.0
  0
VISUALSTYLE
  5
10DF
102
{ACAD_REACTORS
330
267
102
}
330
267
100
AcDbVisualStyle
  2
Hidden
 70
     6
 71
     1
 72
     2
 73
     2
 90
        0
 40
0.6
 41
30.0
 62
     5
 63
     7
421
 16777215
 74
     2
 91
        2
 64
     7
 65
   257
 75
     2
175
     1
 42
40.0
 92
        0
 66
   257
 43
1.0
 76
     1
 77
     6
 78
     2
 67
     7
 79
     3
170
     0
171
     0
290
     0
174
     0
 93
        1
 44
0.0
173
     0
291
     0
 45
0.0
  0
VISUALSTYLE
  5
10E0
102
{ACAD_REACTORS
330
267
102
}
330
267
100
AcDbVisualStyle
  2
JitterOff
 70
    20
 71
     2
 72
     2
 73
     0
 90
        0
 40
0.6
 41
30.0
 62
     5
 63
     7
421
 16777215
 74
     1
 91
        4
 64
     7
 65
   257
 75
     1
175
     1
 42
1.0
 92
       10
 66
     7
 43
1.0
 76
     1
 77
     6
 78
     2
 67
     7
 79
     5
170
     0
171
     0
290
     0
174
     0
 93
        1
 44
0.0
173
     0
291
     1
 45
0.0
  0
VISUALSTYLE
  5
275
102
{ACAD_REACTORS
330
267
102
}
330
267
100
AcDbVisualStyle
  2
Linepattern
 70
    14
 71
     2
 72
     2
 73
     0
 90
        0
 40
-0.6
 41
-30.0
 62
     5
 63
     7
421
 16777215
 74
     1
 91
        4
 64
     7
 65
   257
 75
     7
175
     7
 42
1.0
 92
        8
 66
     7
 43
1.0
 76
     1
 77
     6
 78
     2
 67
     7
 79
     5
170
     0
171
     0
290
     0
174
     0
 93
        1
 44
0.0
173
     0
291
     1
 45
0.0
  0
VISUALSTYLE
  5
10E1
102
{ACAD_REACTORS
330
267
102
}
330
267
100
AcDbVisualStyle
  2
OverhangOff
 70
    21
 71
     2
 72
     2
 73
     0
 90
        0
 40
0.6
 41
30.0
 62
     5
 63
     7
421
 16777215
 74
     1
 91
        4
 64
     7
 65
   257
 75
     1
175
     1
 42
1.0
 92
        9
 66
     7
 43
1.0
 76
     1
 77
     6
 78
     2
 67
     7
 79
     5
170
     0
171
     0
290
     0
174
     0
 93
        1
 44
0.0
173
     0
291
     1
 45
0.0
  0
VISUALSTYLE
  5
270
102
{ACAD_REACTORS
330
267
102
}
330
267
100
AcDbVisualStyle
  2
Realistic
 70
     8
 71
     2
 72
     2
 73
     0
 90
        0
 40
-0.6
 41
-30.0
 62
     5
 63
     7
421
 16777215
 74
     1
 91
        0
 64
     7
 65
   257
 75
     1
175
     1
 42
1.0
 92
        8
 66
     8
424
  7895160
 43
1.0
 76
     1
 77
     6
 78
     2
 67
     7
 79
     5
170
     0
171
     0
290
     0
174
     0
 93
       13
 44
0.0
173
     0
291
     0
 45
0.0
  0
VISUALSTYLE
  5
10E7
102
{ACAD_REACTORS
330
267
102
}
330
267
100
AcDbVisualStyle
  2
Shaded
 70
    27
 71
     2
 72
     2
 73
     1
 90
        2
 40
0.6
 41
30.0
 62
     5
 63
     7
421
 16777215
 74
     0
 91
        4
 64
     7
 65
   257
 75
     1
175
     1
 42
1.0
 92
        8
 66
   257
 43
1.0
 76
     1
 77
     6
 78
     2
 67
     8
425
  7895160
 79
     3
170
     0
171
     0
290
     0
174
     0
 93
        5
 44
0.0
173
     0
291
     0
 45
0.0
  0
VISUALSTYLE
  5
10E6
102
{ACAD_REACTORS
330
267
102
}
330
267
100
AcDbVisualStyle
  2
Shaded with edges
 70
    26
 71
     2
 72
     2
 73
     1
 90
        2
 40
0.6
 41
30.0
 62
     5
 63
     7
421
 16777215
 74
     1
 91
       10
 64
     7
 65
   257
 75
     2
175
     1
 42
1.0
 92
        8
 66
   257
 43
1.0
 76
     1
 77
     6
 78
     2
 67
     7
 79
     3
170
     0
171
     0
290
     0
174
     0
 93
        5
 44
0.0
173
     0
291
     0
 45
0.0
  0
VISUALSTYLE
  5
10E3
102
{ACAD_REACTORS
330
267
102
}
330
267
100
AcDbVisualStyle
  2
Shades of Gray
 70
    23
 71
     2
 72
     2
 73
     3
 90
        0
 40
0.6
 41
30.0
 62
     5
 63
     7
421
 16777215
 74
     2
 91
        2
 64
     7
 65
     7
 75
     1
175
     1
 42
40.0
 92
        8
 66
     7
 43
1.0
 76
     1
 77
     6
 78
     2
 67
     7
 79
     3
170
     0
171
     0
290
     0
174
     0
 93
        1
 44
0.0
173
     0
291
     0
 45
0.0
  0
VISUALSTYLE
  5
10E4
102
{ACAD_REACTORS
330
267
102
}
330
267
100
AcDbVisualStyle
  2
Sketchy
 70
    24
 71
     1
 72
     2
 73
     2
 90
        0
 40
0.6
 41
30.0
 62
     5
 63
     7
421
 16777215
 74
     2
 91
        2
 64
     7
 65
     7
 75
     1
175
     1
 42
40.0
 92
       11
 66
     7
 43
1.0
 76
     1
 77
     6
 78
     2
 67
     7
 79
     6
170
     0
171
     0
290
     0
174
     0
 93
        1
 44
0.0
173
     0
291
     0
 45
0.0
  0
VISUALSTYLE
  5
274
102
{ACAD_REACTORS
330
267
102
}
330
267
100
AcDbVisualStyle
  2
Thicken
 70
    13
 71
     2
 72
     2
 73
     0
 90
        0
 40
-0.6
 41
-30.0
 62
     5
 63
     7
421
 16777215
 74
     1
 91
        4
 64
     7
 65
   257
 75
     1
175
     1
 42
1.0
 92
       12
 66
     7
 43
1.0
 76
     1
 77
     6
 78
     2
 67
     7
 79
     5
170
     0
171
     0
290
     0
174
     0
 93
        1
 44
0.0
173
     0
291
     1
 45
0.0
  0
VISUALSTYLE
  5
10DE
102
{ACAD_REACTORS
330
267
102
}
330
267
100
AcDbVisualStyle
  2
Wireframe
 70
     5
 71
     0
 72
     2
 73
     0
 90
        0
 40
0.6
 41
30.0
 62
     5
 63
     7
421
 16777215
 74
     1
 91
        4
 64
     7
 65
   257
 75
     1
175
     1
 42
1.0
 92
        0
 66
   257
 43
1.0
 76
     1
 77
     6
 78
     2
 67
     7
 79
     3
170
     0
171
     0
290
     0
174
     0
 93
        1
 44
0.0
173
     0
291
     0
 45
0.0
  0
VISUALSTYLE
  5
10E5
102
{ACAD_REACTORS
330
267
102
}
330
267
100
AcDbVisualStyle
  2
X-Ray
 70
    25
 71
     2
 72
     2
 73
     1
 90
        1
 40
0.5
 41
30.0
 62
     5
 63
     7
421
 16777215
 74
     1
 91
        0
 64
     7
 65
   257
 75
     1
175
     1
 42
1.0
 92
        8
 66
     7
 43
1.0
 76
     1
 77
     6
 78
     2
 67
     7
 79
     3
170
     0
171
     0
290
     0
174
     0
 93
       13
 44
0.0
173
     0
291
     0
 45
0.0
  0
DICTIONARYVAR
  5
331
102
{ACAD_REACTORS
330
330
102
}
330
330
100
DictionaryVariables
280
     0
  1
1:1
  0
DICTIONARYVAR
  5
46ED
102
{ACAD_REACTORS
330
330
102
}
330
330
100
DictionaryVariables
280
     0
  1
Standard
  0
DICTIONARYVAR
  5
335
102
{ACAD_REACTORS
330
330
102
}
330
330
100
DictionaryVariables
280
     0
  1
Standard
  0
DICTIONARYVAR
  5
109E
102
{ACAD_REACTORS
330
330
102
}
330
330
100
DictionaryVariables
280
     0
  1
0
  0
DICTIONARY
  5
47D1
330
279
100
AcDbDictionary
280
     1
281
     1
  3
ACAD_ROUNDTRIP_2008_TABLESTYLE_CELLSTYLEMAP
360
47D2
  0
CELLSTYLEMAP
  5
47D2
102
{ACAD_REACTORS
330
47D1
102
}
330
47D1
100
AcDbCellStyleMap
 90
        3
300
CELLSTYLE
  1
TABLEFORMAT_BEGIN
 90
        5
170
     1
 91
        0
 92
    32768
 62
   257
 93
        1
300
CONTENTFORMAT
  1
CONTENTFORMAT_BEGIN
 90
        0
 91
        0
 92
        4
 93
        0
300

 40
0.0
140
1.0
 94
        5
 62
     0
340
17
144
6.0
309
CONTENTFORMAT_END
171
     1
301
MARGIN
  1
CELLMARGIN_BEGIN
 40
0.06
 40
0.06
 40
0.06
 40
0.06
 40
0.18
 40
0.18
309
CELLMARGIN_END
 94
        6
 95
        1
302
GRIDFORMAT
  1
GRIDFORMAT_BEGIN
 90
        0
 91
        1
 62
     0
 92
       -2
340
0
 93
        0
 40
0.045
309
GRIDFORMAT_END
 95
        2
302
GRIDFORMAT
  1
GRIDFORMAT_BEGIN
 90
        0
 91
        1
 62
     0
 92
       -2
340
0
 93
        0
 40
0.045
309
GRIDFORMAT_END
 95
        4
302
GRIDFORMAT
  1
GRIDFORMAT_BEGIN
 90
        0
 91
        1
 62
     0
 92
       -2
340
0
 93
        0
 40
0.045
309
GRIDFORMAT_END
 95
        8
302
GRIDFORMAT
  1
GRIDFORMAT_BEGIN
 90
        0
 91
        1
 62
     0
 92
       -2
340
0
 93
        0
 40
0.045
309
GRIDFORMAT_END
 95
       16
302
GRIDFORMAT
  1
GRIDFORMAT_BEGIN
 90
        0
 91
        1
 62
     0
 92
       -2
340
0
 93
        0
 40
0.045
309
GRIDFORMAT_END
 95
       32
302
GRIDFORMAT
  1
GRIDFORMAT_BEGIN
 90
        0
 91
        1
 62
     0
 92
       -2
340
0
 93
        0
 40
0.045
309
GRIDFORMAT_END
309
TABLEFORMAT_END
  1
CELLSTYLE_BEGIN
 90
        1
 91
        1
300
_TITLE
309
CELLSTYLE_END
300
CELLSTYLE
  1
TABLEFORMAT_BEGIN
 90
        5
170
     1
 91
        0
 92
        0
 62
   257
 93
        1
300
CONTENTFORMAT
  1
CONTENTFORMAT_BEGIN
 90
        0
 91
        0
 92
        4
 93
        0
300

 40
0.0
140
1.0
 94
        5
 62
     0
340
17
144
4.5
309
CONTENTFORMAT_END
171
     1
301
MARGIN
  1
CELLMARGIN_BEGIN
 40
0.06
 40
0.06
 40
0.06
 40
0.06
 40
0.18
 40
0.18
309
CELLMARGIN_END
 94
        6
 95
        1
302
GRIDFORMAT
  1
GRIDFORMAT_BEGIN
 90
        0
 91
        1
 62
     0
 92
       -2
340
0
 93
        0
 40
0.045
309
GRIDFORMAT_END
 95
        2
302
GRIDFORMAT
  1
GRIDFORMAT_BEGIN
 90
        0
 91
        1
 62
     0
 92
       -2
340
0
 93
        0
 40
0.045
309
GRIDFORMAT_END
 95
        4
302
GRIDFORMAT
  1
GRIDFORMAT_BEGIN
 90
        0
 91
        1
 62
     0
 92
       -2
340
0
 93
        0
 40
0.045
309
GRIDFORMAT_END
 95
        8
302
GRIDFORMAT
  1
GRIDFORMAT_BEGIN
 90
        0
 91
        1
 62
     0
 92
       -2
340
0
 93
        0
 40
0.045
309
GRIDFORMAT_END
 95
       16
302
GRIDFORMAT
  1
GRIDFORMAT_BEGIN
 90
        0
 91
        1
 62
     0
 92
       -2
340
0
 93
        0
 40
0.045
309
GRIDFORMAT_END
 95
       32
302
GRIDFORMAT
  1
GRIDFORMAT_BEGIN
 90
        0
 91
        1
 62
     0
 92
       -2
340
0
 93
        0
 40
0.045
309
GRIDFORMAT_END
309
TABLEFORMAT_END
  1
CELLSTYLE_BEGIN
 90
        2
 91
        1
300
_HEADER
309
CELLSTYLE_END
300
CELLSTYLE
  1
TABLEFORMAT_BEGIN
 90
        5
170
     1
 91
        0
 92
        0
 62
   257
 93
        1
300
CONTENTFORMAT
  1
CONTENTFORMAT_BEGIN
 90
        0
 91
        0
 92
        4
 93
        0
300

 40
0.0
140
1.0
 94
        2
 62
     0
340
17
144
4.5
309
CONTENTFORMAT_END
171
     1
301
MARGIN
  1
CELLMARGIN_BEGIN
 40
0.06
 40
0.06
 40
0.06
 40
0.06
 40
0.18
 40
0.18
309
CELLMARGIN_END
 94
        6
 95
        1
302
GRIDFORMAT
  1
GRIDFORMAT_BEGIN
 90
        0
 91
        1
 62
     0
 92
       -2
340
0
 93
        0
 40
0.045
309
GRIDFORMAT_END
 95
        2
302
GRIDFORMAT
  1
GRIDFORMAT_BEGIN
 90
        0
 91
        1
 62
     0
 92
       -2
340
0
 93
        0
 40
0.045
309
GRIDFORMAT_END
 95
        4
302
GRIDFORMAT
  1
GRIDFORMAT_BEGIN
 90
        0
 91
        1
 62
     0
 92
       -2
340
0
 93
        0
 40
0.045
309
GRIDFORMAT_END
 95
        8
302
GRIDFORMAT
  1
GRIDFORMAT_BEGIN
 90
        0
 91
        1
 62
     0
 92
       -2
340
0
 93
        0
 40
0.045
309
GRIDFORMAT_END
 95
       16
302
GRIDFORMAT
  1
GRIDFORMAT_BEGIN
 90
        0
 91
        1
 62
     0
 92
       -2
340
0
 93
        0
 40
0.045
309
GRIDFORMAT_END
 95
       32
302
GRIDFORMAT
  1
GRIDFORMAT_BEGIN
 90
        0
 91
        1
 62
     0
 92
       -2
340
0
 93
        0
 40
0.045
309
GRIDFORMAT_END
309
TABLEFORMAT_END
  1
CELLSTYLE_BEGIN
 90
        3
 91
        2
300
_DATA
309
CELLSTYLE_END
  0
ENDSEC
  0
EOF
