  0
SECTION
  2
HEADER
  9
$ACADVER
  1
AC1021
  9
$ACADMAINTVER
 70
    25
  9
$DWGCODEPAGE
  3
ANSI_932
  9
$LASTSAVEDBY
  1
howeNelson
  9
$INSBASE
 10
0.0
 20
0.0
 30
0.0
  9
$EXTMIN
 10
0.0
 20
0.0
 30
0.0
  9
$EXTMAX
 10
1230.559163789971
 20
699.0348837209305
 30
0.0
  9
$LIMMIN
 10
0.0
 20
0.0
  9
$LIMMAX
 10
593.9999999999999
 20
420.0
  9
$ORTHOMODE
 70
     0
  9
$REGENMODE
 70
     1
  9
$FILLMODE
 70
     1
  9
$QTEXTMODE
 70
     0
  9
$MIRRTEXT
 70
     1
  9
$LTSCALE
 40
0.5
  9
$ATTMODE
 70
     1
  9
$TEXTSIZE
 40
2.5
  9
$TRACEWID
 40
1.0
  9
$TEXTSTYLE
  7
ＭＳ ゴシック
  9
$CLAYER
  8
モデル
  9
$CELTYPE
  6
ByLayer
  9
$CECOLOR
 62
   256
  9
$CELTSCALE
 40
1.0
  9
$DISPSILH
 70
     0
  9
$DIMSCALE
 40
1.0
  9
$DIMASZ
 40
2.0
  9
$DIMEXO
 40
5.0
  9
$DIMDLI
 40
0.9999999999999999
  9
$DIMRND
 40
0.0
  9
$DIMDLE
 40
0.0
  9
$DIMEXE
 40
0.0
  9
$DIMTP
 40
0.0
  9
$DIMTM
 40
0.0
  9
$DIMTXT
 40
5.0
  9
$DIMCEN
 40
0.0
  9
$DIMTSZ
 40
0.0
  9
$DIMTOL
 70
     0
  9
$DIMLIM
 70
     0
  9
$DIMTIH
 70
     0
  9
$DIMTOH
 70
     0
  9
$DIMSE1
 70
     0
  9
$DIMSE2
 70
     0
  9
$DIMTAD
 70
     1
  9
$DIMZIN
 70
    11
  9
$DIMBLK
  1
DOT
  9
$DIMASO
 70
     1
  9
$DIMSHO
 70
     1
  9
$DIMPOST
  1
<>
  9
$DIMAPOST
  1
[]
  9
$DIMALT
 70
     0
  9
$DIMALTD
 70
     1
  9
$DIMALTF
 40
1.0
  9
$DIMLFAC
 40
1.0
  9
$DIMTOFL
 70
     0
  9
$DIMTVP
 40
0.0
  9
$DIMTIX
 70
     1
  9
$DIMSOXD
 70
     0
  9
$DIMSAH
 70
     0
  9
$DIMBLK1
  1

  9
$DIMBLK2
  1

  9
$DIMSTYLE
  2
tfrom線あり
  9
$DIMCLRD
 70
     0
  9
$DIMCLRE
 70
     0
  9
$DIMCLRT
 70
     0
  9
$DIMTFAC
 40
1.0
  9
$DIMGAP
 40
2.0
  9
$DIMJUST
 70
     0
  9
$DIMSD1
 70
     0
  9
$DIMSD2
 70
     0
  9
$DIMTOLJ
 70
     1
  9
$DIMTZIN
 70
    11
  9
$DIMALTZ
 70
    11
  9
$DIMALTTZ
 70
    11
  9
$DIMUPT
 70
     0
  9
$DIMDEC
 70
     0
  9
$DIMTDEC
 70
     1
  9
$DIMALTU
 70
     2
  9
$DIMALTTD
 70
     2
  9
$DIMTXSTY
  7
ＭＳ ゴシック
  9
$DIMAUNIT
 70
     0
  9
$DIMADEC
 70
     2
  9
$DIMALTRND
 40
0.0
  9
$DIMAZIN
 70
     0
  9
$DIMDSEP
 70
    46
  9
$DIMATFIT
 70
     0
  9
$DIMFRAC
 70
     2
  9
$DIMLDRBLK
  1
DOT
  9
$DIMLUNIT
 70
     2
  9
$DIMLWD
 70
    -2
  9
$DIMLWE
 70
    -2
  9
$DIMTMOVE
 70
     0
  9
$DIMFXL
 40
1.0
  9
$DIMFXLON
 70
     0
  9
$DIMJOGANG
 40
0.7853981633974483
  9
$DIMTFILL
 70
     0
  9
$DIMTFILLCLR
 70
     0
  9
$DIMARCSYM
 70
     0
  9
$DIMLTYPE
  6

  9
$DIMLTEX1
  6

  9
$DIMLTEX2
  6

  9
$LUNITS
 70
     2
  9
$LUPREC
 70
     0
  9
$SKETCHINC
 40
0.1
  9
$FILLETRAD
 40
0.0
  9
$AUNITS
 70
     0
  9
$AUPREC
 70
     0
  9
$MENU
  1
acad
  9
$ELEVATION
 40
0.0
  9
$PELEVATION
 40
0.0
  9
$THICKNESS
 40
0.0
  9
$LIMCHECK
 70
     0
  9
$CHAMFERA
 40
0.0
  9
$CHAMFERB
 40
0.0
  9
$CHAMFERC
 40
0.0
  9
$CHAMFERD
 40
0.0
  9
$SKPOLY
 70
     0
  9
$TDCREATE
 40
2447893.375
  9
$TDUCREATE
 40
0.0
  9
$TDUPDATE
 40
2458039.38760206
  9
$TDUUPDATE
 40
2458039.01260206
  9
$TDINDWG
 40
0.0174073495
  9
$TDUSRTIMER
 40
2458039.011502523
  9
$USRTIMER
 70
     1
  9
$ANGBASE
 50
0.0
  9
$ANGDIR
 70
     0
  9
$PDMODE
 70
     1
  9
$PDSIZE
 40
-2.0
  9
$PLINEWID
 40
0.0
  9
$SPLFRAME
 70
     0
  9
$SPLINETYPE
 70
     6
  9
$SPLINESEGS
 70
     8
  9
$HANDSEED
  5
693C
  9
$SURFTAB1
 70
     6
  9
$SURFTAB2
 70
     6
  9
$SURFTYPE
 70
     6
  9
$SURFU
 70
     6
  9
$SURFV
 70
     6
  9
$UCSBASE
  2

  9
$UCSNAME
  2

  9
$UCSORG
 10
0.0
 20
0.0
 30
0.0
  9
$UCSXDIR
 10
1.0
 20
0.0
 30
0.0
  9
$UCSYDIR
 10
0.0
 20
1.0
 30
0.0
  9
$UCSORTHOREF
  2

  9
$UCSORTHOVIEW
 70
     0
  9
$UCSORGTOP
 10
0.0
 20
0.0
 30
0.0
  9
$UCSORGBOTTOM
 10
0.0
 20
0.0
 30
0.0
  9
$UCSORGLEFT
 10
0.0
 20
0.0
 30
0.0
  9
$UCSORGRIGHT
 10
0.0
 20
0.0
 30
0.0
  9
$UCSORGFRONT
 10
0.0
 20
0.0
 30
0.0
  9
$UCSORGBACK
 10
0.0
 20
0.0
 30
0.0
  9
$PUCSBASE
  2

  9
$PUCSNAME
  2

  9
$PUCSORG
 10
0.0
 20
0.0
 30
0.0
  9
$PUCSXDIR
 10
1.0
 20
0.0
 30
0.0
  9
$PUCSYDIR
 10
0.0
 20
1.0
 30
0.0
  9
$PUCSORTHOREF
  2

  9
$PUCSORTHOVIEW
 70
     0
  9
$PUCSORGTOP
 10
0.0
 20
0.0
 30
0.0
  9
$PUCSORGBOTTOM
 10
0.0
 20
0.0
 30
0.0
  9
$PUCSORGLEFT
 10
0.0
 20
0.0
 30
0.0
  9
$PUCSORGRIGHT
 10
0.0
 20
0.0
 30
0.0
  9
$PUCSORGFRONT
 10
0.0
 20
0.0
 30
0.0
  9
$PUCSORGBACK
 10
0.0
 20
0.0
 30
0.0
  9
$USERI1
 70
     0
  9
$USERI2
 70
     0
  9
$USERI3
 70
     0
  9
$USERI4
 70
     0
  9
$USERI5
 70
     0
  9
$USERR1
 40
0.0
  9
$USERR2
 40
0.0
  9
$USERR3
 40
0.0
  9
$USERR4
 40
0.0
  9
$USERR5
 40
0.0
  9
$WORLDVIEW
 70
     1
  9
$SHADEDGE
 70
     3
  9
$SHADEDIF
 70
    70
  9
$TILEMODE
 70
     1
  9
$MAXACTVP
 70
    64
  9
$PINSBASE
 10
0.0
 20
0.0
 30
0.0
  9
$PLIMCHECK
 70
     0
  9
$PEXTMIN
 10
0.0
 20
0.0
 30
0.0
  9
$PEXTMAX
 10
0.0
 20
0.0
 30
0.0
  9
$PLIMMIN
 10
-7.5
 20
-20.0
  9
$PLIMMAX
 10
412.5
 20
277.0
  9
$UNITMODE
 70
     0
  9
$VISRETAIN
 70
     0
  9
$PLINEGEN
 70
     1
  9
$PSLTSCALE
 70
     0
  9
$TREEDEPTH
 70
  3020
  9
$CMLSTYLE
  2
Standard
  9
$CMLJUST
 70
     0
  9
$CMLSCALE
 40
1.0
  9
$PROXYGRAPHICS
 70
     0
  9
$MEASUREMENT
 70
     1
  9
$CELWEIGHT
370
    -1
  9
$ENDCAPS
280
     0
  9
$JOINSTYLE
280
     0
  9
$LWDISPLAY
290
     1
  9
$INSUNITS
 70
     4
  9
$HYPERLINKBASE
  1

  9
$STYLESHEET
  1

  9
$XEDIT
290
     1
  9
$CEPSNTYPE
380
     0
  9
$PSTYLEMODE
290
     1
  9
$FINGERPRINTGUID
  2

  9
$VERSIONGUID
  2

  9
$EXTNAMES
290
     1
  9
$PSVPSCALE
 40
0.0
  9
$OLESTARTUP
290
     0
  9
$SORTENTS
280
   127
  9
$INDEXCTL
280
     0
  9
$HIDETEXT
280
     1
  9
$XCLIPFRAME
290
     0
  9
$HALOGAP
280
     0
  9
$OBSCOLOR
 70
   257
  9
$OBSLTYPE
280
     0
  9
$INTERSECTIONDISPLAY
280
     0
  9
$INTERSECTIONCOLOR
 70
   257
  9
$DIMASSOC
280
     2
  9
$PROJECTNAME
  1

  9
$CAMERADISPLAY
290
     0
  9
$LENSLENGTH
 40
50.0
  9
$CAMERAHEIGHT
 40
0.0
  9
$STEPSPERSEC
 40
2.0
  9
$STEPSIZE
 40
6.0
  9
$3DDWFPREC
 40
2.0
  9
$PSOLWIDTH
 40
0.25
  9
$PSOLHEIGHT
 40
4.0
  9
$LOFTANG1
 40
1.570796326794897
  9
$LOFTANG2
 40
1.570796326794897
  9
$LOFTMAG1
 40
0.0
  9
$LOFTMAG2
 40
0.0
  9
$LOFTPARAM
 70
     7
  9
$LOFTNORMALS
280
     1
  9
$LATITUDE
 40
37.795
  9
$LONGITUDE
 40
-122.394
  9
$NORTHDIRECTION
 40
0.0
  9
$TIMEZONE
 70
 -8000
  9
$LIGHTGLYPHDISPLAY
280
     1
  9
$TILEMODELIGHTSYNCH
280
     1
  9
$SOLIDHIST
280
     1
  9
$SHOWHIST
280
     1
  9
$DWFFRAME
280
     2
  9
$DGNFRAME
280
     2
  9
$REALWORLDSCALE
290
     1
  9
$INTERFERECOLOR
 62
   256
  9
$CSHADOW
280
     0
  9
$SHADOWPLANELOCATION
 40
0.0
  0
ENDSEC
  0
SECTION
  2
CLASSES
  0
CLASS
  1
LWPOLYLINE
  2
AcDbPolyline
  3
ObjectDBX Classes
 90
        0
 91
        1
280
     0
281
     1
  0
CLASS
  1
IMAGE
  2
AcDbRasterImage
  3
ISM
 90
      127
 91
        5
280
     0
281
     1
  0
CLASS
  1
OLE2FRAME
  2
AcDbOle2Frame
  3
ObjectDBX Classes
 90
        0
 91
        1
280
     0
281
     1
  0
CLASS
  1
HATCH
  2
AcDbHatch
  3
ObjectDBX Classes
 90
        0
 91
        1
280
     0
281
     1
  0
CLASS
  1
DICTIONARYVAR
  2
AcDbDictionaryVar
  3
ObjectDBX Classes
 90
        0
 91
        4
280
     0
281
     0
  0
CLASS
  1
RASTERVARIABLES
  2
AcDbRasterVariables
  3
ISM
 90
        0
 91
        4
280
     0
281
     0
  0
CLASS
  1
IMAGEDEF
  2
AcDbRasterImageDef
  3
ISM
 90
        0
 91
        4
280
     0
281
     0
  0
CLASS
  1
IMAGEDEF_REACTOR
  2
AcDbRasterImageDefReactor
  3
ISM
 90
        1
 91
        4
280
     0
281
     0
  0
CLASS
  1
IDBUFFER
  2
AcDbIdBuffer
  3
ObjectDBX Classes
 90
        0
 91
        4
280
     0
281
     0
  0
CLASS
  1
SPATIAL_FILTER
  2
AcDbSpatialFilter
  3
ObjectDBX Classes
 90
        0
 91
        4
280
     0
281
     0
  0
CLASS
  1
XRECORD
  2
AcDbXrecord
  3
ObjectDBX Classes
 90
        0
 91
        1
280
     0
281
     0
  0
CLASS
  1
SORTENTSTABLE
  2
AcDbSortentsTable
  3
ObjectDBX Classes
 90
        0
 91
        4
280
     0
281
     0
  0
CLASS
  1
LAYER_INDEX
  2
AcDbLayerIndex
  3
ObjectDBX Classes
 90
        0
 91
        4
280
     0
281
     0
  0
CLASS
  1
SPATIAL_INDEX
  2
AcDbSpatialIndex
  3
AutoCAD 2000
 90
        0
 91
        4
280
     0
281
     0
  0
CLASS
  1
OBJECT_PTR
  2
CAseDLPNTableRecord
  3
ASE-LPNTableRecord
 90
        1
 91
        4
280
     0
281
     0
  0
CLASS
  1
LAYOUT
  2
AcDbLayout
  3
ObjectDBX Classes
 90
        0
 91
        1
280
     0
281
     0
  0
CLASS
  1
PLOTSETTINGS
  2
AcDbPlotSettings
  3
ObjectDBX Classes
 90
        0
 91
        4
280
     0
281
     0
  0
CLASS
  1
ACDBDICTIONARYWDFLT
  2
AcDbDictionaryWithDefault
  3
ObjectDBX Classes
 90
        0
 91
        4
280
     0
281
     0
  0
CLASS
  1
ACDBPLACEHOLDER
  2
AcDbPlaceHolder
  3
ObjectDBX Classes
 90
        0
 91
        1
280
     0
281
     0
  0
CLASS
  1
SCALE
  2
AcDbScale
  3
ObjectDBX Classes
 90
     1153
 91
        4
280
     0
281
     0
  0
CLASS
  1
MATERIAL
  2
AcDbMaterial
  3
ObjectDBX Classes
 90
     1153
 91
        4
280
     0
281
     0
  0
CLASS
  1
VISUALSTYLE
  2
AcDbVisualStyle
  3
ObjectDBX Classes
 90
     4095
 91
        4
280
     0
281
     0
  0
CLASS
  1
TABLESTYLE
  2
AcDbTableStyle
  3
ObjectDBX Classes
 90
     4095
 91
        4
280
     0
281
     0
  0
CLASS
  1
DIMASSOC
  2
AcDbDimAssoc
  3
"AcDbDimAssoc|Product Desc:     AcDim ARX App For Dimension|Company:          Autodesk, Inc.|WEB Address:      www.autodesk.com"
 90
        0
 91
        4
280
     0
281
     0
  0
CLASS
  1
CELLSTYLEMAP
  2
AcDbCellStyleMap
  3
ObjectDBX Classes
 90
     1152
 91
        4
280
     0
281
     0
  0
CLASS
  1
SUN
  2
AcDbSun
  3
SCENEOE
 90
     1153
 91
        4
280
     0
281
     0
  0
CLASS
  1
MLEADERSTYLE
  2
AcDbMLeaderStyle
  3
ACDB_MLEADERSTYLE_CLASS
 90
     4095
 91
        4
280
     0
281
     0
  0
CLASS
  1
FIELD
  2
AcDbField
  3
ObjectDBX Classes
 90
     1152
 91
        4
280
     0
281
     0
  0
CLASS
  1
FIELDLIST
  2
AcDbFieldList
  3
ObjectDBX Classes
 90
     1152
 91
        4
280
     0
281
     0
  0
ENDSEC
  0
SECTION
  2
TABLES
  0
TABLE
  2
VPORT
  5
7
330
0
100
AcDbSymbolTable
 70
     1
  0
VPORT
  5
15
330
7
100
AcDbSymbolTableRecord
100
AcDbViewportTableRecord
  2
*ACTIVE
 70
     0
 10
0.0
 20
0.0
 11
1.0
 21
1.0
 12
296.9999999999999
 22
210.0
 13
0.0
 23
0.0
 14
1.0
 24
1.0
 15
0.0
 25
0.0
 16
0.0
 26
0.0
 36
1.0
 17
0.0
 27
0.0
 37
0.0
 40
428.4
 41
2.178082191780822
 42
50.0
 43
0.0
 44
0.0
 50
0.0
 51
0.0
 71
    16
 72
  2000
 73
     1
 74
     1
 75
     0
 76
     0
 77
     0
 78
     0
281
     0
 65
     1
110
0.0
120
0.0
130
0.0
111
1.0
121
0.0
131
0.0
112
0.0
122
1.0
132
0.0
 79
     0
146
0.0
348
26C
 60
     3
 61
     5
292
     1
282
     1
141
0.0
142
0.0
 63
   256
361
10E8
  0
ENDTAB
  0
TABLE
  2
LTYPE
  5
4
330
0
100
AcDbSymbolTable
 70
     3
  0
LTYPE
  5
11
330
4
100
AcDbSymbolTableRecord
100
AcDbLinetypeTableRecord
  2
ByBlock
 70
     0
  3

 72
    65
 73
     0
 40
0.0
  0
LTYPE
  5
12
330
4
100
AcDbSymbolTableRecord
100
AcDbLinetypeTableRecord
  2
ByLayer
 70
     0
  3
Solid line
 72
    65
 73
     0
 40
0.0
  0
LTYPE
  5
13
330
4
100
AcDbSymbolTableRecord
100
AcDbLinetypeTableRecord
  2
Continuous
 70
     0
  3
Solid line
 72
    65
 73
     0
 40
0.0
  0
LTYPE
  5
88D
330
4
100
AcDbSymbolTableRecord
100
AcDbLinetypeTableRecord
  2
CENTER
 70
     0
  3
----------  --  ----------  --  
 72
    65
 73
     4
 40
20.0
 49
12.5
 74
     0
 49
-2.5
 74
     0
 49
2.5
 74
     0
 49
-2.5
 74
     0
  0
LTYPE
  5
12C7
330
4
100
AcDbSymbolTableRecord
100
AcDbLinetypeTableRecord
  2
HIDDEN
 70
     0
  3
Hidden _ _ _ _ _ _ _ _ _ _ _ _ _ _ _ _ _ _ _ _ 
 72
    65
 73
     2
 40
9.524999999999999
 49
6.35
 74
     0
 49
-3.175
 74
     0
  0
ENDTAB
  0
TABLE
  2
LAYER
  5
2
102
{ACAD_XDICTIONARY
360
2E1
102
}
330
0
100
AcDbSymbolTable
 70
    10
  0
LAYER
  5
14
330
2
100
AcDbSymbolTableRecord
100
AcDbLayerTableRecord
  2
0
 70
     0
 62
     7
  6
Continuous
370
    -3
390
1D
347
266
  0
LAYER
  5
4A
330
2
100
AcDbSymbolTableRecord
100
AcDbLayerTableRecord
  2
Defpoints
 70
     0
 62
     7
  6
Continuous
290
     0
370
    -3
390
1D
347
266
  0
LAYER
  5
12CE
330
2
100
AcDbSymbolTableRecord
100
AcDbLayerTableRecord
  2
寸法
 70
     0
 62
     7
  6
Continuous
370
    13
390
1D
347
266
1001
AcAecLayerStandard
1000

1000

  0
LAYER
  5
12CF
330
2
100
AcDbSymbolTableRecord
100
AcDbLayerTableRecord
  2
モデル
 70
     0
 62
     7
  6
Continuous
370
    20
390
1D
347
266
1001
AcAecLayerStandard
1000

1000

  0
LAYER
  5
142A
330
2
100
AcDbSymbolTableRecord
100
AcDbLayerTableRecord
  2
テンプレート
 70
     0
 62
     7
  6
Continuous
370
    20
390
1D
347
266
1001
AcAecLayerStandard
1000

1000

  0
LAYER
  5
1D5C
330
2
100
AcDbSymbolTableRecord
100
AcDbLayerTableRecord
  2
TFORMLOGO
 70
     0
 62
     7
  6
Continuous
370
    20
390
1D
347
266
  0
LAYER
  5
3848
330
2
100
AcDbSymbolTableRecord
100
AcDbLayerTableRecord
  2
PRINT BORDER
 70
     0
 62
     4
  6
Continuous
290
     0
370
    -3
390
1D
347
266
1001
AcAecLayerStandard
1000

1000

  0
LAYER
  5
3E88
330
2
100
AcDbSymbolTableRecord
100
AcDbLayerTableRecord
  2
CutoutOverlay
 70
     0
 62
     7
  6
Continuous
370
    20
390
1D
347
266
1001
AcAecLayerStandard
1000

1000

  0
LAYER
  5
3E89
330
2
100
AcDbSymbolTableRecord
100
AcDbLayerTableRecord
  2
CutoutUnderlay
 70
     0
 62
   254
  6
Continuous
370
    20
390
1D
347
266
1001
AcAecLayerStandard
1000

1000

  0
LAYER
  5
6061
330
2
100
AcDbSymbolTableRecord
100
AcDbLayerTableRecord
  2
レイヤー 1
 70
     0
 62
     7
  6
Continuous
370
    -3
390
1D
347
266
  0
ENDTAB
  0
TABLE
  2
STYLE
  5
3
330
0
100
AcDbSymbolTable
 70
     2
  0
STYLE
  5
17
330
3
100
AcDbSymbolTableRecord
100
AcDbTextStyleTableRecord
  2
Standard
 70
     0
 40
0.0
 41
1.0
 50
0.0
 71
     0
 42
2.5
  3
txt
  4
BIGFONT.SHX
  0
STYLE
  5
39
330
3
100
AcDbSymbolTableRecord
100
AcDbTextStyleTableRecord
  2
ＭＳ ゴシック
 70
     0
 40
0.0
 41
1.0
 50
0.0
 71
     0
 42
2.5
  3
msgothic.ttc
  4
ＭＳ ゴシック
1001
ACAD
1000
ＭＳ ゴシック
1071
        0
  0
ENDTAB
  0
TABLE
  2
VIEW
  5
5
330
0
100
AcDbSymbolTable
 70
     0
  0
ENDTAB
  0
TABLE
  2
UCS
  5
6
330
0
100
AcDbSymbolTable
 70
     0
  0
ENDTAB
  0
TABLE
  2
APPID
  5
8
330
0
100
AcDbSymbolTable
 70
     3
  0
APPID
  5
16
330
8
100
AcDbSymbolTableRecord
100
AcDbRegAppTableRecord
  2
ACAD
 70
     0
  0
APPID
  5
7AC
330
8
100
AcDbSymbolTableRecord
100
AcDbRegAppTableRecord
  2
AcAecLayerStandard
 70
     0
  0
APPID
  5
415F
330
8
100
AcDbSymbolTableRecord
100
AcDbRegAppTableRecord
  2
ACAD_MLEADERVER
 70
     0
  0
ENDTAB
  0
TABLE
  2
DIMSTYLE
  5
9
330
0
100
AcDbSymbolTable
 70
     2
100
AcDbDimStyleTable
  0
DIMSTYLE
105
18
330
9
100
AcDbSymbolTableRecord
100
AcDbDimStyleTableRecord
  2
Standard
 70
     0
178
     0
340
17
  0
DIMSTYLE
105
57
102
{ACAD_REACTORS
330
6645
330
6654
330
6664
330
6682
330
66BD
330
66CF
330
66E2
330
6703
330
6715
330
673D
330
673F
330
6740
330
6741
330
6746
330
6775
102
}
330
9
100
AcDbSymbolTableRecord
100
AcDbDimStyleTableRecord
  2
tfrom線あり
 70
     0
  3
<>
  4
[]
 41
2.0
 42
5.0
 43
0.9999999999999999
 44
0.0
 73
     0
 74
     0
 77
     1
 78
    11
140
5.0
141
0.0
143
1.0
147
2.0
171
     1
174
     1
178
     0
179
     2
271
     0
272
     1
276
     2
284
    11
285
    11
286
    11
289
     0
340
39
341
4E
342
4E
  0
ENDTAB
  0
TABLE
  2
BLOCK_RECORD
  5
1
330
0
100
AcDbSymbolTable
 70
    37
  0
BLOCK_RECORD
  5
A
102
{ACAD_XDICTIONARY
360
5382
102
}
330
1
100
AcDbSymbolTableRecord
100
AcDbBlockTableRecord
  2
*MODEL_SPACE
340
20
 70
     0
280
     1
281
     0
  0
BLOCK_RECORD
  5
B
330
1
100
AcDbSymbolTableRecord
100
AcDbBlockTableRecord
  2
*PAPER_SPACE
340
21
 70
     0
280
     1
281
     0
  0
BLOCK_RECORD
  5
4E
330
1
100
AcDbSymbolTableRecord
100
AcDbBlockTableRecord
  2
_DOT
340
0
102
{BLKREFS
331
5FE2
331
5FE3
331
5FEE
331
5FEF
331
5FFA
331
5FFB
331
6006
331
6007
331
6012
331
6013
331
601E
331
601F
331
602A
331
602B
331
6036
331
6037
331
6042
331
6043
331
604E
331
604F
331
605A
331
605B
331
664E
331
664F
331
665D
331
665E
331
666D
331
666E
331
667C
331
667D
331
668B
331
668C
331
669A
331
669B
331
66AE
331
66AF
331
66C6
331
66C7
331
66D8
331
66D9
331
66EB
331
66EC
331
66FD
331
66FE
331
670C
331
670D
331
671E
331
671F
331
6751
331
6752
331
675D
331
675E
331
6769
331
676A
331
677C
331
677D
331
6791
331
6792
102
}
 70
     0
280
     1
281
     0
  0
BLOCK_RECORD
  5
12C3
330
1
100
AcDbSymbolTableRecord
100
AcDbBlockTableRecord
  2
*Paper_Space1
340
12C4
 70
     0
280
     1
281
     0
  0
BLOCK_RECORD
  5
1D88
330
1
100
AcDbSymbolTableRecord
100
AcDbBlockTableRecord
  2
名称未設定-1
340
0
102
{BLKREFS
331
5FC1
102
}
 70
     1
280
     1
281
     0
  0
BLOCK_RECORD
  5
1D8B
330
1
100
AcDbSymbolTableRecord
100
AcDbBlockTableRecord
  2
block 2
340
0
102
{BLKREFS
331
1D8A
102
}
 70
     0
280
     1
281
     0
  0
BLOCK_RECORD
  5
1D8E
330
1
100
AcDbSymbolTableRecord
100
AcDbBlockTableRecord
  2
block 3
340
0
102
{BLKREFS
331
1D8D
102
}
 70
     0
280
     1
281
     0
  0
BLOCK_RECORD
  5
1D91
330
1
100
AcDbSymbolTableRecord
100
AcDbBlockTableRecord
  2
block 4
340
0
102
{BLKREFS
331
1D90
102
}
 70
     0
280
     1
281
     0
  0
BLOCK_RECORD
  5
1DA0
330
1
100
AcDbSymbolTableRecord
100
AcDbBlockTableRecord
  2
block 5
340
0
102
{BLKREFS
331
1D9F
102
}
 70
     0
280
     1
281
     0
  0
BLOCK_RECORD
  5
4163
330
1
100
AcDbSymbolTableRecord
100
AcDbBlockTableRecord
  2
_NONE
340
0
 70
     0
280
     1
281
     0
  0
BLOCK_RECORD
  5
5FDA
330
1
100
AcDbSymbolTableRecord
100
AcDbBlockTableRecord
  2
*D8
340
0
 70
     0
280
     1
281
     0
  0
BLOCK_RECORD
  5
5FE8
330
1
100
AcDbSymbolTableRecord
100
AcDbBlockTableRecord
  2
*D9
340
0
 70
     0
280
     1
281
     0
  0
BLOCK_RECORD
  5
5FF4
330
1
100
AcDbSymbolTableRecord
100
AcDbBlockTableRecord
  2
*D10
340
0
 70
     0
280
     1
281
     0
  0
BLOCK_RECORD
  5
6000
330
1
100
AcDbSymbolTableRecord
100
AcDbBlockTableRecord
  2
*D11
340
0
 70
     0
280
     1
281
     0
  0
BLOCK_RECORD
  5
600C
330
1
100
AcDbSymbolTableRecord
100
AcDbBlockTableRecord
  2
*D12
340
0
 70
     0
280
     1
281
     0
  0
BLOCK_RECORD
  5
6018
330
1
100
AcDbSymbolTableRecord
100
AcDbBlockTableRecord
  2
*D13
340
0
 70
     0
280
     1
281
     0
  0
BLOCK_RECORD
  5
6024
330
1
100
AcDbSymbolTableRecord
100
AcDbBlockTableRecord
  2
*D14
340
0
 70
     0
280
     1
281
     0
  0
BLOCK_RECORD
  5
6030
330
1
100
AcDbSymbolTableRecord
100
AcDbBlockTableRecord
  2
*D15
340
0
 70
     0
280
     1
281
     0
  0
BLOCK_RECORD
  5
603C
330
1
100
AcDbSymbolTableRecord
100
AcDbBlockTableRecord
  2
*D16
340
0
 70
     0
280
     1
281
     0
  0
BLOCK_RECORD
  5
6048
330
1
100
AcDbSymbolTableRecord
100
AcDbBlockTableRecord
  2
*D17
340
0
 70
     0
280
     1
281
     0
  0
BLOCK_RECORD
  5
6054
330
1
100
AcDbSymbolTableRecord
100
AcDbBlockTableRecord
  2
*D18
340
0
 70
     0
280
     1
281
     0
  0
BLOCK_RECORD
  5
6648
330
1
100
AcDbSymbolTableRecord
100
AcDbBlockTableRecord
  2
*D19
340
0
 70
     0
280
     1
281
     0
  0
BLOCK_RECORD
  5
6657
330
1
100
AcDbSymbolTableRecord
100
AcDbBlockTableRecord
  2
*D20
340
0
 70
     0
280
     1
281
     0
  0
BLOCK_RECORD
  5
6667
330
1
100
AcDbSymbolTableRecord
100
AcDbBlockTableRecord
  2
*D21
340
0
 70
     0
280
     1
281
     0
  0
BLOCK_RECORD
  5
6676
330
1
100
AcDbSymbolTableRecord
100
AcDbBlockTableRecord
  2
*D22
340
0
 70
     0
280
     1
281
     0
  0
BLOCK_RECORD
  5
6685
330
1
100
AcDbSymbolTableRecord
100
AcDbBlockTableRecord
  2
*D23
340
0
 70
     0
280
     1
281
     0
  0
BLOCK_RECORD
  5
6694
330
1
100
AcDbSymbolTableRecord
100
AcDbBlockTableRecord
  2
*D24
340
0
 70
     0
280
     1
281
     0
  0
BLOCK_RECORD
  5
66A8
330
1
100
AcDbSymbolTableRecord
100
AcDbBlockTableRecord
  2
*D25
340
0
 70
     0
280
     1
281
     0
  0
BLOCK_RECORD
  5
66C0
330
1
100
AcDbSymbolTableRecord
100
AcDbBlockTableRecord
  2
*D26
340
0
 70
     0
280
     1
281
     0
  0
BLOCK_RECORD
  5
66D2
330
1
100
AcDbSymbolTableRecord
100
AcDbBlockTableRecord
  2
*D27
340
0
 70
     0
280
     1
281
     0
  0
BLOCK_RECORD
  5
66E5
330
1
100
AcDbSymbolTableRecord
100
AcDbBlockTableRecord
  2
*D28
340
0
 70
     0
280
     1
281
     0
  0
BLOCK_RECORD
  5
66F7
330
1
100
AcDbSymbolTableRecord
100
AcDbBlockTableRecord
  2
*D29
340
0
 70
     0
280
     1
281
     0
  0
BLOCK_RECORD
  5
6706
330
1
100
AcDbSymbolTableRecord
100
AcDbBlockTableRecord
  2
*D30
340
0
 70
     0
280
     1
281
     0
  0
BLOCK_RECORD
  5
6718
330
1
100
AcDbSymbolTableRecord
100
AcDbBlockTableRecord
  2
*D31
340
0
 70
     0
280
     1
281
     0
  0
BLOCK_RECORD
  5
6749
330
1
100
AcDbSymbolTableRecord
100
AcDbBlockTableRecord
  2
*D32
340
0
 70
     0
280
     1
281
     0
  0
BLOCK_RECORD
  5
6757
330
1
100
AcDbSymbolTableRecord
100
AcDbBlockTableRecord
  2
*D33
340
0
 70
     0
280
     1
281
     0
  0
BLOCK_RECORD
  5
6763
330
1
100
AcDbSymbolTableRecord
100
AcDbBlockTableRecord
  2
*D34
340
0
 70
     0
280
     1
281
     0
  0
BLOCK_RECORD
  5
6776
330
1
100
AcDbSymbolTableRecord
100
AcDbBlockTableRecord
  2
*D35
340
0
 70
     0
280
     1
281
     0
  0
BLOCK_RECORD
  5
678B
330
1
100
AcDbSymbolTableRecord
100
AcDbBlockTableRecord
  2
*D36
340
0
 70
     0
280
     1
281
     0
  0
ENDTAB
  0
ENDSEC
  0
SECTION
  2
BLOCKS
  0
BLOCK
  5
D
330
A
100
AcDbEntity
  8
0
390
1D
100
AcDbBlockBegin
  2
*MODEL_SPACE
 70
     0
 10
0.0
 20
0.0
 30
0.0
  3
*MODEL_SPACE
  1
*MODEL_SPACE
  0
ENDBLK
  5
E
330
A
100
AcDbEntity
  8
0
390
1D
100
AcDbBlockEnd
  0
BLOCK
  5
F
330
B
100
AcDbEntity
 67
     1
  8
0
390
1D
100
AcDbBlockBegin
  2
*PAPER_SPACE
 70
     0
 10
0.0
 20
0.0
 30
0.0
  3
*PAPER_SPACE
  1
*PAPER_SPACE
  0
ENDBLK
  5
10
330
B
100
AcDbEntity
 67
     1
  8
0
390
1D
100
AcDbBlockEnd
  0
BLOCK
  5
544B
330
4E
100
AcDbEntity
  8
0
390
1D
100
AcDbBlockBegin
  2
_DOT
 70
     0
 10
0.0
 20
0.0
 30
0.0
  3
_DOT
  1
_DOT
  0
POLYLINE
  5
544D
330
4E
100
AcDbEntity
  8
0
  6
ByBlock
 62
     0
370
    -2
390
1D
100
AcDb2dPolyline
 66
     1
 10
0.0
 20
0.0
 30
0.0
 70
     1
 40
0.5
 41
0.5
  0
VERTEX
  5
544E
330
544D
100
AcDbEntity
  8
0
  6
ByBlock
 62
     0
370
    -2
390
1D
100
AcDbVertex
100
AcDb2dVertex
 10
-0.25
 20
0.0
 30
0.0
 42
1.0
  0
VERTEX
  5
544F
330
544D
100
AcDbEntity
  8
0
  6
ByBlock
 62
     0
370
    -2
390
1D
100
AcDbVertex
100
AcDb2dVertex
 10
0.25
 20
0.0
 30
0.0
 42
1.0
  0
SEQEND
  5
5450
330
544D
100
AcDbEntity
  8
0
390
1D
  0
LINE
  5
5451
330
4E
100
AcDbEntity
  8
0
  6
ByBlock
 62
     0
370
    -2
390
1D
100
AcDbLine
 10
-0.5
 20
0.0
 30
0.0
 11
-1.0
 21
0.0
 31
0.0
  0
ENDBLK
  5
5452
330
4E
100
AcDbEntity
  8
0
390
1D
100
AcDbBlockEnd
  0
BLOCK
  5
12C5
330
12C3
100
AcDbEntity
  8
0
100
AcDbBlockBegin
  2
*Paper_Space1
 70
     0
 10
0.0
 20
0.0
 30
0.0
  3
*Paper_Space1
  1
*Paper_Space83
  0
ENDBLK
  5
12C6
330
12C3
100
AcDbEntity
  8
0
100
AcDbBlockEnd
  0
BLOCK
  5
1D89
330
1D88
100
AcDbEntity
  8
0
100
AcDbBlockBegin
  2
名称未設定-1
 70
     0
 10
0.0
 20
0.0
 30
0.0
  3
名称未設定-1
  1
名称未設定-1
  0
INSERT
  5
1D8A
330
1D88
100
AcDbEntity
  8
TFORMLOGO
100
AcDbBlockReference
  2
block 2
 10
0.0
 20
0.0
 30
0.0
  0
ENDBLK
  5
1DAF
330
1D88
100
AcDbEntity
  8
0
100
AcDbBlockEnd
  0
BLOCK
  5
1D8C
330
1D8B
100
AcDbEntity
  8
0
100
AcDbBlockBegin
  2
block 2
 70
     0
 10
0.0
 20
0.0
 30
0.0
  3
block 2
  1
block 2
  0
INSERT
  5
1D8D
330
1D8B
100
AcDbEntity
  8
TFORMLOGO
100
AcDbBlockReference
  2
block 3
 10
0.0
 20
0.0
 30
0.0
  0
ENDBLK
  5
1DAE
330
1D8B
100
AcDbEntity
  8
0
100
AcDbBlockEnd
  0
BLOCK
  5
1D8F
330
1D8E
100
AcDbEntity
  8
0
100
AcDbBlockBegin
  2
block 3
 70
     0
 10
0.0
 20
0.0
 30
0.0
  3
block 3
  1
block 3
  0
INSERT
  5
1D90
330
1D8E
100
AcDbEntity
  8
TFORMLOGO
100
AcDbBlockReference
  2
block 4
 10
0.0
 20
0.0
 30
0.0
  0
ENDBLK
  5
1DAD
330
1D8E
100
AcDbEntity
  8
0
100
AcDbBlockEnd
  0
BLOCK
  5
1D92
330
1D91
100
AcDbEntity
  8
0
100
AcDbBlockBegin
  2
block 4
 70
     0
 10
0.0
 20
0.0
 30
0.0
  3
block 4
  1
block 4
  0
POLYLINE
  5
1D93
330
1D91
100
AcDbEntity
  8
TFORMLOGO
370
     0
100
AcDb2dPolyline
 66
     1
 10
0.0
 20
0.0
 30
0.0
  0
VERTEX
  5
1D94
330
1D93
100
AcDbEntity
  8
TFORMLOGO
370
     0
100
AcDbVertex
100
AcDb2dVertex
 10
83.79545727667795
 20
167.6444858234922
 30
0.0
  0
VERTEX
  5
1D95
330
1D93
100
AcDbEntity
  8
TFORMLOGO
370
     0
100
AcDbVertex
100
AcDb2dVertex
 10
83.79545727667795
 20
159.7968976406313
 30
0.0
  0
VERTEX
  5
1D96
330
1D93
100
AcDbEntity
  8
TFORMLOGO
370
     0
100
AcDbVertex
100
AcDb2dVertex
 10
71.3631329975216
 20
159.7968976406313
 30
0.0
  0
VERTEX
  5
1D97
330
1D93
100
AcDbEntity
  8
TFORMLOGO
370
     0
100
AcDbVertex
100
AcDb2dVertex
 10
71.3631329975216
 20
127.8027915271048
 30
0.0
  0
VERTEX
  5
1D98
330
1D93
100
AcDbEntity
  8
TFORMLOGO
370
     0
100
AcDbVertex
100
AcDb2dVertex
 10
60.43011526263018
 20
127.8027915271048
 30
0.0
  0
VERTEX
  5
1D99
330
1D93
100
AcDbEntity
  8
TFORMLOGO
370
     0
100
AcDbVertex
100
AcDb2dVertex
 10
60.43011526263018
 20
159.7968976406313
 30
0.0
  0
VERTEX
  5
1D9A
330
1D93
100
AcDbEntity
  8
TFORMLOGO
370
     0
100
AcDbVertex
100
AcDb2dVertex
 10
48.21793273020759
 20
159.7968976406313
 30
0.0
  0
VERTEX
  5
1D9B
330
1D93
100
AcDbEntity
  8
TFORMLOGO
370
     0
100
AcDbVertex
100
AcDb2dVertex
 10
48.21793273020759
 20
167.6444858234922
 30
0.0
  0
VERTEX
  5
1D9C
330
1D93
100
AcDbEntity
  8
TFORMLOGO
370
     0
100
AcDbVertex
100
AcDb2dVertex
 10
83.79545727667795
 20
167.6444858234922
 30
0.0
  0
SEQEND
  5
1D9D
330
1D93
100
AcDbEntity
  8
TFORMLOGO
370
     0
  0
HATCH
  5
1D9E
330
1D91
100
AcDbEntity
  8
TFORMLOGO
 62
   250
420
  2234388
100
AcDbHatch
 10
0.0
 20
0.0
 30
0.0
210
0.0
220
0.0
230
1.0
  2
SOLID
 70
     1
 71
     0
 91
        1
 92
        1
 93
        8
 72
     1
 10
83.79545727667795
 20
167.6444858234922
 11
83.79545727667795
 21
159.7968976406313
 72
     1
 10
83.79545727667795
 20
159.7968976406313
 11
71.3631329975216
 21
159.7968976406313
 72
     1
 10
71.3631329975216
 20
159.7968976406313
 11
71.3631329975216
 21
127.8027915271048
 72
     1
 10
71.3631329975216
 20
127.8027915271048
 11
60.43011526263018
 21
127.8027915271048
 72
     1
 10
60.43011526263018
 20
127.8027915271048
 11
60.43011526263018
 21
159.7968976406313
 72
     1
 10
60.43011526263018
 20
159.7968976406313
 11
48.21793273020759
 21
159.7968976406313
 72
     1
 10
48.21793273020759
 20
159.7968976406313
 11
48.21793273020759
 21
167.6444858234922
 72
     1
 10
48.21793273020759
 20
167.6444858234922
 11
83.79545727667795
 21
167.6444858234922
 97
        0
 75
     2
 76
     1
 98
        0
  0
INSERT
  5
1D9F
330
1D91
100
AcDbEntity
  8
TFORMLOGO
100
AcDbBlockReference
  2
block 5
 10
0.0
 20
0.0
 30
0.0
  0
ENDBLK
  5
1DAC
330
1D91
100
AcDbEntity
  8
0
100
AcDbBlockEnd
  0
BLOCK
  5
1DA1
330
1DA0
100
AcDbEntity
  8
0
100
AcDbBlockBegin
  2
block 5
 70
     0
 10
0.0
 20
0.0
 30
0.0
  3
block 5
  1
block 5
  0
SPLINE
  5
1DA2
330
1DA0
100
AcDbEntity
  8
TFORMLOGO
370
     0
100
AcDbSpline
210
0.0
220
0.0
230
1.0
 70
    11
 71
     3
 72
    56
 73
    52
 74
     0
 42
0.000000001
 43
0.0000000001
 40
0.0
 40
0.0
 40
0.0
 40
0.0
 40
1.0
 40
1.0
 40
1.0
 40
2.0
 40
2.0
 40
2.0
 40
3.0
 40
3.0
 40
3.0
 40
4.0
 40
4.0
 40
4.0
 40
5.0
 40
5.0
 40
5.0
 40
6.0
 40
6.0
 40
6.0
 40
7.0
 40
7.0
 40
7.0
 40
8.0
 40
8.0
 40
8.0
 40
9.0
 40
9.0
 40
9.0
 40
10.0
 40
10.0
 40
10.0
 40
11.0
 40
11.0
 40
11.0
 40
12.0
 40
12.0
 40
12.0
 40
13.0
 40
13.0
 40
13.0
 40
14.0
 40
14.0
 40
14.0
 40
15.0
 40
15.0
 40
15.0
 40
16.0
 40
16.0
 40
16.0
 40
17.0
 40
17.0
 40
17.0
 40
17.0
 10
100.4504378777679
 20
166.69157178364
 30
0.0
 10
101.9848844191641
 20
167.1313385124438
 30
0.0
 10
103.9637485713373
 20
166.7649523658846
 30
0.0
 10
103.9637485713373
 20
166.7649523658846
 30
0.0
 10
103.9637485713373
 20
166.7649523658846
 30
0.0
 10
103.0132460999156
 20
163.911205638077
 30
0.0
 10
103.0132460999156
 20
163.911205638077
 30
0.0
 10
103.0132460999156
 20
163.911205638077
 30
0.0
 10
101.0674548862189
 20
164.3601018759394
 30
0.0
 10
99.57090442016032
 20
163.1805004036133
 30
0.0
 10
98.40508333886608
 20
162.258247733807
 30
0.0
 10
97.65301849830304
 20
159.804132345923
 30
0.0
 10
97.3598406791005
 20
158.8699940888517
 30
0.0
 10
97.3598406791005
 20
158.8699940888517
 30
0.0
 10
96.07137411762282
 20
154.9119212747295
 30
0.0
 10
96.07137411762282
 20
154.9119212747295
 30
0.0
 10
96.07137411762282
 20
154.9119212747295
 30
0.0
 10
100.3012651448482
 20
154.9119212747295
 30
0.0
 10
100.3012651448482
 20
154.9119212747295
 30
0.0
 10
100.3012651448482
 20
154.9119212747295
 30
0.0
 10
99.64152892419852
 20
152.4199098115079
 30
0.0
 10
99.64152892419852
 20
152.4199098115079
 30
0.0
 10
99.64152892419852
 20
152.4199098115079
 30
0.0
 10
95.38097652692731
 20
152.4199098115079
 30
0.0
 10
95.38097652692731
 20
152.4199098115079
 30
0.0
 10
95.38097652692731
 20
152.4199098115079
 30
0.0
 10
87.75353009080013
 20
127.8027915271048
 30
0.0
 10
87.75353009080013
 20
127.8027915271048
 30
0.0
 10
87.75353009080013
 20
127.8027915271048
 30
0.0
 10
85.36538832498108
 20
127.8027915271048
 30
0.0
 10
85.36538832498108
 20
127.8027915271048
 30
0.0
 10
85.36538832498108
 20
127.8027915271048
 30
0.0
 10
93.00006946639998
 20
152.4199098115079
 30
0.0
 10
93.00006946639998
 20
152.4199098115079
 30
0.0
 10
93.00006946639998
 20
152.4199098115079
 30
0.0
 10
89.85297266450198
 20
152.4199098115079
 30
0.0
 10
89.85297266450198
 20
152.4199098115079
 30
0.0
 10
89.85297266450198
 20
152.4199098115079
 30
0.0
 10
90.51270888515164
 20
154.9119212747295
 30
0.0
 10
90.51270888515164
 20
154.9119212747295
 30
0.0
 10
90.51270888515164
 20
154.9119212747295
 30
0.0
 10
93.6904670570955
 20
154.9119212747295
 30
0.0
 10
93.6904670570955
 20
154.9119212747295
 30
0.0
 10
93.6904670570955
 20
154.9119212747295
 30
0.0
 10
94.81598049462158
 20
158.3616699146644
 30
0.0
 10
94.81598049462158
 20
158.3616699146644
 30
0.0
 10
95.7237637538445
 20
161.2605474231013
 30
0.0
 10
96.4968436907311
 20
162.8139420021662
 30
0.0
 10
97.15657991138076
 20
163.9844139654337
 30
0.0
 10
97.81183750494507
 20
165.1523021053827
 30
0.0
 10
99.1047826935081
 20
166.3084769129547
 30
0.0
 10
100.4504378777679
 20
166.69157178364
 30
0.0
  0
HATCH
  5
1DA3
330
1DA0
100
AcDbEntity
  8
TFORMLOGO
 62
   250
420
  2234388
100
AcDbHatch
 10
0.0
 20
0.0
 30
0.0
210
0.0
220
0.0
230
1.0
  2
SOLID
 70
     1
 71
     0
 91
        1
 92
        1
 93
        1
 72
     4
 94
        3
 73
     0
 74
     1
 95
       56
 96
       52
 40
0.0
 40
0.0
 40
0.0
 40
0.0
 40
1.0
 40
1.0
 40
1.0
 40
2.0
 40
2.0
 40
2.0
 40
3.0
 40
3.0
 40
3.0
 40
4.0
 40
4.0
 40
4.0
 40
5.0
 40
5.0
 40
5.0
 40
6.0
 40
6.0
 40
6.0
 40
7.0
 40
7.0
 40
7.0
 40
8.0
 40
8.0
 40
8.0
 40
9.0
 40
9.0
 40
9.0
 40
10.0
 40
10.0
 40
10.0
 40
11.0
 40
11.0
 40
11.0
 40
12.0
 40
12.0
 40
12.0
 40
13.0
 40
13.0
 40
13.0
 40
14.0
 40
14.0
 40
14.0
 40
15.0
 40
15.0
 40
15.0
 40
16.0
 40
16.0
 40
16.0
 40
17.0
 40
17.0
 40
17.0
 40
17.0
 10
100.4504378777679
 20
166.69157178364
 10
101.9848844191641
 20
167.1313385124438
 10
103.9637485713373
 20
166.7649523658846
 10
103.9637485713373
 20
166.7649523658846
 10
103.9637485713373
 20
166.7649523658846
 10
103.0132460999156
 20
163.911205638077
 10
103.0132460999156
 20
163.911205638077
 10
103.0132460999156
 20
163.911205638077
 10
101.0674548862189
 20
164.3601018759394
 10
99.57090442016032
 20
163.1805004036133
 10
98.40508333886608
 20
162.258247733807
 10
97.65301849830304
 20
159.804132345923
 10
97.3598406791005
 20
158.8699940888517
 10
97.3598406791005
 20
158.8699940888517
 10
96.07137411762282
 20
154.9119212747295
 10
96.07137411762282
 20
154.9119212747295
 10
96.07137411762282
 20
154.9119212747295
 10
100.3012651448482
 20
154.9119212747295
 10
100.3012651448482
 20
154.9119212747295
 10
100.3012651448482
 20
154.9119212747295
 10
99.64152892419852
 20
152.4199098115079
 10
99.64152892419852
 20
152.4199098115079
 10
99.64152892419852
 20
152.4199098115079
 10
95.38097652692731
 20
152.4199098115079
 10
95.38097652692731
 20
152.4199098115079
 10
95.38097652692731
 20
152.4199098115079
 10
87.75353009080013
 20
127.8027915271048
 10
87.75353009080013
 20
127.8027915271048
 10
87.75353009080013
 20
127.8027915271048
 10
85.36538832498108
 20
127.8027915271048
 10
85.36538832498108
 20
127.8027915271048
 10
85.36538832498108
 20
127.8027915271048
 10
93.00006946639998
 20
152.4199098115079
 10
93.00006946639998
 20
152.4199098115079
 10
93.00006946639998
 20
152.4199098115079
 10
89.85297266450198
 20
152.4199098115079
 10
89.85297266450198
 20
152.4199098115079
 10
89.85297266450198
 20
152.4199098115079
 10
90.51270888515164
 20
154.9119212747295
 10
90.51270888515164
 20
154.9119212747295
 10
90.51270888515164
 20
154.9119212747295
 10
93.6904670570955
 20
154.9119212747295
 10
93.6904670570955
 20
154.9119212747295
 10
93.6904670570955
 20
154.9119212747295
 10
94.81598049462158
 20
158.3616699146644
 10
94.81598049462158
 20
158.3616699146644
 10
95.7237637538445
 20
161.2605474231013
 10
96.4968436907311
 20
162.8139420021662
 10
97.15657991138076
 20
163.9844139654337
 10
97.81183750494507
 20
165.1523021053827
 10
99.1047826935081
 20
166.3084769129547
 10
100.4504378777679
 20
166.69157178364
 97
        0
 75
     2
 76
     1
 98
        0
  0
SPLINE
  5
1DA4
330
1DA0
100
AcDbEntity
  8
TFORMLOGO
370
     0
100
AcDbSpline
210
0.0
220
0.0
230
1.0
 70
    11
 71
     3
 72
    38
 73
    34
 74
     0
 42
0.000000001
 43
0.0000000001
 40
0.0
 40
0.0
 40
0.0
 40
0.0
 40
1.0
 40
1.0
 40
1.0
 40
2.0
 40
2.0
 40
2.0
 40
3.0
 40
3.0
 40
3.0
 40
4.0
 40
4.0
 40
4.0
 40
5.0
 40
5.0
 40
5.0
 40
6.0
 40
6.0
 40
6.0
 40
7.0
 40
7.0
 40
7.0
 40
8.0
 40
8.0
 40
8.0
 40
9.0
 40
9.0
 40
9.0
 40
10.0
 40
10.0
 40
10.0
 40
11.0
 40
11.0
 40
11.0
 40
11.0
 10
126.377554584636
 20
154.8151140277308
 30
0.0
 10
126.377554584636
 20
154.8151140277308
 30
0.0
 10
128.8311532078563
 20
154.8151140277308
 30
0.0
 10
128.8311532078563
 20
154.8151140277308
 30
0.0
 10
128.8311532078563
 20
154.8151140277308
 30
0.0
 10
127.7345785914971
 20
151.3062819612468
 30
0.0
 10
127.7345785914971
 20
151.3062819612468
 30
0.0
 10
128.571392836906
 20
152.2922689395754
 30
0.0
 10
129.8860421413442
 20
153.604506675583
 30
0.0
 10
131.0163787157314
 20
154.2664822097754
 30
0.0
 10
132.7044766171327
 20
155.2500576196734
 30
0.0
 10
133.6642808525008
 20
155.3847609420097
 30
0.0
 10
134.7284715499351
 20
155.3565111403944
 30
0.0
 10
134.7284715499351
 20
155.3565111403944
 30
0.0
 10
133.6877075172549
 20
152.0345756272799
 30
0.0
 10
133.6877075172549
 20
152.0345756272799
 30
0.0
 10
133.011434827367
 20
152.3184516825359
 30
0.0
 10
130.930940291334
 20
151.7768823149844
 30
0.0
 10
129.739280976855
 20
150.9162968950455
 30
0.0
 10
128.66613302525
 20
150.1454562717016
 30
0.0
 10
127.9192358313239
 20
149.4857200510519
 30
0.0
 10
127.0393578639405
 20
147.8282835196966
 30
0.0
 10
126.164647543194
 20
146.1699857139017
 30
0.0
 10
125.4742499524985
 20
143.5262176944419
 30
0.0
 10
124.2822461282437
 20
139.6959580071401
 30
0.0
 10
124.2822461282437
 20
139.6959580071401
 30
0.0
 10
120.5753209406769
 20
127.8027915271048
 30
0.0
 10
120.5753209406769
 20
127.8027915271048
 30
0.0
 10
120.5753209406769
 20
127.8027915271048
 30
0.0
 10
118.1964809388044
 20
127.8027915271048
 30
0.0
 10
118.1964809388044
 20
127.8027915271048
 30
0.0
 10
118.1964809388044
 20
127.8027915271048
 30
0.0
 10
126.377554584636
 20
154.8151140277308
 30
0.0
 10
126.377554584636
 20
154.8151140277308
 30
0.0
  0
HATCH
  5
1DA5
330
1DA0
100
AcDbEntity
  8
TFORMLOGO
 62
   250
420
  2234388
100
AcDbHatch
 10
0.0
 20
0.0
 30
0.0
210
0.0
220
0.0
230
1.0
  2
SOLID
 70
     1
 71
     0
 91
        1
 92
        1
 93
        1
 72
     4
 94
        3
 73
     0
 74
     1
 95
       38
 96
       34
 40
0.0
 40
0.0
 40
0.0
 40
0.0
 40
1.0
 40
1.0
 40
1.0
 40
2.0
 40
2.0
 40
2.0
 40
3.0
 40
3.0
 40
3.0
 40
4.0
 40
4.0
 40
4.0
 40
5.0
 40
5.0
 40
5.0
 40
6.0
 40
6.0
 40
6.0
 40
7.0
 40
7.0
 40
7.0
 40
8.0
 40
8.0
 40
8.0
 40
9.0
 40
9.0
 40
9.0
 40
10.0
 40
10.0
 40
10.0
 40
11.0
 40
11.0
 40
11.0
 40
11.0
 10
126.377554584636
 20
154.8151140277308
 10
126.377554584636
 20
154.8151140277308
 10
128.8311532078563
 20
154.8151140277308
 10
128.8311532078563
 20
154.8151140277308
 10
128.8311532078563
 20
154.8151140277308
 10
127.7345785914971
 20
151.3062819612468
 10
127.7345785914971
 20
151.3062819612468
 10
128.571392836906
 20
152.2922689395754
 10
129.8860421413442
 20
153.604506675583
 10
131.0163787157314
 20
154.2664822097754
 10
132.7044766171327
 20
155.2500576196734
 10
133.6642808525008
 20
155.3847609420097
 10
134.7284715499351
 20
155.3565111403944
 10
134.7284715499351
 20
155.3565111403944
 10
133.6877075172549
 20
152.0345756272799
 10
133.6877075172549
 20
152.0345756272799
 10
133.011434827367
 20
152.3184516825359
 10
130.930940291334
 20
151.7768823149844
 10
129.739280976855
 20
150.9162968950455
 10
128.66613302525
 20
150.1454562717016
 10
127.9192358313239
 20
149.4857200510519
 10
127.0393578639405
 20
147.8282835196966
 10
126.164647543194
 20
146.1699857139017
 10
125.4742499524985
 20
143.5262176944419
 10
124.2822461282437
 20
139.6959580071401
 10
124.2822461282437
 20
139.6959580071401
 10
120.5753209406769
 20
127.8027915271048
 10
120.5753209406769
 20
127.8027915271048
 10
120.5753209406769
 20
127.8027915271048
 10
118.1964809388044
 20
127.8027915271048
 10
118.1964809388044
 20
127.8027915271048
 10
118.1964809388044
 20
127.8027915271048
 10
126.377554584636
 20
154.8151140277308
 10
126.377554584636
 20
154.8151140277308
 97
        0
 75
     2
 76
     1
 98
        0
  0
SPLINE
  5
1DA6
330
1DA0
100
AcDbEntity
  8
TFORMLOGO
370
     0
100
AcDbSpline
210
0.0
220
0.0
230
1.0
 70
    11
 71
     3
 72
   104
 73
   100
 74
     0
 42
0.000000001
 43
0.0000000001
 40
0.0
 40
0.0
 40
0.0
 40
0.0
 40
1.0
 40
1.0
 40
1.0
 40
2.0
 40
2.0
 40
2.0
 40
3.0
 40
3.0
 40
3.0
 40
4.0
 40
4.0
 40
4.0
 40
5.0
 40
5.0
 40
5.0
 40
6.0
 40
6.0
 40
6.0
 40
7.0
 40
7.0
 40
7.0
 40
8.0
 40
8.0
 40
8.0
 40
9.0
 40
9.0
 40
9.0
 40
10.0
 40
10.0
 40
10.0
 40
11.0
 40
11.0
 40
11.0
 40
12.0
 40
12.0
 40
12.0
 40
13.0
 40
13.0
 40
13.0
 40
14.0
 40
14.0
 40
14.0
 40
15.0
 40
15.0
 40
15.0
 40
16.0
 40
16.0
 40
16.0
 40
17.0
 40
17.0
 40
17.0
 40
18.0
 40
18.0
 40
18.0
 40
19.0
 40
19.0
 40
19.0
 40
20.0
 40
20.0
 40
20.0
 40
21.0
 40
21.0
 40
21.0
 40
22.0
 40
22.0
 40
22.0
 40
23.0
 40
23.0
 40
23.0
 40
24.0
 40
24.0
 40
24.0
 40
25.0
 40
25.0
 40
25.0
 40
26.0
 40
26.0
 40
26.0
 40
27.0
 40
27.0
 40
27.0
 40
28.0
 40
28.0
 40
28.0
 40
29.0
 40
29.0
 40
29.0
 40
30.0
 40
30.0
 40
30.0
 40
31.0
 40
31.0
 40
31.0
 40
32.0
 40
32.0
 40
32.0
 40
33.0
 40
33.0
 40
33.0
 40
33.0
 10
139.8926730891197
 20
154.8294111834263
 30
0.0
 10
139.8926730891197
 20
154.8294111834263
 30
0.0
 10
142.0344903652445
 20
154.8294111834263
 30
0.0
 10
142.0344903652445
 20
154.8294111834263
 30
0.0
 10
142.0344903652445
 20
154.8294111834263
 30
0.0
 10
140.9516961399171
 20
151.3157559800812
 30
0.0
 10
140.9516961399171
 20
151.3157559800812
 30
0.0
 10
141.8928968473923
 20
152.7887075264977
 30
0.0
 10
142.7341897198865
 20
153.4484437471474
 30
0.0
 10
143.8552245303272
 20
154.2926649527359
 30
0.0
 10
144.9803934580775
 20
155.1296514530327
 30
0.0
 10
146.3139908001845
 20
155.3044901642492
 30
0.0
 10
147.241066606852
 20
155.3044901642492
 30
0.0
 10
148.3855280820469
 20
155.3044901642492
 30
0.0
 10
149.4969166187653
 20
155.0752189084569
 30
0.0
 10
150.0784491203092
 20
153.8172414621372
 30
0.0
 10
150.5228667310863
 20
152.833838307127
 30
0.0
 10
150.5414702589793
 20
152.7201500811143
 30
0.0
 10
150.4140016419347
 20
150.7765981809602
 30
0.0
 10
151.5818897818837
 20
152.7699317437168
 30
0.0
 10
152.4424752018226
 20
153.6256940267945
 30
0.0
 10
153.9038856707499
 20
154.4507949398263
 30
0.0
 10
155.4455669174378
 20
155.3044901642492
 30
0.0
 10
156.339225275853
 20
155.3659851592288
 30
0.0
 10
157.3748216618963
 20
155.2147453676543
 30
0.0
 10
158.911679771723
 20
154.9877134254046
 30
0.0
 10
159.8859534176746
 20
154.4390816074493
 30
0.0
 10
160.3965169054045
 20
152.7816450760939
 30
0.0
 10
160.9070803931344
 20
151.1219692311958
 30
0.0
 10
160.6328506116007
 20
150.2303779314354
 30
0.0
 10
159.9992971339115
 20
147.597634224801
 30
0.0
 10
159.7105979417943
 20
146.4014962832367
 30
0.0
 10
159.2947746424084
 20
144.9400858143094
 30
0.0
 10
158.7463150793409
 20
143.2092687007094
 30
0.0
 10
158.7463150793409
 20
143.2092687007094
 30
0.0
 10
153.9038856707499
 20
127.8027915271048
 30
0.0
 10
153.9038856707499
 20
127.8027915271048
 30
0.0
 10
153.9038856707499
 20
127.8027915271048
 30
0.0
 10
151.3882752878863
 20
127.8027915271048
 30
0.0
 10
151.3882752878863
 20
127.8027915271048
 30
0.0
 10
151.3882752878863
 20
127.8027915271048
 30
0.0
 10
155.6250565106276
 20
141.2751908193897
 30
0.0
 10
155.6250565106276
 20
141.2751908193897
 30
0.0
 10
156.5094131050963
 20
144.0936252951782
 30
0.0
 10
157.109893644309
 20
146.1506931664571
 30
0.0
 10
157.4220195011804
 20
147.4415712963654
 30
0.0
 10
157.8095929989511
 20
149.0530157726519
 30
0.0
 10
157.9656559273867
 20
149.5826995529385
 30
0.0
 10
157.7816877071116
 20
150.7529992613181
 30
0.0
 10
157.6111553680925
 20
151.8430281919372
 30
0.0
 10
157.0582171779396
 20
152.5547853887321
 30
0.0
 10
156.1170164704645
 20
152.5547853887321
 30
0.0
 10
155.1096698860365
 20
152.5547853887321
 30
0.0
 10
154.2962823053817
 20
152.4412694176073
 30
0.0
 10
153.156643967048
 20
151.2945686288697
 30
0.0
 10
152.0170056287143
 20
150.1476955852443
 30
0.0
 10
151.076149431015
 20
148.7930831468137
 30
0.0
 10
150.3337308641742
 20
147.2290087646991
 30
0.0
 10
149.5957909244188
 20
145.6683794803425
 30
0.0
 10
148.8530278478023
 20
143.6822806228776
 30
0.0
 10
148.0964843801539
 20
141.2751908193897
 30
0.0
 10
148.0964843801539
 20
141.2751908193897
 30
0.0
 10
143.8552245303272
 20
127.8027915271048
 30
0.0
 10
143.8552245303272
 20
127.8027915271048
 30
0.0
 10
143.8552245303272
 20
127.8027915271048
 30
0.0
 10
141.486030802177
 20
127.8027915271048
 30
0.0
 10
141.486030802177
 20
127.8027915271048
 30
0.0
 10
141.486030802177
 20
127.8027915271048
 30
0.0
 10
146.3329388378533
 20
143.2092687007094
 30
0.0
 10
146.3329388378533
 20
143.2092687007094
 30
0.0
 10
146.8483254624444
 20
144.8408669988801
 30
0.0
 10
147.2314203331297
 20
146.1837661049335
 30
0.0
 10
147.4867020769946
 20
147.224185627838
 30
0.0
 10
147.9169947869641
 20
149.0197705792876
 30
0.0
 10
148.0306830129768
 20
150.2400242051577
 30
0.0
 10
147.709255392159
 20
151.3157559800812
 30
0.0
 10
147.3874832615654
 20
152.3916600098926
 30
0.0
 10
146.8245542879144
 20
152.6683013598569
 30
0.0
 10
145.8840425999909
 20
152.6683013598569
 30
0.0
 10
145.0989048209514
 20
152.6683013598569
 30
0.0
 10
144.3282364524954
 20
152.3275811915945
 30
0.0
 10
143.4531816219731
 20
151.6538923250251
 30
0.0
 10
142.34627171234
 20
150.8074318058939
 30
0.0
 10
141.901854101563
 20
150.1097995099067
 30
0.0
 10
141.3578731655808
 20
149.289521733736
 30
0.0
 10
140.6299240093235
 20
148.192602607601
 30
0.0
 10
140.2850697237515
 20
147.455696197173
 30
0.0
 10
139.6652966370942
 20
145.8385673095858
 30
0.0
 10
139.0506911970739
 20
144.2214384219986
 30
0.0
 10
138.463991048893
 20
142.3252566160164
 30
0.0
 10
138.0571250036777
 20
141.0154304484394
 30
0.0
 10
138.0571250036777
 20
141.0154304484394
 30
0.0
 10
133.9009590684727
 20
127.8027915271048
 30
0.0
 10
133.9009590684727
 20
127.8027915271048
 30
0.0
 10
133.9009590684727
 20
127.8027915271048
 30
0.0
 10
131.4180771143097
 20
127.8027915271048
 30
0.0
 10
131.4180771143097
 20
127.8027915271048
 30
0.0
 10
131.4180771143097
 20
127.8027915271048
 30
0.0
 10
139.8926730891197
 20
154.8294111834263
 30
0.0
 10
139.8926730891197
 20
154.8294111834263
 30
0.0
  0
HATCH
  5
1DA7
330
1DA0
100
AcDbEntity
  8
TFORMLOGO
 62
   250
420
  2234388
100
AcDbHatch
 10
0.0
 20
0.0
 30
0.0
210
0.0
220
0.0
230
1.0
  2
SOLID
 70
     1
 71
     0
 91
        1
 92
        1
 93
        1
 72
     4
 94
        3
 73
     0
 74
     1
 95
      104
 96
      100
 40
0.0
 40
0.0
 40
0.0
 40
0.0
 40
1.0
 40
1.0
 40
1.0
 40
2.0
 40
2.0
 40
2.0
 40
3.0
 40
3.0
 40
3.0
 40
4.0
 40
4.0
 40
4.0
 40
5.0
 40
5.0
 40
5.0
 40
6.0
 40
6.0
 40
6.0
 40
7.0
 40
7.0
 40
7.0
 40
8.0
 40
8.0
 40
8.0
 40
9.0
 40
9.0
 40
9.0
 40
10.0
 40
10.0
 40
10.0
 40
11.0
 40
11.0
 40
11.0
 40
12.0
 40
12.0
 40
12.0
 40
13.0
 40
13.0
 40
13.0
 40
14.0
 40
14.0
 40
14.0
 40
15.0
 40
15.0
 40
15.0
 40
16.0
 40
16.0
 40
16.0
 40
17.0
 40
17.0
 40
17.0
 40
18.0
 40
18.0
 40
18.0
 40
19.0
 40
19.0
 40
19.0
 40
20.0
 40
20.0
 40
20.0
 40
21.0
 40
21.0
 40
21.0
 40
22.0
 40
22.0
 40
22.0
 40
23.0
 40
23.0
 40
23.0
 40
24.0
 40
24.0
 40
24.0
 40
25.0
 40
25.0
 40
25.0
 40
26.0
 40
26.0
 40
26.0
 40
27.0
 40
27.0
 40
27.0
 40
28.0
 40
28.0
 40
28.0
 40
29.0
 40
29.0
 40
29.0
 40
30.0
 40
30.0
 40
30.0
 40
31.0
 40
31.0
 40
31.0
 40
32.0
 40
32.0
 40
32.0
 40
33.0
 40
33.0
 40
33.0
 40
33.0
 10
139.8926730891197
 20
154.8294111834263
 10
139.8926730891197
 20
154.8294111834263
 10
142.0344903652445
 20
154.8294111834263
 10
142.0344903652445
 20
154.8294111834263
 10
142.0344903652445
 20
154.8294111834263
 10
140.9516961399171
 20
151.3157559800812
 10
140.9516961399171
 20
151.3157559800812
 10
141.8928968473923
 20
152.7887075264977
 10
142.7341897198865
 20
153.4484437471474
 10
143.8552245303272
 20
154.2926649527359
 10
144.9803934580775
 20
155.1296514530327
 10
146.3139908001845
 20
155.3044901642492
 10
147.241066606852
 20
155.3044901642492
 10
148.3855280820469
 20
155.3044901642492
 10
149.4969166187653
 20
155.0752189084569
 10
150.0784491203092
 20
153.8172414621372
 10
150.5228667310863
 20
152.833838307127
 10
150.5414702589793
 20
152.7201500811143
 10
150.4140016419347
 20
150.7765981809602
 10
151.5818897818837
 20
152.7699317437168
 10
152.4424752018226
 20
153.6256940267945
 10
153.9038856707499
 20
154.4507949398263
 10
155.4455669174378
 20
155.3044901642492
 10
156.339225275853
 20
155.3659851592288
 10
157.3748216618963
 20
155.2147453676543
 10
158.911679771723
 20
154.9877134254046
 10
159.8859534176746
 20
154.4390816074493
 10
160.3965169054045
 20
152.7816450760939
 10
160.9070803931344
 20
151.1219692311958
 10
160.6328506116007
 20
150.2303779314354
 10
159.9992971339115
 20
147.597634224801
 10
159.7105979417943
 20
146.4014962832367
 10
159.2947746424084
 20
144.9400858143094
 10
158.7463150793409
 20
143.2092687007094
 10
158.7463150793409
 20
143.2092687007094
 10
153.9038856707499
 20
127.8027915271048
 10
153.9038856707499
 20
127.8027915271048
 10
153.9038856707499
 20
127.8027915271048
 10
151.3882752878863
 20
127.8027915271048
 10
151.3882752878863
 20
127.8027915271048
 10
151.3882752878863
 20
127.8027915271048
 10
155.6250565106276
 20
141.2751908193897
 10
155.6250565106276
 20
141.2751908193897
 10
156.5094131050963
 20
144.0936252951782
 10
157.109893644309
 20
146.1506931664571
 10
157.4220195011804
 20
147.4415712963654
 10
157.8095929989511
 20
149.0530157726519
 10
157.9656559273867
 20
149.5826995529385
 10
157.7816877071116
 20
150.7529992613181
 10
157.6111553680925
 20
151.8430281919372
 10
157.0582171779396
 20
152.5547853887321
 10
156.1170164704645
 20
152.5547853887321
 10
155.1096698860365
 20
152.5547853887321
 10
154.2962823053817
 20
152.4412694176073
 10
153.156643967048
 20
151.2945686288697
 10
152.0170056287143
 20
150.1476955852443
 10
151.076149431015
 20
148.7930831468137
 10
150.3337308641742
 20
147.2290087646991
 10
149.5957909244188
 20
145.6683794803425
 10
148.8530278478023
 20
143.6822806228776
 10
148.0964843801539
 20
141.2751908193897
 10
148.0964843801539
 20
141.2751908193897
 10
143.8552245303272
 20
127.8027915271048
 10
143.8552245303272
 20
127.8027915271048
 10
143.8552245303272
 20
127.8027915271048
 10
141.486030802177
 20
127.8027915271048
 10
141.486030802177
 20
127.8027915271048
 10
141.486030802177
 20
127.8027915271048
 10
146.3329388378533
 20
143.2092687007094
 10
146.3329388378533
 20
143.2092687007094
 10
146.8483254624444
 20
144.8408669988801
 10
147.2314203331297
 20
146.1837661049335
 10
147.4867020769946
 20
147.224185627838
 10
147.9169947869641
 20
149.0197705792876
 10
148.0306830129768
 20
150.2400242051577
 10
147.709255392159
 20
151.3157559800812
 10
147.3874832615654
 20
152.3916600098926
 10
146.8245542879144
 20
152.6683013598569
 10
145.8840425999909
 20
152.6683013598569
 10
145.0989048209514
 20
152.6683013598569
 10
144.3282364524954
 20
152.3275811915945
 10
143.4531816219731
 20
151.6538923250251
 10
142.34627171234
 20
150.8074318058939
 10
141.901854101563
 20
150.1097995099067
 10
141.3578731655808
 20
149.289521733736
 10
140.6299240093235
 20
148.192602607601
 10
140.2850697237515
 20
147.455696197173
 10
139.6652966370942
 20
145.8385673095858
 10
139.0506911970739
 20
144.2214384219986
 10
138.463991048893
 20
142.3252566160164
 10
138.0571250036777
 20
141.0154304484394
 10
138.0571250036777
 20
141.0154304484394
 10
133.9009590684727
 20
127.8027915271048
 10
133.9009590684727
 20
127.8027915271048
 10
133.9009590684727
 20
127.8027915271048
 10
131.4180771143097
 20
127.8027915271048
 10
131.4180771143097
 20
127.8027915271048
 10
131.4180771143097
 20
127.8027915271048
 10
139.8926730891197
 20
154.8294111834263
 10
139.8926730891197
 20
154.8294111834263
 97
        0
 75
     2
 76
     1
 98
        0
  0
SPLINE
  5
1DA8
330
1DA0
100
AcDbEntity
  8
TFORMLOGO
370
     0
100
AcDbSpline
210
0.0
220
0.0
230
1.0
 70
    11
 71
     3
 72
    29
 73
    25
 74
     0
 42
0.000000001
 43
0.0000000001
 40
0.0
 40
0.0
 40
0.0
 40
0.0
 40
1.0
 40
1.0
 40
1.0
 40
2.0
 40
2.0
 40
2.0
 40
3.0
 40
3.0
 40
3.0
 40
4.0
 40
4.0
 40
4.0
 40
5.0
 40
5.0
 40
5.0
 40
6.0
 40
6.0
 40
6.0
 40
7.0
 40
7.0
 40
7.0
 40
8.0
 40
8.0
 40
8.0
 40
8.0
 10
101.6420971922469
 20
132.8388354296931
 30
0.0
 10
101.630039350094
 20
134.7164137077823
 30
0.0
 10
102.2236296937908
 20
138.0598810818841
 30
0.0
 10
103.7487744712405
 20
142.5378191476827
 30
0.0
 10
105.819967243327
 20
148.5896501242061
 30
0.0
 10
107.0602024361932
 20
150.8074318058939
 30
0.0
 10
108.1522984254671
 20
151.8833358357054
 30
0.0
 10
109.741177511439
 20
153.4532668840085
 30
0.0
 10
111.8740375333931
 20
153.5290590346837
 30
0.0
 10
112.5075910110823
 20
153.4532668840085
 30
0.0
 10
113.4012493694975
 20
153.3490526768302
 30
0.0
 10
114.6683563248758
 20
152.7580461564518
 30
0.0
 10
114.7493161221879
 20
150.7838328862519
 30
0.0
 10
114.8106388622796
 20
149.0909118479895
 30
0.0
 10
114.3186789024427
 20
145.9191825971221
 30
0.0
 10
112.6164561002338
 20
140.9489400617108
 30
0.0
 10
110.6444821435766
 20
135.1746117095912
 30
0.0
 10
109.4669477299053
 20
132.8960240524753
 30
0.0
 10
108.5212683953448
 20
131.9072809959403
 30
0.0
 10
106.7346406980658
 20
130.0538184021569
 30
0.0
 10
104.8222669326213
 20
130.2336525051225
 30
0.0
 10
104.5408024457958
 20
130.2336525051225
 30
0.0
 10
104.1721769856939
 20
130.2336525051225
 30
0.0
 10
101.6465758193322
 20
130.6305277668397
 30
0.0
 10
101.6420971922469
 20
132.8388354296931
 30
0.0
  0
SPLINE
  5
1DA9
330
1DA0
100
AcDbEntity
  8
TFORMLOGO
370
     0
100
AcDbSpline
210
0.0
220
0.0
230
1.0
 70
    11
 71
     3
 72
    32
 73
    28
 74
     0
 42
0.000000001
 43
0.0000000001
 40
0.0
 40
0.0
 40
0.0
 40
0.0
 40
1.0
 40
1.0
 40
1.0
 40
2.0
 40
2.0
 40
2.0
 40
3.0
 40
3.0
 40
3.0
 40
4.0
 40
4.0
 40
4.0
 40
5.0
 40
5.0
 40
5.0
 40
6.0
 40
6.0
 40
6.0
 40
7.0
 40
7.0
 40
7.0
 40
8.0
 40
8.0
 40
8.0
 40
9.0
 40
9.0
 40
9.0
 40
9.0
 10
106.2595617172429
 20
153.4105476718098
 30
0.0
 10
104.8222669326213
 20
151.5474388043041
 30
0.0
 10
103.7177685914188
 20
149.8758773721411
 30
0.0
 10
101.9232171692965
 20
144.6141795664062
 30
0.0
 10
100.2754269116635
 20
139.7999999594306
 30
0.0
 10
99.22777268346732
 20
136.3052927937542
 30
0.0
 10
99.06964269637689
 20
132.039572749846
 30
0.0
 10
98.94665270641765
 20
128.8673267343149
 30
0.0
 10
100.8807305877373
 20
127.8027915271048
 30
0.0
 10
103.7129454545577
 20
127.8027915271048
 30
0.0
 10
104.9352661390825
 20
127.8027915271048
 30
0.0
 10
108.0151835347002
 20
127.8827177950895
 30
0.0
 10
110.2045431598849
 20
130.5926316915021
 30
0.0
 10
111.7417457794874
 20
132.4984597712065
 30
0.0
 10
113.155269389579
 20
134.475256864725
 30
0.0
 10
115.0562743324223
 20
140.9489400617108
 30
0.0
 10
116.6361961642235
 20
146.3680788349845
 30
0.0
 10
117.7282921534974
 20
149.8639917848761
 30
0.0
 10
117.6480213757369
 20
151.8595646611754
 30
0.0
 10
117.6480213757369
 20
151.8595646611754
 30
0.0
 10
117.6480213757369
 20
151.8595646611754
 30
0.0
 10
117.6480213757369
 20
151.8595646611754
 30
0.0
 10
117.13229024137
 20
155.18150017429
 30
0.0
 10
114.7162431837115
 20
155.886194920681
 30
0.0
 10
113.3351034925446
 20
155.886194920681
 30
0.0
 10
111.9829026225447
 20
155.886194920681
 30
0.0
 10
108.3414342923792
 20
156.1251124501957
 30
0.0
 10
106.2595617172429
 20
153.4105476718098
 30
0.0
  0
HATCH
  5
1DAA
330
1DA0
100
AcDbEntity
  8
TFORMLOGO
 62
   250
420
  2234388
100
AcDbHatch
 10
0.0
 20
0.0
 30
0.0
210
0.0
220
0.0
230
1.0
  2
SOLID
 70
     1
 71
     0
 91
        2
 92
        1
 93
        1
 72
     4
 94
        3
 73
     0
 74
     1
 95
       29
 96
       25
 40
0.0
 40
0.0
 40
0.0
 40
0.0
 40
1.0
 40
1.0
 40
1.0
 40
2.0
 40
2.0
 40
2.0
 40
3.0
 40
3.0
 40
3.0
 40
4.0
 40
4.0
 40
4.0
 40
5.0
 40
5.0
 40
5.0
 40
6.0
 40
6.0
 40
6.0
 40
7.0
 40
7.0
 40
7.0
 40
8.0
 40
8.0
 40
8.0
 40
8.0
 10
101.6420971922469
 20
132.8388354296931
 10
101.630039350094
 20
134.7164137077823
 10
102.2236296937908
 20
138.0598810818841
 10
103.7487744712405
 20
142.5378191476827
 10
105.819967243327
 20
148.5896501242061
 10
107.0602024361932
 20
150.8074318058939
 10
108.1522984254671
 20
151.8833358357054
 10
109.741177511439
 20
153.4532668840085
 10
111.8740375333931
 20
153.5290590346837
 10
112.5075910110823
 20
153.4532668840085
 10
113.4012493694975
 20
153.3490526768302
 10
114.6683563248758
 20
152.7580461564518
 10
114.7493161221879
 20
150.7838328862519
 10
114.8106388622796
 20
149.0909118479895
 10
114.3186789024427
 20
145.9191825971221
 10
112.6164561002338
 20
140.9489400617108
 10
110.6444821435766
 20
135.1746117095912
 10
109.4669477299053
 20
132.8960240524753
 10
108.5212683953448
 20
131.9072809959403
 10
106.7346406980658
 20
130.0538184021569
 10
104.8222669326213
 20
130.2336525051225
 10
104.5408024457958
 20
130.2336525051225
 10
104.1721769856939
 20
130.2336525051225
 10
101.6465758193322
 20
130.6305277668397
 10
101.6420971922469
 20
132.8388354296931
 97
        0
 92
        1
 93
        1
 72
     4
 94
        3
 73
     0
 74
     1
 95
       32
 96
       28
 40
0.0
 40
0.0
 40
0.0
 40
0.0
 40
1.0
 40
1.0
 40
1.0
 40
2.0
 40
2.0
 40
2.0
 40
3.0
 40
3.0
 40
3.0
 40
4.0
 40
4.0
 40
4.0
 40
5.0
 40
5.0
 40
5.0
 40
6.0
 40
6.0
 40
6.0
 40
7.0
 40
7.0
 40
7.0
 40
8.0
 40
8.0
 40
8.0
 40
9.0
 40
9.0
 40
9.0
 40
9.0
 10
106.2595617172429
 20
153.4105476718098
 10
104.8222669326213
 20
151.5474388043041
 10
103.7177685914188
 20
149.8758773721411
 10
101.9232171692965
 20
144.6141795664062
 10
100.2754269116635
 20
139.7999999594306
 10
99.22777268346732
 20
136.3052927937542
 10
99.06964269637689
 20
132.039572749846
 10
98.94665270641765
 20
128.8673267343149
 10
100.8807305877373
 20
127.8027915271048
 10
103.7129454545577
 20
127.8027915271048
 10
104.9352661390825
 20
127.8027915271048
 10
108.0151835347002
 20
127.8827177950895
 10
110.2045431598849
 20
130.5926316915021
 10
111.7417457794874
 20
132.4984597712065
 10
113.155269389579
 20
134.475256864725
 10
115.0562743324223
 20
140.9489400617108
 10
116.6361961642235
 20
146.3680788349845
 10
117.7282921534974
 20
149.8639917848761
 10
117.6480213757369
 20
151.8595646611754
 10
117.6480213757369
 20
151.8595646611754
 10
117.6480213757369
 20
151.8595646611754
 10
117.6480213757369
 20
151.8595646611754
 10
117.13229024137
 20
155.18150017429
 10
114.7162431837115
 20
155.886194920681
 10
113.3351034925446
 20
155.886194920681
 10
111.9829026225447
 20
155.886194920681
 10
108.3414342923792
 20
156.1251124501957
 10
106.2595617172429
 20
153.4105476718098
 97
        0
 75
     2
 76
     1
 98
        0
  0
ENDBLK
  5
1DAB
330
1DA0
100
AcDbEntity
  8
0
100
AcDbBlockEnd
  0
BLOCK
  5
4164
330
4163
100
AcDbEntity
  8
0
100
AcDbBlockBegin
  2
_NONE
 70
     0
 10
0.0
 20
0.0
 30
0.0
  3
_NONE
  1
_NONE
  0
ENDBLK
  5
4165
330
4163
100
AcDbEntity
  8
0
100
AcDbBlockEnd
  0
BLOCK
  5
5FDB
330
5FDA
100
AcDbEntity
  8
0
100
AcDbBlockBegin
  2
*D8
 70
     1
 10
0.0
 20
0.0
 30
0.0
  3
*D8
  1

  0
LINE
  5
5FDD
330
5FDA
100
AcDbEntity
  8
寸法
 62
     0
370
    -2
100
AcDbLine
 10
425.3205646700895
 20
574.5809528028154
 30
0.0
 11
425.3205646700895
 21
541.7930452211231
 31
0.0
  0
LINE
  5
5FDE
330
5FDA
100
AcDbEntity
  8
寸法
 62
     0
370
    -2
100
AcDbLine
 10
387.3205646700895
 20
574.5809528028154
 30
0.0
 11
387.3205646700895
 21
541.7930452211231
 31
0.0
  0
LINE
  5
5FDF
330
5FDA
100
AcDbEntity
  8
寸法
 62
     0
370
    -2
100
AcDbLine
 10
425.3205646700895
 20
541.7930452211231
 30
0.0
 11
373.3305646700895
 21
541.7930452211231
 31
0.0
  0
LINE
  5
5FE0
330
5FDA
100
AcDbEntity
  8
寸法
 62
     0
370
    -2
100
AcDbLine
 10
423.3205646700895
 20
541.7930452211231
 30
0.0
 11
389.3205646700895
 21
541.7930452211231
 31
0.0
  0
LINE
  5
5FE1
330
5FDA
100
AcDbEntity
  8
寸法
 62
     0
370
    -2
100
AcDbLine
 10
389.3205646700895
 20
541.7930452211231
 30
0.0
 11
391.3205646700895
 21
541.7930452211231
 31
0.0
  0
INSERT
  5
5FE2
330
5FDA
100
AcDbEntity
  8
寸法
 62
     0
370
    -2
100
AcDbBlockReference
  2
_DOT
 10
425.3205646700895
 20
541.7930452211231
 30
0.0
 41
2.0
 42
2.0
 43
2.0
  0
INSERT
  5
5FE3
330
5FDA
100
AcDbEntity
  8
寸法
 62
     0
370
    -2
100
AcDbBlockReference
  2
_DOT
 10
387.3205646700895
 20
541.7930452211231
 30
0.0
 41
2.0
 42
2.0
 43
2.0
 50
180.0
  0
MTEXT
  5
5FE4
330
5FDA
100
AcDbEntity
  8
寸法
 62
     0
100
AcDbMText
 10
378.3255646700895
 20
546.318045221123
 30
0.0
 40
5.0
 41
0.0
 46
0.0
 71
     5
 72
     1
  1
\A1;ø8
  7
ＭＳ ゴシック
 73
     1
 44
1.0
  0
POINT
  5
5FE5
330
5FDA
100
AcDbEntity
  8
Defpoints
 62
     0
100
AcDbPoint
 10
425.3205646700895
 20
574.5809528028154
 30
0.0
  0
POINT
  5
5FE6
330
5FDA
100
AcDbEntity
  8
Defpoints
 62
     0
100
AcDbPoint
 10
387.3205646700895
 20
574.5809528028154
 30
0.0
  0
POINT
  5
5FE7
330
5FDA
100
AcDbEntity
  8
Defpoints
 62
     0
100
AcDbPoint
 10
387.3205646700895
 20
541.7930452211231
 30
0.0
  0
ENDBLK
  5
5FDC
330
5FDA
100
AcDbEntity
  8
0
100
AcDbBlockEnd
  0
BLOCK
  5
5FE9
330
5FE8
100
AcDbEntity
  8
0
100
AcDbBlockBegin
  2
*D9
 70
     1
 10
0.0
 20
0.0
 30
0.0
  3
*D9
  1

  0
LINE
  5
5FEB
330
5FE8
100
AcDbEntity
  8
寸法
 62
     0
370
    -2
100
AcDbLine
 10
387.3916346117704
 20
595.7577027486205
 30
0.0
 11
387.3916346117704
 21
611.0380781417305
 31
0.0
  0
LINE
  5
5FEC
330
5FE8
100
AcDbEntity
  8
寸法
 62
     0
370
    -2
100
AcDbLine
 10
406.3205646700895
 20
604.0945687887952
 30
0.0
 11
406.3205646700895
 21
611.0380781417305
 31
0.0
  0
LINE
  5
5FED
330
5FE8
100
AcDbEntity
  8
寸法
 62
     0
370
    -2
100
AcDbLine
 10
389.3916346117704
 20
611.0380781417305
 30
0.0
 11
404.3205646700895
 21
611.0380781417305
 31
0.0
  0
INSERT
  5
5FEE
330
5FE8
100
AcDbEntity
  8
寸法
 62
     0
370
    -2
100
AcDbBlockReference
  2
_DOT
 10
387.3916346117704
 20
611.0380781417305
 30
0.0
 41
2.0
 42
2.0
 43
2.0
 50
180.0
  0
INSERT
  5
5FEF
330
5FE8
100
AcDbEntity
  8
寸法
 62
     0
370
    -2
100
AcDbBlockReference
  2
_DOT
 10
406.3205646700895
 20
611.0380781417305
 30
0.0
 41
2.0
 42
2.0
 43
2.0
  0
MTEXT
  5
5FF0
330
5FE8
100
AcDbEntity
  8
寸法
 62
     0
100
AcDbMText
 10
396.85609964093
 20
615.5380781417305
 30
0.0
 40
5.0
 41
0.0
 46
0.0
 71
     5
 72
     1
  1
\A1;19
  7
ＭＳ ゴシック
 73
     1
 44
1.0
  0
POINT
  5
5FF1
330
5FE8
100
AcDbEntity
  8
Defpoints
 62
     0
100
AcDbPoint
 10
387.3916346117704
 20
590.7577027486205
 30
0.0
  0
POINT
  5
5FF2
330
5FE8
100
AcDbEntity
  8
Defpoints
 62
     0
100
AcDbPoint
 10
406.3205646700895
 20
599.0945687887952
 30
0.0
  0
POINT
  5
5FF3
330
5FE8
100
AcDbEntity
  8
Defpoints
 62
     0
100
AcDbPoint
 10
406.3205646700895
 20
611.0380781417305
 30
0.0
  0
ENDBLK
  5
5FEA
330
5FE8
100
AcDbEntity
  8
0
100
AcDbBlockEnd
  0
BLOCK
  5
5FF5
330
5FF4
100
AcDbEntity
  8
0
100
AcDbBlockBegin
  2
*D10
 70
     1
 10
0.0
 20
0.0
 30
0.0
  3
*D10
  1

  0
LINE
  5
5FF7
330
5FF4
100
AcDbEntity
  8
寸法
 62
     0
370
    -2
100
AcDbLine
 10
406.3205646700895
 20
604.0945687887952
 30
0.0
 11
406.3205646700895
 21
611.0380781417305
 31
0.0
  0
LINE
  5
5FF8
330
5FF4
100
AcDbEntity
  8
寸法
 62
     0
370
    -2
100
AcDbLine
 10
425.3916346117704
 20
595.7577027486205
 30
0.0
 11
425.3916346117704
 21
611.0380781417305
 31
0.0
  0
LINE
  5
5FF9
330
5FF4
100
AcDbEntity
  8
寸法
 62
     0
370
    -2
100
AcDbLine
 10
408.3205646700895
 20
611.0380781417305
 30
0.0
 11
423.3916346117704
 21
611.0380781417305
 31
0.0
  0
INSERT
  5
5FFA
330
5FF4
100
AcDbEntity
  8
寸法
 62
     0
370
    -2
100
AcDbBlockReference
  2
_DOT
 10
406.3205646700895
 20
611.0380781417305
 30
0.0
 41
2.0
 42
2.0
 43
2.0
 50
180.0
  0
INSERT
  5
5FFB
330
5FF4
100
AcDbEntity
  8
寸法
 62
     0
370
    -2
100
AcDbBlockReference
  2
_DOT
 10
425.3916346117704
 20
611.0380781417305
 30
0.0
 41
2.0
 42
2.0
 43
2.0
  0
MTEXT
  5
5FFC
330
5FF4
100
AcDbEntity
  8
寸法
 62
     0
100
AcDbMText
 10
415.85609964093
 20
615.5380781417305
 30
0.0
 40
5.0
 41
0.0
 46
0.0
 71
     5
 72
     1
  1
\A1;19
  7
ＭＳ ゴシック
 73
     1
 44
1.0
  0
POINT
  5
5FFD
330
5FF4
100
AcDbEntity
  8
Defpoints
 62
     0
100
AcDbPoint
 10
406.3205646700895
 20
599.0945687887952
 30
0.0
  0
POINT
  5
5FFE
330
5FF4
100
AcDbEntity
  8
Defpoints
 62
     0
100
AcDbPoint
 10
425.3916346117704
 20
590.7577027486205
 30
0.0
  0
POINT
  5
5FFF
330
5FF4
100
AcDbEntity
  8
Defpoints
 62
     0
100
AcDbPoint
 10
425.3916346117704
 20
611.0380781417305
 30
0.0
  0
ENDBLK
  5
5FF6
330
5FF4
100
AcDbEntity
  8
0
100
AcDbBlockEnd
  0
BLOCK
  5
6001
330
6000
100
AcDbEntity
  8
0
100
AcDbBlockBegin
  2
*D11
 70
     1
 10
0.0
 20
0.0
 30
0.0
  3
*D11
  1

  0
LINE
  5
6003
330
6000
100
AcDbEntity
  8
寸法
 62
     0
370
    -2
100
AcDbLine
 10
396.6650841767538
 20
756.1374778839385
 30
0.0
 11
396.6650841767538
 21
765.8524949644477
 31
0.0
  0
LINE
  5
6004
330
6000
100
AcDbEntity
  8
寸法
 62
     0
370
    -2
100
AcDbLine
 10
415.6650841767538
 20
756.1374778839385
 30
0.0
 11
415.6650841767538
 21
765.8524949644477
 31
0.0
  0
LINE
  5
6005
330
6000
100
AcDbEntity
  8
寸法
 62
     0
370
    -2
100
AcDbLine
 10
398.6650841767538
 20
765.8524949644477
 30
0.0
 11
413.6650841767538
 21
765.8524949644477
 31
0.0
  0
INSERT
  5
6006
330
6000
100
AcDbEntity
  8
寸法
 62
     0
370
    -2
100
AcDbBlockReference
  2
_DOT
 10
396.6650841767538
 20
765.8524949644477
 30
0.0
 41
2.0
 42
2.0
 43
2.0
 50
180.0
  0
INSERT
  5
6007
330
6000
100
AcDbEntity
  8
寸法
 62
     0
370
    -2
100
AcDbBlockReference
  2
_DOT
 10
415.6650841767538
 20
765.8524949644477
 30
0.0
 41
2.0
 42
2.0
 43
2.0
  0
MTEXT
  5
6008
330
6000
100
AcDbEntity
  8
寸法
 62
     0
100
AcDbMText
 10
406.1650841767538
 20
770.3524949644477
 30
0.0
 40
5.0
 41
0.0
 46
0.0
 71
     5
 72
     1
  1
\A1;19
  7
ＭＳ ゴシック
 73
     1
 44
1.0
  0
POINT
  5
6009
330
6000
100
AcDbEntity
  8
Defpoints
 62
     0
100
AcDbPoint
 10
396.6650841767538
 20
751.1374778839385
 30
0.0
  0
POINT
  5
600A
330
6000
100
AcDbEntity
  8
Defpoints
 62
     0
100
AcDbPoint
 10
415.6650841767538
 20
751.1374778839385
 30
0.0
  0
POINT
  5
600B
330
6000
100
AcDbEntity
  8
Defpoints
 62
     0
100
AcDbPoint
 10
415.6650841767538
 20
765.8524949644477
 30
0.0
  0
ENDBLK
  5
6002
330
6000
100
AcDbEntity
  8
0
100
AcDbBlockEnd
  0
BLOCK
  5
600D
330
600C
100
AcDbEntity
  8
0
100
AcDbBlockBegin
  2
*D12
 70
     1
 10
0.0
 20
0.0
 30
0.0
  3
*D12
  1

  0
LINE
  5
600F
330
600C
100
AcDbEntity
  8
寸法
 62
     0
370
    -2
100
AcDbLine
 10
417.6650841767538
 20
755.7926705385323
 30
0.0
 11
417.6650841767538
 21
776.5812457963405
 31
0.0
  0
LINE
  5
6010
330
600C
100
AcDbEntity
  8
寸法
 62
     0
370
    -2
100
AcDbLine
 10
394.6650841767538
 20
755.7926705385323
 30
0.0
 11
394.6650841767538
 21
776.5812457963405
 31
0.0
  0
LINE
  5
6011
330
600C
100
AcDbEntity
  8
寸法
 62
     0
370
    -2
100
AcDbLine
 10
415.6650841767538
 20
776.5812457963405
 30
0.0
 11
396.6650841767538
 21
776.5812457963405
 31
0.0
  0
INSERT
  5
6012
330
600C
100
AcDbEntity
  8
寸法
 62
     0
370
    -2
100
AcDbBlockReference
  2
_DOT
 10
417.6650841767538
 20
776.5812457963405
 30
0.0
 41
2.0
 42
2.0
 43
2.0
  0
INSERT
  5
6013
330
600C
100
AcDbEntity
  8
寸法
 62
     0
370
    -2
100
AcDbBlockReference
  2
_DOT
 10
394.6650841767538
 20
776.5812457963405
 30
0.0
 41
2.0
 42
2.0
 43
2.0
 50
180.0
  0
MTEXT
  5
6014
330
600C
100
AcDbEntity
  8
寸法
 62
     0
100
AcDbMText
 10
406.1650841767538
 20
781.0812457963405
 30
0.0
 40
5.0
 41
0.0
 46
0.0
 71
     5
 72
     1
  1
\A1;23
  7
ＭＳ ゴシック
 73
     1
 44
1.0
  0
POINT
  5
6015
330
600C
100
AcDbEntity
  8
Defpoints
 62
     0
100
AcDbPoint
 10
417.6650841767538
 20
750.7926705385323
 30
0.0
  0
POINT
  5
6016
330
600C
100
AcDbEntity
  8
Defpoints
 62
     0
100
AcDbPoint
 10
394.6650841767538
 20
750.7926705385323
 30
0.0
  0
POINT
  5
6017
330
600C
100
AcDbEntity
  8
Defpoints
 62
     0
100
AcDbPoint
 10
394.6650841767538
 20
776.5812457963405
 30
0.0
  0
ENDBLK
  5
600E
330
600C
100
AcDbEntity
  8
0
100
AcDbBlockEnd
  0
BLOCK
  5
6019
330
6018
100
AcDbEntity
  8
0
100
AcDbBlockBegin
  2
*D13
 70
     1
 10
0.0
 20
0.0
 30
0.0
  3
*D13
  1

  0
LINE
  5
601B
330
6018
100
AcDbEntity
  8
寸法
 62
     0
370
    -2
100
AcDbLine
 10
392.7463580626337
 20
737.4823082197954
 30
0.0
 11
366.5548189029502
 21
737.4823082197954
 31
0.0
  0
LINE
  5
601C
330
6018
100
AcDbEntity
  8
寸法
 62
     0
370
    -2
100
AcDbLine
 10
392.7463580626337
 20
673.4823082197955
 30
0.0
 11
366.5548189029502
 21
673.4823082197955
 31
0.0
  0
LINE
  5
601D
330
6018
100
AcDbEntity
  8
寸法
 62
     0
370
    -2
100
AcDbLine
 10
366.5548189029502
 20
735.4823082197954
 30
0.0
 11
366.5548189029502
 21
675.4823082197955
 31
0.0
  0
INSERT
  5
601E
330
6018
100
AcDbEntity
  8
寸法
 62
     0
370
    -2
100
AcDbBlockReference
  2
_DOT
 10
366.5548189029502
 20
737.4823082197954
 30
0.0
 41
2.0
 42
2.0
 43
2.0
 50
90.0
  0
INSERT
  5
601F
330
6018
100
AcDbEntity
  8
寸法
 62
     0
370
    -2
100
AcDbBlockReference
  2
_DOT
 10
366.5548189029502
 20
673.4823082197955
 30
0.0
 41
2.0
 42
2.0
 43
2.0
 50
270.0
  0
MTEXT
  5
6020
330
6018
100
AcDbEntity
  8
寸法
 62
     0
100
AcDbMText
 10
362.0548189029502
 20
705.4823082197955
 30
0.0
 40
5.0
 41
0.0
 46
0.0
 71
     5
 72
     1
  1
\A1;64
  7
ＭＳ ゴシック
 11
0.0
 21
1.0
 31
0.0
 73
     1
 44
1.0
  0
POINT
  5
6021
330
6018
100
AcDbEntity
  8
Defpoints
 62
     0
100
AcDbPoint
 10
397.7463580626337
 20
737.4823082197954
 30
0.0
  0
POINT
  5
6022
330
6018
100
AcDbEntity
  8
Defpoints
 62
     0
100
AcDbPoint
 10
397.7463580626337
 20
673.4823082197955
 30
0.0
  0
POINT
  5
6023
330
6018
100
AcDbEntity
  8
Defpoints
 62
     0
100
AcDbPoint
 10
366.5548189029502
 20
673.4823082197955
 30
0.0
  0
ENDBLK
  5
601A
330
6018
100
AcDbEntity
  8
0
100
AcDbBlockEnd
  0
BLOCK
  5
6025
330
6024
100
AcDbEntity
  8
0
100
AcDbBlockBegin
  2
*D14
 70
     1
 10
0.0
 20
0.0
 30
0.0
  3
*D14
  1

  0
LINE
  5
6027
330
6024
100
AcDbEntity
  8
寸法
 62
     0
370
    -2
100
AcDbLine
 10
163.0670431688403
 20
738.4970017780195
 30
0.0
 11
163.0670431688403
 21
750.143382627605
 31
0.0
  0
LINE
  5
6028
330
6024
100
AcDbEntity
  8
寸法
 62
     0
370
    -2
100
AcDbLine
 10
201.0670431688403
 20
738.4970017780195
 30
0.0
 11
201.0670431688403
 21
750.143382627605
 31
0.0
  0
LINE
  5
6029
330
6024
100
AcDbEntity
  8
寸法
 62
     0
370
    -2
100
AcDbLine
 10
165.0670431688403
 20
750.143382627605
 30
0.0
 11
199.0670431688403
 21
750.143382627605
 31
0.0
  0
INSERT
  5
602A
330
6024
100
AcDbEntity
  8
寸法
 62
     0
370
    -2
100
AcDbBlockReference
  2
_DOT
 10
163.0670431688403
 20
750.143382627605
 30
0.0
 41
2.0
 42
2.0
 43
2.0
 50
180.0
  0
INSERT
  5
602B
330
6024
100
AcDbEntity
  8
寸法
 62
     0
370
    -2
100
AcDbBlockReference
  2
_DOT
 10
201.0670431688403
 20
750.143382627605
 30
0.0
 41
2.0
 42
2.0
 43
2.0
  0
MTEXT
  5
602C
330
6024
100
AcDbEntity
  8
寸法
 62
     0
100
AcDbMText
 10
182.0670431688403
 20
754.643382627605
 30
0.0
 40
5.0
 41
0.0
 46
0.0
 71
     5
 72
     1
  1
\A1;38
  7
ＭＳ ゴシック
 73
     1
 44
1.0
  0
POINT
  5
602D
330
6024
100
AcDbEntity
  8
Defpoints
 62
     0
100
AcDbPoint
 10
163.0670431688403
 20
733.4970017780195
 30
0.0
  0
POINT
  5
602E
330
6024
100
AcDbEntity
  8
Defpoints
 62
     0
100
AcDbPoint
 10
201.0670431688403
 20
733.4970017780195
 30
0.0
  0
POINT
  5
602F
330
6024
100
AcDbEntity
  8
Defpoints
 62
     0
100
AcDbPoint
 10
201.0670431688403
 20
750.143382627605
 30
0.0
  0
ENDBLK
  5
6026
330
6024
100
AcDbEntity
  8
0
100
AcDbBlockEnd
  0
BLOCK
  5
6031
330
6030
100
AcDbEntity
  8
0
100
AcDbBlockBegin
  2
*D15
 70
     1
 10
0.0
 20
0.0
 30
0.0
  3
*D15
  1

  0
LINE
  5
6033
330
6030
100
AcDbEntity
  8
寸法
 62
     0
370
    -2
100
AcDbLine
 10
145.3487648401712
 20
726.4138346282582
 30
0.0
 11
134.5902278983268
 21
726.4138346282582
 31
0.0
  0
LINE
  5
6034
330
6030
100
AcDbEntity
  8
寸法
 62
     0
370
    -2
100
AcDbLine
 10
174.1639647138073
 20
675.3196436047087
 30
0.0
 11
134.5902278983268
 21
675.3196436047087
 31
0.0
  0
LINE
  5
6035
330
6030
100
AcDbEntity
  8
寸法
 62
     0
370
    -2
100
AcDbLine
 10
134.5902278983268
 20
724.4138346282582
 30
0.0
 11
134.5902278983268
 21
677.3196436047087
 31
0.0
  0
INSERT
  5
6036
330
6030
100
AcDbEntity
  8
寸法
 62
     0
370
    -2
100
AcDbBlockReference
  2
_DOT
 10
134.5902278983268
 20
726.4138346282582
 30
0.0
 41
2.0
 42
2.0
 43
2.0
 50
90.0
  0
INSERT
  5
6037
330
6030
100
AcDbEntity
  8
寸法
 62
     0
370
    -2
100
AcDbBlockReference
  2
_DOT
 10
134.5902278983268
 20
675.3196436047087
 30
0.0
 41
2.0
 42
2.0
 43
2.0
 50
270.0
  0
MTEXT
  5
6038
330
6030
100
AcDbEntity
  8
寸法
 62
     0
100
AcDbMText
 10
130.0902278983268
 20
703.3196436047087
 30
0.0
 40
5.0
 41
0.0
 46
0.0
 71
     5
 72
     1
  1
\A1;51
  7
ＭＳ ゴシック
 11
0.0
 21
1.0
 31
0.0
 73
     1
 44
1.0
  0
POINT
  5
6039
330
6030
100
AcDbEntity
  8
Defpoints
 62
     0
100
AcDbPoint
 10
150.3487648401712
 20
726.4138346282582
 30
0.0
  0
POINT
  5
603A
330
6030
100
AcDbEntity
  8
Defpoints
 62
     0
100
AcDbPoint
 10
179.1639647138073
 20
675.3196436047087
 30
0.0
  0
POINT
  5
603B
330
6030
100
AcDbEntity
  8
Defpoints
 62
     0
100
AcDbPoint
 10
134.5902278983268
 20
675.3196436047087
 30
0.0
  0
ENDBLK
  5
6032
330
6030
100
AcDbEntity
  8
0
100
AcDbBlockEnd
  0
BLOCK
  5
603D
330
603C
100
AcDbEntity
  8
0
100
AcDbBlockBegin
  2
*D16
 70
     1
 10
0.0
 20
0.0
 30
0.0
  3
*D16
  1

  0
LINE
  5
603F
330
603C
100
AcDbEntity
  8
寸法
 62
     0
370
    -2
100
AcDbLine
 10
145.2120839715175
 20
732.3196436047087
 30
0.0
 11
134.5902278983268
 21
732.3196436047087
 31
0.0
  0
LINE
  5
6040
330
603C
100
AcDbEntity
  8
寸法
 62
     0
370
    -2
100
AcDbLine
 10
150.3487648401712
 20
726.4138346282582
 30
0.0
 11
134.5902278983268
 21
726.4138346282582
 31
0.0
  0
LINE
  5
6041
330
603C
100
AcDbEntity
  8
寸法
 62
     0
370
    -2
100
AcDbLine
 10
134.5902278983268
 20
730.3196436047087
 30
0.0
 11
134.5902278983268
 21
728.4138346282582
 31
0.0
  0
INSERT
  5
6042
330
603C
100
AcDbEntity
  8
寸法
 62
     0
370
    -2
100
AcDbBlockReference
  2
_DOT
 10
134.5902278983268
 20
732.3196436047087
 30
0.0
 41
2.0
 42
2.0
 43
2.0
 50
90.0
  0
INSERT
  5
6043
330
603C
100
AcDbEntity
  8
寸法
 62
     0
370
    -2
100
AcDbBlockReference
  2
_DOT
 10
134.5902278983268
 20
726.4138346282582
 30
0.0
 41
2.0
 42
2.0
 43
2.0
 50
270.0
  0
MTEXT
  5
6044
330
603C
100
AcDbEntity
  8
寸法
 62
     0
100
AcDbMText
 10
130.0902278983268
 20
729.3667391164834
 30
0.0
 40
5.0
 41
0.0
 46
0.0
 71
     5
 72
     1
  1
\A1;6
  7
ＭＳ ゴシック
 11
0.0
 21
1.0
 31
0.0
 73
     1
 44
1.0
  0
POINT
  5
6045
330
603C
100
AcDbEntity
  8
Defpoints
 62
     0
100
AcDbPoint
 10
150.2120839715175
 20
732.3196436047087
 30
0.0
  0
POINT
  5
6046
330
603C
100
AcDbEntity
  8
Defpoints
 62
     0
100
AcDbPoint
 10
155.3487648401712
 20
726.4138346282582
 30
0.0
  0
POINT
  5
6047
330
603C
100
AcDbEntity
  8
Defpoints
 62
     0
100
AcDbPoint
 10
134.5902278983268
 20
726.4138346282582
 30
0.0
  0
ENDBLK
  5
603E
330
603C
100
AcDbEntity
  8
0
100
AcDbBlockEnd
  0
BLOCK
  5
6049
330
6048
100
AcDbEntity
  8
0
100
AcDbBlockBegin
  2
*D17
 70
     1
 10
0.0
 20
0.0
 30
0.0
  3
*D17
  1

  0
LINE
  5
604B
330
6048
100
AcDbEntity
  8
寸法
 62
     0
370
    -2
100
AcDbLine
 10
218.9220023661632
 20
732.3196436047087
 30
0.0
 11
230.046364923326
 21
732.3196436047087
 31
0.0
  0
LINE
  5
604C
330
6048
100
AcDbEntity
  8
寸法
 62
     0
370
    -2
100
AcDbLine
 10
189.9701216238735
 20
675.3196436047087
 30
0.0
 11
230.046364923326
 21
675.3196436047087
 31
0.0
  0
LINE
  5
604D
330
6048
100
AcDbEntity
  8
寸法
 62
     0
370
    -2
100
AcDbLine
 10
230.046364923326
 20
730.3196436047087
 30
0.0
 11
230.046364923326
 21
677.3196436047087
 31
0.0
  0
INSERT
  5
604E
330
6048
100
AcDbEntity
  8
寸法
 62
     0
370
    -2
100
AcDbBlockReference
  2
_DOT
 10
230.046364923326
 20
732.3196436047087
 30
0.0
 41
2.0
 42
2.0
 43
2.0
 50
90.00000000000004
  0
INSERT
  5
604F
330
6048
100
AcDbEntity
  8
寸法
 62
     0
370
    -2
100
AcDbBlockReference
  2
_DOT
 10
230.046364923326
 20
675.3196436047087
 30
0.0
 41
2.0
 42
2.0
 43
2.0
 50
270.0
  0
MTEXT
  5
6050
330
6048
100
AcDbEntity
  8
寸法
 62
     0
100
AcDbMText
 10
225.546364923326
 20
703.8196436047087
 30
0.0
 40
5.0
 41
0.0
 46
0.0
 71
     5
 72
     1
  1
\A1;57
  7
ＭＳ ゴシック
 11
-4.986264812351580E-16
 21
1.0
 31
0.0
 73
     1
 44
1.0
  0
POINT
  5
6051
330
6048
100
AcDbEntity
  8
Defpoints
 62
     0
100
AcDbPoint
 10
213.9220023661632
 20
732.3196436047087
 30
0.0
  0
POINT
  5
6052
330
6048
100
AcDbEntity
  8
Defpoints
 62
     0
100
AcDbPoint
 10
184.9701216238735
 20
675.3196436047087
 30
0.0
  0
POINT
  5
6053
330
6048
100
AcDbEntity
  8
Defpoints
 62
     0
100
AcDbPoint
 10
230.046364923326
 20
675.3196436047087
 30
0.0
  0
ENDBLK
  5
604A
330
6048
100
AcDbEntity
  8
0
100
AcDbBlockEnd
  0
BLOCK
  5
6055
330
6054
100
AcDbEntity
  8
0
100
AcDbBlockBegin
  2
*D18
 70
     1
 10
0.0
 20
0.0
 30
0.0
  3
*D18
  1

  0
LINE
  5
6057
330
6054
100
AcDbEntity
  8
寸法
 62
     0
370
    -2
100
AcDbLine
 10
389.5546381620217
 20
751.0550484066285
 30
0.0
 11
350.8719813837076
 21
751.0550484066285
 31
0.0
  0
LINE
  5
6058
330
6054
100
AcDbEntity
  8
寸法
 62
     0
370
    -2
100
AcDbLine
 10
389.5546381620217
 20
661.0550484066285
 30
0.0
 11
350.8719813837077
 21
661.0550484066285
 31
0.0
  0
LINE
  5
6059
330
6054
100
AcDbEntity
  8
寸法
 62
     0
370
    -2
100
AcDbLine
 10
350.8719813837076
 20
749.0550484066285
 30
0.0
 11
350.8719813837077
 21
663.0550484066285
 31
0.0
  0
INSERT
  5
605A
330
6054
100
AcDbEntity
  8
寸法
 62
     0
370
    -2
100
AcDbBlockReference
  2
_DOT
 10
350.8719813837076
 20
751.0550484066285
 30
0.0
 41
2.0
 42
2.0
 43
2.0
 50
90.00000000000004
  0
INSERT
  5
605B
330
6054
100
AcDbEntity
  8
寸法
 62
     0
370
    -2
100
AcDbBlockReference
  2
_DOT
 10
350.8719813837077
 20
661.0550484066285
 30
0.0
 41
2.0
 42
2.0
 43
2.0
 50
270.0000000000001
  0
MTEXT
  5
605C
330
6054
100
AcDbEntity
  8
寸法
 62
     0
100
AcDbMText
 10
346.3719813837076
 20
706.0550484066285
 30
0.0
 40
5.0
 41
0.0
 46
0.0
 71
     5
 72
     1
  1
\A1;90
  7
ＭＳ ゴシック
 11
-6.315935428978669E-16
 21
1.0
 31
0.0
 73
     1
 44
1.0
  0
POINT
  5
605D
330
6054
100
AcDbEntity
  8
Defpoints
 62
     0
100
AcDbPoint
 10
394.5546381620217
 20
751.0550484066285
 30
0.0
  0
POINT
  5
605E
330
6054
100
AcDbEntity
  8
Defpoints
 62
     0
100
AcDbPoint
 10
394.5546381620217
 20
661.0550484066285
 30
0.0
  0
POINT
  5
605F
330
6054
100
AcDbEntity
  8
Defpoints
 62
     0
100
AcDbPoint
 10
350.8719813837077
 20
661.0550484066285
 30
0.0
  0
ENDBLK
  5
6056
330
6054
100
AcDbEntity
  8
0
100
AcDbBlockEnd
  0
BLOCK
  5
6649
330
6648
100
AcDbEntity
  8
0
100
AcDbBlockBegin
  2
*D19
 70
     1
 10
0.0
 20
0.0
 30
0.0
  3
*D19
  1

  0
LINE
  5
664B
330
6648
100
AcDbEntity
  8
寸法
 62
     0
370
    -2
100
AcDbLine
 10
205.40542246762
 20
341.4695196985571
 30
0.0
 11
224.4796236805557
 21
341.4695196985571
 31
0.0
  0
LINE
  5
664C
330
6648
100
AcDbEntity
  8
寸法
 62
     0
370
    -2
100
AcDbLine
 10
191.3275242717601
 20
273.7543247923055
 30
0.0
 11
224.4796236805557
 21
273.7543247923055
 31
0.0
  0
LINE
  5
664D
330
6648
100
AcDbEntity
  8
寸法
 62
     0
370
    -2
100
AcDbLine
 10
224.4796236805557
 20
339.4695196985571
 30
0.0
 11
224.4796236805557
 21
275.7543247923055
 31
0.0
  0
INSERT
  5
664E
330
6648
100
AcDbEntity
  8
寸法
 62
     0
370
    -2
100
AcDbBlockReference
  2
_DOT
 10
224.4796236805557
 20
341.4695196985571
 30
0.0
 41
2.0
 42
2.0
 43
2.0
 50
90.0
  0
INSERT
  5
664F
330
6648
100
AcDbEntity
  8
寸法
 62
     0
370
    -2
100
AcDbBlockReference
  2
_DOT
 10
224.4796236805557
 20
273.7543247923055
 30
0.0
 41
2.0
 42
2.0
 43
2.0
 50
270.0
  0
MTEXT
  5
6650
330
6648
100
AcDbEntity
  8
寸法
 62
     0
100
AcDbMText
 10
219.9796236805557
 20
307.6119222454313
 30
0.0
 40
5.0
 41
0.0
 46
0.0
 71
     5
 72
     1
  1
\A1;67
  7
ＭＳ ゴシック
 11
0.0
 21
1.0
 31
0.0
 73
     1
 44
1.0
  0
POINT
  5
6651
330
6648
100
AcDbEntity
  8
Defpoints
 62
     0
100
AcDbPoint
 10
200.40542246762
 20
341.4695196985571
 30
0.0
  0
POINT
  5
6652
330
6648
100
AcDbEntity
  8
Defpoints
 62
     0
100
AcDbPoint
 10
186.3275242717601
 20
273.7543247923055
 30
0.0
  0
POINT
  5
6653
330
6648
100
AcDbEntity
  8
Defpoints
 62
     0
100
AcDbPoint
 10
224.4796236805557
 20
273.7543247923055
 30
0.0
  0
ENDBLK
  5
664A
330
6648
100
AcDbEntity
  8
0
100
AcDbBlockEnd
  0
BLOCK
  5
6658
330
6657
100
AcDbEntity
  8
0
100
AcDbBlockBegin
  2
*D20
 70
     1
 10
0.0
 20
0.0
 30
0.0
  3
*D20
  1

  0
LINE
  5
665A
330
6657
100
AcDbEntity
  8
寸法
 62
     0
370
    -2
100
AcDbLine
 10
142.2143025768597
 20
341.4695196985571
 30
0.0
 11
119.9835728372091
 21
341.4695196985571
 31
0.0
  0
LINE
  5
665B
330
6657
100
AcDbEntity
  8
寸法
 62
     0
370
    -2
100
AcDbLine
 10
142.2143025768597
 20
335.2266730824399
 30
0.0
 11
119.9835728372091
 21
335.2266730824399
 31
0.0
  0
LINE
  5
665C
330
6657
100
AcDbEntity
  8
寸法
 62
     0
370
    -2
100
AcDbLine
 10
119.9835728372091
 20
339.4695196985571
 30
0.0
 11
119.9835728372091
 21
337.2266730824399
 31
0.0
  0
INSERT
  5
665D
330
6657
100
AcDbEntity
  8
寸法
 62
     0
370
    -2
100
AcDbBlockReference
  2
_DOT
 10
119.9835728372091
 20
341.4695196985571
 30
0.0
 41
2.0
 42
2.0
 43
2.0
 50
90.0
  0
INSERT
  5
665E
330
6657
100
AcDbEntity
  8
寸法
 62
     0
370
    -2
100
AcDbBlockReference
  2
_DOT
 10
119.9835728372091
 20
335.2266730824399
 30
0.0
 41
2.0
 42
2.0
 43
2.0
 50
270.0
  0
MTEXT
  5
665F
330
6657
100
AcDbEntity
  8
寸法
 62
     0
100
AcDbMText
 10
115.4835728372091
 20
338.2266730824399
 30
0.0
 40
5.0
 41
0.0
 46
0.0
 71
     5
 72
     1
  1
\A1;6
  7
ＭＳ ゴシック
 11
0.0
 21
1.0
 31
0.0
 73
     1
 44
1.0
  0
POINT
  5
6660
330
6657
100
AcDbEntity
  8
Defpoints
 62
     0
100
AcDbPoint
 10
147.2143025768597
 20
341.4695196985571
 30
0.0
  0
POINT
  5
6661
330
6657
100
AcDbEntity
  8
Defpoints
 62
     0
100
AcDbPoint
 10
147.2143025768597
 20
335.2266730824399
 30
0.0
  0
POINT
  5
6662
330
6657
100
AcDbEntity
  8
Defpoints
 62
     0
100
AcDbPoint
 10
119.9835728372091
 20
335.2266730824399
 30
0.0
  0
ENDBLK
  5
6659
330
6657
100
AcDbEntity
  8
0
100
AcDbBlockEnd
  0
BLOCK
  5
6668
330
6667
100
AcDbEntity
  8
0
100
AcDbBlockBegin
  2
*D21
 70
     1
 10
0.0
 20
0.0
 30
0.0
  3
*D21
  1

  0
LINE
  5
666A
330
6667
100
AcDbEntity
  8
寸法
 62
     0
370
    -2
100
AcDbLine
 10
156.2289549493329
 20
333.8890066375271
 30
0.0
 11
119.9835728372091
 21
333.8890066375271
 31
0.0
  0
LINE
  5
666B
330
6667
100
AcDbEntity
  8
寸法
 62
     0
370
    -2
100
AcDbLine
 10
156.2289549493329
 20
273.7543247923055
 30
0.0
 11
119.9835728372091
 21
273.7543247923055
 31
0.0
  0
LINE
  5
666C
330
6667
100
AcDbEntity
  8
寸法
 62
     0
370
    -2
100
AcDbLine
 10
119.9835728372091
 20
331.8890066375271
 30
0.0
 11
119.9835728372091
 21
275.7543247923055
 31
0.0
  0
INSERT
  5
666D
330
6667
100
AcDbEntity
  8
寸法
 62
     0
370
    -2
100
AcDbBlockReference
  2
_DOT
 10
119.9835728372091
 20
333.8890066375271
 30
0.0
 41
2.0
 42
2.0
 43
2.0
 50
90.0
  0
INSERT
  5
666E
330
6667
100
AcDbEntity
  8
寸法
 62
     0
370
    -2
100
AcDbBlockReference
  2
_DOT
 10
119.9835728372091
 20
273.7543247923055
 30
0.0
 41
2.0
 42
2.0
 43
2.0
 50
270.0
  0
MTEXT
  5
666F
330
6667
100
AcDbEntity
  8
寸法
 62
     0
100
AcDbMText
 10
115.4835728372091
 20
303.8216657149163
 30
0.0
 40
5.0
 41
0.0
 46
0.0
 71
     5
 72
     1
  1
\A1;60
  7
ＭＳ ゴシック
 11
0.0
 21
1.0
 31
0.0
 73
     1
 44
1.0
  0
POINT
  5
6670
330
6667
100
AcDbEntity
  8
Defpoints
 62
     0
100
AcDbPoint
 10
161.2289549493329
 20
333.8890066375271
 30
0.0
  0
POINT
  5
6671
330
6667
100
AcDbEntity
  8
Defpoints
 62
     0
100
AcDbPoint
 10
161.2289549493329
 20
273.7543247923055
 30
0.0
  0
POINT
  5
6672
330
6667
100
AcDbEntity
  8
Defpoints
 62
     0
100
AcDbPoint
 10
119.9835728372091
 20
273.7543247923055
 30
0.0
  0
ENDBLK
  5
6669
330
6667
100
AcDbEntity
  8
0
100
AcDbBlockEnd
  0
BLOCK
  5
6677
330
6676
100
AcDbEntity
  8
0
100
AcDbBlockBegin
  2
*D22
 70
     1
 10
0.0
 20
0.0
 30
0.0
  3
*D22
  1

  0
LINE
  5
6679
330
6676
100
AcDbEntity
  8
寸法
 62
     0
370
    -2
100
AcDbLine
 10
710.0408916179571
 20
266.2815795543296
 30
0.0
 11
710.0408916179571
 21
250.3168124403241
 31
0.0
  0
LINE
  5
667A
330
6676
100
AcDbEntity
  8
寸法
 62
     0
370
    -2
100
AcDbLine
 10
684.9423222955298
 20
266.2815795543296
 30
0.0
 11
684.9423222955298
 21
250.3168124403241
 31
0.0
  0
LINE
  5
667B
330
6676
100
AcDbEntity
  8
寸法
 62
     0
370
    -2
100
AcDbLine
 10
708.0408916179571
 20
250.3168124403241
 30
0.0
 11
686.9423222955298
 21
250.3168124403241
 31
0.0
  0
INSERT
  5
667C
330
6676
100
AcDbEntity
  8
寸法
 62
     0
370
    -2
100
AcDbBlockReference
  2
_DOT
 10
710.0408916179571
 20
250.3168124403241
 30
0.0
 41
2.0
 42
2.0
 43
2.0
  0
INSERT
  5
667D
330
6676
100
AcDbEntity
  8
寸法
 62
     0
370
    -2
100
AcDbBlockReference
  2
_DOT
 10
684.9423222955298
 20
250.3168124403241
 30
0.0
 41
2.0
 42
2.0
 43
2.0
 50
180.0
  0
MTEXT
  5
667E
330
6676
100
AcDbEntity
  8
寸法
 62
     0
100
AcDbMText
 10
697.4916069567435
 20
254.8168124403241
 30
0.0
 40
5.0
 41
0.0
 46
0.0
 71
     5
 72
     1
  1
\A1;25
  7
ＭＳ ゴシック
 73
     1
 44
1.0
  0
POINT
  5
667F
330
6676
100
AcDbEntity
  8
Defpoints
 62
     0
100
AcDbPoint
 10
710.0408916179571
 20
271.2815795543296
 30
0.0
  0
POINT
  5
6680
330
6676
100
AcDbEntity
  8
Defpoints
 62
     0
100
AcDbPoint
 10
684.9423222955298
 20
271.2815795543296
 30
0.0
  0
POINT
  5
6681
330
6676
100
AcDbEntity
  8
Defpoints
 62
     0
100
AcDbPoint
 10
684.9423222955298
 20
250.3168124403241
 30
0.0
  0
ENDBLK
  5
6678
330
6676
100
AcDbEntity
  8
0
100
AcDbBlockEnd
  0
BLOCK
  5
6686
330
6685
100
AcDbEntity
  8
0
100
AcDbBlockBegin
  2
*D23
 70
     1
 10
0.0
 20
0.0
 30
0.0
  3
*D23
  1

  0
LINE
  5
6688
330
6685
100
AcDbEntity
  8
寸法
 62
     0
370
    -2
100
AcDbLine
 10
191.3275242717601
 20
277.7674969298399
 30
0.0
 11
206.0288011287794
 21
277.7674969298399
 31
0.0
  0
LINE
  5
6689
330
6685
100
AcDbEntity
  8
寸法
 62
     0
370
    -2
100
AcDbLine
 10
191.3275242717601
 20
301.8468753606387
 30
0.0
 11
206.0288011287794
 21
301.8468753606387
 31
0.0
  0
LINE
  5
668A
330
6685
100
AcDbEntity
  8
寸法
 62
     0
370
    -2
100
AcDbLine
 10
206.0288011287794
 20
279.7674969298399
 30
0.0
 11
206.0288011287794
 21
299.8468753606387
 31
0.0
  0
INSERT
  5
668B
330
6685
100
AcDbEntity
  8
寸法
 62
     0
370
    -2
100
AcDbBlockReference
  2
_DOT
 10
206.0288011287794
 20
277.7674969298399
 30
0.0
 41
2.0
 42
2.0
 43
2.0
 50
270.0
  0
INSERT
  5
668C
330
6685
100
AcDbEntity
  8
寸法
 62
     0
370
    -2
100
AcDbBlockReference
  2
_DOT
 10
206.0288011287794
 20
301.8468753606387
 30
0.0
 41
2.0
 42
2.0
 43
2.0
 50
90.0
  0
MTEXT
  5
668D
330
6685
100
AcDbEntity
  8
寸法
 62
     0
100
AcDbMText
 10
201.5288011287794
 20
289.8071861452393
 30
0.0
 40
5.0
 41
0.0
 46
0.0
 71
     5
 72
     1
  1
\A1;24
  7
ＭＳ ゴシック
 11
0.0
 21
1.0
 31
0.0
 73
     1
 44
1.0
  0
POINT
  5
668E
330
6685
100
AcDbEntity
  8
Defpoints
 62
     0
100
AcDbPoint
 10
186.3275242717601
 20
277.7674969298399
 30
0.0
  0
POINT
  5
668F
330
6685
100
AcDbEntity
  8
Defpoints
 62
     0
100
AcDbPoint
 10
186.3275242717601
 20
301.8468753606387
 30
0.0
  0
POINT
  5
6690
330
6685
100
AcDbEntity
  8
Defpoints
 62
     0
100
AcDbPoint
 10
206.0288011287794
 20
301.8468753606387
 30
0.0
  0
ENDBLK
  5
6687
330
6685
100
AcDbEntity
  8
0
100
AcDbBlockEnd
  0
BLOCK
  5
6695
330
6694
100
AcDbEntity
  8
0
100
AcDbBlockBegin
  2
*D24
 70
     1
 10
0.0
 20
0.0
 30
0.0
  3
*D24
  1

  0
LINE
  5
6697
330
6694
100
AcDbEntity
  8
寸法
 62
     0
370
    -2
100
AcDbLine
 10
943.3168661741353
 20
358.7257062278141
 30
0.0
 11
977.8700140875059
 21
358.7257062278141
 31
0.0
  0
LINE
  5
6698
330
6694
100
AcDbEntity
  8
寸法
 62
     0
370
    -2
100
AcDbLine
 10
943.3168661741353
 20
259.9238067045273
 30
0.0
 11
977.8700140875059
 21
259.9238067045273
 31
0.0
  0
LINE
  5
6699
330
6694
100
AcDbEntity
  8
寸法
 62
     0
370
    -2
100
AcDbLine
 10
977.8700140875059
 20
356.7257062278141
 30
0.0
 11
977.8700140875059
 21
261.9238067045273
 31
0.0
  0
INSERT
  5
669A
330
6694
100
AcDbEntity
  8
寸法
 62
     0
370
    -2
100
AcDbBlockReference
  2
_DOT
 10
977.8700140875059
 20
358.7257062278141
 30
0.0
 41
2.0
 42
2.0
 43
2.0
 50
90.0
  0
INSERT
  5
669B
330
6694
100
AcDbEntity
  8
寸法
 62
     0
370
    -2
100
AcDbBlockReference
  2
_DOT
 10
977.8700140875059
 20
259.9238067045273
 30
0.0
 41
2.0
 42
2.0
 43
2.0
 50
270.0
  0
MTEXT
  5
669C
330
6694
100
AcDbEntity
  8
寸法
 62
     0
100
AcDbMText
 10
973.3700140875059
 20
309.3247564661707
 30
0.0
 40
5.0
 41
0.0
 46
0.0
 71
     5
 72
     1
  1
\A1;98.8
  7
ＭＳ ゴシック
 11
0.0
 21
1.0
 31
0.0
 73
     1
 44
1.0
  0
POINT
  5
669D
330
6694
100
AcDbEntity
  8
Defpoints
 62
     0
100
AcDbPoint
 10
938.3168661741353
 20
358.7257062278141
 30
0.0
  0
POINT
  5
669E
330
6694
100
AcDbEntity
  8
Defpoints
 62
     0
100
AcDbPoint
 10
938.3168661741353
 20
259.9238067045273
 30
0.0
  0
POINT
  5
669F
330
6694
100
AcDbEntity
  8
Defpoints
 62
     0
100
AcDbPoint
 10
977.8700140875059
 20
259.9238067045273
 30
0.0
  0
ENDBLK
  5
6696
330
6694
100
AcDbEntity
  8
0
100
AcDbBlockEnd
  0
BLOCK
  5
66A9
330
66A8
100
AcDbEntity
  8
0
100
AcDbBlockBegin
  2
*D25
 70
     1
 10
0.0
 20
0.0
 30
0.0
  3
*D25
  1

  0
LINE
  5
66AB
330
66A8
100
AcDbEntity
  8
寸法
 62
     0
370
    -2
100
AcDbLine
 10
923.2852437198505
 20
319.9911271996941
 30
0.0
 11
881.7741569297539
 21
319.9911271996941
 31
0.0
  0
LINE
  5
66AC
330
66A8
100
AcDbEntity
  8
寸法
 62
     0
370
    -2
100
AcDbLine
 10
923.2812903564578
 20
266.7985543883394
 30
0.0
 11
881.7741569297539
 21
266.7985543883394
 31
0.0
  0
LINE
  5
66AD
330
66A8
100
AcDbEntity
  8
寸法
 62
     0
370
    -2
100
AcDbLine
 10
881.7741569297539
 20
317.9911271996941
 30
0.0
 11
881.7741569297539
 21
268.7985543883394
 31
0.0
  0
INSERT
  5
66AE
330
66A8
100
AcDbEntity
  8
寸法
 62
     0
370
    -2
100
AcDbBlockReference
  2
_DOT
 10
881.7741569297539
 20
319.9911271996941
 30
0.0
 41
2.0
 42
2.0
 43
2.0
 50
90.0
  0
INSERT
  5
66AF
330
66A8
100
AcDbEntity
  8
寸法
 62
     0
370
    -2
100
AcDbBlockReference
  2
_DOT
 10
881.7741569297539
 20
266.7985543883394
 30
0.0
 41
2.0
 42
2.0
 43
2.0
 50
270.0
  0
MTEXT
  5
66B0
330
66A8
100
AcDbEntity
  8
寸法
 62
     0
100
AcDbMText
 10
877.2741569297539
 20
293.3948407940168
 30
0.0
 40
5.0
 41
0.0
 46
0.0
 71
     5
 72
     1
  1
\A1;53
  7
ＭＳ ゴシック
 11
0.0
 21
1.0
 31
0.0
 73
     1
 44
1.0
  0
POINT
  5
66B1
330
66A8
100
AcDbEntity
  8
Defpoints
 62
     0
100
AcDbPoint
 10
928.2852437198505
 20
319.9911271996941
 30
0.0
  0
POINT
  5
66B2
330
66A8
100
AcDbEntity
  8
Defpoints
 62
     0
100
AcDbPoint
 10
928.2812903564578
 20
266.7985543883394
 30
0.0
  0
POINT
  5
66B3
330
66A8
100
AcDbEntity
  8
Defpoints
 62
     0
100
AcDbPoint
 10
881.7741569297539
 20
266.7985543883394
 30
0.0
  0
ENDBLK
  5
66AA
330
66A8
100
AcDbEntity
  8
0
100
AcDbBlockEnd
  0
BLOCK
  5
66C1
330
66C0
100
AcDbEntity
  8
0
100
AcDbBlockBegin
  2
*D26
 70
     1
 10
0.0
 20
0.0
 30
0.0
  3
*D26
  1

  0
LINE
  5
66C3
330
66C0
100
AcDbEntity
  8
寸法
 62
     0
370
    -2
100
AcDbLine
 10
399.5718763736536
 20
322.46387243767
 30
0.0
 11
361.1971177447479
 21
322.46387243767
 31
0.0
  0
LINE
  5
66C4
330
66C0
100
AcDbEntity
  8
寸法
 62
     0
370
    -2
100
AcDbLine
 10
399.5679230102609
 20
269.2712996263153
 30
0.0
 11
361.1971177447479
 21
269.2712996263153
 31
0.0
  0
LINE
  5
66C5
330
66C0
100
AcDbEntity
  8
寸法
 62
     0
370
    -2
100
AcDbLine
 10
361.1971177447479
 20
320.46387243767
 30
0.0
 11
361.1971177447479
 21
271.2712996263153
 31
0.0
  0
INSERT
  5
66C6
330
66C0
100
AcDbEntity
  8
寸法
 62
     0
370
    -2
100
AcDbBlockReference
  2
_DOT
 10
361.1971177447479
 20
322.46387243767
 30
0.0
 41
2.0
 42
2.0
 43
2.0
 50
90.0
  0
INSERT
  5
66C7
330
66C0
100
AcDbEntity
  8
寸法
 62
     0
370
    -2
100
AcDbBlockReference
  2
_DOT
 10
361.1971177447479
 20
269.2712996263153
 30
0.0
 41
2.0
 42
2.0
 43
2.0
 50
270.0
  0
MTEXT
  5
66C8
330
66C0
100
AcDbEntity
  8
寸法
 62
     0
100
AcDbMText
 10
356.6971177447479
 20
295.8675860319927
 30
0.0
 40
5.0
 41
0.0
 46
0.0
 71
     5
 72
     1
  1
\A1;53
  7
ＭＳ ゴシック
 11
0.0
 21
1.0
 31
0.0
 73
     1
 44
1.0
  0
POINT
  5
66C9
330
66C0
100
AcDbEntity
  8
Defpoints
 62
     0
100
AcDbPoint
 10
404.5718763736536
 20
322.46387243767
 30
0.0
  0
POINT
  5
66CA
330
66C0
100
AcDbEntity
  8
Defpoints
 62
     0
100
AcDbPoint
 10
404.5679230102609
 20
269.2712996263153
 30
0.0
  0
POINT
  5
66CB
330
66C0
100
AcDbEntity
  8
Defpoints
 62
     0
100
AcDbPoint
 10
361.1971177447479
 20
269.2712996263153
 30
0.0
  0
ENDBLK
  5
66C2
330
66C0
100
AcDbEntity
  8
0
100
AcDbBlockEnd
  0
BLOCK
  5
66D3
330
66D2
100
AcDbEntity
  8
0
100
AcDbBlockBegin
  2
*D27
 70
     1
 10
0.0
 20
0.0
 30
0.0
  3
*D27
  1

  0
LINE
  5
66D5
330
66D2
100
AcDbEntity
  8
寸法
 62
     0
370
    -2
100
AcDbLine
 10
414.6034988279383
 20
371.0989642176509
 30
0.0
 11
414.6034988279383
 21
381.0950177721326
 31
0.0
  0
LINE
  5
66D6
330
66D2
100
AcDbEntity
  8
寸法
 62
     0
370
    -2
100
AcDbLine
 10
408.551944907147
 20
371.0989642176509
 30
0.0
 11
408.551944907147
 21
381.0950177721326
 31
0.0
  0
LINE
  5
66D7
330
66D2
100
AcDbEntity
  8
寸法
 62
     0
370
    -2
100
AcDbLine
 10
412.6034988279383
 20
381.0950177721326
 30
0.0
 11
410.551944907147
 21
381.0950177721326
 31
0.0
  0
INSERT
  5
66D8
330
66D2
100
AcDbEntity
  8
寸法
 62
     0
370
    -2
100
AcDbBlockReference
  2
_DOT
 10
414.6034988279383
 20
381.0950177721326
 30
0.0
 41
2.0
 42
2.0
 43
2.0
  0
INSERT
  5
66D9
330
66D2
100
AcDbEntity
  8
寸法
 62
     0
370
    -2
100
AcDbBlockReference
  2
_DOT
 10
408.551944907147
 20
381.0950177721326
 30
0.0
 41
2.0
 42
2.0
 43
2.0
 50
180.0
  0
MTEXT
  5
66DA
330
66D2
100
AcDbEntity
  8
寸法
 62
     0
100
AcDbMText
 10
411.5777218675427
 20
385.5950177721326
 30
0.0
 40
5.0
 41
0.0
 46
0.0
 71
     5
 72
     1
  1
\A1;6
  7
ＭＳ ゴシック
 73
     1
 44
1.0
  0
POINT
  5
66DB
330
66D2
100
AcDbEntity
  8
Defpoints
 62
     0
100
AcDbPoint
 10
414.6034988279383
 20
366.0989642176509
 30
0.0
  0
POINT
  5
66DC
330
66D2
100
AcDbEntity
  8
Defpoints
 62
     0
100
AcDbPoint
 10
408.551944907147
 20
366.0989642176509
 30
0.0
  0
POINT
  5
66DD
330
66D2
100
AcDbEntity
  8
Defpoints
 62
     0
100
AcDbPoint
 10
408.551944907147
 20
381.0950177721326
 30
0.0
  0
ENDBLK
  5
66D4
330
66D2
100
AcDbEntity
  8
0
100
AcDbBlockEnd
  0
BLOCK
  5
66E6
330
66E5
100
AcDbEntity
  8
0
100
AcDbBlockBegin
  2
*D28
 70
     1
 10
0.0
 20
0.0
 30
0.0
  3
*D28
  1

  0
LINE
  5
66E8
330
66E5
100
AcDbEntity
  8
寸法
 62
     0
370
    -2
100
AcDbLine
 10
154.8098625222397
 20
349.5738378941036
 30
0.0
 11
154.8098625222397
 21
361.2202187436891
 31
0.0
  0
LINE
  5
66E9
330
66E5
100
AcDbEntity
  8
寸法
 62
     0
370
    -2
100
AcDbLine
 10
192.8098625222397
 20
349.5738378941036
 30
0.0
 11
192.8098625222397
 21
361.2202187436891
 31
0.0
  0
LINE
  5
66EA
330
66E5
100
AcDbEntity
  8
寸法
 62
     0
370
    -2
100
AcDbLine
 10
156.8098625222397
 20
361.2202187436891
 30
0.0
 11
190.8098625222397
 21
361.2202187436891
 31
0.0
  0
INSERT
  5
66EB
330
66E5
100
AcDbEntity
  8
寸法
 62
     0
370
    -2
100
AcDbBlockReference
  2
_DOT
 10
154.8098625222397
 20
361.2202187436891
 30
0.0
 41
2.0
 42
2.0
 43
2.0
 50
180.0
  0
INSERT
  5
66EC
330
66E5
100
AcDbEntity
  8
寸法
 62
     0
370
    -2
100
AcDbBlockReference
  2
_DOT
 10
192.8098625222397
 20
361.2202187436891
 30
0.0
 41
2.0
 42
2.0
 43
2.0
  0
MTEXT
  5
66ED
330
66E5
100
AcDbEntity
  8
寸法
 62
     0
100
AcDbMText
 10
173.8098625222397
 20
365.7202187436891
 30
0.0
 40
5.0
 41
0.0
 46
0.0
 71
     5
 72
     1
  1
\A1;38
  7
ＭＳ ゴシック
 73
     1
 44
1.0
  0
POINT
  5
66EE
330
66E5
100
AcDbEntity
  8
Defpoints
 62
     0
100
AcDbPoint
 10
154.8098625222397
 20
344.5738378941036
 30
0.0
  0
POINT
  5
66EF
330
66E5
100
AcDbEntity
  8
Defpoints
 62
     0
100
AcDbPoint
 10
192.8098625222397
 20
344.5738378941036
 30
0.0
  0
POINT
  5
66F0
330
66E5
100
AcDbEntity
  8
Defpoints
 62
     0
100
AcDbPoint
 10
192.8098625222397
 20
361.2202187436891
 30
0.0
  0
ENDBLK
  5
66E7
330
66E5
100
AcDbEntity
  8
0
100
AcDbBlockEnd
  0
BLOCK
  5
66F8
330
66F7
100
AcDbEntity
  8
0
100
AcDbBlockBegin
  2
*D29
 70
     1
 10
0.0
 20
0.0
 30
0.0
  3
*D29
  1

  0
LINE
  5
66FA
330
66F7
100
AcDbEntity
  8
寸法
 62
     0
370
    -2
100
AcDbLine
 10
728.2723752412743
 20
120.2438750615292
 30
0.0
 11
744.7086029672581
 21
120.2438750615292
 31
0.0
  0
LINE
  5
66FB
330
66F7
100
AcDbEntity
  8
寸法
 62
     0
370
    -2
100
AcDbLine
 10
732.2858929844009
 20
133.8123506143712
 30
0.0
 11
744.7086029672581
 21
133.8123506143712
 31
0.0
  0
LINE
  5
66FC
330
66F7
100
AcDbEntity
  8
寸法
 62
     0
370
    -2
100
AcDbLine
 10
744.7086029672581
 20
122.2438750615292
 30
0.0
 11
744.7086029672581
 21
131.8123506143712
 31
0.0
  0
INSERT
  5
66FD
330
66F7
100
AcDbEntity
  8
寸法
 62
     0
370
    -2
100
AcDbBlockReference
  2
_DOT
 10
744.7086029672581
 20
120.2438750615292
 30
0.0
 41
2.0
 42
2.0
 43
2.0
 50
270.0
  0
INSERT
  5
66FE
330
66F7
100
AcDbEntity
  8
寸法
 62
     0
370
    -2
100
AcDbBlockReference
  2
_DOT
 10
744.7086029672581
 20
133.8123506143712
 30
0.0
 41
2.0
 42
2.0
 43
2.0
 50
90.0
  0
MTEXT
  5
66FF
330
66F7
100
AcDbEntity
  8
寸法
 62
     0
100
AcDbMText
 10
740.2086029672581
 20
127.0281128379502
 30
0.0
 40
5.0
 41
0.0
 46
0.0
 71
     5
 72
     1
  1
\A1;14
  7
ＭＳ ゴシック
 11
0.0
 21
1.0
 31
0.0
 73
     1
 44
1.0
  0
POINT
  5
6700
330
66F7
100
AcDbEntity
  8
Defpoints
 62
     0
100
AcDbPoint
 10
723.2723752412743
 20
120.2438750615292
 30
0.0
  0
POINT
  5
6701
330
66F7
100
AcDbEntity
  8
Defpoints
 62
     0
100
AcDbPoint
 10
727.2858929844009
 20
133.8123506143712
 30
0.0
  0
POINT
  5
6702
330
66F7
100
AcDbEntity
  8
Defpoints
 62
     0
100
AcDbPoint
 10
744.7086029672581
 20
133.8123506143712
 30
0.0
  0
ENDBLK
  5
66F9
330
66F7
100
AcDbEntity
  8
0
100
AcDbBlockEnd
  0
BLOCK
  5
6707
330
6706
100
AcDbEntity
  8
0
100
AcDbBlockBegin
  2
*D30
 70
     1
 10
0.0
 20
0.0
 30
0.0
  3
*D30
  1

  0
LINE
  5
6709
330
6706
100
AcDbEntity
  8
寸法
 62
     0
370
    -2
100
AcDbLine
 10
208.572525638204
 20
157.6967689540388
 30
0.0
 11
224.4796236805557
 21
157.6967689540388
 31
0.0
  0
LINE
  5
670A
330
6706
100
AcDbEntity
  8
寸法
 62
     0
370
    -2
100
AcDbLine
 10
184.684267099935
 20
141.6437347983089
 30
0.0
 11
224.4796236805557
 21
141.6437347983089
 31
0.0
  0
LINE
  5
670B
330
6706
100
AcDbEntity
  8
寸法
 62
     0
370
    -2
100
AcDbLine
 10
224.4796236805557
 20
155.6967689540388
 30
0.0
 11
224.4796236805557
 21
143.6437347983089
 31
0.0
  0
INSERT
  5
670C
330
6706
100
AcDbEntity
  8
寸法
 62
     0
370
    -2
100
AcDbBlockReference
  2
_DOT
 10
224.4796236805557
 20
157.6967689540388
 30
0.0
 41
2.0
 42
2.0
 43
2.0
 50
90.0
  0
INSERT
  5
670D
330
6706
100
AcDbEntity
  8
寸法
 62
     0
370
    -2
100
AcDbBlockReference
  2
_DOT
 10
224.4796236805557
 20
141.6437347983089
 30
0.0
 41
2.0
 42
2.0
 43
2.0
 50
270.0
  0
MTEXT
  5
670E
330
6706
100
AcDbEntity
  8
寸法
 62
     0
100
AcDbMText
 10
219.9796236805557
 20
149.6702518761738
 30
0.0
 40
5.0
 41
0.0
 46
0.0
 71
     5
 72
     1
  1
\A1;16
  7
ＭＳ ゴシック
 11
0.0
 21
1.0
 31
0.0
 73
     1
 44
1.0
  0
POINT
  5
670F
330
6706
100
AcDbEntity
  8
Defpoints
 62
     0
100
AcDbPoint
 10
203.572525638204
 20
157.6967689540388
 30
0.0
  0
POINT
  5
6710
330
6706
100
AcDbEntity
  8
Defpoints
 62
     0
100
AcDbPoint
 10
179.684267099935
 20
141.6437347983089
 30
0.0
  0
POINT
  5
6711
330
6706
100
AcDbEntity
  8
Defpoints
 62
     0
100
AcDbPoint
 10
224.4796236805557
 20
141.6437347983089
 30
0.0
  0
ENDBLK
  5
6708
330
6706
100
AcDbEntity
  8
0
100
AcDbBlockEnd
  0
BLOCK
  5
6719
330
6718
100
AcDbEntity
  8
0
100
AcDbBlockBegin
  2
*D31
 70
     1
 10
0.0
 20
0.0
 30
0.0
  3
*D31
  1

  0
LINE
  5
671B
330
6718
100
AcDbEntity
  8
寸法
 62
     0
370
    -2
100
AcDbLine
 10
208.572525638204
 20
157.6967689540388
 30
0.0
 11
224.4796236805557
 21
157.6967689540388
 31
0.0
  0
LINE
  5
671C
330
6718
100
AcDbEntity
  8
寸法
 62
     0
370
    -2
100
AcDbLine
 10
208.572525638204
 20
182.7317468474868
 30
0.0
 11
224.4796236805557
 21
182.7317468474868
 31
0.0
  0
LINE
  5
671D
330
6718
100
AcDbEntity
  8
寸法
 62
     0
370
    -2
100
AcDbLine
 10
224.4796236805557
 20
159.6967689540388
 30
0.0
 11
224.4796236805557
 21
180.7317468474868
 31
0.0
  0
INSERT
  5
671E
330
6718
100
AcDbEntity
  8
寸法
 62
     0
370
    -2
100
AcDbBlockReference
  2
_DOT
 10
224.4796236805557
 20
157.6967689540388
 30
0.0
 41
2.0
 42
2.0
 43
2.0
 50
270.0
  0
INSERT
  5
671F
330
6718
100
AcDbEntity
  8
寸法
 62
     0
370
    -2
100
AcDbBlockReference
  2
_DOT
 10
224.4796236805557
 20
182.7317468474868
 30
0.0
 41
2.0
 42
2.0
 43
2.0
 50
90.0
  0
MTEXT
  5
6720
330
6718
100
AcDbEntity
  8
寸法
 62
     0
100
AcDbMText
 10
219.9796236805557
 20
170.2142579007628
 30
0.0
 40
5.0
 41
0.0
 46
0.0
 71
     5
 72
     1
  1
\A1;25
  7
ＭＳ ゴシック
 11
0.0
 21
1.0
 31
0.0
 73
     1
 44
1.0
  0
POINT
  5
6721
330
6718
100
AcDbEntity
  8
Defpoints
 62
     0
100
AcDbPoint
 10
203.572525638204
 20
157.6967689540388
 30
0.0
  0
POINT
  5
6722
330
6718
100
AcDbEntity
  8
Defpoints
 62
     0
100
AcDbPoint
 10
203.572525638204
 20
182.7317468474868
 30
0.0
  0
POINT
  5
6723
330
6718
100
AcDbEntity
  8
Defpoints
 62
     0
100
AcDbPoint
 10
224.4796236805557
 20
182.7317468474868
 30
0.0
  0
ENDBLK
  5
671A
330
6718
100
AcDbEntity
  8
0
100
AcDbBlockEnd
  0
BLOCK
  5
674A
330
6749
100
AcDbEntity
  8
0
100
AcDbBlockBegin
  2
*D32
 70
     1
 10
0.0
 20
0.0
 30
0.0
  3
*D32
  1

  0
LINE
  5
674C
330
6749
100
AcDbEntity
  8
寸法
 62
     0
370
    -2
100
AcDbLine
 10
423.5698772729179
 20
166.696619175914
 30
0.0
 11
423.5698772729179
 21
133.9087115942216
 31
0.0
  0
LINE
  5
674D
330
6749
100
AcDbEntity
  8
寸法
 62
     0
370
    -2
100
AcDbLine
 10
385.5698772729179
 20
166.696619175914
 30
0.0
 11
385.5698772729179
 21
133.9087115942216
 31
0.0
  0
LINE
  5
674E
330
6749
100
AcDbEntity
  8
寸法
 62
     0
370
    -2
100
AcDbLine
 10
423.5698772729179
 20
133.9087115942216
 30
0.0
 11
371.5798772729179
 21
133.9087115942216
 31
0.0
  0
LINE
  5
674F
330
6749
100
AcDbEntity
  8
寸法
 62
     0
370
    -2
100
AcDbLine
 10
421.5698772729179
 20
133.9087115942216
 30
0.0
 11
387.5698772729179
 21
133.9087115942216
 31
0.0
  0
LINE
  5
6750
330
6749
100
AcDbEntity
  8
寸法
 62
     0
370
    -2
100
AcDbLine
 10
387.5698772729179
 20
133.9087115942216
 30
0.0
 11
389.5698772729179
 21
133.9087115942216
 31
0.0
  0
INSERT
  5
6751
330
6749
100
AcDbEntity
  8
寸法
 62
     0
370
    -2
100
AcDbBlockReference
  2
_DOT
 10
423.5698772729179
 20
133.9087115942216
 30
0.0
 41
2.0
 42
2.0
 43
2.0
  0
INSERT
  5
6752
330
6749
100
AcDbEntity
  8
寸法
 62
     0
370
    -2
100
AcDbBlockReference
  2
_DOT
 10
385.5698772729179
 20
133.9087115942216
 30
0.0
 41
2.0
 42
2.0
 43
2.0
 50
180.0
  0
MTEXT
  5
6753
330
6749
100
AcDbEntity
  8
寸法
 62
     0
100
AcDbMText
 10
376.5748772729179
 20
138.4337115942216
 30
0.0
 40
5.0
 41
0.0
 46
0.0
 71
     5
 72
     1
  1
\A1;ø8
  7
ＭＳ ゴシック
 73
     1
 44
1.0
  0
POINT
  5
6754
330
6749
100
AcDbEntity
  8
Defpoints
 62
     0
100
AcDbPoint
 10
423.5698772729179
 20
166.696619175914
 30
0.0
  0
POINT
  5
6755
330
6749
100
AcDbEntity
  8
Defpoints
 62
     0
100
AcDbPoint
 10
385.5698772729179
 20
166.696619175914
 30
0.0
  0
POINT
  5
6756
330
6749
100
AcDbEntity
  8
Defpoints
 62
     0
100
AcDbPoint
 10
385.5698772729179
 20
133.9087115942216
 30
0.0
  0
ENDBLK
  5
674B
330
6749
100
AcDbEntity
  8
0
100
AcDbBlockEnd
  0
BLOCK
  5
6758
330
6757
100
AcDbEntity
  8
0
100
AcDbBlockBegin
  2
*D33
 70
     1
 10
0.0
 20
0.0
 30
0.0
  3
*D33
  1

  0
LINE
  5
675A
330
6757
100
AcDbEntity
  8
寸法
 62
     0
370
    -2
100
AcDbLine
 10
385.6409472145989
 20
187.8733691217192
 30
0.0
 11
385.6409472145989
 21
203.153744514829
 31
0.0
  0
LINE
  5
675B
330
6757
100
AcDbEntity
  8
寸法
 62
     0
370
    -2
100
AcDbLine
 10
404.5698772729179
 20
196.2102351618937
 30
0.0
 11
404.5698772729179
 21
203.153744514829
 31
0.0
  0
LINE
  5
675C
330
6757
100
AcDbEntity
  8
寸法
 62
     0
370
    -2
100
AcDbLine
 10
387.6409472145989
 20
203.153744514829
 30
0.0
 11
402.5698772729179
 21
203.153744514829
 31
0.0
  0
INSERT
  5
675D
330
6757
100
AcDbEntity
  8
寸法
 62
     0
370
    -2
100
AcDbBlockReference
  2
_DOT
 10
385.6409472145989
 20
203.153744514829
 30
0.0
 41
2.0
 42
2.0
 43
2.0
 50
180.0
  0
INSERT
  5
675E
330
6757
100
AcDbEntity
  8
寸法
 62
     0
370
    -2
100
AcDbBlockReference
  2
_DOT
 10
404.5698772729179
 20
203.153744514829
 30
0.0
 41
2.0
 42
2.0
 43
2.0
  0
MTEXT
  5
675F
330
6757
100
AcDbEntity
  8
寸法
 62
     0
100
AcDbMText
 10
395.1054122437584
 20
207.653744514829
 30
0.0
 40
5.0
 41
0.0
 46
0.0
 71
     5
 72
     1
  1
\A1;19
  7
ＭＳ ゴシック
 73
     1
 44
1.0
  0
POINT
  5
6760
330
6757
100
AcDbEntity
  8
Defpoints
 62
     0
100
AcDbPoint
 10
385.6409472145989
 20
182.8733691217192
 30
0.0
  0
POINT
  5
6761
330
6757
100
AcDbEntity
  8
Defpoints
 62
     0
100
AcDbPoint
 10
404.5698772729179
 20
191.2102351618937
 30
0.0
  0
POINT
  5
6762
330
6757
100
AcDbEntity
  8
Defpoints
 62
     0
100
AcDbPoint
 10
404.5698772729179
 20
203.153744514829
 30
0.0
  0
ENDBLK
  5
6759
330
6757
100
AcDbEntity
  8
0
100
AcDbBlockEnd
  0
BLOCK
  5
6764
330
6763
100
AcDbEntity
  8
0
100
AcDbBlockBegin
  2
*D34
 70
     1
 10
0.0
 20
0.0
 30
0.0
  3
*D34
  1

  0
LINE
  5
6766
330
6763
100
AcDbEntity
  8
寸法
 62
     0
370
    -2
100
AcDbLine
 10
404.5698772729179
 20
196.2102351618937
 30
0.0
 11
404.5698772729179
 21
203.153744514829
 31
0.0
  0
LINE
  5
6767
330
6763
100
AcDbEntity
  8
寸法
 62
     0
370
    -2
100
AcDbLine
 10
423.6409472145989
 20
187.8733691217192
 30
0.0
 11
423.6409472145989
 21
203.153744514829
 31
0.0
  0
LINE
  5
6768
330
6763
100
AcDbEntity
  8
寸法
 62
     0
370
    -2
100
AcDbLine
 10
406.5698772729179
 20
203.153744514829
 30
0.0
 11
421.6409472145989
 21
203.153744514829
 31
0.0
  0
INSERT
  5
6769
330
6763
100
AcDbEntity
  8
寸法
 62
     0
370
    -2
100
AcDbBlockReference
  2
_DOT
 10
404.5698772729179
 20
203.153744514829
 30
0.0
 41
2.0
 42
2.0
 43
2.0
 50
180.0
  0
INSERT
  5
676A
330
6763
100
AcDbEntity
  8
寸法
 62
     0
370
    -2
100
AcDbBlockReference
  2
_DOT
 10
423.6409472145989
 20
203.153744514829
 30
0.0
 41
2.0
 42
2.0
 43
2.0
  0
MTEXT
  5
676B
330
6763
100
AcDbEntity
  8
寸法
 62
     0
100
AcDbMText
 10
414.1054122437584
 20
207.653744514829
 30
0.0
 40
5.0
 41
0.0
 46
0.0
 71
     5
 72
     1
  1
\A1;19
  7
ＭＳ ゴシック
 73
     1
 44
1.0
  0
POINT
  5
676C
330
6763
100
AcDbEntity
  8
Defpoints
 62
     0
100
AcDbPoint
 10
404.5698772729179
 20
191.2102351618937
 30
0.0
  0
POINT
  5
676D
330
6763
100
AcDbEntity
  8
Defpoints
 62
     0
100
AcDbPoint
 10
423.6409472145989
 20
182.8733691217192
 30
0.0
  0
POINT
  5
676E
330
6763
100
AcDbEntity
  8
Defpoints
 62
     0
100
AcDbPoint
 10
423.6409472145989
 20
203.153744514829
 30
0.0
  0
ENDBLK
  5
6765
330
6763
100
AcDbEntity
  8
0
100
AcDbBlockEnd
  0
BLOCK
  5
6777
330
6776
100
AcDbEntity
  8
0
100
AcDbBlockBegin
  2
*D35
 70
     1
 10
0.0
 20
0.0
 30
0.0
  3
*D35
  1

  0
LINE
  5
6779
330
6776
100
AcDbEntity
  8
寸法
 62
     0
370
    -2
100
AcDbLine
 10
419.6034988279383
 20
366.0989642176509
 30
0.0
 11
453.3276480621792
 21
366.0989642176509
 31
0.0
  0
LINE
  5
677A
330
6776
100
AcDbEntity
  8
寸法
 62
     0
370
    -2
100
AcDbLine
 10
419.6034988279383
 20
267.5989642176509
 30
0.0
 11
453.3276480621792
 21
267.5989642176509
 31
0.0
  0
LINE
  5
677B
330
6776
100
AcDbEntity
  8
寸法
 62
     0
370
    -2
100
AcDbLine
 10
453.3276480621792
 20
364.0989642176509
 30
0.0
 11
453.3276480621792
 21
269.5989642176509
 31
0.0
  0
INSERT
  5
677C
330
6776
100
AcDbEntity
  8
寸法
 62
     0
370
    -2
100
AcDbBlockReference
  2
_DOT
 10
453.3276480621792
 20
366.0989642176509
 30
0.0
 41
2.0
 42
2.0
 43
2.0
 50
90.0
  0
INSERT
  5
677D
330
6776
100
AcDbEntity
  8
寸法
 62
     0
370
    -2
100
AcDbBlockReference
  2
_DOT
 10
453.3276480621792
 20
267.5989642176509
 30
0.0
 41
2.0
 42
2.0
 43
2.0
 50
270.0
  0
MTEXT
  5
677E
330
6776
100
AcDbEntity
  8
寸法
 62
     0
100
AcDbMText
 10
448.8276480621792
 20
316.8489642176509
 30
0.0
 40
5.0
 41
0.0
 46
0.0
 71
     5
 72
     1
  1
\A1;98
  7
ＭＳ ゴシック
 11
0.0
 21
1.0
 31
0.0
 73
     1
 44
1.0
  0
POINT
  5
677F
330
6776
100
AcDbEntity
  8
Defpoints
 62
     0
100
AcDbPoint
 10
414.6034988279383
 20
366.0989642176509
 30
0.0
  0
POINT
  5
6780
330
6776
100
AcDbEntity
  8
Defpoints
 62
     0
100
AcDbPoint
 10
414.6034988279383
 20
267.5989642176509
 30
0.0
  0
POINT
  5
6781
330
6776
100
AcDbEntity
  8
Defpoints
 62
     0
100
AcDbPoint
 10
453.3276480621792
 20
267.5989642176509
 30
0.0
  0
ENDBLK
  5
6778
330
6776
100
AcDbEntity
  8
0
100
AcDbBlockEnd
  0
BLOCK
  5
678C
330
678B
100
AcDbEntity
  8
0
100
AcDbBlockBegin
  2
*D36
 70
     1
 10
0.0
 20
0.0
 30
0.0
  3
*D36
  1

  0
LINE
  5
678E
330
678B
100
AcDbEntity
  8
寸法
 62
     0
370
    -2
100
AcDbLine
 10
697.5232298684368
 20
336.1500444799127
 30
0.0
 11
697.5232298684368
 21
435.0952184694752
 31
0.0
  0
LINE
  5
678F
330
678B
100
AcDbEntity
  8
寸法
 62
     0
370
    -2
100
AcDbLine
 10
921.5232298684368
 20
336.1500444799127
 30
0.0
 11
921.5232298684368
 21
435.0952184694752
 31
0.0
  0
LINE
  5
6790
330
678B
100
AcDbEntity
  8
寸法
 62
     0
370
    -2
100
AcDbLine
 10
699.5232298684368
 20
435.0952184694752
 30
0.0
 11
919.5232298684368
 21
435.0952184694752
 31
0.0
  0
INSERT
  5
6791
330
678B
100
AcDbEntity
  8
寸法
 62
     0
370
    -2
100
AcDbBlockReference
  2
_DOT
 10
697.5232298684368
 20
435.0952184694752
 30
0.0
 41
2.0
 42
2.0
 43
2.0
 50
180.0
  0
INSERT
  5
6792
330
678B
100
AcDbEntity
  8
寸法
 62
     0
370
    -2
100
AcDbBlockReference
  2
_DOT
 10
921.5232298684368
 20
435.0952184694752
 30
0.0
 41
2.0
 42
2.0
 43
2.0
  0
MTEXT
  5
6793
330
678B
100
AcDbEntity
  8
寸法
 62
     0
100
AcDbMText
 10
809.5232298684368
 20
439.5952184694752
 30
0.0
 40
5.0
 41
0.0
 46
0.0
 71
     5
 72
     1
  1
\A1;224
  7
ＭＳ ゴシック
 73
     1
 44
1.0
  0
POINT
  5
6794
330
678B
100
AcDbEntity
  8
Defpoints
 62
     0
100
AcDbPoint
 10
697.5232298684368
 20
331.1500444799127
 30
0.0
  0
POINT
  5
6795
330
678B
100
AcDbEntity
  8
Defpoints
 62
     0
100
AcDbPoint
 10
921.5232298684368
 20
331.1500444799127
 30
0.0
  0
POINT
  5
6796
330
678B
100
AcDbEntity
  8
Defpoints
 62
     0
100
AcDbPoint
 10
921.5232298684368
 20
435.0952184694752
 30
0.0
  0
ENDBLK
  5
678D
330
678B
100
AcDbEntity
  8
0
100
AcDbBlockEnd
  0
ENDSEC
  0
SECTION
  2
ENTITIES
  0
LINE
  5
5FAC
330
A
100
AcDbEntity
  8
PRINT BORDER
100
AcDbLine
 10
296.9999999999999
 20
0.0
 30
0.0
 11
296.9999999999999
 21
15.30952622855898
 31
0.0
  0
LINE
  5
5FAD
330
A
100
AcDbEntity
  8
テンプレート
100
AcDbLine
 10
437.9999999999999
 20
38.27810890422097
 30
0.0
 11
15.30952622855898
 21
38.27810890422097
 31
0.0
  0
LINE
  5
5FAE
330
A
100
AcDbEntity
  8
テンプレート
100
AcDbLine
 10
15.30952622855898
 20
26.22153683920783
 30
0.0
 11
578.6904737714407
 21
26.22153683920783
 31
0.0
  0
TEXT
  5
5FAF
330
A
100
AcDbEntity
  8
テンプレート
100
AcDbText
 10
18.06121699514119
 20
32.16825981613692
 30
0.0
 40
3.5
  1
材質
  7
ＭＳ ゴシック
100
AcDbText
  0
TEXT
  5
5FB0
330
A
100
AcDbEntity
  8
テンプレート
100
AcDbText
 10
36.7528253083583
 20
41.29280421576505
 30
0.0
 40
5.5
  1
サテン・ブラック
  7
ＭＳ ゴシック
100
AcDbText
  0
TEXT
  5
5FB1
330
A
100
AcDbEntity
  8
テンプレート
100
AcDbText
 10
36.7528253083583
 20
29.19151340726899
 30
0.0
 40
5.5
  1
ステンレス
  7
ＭＳ ゴシック
100
AcDbText
  0
TEXT
  5
5FB2
330
A
100
AcDbEntity
  8
テンプレート
100
AcDbText
 10
18.06121699514119
 20
56.50959028673083
 30
0.0
 40
3.5
  1
品名
  7
ＭＳ ゴシック
100
AcDbText
  0
TEXT
  5
5FB3
330
A
100
AcDbEntity
  8
テンプレート
100
AcDbText
 10
18.06121699514119
 20
44.65099339080098
 30
0.0
 40
3.5
  1
仕上げ
  7
ＭＳ ゴシック
100
AcDbText
  0
TEXT
  5
5FB4
330
A
100
AcDbEntity
  8
テンプレート
100
AcDbText
 10
298.8233485179306
 20
56.58523052309897
 30
0.0
 40
3.5
  1
品番
  7
ＭＳ ゴシック
100
AcDbText
  0
TEXT
  5
5FB5
330
A
100
AcDbEntity
  8
テンプレート
100
AcDbText
 10
36.7528253083583
 20
53.09440584367189
 30
0.0
 40
5.5
  1
レバーハンドル - FORMANI,Tense -
  7
ＭＳ ゴシック
100
AcDbText
  0
TEXT
  5
5FB6
330
A
100
AcDbEntity
  8
テンプレート
100
AcDbText
 10
313.0171205424464
 20
52.977080524553
 30
0.0
 40
5.5
  1
FOR10-TE105
  7
ＭＳ ゴシック
100
AcDbText
  0
LINE
  5
5FB7
330
A
100
AcDbEntity
  8
テンプレート
100
AcDbLine
 10
437.9999999999999
 20
50.16496477419605
 30
0.0
 11
15.30952622855898
 21
50.16496477419605
 31
0.0
  0
LINE
  5
5FB8
330
A
100
AcDbEntity
  8
テンプレート
100
AcDbLine
 10
578.6904737714411
 20
62.22153683920783
 30
0.0
 11
15.30952622855898
 21
62.22153683920783
 31
0.0
  0
LINE
  5
5FB9
330
A
100
AcDbEntity
  8
PRINT BORDER
100
AcDbLine
 10
593.9999999999999
 20
210.0
 30
0.0
 11
578.6904737714411
 21
210.0
 31
0.0
  0
LINE
  5
5FBA
330
A
100
AcDbEntity
  8
PRINT BORDER
100
AcDbLine
 10
0.0
 20
210.0
 30
0.0
 11
15.30952622855898
 21
210.0
 31
0.0
  0
LINE
  5
5FBB
330
A
100
AcDbEntity
  8
PRINT BORDER
100
AcDbLine
 10
296.9999999999999
 20
420.0
 30
0.0
 11
296.9999999999999
 21
404.690473771441
 31
0.0
  0
LINE
  5
5FBC
330
A
100
AcDbEntity
  8
テンプレート
100
AcDbLine
 10
578.6904737714411
 20
62.22153683920783
 30
0.0
 11
578.6904737714411
 21
26.22153683920783
 31
0.0
  0
LINE
  5
5FBD
330
A
100
AcDbEntity
  8
テンプレート
100
AcDbLine
 10
15.30952622855898
 20
62.22153683920783
 30
0.0
 11
15.30952622855898
 21
26.22153683920783
 31
0.0
  0
TEXT
  5
5FBE
330
A
100
AcDbEntity
  8
テンプレート
100
AcDbText
 10
494.9733384955217
 20
16.51938390313694
 30
0.0
 40
5.5
  1
大洋金物株式会社  
  7
ＭＳ ゴシック
100
AcDbText
  0
LINE
  5
5FBF
330
A
100
AcDbEntity
  8
テンプレート
100
AcDbLine
 10
437.9999999999999
 20
62.22153683920783
 30
0.0
 11
437.9999999999999
 21
26.22153683920783
 31
0.0
  0
LINE
  5
5FC0
330
A
100
AcDbEntity
  8
テンプレート
100
AcDbLine
 10
296.9999999999999
 20
62.22153683920783
 30
0.0
 11
296.9999999999999
 21
26.22153683920783
 31
0.0
  0
INSERT
  5
5FC1
330
A
100
AcDbEntity
  8
テンプレート
100
AcDbBlockReference
  2
名称未設定-1
 10
548.3945198859805
 20
-7.642344203993161
 30
0.0
 41
0.180975
 42
0.180975
 43
0.180975
  0
LINE
  5
5FC2
330
A
100
AcDbEntity
  8
テンプレート
100
AcDbLine
 10
15.30952622855898
 20
210.0
 30
0.0
 11
15.30952622855898
 21
26.22153683920783
 31
0.0
  0
LINE
  5
5FC3
330
A
100
AcDbEntity
  8
テンプレート
100
AcDbLine
 10
15.30952622855898
 20
210.0
 30
0.0
 11
15.30952622855898
 21
404.690473771441
 31
0.0
  0
LINE
  5
5FC4
330
A
100
AcDbEntity
  8
テンプレート
100
AcDbLine
 10
296.9999999999999
 20
404.690473771441
 30
0.0
 11
15.30952622855887
 21
404.690473771441
 31
0.0
  0
LINE
  5
5FC5
330
A
100
AcDbEntity
  8
テンプレート
100
AcDbLine
 10
296.9999999999999
 20
404.690473771441
 30
0.0
 11
578.6904737714411
 21
404.690473771441
 31
0.0
  0
LINE
  5
5FC6
330
A
100
AcDbEntity
  8
テンプレート
100
AcDbLine
 10
578.6904737714411
 20
210.0
 30
0.0
 11
578.6904737714411
 21
404.690473771441
 31
0.0
  0
LINE
  5
5FC7
330
A
100
AcDbEntity
  8
テンプレート
100
AcDbLine
 10
578.6904737714411
 20
210.0
 30
0.0
 11
578.6904737714411
 21
26.22153683920783
 31
0.0
  0
LWPOLYLINE
  5
5FC8
330
A
100
AcDbEntity
  8
PRINT BORDER
  6
HIDDEN
 48
3.0
100
AcDbPolyline
 90
        4
 70
     1
 43
0.0
 10
0.0
 20
0.0
 10
0.0
 20
420.0
 10
593.9999999999999
 20
420.0
 10
593.9999999999999
 20
0.0
  0
TEXT
  5
5FC9
330
A
100
AcDbEntity
  8
テンプレート
100
AcDbText
 10
298.7989156222221
 20
32.62405342819488
 30
0.0
 40
3.5
  1
縮尺
  7
ＭＳ ゴシック
100
AcDbText
  0
TEXT
  5
5FCA
330
A
100
AcDbEntity
  8
テンプレート
100
AcDbText
 10
313.0171205424464
 20
28.29362070227194
 30
0.0
 40
5.5
  1
1/2
  7
ＭＳ ゴシック
100
AcDbText
  0
TEXT
  5
5FCB
330
A
100
AcDbEntity
  8
テンプレート
100
AcDbText
 10
298.8233485179306
 20
44.52865845808583
 30
0.0
 40
3.5
  1
扉厚
  7
ＭＳ ゴシック
100
AcDbText
  0
TEXT
  5
5FCC
330
A
100
AcDbEntity
  8
テンプレート
100
AcDbText
 10
312.6659855651466
 20
40.77988311377626
 30
0.0
 40
5.5
  1
MIWAケース：37～57(空錠専用)
  7
ＭＳ ゴシック
100
AcDbText
  0
TEXT
  5
5FCD
330
A
100
AcDbEntity
  8
テンプレート
100
AcDbText
 10
440.0887524673468
 20
56.58523052309897
 30
0.0
 40
3.5
  1
備考
  7
ＭＳ ゴシック
100
AcDbText
  0
MTEXT
  5
5FCF
102
{ACAD_XDICTIONARY
360
5FD0
102
}
330
A
100
AcDbEntity
  8
テンプレート
100
AcDbMText
 10
15.78567077270532
 20
24.01367737959617
 30
0.0
 40
4.0
 41
0.0
 46
4.0
 71
     1
 72
     1
  1
{20171012N}
  7
ＭＳ ゴシック
 73
     1
 44
1.0
1001
ACAD
1000
ACAD_MTEXT_DEFINED_HEIGHT_BEGIN
1070
    46
1040
4.0
1000
ACAD_MTEXT_DEFINED_HEIGHT_END
  0
TEXT
  5
5FD6
330
A
100
AcDbEntity
  8
テンプレート
100
AcDbText
 10
19.21652278733427
 20
112.8478965530131
 30
0.0
 40
5.0
  1
　 加工は現物合わせの上行って下さい。
  7
ＭＳ ゴシック
100
AcDbText
  0
TEXT
  5
5FD7
330
A
100
AcDbEntity
  8
テンプレート
100
AcDbText
 10
19.38876586954291
 20
120.9516806491529
 30
0.0
 40
5.0
  1
※ 輸入製品の為、国内製品と比べ製品寸法の個体差に幅が有ります。
  7
ＭＳ ゴシック
100
AcDbText
  0
TEXT
  5
5FD8
330
A
100
AcDbEntity
  8
テンプレート
100
AcDbText
 10
19.21652278733427
 20
103.476265248532
 30
0.0
 40
5.0
  1
※ ご注文の際は正確な扉厚の指示をしてください。
  7
ＭＳ ゴシック
100
AcDbText
  0
TEXT
  5
5FD9
330
A
100
AcDbEntity
  8
テンプレート
100
AcDbText
 10
452.3171199999998
 20
48.22211999999995
 30
0.0
 40
5.0
  1
取付方＝呼込み(ビス・ナット付)
  7
ＭＳ ゴシック
100
AcDbText
  0
HATCH
  5
6345
330
A
100
AcDbEntity
  8
レイヤー 1
 62
     7
420
 16777215
100
AcDbHatch
 10
0.0
 20
0.0
 30
0.0
210
0.0
220
0.0
230
1.0
  2
SOLID
 70
     1
 71
     0
 91
        1
 92
        1
 93
        1
 72
     4
 94
        3
 73
     0
 74
     1
 95
       14
 96
       10
 40
0.0
 40
0.0
 40
0.0
 40
0.0
 40
1.0
 40
1.0
 40
1.0
 40
2.0
 40
2.0
 40
2.0
 40
3.0
 40
3.0
 40
3.0
 40
3.0
 10
1061.179280977471
 20
83.97433684593028
 10
1061.179280977471
 20
83.97433684593028
 10
1061.179280977471
 20
83.97433684593028
 10
1061.179280977471
 20
83.97433684593028
 10
1061.179280977471
 20
83.97433684593028
 10
1061.179280977471
 20
89.55441497093028
 10
1061.179280977471
 20
89.55441497093028
 10
1061.179280977471
 20
89.55441497093028
 10
1061.179280977471
 20
83.97433684593028
 10
1061.179280977471
 20
83.97433684593028
 97
        0
 75
     2
 76
     1
 98
        0
  0
HATCH
  5
6348
330
A
100
AcDbEntity
  8
レイヤー 1
 62
     7
420
 16777215
100
AcDbHatch
 10
0.0
 20
0.0
 30
0.0
210
0.0
220
0.0
230
1.0
  2
SOLID
 70
     1
 71
     0
 91
        1
 92
        1
 93
        1
 72
     4
 94
        3
 73
     0
 74
     1
 95
       11
 96
        7
 40
0.0
 40
0.0
 40
0.0
 40
0.0
 40
1.0
 40
1.0
 40
1.0
 40
2.0
 40
2.0
 40
2.0
 40
2.0
 10
1061.179280977471
 20
83.97433684593028
 10
1061.179280977471
 20
83.97433684593028
 10
1061.899007539971
 20
89.55441497093028
 10
1061.899007539971
 20
89.55441497093028
 10
1061.899007539971
 20
89.55441497093028
 10
1061.179280977471
 20
83.97433684593028
 10
1061.179280977471
 20
83.97433684593028
 97
        0
 75
     2
 76
     1
 98
        0
  0
HATCH
  5
634B
330
A
100
AcDbEntity
  8
レイヤー 1
 62
     7
420
 16777215
100
AcDbHatch
 10
0.0
 20
0.0
 30
0.0
210
0.0
220
0.0
230
1.0
  2
SOLID
 70
     1
 71
     0
 91
        1
 92
        1
 93
        1
 72
     4
 94
        3
 73
     0
 74
     1
 95
       11
 96
        7
 40
0.0
 40
0.0
 40
0.0
 40
0.0
 40
1.0
 40
1.0
 40
1.0
 40
2.0
 40
2.0
 40
2.0
 40
2.0
 10
1061.179280977471
 20
83.97433684593028
 10
1061.179280977471
 20
83.97433684593028
 10
1061.899007539971
 20
83.97433684593028
 10
1061.899007539971
 20
83.97433684593028
 10
1061.899007539971
 20
83.97433684593028
 10
1061.179280977471
 20
83.97433684593028
 10
1061.179280977471
 20
83.97433684593028
 97
        0
 75
     2
 76
     1
 98
        0
  0
HATCH
  5
634F
330
A
100
AcDbEntity
  8
レイヤー 1
 62
     7
420
 16777215
100
AcDbHatch
 10
0.0
 20
0.0
 30
0.0
210
0.0
220
0.0
230
1.0
  2
SOLID
 70
     1
 71
     0
 91
        1
 92
        1
 93
        1
 72
     4
 94
        3
 73
     0
 74
     1
 95
       14
 96
       10
 40
0.0
 40
0.0
 40
0.0
 40
0.0
 40
1.0
 40
1.0
 40
1.0
 40
2.0
 40
2.0
 40
2.0
 40
3.0
 40
3.0
 40
3.0
 40
3.0
 10
1167.559163789971
 20
89.55441497093028
 10
1167.559163789971
 20
89.55441497093028
 10
1167.559163789971
 20
89.55441497093028
 10
1167.559163789971
 20
89.55441497093028
 10
1167.559163789971
 20
89.55441497093028
 10
1167.559163789971
 20
83.97433684593028
 10
1167.559163789971
 20
83.97433684593028
 10
1167.559163789971
 20
83.97433684593028
 10
1167.559163789971
 20
89.55441497093028
 10
1167.559163789971
 20
89.55441497093028
 97
        0
 75
     2
 76
     1
 98
        0
  0
HATCH
  5
6352
330
A
100
AcDbEntity
  8
レイヤー 1
 62
     7
420
 16777215
100
AcDbHatch
 10
0.0
 20
0.0
 30
0.0
210
0.0
220
0.0
230
1.0
  2
SOLID
 70
     1
 71
     0
 91
        1
 92
        1
 93
        1
 72
     4
 94
        3
 73
     0
 74
     1
 95
       11
 96
        7
 40
0.0
 40
0.0
 40
0.0
 40
0.0
 40
1.0
 40
1.0
 40
1.0
 40
2.0
 40
2.0
 40
2.0
 40
2.0
 10
1167.559163789971
 20
89.55441497093028
 10
1167.559163789971
 20
89.55441497093028
 10
1166.839437227471
 20
83.97433684593028
 10
1166.839437227471
 20
83.97433684593028
 10
1166.839437227471
 20
83.97433684593028
 10
1167.559163789971
 20
89.55441497093028
 10
1167.559163789971
 20
89.55441497093028
 97
        0
 75
     2
 76
     1
 98
        0
  0
HATCH
  5
6355
330
A
100
AcDbEntity
  8
レイヤー 1
 62
     7
420
 16777215
100
AcDbHatch
 10
0.0
 20
0.0
 30
0.0
210
0.0
220
0.0
230
1.0
  2
SOLID
 70
     1
 71
     0
 91
        1
 92
        1
 93
        1
 72
     4
 94
        3
 73
     0
 74
     1
 95
       11
 96
        7
 40
0.0
 40
0.0
 40
0.0
 40
0.0
 40
1.0
 40
1.0
 40
1.0
 40
2.0
 40
2.0
 40
2.0
 40
2.0
 10
1167.559163789971
 20
89.55441497093028
 10
1167.559163789971
 20
89.55441497093028
 10
1166.839437227471
 20
89.55441497093028
 10
1166.839437227471
 20
89.55441497093028
 10
1166.839437227471
 20
89.55441497093028
 10
1167.559163789971
 20
89.55441497093028
 10
1167.559163789971
 20
89.55441497093028
 97
        0
 75
     2
 76
     1
 98
        0
  0
HATCH
  5
6359
330
A
100
AcDbEntity
  8
レイヤー 1
 62
     7
420
 16777215
100
AcDbHatch
 10
0.0
 20
0.0
 30
0.0
210
0.0
220
0.0
230
1.0
  2
SOLID
 70
     1
 71
     0
 91
        1
 92
        1
 93
        1
 72
     4
 94
        3
 73
     0
 74
     1
 95
       14
 96
       10
 40
0.0
 40
0.0
 40
0.0
 40
0.0
 40
1.0
 40
1.0
 40
1.0
 40
2.0
 40
2.0
 40
2.0
 40
3.0
 40
3.0
 40
3.0
 40
3.0
 10
962.7193200399709
 20
677.9748251271803
 10
962.7193200399709
 20
677.9748251271803
 10
962.7193200399709
 20
677.9748251271803
 10
962.7193200399709
 20
677.9748251271803
 10
962.7193200399709
 20
677.9748251271803
 10
968.2993981649709
 20
677.9748251271803
 10
968.2993981649709
 20
677.9748251271803
 10
968.2993981649709
 20
677.9748251271803
 10
962.7193200399709
 20
677.9748251271803
 10
962.7193200399709
 20
677.9748251271803
 97
        0
 75
     2
 76
     1
 98
        0
  0
HATCH
  5
635C
330
A
100
AcDbEntity
  8
レイヤー 1
 62
     7
420
 16777215
100
AcDbHatch
 10
0.0
 20
0.0
 30
0.0
210
0.0
220
0.0
230
1.0
  2
SOLID
 70
     1
 71
     0
 91
        1
 92
        1
 93
        1
 72
     4
 94
        3
 73
     0
 74
     1
 95
       11
 96
        7
 40
0.0
 40
0.0
 40
0.0
 40
0.0
 40
1.0
 40
1.0
 40
1.0
 40
2.0
 40
2.0
 40
2.0
 40
2.0
 10
962.7193200399709
 20
677.9748251271803
 10
962.7193200399709
 20
677.9748251271803
 10
968.2993981649709
 20
677.2546102834303
 10
968.2993981649709
 20
677.2546102834303
 10
968.2993981649709
 20
677.2546102834303
 10
962.7193200399709
 20
677.9748251271803
 10
962.7193200399709
 20
677.9748251271803
 97
        0
 75
     2
 76
     1
 98
        0
  0
HATCH
  5
635F
330
A
100
AcDbEntity
  8
レイヤー 1
 62
     7
420
 16777215
100
AcDbHatch
 10
0.0
 20
0.0
 30
0.0
210
0.0
220
0.0
230
1.0
  2
SOLID
 70
     1
 71
     0
 91
        1
 92
        1
 93
        1
 72
     4
 94
        3
 73
     0
 74
     1
 95
       11
 96
        7
 40
0.0
 40
0.0
 40
0.0
 40
0.0
 40
1.0
 40
1.0
 40
1.0
 40
2.0
 40
2.0
 40
2.0
 40
2.0
 10
962.7193200399709
 20
677.9748251271803
 10
962.7193200399709
 20
677.9748251271803
 10
962.7193200399709
 20
677.2546102834303
 10
962.7193200399709
 20
677.2546102834303
 10
962.7193200399709
 20
677.2546102834303
 10
962.7193200399709
 20
677.9748251271803
 10
962.7193200399709
 20
677.9748251271803
 97
        0
 75
     2
 76
     1
 98
        0
  0
HATCH
  5
6363
330
A
100
AcDbEntity
  8
レイヤー 1
 62
     7
420
 16777215
100
AcDbHatch
 10
0.0
 20
0.0
 30
0.0
210
0.0
220
0.0
230
1.0
  2
SOLID
 70
     1
 71
     0
 91
        1
 92
        1
 93
        1
 72
     4
 94
        3
 73
     0
 74
     1
 95
       14
 96
       10
 40
0.0
 40
0.0
 40
0.0
 40
0.0
 40
1.0
 40
1.0
 40
1.0
 40
2.0
 40
2.0
 40
2.0
 40
3.0
 40
3.0
 40
3.0
 40
3.0
 10
968.2993981649709
 20
488.0749227834303
 10
968.2993981649709
 20
488.0749227834303
 10
968.2993981649709
 20
488.0749227834303
 10
968.2993981649709
 20
488.0749227834303
 10
968.2993981649709
 20
488.0749227834303
 10
962.7193200399709
 20
488.0749227834303
 10
962.7193200399709
 20
488.0749227834303
 10
962.7193200399709
 20
488.0749227834303
 10
968.2993981649709
 20
488.0749227834303
 10
968.2993981649709
 20
488.0749227834303
 97
        0
 75
     2
 76
     1
 98
        0
  0
HATCH
  5
6366
330
A
100
AcDbEntity
  8
レイヤー 1
 62
     7
420
 16777215
100
AcDbHatch
 10
0.0
 20
0.0
 30
0.0
210
0.0
220
0.0
230
1.0
  2
SOLID
 70
     1
 71
     0
 91
        1
 92
        1
 93
        1
 72
     4
 94
        3
 73
     0
 74
     1
 95
       11
 96
        7
 40
0.0
 40
0.0
 40
0.0
 40
0.0
 40
1.0
 40
1.0
 40
1.0
 40
2.0
 40
2.0
 40
2.0
 40
2.0
 10
968.2993981649709
 20
488.0749227834303
 10
968.2993981649709
 20
488.0749227834303
 10
962.7193200399709
 20
488.6144735646803
 10
962.7193200399709
 20
488.6144735646803
 10
962.7193200399709
 20
488.6144735646803
 10
968.2993981649709
 20
488.0749227834303
 10
968.2993981649709
 20
488.0749227834303
 97
        0
 75
     2
 76
     1
 98
        0
  0
HATCH
  5
6369
330
A
100
AcDbEntity
  8
レイヤー 1
 62
     7
420
 16777215
100
AcDbHatch
 10
0.0
 20
0.0
 30
0.0
210
0.0
220
0.0
230
1.0
  2
SOLID
 70
     1
 71
     0
 91
        1
 92
        1
 93
        1
 72
     4
 94
        3
 73
     0
 74
     1
 95
       11
 96
        7
 40
0.0
 40
0.0
 40
0.0
 40
0.0
 40
1.0
 40
1.0
 40
1.0
 40
2.0
 40
2.0
 40
2.0
 40
2.0
 10
968.2993981649709
 20
488.0749227834303
 10
968.2993981649709
 20
488.0749227834303
 10
968.2993981649709
 20
488.6144735646803
 10
968.2993981649709
 20
488.6144735646803
 10
968.2993981649709
 20
488.6144735646803
 10
968.2993981649709
 20
488.0749227834303
 10
968.2993981649709
 20
488.0749227834303
 97
        0
 75
     2
 76
     1
 98
        0
  0
HATCH
  5
636D
330
A
100
AcDbEntity
  8
レイヤー 1
 62
     7
420
 16777215
100
AcDbHatch
 10
0.0
 20
0.0
 30
0.0
210
0.0
220
0.0
230
1.0
  2
SOLID
 70
     1
 71
     0
 91
        1
 92
        1
 93
        1
 72
     4
 94
        3
 73
     0
 74
     1
 95
       14
 96
       10
 40
0.0
 40
0.0
 40
0.0
 40
0.0
 40
1.0
 40
1.0
 40
1.0
 40
2.0
 40
2.0
 40
2.0
 40
3.0
 40
3.0
 40
3.0
 40
3.0
 10
1207.879476289971
 20
566.0143759084303
 10
1207.879476289971
 20
566.0143759084303
 10
1207.879476289971
 20
566.0143759084303
 10
1207.879476289971
 20
566.0143759084303
 10
1207.879476289971
 20
566.0143759084303
 10
1213.459554414971
 20
566.0143759084303
 10
1213.459554414971
 20
566.0143759084303
 10
1213.459554414971
 20
566.0143759084303
 10
1207.879476289971
 20
566.0143759084303
 10
1207.879476289971
 20
566.0143759084303
 97
        0
 75
     2
 76
     1
 98
        0
  0
HATCH
  5
6370
330
A
100
AcDbEntity
  8
レイヤー 1
 62
     7
420
 16777215
100
AcDbHatch
 10
0.0
 20
0.0
 30
0.0
210
0.0
220
0.0
230
1.0
  2
SOLID
 70
     1
 71
     0
 91
        1
 92
        1
 93
        1
 72
     4
 94
        3
 73
     0
 74
     1
 95
       11
 96
        7
 40
0.0
 40
0.0
 40
0.0
 40
0.0
 40
1.0
 40
1.0
 40
1.0
 40
2.0
 40
2.0
 40
2.0
 40
2.0
 10
1207.879476289971
 20
566.0143759084303
 10
1207.879476289971
 20
566.0143759084303
 10
1213.459554414971
 20
565.2946493459303
 10
1213.459554414971
 20
565.2946493459303
 10
1213.459554414971
 20
565.2946493459303
 10
1207.879476289971
 20
566.0143759084303
 10
1207.879476289971
 20
566.0143759084303
 97
        0
 75
     2
 76
     1
 98
        0
  0
HATCH
  5
6373
330
A
100
AcDbEntity
  8
レイヤー 1
 62
     7
420
 16777215
100
AcDbHatch
 10
0.0
 20
0.0
 30
0.0
210
0.0
220
0.0
230
1.0
  2
SOLID
 70
     1
 71
     0
 91
        1
 92
        1
 93
        1
 72
     4
 94
        3
 73
     0
 74
     1
 95
       11
 96
        7
 40
0.0
 40
0.0
 40
0.0
 40
0.0
 40
1.0
 40
1.0
 40
1.0
 40
2.0
 40
2.0
 40
2.0
 40
2.0
 10
1207.879476289971
 20
566.0143759084303
 10
1207.879476289971
 20
566.0143759084303
 10
1207.879476289971
 20
565.2946493459303
 10
1207.879476289971
 20
565.2946493459303
 10
1207.879476289971
 20
565.2946493459303
 10
1207.879476289971
 20
566.0143759084303
 10
1207.879476289971
 20
566.0143759084303
 97
        0
 75
     2
 76
     1
 98
        0
  0
HATCH
  5
6377
330
A
100
AcDbEntity
  8
レイヤー 1
 62
     7
420
 16777215
100
AcDbHatch
 10
0.0
 20
0.0
 30
0.0
210
0.0
220
0.0
230
1.0
  2
SOLID
 70
     1
 71
     0
 91
        1
 92
        1
 93
        1
 72
     4
 94
        3
 73
     0
 74
     1
 95
       14
 96
       10
 40
0.0
 40
0.0
 40
0.0
 40
0.0
 40
1.0
 40
1.0
 40
1.0
 40
2.0
 40
2.0
 40
2.0
 40
3.0
 40
3.0
 40
3.0
 40
3.0
 10
1213.459554414971
 20
499.4147665334303
 10
1213.459554414971
 20
499.4147665334303
 10
1213.459554414971
 20
499.4147665334303
 10
1213.459554414971
 20
499.4147665334303
 10
1213.459554414971
 20
499.4147665334303
 10
1207.879476289971
 20
499.4147665334303
 10
1207.879476289971
 20
499.4147665334303
 10
1207.879476289971
 20
499.4147665334303
 10
1213.459554414971
 20
499.4147665334303
 10
1213.459554414971
 20
499.4147665334303
 97
        0
 75
     2
 76
     1
 98
        0
  0
HATCH
  5
637A
330
A
100
AcDbEntity
  8
レイヤー 1
 62
     7
420
 16777215
100
AcDbHatch
 10
0.0
 20
0.0
 30
0.0
210
0.0
220
0.0
230
1.0
  2
SOLID
 70
     1
 71
     0
 91
        1
 92
        1
 93
        1
 72
     4
 94
        3
 73
     0
 74
     1
 95
       11
 96
        7
 40
0.0
 40
0.0
 40
0.0
 40
0.0
 40
1.0
 40
1.0
 40
1.0
 40
2.0
 40
2.0
 40
2.0
 40
2.0
 10
1213.459554414971
 20
499.4147665334303
 10
1213.459554414971
 20
499.4147665334303
 10
1207.879476289971
 20
499.9548055959303
 10
1207.879476289971
 20
499.9548055959303
 10
1207.879476289971
 20
499.9548055959303
 10
1213.459554414971
 20
499.4147665334303
 10
1213.459554414971
 20
499.4147665334303
 97
        0
 75
     2
 76
     1
 98
        0
  0
HATCH
  5
637D
330
A
100
AcDbEntity
  8
レイヤー 1
 62
     7
420
 16777215
100
AcDbHatch
 10
0.0
 20
0.0
 30
0.0
210
0.0
220
0.0
230
1.0
  2
SOLID
 70
     1
 71
     0
 91
        1
 92
        1
 93
        1
 72
     4
 94
        3
 73
     0
 74
     1
 95
       11
 96
        7
 40
0.0
 40
0.0
 40
0.0
 40
0.0
 40
1.0
 40
1.0
 40
1.0
 40
2.0
 40
2.0
 40
2.0
 40
2.0
 10
1213.459554414971
 20
499.4147665334303
 10
1213.459554414971
 20
499.4147665334303
 10
1213.459554414971
 20
499.9548055959303
 10
1213.459554414971
 20
499.9548055959303
 10
1213.459554414971
 20
499.9548055959303
 10
1213.459554414971
 20
499.4147665334303
 10
1213.459554414971
 20
499.4147665334303
 97
        0
 75
     2
 76
     1
 98
        0
  0
HATCH
  5
6381
330
A
100
AcDbEntity
  8
レイヤー 1
 62
     7
420
 16777215
100
AcDbHatch
 10
0.0
 20
0.0
 30
0.0
210
0.0
220
0.0
230
1.0
  2
SOLID
 70
     1
 71
     0
 91
        1
 92
        1
 93
        1
 72
     4
 94
        3
 73
     0
 74
     1
 95
       14
 96
       10
 40
0.0
 40
0.0
 40
0.0
 40
0.0
 40
1.0
 40
1.0
 40
1.0
 40
2.0
 40
2.0
 40
2.0
 40
3.0
 40
3.0
 40
3.0
 40
3.0
 10
1224.799398164971
 20
274.5944540334303
 10
1224.799398164971
 20
274.5944540334303
 10
1224.799398164971
 20
274.5944540334303
 10
1224.799398164971
 20
274.5944540334303
 10
1224.799398164971
 20
274.5944540334303
 10
1230.559163789971
 20
274.5944540334303
 10
1230.559163789971
 20
274.5944540334303
 10
1230.559163789971
 20
274.5944540334303
 10
1224.799398164971
 20
274.5944540334303
 10
1224.799398164971
 20
274.5944540334303
 97
        0
 75
     2
 76
     1
 98
        0
  0
HATCH
  5
6384
330
A
100
AcDbEntity
  8
レイヤー 1
 62
     7
420
 16777215
100
AcDbHatch
 10
0.0
 20
0.0
 30
0.0
210
0.0
220
0.0
230
1.0
  2
SOLID
 70
     1
 71
     0
 91
        1
 92
        1
 93
        1
 72
     4
 94
        3
 73
     0
 74
     1
 95
       11
 96
        7
 40
0.0
 40
0.0
 40
0.0
 40
0.0
 40
1.0
 40
1.0
 40
1.0
 40
2.0
 40
2.0
 40
2.0
 40
2.0
 10
1224.799398164971
 20
274.5944540334303
 10
1224.799398164971
 20
274.5944540334303
 10
1230.559163789971
 20
273.8747274709303
 10
1230.559163789971
 20
273.8747274709303
 10
1230.559163789971
 20
273.8747274709303
 10
1224.799398164971
 20
274.5944540334303
 10
1224.799398164971
 20
274.5944540334303
 97
        0
 75
     2
 76
     1
 98
        0
  0
HATCH
  5
6387
330
A
100
AcDbEntity
  8
レイヤー 1
 62
     7
420
 16777215
100
AcDbHatch
 10
0.0
 20
0.0
 30
0.0
210
0.0
220
0.0
230
1.0
  2
SOLID
 70
     1
 71
     0
 91
        1
 92
        1
 93
        1
 72
     4
 94
        3
 73
     0
 74
     1
 95
       11
 96
        7
 40
0.0
 40
0.0
 40
0.0
 40
0.0
 40
1.0
 40
1.0
 40
1.0
 40
2.0
 40
2.0
 40
2.0
 40
2.0
 10
1224.799398164971
 20
274.5944540334303
 10
1224.799398164971
 20
274.5944540334303
 10
1224.799398164971
 20
273.8747274709303
 10
1224.799398164971
 20
273.8747274709303
 10
1224.799398164971
 20
273.8747274709303
 10
1224.799398164971
 20
274.5944540334303
 10
1224.799398164971
 20
274.5944540334303
 97
        0
 75
     2
 76
     1
 98
        0
  0
HATCH
  5
638B
330
A
100
AcDbEntity
  8
レイヤー 1
 62
     7
420
 16777215
100
AcDbHatch
 10
0.0
 20
0.0
 30
0.0
210
0.0
220
0.0
230
1.0
  2
SOLID
 70
     1
 71
     0
 91
        1
 92
        1
 93
        1
 72
     4
 94
        3
 73
     0
 74
     1
 95
       14
 96
       10
 40
0.0
 40
0.0
 40
0.0
 40
0.0
 40
1.0
 40
1.0
 40
1.0
 40
2.0
 40
2.0
 40
2.0
 40
3.0
 40
3.0
 40
3.0
 40
3.0
 10
1230.559163789971
 20
125.7350790334303
 10
1230.559163789971
 20
125.7350790334303
 10
1230.559163789971
 20
125.7350790334303
 10
1230.559163789971
 20
125.7350790334303
 10
1230.559163789971
 20
125.7350790334303
 10
1224.799398164971
 20
125.7350790334303
 10
1224.799398164971
 20
125.7350790334303
 10
1224.799398164971
 20
125.7350790334303
 10
1230.559163789971
 20
125.7350790334303
 10
1230.559163789971
 20
125.7350790334303
 97
        0
 75
     2
 76
     1
 98
        0
  0
HATCH
  5
638E
330
A
100
AcDbEntity
  8
レイヤー 1
 62
     7
420
 16777215
100
AcDbHatch
 10
0.0
 20
0.0
 30
0.0
210
0.0
220
0.0
230
1.0
  2
SOLID
 70
     1
 71
     0
 91
        1
 92
        1
 93
        1
 72
     4
 94
        3
 73
     0
 74
     1
 95
       11
 96
        7
 40
0.0
 40
0.0
 40
0.0
 40
0.0
 40
1.0
 40
1.0
 40
1.0
 40
2.0
 40
2.0
 40
2.0
 40
2.0
 10
1230.559163789971
 20
125.7350790334303
 10
1230.559163789971
 20
125.7350790334303
 10
1224.799398164971
 20
126.4548055959303
 10
1224.799398164971
 20
126.4548055959303
 10
1224.799398164971
 20
126.4548055959303
 10
1230.559163789971
 20
125.7350790334303
 10
1230.559163789971
 20
125.7350790334303
 97
        0
 75
     2
 76
     1
 98
        0
  0
HATCH
  5
6391
330
A
100
AcDbEntity
  8
レイヤー 1
 62
     7
420
 16777215
100
AcDbHatch
 10
0.0
 20
0.0
 30
0.0
210
0.0
220
0.0
230
1.0
  2
SOLID
 70
     1
 71
     0
 91
        1
 92
        1
 93
        1
 72
     4
 94
        3
 73
     0
 74
     1
 95
       11
 96
        7
 40
0.0
 40
0.0
 40
0.0
 40
0.0
 40
1.0
 40
1.0
 40
1.0
 40
2.0
 40
2.0
 40
2.0
 40
2.0
 10
1230.559163789971
 20
125.7350790334303
 10
1230.559163789971
 20
125.7350790334303
 10
1230.559163789971
 20
126.4548055959303
 10
1230.559163789971
 20
126.4548055959303
 10
1230.559163789971
 20
126.4548055959303
 10
1230.559163789971
 20
125.7350790334303
 10
1230.559163789971
 20
125.7350790334303
 97
        0
 75
     2
 76
     1
 98
        0
  0
HATCH
  5
6395
330
A
100
AcDbEntity
  8
レイヤー 1
 62
     7
420
 16777215
100
AcDbHatch
 10
0.0
 20
0.0
 30
0.0
210
0.0
220
0.0
230
1.0
  2
SOLID
 70
     1
 71
     0
 91
        1
 92
        1
 93
        1
 72
     4
 94
        3
 73
     0
 74
     1
 95
       14
 96
       10
 40
0.0
 40
0.0
 40
0.0
 40
0.0
 40
1.0
 40
1.0
 40
1.0
 40
2.0
 40
2.0
 40
2.0
 40
3.0
 40
3.0
 40
3.0
 40
3.0
 10
883.8794762899709
 20
165.5143759084303
 10
883.8794762899709
 20
165.5143759084303
 10
883.8794762899709
 20
165.5143759084303
 10
883.8794762899709
 20
165.5143759084303
 10
883.8794762899709
 20
165.5143759084303
 10
878.1197106649709
 20
165.5143759084303
 10
878.1197106649709
 20
165.5143759084303
 10
878.1197106649709
 20
165.5143759084303
 10
883.8794762899709
 20
165.5143759084303
 10
883.8794762899709
 20
165.5143759084303
 97
        0
 75
     2
 76
     1
 98
        0
  0
HATCH
  5
6398
330
A
100
AcDbEntity
  8
レイヤー 1
 62
     7
420
 16777215
100
AcDbHatch
 10
0.0
 20
0.0
 30
0.0
210
0.0
220
0.0
230
1.0
  2
SOLID
 70
     1
 71
     0
 91
        1
 92
        1
 93
        1
 72
     4
 94
        3
 73
     0
 74
     1
 95
       11
 96
        7
 40
0.0
 40
0.0
 40
0.0
 40
0.0
 40
1.0
 40
1.0
 40
1.0
 40
2.0
 40
2.0
 40
2.0
 40
2.0
 10
883.8794762899709
 20
165.5143759084303
 10
883.8794762899709
 20
165.5143759084303
 10
878.1197106649709
 20
166.2350790334303
 10
878.1197106649709
 20
166.2350790334303
 10
878.1197106649709
 20
166.2350790334303
 10
883.8794762899709
 20
165.5143759084303
 10
883.8794762899709
 20
165.5143759084303
 97
        0
 75
     2
 76
     1
 98
        0
  0
HATCH
  5
639B
330
A
100
AcDbEntity
  8
レイヤー 1
 62
     7
420
 16777215
100
AcDbHatch
 10
0.0
 20
0.0
 30
0.0
210
0.0
220
0.0
230
1.0
  2
SOLID
 70
     1
 71
     0
 91
        1
 92
        1
 93
        1
 72
     4
 94
        3
 73
     0
 74
     1
 95
       11
 96
        7
 40
0.0
 40
0.0
 40
0.0
 40
0.0
 40
1.0
 40
1.0
 40
1.0
 40
2.0
 40
2.0
 40
2.0
 40
2.0
 10
883.8794762899709
 20
165.5143759084303
 10
883.8794762899709
 20
165.5143759084303
 10
883.8794762899709
 20
166.2350790334303
 10
883.8794762899709
 20
166.2350790334303
 10
883.8794762899709
 20
166.2350790334303
 10
883.8794762899709
 20
165.5143759084303
 10
883.8794762899709
 20
165.5143759084303
 97
        0
 75
     2
 76
     1
 98
        0
  0
HATCH
  5
639F
330
A
100
AcDbEntity
  8
レイヤー 1
 62
     7
420
 16777215
100
AcDbHatch
 10
0.0
 20
0.0
 30
0.0
210
0.0
220
0.0
230
1.0
  2
SOLID
 70
     1
 71
     0
 91
        1
 92
        1
 93
        1
 72
     4
 94
        3
 73
     0
 74
     1
 95
       14
 96
       10
 40
0.0
 40
0.0
 40
0.0
 40
0.0
 40
1.0
 40
1.0
 40
1.0
 40
2.0
 40
2.0
 40
2.0
 40
3.0
 40
3.0
 40
3.0
 40
3.0
 10
878.1197106649709
 20
234.8141805959303
 10
878.1197106649709
 20
234.8141805959303
 10
878.1197106649709
 20
234.8141805959303
 10
878.1197106649709
 20
234.8141805959303
 10
878.1197106649709
 20
234.8141805959303
 10
883.8794762899709
 20
234.8141805959303
 10
883.8794762899709
 20
234.8141805959303
 10
883.8794762899709
 20
234.8141805959303
 10
878.1197106649709
 20
234.8141805959303
 10
878.1197106649709
 20
234.8141805959303
 97
        0
 75
     2
 76
     1
 98
        0
  0
HATCH
  5
63A2
330
A
100
AcDbEntity
  8
レイヤー 1
 62
     7
420
 16777215
100
AcDbHatch
 10
0.0
 20
0.0
 30
0.0
210
0.0
220
0.0
230
1.0
  2
SOLID
 70
     1
 71
     0
 91
        1
 92
        1
 93
        1
 72
     4
 94
        3
 73
     0
 74
     1
 95
       11
 96
        7
 40
0.0
 40
0.0
 40
0.0
 40
0.0
 40
1.0
 40
1.0
 40
1.0
 40
2.0
 40
2.0
 40
2.0
 40
2.0
 10
878.1197106649709
 20
234.8141805959303
 10
878.1197106649709
 20
234.8141805959303
 10
883.8794762899709
 20
234.2751180959303
 10
883.8794762899709
 20
234.2751180959303
 10
883.8794762899709
 20
234.2751180959303
 10
878.1197106649709
 20
234.8141805959303
 10
878.1197106649709
 20
234.8141805959303
 97
        0
 75
     2
 76
     1
 98
        0
  0
HATCH
  5
63A5
330
A
100
AcDbEntity
  8
レイヤー 1
 62
     7
420
 16777215
100
AcDbHatch
 10
0.0
 20
0.0
 30
0.0
210
0.0
220
0.0
230
1.0
  2
SOLID
 70
     1
 71
     0
 91
        1
 92
        1
 93
        1
 72
     4
 94
        3
 73
     0
 74
     1
 95
       11
 96
        7
 40
0.0
 40
0.0
 40
0.0
 40
0.0
 40
1.0
 40
1.0
 40
1.0
 40
2.0
 40
2.0
 40
2.0
 40
2.0
 10
878.1197106649709
 20
234.8141805959303
 10
878.1197106649709
 20
234.8141805959303
 10
878.1197106649709
 20
234.2751180959303
 10
878.1197106649709
 20
234.2751180959303
 10
878.1197106649709
 20
234.2751180959303
 10
878.1197106649709
 20
234.8141805959303
 10
878.1197106649709
 20
234.8141805959303
 97
        0
 75
     2
 76
     1
 98
        0
  0
HATCH
  5
63A9
330
A
100
AcDbEntity
  8
レイヤー 1
 62
     7
420
 16777215
100
AcDbHatch
 10
0.0
 20
0.0
 30
0.0
210
0.0
220
0.0
230
1.0
  2
SOLID
 70
     1
 71
     0
 91
        1
 92
        1
 93
        1
 72
     4
 94
        3
 73
     0
 74
     1
 95
       14
 96
       10
 40
0.0
 40
0.0
 40
0.0
 40
0.0
 40
1.0
 40
1.0
 40
1.0
 40
2.0
 40
2.0
 40
2.0
 40
3.0
 40
3.0
 40
3.0
 40
3.0
 10
968.2993981649709
 20
120.1550009084303
 10
968.2993981649709
 20
120.1550009084303
 10
968.2993981649709
 20
120.1550009084303
 10
968.2993981649709
 20
120.1550009084303
 10
968.2993981649709
 20
120.1550009084303
 10
962.7193200399709
 20
120.1550009084303
 10
962.7193200399709
 20
120.1550009084303
 10
962.7193200399709
 20
120.1550009084303
 10
968.2993981649709
 20
120.1550009084303
 10
968.2993981649709
 20
120.1550009084303
 97
        0
 75
     2
 76
     1
 98
        0
  0
HATCH
  5
63AC
330
A
100
AcDbEntity
  8
レイヤー 1
 62
     7
420
 16777215
100
AcDbHatch
 10
0.0
 20
0.0
 30
0.0
210
0.0
220
0.0
230
1.0
  2
SOLID
 70
     1
 71
     0
 91
        1
 92
        1
 93
        1
 72
     4
 94
        3
 73
     0
 74
     1
 95
       11
 96
        7
 40
0.0
 40
0.0
 40
0.0
 40
0.0
 40
1.0
 40
1.0
 40
1.0
 40
2.0
 40
2.0
 40
2.0
 40
2.0
 10
968.2993981649709
 20
120.1550009084303
 10
968.2993981649709
 20
120.1550009084303
 10
962.7193200399709
 20
120.8747274709303
 10
962.7193200399709
 20
120.8747274709303
 10
962.7193200399709
 20
120.8747274709303
 10
968.2993981649709
 20
120.1550009084303
 10
968.2993981649709
 20
120.1550009084303
 97
        0
 75
     2
 76
     1
 98
        0
  0
HATCH
  5
63AF
330
A
100
AcDbEntity
  8
レイヤー 1
 62
     7
420
 16777215
100
AcDbHatch
 10
0.0
 20
0.0
 30
0.0
210
0.0
220
0.0
230
1.0
  2
SOLID
 70
     1
 71
     0
 91
        1
 92
        1
 93
        1
 72
     4
 94
        3
 73
     0
 74
     1
 95
       11
 96
        7
 40
0.0
 40
0.0
 40
0.0
 40
0.0
 40
1.0
 40
1.0
 40
1.0
 40
2.0
 40
2.0
 40
2.0
 40
2.0
 10
968.2993981649709
 20
120.1550009084303
 10
968.2993981649709
 20
120.1550009084303
 10
968.2993981649709
 20
120.8747274709303
 10
968.2993981649709
 20
120.8747274709303
 10
968.2993981649709
 20
120.8747274709303
 10
968.2993981649709
 20
120.1550009084303
 10
968.2993981649709
 20
120.1550009084303
 97
        0
 75
     2
 76
     1
 98
        0
  0
HATCH
  5
63B3
330
A
100
AcDbEntity
  8
レイヤー 1
 62
     7
420
 16777215
100
AcDbHatch
 10
0.0
 20
0.0
 30
0.0
210
0.0
220
0.0
230
1.0
  2
SOLID
 70
     1
 71
     0
 91
        1
 92
        1
 93
        1
 72
     4
 94
        3
 73
     0
 74
     1
 95
       14
 96
       10
 40
0.0
 40
0.0
 40
0.0
 40
0.0
 40
1.0
 40
1.0
 40
1.0
 40
2.0
 40
2.0
 40
2.0
 40
3.0
 40
3.0
 40
3.0
 40
3.0
 10
962.7193200399709
 20
397.8947470021803
 10
962.7193200399709
 20
397.8947470021803
 10
962.7193200399709
 20
397.8947470021803
 10
962.7193200399709
 20
397.8947470021803
 10
962.7193200399709
 20
397.8947470021803
 10
968.2993981649709
 20
397.8947470021803
 10
968.2993981649709
 20
397.8947470021803
 10
968.2993981649709
 20
397.8947470021803
 10
962.7193200399709
 20
397.8947470021803
 10
962.7193200399709
 20
397.8947470021803
 97
        0
 75
     2
 76
     1
 98
        0
  0
HATCH
  5
63B6
330
A
100
AcDbEntity
  8
レイヤー 1
 62
     7
420
 16777215
100
AcDbHatch
 10
0.0
 20
0.0
 30
0.0
210
0.0
220
0.0
230
1.0
  2
SOLID
 70
     1
 71
     0
 91
        1
 92
        1
 93
        1
 72
     4
 94
        3
 73
     0
 74
     1
 95
       11
 96
        7
 40
0.0
 40
0.0
 40
0.0
 40
0.0
 40
1.0
 40
1.0
 40
1.0
 40
2.0
 40
2.0
 40
2.0
 40
2.0
 10
962.7193200399709
 20
397.8947470021803
 10
962.7193200399709
 20
397.8947470021803
 10
968.2993981649709
 20
397.1745321584303
 10
968.2993981649709
 20
397.1745321584303
 10
968.2993981649709
 20
397.1745321584303
 10
962.7193200399709
 20
397.8947470021803
 10
962.7193200399709
 20
397.8947470021803
 97
        0
 75
     2
 76
     1
 98
        0
  0
HATCH
  5
63B9
330
A
100
AcDbEntity
  8
レイヤー 1
 62
     7
420
 16777215
100
AcDbHatch
 10
0.0
 20
0.0
 30
0.0
210
0.0
220
0.0
230
1.0
  2
SOLID
 70
     1
 71
     0
 91
        1
 92
        1
 93
        1
 72
     4
 94
        3
 73
     0
 74
     1
 95
       11
 96
        7
 40
0.0
 40
0.0
 40
0.0
 40
0.0
 40
1.0
 40
1.0
 40
1.0
 40
2.0
 40
2.0
 40
2.0
 40
2.0
 10
962.7193200399709
 20
397.8947470021803
 10
962.7193200399709
 20
397.8947470021803
 10
962.7193200399709
 20
397.1745321584303
 10
962.7193200399709
 20
397.1745321584303
 10
962.7193200399709
 20
397.1745321584303
 10
962.7193200399709
 20
397.8947470021803
 10
962.7193200399709
 20
397.8947470021803
 97
        0
 75
     2
 76
     1
 98
        0
  0
HATCH
  5
63BD
330
A
100
AcDbEntity
  8
レイヤー 1
 62
     7
420
 16777215
100
AcDbHatch
 10
0.0
 20
0.0
 30
0.0
210
0.0
220
0.0
230
1.0
  2
SOLID
 70
     1
 71
     0
 91
        1
 92
        1
 93
        1
 72
     4
 94
        3
 73
     0
 74
     1
 95
       14
 96
       10
 40
0.0
 40
0.0
 40
0.0
 40
0.0
 40
1.0
 40
1.0
 40
1.0
 40
2.0
 40
2.0
 40
2.0
 40
3.0
 40
3.0
 40
3.0
 40
3.0
 10
878.1197106649709
 20
164.0749227834303
 10
878.1197106649709
 20
164.0749227834303
 10
878.1197106649709
 20
164.0749227834303
 10
878.1197106649709
 20
164.0749227834303
 10
878.1197106649709
 20
164.0749227834303
 10
883.8794762899709
 20
164.0749227834303
 10
883.8794762899709
 20
164.0749227834303
 10
883.8794762899709
 20
164.0749227834303
 10
878.1197106649709
 20
164.0749227834303
 10
878.1197106649709
 20
164.0749227834303
 97
        0
 75
     2
 76
     1
 98
        0
  0
HATCH
  5
63C0
330
A
100
AcDbEntity
  8
レイヤー 1
 62
     7
420
 16777215
100
AcDbHatch
 10
0.0
 20
0.0
 30
0.0
210
0.0
220
0.0
230
1.0
  2
SOLID
 70
     1
 71
     0
 91
        1
 92
        1
 93
        1
 72
     4
 94
        3
 73
     0
 74
     1
 95
       11
 96
        7
 40
0.0
 40
0.0
 40
0.0
 40
0.0
 40
1.0
 40
1.0
 40
1.0
 40
2.0
 40
2.0
 40
2.0
 40
2.0
 10
878.1197106649709
 20
164.0749227834303
 10
878.1197106649709
 20
164.0749227834303
 10
883.8794762899709
 20
163.3542196584303
 10
883.8794762899709
 20
163.3542196584303
 10
883.8794762899709
 20
163.3542196584303
 10
878.1197106649709
 20
164.0749227834303
 10
878.1197106649709
 20
164.0749227834303
 97
        0
 75
     2
 76
     1
 98
        0
  0
HATCH
  5
63C3
330
A
100
AcDbEntity
  8
レイヤー 1
 62
     7
420
 16777215
100
AcDbHatch
 10
0.0
 20
0.0
 30
0.0
210
0.0
220
0.0
230
1.0
  2
SOLID
 70
     1
 71
     0
 91
        1
 92
        1
 93
        1
 72
     4
 94
        3
 73
     0
 74
     1
 95
       11
 96
        7
 40
0.0
 40
0.0
 40
0.0
 40
0.0
 40
1.0
 40
1.0
 40
1.0
 40
2.0
 40
2.0
 40
2.0
 40
2.0
 10
878.1197106649709
 20
164.0749227834303
 10
878.1197106649709
 20
164.0749227834303
 10
878.1197106649709
 20
163.3542196584303
 10
878.1197106649709
 20
163.3542196584303
 10
878.1197106649709
 20
163.3542196584303
 10
878.1197106649709
 20
164.0749227834303
 10
878.1197106649709
 20
164.0749227834303
 97
        0
 75
     2
 76
     1
 98
        0
  0
HATCH
  5
63C7
330
A
100
AcDbEntity
  8
レイヤー 1
 62
     7
420
 16777215
100
AcDbHatch
 10
0.0
 20
0.0
 30
0.0
210
0.0
220
0.0
230
1.0
  2
SOLID
 70
     1
 71
     0
 91
        1
 92
        1
 93
        1
 72
     4
 94
        3
 73
     0
 74
     1
 95
       14
 96
       10
 40
0.0
 40
0.0
 40
0.0
 40
0.0
 40
1.0
 40
1.0
 40
1.0
 40
2.0
 40
2.0
 40
2.0
 40
3.0
 40
3.0
 40
3.0
 40
3.0
 10
883.8794762899709
 20
120.1550009084303
 10
883.8794762899709
 20
120.1550009084303
 10
883.8794762899709
 20
120.1550009084303
 10
883.8794762899709
 20
120.1550009084303
 10
883.8794762899709
 20
120.1550009084303
 10
878.1197106649709
 20
120.1550009084303
 10
878.1197106649709
 20
120.1550009084303
 10
878.1197106649709
 20
120.1550009084303
 10
883.8794762899709
 20
120.1550009084303
 10
883.8794762899709
 20
120.1550009084303
 97
        0
 75
     2
 76
     1
 98
        0
  0
HATCH
  5
63CA
330
A
100
AcDbEntity
  8
レイヤー 1
 62
     7
420
 16777215
100
AcDbHatch
 10
0.0
 20
0.0
 30
0.0
210
0.0
220
0.0
230
1.0
  2
SOLID
 70
     1
 71
     0
 91
        1
 92
        1
 93
        1
 72
     4
 94
        3
 73
     0
 74
     1
 95
       11
 96
        7
 40
0.0
 40
0.0
 40
0.0
 40
0.0
 40
1.0
 40
1.0
 40
1.0
 40
2.0
 40
2.0
 40
2.0
 40
2.0
 10
883.8794762899709
 20
120.1550009084303
 10
883.8794762899709
 20
120.1550009084303
 10
878.1197106649709
 20
120.8747274709303
 10
878.1197106649709
 20
120.8747274709303
 10
878.1197106649709
 20
120.8747274709303
 10
883.8794762899709
 20
120.1550009084303
 10
883.8794762899709
 20
120.1550009084303
 97
        0
 75
     2
 76
     1
 98
        0
  0
HATCH
  5
63CD
330
A
100
AcDbEntity
  8
レイヤー 1
 62
     7
420
 16777215
100
AcDbHatch
 10
0.0
 20
0.0
 30
0.0
210
0.0
220
0.0
230
1.0
  2
SOLID
 70
     1
 71
     0
 91
        1
 92
        1
 93
        1
 72
     4
 94
        3
 73
     0
 74
     1
 95
       11
 96
        7
 40
0.0
 40
0.0
 40
0.0
 40
0.0
 40
1.0
 40
1.0
 40
1.0
 40
2.0
 40
2.0
 40
2.0
 40
2.0
 10
883.8794762899709
 20
120.1550009084303
 10
883.8794762899709
 20
120.1550009084303
 10
883.8794762899709
 20
120.8747274709303
 10
883.8794762899709
 20
120.8747274709303
 10
883.8794762899709
 20
120.8747274709303
 10
883.8794762899709
 20
120.1550009084303
 10
883.8794762899709
 20
120.1550009084303
 97
        0
 75
     2
 76
     1
 98
        0
  0
HATCH
  5
63D1
330
A
100
AcDbEntity
  8
レイヤー 1
 62
     7
420
 16777215
100
AcDbHatch
 10
0.0
 20
0.0
 30
0.0
210
0.0
220
0.0
230
1.0
  2
SOLID
 70
     1
 71
     0
 91
        1
 92
        1
 93
        1
 72
     4
 94
        3
 73
     0
 74
     1
 95
       14
 96
       10
 40
0.0
 40
0.0
 40
0.0
 40
0.0
 40
1.0
 40
1.0
 40
1.0
 40
2.0
 40
2.0
 40
2.0
 40
3.0
 40
3.0
 40
3.0
 40
3.0
 10
823.2193200399709
 20
429.7546102834303
 10
823.2193200399709
 20
429.7546102834303
 10
823.2193200399709
 20
429.7546102834303
 10
823.2193200399709
 20
429.7546102834303
 10
823.2193200399709
 20
429.7546102834303
 10
823.2193200399709
 20
424.1745321584303
 10
823.2193200399709
 20
424.1745321584303
 10
823.2193200399709
 20
424.1745321584303
 10
823.2193200399709
 20
429.7546102834303
 10
823.2193200399709
 20
429.7546102834303
 97
        0
 75
     2
 76
     1
 98
        0
  0
HATCH
  5
63D4
330
A
100
AcDbEntity
  8
レイヤー 1
 62
     7
420
 16777215
100
AcDbHatch
 10
0.0
 20
0.0
 30
0.0
210
0.0
220
0.0
230
1.0
  2
SOLID
 70
     1
 71
     0
 91
        1
 92
        1
 93
        1
 72
     4
 94
        3
 73
     0
 74
     1
 95
       11
 96
        7
 40
0.0
 40
0.0
 40
0.0
 40
0.0
 40
1.0
 40
1.0
 40
1.0
 40
2.0
 40
2.0
 40
2.0
 40
2.0
 10
823.2193200399709
 20
429.7546102834303
 10
823.2193200399709
 20
429.7546102834303
 10
822.4995934774709
 20
424.1745321584303
 10
822.4995934774709
 20
424.1745321584303
 10
822.4995934774709
 20
424.1745321584303
 10
823.2193200399709
 20
429.7546102834303
 10
823.2193200399709
 20
429.7546102834303
 97
        0
 75
     2
 76
     1
 98
        0
  0
HATCH
  5
63D7
330
A
100
AcDbEntity
  8
レイヤー 1
 62
     7
420
 16777215
100
AcDbHatch
 10
0.0
 20
0.0
 30
0.0
210
0.0
220
0.0
230
1.0
  2
SOLID
 70
     1
 71
     0
 91
        1
 92
        1
 93
        1
 72
     4
 94
        3
 73
     0
 74
     1
 95
       11
 96
        7
 40
0.0
 40
0.0
 40
0.0
 40
0.0
 40
1.0
 40
1.0
 40
1.0
 40
2.0
 40
2.0
 40
2.0
 40
2.0
 10
823.2193200399709
 20
429.7546102834303
 10
823.2193200399709
 20
429.7546102834303
 10
822.4995934774709
 20
429.7546102834303
 10
822.4995934774709
 20
429.7546102834303
 10
822.4995934774709
 20
429.7546102834303
 10
823.2193200399709
 20
429.7546102834303
 10
823.2193200399709
 20
429.7546102834303
 97
        0
 75
     2
 76
     1
 98
        0
  0
HATCH
  5
63DB
330
A
100
AcDbEntity
  8
レイヤー 1
 62
     7
420
 16777215
100
AcDbHatch
 10
0.0
 20
0.0
 30
0.0
210
0.0
220
0.0
230
1.0
  2
SOLID
 70
     1
 71
     0
 91
        1
 92
        1
 93
        1
 72
     4
 94
        3
 73
     0
 74
     1
 95
       14
 96
       10
 40
0.0
 40
0.0
 40
0.0
 40
0.0
 40
1.0
 40
1.0
 40
1.0
 40
2.0
 40
2.0
 40
2.0
 40
3.0
 40
3.0
 40
3.0
 40
3.0
 10
770.8394372274709
 20
424.1745321584303
 10
770.8394372274709
 20
424.1745321584303
 10
770.8394372274709
 20
424.1745321584303
 10
770.8394372274709
 20
424.1745321584303
 10
770.8394372274709
 20
424.1745321584303
 10
770.8394372274709
 20
429.7546102834303
 10
770.8394372274709
 20
429.7546102834303
 10
770.8394372274709
 20
429.7546102834303
 10
770.8394372274709
 20
424.1745321584303
 10
770.8394372274709
 20
424.1745321584303
 97
        0
 75
     2
 76
     1
 98
        0
  0
HATCH
  5
63DE
330
A
100
AcDbEntity
  8
レイヤー 1
 62
     7
420
 16777215
100
AcDbHatch
 10
0.0
 20
0.0
 30
0.0
210
0.0
220
0.0
230
1.0
  2
SOLID
 70
     1
 71
     0
 91
        1
 92
        1
 93
        1
 72
     4
 94
        3
 73
     0
 74
     1
 95
       11
 96
        7
 40
0.0
 40
0.0
 40
0.0
 40
0.0
 40
1.0
 40
1.0
 40
1.0
 40
2.0
 40
2.0
 40
2.0
 40
2.0
 10
770.8394372274709
 20
424.1745321584303
 10
770.8394372274709
 20
424.1745321584303
 10
771.5591637899709
 20
429.7546102834303
 10
771.5591637899709
 20
429.7546102834303
 10
771.5591637899709
 20
429.7546102834303
 10
770.8394372274709
 20
424.1745321584303
 10
770.8394372274709
 20
424.1745321584303
 97
        0
 75
     2
 76
     1
 98
        0
  0
HATCH
  5
63E1
330
A
100
AcDbEntity
  8
レイヤー 1
 62
     7
420
 16777215
100
AcDbHatch
 10
0.0
 20
0.0
 30
0.0
210
0.0
220
0.0
230
1.0
  2
SOLID
 70
     1
 71
     0
 91
        1
 92
        1
 93
        1
 72
     4
 94
        3
 73
     0
 74
     1
 95
       11
 96
        7
 40
0.0
 40
0.0
 40
0.0
 40
0.0
 40
1.0
 40
1.0
 40
1.0
 40
2.0
 40
2.0
 40
2.0
 40
2.0
 10
770.8394372274709
 20
424.1745321584303
 10
770.8394372274709
 20
424.1745321584303
 10
771.5591637899709
 20
424.1745321584303
 10
771.5591637899709
 20
424.1745321584303
 10
771.5591637899709
 20
424.1745321584303
 10
770.8394372274709
 20
424.1745321584303
 10
770.8394372274709
 20
424.1745321584303
 97
        0
 75
     2
 76
     1
 98
        0
  0
HATCH
  5
63E5
330
A
100
AcDbEntity
  8
レイヤー 1
 62
     7
420
 16777215
100
AcDbHatch
 10
0.0
 20
0.0
 30
0.0
210
0.0
220
0.0
230
1.0
  2
SOLID
 70
     1
 71
     0
 91
        1
 92
        1
 93
        1
 72
     4
 94
        3
 73
     0
 74
     1
 95
       14
 96
       10
 40
0.0
 40
0.0
 40
0.0
 40
0.0
 40
1.0
 40
1.0
 40
1.0
 40
2.0
 40
2.0
 40
2.0
 40
3.0
 40
3.0
 40
3.0
 40
3.0
 10
1126.339437227471
 20
424.1745321584303
 10
1126.339437227471
 20
424.1745321584303
 10
1126.339437227471
 20
424.1745321584303
 10
1126.339437227471
 20
424.1745321584303
 10
1126.339437227471
 20
424.1745321584303
 10
1126.339437227471
 20
429.7546102834303
 10
1126.339437227471
 20
429.7546102834303
 10
1126.339437227471
 20
429.7546102834303
 10
1126.339437227471
 20
424.1745321584303
 10
1126.339437227471
 20
424.1745321584303
 97
        0
 75
     2
 76
     1
 98
        0
  0
HATCH
  5
63E8
330
A
100
AcDbEntity
  8
レイヤー 1
 62
     7
420
 16777215
100
AcDbHatch
 10
0.0
 20
0.0
 30
0.0
210
0.0
220
0.0
230
1.0
  2
SOLID
 70
     1
 71
     0
 91
        1
 92
        1
 93
        1
 72
     4
 94
        3
 73
     0
 74
     1
 95
       11
 96
        7
 40
0.0
 40
0.0
 40
0.0
 40
0.0
 40
1.0
 40
1.0
 40
1.0
 40
2.0
 40
2.0
 40
2.0
 40
2.0
 10
1126.339437227471
 20
424.1745321584303
 10
1126.339437227471
 20
424.1745321584303
 10
1127.059163789971
 20
429.7546102834303
 10
1127.059163789971
 20
429.7546102834303
 10
1127.059163789971
 20
429.7546102834303
 10
1126.339437227471
 20
424.1745321584303
 10
1126.339437227471
 20
424.1745321584303
 97
        0
 75
     2
 76
     1
 98
        0
  0
HATCH
  5
63EB
330
A
100
AcDbEntity
  8
レイヤー 1
 62
     7
420
 16777215
100
AcDbHatch
 10
0.0
 20
0.0
 30
0.0
210
0.0
220
0.0
230
1.0
  2
SOLID
 70
     1
 71
     0
 91
        1
 92
        1
 93
        1
 72
     4
 94
        3
 73
     0
 74
     1
 95
       11
 96
        7
 40
0.0
 40
0.0
 40
0.0
 40
0.0
 40
1.0
 40
1.0
 40
1.0
 40
2.0
 40
2.0
 40
2.0
 40
2.0
 10
1126.339437227471
 20
424.1745321584303
 10
1126.339437227471
 20
424.1745321584303
 10
1127.059163789971
 20
424.1745321584303
 10
1127.059163789971
 20
424.1745321584303
 10
1127.059163789971
 20
424.1745321584303
 10
1126.339437227471
 20
424.1745321584303
 10
1126.339437227471
 20
424.1745321584303
 97
        0
 75
     2
 76
     1
 98
        0
  0
HATCH
  5
63EF
330
A
100
AcDbEntity
  8
レイヤー 1
 62
     7
420
 16777215
100
AcDbHatch
 10
0.0
 20
0.0
 30
0.0
210
0.0
220
0.0
230
1.0
  2
SOLID
 70
     1
 71
     0
 91
        1
 92
        1
 93
        1
 72
     4
 94
        3
 73
     0
 74
     1
 95
       14
 96
       10
 40
0.0
 40
0.0
 40
0.0
 40
0.0
 40
1.0
 40
1.0
 40
1.0
 40
2.0
 40
2.0
 40
2.0
 40
3.0
 40
3.0
 40
3.0
 40
3.0
 10
1141.999593477471
 20
429.7546102834303
 10
1141.999593477471
 20
429.7546102834303
 10
1141.999593477471
 20
429.7546102834303
 10
1141.999593477471
 20
429.7546102834303
 10
1141.999593477471
 20
429.7546102834303
 10
1141.999593477471
 20
424.1745321584303
 10
1141.999593477471
 20
424.1745321584303
 10
1141.999593477471
 20
424.1745321584303
 10
1141.999593477471
 20
429.7546102834303
 10
1141.999593477471
 20
429.7546102834303
 97
        0
 75
     2
 76
     1
 98
        0
  0
HATCH
  5
63F2
330
A
100
AcDbEntity
  8
レイヤー 1
 62
     7
420
 16777215
100
AcDbHatch
 10
0.0
 20
0.0
 30
0.0
210
0.0
220
0.0
230
1.0
  2
SOLID
 70
     1
 71
     0
 91
        1
 92
        1
 93
        1
 72
     4
 94
        3
 73
     0
 74
     1
 95
       11
 96
        7
 40
0.0
 40
0.0
 40
0.0
 40
0.0
 40
1.0
 40
1.0
 40
1.0
 40
2.0
 40
2.0
 40
2.0
 40
2.0
 10
1141.999593477471
 20
429.7546102834303
 10
1141.999593477471
 20
429.7546102834303
 10
1141.279866914971
 20
424.1745321584303
 10
1141.279866914971
 20
424.1745321584303
 10
1141.279866914971
 20
424.1745321584303
 10
1141.999593477471
 20
429.7546102834303
 10
1141.999593477471
 20
429.7546102834303
 97
        0
 75
     2
 76
     1
 98
        0
  0
HATCH
  5
63F5
330
A
100
AcDbEntity
  8
レイヤー 1
 62
     7
420
 16777215
100
AcDbHatch
 10
0.0
 20
0.0
 30
0.0
210
0.0
220
0.0
230
1.0
  2
SOLID
 70
     1
 71
     0
 91
        1
 92
        1
 93
        1
 72
     4
 94
        3
 73
     0
 74
     1
 95
       11
 96
        7
 40
0.0
 40
0.0
 40
0.0
 40
0.0
 40
1.0
 40
1.0
 40
1.0
 40
2.0
 40
2.0
 40
2.0
 40
2.0
 10
1141.999593477471
 20
429.7546102834303
 10
1141.999593477471
 20
429.7546102834303
 10
1141.279866914971
 20
429.7546102834303
 10
1141.279866914971
 20
429.7546102834303
 10
1141.279866914971
 20
429.7546102834303
 10
1141.999593477471
 20
429.7546102834303
 10
1141.999593477471
 20
429.7546102834303
 97
        0
 75
     2
 76
     1
 98
        0
  0
HATCH
  5
63F9
330
A
100
AcDbEntity
  8
レイヤー 1
 62
     7
420
 16777215
100
AcDbHatch
 10
0.0
 20
0.0
 30
0.0
210
0.0
220
0.0
230
1.0
  2
SOLID
 70
     1
 71
     0
 91
        1
 92
        1
 93
        1
 72
     4
 94
        3
 73
     0
 74
     1
 95
       14
 96
       10
 40
0.0
 40
0.0
 40
0.0
 40
0.0
 40
1.0
 40
1.0
 40
1.0
 40
2.0
 40
2.0
 40
2.0
 40
3.0
 40
3.0
 40
3.0
 40
3.0
 10
665.8994958212209
 20
82.53488372093028
 10
665.8994958212209
 20
82.53488372093028
 10
665.8994958212209
 20
82.53488372093028
 10
665.8994958212209
 20
82.53488372093028
 10
665.8994958212209
 20
82.53488372093028
 10
665.8994958212209
 20
88.29464934593028
 10
665.8994958212209
 20
88.29464934593028
 10
665.8994958212209
 20
88.29464934593028
 10
665.8994958212209
 20
82.53488372093028
 10
665.8994958212209
 20
82.53488372093028
 97
        0
 75
     2
 76
     1
 98
        0
  0
HATCH
  5
63FC
330
A
100
AcDbEntity
  8
レイヤー 1
 62
     7
420
 16777215
100
AcDbHatch
 10
0.0
 20
0.0
 30
0.0
210
0.0
220
0.0
230
1.0
  2
SOLID
 70
     1
 71
     0
 91
        1
 92
        1
 93
        1
 72
     4
 94
        3
 73
     0
 74
     1
 95
       11
 96
        7
 40
0.0
 40
0.0
 40
0.0
 40
0.0
 40
1.0
 40
1.0
 40
1.0
 40
2.0
 40
2.0
 40
2.0
 40
2.0
 10
665.8994958212209
 20
82.53488372093028
 10
665.8994958212209
 20
82.53488372093028
 10
666.6192223837209
 20
88.29464934593028
 10
666.6192223837209
 20
88.29464934593028
 10
666.6192223837209
 20
88.29464934593028
 10
665.8994958212209
 20
82.53488372093028
 10
665.8994958212209
 20
82.53488372093028
 97
        0
 75
     2
 76
     1
 98
        0
  0
HATCH
  5
63FF
330
A
100
AcDbEntity
  8
レイヤー 1
 62
     7
420
 16777215
100
AcDbHatch
 10
0.0
 20
0.0
 30
0.0
210
0.0
220
0.0
230
1.0
  2
SOLID
 70
     1
 71
     0
 91
        1
 92
        1
 93
        1
 72
     4
 94
        3
 73
     0
 74
     1
 95
       11
 96
        7
 40
0.0
 40
0.0
 40
0.0
 40
0.0
 40
1.0
 40
1.0
 40
1.0
 40
2.0
 40
2.0
 40
2.0
 40
2.0
 10
665.8994958212209
 20
82.53488372093028
 10
665.8994958212209
 20
82.53488372093028
 10
666.6192223837209
 20
82.53488372093028
 10
666.6192223837209
 20
82.53488372093028
 10
666.6192223837209
 20
82.53488372093028
 10
665.8994958212209
 20
82.53488372093028
 10
665.8994958212209
 20
82.53488372093028
 97
        0
 75
     2
 76
     1
 98
        0
  0
HATCH
  5
6403
330
A
100
AcDbEntity
  8
レイヤー 1
 62
     7
420
 16777215
100
AcDbHatch
 10
0.0
 20
0.0
 30
0.0
210
0.0
220
0.0
230
1.0
  2
SOLID
 70
     1
 71
     0
 91
        1
 92
        1
 93
        1
 72
     4
 94
        3
 73
     0
 74
     1
 95
       14
 96
       10
 40
0.0
 40
0.0
 40
0.0
 40
0.0
 40
1.0
 40
1.0
 40
1.0
 40
2.0
 40
2.0
 40
2.0
 40
3.0
 40
3.0
 40
3.0
 40
3.0
 10
834.5591637899709
 20
88.29464934593028
 10
834.5591637899709
 20
88.29464934593028
 10
834.5591637899709
 20
88.29464934593028
 10
834.5591637899709
 20
88.29464934593028
 10
834.5591637899709
 20
88.29464934593028
 10
834.5591637899709
 20
82.53488372093028
 10
834.5591637899709
 20
82.53488372093028
 10
834.5591637899709
 20
82.53488372093028
 10
834.5591637899709
 20
88.29464934593028
 10
834.5591637899709
 20
88.29464934593028
 97
        0
 75
     2
 76
     1
 98
        0
  0
HATCH
  5
6406
330
A
100
AcDbEntity
  8
レイヤー 1
 62
     7
420
 16777215
100
AcDbHatch
 10
0.0
 20
0.0
 30
0.0
210
0.0
220
0.0
230
1.0
  2
SOLID
 70
     1
 71
     0
 91
        1
 92
        1
 93
        1
 72
     4
 94
        3
 73
     0
 74
     1
 95
       11
 96
        7
 40
0.0
 40
0.0
 40
0.0
 40
0.0
 40
1.0
 40
1.0
 40
1.0
 40
2.0
 40
2.0
 40
2.0
 40
2.0
 10
834.5591637899709
 20
88.29464934593028
 10
834.5591637899709
 20
88.29464934593028
 10
833.8394372274709
 20
82.53488372093028
 10
833.8394372274709
 20
82.53488372093028
 10
833.8394372274709
 20
82.53488372093028
 10
834.5591637899709
 20
88.29464934593028
 10
834.5591637899709
 20
88.29464934593028
 97
        0
 75
     2
 76
     1
 98
        0
  0
HATCH
  5
6409
330
A
100
AcDbEntity
  8
レイヤー 1
 62
     7
420
 16777215
100
AcDbHatch
 10
0.0
 20
0.0
 30
0.0
210
0.0
220
0.0
230
1.0
  2
SOLID
 70
     1
 71
     0
 91
        1
 92
        1
 93
        1
 72
     4
 94
        3
 73
     0
 74
     1
 95
       11
 96
        7
 40
0.0
 40
0.0
 40
0.0
 40
0.0
 40
1.0
 40
1.0
 40
1.0
 40
2.0
 40
2.0
 40
2.0
 40
2.0
 10
834.5591637899709
 20
88.29464934593028
 10
834.5591637899709
 20
88.29464934593028
 10
833.8394372274709
 20
88.29464934593028
 10
833.8394372274709
 20
88.29464934593028
 10
833.8394372274709
 20
88.29464934593028
 10
834.5591637899709
 20
88.29464934593028
 10
834.5591637899709
 20
88.29464934593028
 97
        0
 75
     2
 76
     1
 98
        0
  0
HATCH
  5
640D
330
A
100
AcDbEntity
  8
レイヤー 1
 62
     7
420
 16777215
100
AcDbHatch
 10
0.0
 20
0.0
 30
0.0
210
0.0
220
0.0
230
1.0
  2
SOLID
 70
     1
 71
     0
 91
        1
 92
        1
 93
        1
 72
     4
 94
        3
 73
     0
 74
     1
 95
       14
 96
       10
 40
0.0
 40
0.0
 40
0.0
 40
0.0
 40
1.0
 40
1.0
 40
1.0
 40
2.0
 40
2.0
 40
2.0
 40
3.0
 40
3.0
 40
3.0
 40
3.0
 10
644.6592614462209
 20
82.53488372093028
 10
644.6592614462209
 20
82.53488372093028
 10
644.6592614462209
 20
82.53488372093028
 10
644.6592614462209
 20
82.53488372093028
 10
644.6592614462209
 20
82.53488372093028
 10
644.6592614462209
 20
88.29464934593028
 10
644.6592614462209
 20
88.29464934593028
 10
644.6592614462209
 20
88.29464934593028
 10
644.6592614462209
 20
82.53488372093028
 10
644.6592614462209
 20
82.53488372093028
 97
        0
 75
     2
 76
     1
 98
        0
  0
HATCH
  5
6410
330
A
100
AcDbEntity
  8
レイヤー 1
 62
     7
420
 16777215
100
AcDbHatch
 10
0.0
 20
0.0
 30
0.0
210
0.0
220
0.0
230
1.0
  2
SOLID
 70
     1
 71
     0
 91
        1
 92
        1
 93
        1
 72
     4
 94
        3
 73
     0
 74
     1
 95
       11
 96
        7
 40
0.0
 40
0.0
 40
0.0
 40
0.0
 40
1.0
 40
1.0
 40
1.0
 40
2.0
 40
2.0
 40
2.0
 40
2.0
 10
644.6592614462209
 20
82.53488372093028
 10
644.6592614462209
 20
82.53488372093028
 10
645.3794762899709
 20
88.29464934593028
 10
645.3794762899709
 20
88.29464934593028
 10
645.3794762899709
 20
88.29464934593028
 10
644.6592614462209
 20
82.53488372093028
 10
644.6592614462209
 20
82.53488372093028
 97
        0
 75
     2
 76
     1
 98
        0
  0
HATCH
  5
6413
330
A
100
AcDbEntity
  8
レイヤー 1
 62
     7
420
 16777215
100
AcDbHatch
 10
0.0
 20
0.0
 30
0.0
210
0.0
220
0.0
230
1.0
  2
SOLID
 70
     1
 71
     0
 91
        1
 92
        1
 93
        1
 72
     4
 94
        3
 73
     0
 74
     1
 95
       11
 96
        7
 40
0.0
 40
0.0
 40
0.0
 40
0.0
 40
1.0
 40
1.0
 40
1.0
 40
2.0
 40
2.0
 40
2.0
 40
2.0
 10
644.6592614462209
 20
82.53488372093028
 10
644.6592614462209
 20
82.53488372093028
 10
645.3794762899709
 20
82.53488372093028
 10
645.3794762899709
 20
82.53488372093028
 10
645.3794762899709
 20
82.53488372093028
 10
644.6592614462209
 20
82.53488372093028
 10
644.6592614462209
 20
82.53488372093028
 97
        0
 75
     2
 76
     1
 98
        0
  0
HATCH
  5
6417
330
A
100
AcDbEntity
  8
レイヤー 1
 62
     7
420
 16777215
100
AcDbHatch
 10
0.0
 20
0.0
 30
0.0
210
0.0
220
0.0
230
1.0
  2
SOLID
 70
     1
 71
     0
 91
        1
 92
        1
 93
        1
 72
     4
 94
        3
 73
     0
 74
     1
 95
       14
 96
       10
 40
0.0
 40
0.0
 40
0.0
 40
0.0
 40
1.0
 40
1.0
 40
1.0
 40
2.0
 40
2.0
 40
2.0
 40
3.0
 40
3.0
 40
3.0
 40
3.0
 10
661.7593591024709
 20
88.29464934593028
 10
661.7593591024709
 20
88.29464934593028
 10
661.7593591024709
 20
88.29464934593028
 10
661.7593591024709
 20
88.29464934593028
 10
661.7593591024709
 20
88.29464934593028
 10
661.7593591024709
 20
82.53488372093028
 10
661.7593591024709
 20
82.53488372093028
 10
661.7593591024709
 20
82.53488372093028
 10
661.7593591024709
 20
88.29464934593028
 10
661.7593591024709
 20
88.29464934593028
 97
        0
 75
     2
 76
     1
 98
        0
  0
HATCH
  5
641A
330
A
100
AcDbEntity
  8
レイヤー 1
 62
     7
420
 16777215
100
AcDbHatch
 10
0.0
 20
0.0
 30
0.0
210
0.0
220
0.0
230
1.0
  2
SOLID
 70
     1
 71
     0
 91
        1
 92
        1
 93
        1
 72
     4
 94
        3
 73
     0
 74
     1
 95
       11
 96
        7
 40
0.0
 40
0.0
 40
0.0
 40
0.0
 40
1.0
 40
1.0
 40
1.0
 40
2.0
 40
2.0
 40
2.0
 40
2.0
 10
661.7593591024709
 20
88.29464934593028
 10
661.7593591024709
 20
88.29464934593028
 10
661.0396325399709
 20
82.53488372093028
 10
661.0396325399709
 20
82.53488372093028
 10
661.0396325399709
 20
82.53488372093028
 10
661.7593591024709
 20
88.29464934593028
 10
661.7593591024709
 20
88.29464934593028
 97
        0
 75
     2
 76
     1
 98
        0
  0
HATCH
  5
641D
330
A
100
AcDbEntity
  8
レイヤー 1
 62
     7
420
 16777215
100
AcDbHatch
 10
0.0
 20
0.0
 30
0.0
210
0.0
220
0.0
230
1.0
  2
SOLID
 70
     1
 71
     0
 91
        1
 92
        1
 93
        1
 72
     4
 94
        3
 73
     0
 74
     1
 95
       11
 96
        7
 40
0.0
 40
0.0
 40
0.0
 40
0.0
 40
1.0
 40
1.0
 40
1.0
 40
2.0
 40
2.0
 40
2.0
 40
2.0
 10
661.7593591024709
 20
88.29464934593028
 10
661.7593591024709
 20
88.29464934593028
 10
661.0396325399709
 20
88.29464934593028
 10
661.0396325399709
 20
88.29464934593028
 10
661.0396325399709
 20
88.29464934593028
 10
661.7593591024709
 20
88.29464934593028
 10
661.7593591024709
 20
88.29464934593028
 97
        0
 75
     2
 76
     1
 98
        0
  0
HATCH
  5
6421
330
A
100
AcDbEntity
  8
レイヤー 1
 62
     7
420
 16777215
100
AcDbHatch
 10
0.0
 20
0.0
 30
0.0
210
0.0
220
0.0
230
1.0
  2
SOLID
 70
     1
 71
     0
 91
        1
 92
        1
 93
        1
 72
     4
 94
        3
 73
     0
 74
     1
 95
       14
 96
       10
 40
0.0
 40
0.0
 40
0.0
 40
0.0
 40
1.0
 40
1.0
 40
1.0
 40
2.0
 40
2.0
 40
2.0
 40
3.0
 40
3.0
 40
3.0
 40
3.0
 10
1040.839437227471
 20
693.2746298146803
 10
1040.839437227471
 20
693.2746298146803
 10
1040.839437227471
 20
693.2746298146803
 10
1040.839437227471
 20
693.2746298146803
 10
1040.839437227471
 20
693.2746298146803
 10
1040.839437227471
 20
699.0348837209303
 10
1040.839437227471
 20
699.0348837209303
 10
1040.839437227471
 20
699.0348837209303
 10
1040.839437227471
 20
693.2746298146803
 10
1040.839437227471
 20
693.2746298146803
 97
        0
 75
     2
 76
     1
 98
        0
  0
HATCH
  5
6424
330
A
100
AcDbEntity
  8
レイヤー 1
 62
     7
420
 16777215
100
AcDbHatch
 10
0.0
 20
0.0
 30
0.0
210
0.0
220
0.0
230
1.0
  2
SOLID
 70
     1
 71
     0
 91
        1
 92
        1
 93
        1
 72
     4
 94
        3
 73
     0
 74
     1
 95
       11
 96
        7
 40
0.0
 40
0.0
 40
0.0
 40
0.0
 40
1.0
 40
1.0
 40
1.0
 40
2.0
 40
2.0
 40
2.0
 40
2.0
 10
1040.839437227471
 20
693.2746298146803
 10
1040.839437227471
 20
693.2746298146803
 10
1041.559163789971
 20
699.0348837209303
 10
1041.559163789971
 20
699.0348837209303
 10
1041.559163789971
 20
699.0348837209303
 10
1040.839437227471
 20
693.2746298146803
 10
1040.839437227471
 20
693.2746298146803
 97
        0
 75
     2
 76
     1
 98
        0
  0
HATCH
  5
6427
330
A
100
AcDbEntity
  8
レイヤー 1
 62
     7
420
 16777215
100
AcDbHatch
 10
0.0
 20
0.0
 30
0.0
210
0.0
220
0.0
230
1.0
  2
SOLID
 70
     1
 71
     0
 91
        1
 92
        1
 93
        1
 72
     4
 94
        3
 73
     0
 74
     1
 95
       11
 96
        7
 40
0.0
 40
0.0
 40
0.0
 40
0.0
 40
1.0
 40
1.0
 40
1.0
 40
2.0
 40
2.0
 40
2.0
 40
2.0
 10
1040.839437227471
 20
693.2746298146803
 10
1040.839437227471
 20
693.2746298146803
 10
1041.559163789971
 20
693.2746298146803
 10
1041.559163789971
 20
693.2746298146803
 10
1041.559163789971
 20
693.2746298146803
 10
1040.839437227471
 20
693.2746298146803
 10
1040.839437227471
 20
693.2746298146803
 97
        0
 75
     2
 76
     1
 98
        0
  0
HATCH
  5
642B
330
A
100
AcDbEntity
  8
レイヤー 1
 62
     7
420
 16777215
100
AcDbHatch
 10
0.0
 20
0.0
 30
0.0
210
0.0
220
0.0
230
1.0
  2
SOLID
 70
     1
 71
     0
 91
        1
 92
        1
 93
        1
 72
     4
 94
        3
 73
     0
 74
     1
 95
       14
 96
       10
 40
0.0
 40
0.0
 40
0.0
 40
0.0
 40
1.0
 40
1.0
 40
1.0
 40
2.0
 40
2.0
 40
2.0
 40
3.0
 40
3.0
 40
3.0
 40
3.0
 10
1188.799398164971
 20
699.0348837209303
 10
1188.799398164971
 20
699.0348837209303
 10
1188.799398164971
 20
699.0348837209303
 10
1188.799398164971
 20
699.0348837209303
 10
1188.799398164971
 20
699.0348837209303
 10
1188.799398164971
 20
693.2746298146803
 10
1188.799398164971
 20
693.2746298146803
 10
1188.799398164971
 20
693.2746298146803
 10
1188.799398164971
 20
699.0348837209303
 10
1188.799398164971
 20
699.0348837209303
 97
        0
 75
     2
 76
     1
 98
        0
  0
HATCH
  5
642E
330
A
100
AcDbEntity
  8
レイヤー 1
 62
     7
420
 16777215
100
AcDbHatch
 10
0.0
 20
0.0
 30
0.0
210
0.0
220
0.0
230
1.0
  2
SOLID
 70
     1
 71
     0
 91
        1
 92
        1
 93
        1
 72
     4
 94
        3
 73
     0
 74
     1
 95
       11
 96
        7
 40
0.0
 40
0.0
 40
0.0
 40
0.0
 40
1.0
 40
1.0
 40
1.0
 40
2.0
 40
2.0
 40
2.0
 40
2.0
 10
1188.799398164971
 20
699.0348837209303
 10
1188.799398164971
 20
699.0348837209303
 10
1188.079671602471
 20
693.2746298146803
 10
1188.079671602471
 20
693.2746298146803
 10
1188.079671602471
 20
693.2746298146803
 10
1188.799398164971
 20
699.0348837209303
 10
1188.799398164971
 20
699.0348837209303
 97
        0
 75
     2
 76
     1
 98
        0
  0
HATCH
  5
6431
330
A
100
AcDbEntity
  8
レイヤー 1
 62
     7
420
 16777215
100
AcDbHatch
 10
0.0
 20
0.0
 30
0.0
210
0.0
220
0.0
230
1.0
  2
SOLID
 70
     1
 71
     0
 91
        1
 92
        1
 93
        1
 72
     4
 94
        3
 73
     0
 74
     1
 95
       11
 96
        7
 40
0.0
 40
0.0
 40
0.0
 40
0.0
 40
1.0
 40
1.0
 40
1.0
 40
2.0
 40
2.0
 40
2.0
 40
2.0
 10
1188.799398164971
 20
699.0348837209303
 10
1188.799398164971
 20
699.0348837209303
 10
1188.079671602471
 20
699.0348837209303
 10
1188.079671602471
 20
699.0348837209303
 10
1188.079671602471
 20
699.0348837209303
 10
1188.799398164971
 20
699.0348837209303
 10
1188.799398164971
 20
699.0348837209303
 97
        0
 75
     2
 76
     1
 98
        0
  0
SPLINE
  5
6434
102
{ACAD_REACTORS
330
662F
102
}
330
A
100
AcDbEntity
  8
CutoutUnderlay
100
AcDbSpline
210
0.0
220
0.0
230
1.0
 70
     8
 71
     3
 72
     8
 73
     4
 74
     0
 42
0.000000001
 43
0.0000000001
 40
0.0
 40
0.0
 40
0.0
 40
0.0
 40
1.0
 40
1.0
 40
1.0
 40
1.0
 10
408.5865054663749
 20
196.5048209109574
 30
0.0
 10
398.2383828223811
 20
198.0852752844457
 30
0.0
 10
387.9258575543921
 20
193.4489762640337
 30
0.0
 10
382.2399543502312
 20
184.6598804468069
 30
0.0
  0
SPLINE
  5
6435
102
{ACAD_REACTORS
330
662F
102
}
330
A
100
AcDbEntity
  8
CutoutUnderlay
100
AcDbSpline
210
0.0
220
0.0
230
1.0
 70
     8
 71
     3
 72
    11
 73
     7
 74
     0
 42
0.000000001
 43
0.0000000001
 40
1.0
 40
1.0
 40
1.0
 40
1.0
 40
2.0
 40
2.0
 40
2.0
 40
3.0
 40
3.0
 40
3.0
 40
3.0
 10
382.2399543502312
 20
184.6598804468069
 30
0.0
 10
376.5543967516627
 20
175.8704390239878
 30
0.0
 10
376.5533599348859
 20
164.5636064670143
 30
0.0
 10
382.2371895054929
 20
155.7731282274184
 30
0.0
 10
387.9210190761002
 20
146.9826499878225
 30
0.0
 10
398.2328531329048
 20
142.3442773338568
 30
0.0
 10
408.5813213824907
 20
143.9230036793836
 30
0.0
  0
SPLINE
  5
6436
102
{ACAD_REACTORS
330
662F
102
}
330
A
100
AcDbEntity
  8
CutoutUnderlay
100
AcDbSpline
210
0.0
220
0.0
230
1.0
 70
     8
 71
     3
 72
     8
 73
     4
 74
     0
 42
0.000000001
 43
0.0000000001
 40
0.0
 40
0.0
 40
0.0
 40
0.0
 40
1.0
 40
1.0
 40
1.0
 40
1.0
 10
414.604190039123
 20
145.5839841558726
 30
0.0
 10
424.6174208641991
 20
149.6631669615322
 30
0.0
 10
431.1645732043172
 20
159.3981852848244
 30
0.0
 10
431.1659556266862
 20
170.2104562392477
 30
0.0
  0
SPLINE
  5
6437
102
{ACAD_REACTORS
330
662F
102
}
330
A
100
AcDbEntity
  8
CutoutUnderlay
100
AcDbSpline
210
0.0
220
0.0
230
1.0
 70
     8
 71
     3
 72
     8
 73
     4
 74
     0
 42
0.000000001
 43
0.0000000001
 40
1.0
 40
1.0
 40
1.0
 40
1.0
 40
2.0
 40
2.0
 40
2.0
 40
2.0
 10
431.1659556266862
 20
170.2104562392477
 30
0.0
 10
431.1676836546477
 20
181.0223815880788
 30
0.0
 10
424.6232961592679
 20
190.7594735449247
 30
0.0
 10
414.6114477565608
 20
194.8414211953225
 30
0.0
  0
SPLINE
  5
6438
102
{ACAD_REACTORS
330
662F
102
}
330
A
100
AcDbEntity
  8
CutoutUnderlay
100
AcDbSpline
210
0.0
220
0.0
230
1.0
 70
     8
 71
     3
 72
     8
 73
     4
 74
     0
 42
0.000000001
 43
0.0000000001
 40
0.0
 40
0.0
 40
0.0
 40
0.0
 40
1.0
 40
1.0
 40
1.0
 40
1.0
 10
404.5691860617331
 20
157.6967689540388
 30
0.0
 10
411.4823347240739
 20
157.6960777428543
 30
0.0
 10
417.0870206140495
 20
163.2993812104607
 30
0.0
 10
417.0880574308263
 20
170.2125298728014
 30
0.0
  0
SPLINE
  5
6439
102
{ACAD_REACTORS
330
662F
102
}
330
A
100
AcDbEntity
  8
CutoutUnderlay
100
AcDbSpline
210
0.0
220
0.0
230
1.0
 70
     8
 71
     3
 72
     8
 73
     4
 74
     0
 42
0.000000001
 43
0.0000000001
 40
1.0
 40
1.0
 40
1.0
 40
1.0
 40
2.0
 40
2.0
 40
2.0
 40
2.0
 10
417.0880574308263
 20
170.2125298728014
 30
0.0
 10
417.0890942476032
 20
177.1253329295499
 30
0.0
 10
411.4857907799968
 20
182.7303644251177
 30
0.0
 10
404.5729877232483
 20
182.7317468474868
 30
0.0
  0
SPLINE
  5
643A
102
{ACAD_REACTORS
330
662F
102
}
330
A
100
AcDbEntity
  8
CutoutUnderlay
100
AcDbSpline
210
0.0
220
0.0
230
1.0
 70
     8
 71
     3
 72
     8
 73
     4
 74
     0
 42
0.000000001
 43
0.0000000001
 40
2.0
 40
2.0
 40
2.0
 40
2.0
 40
3.0
 40
3.0
 40
3.0
 40
3.0
 10
404.5729877232483
 20
182.7317468474868
 30
0.0
 10
397.6598390609075
 20
182.7331292698559
 30
0.0
 10
392.0548075653397
 20
177.1301714078418
 30
0.0
 10
392.0530795373783
 20
170.2173683510933
 30
0.0
  0
SPLINE
  5
643B
102
{ACAD_REACTORS
330
662F
102
}
330
A
100
AcDbEntity
  8
CutoutUnderlay
100
AcDbSpline
210
0.0
220
0.0
230
1.0
 70
     8
 71
     3
 72
     8
 73
     4
 74
     0
 42
0.000000001
 43
0.0000000001
 40
3.0
 40
3.0
 40
3.0
 40
3.0
 40
4.0
 40
4.0
 40
4.0
 40
4.0
 10
392.0530795373783
 20
170.2173683510933
 30
0.0
 10
392.051351509417
 20
163.3042196887525
 30
0.0
 10
397.6539637658387
 20
157.6988425875925
 30
0.0
 10
404.5667668225873
 20
157.6967689540388
 30
0.0
  0
LINE
  5
643C
102
{ACAD_REACTORS
330
662F
102
}
330
A
100
AcDbEntity
  8
CutoutUnderlay
100
AcDbLine
 10
408.551944907147
 20
144.1282934011968
 30
0.0
 11
408.551944907147
 21
141.6437347983089
 31
0.0
  0
LINE
  5
643D
102
{ACAD_REACTORS
330
662F
102
}
330
A
100
AcDbEntity
  8
CutoutUnderlay
100
AcDbLine
 10
408.551944907147
 20
141.6437347983089
 30
0.0
 11
414.6034988279383
 21
141.6437347983089
 31
0.0
  0
LINE
  5
643E
102
{ACAD_REACTORS
330
662F
102
}
330
A
100
AcDbEntity
  8
CutoutUnderlay
100
AcDbLine
 10
414.6034988279383
 20
141.6437347983089
 30
0.0
 11
414.6034988279383
 21
144.1282934011968
 31
0.0
  0
LINE
  5
643F
102
{ACAD_REACTORS
330
662F
102
}
330
A
100
AcDbEntity
  8
CutoutUnderlay
100
AcDbLine
 10
414.6034988279383
 20
144.1282934011968
 30
0.0
 11
408.551944907147
 21
144.1282934011968
 31
0.0
  0
LINE
  5
6440
102
{ACAD_REACTORS
330
662F
102
}
330
A
100
AcDbEntity
  8
CutoutUnderlay
100
AcDbLine
 10
414.6034988279383
 20
144.1282934011968
 30
0.0
 11
414.6034988279383
 21
162.6655405542224
 31
0.0
  0
LINE
  5
6441
102
{ACAD_REACTORS
330
662F
102
}
330
A
100
AcDbEntity
  8
CutoutUnderlay
100
AcDbLine
 10
414.6034988279383
 20
177.7629752473032
 30
0.0
 11
414.6034988279383
 21
240.4456343215957
 31
0.0
  0
LINE
  5
6442
102
{ACAD_REACTORS
330
662F
102
}
330
A
100
AcDbEntity
  8
CutoutUnderlay
100
AcDbLine
 10
414.6034988279383
 20
240.4456343215957
 30
0.0
 11
408.551944907147
 21
240.4456343215957
 31
0.0
  0
LINE
  5
6443
102
{ACAD_REACTORS
330
662F
102
}
330
A
100
AcDbEntity
  8
CutoutUnderlay
100
AcDbLine
 10
408.551944907147
 20
144.1282934011968
 30
0.0
 11
408.551944907147
 21
158.3337200606075
 31
0.0
  0
LINE
  5
6444
102
{ACAD_REACTORS
330
662F
102
}
330
A
100
AcDbEntity
  8
CutoutUnderlay
100
AcDbLine
 10
408.551944907147
 20
182.0947957409181
 30
0.0
 11
408.551944907147
 21
240.4456343215957
 31
0.0
  0
LINE
  5
6445
102
{ACAD_REACTORS
330
6656
102
}
330
A
100
AcDbEntity
  8
モデル
100
AcDbLine
 10
147.2143025768597
 20
335.2266730824399
 30
0.0
 11
147.5329509329403
 21
334.9081975291555
 31
0.0
  0
LINE
  5
6446
330
A
100
AcDbEntity
  8
モデル
100
AcDbLine
 10
147.5329509329403
 20
334.9081975291555
 30
0.0
 11
200.0871197171319
 21
334.9081975291555
 31
0.0
  0
LINE
  5
6447
330
A
100
AcDbEntity
  8
モデル
100
AcDbLine
 10
200.0871197171319
 20
334.9081975291555
 30
0.0
 11
200.40542246762
 21
335.2266730824399
 31
0.0
  0
LINE
  5
6448
102
{ACAD_REACTORS
330
6656
102
}
330
A
100
AcDbEntity
  8
モデル
100
AcDbLine
 10
147.2143025768597
 20
335.2266730824399
 30
0.0
 11
147.2143025768597
 21
341.4695196985571
 31
0.0
  0
LINE
  5
6449
102
{ACAD_REACTORS
330
6647
102
}
330
A
100
AcDbEntity
  8
モデル
100
AcDbLine
 10
147.2143025768597
 20
341.4695196985571
 30
0.0
 11
200.40542246762
 21
341.4695196985571
 31
0.0
  0
LINE
  5
644A
330
A
100
AcDbEntity
  8
モデル
100
AcDbLine
 10
200.40542246762
 20
341.4695196985571
 30
0.0
 11
200.40542246762
 21
335.2266730824399
 31
0.0
  0
LINE
  5
644B
102
{ACAD_REACTORS
330
6684
102
}
330
A
100
AcDbEntity
  8
モデル
100
AcDbLine
 10
183.8429656688721
 20
301.8468753606387
 30
0.0
 11
186.3275242717601
 21
301.8468753606387
 31
0.0
  0
LINE
  5
644C
102
{ACAD_REACTORS
330
6684
102
}
330
A
100
AcDbEntity
  8
モデル
100
AcDbLine
 10
186.3275242717601
 20
277.7674969298399
 30
0.0
 11
183.8429656688721
 21
277.7674969298399
 31
0.0
  0
LINE
  5
644D
330
A
100
AcDbEntity
  8
モデル
100
AcDbLine
 10
161.2289549493329
 20
320.3205310846852
 30
0.0
 11
161.2925463783121
 21
320.1294111921553
 31
0.0
  0
LINE
  5
644E
330
A
100
AcDbEntity
  8
モデル
100
AcDbLine
 10
161.2925463783121
 20
320.1294111921553
 30
0.0
 11
161.3561378072912
 21
319.619815746341
 31
0.0
  0
LINE
  5
644F
330
A
100
AcDbEntity
  8
モデル
100
AcDbLine
 10
161.3561378072912
 20
319.619815746341
 30
0.0
 11
161.483666270842
 21
318.7915719444463
 31
0.0
  0
LINE
  5
6450
330
A
100
AcDbEntity
  8
モデル
100
AcDbLine
 10
161.483666270842
 20
318.7915719444463
 30
0.0
 11
161.483666270842
 21
317.8997367135725
 31
0.0
  0
LINE
  5
6451
330
A
100
AcDbEntity
  8
モデル
100
AcDbLine
 10
161.483666270842
 20
317.8997367135725
 30
0.0
 11
161.483666270842
 21
316.9443100537194
 31
0.0
  0
LINE
  5
6452
330
A
100
AcDbEntity
  8
モデル
100
AcDbLine
 10
161.483666270842
 20
316.9443100537194
 30
0.0
 11
161.3561378072912
 21
316.1160662518247
 31
0.0
  0
LINE
  5
6453
330
A
100
AcDbEntity
  8
モデル
100
AcDbLine
 10
161.3561378072912
 20
316.1160662518247
 30
0.0
 11
161.2925463783121
 21
315.6064708060105
 31
0.0
  0
LINE
  5
6454
330
A
100
AcDbEntity
  8
モデル
100
AcDbLine
 10
161.2925463783121
 20
315.6064708060105
 30
0.0
 11
161.2289549493329
 21
315.4155237162769
 31
0.0
  0
LINE
  5
6455
102
{ACAD_REACTORS
330
6666
102
}
330
A
100
AcDbEntity
  8
モデル
100
AcDbLine
 10
186.3275242717601
 20
333.8890066375271
 30
0.0
 11
161.2289549493329
 21
333.8890066375271
 31
0.0
  0
LINE
  5
6456
102
{ACAD_REACTORS
330
6647
330
6666
102
}
330
A
100
AcDbEntity
  8
モデル
100
AcDbLine
 10
186.3275242717601
 20
273.7543247923055
 30
0.0
 11
161.2289549493329
 21
273.7543247923055
 31
0.0
  0
LINE
  5
6457
330
A
100
AcDbEntity
  8
モデル
100
AcDbLine
 10
161.2289549493329
 20
273.7543247923055
 30
0.0
 11
161.2289549493329
 21
315.4155237162769
 31
0.0
  0
LINE
  5
6458
330
A
100
AcDbEntity
  8
モデル
100
AcDbLine
 10
161.2289549493329
 20
320.3205310846852
 30
0.0
 11
161.2289549493329
 21
333.8890066375271
 31
0.0
  0
LINE
  5
6459
330
A
100
AcDbEntity
  8
モデル
100
AcDbLine
 10
186.3275242717601
 20
273.7543247923055
 30
0.0
 11
186.3275242717601
 21
277.7674969298399
 31
0.0
  0
LINE
  5
645A
330
A
100
AcDbEntity
  8
モデル
100
AcDbLine
 10
186.3275242717601
 20
301.8468753606387
 30
0.0
 11
186.3275242717601
 21
333.8890066375271
 31
0.0
  0
LINE
  5
645B
330
A
100
AcDbEntity
  8
モデル
100
AcDbLine
 10
183.8429656688721
 20
296.8143395286797
 30
0.0
 11
183.8429656688721
 21
301.8468753606387
 31
0.0
  0
LINE
  5
645C
330
A
100
AcDbEntity
  8
モデル
100
AcDbLine
 10
183.8429656688721
 20
301.8468753606387
 30
0.0
 11
177.7914117480808
 21
301.8468753606387
 31
0.0
  0
LINE
  5
645D
330
A
100
AcDbEntity
  8
モデル
100
AcDbLine
 10
177.7914117480808
 20
301.8468753606387
 30
0.0
 11
177.7914117480808
 21
296.8143395286797
 31
0.0
  0
LINE
  5
645E
330
A
100
AcDbEntity
  8
モデル
100
AcDbLine
 10
177.7914117480808
 20
296.8143395286797
 30
0.0
 11
183.8429656688721
 21
296.8143395286797
 31
0.0
  0
LINE
  5
645F
330
A
100
AcDbEntity
  8
モデル
100
AcDbLine
 10
177.7914117480808
 20
296.8143395286797
 30
0.0
 11
177.7914117480808
 21
277.7674969298399
 31
0.0
  0
LINE
  5
6460
330
A
100
AcDbEntity
  8
モデル
100
AcDbLine
 10
177.7914117480808
 20
277.7674969298399
 30
0.0
 11
183.8429656688721
 21
277.7674969298399
 31
0.0
  0
LINE
  5
6461
330
A
100
AcDbEntity
  8
モデル
100
AcDbLine
 10
183.8429656688721
 20
277.7674969298399
 30
0.0
 11
183.8429656688721
 21
296.8143395286797
 31
0.0
  0
LINE
  5
6462
330
A
100
AcDbEntity
  8
モデル
100
AcDbLine
 10
184.7985651315213
 20
334.9081975291555
 30
0.0
 11
184.7985651315213
 21
333.8890066375271
 31
0.0
  0
LINE
  5
6463
330
A
100
AcDbEntity
  8
モデル
100
AcDbLine
 10
162.7575684839793
 20
334.9081975291555
 30
0.0
 11
162.7575684839793
 21
333.8890066375271
 31
0.0
  0
LINE
  5
6464
330
A
100
AcDbEntity
  8
モデル
100
AcDbLine
 10
142.1000045452735
 20
143.6185251525865
 30
0.0
 11
142.3547158667826
 21
143.937173508667
 31
0.0
  0
LINE
  5
6465
330
A
100
AcDbEntity
  8
モデル
100
AcDbLine
 10
142.3547158667826
 20
143.937173508667
 30
0.0
 11
142.3547158667826
 21
196.4913422928586
 31
0.0
  0
LINE
  5
6466
330
A
100
AcDbEntity
  8
モデル
100
AcDbLine
 10
142.3547158667826
 20
196.4913422928586
 30
0.0
 11
142.1000045452735
 21
196.8096450433468
 31
0.0
  0
LINE
  5
6467
330
A
100
AcDbEntity
  8
モデル
100
AcDbLine
 10
142.1000045452735
 20
196.8096450433468
 30
0.0
 11
135.8571579291563
 21
196.8096450433468
 31
0.0
  0
LINE
  5
6468
330
A
100
AcDbEntity
  8
モデル
100
AcDbLine
 10
135.8571579291563
 20
196.8096450433468
 30
0.0
 11
135.8571579291563
 21
143.8096450451163
 31
0.0
  0
LINE
  5
6469
330
A
100
AcDbEntity
  8
モデル
100
AcDbLine
 10
135.8571579291563
 20
143.8096450451163
 30
0.0
 11
138.3415437292482
 21
143.8096450451163
 31
0.0
  0
LINE
  5
646A
330
A
100
AcDbEntity
  8
モデル
100
AcDbLine
 10
138.3415437292482
 20
143.8096450451163
 30
0.0
 11
138.3415437292482
 21
143.6185251525865
 31
0.0
  0
LINE
  5
646B
330
A
100
AcDbEntity
  8
モデル
100
AcDbLine
 10
138.3415437292482
 20
143.6185251525865
 30
0.0
 11
142.1000045452735
 21
143.6185251525865
 31
0.0
  0
LINE
  5
646C
330
A
100
AcDbEntity
  8
モデル
100
AcDbLine
 10
156.942555114049
 20
170.2460536152524
 30
0.0
 11
157.1335022037828
 21
171.1380616489224
 31
0.0
  0
LINE
  5
646D
330
A
100
AcDbEntity
  8
モデル
100
AcDbLine
 10
157.1335022037828
 20
171.1380616489224
 30
0.0
 11
157.7068618813722
 21
171.966132648021
 31
0.0
  0
LINE
  5
646E
330
A
100
AcDbEntity
  8
モデル
100
AcDbLine
 10
157.7068618813722
 20
171.966132648021
 30
0.0
 11
158.4713414514916
 21
172.475555291039
 31
0.0
  0
LINE
  5
646F
330
A
100
AcDbEntity
  8
モデル
100
AcDbLine
 10
158.4713414514916
 20
172.475555291039
 30
0.0
 11
159.4269409141408
 21
172.6666751835689
 31
0.0
  0
LINE
  5
6470
330
A
100
AcDbEntity
  8
モデル
100
AcDbLine
 10
159.4269409141408
 20
172.6666751835689
 30
0.0
 11
160.382367573994
 21
172.475555291039
 31
0.0
  0
LINE
  5
6471
330
A
100
AcDbEntity
  8
モデル
100
AcDbLine
 10
160.382367573994
 20
172.475555291039
 30
0.0
 11
161.2106113758886
 21
171.966132648021
 31
0.0
  0
LINE
  5
6472
330
A
100
AcDbEntity
  8
モデル
100
AcDbLine
 10
161.2106113758886
 20
171.966132648021
 30
0.0
 11
161.7202068217028
 21
171.1380616489224
 31
0.0
  0
LINE
  5
6473
330
A
100
AcDbEntity
  8
モデル
100
AcDbLine
 10
161.7202068217028
 20
171.1380616489224
 30
0.0
 11
161.9111539114366
 21
170.2460536152524
 31
0.0
  0
LINE
  5
6474
330
A
100
AcDbEntity
  8
モデル
100
AcDbLine
 10
161.9111539114366
 20
170.2460536152524
 30
0.0
 11
161.7202068217028
 21
169.2904541526032
 31
0.0
  0
LINE
  5
6475
330
A
100
AcDbEntity
  8
モデル
100
AcDbLine
 10
161.7202068217028
 20
169.2904541526032
 30
0.0
 11
161.2106113758886
 21
168.4623831535046
 31
0.0
  0
LINE
  5
6476
330
A
100
AcDbEntity
  8
モデル
100
AcDbLine
 10
161.2106113758886
 20
168.4623831535046
 30
0.0
 11
160.382367573994
 21
167.9529605104866
 31
0.0
  0
LINE
  5
6477
330
A
100
AcDbEntity
  8
モデル
100
AcDbLine
 10
160.382367573994
 20
167.9529605104866
 30
0.0
 11
159.4269409141408
 21
167.7618406179568
 31
0.0
  0
LINE
  5
6478
330
A
100
AcDbEntity
  8
モデル
100
AcDbLine
 10
159.4269409141408
 20
167.7618406179568
 30
0.0
 11
158.4713414514916
 21
167.9529605104866
 31
0.0
  0
LINE
  5
6479
330
A
100
AcDbEntity
  8
モデル
100
AcDbLine
 10
158.4713414514916
 20
167.9529605104866
 30
0.0
 11
157.7068618813722
 21
168.4623831535046
 31
0.0
  0
LINE
  5
647A
330
A
100
AcDbEntity
  8
モデル
100
AcDbLine
 10
157.7068618813722
 20
168.4623831535046
 30
0.0
 11
157.1335022037828
 21
169.2904541526032
 31
0.0
  0
LINE
  5
647B
330
A
100
AcDbEntity
  8
モデル
100
AcDbLine
 10
157.1335022037828
 20
169.2904541526032
 30
0.0
 11
156.942555114049
 21
170.2460536152524
 31
0.0
  0
LINE
  5
647C
330
A
100
AcDbEntity
  8
モデル
100
AcDbLine
 10
143.373906758411
 20
182.7317468474868
 30
0.0
 11
143.373906758411
 21
157.6967689540388
 31
0.0
  0
LINE
  5
647D
102
{ACAD_REACTORS
330
6717
102
}
330
A
100
AcDbEntity
  8
モデル
100
AcDbLine
 10
143.373906758411
 20
182.7317468474868
 30
0.0
 11
203.572525638204
 21
182.7317468474868
 31
0.0
  0
LINE
  5
647E
102
{ACAD_REACTORS
330
6705
330
6717
102
}
330
A
100
AcDbEntity
  8
モデル
100
AcDbLine
 10
203.572525638204
 20
182.7317468474868
 30
0.0
 11
203.572525638204
 21
157.6967689540388
 31
0.0
  0
LINE
  5
647F
330
A
100
AcDbEntity
  8
モデル
100
AcDbLine
 10
203.572525638204
 20
157.6967689540388
 30
0.0
 11
143.373906758411
 21
157.6967689540388
 31
0.0
  0
LINE
  5
6480
330
A
100
AcDbEntity
  8
モデル
100
AcDbLine
 10
180.5123380990336
 20
240.4456343215957
 30
0.0
 11
175.4798022670747
 21
182.7317468474868
 31
0.0
  0
LINE
  5
6481
102
{ACAD_REACTORS
330
6705
102
}
330
A
100
AcDbEntity
  8
モデル
100
AcDbLine
 10
175.4798022670747
 20
157.6967689540388
 30
0.0
 11
179.684267099935
 21
141.6437347983089
 31
0.0
  0
LINE
  5
6482
330
A
100
AcDbEntity
  8
モデル
100
AcDbLine
 10
179.684267099935
 20
141.6437347983089
 30
0.0
 11
199.5590078950773
 21
144.1282934011968
 31
0.0
  0
LINE
  5
6483
330
A
100
AcDbEntity
  8
モデル
100
AcDbLine
 10
199.5590078950773
 20
144.1282934011968
 30
0.0
 11
199.5590078950773
 21
157.6967689540388
 31
0.0
  0
LINE
  5
6484
330
A
100
AcDbEntity
  8
モデル
100
AcDbLine
 10
199.5590078950773
 20
182.7317468474868
 30
0.0
 11
199.5590078950773
 21
240.4456343215957
 31
0.0
  0
LINE
  5
6485
330
A
100
AcDbEntity
  8
モデル
100
AcDbLine
 10
199.5590078950773
 20
240.4456343215957
 30
0.0
 11
180.5123380990336
 21
240.4456343215957
 31
0.0
  0
LINE
  5
6486
330
A
100
AcDbEntity
  8
モデル
100
AcDbLine
 10
142.3547158667826
 20
181.2663791362272
 30
0.0
 11
143.373906758411
 21
181.2663791362272
 31
0.0
  0
LINE
  5
6487
330
A
100
AcDbEntity
  8
モデル
100
AcDbLine
 10
142.3547158667826
 20
159.1617910597061
 30
0.0
 11
143.373906758411
 21
159.1617910597061
 31
0.0
  0
LINE
  5
6488
330
A
100
AcDbEntity
  8
モデル
100
AcDbLine
 10
157.834390344923
 20
170.8830047218211
 30
0.0
 11
159.1720567898357
 21
171.966132648021
 31
0.0
  0
LINE
  5
6489
330
A
100
AcDbEntity
  8
モデル
100
AcDbLine
 10
159.1720567898357
 20
171.966132648021
 30
0.0
 11
160.828371590829
 21
171.2652445068808
 31
0.0
  0
LINE
  5
648A
330
A
100
AcDbEntity
  8
モデル
100
AcDbLine
 10
160.828371590829
 20
171.2652445068808
 30
0.0
 11
161.083082912338
 21
169.5455110797045
 31
0.0
  0
LINE
  5
648B
330
A
100
AcDbEntity
  8
モデル
100
AcDbLine
 10
161.083082912338
 20
169.5455110797045
 30
0.0
 11
159.6816522356499
 21
168.5259745824838
 31
0.0
  0
LINE
  5
648C
330
A
100
AcDbEntity
  8
モデル
100
AcDbLine
 10
159.6816522356499
 20
168.5259745824838
 30
0.0
 11
158.0891016664319
 21
169.1632712946448
 31
0.0
  0
LINE
  5
648D
330
A
100
AcDbEntity
  8
モデル
100
AcDbLine
 10
158.0891016664319
 20
169.1632712946448
 30
0.0
 11
157.834390344923
 21
170.8830047218211
 31
0.0
  0
SPLINE
  5
661E
330
A
100
AcDbEntity
  8
モデル
100
AcDbSpline
210
0.0
220
0.0
230
1.0
 70
     8
 71
     3
 72
     8
 73
     4
 74
     0
 42
0.000000001
 43
0.0000000001
 40
0.0
 40
0.0
 40
0.0
 40
0.0
 40
1.0
 40
1.0
 40
1.0
 40
1.0
 10
408.5865054663749
 20
322.1581508070126
 30
0.0
 10
398.2383828223811
 20
323.7386051805008
 30
0.0
 10
387.9258575543921
 20
319.1023061600888
 30
0.0
 10
382.2399543502312
 20
310.313210342862
 30
0.0
  0
SPLINE
  5
661F
330
A
100
AcDbEntity
  8
モデル
100
AcDbSpline
210
0.0
220
0.0
230
1.0
 70
     8
 71
     3
 72
    11
 73
     7
 74
     0
 42
0.000000001
 43
0.0000000001
 40
1.0
 40
1.0
 40
1.0
 40
1.0
 40
2.0
 40
2.0
 40
2.0
 40
3.0
 40
3.0
 40
3.0
 40
3.0
 10
382.2399543502312
 20
310.313210342862
 30
0.0
 10
376.5543967516627
 20
301.5237689200429
 30
0.0
 10
376.5533599348859
 20
290.2169363630695
 30
0.0
 10
382.2371895054929
 20
281.4264581234736
 30
0.0
 10
387.9210190761002
 20
272.6359798838777
 30
0.0
 10
398.2328531329048
 20
267.997607229912
 30
0.0
 10
408.5813213824907
 20
269.5763335754388
 30
0.0
  0
SPLINE
  5
6620
330
A
100
AcDbEntity
  8
モデル
100
AcDbSpline
210
0.0
220
0.0
230
1.0
 70
     8
 71
     3
 72
     8
 73
     4
 74
     0
 42
0.000000001
 43
0.0000000001
 40
0.0
 40
0.0
 40
0.0
 40
0.0
 40
1.0
 40
1.0
 40
1.0
 40
1.0
 10
414.604190039123
 20
271.2373140519278
 30
0.0
 10
424.6174208641991
 20
275.3164968575874
 30
0.0
 10
431.1645732043172
 20
285.0515151808795
 30
0.0
 10
431.1659556266862
 20
295.8637861353029
 30
0.0
  0
SPLINE
  5
6621
330
A
100
AcDbEntity
  8
モデル
100
AcDbSpline
210
0.0
220
0.0
230
1.0
 70
     8
 71
     3
 72
     8
 73
     4
 74
     0
 42
0.000000001
 43
0.0000000001
 40
1.0
 40
1.0
 40
1.0
 40
1.0
 40
2.0
 40
2.0
 40
2.0
 40
2.0
 10
431.1659556266862
 20
295.8637861353029
 30
0.0
 10
431.1676836546477
 20
306.675711484134
 30
0.0
 10
424.6232961592679
 20
316.4128034409799
 30
0.0
 10
414.6114477565608
 20
320.4947510913777
 30
0.0
  0
SPLINE
  5
6622
330
A
100
AcDbEntity
  8
モデル
100
AcDbSpline
210
0.0
220
0.0
230
1.0
 70
     8
 71
     3
 72
     8
 73
     4
 74
     0
 42
0.000000001
 43
0.0000000001
 40
0.0
 40
0.0
 40
0.0
 40
0.0
 40
1.0
 40
1.0
 40
1.0
 40
1.0
 10
404.5691860617331
 20
283.350098850094
 30
0.0
 10
411.4823347240739
 20
283.3494076389094
 30
0.0
 10
417.0870206140495
 20
288.9527111065158
 30
0.0
 10
417.0880574308263
 20
295.8658597688566
 30
0.0
  0
SPLINE
  5
6623
330
A
100
AcDbEntity
  8
モデル
100
AcDbSpline
210
0.0
220
0.0
230
1.0
 70
     8
 71
     3
 72
     8
 73
     4
 74
     0
 42
0.000000001
 43
0.0000000001
 40
1.0
 40
1.0
 40
1.0
 40
1.0
 40
2.0
 40
2.0
 40
2.0
 40
2.0
 10
417.0880574308263
 20
295.8658597688566
 30
0.0
 10
417.0890942476032
 20
302.7786628256051
 30
0.0
 10
411.4857907799968
 20
308.3836943211728
 30
0.0
 10
404.5729877232483
 20
308.385076743542
 30
0.0
  0
SPLINE
  5
6624
330
A
100
AcDbEntity
  8
モデル
100
AcDbSpline
210
0.0
220
0.0
230
1.0
 70
     8
 71
     3
 72
     8
 73
     4
 74
     0
 42
0.000000001
 43
0.0000000001
 40
2.0
 40
2.0
 40
2.0
 40
2.0
 40
3.0
 40
3.0
 40
3.0
 40
3.0
 10
404.5729877232483
 20
308.385076743542
 30
0.0
 10
397.6598390609075
 20
308.3864591659111
 30
0.0
 10
392.0548075653397
 20
302.783501303897
 30
0.0
 10
392.0530795373783
 20
295.8706982471485
 30
0.0
  0
SPLINE
  5
6625
330
A
100
AcDbEntity
  8
モデル
100
AcDbSpline
210
0.0
220
0.0
230
1.0
 70
     8
 71
     3
 72
     8
 73
     4
 74
     0
 42
0.000000001
 43
0.0000000001
 40
3.0
 40
3.0
 40
3.0
 40
3.0
 40
4.0
 40
4.0
 40
4.0
 40
4.0
 10
392.0530795373783
 20
295.8706982471485
 30
0.0
 10
392.051351509417
 20
288.9575495848077
 30
0.0
 10
397.6539637658387
 20
283.3521724836477
 30
0.0
 10
404.5667668225873
 20
283.350098850094
 30
0.0
  0
LINE
  5
6626
330
A
100
AcDbEntity
  8
モデル
100
AcDbLine
 10
408.551944907147
 20
269.781623297252
 30
0.0
 11
408.551944907147
 21
267.2970646943641
 31
0.0
  0
LINE
  5
6627
102
{ACAD_REACTORS
330
6825
102
}
330
A
100
AcDbEntity
  8
モデル
100
AcDbLine
 10
408.551944907147
 20
267.2970646943641
 30
0.0
 11
414.6034988279383
 21
267.2970646943641
 31
0.0
  0
LINE
  5
6628
330
A
100
AcDbEntity
  8
モデル
100
AcDbLine
 10
414.6034988279383
 20
267.2970646943641
 30
0.0
 11
414.6034988279383
 21
269.781623297252
 31
0.0
  0
LINE
  5
6629
102
{ACAD_REACTORS
330
6825
102
}
330
A
100
AcDbEntity
  8
モデル
100
AcDbLine
 10
414.6034988279383
 20
269.781623297252
 30
0.0
 11
408.551944907147
 21
269.781623297252
 31
0.0
  0
LINE
  5
662A
102
{ACAD_REACTORS
330
6825
102
}
330
A
100
AcDbEntity
  8
モデル
100
AcDbLine
 10
414.6034988279383
 20
269.781623297252
 30
0.0
 11
414.6034988279383
 21
288.3188704502776
 31
0.0
  0
LINE
  5
662B
102
{ACAD_REACTORS
330
6825
102
}
330
A
100
AcDbEntity
  8
モデル
100
AcDbLine
 10
414.6034988279383
 20
303.4163051433584
 30
0.0
 11
414.6034988279383
 21
366.0989642176509
 31
0.0
  0
LINE
  5
662C
102
{ACAD_REACTORS
330
66D1
330
6825
102
}
330
A
100
AcDbEntity
  8
モデル
100
AcDbLine
 10
414.6034988279383
 20
366.0989642176509
 30
0.0
 11
408.551944907147
 21
366.0989642176509
 31
0.0
  0
LINE
  5
662D
102
{ACAD_REACTORS
330
6825
102
}
330
A
100
AcDbEntity
  8
モデル
100
AcDbLine
 10
408.551944907147
 20
269.781623297252
 30
0.0
 11
408.551944907147
 21
283.9870499566627
 31
0.0
  0
LINE
  5
662E
102
{ACAD_REACTORS
330
66D1
330
6825
102
}
330
A
100
AcDbEntity
  8
モデル
100
AcDbLine
 10
408.551944907147
 20
307.7481256369732
 30
0.0
 11
408.551944907147
 21
366.0989642176509
 31
0.0
  0
DIMENSION
  5
6645
102
{ACAD_REACTORS
330
6647
102
}
102
{ACAD_XDICTIONARY
360
6646
102
}
330
A
100
AcDbEntity
  8
寸法
100
AcDbDimension
  2
*D19
 10
224.4796236805557
 20
273.7543247923055
 30
0.0
 11
219.9796236805557
 21
307.6119222454313
 31
0.0
 70
    32
  1
67
 71
     5
 42
67.71519490625161
 73
     0
 74
     0
 75
     0
  3
tfrom線あり
100
AcDbAlignedDimension
 13
200.40542246762
 23
341.4695196985571
 33
0.0
 14
186.3275242717601
 24
273.7543247923055
 34
0.0
 50
90.0
100
AcDbRotatedDimension
1001
ACAD
1000
DSTYLE
1002
{
1070
   144
1040
1.0
1002
}
  0
DIMENSION
  5
6654
102
{ACAD_REACTORS
330
6656
102
}
102
{ACAD_XDICTIONARY
360
6655
102
}
330
A
100
AcDbEntity
  8
寸法
100
AcDbDimension
  2
*D20
 10
119.9835728372091
 20
335.2266730824399
 30
0.0
 11
119.9835728372091
 21
338.2266730824399
 31
0.0
 70
   160
 71
     5
 42
6.24284661611722
 73
     0
 74
     0
 75
     0
  3
tfrom線あり
100
AcDbAlignedDimension
 13
147.2143025768597
 23
341.4695196985571
 33
0.0
 14
147.2143025768597
 24
335.2266730824399
 34
0.0
 50
90.0
100
AcDbRotatedDimension
1001
ACAD
1000
DSTYLE
1002
{
1070
   144
1040
1.0
1002
}
  0
DIMENSION
  5
6664
102
{ACAD_REACTORS
330
6666
102
}
102
{ACAD_XDICTIONARY
360
6665
102
}
330
A
100
AcDbEntity
  8
寸法
100
AcDbDimension
  2
*D21
 10
119.9835728372091
 20
273.7543247923055
 30
0.0
 11
115.4835728372091
 21
303.8216657149163
 31
0.0
 70
    32
 71
     5
 42
60.13468184522156
 73
     0
 74
     0
 75
     0
  3
tfrom線あり
100
AcDbAlignedDimension
 13
161.2289549493329
 23
333.8890066375271
 33
0.0
 14
161.2289549493329
 24
273.7543247923055
 34
0.0
 50
90.0
100
AcDbRotatedDimension
1001
ACAD
1000
DSTYLE
1002
{
1070
   144
1040
1.0
1002
}
  0
DIMENSION
  5
6682
102
{ACAD_REACTORS
330
6684
102
}
102
{ACAD_XDICTIONARY
360
6683
102
}
330
A
100
AcDbEntity
  8
寸法
100
AcDbDimension
  2
*D23
 10
206.0288011287794
 20
301.8468753606387
 30
0.0
 11
201.5288011287794
 21
289.8071861452393
 31
0.0
 70
    32
 71
     5
 42
24.07937843079878
 73
     0
 74
     0
 75
     0
  3
tfrom線あり
100
AcDbAlignedDimension
 13
186.3275242717601
 23
277.7674969298399
 33
0.0
 14
186.3275242717601
 24
301.8468753606387
 34
0.0
 50
90.0
100
AcDbRotatedDimension
1001
ACAD
1000
DSTYLE
1002
{
1070
   144
1040
1.0
1002
}
  0
DIMENSION
  5
66BD
330
A
100
AcDbEntity
  8
寸法
100
AcDbDimension
  2
*D26
 10
361.1971177447479
 20
269.2712996263153
 30
0.0
 11
356.6971177447479
 21
295.8675860319927
 31
0.0
 70
    32
 71
     5
 42
53.19257281135475
 73
     0
 74
     0
 75
     0
  3
tfrom線あり
100
AcDbAlignedDimension
 13
404.5718763736536
 23
322.46387243767
 33
0.0
 14
404.5679230102609
 24
269.2712996263153
 34
0.0
 50
90.0
100
AcDbRotatedDimension
1001
ACAD
1000
DSTYLE
1002
{
1070
   144
1040
1.0
1002
}
  0
DIMENSION
  5
66CF
102
{ACAD_REACTORS
330
66D1
102
}
102
{ACAD_XDICTIONARY
360
66D0
102
}
330
A
100
AcDbEntity
  8
寸法
100
AcDbDimension
  2
*D27
 10
408.551944907147
 20
381.0950177721326
 30
0.0
 11
411.5777218675427
 21
381.0950177721326
 31
0.0
 70
   160
 71
     5
 42
6.051553920791321
 73
     0
 74
     0
 75
     0
  3
tfrom線あり
100
AcDbAlignedDimension
 13
414.6034988279383
 23
366.0989642176509
 33
0.0
 14
408.551944907147
 24
366.0989642176509
 34
0.0
100
AcDbRotatedDimension
1001
ACAD
1000
DSTYLE
1002
{
1070
   144
1040
1.0
1002
}
  0
DIMENSION
  5
66E2
330
A
100
AcDbEntity
  8
寸法
100
AcDbDimension
  2
*D28
 10
192.8098625222397
 20
361.2202187436891
 30
0.0
 11
173.8098625222397
 21
361.2202187436891
 31
0.0
 70
   160
 71
     5
 42
38.0
 73
     0
 74
     0
 75
     0
  3
tfrom線あり
100
AcDbAlignedDimension
 13
154.8098625222397
 23
344.5738378941036
 33
0.0
 14
192.8098625222397
 24
344.5738378941036
 34
0.0
100
AcDbRotatedDimension
  0
LINE
  5
66E3
330
A
100
AcDbEntity
  8
寸法
  6
CENTER
 48
0.5
100
AcDbLine
 10
192.8098625222397
 20
344.5738378941036
 30
0.0
 11
192.8098625222397
 21
338.5116591651111
 31
0.0
  0
LINE
  5
66E4
330
A
100
AcDbEntity
  8
寸法
  6
CENTER
 48
0.5
100
AcDbLine
 10
154.8098625222397
 20
344.5738378941036
 30
0.0
 11
154.8098625222397
 21
338.5116591651111
 31
0.0
  0
DIMENSION
  5
6703
102
{ACAD_REACTORS
330
6705
102
}
102
{ACAD_XDICTIONARY
360
6704
102
}
330
A
100
AcDbEntity
  8
寸法
100
AcDbDimension
  2
*D30
 10
224.4796236805557
 20
141.6437347983089
 30
0.0
 11
219.9796236805557
 21
149.6702518761738
 31
0.0
 70
    32
 71
     5
 42
16.05303415572993
 73
     0
 74
     0
 75
     0
  3
tfrom線あり
100
AcDbAlignedDimension
 13
203.572525638204
 23
157.6967689540388
 33
0.0
 14
179.684267099935
 24
141.6437347983089
 34
0.0
 50
90.0
100
AcDbRotatedDimension
1001
ACAD
1000
DSTYLE
1002
{
1070
   144
1040
1.0
1002
}
  0
DIMENSION
  5
6715
102
{ACAD_REACTORS
330
6717
102
}
102
{ACAD_XDICTIONARY
360
6716
102
}
330
A
100
AcDbEntity
  8
寸法
100
AcDbDimension
  2
*D31
 10
224.4796236805557
 20
182.7317468474868
 30
0.0
 11
219.9796236805557
 21
170.2142579007628
 31
0.0
 70
    32
 71
     5
 42
25.034977893448
 73
     0
 74
     0
 75
     0
  3
tfrom線あり
100
AcDbAlignedDimension
 13
203.572525638204
 23
157.6967689540388
 33
0.0
 14
203.572525638204
 24
182.7317468474868
 34
0.0
 50
90.0
100
AcDbRotatedDimension
1001
ACAD
1000
DSTYLE
1002
{
1070
   144
1040
1.0
1002
}
  0
LINE
  5
672D
330
A
100
AcDbEntity
  8
モデル
  6
HIDDEN
 48
2.0
100
AcDbLine
 10
175.4798022670747
 20
182.7317468474868
 30
0.0
 11
175.4798022670747
 21
157.6967689540388
 31
0.0
  0
LINE
  5
6731
330
A
100
AcDbEntity
  8
モデル
  6
HIDDEN
 48
2.0
100
AcDbLine
 10
199.5590078950773
 20
182.7317468474868
 30
0.0
 11
199.5590078950773
 21
157.6967689540388
 31
0.0
  0
HATCH
  5
673A
330
A
100
AcDbEntity
  8
CutoutOverlay
100
AcDbHatch
 10
0.0
 20
0.0
 30
0.0
210
0.0
220
0.0
230
1.0
  2
ANSI31
 70
     0
 71
     1
 91
        3
 92
        1
 93
        1
 72
     2
 10
385.5698772729179
 20
170.2142579007628
 40
4.0
 50
0.0
 51
360.0
 73
     1
 97
        1
330
673C
 92
        1
 93
        1
 72
     2
 10
404.5698772729179
 20
170.2142579007628
 40
15.0
 50
0.0
 51
360.0
 73
     1
 97
        1
330
673E
 92
        1
 93
        1
 72
     2
 10
423.5698772729179
 20
170.2142579007628
 40
4.0
 50
0.0
 51
360.0
 73
     1
 97
        1
330
673B
 75
     0
 76
     1
 52
0.0
 41
1.0
 77
     0
 78
     1
 53
45.0
 43
-4.302247238636824
 44
-10.64858901927508
 45
-2.245064030267288
 46
2.245064030267288
 79
     0
 98
        1
 10
-4.302247238636824
 20
-10.64858901927508
1001
ACAD
1010
0.0
1020
0.0
1030
0.0
  0
CIRCLE
  5
673B
102
{ACAD_REACTORS
330
673A
102
}
330
A
100
AcDbEntity
  8
CutoutOverlay
100
AcDbCircle
 10
423.5698772729179
 20
170.2142579007628
 30
0.0
 40
4.0
  0
CIRCLE
  5
673C
102
{ACAD_REACTORS
330
673A
102
}
330
A
100
AcDbEntity
  8
CutoutOverlay
100
AcDbCircle
 10
385.5698772729179
 20
170.2142579007628
 30
0.0
 40
4.0
  0
DIMENSION
  5
673D
330
A
100
AcDbEntity
  8
寸法
100
AcDbDimension
  2
*D32
 10
385.5698772729179
 20
133.9087115942216
 30
0.0
 11
376.5748772729179
 21
133.9087115942216
 31
0.0
 70
   160
  1
ø8
 71
     5
 42
38.0
 73
     0
 74
     1
 75
     1
  3
tfrom線あり
100
AcDbAlignedDimension
 13
423.5698772729179
 23
166.696619175914
 33
0.0
 14
385.5698772729179
 24
166.696619175914
 34
0.0
100
AcDbRotatedDimension
1001
ACAD
1000
DSTYLE
1002
{
1070
    42
1040
0.0
1070
    73
1070
     0
1070
   147
1040
2.0
1070
   172
1070
     1
1002
}
  0
CIRCLE
  5
673E
102
{ACAD_REACTORS
330
6743
330
673A
102
}
330
A
100
AcDbEntity
  8
CutoutOverlay
100
AcDbCircle
 10
404.5698772729179
 20
170.2142579007628
 30
0.0
 40
15.0
  0
DIMENSION
  5
673F
330
A
100
AcDbEntity
  8
寸法
100
AcDbDimension
  2
*D33
 10
404.5698772729179
 20
203.153744514829
 30
0.0
 11
395.1054122437584
 21
207.653744514829
 31
0.0
 70
    32
 71
     5
 42
18.928930058319
 73
     0
 74
     0
 75
     0
  3
tfrom線あり
100
AcDbAlignedDimension
 13
385.6409472145989
 23
182.8733691217192
 33
0.0
 14
404.5698772729179
 24
191.2102351618937
 34
0.0
100
AcDbRotatedDimension
  0
DIMENSION
  5
6740
330
A
100
AcDbEntity
  8
寸法
100
AcDbDimension
  2
*D34
 10
423.6409472145989
 20
203.153744514829
 30
0.0
 11
414.1054122437584
 21
207.653744514829
 31
0.0
 70
    32
 71
     5
 42
19.071069941681
 73
     0
 74
     0
 75
     0
  3
tfrom線あり
100
AcDbAlignedDimension
 13
404.5698772729179
 23
191.2102351618937
 33
0.0
 14
423.6409472145989
 24
182.8733691217192
 34
0.0
100
AcDbRotatedDimension
  0
LEADER
  5
6741
102
{ACAD_REACTORS
330
6743
102
}
102
{ACAD_XDICTIONARY
360
6742
102
}
330
A
100
AcDbEntity
  8
寸法
100
AcDbLeader
  3
tfrom線あり
 76
     3
 10
404.5698772729179
 20
185.2142579007628
 30
0.0
 10
404.5698772729179
 20
190.0851862689515
 30
0.0
 10
443.6508598109058
 20
190.0851862689515
 30
0.0
1001
ACAD
1000
DSTYLE
1002
{
1070
   341
1005
4163
1002
}
  0
TEXT
  5
6744
330
A
100
AcDbEntity
  8
寸法
100
AcDbText
 10
433.767307877654
 20
192.3940606964277
 30
0.0
 40
5.0
  1
ø30
  7
ＭＳ ゴシック
100
AcDbText
  0
TEXT
  5
6745
330
A
100
AcDbEntity
  8
寸法
100
AcDbText
 10
350.3037428411541
 20
217.8185405845259
 30
0.0
 40
5.0
  1
<切欠図>
  7
ＭＳ ゴシック
100
AcDbText
  0
LEADER
  5
6746
102
{ACAD_XDICTIONARY
360
6747
102
}
330
A
100
AcDbEntity
  8
寸法
100
AcDbLeader
  3
tfrom線あり
 76
     3
 10
404.5698772729179
 20
170.2142579007628
 30
0.0
 10
437.8507641744709
 20
145.9183604295453
 30
0.0
 10
505.8060427020794
 20
145.9183604295453
 30
0.0
  0
TEXT
  5
6748
330
A
100
AcDbEntity
  8
寸法
100
AcDbText
 10
439.4317012440938
 20
148.5538133792408
 30
0.0
 40
5.0
  1
レバー角芯 センター
  7
ＭＳ ゴシック
100
AcDbText
  0
DIMENSION
  5
6775
330
A
100
AcDbEntity
  8
寸法
100
AcDbDimension
  2
*D35
 10
453.3276480621792
 20
267.5989642176509
 30
0.0
 11
448.8276480621792
 21
316.8489642176509
 31
0.0
 70
    32
  1
98
 71
     5
 42
98.5
 73
     0
 74
     0
 75
     0
  3
tfrom線あり
100
AcDbAlignedDimension
 13
414.6034988279383
 23
366.0989642176509
 33
0.0
 14
414.6034988279383
 24
267.5989642176509
 34
0.0
 50
90.0
100
AcDbRotatedDimension
1001
ACAD
1000
DSTYLE
1002
{
1070
   271
1070
     1
1070
   144
1040
1.0
1002
}
  0
LINE
  5
6804
330
A
100
AcDbEntity
  8
寸法
  6
CENTER
100
AcDbLine
 10
156.7032490126384
 20
317.7748719463647
 30
0.0
 11
138.3988827767152
 21
317.7748719463647
 31
0.0
  0
LINE
  5
6805
330
A
100
AcDbEntity
  8
モデル
100
AcDbLine
 10
136.3567431812993
 20
317.7748719463647
 30
0.0
 11
134.6098530563053
 21
320.3159918377674
 31
0.0
  0
LINE
  5
6806
330
A
100
AcDbEntity
  8
モデル
100
AcDbLine
 10
134.6098530563053
 20
320.3159918377674
 30
0.0
 11
134.6098530563053
 21
317.7748719463647
 31
0.0
  0
LINE
  5
6807
330
A
100
AcDbEntity
  8
モデル
100
AcDbLine
 10
134.6098530563053
 20
320.3159918377674
 30
0.0
 11
128.9323114091161
 21
320.3159918377674
 31
0.0
  0
LINE
  5
6808
330
A
100
AcDbEntity
  8
モデル
100
AcDbLine
 10
128.9323114091161
 20
320.3159918377674
 30
0.0
 11
128.9323114091161
 21
317.7748719463647
 31
0.0
  0
LINE
  5
6809
330
A
100
AcDbEntity
  8
モデル
100
AcDbLine
 10
136.3567431812993
 20
317.7748719463647
 30
0.0
 11
134.6098530563053
 21
315.2337520549632
 31
0.0
  0
LINE
  5
680A
330
A
100
AcDbEntity
  8
モデル
100
AcDbLine
 10
134.6098530563053
 20
315.2337520549632
 30
0.0
 11
134.6098530563053
 21
317.7748719463647
 31
0.0
  0
LINE
  5
680B
330
A
100
AcDbEntity
  8
モデル
100
AcDbLine
 10
134.6098530563053
 20
315.2337520549632
 30
0.0
 11
128.9323114091161
 21
315.2337520549632
 31
0.0
  0
LINE
  5
680C
330
A
100
AcDbEntity
  8
モデル
100
AcDbLine
 10
128.9323114091161
 20
315.2337520549632
 30
0.0
 11
128.9323114091161
 21
317.7748719463647
 31
0.0
  0
LINE
  5
680D
330
A
100
AcDbEntity
  8
モデル
100
AcDbLine
 10
134.6098530563053
 20
320.3159918377674
 30
0.0
 11
133.6224803769604
 21
315.2337520549632
 31
0.0
  0
LINE
  5
680E
330
A
100
AcDbEntity
  8
モデル
100
AcDbLine
 10
133.3186733987003
 20
320.3159918377674
 30
0.0
 11
132.3313007193555
 21
315.2337520549632
 31
0.0
  0
LINE
  5
680F
330
A
100
AcDbEntity
  8
モデル
100
AcDbLine
 10
131.9515419965313
 20
320.3159918377674
 30
0.0
 11
130.9641693171864
 21
315.2337520549632
 31
0.0
  0
LINE
  5
6810
330
A
100
AcDbEntity
  8
モデル
100
AcDbLine
 10
130.5084588497965
 20
320.3159918377674
 30
0.0
 11
129.5210861704512
 21
315.2337520549632
 31
0.0
  0
LINE
  5
6811
330
A
100
AcDbEntity
  8
モデル
100
AcDbLine
 10
129.1413274476262
 20
320.3159918377674
 30
0.0
 11
128.9323114091161
 21
319.2401370481979
 31
0.0
  0
LINE
  5
6826
102
{ACAD_REACTORS
330
682D
102
}
330
A
100
AcDbEntity
  8
モデル
  6
HIDDEN
 48
2.0
100
AcDbLine
 10
424.4197624217092
 20
274.9364217382531
 30
0.0
 11
429.3435658474242
 21
278.454583855206
 31
0.0
  0
LINE
  5
6827
102
{ACAD_REACTORS
330
682D
102
}
330
A
100
AcDbEntity
  8
モデル
  6
HIDDEN
 48
2.0
100
AcDbLine
 10
427.8991302415548
 20
280.4761271349012
 30
0.0
 11
422.9753268158398
 21
276.9579650179484
 31
0.0
  0
LINE
  5
6828
102
{ACAD_REACTORS
330
682D
102
}
330
A
100
AcDbEntity
  8
モデル
  6
HIDDEN
 48
2.0
100
AcDbLine
 10
427.8991302415548
 20
280.4761271349012
 30
0.0
 11
417.1222221052329
 21
295.5588252699708
 31
0.0
  0
LINE
  5
6829
102
{ACAD_REACTORS
330
682D
102
}
330
A
100
AcDbEntity
  8
モデル
  6
HIDDEN
 48
2.0
100
AcDbLine
 10
408.3451008078619
 20
307.842744678819
 30
0.0
 11
371.9035918282626
 21
358.8440404654337
 31
0.0
  0
LINE
  5
682A
102
{ACAD_REACTORS
330
66D1
330
682D
102
}
330
A
100
AcDbEntity
  8
モデル
  6
HIDDEN
 48
2.0
100
AcDbLine
 10
371.9035918282626
 20
358.8440404654337
 30
0.0
 11
366.9797884025476
 21
355.325878348481
 31
0.0
  0
LINE
  5
682B
102
{ACAD_REACTORS
330
682D
102
}
330
A
100
AcDbEntity
  8
モデル
  6
HIDDEN
 48
2.0
100
AcDbLine
 10
422.9753268158398
 20
276.9579650179484
 30
0.0
 11
414.7167878385063
 21
288.5161084906588
 31
0.0
  0
LINE
  5
682C
102
{ACAD_REACTORS
330
66D1
330
682D
102
}
330
A
100
AcDbEntity
  8
モデル
  6
HIDDEN
 48
2.0
100
AcDbLine
 10
400.9029282231586
 20
307.8491372242254
 30
0.0
 11
366.9797884025476
 21
355.325878348481
 31
0.0
  0
LINE
  5
6834
330
A
100
AcDbEntity
  8
モデル
100
AcDbLine
 10
427.8991302415548
 20
280.4761271349012
 30
0.0
 11
429.3435658474242
 21
278.454583855206
 31
0.0
  0
LINE
  5
6835
330
A
100
AcDbEntity
  8
モデル
100
AcDbLine
 10
424.4197624217092
 20
274.9364217382531
 30
0.0
 11
422.9753268158398
 21
276.9579650179484
 31
0.0
  0
ARC
  5
684F
102
{ACAD_REACTORS
330
6852
102
}
330
A
100
AcDbEntity
  8
モデル
100
AcDbCircle
 10
398.7004271727919
 20
333.5819211003725
 30
0.0
 40
38.79307813882183
100
AcDbArc
 50
89.75617711347014
 51
123.1268721715979
  0
LINE
  5
6850
102
{ACAD_REACTORS
330
6852
102
}
330
A
100
AcDbEntity
  8
モデル
100
AcDbLine
 10
377.5002117866601
 20
366.0696692381914
 30
0.0
 11
379.9917424208086
 21
370.3958139800279
 31
0.0
  0
LINE
  5
6851
102
{ACAD_REACTORS
330
6852
102
}
330
A
100
AcDbEntity
  8
モデル
100
AcDbLine
 10
377.5002117866601
 20
366.0696692381914
 30
0.0
 11
382.3829563669323
 21
365.7072468221145
 31
0.0
  0
TEXT
  5
6914
330
A
100
AcDbEntity
  8
テンプレート
100
AcDbText
 10
19.21652278733427
 20
93.26039237181966
 30
0.0
 40
5.0
  1
※ MIWAケース(レバーハンドル用)空錠専用になります。
  7
ＭＳ ゴシック
100
AcDbText
  0
TEXT
  5
6915
330
A
100
AcDbEntity
  8
テンプレート
100
AcDbText
 10
19.21652278733427
 20
83.64545319373748
 30
0.0
 40
5.0
  1
※ 一般片開き扉の場合、戸当り枠とレバーハンドルが千渉することや操作性のため
  7
ＭＳ ゴシック
100
AcDbText
  0
TEXT
  5
6916
330
A
100
AcDbEntity
  8
テンプレート
100
AcDbText
 10
19.21652278733427
 20
74.63144771428543
 30
0.0
 40
5.0
  1
　 MIWAケースバックセット64ミリのケースをご使用ください。
  7
ＭＳ ゴシック
100
AcDbText
  0
TEXT
  5
6917
330
A
100
AcDbEntity
  8
テンプレート
100
AcDbText
 10
19.20652475292337
 20
65.80255986069639
 30
0.0
 40
5.0
  1
※ 用途によって別途本締錠をご使用ください。
  7
ＭＳ ゴシック
100
AcDbText
  0
VIEWPORT
  5
349
330
B
100
AcDbEntity
 67
     1
  8
0
100
AcDbViewport
 10
202.5
 20
128.5
 30
0.0
 40
486.0
 41
308.4
 68
     1
 69
     1
 12
202.5
 22
128.5
 13
0.0
 23
0.0
 14
0.5
 24
0.5
 15
0.0
 25
0.0
 16
0.0
 26
0.0
 36
1.0
 17
0.0
 27
0.0
 37
0.0
 42
50.0
 43
0.0
 44
0.0
 45
308.4
 50
0.0
 51
0.0
 72
   100
 90
   557152
  1

281
     0
 71
     1
 74
     0
110
0.0
120
0.0
130
0.0
111
1.0
121
0.0
131
0.0
112
0.0
122
1.0
132
0.0
 79
     0
146
0.0
170
     0
 61
     5
348
26C
292
     1
282
     1
141
0.0
142
0.0
 63
   256
  0
VIEWPORT
  5
34A
330
B
100
AcDbEntity
 67
     1
  8
0
100
AcDbViewport
 10
202.5
 20
128.5
 30
0.0
 40
324.0
 41
205.6
 68
     2
 69
     2
 12
986.6781359294573
 22
1427.077061889956
 13
0.0
 23
0.0
 14
0.5
 24
0.5
 15
0.0
 25
0.0
 16
0.0
 26
0.0
 36
1.0
 17
0.0
 27
0.0
 37
0.0
 42
50.0
 43
0.0
 44
0.0
 45
2890.021615685494
 50
0.0
 51
0.0
 72
   100
 90
   557152
  1

281
     0
 71
     1
 74
     0
110
0.0
120
0.0
130
0.0
111
1.0
121
0.0
131
0.0
112
0.0
122
1.0
132
0.0
 79
     0
146
0.0
170
     0
 61
     5
348
26C
292
     1
282
     1
141
0.0
142
0.0
 63
   256
  0
ENDSEC
  0
SECTION
  2
OBJECTS
  0
DICTIONARY
  5
19
330
0
100
AcDbDictionary
281
     1
  3
ACAD_COLOR
350
674
  3
ACAD_DETAILVIEWSTYLE
350
12F4
  3
ACAD_FIELDLIST
350
565D
  3
ACAD_GROUP
350
1A
  3
ACAD_IMAGE_VARS
350
27B
  3
ACAD_LAYOUT
350
1E
  3
ACAD_MATERIAL
350
263
  3
ACAD_MLEADERSTYLE
350
336
  3
ACAD_MLINESTYLE
350
1B
  3
ACAD_PLOTSETTINGS
350
22
  3
ACAD_PLOTSTYLENAME
350
1F
  3
ACAD_SCALELIST
350
241
  3
ACAD_SECTIONVIEWSTYLE
350
12F5
  3
ACAD_TABLESTYLE
350
278
  3
ACAD_VISUALSTYLE
350
267
  3
ACDB_RECOMPOSE_DATA
350
693B
  3
AcDbVariableDictionary
350
330
  3
AcStStandard
350
12B9
  3
APPDATA
350
27A
  3
DimOffsetDictionary
350
5454
  0
SUN
  5
10E8
330
15
100
AcDbSun
 90
        1
290
     0
 63
     7
421
 16777215
 40
1.0
291
     1
 91
  2455826
 92
 54000000
292
     0
 70
     2
 71
   256
280
     1
  0
DICTIONARY
  5
2E1
330
2
100
AcDbDictionary
280
     1
281
     1
  3
ACAD_LAYERSTATES
360
2E2
  3
ACLYDICTIONARY
360
67B4
  0
DICTIONARY
  5
5382
330
A
100
AcDbDictionary
280
     1
281
     1
  3
ACAD_SORTENTS
360
5383
  0
DICTIONARY
  5
5FD0
330
5FCF
100
AcDbDictionary
280
     1
281
     1
  3
ACAD_FIELD
360
5FD1
  0
DICTIONARY
  5
6646
330
6645
100
AcDbDictionary
280
     1
281
     1
  3
ACAD_DIMASSOC
360
6647
  0
DICTIONARY
  5
6655
330
6654
100
AcDbDictionary
280
     1
281
     1
  3
ACAD_DIMASSOC
360
6656
  0
DICTIONARY
  5
6665
330
6664
100
AcDbDictionary
280
     1
281
     1
  3
ACAD_DIMASSOC
360
6666
  0
DICTIONARY
  5
6683
330
6682
100
AcDbDictionary
280
     1
281
     1
  3
ACAD_DIMASSOC
360
6684
  0
DICTIONARY
  5
66D0
330
66CF
100
AcDbDictionary
280
     1
281
     1
  3
ACAD_DIMASSOC
360
66D1
  0
DICTIONARY
  5
6704
330
6703
100
AcDbDictionary
280
     1
281
     1
  3
ACAD_DIMASSOC
360
6705
  0
DICTIONARY
  5
6716
330
6715
100
AcDbDictionary
280
     1
281
     1
  3
ACAD_DIMASSOC
360
6717
  0
DICTIONARY
  5
6742
330
6741
100
AcDbDictionary
280
     1
281
     1
  3
ACAD_DIMASSOC
360
6743
  0
DICTIONARY
  5
6747
330
6746
100
AcDbDictionary
280
     1
281
     1
  0
DICTIONARY
  5
674
102
{ACAD_REACTORS
330
19
102
}
330
19
100
AcDbDictionary
281
     1
  0
DICTIONARY
  5
12F4
102
{ACAD_REACTORS
330
19
102
}
330
19
100
AcDbDictionary
281
     1
  0
FIELDLIST
  5
565D
102
{ACAD_REACTORS
330
19
102
}
330
19
100
AcDbIdSet
 90
        1
330
5FD2
100
AcDbFieldList
  0
DICTIONARY
  5
1A
102
{ACAD_REACTORS
330
19
102
}
330
19
100
AcDbDictionary
281
     1
  3
*A1
350
662F
  3
*A2
350
6825
  3
*A3
350
682D
  3
*A4
350
6852
  0
RASTERVARIABLES
  5
27B
102
{ACAD_REACTORS
330
19
102
}
330
19
100
AcDbRasterVariables
 90
        0
 70
     1
 71
     1
 72
     1
  0
DICTIONARY
  5
1E
102
{ACAD_REACTORS
330
19
102
}
330
19
100
AcDbDictionary
281
     1
  3
Layout1
350
21
  3
Layout2
350
12C4
  3
Model
350
20
  0
DICTIONARY
  5
263
102
{ACAD_REACTORS
330
19
102
}
330
19
100
AcDbDictionary
281
     1
  3
ByBlock
350
385B
  3
ByLayer
350
264
  3
Global
350
266
  0
DICTIONARY
  5
336
102
{ACAD_REACTORS
330
19
102
}
330
19
100
AcDbDictionary
281
     1
  3
Standard
350
4124
  0
DICTIONARY
  5
1B
102
{ACAD_REACTORS
330
19
102
}
330
19
100
AcDbDictionary
281
     1
  3
Standard
350
1C
  0
DICTIONARY
  5
22
102
{ACAD_REACTORS
330
19
102
}
330
19
100
AcDbDictionary
281
     1
  0
ACDBDICTIONARYWDFLT
  5
1F
102
{ACAD_REACTORS
330
19
102
}
330
19
100
AcDbDictionary
281
     1
  3
Normal
350
1D
100
AcDbDictionaryWithDefault
340
1D
  0
DICTIONARY
  5
241
102
{ACAD_REACTORS
330
19
102
}
330
19
100
AcDbDictionary
281
     1
  3
A0
350
242
  3
A1
350
243
  3
A2
350
244
  3
A3
350
245
  3
A4
350
246
  3
A5
350
247
  3
A6
350
248
  3
A7
350
249
  3
A8
350
24A
  3
A9
350
24B
  3
B0
350
24C
  3
B1
350
24D
  3
B2
350
24E
  3
B3
350
24F
  3
B4
350
250
  3
B5
350
251
  3
B6
350
252
  3
B7
350
253
  3
B8
350
254
  3
B9
350
255
  3
C0
350
256
  3
C1
350
257
  3
C2
350
258
  3
C3
350
259
  3
C4
350
25A
  3
C5
350
25B
  3
C6
350
25C
  3
C7
350
25D
  3
C8
350
25E
  3
C9
350
25F
  3
D0
350
260
  3
D1
350
261
  3
D2
350
262
  0
DICTIONARY
  5
12F5
102
{ACAD_REACTORS
330
19
102
}
330
19
100
AcDbDictionary
281
     1
  0
DICTIONARY
  5
278
102
{ACAD_REACTORS
330
19
102
}
330
19
100
AcDbDictionary
281
     1
  3
Standard
350
279
  0
DICTIONARY
  5
267
102
{ACAD_REACTORS
330
19
102
}
330
19
100
AcDbDictionary
281
     1
  3
2dWireframe
350
26C
  3
3D Hidden
350
26E
  3
3dWireframe
350
26D
  3
Basic
350
26F
  3
Brighten
350
273
  3
ColorChange
350
277
  3
Conceptual
350
271
  3
Dim
350
272
  3
EdgeColorOff
350
10E2
  3
Facepattern
350
276
  3
Flat
350
268
  3
FlatWithEdges
350
269
  3
Gouraud
350
26A
  3
GouraudWithEdges
350
26B
  3
Hidden
350
10DF
  3
JitterOff
350
10E0
  3
Linepattern
350
275
  3
OverhangOff
350
10E1
  3
Realistic
350
270
  3
Shaded
350
10E7
  3
Shaded with edges
350
10E6
  3
Shades of Gray
350
10E3
  3
Sketchy
350
10E4
  3
Thicken
350
274
  3
Wireframe
350
10DE
  3
X-Ray
350
10E5
  0
XRECORD
  5
693B
102
{ACAD_REACTORS
330
19
102
}
330
19
100
AcDbXrecord
280
     1
 90
        1
330
279
  0
DICTIONARY
  5
330
102
{ACAD_REACTORS
330
19
102
}
330
19
100
AcDbDictionary
281
     1
  3
CANNOSCALE
350
331
  3
CMLEADERSTYLE
350
4129
  3
CTABLESTYLE
350
335
  3
HPTRANSPARENCY
350
5453
  3
XCLIPFRAME
350
109E
  0
DICTIONARY
  5
12B9
102
{ACAD_REACTORS
330
19
102
}
330
19
100
AcDbDictionary
281
     1
  0
DICTIONARY
  5
27A
102
{ACAD_REACTORS
330
19
102
}
330
19
100
AcDbDictionary
281
     1
  0
DICTIONARY
  5
5454
102
{ACAD_REACTORS
330
19
102
}
330
19
100
AcDbDictionary
281
     1
  3
DIMRAILANGLE
350
5457
  3
DIMRAILFIRSTOFFSET
350
5455
  3
DIMRAILOFFSET
350
5456
  3
DIMRAILSENABLED
350
5458
  0
DICTIONARY
  5
2E2
102
{ACAD_REACTORS
330
2E1
102
}
330
2E1
100
AcDbDictionary
281
     1
  0
DICTIONARY
  5
67B4
102
{ACAD_REACTORS
330
2E1
102
}
330
2E1
100
AcDbDictionary
281
     1
1001
ACAD
1000
<All
  0
SORTENTSTABLE
  5
5383
102
{ACAD_REACTORS
330
5382
102
}
330
5382
100
AcDbSortentsTable
330
A
331
0
  5
5E3F
331
5FAC
  5
5FBD
331
5FAD
  5
5FBE
331
5FAE
  5
5FBF
331
5FAF
  5
5FC0
331
5FB0
  5
5FC1
331
5FB1
  5
5FC2
331
5FB2
  5
5FC3
331
5FB3
  5
5FC4
331
5FB4
  5
5FC5
331
5FB5
  5
5FC6
331
5FB6
  5
5FC7
331
5FB7
  5
5FC8
331
5FB8
  5
5FC9
331
5FB9
  5
5FCA
331
5FBA
  5
5FCB
331
5FBB
  5
5FCC
331
5FBC
  5
5FCD
331
5FBD
  5
5FCE
331
5FBE
  5
5FCF
331
5FBF
  5
5FD4
331
5FC0
  5
5FD5
331
5FC1
  5
5FD6
331
5FC2
  5
5FD7
331
5FC3
  5
5FD8
331
5FC4
  5
5FD9
331
5FC5
  5
6344
331
5FC6
  5
6345
331
5FC7
  5
6346
331
5FC8
  5
6347
331
5FC9
  5
6348
331
5FCA
  5
6349
331
5FCB
  5
634A
331
5FCC
  5
634B
331
5FCD
  5
634C
331
5FCF
  5
634E
331
5FD6
  5
6351
331
5FD7
  5
6352
331
5FD8
  5
6353
331
5FD9
  5
6354
331
6345
  5
6356
331
6348
  5
6359
331
634B
  5
635C
331
634F
  5
6360
331
6352
  5
6363
331
6355
  5
6366
331
6359
  5
636A
331
635C
  5
636D
331
635F
  5
6370
331
6363
  5
6374
331
6366
  5
6377
331
6369
  5
637A
331
636D
  5
637E
331
6370
  5
6381
331
6373
  5
6384
331
6377
  5
6388
331
637A
  5
638B
331
637D
  5
638E
331
6381
  5
6392
331
6384
  5
6395
331
6387
  5
6398
331
638B
  5
639C
331
638E
  5
639F
331
6391
  5
63A2
331
6395
  5
63A6
331
6398
  5
63A9
331
639B
  5
63AC
331
639F
  5
63B0
331
63A2
  5
63B3
331
63A5
  5
63B6
331
63A9
  5
63BA
331
63AC
  5
63BD
331
63AF
  5
63C0
331
63B3
  5
63C4
331
63B6
  5
63C7
331
63B9
  5
63CA
331
63BD
  5
63CE
331
63C0
  5
63D1
331
63C3
  5
63D4
331
63C7
  5
63D8
331
63CA
  5
63DB
331
63CD
  5
63DE
331
63D1
  5
63E2
331
63D4
  5
63E5
331
63D7
  5
63E8
331
63DB
  5
63EC
331
63DE
  5
63EF
331
63E1
  5
63F2
331
63E5
  5
63F6
331
63E8
  5
63F9
331
63EB
  5
63FC
331
63EF
  5
6400
331
63F2
  5
6403
331
63F5
  5
6406
331
63F9
  5
640A
331
63FC
  5
640D
331
63FF
  5
6410
331
6403
  5
6414
331
6406
  5
6417
331
6409
  5
641A
331
640D
  5
641E
331
6410
  5
6421
331
6413
  5
6424
331
6417
  5
6428
331
641A
  5
642B
331
641D
  5
642E
331
6421
  5
6432
331
6424
  5
6435
331
6427
  5
6438
331
642B
  5
643C
331
642E
  5
643F
331
6431
  5
6442
331
6434
  5
5DEB
331
6435
  5
5DF4
331
6436
  5
5DFD
331
6437
  5
5E06
331
6438
  5
5E0F
331
6439
  5
5E13
331
643A
  5
5E17
331
643B
  5
5E1B
331
643C
  5
5E1F
331
643D
  5
5E23
331
643E
  5
5E27
331
643F
  5
5E28
331
6440
  5
5E29
331
6441
  5
5E2E
331
6442
  5
5E33
331
6443
  5
5E37
331
6444
  5
5E3B
  0
DICTIONARY
  5
5FD1
102
{ACAD_REACTORS
330
5FD0
102
}
330
5FD0
100
AcDbDictionary
280
     1
281
     1
  3
TEXT
360
5FD2
  0
DIMASSOC
  5
6647
102
{ACAD_REACTORS
330
6646
102
}
330
6646
100
AcDbDimAssoc
330
6645
 90
        3
 70
     0
 71
     1
  1
AcDbOsnapPointRef
 72
     1
331
6449
 73
     0
 91
        0
 40
0.0
 10
0.0
 20
0.0
 30
0.0
 75
     0
  1
AcDbOsnapPointRef
 72
    13
331
6456
 73
     0
 91
        0
 40
0.0
 10
0.0
 20
0.0
 30
0.0
 75
     0
  0
DIMASSOC
  5
6656
102
{ACAD_REACTORS
330
6655
102
}
330
6655
100
AcDbDimAssoc
330
6654
 90
        3
 70
     0
 71
     1
  1
AcDbOsnapPointRef
 72
     1
331
6448
 73
     0
 91
        0
 40
0.0
 10
0.0
 20
0.0
 30
0.0
 75
     0
  1
AcDbOsnapPointRef
 72
    13
331
6445
 73
     0
 91
        0
 40
0.0
 10
0.0
 20
0.0
 30
0.0
 75
     0
  0
DIMASSOC
  5
6666
102
{ACAD_REACTORS
330
6665
102
}
330
6665
100
AcDbDimAssoc
330
6664
 90
        3
 70
     0
 71
     1
  1
AcDbOsnapPointRef
 72
     1
331
6455
 73
     0
 91
        0
 40
0.0
 10
0.0
 20
0.0
 30
0.0
 75
     0
  1
AcDbOsnapPointRef
 72
     1
331
6456
 73
     0
 91
        0
 40
0.0
 10
0.0
 20
0.0
 30
0.0
 75
     0
  0
DIMASSOC
  5
6684
102
{ACAD_REACTORS
330
6683
102
}
330
6683
100
AcDbDimAssoc
330
6682
 90
        3
 70
     0
 71
     1
  1
AcDbOsnapPointRef
 72
    13
331
644C
 73
     0
 91
        0
 40
0.0
 10
0.0
 20
0.0
 30
0.0
 75
     0
  1
AcDbOsnapPointRef
 72
     1
331
644B
 73
     0
 91
        0
 40
0.0
 10
0.0
 20
0.0
 30
0.0
 75
     0
  0
DIMASSOC
  5
66D1
102
{ACAD_REACTORS
330
66D0
102
}
330
66D0
100
AcDbDimAssoc
330
66CF
 90
        3
 70
     0
 71
     1
  1
AcDbOsnapPointRef
 72
    13
331
662C
 73
     0
 91
        0
 40
0.0
 10
0.0
 20
0.0
 30
0.0
 75
     0
  1
AcDbOsnapPointRef
 72
     1
331
662E
 73
     0
 91
        0
 40
0.0
 10
0.0
 20
0.0
 30
0.0
 75
     0
  0
DIMASSOC
  5
6705
102
{ACAD_REACTORS
330
6704
102
}
330
6704
100
AcDbDimAssoc
330
6703
 90
        3
 70
     0
 71
     1
  1
AcDbOsnapPointRef
 72
     1
331
647E
 73
     0
 91
        0
 40
0.0
 10
0.0
 20
0.0
 30
0.0
 75
     0
  1
AcDbOsnapPointRef
 72
     1
331
6481
 73
     0
 91
        0
 40
0.0
 10
0.0
 20
0.0
 30
0.0
 75
     0
  0
DIMASSOC
  5
6717
102
{ACAD_REACTORS
330
6716
102
}
330
6716
100
AcDbDimAssoc
330
6715
 90
        3
 70
     0
 71
     1
  1
AcDbOsnapPointRef
 72
     1
331
647E
 73
     0
 91
        0
 40
0.0
 10
0.0
 20
0.0
 30
0.0
 75
     0
  1
AcDbOsnapPointRef
 72
     1
331
647D
 73
     0
 91
        0
 40
0.0
 10
0.0
 20
0.0
 30
0.0
 75
     0
  0
DIMASSOC
  5
6743
102
{ACAD_REACTORS
330
6742
102
}
330
6742
100
AcDbDimAssoc
330
6741
 90
        1
 70
     0
 71
     1
  1
AcDbOsnapPointRef
 72
     5
331
673E
 73
     0
 91
        0
 40
1.570796326794897
 10
0.0
 20
0.0
 30
0.0
 75
     0
  0
GROUP
  5
662F
102
{ACAD_REACTORS
330
1A
102
}
330
1A
100
AcDbGroup
300

 70
     1
 71
     1
340
6434
340
6435
340
6436
340
6437
340
6438
340
6439
340
643A
340
643B
340
643C
340
643D
340
643E
340
643F
340
6440
340
6441
340
6442
340
6443
340
6444
  0
GROUP
  5
6825
102
{ACAD_REACTORS
330
1A
102
}
330
1A
100
AcDbGroup
300

 70
     1
 71
     1
340
662B
340
662E
340
662C
340
662A
340
662D
340
6627
340
6629
  0
GROUP
  5
682D
102
{ACAD_REACTORS
330
1A
102
}
330
1A
100
AcDbGroup
300

 70
     1
 71
     1
340
6826
340
6827
340
6828
340
6829
340
682A
340
682B
340
682C
  0
GROUP
  5
6852
102
{ACAD_REACTORS
330
1A
102
}
330
1A
100
AcDbGroup
300

 70
     1
 71
     1
340
684F
340
6850
340
6851
  0
LAYOUT
  5
21
102
{ACAD_REACTORS
330
1E
102
}
330
1E
100
AcDbPlotSettings
  1

  2
none_device
  4
ISO_A3_(420.00_x_297.00_MM)
  6

 40
7.5
 41
20.0
 42
7.5
 43
20.0
 44
420.0
 45
297.0
 46
0.0
 47
0.0
 48
0.0
 49
0.0
140
0.0
141
0.0
142
1.0
143
1.0
 70
     0
 72
     1
 73
     0
 74
     0
  7

 75
     0
 76
     0
 77
     2
 78
   300
147
1.0
148
0.0
149
0.0
100
AcDbLayout
  1
Layout1
 70
     0
 71
     0
 10
-7.5
 20
-20.0
 11
412.5
 21
277.0
 12
0.0
 22
0.0
 32
0.0
 14
0.0
 24
0.0
 34
0.0
 15
0.0
 25
0.0
 35
0.0
146
0.0
 13
0.0
 23
0.0
 33
0.0
 16
0.0
 26
0.0
 36
0.0
 17
0.0
 27
0.0
 37
0.0
 76
     0
330
B
331
349
  0
LAYOUT
  5
12C4
102
{ACAD_REACTORS
330
1E
102
}
330
1E
100
AcDbPlotSettings
  1

  2
none_device
  4

  6

 40
0.0
 41
0.0
 42
0.0
 43
0.0
 44
0.0
 45
0.0
 46
0.0
 47
0.0
 48
0.0
 49
0.0
140
0.0
141
0.0
142
1.0
143
1.0
 70
   688
 72
     1
 73
     0
 74
     5
  7

 75
    16
 76
     0
 77
     2
 78
   300
147
1.0
148
0.0
149
0.0
100
AcDbLayout
  1
Layout2
 70
     1
 71
     2
 10
0.0
 20
0.0
 11
0.0
 21
0.0
 12
0.0
 22
0.0
 32
0.0
 14
0.0
 24
0.0
 34
0.0
 15
0.0
 25
0.0
 35
0.0
146
0.0
 13
0.0
 23
0.0
 33
0.0
 16
1.0
 26
0.0
 36
0.0
 17
0.0
 27
1.0
 37
0.0
 76
     0
330
12C3
  0
LAYOUT
  5
20
102
{ACAD_REACTORS
330
1E
102
}
330
1E
100
AcDbPlotSettings
  1

  2
none_device
  4
ISO_A3_(420.00_x_297.00_MM)
  6

 40
7.5
 41
20.0
 42
7.5
 43
20.0
 44
420.0
 45
297.0
 46
0.0
 47
0.0
 48
0.0
 49
0.0
140
0.0
141
0.0
142
1.0
143
1.0
 70
  1024
 72
     1
 73
     0
 74
     0
  7

 75
     0
 76
     0
 77
     2
 78
   300
147
1.0
148
0.0
149
0.0
100
AcDbLayout
  1
Model
 70
     0
 71
     1
 10
0.0
 20
0.0
 11
593.9999999999999
 21
420.0
 12
0.0
 22
0.0
 32
0.0
 14
0.0
 24
0.0
 34
0.0
 15
1230.559163789971
 25
699.0348837209305
 35
0.0
146
0.0
 13
0.0
 23
0.0
 33
0.0
 16
0.0
 26
0.0
 36
0.0
 17
0.0
 27
0.0
 37
0.0
 76
     0
330
A
331
15
  0
MATERIAL
  5
385B
102
{ACAD_REACTORS
330
263
102
}
330
263
100
AcDbMaterial
  1
ByBlock
 72
     1
 94
      127
  0
MATERIAL
  5
264
102
{ACAD_REACTORS
330
263
102
}
330
263
100
AcDbMaterial
  1
ByLayer
 72
     1
 94
      127
  0
MATERIAL
  5
266
102
{ACAD_REACTORS
330
263
102
}
330
263
100
AcDbMaterial
  1
Global
 72
     1
 94
      127
  0
MLEADERSTYLE
  5
4124
102
{ACAD_REACTORS
330
336
102
}
330
336
100
AcDbMLeaderStyle
170
     2
171
     1
172
     0
 90
        2
 40
0.0
 41
0.0
173
     1
 91
-1056964608
340
11
 92
       -2
290
     1
 42
2.0
291
     1
 43
8.0
  3
Standard
341
0
 44
4.0
300

342
17
174
     1
178
     6
175
     1
176
     0
 93
-1056964608
 45
4.0
292
     0
297
     0
 46
4.0
343
0
 94
-1056964608
 47
1.0
 49
1.0
140
1.0
293
     1
141
0.0
294
     1
177
     0
142
1.0
295
     0
296
     0
143
3.75
1001
ACAD_MLEADERVER
1070
     2
  0
MLINESTYLE
  5
1C
102
{ACAD_REACTORS
330
1B
102
}
330
1B
100
AcDbMlineStyle
  2
Standard
 70
     0
  3

 62
     0
 51
90.0
 52
90.0
 71
     2
 49
0.5
 62
   256
  6
BYLAYER
 49
-0.5
 62
   256
  6
BYLAYER
  0
ACDBPLACEHOLDER
  5
1D
102
{ACAD_REACTORS
330
1F
102
}
330
1F
  0
SCALE
  5
242
102
{ACAD_REACTORS
330
241
102
}
330
241
100
AcDbScale
 70
     0
300
1:1
140
1.0
141
1.0
290
     1
  0
SCALE
  5
243
102
{ACAD_REACTORS
330
241
102
}
330
241
100
AcDbScale
 70
     0
300
1:2
140
1.0
141
2.0
290
     0
  0
SCALE
  5
244
102
{ACAD_REACTORS
330
241
102
}
330
241
100
AcDbScale
 70
     0
300
1:4
140
1.0
141
4.0
290
     0
  0
SCALE
  5
245
102
{ACAD_REACTORS
330
241
102
}
330
241
100
AcDbScale
 70
     0
300
1:5
140
1.0
141
5.0
290
     0
  0
SCALE
  5
246
102
{ACAD_REACTORS
330
241
102
}
330
241
100
AcDbScale
 70
     0
300
1:8
140
1.0
141
8.0
290
     0
  0
SCALE
  5
247
102
{ACAD_REACTORS
330
241
102
}
330
241
100
AcDbScale
 70
     0
300
1:10
140
1.0
141
10.0
290
     0
  0
SCALE
  5
248
102
{ACAD_REACTORS
330
241
102
}
330
241
100
AcDbScale
 70
     0
300
1:16
140
1.0
141
16.0
290
     0
  0
SCALE
  5
249
102
{ACAD_REACTORS
330
241
102
}
330
241
100
AcDbScale
 70
     0
300
1:20
140
1.0
141
20.0
290
     0
  0
SCALE
  5
24A
102
{ACAD_REACTORS
330
241
102
}
330
241
100
AcDbScale
 70
     0
300
1:30
140
1.0
141
30.0
290
     0
  0
SCALE
  5
24B
102
{ACAD_REACTORS
330
241
102
}
330
241
100
AcDbScale
 70
     0
300
1:40
140
1.0
141
40.0
290
     0
  0
SCALE
  5
24C
102
{ACAD_REACTORS
330
241
102
}
330
241
100
AcDbScale
 70
     0
300
1:50
140
1.0
141
50.0
290
     0
  0
SCALE
  5
24D
102
{ACAD_REACTORS
330
241
102
}
330
241
100
AcDbScale
 70
     0
300
1:100
140
1.0
141
100.0
290
     0
  0
SCALE
  5
24E
102
{ACAD_REACTORS
330
241
102
}
330
241
100
AcDbScale
 70
     0
300
2:1
140
2.0
141
1.0
290
     0
  0
SCALE
  5
24F
102
{ACAD_REACTORS
330
241
102
}
330
241
100
AcDbScale
 70
     0
300
4:1
140
4.0
141
1.0
290
     0
  0
SCALE
  5
250
102
{ACAD_REACTORS
330
241
102
}
330
241
100
AcDbScale
 70
     0
300
8:1
140
8.0
141
1.0
290
     0
  0
SCALE
  5
251
102
{ACAD_REACTORS
330
241
102
}
330
241
100
AcDbScale
 70
     0
300
10:1
140
10.0
141
1.0
290
     0
  0
SCALE
  5
252
102
{ACAD_REACTORS
330
241
102
}
330
241
100
AcDbScale
 70
     0
300
100:1
140
100.0
141
1.0
290
     0
  0
SCALE
  5
253
102
{ACAD_REACTORS
330
241
102
}
330
241
100
AcDbScale
 70
     0
300
1/128" = 1'-0"
140
0.0078125
141
12.0
290
     0
  0
SCALE
  5
254
102
{ACAD_REACTORS
330
241
102
}
330
241
100
AcDbScale
 70
     0
300
1/64" = 1'-0"
140
0.015625
141
12.0
290
     0
  0
SCALE
  5
255
102
{ACAD_REACTORS
330
241
102
}
330
241
100
AcDbScale
 70
     0
300
1/32" = 1'-0"
140
0.03125
141
12.0
290
     0
  0
SCALE
  5
256
102
{ACAD_REACTORS
330
241
102
}
330
241
100
AcDbScale
 70
     0
300
1/16" = 1'-0"
140
0.0625
141
12.0
290
     0
  0
SCALE
  5
257
102
{ACAD_REACTORS
330
241
102
}
330
241
100
AcDbScale
 70
     0
300
3/32" = 1'-0"
140
0.09375
141
12.0
290
     0
  0
SCALE
  5
258
102
{ACAD_REACTORS
330
241
102
}
330
241
100
AcDbScale
 70
     0
300
1/8" = 1'-0"
140
0.125
141
12.0
290
     0
  0
SCALE
  5
259
102
{ACAD_REACTORS
330
241
102
}
330
241
100
AcDbScale
 70
     0
300
3/16" = 1'-0"
140
0.1875
141
12.0
290
     0
  0
SCALE
  5
25A
102
{ACAD_REACTORS
330
241
102
}
330
241
100
AcDbScale
 70
     0
300
1/4" = 1'-0"
140
0.25
141
12.0
290
     0
  0
SCALE
  5
25B
102
{ACAD_REACTORS
330
241
102
}
330
241
100
AcDbScale
 70
     0
300
3/8" = 1'-0"
140
0.375
141
12.0
290
     0
  0
SCALE
  5
25C
102
{ACAD_REACTORS
330
241
102
}
330
241
100
AcDbScale
 70
     0
300
1/2" = 1'-0"
140
0.5
141
12.0
290
     0
  0
SCALE
  5
25D
102
{ACAD_REACTORS
330
241
102
}
330
241
100
AcDbScale
 70
     0
300
3/4" = 1'-0"
140
0.75
141
12.0
290
     0
  0
SCALE
  5
25E
102
{ACAD_REACTORS
330
241
102
}
330
241
100
AcDbScale
 70
     0
300
1" = 1'-0"
140
1.0
141
12.0
290
     0
  0
SCALE
  5
25F
102
{ACAD_REACTORS
330
241
102
}
330
241
100
AcDbScale
 70
     0
300
1-1/2" = 1'-0"
140
1.5
141
12.0
290
     0
  0
SCALE
  5
260
102
{ACAD_REACTORS
330
241
102
}
330
241
100
AcDbScale
 70
     0
300
3" = 1'-0"
140
3.0
141
12.0
290
     0
  0
SCALE
  5
261
102
{ACAD_REACTORS
330
241
102
}
330
241
100
AcDbScale
 70
     0
300
6" = 1'-0"
140
6.0
141
12.0
290
     0
  0
SCALE
  5
262
102
{ACAD_REACTORS
330
241
102
}
330
241
100
AcDbScale
 70
     0
300
1'-0" = 1'-0"
140
12.0
141
12.0
290
     0
  0
TABLESTYLE
  5
279
102
{ACAD_REACTORS
330
278
102
}
102
{ACAD_XDICTIONARY
360
6939
102
}
330
278
100
AcDbTableStyle
  3
Standard
 70
     0
 71
     0
 40
0.06
 41
0.06
280
     0
281
     0
  7
Standard
140
4.5
170
     2
 62
     0
 63
   257
283
     0
 90
        4
 91
        0
  1

274
    -2
284
     1
 64
     0
275
    -2
285
     1
 65
     0
276
    -2
286
     1
 66
     0
277
    -2
287
     1
 67
     0
278
    -2
288
     1
 68
     0
279
    -2
289
     1
 69
     0
  7
Standard
140
6.0
170
     5
 62
     0
 63
   257
283
     0
 90
        4
 91
        0
  1

274
    -2
284
     1
 64
     0
275
    -2
285
     1
 65
     0
276
    -2
286
     1
 66
     0
277
    -2
287
     1
 67
     0
278
    -2
288
     1
 68
     0
279
    -2
289
     1
 69
     0
  7
Standard
140
4.5
170
     5
 62
     0
 63
   257
283
     0
 90
        4
 91
        0
  1

274
    -2
284
     1
 64
     0
275
    -2
285
     1
 65
     0
276
    -2
286
     1
 66
     0
277
    -2
287
     1
 67
     0
278
    -2
288
     1
 68
     0
279
    -2
289
     1
 69
     0
  0
VISUALSTYLE
  5
26C
102
{ACAD_REACTORS
330
267
102
}
330
267
100
AcDbVisualStyle
  2
2dWireframe
 70
     4
 71
     0
 72
     2
 73
     0
 90
        0
 40
-0.6
 41
-30.0
 62
     5
 63
     7
421
 16777215
 74
     1
 91
        4
 64
     7
 65
   257
 75
     1
175
     1
 42
1.0
 92
        0
 66
   257
 43
1.0
 76
     1
 77
     6
 78
     2
 67
     7
 79
     5
170
     0
171
     0
290
     0
174
     0
 93
        1
 44
0.0
173
     0
291
     0
 45
0.0
  0
VISUALSTYLE
  5
26E
102
{ACAD_REACTORS
330
267
102
}
330
267
100
AcDbVisualStyle
  2
3D Hidden
 70
     6
 71
     1
 72
     2
 73
     2
 90
        0
 40
-0.6
 41
-30.0
 62
     5
 63
     7
421
 16777215
 74
     2
 91
        2
 64
     7
 65
   257
 75
     2
175
     1
 42
40.0
 92
        0
 66
   257
 43
1.0
 76
     1
 77
     6
 78
     2
 67
     7
 79
     3
170
     0
171
     0
290
     0
174
     0
 93
        1
 44
0.0
173
     0
291
     0
 45
0.0
  0
VISUALSTYLE
  5
26D
102
{ACAD_REACTORS
330
267
102
}
330
267
100
AcDbVisualStyle
  2
3dWireframe
 70
     5
 71
     0
 72
     2
 73
     0
 90
        0
 40
-0.6
 41
-30.0
 62
     5
 63
     7
421
 16777215
 74
     1
 91
        4
 64
     7
 65
   257
 75
     1
175
     1
 42
1.0
 92
        0
 66
   257
 43
1.0
 76
     1
 77
     6
 78
     2
 67
     7
 79
     5
170
     0
171
     0
290
     0
174
     0
 93
        1
 44
0.0
173
     0
291
     0
 45
0.0
  0
VISUALSTYLE
  5
26F
102
{ACAD_REACTORS
330
267
102
}
330
267
100
AcDbVisualStyle
  2
Basic
 70
     7
 71
     1
 72
     0
 73
     1
 90
        0
 40
-0.6
 41
-30.0
 62
     5
 63
     7
421
 16777215
 74
     0
 91
        4
 64
     7
 65
   257
 75
     1
175
     1
 42
1.0
 92
        8
 66
     7
 43
1.0
 76
     1
 77
     6
 78
     2
 67
     7
 79
     5
170
     0
171
     0
290
     0
174
     0
 93
        1
 44
0.0
173
     0
291
     1
 45
0.0
  0
VISUALSTYLE
  5
273
102
{ACAD_REACTORS
330
267
102
}
330
267
100
AcDbVisualStyle
  2
Brighten
 70
    12
 71
     2
 72
     2
 73
     0
 90
        0
 40
-0.6
 41
-30.0
 62
     5
 63
     7
421
 16777215
 74
     1
 91
        4
 64
     7
 65
   257
 75
     1
175
     1
 42
1.0
 92
        8
 66
     7
 43
1.0
 76
     1
 77
     6
 78
     2
 67
     7
 79
     5
170
     0
171
     0
290
     0
174
     0
 93
        1
 44
50.0
173
     0
291
     1
 45
0.0
  0
VISUALSTYLE
  5
277
102
{ACAD_REACTORS
330
267
102
}
330
267
100
AcDbVisualStyle
  2
ColorChange
 70
    16
 71
     2
 72
     2
 73
     3
 90
        0
 40
-0.6
 41
-30.0
 62
     5
 63
     8
421
  8421504
 74
     1
 91
        4
 64
     7
 65
   257
 75
     1
175
     1
 42
1.0
 92
        8
 66
     8
424
  8421504
 43
1.0
 76
     1
 77
     6
 78
     2
 67
     7
 79
     5
170
     0
171
     0
290
     0
174
     0
 93
        1
 44
0.0
173
     0
291
     1
 45
0.0
  0
VISUALSTYLE
  5
271
102
{ACAD_REACTORS
330
267
102
}
330
267
100
AcDbVisualStyle
  2
Conceptual
 70
     9
 71
     3
 72
     2
 73
     0
 90
        0
 40
-0.6
 41
-30.0
 62
     5
 63
     7
421
 16777215
 74
     2
 91
        2
 64
     7
 65
   257
 75
     1
175
     1
 42
40.0
 92
        8
 66
     7
 43
1.0
 76
     1
 77
     6
 78
     2
 67
     7
 79
     3
170
     0
171
     0
290
     0
174
     0
 93
        1
 44
0.0
173
     0
291
     0
 45
0.0
  0
VISUALSTYLE
  5
272
102
{ACAD_REACTORS
330
267
102
}
330
267
100
AcDbVisualStyle
  2
Dim
 70
    11
 71
     2
 72
     2
 73
     0
 90
        0
 40
-0.6
 41
-30.0
 62
     5
 63
     7
421
 16777215
 74
     1
 91
        4
 64
     7
 65
   257
 75
     1
175
     1
 42
1.0
 92
        8
 66
     7
 43
1.0
 76
     1
 77
     6
 78
     2
 67
     7
 79
     5
170
     0
171
     0
290
     0
174
     0
 93
        1
 44
-50.0
173
     0
291
     1
 45
0.0
  0
VISUALSTYLE
  5
10E2
102
{ACAD_REACTORS
330
267
102
}
330
267
100
AcDbVisualStyle
  2
EdgeColorOff
 70
    22
 71
     2
 72
     2
 73
     0
 90
        0
 40
0.6
 41
30.0
 62
     5
 63
     7
421
 16777215
 74
     1
 91
        4
 64
     7
 65
   257
 75
     1
175
     1
 42
1.0
 92
        8
 66
     7
 43
1.0
 76
     1
 77
     6
 78
     2
 67
     7
 79
     5
170
     0
171
     0
290
     0
174
     0
 93
        1
 44
0.0
173
     0
291
     1
 45
0.0
  0
VISUALSTYLE
  5
276
102
{ACAD_REACTORS
330
267
102
}
330
267
100
AcDbVisualStyle
  2
Facepattern
 70
    15
 71
     2
 72
     2
 73
     0
 90
        0
 40
-0.6
 41
-30.0
 62
     5
 63
     7
421
 16777215
 74
     1
 91
        4
 64
     7
 65
   257
 75
     1
175
     1
 42
1.0
 92
        8
 66
     7
 43
1.0
 76
     1
 77
     6
 78
     2
 67
     7
 79
     5
170
     0
171
     0
290
     0
174
     0
 93
        1
 44
0.0
173
     0
291
     1
 45
0.0
  0
VISUALSTYLE
  5
268
102
{ACAD_REACTORS
330
267
102
}
330
267
100
AcDbVisualStyle
  2
Flat
 70
     0
 71
     2
 72
     1
 73
     1
 90
        2
 40
-0.6
 41
30.0
 62
     5
 63
     7
421
 16777215
 74
     0
 91
        4
 64
     7
 65
   257
 75
     1
175
     1
 42
1.0
 92
        8
 66
     7
 43
1.0
 76
     1
 77
     6
 78
     2
 67
     7
 79
     5
170
     0
171
     0
290
     0
174
     0
 93
       13
 44
0.0
173
     0
291
     1
 45
0.0
  0
VISUALSTYLE
  5
269
102
{ACAD_REACTORS
330
267
102
}
330
267
100
AcDbVisualStyle
  2
FlatWithEdges
 70
     1
 71
     2
 72
     1
 73
     1
 90
        2
 40
-0.6
 41
30.0
 62
     5
 63
     7
421
 16777215
 74
     1
 91
        4
 64
     7
 65
   257
 75
     1
175
     1
 42
1.0
 92
        0
 66
   257
 43
1.0
 76
     1
 77
     6
 78
     2
 67
     7
 79
     5
170
     0
171
     0
290
     0
174
     0
 93
       13
 44
0.0
173
     0
291
     1
 45
0.0
  0
VISUALSTYLE
  5
26A
102
{ACAD_REACTORS
330
267
102
}
330
267
100
AcDbVisualStyle
  2
Gouraud
 70
     2
 71
     2
 72
     2
 73
     1
 90
        2
 40
-0.6
 41
30.0
 62
     5
 63
     7
421
 16777215
 74
     0
 91
        4
 64
     7
 65
   257
 75
     1
175
     1
 42
1.0
 92
        0
 66
     7
 43
1.0
 76
     1
 77
     6
 78
     2
 67
     7
 79
     5
170
     0
171
     0
290
     0
174
     0
 93
       13
 44
0.0
173
     0
291
     1
 45
0.0
  0
VISUALSTYLE
  5
26B
102
{ACAD_REACTORS
330
267
102
}
330
267
100
AcDbVisualStyle
  2
GouraudWithEdges
 70
     3
 71
     2
 72
     2
 73
     1
 90
        2
 40
-0.6
 41
30.0
 62
     5
 63
     7
421
 16777215
 74
     1
 91
        4
 64
     7
 65
   257
 75
     1
175
     1
 42
1.0
 92
        0
 66
   257
 43
1.0
 76
     1
 77
     6
 78
     2
 67
     7
 79
     5
170
     0
171
     0
290
     0
174
     0
 93
       13
 44
0.0
173
     0
291
     1
 45
0.0
  0
VISUALSTYLE
  5
10DF
102
{ACAD_REACTORS
330
267
102
}
330
267
100
AcDbVisualStyle
  2
Hidden
 70
     6
 71
     1
 72
     2
 73
     2
 90
        0
 40
0.6
 41
30.0
 62
     5
 63
     7
421
 16777215
 74
     2
 91
        2
 64
     7
 65
   257
 75
     2
175
     1
 42
40.0
 92
        0
 66
   257
 43
1.0
 76
     1
 77
     6
 78
     2
 67
     7
 79
     3
170
     0
171
     0
290
     0
174
     0
 93
        1
 44
0.0
173
     0
291
     0
 45
0.0
  0
VISUALSTYLE
  5
10E0
102
{ACAD_REACTORS
330
267
102
}
330
267
100
AcDbVisualStyle
  2
JitterOff
 70
    20
 71
     2
 72
     2
 73
     0
 90
        0
 40
0.6
 41
30.0
 62
     5
 63
     7
421
 16777215
 74
     1
 91
        4
 64
     7
 65
   257
 75
     1
175
     1
 42
1.0
 92
       10
 66
     7
 43
1.0
 76
     1
 77
     6
 78
     2
 67
     7
 79
     5
170
     0
171
     0
290
     0
174
     0
 93
        1
 44
0.0
173
     0
291
     1
 45
0.0
  0
VISUALSTYLE
  5
275
102
{ACAD_REACTORS
330
267
102
}
330
267
100
AcDbVisualStyle
  2
Linepattern
 70
    14
 71
     2
 72
     2
 73
     0
 90
        0
 40
-0.6
 41
-30.0
 62
     5
 63
     7
421
 16777215
 74
     1
 91
        4
 64
     7
 65
   257
 75
     7
175
     7
 42
1.0
 92
        8
 66
     7
 43
1.0
 76
     1
 77
     6
 78
     2
 67
     7
 79
     5
170
     0
171
     0
290
     0
174
     0
 93
        1
 44
0.0
173
     0
291
     1
 45
0.0
  0
VISUALSTYLE
  5
10E1
102
{ACAD_REACTORS
330
267
102
}
330
267
100
AcDbVisualStyle
  2
OverhangOff
 70
    21
 71
     2
 72
     2
 73
     0
 90
        0
 40
0.6
 41
30.0
 62
     5
 63
     7
421
 16777215
 74
     1
 91
        4
 64
     7
 65
   257
 75
     1
175
     1
 42
1.0
 92
        9
 66
     7
 43
1.0
 76
     1
 77
     6
 78
     2
 67
     7
 79
     5
170
     0
171
     0
290
     0
174
     0
 93
        1
 44
0.0
173
     0
291
     1
 45
0.0
  0
VISUALSTYLE
  5
270
102
{ACAD_REACTORS
330
267
102
}
330
267
100
AcDbVisualStyle
  2
Realistic
 70
     8
 71
     2
 72
     2
 73
     0
 90
        0
 40
-0.6
 41
-30.0
 62
     5
 63
     7
421
 16777215
 74
     1
 91
        0
 64
     7
 65
   257
 75
     1
175
     1
 42
1.0
 92
        8
 66
     8
424
  7895160
 43
1.0
 76
     1
 77
     6
 78
     2
 67
     7
 79
     5
170
     0
171
     0
290
     0
174
     0
 93
       13
 44
0.0
173
     0
291
     0
 45
0.0
  0
VISUALSTYLE
  5
10E7
102
{ACAD_REACTORS
330
267
102
}
330
267
100
AcDbVisualStyle
  2
Shaded
 70
    27
 71
     2
 72
     2
 73
     1
 90
        2
 40
0.6
 41
30.0
 62
     5
 63
     7
421
 16777215
 74
     0
 91
        4
 64
     7
 65
   257
 75
     1
175
     1
 42
1.0
 92
        8
 66
   257
 43
1.0
 76
     1
 77
     6
 78
     2
 67
     8
425
  7895160
 79
     3
170
     0
171
     0
290
     0
174
     0
 93
        5
 44
0.0
173
     0
291
     0
 45
0.0
  0
VISUALSTYLE
  5
10E6
102
{ACAD_REACTORS
330
267
102
}
330
267
100
AcDbVisualStyle
  2
Shaded with edges
 70
    26
 71
     2
 72
     2
 73
     1
 90
        2
 40
0.6
 41
30.0
 62
     5
 63
     7
421
 16777215
 74
     1
 91
       10
 64
     7
 65
   257
 75
     2
175
     1
 42
1.0
 92
        8
 66
   257
 43
1.0
 76
     1
 77
     6
 78
     2
 67
     7
 79
     3
170
     0
171
     0
290
     0
174
     0
 93
        5
 44
0.0
173
     0
291
     0
 45
0.0
  0
VISUALSTYLE
  5
10E3
102
{ACAD_REACTORS
330
267
102
}
330
267
100
AcDbVisualStyle
  2
Shades of Gray
 70
    23
 71
     2
 72
     2
 73
     3
 90
        0
 40
0.6
 41
30.0
 62
     5
 63
     7
421
 16777215
 74
     2
 91
        2
 64
     7
 65
     7
 75
     1
175
     1
 42
40.0
 92
        8
 66
     7
 43
1.0
 76
     1
 77
     6
 78
     2
 67
     7
 79
     3
170
     0
171
     0
290
     0
174
     0
 93
        1
 44
0.0
173
     0
291
     0
 45
0.0
  0
VISUALSTYLE
  5
10E4
102
{ACAD_REACTORS
330
267
102
}
330
267
100
AcDbVisualStyle
  2
Sketchy
 70
    24
 71
     1
 72
     2
 73
     2
 90
        0
 40
0.6
 41
30.0
 62
     5
 63
     7
421
 16777215
 74
     2
 91
        2
 64
     7
 65
     7
 75
     1
175
     1
 42
40.0
 92
       11
 66
     7
 43
1.0
 76
     1
 77
     6
 78
     2
 67
     7
 79
     6
170
     0
171
     0
290
     0
174
     0
 93
        1
 44
0.0
173
     0
291
     0
 45
0.0
  0
VISUALSTYLE
  5
274
102
{ACAD_REACTORS
330
267
102
}
330
267
100
AcDbVisualStyle
  2
Thicken
 70
    13
 71
     2
 72
     2
 73
     0
 90
        0
 40
-0.6
 41
-30.0
 62
     5
 63
     7
421
 16777215
 74
     1
 91
        4
 64
     7
 65
   257
 75
     1
175
     1
 42
1.0
 92
       12
 66
     7
 43
1.0
 76
     1
 77
     6
 78
     2
 67
     7
 79
     5
170
     0
171
     0
290
     0
174
     0
 93
        1
 44
0.0
173
     0
291
     1
 45
0.0
  0
VISUALSTYLE
  5
10DE
102
{ACAD_REACTORS
330
267
102
}
330
267
100
AcDbVisualStyle
  2
Wireframe
 70
     5
 71
     0
 72
     2
 73
     0
 90
        0
 40
0.6
 41
30.0
 62
     5
 63
     7
421
 16777215
 74
     1
 91
        4
 64
     7
 65
   257
 75
     1
175
     1
 42
1.0
 92
        0
 66
   257
 43
1.0
 76
     1
 77
     6
 78
     2
 67
     7
 79
     3
170
     0
171
     0
290
     0
174
     0
 93
        1
 44
0.0
173
     0
291
     0
 45
0.0
  0
VISUALSTYLE
  5
10E5
102
{ACAD_REACTORS
330
267
102
}
330
267
100
AcDbVisualStyle
  2
X-Ray
 70
    25
 71
     2
 72
     2
 73
     1
 90
        1
 40
0.5
 41
30.0
 62
     5
 63
     7
421
 16777215
 74
     1
 91
        0
 64
     7
 65
   257
 75
     1
175
     1
 42
1.0
 92
        8
 66
     7
 43
1.0
 76
     1
 77
     6
 78
     2
 67
     7
 79
     3
170
     0
171
     0
290
     0
174
     0
 93
       13
 44
0.0
173
     0
291
     0
 45
0.0
  0
DICTIONARYVAR
  5
331
102
{ACAD_REACTORS
330
330
102
}
330
330
100
DictionaryVariables
280
     0
  1
1:1
  0
DICTIONARYVAR
  5
4129
102
{ACAD_REACTORS
330
330
102
}
330
330
100
DictionaryVariables
280
     0
  1
Standard
  0
DICTIONARYVAR
  5
335
102
{ACAD_REACTORS
330
330
102
}
330
330
100
DictionaryVariables
280
     0
  1
Standard
  0
DICTIONARYVAR
  5
5453
102
{ACAD_REACTORS
330
330
102
}
330
330
100
DictionaryVariables
280
     0
  1
ByLayer
  0
DICTIONARYVAR
  5
109E
102
{ACAD_REACTORS
330
330
102
}
330
330
100
DictionaryVariables
280
     0
  1
0
  0
DICTIONARYVAR
  5
5457
102
{ACAD_REACTORS
330
5454
102
}
330
5454
100
DictionaryVariables
280
     0
  1
0.261799
  0
DICTIONARYVAR
  5
5455
102
{ACAD_REACTORS
330
5454
102
}
330
5454
100
DictionaryVariables
280
     0
  1
0.400000
  0
DICTIONARYVAR
  5
5456
102
{ACAD_REACTORS
330
5454
102
}
330
5454
100
DictionaryVariables
280
     0
  1
0.250000
  0
DICTIONARYVAR
  5
5458
102
{ACAD_REACTORS
330
5454
102
}
330
5454
100
DictionaryVariables
280
     0
  1
1
  0
FIELD
  5
5FD2
102
{ACAD_REACTORS
330
5FD1
102
}
330
5FD1
100
AcDbField
  1
_text
  2
{%<\_FldIdx 0>%N}
 90
        1
360
5FD3
 97
        0
 91
       63
 92
        0
 94
        8
 95
        2
 96
        0
300

 93
        1
  6
ACFD_FIELDTEXT_CHECKSUM
 93
        2
 90
        2
140
4465.0
 94
        0
300

302

304
ACVALUE_END
  7
ACFD_FIELD_VALUE
 93
        6
 90
        4
  1
{20171012N}
 94
        0
300

302

304
ACVALUE_END
301
{20171012N}
 98
       11
  0
DICTIONARY
  5
6939
330
279
100
AcDbDictionary
280
     1
281
     1
  3
ACAD_ROUNDTRIP_2008_TABLESTYLE_CELLSTYLEMAP
360
693A
  0
FIELD
  5
5FD3
330
5FD2
100
AcDbField
  1
AcVar
  2
\AcVar Date \f "yyyyMMdd"
 90
        0
 97
        0
 91
       63
 92
        0
 94
        8
 95
        2
 96
        0
300

 93
        1
  6
Variable
 93
        2
 90
        4
  1
Date
 94
        0
300

302

304
ACVALUE_END
  7
ACFD_FIELD_VALUE
 93
        6
 90
        8
 92
       16
310
E1070A0000000C000900120008000000
 94
        0
300
yyyyMMdd
302

304
ACVALUE_END
301
20171012
 98
        8
  0
CELLSTYLEMAP
  5
693A
102
{ACAD_REACTORS
330
6939
102
}
330
6939
100
AcDbCellStyleMap
 90
        3
300
CELLSTYLE
  1
TABLEFORMAT_BEGIN
 90
        5
170
     1
 91
        0
 92
    32768
 62
   257
 93
        1
300
CONTENTFORMAT
  1
CONTENTFORMAT_BEGIN
 90
        0
 91
        0
 92
        4
 93
        0
300

 40
0.0
140
1.0
 94
        5
 62
     0
340
17
144
6.0
309
CONTENTFORMAT_END
171
     1
301
MARGIN
  1
CELLMARGIN_BEGIN
 40
0.06
 40
0.06
 40
0.06
 40
0.06
 40
0.18
 40
0.18
309
CELLMARGIN_END
 94
        6
 95
        1
302
GRIDFORMAT
  1
GRIDFORMAT_BEGIN
 90
        0
 91
        1
 62
     0
 92
       -2
340
0
 93
        0
 40
0.045
309
GRIDFORMAT_END
 95
        2
302
GRIDFORMAT
  1
GRIDFORMAT_BEGIN
 90
        0
 91
        1
 62
     0
 92
       -2
340
0
 93
        0
 40
0.045
309
GRIDFORMAT_END
 95
        4
302
GRIDFORMAT
  1
GRIDFORMAT_BEGIN
 90
        0
 91
        1
 62
     0
 92
       -2
340
0
 93
        0
 40
0.045
309
GRIDFORMAT_END
 95
        8
302
GRIDFORMAT
  1
GRIDFORMAT_BEGIN
 90
        0
 91
        1
 62
     0
 92
       -2
340
0
 93
        0
 40
0.045
309
GRIDFORMAT_END
 95
       16
302
GRIDFORMAT
  1
GRIDFORMAT_BEGIN
 90
        0
 91
        1
 62
     0
 92
       -2
340
0
 93
        0
 40
0.045
309
GRIDFORMAT_END
 95
       32
302
GRIDFORMAT
  1
GRIDFORMAT_BEGIN
 90
        0
 91
        1
 62
     0
 92
       -2
340
0
 93
        0
 40
0.045
309
GRIDFORMAT_END
309
TABLEFORMAT_END
  1
CELLSTYLE_BEGIN
 90
        1
 91
        1
300
_TITLE
309
CELLSTYLE_END
300
CELLSTYLE
  1
TABLEFORMAT_BEGIN
 90
        5
170
     1
 91
        0
 92
        0
 62
   257
 93
        1
300
CONTENTFORMAT
  1
CONTENTFORMAT_BEGIN
 90
        0
 91
        0
 92
        4
 93
        0
300

 40
0.0
140
1.0
 94
        5
 62
     0
340
17
144
4.5
309
CONTENTFORMAT_END
171
     1
301
MARGIN
  1
CELLMARGIN_BEGIN
 40
0.06
 40
0.06
 40
0.06
 40
0.06
 40
0.18
 40
0.18
309
CELLMARGIN_END
 94
        6
 95
        1
302
GRIDFORMAT
  1
GRIDFORMAT_BEGIN
 90
        0
 91
        1
 62
     0
 92
       -2
340
0
 93
        0
 40
0.045
309
GRIDFORMAT_END
 95
        2
302
GRIDFORMAT
  1
GRIDFORMAT_BEGIN
 90
        0
 91
        1
 62
     0
 92
       -2
340
0
 93
        0
 40
0.045
309
GRIDFORMAT_END
 95
        4
302
GRIDFORMAT
  1
GRIDFORMAT_BEGIN
 90
        0
 91
        1
 62
     0
 92
       -2
340
0
 93
        0
 40
0.045
309
GRIDFORMAT_END
 95
        8
302
GRIDFORMAT
  1
GRIDFORMAT_BEGIN
 90
        0
 91
        1
 62
     0
 92
       -2
340
0
 93
        0
 40
0.045
309
GRIDFORMAT_END
 95
       16
302
GRIDFORMAT
  1
GRIDFORMAT_BEGIN
 90
        0
 91
        1
 62
     0
 92
       -2
340
0
 93
        0
 40
0.045
309
GRIDFORMAT_END
 95
       32
302
GRIDFORMAT
  1
GRIDFORMAT_BEGIN
 90
        0
 91
        1
 62
     0
 92
       -2
340
0
 93
        0
 40
0.045
309
GRIDFORMAT_END
309
TABLEFORMAT_END
  1
CELLSTYLE_BEGIN
 90
        2
 91
        1
300
_HEADER
309
CELLSTYLE_END
300
CELLSTYLE
  1
TABLEFORMAT_BEGIN
 90
        5
170
     1
 91
        0
 92
        0
 62
   257
 93
        1
300
CONTENTFORMAT
  1
CONTENTFORMAT_BEGIN
 90
        0
 91
        0
 92
        4
 93
        0
300

 40
0.0
140
1.0
 94
        2
 62
     0
340
17
144
4.5
309
CONTENTFORMAT_END
171
     1
301
MARGIN
  1
CELLMARGIN_BEGIN
 40
0.06
 40
0.06
 40
0.06
 40
0.06
 40
0.18
 40
0.18
309
CELLMARGIN_END
 94
        6
 95
        1
302
GRIDFORMAT
  1
GRIDFORMAT_BEGIN
 90
        0
 91
        1
 62
     0
 92
       -2
340
0
 93
        0
 40
0.045
309
GRIDFORMAT_END
 95
        2
302
GRIDFORMAT
  1
GRIDFORMAT_BEGIN
 90
        0
 91
        1
 62
     0
 92
       -2
340
0
 93
        0
 40
0.045
309
GRIDFORMAT_END
 95
        4
302
GRIDFORMAT
  1
GRIDFORMAT_BEGIN
 90
        0
 91
        1
 62
     0
 92
       -2
340
0
 93
        0
 40
0.045
309
GRIDFORMAT_END
 95
        8
302
GRIDFORMAT
  1
GRIDFORMAT_BEGIN
 90
        0
 91
        1
 62
     0
 92
       -2
340
0
 93
        0
 40
0.045
309
GRIDFORMAT_END
 95
       16
302
GRIDFORMAT
  1
GRIDFORMAT_BEGIN
 90
        0
 91
        1
 62
     0
 92
       -2
340
0
 93
        0
 40
0.045
309
GRIDFORMAT_END
 95
       32
302
GRIDFORMAT
  1
GRIDFORMAT_BEGIN
 90
        0
 91
        1
 62
     0
 92
       -2
340
0
 93
        0
 40
0.045
309
GRIDFORMAT_END
309
TABLEFORMAT_END
  1
CELLSTYLE_BEGIN
 90
        3
 91
        2
300
_DATA
309
CELLSTYLE_END
  0
ENDSEC
  0
EOF
