  0
SECTION
  2
HEADER
  9
$ACADVER
  1
AC1021
  9
$ACADMAINTVER
 70
    25
  9
$DWGCODEPAGE
  3
ANSI_932
  9
$LASTSAVEDBY
  1
howeNelson
  9
$INSBASE
 10
0.0
 20
0.0
 30
0.0
  9
$EXTMIN
 10
0.0
 20
0.0
 30
0.0
  9
$EXTMAX
 10
593.9999999999999
 20
420.0
 30
0.0
  9
$LIMMIN
 10
0.0
 20
0.0
  9
$LIMMAX
 10
593.9999999999999
 20
420.0
  9
$ORTHOMODE
 70
     0
  9
$REGENMODE
 70
     1
  9
$FILLMODE
 70
     1
  9
$QTEXTMODE
 70
     0
  9
$MIRRTEXT
 70
     1
  9
$LTSCALE
 40
0.5
  9
$ATTMODE
 70
     1
  9
$TEXTSIZE
 40
2.5
  9
$TRACEWID
 40
1.0
  9
$TEXTSTYLE
  7
ＭＳ ゴシック
  9
$CLAYER
  8
寸法
  9
$CELTYPE
  6
ByLayer
  9
$CECOLOR
 62
   256
  9
$CELTSCALE
 40
1.0
  9
$DISPSILH
 70
     0
  9
$DIMSCALE
 40
1.0
  9
$DIMASZ
 40
2.0
  9
$DIMEXO
 40
5.0
  9
$DIMDLI
 40
0.9999999999999999
  9
$DIMRND
 40
0.0
  9
$DIMDLE
 40
0.0
  9
$DIMEXE
 40
0.0
  9
$DIMTP
 40
0.0
  9
$DIMTM
 40
0.0
  9
$DIMTXT
 40
5.0
  9
$DIMCEN
 40
0.0
  9
$DIMTSZ
 40
0.0
  9
$DIMTOL
 70
     0
  9
$DIMLIM
 70
     0
  9
$DIMTIH
 70
     0
  9
$DIMTOH
 70
     0
  9
$DIMSE1
 70
     0
  9
$DIMSE2
 70
     0
  9
$DIMTAD
 70
     1
  9
$DIMZIN
 70
    11
  9
$DIMBLK
  1
DOT
  9
$DIMASO
 70
     1
  9
$DIMSHO
 70
     1
  9
$DIMPOST
  1
<>
  9
$DIMAPOST
  1
[]
  9
$DIMALT
 70
     0
  9
$DIMALTD
 70
     1
  9
$DIMALTF
 40
1.0
  9
$DIMLFAC
 40
1.0
  9
$DIMTOFL
 70
     0
  9
$DIMTVP
 40
0.0
  9
$DIMTIX
 70
     1
  9
$DIMSOXD
 70
     0
  9
$DIMSAH
 70
     0
  9
$DIMBLK1
  1

  9
$DIMBLK2
  1

  9
$DIMSTYLE
  2
tfrom線あり
  9
$DIMCLRD
 70
     0
  9
$DIMCLRE
 70
     0
  9
$DIMCLRT
 70
     0
  9
$DIMTFAC
 40
1.0
  9
$DIMGAP
 40
2.0
  9
$DIMJUST
 70
     0
  9
$DIMSD1
 70
     0
  9
$DIMSD2
 70
     0
  9
$DIMTOLJ
 70
     1
  9
$DIMTZIN
 70
    11
  9
$DIMALTZ
 70
    11
  9
$DIMALTTZ
 70
    11
  9
$DIMUPT
 70
     0
  9
$DIMDEC
 70
     0
  9
$DIMTDEC
 70
     1
  9
$DIMALTU
 70
     2
  9
$DIMALTTD
 70
     2
  9
$DIMTXSTY
  7
ＭＳ ゴシック
  9
$DIMAUNIT
 70
     0
  9
$DIMADEC
 70
     2
  9
$DIMALTRND
 40
0.0
  9
$DIMAZIN
 70
     0
  9
$DIMDSEP
 70
    46
  9
$DIMATFIT
 70
     0
  9
$DIMFRAC
 70
     2
  9
$DIMLDRBLK
  1
DOT
  9
$DIMLUNIT
 70
     2
  9
$DIMLWD
 70
    -2
  9
$DIMLWE
 70
    -2
  9
$DIMTMOVE
 70
     0
  9
$DIMFXL
 40
1.0
  9
$DIMFXLON
 70
     0
  9
$DIMJOGANG
 40
0.7853981633974483
  9
$DIMTFILL
 70
     0
  9
$DIMTFILLCLR
 70
     0
  9
$DIMARCSYM
 70
     0
  9
$DIMLTYPE
  6

  9
$DIMLTEX1
  6

  9
$DIMLTEX2
  6

  9
$LUNITS
 70
     2
  9
$LUPREC
 70
     0
  9
$SKETCHINC
 40
0.1
  9
$FILLETRAD
 40
0.0
  9
$AUNITS
 70
     0
  9
$AUPREC
 70
     0
  9
$MENU
  1
acad
  9
$ELEVATION
 40
0.0
  9
$PELEVATION
 40
0.0
  9
$THICKNESS
 40
0.0
  9
$LIMCHECK
 70
     0
  9
$CHAMFERA
 40
0.0
  9
$CHAMFERB
 40
0.0
  9
$CHAMFERC
 40
0.0
  9
$CHAMFERD
 40
0.0
  9
$SKPOLY
 70
     0
  9
$TDCREATE
 40
2447893.375
  9
$TDUCREATE
 40
0.0
  9
$TDUPDATE
 40
2457663.547959132
  9
$TDUUPDATE
 40
2457663.172959132
  9
$TDINDWG
 40
0.0
  9
$TDUSRTIMER
 40
0.0
  9
$USRTIMER
 70
     1
  9
$ANGBASE
 50
0.0
  9
$ANGDIR
 70
     0
  9
$PDMODE
 70
     1
  9
$PDSIZE
 40
-2.0
  9
$PLINEWID
 40
0.0
  9
$SPLFRAME
 70
     0
  9
$SPLINETYPE
 70
     6
  9
$SPLINESEGS
 70
     8
  9
$HANDSEED
  5
5073
  9
$SURFTAB1
 70
     6
  9
$SURFTAB2
 70
     6
  9
$SURFTYPE
 70
     6
  9
$SURFU
 70
     6
  9
$SURFV
 70
     6
  9
$UCSBASE
  2

  9
$UCSNAME
  2

  9
$UCSORG
 10
0.0
 20
0.0
 30
0.0
  9
$UCSXDIR
 10
1.0
 20
0.0
 30
0.0
  9
$UCSYDIR
 10
0.0
 20
1.0
 30
0.0
  9
$UCSORTHOREF
  2

  9
$UCSORTHOVIEW
 70
     0
  9
$UCSORGTOP
 10
0.0
 20
0.0
 30
0.0
  9
$UCSORGBOTTOM
 10
0.0
 20
0.0
 30
0.0
  9
$UCSORGLEFT
 10
0.0
 20
0.0
 30
0.0
  9
$UCSORGRIGHT
 10
0.0
 20
0.0
 30
0.0
  9
$UCSORGFRONT
 10
0.0
 20
0.0
 30
0.0
  9
$UCSORGBACK
 10
0.0
 20
0.0
 30
0.0
  9
$PUCSBASE
  2

  9
$PUCSNAME
  2

  9
$PUCSORG
 10
0.0
 20
0.0
 30
0.0
  9
$PUCSXDIR
 10
1.0
 20
0.0
 30
0.0
  9
$PUCSYDIR
 10
0.0
 20
1.0
 30
0.0
  9
$PUCSORTHOREF
  2

  9
$PUCSORTHOVIEW
 70
     0
  9
$PUCSORGTOP
 10
0.0
 20
0.0
 30
0.0
  9
$PUCSORGBOTTOM
 10
0.0
 20
0.0
 30
0.0
  9
$PUCSORGLEFT
 10
0.0
 20
0.0
 30
0.0
  9
$PUCSORGRIGHT
 10
0.0
 20
0.0
 30
0.0
  9
$PUCSORGFRONT
 10
0.0
 20
0.0
 30
0.0
  9
$PUCSORGBACK
 10
0.0
 20
0.0
 30
0.0
  9
$USERI1
 70
     0
  9
$USERI2
 70
     0
  9
$USERI3
 70
     0
  9
$USERI4
 70
     0
  9
$USERI5
 70
     0
  9
$USERR1
 40
0.0
  9
$USERR2
 40
0.0
  9
$USERR3
 40
0.0
  9
$USERR4
 40
0.0
  9
$USERR5
 40
0.0
  9
$WORLDVIEW
 70
     1
  9
$SHADEDGE
 70
     3
  9
$SHADEDIF
 70
    70
  9
$TILEMODE
 70
     1
  9
$MAXACTVP
 70
    64
  9
$PINSBASE
 10
0.0
 20
0.0
 30
0.0
  9
$PLIMCHECK
 70
     0
  9
$PEXTMIN
 10
0.0
 20
0.0
 30
0.0
  9
$PEXTMAX
 10
0.0
 20
0.0
 30
0.0
  9
$PLIMMIN
 10
-95.87226993865028
 20
-25.69999999999999
  9
$PLIMMAX
 10
201.1277300613497
 20
184.3
  9
$UNITMODE
 70
     0
  9
$VISRETAIN
 70
     0
  9
$PLINEGEN
 70
     1
  9
$PSLTSCALE
 70
     0
  9
$TREEDEPTH
 70
  3020
  9
$CMLSTYLE
  2
Standard
  9
$CMLJUST
 70
     0
  9
$CMLSCALE
 40
1.0
  9
$PROXYGRAPHICS
 70
     0
  9
$MEASUREMENT
 70
     1
  9
$CELWEIGHT
370
    -1
  9
$ENDCAPS
280
     0
  9
$JOINSTYLE
280
     0
  9
$LWDISPLAY
290
     1
  9
$INSUNITS
 70
     4
  9
$HYPERLINKBASE
  1

  9
$STYLESHEET
  1

  9
$XEDIT
290
     1
  9
$CEPSNTYPE
380
     0
  9
$PSTYLEMODE
290
     1
  9
$FINGERPRINTGUID
  2

  9
$VERSIONGUID
  2

  9
$EXTNAMES
290
     1
  9
$PSVPSCALE
 40
0.0
  9
$OLESTARTUP
290
     0
  9
$SORTENTS
280
   127
  9
$INDEXCTL
280
     0
  9
$HIDETEXT
280
     1
  9
$XCLIPFRAME
290
     0
  9
$HALOGAP
280
     0
  9
$OBSCOLOR
 70
   257
  9
$OBSLTYPE
280
     0
  9
$INTERSECTIONDISPLAY
280
     0
  9
$INTERSECTIONCOLOR
 70
   257
  9
$DIMASSOC
280
     2
  9
$PROJECTNAME
  1

  9
$CAMERADISPLAY
290
     0
  9
$LENSLENGTH
 40
50.0
  9
$CAMERAHEIGHT
 40
0.0
  9
$STEPSPERSEC
 40
2.0
  9
$STEPSIZE
 40
6.0
  9
$3DDWFPREC
 40
2.0
  9
$PSOLWIDTH
 40
0.25
  9
$PSOLHEIGHT
 40
4.0
  9
$LOFTANG1
 40
1.570796326794897
  9
$LOFTANG2
 40
1.570796326794897
  9
$LOFTMAG1
 40
0.0
  9
$LOFTMAG2
 40
0.0
  9
$LOFTPARAM
 70
     7
  9
$LOFTNORMALS
280
     1
  9
$LATITUDE
 40
37.795
  9
$LONGITUDE
 40
-122.394
  9
$NORTHDIRECTION
 40
0.0
  9
$TIMEZONE
 70
 -8000
  9
$LIGHTGLYPHDISPLAY
280
     1
  9
$TILEMODELIGHTSYNCH
280
     1
  9
$SOLIDHIST
280
     1
  9
$SHOWHIST
280
     1
  9
$DWFFRAME
280
     2
  9
$DGNFRAME
280
     2
  9
$REALWORLDSCALE
290
     1
  9
$INTERFERECOLOR
 62
   256
  9
$CSHADOW
280
     0
  9
$SHADOWPLANELOCATION
 40
0.0
  0
ENDSEC
  0
SECTION
  2
CLASSES
  0
CLASS
  1
LWPOLYLINE
  2
AcDbPolyline
  3
ObjectDBX Classes
 90
        0
 91
        1
280
     0
281
     1
  0
CLASS
  1
IMAGE
  2
AcDbRasterImage
  3
ISM
 90
      127
 91
       28
280
     0
281
     1
  0
CLASS
  1
OLE2FRAME
  2
AcDbOle2Frame
  3
ObjectDBX Classes
 90
        0
 91
        1
280
     0
281
     1
  0
CLASS
  1
HATCH
  2
AcDbHatch
  3
ObjectDBX Classes
 90
        0
 91
        1
280
     0
281
     1
  0
CLASS
  1
DICTIONARYVAR
  2
AcDbDictionaryVar
  3
ObjectDBX Classes
 90
        0
 91
       27
280
     0
281
     0
  0
CLASS
  1
RASTERVARIABLES
  2
AcDbRasterVariables
  3
ISM
 90
        0
 91
       27
280
     0
281
     0
  0
CLASS
  1
IMAGEDEF
  2
AcDbRasterImageDef
  3
ISM
 90
        0
 91
       27
280
     0
281
     0
  0
CLASS
  1
IMAGEDEF_REACTOR
  2
AcDbRasterImageDefReactor
  3
ISM
 90
        1
 91
       27
280
     0
281
     0
  0
CLASS
  1
IDBUFFER
  2
AcDbIdBuffer
  3
ObjectDBX Classes
 90
        0
 91
       27
280
     0
281
     0
  0
CLASS
  1
SPATIAL_FILTER
  2
AcDbSpatialFilter
  3
ObjectDBX Classes
 90
        0
 91
       27
280
     0
281
     0
  0
CLASS
  1
XRECORD
  2
AcDbXrecord
  3
ObjectDBX Classes
 90
        0
 91
        1
280
     0
281
     0
  0
CLASS
  1
SORTENTSTABLE
  2
AcDbSortentsTable
  3
ObjectDBX Classes
 90
        0
 91
       27
280
     0
281
     0
  0
CLASS
  1
LAYER_INDEX
  2
AcDbLayerIndex
  3
ObjectDBX Classes
 90
        0
 91
       27
280
     0
281
     0
  0
CLASS
  1
SPATIAL_INDEX
  2
AcDbSpatialIndex
  3
AutoCAD 2000
 90
        0
 91
       27
280
     0
281
     0
  0
CLASS
  1
OBJECT_PTR
  2
CAseDLPNTableRecord
  3
ASE-LPNTableRecord
 90
        1
 91
       27
280
     0
281
     0
  0
CLASS
  1
LAYOUT
  2
AcDbLayout
  3
ObjectDBX Classes
 90
        0
 91
        1
280
     0
281
     0
  0
CLASS
  1
PLOTSETTINGS
  2
AcDbPlotSettings
  3
ObjectDBX Classes
 90
        0
 91
       27
280
     0
281
     0
  0
CLASS
  1
ACDBDICTIONARYWDFLT
  2
AcDbDictionaryWithDefault
  3
ObjectDBX Classes
 90
        0
 91
       27
280
     0
281
     0
  0
CLASS
  1
ACDBPLACEHOLDER
  2
AcDbPlaceHolder
  3
ObjectDBX Classes
 90
        0
 91
        1
280
     0
281
     0
  0
CLASS
  1
SCALE
  2
AcDbScale
  3
ObjectDBX Classes
 90
     1153
 91
       27
280
     0
281
     0
  0
CLASS
  1
MATERIAL
  2
AcDbMaterial
  3
ObjectDBX Classes
 90
     1153
 91
       27
280
     0
281
     0
  0
CLASS
  1
VISUALSTYLE
  2
AcDbVisualStyle
  3
ObjectDBX Classes
 90
     4095
 91
       27
280
     0
281
     0
  0
CLASS
  1
TABLESTYLE
  2
AcDbTableStyle
  3
ObjectDBX Classes
 90
     4095
 91
       27
280
     0
281
     0
  0
CLASS
  1
DIMASSOC
  2
AcDbDimAssoc
  3
"AcDbDimAssoc|Product Desc:     AcDim ARX App For Dimension|Company:          Autodesk, Inc.|WEB Address:      www.autodesk.com"
 90
        0
 91
       27
280
     0
281
     0
  0
CLASS
  1
CELLSTYLEMAP
  2
AcDbCellStyleMap
  3
ObjectDBX Classes
 90
     1152
 91
       27
280
     0
281
     0
  0
CLASS
  1
SUN
  2
AcDbSun
  3
SCENEOE
 90
     1153
 91
       27
280
     0
281
     0
  0
CLASS
  1
MLEADERSTYLE
  2
AcDbMLeaderStyle
  3
ACDB_MLEADERSTYLE_CLASS
 90
     4095
 91
       27
280
     0
281
     0
  0
CLASS
  1
FIELD
  2
AcDbField
  3
ObjectDBX Classes
 90
     1152
 91
       15
280
     0
281
     0
  0
CLASS
  1
FIELDLIST
  2
AcDbFieldList
  3
ObjectDBX Classes
 90
     1152
 91
       15
280
     0
281
     0
  0
ENDSEC
  0
SECTION
  2
TABLES
  0
TABLE
  2
VPORT
  5
7
330
0
100
AcDbSymbolTable
 70
     1
  0
VPORT
  5
15
330
7
100
AcDbSymbolTableRecord
100
AcDbViewportTableRecord
  2
*ACTIVE
 70
     0
 10
0.0
 20
0.0
 11
1.0
 21
1.0
 12
296.9999999999999
 22
210.0
 13
0.0
 23
0.0
 14
1.0
 24
1.0
 15
0.0
 25
0.0
 16
0.0
 26
0.0
 36
1.0
 17
0.0
 27
0.0
 37
0.0
 40
428.4
 41
2.292582417582417
 42
50.0
 43
0.0
 44
0.0
 50
0.0
 51
0.0
 71
    16
 72
  2000
 73
     1
 74
     1
 75
     0
 76
     0
 77
     0
 78
     1
281
     0
 65
     1
110
0.0
120
0.0
130
0.0
111
1.0
121
0.0
131
0.0
112
0.0
122
1.0
132
0.0
 79
     0
146
0.0
348
26C
 60
     3
 61
     5
292
     1
282
     1
141
0.0
142
0.0
 63
   256
361
10E8
  0
ENDTAB
  0
TABLE
  2
LTYPE
  5
4
330
0
100
AcDbSymbolTable
 70
     3
  0
LTYPE
  5
11
330
4
100
AcDbSymbolTableRecord
100
AcDbLinetypeTableRecord
  2
ByBlock
 70
     0
  3

 72
    65
 73
     0
 40
0.0
  0
LTYPE
  5
12
330
4
100
AcDbSymbolTableRecord
100
AcDbLinetypeTableRecord
  2
ByLayer
 70
     0
  3
Solid line
 72
    65
 73
     0
 40
0.0
  0
LTYPE
  5
13
330
4
100
AcDbSymbolTableRecord
100
AcDbLinetypeTableRecord
  2
Continuous
 70
     0
  3
Solid line
 72
    65
 73
     0
 40
0.0
  0
LTYPE
  5
88D
330
4
100
AcDbSymbolTableRecord
100
AcDbLinetypeTableRecord
  2
CENTER
 70
     0
  3
----------  --  ----------  --  
 72
    65
 73
     4
 40
20.0
 49
12.5
 74
     0
 49
-2.5
 74
     0
 49
2.5
 74
     0
 49
-2.5
 74
     0
  0
LTYPE
  5
12C7
330
4
100
AcDbSymbolTableRecord
100
AcDbLinetypeTableRecord
  2
HIDDEN
 70
     0
  3
Hidden _ _ _ _ _ _ _ _ _ _ _ _ _ _ _ _ _ _ _ _ 
 72
    65
 73
     2
 40
9.524999999999999
 49
6.35
 74
     0
 49
-3.175
 74
     0
  0
ENDTAB
  0
TABLE
  2
LAYER
  5
2
102
{ACAD_XDICTIONARY
360
2E1
102
}
330
0
100
AcDbSymbolTable
 70
     7
  0
LAYER
  5
14
330
2
100
AcDbSymbolTableRecord
100
AcDbLayerTableRecord
  2
0
 70
     0
 62
     7
  6
Continuous
370
    -3
390
1D
347
266
  0
LAYER
  5
4A
330
2
100
AcDbSymbolTableRecord
100
AcDbLayerTableRecord
  2
Defpoints
 70
     0
 62
     7
  6
Continuous
290
     0
370
    -3
390
1D
347
266
  0
LAYER
  5
12CE
330
2
100
AcDbSymbolTableRecord
100
AcDbLayerTableRecord
  2
寸法
 70
     0
 62
     7
  6
Continuous
370
    13
390
1D
347
266
1001
AcAecLayerStandard
1000

1000

  0
LAYER
  5
12CF
330
2
100
AcDbSymbolTableRecord
100
AcDbLayerTableRecord
  2
モデル
 70
     0
 62
     7
  6
Continuous
370
    20
390
1D
347
266
1001
AcAecLayerStandard
1000

1000

  0
LAYER
  5
142A
330
2
100
AcDbSymbolTableRecord
100
AcDbLayerTableRecord
  2
テンプレート
 70
     0
 62
     7
  6
Continuous
370
    20
390
1D
347
266
1001
AcAecLayerStandard
1000

1000

  0
LAYER
  5
1D5C
330
2
100
AcDbSymbolTableRecord
100
AcDbLayerTableRecord
  2
TFORMLOGO
 70
     0
 62
     7
  6
Continuous
370
    20
390
1D
347
266
  0
LAYER
  5
3848
330
2
100
AcDbSymbolTableRecord
100
AcDbLayerTableRecord
  2
PRINT BORDER
 70
     0
 62
     4
  6
Continuous
290
     0
370
    -3
390
1D
347
266
1001
AcAecLayerStandard
1000

1000

  0
ENDTAB
  0
TABLE
  2
STYLE
  5
3
330
0
100
AcDbSymbolTable
 70
     2
  0
STYLE
  5
17
330
3
100
AcDbSymbolTableRecord
100
AcDbTextStyleTableRecord
  2
Standard
 70
     0
 40
0.0
 41
1.0
 50
0.0
 71
     0
 42
2.5
  3
txt
  4
BIGFONT.SHX
  0
STYLE
  5
39
330
3
100
AcDbSymbolTableRecord
100
AcDbTextStyleTableRecord
  2
ＭＳ ゴシック
 70
     0
 40
0.0
 41
1.0
 50
0.0
 71
     0
 42
2.5
  3
msgothic.ttc
  4
ＭＳ ゴシック
1001
ACAD
1000
ＭＳ ゴシック
1071
        0
  0
ENDTAB
  0
TABLE
  2
VIEW
  5
5
330
0
100
AcDbSymbolTable
 70
     0
  0
ENDTAB
  0
TABLE
  2
UCS
  5
6
330
0
100
AcDbSymbolTable
 70
     0
  0
ENDTAB
  0
TABLE
  2
APPID
  5
8
330
0
100
AcDbSymbolTable
 70
     3
  0
APPID
  5
16
330
8
100
AcDbSymbolTableRecord
100
AcDbRegAppTableRecord
  2
ACAD
 70
     0
  0
APPID
  5
7AC
330
8
100
AcDbSymbolTableRecord
100
AcDbRegAppTableRecord
  2
AcAecLayerStandard
 70
     0
  0
APPID
  5
478C
330
8
100
AcDbSymbolTableRecord
100
AcDbRegAppTableRecord
  2
ACAD_MLEADERVER
 70
     0
  0
ENDTAB
  0
TABLE
  2
DIMSTYLE
  5
9
330
0
100
AcDbSymbolTable
 70
     2
100
AcDbDimStyleTable
  0
DIMSTYLE
105
18
330
9
100
AcDbSymbolTableRecord
100
AcDbDimStyleTableRecord
  2
Standard
 70
     0
178
     0
340
17
  0
DIMSTYLE
105
57
102
{ACAD_REACTORS
330
49CA
330
49DA
330
49E9
330
4A0A
330
4A20
330
4A2F
330
4A40
330
4C18
330
4C19
330
4C1A
330
4D4D
102
}
330
9
100
AcDbSymbolTableRecord
100
AcDbDimStyleTableRecord
  2
tfrom線あり
 70
     0
  3
<>
  4
[]
 41
2.0
 42
5.0
 43
0.9999999999999999
 44
0.0
 73
     0
 74
     0
 77
     1
 78
    11
140
5.0
141
0.0
143
1.0
147
2.0
171
     1
174
     1
178
     0
179
     2
271
     0
272
     1
276
     2
284
    11
285
    11
286
    11
289
     0
340
39
341
4E
342
4E
  0
ENDTAB
  0
TABLE
  2
BLOCK_RECORD
  5
1
330
0
100
AcDbSymbolTable
 70
    15
  0
BLOCK_RECORD
  5
A
102
{ACAD_XDICTIONARY
360
45FB
102
}
330
1
100
AcDbSymbolTableRecord
100
AcDbBlockTableRecord
  2
*MODEL_SPACE
340
20
 70
     0
280
     1
281
     0
  0
BLOCK_RECORD
  5
B
330
1
100
AcDbSymbolTableRecord
100
AcDbBlockTableRecord
  2
*PAPER_SPACE
340
21
 70
     0
280
     1
281
     0
  0
BLOCK_RECORD
  5
4E
330
1
100
AcDbSymbolTableRecord
100
AcDbBlockTableRecord
  2
_DOT
340
0
102
{BLKREFS
331
49D3
331
49D4
331
49E3
331
49E4
331
49F2
331
49F3
331
4A11
331
4A12
331
4A29
331
4A2A
331
4A36
331
4A37
331
4A49
331
4A4A
331
4CCF
331
4CD0
331
4CDB
331
4CDC
331
4CE7
331
4CE8
331
4D56
331
4D57
102
}
 70
     0
280
     1
281
     0
  0
BLOCK_RECORD
  5
12C3
330
1
100
AcDbSymbolTableRecord
100
AcDbBlockTableRecord
  2
*Paper_Space1
340
12C4
 70
     0
280
     1
281
     0
  0
BLOCK_RECORD
  5
1D88
330
1
100
AcDbSymbolTableRecord
100
AcDbBlockTableRecord
  2
名称未設定-1
340
0
102
{BLKREFS
331
36E3
102
}
 70
     1
280
     1
281
     0
  0
BLOCK_RECORD
  5
1D8B
330
1
100
AcDbSymbolTableRecord
100
AcDbBlockTableRecord
  2
block 2
340
0
102
{BLKREFS
331
1D8A
102
}
 70
     0
280
     1
281
     0
  0
BLOCK_RECORD
  5
49CD
330
1
100
AcDbSymbolTableRecord
100
AcDbBlockTableRecord
  2
*D4
340
0
 70
     0
280
     1
281
     0
  0
BLOCK_RECORD
  5
49DD
330
1
100
AcDbSymbolTableRecord
100
AcDbBlockTableRecord
  2
*D5
340
0
 70
     0
280
     1
281
     0
  0
BLOCK_RECORD
  5
49EC
330
1
100
AcDbSymbolTableRecord
100
AcDbBlockTableRecord
  2
*D6
340
0
 70
     0
280
     1
281
     0
  0
BLOCK_RECORD
  5
4A0B
330
1
100
AcDbSymbolTableRecord
100
AcDbBlockTableRecord
  2
*D7
340
0
 70
     0
280
     1
281
     0
  0
BLOCK_RECORD
  5
4A23
330
1
100
AcDbSymbolTableRecord
100
AcDbBlockTableRecord
  2
*D8
340
0
 70
     0
280
     1
281
     0
  0
BLOCK_RECORD
  5
4A30
330
1
100
AcDbSymbolTableRecord
100
AcDbBlockTableRecord
  2
*D9
340
0
 70
     0
280
     1
281
     0
  0
BLOCK_RECORD
  5
4A43
330
1
100
AcDbSymbolTableRecord
100
AcDbBlockTableRecord
  2
*D10
340
0
 70
     0
280
     1
281
     0
  0
BLOCK_RECORD
  5
4CC9
330
1
100
AcDbSymbolTableRecord
100
AcDbBlockTableRecord
  2
*D11
340
0
 70
     0
280
     1
281
     0
  0
BLOCK_RECORD
  5
4CD5
330
1
100
AcDbSymbolTableRecord
100
AcDbBlockTableRecord
  2
*D12
340
0
 70
     0
280
     1
281
     0
  0
BLOCK_RECORD
  5
4CE1
330
1
100
AcDbSymbolTableRecord
100
AcDbBlockTableRecord
  2
*D13
340
0
 70
     0
280
     1
281
     0
  0
BLOCK_RECORD
  5
4D50
330
1
100
AcDbSymbolTableRecord
100
AcDbBlockTableRecord
  2
*D14
340
0
 70
     0
280
     1
281
     0
  0
ENDTAB
  0
ENDSEC
  0
SECTION
  2
BLOCKS
  0
BLOCK
  5
D
330
A
100
AcDbEntity
  8
0
390
1D
100
AcDbBlockBegin
  2
*MODEL_SPACE
 70
     0
 10
0.0
 20
0.0
 30
0.0
  3
*MODEL_SPACE
  1
*MODEL_SPACE
  0
ENDBLK
  5
E
330
A
100
AcDbEntity
  8
0
390
1D
100
AcDbBlockEnd
  0
BLOCK
  5
F
330
B
100
AcDbEntity
 67
     1
  8
0
390
1D
100
AcDbBlockBegin
  2
*PAPER_SPACE
 70
     0
 10
0.0
 20
0.0
 30
0.0
  3
*PAPER_SPACE
  1
*PAPER_SPACE
  0
ENDBLK
  5
10
330
B
100
AcDbEntity
 67
     1
  8
0
390
1D
100
AcDbBlockEnd
  0
BLOCK
  5
4EB4
330
4E
100
AcDbEntity
  8
0
390
1D
100
AcDbBlockBegin
  2
_DOT
 70
     0
 10
0.0
 20
0.0
 30
0.0
  3
_DOT
  1
_DOT
  0
POLYLINE
  5
4EB6
330
4E
100
AcDbEntity
  8
0
  6
ByBlock
 62
     0
370
    -2
390
1D
100
AcDb2dPolyline
 66
     1
 10
0.0
 20
0.0
 30
0.0
 70
     1
 40
0.5
 41
0.5
  0
VERTEX
  5
4EB7
330
4EB6
100
AcDbEntity
  8
0
  6
ByBlock
 62
     0
370
    -2
390
1D
100
AcDbVertex
100
AcDb2dVertex
 10
-0.25
 20
0.0
 30
0.0
 42
1.0
  0
VERTEX
  5
4EB8
330
4EB6
100
AcDbEntity
  8
0
  6
ByBlock
 62
     0
370
    -2
390
1D
100
AcDbVertex
100
AcDb2dVertex
 10
0.25
 20
0.0
 30
0.0
 42
1.0
  0
SEQEND
  5
4EB9
330
4EB6
100
AcDbEntity
  8
0
390
1D
  0
LINE
  5
4EBA
330
4E
100
AcDbEntity
  8
0
  6
ByBlock
 62
     0
370
    -2
390
1D
100
AcDbLine
 10
-0.5
 20
0.0
 30
0.0
 11
-1.0
 21
0.0
 31
0.0
  0
ENDBLK
  5
4EBB
330
4E
100
AcDbEntity
  8
0
390
1D
100
AcDbBlockEnd
  0
BLOCK
  5
12C5
330
12C3
100
AcDbEntity
  8
0
100
AcDbBlockBegin
  2
*Paper_Space1
 70
     0
 10
0.0
 20
0.0
 30
0.0
  3
*Paper_Space1
  1
*Paper_Space83
  0
ENDBLK
  5
12C6
330
12C3
100
AcDbEntity
  8
0
100
AcDbBlockEnd
  0
BLOCK
  5
1D89
330
1D88
100
AcDbEntity
  8
0
100
AcDbBlockBegin
  2
名称未設定-1
 70
     0
 10
0.0
 20
0.0
 30
0.0
  3
名称未設定-1
  1
名称未設定-1
  0
INSERT
  5
1D8A
330
1D88
100
AcDbEntity
  8
TFORMLOGO
100
AcDbBlockReference
  2
block 2
 10
0.0
 20
0.0
 30
0.0
  0
ENDBLK
  5
1DAF
330
1D88
100
AcDbEntity
  8
0
100
AcDbBlockEnd
  0
BLOCK
  5
1D8C
330
1D8B
100
AcDbEntity
  8
0
100
AcDbBlockBegin
  2
block 2
 70
     0
 10
0.0
 20
0.0
 30
0.0
  3
block 2
  1
block 2
  0
SPLINE
  5
4753
330
1D8B
100
AcDbEntity
  8
TFORMLOGO
 62
    18
420
        0
370
     0
100
AcDbSpline
210
0.0
220
0.0
230
1.0
 70
    11
 71
     3
 72
    38
 73
    34
 74
     0
 42
0.000000001
 43
0.0000000001
 40
0.0
 40
0.0
 40
0.0
 40
0.0
 40
1.0
 40
1.0
 40
1.0
 40
2.0
 40
2.0
 40
2.0
 40
3.0
 40
3.0
 40
3.0
 40
4.0
 40
4.0
 40
4.0
 40
5.0
 40
5.0
 40
5.0
 40
6.0
 40
6.0
 40
6.0
 40
7.0
 40
7.0
 40
7.0
 40
8.0
 40
8.0
 40
8.0
 40
9.0
 40
9.0
 40
9.0
 40
10.0
 40
10.0
 40
10.0
 40
11.0
 40
11.0
 40
11.0
 40
11.0
 10
126.3775545846356
 20
154.8151140277308
 30
0.0
 10
126.3775545846356
 20
154.8151140277308
 30
0.0
 10
128.831153207856
 20
154.8151140277308
 30
0.0
 10
128.831153207856
 20
154.8151140277308
 30
0.0
 10
128.831153207856
 20
154.8151140277308
 30
0.0
 10
127.7345785914972
 20
151.3062819612468
 30
0.0
 10
127.7345785914972
 20
151.3062819612468
 30
0.0
 10
128.5713928369064
 20
152.2922689395754
 30
0.0
 10
129.8860421413442
 20
153.604506675583
 30
0.0
 10
131.0163787157312
 20
154.2664822097754
 30
0.0
 10
132.704476617133
 20
155.2500576196734
 30
0.0
 10
133.6642808525007
 20
155.3847609420097
 30
0.0
 10
134.7284715499354
 20
155.3565111403944
 30
0.0
 10
134.7284715499354
 20
155.3565111403944
 30
0.0
 10
133.6877075172547
 20
152.0345756272799
 30
0.0
 10
133.6877075172547
 20
152.0345756272799
 30
0.0
 10
133.0114348273673
 20
152.3184516825359
 30
0.0
 10
130.9309402913341
 20
151.7768823149844
 30
0.0
 10
129.7392809768553
 20
150.9162968950455
 30
0.0
 10
128.66613302525
 20
150.1454562717016
 30
0.0
 10
127.9192358313235
 20
149.4857200510519
 30
0.0
 10
127.0393578639405
 20
147.8282835196966
 30
0.0
 10
126.164647543194
 20
146.1699857139017
 30
0.0
 10
125.4742499524987
 20
143.5262176944419
 30
0.0
 10
124.282246128244
 20
139.6959580071401
 30
0.0
 10
124.282246128244
 20
139.6959580071401
 30
0.0
 10
120.5753209406766
 20
127.8027915271048
 30
0.0
 10
120.5753209406766
 20
127.8027915271048
 30
0.0
 10
120.5753209406766
 20
127.8027915271048
 30
0.0
 10
118.1964809388046
 20
127.8027915271048
 30
0.0
 10
118.1964809388046
 20
127.8027915271048
 30
0.0
 10
118.1964809388046
 20
127.8027915271048
 30
0.0
 10
126.3775545846356
 20
154.8151140277308
 30
0.0
 10
126.3775545846356
 20
154.8151140277308
 30
0.0
  0
SPLINE
  5
4754
330
1D8B
100
AcDbEntity
  8
TFORMLOGO
 62
    18
420
        0
370
     0
100
AcDbSpline
210
0.0
220
0.0
230
1.0
 70
    11
 71
     3
 72
   104
 73
   100
 74
     0
 42
0.000000001
 43
0.0000000001
 40
0.0
 40
0.0
 40
0.0
 40
0.0
 40
1.0
 40
1.0
 40
1.0
 40
2.0
 40
2.0
 40
2.0
 40
3.0
 40
3.0
 40
3.0
 40
4.0
 40
4.0
 40
4.0
 40
5.0
 40
5.0
 40
5.0
 40
6.0
 40
6.0
 40
6.0
 40
7.0
 40
7.0
 40
7.0
 40
8.0
 40
8.0
 40
8.0
 40
9.0
 40
9.0
 40
9.0
 40
10.0
 40
10.0
 40
10.0
 40
11.0
 40
11.0
 40
11.0
 40
12.0
 40
12.0
 40
12.0
 40
13.0
 40
13.0
 40
13.0
 40
14.0
 40
14.0
 40
14.0
 40
15.0
 40
15.0
 40
15.0
 40
16.0
 40
16.0
 40
16.0
 40
17.0
 40
17.0
 40
17.0
 40
18.0
 40
18.0
 40
18.0
 40
19.0
 40
19.0
 40
19.0
 40
20.0
 40
20.0
 40
20.0
 40
21.0
 40
21.0
 40
21.0
 40
22.0
 40
22.0
 40
22.0
 40
23.0
 40
23.0
 40
23.0
 40
24.0
 40
24.0
 40
24.0
 40
25.0
 40
25.0
 40
25.0
 40
26.0
 40
26.0
 40
26.0
 40
27.0
 40
27.0
 40
27.0
 40
28.0
 40
28.0
 40
28.0
 40
29.0
 40
29.0
 40
29.0
 40
30.0
 40
30.0
 40
30.0
 40
31.0
 40
31.0
 40
31.0
 40
32.0
 40
32.0
 40
32.0
 40
33.0
 40
33.0
 40
33.0
 40
33.0
 10
139.8926730891194
 20
154.8294111834263
 30
0.0
 10
139.8926730891194
 20
154.8294111834263
 30
0.0
 10
142.0344903652449
 20
154.8294111834263
 30
0.0
 10
142.0344903652449
 20
154.8294111834263
 30
0.0
 10
142.0344903652449
 20
154.8294111834263
 30
0.0
 10
140.9516961399172
 20
151.3157559800812
 30
0.0
 10
140.9516961399172
 20
151.3157559800812
 30
0.0
 10
141.8928968473924
 20
152.7887075264977
 30
0.0
 10
142.7341897198862
 20
153.4484437471474
 30
0.0
 10
143.8552245303276
 20
154.2926649527359
 30
0.0
 10
144.9803934580773
 20
155.1296514530327
 30
0.0
 10
146.3139908001845
 20
155.3044901642492
 30
0.0
 10
147.2410666068522
 20
155.3044901642492
 30
0.0
 10
148.3855280820471
 20
155.3044901642492
 30
0.0
 10
149.4969166187652
 20
155.0752189084569
 30
0.0
 10
150.0784491203094
 20
153.8172414621372
 30
0.0
 10
150.5228667310862
 20
152.833838307127
 30
0.0
 10
150.5414702589792
 20
152.7201500811143
 30
0.0
 10
150.4140016419351
 20
150.7765981809602
 30
0.0
 10
151.581889781884
 20
152.7699317437168
 30
0.0
 10
152.4424752018226
 20
153.6256940267945
 30
0.0
 10
153.9038856707502
 20
154.4507949398263
 30
0.0
 10
155.4455669174381
 20
155.3044901642492
 30
0.0
 10
156.3392252758531
 20
155.3659851592288
 30
0.0
 10
157.374821661896
 20
155.2147453676543
 30
0.0
 10
158.9116797717234
 20
154.9877134254046
 30
0.0
 10
159.885953417675
 20
154.4390816074493
 30
0.0
 10
160.3965169054045
 20
152.7816450760939
 30
0.0
 10
160.9070803931345
 20
151.1219692311958
 30
0.0
 10
160.632850611601
 20
150.2303779314354
 30
0.0
 10
159.9992971339116
 20
147.597634224801
 30
0.0
 10
159.7105979417938
 20
146.4014962832367
 30
0.0
 10
159.2947746424084
 20
144.9400858143094
 30
0.0
 10
158.7463150793405
 20
143.2092687007094
 30
0.0
 10
158.7463150793405
 20
143.2092687007094
 30
0.0
 10
153.9038856707502
 20
127.8027915271048
 30
0.0
 10
153.9038856707502
 20
127.8027915271048
 30
0.0
 10
153.9038856707502
 20
127.8027915271048
 30
0.0
 10
151.3882752878862
 20
127.8027915271048
 30
0.0
 10
151.3882752878862
 20
127.8027915271048
 30
0.0
 10
151.3882752878862
 20
127.8027915271048
 30
0.0
 10
155.6250565106279
 20
141.2751908193897
 30
0.0
 10
155.6250565106279
 20
141.2751908193897
 30
0.0
 10
156.5094131050964
 20
144.0936252951782
 30
0.0
 10
157.1098936443091
 20
146.1506931664571
 30
0.0
 10
157.4220195011803
 20
147.4415712963654
 30
0.0
 10
157.8095929989513
 20
149.0530157726519
 30
0.0
 10
157.9656559273863
 20
149.5826995529385
 30
0.0
 10
157.7816877071118
 20
150.7529992613181
 30
0.0
 10
157.6111553680926
 20
151.8430281919372
 30
0.0
 10
157.0582171779397
 20
152.5547853887321
 30
0.0
 10
156.1170164704645
 20
152.5547853887321
 30
0.0
 10
155.1096698860365
 20
152.5547853887321
 30
0.0
 10
154.2962823053817
 20
152.4412694176073
 30
0.0
 10
153.1566439670478
 20
151.2945686288697
 30
0.0
 10
152.0170056287143
 20
150.1476955852443
 30
0.0
 10
151.076149431015
 20
148.7930831468137
 30
0.0
 10
150.3337308641744
 20
147.2290087646991
 30
0.0
 10
149.5957909244185
 20
145.6683794803425
 30
0.0
 10
148.8530278478024
 20
143.6822806228776
 30
0.0
 10
148.0964843801535
 20
141.2751908193897
 30
0.0
 10
148.0964843801535
 20
141.2751908193897
 30
0.0
 10
143.8552245303276
 20
127.8027915271048
 30
0.0
 10
143.8552245303276
 20
127.8027915271048
 30
0.0
 10
143.8552245303276
 20
127.8027915271048
 30
0.0
 10
141.4860308021766
 20
127.8027915271048
 30
0.0
 10
141.4860308021766
 20
127.8027915271048
 30
0.0
 10
141.4860308021766
 20
127.8027915271048
 30
0.0
 10
146.3329388378534
 20
143.2092687007094
 30
0.0
 10
146.3329388378534
 20
143.2092687007094
 30
0.0
 10
146.8483254624448
 20
144.8408669988801
 30
0.0
 10
147.2314203331298
 20
146.1837661049335
 30
0.0
 10
147.4867020769948
 20
147.224185627838
 30
0.0
 10
147.9169947869636
 20
149.0197705792876
 30
0.0
 10
148.0306830129766
 20
150.2400242051577
 30
0.0
 10
147.7092553921589
 20
151.3157559800812
 30
0.0
 10
147.3874832615656
 20
152.3916600098926
 30
0.0
 10
146.824554287914
 20
152.6683013598569
 30
0.0
 10
145.8840425999911
 20
152.6683013598569
 30
0.0
 10
145.0989048209517
 20
152.6683013598569
 30
0.0
 10
144.3282364524957
 20
152.3275811915945
 30
0.0
 10
143.4531816219733
 20
151.6538923250251
 30
0.0
 10
142.3462717123398
 20
150.8074318058939
 30
0.0
 10
141.901854101563
 20
150.1097995099067
 30
0.0
 10
141.3578731655807
 20
149.289521733736
 30
0.0
 10
140.6299240093235
 20
148.192602607601
 30
0.0
 10
140.2850697237518
 20
147.455696197173
 30
0.0
 10
139.6652966370939
 20
145.8385673095858
 30
0.0
 10
139.0506911970738
 20
144.2214384219986
 30
0.0
 10
138.4639910488931
 20
142.3252566160164
 30
0.0
 10
138.0571250036778
 20
141.0154304484394
 30
0.0
 10
138.0571250036778
 20
141.0154304484394
 30
0.0
 10
133.9009590684727
 20
127.8027915271048
 30
0.0
 10
133.9009590684727
 20
127.8027915271048
 30
0.0
 10
133.9009590684727
 20
127.8027915271048
 30
0.0
 10
131.4180771143097
 20
127.8027915271048
 30
0.0
 10
131.4180771143097
 20
127.8027915271048
 30
0.0
 10
131.4180771143097
 20
127.8027915271048
 30
0.0
 10
139.8926730891194
 20
154.8294111834263
 30
0.0
 10
139.8926730891194
 20
154.8294111834263
 30
0.0
  0
HATCH
  5
4755
330
1D8B
100
AcDbEntity
  8
TFORMLOGO
 62
    18
420
        0
100
AcDbHatch
 10
0.0
 20
0.0
 30
0.0
210
0.0
220
0.0
230
1.0
  2
SOLID
 70
     1
 71
     0
 91
        1
 92
        1
 93
        1
 72
     4
 94
        3
 73
     0
 74
     1
 95
       56
 96
       52
 40
0.0
 40
0.0
 40
0.0
 40
0.0
 40
1.0
 40
1.0
 40
1.0
 40
2.0
 40
2.0
 40
2.0
 40
3.0
 40
3.0
 40
3.0
 40
4.0
 40
4.0
 40
4.0
 40
5.0
 40
5.0
 40
5.0
 40
6.0
 40
6.0
 40
6.0
 40
7.0
 40
7.0
 40
7.0
 40
8.0
 40
8.0
 40
8.0
 40
9.0
 40
9.0
 40
9.0
 40
10.0
 40
10.0
 40
10.0
 40
11.0
 40
11.0
 40
11.0
 40
12.0
 40
12.0
 40
12.0
 40
13.0
 40
13.0
 40
13.0
 40
14.0
 40
14.0
 40
14.0
 40
15.0
 40
15.0
 40
15.0
 40
16.0
 40
16.0
 40
16.0
 40
17.0
 40
17.0
 40
17.0
 40
17.0
 10
100.4504378777679
 20
166.69157178364
 10
101.9848844191642
 20
167.1313385124438
 10
103.963748571337
 20
166.7649523658846
 10
103.963748571337
 20
166.7649523658846
 10
103.963748571337
 20
166.7649523658846
 10
103.0132460999152
 20
163.911205638077
 10
103.0132460999152
 20
163.911205638077
 10
103.0132460999152
 20
163.911205638077
 10
101.0674548862189
 20
164.3601018759394
 10
99.57090442016033
 20
163.1805004036133
 10
98.40508333886646
 20
162.258247733807
 10
97.65301849830303
 20
159.804132345923
 10
97.35984067910067
 20
158.8699940888517
 10
97.35984067910067
 20
158.8699940888517
 10
96.07137411762278
 20
154.9119212747295
 10
96.07137411762278
 20
154.9119212747295
 10
96.07137411762278
 20
154.9119212747295
 10
100.3012651448485
 20
154.9119212747295
 10
100.3012651448485
 20
154.9119212747295
 10
100.3012651448485
 20
154.9119212747295
 10
99.64152892419816
 20
152.4199098115079
 10
99.64152892419816
 20
152.4199098115079
 10
99.64152892419816
 20
152.4199098115079
 10
95.38097652692704
 20
152.4199098115079
 10
95.38097652692704
 20
152.4199098115079
 10
95.38097652692704
 20
152.4199098115079
 10
87.75353009079981
 20
127.8027915271048
 10
87.75353009079981
 20
127.8027915271048
 10
87.75353009079981
 20
127.8027915271048
 10
85.36538832498081
 20
127.8027915271048
 10
85.36538832498081
 20
127.8027915271048
 10
85.36538832498081
 20
127.8027915271048
 10
93.00006946639996
 20
152.4199098115079
 10
93.00006946639996
 20
152.4199098115079
 10
93.00006946639996
 20
152.4199098115079
 10
89.85297266450198
 20
152.4199098115079
 10
89.85297266450198
 20
152.4199098115079
 10
89.85297266450198
 20
152.4199098115079
 10
90.51270888515137
 20
154.9119212747295
 10
90.51270888515137
 20
154.9119212747295
 10
90.51270888515137
 20
154.9119212747295
 10
93.6904670570957
 20
154.9119212747295
 10
93.6904670570957
 20
154.9119212747295
 10
93.6904670570957
 20
154.9119212747295
 10
94.81598049462127
 20
158.3616699146644
 10
94.81598049462127
 20
158.3616699146644
 10
95.7237637538442
 20
161.2605474231013
 10
96.49684369073111
 20
162.8139420021662
 10
97.15657991138096
 20
163.9844139654337
 10
97.81183750494529
 20
165.1523021053827
 10
99.10478269350824
 20
166.3084769129547
 10
100.4504378777679
 20
166.69157178364
 97
        0
 75
     2
 76
     1
 98
        0
  0
HATCH
  5
4756
330
1D8B
100
AcDbEntity
  8
TFORMLOGO
 62
    18
420
        0
100
AcDbHatch
 10
0.0
 20
0.0
 30
0.0
210
0.0
220
0.0
230
1.0
  2
SOLID
 70
     1
 71
     0
 91
        1
 92
        1
 93
        1
 72
     4
 94
        3
 73
     0
 74
     1
 95
      104
 96
      100
 40
0.0
 40
0.0
 40
0.0
 40
0.0
 40
1.0
 40
1.0
 40
1.0
 40
2.0
 40
2.0
 40
2.0
 40
3.0
 40
3.0
 40
3.0
 40
4.0
 40
4.0
 40
4.0
 40
5.0
 40
5.0
 40
5.0
 40
6.0
 40
6.0
 40
6.0
 40
7.0
 40
7.0
 40
7.0
 40
8.0
 40
8.0
 40
8.0
 40
9.0
 40
9.0
 40
9.0
 40
10.0
 40
10.0
 40
10.0
 40
11.0
 40
11.0
 40
11.0
 40
12.0
 40
12.0
 40
12.0
 40
13.0
 40
13.0
 40
13.0
 40
14.0
 40
14.0
 40
14.0
 40
15.0
 40
15.0
 40
15.0
 40
16.0
 40
16.0
 40
16.0
 40
17.0
 40
17.0
 40
17.0
 40
18.0
 40
18.0
 40
18.0
 40
19.0
 40
19.0
 40
19.0
 40
20.0
 40
20.0
 40
20.0
 40
21.0
 40
21.0
 40
21.0
 40
22.0
 40
22.0
 40
22.0
 40
23.0
 40
23.0
 40
23.0
 40
24.0
 40
24.0
 40
24.0
 40
25.0
 40
25.0
 40
25.0
 40
26.0
 40
26.0
 40
26.0
 40
27.0
 40
27.0
 40
27.0
 40
28.0
 40
28.0
 40
28.0
 40
29.0
 40
29.0
 40
29.0
 40
30.0
 40
30.0
 40
30.0
 40
31.0
 40
31.0
 40
31.0
 40
32.0
 40
32.0
 40
32.0
 40
33.0
 40
33.0
 40
33.0
 40
33.0
 10
139.8926730891194
 20
154.8294111834263
 10
139.8926730891194
 20
154.8294111834263
 10
142.0344903652449
 20
154.8294111834263
 10
142.0344903652449
 20
154.8294111834263
 10
142.0344903652449
 20
154.8294111834263
 10
140.9516961399172
 20
151.3157559800812
 10
140.9516961399172
 20
151.3157559800812
 10
141.8928968473924
 20
152.7887075264977
 10
142.7341897198862
 20
153.4484437471474
 10
143.8552245303276
 20
154.2926649527359
 10
144.9803934580773
 20
155.1296514530327
 10
146.3139908001845
 20
155.3044901642492
 10
147.2410666068522
 20
155.3044901642492
 10
148.3855280820471
 20
155.3044901642492
 10
149.4969166187652
 20
155.0752189084569
 10
150.0784491203094
 20
153.8172414621372
 10
150.5228667310862
 20
152.833838307127
 10
150.5414702589792
 20
152.7201500811143
 10
150.4140016419351
 20
150.7765981809602
 10
151.581889781884
 20
152.7699317437168
 10
152.4424752018226
 20
153.6256940267945
 10
153.9038856707502
 20
154.4507949398263
 10
155.4455669174381
 20
155.3044901642492
 10
156.3392252758531
 20
155.3659851592288
 10
157.374821661896
 20
155.2147453676543
 10
158.9116797717234
 20
154.9877134254046
 10
159.885953417675
 20
154.4390816074493
 10
160.3965169054045
 20
152.7816450760939
 10
160.9070803931345
 20
151.1219692311958
 10
160.632850611601
 20
150.2303779314354
 10
159.9992971339116
 20
147.597634224801
 10
159.7105979417938
 20
146.4014962832367
 10
159.2947746424084
 20
144.9400858143094
 10
158.7463150793405
 20
143.2092687007094
 10
158.7463150793405
 20
143.2092687007094
 10
153.9038856707502
 20
127.8027915271048
 10
153.9038856707502
 20
127.8027915271048
 10
153.9038856707502
 20
127.8027915271048
 10
151.3882752878862
 20
127.8027915271048
 10
151.3882752878862
 20
127.8027915271048
 10
151.3882752878862
 20
127.8027915271048
 10
155.6250565106279
 20
141.2751908193897
 10
155.6250565106279
 20
141.2751908193897
 10
156.5094131050964
 20
144.0936252951782
 10
157.1098936443091
 20
146.1506931664571
 10
157.4220195011803
 20
147.4415712963654
 10
157.8095929989513
 20
149.0530157726519
 10
157.9656559273863
 20
149.5826995529385
 10
157.7816877071118
 20
150.7529992613181
 10
157.6111553680926
 20
151.8430281919372
 10
157.0582171779397
 20
152.5547853887321
 10
156.1170164704645
 20
152.5547853887321
 10
155.1096698860365
 20
152.5547853887321
 10
154.2962823053817
 20
152.4412694176073
 10
153.1566439670478
 20
151.2945686288697
 10
152.0170056287143
 20
150.1476955852443
 10
151.076149431015
 20
148.7930831468137
 10
150.3337308641744
 20
147.2290087646991
 10
149.5957909244185
 20
145.6683794803425
 10
148.8530278478024
 20
143.6822806228776
 10
148.0964843801535
 20
141.2751908193897
 10
148.0964843801535
 20
141.2751908193897
 10
143.8552245303276
 20
127.8027915271048
 10
143.8552245303276
 20
127.8027915271048
 10
143.8552245303276
 20
127.8027915271048
 10
141.4860308021766
 20
127.8027915271048
 10
141.4860308021766
 20
127.8027915271048
 10
141.4860308021766
 20
127.8027915271048
 10
146.3329388378534
 20
143.2092687007094
 10
146.3329388378534
 20
143.2092687007094
 10
146.8483254624448
 20
144.8408669988801
 10
147.2314203331298
 20
146.1837661049335
 10
147.4867020769948
 20
147.224185627838
 10
147.9169947869636
 20
149.0197705792876
 10
148.0306830129766
 20
150.2400242051577
 10
147.7092553921589
 20
151.3157559800812
 10
147.3874832615656
 20
152.3916600098926
 10
146.824554287914
 20
152.6683013598569
 10
145.8840425999911
 20
152.6683013598569
 10
145.0989048209517
 20
152.6683013598569
 10
144.3282364524957
 20
152.3275811915945
 10
143.4531816219733
 20
151.6538923250251
 10
142.3462717123398
 20
150.8074318058939
 10
141.901854101563
 20
150.1097995099067
 10
141.3578731655807
 20
149.289521733736
 10
140.6299240093235
 20
148.192602607601
 10
140.2850697237518
 20
147.455696197173
 10
139.6652966370939
 20
145.8385673095858
 10
139.0506911970738
 20
144.2214384219986
 10
138.4639910488931
 20
142.3252566160164
 10
138.0571250036778
 20
141.0154304484394
 10
138.0571250036778
 20
141.0154304484394
 10
133.9009590684727
 20
127.8027915271048
 10
133.9009590684727
 20
127.8027915271048
 10
133.9009590684727
 20
127.8027915271048
 10
131.4180771143097
 20
127.8027915271048
 10
131.4180771143097
 20
127.8027915271048
 10
131.4180771143097
 20
127.8027915271048
 10
139.8926730891194
 20
154.8294111834263
 10
139.8926730891194
 20
154.8294111834263
 97
        0
 75
     2
 76
     1
 98
        0
  0
SPLINE
  5
4757
330
1D8B
100
AcDbEntity
  8
TFORMLOGO
 62
    18
420
        0
370
     0
100
AcDbSpline
210
0.0
220
0.0
230
1.0
 70
    11
 71
     3
 72
    32
 73
    28
 74
     0
 42
0.000000001
 43
0.0000000001
 40
0.0
 40
0.0
 40
0.0
 40
0.0
 40
1.0
 40
1.0
 40
1.0
 40
2.0
 40
2.0
 40
2.0
 40
3.0
 40
3.0
 40
3.0
 40
4.0
 40
4.0
 40
4.0
 40
5.0
 40
5.0
 40
5.0
 40
6.0
 40
6.0
 40
6.0
 40
7.0
 40
7.0
 40
7.0
 40
8.0
 40
8.0
 40
8.0
 40
9.0
 40
9.0
 40
9.0
 40
9.0
 10
106.2595617172433
 20
153.4105476718098
 30
0.0
 10
104.822266932621
 20
151.5474388043041
 30
0.0
 10
103.7177685914189
 20
149.8758773721411
 30
0.0
 10
101.9232171692961
 20
144.6141795664062
 30
0.0
 10
100.2754269116635
 20
139.7999999594306
 30
0.0
 10
99.22777268346681
 20
136.3052927937542
 30
0.0
 10
99.06964269637729
 20
132.039572749846
 30
0.0
 10
98.94665270641735
 20
128.8673267343149
 30
0.0
 10
100.8807305877372
 20
127.8027915271048
 30
0.0
 10
103.7129454545575
 20
127.8027915271048
 30
0.0
 10
104.9352661390826
 20
127.8027915271048
 30
0.0
 10
108.0151835347001
 20
127.8827177950895
 30
0.0
 10
110.2045431598849
 20
130.5926316915021
 30
0.0
 10
111.7417457794872
 20
132.4984597712065
 30
0.0
 10
113.1552693895792
 20
134.475256864725
 30
0.0
 10
115.0562743324226
 20
140.9489400617108
 30
0.0
 10
116.6361961642233
 20
146.3680788349845
 30
0.0
 10
117.728292153497
 20
149.8639917848761
 30
0.0
 10
117.6480213757372
 20
151.8595646611754
 30
0.0
 10
117.6480213757372
 20
151.8595646611754
 30
0.0
 10
117.6480213757372
 20
151.8595646611754
 30
0.0
 10
117.6480213757372
 20
151.8595646611754
 30
0.0
 10
117.1322902413699
 20
155.18150017429
 30
0.0
 10
114.7162431837114
 20
155.886194920681
 30
0.0
 10
113.3351034925449
 20
155.886194920681
 30
0.0
 10
111.9829026225448
 20
155.886194920681
 30
0.0
 10
108.3414342923793
 20
156.1251124501957
 30
0.0
 10
106.2595617172433
 20
153.4105476718098
 30
0.0
  0
SPLINE
  5
4758
330
1D8B
100
AcDbEntity
  8
TFORMLOGO
 62
    18
420
        0
370
     0
100
AcDbSpline
210
0.0
220
0.0
230
1.0
 70
    11
 71
     3
 72
    56
 73
    52
 74
     0
 42
0.000000001
 43
0.0000000001
 40
0.0
 40
0.0
 40
0.0
 40
0.0
 40
1.0
 40
1.0
 40
1.0
 40
2.0
 40
2.0
 40
2.0
 40
3.0
 40
3.0
 40
3.0
 40
4.0
 40
4.0
 40
4.0
 40
5.0
 40
5.0
 40
5.0
 40
6.0
 40
6.0
 40
6.0
 40
7.0
 40
7.0
 40
7.0
 40
8.0
 40
8.0
 40
8.0
 40
9.0
 40
9.0
 40
9.0
 40
10.0
 40
10.0
 40
10.0
 40
11.0
 40
11.0
 40
11.0
 40
12.0
 40
12.0
 40
12.0
 40
13.0
 40
13.0
 40
13.0
 40
14.0
 40
14.0
 40
14.0
 40
15.0
 40
15.0
 40
15.0
 40
16.0
 40
16.0
 40
16.0
 40
17.0
 40
17.0
 40
17.0
 40
17.0
 10
100.4504378777679
 20
166.69157178364
 30
0.0
 10
101.9848844191642
 20
167.1313385124438
 30
0.0
 10
103.963748571337
 20
166.7649523658846
 30
0.0
 10
103.963748571337
 20
166.7649523658846
 30
0.0
 10
103.963748571337
 20
166.7649523658846
 30
0.0
 10
103.0132460999152
 20
163.911205638077
 30
0.0
 10
103.0132460999152
 20
163.911205638077
 30
0.0
 10
103.0132460999152
 20
163.911205638077
 30
0.0
 10
101.0674548862189
 20
164.3601018759394
 30
0.0
 10
99.57090442016033
 20
163.1805004036133
 30
0.0
 10
98.40508333886646
 20
162.258247733807
 30
0.0
 10
97.65301849830303
 20
159.804132345923
 30
0.0
 10
97.35984067910067
 20
158.8699940888517
 30
0.0
 10
97.35984067910067
 20
158.8699940888517
 30
0.0
 10
96.07137411762278
 20
154.9119212747295
 30
0.0
 10
96.07137411762278
 20
154.9119212747295
 30
0.0
 10
96.07137411762278
 20
154.9119212747295
 30
0.0
 10
100.3012651448485
 20
154.9119212747295
 30
0.0
 10
100.3012651448485
 20
154.9119212747295
 30
0.0
 10
100.3012651448485
 20
154.9119212747295
 30
0.0
 10
99.64152892419816
 20
152.4199098115079
 30
0.0
 10
99.64152892419816
 20
152.4199098115079
 30
0.0
 10
99.64152892419816
 20
152.4199098115079
 30
0.0
 10
95.38097652692704
 20
152.4199098115079
 30
0.0
 10
95.38097652692704
 20
152.4199098115079
 30
0.0
 10
95.38097652692704
 20
152.4199098115079
 30
0.0
 10
87.75353009079981
 20
127.8027915271048
 30
0.0
 10
87.75353009079981
 20
127.8027915271048
 30
0.0
 10
87.75353009079981
 20
127.8027915271048
 30
0.0
 10
85.36538832498081
 20
127.8027915271048
 30
0.0
 10
85.36538832498081
 20
127.8027915271048
 30
0.0
 10
85.36538832498081
 20
127.8027915271048
 30
0.0
 10
93.00006946639996
 20
152.4199098115079
 30
0.0
 10
93.00006946639996
 20
152.4199098115079
 30
0.0
 10
93.00006946639996
 20
152.4199098115079
 30
0.0
 10
89.85297266450198
 20
152.4199098115079
 30
0.0
 10
89.85297266450198
 20
152.4199098115079
 30
0.0
 10
89.85297266450198
 20
152.4199098115079
 30
0.0
 10
90.51270888515137
 20
154.9119212747295
 30
0.0
 10
90.51270888515137
 20
154.9119212747295
 30
0.0
 10
90.51270888515137
 20
154.9119212747295
 30
0.0
 10
93.6904670570957
 20
154.9119212747295
 30
0.0
 10
93.6904670570957
 20
154.9119212747295
 30
0.0
 10
93.6904670570957
 20
154.9119212747295
 30
0.0
 10
94.81598049462127
 20
158.3616699146644
 30
0.0
 10
94.81598049462127
 20
158.3616699146644
 30
0.0
 10
95.7237637538442
 20
161.2605474231013
 30
0.0
 10
96.49684369073111
 20
162.8139420021662
 30
0.0
 10
97.15657991138096
 20
163.9844139654337
 30
0.0
 10
97.81183750494529
 20
165.1523021053827
 30
0.0
 10
99.10478269350824
 20
166.3084769129547
 30
0.0
 10
100.4504378777679
 20
166.69157178364
 30
0.0
  0
HATCH
  5
4759
330
1D8B
100
AcDbEntity
  8
TFORMLOGO
 62
    18
420
        0
100
AcDbHatch
 10
0.0
 20
0.0
 30
0.0
210
0.0
220
0.0
230
1.0
  2
SOLID
 70
     1
 71
     0
 91
        1
 92
        1
 93
        8
 72
     1
 10
83.79545727667801
 20
167.6444858234922
 11
83.79545727667801
 21
159.7968976406313
 72
     1
 10
83.79545727667801
 20
159.7968976406313
 11
71.36313299752166
 21
159.7968976406313
 72
     1
 10
71.36313299752192
 20
159.7968976406313
 11
71.36313299752192
 21
127.8027915271048
 72
     1
 10
71.36313299752192
 20
127.8027915271048
 11
60.43011526263049
 21
127.8027915271048
 72
     1
 10
60.4301152626299
 20
127.8027915271048
 11
60.4301152626299
 21
159.7968976406313
 72
     1
 10
60.4301152626299
 20
159.7968976406313
 11
48.21793273020731
 21
159.7968976406313
 72
     1
 10
48.21793273020739
 20
159.7968976406313
 11
48.21793273020739
 21
167.6444858234922
 72
     1
 10
48.21793273020739
 20
167.6444858234922
 11
83.79545727667775
 21
167.6444858234922
 97
        0
 75
     2
 76
     1
 98
        0
  0
POLYLINE
  5
475A
330
1D8B
100
AcDbEntity
  8
TFORMLOGO
 62
    18
420
        0
370
     0
100
AcDb2dPolyline
 66
     1
 10
0.0
 20
0.0
 30
0.0
  0
VERTEX
  5
475B
330
475A
100
AcDbEntity
  8
TFORMLOGO
 62
    18
420
        0
370
     0
100
AcDbVertex
100
AcDb2dVertex
 10
83.79545727667801
 20
167.6444858234922
 30
0.0
  0
VERTEX
  5
475C
330
475A
100
AcDbEntity
  8
TFORMLOGO
 62
    18
420
        0
370
     0
100
AcDbVertex
100
AcDb2dVertex
 10
83.79545727667801
 20
159.7968976406313
 30
0.0
  0
VERTEX
  5
475D
330
475A
100
AcDbEntity
  8
TFORMLOGO
 62
    18
420
        0
370
     0
100
AcDbVertex
100
AcDb2dVertex
 10
71.36313299752192
 20
159.7968976406313
 30
0.0
  0
VERTEX
  5
475E
330
475A
100
AcDbEntity
  8
TFORMLOGO
 62
    18
420
        0
370
     0
100
AcDbVertex
100
AcDb2dVertex
 10
71.36313299752192
 20
127.8027915271048
 30
0.0
  0
VERTEX
  5
475F
330
475A
100
AcDbEntity
  8
TFORMLOGO
 62
    18
420
        0
370
     0
100
AcDbVertex
100
AcDb2dVertex
 10
60.4301152626299
 20
127.8027915271048
 30
0.0
  0
VERTEX
  5
4760
330
475A
100
AcDbEntity
  8
TFORMLOGO
 62
    18
420
        0
370
     0
100
AcDbVertex
100
AcDb2dVertex
 10
60.4301152626299
 20
159.7968976406313
 30
0.0
  0
VERTEX
  5
4761
330
475A
100
AcDbEntity
  8
TFORMLOGO
 62
    18
420
        0
370
     0
100
AcDbVertex
100
AcDb2dVertex
 10
48.21793273020739
 20
159.7968976406313
 30
0.0
  0
VERTEX
  5
4762
330
475A
100
AcDbEntity
  8
TFORMLOGO
 62
    18
420
        0
370
     0
100
AcDbVertex
100
AcDb2dVertex
 10
48.21793273020739
 20
167.6444858234922
 30
0.0
  0
VERTEX
  5
4763
330
475A
100
AcDbEntity
  8
TFORMLOGO
 62
    18
420
        0
370
     0
100
AcDbVertex
100
AcDb2dVertex
 10
83.79545727667801
 20
167.6444858234922
 30
0.0
  0
SEQEND
  5
4764
330
475A
100
AcDbEntity
  8
TFORMLOGO
 62
    18
420
        0
370
     0
  0
HATCH
  5
4765
330
1D8B
100
AcDbEntity
  8
TFORMLOGO
 62
    18
420
        0
100
AcDbHatch
 10
0.0
 20
0.0
 30
0.0
210
0.0
220
0.0
230
1.0
  2
SOLID
 70
     1
 71
     0
 91
        1
 92
        1
 93
        1
 72
     4
 94
        3
 73
     0
 74
     1
 95
       38
 96
       34
 40
0.0
 40
0.0
 40
0.0
 40
0.0
 40
1.0
 40
1.0
 40
1.0
 40
2.0
 40
2.0
 40
2.0
 40
3.0
 40
3.0
 40
3.0
 40
4.0
 40
4.0
 40
4.0
 40
5.0
 40
5.0
 40
5.0
 40
6.0
 40
6.0
 40
6.0
 40
7.0
 40
7.0
 40
7.0
 40
8.0
 40
8.0
 40
8.0
 40
9.0
 40
9.0
 40
9.0
 40
10.0
 40
10.0
 40
10.0
 40
11.0
 40
11.0
 40
11.0
 40
11.0
 10
126.3775545846356
 20
154.8151140277308
 10
126.3775545846356
 20
154.8151140277308
 10
128.831153207856
 20
154.8151140277308
 10
128.831153207856
 20
154.8151140277308
 10
128.831153207856
 20
154.8151140277308
 10
127.7345785914972
 20
151.3062819612468
 10
127.7345785914972
 20
151.3062819612468
 10
128.5713928369064
 20
152.2922689395754
 10
129.8860421413442
 20
153.604506675583
 10
131.0163787157312
 20
154.2664822097754
 10
132.704476617133
 20
155.2500576196734
 10
133.6642808525007
 20
155.3847609420097
 10
134.7284715499354
 20
155.3565111403944
 10
134.7284715499354
 20
155.3565111403944
 10
133.6877075172547
 20
152.0345756272799
 10
133.6877075172547
 20
152.0345756272799
 10
133.0114348273673
 20
152.3184516825359
 10
130.9309402913341
 20
151.7768823149844
 10
129.7392809768553
 20
150.9162968950455
 10
128.66613302525
 20
150.1454562717016
 10
127.9192358313235
 20
149.4857200510519
 10
127.0393578639405
 20
147.8282835196966
 10
126.164647543194
 20
146.1699857139017
 10
125.4742499524987
 20
143.5262176944419
 10
124.282246128244
 20
139.6959580071401
 10
124.282246128244
 20
139.6959580071401
 10
120.5753209406766
 20
127.8027915271048
 10
120.5753209406766
 20
127.8027915271048
 10
120.5753209406766
 20
127.8027915271048
 10
118.1964809388046
 20
127.8027915271048
 10
118.1964809388046
 20
127.8027915271048
 10
118.1964809388046
 20
127.8027915271048
 10
126.3775545846356
 20
154.8151140277308
 10
126.3775545846356
 20
154.8151140277308
 97
        0
 75
     2
 76
     1
 98
        0
  0
HATCH
  5
4766
330
1D8B
100
AcDbEntity
  8
TFORMLOGO
 62
    18
420
        0
100
AcDbHatch
 10
0.0
 20
0.0
 30
0.0
210
0.0
220
0.0
230
1.0
  2
SOLID
 70
     1
 71
     0
 91
        2
 92
        1
 93
        1
 72
     4
 94
        3
 73
     0
 74
     1
 95
       29
 96
       25
 40
0.0
 40
0.0
 40
0.0
 40
0.0
 40
1.0
 40
1.0
 40
1.0
 40
2.0
 40
2.0
 40
2.0
 40
3.0
 40
3.0
 40
3.0
 40
4.0
 40
4.0
 40
4.0
 40
5.0
 40
5.0
 40
5.0
 40
6.0
 40
6.0
 40
6.0
 40
7.0
 40
7.0
 40
7.0
 40
8.0
 40
8.0
 40
8.0
 40
8.0
 10
101.6420971922466
 20
132.8388354296931
 10
101.6300393500937
 20
134.7164137077823
 10
102.2236296937908
 20
138.0598810818841
 10
103.7487744712403
 20
142.5378191476827
 10
105.819967243327
 20
148.5896501242061
 10
107.0602024361933
 20
150.8074318058939
 10
108.1522984254675
 20
151.8833358357054
 10
109.7411775114392
 20
153.4532668840085
 10
111.8740375333932
 20
153.5290590346837
 10
112.5075910110822
 20
153.4532668840085
 10
113.4012493694977
 20
153.3490526768302
 10
114.6683563248757
 20
152.7580461564518
 10
114.7493161221878
 20
150.7838328862519
 10
114.8106388622796
 20
149.0909118479895
 10
114.3186789024426
 20
145.9191825971221
 10
112.6164561002338
 20
140.9489400617108
 10
110.6444821435762
 20
135.1746117095912
 10
109.4669477299053
 20
132.8960240524753
 10
108.521268395345
 20
131.9072809959403
 10
106.734640698066
 20
130.0538184021569
 10
104.822266932621
 20
130.2336525051225
 10
104.5408024457956
 20
130.2336525051225
 10
104.172176985694
 20
130.2336525051225
 10
101.6465758193322
 20
130.6305277668397
 10
101.6420971922466
 20
132.8388354296931
 97
        0
 92
        1
 93
        1
 72
     4
 94
        3
 73
     0
 74
     1
 95
       32
 96
       28
 40
0.0
 40
0.0
 40
0.0
 40
0.0
 40
1.0
 40
1.0
 40
1.0
 40
2.0
 40
2.0
 40
2.0
 40
3.0
 40
3.0
 40
3.0
 40
4.0
 40
4.0
 40
4.0
 40
5.0
 40
5.0
 40
5.0
 40
6.0
 40
6.0
 40
6.0
 40
7.0
 40
7.0
 40
7.0
 40
8.0
 40
8.0
 40
8.0
 40
9.0
 40
9.0
 40
9.0
 40
9.0
 10
106.2595617172433
 20
153.4105476718098
 10
104.822266932621
 20
151.5474388043041
 10
103.7177685914189
 20
149.8758773721411
 10
101.9232171692961
 20
144.6141795664062
 10
100.2754269116635
 20
139.7999999594306
 10
99.22777268346681
 20
136.3052927937542
 10
99.06964269637729
 20
132.039572749846
 10
98.94665270641735
 20
128.8673267343149
 10
100.8807305877372
 20
127.8027915271048
 10
103.7129454545575
 20
127.8027915271048
 10
104.9352661390826
 20
127.8027915271048
 10
108.0151835347001
 20
127.8827177950895
 10
110.2045431598849
 20
130.5926316915021
 10
111.7417457794872
 20
132.4984597712065
 10
113.1552693895792
 20
134.475256864725
 10
115.0562743324226
 20
140.9489400617108
 10
116.6361961642233
 20
146.3680788349845
 10
117.728292153497
 20
149.8639917848761
 10
117.6480213757372
 20
151.8595646611754
 10
117.6480213757372
 20
151.8595646611754
 10
117.6480213757372
 20
151.8595646611754
 10
117.6480213757372
 20
151.8595646611754
 10
117.1322902413699
 20
155.18150017429
 10
114.7162431837114
 20
155.886194920681
 10
113.3351034925449
 20
155.886194920681
 10
111.9829026225448
 20
155.886194920681
 10
108.3414342923793
 20
156.1251124501957
 10
106.2595617172433
 20
153.4105476718098
 97
        0
 75
     2
 76
     1
 98
        0
  0
SPLINE
  5
4767
330
1D8B
100
AcDbEntity
  8
TFORMLOGO
 62
    18
420
        0
370
     0
100
AcDbSpline
210
0.0
220
0.0
230
1.0
 70
    11
 71
     3
 72
    29
 73
    25
 74
     0
 42
0.000000001
 43
0.0000000001
 40
0.0
 40
0.0
 40
0.0
 40
0.0
 40
1.0
 40
1.0
 40
1.0
 40
2.0
 40
2.0
 40
2.0
 40
3.0
 40
3.0
 40
3.0
 40
4.0
 40
4.0
 40
4.0
 40
5.0
 40
5.0
 40
5.0
 40
6.0
 40
6.0
 40
6.0
 40
7.0
 40
7.0
 40
7.0
 40
8.0
 40
8.0
 40
8.0
 40
8.0
 10
101.6420971922466
 20
132.8388354296931
 30
0.0
 10
101.6300393500937
 20
134.7164137077823
 30
0.0
 10
102.2236296937908
 20
138.0598810818841
 30
0.0
 10
103.7487744712403
 20
142.5378191476827
 30
0.0
 10
105.819967243327
 20
148.5896501242061
 30
0.0
 10
107.0602024361933
 20
150.8074318058939
 30
0.0
 10
108.1522984254675
 20
151.8833358357054
 30
0.0
 10
109.7411775114392
 20
153.4532668840085
 30
0.0
 10
111.8740375333932
 20
153.5290590346837
 30
0.0
 10
112.5075910110822
 20
153.4532668840085
 30
0.0
 10
113.4012493694977
 20
153.3490526768302
 30
0.0
 10
114.6683563248757
 20
152.7580461564518
 30
0.0
 10
114.7493161221878
 20
150.7838328862519
 30
0.0
 10
114.8106388622796
 20
149.0909118479895
 30
0.0
 10
114.3186789024426
 20
145.9191825971221
 30
0.0
 10
112.6164561002338
 20
140.9489400617108
 30
0.0
 10
110.6444821435762
 20
135.1746117095912
 30
0.0
 10
109.4669477299053
 20
132.8960240524753
 30
0.0
 10
108.521268395345
 20
131.9072809959403
 30
0.0
 10
106.734640698066
 20
130.0538184021569
 30
0.0
 10
104.822266932621
 20
130.2336525051225
 30
0.0
 10
104.5408024457956
 20
130.2336525051225
 30
0.0
 10
104.172176985694
 20
130.2336525051225
 30
0.0
 10
101.6465758193322
 20
130.6305277668397
 30
0.0
 10
101.6420971922466
 20
132.8388354296931
 30
0.0
  0
ENDBLK
  5
1DAE
330
1D8B
100
AcDbEntity
  8
0
100
AcDbBlockEnd
  0
BLOCK
  5
49CE
330
49CD
100
AcDbEntity
  8
0
100
AcDbBlockBegin
  2
*D4
 70
     1
 10
0.0
 20
0.0
 30
0.0
  3
*D4
  1
*D96
  0
LINE
  5
49D0
330
49CD
100
AcDbEntity
  8
寸法
 62
     0
370
    -2
100
AcDbLine
 10
97.2926229877993
 20
305.2728147763775
 30
0.0
 11
83.44315781628401
 21
305.2728147763775
 31
0.0
  0
LINE
  5
49D1
330
49CD
100
AcDbEntity
  8
寸法
 62
     0
370
    -2
100
AcDbLine
 10
97.2926229877993
 20
297.228511511537
 30
0.0
 11
83.44315781628401
 21
297.228511511537
 31
0.0
  0
LINE
  5
49D2
330
49CD
100
AcDbEntity
  8
寸法
 62
     0
370
    -2
100
AcDbLine
 10
83.44315781628401
 20
303.2728147763775
 30
0.0
 11
83.44315781628401
 21
299.228511511537
 31
0.0
  0
INSERT
  5
49D3
330
49CD
100
AcDbEntity
  8
寸法
 62
     0
370
    -2
100
AcDbBlockReference
  2
_DOT
 10
83.44315781628401
 20
305.2728147763775
 30
0.0
 41
2.0
 42
2.0
 43
2.0
 50
90.0
  0
INSERT
  5
49D4
330
49CD
100
AcDbEntity
  8
寸法
 62
     0
370
    -2
100
AcDbBlockReference
  2
_DOT
 10
83.44315781628401
 20
297.228511511537
 30
0.0
 41
2.0
 42
2.0
 43
2.0
 50
270.0
  0
MTEXT
  5
49D5
330
49CD
100
AcDbEntity
  8
寸法
 62
     0
100
AcDbMText
 10
78.94315781628401
 20
301.2506631439572
 30
0.0
 40
5.0
 41
0.0
 46
0.0
 71
     5
 72
     1
  1
\A1;8
  7
ＭＳ ゴシック
 11
0.0
 21
1.0
 31
0.0
 73
     1
 44
1.0
  0
POINT
  5
49D6
330
49CD
100
AcDbEntity
  8
Defpoints
 62
     0
100
AcDbPoint
 10
102.2926229877993
 20
305.2728147763775
 30
0.0
  0
POINT
  5
49D7
330
49CD
100
AcDbEntity
  8
Defpoints
 62
     0
100
AcDbPoint
 10
102.2926229877993
 20
297.228511511537
 30
0.0
  0
POINT
  5
49D8
330
49CD
100
AcDbEntity
  8
Defpoints
 62
     0
100
AcDbPoint
 10
83.44315781628401
 20
297.228511511537
 30
0.0
  0
ENDBLK
  5
49CF
330
49CD
100
AcDbEntity
  8
0
100
AcDbBlockEnd
  0
BLOCK
  5
49DE
330
49DD
100
AcDbEntity
  8
0
100
AcDbBlockBegin
  2
*D5
 70
     1
 10
0.0
 20
0.0
 30
0.0
  3
*D5
  1
*D97
  0
LINE
  5
49E0
330
49DD
100
AcDbEntity
  8
寸法
 62
     0
370
    -2
100
AcDbLine
 10
97.2926229877993
 20
297.228511511537
 30
0.0
 11
83.44315781628401
 21
297.228511511537
 31
0.0
  0
LINE
  5
49E1
330
49DD
100
AcDbEntity
  8
寸法
 62
     0
370
    -2
100
AcDbLine
 10
118.3280880191552
 20
231.1887879253046
 30
0.0
 11
83.44315781628401
 21
231.1887879253046
 31
0.0
  0
LINE
  5
49E2
330
49DD
100
AcDbEntity
  8
寸法
 62
     0
370
    -2
100
AcDbLine
 10
83.44315781628401
 20
295.228511511537
 30
0.0
 11
83.44315781628401
 21
233.1887879253046
 31
0.0
  0
INSERT
  5
49E3
330
49DD
100
AcDbEntity
  8
寸法
 62
     0
370
    -2
100
AcDbBlockReference
  2
_DOT
 10
83.44315781628401
 20
297.228511511537
 30
0.0
 41
2.0
 42
2.0
 43
2.0
 50
90.0
  0
INSERT
  5
49E4
330
49DD
100
AcDbEntity
  8
寸法
 62
     0
370
    -2
100
AcDbBlockReference
  2
_DOT
 10
83.44315781628401
 20
231.1887879253046
 30
0.0
 41
2.0
 42
2.0
 43
2.0
 50
270.0
  0
MTEXT
  5
49E5
330
49DD
100
AcDbEntity
  8
寸法
 62
     0
100
AcDbMText
 10
78.94315781628401
 20
264.2086497184208
 30
0.0
 40
5.0
 41
0.0
 46
0.0
 71
     5
 72
     1
  1
\A1;66
  7
ＭＳ ゴシック
 11
0.0
 21
1.0
 31
0.0
 73
     1
 44
1.0
  0
POINT
  5
49E6
330
49DD
100
AcDbEntity
  8
Defpoints
 62
     0
100
AcDbPoint
 10
102.2926229877993
 20
297.228511511537
 30
0.0
  0
POINT
  5
49E7
330
49DD
100
AcDbEntity
  8
Defpoints
 62
     0
100
AcDbPoint
 10
123.3280880191552
 20
231.1887879253046
 30
0.0
  0
POINT
  5
49E8
330
49DD
100
AcDbEntity
  8
Defpoints
 62
     0
100
AcDbPoint
 10
83.44315781628401
 20
231.1887879253046
 30
0.0
  0
ENDBLK
  5
49DF
330
49DD
100
AcDbEntity
  8
0
100
AcDbBlockEnd
  0
BLOCK
  5
49ED
330
49EC
100
AcDbEntity
  8
0
100
AcDbBlockBegin
  2
*D6
 70
     1
 10
0.0
 20
0.0
 30
0.0
  3
*D6
  1
*D98
  0
LINE
  5
49EF
330
49EC
100
AcDbEntity
  8
寸法
 62
     0
370
    -2
100
AcDbLine
 10
159.3635530505111
 20
305.2728147763775
 30
0.0
 11
171.8159145985728
 21
305.2728147763775
 31
0.0
  0
LINE
  5
49F0
330
49EC
100
AcDbEntity
  8
寸法
 62
     0
370
    -2
100
AcDbLine
 10
141.3641211166502
 20
231.1887879253046
 30
0.0
 11
171.8159145985728
 21
231.1887879253046
 31
0.0
  0
LINE
  5
49F1
330
49EC
100
AcDbEntity
  8
寸法
 62
     0
370
    -2
100
AcDbLine
 10
171.8159145985728
 20
303.2728147763775
 30
0.0
 11
171.8159145985728
 21
233.1887879253046
 31
0.0
  0
INSERT
  5
49F2
330
49EC
100
AcDbEntity
  8
寸法
 62
     0
370
    -2
100
AcDbBlockReference
  2
_DOT
 10
171.8159145985728
 20
305.2728147763775
 30
0.0
 41
2.0
 42
2.0
 43
2.0
 50
90.0
  0
INSERT
  5
49F3
330
49EC
100
AcDbEntity
  8
寸法
 62
     0
370
    -2
100
AcDbBlockReference
  2
_DOT
 10
171.8159145985728
 20
231.1887879253046
 30
0.0
 41
2.0
 42
2.0
 43
2.0
 50
270.0
  0
MTEXT
  5
49F4
330
49EC
100
AcDbEntity
  8
寸法
 62
     0
100
AcDbMText
 10
167.3159145985728
 20
268.230801350841
 30
0.0
 40
5.0
 41
0.0
 46
0.0
 71
     5
 72
     1
  1
\A1;74
  7
ＭＳ ゴシック
 11
0.0
 21
1.0
 31
0.0
 73
     1
 44
1.0
  0
POINT
  5
49F5
330
49EC
100
AcDbEntity
  8
Defpoints
 62
     0
100
AcDbPoint
 10
154.3635530505111
 20
305.2728147763775
 30
0.0
  0
POINT
  5
49F6
330
49EC
100
AcDbEntity
  8
Defpoints
 62
     0
100
AcDbPoint
 10
136.3641211166502
 20
231.1887879253046
 30
0.0
  0
POINT
  5
49F7
330
49EC
100
AcDbEntity
  8
Defpoints
 62
     0
100
AcDbPoint
 10
171.8159145985728
 20
231.1887879253046
 30
0.0
  0
ENDBLK
  5
49EE
330
49EC
100
AcDbEntity
  8
0
100
AcDbBlockEnd
  0
BLOCK
  5
4A0C
330
4A0B
100
AcDbEntity
  8
0
100
AcDbBlockBegin
  2
*D7
 70
     1
 10
0.0
 20
0.0
 30
0.0
  3
*D7
  1
*D100
  0
LINE
  5
4A0E
330
4A0B
100
AcDbEntity
  8
寸法
 62
     0
370
    -2
100
AcDbLine
 10
112.6643063987177
 20
239.1090057245849
 30
0.0
 11
112.6643063987177
 21
210.3234768332947
 31
0.0
  0
LINE
  5
4A0F
330
4A0B
100
AcDbEntity
  8
寸法
 62
     0
370
    -2
100
AcDbLine
 10
144.1643063987177
 20
239.1090057245849
 30
0.0
 11
144.1643063987177
 21
210.3234768332947
 31
0.0
  0
LINE
  5
4A10
330
4A0B
100
AcDbEntity
  8
寸法
 62
     0
370
    -2
100
AcDbLine
 10
114.6643063987177
 20
210.3234768332947
 30
0.0
 11
142.1643063987177
 21
210.3234768332947
 31
0.0
  0
INSERT
  5
4A11
330
4A0B
100
AcDbEntity
  8
寸法
 62
     0
370
    -2
100
AcDbBlockReference
  2
_DOT
 10
112.6643063987177
 20
210.3234768332947
 30
0.0
 41
2.0
 42
2.0
 43
2.0
 50
180.0
  0
INSERT
  5
4A12
330
4A0B
100
AcDbEntity
  8
寸法
 62
     0
370
    -2
100
AcDbBlockReference
  2
_DOT
 10
144.1643063987177
 20
210.3234768332947
 30
0.0
 41
2.0
 42
2.0
 43
2.0
  0
MTEXT
  5
4A13
330
4A0B
100
AcDbEntity
  8
寸法
 62
     0
100
AcDbMText
 10
128.4143063987177
 20
214.8234768332947
 30
0.0
 40
5.0
 41
0.0
 46
0.0
 71
     5
 72
     1
  1
\A1;31.5
  7
ＭＳ ゴシック
 73
     1
 44
1.0
  0
POINT
  5
4A14
330
4A0B
100
AcDbEntity
  8
Defpoints
 62
     0
100
AcDbPoint
 10
112.6643063987177
 20
244.1090057245849
 30
0.0
  0
POINT
  5
4A15
330
4A0B
100
AcDbEntity
  8
Defpoints
 62
     0
100
AcDbPoint
 10
144.1643063987177
 20
244.1090057245849
 30
0.0
  0
POINT
  5
4A16
330
4A0B
100
AcDbEntity
  8
Defpoints
 62
     0
100
AcDbPoint
 10
144.1643063987177
 20
210.3234768332947
 30
0.0
  0
ENDBLK
  5
4A0D
330
4A0B
100
AcDbEntity
  8
0
100
AcDbBlockEnd
  0
BLOCK
  5
4A24
330
4A23
100
AcDbEntity
  8
0
100
AcDbBlockBegin
  2
*D8
 70
     1
 10
0.0
 20
0.0
 30
0.0
  3
*D8
  1
*D101
  0
LINE
  5
4A26
330
4A23
100
AcDbEntity
  8
寸法
 62
     0
370
    -2
100
AcDbLine
 10
152.6658167268853
 20
203.9654576188434
 30
0.0
 11
183.916408024148
 21
203.9654576188434
 31
0.0
  0
LINE
  5
4A27
330
4A23
100
AcDbEntity
  8
寸法
 62
     0
370
    -2
100
AcDbLine
 10
152.6658167268853
 20
94.32349892283385
 30
0.0
 11
183.916408024148
 21
94.32349892283386
 31
0.0
  0
LINE
  5
4A28
330
4A23
100
AcDbEntity
  8
寸法
 62
     0
370
    -2
100
AcDbLine
 10
183.916408024148
 20
201.9654576188434
 30
0.0
 11
183.916408024148
 21
96.32349892283386
 31
0.0
  0
INSERT
  5
4A29
330
4A23
100
AcDbEntity
  8
寸法
 62
     0
370
    -2
100
AcDbBlockReference
  2
_DOT
 10
183.916408024148
 20
203.9654576188434
 30
0.0
 41
2.0
 42
2.0
 43
2.0
 50
90.00000000000001
  0
INSERT
  5
4A2A
330
4A23
100
AcDbEntity
  8
寸法
 62
     0
370
    -2
100
AcDbBlockReference
  2
_DOT
 10
183.916408024148
 20
94.32349892283386
 30
0.0
 41
2.0
 42
2.0
 43
2.0
 50
270.0
  0
MTEXT
  5
4A2B
330
4A23
100
AcDbEntity
  8
寸法
 62
     0
100
AcDbMText
 10
179.416408024148
 20
149.1444782708386
 30
0.0
 40
5.0
 41
0.0
 46
0.0
 71
     5
 72
     1
  1
\A1;110
  7
ＭＳ ゴシック
 11
-2.592229267739124E-16
 21
1.0
 31
0.0
 73
     1
 44
1.0
  0
POINT
  5
4A2C
330
4A23
100
AcDbEntity
  8
Defpoints
 62
     0
100
AcDbPoint
 10
147.6658167268853
 20
203.9654576188434
 30
0.0
  0
POINT
  5
4A2D
330
4A23
100
AcDbEntity
  8
Defpoints
 62
     0
100
AcDbPoint
 10
147.6658167268853
 20
94.32349892283385
 30
0.0
  0
POINT
  5
4A2E
330
4A23
100
AcDbEntity
  8
Defpoints
 62
     0
100
AcDbPoint
 10
183.916408024148
 20
94.32349892283386
 30
0.0
  0
ENDBLK
  5
4A25
330
4A23
100
AcDbEntity
  8
0
100
AcDbBlockEnd
  0
BLOCK
  5
4A31
330
4A30
100
AcDbEntity
  8
0
100
AcDbBlockBegin
  2
*D9
 70
     1
 10
0.0
 20
0.0
 30
0.0
  3
*D9
  1
*D102
  0
LINE
  5
4A33
330
4A30
100
AcDbEntity
  8
寸法
 62
     0
370
    -2
100
AcDbLine
 10
109.5177752986487
 20
175.5329130430489
 30
0.0
 11
90.15812786378842
 21
175.5329130430489
 31
0.0
  0
LINE
  5
4A34
330
4A30
100
AcDbEntity
  8
寸法
 62
     0
370
    -2
100
AcDbLine
 10
109.5177752986487
 20
123.5329130430489
 30
0.0
 11
90.15812786378842
 21
123.5329130430489
 31
0.0
  0
LINE
  5
4A35
330
4A30
100
AcDbEntity
  8
寸法
 62
     0
370
    -2
100
AcDbLine
 10
90.15812786378842
 20
173.5329130430489
 30
0.0
 11
90.15812786378842
 21
125.5329130430489
 31
0.0
  0
INSERT
  5
4A36
330
4A30
100
AcDbEntity
  8
寸法
 62
     0
370
    -2
100
AcDbBlockReference
  2
_DOT
 10
90.15812786378842
 20
175.5329130430489
 30
0.0
 41
2.0
 42
2.0
 43
2.0
 50
90.0
  0
INSERT
  5
4A37
330
4A30
100
AcDbEntity
  8
寸法
 62
     0
370
    -2
100
AcDbBlockReference
  2
_DOT
 10
90.15812786378842
 20
123.5329130430489
 30
0.0
 41
2.0
 42
2.0
 43
2.0
 50
270.0
  0
MTEXT
  5
4A38
330
4A30
100
AcDbEntity
  8
寸法
 62
     0
100
AcDbMText
 10
85.65812786378842
 20
149.5329130430489
 30
0.0
 40
5.0
 41
0.0
 46
0.0
 71
     5
 72
     1
  1
\A1;52
  7
ＭＳ ゴシック
 11
0.0
 21
1.0
 31
0.0
 73
     1
 44
1.0
  0
POINT
  5
4A39
330
4A30
100
AcDbEntity
  8
Defpoints
 62
     0
100
AcDbPoint
 10
114.5177752986487
 20
175.5329130430489
 30
0.0
  0
POINT
  5
4A3A
330
4A30
100
AcDbEntity
  8
Defpoints
 62
     0
100
AcDbPoint
 10
114.5177752986487
 20
123.5329130430489
 30
0.0
  0
POINT
  5
4A3B
330
4A30
100
AcDbEntity
  8
Defpoints
 62
     0
100
AcDbPoint
 10
90.15812786378842
 20
123.5329130430489
 30
0.0
  0
ENDBLK
  5
4A32
330
4A30
100
AcDbEntity
  8
0
100
AcDbBlockEnd
  0
BLOCK
  5
4A44
330
4A43
100
AcDbEntity
  8
0
100
AcDbBlockBegin
  2
*D10
 70
     1
 10
0.0
 20
0.0
 30
0.0
  3
*D10
  1
*D103
  0
LINE
  5
4A46
330
4A43
100
AcDbEntity
  8
寸法
 62
     0
370
    -2
100
AcDbLine
 10
117.3227232313466
 20
238.4399860621526
 30
0.0
 11
117.3227232313466
 21
220.5713494873525
 31
0.0
  0
LINE
  5
4A47
330
4A43
100
AcDbEntity
  8
寸法
 62
     0
370
    -2
100
AcDbLine
 10
139.3334528069637
 20
238.4399860621526
 30
0.0
 11
139.3334528069637
 21
220.5713494873525
 31
0.0
  0
LINE
  5
4A48
330
4A43
100
AcDbEntity
  8
寸法
 62
     0
370
    -2
100
AcDbLine
 10
119.3227232313466
 20
220.5713494873525
 30
0.0
 11
137.3334528069637
 21
220.5713494873525
 31
0.0
  0
INSERT
  5
4A49
330
4A43
100
AcDbEntity
  8
寸法
 62
     0
370
    -2
100
AcDbBlockReference
  2
_DOT
 10
117.3227232313466
 20
220.5713494873525
 30
0.0
 41
2.0
 42
2.0
 43
2.0
 50
180.0
  0
INSERT
  5
4A4A
330
4A43
100
AcDbEntity
  8
寸法
 62
     0
370
    -2
100
AcDbBlockReference
  2
_DOT
 10
139.3334528069637
 20
220.5713494873525
 30
0.0
 41
2.0
 42
2.0
 43
2.0
  0
MTEXT
  5
4A4B
330
4A43
100
AcDbEntity
  8
寸法
 62
     0
100
AcDbMText
 10
128.3280880191551
 20
225.0713494873525
 30
0.0
 40
5.0
 41
0.0
 46
0.0
 71
     5
 72
     1
  1
\A1;22
  7
ＭＳ ゴシック
 73
     1
 44
1.0
  0
POINT
  5
4A4C
330
4A43
100
AcDbEntity
  8
Defpoints
 62
     0
100
AcDbPoint
 10
117.3227232313466
 20
243.4399860621526
 30
0.0
  0
POINT
  5
4A4D
330
4A43
100
AcDbEntity
  8
Defpoints
 62
     0
100
AcDbPoint
 10
139.3334528069637
 20
243.4399860621526
 30
0.0
  0
POINT
  5
4A4E
330
4A43
100
AcDbEntity
  8
Defpoints
 62
     0
100
AcDbPoint
 10
139.3334528069637
 20
220.5713494873525
 30
0.0
  0
ENDBLK
  5
4A45
330
4A43
100
AcDbEntity
  8
0
100
AcDbBlockEnd
  0
BLOCK
  5
4CCA
330
4CC9
100
AcDbEntity
  8
0
100
AcDbBlockBegin
  2
*D11
 70
     1
 10
0.0
 20
0.0
 30
0.0
  3
*D11
  1
*D110
  0
LINE
  5
4CCC
330
4CC9
100
AcDbEntity
  8
寸法
 62
     0
370
    -2
100
AcDbLine
 10
509.2006287229663
 20
270.6342087321747
 30
0.0
 11
509.2006287229663
 21
257.9905024700137
 31
0.0
  0
LINE
  5
4CCD
330
4CC9
100
AcDbEntity
  8
寸法
 62
     0
370
    -2
100
AcDbLine
 10
489.2006287229663
 20
267.1411558261331
 30
0.0
 11
489.2006287229663
 21
257.9905024700137
 31
0.0
  0
LINE
  5
4CCE
330
4CC9
100
AcDbEntity
  8
寸法
 62
     0
370
    -2
100
AcDbLine
 10
507.2006287229663
 20
257.9905024700137
 30
0.0
 11
491.2006287229663
 21
257.9905024700137
 31
0.0
  0
INSERT
  5
4CCF
330
4CC9
100
AcDbEntity
  8
寸法
 62
     0
370
    -2
100
AcDbBlockReference
  2
_DOT
 10
509.2006287229663
 20
257.9905024700137
 30
0.0
 41
2.0
 42
2.0
 43
2.0
  0
INSERT
  5
4CD0
330
4CC9
100
AcDbEntity
  8
寸法
 62
     0
370
    -2
100
AcDbBlockReference
  2
_DOT
 10
489.2006287229663
 20
257.9905024700137
 30
0.0
 41
2.0
 42
2.0
 43
2.0
 50
180.0
  0
MTEXT
  5
4CD1
330
4CC9
100
AcDbEntity
  8
寸法
 62
     0
100
AcDbMText
 10
499.2006287229663
 20
262.4905024700137
 30
0.0
 40
5.0
 41
0.0
 46
0.0
 71
     5
 72
     1
  1
\A1;20
  7
ＭＳ ゴシック
 73
     1
 44
1.0
  0
POINT
  5
4CD2
330
4CC9
100
AcDbEntity
  8
Defpoints
 62
     0
100
AcDbPoint
 10
509.2006287229663
 20
275.6342087321747
 30
0.0
  0
POINT
  5
4CD3
330
4CC9
100
AcDbEntity
  8
Defpoints
 62
     0
100
AcDbPoint
 10
489.2006287229663
 20
272.1411558261331
 30
0.0
  0
POINT
  5
4CD4
330
4CC9
100
AcDbEntity
  8
Defpoints
 62
     0
100
AcDbPoint
 10
489.2006287229663
 20
257.9905024700137
 30
0.0
  0
ENDBLK
  5
4CCB
330
4CC9
100
AcDbEntity
  8
0
100
AcDbBlockEnd
  0
BLOCK
  5
4CD6
330
4CD5
100
AcDbEntity
  8
0
100
AcDbBlockBegin
  2
*D12
 70
     1
 10
0.0
 20
0.0
 30
0.0
  3
*D12
  1
*D111
  0
LINE
  5
4CD8
330
4CD5
100
AcDbEntity
  8
寸法
 62
     0
370
    -2
100
AcDbLine
 10
489.2006287229663
 20
267.1411558261331
 30
0.0
 11
489.2006287229663
 21
257.9905024700137
 31
0.0
  0
LINE
  5
4CD9
330
4CD5
100
AcDbEntity
  8
寸法
 62
     0
370
    -2
100
AcDbLine
 10
484.2006287229663
 20
267.1411558261331
 30
0.0
 11
484.2006287229663
 21
257.9905024700137
 31
0.0
  0
LINE
  5
4CDA
330
4CD5
100
AcDbEntity
  8
寸法
 62
     0
370
    -2
100
AcDbLine
 10
487.2006287229663
 20
257.9905024700137
 30
0.0
 11
486.2006287229663
 21
257.9905024700137
 31
0.0
  0
INSERT
  5
4CDB
330
4CD5
100
AcDbEntity
  8
寸法
 62
     0
370
    -2
100
AcDbBlockReference
  2
_DOT
 10
489.2006287229663
 20
257.9905024700137
 30
0.0
 41
2.0
 42
2.0
 43
2.0
  0
INSERT
  5
4CDC
330
4CD5
100
AcDbEntity
  8
寸法
 62
     0
370
    -2
100
AcDbBlockReference
  2
_DOT
 10
484.2006287229663
 20
257.9905024700137
 30
0.0
 41
2.0
 42
2.0
 43
2.0
 50
180.0
  0
MTEXT
  5
4CDD
330
4CD5
100
AcDbEntity
  8
寸法
 62
     0
100
AcDbMText
 10
486.2006287229663
 20
262.4905024700137
 30
0.0
 40
5.0
 41
0.0
 46
0.0
 71
     5
 72
     1
  1
\A1;5
  7
ＭＳ ゴシック
 73
     1
 44
1.0
  0
POINT
  5
4CDE
330
4CD5
100
AcDbEntity
  8
Defpoints
 62
     0
100
AcDbPoint
 10
489.2006287229663
 20
272.1411558261331
 30
0.0
  0
POINT
  5
4CDF
330
4CD5
100
AcDbEntity
  8
Defpoints
 62
     0
100
AcDbPoint
 10
484.2006287229663
 20
272.1411558261331
 30
0.0
  0
POINT
  5
4CE0
330
4CD5
100
AcDbEntity
  8
Defpoints
 62
     0
100
AcDbPoint
 10
484.2006287229663
 20
257.9905024700137
 30
0.0
  0
ENDBLK
  5
4CD7
330
4CD5
100
AcDbEntity
  8
0
100
AcDbBlockEnd
  0
BLOCK
  5
4CE2
330
4CE1
100
AcDbEntity
  8
0
100
AcDbBlockBegin
  2
*D13
 70
     1
 10
0.0
 20
0.0
 30
0.0
  3
*D13
  1
*D112
  0
LINE
  5
4CE4
330
4CE1
100
AcDbEntity
  8
寸法
 62
     0
370
    -2
100
AcDbLine
 10
484.2006287229663
 20
267.1411558261331
 30
0.0
 11
484.2006287229663
 21
257.9905024700137
 31
0.0
  0
LINE
  5
4CE5
330
4CE1
100
AcDbEntity
  8
寸法
 62
     0
370
    -2
100
AcDbLine
 10
454.2006287229663
 20
270.697548894263
 30
0.0
 11
454.2006287229663
 21
257.9905024700137
 31
0.0
  0
LINE
  5
4CE6
330
4CE1
100
AcDbEntity
  8
寸法
 62
     0
370
    -2
100
AcDbLine
 10
482.2006287229663
 20
257.9905024700137
 30
0.0
 11
456.2006287229663
 21
257.9905024700137
 31
0.0
  0
INSERT
  5
4CE7
330
4CE1
100
AcDbEntity
  8
寸法
 62
     0
370
    -2
100
AcDbBlockReference
  2
_DOT
 10
484.2006287229663
 20
257.9905024700137
 30
0.0
 41
2.0
 42
2.0
 43
2.0
  0
INSERT
  5
4CE8
330
4CE1
100
AcDbEntity
  8
寸法
 62
     0
370
    -2
100
AcDbBlockReference
  2
_DOT
 10
454.2006287229663
 20
257.9905024700137
 30
0.0
 41
2.0
 42
2.0
 43
2.0
 50
180.0
  0
MTEXT
  5
4CE9
330
4CE1
100
AcDbEntity
  8
寸法
 62
     0
100
AcDbMText
 10
469.2006287229663
 20
262.4905024700137
 30
0.0
 40
5.0
 41
0.0
 46
0.0
 71
     5
 72
     1
  1
\A1;30
  7
ＭＳ ゴシック
 73
     1
 44
1.0
  0
POINT
  5
4CEA
330
4CE1
100
AcDbEntity
  8
Defpoints
 62
     0
100
AcDbPoint
 10
484.2006287229663
 20
272.1411558261331
 30
0.0
  0
POINT
  5
4CEB
330
4CE1
100
AcDbEntity
  8
Defpoints
 62
     0
100
AcDbPoint
 10
454.2006287229663
 20
275.697548894263
 30
0.0
  0
POINT
  5
4CEC
330
4CE1
100
AcDbEntity
  8
Defpoints
 62
     0
100
AcDbPoint
 10
454.2006287229663
 20
257.9905024700137
 30
0.0
  0
ENDBLK
  5
4CE3
330
4CE1
100
AcDbEntity
  8
0
100
AcDbBlockEnd
  0
BLOCK
  5
4D51
330
4D50
100
AcDbEntity
  8
0
100
AcDbBlockBegin
  2
*D14
 70
     1
 10
0.0
 20
0.0
 30
0.0
  3
*D14
  1
*D117
  0
LINE
  5
4D53
330
4D50
100
AcDbEntity
  8
寸法
 62
     0
370
    -2
100
AcDbLine
 10
450.6989746345593
 20
285.6411558261331
 30
0.0
 11
439.0799718166251
 21
285.6411558261331
 31
0.0
  0
LINE
  5
4D54
330
4D50
100
AcDbEntity
  8
寸法
 62
     0
370
    -2
100
AcDbLine
 10
450.6989746345593
 20
275.6411558261331
 30
0.0
 11
439.0799718166251
 21
275.6411558261331
 31
0.0
  0
LINE
  5
4D55
330
4D50
100
AcDbEntity
  8
寸法
 62
     0
370
    -2
100
AcDbLine
 10
439.0799718166251
 20
283.6411558261331
 30
0.0
 11
439.0799718166251
 21
277.6411558261331
 31
0.0
  0
INSERT
  5
4D56
330
4D50
100
AcDbEntity
  8
寸法
 62
     0
370
    -2
100
AcDbBlockReference
  2
_DOT
 10
439.0799718166251
 20
285.6411558261331
 30
0.0
 41
2.0
 42
2.0
 43
2.0
 50
90.0
  0
INSERT
  5
4D57
330
4D50
100
AcDbEntity
  8
寸法
 62
     0
370
    -2
100
AcDbBlockReference
  2
_DOT
 10
439.0799718166251
 20
275.6411558261331
 30
0.0
 41
2.0
 42
2.0
 43
2.0
 50
270.0
  0
MTEXT
  5
4D58
330
4D50
100
AcDbEntity
  8
寸法
 62
     0
100
AcDbMText
 10
434.5799718166251
 20
280.6411558261331
 30
0.0
 40
5.0
 41
0.0
 46
0.0
 71
     5
 72
     1
  1
\A1;M10
  7
ＭＳ ゴシック
 11
0.0
 21
1.0
 31
0.0
 73
     1
 44
1.0
  0
POINT
  5
4D59
330
4D50
100
AcDbEntity
  8
Defpoints
 62
     0
100
AcDbPoint
 10
455.6989746345593
 20
285.6411558261331
 30
0.0
  0
POINT
  5
4D5A
330
4D50
100
AcDbEntity
  8
Defpoints
 62
     0
100
AcDbPoint
 10
455.6989746345593
 20
275.6411558261331
 30
0.0
  0
POINT
  5
4D5B
330
4D50
100
AcDbEntity
  8
Defpoints
 62
     0
100
AcDbPoint
 10
439.0799718166251
 20
275.6411558261331
 30
0.0
  0
ENDBLK
  5
4D52
330
4D50
100
AcDbEntity
  8
0
100
AcDbBlockEnd
  0
ENDSEC
  0
SECTION
  2
ENTITIES
  0
LINE
  5
36CD
330
A
100
AcDbEntity
  8
PRINT BORDER
100
AcDbLine
 10
296.9999999999999
 20
0.0
 30
0.0
 11
296.9999999999999
 21
15.30952622855898
 31
0.0
  0
LINE
  5
36CE
330
A
100
AcDbEntity
  8
テンプレート
100
AcDbLine
 10
437.9999999999999
 20
38.27810890422097
 30
0.0
 11
15.30952622855898
 21
38.27810890422097
 31
0.0
  0
LINE
  5
36CF
330
A
100
AcDbEntity
  8
テンプレート
100
AcDbLine
 10
15.30952622855898
 20
26.22153683920783
 30
0.0
 11
578.6904737714407
 21
26.22153683920783
 31
0.0
  0
TEXT
  5
36D0
330
A
100
AcDbEntity
  8
テンプレート
100
AcDbText
 10
18.06121699514119
 20
32.16825981613692
 30
0.0
 40
3.5
  1
材質
  7
ＭＳ ゴシック
100
AcDbText
  0
TEXT
  5
36D3
330
A
100
AcDbEntity
  8
テンプレート
100
AcDbText
 10
18.06121699514119
 20
56.50959028673083
 30
0.0
 40
3.5
  1
品名
  7
ＭＳ ゴシック
100
AcDbText
  0
TEXT
  5
36D4
330
A
100
AcDbEntity
  8
テンプレート
100
AcDbText
 10
18.06121699514119
 20
44.65099339080098
 30
0.0
 40
3.5
  1
仕上げ
  7
ＭＳ ゴシック
100
AcDbText
  0
TEXT
  5
36D5
330
A
100
AcDbEntity
  8
テンプレート
100
AcDbText
 10
298.8233485179306
 20
56.58523052309897
 30
0.0
 40
3.5
  1
品番
  7
ＭＳ ゴシック
100
AcDbText
  0
TEXT
  5
36D6
330
A
100
AcDbEntity
  8
テンプレート
100
AcDbText
 10
36.7528253083583
 20
53.09440584367189
 30
0.0
 40
5.5
  1
ガラスドア用ノブ（両面固定タイプ） - FORMANI,Ferrovia -
  7
ＭＳ ゴシック
100
AcDbText
  0
LINE
  5
36D8
330
A
100
AcDbEntity
  8
テンプレート
100
AcDbLine
 10
437.9999999999999
 20
50.16496477419605
 30
0.0
 11
15.30952622855898
 21
50.16496477419605
 31
0.0
  0
LINE
  5
36D9
330
A
100
AcDbEntity
  8
テンプレート
100
AcDbLine
 10
578.6904737714411
 20
62.22153683920783
 30
0.0
 11
15.30952622855898
 21
62.22153683920783
 31
0.0
  0
LINE
  5
36DA
330
A
100
AcDbEntity
  8
PRINT BORDER
100
AcDbLine
 10
593.9999999999999
 20
210.0
 30
0.0
 11
578.6904737714411
 21
210.0
 31
0.0
  0
LINE
  5
36DB
330
A
100
AcDbEntity
  8
PRINT BORDER
100
AcDbLine
 10
0.0
 20
210.0
 30
0.0
 11
15.30952622855898
 21
210.0
 31
0.0
  0
LINE
  5
36DC
330
A
100
AcDbEntity
  8
PRINT BORDER
100
AcDbLine
 10
296.9999999999999
 20
420.0
 30
0.0
 11
296.9999999999999
 21
404.690473771441
 31
0.0
  0
LINE
  5
36DD
330
A
100
AcDbEntity
  8
テンプレート
100
AcDbLine
 10
578.6904737714411
 20
62.22153683920783
 30
0.0
 11
578.6904737714411
 21
26.22153683920783
 31
0.0
  0
LINE
  5
36DE
330
A
100
AcDbEntity
  8
テンプレート
100
AcDbLine
 10
15.30952622855898
 20
62.22153683920783
 30
0.0
 11
15.30952622855898
 21
26.22153683920783
 31
0.0
  0
TEXT
  5
36E0
330
A
100
AcDbEntity
  8
テンプレート
100
AcDbText
 10
494.9733384955217
 20
16.51938390313694
 30
0.0
 40
5.5
  1
大洋金物株式会社  
  7
ＭＳ ゴシック
100
AcDbText
  0
LINE
  5
36E1
330
A
100
AcDbEntity
  8
テンプレート
100
AcDbLine
 10
437.9999999999999
 20
62.22153683920783
 30
0.0
 11
437.9999999999999
 21
26.22153683920783
 31
0.0
  0
LINE
  5
36E2
330
A
100
AcDbEntity
  8
テンプレート
100
AcDbLine
 10
296.9999999999999
 20
62.22153683920783
 30
0.0
 11
296.9999999999999
 21
26.22153683920783
 31
0.0
  0
INSERT
  5
36E3
330
A
100
AcDbEntity
  8
テンプレート
100
AcDbBlockReference
  2
名称未設定-1
 10
548.3945198859805
 20
-7.642344203993161
 30
0.0
 41
0.180975
 42
0.180975
 43
0.180975
  0
LINE
  5
36E5
330
A
100
AcDbEntity
  8
テンプレート
100
AcDbLine
 10
15.30952622855898
 20
210.0
 30
0.0
 11
15.30952622855898
 21
26.22153683920783
 31
0.0
  0
LINE
  5
36E6
330
A
100
AcDbEntity
  8
テンプレート
100
AcDbLine
 10
15.30952622855898
 20
210.0
 30
0.0
 11
15.30952622855898
 21
404.690473771441
 31
0.0
  0
LINE
  5
36E7
330
A
100
AcDbEntity
  8
テンプレート
100
AcDbLine
 10
296.9999999999999
 20
404.690473771441
 30
0.0
 11
15.30952622855887
 21
404.690473771441
 31
0.0
  0
LINE
  5
36E8
330
A
100
AcDbEntity
  8
テンプレート
100
AcDbLine
 10
296.9999999999999
 20
404.690473771441
 30
0.0
 11
578.6904737714411
 21
404.690473771441
 31
0.0
  0
LINE
  5
36E9
330
A
100
AcDbEntity
  8
テンプレート
100
AcDbLine
 10
578.6904737714411
 20
210.0
 30
0.0
 11
578.6904737714411
 21
404.690473771441
 31
0.0
  0
LINE
  5
36EA
330
A
100
AcDbEntity
  8
テンプレート
100
AcDbLine
 10
578.6904737714411
 20
210.0
 30
0.0
 11
578.6904737714411
 21
26.22153683920783
 31
0.0
  0
LWPOLYLINE
  5
36EB
330
A
100
AcDbEntity
  8
PRINT BORDER
  6
HIDDEN
 48
3.0
100
AcDbPolyline
 90
        4
 70
     1
 43
0.0
 10
0.0
 20
0.0
 10
0.0
 20
420.0
 10
593.9999999999999
 20
420.0
 10
593.9999999999999
 20
0.0
  0
TEXT
  5
36EC
330
A
100
AcDbEntity
  8
テンプレート
100
AcDbText
 10
298.7989156222221
 20
32.62405342819488
 30
0.0
 40
3.5
  1
縮尺
  7
ＭＳ ゴシック
100
AcDbText
  0
TEXT
  5
36ED
330
A
100
AcDbEntity
  8
テンプレート
100
AcDbText
 10
313.0171205424464
 20
29.43815249371804
 30
0.0
 40
5.5
  1
1/2
  7
ＭＳ ゴシック
100
AcDbText
  0
TEXT
  5
37DE
330
A
100
AcDbEntity
  8
テンプレート
100
AcDbText
 10
298.8233485179306
 20
44.52865845808583
 30
0.0
 40
3.5
  1
扉厚
  7
ＭＳ ゴシック
100
AcDbText
  0
TEXT
  5
41D7
330
A
100
AcDbEntity
  8
テンプレート
100
AcDbText
 10
36.7528253083583
 20
29.15097790868504
 30
0.0
 40
5.5
  1
ステンレス
  7
ＭＳ ゴシック
100
AcDbText
  0
TEXT
  5
41D8
330
A
100
AcDbEntity
  8
テンプレート
100
AcDbText
 10
36.7528253083583
 20
41.03783377866012
 30
0.0
 40
5.5
  1
サテン・ポリッシュ
  7
ＭＳ ゴシック
100
AcDbText
  0
TEXT
  5
42C8
330
A
100
AcDbEntity
  8
テンプレート
100
AcDbText
 10
313.0171205424464
 20
53.38158042870626
 30
0.0
 40
5.5
  1
FOR11-FE22G
  7
ＭＳ ゴシック
100
AcDbText
  0
TEXT
  5
4346
330
A
100
AcDbEntity
  8
テンプレート
100
AcDbText
 10
440.0887524673468
 20
56.58523052309891
 30
0.0
 40
3.5
  1
備考
  7
ＭＳ ゴシック
100
AcDbText
  0
SPLINE
  5
4818
330
A
100
AcDbEntity
  8
モデル
100
AcDbSpline
210
0.0
220
0.0
230
1.0
 70
     8
 71
     3
 72
     8
 73
     4
 74
     0
 42
0.000000001
 43
0.0000000001
 40
0.0
 40
0.0
 40
0.0
 40
0.0
 40
1.0
 40
1.0
 40
1.0
 40
1.0
 10
275.895792445871
 20
158.2248946863861
 30
0.0
 10
275.3204611202914
 20
159.0482730505389
 30
0.0
 10
274.6727827417947
 20
159.8130847528065
 30
0.0
 10
273.9562024081386
 20
160.5158846954306
 30
0.0
  0
SPLINE
  5
4819
330
A
100
AcDbEntity
  8
モデル
100
AcDbSpline
210
0.0
220
0.0
230
1.0
 70
     8
 71
     3
 72
    11
 73
     7
 74
     0
 42
0.000000001
 43
0.0000000001
 40
0.0
 40
0.0
 40
0.0
 40
0.0
 40
1.0
 40
1.0
 40
1.0
 40
2.0
 40
2.0
 40
2.0
 40
2.0
 10
251.790443433413
 20
160.3608552963223
 30
0.0
 10
248.810433872776
 20
157.4497476908448
 30
0.0
 10
247.1326712646487
 20
153.4534342916093
 30
0.0
 10
247.1326712646487
 20
149.2848660044756
 30
0.0
 10
247.1326712646487
 20
145.1162977173419
 30
0.0
 10
248.810433872776
 20
141.1165392203484
 30
0.0
 10
251.790443433413
 20
138.2054316148707
 30
0.0
  0
SPLINE
  5
481A
330
A
100
AcDbEntity
  8
モデル
100
AcDbSpline
210
0.0
220
0.0
230
1.0
 70
     8
 71
     3
 72
     8
 73
     4
 74
     0
 42
0.000000001
 43
0.0000000001
 40
0.0
 40
0.0
 40
0.0
 40
0.0
 40
1.0
 40
1.0
 40
1.0
 40
1.0
 10
274.0940063184569
 20
138.2054316148707
 30
0.0
 10
274.8140317498709
 20
138.908231557495
 30
0.0
 10
275.4651552261256
 20
139.6730432597625
 30
0.0
 10
276.0335963561894
 20
140.4964216239153
 30
0.0
  0
SPLINE
  5
481B
330
A
100
AcDbEntity
  8
モデル
100
AcDbSpline
210
0.0
220
0.0
230
1.0
 70
     8
 71
     3
 72
    11
 73
     7
 74
     0
 42
0.000000001
 43
0.0000000001
 40
0.0
 40
0.0
 40
0.0
 40
0.0
 40
1.0
 40
1.0
 40
1.0
 40
2.0
 40
2.0
 40
2.0
 40
2.0
 10
402.9199918796765
 20
137.9263786964759
 30
0.0
 10
406.1652739676764
 20
140.8753823772911
 30
0.0
 10
407.9980659749119
 20
144.9199271451382
 30
0.0
 10
407.9980659749119
 20
149.1470620941572
 30
0.0
 10
407.9980659749119
 20
153.3638617499023
 30
0.0
 10
406.1652739676764
 20
157.4118516155072
 30
0.0
 10
402.9199918796765
 20
160.3608552963223
 30
0.0
  0
SPLINE
  5
481C
330
A
100
AcDbEntity
  8
モデル
100
AcDbSpline
210
0.0
220
0.0
230
1.0
 70
     8
 71
     3
 72
     8
 73
     4
 74
     0
 42
0.000000001
 43
0.0000000001
 40
0.0
 40
0.0
 40
0.0
 40
0.0
 40
1.0
 40
1.0
 40
1.0
 40
1.0
 10
380.7611231004669
 20
160.5021043043988
 30
0.0
 10
380.0445427668109
 20
159.7993043617746
 30
0.0
 10
379.3968643883141
 20
159.0344926595071
 30
0.0
 10
378.8249781604924
 20
158.2111142953543
 30
0.0
  0
SPLINE
  5
481D
330
A
100
AcDbEntity
  8
モデル
100
AcDbSpline
210
0.0
220
0.0
230
1.0
 70
     8
 71
     3
 72
     8
 73
     4
 74
     0
 42
0.000000001
 43
0.0000000001
 40
0.0
 40
0.0
 40
0.0
 40
0.0
 40
1.0
 40
1.0
 40
1.0
 40
1.0
 10
378.8353134537663
 20
140.1794726301829
 30
0.0
 10
379.4106447793458
 20
139.35609426603
 30
0.0
 10
380.0583231578425
 20
138.5912825637625
 30
0.0
 10
380.7749034914986
 20
137.8884826211384
 30
0.0
  0
SPLINE
  5
481E
330
A
100
AcDbEntity
  8
モデル
100
AcDbSpline
210
0.0
220
0.0
230
1.0
 70
     8
 71
     3
 72
     8
 73
     4
 74
     0
 42
0.000000001
 43
0.0000000001
 40
0.0
 40
0.0
 40
0.0
 40
0.0
 40
1.0
 40
1.0
 40
1.0
 40
1.0
 10
313.1717501870165
 20
128.7314127804761
 30
0.0
 10
313.1717501870165
 20
131.256669437062
 30
0.0
 10
311.6455718802396
 20
133.5097633707691
 30
0.0
 10
309.3614720667106
 20
134.3538123214697
 30
0.0
  0
SPLINE
  5
481F
330
A
100
AcDbEntity
  8
モデル
100
AcDbSpline
210
0.0
220
0.0
230
1.0
 70
     8
 71
     3
 72
     8
 73
     4
 74
     0
 42
0.000000001
 43
0.0000000001
 40
0.0
 40
0.0
 40
0.0
 40
0.0
 40
1.0
 40
1.0
 40
1.0
 40
1.0
 10
309.5027210747873
 20
164.0987863637108
 30
0.0
 10
311.7041385421247
 20
164.9600608032012
 30
0.0
 10
313.1717501870165
 20
167.2613861055197
 30
0.0
 10
313.1717501870165
 20
169.8520996195068
 30
0.0
  0
SPLINE
  5
4820
330
A
100
AcDbEntity
  8
モデル
100
AcDbSpline
210
0.0
220
0.0
230
1.0
 70
     8
 71
     3
 72
     8
 73
     4
 74
     0
 42
0.000000001
 43
0.0000000001
 40
0.0
 40
0.0
 40
0.0
 40
0.0
 40
1.0
 40
1.0
 40
1.0
 40
1.0
 10
341.1114930040857
 20
169.741856491252
 30
0.0
 10
341.1114930040857
 20
167.2372704212139
 30
0.0
 10
342.8099261987609
 20
165.0082921718128
 30
0.0
 10
345.3455181486207
 20
164.1711334166281
 30
0.0
  0
SPLINE
  5
4821
330
A
100
AcDbEntity
  8
モデル
100
AcDbSpline
210
0.0
220
0.0
230
1.0
 70
     8
 71
     3
 72
     8
 73
     4
 74
     0
 42
0.000000001
 43
0.0000000001
 40
0.0
 40
0.0
 40
0.0
 40
0.0
 40
1.0
 40
1.0
 40
1.0
 40
1.0
 10
345.3455181486207
 20
134.1161005761702
 30
0.0
 10
342.8099261987609
 20
133.3030575052913
 30
0.0
 10
341.1114930040857
 20
131.1188655267437
 30
0.0
 10
341.1114930040857
 20
128.6762912163487
 30
0.0
  0
SPLINE
  5
4822
330
A
100
AcDbEntity
  8
モデル
100
AcDbSpline
210
0.0
220
0.0
230
1.0
 70
     8
 71
     3
 72
    11
 73
     7
 74
     0
 42
0.000000001
 43
0.0000000001
 40
0.0
 40
0.0
 40
0.0
 40
0.0
 40
1.0
 40
1.0
 40
1.0
 40
2.0
 40
2.0
 40
2.0
 40
2.0
 10
139.4807307361167
 20
137.8850375233804
 30
0.0
 10
142.5434226429446
 20
140.8719372795331
 30
0.0
 10
144.2676940708044
 20
144.9681585137496
 30
0.0
 10
144.2676940708044
 20
149.246969929138
 30
0.0
 10
144.2676940708044
 20
153.5223362467684
 30
0.0
 10
142.5434226429446
 20
157.6220025787428
 30
0.0
 10
139.4807307361167
 20
160.6089023348956
 30
0.0
  0
SPLINE
  5
4823
330
A
100
AcDbEntity
  8
モデル
100
AcDbSpline
210
0.0
220
0.0
230
1.0
 70
     8
 71
     3
 72
    11
 73
     7
 74
     0
 42
0.000000001
 43
0.0000000001
 40
0.0
 40
0.0
 40
0.0
 40
0.0
 40
1.0
 40
1.0
 40
1.0
 40
2.0
 40
2.0
 40
2.0
 40
2.0
 10
117.3080815658753
 20
160.6089023348956
 30
0.0
 10
114.2453896590473
 20
157.6220025787428
 30
0.0
 10
112.5211182311876
 20
153.5257813445263
 30
0.0
 10
112.5211182311876
 20
149.246969929138
 30
0.0
 10
112.5211182311876
 20
144.9716036115076
 30
0.0
 10
114.2453896590473
 20
140.8719372795331
 30
0.0
 10
117.3080815658753
 20
137.8850375233804
 30
0.0
  0
SPLINE
  5
4824
330
A
100
AcDbEntity
  8
モデル
100
AcDbSpline
210
0.0
220
0.0
230
1.0
 70
     8
 71
     3
 72
    11
 73
     7
 74
     0
 42
0.000000001
 43
0.0000000001
 40
0.0
 40
0.0
 40
0.0
 40
0.0
 40
1.0
 40
1.0
 40
1.0
 40
2.0
 40
2.0
 40
2.0
 40
2.0
 10
139.5530777890339
 20
125.9753345741068
 30
0.0
 10
148.7187603740909
 20
130.2541459894952
 30
0.0
 10
154.5737040137468
 20
139.452557003253
 30
0.0
 10
154.5737040137468
 20
149.5708091183863
 30
0.0
 10
154.5737040137468
 20
159.6821710380039
 30
0.0
 10
148.7187603740909
 20
168.8805820517616
 30
0.0
 10
139.5530777890339
 20
173.1593934671501
 30
0.0
  0
SPLINE
  5
4825
330
A
100
AcDbEntity
  8
モデル
100
AcDbSpline
210
0.0
220
0.0
230
1.0
 70
     8
 71
     3
 72
    11
 73
     7
 74
     0
 42
0.000000001
 43
0.0000000001
 40
0.0
 40
0.0
 40
0.0
 40
0.0
 40
1.0
 40
1.0
 40
1.0
 40
2.0
 40
2.0
 40
2.0
 40
2.0
 10
117.3046364681173
 20
173.1283875873284
 30
0.0
 10
108.1389538830603
 20
168.8495761719401
 30
0.0
 10
102.2840102434043
 20
159.6511651581822
 30
0.0
 10
102.2840102434043
 20
149.5329130430489
 30
0.0
 10
102.2840102434043
 20
139.4215511234312
 30
0.0
 10
108.1389538830603
 20
130.2231401096735
 30
0.0
 10
117.3046364681173
 20
125.9443286942852
 30
0.0
  0
LINE
  5
4842
330
A
100
AcDbEntity
  8
モデル
100
AcDbLine
 10
251.790443433413
 20
137.9263786964759
 30
0.0
 11
251.790443433413
 21
94.32349892283385
 31
0.0
  0
LINE
  5
4843
330
A
100
AcDbEntity
  8
モデル
100
AcDbLine
 10
251.790443433413
 20
203.9654576188434
 30
0.0
 11
251.790443433413
 21
160.3608552963223
 31
0.0
  0
LINE
  5
4844
330
A
100
AcDbEntity
  8
モデル
100
AcDbLine
 10
273.8011730090301
 20
137.9263786964759
 30
0.0
 11
273.8011730090301
 21
94.32349892283385
 31
0.0
  0
LINE
  5
4845
330
A
100
AcDbEntity
  8
モデル
100
AcDbLine
 10
273.8011730090301
 20
203.9654576188434
 30
0.0
 11
273.8011730090301
 21
160.3608552963223
 31
0.0
  0
LINE
  5
4846
330
A
100
AcDbEntity
  8
モデル
100
AcDbLine
 10
251.790443433413
 20
94.32349892283385
 30
0.0
 11
273.8011730090301
 21
94.32349892283385
 31
0.0
  0
LINE
  5
4847
330
A
100
AcDbEntity
  8
モデル
100
AcDbLine
 10
251.790443433413
 20
203.9654576188434
 30
0.0
 11
273.8011730090301
 21
203.9654576188434
 31
0.0
  0
LINE
  5
4848
330
A
100
AcDbEntity
  8
モデル
100
AcDbLine
 10
380.9058172063013
 20
137.9263786964759
 30
0.0
 11
380.9058172063013
 21
94.32349892283385
 31
0.0
  0
LINE
  5
4849
330
A
100
AcDbEntity
  8
モデル
100
AcDbLine
 10
380.9058172063013
 20
203.9654576188434
 30
0.0
 11
380.9058172063013
 21
160.3608552963223
 31
0.0
  0
LINE
  5
484A
330
A
100
AcDbEntity
  8
モデル
100
AcDbLine
 10
402.9199918796765
 20
137.9263786964759
 30
0.0
 11
402.9199918796765
 21
94.32349892283385
 31
0.0
  0
LINE
  5
484B
330
A
100
AcDbEntity
  8
モデル
100
AcDbLine
 10
402.9199918796765
 20
203.9654576188434
 30
0.0
 11
402.9199918796765
 21
160.3608552963223
 31
0.0
  0
LINE
  5
484C
330
A
100
AcDbEntity
  8
モデル
100
AcDbLine
 10
380.9058172063013
 20
94.32349892283385
 30
0.0
 11
402.9199918796765
 21
94.32349892283385
 31
0.0
  0
LINE
  5
484D
330
A
100
AcDbEntity
  8
モデル
100
AcDbLine
 10
380.9058172063013
 20
203.9654576188434
 30
0.0
 11
402.9199918796765
 21
203.9654576188434
 31
0.0
  0
LINE
  5
484E
330
A
100
AcDbEntity
  8
モデル
100
AcDbLine
 10
296.2390947066348
 20
158.2455652729339
 30
0.0
 11
275.9199081301767
 21
158.2455652729339
 31
0.0
  0
LINE
  5
484F
330
A
100
AcDbEntity
  8
モデル
100
AcDbLine
 10
299.2018787784819
 20
136.655137623788
 30
0.0
 11
296.2390947066348
 21
140.0416687198644
 31
0.0
  0
LINE
  5
4850
330
A
100
AcDbEntity
  8
モデル
100
AcDbLine
 10
296.2390947066348
 20
140.0416687198644
 30
0.0
 11
275.9199081301767
 21
140.0416687198644
 31
0.0
  0
LINE
  5
4851
330
A
100
AcDbEntity
  8
モデル
100
AcDbLine
 10
296.2390947066348
 20
158.2455652729339
 30
0.0
 11
299.2018787784819
 21
161.6320963690103
 31
0.0
  0
LINE
  5
4852
330
A
100
AcDbEntity
  8
モデル
100
AcDbLine
 10
299.2018787784819
 20
161.6320963690103
 30
0.0
 11
309.3614720667106
 21
161.6320963690103
 31
0.0
  0
LINE
  5
4853
330
A
100
AcDbEntity
  8
モデル
100
AcDbLine
 10
309.3614720667106
 20
136.655137623788
 30
0.0
 11
299.2018787784819
 21
136.655137623788
 31
0.0
  0
LINE
  5
4854
330
A
100
AcDbEntity
  8
モデル
100
AcDbLine
 10
275.9199081301767
 20
158.2455652729339
 30
0.0
 11
275.9199081301767
 21
140.0416687198644
 31
0.0
  0
LINE
  5
4855
330
A
100
AcDbEntity
  8
モデル
100
AcDbLine
 10
296.2390947066348
 20
158.2455652729339
 30
0.0
 11
296.2390947066348
 21
140.0416687198644
 31
0.0
  0
LINE
  5
4856
330
A
100
AcDbEntity
  8
モデル
100
AcDbLine
 10
299.2018787784819
 20
161.6320963690103
 30
0.0
 11
299.2018787784819
 21
136.655137623788
 31
0.0
  0
LINE
  5
4857
330
A
100
AcDbEntity
  8
モデル
100
AcDbLine
 10
273.8011730090301
 20
137.9263786964759
 30
0.0
 11
251.7869983356552
 21
137.9263786964759
 31
0.0
  0
LINE
  5
4858
330
A
100
AcDbEntity
  8
モデル
100
AcDbLine
 10
251.790443433413
 20
160.3608552963223
 30
0.0
 11
273.8011730090301
 21
160.3608552963223
 31
0.0
  0
LINE
  5
4859
330
A
100
AcDbEntity
  8
モデル
100
AcDbLine
 10
358.4678955086968
 20
140.0416687198644
 30
0.0
 11
378.7870820851547
 21
140.0416687198644
 31
0.0
  0
LINE
  5
485A
330
A
100
AcDbEntity
  8
モデル
100
AcDbLine
 10
355.5051114368496
 20
161.6320963690103
 30
0.0
 11
358.4678955086968
 21
158.2455652729339
 31
0.0
  0
LINE
  5
485B
330
A
100
AcDbEntity
  8
モデル
100
AcDbLine
 10
358.4678955086968
 20
158.2455652729339
 30
0.0
 11
378.7905271829128
 21
158.2455652729339
 31
0.0
  0
LINE
  5
485C
330
A
100
AcDbEntity
  8
モデル
100
AcDbLine
 10
358.4678955086968
 20
140.0416687198644
 30
0.0
 11
355.5051114368496
 21
136.655137623788
 31
0.0
  0
LINE
  5
485D
330
A
100
AcDbEntity
  8
モデル
100
AcDbLine
 10
355.5051114368496
 20
136.655137623788
 30
0.0
 11
345.3455181486207
 21
136.655137623788
 31
0.0
  0
LINE
  5
485E
330
A
100
AcDbEntity
  8
モデル
100
AcDbLine
 10
345.3455181486207
 20
161.6320963690103
 30
0.0
 11
355.5051114368496
 21
161.6320963690103
 31
0.0
  0
LINE
  5
485F
330
A
100
AcDbEntity
  8
モデル
100
AcDbLine
 10
378.7905271829128
 20
140.0416687198644
 30
0.0
 11
378.7905271829128
 21
158.2455652729339
 31
0.0
  0
LINE
  5
4860
330
A
100
AcDbEntity
  8
モデル
100
AcDbLine
 10
358.4678955086968
 20
140.0416687198644
 30
0.0
 11
358.4678955086968
 21
158.2455652729339
 31
0.0
  0
LINE
  5
4861
330
A
100
AcDbEntity
  8
モデル
100
AcDbLine
 10
355.5051114368496
 20
136.655137623788
 30
0.0
 11
355.5051114368496
 21
161.6320963690103
 31
0.0
  0
LINE
  5
4862
330
A
100
AcDbEntity
  8
モデル
100
AcDbLine
 10
402.9199918796765
 20
137.9263786964759
 30
0.0
 11
380.9058172063013
 21
137.9263786964759
 31
0.0
  0
LINE
  5
4863
330
A
100
AcDbEntity
  8
モデル
100
AcDbLine
 10
380.9058172063013
 20
160.3608552963223
 30
0.0
 11
402.9199918796765
 21
160.3608552963223
 31
0.0
  0
LINE
  5
4864
330
A
100
AcDbEntity
  8
モデル
100
AcDbLine
 10
321.216053451857
 20
175.1782207533156
 30
0.0
 11
313.1717501870165
 21
175.1782207533156
 31
0.0
  0
LINE
  5
4865
330
A
100
AcDbEntity
  8
モデル
100
AcDbLine
 10
321.216053451857
 20
175.1782207533156
 30
0.0
 11
321.216053451857
 21
123.1072906906037
 31
0.0
  0
LINE
  5
4866
330
A
100
AcDbEntity
  8
モデル
100
AcDbLine
 10
321.216053451857
 20
123.1072906906037
 30
0.0
 11
313.1717501870165
 21
123.1072906906037
 31
0.0
  0
LINE
  5
4867
330
A
100
AcDbEntity
  8
モデル
100
AcDbLine
 10
313.1717501870165
 20
123.1072906906037
 30
0.0
 11
313.1717501870165
 21
175.1782207533156
 31
0.0
  0
LINE
  5
4868
330
A
100
AcDbEntity
  8
モデル
100
AcDbLine
 10
309.3614720667106
 20
164.1711334166281
 30
0.0
 11
309.3614720667106
 21
134.1126554784124
 31
0.0
  0
LINE
  5
4869
330
A
100
AcDbEntity
  8
モデル
100
AcDbLine
 10
333.4909367634745
 20
123.1072906906037
 30
0.0
 11
341.1114930040857
 21
123.1072906906037
 31
0.0
  0
LINE
  5
486A
330
A
100
AcDbEntity
  8
モデル
100
AcDbLine
 10
333.4909367634745
 20
123.1072906906037
 30
0.0
 11
333.4909367634745
 21
175.1782207533156
 31
0.0
  0
LINE
  5
486B
330
A
100
AcDbEntity
  8
モデル
100
AcDbLine
 10
333.4909367634745
 20
175.1782207533156
 30
0.0
 11
341.1114930040857
 21
175.1782207533156
 31
0.0
  0
LINE
  5
486C
330
A
100
AcDbEntity
  8
モデル
100
AcDbLine
 10
341.1114930040857
 20
175.1782207533156
 30
0.0
 11
341.1114930040857
 21
123.1072906906037
 31
0.0
  0
LINE
  5
486D
330
A
100
AcDbEntity
  8
モデル
100
AcDbLine
 10
345.3455181486207
 20
134.1161005761702
 30
0.0
 11
345.3455181486207
 21
164.1711334166281
 31
0.0
  0
LINE
  5
486E
330
A
100
AcDbEntity
  8
モデル
100
AcDbLine
 10
117.3218619569071
 20
137.9263786964759
 30
0.0
 11
117.3218619569071
 21
94.32349892283385
 31
0.0
  0
LINE
  5
486F
330
A
100
AcDbEntity
  8
モデル
100
AcDbLine
 10
117.3218619569071
 20
203.9654576188434
 30
0.0
 11
117.3218619569071
 21
160.3608552963223
 31
0.0
  0
LINE
  5
4870
330
A
100
AcDbEntity
  8
モデル
100
AcDbLine
 10
139.3343140814033
 20
137.9263786964759
 30
0.0
 11
139.3343140814033
 21
94.32349892283385
 31
0.0
  0
LINE
  5
4871
330
A
100
AcDbEntity
  8
モデル
100
AcDbLine
 10
139.3343140814033
 20
203.9654576188434
 30
0.0
 11
139.3343140814033
 21
160.3608552963223
 31
0.0
  0
LINE
  5
4872
330
A
100
AcDbEntity
  8
モデル
100
AcDbLine
 10
117.3218619569071
 20
94.32349892283385
 30
0.0
 11
139.3343140814033
 21
94.32349892283385
 31
0.0
  0
LINE
  5
4873
330
A
100
AcDbEntity
  8
モデル
100
AcDbLine
 10
117.3218619569071
 20
203.9654576188434
 30
0.0
 11
139.3343140814033
 21
203.9654576188434
 31
0.0
  0
LINE
  5
4874
330
A
100
AcDbEntity
  8
モデル
100
AcDbLine
 10
139.3343140814033
 20
137.9263786964759
 30
0.0
 11
117.3218619569071
 21
137.9263786964759
 31
0.0
  0
LINE
  5
4875
330
A
100
AcDbEntity
  8
モデル
100
AcDbLine
 10
117.3218619569071
 20
160.3608552963223
 30
0.0
 11
139.3343140814033
 21
160.3608552963223
 31
0.0
  0
SPLINE
  5
4905
330
A
100
AcDbEntity
  8
モデル
100
AcDbSpline
210
0.0
220
0.0
230
1.0
 70
     8
 71
     3
 72
     8
 73
     4
 74
     0
 42
0.000000001
 43
0.0000000001
 40
0.0
 40
0.0
 40
0.0
 40
0.0
 40
1.0
 40
1.0
 40
1.0
 40
1.0
 10
148.7394309606387
 20
297.228511511537
 30
0.0
 10
146.2141743040528
 20
297.228511511537
 30
0.0
 10
143.9610803703457
 20
295.7023332047601
 30
0.0
 10
143.1170314196452
 20
293.4182333912311
 30
0.0
  0
SPLINE
  5
4906
330
A
100
AcDbEntity
  8
モデル
100
AcDbSpline
210
0.0
220
0.0
230
1.0
 70
     8
 71
     3
 72
     8
 73
     4
 74
     0
 42
0.000000001
 43
0.0000000001
 40
0.0
 40
0.0
 40
0.0
 40
0.0
 40
1.0
 40
1.0
 40
1.0
 40
1.0
 10
113.3720573774041
 20
293.559482399308
 30
0.0
 10
112.5107829379136
 20
295.7608998666452
 30
0.0
 10
110.2094576355952
 20
297.228511511537
 30
0.0
 10
107.6187441216081
 20
297.228511511537
 30
0.0
  0
LINE
  5
4914
330
A
100
AcDbEntity
  8
モデル
100
AcDbLine
 10
119.2252784681809
 20
280.2958560311553
 30
0.0
 11
119.2252784681809
 21
259.5998403489943
 31
0.0
  0
LINE
  5
4915
330
A
100
AcDbEntity
  8
モデル
100
AcDbLine
 10
140.8157061173268
 20
283.2586401030024
 30
0.0
 11
137.4291750212504
 21
280.2958560311553
 31
0.0
  0
LINE
  5
4916
330
A
100
AcDbEntity
  8
モデル
100
AcDbLine
 10
137.4291750212504
 20
280.2958560311553
 30
0.0
 11
137.4291750212504
 21
259.6010702431985
 31
0.0
  0
LINE
  5
4917
330
A
100
AcDbEntity
  8
モデル
100
AcDbLine
 10
119.2252784681809
 20
280.2958560311553
 30
0.0
 11
115.8387473721045
 21
283.2586401030024
 31
0.0
  0
LINE
  5
4918
330
A
100
AcDbEntity
  8
モデル
100
AcDbLine
 10
115.8387473721045
 20
283.2586401030024
 30
0.0
 11
115.8387473721045
 21
293.4182333912311
 31
0.0
  0
LINE
  5
4919
330
A
100
AcDbEntity
  8
モデル
100
AcDbLine
 10
140.8157061173268
 20
293.4182333912311
 30
0.0
 11
140.8157061173268
 21
283.2586401030024
 31
0.0
  0
LINE
  5
491A
330
A
100
AcDbEntity
  8
モデル
100
AcDbLine
 10
119.2252784681809
 20
259.6010702431985
 30
0.0
 11
137.4291750212504
 21
259.6010702431985
 31
0.0
  0
LINE
  5
491B
330
A
100
AcDbEntity
  8
モデル
100
AcDbLine
 10
119.2252784681809
 20
280.2958560311553
 30
0.0
 11
137.4291750212504
 21
280.2958560311553
 31
0.0
  0
LINE
  5
491C
330
A
100
AcDbEntity
  8
モデル
100
AcDbLine
 10
115.8387473721045
 20
283.2586401030024
 30
0.0
 11
140.8157061173268
 21
283.2586401030024
 31
0.0
  0
LINE
  5
491F
330
A
100
AcDbEntity
  8
モデル
100
AcDbLine
 10
102.2926229877993
 20
305.2728147763775
 30
0.0
 11
102.2926229877993
 21
297.228511511537
 31
0.0
  0
LINE
  5
4920
102
{ACAD_REACTORS
330
49CC
330
49EB
102
}
330
A
100
AcDbEntity
  8
モデル
100
AcDbLine
 10
102.2926229877993
 20
305.2728147763775
 30
0.0
 11
154.3635530505111
 21
305.2728147763775
 31
0.0
  0
LINE
  5
4921
330
A
100
AcDbEntity
  8
モデル
100
AcDbLine
 10
154.3635530505111
 20
305.2728147763775
 30
0.0
 11
154.3635530505111
 21
297.228511511537
 31
0.0
  0
LINE
  5
4922
102
{ACAD_REACTORS
330
49CC
330
49DC
102
}
330
A
100
AcDbEntity
  8
モデル
100
AcDbLine
 10
154.3635530505111
 20
297.228511511537
 30
0.0
 11
102.2926229877993
 21
297.228511511537
 31
0.0
  0
LINE
  5
4923
330
A
100
AcDbEntity
  8
モデル
100
AcDbLine
 10
113.2997103244868
 20
293.4182333912311
 30
0.0
 11
143.3581882627024
 21
293.4182333912311
 31
0.0
  0
CIRCLE
  5
492E
330
A
100
AcDbEntity
  8
モデル
100
AcDbCircle
 10
128.3280880191552
 20
246.8525695457421
 30
0.0
 40
11.00536478780856
  0
ARC
  5
492F
330
A
100
AcDbEntity
  8
モデル
100
AcDbCircle
 10
128.3280880191552
 20
246.8525695457421
 30
0.0
 40
15.66378162043746
100
AcDbArc
 50
125.5228400847765
 51
54.47715991522352
  0
DIMENSION
  5
49CA
102
{ACAD_REACTORS
330
49CC
102
}
102
{ACAD_XDICTIONARY
360
49CB
102
}
330
A
100
AcDbEntity
  8
寸法
100
AcDbDimension
  2
*D4
 10
83.44315781628401
 20
297.228511511537
 30
0.0
 11
83.44315781628401
 21
301.2506631439572
 31
0.0
 70
   160
 71
     5
 42
8.044303264840437
 73
     0
 74
     0
 75
     0
  3
tfrom線あり
100
AcDbAlignedDimension
 13
102.2926229877993
 23
305.2728147763775
 33
0.0
 14
102.2926229877993
 24
297.228511511537
 34
0.0
 50
90.0
100
AcDbRotatedDimension
  0
DIMENSION
  5
49DA
102
{ACAD_REACTORS
330
49DC
102
}
102
{ACAD_XDICTIONARY
360
49DB
102
}
330
A
100
AcDbEntity
  8
寸法
100
AcDbDimension
  2
*D5
 10
83.44315781628401
 20
231.1887879253046
 30
0.0
 11
78.94315781628401
 21
264.2086497184208
 31
0.0
 70
    32
 71
     5
 42
66.03972358623241
 73
     0
 74
     0
 75
     0
  3
tfrom線あり
100
AcDbAlignedDimension
 13
102.2926229877993
 23
297.228511511537
 33
0.0
 14
123.3280880191552
 24
231.1887879253046
 34
0.0
 50
90.0
100
AcDbRotatedDimension
  0
DIMENSION
  5
49E9
102
{ACAD_REACTORS
330
49EB
102
}
102
{ACAD_XDICTIONARY
360
49EA
102
}
330
A
100
AcDbEntity
  8
寸法
100
AcDbDimension
  2
*D6
 10
171.8159145985728
 20
231.1887879253046
 30
0.0
 11
167.3159145985728
 21
268.230801350841
 31
0.0
 70
    32
 71
     5
 42
74.08402685107285
 73
     0
 74
     0
 75
     0
  3
tfrom線あり
100
AcDbAlignedDimension
 13
154.3635530505111
 23
305.2728147763775
 33
0.0
 14
136.3641211166502
 24
231.1887879253046
 34
0.0
 50
90.0
100
AcDbRotatedDimension
  0
DIMENSION
  5
4A0A
330
A
100
AcDbEntity
  8
寸法
100
AcDbDimension
  2
*D7
 10
144.1643063987177
 20
210.3234768332947
 30
0.0
 11
128.4143063987177
 21
214.8234768332947
 31
0.0
 70
    32
 71
     5
 42
31.50000000000001
 73
     0
 74
     0
 75
     0
  3
tfrom線あり
100
AcDbAlignedDimension
 13
112.6643063987177
 23
244.1090057245849
 33
0.0
 14
144.1643063987177
 24
244.1090057245849
 34
0.0
100
AcDbRotatedDimension
1001
ACAD
1000
DSTYLE
1002
{
1070
   271
1070
     1
1002
}
  0
DIMENSION
  5
4A20
330
A
100
AcDbEntity
  8
寸法
100
AcDbDimension
  2
*D8
 10
183.916408024148
 20
94.32349892283386
 30
0.0
 11
179.416408024148
 21
149.1444782708386
 31
0.0
 70
    32
 71
     5
 42
109.6419586960095
 73
     0
 74
     0
 75
     0
 52
-90.0
  3
tfrom線あり
100
AcDbAlignedDimension
 13
147.6658167268853
 23
203.9654576188434
 33
0.0
 14
147.6658167268853
 24
94.32349892283385
 34
0.0
 50
90.00000000000001
100
AcDbRotatedDimension
  0
DIMENSION
  5
4A2F
330
A
100
AcDbEntity
  8
寸法
100
AcDbDimension
  2
*D9
 10
90.15812786378842
 20
123.5329130430489
 30
0.0
 11
85.65812786378842
 21
149.5329130430489
 31
0.0
 70
    32
 71
     5
 42
51.99999999999999
 73
     0
 74
     0
 75
     0
  3
tfrom線あり
100
AcDbAlignedDimension
 13
114.5177752986487
 23
175.5329130430489
 33
0.0
 14
114.5177752986487
 24
123.5329130430489
 34
0.0
 50
90.0
100
AcDbRotatedDimension
  0
DIMENSION
  5
4A40
330
A
100
AcDbEntity
  8
寸法
100
AcDbDimension
  2
*D10
 10
139.3334528069637
 20
220.5713494873525
 30
0.0
 11
128.3280880191551
 21
225.0713494873525
 31
0.0
 70
    32
 71
     5
 42
22.01072957561709
 73
     0
 74
     0
 75
     0
  3
tfrom線あり
100
AcDbAlignedDimension
 13
117.3227232313466
 23
243.4399860621526
 33
0.0
 14
139.3334528069637
 24
243.4399860621526
 34
0.0
100
AcDbRotatedDimension
  0
LINE
  5
4BEE
330
A
100
AcDbEntity
  8
モデル
100
AcDbLine
 10
509.2006287229663
 20
285.6411558261331
 30
0.0
 11
509.2006287229663
 21
275.6411558261331
 31
0.0
  0
LINE
  5
4BEF
330
A
100
AcDbEntity
  8
モデル
100
AcDbLine
 10
509.2006287229663
 20
275.6411558261331
 30
0.0
 11
503.2006287229663
 21
275.6411558261331
 31
0.0
  0
LINE
  5
4BF1
330
A
100
AcDbEntity
  8
モデル
100
AcDbLine
 10
454.7645111252577
 20
285.6411558261331
 30
0.0
 11
484.2006287229663
 21
285.6411558261331
 31
0.0
  0
LINE
  5
4BF2
330
A
100
AcDbEntity
  8
モデル
100
AcDbLine
 10
484.2006287229663
 20
272.1411558261331
 30
0.0
 11
484.2006287229663
 21
289.1411558261331
 31
0.0
  0
LINE
  5
4BF3
330
A
100
AcDbEntity
  8
モデル
100
AcDbLine
 10
489.2006287229663
 20
289.1411558261331
 30
0.0
 11
489.2006287229663
 21
272.1411558261331
 31
0.0
  0
LINE
  5
4BF5
330
A
100
AcDbEntity
  8
モデル
100
AcDbLine
 10
489.2006287229663
 20
289.1411558261331
 30
0.0
 11
485.7006287229663
 21
289.1411558261331
 31
0.0
  0
LINE
  5
4BF6
330
A
100
AcDbEntity
  8
モデル
100
AcDbLine
 10
485.7006287229663
 20
289.1411558261331
 30
0.0
 11
484.2006287229663
 21
289.1411558261331
 31
0.0
  0
LINE
  5
4BF7
330
A
100
AcDbEntity
  8
モデル
100
AcDbLine
 10
484.2006287229663
 20
272.1411558261331
 30
0.0
 11
485.7006287229663
 21
272.1411558261331
 31
0.0
  0
LINE
  5
4BF8
330
A
100
AcDbEntity
  8
モデル
100
AcDbLine
 10
485.7006287229663
 20
272.1411558261331
 30
0.0
 11
489.2006287229663
 21
272.1411558261331
 31
0.0
  0
LINE
  5
4BF9
330
A
100
AcDbEntity
  8
モデル
100
AcDbLine
 10
496.2006287229663
 20
275.6411558261331
 30
0.0
 11
497.2006287229663
 21
277.6411558261331
 31
0.0
  0
LINE
  5
4BFA
330
A
100
AcDbEntity
  8
モデル
100
AcDbLine
 10
497.2006287229663
 20
277.6411558261331
 30
0.0
 11
500.2006287229663
 21
277.6411558261331
 31
0.0
  0
LINE
  5
4BFB
330
A
100
AcDbEntity
  8
モデル
100
AcDbLine
 10
503.2006287229663
 20
275.6411558261331
 30
0.0
 11
500.2006287229663
 21
277.6411558261331
 31
0.0
  0
LINE
  5
4BFC
330
A
100
AcDbEntity
  8
モデル
100
AcDbLine
 10
496.2006287229663
 20
285.6411558261331
 30
0.0
 11
497.2006287229663
 21
283.6411558261332
 31
0.0
  0
LINE
  5
4BFD
330
A
100
AcDbEntity
  8
モデル
100
AcDbLine
 10
503.2006287229663
 20
285.6411558261331
 30
0.0
 11
500.2006287229663
 21
283.6411558261332
 31
0.0
  0
LINE
  5
4BFE
330
A
100
AcDbEntity
  8
モデル
100
AcDbLine
 10
497.2006287229663
 20
283.6411558261332
 30
0.0
 11
500.2006287229663
 21
283.6411558261332
 31
0.0
  0
LINE
  5
4BFF
330
A
100
AcDbEntity
  8
モデル
100
AcDbLine
 10
496.2006287229663
 20
275.6411558261331
 30
0.0
 11
489.2006287229663
 21
275.6411558261331
 31
0.0
  0
LINE
  5
4C00
330
A
100
AcDbEntity
  8
モデル
100
AcDbLine
 10
503.2006287229663
 20
285.6411558261331
 30
0.0
 11
509.2006287229663
 21
285.6411558261331
 31
0.0
  0
LINE
  5
4C01
330
A
100
AcDbEntity
  8
モデル
100
AcDbLine
 10
489.2006287229663
 20
285.6411558261331
 30
0.0
 11
496.2006287229663
 21
285.6411558261331
 31
0.0
  0
LINE
  5
4C02
330
A
100
AcDbEntity
  8
モデル
100
AcDbLine
 10
484.2006287229663
 20
275.6411558261331
 30
0.0
 11
454.7645111252577
 21
275.6411558261331
 31
0.0
  0
LINE
  5
4C03
330
A
100
AcDbEntity
  8
モデル
100
AcDbLine
 10
489.2006287229663
 20
274.9312674300288
 30
0.0
 11
484.2006287229663
 21
274.9312674300288
 31
0.0
  0
LINE
  5
4C04
330
A
100
AcDbEntity
  8
モデル
100
AcDbLine
 10
489.2006287229663
 20
286.3510442222374
 30
0.0
 11
484.2006287229663
 21
286.3510442222374
 31
0.0
  0
LINE
  5
4C05
330
A
100
AcDbEntity
  8
モデル
100
AcDbLine
 10
503.2006287229663
 20
275.6411558261331
 30
0.0
 11
503.2006287229663
 21
285.6411558261331
 31
0.0
  0
LINE
  5
4C06
330
A
100
AcDbEntity
  8
モデル
100
AcDbLine
 10
496.2006287229663
 20
275.6411558261331
 30
0.0
 11
496.2006287229663
 21
285.6411558261331
 31
0.0
  0
HATCH
  5
4C08
330
A
100
AcDbEntity
  8
モデル
100
AcDbHatch
 10
0.0
 20
0.0
 30
0.0
210
0.0
220
0.0
230
1.0
  2
ANSI31
 70
     0
 71
     0
 91
        2
 92
        1
 93
        4
 72
     1
 10
490.2006287229663
 20
285.6411558261331
 11
490.2006287229663
 21
275.6411558261331
 72
     1
 10
489.2006287229663
 20
285.6411558261331
 11
496.2006287229663
 21
285.6411558261331
 72
     1
 10
496.2006287229663
 20
275.6411558261331
 11
496.2006287229663
 21
285.6411558261331
 72
     1
 10
496.2006287229663
 20
275.6411558261331
 11
489.2006287229663
 21
275.6411558261331
 97
        0
 92
        1
 93
        4
 72
     1
 10
509.2006287229663
 20
275.6411558261331
 11
503.2006287229663
 21
275.6411558261331
 72
     1
 10
509.2006287229663
 20
285.6411558261331
 11
509.2006287229663
 21
275.6411558261331
 72
     1
 10
503.2006287229663
 20
285.6411558261331
 11
509.2006287229663
 21
285.6411558261331
 72
     1
 10
503.2006287229663
 20
275.6411558261331
 11
503.2006287229663
 21
285.6411558261331
 97
        0
 75
     0
 76
     1
 52
49.99999999999999
 41
0.5
 77
     0
 78
     1
 53
94.9999999999998
 43
167.4069593588046
 44
761.573682993763
 45
-1.581459083220646
 46
-0.1383597416119067
 79
     0
 98
        1
 10
167.4069593588046
 20
761.573682993763
1001
ACAD
1010
0.0
1020
0.0
1030
0.0
  0
LINE
  5
4C09
330
A
100
AcDbEntity
  8
モデル
100
AcDbLine
 10
484.2006287229663
 20
285.6411558261331
 30
0.0
 11
484.2006287229663
 21
275.6411558261331
 31
0.0
  0
LINE
  5
4C0B
330
A
100
AcDbEntity
  8
モデル
100
AcDbLine
 10
454.2006287229663
 20
275.9471074024566
 30
0.0
 11
454.7645111252577
 21
275.6411558261331
 31
0.0
  0
LINE
  5
4C0C
330
A
100
AcDbEntity
  8
モデル
100
AcDbLine
 10
454.2006287229663
 20
285.3352042498095
 30
0.0
 11
454.7645111252577
 21
285.6411558261331
 31
0.0
  0
LINE
  5
4C0D
330
A
100
AcDbEntity
  8
モデル
100
AcDbLine
 10
454.2006287229663
 20
285.3352042498095
 30
0.0
 11
454.2006287229663
 21
275.9471074024566
 31
0.0
  0
DIMENSION
  5
4C18
330
A
100
AcDbEntity
  8
寸法
100
AcDbDimension
  2
*D11
 10
489.2006287229663
 20
257.9905024700137
 30
0.0
 11
499.2006287229663
 21
262.4905024700137
 31
0.0
 70
    32
 71
     5
 42
20.0
 73
     0
 74
     0
 75
     0
  3
tfrom線あり
100
AcDbAlignedDimension
 13
509.2006287229663
 23
275.6342087321747
 33
0.0
 14
489.2006287229663
 24
272.1411558261331
 34
0.0
 50
-0.000000000000014
100
AcDbRotatedDimension
  0
DIMENSION
  5
4C19
330
A
100
AcDbEntity
  8
寸法
100
AcDbDimension
  2
*D12
 10
484.2006287229663
 20
257.9905024700137
 30
0.0
 11
486.2006287229663
 21
257.9905024700137
 31
0.0
 70
   160
 71
     5
 42
5.0
 73
     0
 74
     0
 75
     0
  3
tfrom線あり
100
AcDbAlignedDimension
 13
489.2006287229663
 23
272.1411558261331
 33
0.0
 14
484.2006287229663
 24
272.1411558261331
 34
0.0
 50
-0.000000000000014
100
AcDbRotatedDimension
  0
DIMENSION
  5
4C1A
330
A
100
AcDbEntity
  8
寸法
100
AcDbDimension
  2
*D13
 10
454.2006287229663
 20
257.9905024700137
 30
0.0
 11
469.2006287229663
 21
262.4905024700137
 31
0.0
 70
    32
 71
     5
 42
30.0
 73
     0
 74
     0
 75
     0
  3
tfrom線あり
100
AcDbAlignedDimension
 13
484.2006287229663
 23
272.1411558261331
 33
0.0
 14
454.2006287229663
 24
275.697548894263
 34
0.0
 50
-0.000000000000014
100
AcDbRotatedDimension
  0
LINE
  5
4C52
330
A
100
AcDbEntity
  8
モデル
100
AcDbLine
 10
133.3272267447156
 20
326.2798058459891
 30
0.0
 11
133.3272267447156
 21
304.1755966176469
 31
0.0
  0
LINE
  5
4C53
330
A
100
AcDbEntity
  8
モデル
100
AcDbLine
 10
123.3272267447157
 20
304.1755966176469
 30
0.0
 11
123.3272267447157
 21
326.2798058459891
 31
0.0
  0
LINE
  5
4C58
330
A
100
AcDbEntity
  8
モデル
  6
HIDDEN
100
AcDbLine
 10
133.3272267447156
 20
278.1755966176471
 30
0.0
 11
123.3272267447157
 21
278.1755966176471
 31
0.0
  0
LINE
  5
4C59
330
A
100
AcDbEntity
  8
モデル
  6
HIDDEN
100
AcDbLine
 10
123.3272267447157
 20
291.1755966176469
 30
0.0
 11
125.3272267447157
 21
290.1755966176469
 31
0.0
  0
LINE
  5
4C5A
330
A
100
AcDbEntity
  8
モデル
  6
HIDDEN
100
AcDbLine
 10
123.3272267447157
 20
284.1755966176469
 30
0.0
 11
125.3272267447157
 21
287.1755966176469
 31
0.0
  0
LINE
  5
4C5B
330
A
100
AcDbEntity
  8
モデル
  6
HIDDEN
100
AcDbLine
 10
125.3272267447157
 20
290.1755966176469
 30
0.0
 11
125.3272267447157
 21
287.1755966176469
 31
0.0
  0
LINE
  5
4C5C
330
A
100
AcDbEntity
  8
モデル
  6
HIDDEN
100
AcDbLine
 10
133.3272267447156
 20
291.1755966176469
 30
0.0
 11
131.3272267447157
 21
290.1755966176469
 31
0.0
  0
LINE
  5
4C5D
330
A
100
AcDbEntity
  8
モデル
  6
HIDDEN
100
AcDbLine
 10
133.3272267447156
 20
284.1755966176469
 30
0.0
 11
131.3272267447157
 21
287.1755966176469
 31
0.0
  0
LINE
  5
4C5E
330
A
100
AcDbEntity
  8
モデル
  6
HIDDEN
100
AcDbLine
 10
131.3272267447157
 20
290.1755966176469
 30
0.0
 11
131.3272267447157
 21
287.1755966176469
 31
0.0
  0
LINE
  5
4C5F
330
A
100
AcDbEntity
  8
モデル
  6
HIDDEN
100
AcDbLine
 10
123.3272267447157
 20
278.1755966176471
 30
0.0
 11
123.3272267447157
 21
284.1755966176469
 31
0.0
  0
LINE
  5
4C60
330
A
100
AcDbEntity
  8
モデル
  6
HIDDEN
100
AcDbLine
 10
133.3272267447156
 20
284.1755966176469
 30
0.0
 11
133.3272267447156
 21
278.1755966176471
 31
0.0
  0
LINE
  5
4C61
330
A
100
AcDbEntity
  8
モデル
  6
HIDDEN
100
AcDbLine
 10
133.3272267447156
 20
297.1755966176469
 30
0.0
 11
133.3272267447156
 21
291.1755966176469
 31
0.0
  0
LINE
  5
4C62
330
A
100
AcDbEntity
  8
モデル
  6
HIDDEN
100
AcDbLine
 10
123.3272267447157
 20
291.1755966176469
 30
0.0
 11
123.3272267447157
 21
297.1755966176469
 31
0.0
  0
LINE
  5
4C63
330
A
100
AcDbEntity
  8
モデル
  6
HIDDEN
100
AcDbLine
 10
123.3272267447157
 20
284.1755966176469
 30
0.0
 11
133.3272267447156
 21
284.1755966176469
 31
0.0
  0
LINE
  5
4C64
330
A
100
AcDbEntity
  8
モデル
  6
HIDDEN
100
AcDbLine
 10
123.3272267447157
 20
291.1755966176469
 30
0.0
 11
133.3272267447156
 21
291.1755966176469
 31
0.0
  0
LINE
  5
4C66
330
A
100
AcDbEntity
  8
モデル
  6
HIDDEN
100
AcDbLine
 10
136.8272267447156
 20
297.1755966176469
 30
0.0
 11
119.8272267447157
 21
297.1755966176469
 31
0.0
  0
LINE
  5
4C68
330
A
100
AcDbEntity
  8
モデル
  6
HIDDEN
100
AcDbLine
 10
136.8272267447156
 20
297.1755966176469
 30
0.0
 11
136.8272267447156
 21
301.6755966176469
 31
0.0
  0
LINE
  5
4C69
330
A
100
AcDbEntity
  8
モデル
  6
HIDDEN
100
AcDbLine
 10
136.8272267447156
 20
301.6755966176469
 30
0.0
 11
136.8272267447156
 21
304.1755966176469
 31
0.0
  0
LINE
  5
4C6A
330
A
100
AcDbEntity
  8
モデル
  6
HIDDEN
100
AcDbLine
 10
119.8272267447157
 20
304.1755966176469
 30
0.0
 11
119.8272267447157
 21
301.6755966176469
 31
0.0
  0
LINE
  5
4C6B
330
A
100
AcDbEntity
  8
モデル
  6
HIDDEN
100
AcDbLine
 10
119.8272267447157
 20
301.6755966176469
 30
0.0
 11
119.8272267447157
 21
297.1755966176469
 31
0.0
  0
LINE
  5
4C6C
330
A
100
AcDbEntity
  8
モデル
  6
HIDDEN
100
AcDbLine
 10
122.6173383486113
 20
297.1755966176469
 30
0.0
 11
122.6173383486113
 21
304.1755966176469
 31
0.0
  0
LINE
  5
4C6D
330
A
100
AcDbEntity
  8
モデル
  6
HIDDEN
100
AcDbLine
 10
134.0371151408199
 20
297.1755966176469
 30
0.0
 11
134.0371151408199
 21
304.1755966176469
 31
0.0
  0
LINE
  5
4C6E
330
A
100
AcDbEntity
  8
モデル
  6
HIDDEN
100
AcDbLine
 10
133.3272267447156
 20
297.1755966176469
 30
0.0
 11
123.3272267447157
 21
297.1755966176469
 31
0.0
  0
LINE
  5
4C6F
330
A
100
AcDbEntity
  8
モデル
100
AcDbLine
 10
133.3272267447156
 20
304.1755966176469
 30
0.0
 11
123.3272267447157
 21
304.1755966176469
 31
0.0
  0
LINE
  5
4C70
330
A
100
AcDbEntity
  8
モデル
100
AcDbLine
 10
119.8272267447157
 20
304.1755966176469
 30
0.0
 11
136.8272267447156
 21
304.1755966176469
 31
0.0
  0
LINE
  5
4CA8
330
A
100
AcDbEntity
  8
モデル
100
AcDbLine
 10
333.4909367634745
 20
154.1418944475202
 30
0.0
 11
319.9856794923993
 21
154.1418944475202
 31
0.0
  0
LINE
  5
4CA9
330
A
100
AcDbEntity
  8
モデル
100
AcDbLine
 10
319.9856794923993
 20
144.1418944475203
 30
0.0
 11
333.4909367634745
 21
144.1418944475203
 31
0.0
  0
LINE
  5
4CAB
330
A
100
AcDbEntity
  8
モデル
  6
HIDDEN
100
AcDbLine
 10
302.3209526175413
 20
145.7262685295608
 30
0.0
 11
302.3209526175413
 21
136.655137623788
 31
0.0
  0
LINE
  5
4CAC
330
A
100
AcDbEntity
  8
モデル
  6
HIDDEN
100
AcDbLine
 10
293.9856794923994
 20
154.1418944475202
 30
0.0
 11
293.9856794923994
 21
144.1418944475203
 31
0.0
  0
LINE
  5
4CAD
330
A
100
AcDbEntity
  8
モデル
  6
HIDDEN
100
AcDbLine
 10
299.9856794923993
 20
144.1418944475203
 30
0.0
 11
302.9856794923993
 21
146.1418944475203
 31
0.0
  0
LINE
  5
4CAE
330
A
100
AcDbEntity
  8
モデル
  6
HIDDEN
100
AcDbLine
 10
305.9856794923993
 20
146.1418944475203
 30
0.0
 11
302.9856794923993
 21
146.1418944475203
 31
0.0
  0
LINE
  5
4CAF
330
A
100
AcDbEntity
  8
モデル
  6
HIDDEN
100
AcDbLine
 10
299.9856794923993
 20
154.1418944475202
 30
0.0
 11
302.9856794923993
 21
152.1418944475203
 31
0.0
  0
LINE
  5
4CB0
330
A
100
AcDbEntity
  8
モデル
  6
HIDDEN
100
AcDbLine
 10
305.9856794923993
 20
152.1418944475203
 30
0.0
 11
302.9856794923993
 21
152.1418944475203
 31
0.0
  0
LINE
  5
4CB1
330
A
100
AcDbEntity
  8
モデル
  6
HIDDEN
100
AcDbLine
 10
293.9856794923994
 20
144.1418944475203
 30
0.0
 11
299.9856794923993
 21
144.1418944475203
 31
0.0
  0
LINE
  5
4CB2
330
A
100
AcDbEntity
  8
モデル
  6
HIDDEN
100
AcDbLine
 10
299.9856794923993
 20
154.1418944475202
 30
0.0
 11
293.9856794923994
 21
154.1418944475202
 31
0.0
  0
LINE
  5
4CB3
330
A
100
AcDbEntity
  8
モデル
  6
HIDDEN
100
AcDbLine
 10
299.9856794923993
 20
144.1418944475203
 30
0.0
 11
299.9856794923993
 21
154.1418944475202
 31
0.0
  0
HATCH
  5
4CB4
330
A
100
AcDbEntity
  8
モデル
  6
HIDDEN
100
AcDbHatch
 10
0.0
 20
0.0
 30
0.0
210
0.0
220
0.0
230
1.0
  2
ANSI31
 70
     0
 71
     0
 91
        2
 92
        1
 93
        4
 72
     1
 10
312.9856794923993
 20
154.1418944475202
 11
312.9856794923993
 21
144.1418944475203
 72
     1
 10
312.9856794923993
 20
154.1418944475202
 11
306.9856794923993
 21
154.1418944475202
 72
     1
 10
306.9856794923993
 20
144.1418944475203
 11
306.9856794923993
 21
154.1418944475202
 72
     1
 10
306.9856794923993
 20
144.1418944475203
 11
312.9856794923993
 21
144.1418944475203
 97
        0
 92
        1
 93
        4
 72
     1
 10
293.9856794923994
 20
144.1418944475203
 11
299.9856794923993
 21
144.1418944475203
 72
     1
 10
293.9856794923994
 20
154.1418944475202
 11
293.9856794923994
 21
144.1418944475203
 72
     1
 10
299.9856794923993
 20
154.1418944475202
 11
293.9856794923994
 21
154.1418944475202
 72
     1
 10
299.9856794923993
 20
144.1418944475203
 11
299.9856794923993
 21
154.1418944475202
 97
        0
 75
     0
 76
     1
 52
130.0
 41
0.4999999999999996
 77
     0
 78
     1
 53
85.0000000000002
 43
635.7793488565612
 44
630.0744216151501
 45
1.581459083220646
 46
-0.1383597416119067
 79
     0
 98
        1
 10
635.7793488565612
 20
630.0744216151501
1001
ACAD
1010
0.0
1020
0.0
1030
0.0
  0
LINE
  5
4CB5
330
A
100
AcDbEntity
  8
モデル
  6
HIDDEN
100
AcDbLine
 10
306.3209526175413
 20
145.7262685295608
 30
0.0
 11
306.3209526175413
 21
136.655137623788
 31
0.0
  0
LINE
  5
4CB6
330
A
100
AcDbEntity
  8
モデル
  6
HIDDEN
100
AcDbLine
 10
312.9856794923993
 20
157.6418944475202
 30
0.0
 11
312.9856794923993
 21
140.6418944475203
 31
0.0
  0
LINE
  5
4CB8
330
A
100
AcDbEntity
  8
モデル
  6
HIDDEN
100
AcDbLine
 10
312.9856794923993
 20
157.6418944475202
 30
0.0
 11
317.4856794923993
 21
157.6418944475202
 31
0.0
  0
LINE
  5
4CB9
330
A
100
AcDbEntity
  8
モデル
  6
HIDDEN
100
AcDbLine
 10
317.4856794923993
 20
157.6418944475202
 30
0.0
 11
319.9856794923993
 21
157.6418944475202
 31
0.0
  0
LINE
  5
4CBA
330
A
100
AcDbEntity
  8
モデル
  6
HIDDEN
100
AcDbLine
 10
319.9856794923993
 20
140.6418944475203
 30
0.0
 11
317.4856794923993
 21
140.6418944475203
 31
0.0
  0
LINE
  5
4CBB
330
A
100
AcDbEntity
  8
モデル
  6
HIDDEN
100
AcDbLine
 10
317.4856794923993
 20
140.6418944475203
 30
0.0
 11
312.9856794923993
 21
140.6418944475203
 31
0.0
  0
LINE
  5
4CBC
330
A
100
AcDbEntity
  8
モデル
  6
HIDDEN
100
AcDbLine
 10
312.9856794923993
 20
154.1418944475202
 30
0.0
 11
306.9856794923993
 21
154.1418944475202
 31
0.0
  0
LINE
  5
4CBD
330
A
100
AcDbEntity
  8
モデル
  6
HIDDEN
100
AcDbLine
 10
306.9856794923993
 20
144.1418944475203
 30
0.0
 11
312.9856794923993
 21
144.1418944475203
 31
0.0
  0
LINE
  5
4CBE
330
A
100
AcDbEntity
  8
モデル
  6
HIDDEN
100
AcDbLine
 10
312.9856794923993
 20
143.4320060514159
 30
0.0
 11
319.9856794923993
 21
143.4320060514159
 31
0.0
  0
LINE
  5
4CBF
330
A
100
AcDbEntity
  8
モデル
  6
HIDDEN
100
AcDbLine
 10
312.9856794923993
 20
154.8517828436246
 30
0.0
 11
319.9856794923993
 21
154.8517828436246
 31
0.0
  0
LINE
  5
4CC0
330
A
100
AcDbEntity
  8
モデル
  6
HIDDEN
100
AcDbLine
 10
312.9856794923993
 20
154.1418944475202
 30
0.0
 11
312.9856794923993
 21
144.1418944475203
 31
0.0
  0
LINE
  5
4CC1
330
A
100
AcDbEntity
  8
寸法
  6
CENTER
100
AcDbLine
 10
304.1624444320162
 20
116.1352398677391
 30
0.0
 11
304.1624444320162
 21
135.4997702672955
 31
0.0
  0
LINE
  5
4CC2
330
A
100
AcDbEntity
  8
モデル
100
AcDbLine
 10
304.1624444320162
 20
114.6640282135907
 30
0.0
 11
302.6977714963306
 21
113.2404926377678
 31
0.0
  0
LINE
  5
4CC3
330
A
100
AcDbEntity
  8
モデル
100
AcDbLine
 10
302.6977714963306
 20
113.2404926377678
 30
0.0
 11
302.6977714963306
 21
108.762577364955
 31
0.0
  0
LINE
  5
4CC4
330
A
100
AcDbEntity
  8
モデル
100
AcDbLine
 10
304.1624444320162
 20
114.6640282135907
 30
0.0
 11
305.6271173677018
 21
113.2404926377678
 31
0.0
  0
LINE
  5
4CC5
330
A
100
AcDbEntity
  8
モデル
100
AcDbLine
 10
305.6271173677018
 20
113.2404926377678
 30
0.0
 11
305.6271173677018
 21
108.762577364955
 31
0.0
  0
LINE
  5
4CC6
330
A
100
AcDbEntity
  8
モデル
100
AcDbLine
 10
302.6977714963306
 20
108.762577364955
 30
0.0
 11
305.6271173677018
 21
108.762577364955
 31
0.0
  0
LINE
  5
4CC7
330
A
100
AcDbEntity
  8
寸法
100
AcDbLine
 10
302.6977714963306
 20
113.2404926377678
 30
0.0
 11
305.6271173677018
 21
113.2404926377678
 31
0.0
  0
HATCH
  5
4CC8
330
A
100
AcDbEntity
  8
寸法
100
AcDbHatch
 10
0.0
 20
0.0
 30
0.0
210
0.0
220
0.0
230
1.0
  2
ANSI31
 70
     0
 71
     0
 91
        1
 92
        1
 93
        4
 72
     1
 10
302.6977714963306
 20
113.2404926377678
 11
302.6977714963306
 21
108.7625773649549
 72
     1
 10
302.6977714963306
 20
108.762577364955
 11
305.6271173677018
 21
108.762577364955
 72
     1
 10
302.6977714963306
 20
113.2404926377678
 11
305.6271173677018
 21
113.2404926377678
 72
     1
 10
305.6271173677018
 20
113.2404926377678
 11
305.6271173677018
 21
108.7625773649549
 97
        0
 75
     0
 76
     1
 52
330.0000000000002
 41
0.4999999999999988
 77
     0
 78
     1
 53
14.99999999999995
 43
23.95620813116011
 44
-16.85919092052086
 45
-0.4108752341002508
 46
1.533407249233896
 79
     0
 98
        1
 10
23.95620813116011
 20
-16.85919092052086
1001
ACAD
1010
0.0
1020
0.0
1030
0.0
  0
LINE
  5
4D21
330
A
100
AcDbEntity
  8
モデル
100
AcDbLine
 10
455.5886929983827
 20
275.6411558261331
 30
0.0
 11
454.7645111252577
 21
280.3153234992457
 31
0.0
1001
ACAD
1010
0.0
1020
0.0
1030
0.0
  0
LINE
  5
4D22
330
A
100
AcDbEntity
  8
モデル
100
AcDbLine
 10
457.2006827447514
 20
275.6411558261331
 30
0.0
 11
455.4374129376668
 21
285.6411558261331
 31
0.0
1001
ACAD
1010
0.0
1020
0.0
1030
0.0
  0
LINE
  5
4D23
330
A
100
AcDbEntity
  8
モデル
100
AcDbLine
 10
458.81267249112
 20
275.6411558261331
 30
0.0
 11
457.0494026840354
 21
285.6411558261331
 31
0.0
1001
ACAD
1010
0.0
1020
0.0
1030
0.0
  0
LINE
  5
4D24
330
A
100
AcDbEntity
  8
モデル
100
AcDbLine
 10
460.4246622374887
 20
275.6411558261331
 30
0.0
 11
458.661392430404
 21
285.6411558261331
 31
0.0
1001
ACAD
1010
0.0
1020
0.0
1030
0.0
  0
LINE
  5
4D25
330
A
100
AcDbEntity
  8
モデル
100
AcDbLine
 10
462.0366519838572
 20
275.6411558261331
 30
0.0
 11
460.2733821767726
 21
285.6411558261331
 31
0.0
1001
ACAD
1010
0.0
1020
0.0
1030
0.0
  0
LINE
  5
4D26
330
A
100
AcDbEntity
  8
モデル
100
AcDbLine
 10
463.6486417302259
 20
275.6411558261331
 30
0.0
 11
461.8853719231413
 21
285.6411558261331
 31
0.0
1001
ACAD
1010
0.0
1020
0.0
1030
0.0
  0
LINE
  5
4D27
330
A
100
AcDbEntity
  8
モデル
100
AcDbLine
 10
465.2606314765945
 20
275.6411558261331
 30
0.0
 11
463.4973616695099
 21
285.6411558261331
 31
0.0
1001
ACAD
1010
0.0
1020
0.0
1030
0.0
  0
LINE
  5
4D28
330
A
100
AcDbEntity
  8
モデル
100
AcDbLine
 10
466.8726212229631
 20
275.6411558261331
 30
0.0
 11
465.1093514158785
 21
285.6411558261331
 31
0.0
1001
ACAD
1010
0.0
1020
0.0
1030
0.0
  0
LINE
  5
4D29
330
A
100
AcDbEntity
  8
モデル
100
AcDbLine
 10
468.4846109693317
 20
275.6411558261331
 30
0.0
 11
466.7213411622471
 21
285.6411558261331
 31
0.0
1001
ACAD
1010
0.0
1020
0.0
1030
0.0
  0
LINE
  5
4D2A
330
A
100
AcDbEntity
  8
モデル
100
AcDbLine
 10
470.0966007157004
 20
275.6411558261331
 30
0.0
 11
468.3333309086157
 21
285.6411558261331
 31
0.0
1001
ACAD
1010
0.0
1020
0.0
1030
0.0
  0
LINE
  5
4D2B
330
A
100
AcDbEntity
  8
モデル
100
AcDbLine
 10
471.708590462069
 20
275.6411558261331
 30
0.0
 11
469.9453206549844
 21
285.6411558261331
 31
0.0
1001
ACAD
1010
0.0
1020
0.0
1030
0.0
  0
LINE
  5
4D2C
330
A
100
AcDbEntity
  8
モデル
100
AcDbLine
 10
473.3205802084376
 20
275.6411558261331
 30
0.0
 11
471.557310401353
 21
285.6411558261331
 31
0.0
1001
ACAD
1010
0.0
1020
0.0
1030
0.0
  0
LINE
  5
4D2D
330
A
100
AcDbEntity
  8
モデル
100
AcDbLine
 10
474.9325699548062
 20
275.6411558261331
 30
0.0
 11
473.1693001477216
 21
285.6411558261331
 31
0.0
1001
ACAD
1010
0.0
1020
0.0
1030
0.0
  0
LINE
  5
4D2E
330
A
100
AcDbEntity
  8
モデル
100
AcDbLine
 10
476.5445597011748
 20
275.6411558261331
 30
0.0
 11
474.7812898940902
 21
285.6411558261331
 31
0.0
1001
ACAD
1010
0.0
1020
0.0
1030
0.0
  0
LINE
  5
4D2F
330
A
100
AcDbEntity
  8
モデル
100
AcDbLine
 10
478.1565494475434
 20
275.6411558261331
 30
0.0
 11
476.3932796404588
 21
285.6411558261331
 31
0.0
1001
ACAD
1010
0.0
1020
0.0
1030
0.0
  0
LINE
  5
4D30
330
A
100
AcDbEntity
  8
モデル
100
AcDbLine
 10
479.7685391939121
 20
275.6411558261331
 30
0.0
 11
478.0052693868274
 21
285.6411558261331
 31
0.0
1001
ACAD
1010
0.0
1020
0.0
1030
0.0
  0
LINE
  5
4D31
330
A
100
AcDbEntity
  8
モデル
100
AcDbLine
 10
481.3805289402807
 20
275.6411558261331
 30
0.0
 11
479.6172591331961
 21
285.6411558261331
 31
0.0
1001
ACAD
1010
0.0
1020
0.0
1030
0.0
  0
LINE
  5
4D32
330
A
100
AcDbEntity
  8
モデル
100
AcDbLine
 10
482.9925186866493
 20
275.6411558261331
 30
0.0
 11
481.2292488795647
 21
285.6411558261331
 31
0.0
1001
ACAD
1010
0.0
1020
0.0
1030
0.0
  0
LINE
  5
4D33
330
A
100
AcDbEntity
  8
モデル
100
AcDbLine
 10
484.2006287229663
 20
277.9316714830611
 30
0.0
 11
482.8412386259333
 21
285.6411558261331
 31
0.0
1001
ACAD
1010
0.0
1020
0.0
1030
0.0
  0
LINE
  5
4D37
330
A
100
AcDbEntity
  8
モデル
100
AcDbLine
 10
454.7645111252577
 20
275.6411558261331
 30
0.0
 11
454.7645111252577
 21
285.6411558261331
 31
0.0
  0
DIMENSION
  5
4D4D
330
A
100
AcDbEntity
  8
寸法
100
AcDbDimension
  2
*D14
 10
439.0799718166251
 20
275.6411558261331
 30
0.0
 11
439.0799718166251
 21
280.6411558261331
 31
0.0
 70
   160
  1
M10
 71
     5
 42
10.0
 73
     0
 74
     0
 75
     0
  3
tfrom線あり
100
AcDbAlignedDimension
 13
455.6989746345593
 23
285.6411558261331
 33
0.0
 14
455.6989746345593
 24
275.6411558261331
 34
0.0
 50
90.0
100
AcDbRotatedDimension
  0
LINE
  5
4D6F
330
A
100
AcDbEntity
  8
寸法
  6
CENTER
100
AcDbLine
 10
479.1861708502705
 20
175.7621257267478
 30
0.0
 11
479.1861708502705
 21
212.4546752734934
 31
0.0
  0
CIRCLE
  5
4D70
102
{ACAD_REACTORS
330
4D71
102
}
330
A
100
AcDbEntity
  8
寸法
100
AcDbCircle
 10
479.1861708502705
 20
194.1084005001206
 30
0.0
 40
8.5
  0
HATCH
  5
4D71
330
A
100
AcDbEntity
  8
寸法
100
AcDbHatch
 10
0.0
 20
0.0
 30
0.0
210
0.0
220
0.0
230
1.0
  2
ANSI31
 70
     0
 71
     1
 91
        1
 92
        1
 93
        1
 72
     2
 10
479.1861708502705
 20
194.1084005001206
 40
8.5
 50
0.0
 51
360.0
 73
     1
 97
        1
330
4D70
 75
     0
 76
     1
 52
0.0
 41
1.0
 77
     0
 78
     1
 53
45.0
 43
-27.6361526680825
 44
26.53805526491828
 45
-2.245064030267288
 46
2.245064030267288
 79
     0
 98
        1
 10
-27.6361526680825
 20
26.53805526491828
1001
ACAD
1010
0.0
1020
0.0
1030
0.0
  0
LINE
  5
4D72
330
A
100
AcDbEntity
  8
寸法
  6
CENTER
100
AcDbLine
 10
497.5324456236433
 20
194.1084005001206
 30
0.0
 11
460.8398960768977
 21
194.1084005001206
 31
0.0
  0
LINE
  5
4D76
330
A
100
AcDbEntity
  8
寸法
100
AcDbLine
 10
485.3655777379042
 20
188.271883515046
 30
0.0
 11
498.0813828185178
 21
171.9847635770748
 31
0.0
  0
LINE
  5
4D77
330
A
100
AcDbEntity
  8
寸法
100
AcDbLine
 10
498.0813828185178
 20
171.9847635770748
 30
0.0
 11
516.2829038301372
 21
171.9847635770748
 31
0.0
  0
TEXT
  5
4DAB
330
A
100
AcDbEntity
  8
テンプレート
100
AcDbText
 10
501.1236488226092
 20
175.0251427765633
 30
0.0
 40
5.5
  1
%%c17
  7
ＭＳ ゴシック
100
AcDbText
  0
LINE
  5
4DC4
330
A
100
AcDbEntity
  8
モデル
  6
HIDDEN
100
AcDbLine
 10
321.1716090254953
 20
154.1418944475202
 30
0.0
 11
321.1716090254953
 21
144.1418944475203
 31
0.0
  0
LINE
  5
4DC5
330
A
100
AcDbEntity
  8
モデル
  6
HIDDEN
100
AcDbLine
 10
319.9856794923993
 20
154.1418944475202
 30
0.0
 11
319.9856794923993
 21
144.1418944475203
 31
0.0
  0
LINE
  5
4DC6
330
A
100
AcDbEntity
  8
モデル
  6
HIDDEN
100
AcDbLine
 10
319.9856794923993
 20
157.6418944475202
 30
0.0
 11
319.9856794923993
 21
140.6418944475203
 31
0.0
  0
LINE
  5
4DCD
330
A
100
AcDbEntity
  8
モデル
100
AcDbLine
 10
319.9856794923993
 20
146.4324101044478
 30
0.0
 11
321.3450695894324
 21
154.1418944475202
 31
0.0
1001
ACAD
1010
0.0
1020
0.0
1030
0.0
  0
LINE
  5
4DCE
330
A
100
AcDbEntity
  8
モデル
100
AcDbLine
 10
321.1937895287164
 20
144.1418944475203
 30
0.0
 11
322.957059335801
 21
154.1418944475202
 31
0.0
1001
ACAD
1010
0.0
1020
0.0
1030
0.0
  0
LINE
  5
4DCF
330
A
100
AcDbEntity
  8
モデル
100
AcDbLine
 10
322.8057792750851
 20
144.1418944475203
 30
0.0
 11
324.5690490821697
 21
154.1418944475202
 31
0.0
1001
ACAD
1010
0.0
1020
0.0
1030
0.0
  0
LINE
  5
4DD0
330
A
100
AcDbEntity
  8
モデル
100
AcDbLine
 10
324.4177690214537
 20
144.1418944475203
 30
0.0
 11
326.1810388285382
 21
154.1418944475202
 31
0.0
1001
ACAD
1010
0.0
1020
0.0
1030
0.0
  0
LINE
  5
4DD1
330
A
100
AcDbEntity
  8
モデル
100
AcDbLine
 10
326.0297587678223
 20
144.1418944475203
 30
0.0
 11
327.7930285749069
 21
154.1418944475202
 31
0.0
1001
ACAD
1010
0.0
1020
0.0
1030
0.0
  0
LINE
  5
4DD2
330
A
100
AcDbEntity
  8
モデル
100
AcDbLine
 10
327.6417485141909
 20
144.1418944475203
 30
0.0
 11
329.4050183212755
 21
154.1418944475202
 31
0.0
1001
ACAD
1010
0.0
1020
0.0
1030
0.0
  0
LINE
  5
4DD3
330
A
100
AcDbEntity
  8
モデル
100
AcDbLine
 10
329.2537382605595
 20
144.1418944475203
 30
0.0
 11
331.0170080676441
 21
154.1418944475202
 31
0.0
1001
ACAD
1010
0.0
1020
0.0
1030
0.0
  0
LINE
  5
4DD4
330
A
100
AcDbEntity
  8
モデル
100
AcDbLine
 10
330.8657280069281
 20
144.1418944475203
 30
0.0
 11
332.6289978140127
 21
154.1418944475202
 31
0.0
1001
ACAD
1010
0.0
1020
0.0
1030
0.0
  0
LINE
  5
4DD5
330
A
100
AcDbEntity
  8
モデル
100
AcDbLine
 10
332.4777177532968
 20
144.1418944475203
 30
0.0
 11
333.4909367634745
 21
149.8881449992325
 31
0.0
1001
ACAD
1010
0.0
1020
0.0
1030
0.0
  0
TEXT
  5
4E1F
330
A
100
AcDbEntity
  8
テンプレート
100
AcDbText
 10
459.0918413159627
 20
302.3610215766403
 30
0.0
 40
6.0
  1
<取付部品>
  7
ＭＳ ゴシック
100
AcDbText
  0
TEXT
  5
4E62
330
A
100
AcDbEntity
  8
テンプレート
100
AcDbText
 10
453.0172974910984
 20
232.1146104219819
 30
0.0
 40
5.5
  1
ガラス扉用下穴
  7
ＭＳ ゴシック
100
AcDbText
  0
SPLINE
  5
4E6D
330
A
100
AcDbEntity
  8
モデル
100
AcDbSpline
210
0.0
220
0.0
230
1.0
 70
     8
 71
     3
 72
     8
 73
     4
 74
     0
 42
0.000000001
 43
0.0000000001
 40
0.0
 40
0.0
 40
0.0
 40
0.0
 40
1.0
 40
1.0
 40
1.0
 40
1.0
 10
148.7394309606387
 20
334.3241091108296
 30
0.0
 10
146.2141743040528
 20
334.3241091108296
 30
0.0
 10
143.9610803703457
 20
335.8502874176066
 30
0.0
 10
143.1170314196452
 20
338.1343872311355
 30
0.0
  0
SPLINE
  5
4E6E
330
A
100
AcDbEntity
  8
モデル
100
AcDbSpline
210
0.0
220
0.0
230
1.0
 70
     8
 71
     3
 72
     8
 73
     4
 74
     0
 42
0.000000001
 43
0.0000000001
 40
0.0
 40
0.0
 40
0.0
 40
0.0
 40
1.0
 40
1.0
 40
1.0
 40
1.0
 10
113.3720573774041
 20
337.9931382230587
 30
0.0
 10
112.5107829379136
 20
335.7917207557214
 30
0.0
 10
110.2094576355952
 20
334.3241091108296
 30
0.0
 10
107.6187441216081
 20
334.3241091108296
 30
0.0
  0
LINE
  5
4E6F
330
A
100
AcDbEntity
  8
モデル
100
AcDbLine
 10
119.2252784681809
 20
351.2567645912113
 30
0.0
 11
119.2252784681809
 21
371.9527802733724
 31
0.0
  0
LINE
  5
4E70
330
A
100
AcDbEntity
  8
モデル
100
AcDbLine
 10
140.8157061173268
 20
348.2939805193643
 30
0.0
 11
137.4291750212504
 21
351.2567645912113
 31
0.0
  0
LINE
  5
4E71
330
A
100
AcDbEntity
  8
モデル
100
AcDbLine
 10
137.4291750212504
 20
351.2567645912113
 30
0.0
 11
137.4291750212504
 21
371.9515503791681
 31
0.0
  0
LINE
  5
4E72
330
A
100
AcDbEntity
  8
モデル
100
AcDbLine
 10
119.2252784681809
 20
351.2567645912113
 30
0.0
 11
115.8387473721045
 21
348.2939805193643
 31
0.0
  0
LINE
  5
4E73
330
A
100
AcDbEntity
  8
モデル
100
AcDbLine
 10
115.8387473721045
 20
348.2939805193643
 30
0.0
 11
115.8387473721045
 21
338.1343872311355
 31
0.0
  0
LINE
  5
4E74
330
A
100
AcDbEntity
  8
モデル
100
AcDbLine
 10
140.8157061173268
 20
338.1343872311355
 30
0.0
 11
140.8157061173268
 21
348.2939805193643
 31
0.0
  0
LINE
  5
4E75
330
A
100
AcDbEntity
  8
モデル
100
AcDbLine
 10
119.2252784681809
 20
371.9515503791681
 30
0.0
 11
137.4291750212504
 21
371.9515503791681
 31
0.0
  0
LINE
  5
4E76
330
A
100
AcDbEntity
  8
モデル
100
AcDbLine
 10
119.2252784681809
 20
351.2567645912113
 30
0.0
 11
137.4291750212504
 21
351.2567645912113
 31
0.0
  0
LINE
  5
4E77
330
A
100
AcDbEntity
  8
モデル
100
AcDbLine
 10
115.8387473721045
 20
348.2939805193643
 30
0.0
 11
140.8157061173268
 21
348.2939805193643
 31
0.0
  0
LINE
  5
4E78
330
A
100
AcDbEntity
  8
モデル
100
AcDbLine
 10
102.2926229877993
 20
326.2798058459891
 30
0.0
 11
102.2926229877993
 21
334.3241091108296
 31
0.0
  0
LINE
  5
4E79
102
{ACAD_REACTORS
330
49CC
330
49EB
102
}
330
A
100
AcDbEntity
  8
モデル
100
AcDbLine
 10
102.2926229877993
 20
326.2798058459891
 30
0.0
 11
154.3635530505111
 21
326.2798058459891
 31
0.0
  0
LINE
  5
4E7A
330
A
100
AcDbEntity
  8
モデル
100
AcDbLine
 10
154.3635530505111
 20
326.2798058459891
 30
0.0
 11
154.3635530505111
 21
334.3241091108296
 31
0.0
  0
LINE
  5
4E7B
102
{ACAD_REACTORS
330
49CC
330
49DC
102
}
330
A
100
AcDbEntity
  8
モデル
100
AcDbLine
 10
154.3635530505111
 20
334.3241091108296
 30
0.0
 11
102.2926229877993
 21
334.3241091108296
 31
0.0
  0
LINE
  5
4E7C
330
A
100
AcDbEntity
  8
モデル
100
AcDbLine
 10
113.2997103244868
 20
338.1343872311355
 30
0.0
 11
143.3581882627024
 21
338.1343872311355
 31
0.0
  0
CIRCLE
  5
4E7D
330
A
100
AcDbEntity
  8
モデル
100
AcDbCircle
 10
128.3280880191552
 20
384.7000510766245
 30
0.0
 40
11.00536478780856
  0
ARC
  5
4E7E
330
A
100
AcDbEntity
  8
モデル
100
AcDbCircle
 10
128.3280880191552
 20
384.7000510766245
 30
0.0
 40
15.66378162043746
100
AcDbArc
 50
305.5228400847768
 51
234.4771599152233
  0
CIRCLE
  5
4EA4
330
A
100
AcDbEntity
  8
寸法
  6
HIDDEN
 48
0.5
100
AcDbCircle
 10
128.3272267447156
 20
288.6241545899621
 30
0.0
 40
1.440569191596921
  0
TEXT
  5
4ED1
330
A
100
AcDbEntity
  8
テンプレート
100
AcDbText
 10
313.0171205424464
 20
41.32500836369448
 30
0.0
 40
5.5
  1
ガラス厚　19・15・12・10・8mm
  7
ＭＳ ゴシック
100
AcDbText
  0
TEXT
  5
4F14
330
A
100
AcDbEntity
  8
テンプレート
100
AcDbText
 10
450.6836196806336
 20
52.27575261332301
 30
0.0
 40
5.5
  1
付属品
  7
ＭＳ ゴシック
100
AcDbText
  0
TEXT
  5
4F15
330
A
100
AcDbEntity
  8
テンプレート
100
AcDbText
 10
450.6836196806336
 20
43.93232842312983
 30
0.0
 40
5.5
  1
M10専用ボルト、チューブ、パッキン、
  7
ＭＳ ゴシック
100
AcDbText
  0
TEXT
  5
4F16
330
A
100
AcDbEntity
  8
テンプレート
100
AcDbText
 10
450.6836196806336
 20
35.58890423293667
 30
0.0
 40
5.5
  1
イモネジ
  7
ＭＳ ゴシック
100
AcDbText
  0
MTEXT
  5
4F5A
102
{ACAD_XDICTIONARY
360
4F5C
102
}
330
A
100
AcDbEntity
  8
寸法
100
AcDbMText
 10
16.42210284067741
 20
23.35966146301342
 30
0.0
 40
4.0
 41
0.0
 46
2.5
 71
     1
 72
     1
  1
{20161001N}
  7
ＭＳ ゴシック
 73
     1
 44
1.0
1001
ACAD
1000
ACAD_MTEXT_DEFINED_HEIGHT_BEGIN
1070
    46
1040
2.5
1000
ACAD_MTEXT_DEFINED_HEIGHT_END
  0
LINE
  5
4F6D
330
A
100
AcDbEntity
  8
モデル
100
AcDbLine
 10
123.3272267447157
 20
324.7275836103873
 30
0.0
 11
132.1303164894906
 21
326.2798058459891
 31
0.0
1001
ACAD
1010
0.0
1020
0.0
1030
0.0
  0
LINE
  5
4F6E
330
A
100
AcDbEntity
  8
モデル
100
AcDbLine
 10
123.3272267447157
 20
323.1155938640187
 30
0.0
 11
133.3272267447156
 21
324.8788636711033
 31
0.0
1001
ACAD
1010
0.0
1020
0.0
1030
0.0
  0
LINE
  5
4F6F
330
A
100
AcDbEntity
  8
モデル
100
AcDbLine
 10
123.3272267447157
 20
321.5036041176501
 30
0.0
 11
133.3272267447156
 21
323.2668739247347
 31
0.0
1001
ACAD
1010
0.0
1020
0.0
1030
0.0
  0
LINE
  5
4F70
330
A
100
AcDbEntity
  8
モデル
100
AcDbLine
 10
123.3272267447157
 20
319.8916143712814
 30
0.0
 11
133.3272267447156
 21
321.654884178366
 31
0.0
1001
ACAD
1010
0.0
1020
0.0
1030
0.0
  0
LINE
  5
4F71
330
A
100
AcDbEntity
  8
モデル
100
AcDbLine
 10
123.3272267447157
 20
318.2796246249128
 30
0.0
 11
133.3272267447156
 21
320.0428944319974
 31
0.0
1001
ACAD
1010
0.0
1020
0.0
1030
0.0
  0
LINE
  5
4F72
330
A
100
AcDbEntity
  8
モデル
100
AcDbLine
 10
123.3272267447157
 20
316.6676348785443
 30
0.0
 11
133.3272267447156
 21
318.4309046856288
 31
0.0
1001
ACAD
1010
0.0
1020
0.0
1030
0.0
  0
LINE
  5
4F73
330
A
100
AcDbEntity
  8
モデル
100
AcDbLine
 10
123.3272267447157
 20
315.0556451321756
 30
0.0
 11
133.3272267447156
 21
316.8189149392603
 31
0.0
1001
ACAD
1010
0.0
1020
0.0
1030
0.0
  0
LINE
  5
4F74
330
A
100
AcDbEntity
  8
モデル
100
AcDbLine
 10
123.3272267447157
 20
313.443655385807
 30
0.0
 11
133.3272267447156
 21
315.2069251928916
 31
0.0
1001
ACAD
1010
0.0
1020
0.0
1030
0.0
  0
LINE
  5
4F75
330
A
100
AcDbEntity
  8
モデル
100
AcDbLine
 10
123.3272267447157
 20
311.8316656394384
 30
0.0
 11
133.3272267447156
 21
313.594935446523
 31
0.0
1001
ACAD
1010
0.0
1020
0.0
1030
0.0
  0
LINE
  5
4F76
330
A
100
AcDbEntity
  8
モデル
100
AcDbLine
 10
123.3272267447157
 20
310.2196758930697
 30
0.0
 11
133.3272267447156
 21
311.9829457001543
 31
0.0
1001
ACAD
1010
0.0
1020
0.0
1030
0.0
  0
LINE
  5
4F77
330
A
100
AcDbEntity
  8
モデル
100
AcDbLine
 10
123.3272267447157
 20
308.6076861467011
 30
0.0
 11
133.3272267447156
 21
310.3709559537857
 31
0.0
1001
ACAD
1010
0.0
1020
0.0
1030
0.0
  0
LINE
  5
4F78
330
A
100
AcDbEntity
  8
モデル
100
AcDbLine
 10
123.3272267447157
 20
306.9956964003325
 30
0.0
 11
133.3272267447156
 21
308.7589662074171
 31
0.0
1001
ACAD
1010
0.0
1020
0.0
1030
0.0
  0
LINE
  5
4F79
330
A
100
AcDbEntity
  8
モデル
100
AcDbLine
 10
123.3272267447157
 20
305.3837066539639
 30
0.0
 11
133.3272267447156
 21
307.1469764610486
 31
0.0
1001
ACAD
1010
0.0
1020
0.0
1030
0.0
  0
LINE
  5
4F7A
330
A
100
AcDbEntity
  8
モデル
100
AcDbLine
 10
125.6177424016441
 20
304.1755966176469
 30
0.0
 11
133.3272267447156
 21
305.5349867146799
 31
0.0
1001
ACAD
1010
0.0
1020
0.0
1030
0.0
  0
LINE
  5
4F7B
330
A
100
AcDbEntity
  8
モデル
  6
HIDDEN
100
AcDbLine
 10
123.3272267447157
 20
296.9884160065286
 30
0.0
 11
125.466710919861
 21
297.1755966176469
 31
0.0
1001
ACAD
1010
0.0
1020
0.0
1030
0.0
  0
LINE
  5
4F7C
330
A
100
AcDbEntity
  8
モデル
  6
HIDDEN
100
AcDbLine
 10
123.3272267447157
 20
295.3948520144285
 30
0.0
 11
133.3272267447156
 21
296.2697386496877
 31
0.0
1001
ACAD
1010
0.0
1020
0.0
1030
0.0
  0
LINE
  5
4F7D
330
A
100
AcDbEntity
  8
モデル
  6
HIDDEN
100
AcDbLine
 10
123.3272267447157
 20
293.8012880223284
 30
0.0
 11
133.3272267447156
 21
294.6761746575877
 31
0.0
1001
ACAD
1010
0.0
1020
0.0
1030
0.0
  0
LINE
  5
4F7E
330
A
100
AcDbEntity
  8
モデル
  6
HIDDEN
100
AcDbLine
 10
123.3272267447157
 20
292.2077240302284
 30
0.0
 11
133.3272267447156
 21
293.0826106654876
 31
0.0
1001
ACAD
1010
0.0
1020
0.0
1030
0.0
  0
LINE
  5
4F7F
330
A
100
AcDbEntity
  8
モデル
  6
HIDDEN
100
AcDbLine
 10
129.7444762132967
 20
291.1755966176469
 30
0.0
 11
133.3272267447156
 21
291.4890466733875
 31
0.0
1001
ACAD
1010
0.0
1020
0.0
1030
0.0
  0
LINE
  5
4F80
330
A
100
AcDbEntity
  8
モデル
  6
HIDDEN
100
AcDbLine
 10
123.3272267447157
 20
282.646340077628
 30
0.0
 11
133.3272267447156
 21
283.5212267128873
 31
0.0
1001
ACAD
1010
0.0
1020
0.0
1030
0.0
  0
LINE
  5
4F81
330
A
100
AcDbEntity
  8
モデル
  6
HIDDEN
100
AcDbLine
 10
123.3272267447157
 20
281.052776085528
 30
0.0
 11
133.3272267447156
 21
281.9276627207871
 31
0.0
1001
ACAD
1010
0.0
1020
0.0
1030
0.0
  0
LINE
  5
4F82
330
A
100
AcDbEntity
  8
モデル
  6
HIDDEN
100
AcDbLine
 10
123.3272267447157
 20
279.4592120934279
 30
0.0
 11
133.3272267447156
 21
280.3340987286871
 31
0.0
1001
ACAD
1010
0.0
1020
0.0
1030
0.0
  0
LINE
  5
4F83
330
A
100
AcDbEntity
  8
モデル
  6
HIDDEN
100
AcDbLine
 10
126.8699544974088
 20
278.1755966176471
 30
0.0
 11
133.3272267447156
 21
278.7405347365871
 31
0.0
1001
ACAD
1010
0.0
1020
0.0
1030
0.0
  0
TEXT
  5
4FFD
330
A
100
AcDbEntity
  8
テンプレート
100
AcDbText
 10
173.5511971824813
 20
84.61079824124108
 30
0.0
 40
5.0
  1
※ 輸入製品の為、国内製品と比べ製品寸法の個体差に幅が有ります。
  7
ＭＳ ゴシック
100
AcDbText
  0
TEXT
  5
4FFE
330
A
100
AcDbEntity
  8
テンプレート
100
AcDbText
 10
173.3789541002728
 20
76.50701414510122
 30
0.0
 40
5.0
  1
　 加工は現物合わせの上行って下さい。
  7
ＭＳ ゴシック
100
AcDbText
  0
TEXT
  5
5036
330
A
100
AcDbEntity
  8
テンプレート
100
AcDbText
 10
173.2973437328573
 20
66.69178728046423
 30
0.0
 40
5.0
  1
※ ご注文の際は正確なガラス厚(19、15、12、10、8ミリ)の指示をしてください。
  7
ＭＳ ゴシック
100
AcDbText
  0
VIEWPORT
  5
349
330
B
100
AcDbEntity
 67
     1
  8
0
100
AcDbViewport
 10
202.5
 20
128.5
 30
0.0
 40
486.0
 41
308.4
 68
     1
 69
     1
 12
202.5
 22
128.5
 13
0.0
 23
0.0
 14
0.5
 24
0.5
 15
0.0
 25
0.0
 16
0.0
 26
0.0
 36
1.0
 17
0.0
 27
0.0
 37
0.0
 42
50.0
 43
0.0
 44
0.0
 45
308.4
 50
0.0
 51
0.0
 72
   100
 90
   557152
  1

281
     0
 71
     1
 74
     0
110
0.0
120
0.0
130
0.0
111
1.0
121
0.0
131
0.0
112
0.0
122
1.0
132
0.0
 79
     0
146
0.0
170
     0
 61
     5
348
26C
292
     1
282
     1
141
0.0
142
0.0
 63
   256
  0
VIEWPORT
  5
34A
330
B
100
AcDbEntity
 67
     1
  8
0
100
AcDbViewport
 10
202.5
 20
128.5
 30
0.0
 40
324.0
 41
205.6
 68
     2
 69
     2
 12
986.6781359294573
 22
1427.077061889956
 13
0.0
 23
0.0
 14
0.5
 24
0.5
 15
0.0
 25
0.0
 16
0.0
 26
0.0
 36
1.0
 17
0.0
 27
0.0
 37
0.0
 42
50.0
 43
0.0
 44
0.0
 45
2890.021615685494
 50
0.0
 51
0.0
 72
   100
 90
   557152
  1

281
     0
 71
     1
 74
     0
110
0.0
120
0.0
130
0.0
111
1.0
121
0.0
131
0.0
112
0.0
122
1.0
132
0.0
 79
     0
146
0.0
170
     0
 61
     5
348
26C
292
     1
282
     1
141
0.0
142
0.0
 63
   256
  0
ENDSEC
  0
SECTION
  2
OBJECTS
  0
DICTIONARY
  5
19
330
0
100
AcDbDictionary
281
     1
  3
ACAD_COLOR
350
674
  3
ACAD_DETAILVIEWSTYLE
350
12F4
  3
ACAD_FIELDLIST
350
4F57
  3
ACAD_GROUP
350
1A
  3
ACAD_IMAGE_VARS
350
27B
  3
ACAD_LAYOUT
350
1E
  3
ACAD_MATERIAL
350
263
  3
ACAD_MLEADERSTYLE
350
336
  3
ACAD_MLINESTYLE
350
1B
  3
ACAD_PLOTSETTINGS
350
22
  3
ACAD_PLOTSTYLENAME
350
1F
  3
ACAD_SCALELIST
350
241
  3
ACAD_SECTIONVIEWSTYLE
350
12F5
  3
ACAD_TABLESTYLE
350
278
  3
ACAD_VISUALSTYLE
350
267
  3
ACDB_RECOMPOSE_DATA
350
5072
  3
AcDbVariableDictionary
350
330
  3
AcStStandard
350
12B9
  3
APPDATA
350
27A
  3
DimOffsetDictionary
350
4EBD
  0
SUN
  5
10E8
330
15
100
AcDbSun
 90
        1
290
     0
 63
     7
421
 16777215
 40
1.0
291
     1
 91
  2455826
 92
 54000000
292
     0
 70
     2
 71
   256
280
     1
  0
DICTIONARY
  5
2E1
330
2
100
AcDbDictionary
280
     1
281
     1
  3
ACAD_LAYERSTATES
360
2E2
  3
ACLYDICTIONARY
360
4787
  0
DICTIONARY
  5
45FB
330
A
100
AcDbDictionary
280
     1
281
     1
  3
ACAD_SORTENTS
360
45FC
  0
DICTIONARY
  5
49CB
330
49CA
100
AcDbDictionary
280
     1
281
     1
  3
ACAD_DIMASSOC
360
49CC
  0
DICTIONARY
  5
49DB
330
49DA
100
AcDbDictionary
280
     1
281
     1
  3
ACAD_DIMASSOC
360
49DC
  0
DICTIONARY
  5
49EA
330
49E9
100
AcDbDictionary
280
     1
281
     1
  3
ACAD_DIMASSOC
360
49EB
  0
DICTIONARY
  5
4F5C
330
4F5A
100
AcDbDictionary
280
     1
281
     1
  3
ACAD_FIELD
360
4F5F
  0
DICTIONARY
  5
674
102
{ACAD_REACTORS
330
19
102
}
330
19
100
AcDbDictionary
281
     1
  0
DICTIONARY
  5
12F4
102
{ACAD_REACTORS
330
19
102
}
330
19
100
AcDbDictionary
281
     1
  0
FIELDLIST
  5
4F57
102
{ACAD_REACTORS
330
19
102
}
330
19
100
AcDbIdSet
 90
        2
330
4F5E
330
4F5B
100
AcDbFieldList
  0
DICTIONARY
  5
1A
102
{ACAD_REACTORS
330
19
102
}
330
19
100
AcDbDictionary
281
     1
  0
RASTERVARIABLES
  5
27B
102
{ACAD_REACTORS
330
19
102
}
330
19
100
AcDbRasterVariables
 90
        0
 70
     1
 71
     1
 72
     1
  0
DICTIONARY
  5
1E
102
{ACAD_REACTORS
330
19
102
}
330
19
100
AcDbDictionary
281
     1
  3
Layout1
350
21
  3
Layout2
350
12C4
  3
Model
350
20
  0
DICTIONARY
  5
263
102
{ACAD_REACTORS
330
19
102
}
330
19
100
AcDbDictionary
281
     1
  3
ByBlock
350
4FDA
  3
ByLayer
350
264
  3
Global
350
266
  0
DICTIONARY
  5
336
102
{ACAD_REACTORS
330
19
102
}
330
19
100
AcDbDictionary
281
     1
  3
Standard
350
4739
  0
DICTIONARY
  5
1B
102
{ACAD_REACTORS
330
19
102
}
330
19
100
AcDbDictionary
281
     1
  3
Standard
350
1C
  0
DICTIONARY
  5
22
102
{ACAD_REACTORS
330
19
102
}
330
19
100
AcDbDictionary
281
     1
  0
ACDBDICTIONARYWDFLT
  5
1F
102
{ACAD_REACTORS
330
19
102
}
330
19
100
AcDbDictionary
281
     1
  3
Normal
350
1D
100
AcDbDictionaryWithDefault
340
1D
  0
DICTIONARY
  5
241
102
{ACAD_REACTORS
330
19
102
}
330
19
100
AcDbDictionary
281
     1
  3
*A1
350
4FDD
  3
A0
350
242
  3
A1
350
243
  3
A2
350
244
  3
A3
350
245
  3
A4
350
246
  3
A5
350
247
  3
A6
350
248
  3
A7
350
249
  3
A8
350
24A
  3
A9
350
24B
  3
B0
350
24C
  3
B1
350
24D
  3
B2
350
24E
  3
B3
350
24F
  3
B4
350
250
  3
B5
350
251
  3
B6
350
252
  3
B7
350
253
  3
B8
350
254
  3
B9
350
255
  3
C0
350
256
  3
C1
350
257
  3
C2
350
258
  3
C3
350
259
  3
C4
350
25A
  3
C5
350
25B
  3
C6
350
25C
  3
C7
350
25D
  3
C8
350
25E
  3
C9
350
25F
  3
D0
350
260
  3
D1
350
261
  3
D2
350
262
  0
DICTIONARY
  5
12F5
102
{ACAD_REACTORS
330
19
102
}
330
19
100
AcDbDictionary
281
     1
  0
DICTIONARY
  5
278
102
{ACAD_REACTORS
330
19
102
}
330
19
100
AcDbDictionary
281
     1
  3
Standard
350
279
  0
DICTIONARY
  5
267
102
{ACAD_REACTORS
330
19
102
}
330
19
100
AcDbDictionary
281
     1
  3
2dWireframe
350
26C
  3
3D Hidden
350
26E
  3
3dWireframe
350
26D
  3
Basic
350
26F
  3
Brighten
350
273
  3
ColorChange
350
277
  3
Conceptual
350
271
  3
Dim
350
272
  3
EdgeColorOff
350
10E2
  3
Facepattern
350
276
  3
Flat
350
268
  3
FlatWithEdges
350
269
  3
Gouraud
350
26A
  3
GouraudWithEdges
350
26B
  3
Hidden
350
10DF
  3
JitterOff
350
10E0
  3
Linepattern
350
275
  3
OverhangOff
350
10E1
  3
Realistic
350
270
  3
Shaded
350
10E7
  3
Shaded with edges
350
10E6
  3
Shades of Gray
350
10E3
  3
Sketchy
350
10E4
  3
Thicken
350
274
  3
Wireframe
350
10DE
  3
X-Ray
350
10E5
  0
XRECORD
  5
5072
102
{ACAD_REACTORS
330
19
102
}
330
19
100
AcDbXrecord
280
     1
 90
        1
330
279
  0
DICTIONARY
  5
330
102
{ACAD_REACTORS
330
19
102
}
330
19
100
AcDbDictionary
281
     1
  3
CANNOSCALE
350
331
  3
CMLEADERSTYLE
350
4768
  3
CTABLESTYLE
350
335
  3
HPTRANSPARENCY
350
4EBC
  3
XCLIPFRAME
350
109E
  0
DICTIONARY
  5
12B9
102
{ACAD_REACTORS
330
19
102
}
330
19
100
AcDbDictionary
281
     1
  0
DICTIONARY
  5
27A
102
{ACAD_REACTORS
330
19
102
}
330
19
100
AcDbDictionary
281
     1
  0
DICTIONARY
  5
4EBD
102
{ACAD_REACTORS
330
19
102
}
330
19
100
AcDbDictionary
281
     1
  3
DIMRAILANGLE
350
4EC0
  3
DIMRAILFIRSTOFFSET
350
4EBE
  3
DIMRAILOFFSET
350
4EBF
  3
DIMRAILSENABLED
350
4EC1
  0
DICTIONARY
  5
2E2
102
{ACAD_REACTORS
330
2E1
102
}
330
2E1
100
AcDbDictionary
281
     1
  3
ARGON_LAYERP_6
350
10DB
  3
ARGON_LAYERP_7
350
DEA
  3
ARGON_LAYERP_8
350
C70
  3
ARGON_LAYERP_9
350
7AA
  0
DICTIONARY
  5
4787
102
{ACAD_REACTORS
330
2E1
102
}
330
2E1
100
AcDbDictionary
281
     1
1001
ACAD
1000
<All
  0
SORTENTSTABLE
  5
45FC
102
{ACAD_REACTORS
330
45FB
102
}
330
45FB
100
AcDbSortentsTable
330
A
331
0
  5
36CD
331
36CD
  5
45C4
331
36CE
  5
45C3
331
36CF
  5
45B3
331
36D0
  5
45B2
331
36D3
  5
45B1
331
36D4
  5
45B0
331
36D5
  5
45AF
331
36D6
  5
45AE
331
36D8
  5
457E
331
36D9
  5
457D
331
36DA
  5
454E
331
36DB
  5
454D
331
36DC
  5
454C
331
36DD
  5
454B
331
36DE
  5
454A
331
36E0
  5
4549
331
36E1
  5
442F
331
36E2
  5
442E
331
36E3
  5
442D
331
36E5
  5
442B
331
36E6
  5
442A
331
36E7
  5
4429
331
36E8
  5
4425
331
36E9
  5
4424
331
36EA
  5
4420
331
36EB
  5
441F
331
36EC
  5
441E
331
36ED
  5
441D
331
37DE
  5
441A
331
41D7
  5
4023
331
41D8
  5
401F
331
42C8
  5
3FF6
331
4346
  5
3FF5
  0
DIMASSOC
  5
49CC
102
{ACAD_REACTORS
330
49CB
102
}
330
49CB
100
AcDbDimAssoc
330
49CA
 90
        3
 70
     0
 71
     1
  1
AcDbOsnapPointRef
 72
    13
331
4920
 73
     0
 91
        0
 40
0.0
 10
0.0
 20
0.0
 30
0.0
 75
     0
  1
AcDbOsnapPointRef
 72
     1
331
4922
 73
     0
 91
        0
 40
0.0
 10
0.0
 20
0.0
 30
0.0
 75
     0
  0
DIMASSOC
  5
49DC
102
{ACAD_REACTORS
330
49DB
102
}
330
49DB
100
AcDbDimAssoc
330
49DA
 90
        1
 70
     0
 71
     1
  1
AcDbOsnapPointRef
 72
     1
331
4922
 73
     0
 91
        0
 40
0.0
 10
0.0
 20
0.0
 30
0.0
 75
     0
  0
DIMASSOC
  5
49EB
102
{ACAD_REACTORS
330
49EA
102
}
330
49EA
100
AcDbDimAssoc
330
49E9
 90
        1
 70
     0
 71
     1
  1
AcDbOsnapPointRef
 72
     1
331
4920
 73
     0
 91
        0
 40
0.0
 10
0.0
 20
0.0
 30
0.0
 75
     0
  0
DICTIONARY
  5
4F5F
102
{ACAD_REACTORS
330
4F5C
102
}
330
4F5C
100
AcDbDictionary
280
     1
281
     1
  3
TEXT
360
4F5B
  0
LAYOUT
  5
21
102
{ACAD_REACTORS
330
1E
102
}
330
1E
100
AcDbPlotSettings
  1

  2
none_device
  4
ISO_A3_(420.00_x_297.00_MM)
  6

 40
7.5
 41
20.0
 42
7.5
 43
20.0
 44
420.0
 45
297.0
 46
0.0
 47
0.0
 48
0.0
 49
0.0
140
0.0
141
0.0
142
1.0
143
1.0
 70
     0
 72
     1
 73
     0
 74
     0
  7

 75
     0
 76
     0
 77
     2
 78
   300
147
1.0
148
0.0
149
0.0
100
AcDbLayout
  1
Layout1
 70
     0
 71
     0
 10
-7.5
 20
-20.0
 11
412.5
 21
277.0
 12
0.0
 22
0.0
 32
0.0
 14
0.0
 24
0.0
 34
0.0
 15
0.0
 25
0.0
 35
0.0
146
0.0
 13
0.0
 23
0.0
 33
0.0
 16
0.0
 26
0.0
 36
0.0
 17
0.0
 27
0.0
 37
0.0
 76
     0
330
B
331
349
  0
LAYOUT
  5
12C4
102
{ACAD_REACTORS
330
1E
102
}
330
1E
100
AcDbPlotSettings
  1

  2
none_device
  4

  6

 40
0.0
 41
0.0
 42
0.0
 43
0.0
 44
0.0
 45
0.0
 46
0.0
 47
0.0
 48
0.0
 49
0.0
140
0.0
141
0.0
142
1.0
143
1.0
 70
   688
 72
     1
 73
     0
 74
     5
  7

 75
    16
 76
     0
 77
     2
 78
   300
147
1.0
148
0.0
149
0.0
100
AcDbLayout
  1
Layout2
 70
     1
 71
     2
 10
0.0
 20
0.0
 11
0.0
 21
0.0
 12
0.0
 22
0.0
 32
0.0
 14
0.0
 24
0.0
 34
0.0
 15
0.0
 25
0.0
 35
0.0
146
0.0
 13
0.0
 23
0.0
 33
0.0
 16
1.0
 26
0.0
 36
0.0
 17
0.0
 27
1.0
 37
0.0
 76
     0
330
12C3
  0
LAYOUT
  5
20
102
{ACAD_REACTORS
330
1E
102
}
330
1E
100
AcDbPlotSettings
  1

  2
none_device
  4
ISO_A3_(420.00_x_297.00_MM)
  6

 40
7.5
 41
20.0
 42
7.5
 43
20.0
 44
420.0
 45
297.0
 46
0.0
 47
0.0
 48
0.0
 49
0.0
140
0.0
141
0.0
142
1.0
143
1.0
 70
  1024
 72
     1
 73
     0
 74
     0
  7

 75
     0
 76
     0
 77
     2
 78
   300
147
1.0
148
0.0
149
0.0
100
AcDbLayout
  1
Model
 70
     0
 71
     1
 10
0.0
 20
0.0
 11
593.9999999999999
 21
420.0
 12
0.0
 22
0.0
 32
0.0
 14
0.0
 24
0.0
 34
0.0
 15
593.9999999999999
 25
420.0
 35
0.0
146
0.0
 13
0.0
 23
0.0
 33
0.0
 16
0.0
 26
0.0
 36
0.0
 17
0.0
 27
0.0
 37
0.0
 76
     0
330
A
331
15
  0
MATERIAL
  5
4FDA
102
{ACAD_REACTORS
330
263
102
}
330
263
100
AcDbMaterial
  1
ByBlock
 72
     1
 94
      127
  0
MATERIAL
  5
264
102
{ACAD_REACTORS
330
263
102
}
330
263
100
AcDbMaterial
  1
ByLayer
 72
     1
 94
      127
  0
MATERIAL
  5
266
102
{ACAD_REACTORS
330
263
102
}
330
263
100
AcDbMaterial
  1
Global
 72
     1
 94
      127
  0
MLEADERSTYLE
  5
4739
102
{ACAD_REACTORS
330
336
102
}
330
336
100
AcDbMLeaderStyle
170
     2
171
     1
172
     0
 90
        2
 40
0.0
 41
0.0
173
     1
 91
-1056964608
340
11
 92
       -2
290
     1
 42
2.0
291
     1
 43
8.0
  3
Standard
341
0
 44
4.0
300

342
17
174
     1
178
     6
175
     1
176
     0
 93
-1056964608
 45
4.0
292
     0
297
     0
 46
4.0
343
0
 94
-1056964608
 47
1.0
 49
1.0
140
1.0
293
     1
141
0.0
294
     1
177
     0
142
1.0
295
     0
296
     0
143
3.75
1001
ACAD_MLEADERVER
1070
     2
  0
MLINESTYLE
  5
1C
102
{ACAD_REACTORS
330
1B
102
}
330
1B
100
AcDbMlineStyle
  2
Standard
 70
     0
  3

 62
     0
 51
90.0
 52
90.0
 71
     2
 49
0.5
 62
   256
  6
BYLAYER
 49
-0.5
 62
   256
  6
BYLAYER
  0
ACDBPLACEHOLDER
  5
1D
102
{ACAD_REACTORS
330
1F
102
}
330
1F
  0
SCALE
  5
4FDD
102
{ACAD_REACTORS
330
241
102
}
330
241
100
AcDbScale
 70
     0
300
1:1_XREF_XREF
140
1.0
141
1.0
290
     0
  0
SCALE
  5
242
102
{ACAD_REACTORS
330
241
102
}
330
241
100
AcDbScale
 70
     0
300
1:1
140
1.0
141
1.0
290
     1
  0
SCALE
  5
243
102
{ACAD_REACTORS
330
241
102
}
330
241
100
AcDbScale
 70
     0
300
1:2
140
1.0
141
2.0
290
     0
  0
SCALE
  5
244
102
{ACAD_REACTORS
330
241
102
}
330
241
100
AcDbScale
 70
     0
300
1:4
140
1.0
141
4.0
290
     0
  0
SCALE
  5
245
102
{ACAD_REACTORS
330
241
102
}
330
241
100
AcDbScale
 70
     0
300
1:5
140
1.0
141
5.0
290
     0
  0
SCALE
  5
246
102
{ACAD_REACTORS
330
241
102
}
330
241
100
AcDbScale
 70
     0
300
1:8
140
1.0
141
8.0
290
     0
  0
SCALE
  5
247
102
{ACAD_REACTORS
330
241
102
}
330
241
100
AcDbScale
 70
     0
300
1:10
140
1.0
141
10.0
290
     0
  0
SCALE
  5
248
102
{ACAD_REACTORS
330
241
102
}
330
241
100
AcDbScale
 70
     0
300
1:16
140
1.0
141
16.0
290
     0
  0
SCALE
  5
249
102
{ACAD_REACTORS
330
241
102
}
330
241
100
AcDbScale
 70
     0
300
1:20
140
1.0
141
20.0
290
     0
  0
SCALE
  5
24A
102
{ACAD_REACTORS
330
241
102
}
330
241
100
AcDbScale
 70
     0
300
1:30
140
1.0
141
30.0
290
     0
  0
SCALE
  5
24B
102
{ACAD_REACTORS
330
241
102
}
330
241
100
AcDbScale
 70
     0
300
1:40
140
1.0
141
40.0
290
     0
  0
SCALE
  5
24C
102
{ACAD_REACTORS
330
241
102
}
330
241
100
AcDbScale
 70
     0
300
1:50
140
1.0
141
50.0
290
     0
  0
SCALE
  5
24D
102
{ACAD_REACTORS
330
241
102
}
330
241
100
AcDbScale
 70
     0
300
1:100
140
1.0
141
100.0
290
     0
  0
SCALE
  5
24E
102
{ACAD_REACTORS
330
241
102
}
330
241
100
AcDbScale
 70
     0
300
2:1
140
2.0
141
1.0
290
     0
  0
SCALE
  5
24F
102
{ACAD_REACTORS
330
241
102
}
330
241
100
AcDbScale
 70
     0
300
4:1
140
4.0
141
1.0
290
     0
  0
SCALE
  5
250
102
{ACAD_REACTORS
330
241
102
}
330
241
100
AcDbScale
 70
     0
300
8:1
140
8.0
141
1.0
290
     0
  0
SCALE
  5
251
102
{ACAD_REACTORS
330
241
102
}
330
241
100
AcDbScale
 70
     0
300
10:1
140
10.0
141
1.0
290
     0
  0
SCALE
  5
252
102
{ACAD_REACTORS
330
241
102
}
330
241
100
AcDbScale
 70
     0
300
100:1
140
100.0
141
1.0
290
     0
  0
SCALE
  5
253
102
{ACAD_REACTORS
330
241
102
}
330
241
100
AcDbScale
 70
     0
300
1/128" = 1'-0"
140
0.0078125
141
12.0
290
     0
  0
SCALE
  5
254
102
{ACAD_REACTORS
330
241
102
}
330
241
100
AcDbScale
 70
     0
300
1/64" = 1'-0"
140
0.015625
141
12.0
290
     0
  0
SCALE
  5
255
102
{ACAD_REACTORS
330
241
102
}
330
241
100
AcDbScale
 70
     0
300
1/32" = 1'-0"
140
0.03125
141
12.0
290
     0
  0
SCALE
  5
256
102
{ACAD_REACTORS
330
241
102
}
330
241
100
AcDbScale
 70
     0
300
1/16" = 1'-0"
140
0.0625
141
12.0
290
     0
  0
SCALE
  5
257
102
{ACAD_REACTORS
330
241
102
}
330
241
100
AcDbScale
 70
     0
300
3/32" = 1'-0"
140
0.09375
141
12.0
290
     0
  0
SCALE
  5
258
102
{ACAD_REACTORS
330
241
102
}
330
241
100
AcDbScale
 70
     0
300
1/8" = 1'-0"
140
0.125
141
12.0
290
     0
  0
SCALE
  5
259
102
{ACAD_REACTORS
330
241
102
}
330
241
100
AcDbScale
 70
     0
300
3/16" = 1'-0"
140
0.1875
141
12.0
290
     0
  0
SCALE
  5
25A
102
{ACAD_REACTORS
330
241
102
}
330
241
100
AcDbScale
 70
     0
300
1/4" = 1'-0"
140
0.25
141
12.0
290
     0
  0
SCALE
  5
25B
102
{ACAD_REACTORS
330
241
102
}
330
241
100
AcDbScale
 70
     0
300
3/8" = 1'-0"
140
0.375
141
12.0
290
     0
  0
SCALE
  5
25C
102
{ACAD_REACTORS
330
241
102
}
330
241
100
AcDbScale
 70
     0
300
1/2" = 1'-0"
140
0.5
141
12.0
290
     0
  0
SCALE
  5
25D
102
{ACAD_REACTORS
330
241
102
}
330
241
100
AcDbScale
 70
     0
300
3/4" = 1'-0"
140
0.75
141
12.0
290
     0
  0
SCALE
  5
25E
102
{ACAD_REACTORS
330
241
102
}
330
241
100
AcDbScale
 70
     0
300
1" = 1'-0"
140
1.0
141
12.0
290
     0
  0
SCALE
  5
25F
102
{ACAD_REACTORS
330
241
102
}
330
241
100
AcDbScale
 70
     0
300
1-1/2" = 1'-0"
140
1.5
141
12.0
290
     0
  0
SCALE
  5
260
102
{ACAD_REACTORS
330
241
102
}
330
241
100
AcDbScale
 70
     0
300
3" = 1'-0"
140
3.0
141
12.0
290
     0
  0
SCALE
  5
261
102
{ACAD_REACTORS
330
241
102
}
330
241
100
AcDbScale
 70
     0
300
6" = 1'-0"
140
6.0
141
12.0
290
     0
  0
SCALE
  5
262
102
{ACAD_REACTORS
330
241
102
}
330
241
100
AcDbScale
 70
     0
300
1'-0" = 1'-0"
140
12.0
141
12.0
290
     0
  0
TABLESTYLE
  5
279
102
{ACAD_REACTORS
330
278
102
}
102
{ACAD_XDICTIONARY
360
5070
102
}
330
278
100
AcDbTableStyle
  3
Standard
 70
     0
 71
     0
 40
0.06
 41
0.06
280
     0
281
     0
  7
Standard
140
4.5
170
     2
 62
     0
 63
   257
283
     0
 90
        4
 91
        0
  1

274
    -2
284
     1
 64
     0
275
    -2
285
     1
 65
     0
276
    -2
286
     1
 66
     0
277
    -2
287
     1
 67
     0
278
    -2
288
     1
 68
     0
279
    -2
289
     1
 69
     0
  7
Standard
140
6.0
170
     5
 62
     0
 63
   257
283
     0
 90
        4
 91
        0
  1

274
    -2
284
     1
 64
     0
275
    -2
285
     1
 65
     0
276
    -2
286
     1
 66
     0
277
    -2
287
     1
 67
     0
278
    -2
288
     1
 68
     0
279
    -2
289
     1
 69
     0
  7
Standard
140
4.5
170
     5
 62
     0
 63
   257
283
     0
 90
        4
 91
        0
  1

274
    -2
284
     1
 64
     0
275
    -2
285
     1
 65
     0
276
    -2
286
     1
 66
     0
277
    -2
287
     1
 67
     0
278
    -2
288
     1
 68
     0
279
    -2
289
     1
 69
     0
  0
VISUALSTYLE
  5
26C
102
{ACAD_REACTORS
330
267
102
}
330
267
100
AcDbVisualStyle
  2
2dWireframe
 70
     4
 71
     0
 72
     2
 73
     0
 90
        0
 40
-0.6
 41
-30.0
 62
     5
 63
     7
421
 16777215
 74
     1
 91
        4
 64
     7
 65
   257
 75
     1
175
     1
 42
1.0
 92
        0
 66
   257
 43
1.0
 76
     1
 77
     6
 78
     2
 67
     7
 79
     5
170
     0
171
     0
290
     0
174
     0
 93
        1
 44
0.0
173
     0
291
     0
 45
0.0
  0
VISUALSTYLE
  5
26E
102
{ACAD_REACTORS
330
267
102
}
330
267
100
AcDbVisualStyle
  2
3D Hidden
 70
     6
 71
     1
 72
     2
 73
     2
 90
        0
 40
-0.6
 41
-30.0
 62
     5
 63
     7
421
 16777215
 74
     2
 91
        2
 64
     7
 65
   257
 75
     2
175
     1
 42
40.0
 92
        0
 66
   257
 43
1.0
 76
     1
 77
     6
 78
     2
 67
     7
 79
     3
170
     0
171
     0
290
     0
174
     0
 93
        1
 44
0.0
173
     0
291
     0
 45
0.0
  0
VISUALSTYLE
  5
26D
102
{ACAD_REACTORS
330
267
102
}
330
267
100
AcDbVisualStyle
  2
3dWireframe
 70
     5
 71
     0
 72
     2
 73
     0
 90
        0
 40
-0.6
 41
-30.0
 62
     5
 63
     7
421
 16777215
 74
     1
 91
        4
 64
     7
 65
   257
 75
     1
175
     1
 42
1.0
 92
        0
 66
   257
 43
1.0
 76
     1
 77
     6
 78
     2
 67
     7
 79
     5
170
     0
171
     0
290
     0
174
     0
 93
        1
 44
0.0
173
     0
291
     0
 45
0.0
  0
VISUALSTYLE
  5
26F
102
{ACAD_REACTORS
330
267
102
}
330
267
100
AcDbVisualStyle
  2
Basic
 70
     7
 71
     1
 72
     0
 73
     1
 90
        0
 40
-0.6
 41
-30.0
 62
     5
 63
     7
421
 16777215
 74
     0
 91
        4
 64
     7
 65
   257
 75
     1
175
     1
 42
1.0
 92
        8
 66
     7
 43
1.0
 76
     1
 77
     6
 78
     2
 67
     7
 79
     5
170
     0
171
     0
290
     0
174
     0
 93
        1
 44
0.0
173
     0
291
     1
 45
0.0
  0
VISUALSTYLE
  5
273
102
{ACAD_REACTORS
330
267
102
}
330
267
100
AcDbVisualStyle
  2
Brighten
 70
    12
 71
     2
 72
     2
 73
     0
 90
        0
 40
-0.6
 41
-30.0
 62
     5
 63
     7
421
 16777215
 74
     1
 91
        4
 64
     7
 65
   257
 75
     1
175
     1
 42
1.0
 92
        8
 66
     7
 43
1.0
 76
     1
 77
     6
 78
     2
 67
     7
 79
     5
170
     0
171
     0
290
     0
174
     0
 93
        1
 44
50.0
173
     0
291
     1
 45
0.0
  0
VISUALSTYLE
  5
277
102
{ACAD_REACTORS
330
267
102
}
330
267
100
AcDbVisualStyle
  2
ColorChange
 70
    16
 71
     2
 72
     2
 73
     3
 90
        0
 40
-0.6
 41
-30.0
 62
     5
 63
     8
421
  8421504
 74
     1
 91
        4
 64
     7
 65
   257
 75
     1
175
     1
 42
1.0
 92
        8
 66
     8
424
  8421504
 43
1.0
 76
     1
 77
     6
 78
     2
 67
     7
 79
     5
170
     0
171
     0
290
     0
174
     0
 93
        1
 44
0.0
173
     0
291
     1
 45
0.0
  0
VISUALSTYLE
  5
271
102
{ACAD_REACTORS
330
267
102
}
330
267
100
AcDbVisualStyle
  2
Conceptual
 70
     9
 71
     3
 72
     2
 73
     0
 90
        0
 40
-0.6
 41
-30.0
 62
     5
 63
     7
421
 16777215
 74
     2
 91
        2
 64
     7
 65
   257
 75
     1
175
     1
 42
40.0
 92
        8
 66
     7
 43
1.0
 76
     1
 77
     6
 78
     2
 67
     7
 79
     3
170
     0
171
     0
290
     0
174
     0
 93
        1
 44
0.0
173
     0
291
     0
 45
0.0
  0
VISUALSTYLE
  5
272
102
{ACAD_REACTORS
330
267
102
}
330
267
100
AcDbVisualStyle
  2
Dim
 70
    11
 71
     2
 72
     2
 73
     0
 90
        0
 40
-0.6
 41
-30.0
 62
     5
 63
     7
421
 16777215
 74
     1
 91
        4
 64
     7
 65
   257
 75
     1
175
     1
 42
1.0
 92
        8
 66
     7
 43
1.0
 76
     1
 77
     6
 78
     2
 67
     7
 79
     5
170
     0
171
     0
290
     0
174
     0
 93
        1
 44
-50.0
173
     0
291
     1
 45
0.0
  0
VISUALSTYLE
  5
10E2
102
{ACAD_REACTORS
330
267
102
}
330
267
100
AcDbVisualStyle
  2
EdgeColorOff
 70
    22
 71
     2
 72
     2
 73
     0
 90
        0
 40
0.6
 41
30.0
 62
     5
 63
     7
421
 16777215
 74
     1
 91
        4
 64
     7
 65
   257
 75
     1
175
     1
 42
1.0
 92
        8
 66
     7
 43
1.0
 76
     1
 77
     6
 78
     2
 67
     7
 79
     5
170
     0
171
     0
290
     0
174
     0
 93
        1
 44
0.0
173
     0
291
     1
 45
0.0
  0
VISUALSTYLE
  5
276
102
{ACAD_REACTORS
330
267
102
}
330
267
100
AcDbVisualStyle
  2
Facepattern
 70
    15
 71
     2
 72
     2
 73
     0
 90
        0
 40
-0.6
 41
-30.0
 62
     5
 63
     7
421
 16777215
 74
     1
 91
        4
 64
     7
 65
   257
 75
     1
175
     1
 42
1.0
 92
        8
 66
     7
 43
1.0
 76
     1
 77
     6
 78
     2
 67
     7
 79
     5
170
     0
171
     0
290
     0
174
     0
 93
        1
 44
0.0
173
     0
291
     1
 45
0.0
  0
VISUALSTYLE
  5
268
102
{ACAD_REACTORS
330
267
102
}
330
267
100
AcDbVisualStyle
  2
Flat
 70
     0
 71
     2
 72
     1
 73
     1
 90
        2
 40
-0.6
 41
30.0
 62
     5
 63
     7
421
 16777215
 74
     0
 91
        4
 64
     7
 65
   257
 75
     1
175
     1
 42
1.0
 92
        8
 66
     7
 43
1.0
 76
     1
 77
     6
 78
     2
 67
     7
 79
     5
170
     0
171
     0
290
     0
174
     0
 93
       13
 44
0.0
173
     0
291
     1
 45
0.0
  0
VISUALSTYLE
  5
269
102
{ACAD_REACTORS
330
267
102
}
330
267
100
AcDbVisualStyle
  2
FlatWithEdges
 70
     1
 71
     2
 72
     1
 73
     1
 90
        2
 40
-0.6
 41
30.0
 62
     5
 63
     7
421
 16777215
 74
     1
 91
        4
 64
     7
 65
   257
 75
     1
175
     1
 42
1.0
 92
        0
 66
   257
 43
1.0
 76
     1
 77
     6
 78
     2
 67
     7
 79
     5
170
     0
171
     0
290
     0
174
     0
 93
       13
 44
0.0
173
     0
291
     1
 45
0.0
  0
VISUALSTYLE
  5
26A
102
{ACAD_REACTORS
330
267
102
}
330
267
100
AcDbVisualStyle
  2
Gouraud
 70
     2
 71
     2
 72
     2
 73
     1
 90
        2
 40
-0.6
 41
30.0
 62
     5
 63
     7
421
 16777215
 74
     0
 91
        4
 64
     7
 65
   257
 75
     1
175
     1
 42
1.0
 92
        0
 66
     7
 43
1.0
 76
     1
 77
     6
 78
     2
 67
     7
 79
     5
170
     0
171
     0
290
     0
174
     0
 93
       13
 44
0.0
173
     0
291
     1
 45
0.0
  0
VISUALSTYLE
  5
26B
102
{ACAD_REACTORS
330
267
102
}
330
267
100
AcDbVisualStyle
  2
GouraudWithEdges
 70
     3
 71
     2
 72
     2
 73
     1
 90
        2
 40
-0.6
 41
30.0
 62
     5
 63
     7
421
 16777215
 74
     1
 91
        4
 64
     7
 65
   257
 75
     1
175
     1
 42
1.0
 92
        0
 66
   257
 43
1.0
 76
     1
 77
     6
 78
     2
 67
     7
 79
     5
170
     0
171
     0
290
     0
174
     0
 93
       13
 44
0.0
173
     0
291
     1
 45
0.0
  0
VISUALSTYLE
  5
10DF
102
{ACAD_REACTORS
330
267
102
}
330
267
100
AcDbVisualStyle
  2
Hidden
 70
     6
 71
     1
 72
     2
 73
     2
 90
        0
 40
0.6
 41
30.0
 62
     5
 63
     7
421
 16777215
 74
     2
 91
        2
 64
     7
 65
   257
 75
     2
175
     1
 42
40.0
 92
        0
 66
   257
 43
1.0
 76
     1
 77
     6
 78
     2
 67
     7
 79
     3
170
     0
171
     0
290
     0
174
     0
 93
        1
 44
0.0
173
     0
291
     0
 45
0.0
  0
VISUALSTYLE
  5
10E0
102
{ACAD_REACTORS
330
267
102
}
330
267
100
AcDbVisualStyle
  2
JitterOff
 70
    20
 71
     2
 72
     2
 73
     0
 90
        0
 40
0.6
 41
30.0
 62
     5
 63
     7
421
 16777215
 74
     1
 91
        4
 64
     7
 65
   257
 75
     1
175
     1
 42
1.0
 92
       10
 66
     7
 43
1.0
 76
     1
 77
     6
 78
     2
 67
     7
 79
     5
170
     0
171
     0
290
     0
174
     0
 93
        1
 44
0.0
173
     0
291
     1
 45
0.0
  0
VISUALSTYLE
  5
275
102
{ACAD_REACTORS
330
267
102
}
330
267
100
AcDbVisualStyle
  2
Linepattern
 70
    14
 71
     2
 72
     2
 73
     0
 90
        0
 40
-0.6
 41
-30.0
 62
     5
 63
     7
421
 16777215
 74
     1
 91
        4
 64
     7
 65
   257
 75
     7
175
     7
 42
1.0
 92
        8
 66
     7
 43
1.0
 76
     1
 77
     6
 78
     2
 67
     7
 79
     5
170
     0
171
     0
290
     0
174
     0
 93
        1
 44
0.0
173
     0
291
     1
 45
0.0
  0
VISUALSTYLE
  5
10E1
102
{ACAD_REACTORS
330
267
102
}
330
267
100
AcDbVisualStyle
  2
OverhangOff
 70
    21
 71
     2
 72
     2
 73
     0
 90
        0
 40
0.6
 41
30.0
 62
     5
 63
     7
421
 16777215
 74
     1
 91
        4
 64
     7
 65
   257
 75
     1
175
     1
 42
1.0
 92
        9
 66
     7
 43
1.0
 76
     1
 77
     6
 78
     2
 67
     7
 79
     5
170
     0
171
     0
290
     0
174
     0
 93
        1
 44
0.0
173
     0
291
     1
 45
0.0
  0
VISUALSTYLE
  5
270
102
{ACAD_REACTORS
330
267
102
}
330
267
100
AcDbVisualStyle
  2
Realistic
 70
     8
 71
     2
 72
     2
 73
     0
 90
        0
 40
-0.6
 41
-30.0
 62
     5
 63
     7
421
 16777215
 74
     1
 91
        0
 64
     7
 65
   257
 75
     1
175
     1
 42
1.0
 92
        8
 66
     8
424
  7895160
 43
1.0
 76
     1
 77
     6
 78
     2
 67
     7
 79
     5
170
     0
171
     0
290
     0
174
     0
 93
       13
 44
0.0
173
     0
291
     0
 45
0.0
  0
VISUALSTYLE
  5
10E7
102
{ACAD_REACTORS
330
267
102
}
330
267
100
AcDbVisualStyle
  2
Shaded
 70
    27
 71
     2
 72
     2
 73
     1
 90
        2
 40
0.6
 41
30.0
 62
     5
 63
     7
421
 16777215
 74
     0
 91
        4
 64
     7
 65
   257
 75
     1
175
     1
 42
1.0
 92
        8
 66
   257
 43
1.0
 76
     1
 77
     6
 78
     2
 67
     8
425
  7895160
 79
     3
170
     0
171
     0
290
     0
174
     0
 93
        5
 44
0.0
173
     0
291
     0
 45
0.0
  0
VISUALSTYLE
  5
10E6
102
{ACAD_REACTORS
330
267
102
}
330
267
100
AcDbVisualStyle
  2
Shaded with edges
 70
    26
 71
     2
 72
     2
 73
     1
 90
        2
 40
0.6
 41
30.0
 62
     5
 63
     7
421
 16777215
 74
     1
 91
       10
 64
     7
 65
   257
 75
     2
175
     1
 42
1.0
 92
        8
 66
   257
 43
1.0
 76
     1
 77
     6
 78
     2
 67
     7
 79
     3
170
     0
171
     0
290
     0
174
     0
 93
        5
 44
0.0
173
     0
291
     0
 45
0.0
  0
VISUALSTYLE
  5
10E3
102
{ACAD_REACTORS
330
267
102
}
330
267
100
AcDbVisualStyle
  2
Shades of Gray
 70
    23
 71
     2
 72
     2
 73
     3
 90
        0
 40
0.6
 41
30.0
 62
     5
 63
     7
421
 16777215
 74
     2
 91
        2
 64
     7
 65
     7
 75
     1
175
     1
 42
40.0
 92
        8
 66
     7
 43
1.0
 76
     1
 77
     6
 78
     2
 67
     7
 79
     3
170
     0
171
     0
290
     0
174
     0
 93
        1
 44
0.0
173
     0
291
     0
 45
0.0
  0
VISUALSTYLE
  5
10E4
102
{ACAD_REACTORS
330
267
102
}
330
267
100
AcDbVisualStyle
  2
Sketchy
 70
    24
 71
     1
 72
     2
 73
     2
 90
        0
 40
0.6
 41
30.0
 62
     5
 63
     7
421
 16777215
 74
     2
 91
        2
 64
     7
 65
     7
 75
     1
175
     1
 42
40.0
 92
       11
 66
     7
 43
1.0
 76
     1
 77
     6
 78
     2
 67
     7
 79
     6
170
     0
171
     0
290
     0
174
     0
 93
        1
 44
0.0
173
     0
291
     0
 45
0.0
  0
VISUALSTYLE
  5
274
102
{ACAD_REACTORS
330
267
102
}
330
267
100
AcDbVisualStyle
  2
Thicken
 70
    13
 71
     2
 72
     2
 73
     0
 90
        0
 40
-0.6
 41
-30.0
 62
     5
 63
     7
421
 16777215
 74
     1
 91
        4
 64
     7
 65
   257
 75
     1
175
     1
 42
1.0
 92
       12
 66
     7
 43
1.0
 76
     1
 77
     6
 78
     2
 67
     7
 79
     5
170
     0
171
     0
290
     0
174
     0
 93
        1
 44
0.0
173
     0
291
     1
 45
0.0
  0
VISUALSTYLE
  5
10DE
102
{ACAD_REACTORS
330
267
102
}
330
267
100
AcDbVisualStyle
  2
Wireframe
 70
     5
 71
     0
 72
     2
 73
     0
 90
        0
 40
0.6
 41
30.0
 62
     5
 63
     7
421
 16777215
 74
     1
 91
        4
 64
     7
 65
   257
 75
     1
175
     1
 42
1.0
 92
        0
 66
   257
 43
1.0
 76
     1
 77
     6
 78
     2
 67
     7
 79
     3
170
     0
171
     0
290
     0
174
     0
 93
        1
 44
0.0
173
     0
291
     0
 45
0.0
  0
VISUALSTYLE
  5
10E5
102
{ACAD_REACTORS
330
267
102
}
330
267
100
AcDbVisualStyle
  2
X-Ray
 70
    25
 71
     2
 72
     2
 73
     1
 90
        1
 40
0.5
 41
30.0
 62
     5
 63
     7
421
 16777215
 74
     1
 91
        0
 64
     7
 65
   257
 75
     1
175
     1
 42
1.0
 92
        8
 66
     7
 43
1.0
 76
     1
 77
     6
 78
     2
 67
     7
 79
     3
170
     0
171
     0
290
     0
174
     0
 93
       13
 44
0.0
173
     0
291
     0
 45
0.0
  0
DICTIONARYVAR
  5
331
102
{ACAD_REACTORS
330
330
102
}
330
330
100
DictionaryVariables
280
     0
  1
1:1
  0
DICTIONARYVAR
  5
4768
102
{ACAD_REACTORS
330
330
102
}
330
330
100
DictionaryVariables
280
     0
  1
Standard
  0
DICTIONARYVAR
  5
335
102
{ACAD_REACTORS
330
330
102
}
330
330
100
DictionaryVariables
280
     0
  1
Standard
  0
DICTIONARYVAR
  5
4EBC
102
{ACAD_REACTORS
330
330
102
}
330
330
100
DictionaryVariables
280
     0
  1
ByLayer
  0
DICTIONARYVAR
  5
109E
102
{ACAD_REACTORS
330
330
102
}
330
330
100
DictionaryVariables
280
     0
  1
0
  0
DICTIONARYVAR
  5
4EC0
102
{ACAD_REACTORS
330
4EBD
102
}
330
4EBD
100
DictionaryVariables
280
     0
  1
0.261799
  0
DICTIONARYVAR
  5
4EBE
102
{ACAD_REACTORS
330
4EBD
102
}
330
4EBD
100
DictionaryVariables
280
     0
  1
0.400000
  0
DICTIONARYVAR
  5
4EBF
102
{ACAD_REACTORS
330
4EBD
102
}
330
4EBD
100
DictionaryVariables
280
     0
  1
0.250000
  0
DICTIONARYVAR
  5
4EC1
102
{ACAD_REACTORS
330
4EBD
102
}
330
4EBD
100
DictionaryVariables
280
     0
  1
1
  0
XRECORD
  5
10DB
102
{ACAD_REACTORS
330
2E2
102
}
330
2E2
100
AcDbXrecord
280
     1
 91
     1023
301

290
     0
302
TFORMLOGO
330
14
 90
        8
 62
     7
370
    -3
331
13
  1
Color_7
330
4A
 90
        0
 62
     7
370
    -3
331
13
  1
Color_7
330
12CE
 90
        8
 62
     7
370
    13
331
13
  1
Color_7
330
12CF
 90
        8
 62
     7
370
    20
331
13
  1
Color_7
330
142A
 90
        8
 62
     7
370
    20
331
13
  1
Color_7
330
1D5C
 90
        8
 62
     7
370
    20
331
13
  1
Color_7
330
3848
 90
        9
 62
     4
370
    -3
331
13
  1
Color_4
330
0
 90
        8
 62
     7
370
    -3
331
13
  1
Color_7
330
0
 90
        8
 62
     7
370
    -3
331
13
  1
Color_7
330
0
 90
        8
 62
     7
370
    20
331
13
  1
Color_7
330
0
 90
        8
 62
   254
370
    20
331
13
  1
Color_254
  0
XRECORD
  5
DEA
102
{ACAD_REACTORS
330
2E2
102
}
330
2E2
100
AcDbXrecord
280
     1
 91
     1023
301

290
     0
302
テンプレート
330
14
 90
        8
 62
     7
370
    -3
331
13
  1
Color_7
330
4A
 90
        0
 62
     7
370
    -3
331
13
  1
Color_7
330
0
 90
        8
 62
     7
370
     9
331
13
  1
Color_7
330
12CE
 90
        9
 62
     7
370
    13
331
13
  1
Color_7
330
12CF
 90
        8
 62
     7
370
    20
331
13
  1
Color_7
330
142A
 90
        8
 62
     7
370
    20
331
13
  1
Color_7
330
0
 90
        8
 62
     7
370
    -3
331
13
  1
Color_7
330
0
 90
        8
 62
     7
370
    -3
331
13
  1
Color_7
330
0
 90
        8
 62
     7
370
    -3
331
13
  1
Color_7
330
0
 90
        8
 62
     7
370
    -3
331
13
  1
Color_7
  0
XRECORD
  5
C70
102
{ACAD_REACTORS
330
2E2
102
}
330
2E2
100
AcDbXrecord
280
     1
 91
     1023
301

290
     0
302
Defpoints
330
14
 90
        8
 62
     7
370
    -3
331
13
  1
Color_7
330
4A
 90
        0
 62
     7
370
    -3
331
13
  1
Color_7
330
0
 90
        8
 62
     7
370
    -3
331
13
  1
Color_7
330
0
 90
        8
 62
     7
370
    -3
331
13
  1
Color_7
330
0
 90
        8
 62
     7
370
    -3
331
13
  1
Color_7
330
0
 90
       12
 62
     7
370
    -3
331
13
  1
Color_7
330
0
 90
        8
 62
     7
370
    -3
331
13
  1
Color_7
  0
XRECORD
  5
7AA
102
{ACAD_REACTORS
330
2E2
102
}
330
2E2
100
AcDbXrecord
280
     1
 91
     1023
301

290
     0
302
レイヤー 1
330
14
 90
        9
 62
     7
370
    -3
331
13
  1
Color_7
330
4A
 90
        1
 62
     7
370
    -3
331
13
  1
Color_7
330
0
 90
        8
 62
     7
370
    -3
331
13
  1
Color_7
330
0
 90
        9
 62
     7
370
    -3
331
13
  1
Color_7
330
0
 90
        9
 62
     7
370
    -3
331
13
  1
Color_7
330
0
 90
       13
 62
     7
370
    -3
331
13
  1
Color_7
330
0
 90
        9
 62
     7
370
    -3
331
13
  1
Color_7
330
0
 90
        9
 62
     7
370
    -3
331
13
  1
Color_7
330
0
 90
        9
 62
     7
370
    -3
331
13
  1
Color_7
330
0
 90
        9
 62
     7
370
    -3
331
13
  1
Color_7
330
0
 90
        9
 62
     7
370
    -3
331
13
  1
Color_7
330
0
 90
        8
 62
     7
370
    -3
331
13
  1
Color_7
  0
FIELD
  5
4F5B
102
{ACAD_REACTORS
330
4F5F
102
}
330
4F5F
100
AcDbField
  1
_text
  2
{%<\_FldIdx 0>%N}
 90
        1
360
4F5E
 97
        0
 91
       63
 92
        0
 94
        8
 95
        2
 96
        0
300

 93
        1
  6
ACFD_FIELDTEXT_CHECKSUM
 93
        2
 90
        2
140
4443.0
 94
        0
300

302

304
ACVALUE_END
  7
ACFD_FIELD_VALUE
 93
        6
 90
        4
  1
{20161001N}
 94
        0
300

302

304
ACVALUE_END
301
{20161001N}
 98
       11
  0
DICTIONARY
  5
5070
330
279
100
AcDbDictionary
280
     1
281
     1
  3
ACAD_ROUNDTRIP_2008_TABLESTYLE_CELLSTYLEMAP
360
5071
  0
FIELD
  5
4F5E
330
4F5B
100
AcDbField
  1
AcVar
  2
\AcVar Date \f "yyyyMMdd"
 90
        0
 97
        0
 91
       63
 92
        0
 94
        8
 95
        2
 96
        0
300

 93
        1
  6
Variable
 93
        2
 90
        4
  1
Date
 94
        0
300

302

304
ACVALUE_END
  7
ACFD_FIELD_VALUE
 93
        6
 90
        8
 92
       16
310
E007090000001E00120005001B000000
 94
        0
300
yyyyMMdd
302

304
ACVALUE_END
301
20161001
 98
        8
  0
CELLSTYLEMAP
  5
5071
102
{ACAD_REACTORS
330
5070
102
}
330
5070
100
AcDbCellStyleMap
 90
        3
300
CELLSTYLE
  1
TABLEFORMAT_BEGIN
 90
        5
170
     1
 91
        0
 92
    32768
 62
   257
 93
        1
300
CONTENTFORMAT
  1
CONTENTFORMAT_BEGIN
 90
        0
 91
        0
 92
        4
 93
        0
300

 40
0.0
140
1.0
 94
        5
 62
     0
340
17
144
6.0
309
CONTENTFORMAT_END
171
     1
301
MARGIN
  1
CELLMARGIN_BEGIN
 40
0.06
 40
0.06
 40
0.06
 40
0.06
 40
0.18
 40
0.18
309
CELLMARGIN_END
 94
        6
 95
        1
302
GRIDFORMAT
  1
GRIDFORMAT_BEGIN
 90
        0
 91
        1
 62
     0
 92
       -2
340
0
 93
        0
 40
0.045
309
GRIDFORMAT_END
 95
        2
302
GRIDFORMAT
  1
GRIDFORMAT_BEGIN
 90
        0
 91
        1
 62
     0
 92
       -2
340
0
 93
        0
 40
0.045
309
GRIDFORMAT_END
 95
        4
302
GRIDFORMAT
  1
GRIDFORMAT_BEGIN
 90
        0
 91
        1
 62
     0
 92
       -2
340
0
 93
        0
 40
0.045
309
GRIDFORMAT_END
 95
        8
302
GRIDFORMAT
  1
GRIDFORMAT_BEGIN
 90
        0
 91
        1
 62
     0
 92
       -2
340
0
 93
        0
 40
0.045
309
GRIDFORMAT_END
 95
       16
302
GRIDFORMAT
  1
GRIDFORMAT_BEGIN
 90
        0
 91
        1
 62
     0
 92
       -2
340
0
 93
        0
 40
0.045
309
GRIDFORMAT_END
 95
       32
302
GRIDFORMAT
  1
GRIDFORMAT_BEGIN
 90
        0
 91
        1
 62
     0
 92
       -2
340
0
 93
        0
 40
0.045
309
GRIDFORMAT_END
309
TABLEFORMAT_END
  1
CELLSTYLE_BEGIN
 90
        1
 91
        1
300
_TITLE
309
CELLSTYLE_END
300
CELLSTYLE
  1
TABLEFORMAT_BEGIN
 90
        5
170
     1
 91
        0
 92
        0
 62
   257
 93
        1
300
CONTENTFORMAT
  1
CONTENTFORMAT_BEGIN
 90
        0
 91
        0
 92
        4
 93
        0
300

 40
0.0
140
1.0
 94
        5
 62
     0
340
17
144
4.5
309
CONTENTFORMAT_END
171
     1
301
MARGIN
  1
CELLMARGIN_BEGIN
 40
0.06
 40
0.06
 40
0.06
 40
0.06
 40
0.18
 40
0.18
309
CELLMARGIN_END
 94
        6
 95
        1
302
GRIDFORMAT
  1
GRIDFORMAT_BEGIN
 90
        0
 91
        1
 62
     0
 92
       -2
340
0
 93
        0
 40
0.045
309
GRIDFORMAT_END
 95
        2
302
GRIDFORMAT
  1
GRIDFORMAT_BEGIN
 90
        0
 91
        1
 62
     0
 92
       -2
340
0
 93
        0
 40
0.045
309
GRIDFORMAT_END
 95
        4
302
GRIDFORMAT
  1
GRIDFORMAT_BEGIN
 90
        0
 91
        1
 62
     0
 92
       -2
340
0
 93
        0
 40
0.045
309
GRIDFORMAT_END
 95
        8
302
GRIDFORMAT
  1
GRIDFORMAT_BEGIN
 90
        0
 91
        1
 62
     0
 92
       -2
340
0
 93
        0
 40
0.045
309
GRIDFORMAT_END
 95
       16
302
GRIDFORMAT
  1
GRIDFORMAT_BEGIN
 90
        0
 91
        1
 62
     0
 92
       -2
340
0
 93
        0
 40
0.045
309
GRIDFORMAT_END
 95
       32
302
GRIDFORMAT
  1
GRIDFORMAT_BEGIN
 90
        0
 91
        1
 62
     0
 92
       -2
340
0
 93
        0
 40
0.045
309
GRIDFORMAT_END
309
TABLEFORMAT_END
  1
CELLSTYLE_BEGIN
 90
        2
 91
        1
300
_HEADER
309
CELLSTYLE_END
300
CELLSTYLE
  1
TABLEFORMAT_BEGIN
 90
        5
170
     1
 91
        0
 92
        0
 62
   257
 93
        1
300
CONTENTFORMAT
  1
CONTENTFORMAT_BEGIN
 90
        0
 91
        0
 92
        4
 93
        0
300

 40
0.0
140
1.0
 94
        2
 62
     0
340
17
144
4.5
309
CONTENTFORMAT_END
171
     1
301
MARGIN
  1
CELLMARGIN_BEGIN
 40
0.06
 40
0.06
 40
0.06
 40
0.06
 40
0.18
 40
0.18
309
CELLMARGIN_END
 94
        6
 95
        1
302
GRIDFORMAT
  1
GRIDFORMAT_BEGIN
 90
        0
 91
        1
 62
     0
 92
       -2
340
0
 93
        0
 40
0.045
309
GRIDFORMAT_END
 95
        2
302
GRIDFORMAT
  1
GRIDFORMAT_BEGIN
 90
        0
 91
        1
 62
     0
 92
       -2
340
0
 93
        0
 40
0.045
309
GRIDFORMAT_END
 95
        4
302
GRIDFORMAT
  1
GRIDFORMAT_BEGIN
 90
        0
 91
        1
 62
     0
 92
       -2
340
0
 93
        0
 40
0.045
309
GRIDFORMAT_END
 95
        8
302
GRIDFORMAT
  1
GRIDFORMAT_BEGIN
 90
        0
 91
        1
 62
     0
 92
       -2
340
0
 93
        0
 40
0.045
309
GRIDFORMAT_END
 95
       16
302
GRIDFORMAT
  1
GRIDFORMAT_BEGIN
 90
        0
 91
        1
 62
     0
 92
       -2
340
0
 93
        0
 40
0.045
309
GRIDFORMAT_END
 95
       32
302
GRIDFORMAT
  1
GRIDFORMAT_BEGIN
 90
        0
 91
        1
 62
     0
 92
       -2
340
0
 93
        0
 40
0.045
309
GRIDFORMAT_END
309
TABLEFORMAT_END
  1
CELLSTYLE_BEGIN
 90
        3
 91
        2
300
_DATA
309
CELLSTYLE_END
  0
ENDSEC
  0
EOF
