  0
SECTION
  2
HEADER
  9
$ACADVER
  1
AC1021
  9
$ACADMAINTVER
 70
    25
  9
$DWGCODEPAGE
  3
ANSI_932
  9
$LASTSAVEDBY
  1
howeNelson
  9
$INSBASE
 10
0.0
 20
0.0
 30
0.0
  9
$EXTMIN
 10
0.0
 20
0.0
 30
0.0
  9
$EXTMAX
 10
593.9999999999999
 20
420.0
 30
0.0
  9
$LIMMIN
 10
0.0
 20
0.0
  9
$LIMMAX
 10
593.9999999999999
 20
420.0
  9
$ORTHOMODE
 70
     0
  9
$REGENMODE
 70
     1
  9
$FILLMODE
 70
     1
  9
$QTEXTMODE
 70
     0
  9
$MIRRTEXT
 70
     1
  9
$LTSCALE
 40
0.5
  9
$ATTMODE
 70
     1
  9
$TEXTSIZE
 40
136.139079520063
  9
$TRACEWID
 40
1.0
  9
$TEXTSTYLE
  7
ＭＳ ゴシック
  9
$CLAYER
  8
寸法
  9
$CELTYPE
  6
ByLayer
  9
$CECOLOR
 62
   256
  9
$CELTSCALE
 40
1.0
  9
$DISPSILH
 70
     0
  9
$DIMSCALE
 40
1.0
  9
$DIMASZ
 40
2.0
  9
$DIMEXO
 40
5.0
  9
$DIMDLI
 40
0.9999999999999999
  9
$DIMRND
 40
0.0
  9
$DIMDLE
 40
0.0
  9
$DIMEXE
 40
0.0
  9
$DIMTP
 40
0.0
  9
$DIMTM
 40
0.0
  9
$DIMTXT
 40
5.0
  9
$DIMCEN
 40
0.0
  9
$DIMTSZ
 40
0.0
  9
$DIMTOL
 70
     0
  9
$DIMLIM
 70
     0
  9
$DIMTIH
 70
     0
  9
$DIMTOH
 70
     0
  9
$DIMSE1
 70
     0
  9
$DIMSE2
 70
     0
  9
$DIMTAD
 70
     1
  9
$DIMZIN
 70
    11
  9
$DIMBLK
  1
DOT
  9
$DIMASO
 70
     1
  9
$DIMSHO
 70
     1
  9
$DIMPOST
  1
<>
  9
$DIMAPOST
  1
[]
  9
$DIMALT
 70
     0
  9
$DIMALTD
 70
     1
  9
$DIMALTF
 40
1.0
  9
$DIMLFAC
 40
1.0
  9
$DIMTOFL
 70
     0
  9
$DIMTVP
 40
0.0
  9
$DIMTIX
 70
     1
  9
$DIMSOXD
 70
     0
  9
$DIMSAH
 70
     0
  9
$DIMBLK1
  1

  9
$DIMBLK2
  1

  9
$DIMSTYLE
  2
tfrom線あり
  9
$DIMCLRD
 70
     0
  9
$DIMCLRE
 70
     0
  9
$DIMCLRT
 70
     0
  9
$DIMTFAC
 40
1.0
  9
$DIMGAP
 40
5.0
  9
$DIMJUST
 70
     0
  9
$DIMSD1
 70
     0
  9
$DIMSD2
 70
     0
  9
$DIMTOLJ
 70
     1
  9
$DIMTZIN
 70
    11
  9
$DIMALTZ
 70
    11
  9
$DIMALTTZ
 70
    11
  9
$DIMUPT
 70
     0
  9
$DIMDEC
 70
     0
  9
$DIMTDEC
 70
     1
  9
$DIMALTU
 70
     2
  9
$DIMALTTD
 70
     2
  9
$DIMTXSTY
  7
ＭＳ ゴシック
  9
$DIMAUNIT
 70
     0
  9
$DIMADEC
 70
     2
  9
$DIMALTRND
 40
0.0
  9
$DIMAZIN
 70
     0
  9
$DIMDSEP
 70
    46
  9
$DIMATFIT
 70
     0
  9
$DIMFRAC
 70
     2
  9
$DIMLDRBLK
  1
DOT
  9
$DIMLUNIT
 70
     2
  9
$DIMLWD
 70
    -2
  9
$DIMLWE
 70
    -2
  9
$DIMTMOVE
 70
     0
  9
$DIMFXL
 40
1.0
  9
$DIMFXLON
 70
     0
  9
$DIMJOGANG
 40
0.7853981633974483
  9
$DIMTFILL
 70
     0
  9
$DIMTFILLCLR
 70
     0
  9
$DIMARCSYM
 70
     0
  9
$DIMLTYPE
  6

  9
$DIMLTEX1
  6

  9
$DIMLTEX2
  6

  9
$LUNITS
 70
     2
  9
$LUPREC
 70
     0
  9
$SKETCHINC
 40
0.1
  9
$FILLETRAD
 40
0.0
  9
$AUNITS
 70
     0
  9
$AUPREC
 70
     0
  9
$MENU
  1
acad
  9
$ELEVATION
 40
0.0
  9
$PELEVATION
 40
0.0
  9
$THICKNESS
 40
0.0
  9
$LIMCHECK
 70
     0
  9
$CHAMFERA
 40
0.0
  9
$CHAMFERB
 40
0.0
  9
$CHAMFERC
 40
0.0
  9
$CHAMFERD
 40
0.0
  9
$SKPOLY
 70
     0
  9
$TDCREATE
 40
2447893.375
  9
$TDUCREATE
 40
0.0
  9
$TDUPDATE
 40
2458205.440999815
  9
$TDUUPDATE
 40
2458205.065999815
  9
$TDINDWG
 40
0.0021745255
  9
$TDUSRTIMER
 40
0.0021745255
  9
$USRTIMER
 70
     1
  9
$ANGBASE
 50
0.0
  9
$ANGDIR
 70
     0
  9
$PDMODE
 70
     1
  9
$PDSIZE
 40
-2.0
  9
$PLINEWID
 40
0.0
  9
$SPLFRAME
 70
     0
  9
$SPLINETYPE
 70
     6
  9
$SPLINESEGS
 70
     8
  9
$HANDSEED
  5
51B2
  9
$SURFTAB1
 70
     6
  9
$SURFTAB2
 70
     6
  9
$SURFTYPE
 70
     6
  9
$SURFU
 70
     6
  9
$SURFV
 70
     6
  9
$UCSBASE
  2

  9
$UCSNAME
  2

  9
$UCSORG
 10
0.0
 20
0.0
 30
0.0
  9
$UCSXDIR
 10
1.0
 20
0.0
 30
0.0
  9
$UCSYDIR
 10
0.0
 20
1.0
 30
0.0
  9
$UCSORTHOREF
  2

  9
$UCSORTHOVIEW
 70
     1
  9
$UCSORGTOP
 10
0.0
 20
0.0
 30
0.0
  9
$UCSORGBOTTOM
 10
0.0
 20
0.0
 30
0.0
  9
$UCSORGLEFT
 10
0.0
 20
0.0
 30
0.0
  9
$UCSORGRIGHT
 10
0.0
 20
0.0
 30
0.0
  9
$UCSORGFRONT
 10
0.0
 20
0.0
 30
0.0
  9
$UCSORGBACK
 10
0.0
 20
0.0
 30
0.0
  9
$PUCSBASE
  2

  9
$PUCSNAME
  2

  9
$PUCSORG
 10
0.0
 20
0.0
 30
0.0
  9
$PUCSXDIR
 10
1.0
 20
0.0
 30
0.0
  9
$PUCSYDIR
 10
0.0
 20
1.0
 30
0.0
  9
$PUCSORTHOREF
  2

  9
$PUCSORTHOVIEW
 70
     0
  9
$PUCSORGTOP
 10
0.0
 20
0.0
 30
0.0
  9
$PUCSORGBOTTOM
 10
0.0
 20
0.0
 30
0.0
  9
$PUCSORGLEFT
 10
0.0
 20
0.0
 30
0.0
  9
$PUCSORGRIGHT
 10
0.0
 20
0.0
 30
0.0
  9
$PUCSORGFRONT
 10
0.0
 20
0.0
 30
0.0
  9
$PUCSORGBACK
 10
0.0
 20
0.0
 30
0.0
  9
$USERI1
 70
     0
  9
$USERI2
 70
     0
  9
$USERI3
 70
     0
  9
$USERI4
 70
     0
  9
$USERI5
 70
     0
  9
$USERR1
 40
0.0
  9
$USERR2
 40
0.0
  9
$USERR3
 40
0.0
  9
$USERR4
 40
0.0
  9
$USERR5
 40
0.0
  9
$WORLDVIEW
 70
     1
  9
$SHADEDGE
 70
     3
  9
$SHADEDIF
 70
    70
  9
$TILEMODE
 70
     1
  9
$MAXACTVP
 70
    64
  9
$PINSBASE
 10
0.0
 20
0.0
 30
0.0
  9
$PLIMCHECK
 70
     0
  9
$PEXTMIN
 10
0.0
 20
0.0
 30
0.0
  9
$PEXTMAX
 10
0.0
 20
0.0
 30
0.0
  9
$PLIMMIN
 10
-7.5
 20
-20.0
  9
$PLIMMAX
 10
412.5
 20
277.0
  9
$UNITMODE
 70
     0
  9
$VISRETAIN
 70
     0
  9
$PLINEGEN
 70
     1
  9
$PSLTSCALE
 70
     0
  9
$TREEDEPTH
 70
  3020
  9
$CMLSTYLE
  2
Standard
  9
$CMLJUST
 70
     0
  9
$CMLSCALE
 40
1.0
  9
$PROXYGRAPHICS
 70
     0
  9
$MEASUREMENT
 70
     1
  9
$CELWEIGHT
370
    -1
  9
$ENDCAPS
280
     0
  9
$JOINSTYLE
280
     0
  9
$LWDISPLAY
290
     1
  9
$INSUNITS
 70
     4
  9
$HYPERLINKBASE
  1

  9
$STYLESHEET
  1

  9
$XEDIT
290
     1
  9
$CEPSNTYPE
380
     0
  9
$PSTYLEMODE
290
     1
  9
$FINGERPRINTGUID
  2

  9
$VERSIONGUID
  2

  9
$EXTNAMES
290
     1
  9
$PSVPSCALE
 40
0.0
  9
$OLESTARTUP
290
     0
  9
$SORTENTS
280
   127
  9
$INDEXCTL
280
     0
  9
$HIDETEXT
280
     1
  9
$XCLIPFRAME
290
     0
  9
$HALOGAP
280
     0
  9
$OBSCOLOR
 70
   257
  9
$OBSLTYPE
280
     0
  9
$INTERSECTIONDISPLAY
280
     0
  9
$INTERSECTIONCOLOR
 70
   257
  9
$DIMASSOC
280
     2
  9
$PROJECTNAME
  1

  9
$CAMERADISPLAY
290
     0
  9
$LENSLENGTH
 40
50.0
  9
$CAMERAHEIGHT
 40
0.0
  9
$STEPSPERSEC
 40
2.0
  9
$STEPSIZE
 40
6.0
  9
$3DDWFPREC
 40
2.0
  9
$PSOLWIDTH
 40
0.25
  9
$PSOLHEIGHT
 40
4.0
  9
$LOFTANG1
 40
1.570796326794897
  9
$LOFTANG2
 40
1.570796326794897
  9
$LOFTMAG1
 40
0.0
  9
$LOFTMAG2
 40
0.0
  9
$LOFTPARAM
 70
     7
  9
$LOFTNORMALS
280
     1
  9
$LATITUDE
 40
37.795
  9
$LONGITUDE
 40
-122.394
  9
$NORTHDIRECTION
 40
0.0
  9
$TIMEZONE
 70
 -8000
  9
$LIGHTGLYPHDISPLAY
280
     1
  9
$TILEMODELIGHTSYNCH
280
     1
  9
$SOLIDHIST
280
     1
  9
$SHOWHIST
280
     1
  9
$DWFFRAME
280
     2
  9
$DGNFRAME
280
     2
  9
$REALWORLDSCALE
290
     1
  9
$INTERFERECOLOR
 62
   256
  9
$CSHADOW
280
     0
  9
$SHADOWPLANELOCATION
 40
0.0
  0
ENDSEC
  0
SECTION
  2
CLASSES
  0
CLASS
  1
LWPOLYLINE
  2
AcDbPolyline
  3
ObjectDBX Classes
 90
        0
 91
        1
280
     0
281
     1
  0
CLASS
  1
IMAGE
  2
AcDbRasterImage
  3
ISM
 90
      127
 91
        5
280
     0
281
     1
  0
CLASS
  1
OLE2FRAME
  2
AcDbOle2Frame
  3
ObjectDBX Classes
 90
        0
 91
        1
280
     0
281
     1
  0
CLASS
  1
HATCH
  2
AcDbHatch
  3
ObjectDBX Classes
 90
        0
 91
        1
280
     0
281
     1
  0
CLASS
  1
DICTIONARYVAR
  2
AcDbDictionaryVar
  3
ObjectDBX Classes
 90
        0
 91
        4
280
     0
281
     0
  0
CLASS
  1
RASTERVARIABLES
  2
AcDbRasterVariables
  3
ISM
 90
        0
 91
        4
280
     0
281
     0
  0
CLASS
  1
IMAGEDEF
  2
AcDbRasterImageDef
  3
ISM
 90
        0
 91
        4
280
     0
281
     0
  0
CLASS
  1
IMAGEDEF_REACTOR
  2
AcDbRasterImageDefReactor
  3
ISM
 90
        1
 91
        4
280
     0
281
     0
  0
CLASS
  1
IDBUFFER
  2
AcDbIdBuffer
  3
ObjectDBX Classes
 90
        0
 91
        4
280
     0
281
     0
  0
CLASS
  1
SPATIAL_FILTER
  2
AcDbSpatialFilter
  3
ObjectDBX Classes
 90
        0
 91
        4
280
     0
281
     0
  0
CLASS
  1
XRECORD
  2
AcDbXrecord
  3
ObjectDBX Classes
 90
        0
 91
        1
280
     0
281
     0
  0
CLASS
  1
SORTENTSTABLE
  2
AcDbSortentsTable
  3
ObjectDBX Classes
 90
        0
 91
        4
280
     0
281
     0
  0
CLASS
  1
LAYER_INDEX
  2
AcDbLayerIndex
  3
ObjectDBX Classes
 90
        0
 91
        4
280
     0
281
     0
  0
CLASS
  1
SPATIAL_INDEX
  2
AcDbSpatialIndex
  3
AutoCAD 2000
 90
        0
 91
        4
280
     0
281
     0
  0
CLASS
  1
OBJECT_PTR
  2
CAseDLPNTableRecord
  3
ASE-LPNTableRecord
 90
        1
 91
        4
280
     0
281
     0
  0
CLASS
  1
LAYOUT
  2
AcDbLayout
  3
ObjectDBX Classes
 90
        0
 91
        1
280
     0
281
     0
  0
CLASS
  1
PLOTSETTINGS
  2
AcDbPlotSettings
  3
ObjectDBX Classes
 90
        0
 91
        4
280
     0
281
     0
  0
CLASS
  1
ACDBDICTIONARYWDFLT
  2
AcDbDictionaryWithDefault
  3
ObjectDBX Classes
 90
        0
 91
        4
280
     0
281
     0
  0
CLASS
  1
ACDBPLACEHOLDER
  2
AcDbPlaceHolder
  3
ObjectDBX Classes
 90
        0
 91
        1
280
     0
281
     0
  0
CLASS
  1
SCALE
  2
AcDbScale
  3
ObjectDBX Classes
 90
     1153
 91
        4
280
     0
281
     0
  0
CLASS
  1
MATERIAL
  2
AcDbMaterial
  3
ObjectDBX Classes
 90
     1153
 91
        4
280
     0
281
     0
  0
CLASS
  1
VISUALSTYLE
  2
AcDbVisualStyle
  3
ObjectDBX Classes
 90
     4095
 91
        4
280
     0
281
     0
  0
CLASS
  1
TABLESTYLE
  2
AcDbTableStyle
  3
ObjectDBX Classes
 90
     4095
 91
        4
280
     0
281
     0
  0
CLASS
  1
DIMASSOC
  2
AcDbDimAssoc
  3
"AcDbDimAssoc|Product Desc:     AcDim ARX App For Dimension|Company:          Autodesk, Inc.|WEB Address:      www.autodesk.com"
 90
        0
 91
        4
280
     0
281
     0
  0
CLASS
  1
CELLSTYLEMAP
  2
AcDbCellStyleMap
  3
ObjectDBX Classes
 90
     1152
 91
        4
280
     0
281
     0
  0
CLASS
  1
SUN
  2
AcDbSun
  3
SCENEOE
 90
     1153
 91
        4
280
     0
281
     0
  0
CLASS
  1
MLEADERSTYLE
  2
AcDbMLeaderStyle
  3
ACDB_MLEADERSTYLE_CLASS
 90
     4095
 91
        4
280
     0
281
     0
  0
CLASS
  1
FIELD
  2
AcDbField
  3
ObjectDBX Classes
 90
     1152
 91
        4
280
     0
281
     0
  0
CLASS
  1
FIELDLIST
  2
AcDbFieldList
  3
ObjectDBX Classes
 90
     1152
 91
        4
280
     0
281
     0
  0
ENDSEC
  0
SECTION
  2
TABLES
  0
TABLE
  2
VPORT
  5
7
330
0
100
AcDbSymbolTable
 70
     1
  0
VPORT
  5
15
330
7
100
AcDbSymbolTableRecord
100
AcDbViewportTableRecord
  2
*ACTIVE
 70
     0
 10
0.0
 20
0.0
 11
1.0
 21
1.0
 12
296.9999999999999
 22
210.0
 13
0.0
 23
0.0
 14
1.0
 24
1.0
 15
0.0
 25
0.0
 16
0.0
 26
0.0
 36
1.0
 17
0.0
 27
0.0
 37
0.0
 40
428.4
 41
2.242253521126761
 42
50.0
 43
0.0
 44
0.0
 50
0.0
 51
0.0
 71
    16
 72
  2000
 73
     1
 74
     1
 75
     0
 76
     0
 77
     0
 78
     1
281
     0
 65
     0
110
0.0
120
0.0
130
0.0
111
1.0
121
0.0
131
0.0
112
0.0
122
1.0
132
0.0
 79
     0
146
0.0
348
26C
 60
     3
 61
     5
292
     1
282
     1
141
0.0
142
0.0
 63
   256
361
10E8
  0
ENDTAB
  0
TABLE
  2
LTYPE
  5
4
330
0
100
AcDbSymbolTable
 70
     3
  0
LTYPE
  5
11
330
4
100
AcDbSymbolTableRecord
100
AcDbLinetypeTableRecord
  2
ByBlock
 70
     0
  3

 72
    65
 73
     0
 40
0.0
  0
LTYPE
  5
12
330
4
100
AcDbSymbolTableRecord
100
AcDbLinetypeTableRecord
  2
ByLayer
 70
     0
  3
Solid line
 72
    65
 73
     0
 40
0.0
  0
LTYPE
  5
13
330
4
100
AcDbSymbolTableRecord
100
AcDbLinetypeTableRecord
  2
Continuous
 70
     0
  3
Solid line
 72
    65
 73
     0
 40
0.0
  0
LTYPE
  5
88D
330
4
100
AcDbSymbolTableRecord
100
AcDbLinetypeTableRecord
  2
CENTER
 70
     0
  3
----------  --  ----------  --  
 72
    65
 73
     4
 40
20.0
 49
12.5
 74
     0
 49
-2.5
 74
     0
 49
2.5
 74
     0
 49
-2.5
 74
     0
  0
LTYPE
  5
12C7
330
4
100
AcDbSymbolTableRecord
100
AcDbLinetypeTableRecord
  2
HIDDEN
 70
     0
  3
Hidden _ _ _ _ _ _ _ _ _ _ _ _ _ _ _ _ _ _ _ _ 
 72
    65
 73
     2
 40
9.524999999999999
 49
6.35
 74
     0
 49
-3.175
 74
     0
  0
ENDTAB
  0
TABLE
  2
LAYER
  5
2
102
{ACAD_XDICTIONARY
360
2E1
102
}
330
0
100
AcDbSymbolTable
 70
     8
  0
LAYER
  5
14
330
2
100
AcDbSymbolTableRecord
100
AcDbLayerTableRecord
  2
0
 70
     0
 62
     7
  6
Continuous
370
    -3
390
1D
347
266
  0
LAYER
  5
4A
330
2
100
AcDbSymbolTableRecord
100
AcDbLayerTableRecord
  2
Defpoints
 70
     0
 62
     7
  6
Continuous
290
     0
370
    -3
390
1D
347
266
  0
LAYER
  5
12CE
330
2
100
AcDbSymbolTableRecord
100
AcDbLayerTableRecord
  2
寸法
 70
     0
 62
     7
  6
Continuous
370
    13
390
1D
347
266
1001
AcAecLayerStandard
1000

1000

  0
LAYER
  5
12CF
330
2
100
AcDbSymbolTableRecord
100
AcDbLayerTableRecord
  2
モデル
 70
     0
 62
     7
  6
Continuous
370
    20
390
1D
347
266
1001
AcAecLayerStandard
1000

1000

  0
LAYER
  5
142A
330
2
100
AcDbSymbolTableRecord
100
AcDbLayerTableRecord
  2
テンプレート
 70
     0
 62
     7
  6
Continuous
370
    20
390
1D
347
266
1001
AcAecLayerStandard
1000

1000

  0
LAYER
  5
1D5C
330
2
100
AcDbSymbolTableRecord
100
AcDbLayerTableRecord
  2
TFORMLOGO
 70
     0
 62
     7
  6
Continuous
370
    20
390
1D
347
266
  0
LAYER
  5
3848
330
2
100
AcDbSymbolTableRecord
100
AcDbLayerTableRecord
  2
PRINT BORDER
 70
     0
 62
     4
  6
Continuous
290
     0
370
    -3
390
1D
347
266
1001
AcAecLayerStandard
1000

1000

  0
LAYER
  5
5083
330
2
100
AcDbSymbolTableRecord
100
AcDbLayerTableRecord
  2
MODEL
 70
     0
 62
     7
  6
Continuous
370
    20
390
1D
347
266
  0
ENDTAB
  0
TABLE
  2
STYLE
  5
3
330
0
100
AcDbSymbolTable
 70
     2
  0
STYLE
  5
17
330
3
100
AcDbSymbolTableRecord
100
AcDbTextStyleTableRecord
  2
Standard
 70
     0
 40
0.0
 41
1.0
 50
0.0
 71
     0
 42
2.5
  3
txt
  4
BIGFONT.SHX
  0
STYLE
  5
39
330
3
100
AcDbSymbolTableRecord
100
AcDbTextStyleTableRecord
  2
ＭＳ ゴシック
 70
     0
 40
0.0
 41
1.0
 50
0.0
 71
     0
 42
136.139079520063
  3
msgothic.ttc
  4
ＭＳ ゴシック
1001
ACAD
1000
ＭＳ ゴシック
1071
        0
  0
ENDTAB
  0
TABLE
  2
VIEW
  5
5
330
0
100
AcDbSymbolTable
 70
     0
  0
ENDTAB
  0
TABLE
  2
UCS
  5
6
330
0
100
AcDbSymbolTable
 70
     0
  0
ENDTAB
  0
TABLE
  2
APPID
  5
8
330
0
100
AcDbSymbolTable
 70
     3
  0
APPID
  5
16
330
8
100
AcDbSymbolTableRecord
100
AcDbRegAppTableRecord
  2
ACAD
 70
     0
  0
APPID
  5
7AC
330
8
100
AcDbSymbolTableRecord
100
AcDbRegAppTableRecord
  2
AcAecLayerStandard
 70
     0
  0
APPID
  5
478C
330
8
100
AcDbSymbolTableRecord
100
AcDbRegAppTableRecord
  2
ACAD_MLEADERVER
 70
     0
  0
ENDTAB
  0
TABLE
  2
DIMSTYLE
  5
9
330
0
100
AcDbSymbolTable
 70
     2
100
AcDbDimStyleTable
  0
DIMSTYLE
105
18
330
9
100
AcDbSymbolTableRecord
100
AcDbDimStyleTableRecord
  2
Standard
 70
     0
178
     0
340
17
  0
DIMSTYLE
105
57
102
{ACAD_REACTORS
330
4A0E
330
4A11
330
4A17
330
4A1E
330
4A21
330
4B57
330
4BCE
330
4CDE
330
4CF5
330
4E45
330
4E62
102
}
330
9
100
AcDbSymbolTableRecord
100
AcDbDimStyleTableRecord
  2
tfrom線あり
 70
     0
  3
<>
  4
[]
 41
2.0
 42
5.0
 43
0.9999999999999999
 44
0.0
 73
     0
 74
     0
 77
     1
 78
    11
140
5.0
141
0.0
143
1.0
147
5.0
171
     1
174
     1
178
     0
179
     2
271
     0
272
     1
276
     2
284
    11
285
    11
286
    11
289
     0
340
39
341
4E
342
4E
  0
ENDTAB
  0
TABLE
  2
BLOCK_RECORD
  5
1
330
0
100
AcDbSymbolTable
 70
    15
  0
BLOCK_RECORD
  5
A
102
{ACAD_XDICTIONARY
360
45FB
102
}
330
1
100
AcDbSymbolTableRecord
100
AcDbBlockTableRecord
  2
*MODEL_SPACE
340
20
 70
     0
280
     1
281
     0
  0
BLOCK_RECORD
  5
B
330
1
100
AcDbSymbolTableRecord
100
AcDbBlockTableRecord
  2
*PAPER_SPACE
340
21
 70
     0
280
     1
281
     0
  0
BLOCK_RECORD
  5
4E
330
1
100
AcDbSymbolTableRecord
100
AcDbBlockTableRecord
  2
_DOT
340
0
102
{BLKREFS
331
4ABC
331
4ABD
331
4AC8
331
4AC9
331
4AE0
331
4AE1
331
4B04
331
4B05
331
4B10
331
4B11
331
4B60
331
4B61
331
4BD7
331
4BD8
331
4D05
331
4D06
331
4D29
331
4D2A
331
4E4C
331
4E4D
331
4E6B
331
4E6C
102
}
 70
     0
280
     1
281
     0
  0
BLOCK_RECORD
  5
12C3
330
1
100
AcDbSymbolTableRecord
100
AcDbBlockTableRecord
  2
*Paper_Space1
340
12C4
 70
     0
280
     1
281
     0
  0
BLOCK_RECORD
  5
1D88
330
1
100
AcDbSymbolTableRecord
100
AcDbBlockTableRecord
  2
名称未設定-1
340
0
102
{BLKREFS
331
36E3
102
}
 70
     1
280
     1
281
     0
  0
BLOCK_RECORD
  5
1D8B
330
1
100
AcDbSymbolTableRecord
100
AcDbBlockTableRecord
  2
block 2
340
0
102
{BLKREFS
331
1D8A
102
}
 70
     0
280
     1
281
     0
  0
BLOCK_RECORD
  5
4AB6
330
1
100
AcDbSymbolTableRecord
100
AcDbBlockTableRecord
  2
*D4
340
0
 70
     0
280
     1
281
     0
  0
BLOCK_RECORD
  5
4AC2
330
1
100
AcDbSymbolTableRecord
100
AcDbBlockTableRecord
  2
*D5
340
0
 70
     0
280
     1
281
     0
  0
BLOCK_RECORD
  5
4ADA
330
1
100
AcDbSymbolTableRecord
100
AcDbBlockTableRecord
  2
*D6
340
0
 70
     0
280
     1
281
     0
  0
BLOCK_RECORD
  5
4AFE
330
1
100
AcDbSymbolTableRecord
100
AcDbBlockTableRecord
  2
*D7
340
0
 70
     0
280
     1
281
     0
  0
BLOCK_RECORD
  5
4B0A
330
1
100
AcDbSymbolTableRecord
100
AcDbBlockTableRecord
  2
*D8
340
0
 70
     0
280
     1
281
     0
  0
BLOCK_RECORD
  5
4B5A
330
1
100
AcDbSymbolTableRecord
100
AcDbBlockTableRecord
  2
*D9
340
0
 70
     0
280
     1
281
     0
  0
BLOCK_RECORD
  5
4BD1
330
1
100
AcDbSymbolTableRecord
100
AcDbBlockTableRecord
  2
*D10
340
0
 70
     0
280
     1
281
     0
  0
BLOCK_RECORD
  5
4CFF
330
1
100
AcDbSymbolTableRecord
100
AcDbBlockTableRecord
  2
*D11
340
0
 70
     0
280
     1
281
     0
  0
BLOCK_RECORD
  5
4D23
330
1
100
AcDbSymbolTableRecord
100
AcDbBlockTableRecord
  2
*D12
340
0
 70
     0
280
     1
281
     0
  0
BLOCK_RECORD
  5
4E46
330
1
100
AcDbSymbolTableRecord
100
AcDbBlockTableRecord
  2
*D13
340
0
 70
     0
280
     1
281
     0
  0
BLOCK_RECORD
  5
4E65
330
1
100
AcDbSymbolTableRecord
100
AcDbBlockTableRecord
  2
*D14
340
0
 70
     0
280
     1
281
     0
  0
ENDTAB
  0
ENDSEC
  0
SECTION
  2
BLOCKS
  0
BLOCK
  5
D
330
A
100
AcDbEntity
  8
0
390
1D
100
AcDbBlockBegin
  2
*MODEL_SPACE
 70
     0
 10
0.0
 20
0.0
 30
0.0
  3
*MODEL_SPACE
  1
*MODEL_SPACE
  0
ENDBLK
  5
E
330
A
100
AcDbEntity
  8
0
390
1D
100
AcDbBlockEnd
  0
BLOCK
  5
F
330
B
100
AcDbEntity
 67
     1
  8
0
390
1D
100
AcDbBlockBegin
  2
*PAPER_SPACE
 70
     0
 10
0.0
 20
0.0
 30
0.0
  3
*PAPER_SPACE
  1
*PAPER_SPACE
  0
ENDBLK
  5
10
330
B
100
AcDbEntity
 67
     1
  8
0
390
1D
100
AcDbBlockEnd
  0
BLOCK
  5
1066
330
4E
100
AcDbEntity
  8
0
390
1D
100
AcDbBlockBegin
  2
_DOT
 70
     0
 10
0.0
 20
0.0
 30
0.0
  3
_DOT
  1
_DOT
  0
POLYLINE
  5
1068
330
4E
100
AcDbEntity
  8
0
  6
ByBlock
 62
     0
370
    -2
390
1D
100
AcDb2dPolyline
 66
     1
 10
0.0
 20
0.0
 30
0.0
 70
     1
 40
0.5
 41
0.5
  0
VERTEX
  5
1069
330
1068
100
AcDbEntity
  8
0
  6
ByBlock
 62
     0
370
    -2
390
1D
100
AcDbVertex
100
AcDb2dVertex
 10
-0.25
 20
0.0
 30
0.0
 42
1.0
  0
VERTEX
  5
106A
330
1068
100
AcDbEntity
  8
0
  6
ByBlock
 62
     0
370
    -2
390
1D
100
AcDbVertex
100
AcDb2dVertex
 10
0.25
 20
0.0
 30
0.0
 42
1.0
  0
SEQEND
  5
106B
330
1068
100
AcDbEntity
  8
0
390
1D
  0
LINE
  5
106C
330
4E
100
AcDbEntity
  8
0
  6
ByBlock
 62
     0
370
    -2
390
1D
100
AcDbLine
 10
-0.5
 20
0.0
 30
0.0
 11
-1.0
 21
0.0
 31
0.0
  0
ENDBLK
  5
106D
330
4E
100
AcDbEntity
  8
0
390
1D
100
AcDbBlockEnd
  0
BLOCK
  5
12C5
330
12C3
100
AcDbEntity
  8
0
100
AcDbBlockBegin
  2
*Paper_Space1
 70
     0
 10
0.0
 20
0.0
 30
0.0
  3
*Paper_Space1
  1
*Paper_Space83
  0
ENDBLK
  5
12C6
330
12C3
100
AcDbEntity
  8
0
100
AcDbBlockEnd
  0
BLOCK
  5
1D89
330
1D88
100
AcDbEntity
  8
0
100
AcDbBlockBegin
  2
名称未設定-1
 70
     0
 10
0.0
 20
0.0
 30
0.0
  3
名称未設定-1
  1
名称未設定-1
  0
INSERT
  5
1D8A
330
1D88
100
AcDbEntity
  8
TFORMLOGO
100
AcDbBlockReference
  2
block 2
 10
0.0
 20
0.0
 30
0.0
  0
ENDBLK
  5
1DAF
330
1D88
100
AcDbEntity
  8
0
100
AcDbBlockEnd
  0
BLOCK
  5
1D8C
330
1D8B
100
AcDbEntity
  8
0
100
AcDbBlockBegin
  2
block 2
 70
     0
 10
0.0
 20
0.0
 30
0.0
  3
block 2
  1
block 2
  0
SPLINE
  5
4753
330
1D8B
100
AcDbEntity
  8
TFORMLOGO
 62
    18
420
        0
370
     0
100
AcDbSpline
210
0.0
220
0.0
230
1.0
 70
    11
 71
     3
 72
    38
 73
    34
 74
     0
 42
0.000000001
 43
0.0000000001
 40
0.0
 40
0.0
 40
0.0
 40
0.0
 40
1.0
 40
1.0
 40
1.0
 40
2.0
 40
2.0
 40
2.0
 40
3.0
 40
3.0
 40
3.0
 40
4.0
 40
4.0
 40
4.0
 40
5.0
 40
5.0
 40
5.0
 40
6.0
 40
6.0
 40
6.0
 40
7.0
 40
7.0
 40
7.0
 40
8.0
 40
8.0
 40
8.0
 40
9.0
 40
9.0
 40
9.0
 40
10.0
 40
10.0
 40
10.0
 40
11.0
 40
11.0
 40
11.0
 40
11.0
 10
126.3775545846356
 20
154.8151140277308
 30
0.0
 10
126.3775545846356
 20
154.8151140277308
 30
0.0
 10
128.831153207856
 20
154.8151140277308
 30
0.0
 10
128.831153207856
 20
154.8151140277308
 30
0.0
 10
128.831153207856
 20
154.8151140277308
 30
0.0
 10
127.7345785914972
 20
151.3062819612468
 30
0.0
 10
127.7345785914972
 20
151.3062819612468
 30
0.0
 10
128.5713928369064
 20
152.2922689395754
 30
0.0
 10
129.8860421413442
 20
153.604506675583
 30
0.0
 10
131.0163787157312
 20
154.2664822097754
 30
0.0
 10
132.704476617133
 20
155.2500576196734
 30
0.0
 10
133.6642808525007
 20
155.3847609420097
 30
0.0
 10
134.7284715499354
 20
155.3565111403944
 30
0.0
 10
134.7284715499354
 20
155.3565111403944
 30
0.0
 10
133.6877075172547
 20
152.0345756272799
 30
0.0
 10
133.6877075172547
 20
152.0345756272799
 30
0.0
 10
133.0114348273673
 20
152.3184516825359
 30
0.0
 10
130.9309402913341
 20
151.7768823149844
 30
0.0
 10
129.7392809768553
 20
150.9162968950455
 30
0.0
 10
128.66613302525
 20
150.1454562717016
 30
0.0
 10
127.9192358313235
 20
149.4857200510519
 30
0.0
 10
127.0393578639405
 20
147.8282835196966
 30
0.0
 10
126.164647543194
 20
146.1699857139017
 30
0.0
 10
125.4742499524987
 20
143.5262176944419
 30
0.0
 10
124.282246128244
 20
139.6959580071401
 30
0.0
 10
124.282246128244
 20
139.6959580071401
 30
0.0
 10
120.5753209406766
 20
127.8027915271048
 30
0.0
 10
120.5753209406766
 20
127.8027915271048
 30
0.0
 10
120.5753209406766
 20
127.8027915271048
 30
0.0
 10
118.1964809388046
 20
127.8027915271048
 30
0.0
 10
118.1964809388046
 20
127.8027915271048
 30
0.0
 10
118.1964809388046
 20
127.8027915271048
 30
0.0
 10
126.3775545846356
 20
154.8151140277308
 30
0.0
 10
126.3775545846356
 20
154.8151140277308
 30
0.0
  0
SPLINE
  5
4754
330
1D8B
100
AcDbEntity
  8
TFORMLOGO
 62
    18
420
        0
370
     0
100
AcDbSpline
210
0.0
220
0.0
230
1.0
 70
    11
 71
     3
 72
   104
 73
   100
 74
     0
 42
0.000000001
 43
0.0000000001
 40
0.0
 40
0.0
 40
0.0
 40
0.0
 40
1.0
 40
1.0
 40
1.0
 40
2.0
 40
2.0
 40
2.0
 40
3.0
 40
3.0
 40
3.0
 40
4.0
 40
4.0
 40
4.0
 40
5.0
 40
5.0
 40
5.0
 40
6.0
 40
6.0
 40
6.0
 40
7.0
 40
7.0
 40
7.0
 40
8.0
 40
8.0
 40
8.0
 40
9.0
 40
9.0
 40
9.0
 40
10.0
 40
10.0
 40
10.0
 40
11.0
 40
11.0
 40
11.0
 40
12.0
 40
12.0
 40
12.0
 40
13.0
 40
13.0
 40
13.0
 40
14.0
 40
14.0
 40
14.0
 40
15.0
 40
15.0
 40
15.0
 40
16.0
 40
16.0
 40
16.0
 40
17.0
 40
17.0
 40
17.0
 40
18.0
 40
18.0
 40
18.0
 40
19.0
 40
19.0
 40
19.0
 40
20.0
 40
20.0
 40
20.0
 40
21.0
 40
21.0
 40
21.0
 40
22.0
 40
22.0
 40
22.0
 40
23.0
 40
23.0
 40
23.0
 40
24.0
 40
24.0
 40
24.0
 40
25.0
 40
25.0
 40
25.0
 40
26.0
 40
26.0
 40
26.0
 40
27.0
 40
27.0
 40
27.0
 40
28.0
 40
28.0
 40
28.0
 40
29.0
 40
29.0
 40
29.0
 40
30.0
 40
30.0
 40
30.0
 40
31.0
 40
31.0
 40
31.0
 40
32.0
 40
32.0
 40
32.0
 40
33.0
 40
33.0
 40
33.0
 40
33.0
 10
139.8926730891194
 20
154.8294111834263
 30
0.0
 10
139.8926730891194
 20
154.8294111834263
 30
0.0
 10
142.0344903652449
 20
154.8294111834263
 30
0.0
 10
142.0344903652449
 20
154.8294111834263
 30
0.0
 10
142.0344903652449
 20
154.8294111834263
 30
0.0
 10
140.9516961399172
 20
151.3157559800812
 30
0.0
 10
140.9516961399172
 20
151.3157559800812
 30
0.0
 10
141.8928968473924
 20
152.7887075264977
 30
0.0
 10
142.7341897198862
 20
153.4484437471474
 30
0.0
 10
143.8552245303276
 20
154.2926649527359
 30
0.0
 10
144.9803934580773
 20
155.1296514530327
 30
0.0
 10
146.3139908001845
 20
155.3044901642492
 30
0.0
 10
147.2410666068522
 20
155.3044901642492
 30
0.0
 10
148.3855280820471
 20
155.3044901642492
 30
0.0
 10
149.4969166187652
 20
155.0752189084569
 30
0.0
 10
150.0784491203094
 20
153.8172414621372
 30
0.0
 10
150.5228667310862
 20
152.833838307127
 30
0.0
 10
150.5414702589792
 20
152.7201500811143
 30
0.0
 10
150.4140016419351
 20
150.7765981809602
 30
0.0
 10
151.581889781884
 20
152.7699317437168
 30
0.0
 10
152.4424752018226
 20
153.6256940267945
 30
0.0
 10
153.9038856707502
 20
154.4507949398263
 30
0.0
 10
155.4455669174381
 20
155.3044901642492
 30
0.0
 10
156.3392252758531
 20
155.3659851592288
 30
0.0
 10
157.374821661896
 20
155.2147453676543
 30
0.0
 10
158.9116797717234
 20
154.9877134254046
 30
0.0
 10
159.885953417675
 20
154.4390816074493
 30
0.0
 10
160.3965169054045
 20
152.7816450760939
 30
0.0
 10
160.9070803931345
 20
151.1219692311958
 30
0.0
 10
160.632850611601
 20
150.2303779314354
 30
0.0
 10
159.9992971339116
 20
147.597634224801
 30
0.0
 10
159.7105979417938
 20
146.4014962832367
 30
0.0
 10
159.2947746424084
 20
144.9400858143094
 30
0.0
 10
158.7463150793405
 20
143.2092687007094
 30
0.0
 10
158.7463150793405
 20
143.2092687007094
 30
0.0
 10
153.9038856707502
 20
127.8027915271048
 30
0.0
 10
153.9038856707502
 20
127.8027915271048
 30
0.0
 10
153.9038856707502
 20
127.8027915271048
 30
0.0
 10
151.3882752878862
 20
127.8027915271048
 30
0.0
 10
151.3882752878862
 20
127.8027915271048
 30
0.0
 10
151.3882752878862
 20
127.8027915271048
 30
0.0
 10
155.6250565106279
 20
141.2751908193897
 30
0.0
 10
155.6250565106279
 20
141.2751908193897
 30
0.0
 10
156.5094131050964
 20
144.0936252951782
 30
0.0
 10
157.1098936443091
 20
146.1506931664571
 30
0.0
 10
157.4220195011803
 20
147.4415712963654
 30
0.0
 10
157.8095929989513
 20
149.0530157726519
 30
0.0
 10
157.9656559273863
 20
149.5826995529385
 30
0.0
 10
157.7816877071118
 20
150.7529992613181
 30
0.0
 10
157.6111553680926
 20
151.8430281919372
 30
0.0
 10
157.0582171779397
 20
152.5547853887321
 30
0.0
 10
156.1170164704645
 20
152.5547853887321
 30
0.0
 10
155.1096698860365
 20
152.5547853887321
 30
0.0
 10
154.2962823053817
 20
152.4412694176073
 30
0.0
 10
153.1566439670478
 20
151.2945686288697
 30
0.0
 10
152.0170056287143
 20
150.1476955852443
 30
0.0
 10
151.076149431015
 20
148.7930831468137
 30
0.0
 10
150.3337308641744
 20
147.2290087646991
 30
0.0
 10
149.5957909244185
 20
145.6683794803425
 30
0.0
 10
148.8530278478024
 20
143.6822806228776
 30
0.0
 10
148.0964843801535
 20
141.2751908193897
 30
0.0
 10
148.0964843801535
 20
141.2751908193897
 30
0.0
 10
143.8552245303276
 20
127.8027915271048
 30
0.0
 10
143.8552245303276
 20
127.8027915271048
 30
0.0
 10
143.8552245303276
 20
127.8027915271048
 30
0.0
 10
141.4860308021766
 20
127.8027915271048
 30
0.0
 10
141.4860308021766
 20
127.8027915271048
 30
0.0
 10
141.4860308021766
 20
127.8027915271048
 30
0.0
 10
146.3329388378534
 20
143.2092687007094
 30
0.0
 10
146.3329388378534
 20
143.2092687007094
 30
0.0
 10
146.8483254624448
 20
144.8408669988801
 30
0.0
 10
147.2314203331298
 20
146.1837661049335
 30
0.0
 10
147.4867020769948
 20
147.224185627838
 30
0.0
 10
147.9169947869636
 20
149.0197705792876
 30
0.0
 10
148.0306830129766
 20
150.2400242051577
 30
0.0
 10
147.7092553921589
 20
151.3157559800812
 30
0.0
 10
147.3874832615656
 20
152.3916600098926
 30
0.0
 10
146.824554287914
 20
152.6683013598569
 30
0.0
 10
145.8840425999911
 20
152.6683013598569
 30
0.0
 10
145.0989048209517
 20
152.6683013598569
 30
0.0
 10
144.3282364524957
 20
152.3275811915945
 30
0.0
 10
143.4531816219733
 20
151.6538923250251
 30
0.0
 10
142.3462717123398
 20
150.8074318058939
 30
0.0
 10
141.901854101563
 20
150.1097995099067
 30
0.0
 10
141.3578731655807
 20
149.289521733736
 30
0.0
 10
140.6299240093235
 20
148.192602607601
 30
0.0
 10
140.2850697237518
 20
147.455696197173
 30
0.0
 10
139.6652966370939
 20
145.8385673095858
 30
0.0
 10
139.0506911970738
 20
144.2214384219986
 30
0.0
 10
138.4639910488931
 20
142.3252566160164
 30
0.0
 10
138.0571250036778
 20
141.0154304484394
 30
0.0
 10
138.0571250036778
 20
141.0154304484394
 30
0.0
 10
133.9009590684727
 20
127.8027915271048
 30
0.0
 10
133.9009590684727
 20
127.8027915271048
 30
0.0
 10
133.9009590684727
 20
127.8027915271048
 30
0.0
 10
131.4180771143097
 20
127.8027915271048
 30
0.0
 10
131.4180771143097
 20
127.8027915271048
 30
0.0
 10
131.4180771143097
 20
127.8027915271048
 30
0.0
 10
139.8926730891194
 20
154.8294111834263
 30
0.0
 10
139.8926730891194
 20
154.8294111834263
 30
0.0
  0
HATCH
  5
4755
330
1D8B
100
AcDbEntity
  8
TFORMLOGO
 62
    18
420
        0
100
AcDbHatch
 10
0.0
 20
0.0
 30
0.0
210
0.0
220
0.0
230
1.0
  2
SOLID
 70
     1
 71
     0
 91
        1
 92
        1
 93
        1
 72
     4
 94
        3
 73
     0
 74
     1
 95
       56
 96
       52
 40
0.0
 40
0.0
 40
0.0
 40
0.0
 40
1.0
 40
1.0
 40
1.0
 40
2.0
 40
2.0
 40
2.0
 40
3.0
 40
3.0
 40
3.0
 40
4.0
 40
4.0
 40
4.0
 40
5.0
 40
5.0
 40
5.0
 40
6.0
 40
6.0
 40
6.0
 40
7.0
 40
7.0
 40
7.0
 40
8.0
 40
8.0
 40
8.0
 40
9.0
 40
9.0
 40
9.0
 40
10.0
 40
10.0
 40
10.0
 40
11.0
 40
11.0
 40
11.0
 40
12.0
 40
12.0
 40
12.0
 40
13.0
 40
13.0
 40
13.0
 40
14.0
 40
14.0
 40
14.0
 40
15.0
 40
15.0
 40
15.0
 40
16.0
 40
16.0
 40
16.0
 40
17.0
 40
17.0
 40
17.0
 40
17.0
 10
100.4504378777679
 20
166.69157178364
 10
101.9848844191642
 20
167.1313385124438
 10
103.963748571337
 20
166.7649523658846
 10
103.963748571337
 20
166.7649523658846
 10
103.963748571337
 20
166.7649523658846
 10
103.0132460999152
 20
163.911205638077
 10
103.0132460999152
 20
163.911205638077
 10
103.0132460999152
 20
163.911205638077
 10
101.0674548862189
 20
164.3601018759394
 10
99.57090442016033
 20
163.1805004036133
 10
98.40508333886646
 20
162.258247733807
 10
97.65301849830303
 20
159.804132345923
 10
97.35984067910067
 20
158.8699940888517
 10
97.35984067910067
 20
158.8699940888517
 10
96.07137411762278
 20
154.9119212747295
 10
96.07137411762278
 20
154.9119212747295
 10
96.07137411762278
 20
154.9119212747295
 10
100.3012651448485
 20
154.9119212747295
 10
100.3012651448485
 20
154.9119212747295
 10
100.3012651448485
 20
154.9119212747295
 10
99.64152892419816
 20
152.4199098115079
 10
99.64152892419816
 20
152.4199098115079
 10
99.64152892419816
 20
152.4199098115079
 10
95.38097652692704
 20
152.4199098115079
 10
95.38097652692704
 20
152.4199098115079
 10
95.38097652692704
 20
152.4199098115079
 10
87.75353009079981
 20
127.8027915271048
 10
87.75353009079981
 20
127.8027915271048
 10
87.75353009079981
 20
127.8027915271048
 10
85.36538832498081
 20
127.8027915271048
 10
85.36538832498081
 20
127.8027915271048
 10
85.36538832498081
 20
127.8027915271048
 10
93.00006946639996
 20
152.4199098115079
 10
93.00006946639996
 20
152.4199098115079
 10
93.00006946639996
 20
152.4199098115079
 10
89.85297266450198
 20
152.4199098115079
 10
89.85297266450198
 20
152.4199098115079
 10
89.85297266450198
 20
152.4199098115079
 10
90.51270888515137
 20
154.9119212747295
 10
90.51270888515137
 20
154.9119212747295
 10
90.51270888515137
 20
154.9119212747295
 10
93.6904670570957
 20
154.9119212747295
 10
93.6904670570957
 20
154.9119212747295
 10
93.6904670570957
 20
154.9119212747295
 10
94.81598049462127
 20
158.3616699146644
 10
94.81598049462127
 20
158.3616699146644
 10
95.7237637538442
 20
161.2605474231013
 10
96.49684369073111
 20
162.8139420021662
 10
97.15657991138096
 20
163.9844139654337
 10
97.81183750494529
 20
165.1523021053827
 10
99.10478269350824
 20
166.3084769129547
 10
100.4504378777679
 20
166.69157178364
 97
        0
 75
     2
 76
     1
 98
        0
  0
HATCH
  5
4756
330
1D8B
100
AcDbEntity
  8
TFORMLOGO
 62
    18
420
        0
100
AcDbHatch
 10
0.0
 20
0.0
 30
0.0
210
0.0
220
0.0
230
1.0
  2
SOLID
 70
     1
 71
     0
 91
        1
 92
        1
 93
        1
 72
     4
 94
        3
 73
     0
 74
     1
 95
      104
 96
      100
 40
0.0
 40
0.0
 40
0.0
 40
0.0
 40
1.0
 40
1.0
 40
1.0
 40
2.0
 40
2.0
 40
2.0
 40
3.0
 40
3.0
 40
3.0
 40
4.0
 40
4.0
 40
4.0
 40
5.0
 40
5.0
 40
5.0
 40
6.0
 40
6.0
 40
6.0
 40
7.0
 40
7.0
 40
7.0
 40
8.0
 40
8.0
 40
8.0
 40
9.0
 40
9.0
 40
9.0
 40
10.0
 40
10.0
 40
10.0
 40
11.0
 40
11.0
 40
11.0
 40
12.0
 40
12.0
 40
12.0
 40
13.0
 40
13.0
 40
13.0
 40
14.0
 40
14.0
 40
14.0
 40
15.0
 40
15.0
 40
15.0
 40
16.0
 40
16.0
 40
16.0
 40
17.0
 40
17.0
 40
17.0
 40
18.0
 40
18.0
 40
18.0
 40
19.0
 40
19.0
 40
19.0
 40
20.0
 40
20.0
 40
20.0
 40
21.0
 40
21.0
 40
21.0
 40
22.0
 40
22.0
 40
22.0
 40
23.0
 40
23.0
 40
23.0
 40
24.0
 40
24.0
 40
24.0
 40
25.0
 40
25.0
 40
25.0
 40
26.0
 40
26.0
 40
26.0
 40
27.0
 40
27.0
 40
27.0
 40
28.0
 40
28.0
 40
28.0
 40
29.0
 40
29.0
 40
29.0
 40
30.0
 40
30.0
 40
30.0
 40
31.0
 40
31.0
 40
31.0
 40
32.0
 40
32.0
 40
32.0
 40
33.0
 40
33.0
 40
33.0
 40
33.0
 10
139.8926730891194
 20
154.8294111834263
 10
139.8926730891194
 20
154.8294111834263
 10
142.0344903652449
 20
154.8294111834263
 10
142.0344903652449
 20
154.8294111834263
 10
142.0344903652449
 20
154.8294111834263
 10
140.9516961399172
 20
151.3157559800812
 10
140.9516961399172
 20
151.3157559800812
 10
141.8928968473924
 20
152.7887075264977
 10
142.7341897198862
 20
153.4484437471474
 10
143.8552245303276
 20
154.2926649527359
 10
144.9803934580773
 20
155.1296514530327
 10
146.3139908001845
 20
155.3044901642492
 10
147.2410666068522
 20
155.3044901642492
 10
148.3855280820471
 20
155.3044901642492
 10
149.4969166187652
 20
155.0752189084569
 10
150.0784491203094
 20
153.8172414621372
 10
150.5228667310862
 20
152.833838307127
 10
150.5414702589792
 20
152.7201500811143
 10
150.4140016419351
 20
150.7765981809602
 10
151.581889781884
 20
152.7699317437168
 10
152.4424752018226
 20
153.6256940267945
 10
153.9038856707502
 20
154.4507949398263
 10
155.4455669174381
 20
155.3044901642492
 10
156.3392252758531
 20
155.3659851592288
 10
157.374821661896
 20
155.2147453676543
 10
158.9116797717234
 20
154.9877134254046
 10
159.885953417675
 20
154.4390816074493
 10
160.3965169054045
 20
152.7816450760939
 10
160.9070803931345
 20
151.1219692311958
 10
160.632850611601
 20
150.2303779314354
 10
159.9992971339116
 20
147.597634224801
 10
159.7105979417938
 20
146.4014962832367
 10
159.2947746424084
 20
144.9400858143094
 10
158.7463150793405
 20
143.2092687007094
 10
158.7463150793405
 20
143.2092687007094
 10
153.9038856707502
 20
127.8027915271048
 10
153.9038856707502
 20
127.8027915271048
 10
153.9038856707502
 20
127.8027915271048
 10
151.3882752878862
 20
127.8027915271048
 10
151.3882752878862
 20
127.8027915271048
 10
151.3882752878862
 20
127.8027915271048
 10
155.6250565106279
 20
141.2751908193897
 10
155.6250565106279
 20
141.2751908193897
 10
156.5094131050964
 20
144.0936252951782
 10
157.1098936443091
 20
146.1506931664571
 10
157.4220195011803
 20
147.4415712963654
 10
157.8095929989513
 20
149.0530157726519
 10
157.9656559273863
 20
149.5826995529385
 10
157.7816877071118
 20
150.7529992613181
 10
157.6111553680926
 20
151.8430281919372
 10
157.0582171779397
 20
152.5547853887321
 10
156.1170164704645
 20
152.5547853887321
 10
155.1096698860365
 20
152.5547853887321
 10
154.2962823053817
 20
152.4412694176073
 10
153.1566439670478
 20
151.2945686288697
 10
152.0170056287143
 20
150.1476955852443
 10
151.076149431015
 20
148.7930831468137
 10
150.3337308641744
 20
147.2290087646991
 10
149.5957909244185
 20
145.6683794803425
 10
148.8530278478024
 20
143.6822806228776
 10
148.0964843801535
 20
141.2751908193897
 10
148.0964843801535
 20
141.2751908193897
 10
143.8552245303276
 20
127.8027915271048
 10
143.8552245303276
 20
127.8027915271048
 10
143.8552245303276
 20
127.8027915271048
 10
141.4860308021766
 20
127.8027915271048
 10
141.4860308021766
 20
127.8027915271048
 10
141.4860308021766
 20
127.8027915271048
 10
146.3329388378534
 20
143.2092687007094
 10
146.3329388378534
 20
143.2092687007094
 10
146.8483254624448
 20
144.8408669988801
 10
147.2314203331298
 20
146.1837661049335
 10
147.4867020769948
 20
147.224185627838
 10
147.9169947869636
 20
149.0197705792876
 10
148.0306830129766
 20
150.2400242051577
 10
147.7092553921589
 20
151.3157559800812
 10
147.3874832615656
 20
152.3916600098926
 10
146.824554287914
 20
152.6683013598569
 10
145.8840425999911
 20
152.6683013598569
 10
145.0989048209517
 20
152.6683013598569
 10
144.3282364524957
 20
152.3275811915945
 10
143.4531816219733
 20
151.6538923250251
 10
142.3462717123398
 20
150.8074318058939
 10
141.901854101563
 20
150.1097995099067
 10
141.3578731655807
 20
149.289521733736
 10
140.6299240093235
 20
148.192602607601
 10
140.2850697237518
 20
147.455696197173
 10
139.6652966370939
 20
145.8385673095858
 10
139.0506911970738
 20
144.2214384219986
 10
138.4639910488931
 20
142.3252566160164
 10
138.0571250036778
 20
141.0154304484394
 10
138.0571250036778
 20
141.0154304484394
 10
133.9009590684727
 20
127.8027915271048
 10
133.9009590684727
 20
127.8027915271048
 10
133.9009590684727
 20
127.8027915271048
 10
131.4180771143097
 20
127.8027915271048
 10
131.4180771143097
 20
127.8027915271048
 10
131.4180771143097
 20
127.8027915271048
 10
139.8926730891194
 20
154.8294111834263
 10
139.8926730891194
 20
154.8294111834263
 97
        0
 75
     2
 76
     1
 98
        0
  0
SPLINE
  5
4757
330
1D8B
100
AcDbEntity
  8
TFORMLOGO
 62
    18
420
        0
370
     0
100
AcDbSpline
210
0.0
220
0.0
230
1.0
 70
    11
 71
     3
 72
    32
 73
    28
 74
     0
 42
0.000000001
 43
0.0000000001
 40
0.0
 40
0.0
 40
0.0
 40
0.0
 40
1.0
 40
1.0
 40
1.0
 40
2.0
 40
2.0
 40
2.0
 40
3.0
 40
3.0
 40
3.0
 40
4.0
 40
4.0
 40
4.0
 40
5.0
 40
5.0
 40
5.0
 40
6.0
 40
6.0
 40
6.0
 40
7.0
 40
7.0
 40
7.0
 40
8.0
 40
8.0
 40
8.0
 40
9.0
 40
9.0
 40
9.0
 40
9.0
 10
106.2595617172433
 20
153.4105476718098
 30
0.0
 10
104.822266932621
 20
151.5474388043041
 30
0.0
 10
103.7177685914189
 20
149.8758773721411
 30
0.0
 10
101.9232171692961
 20
144.6141795664062
 30
0.0
 10
100.2754269116635
 20
139.7999999594306
 30
0.0
 10
99.22777268346681
 20
136.3052927937542
 30
0.0
 10
99.06964269637729
 20
132.039572749846
 30
0.0
 10
98.94665270641735
 20
128.8673267343149
 30
0.0
 10
100.8807305877372
 20
127.8027915271048
 30
0.0
 10
103.7129454545575
 20
127.8027915271048
 30
0.0
 10
104.9352661390826
 20
127.8027915271048
 30
0.0
 10
108.0151835347001
 20
127.8827177950895
 30
0.0
 10
110.2045431598849
 20
130.5926316915021
 30
0.0
 10
111.7417457794872
 20
132.4984597712065
 30
0.0
 10
113.1552693895792
 20
134.475256864725
 30
0.0
 10
115.0562743324226
 20
140.9489400617108
 30
0.0
 10
116.6361961642233
 20
146.3680788349845
 30
0.0
 10
117.728292153497
 20
149.8639917848761
 30
0.0
 10
117.6480213757372
 20
151.8595646611754
 30
0.0
 10
117.6480213757372
 20
151.8595646611754
 30
0.0
 10
117.6480213757372
 20
151.8595646611754
 30
0.0
 10
117.6480213757372
 20
151.8595646611754
 30
0.0
 10
117.1322902413699
 20
155.18150017429
 30
0.0
 10
114.7162431837114
 20
155.886194920681
 30
0.0
 10
113.3351034925449
 20
155.886194920681
 30
0.0
 10
111.9829026225448
 20
155.886194920681
 30
0.0
 10
108.3414342923793
 20
156.1251124501957
 30
0.0
 10
106.2595617172433
 20
153.4105476718098
 30
0.0
  0
SPLINE
  5
4758
330
1D8B
100
AcDbEntity
  8
TFORMLOGO
 62
    18
420
        0
370
     0
100
AcDbSpline
210
0.0
220
0.0
230
1.0
 70
    11
 71
     3
 72
    56
 73
    52
 74
     0
 42
0.000000001
 43
0.0000000001
 40
0.0
 40
0.0
 40
0.0
 40
0.0
 40
1.0
 40
1.0
 40
1.0
 40
2.0
 40
2.0
 40
2.0
 40
3.0
 40
3.0
 40
3.0
 40
4.0
 40
4.0
 40
4.0
 40
5.0
 40
5.0
 40
5.0
 40
6.0
 40
6.0
 40
6.0
 40
7.0
 40
7.0
 40
7.0
 40
8.0
 40
8.0
 40
8.0
 40
9.0
 40
9.0
 40
9.0
 40
10.0
 40
10.0
 40
10.0
 40
11.0
 40
11.0
 40
11.0
 40
12.0
 40
12.0
 40
12.0
 40
13.0
 40
13.0
 40
13.0
 40
14.0
 40
14.0
 40
14.0
 40
15.0
 40
15.0
 40
15.0
 40
16.0
 40
16.0
 40
16.0
 40
17.0
 40
17.0
 40
17.0
 40
17.0
 10
100.4504378777679
 20
166.69157178364
 30
0.0
 10
101.9848844191642
 20
167.1313385124438
 30
0.0
 10
103.963748571337
 20
166.7649523658846
 30
0.0
 10
103.963748571337
 20
166.7649523658846
 30
0.0
 10
103.963748571337
 20
166.7649523658846
 30
0.0
 10
103.0132460999152
 20
163.911205638077
 30
0.0
 10
103.0132460999152
 20
163.911205638077
 30
0.0
 10
103.0132460999152
 20
163.911205638077
 30
0.0
 10
101.0674548862189
 20
164.3601018759394
 30
0.0
 10
99.57090442016033
 20
163.1805004036133
 30
0.0
 10
98.40508333886646
 20
162.258247733807
 30
0.0
 10
97.65301849830303
 20
159.804132345923
 30
0.0
 10
97.35984067910067
 20
158.8699940888517
 30
0.0
 10
97.35984067910067
 20
158.8699940888517
 30
0.0
 10
96.07137411762278
 20
154.9119212747295
 30
0.0
 10
96.07137411762278
 20
154.9119212747295
 30
0.0
 10
96.07137411762278
 20
154.9119212747295
 30
0.0
 10
100.3012651448485
 20
154.9119212747295
 30
0.0
 10
100.3012651448485
 20
154.9119212747295
 30
0.0
 10
100.3012651448485
 20
154.9119212747295
 30
0.0
 10
99.64152892419816
 20
152.4199098115079
 30
0.0
 10
99.64152892419816
 20
152.4199098115079
 30
0.0
 10
99.64152892419816
 20
152.4199098115079
 30
0.0
 10
95.38097652692704
 20
152.4199098115079
 30
0.0
 10
95.38097652692704
 20
152.4199098115079
 30
0.0
 10
95.38097652692704
 20
152.4199098115079
 30
0.0
 10
87.75353009079981
 20
127.8027915271048
 30
0.0
 10
87.75353009079981
 20
127.8027915271048
 30
0.0
 10
87.75353009079981
 20
127.8027915271048
 30
0.0
 10
85.36538832498081
 20
127.8027915271048
 30
0.0
 10
85.36538832498081
 20
127.8027915271048
 30
0.0
 10
85.36538832498081
 20
127.8027915271048
 30
0.0
 10
93.00006946639996
 20
152.4199098115079
 30
0.0
 10
93.00006946639996
 20
152.4199098115079
 30
0.0
 10
93.00006946639996
 20
152.4199098115079
 30
0.0
 10
89.85297266450198
 20
152.4199098115079
 30
0.0
 10
89.85297266450198
 20
152.4199098115079
 30
0.0
 10
89.85297266450198
 20
152.4199098115079
 30
0.0
 10
90.51270888515137
 20
154.9119212747295
 30
0.0
 10
90.51270888515137
 20
154.9119212747295
 30
0.0
 10
90.51270888515137
 20
154.9119212747295
 30
0.0
 10
93.6904670570957
 20
154.9119212747295
 30
0.0
 10
93.6904670570957
 20
154.9119212747295
 30
0.0
 10
93.6904670570957
 20
154.9119212747295
 30
0.0
 10
94.81598049462127
 20
158.3616699146644
 30
0.0
 10
94.81598049462127
 20
158.3616699146644
 30
0.0
 10
95.7237637538442
 20
161.2605474231013
 30
0.0
 10
96.49684369073111
 20
162.8139420021662
 30
0.0
 10
97.15657991138096
 20
163.9844139654337
 30
0.0
 10
97.81183750494529
 20
165.1523021053827
 30
0.0
 10
99.10478269350824
 20
166.3084769129547
 30
0.0
 10
100.4504378777679
 20
166.69157178364
 30
0.0
  0
HATCH
  5
4759
330
1D8B
100
AcDbEntity
  8
TFORMLOGO
 62
    18
420
        0
100
AcDbHatch
 10
0.0
 20
0.0
 30
0.0
210
0.0
220
0.0
230
1.0
  2
SOLID
 70
     1
 71
     0
 91
        1
 92
        1
 93
        8
 72
     1
 10
83.79545727667801
 20
167.6444858234922
 11
83.79545727667801
 21
159.7968976406313
 72
     1
 10
83.79545727667801
 20
159.7968976406313
 11
71.36313299752166
 21
159.7968976406313
 72
     1
 10
71.36313299752192
 20
159.7968976406313
 11
71.36313299752192
 21
127.8027915271048
 72
     1
 10
71.36313299752192
 20
127.8027915271048
 11
60.43011526263049
 21
127.8027915271048
 72
     1
 10
60.4301152626299
 20
127.8027915271048
 11
60.4301152626299
 21
159.7968976406313
 72
     1
 10
60.4301152626299
 20
159.7968976406313
 11
48.21793273020731
 21
159.7968976406313
 72
     1
 10
48.21793273020739
 20
159.7968976406313
 11
48.21793273020739
 21
167.6444858234922
 72
     1
 10
48.21793273020739
 20
167.6444858234922
 11
83.79545727667775
 21
167.6444858234922
 97
        0
 75
     2
 76
     1
 98
        0
  0
POLYLINE
  5
475A
330
1D8B
100
AcDbEntity
  8
TFORMLOGO
 62
    18
420
        0
370
     0
100
AcDb2dPolyline
 66
     1
 10
0.0
 20
0.0
 30
0.0
  0
VERTEX
  5
475B
330
475A
100
AcDbEntity
  8
TFORMLOGO
 62
    18
420
        0
370
     0
100
AcDbVertex
100
AcDb2dVertex
 10
83.79545727667801
 20
167.6444858234922
 30
0.0
  0
VERTEX
  5
475C
330
475A
100
AcDbEntity
  8
TFORMLOGO
 62
    18
420
        0
370
     0
100
AcDbVertex
100
AcDb2dVertex
 10
83.79545727667801
 20
159.7968976406313
 30
0.0
  0
VERTEX
  5
475D
330
475A
100
AcDbEntity
  8
TFORMLOGO
 62
    18
420
        0
370
     0
100
AcDbVertex
100
AcDb2dVertex
 10
71.36313299752192
 20
159.7968976406313
 30
0.0
  0
VERTEX
  5
475E
330
475A
100
AcDbEntity
  8
TFORMLOGO
 62
    18
420
        0
370
     0
100
AcDbVertex
100
AcDb2dVertex
 10
71.36313299752192
 20
127.8027915271048
 30
0.0
  0
VERTEX
  5
475F
330
475A
100
AcDbEntity
  8
TFORMLOGO
 62
    18
420
        0
370
     0
100
AcDbVertex
100
AcDb2dVertex
 10
60.4301152626299
 20
127.8027915271048
 30
0.0
  0
VERTEX
  5
4760
330
475A
100
AcDbEntity
  8
TFORMLOGO
 62
    18
420
        0
370
     0
100
AcDbVertex
100
AcDb2dVertex
 10
60.4301152626299
 20
159.7968976406313
 30
0.0
  0
VERTEX
  5
4761
330
475A
100
AcDbEntity
  8
TFORMLOGO
 62
    18
420
        0
370
     0
100
AcDbVertex
100
AcDb2dVertex
 10
48.21793273020739
 20
159.7968976406313
 30
0.0
  0
VERTEX
  5
4762
330
475A
100
AcDbEntity
  8
TFORMLOGO
 62
    18
420
        0
370
     0
100
AcDbVertex
100
AcDb2dVertex
 10
48.21793273020739
 20
167.6444858234922
 30
0.0
  0
VERTEX
  5
4763
330
475A
100
AcDbEntity
  8
TFORMLOGO
 62
    18
420
        0
370
     0
100
AcDbVertex
100
AcDb2dVertex
 10
83.79545727667801
 20
167.6444858234922
 30
0.0
  0
SEQEND
  5
4764
330
475A
100
AcDbEntity
  8
TFORMLOGO
 62
    18
420
        0
370
     0
  0
HATCH
  5
4765
330
1D8B
100
AcDbEntity
  8
TFORMLOGO
 62
    18
420
        0
100
AcDbHatch
 10
0.0
 20
0.0
 30
0.0
210
0.0
220
0.0
230
1.0
  2
SOLID
 70
     1
 71
     0
 91
        1
 92
        1
 93
        1
 72
     4
 94
        3
 73
     0
 74
     1
 95
       38
 96
       34
 40
0.0
 40
0.0
 40
0.0
 40
0.0
 40
1.0
 40
1.0
 40
1.0
 40
2.0
 40
2.0
 40
2.0
 40
3.0
 40
3.0
 40
3.0
 40
4.0
 40
4.0
 40
4.0
 40
5.0
 40
5.0
 40
5.0
 40
6.0
 40
6.0
 40
6.0
 40
7.0
 40
7.0
 40
7.0
 40
8.0
 40
8.0
 40
8.0
 40
9.0
 40
9.0
 40
9.0
 40
10.0
 40
10.0
 40
10.0
 40
11.0
 40
11.0
 40
11.0
 40
11.0
 10
126.3775545846356
 20
154.8151140277308
 10
126.3775545846356
 20
154.8151140277308
 10
128.831153207856
 20
154.8151140277308
 10
128.831153207856
 20
154.8151140277308
 10
128.831153207856
 20
154.8151140277308
 10
127.7345785914972
 20
151.3062819612468
 10
127.7345785914972
 20
151.3062819612468
 10
128.5713928369064
 20
152.2922689395754
 10
129.8860421413442
 20
153.604506675583
 10
131.0163787157312
 20
154.2664822097754
 10
132.704476617133
 20
155.2500576196734
 10
133.6642808525007
 20
155.3847609420097
 10
134.7284715499354
 20
155.3565111403944
 10
134.7284715499354
 20
155.3565111403944
 10
133.6877075172547
 20
152.0345756272799
 10
133.6877075172547
 20
152.0345756272799
 10
133.0114348273673
 20
152.3184516825359
 10
130.9309402913341
 20
151.7768823149844
 10
129.7392809768553
 20
150.9162968950455
 10
128.66613302525
 20
150.1454562717016
 10
127.9192358313235
 20
149.4857200510519
 10
127.0393578639405
 20
147.8282835196966
 10
126.164647543194
 20
146.1699857139017
 10
125.4742499524987
 20
143.5262176944419
 10
124.282246128244
 20
139.6959580071401
 10
124.282246128244
 20
139.6959580071401
 10
120.5753209406766
 20
127.8027915271048
 10
120.5753209406766
 20
127.8027915271048
 10
120.5753209406766
 20
127.8027915271048
 10
118.1964809388046
 20
127.8027915271048
 10
118.1964809388046
 20
127.8027915271048
 10
118.1964809388046
 20
127.8027915271048
 10
126.3775545846356
 20
154.8151140277308
 10
126.3775545846356
 20
154.8151140277308
 97
        0
 75
     2
 76
     1
 98
        0
  0
HATCH
  5
4766
330
1D8B
100
AcDbEntity
  8
TFORMLOGO
 62
    18
420
        0
100
AcDbHatch
 10
0.0
 20
0.0
 30
0.0
210
0.0
220
0.0
230
1.0
  2
SOLID
 70
     1
 71
     0
 91
        2
 92
        1
 93
        1
 72
     4
 94
        3
 73
     0
 74
     1
 95
       29
 96
       25
 40
0.0
 40
0.0
 40
0.0
 40
0.0
 40
1.0
 40
1.0
 40
1.0
 40
2.0
 40
2.0
 40
2.0
 40
3.0
 40
3.0
 40
3.0
 40
4.0
 40
4.0
 40
4.0
 40
5.0
 40
5.0
 40
5.0
 40
6.0
 40
6.0
 40
6.0
 40
7.0
 40
7.0
 40
7.0
 40
8.0
 40
8.0
 40
8.0
 40
8.0
 10
101.6420971922466
 20
132.8388354296931
 10
101.6300393500937
 20
134.7164137077823
 10
102.2236296937908
 20
138.0598810818841
 10
103.7487744712403
 20
142.5378191476827
 10
105.819967243327
 20
148.5896501242061
 10
107.0602024361933
 20
150.8074318058939
 10
108.1522984254675
 20
151.8833358357054
 10
109.7411775114392
 20
153.4532668840085
 10
111.8740375333932
 20
153.5290590346837
 10
112.5075910110822
 20
153.4532668840085
 10
113.4012493694977
 20
153.3490526768302
 10
114.6683563248757
 20
152.7580461564518
 10
114.7493161221878
 20
150.7838328862519
 10
114.8106388622796
 20
149.0909118479895
 10
114.3186789024426
 20
145.9191825971221
 10
112.6164561002338
 20
140.9489400617108
 10
110.6444821435762
 20
135.1746117095912
 10
109.4669477299053
 20
132.8960240524753
 10
108.521268395345
 20
131.9072809959403
 10
106.734640698066
 20
130.0538184021569
 10
104.822266932621
 20
130.2336525051225
 10
104.5408024457956
 20
130.2336525051225
 10
104.172176985694
 20
130.2336525051225
 10
101.6465758193322
 20
130.6305277668397
 10
101.6420971922466
 20
132.8388354296931
 97
        0
 92
        1
 93
        1
 72
     4
 94
        3
 73
     0
 74
     1
 95
       32
 96
       28
 40
0.0
 40
0.0
 40
0.0
 40
0.0
 40
1.0
 40
1.0
 40
1.0
 40
2.0
 40
2.0
 40
2.0
 40
3.0
 40
3.0
 40
3.0
 40
4.0
 40
4.0
 40
4.0
 40
5.0
 40
5.0
 40
5.0
 40
6.0
 40
6.0
 40
6.0
 40
7.0
 40
7.0
 40
7.0
 40
8.0
 40
8.0
 40
8.0
 40
9.0
 40
9.0
 40
9.0
 40
9.0
 10
106.2595617172433
 20
153.4105476718098
 10
104.822266932621
 20
151.5474388043041
 10
103.7177685914189
 20
149.8758773721411
 10
101.9232171692961
 20
144.6141795664062
 10
100.2754269116635
 20
139.7999999594306
 10
99.22777268346681
 20
136.3052927937542
 10
99.06964269637729
 20
132.039572749846
 10
98.94665270641735
 20
128.8673267343149
 10
100.8807305877372
 20
127.8027915271048
 10
103.7129454545575
 20
127.8027915271048
 10
104.9352661390826
 20
127.8027915271048
 10
108.0151835347001
 20
127.8827177950895
 10
110.2045431598849
 20
130.5926316915021
 10
111.7417457794872
 20
132.4984597712065
 10
113.1552693895792
 20
134.475256864725
 10
115.0562743324226
 20
140.9489400617108
 10
116.6361961642233
 20
146.3680788349845
 10
117.728292153497
 20
149.8639917848761
 10
117.6480213757372
 20
151.8595646611754
 10
117.6480213757372
 20
151.8595646611754
 10
117.6480213757372
 20
151.8595646611754
 10
117.6480213757372
 20
151.8595646611754
 10
117.1322902413699
 20
155.18150017429
 10
114.7162431837114
 20
155.886194920681
 10
113.3351034925449
 20
155.886194920681
 10
111.9829026225448
 20
155.886194920681
 10
108.3414342923793
 20
156.1251124501957
 10
106.2595617172433
 20
153.4105476718098
 97
        0
 75
     2
 76
     1
 98
        0
  0
SPLINE
  5
4767
330
1D8B
100
AcDbEntity
  8
TFORMLOGO
 62
    18
420
        0
370
     0
100
AcDbSpline
210
0.0
220
0.0
230
1.0
 70
    11
 71
     3
 72
    29
 73
    25
 74
     0
 42
0.000000001
 43
0.0000000001
 40
0.0
 40
0.0
 40
0.0
 40
0.0
 40
1.0
 40
1.0
 40
1.0
 40
2.0
 40
2.0
 40
2.0
 40
3.0
 40
3.0
 40
3.0
 40
4.0
 40
4.0
 40
4.0
 40
5.0
 40
5.0
 40
5.0
 40
6.0
 40
6.0
 40
6.0
 40
7.0
 40
7.0
 40
7.0
 40
8.0
 40
8.0
 40
8.0
 40
8.0
 10
101.6420971922466
 20
132.8388354296931
 30
0.0
 10
101.6300393500937
 20
134.7164137077823
 30
0.0
 10
102.2236296937908
 20
138.0598810818841
 30
0.0
 10
103.7487744712403
 20
142.5378191476827
 30
0.0
 10
105.819967243327
 20
148.5896501242061
 30
0.0
 10
107.0602024361933
 20
150.8074318058939
 30
0.0
 10
108.1522984254675
 20
151.8833358357054
 30
0.0
 10
109.7411775114392
 20
153.4532668840085
 30
0.0
 10
111.8740375333932
 20
153.5290590346837
 30
0.0
 10
112.5075910110822
 20
153.4532668840085
 30
0.0
 10
113.4012493694977
 20
153.3490526768302
 30
0.0
 10
114.6683563248757
 20
152.7580461564518
 30
0.0
 10
114.7493161221878
 20
150.7838328862519
 30
0.0
 10
114.8106388622796
 20
149.0909118479895
 30
0.0
 10
114.3186789024426
 20
145.9191825971221
 30
0.0
 10
112.6164561002338
 20
140.9489400617108
 30
0.0
 10
110.6444821435762
 20
135.1746117095912
 30
0.0
 10
109.4669477299053
 20
132.8960240524753
 30
0.0
 10
108.521268395345
 20
131.9072809959403
 30
0.0
 10
106.734640698066
 20
130.0538184021569
 30
0.0
 10
104.822266932621
 20
130.2336525051225
 30
0.0
 10
104.5408024457956
 20
130.2336525051225
 30
0.0
 10
104.172176985694
 20
130.2336525051225
 30
0.0
 10
101.6465758193322
 20
130.6305277668397
 30
0.0
 10
101.6420971922466
 20
132.8388354296931
 30
0.0
  0
ENDBLK
  5
1DAE
330
1D8B
100
AcDbEntity
  8
0
100
AcDbBlockEnd
  0
BLOCK
  5
4AB7
330
4AB6
100
AcDbEntity
  8
0
100
AcDbBlockBegin
  2
*D4
 70
     1
 10
0.0
 20
0.0
 30
0.0
  3
*D4
  1
*D103
  0
LINE
  5
4AB9
330
4AB6
100
AcDbEntity
  8
寸法
 62
     0
370
    -2
100
AcDbLine
 10
146.2897882800014
 20
252.6380552292825
 30
0.0
 11
146.2897882800014
 21
219.8508232947228
 31
0.0
  0
LINE
  5
4ABA
330
4AB6
100
AcDbEntity
  8
寸法
 62
     0
370
    -2
100
AcDbLine
 10
121.2897882800014
 20
252.6380552292825
 30
0.0
 11
121.2897882800014
 21
219.8508232947228
 31
0.0
  0
LINE
  5
4ABB
330
4AB6
100
AcDbEntity
  8
寸法
 62
     0
370
    -2
100
AcDbLine
 10
144.2897882800014
 20
219.8508232947228
 30
0.0
 11
123.2897882800014
 21
219.8508232947228
 31
0.0
  0
INSERT
  5
4ABC
330
4AB6
100
AcDbEntity
  8
寸法
 62
     0
370
    -2
100
AcDbBlockReference
  2
_DOT
 10
146.2897882800014
 20
219.8508232947228
 30
0.0
 41
2.0
 42
2.0
 43
2.0
  0
INSERT
  5
4ABD
330
4AB6
100
AcDbEntity
  8
寸法
 62
     0
370
    -2
100
AcDbBlockReference
  2
_DOT
 10
121.2897882800014
 20
219.8508232947228
 30
0.0
 41
2.0
 42
2.0
 43
2.0
 50
180.0
  0
MTEXT
  5
4ABE
330
4AB6
100
AcDbEntity
  8
寸法
 62
     0
100
AcDbMText
 10
133.7897882800014
 20
227.3508232947228
 30
0.0
 40
5.0
 41
0.0
 46
0.0
 71
     5
 72
     1
  1
\A1;25
  7
ＭＳ ゴシック
 73
     1
 44
1.0
  0
POINT
  5
4ABF
330
4AB6
100
AcDbEntity
  8
Defpoints
 62
     0
100
AcDbPoint
 10
146.2897882800014
 20
257.6380552292825
 30
0.0
  0
POINT
  5
4AC0
330
4AB6
100
AcDbEntity
  8
Defpoints
 62
     0
100
AcDbPoint
 10
121.2897882800014
 20
257.6380552292825
 30
0.0
  0
POINT
  5
4AC1
330
4AB6
100
AcDbEntity
  8
Defpoints
 62
     0
100
AcDbPoint
 10
121.2897882800014
 20
219.8508232947228
 30
0.0
  0
ENDBLK
  5
4AB8
330
4AB6
100
AcDbEntity
  8
0
100
AcDbBlockEnd
  0
BLOCK
  5
4AC3
330
4AC2
100
AcDbEntity
  8
0
100
AcDbBlockBegin
  2
*D5
 70
     1
 10
0.0
 20
0.0
 30
0.0
  3
*D5
  1
*D104
  0
LINE
  5
4AC5
330
4AC2
100
AcDbEntity
  8
寸法
 62
     0
370
    -2
100
AcDbLine
 10
119.0838780616608
 20
170.7145512424612
 30
0.0
 11
85.71480246358037
 21
170.7145512424612
 31
0.0
  0
LINE
  5
4AC6
330
4AC2
100
AcDbEntity
  8
寸法
 62
     0
370
    -2
100
AcDbLine
 10
119.0838780616608
 20
120.7145512424612
 30
0.0
 11
85.71480246358037
 21
120.7145512424612
 31
0.0
  0
LINE
  5
4AC7
330
4AC2
100
AcDbEntity
  8
寸法
 62
     0
370
    -2
100
AcDbLine
 10
85.71480246358037
 20
168.7145512424612
 30
0.0
 11
85.71480246358037
 21
122.7145512424612
 31
0.0
  0
INSERT
  5
4AC8
330
4AC2
100
AcDbEntity
  8
寸法
 62
     0
370
    -2
100
AcDbBlockReference
  2
_DOT
 10
85.71480246358037
 20
170.7145512424612
 30
0.0
 41
2.0
 42
2.0
 43
2.0
 50
90.0
  0
INSERT
  5
4AC9
330
4AC2
100
AcDbEntity
  8
寸法
 62
     0
370
    -2
100
AcDbBlockReference
  2
_DOT
 10
85.71480246358037
 20
120.7145512424612
 30
0.0
 41
2.0
 42
2.0
 43
2.0
 50
270.0
  0
MTEXT
  5
4ACA
330
4AC2
100
AcDbEntity
  8
寸法
 62
     0
100
AcDbMText
 10
78.21480246358037
 20
145.7145512424612
 30
0.0
 40
5.0
 41
0.0
 46
0.0
 71
     5
 72
     1
  1
\A1;50
  7
ＭＳ ゴシック
 11
0.0
 21
1.0
 31
0.0
 73
     1
 44
1.0
  0
POINT
  5
4ACB
330
4AC2
100
AcDbEntity
  8
Defpoints
 62
     0
100
AcDbPoint
 10
124.0838780616608
 20
170.7145512424612
 30
0.0
  0
POINT
  5
4ACC
330
4AC2
100
AcDbEntity
  8
Defpoints
 62
     0
100
AcDbPoint
 10
124.0838780616608
 20
120.7145512424612
 30
0.0
  0
POINT
  5
4ACD
330
4AC2
100
AcDbEntity
  8
Defpoints
 62
     0
100
AcDbPoint
 10
85.71480246358037
 20
120.7145512424612
 30
0.0
  0
ENDBLK
  5
4AC4
330
4AC2
100
AcDbEntity
  8
0
100
AcDbBlockEnd
  0
BLOCK
  5
4ADB
330
4ADA
100
AcDbEntity
  8
0
100
AcDbBlockBegin
  2
*D6
 70
     1
 10
0.0
 20
0.0
 30
0.0
  3
*D6
  1
*D106
  0
LINE
  5
4ADD
330
4ADA
100
AcDbEntity
  8
寸法
 62
     0
370
    -2
100
AcDbLine
 10
123.8416414360697
 20
257.5420940764441
 30
0.0
 11
123.8416414360697
 21
234.7672747881726
 31
0.0
  0
LINE
  5
4ADE
330
4ADA
100
AcDbEntity
  8
寸法
 62
     0
370
    -2
100
AcDbLine
 10
143.7379351239331
 20
257.5420940764441
 30
0.0
 11
143.7379351239331
 21
234.7672747881726
 31
0.0
  0
LINE
  5
4ADF
330
4ADA
100
AcDbEntity
  8
寸法
 62
     0
370
    -2
100
AcDbLine
 10
125.8416414360697
 20
234.7672747881726
 30
0.0
 11
141.7379351239331
 21
234.7672747881726
 31
0.0
  0
INSERT
  5
4AE0
330
4ADA
100
AcDbEntity
  8
寸法
 62
     0
370
    -2
100
AcDbBlockReference
  2
_DOT
 10
123.8416414360697
 20
234.7672747881726
 30
0.0
 41
2.0
 42
2.0
 43
2.0
 50
180.0
  0
INSERT
  5
4AE1
330
4ADA
100
AcDbEntity
  8
寸法
 62
     0
370
    -2
100
AcDbBlockReference
  2
_DOT
 10
143.7379351239331
 20
234.7672747881726
 30
0.0
 41
2.0
 42
2.0
 43
2.0
  0
MTEXT
  5
4AE2
330
4ADA
100
AcDbEntity
  8
寸法
 62
     0
100
AcDbMText
 10
133.7897882800014
 20
242.2672747881726
 30
0.0
 40
5.0
 41
0.0
 46
0.0
 71
     5
 72
     1
  1
\A1;20
  7
ＭＳ ゴシック
 73
     1
 44
1.0
  0
POINT
  5
4AE3
330
4ADA
100
AcDbEntity
  8
Defpoints
 62
     0
100
AcDbPoint
 10
123.8416414360697
 20
262.5420940764441
 30
0.0
  0
POINT
  5
4AE4
330
4ADA
100
AcDbEntity
  8
Defpoints
 62
     0
100
AcDbPoint
 10
143.7379351239331
 20
262.5420940764441
 30
0.0
  0
POINT
  5
4AE5
330
4ADA
100
AcDbEntity
  8
Defpoints
 62
     0
100
AcDbPoint
 10
143.7379351239331
 20
234.7672747881726
 30
0.0
  0
ENDBLK
  5
4ADC
330
4ADA
100
AcDbEntity
  8
0
100
AcDbBlockEnd
  0
BLOCK
  5
4AFF
330
4AFE
100
AcDbEntity
  8
0
100
AcDbBlockBegin
  2
*D7
 70
     1
 10
0.0
 20
0.0
 30
0.0
  3
*D7
  1
*D109
  0
LINE
  5
4B01
330
4AFE
100
AcDbEntity
  8
寸法
 62
     0
370
    -2
100
AcDbLine
 10
104.024703046894
 20
314.6148452586211
 30
0.0
 11
95.42071268192097
 21
314.6148452586211
 31
0.0
  0
LINE
  5
4B02
330
4AFE
100
AcDbEntity
  8
寸法
 62
     0
370
    -2
100
AcDbLine
 10
104.024703046894
 20
311.6537837356528
 30
0.0
 11
95.42071268192097
 21
311.6537837356528
 31
0.0
  0
LINE
  5
4B03
330
4AFE
100
AcDbEntity
  8
寸法
 62
     0
370
    -2
100
AcDbLine
 10
95.42071268192097
 20
312.6148452586211
 30
0.0
 11
95.42071268192097
 21
313.6537837356528
 31
0.0
  0
INSERT
  5
4B04
330
4AFE
100
AcDbEntity
  8
寸法
 62
     0
370
    -2
100
AcDbBlockReference
  2
_DOT
 10
95.42071268192097
 20
314.6148452586211
 30
0.0
 41
2.0
 42
2.0
 43
2.0
 50
90.0
  0
INSERT
  5
4B05
330
4AFE
100
AcDbEntity
  8
寸法
 62
     0
370
    -2
100
AcDbBlockReference
  2
_DOT
 10
95.42071268192097
 20
311.6537837356528
 30
0.0
 41
2.0
 42
2.0
 43
2.0
 50
270.0
  0
MTEXT
  5
4B06
330
4AFE
100
AcDbEntity
  8
寸法
 62
     0
100
AcDbMText
 10
87.92071268192097
 20
314.2553818643585
 30
0.0
 40
5.0
 41
0.0
 46
0.0
 71
     5
 72
     1
  1
\A1;3
  7
ＭＳ ゴシック
 11
0.0
 21
1.0
 31
0.0
 73
     1
 44
1.0
  0
POINT
  5
4B07
330
4AFE
100
AcDbEntity
  8
Defpoints
 62
     0
100
AcDbPoint
 10
109.024703046894
 20
314.6148452586211
 30
0.0
  0
POINT
  5
4B08
330
4AFE
100
AcDbEntity
  8
Defpoints
 62
     0
100
AcDbPoint
 10
109.024703046894
 20
311.6537837356528
 30
0.0
  0
POINT
  5
4B09
330
4AFE
100
AcDbEntity
  8
Defpoints
 62
     0
100
AcDbPoint
 10
95.42071268192097
 20
311.6537837356528
 30
0.0
  0
ENDBLK
  5
4B00
330
4AFE
100
AcDbEntity
  8
0
100
AcDbBlockEnd
  0
BLOCK
  5
4B0B
330
4B0A
100
AcDbEntity
  8
0
100
AcDbBlockBegin
  2
*D8
 70
     1
 10
0.0
 20
0.0
 30
0.0
  3
*D8
  1
*D110
  0
LINE
  5
4B0D
330
4B0A
100
AcDbEntity
  8
寸法
 62
     0
370
    -2
100
AcDbLine
 10
104.024703046894
 20
311.6537837356528
 30
0.0
 11
95.42071268192097
 21
311.6537837356528
 31
0.0
  0
LINE
  5
4B0E
330
4B0A
100
AcDbEntity
  8
寸法
 62
     0
370
    -2
100
AcDbLine
 10
128.7897882800014
 20
250.0420940764441
 30
0.0
 11
95.42071268192097
 21
250.0420940764441
 31
0.0
  0
LINE
  5
4B0F
330
4B0A
100
AcDbEntity
  8
寸法
 62
     0
370
    -2
100
AcDbLine
 10
95.42071268192097
 20
309.6537837356528
 30
0.0
 11
95.42071268192097
 21
252.0420940764441
 31
0.0
  0
INSERT
  5
4B10
330
4B0A
100
AcDbEntity
  8
寸法
 62
     0
370
    -2
100
AcDbBlockReference
  2
_DOT
 10
95.42071268192097
 20
311.6537837356528
 30
0.0
 41
2.0
 42
2.0
 43
2.0
 50
90.0
  0
INSERT
  5
4B11
330
4B0A
100
AcDbEntity
  8
寸法
 62
     0
370
    -2
100
AcDbBlockReference
  2
_DOT
 10
95.42071268192097
 20
250.0420940764441
 30
0.0
 41
2.0
 42
2.0
 43
2.0
 50
270.0
  0
MTEXT
  5
4B12
330
4B0A
100
AcDbEntity
  8
寸法
 62
     0
100
AcDbMText
 10
87.92071268192097
 20
280.8479389060485
 30
0.0
 40
5.0
 41
0.0
 46
0.0
 71
     5
 72
     1
  1
\A1;62
  7
ＭＳ ゴシック
 11
0.0
 21
1.0
 31
0.0
 73
     1
 44
1.0
  0
POINT
  5
4B13
330
4B0A
100
AcDbEntity
  8
Defpoints
 62
     0
100
AcDbPoint
 10
109.024703046894
 20
311.6537837356528
 30
0.0
  0
POINT
  5
4B14
330
4B0A
100
AcDbEntity
  8
Defpoints
 62
     0
100
AcDbPoint
 10
133.7897882800014
 20
250.0420940764441
 30
0.0
  0
POINT
  5
4B15
330
4B0A
100
AcDbEntity
  8
Defpoints
 62
     0
100
AcDbPoint
 10
95.42071268192097
 20
250.0420940764441
 30
0.0
  0
ENDBLK
  5
4B0C
330
4B0A
100
AcDbEntity
  8
0
100
AcDbBlockEnd
  0
BLOCK
  5
4B5B
330
4B5A
100
AcDbEntity
  8
0
100
AcDbBlockBegin
  2
*D9
 70
     1
 10
0.0
 20
0.0
 30
0.0
  3
*D9
  1
*D113
  0
LINE
  5
4B5D
330
4B5A
100
AcDbEntity
  8
寸法
 62
     0
370
    -2
100
AcDbLine
 10
138.7897882800014
 20
250.0420940764441
 30
0.0
 11
181.6722792153189
 21
250.0420940764441
 31
0.0
  0
LINE
  5
4B5E
330
4B5A
100
AcDbEntity
  8
寸法
 62
     0
370
    -2
100
AcDbLine
 10
163.9786205373379
 20
314.6165678074997
 30
0.0
 11
181.6722792153189
 21
314.6165678074997
 31
0.0
  0
LINE
  5
4B5F
330
4B5A
100
AcDbEntity
  8
寸法
 62
     0
370
    -2
100
AcDbLine
 10
181.6722792153189
 20
252.0420940764441
 30
0.0
 11
181.6722792153189
 21
312.6165678074997
 31
0.0
  0
INSERT
  5
4B60
330
4B5A
100
AcDbEntity
  8
寸法
 62
     0
370
    -2
100
AcDbBlockReference
  2
_DOT
 10
181.6722792153189
 20
250.0420940764441
 30
0.0
 41
2.0
 42
2.0
 43
2.0
 50
270.0
  0
INSERT
  5
4B61
330
4B5A
100
AcDbEntity
  8
寸法
 62
     0
370
    -2
100
AcDbBlockReference
  2
_DOT
 10
181.6722792153189
 20
314.6165678074997
 30
0.0
 41
2.0
 42
2.0
 43
2.0
 50
90.0
  0
MTEXT
  5
4B62
330
4B5A
100
AcDbEntity
  8
寸法
 62
     0
100
AcDbMText
 10
174.1722792153189
 20
282.3293309419719
 30
0.0
 40
5.0
 41
0.0
 46
0.0
 71
     5
 72
     1
  1
\A1;65
  7
ＭＳ ゴシック
 11
0.0
 21
1.0
 31
0.0
 73
     1
 44
1.0
  0
POINT
  5
4B63
330
4B5A
100
AcDbEntity
  8
Defpoints
 62
     0
100
AcDbPoint
 10
133.7897882800014
 20
250.0420940764441
 30
0.0
  0
POINT
  5
4B64
330
4B5A
100
AcDbEntity
  8
Defpoints
 62
     0
100
AcDbPoint
 10
158.9786205373379
 20
314.6165678074997
 30
0.0
  0
POINT
  5
4B65
330
4B5A
100
AcDbEntity
  8
Defpoints
 62
     0
100
AcDbPoint
 10
181.6722792153189
 20
314.6165678074997
 30
0.0
  0
ENDBLK
  5
4B5C
330
4B5A
100
AcDbEntity
  8
0
100
AcDbBlockEnd
  0
BLOCK
  5
4BD2
330
4BD1
100
AcDbEntity
  8
0
100
AcDbBlockBegin
  2
*D10
 70
     1
 10
0.0
 20
0.0
 30
0.0
  3
*D10
  1
*D117
  0
LINE
  5
4BD4
330
4BD1
100
AcDbEntity
  8
寸法
 62
     0
370
    -2
100
AcDbLine
 10
148.7507512323837
 20
195.6684687329056
 30
0.0
 11
181.6722792153189
 21
195.6684687329056
 31
0.0
  0
LINE
  5
4BD5
330
4BD1
100
AcDbEntity
  8
寸法
 62
     0
370
    -2
100
AcDbLine
 10
148.7507512323837
 20
95.76063375201643
 30
0.0
 11
181.6722792153189
 21
95.76063375201643
 31
0.0
  0
LINE
  5
4BD6
330
4BD1
100
AcDbEntity
  8
寸法
 62
     0
370
    -2
100
AcDbLine
 10
181.6722792153189
 20
193.6684687329056
 30
0.0
 11
181.6722792153189
 21
97.76063375201643
 31
0.0
  0
INSERT
  5
4BD7
330
4BD1
100
AcDbEntity
  8
寸法
 62
     0
370
    -2
100
AcDbBlockReference
  2
_DOT
 10
181.6722792153189
 20
195.6684687329056
 30
0.0
 41
2.0
 42
2.0
 43
2.0
 50
90.0
  0
INSERT
  5
4BD8
330
4BD1
100
AcDbEntity
  8
寸法
 62
     0
370
    -2
100
AcDbBlockReference
  2
_DOT
 10
181.6722792153189
 20
95.76063375201643
 30
0.0
 41
2.0
 42
2.0
 43
2.0
 50
270.0
  0
MTEXT
  5
4BD9
330
4BD1
100
AcDbEntity
  8
寸法
 62
     0
100
AcDbMText
 10
174.1722792153189
 20
145.714551242461
 30
0.0
 40
5.0
 41
0.0
 46
0.0
 71
     5
 72
     1
  1
\A1;100
  7
ＭＳ ゴシック
 11
0.0
 21
1.0
 31
0.0
 73
     1
 44
1.0
  0
POINT
  5
4BDA
330
4BD1
100
AcDbEntity
  8
Defpoints
 62
     0
100
AcDbPoint
 10
143.7507512323837
 20
195.6684687329056
 30
0.0
  0
POINT
  5
4BDB
330
4BD1
100
AcDbEntity
  8
Defpoints
 62
     0
100
AcDbPoint
 10
143.7507512323837
 20
95.76063375201643
 30
0.0
  0
POINT
  5
4BDC
330
4BD1
100
AcDbEntity
  8
Defpoints
 62
     0
100
AcDbPoint
 10
181.6722792153189
 20
95.76063375201643
 30
0.0
  0
ENDBLK
  5
4BD3
330
4BD1
100
AcDbEntity
  8
0
100
AcDbBlockEnd
  0
BLOCK
  5
4D00
330
4CFF
100
AcDbEntity
  8
0
100
AcDbBlockBegin
  2
*D11
 70
     1
 10
0.0
 20
0.0
 30
0.0
  3
*D11
  1
*D122
  0
LINE
  5
4D02
330
4CFF
100
AcDbEntity
  8
寸法
 62
     0
370
    -2
100
AcDbLine
 10
496.3164245360717
 20
269.4466134432978
 30
0.0
 11
496.3164245360717
 21
256.8029071811368
 31
0.0
  0
LINE
  5
4D03
330
4CFF
100
AcDbEntity
  8
寸法
 62
     0
370
    -2
100
AcDbLine
 10
472.3164245360717
 20
265.9535605372562
 30
0.0
 11
472.3164245360717
 21
256.8029071811368
 31
0.0
  0
LINE
  5
4D04
330
4CFF
100
AcDbEntity
  8
寸法
 62
     0
370
    -2
100
AcDbLine
 10
494.3164245360717
 20
256.8029071811368
 30
0.0
 11
474.3164245360717
 21
256.8029071811368
 31
0.0
  0
INSERT
  5
4D05
330
4CFF
100
AcDbEntity
  8
寸法
 62
     0
370
    -2
100
AcDbBlockReference
  2
_DOT
 10
496.3164245360717
 20
256.8029071811368
 30
0.0
 41
2.0
 42
2.0
 43
2.0
  0
INSERT
  5
4D06
330
4CFF
100
AcDbEntity
  8
寸法
 62
     0
370
    -2
100
AcDbBlockReference
  2
_DOT
 10
472.3164245360717
 20
256.8029071811368
 30
0.0
 41
2.0
 42
2.0
 43
2.0
 50
180.0
  0
MTEXT
  5
4D07
330
4CFF
100
AcDbEntity
  8
寸法
 62
     0
100
AcDbMText
 10
484.3164245360717
 20
264.3029071811368
 30
0.0
 40
5.0
 41
0.0
 46
0.0
 71
     5
 72
     1
  1
\A1;24
  7
ＭＳ ゴシック
 73
     1
 44
1.0
  0
POINT
  5
4D08
330
4CFF
100
AcDbEntity
  8
Defpoints
 62
     0
100
AcDbPoint
 10
496.3164245360717
 20
274.4466134432978
 30
0.0
  0
POINT
  5
4D09
330
4CFF
100
AcDbEntity
  8
Defpoints
 62
     0
100
AcDbPoint
 10
472.3164245360717
 20
270.9535605372562
 30
0.0
  0
POINT
  5
4D0A
330
4CFF
100
AcDbEntity
  8
Defpoints
 62
     0
100
AcDbPoint
 10
472.3164245360717
 20
256.8029071811368
 30
0.0
  0
ENDBLK
  5
4D01
330
4CFF
100
AcDbEntity
  8
0
100
AcDbBlockEnd
  0
BLOCK
  5
4D24
330
4D23
100
AcDbEntity
  8
0
100
AcDbBlockBegin
  2
*D12
 70
     1
 10
0.0
 20
0.0
 30
0.0
  3
*D12
  1
*D125
  0
LINE
  5
4D26
330
4D23
100
AcDbEntity
  8
寸法
 62
     0
370
    -2
100
AcDbLine
 10
433.0247104681174
 20
283.4573624800989
 30
0.0
 11
421.4928249901114
 21
283.4573624800989
 31
0.0
  0
LINE
  5
4D27
330
4D23
100
AcDbEntity
  8
寸法
 62
     0
370
    -2
100
AcDbLine
 10
433.1118278080456
 20
275.4535605372562
 30
0.0
 11
421.4928249901114
 21
275.4535605372562
 31
0.0
  0
LINE
  5
4D28
330
4D23
100
AcDbEntity
  8
寸法
 62
     0
370
    -2
100
AcDbLine
 10
421.4928249901114
 20
281.4573624800989
 30
0.0
 11
421.4928249901114
 21
277.4535605372562
 31
0.0
  0
INSERT
  5
4D29
330
4D23
100
AcDbEntity
  8
寸法
 62
     0
370
    -2
100
AcDbBlockReference
  2
_DOT
 10
421.4928249901114
 20
283.4573624800989
 30
0.0
 41
2.0
 42
2.0
 43
2.0
 50
90.0
  0
INSERT
  5
4D2A
330
4D23
100
AcDbEntity
  8
寸法
 62
     0
370
    -2
100
AcDbBlockReference
  2
_DOT
 10
421.4928249901114
 20
275.4535605372562
 30
0.0
 41
2.0
 42
2.0
 43
2.0
 50
270.0
  0
MTEXT
  5
4D2B
330
4D23
100
AcDbEntity
  8
寸法
 62
     0
100
AcDbMText
 10
413.9928249901114
 20
279.4535605372562
 30
0.0
 40
5.0
 41
0.0
 46
0.0
 71
     5
 72
     1
  1
\A1;M8
  7
ＭＳ ゴシック
 11
0.0
 21
1.0
 31
0.0
 73
     1
 44
1.0
  0
POINT
  5
4D2C
330
4D23
100
AcDbEntity
  8
Defpoints
 62
     0
100
AcDbPoint
 10
438.0247104681174
 20
283.4573624800989
 30
0.0
  0
POINT
  5
4D2D
330
4D23
100
AcDbEntity
  8
Defpoints
 62
     0
100
AcDbPoint
 10
438.1118278080456
 20
275.4535605372562
 30
0.0
  0
POINT
  5
4D2E
330
4D23
100
AcDbEntity
  8
Defpoints
 62
     0
100
AcDbPoint
 10
421.4928249901114
 20
275.4535605372562
 30
0.0
  0
ENDBLK
  5
4D25
330
4D23
100
AcDbEntity
  8
0
100
AcDbBlockEnd
  0
BLOCK
  5
4E47
330
4E46
100
AcDbEntity
  8
0
100
AcDbBlockBegin
  2
*D13
 70
     1
 10
0.0
 20
0.0
 30
0.0
  3
*D13
  1
*D128
  0
LINE
  5
4E49
330
4E46
100
AcDbEntity
  8
寸法
 62
     0
370
    -2
100
AcDbLine
 10
501.6871863616767
 20
285.6917600221625
 30
0.0
 11
515.4475513751635
 21
285.6917600221625
 31
0.0
  0
LINE
  5
4E4A
330
4E46
100
AcDbEntity
  8
寸法
 62
     0
370
    -2
100
AcDbLine
 10
501.3164245360717
 20
272.9535605372562
 30
0.0
 11
515.4475513751635
 21
272.9535605372562
 31
0.0
  0
LINE
  5
4E4B
330
4E46
100
AcDbEntity
  8
寸法
 62
     0
370
    -2
100
AcDbLine
 10
515.4475513751635
 20
283.6917600221625
 30
0.0
 11
515.4475513751635
 21
274.9535605372562
 31
0.0
  0
INSERT
  5
4E4C
330
4E46
100
AcDbEntity
  8
寸法
 62
     0
370
    -2
100
AcDbBlockReference
  2
_DOT
 10
515.4475513751635
 20
285.6917600221625
 30
0.0
 41
2.0
 42
2.0
 43
2.0
 50
90.0
  0
INSERT
  5
4E4D
330
4E46
100
AcDbEntity
  8
寸法
 62
     0
370
    -2
100
AcDbBlockReference
  2
_DOT
 10
515.4475513751635
 20
272.9535605372562
 30
0.0
 41
2.0
 42
2.0
 43
2.0
 50
270.0
  0
MTEXT
  5
4E4E
330
4E46
100
AcDbEntity
  8
寸法
 62
     0
100
AcDbMText
 10
507.9475513751635
 20
279.3226602797093
 30
0.0
 40
5.0
 41
0.0
 46
0.0
 71
     5
 72
     1
  1
\A1;13
  7
ＭＳ ゴシック
 11
0.0
 21
1.0
 31
0.0
 73
     1
 44
1.0
  0
POINT
  5
4E4F
330
4E46
100
AcDbEntity
  8
Defpoints
 62
     0
100
AcDbPoint
 10
496.6871863616767
 20
285.6917600221625
 30
0.0
  0
POINT
  5
4E50
330
4E46
100
AcDbEntity
  8
Defpoints
 62
     0
100
AcDbPoint
 10
496.3164245360717
 20
272.9535605372562
 30
0.0
  0
POINT
  5
4E51
330
4E46
100
AcDbEntity
  8
Defpoints
 62
     0
100
AcDbPoint
 10
515.4475513751635
 20
272.9535605372562
 30
0.0
  0
ENDBLK
  5
4E48
330
4E46
100
AcDbEntity
  8
0
100
AcDbBlockEnd
  0
BLOCK
  5
4E66
330
4E65
100
AcDbEntity
  8
0
100
AcDbBlockBegin
  2
*D14
 70
     1
 10
0.0
 20
0.0
 30
0.0
  3
*D14
  1
*D129
  0
LINE
  5
4E68
330
4E65
100
AcDbEntity
  8
寸法
 62
     0
370
    -2
100
AcDbLine
 10
472.3164245360717
 20
265.9535605372562
 30
0.0
 11
472.3164245360717
 21
256.8029071811368
 31
0.0
  0
LINE
  5
4E69
330
4E65
100
AcDbEntity
  8
寸法
 62
     0
370
    -2
100
AcDbLine
 10
436.3164245360717
 20
265.9535605372562
 30
0.0
 11
436.3164245360717
 21
256.8029071811368
 31
0.0
  0
LINE
  5
4E6A
330
4E65
100
AcDbEntity
  8
寸法
 62
     0
370
    -2
100
AcDbLine
 10
470.3164245360717
 20
256.8029071811368
 30
0.0
 11
438.3164245360717
 21
256.8029071811368
 31
0.0
  0
INSERT
  5
4E6B
330
4E65
100
AcDbEntity
  8
寸法
 62
     0
370
    -2
100
AcDbBlockReference
  2
_DOT
 10
472.3164245360717
 20
256.8029071811368
 30
0.0
 41
2.0
 42
2.0
 43
2.0
  0
INSERT
  5
4E6C
330
4E65
100
AcDbEntity
  8
寸法
 62
     0
370
    -2
100
AcDbBlockReference
  2
_DOT
 10
436.3164245360717
 20
256.8029071811368
 30
0.0
 41
2.0
 42
2.0
 43
2.0
 50
180.0
  0
MTEXT
  5
4E6D
330
4E65
100
AcDbEntity
  8
寸法
 62
     0
100
AcDbMText
 10
454.3164245360717
 20
264.3029071811368
 30
0.0
 40
5.0
 41
0.0
 46
0.0
 71
     5
 72
     1
  1
\A1;36
  7
ＭＳ ゴシック
 73
     1
 44
1.0
  0
POINT
  5
4E6E
330
4E65
100
AcDbEntity
  8
Defpoints
 62
     0
100
AcDbPoint
 10
472.3164245360717
 20
270.9535605372562
 30
0.0
  0
POINT
  5
4E6F
330
4E65
100
AcDbEntity
  8
Defpoints
 62
     0
100
AcDbPoint
 10
436.3164245360717
 20
270.9535605372562
 30
0.0
  0
POINT
  5
4E70
330
4E65
100
AcDbEntity
  8
Defpoints
 62
     0
100
AcDbPoint
 10
436.3164245360717
 20
256.8029071811368
 30
0.0
  0
ENDBLK
  5
4E67
330
4E65
100
AcDbEntity
  8
0
100
AcDbBlockEnd
  0
ENDSEC
  0
SECTION
  2
ENTITIES
  0
LINE
  5
36CD
330
A
100
AcDbEntity
  8
PRINT BORDER
100
AcDbLine
 10
296.9999999999999
 20
0.0
 30
0.0
 11
296.9999999999999
 21
15.30952622855898
 31
0.0
  0
LINE
  5
36CE
330
A
100
AcDbEntity
  8
テンプレート
100
AcDbLine
 10
437.9999999999999
 20
38.27810890422097
 30
0.0
 11
15.30952622855898
 21
38.27810890422097
 31
0.0
  0
LINE
  5
36CF
330
A
100
AcDbEntity
  8
テンプレート
100
AcDbLine
 10
15.30952622855898
 20
26.22153683920783
 30
0.0
 11
578.6904737714407
 21
26.22153683920783
 31
0.0
  0
TEXT
  5
36D0
330
A
100
AcDbEntity
  8
テンプレート
100
AcDbText
 10
18.06121699514119
 20
32.16825981613692
 30
0.0
 40
3.5
  1
材質
  7
ＭＳ ゴシック
100
AcDbText
  0
TEXT
  5
36D3
330
A
100
AcDbEntity
  8
テンプレート
100
AcDbText
 10
18.06121699514119
 20
56.50959028673083
 30
0.0
 40
3.5
  1
品名
  7
ＭＳ ゴシック
100
AcDbText
  0
TEXT
  5
36D4
330
A
100
AcDbEntity
  8
テンプレート
100
AcDbText
 10
18.06121699514119
 20
44.65099339080098
 30
0.0
 40
3.5
  1
仕上げ
  7
ＭＳ ゴシック
100
AcDbText
  0
TEXT
  5
36D5
330
A
100
AcDbEntity
  8
テンプレート
100
AcDbText
 10
298.8233485179306
 20
56.58523052309897
 30
0.0
 40
3.5
  1
品番
  7
ＭＳ ゴシック
100
AcDbText
  0
TEXT
  5
36D6
330
A
100
AcDbEntity
  8
テンプレート
100
AcDbText
 10
36.7528253083583
 20
53.09440584367189
 30
0.0
 40
5.5
  1
ガラスドア用ノブ（両面固定タイプ） - FORMANI,One -
  7
ＭＳ ゴシック
100
AcDbText
  0
LINE
  5
36D8
330
A
100
AcDbEntity
  8
テンプレート
100
AcDbLine
 10
437.9999999999999
 20
50.16496477419605
 30
0.0
 11
15.30952622855898
 21
50.16496477419605
 31
0.0
  0
LINE
  5
36D9
330
A
100
AcDbEntity
  8
テンプレート
100
AcDbLine
 10
578.6904737714411
 20
62.22153683920783
 30
0.0
 11
15.30952622855898
 21
62.22153683920783
 31
0.0
  0
LINE
  5
36DA
330
A
100
AcDbEntity
  8
PRINT BORDER
100
AcDbLine
 10
593.9999999999999
 20
210.0
 30
0.0
 11
578.6904737714411
 21
210.0
 31
0.0
  0
LINE
  5
36DB
330
A
100
AcDbEntity
  8
PRINT BORDER
100
AcDbLine
 10
0.0
 20
210.0
 30
0.0
 11
15.30952622855898
 21
210.0
 31
0.0
  0
LINE
  5
36DC
330
A
100
AcDbEntity
  8
PRINT BORDER
100
AcDbLine
 10
296.9999999999999
 20
420.0
 30
0.0
 11
296.9999999999999
 21
404.690473771441
 31
0.0
  0
LINE
  5
36DD
330
A
100
AcDbEntity
  8
テンプレート
100
AcDbLine
 10
578.6904737714411
 20
62.22153683920783
 30
0.0
 11
578.6904737714411
 21
26.22153683920783
 31
0.0
  0
LINE
  5
36DE
330
A
100
AcDbEntity
  8
テンプレート
100
AcDbLine
 10
15.30952622855898
 20
62.22153683920783
 30
0.0
 11
15.30952622855898
 21
26.22153683920783
 31
0.0
  0
TEXT
  5
36E0
330
A
100
AcDbEntity
  8
テンプレート
100
AcDbText
 10
494.9733384955217
 20
16.51938390313694
 30
0.0
 40
5.5
  1
大洋金物株式会社  
  7
ＭＳ ゴシック
100
AcDbText
  0
LINE
  5
36E1
330
A
100
AcDbEntity
  8
テンプレート
100
AcDbLine
 10
437.9999999999999
 20
62.22153683920783
 30
0.0
 11
437.9999999999999
 21
26.22153683920783
 31
0.0
  0
LINE
  5
36E2
330
A
100
AcDbEntity
  8
テンプレート
100
AcDbLine
 10
296.9999999999999
 20
62.22153683920783
 30
0.0
 11
296.9999999999999
 21
26.22153683920783
 31
0.0
  0
INSERT
  5
36E3
330
A
100
AcDbEntity
  8
テンプレート
100
AcDbBlockReference
  2
名称未設定-1
 10
548.3945198859805
 20
-7.642344203993161
 30
0.0
 41
0.180975
 42
0.180975
 43
0.180975
  0
LINE
  5
36E5
330
A
100
AcDbEntity
  8
テンプレート
100
AcDbLine
 10
15.30952622855898
 20
210.0
 30
0.0
 11
15.30952622855898
 21
26.22153683920783
 31
0.0
  0
LINE
  5
36E6
330
A
100
AcDbEntity
  8
テンプレート
100
AcDbLine
 10
15.30952622855898
 20
210.0
 30
0.0
 11
15.30952622855898
 21
404.690473771441
 31
0.0
  0
LINE
  5
36E7
330
A
100
AcDbEntity
  8
テンプレート
100
AcDbLine
 10
296.9999999999999
 20
404.690473771441
 30
0.0
 11
15.30952622855887
 21
404.690473771441
 31
0.0
  0
LINE
  5
36E8
330
A
100
AcDbEntity
  8
テンプレート
100
AcDbLine
 10
296.9999999999999
 20
404.690473771441
 30
0.0
 11
578.6904737714411
 21
404.690473771441
 31
0.0
  0
LINE
  5
36E9
330
A
100
AcDbEntity
  8
テンプレート
100
AcDbLine
 10
578.6904737714411
 20
210.0
 30
0.0
 11
578.6904737714411
 21
404.690473771441
 31
0.0
  0
LINE
  5
36EA
330
A
100
AcDbEntity
  8
テンプレート
100
AcDbLine
 10
578.6904737714411
 20
210.0
 30
0.0
 11
578.6904737714411
 21
26.22153683920783
 31
0.0
  0
LWPOLYLINE
  5
36EB
330
A
100
AcDbEntity
  8
PRINT BORDER
  6
HIDDEN
 48
3.0
100
AcDbPolyline
 90
        4
 70
     1
 43
0.0
 10
0.0
 20
0.0
 10
0.0
 20
420.0
 10
593.9999999999999
 20
420.0
 10
593.9999999999999
 20
0.0
  0
TEXT
  5
36EC
330
A
100
AcDbEntity
  8
テンプレート
100
AcDbText
 10
298.7989156222221
 20
32.62405342819488
 30
0.0
 40
3.5
  1
縮尺
  7
ＭＳ ゴシック
100
AcDbText
  0
TEXT
  5
36ED
330
A
100
AcDbEntity
  8
テンプレート
100
AcDbText
 10
313.0171205424464
 20
29.43815249371804
 30
0.0
 40
5.5
  1
1/2
  7
ＭＳ ゴシック
100
AcDbText
  0
TEXT
  5
37DE
330
A
100
AcDbEntity
  8
テンプレート
100
AcDbText
 10
298.8233485179306
 20
44.52865845808583
 30
0.0
 40
3.5
  1
扉厚
  7
ＭＳ ゴシック
100
AcDbText
  0
TEXT
  5
41D7
330
A
100
AcDbEntity
  8
テンプレート
100
AcDbText
 10
36.7528253083583
 20
29.15097790868504
 30
0.0
 40
5.5
  1
ステンレス
  7
ＭＳ ゴシック
100
AcDbText
  0
TEXT
  5
41D8
330
A
100
AcDbEntity
  8
テンプレート
100
AcDbText
 10
36.7528253083583
 20
41.03783377866012
 30
0.0
 40
5.5
  1
サテン・ホワイト・ブラック
  7
ＭＳ ゴシック
100
AcDbText
  0
TEXT
  5
42C8
330
A
100
AcDbEntity
  8
テンプレート
100
AcDbText
 10
313.0171205424464
 20
53.38158042870626
 30
0.0
 40
5.5
  1
FOR11-ONT01G
  7
ＭＳ ゴシック
100
AcDbText
  0
TEXT
  5
4346
330
A
100
AcDbEntity
  8
テンプレート
100
AcDbText
 10
440.0887524673468
 20
56.58523052309891
 30
0.0
 40
3.5
  1
備考
  7
ＭＳ ゴシック
100
AcDbText
  0
POLYLINE
  5
49B6
330
A
100
AcDbEntity
  8
モデル
100
AcDb2dPolyline
 66
     1
 10
0.0
 20
0.0
 30
0.0
  0
VERTEX
  5
49B7
330
49B6
100
AcDbEntity
  8
モデル
100
AcDbVertex
100
AcDb2dVertex
 10
123.8288253276189
 20
133.2145512424612
 30
0.0
  0
VERTEX
  5
49B8
330
49B6
100
AcDbEntity
  8
モデル
100
AcDbVertex
100
AcDb2dVertex
 10
123.8288253276189
 20
95.76063375201643
 30
0.0
  0
SEQEND
  5
49B9
330
49B6
100
AcDbEntity
  8
モデル
  0
POLYLINE
  5
49BA
330
A
100
AcDbEntity
  8
モデル
100
AcDb2dPolyline
 66
     1
 10
0.0
 20
0.0
 30
0.0
  0
VERTEX
  5
49BB
330
49BA
100
AcDbEntity
  8
モデル
100
AcDbVertex
100
AcDb2dVertex
 10
121.2897882800014
 20
158.2145512424612
 30
0.0
  0
VERTEX
  5
49BC
330
49BA
100
AcDbEntity
  8
モデル
100
AcDbVertex
100
AcDb2dVertex
 10
121.2897882800014
 20
133.2145512424612
 30
0.0
  0
SEQEND
  5
49BD
330
49BA
100
AcDbEntity
  8
モデル
  0
POLYLINE
  5
49BE
330
A
100
AcDbEntity
  8
モデル
100
AcDb2dPolyline
 66
     1
 10
0.0
 20
0.0
 30
0.0
  0
VERTEX
  5
49BF
330
49BE
100
AcDbEntity
  8
モデル
100
AcDbVertex
100
AcDb2dVertex
 10
123.8288253276189
 20
195.6684687329056
 30
0.0
  0
VERTEX
  5
49C0
330
49BE
100
AcDbEntity
  8
モデル
100
AcDbVertex
100
AcDb2dVertex
 10
123.8288253276189
 20
158.2145512424612
 30
0.0
  0
SEQEND
  5
49C1
330
49BE
100
AcDbEntity
  8
モデル
  0
POLYLINE
  5
49C2
330
A
100
AcDbEntity
  8
モデル
100
AcDb2dPolyline
 66
     1
 10
0.0
 20
0.0
 30
0.0
  0
VERTEX
  5
49C3
330
49C2
100
AcDbEntity
  8
モデル
100
AcDbVertex
100
AcDb2dVertex
 10
123.8288253276189
 20
95.76063375201643
 30
0.0
  0
VERTEX
  5
49C4
330
49C2
100
AcDbEntity
  8
モデル
100
AcDbVertex
100
AcDb2dVertex
 10
133.7897882800014
 20
95.76063375201643
 30
0.0
  0
SEQEND
  5
49C5
330
49C2
100
AcDbEntity
  8
モデル
  0
POLYLINE
  5
49C6
330
A
100
AcDbEntity
  8
モデル
100
AcDb2dPolyline
 66
     1
 10
0.0
 20
0.0
 30
0.0
  0
VERTEX
  5
49C7
330
49C6
100
AcDbEntity
  8
モデル
100
AcDbVertex
100
AcDb2dVertex
 10
121.2897882800016
 20
158.2145512424612
 30
0.0
  0
VERTEX
  5
49C8
330
49C6
100
AcDbEntity
  8
モデル
100
AcDbVertex
100
AcDb2dVertex
 10
133.7897882800014
 20
158.2145512424612
 30
0.0
  0
SEQEND
  5
49C9
330
49C6
100
AcDbEntity
  8
モデル
  0
POLYLINE
  5
49CA
330
A
100
AcDbEntity
  8
モデル
100
AcDb2dPolyline
 66
     1
 10
0.0
 20
0.0
 30
0.0
  0
VERTEX
  5
49CB
330
49CA
100
AcDbEntity
  8
モデル
100
AcDbVertex
100
AcDb2dVertex
 10
123.8288253276189
 20
195.6684687329056
 30
0.0
  0
VERTEX
  5
49CC
330
49CA
100
AcDbEntity
  8
モデル
100
AcDbVertex
100
AcDb2dVertex
 10
133.7897882800014
 20
195.6684687329056
 30
0.0
  0
SEQEND
  5
49CD
330
49CA
100
AcDbEntity
  8
モデル
  0
POLYLINE
  5
49D7
330
A
100
AcDbEntity
  8
モデル
100
AcDb2dPolyline
 66
     1
 10
0.0
 20
0.0
 30
0.0
  0
VERTEX
  5
49D8
330
49D7
100
AcDbEntity
  8
モデル
100
AcDbVertex
100
AcDb2dVertex
 10
351.3130213507067
 20
95.76063375201643
 30
0.0
  0
VERTEX
  5
49D9
330
49D7
100
AcDbEntity
  8
モデル
100
AcDbVertex
100
AcDb2dVertex
 10
371.2119060006943
 20
95.76063375201643
 30
0.0
  0
SEQEND
  5
49DA
330
49D7
100
AcDbEntity
  8
モデル
  0
POLYLINE
  5
49DB
330
A
100
AcDbEntity
  8
モデル
100
AcDb2dPolyline
 66
     1
 10
0.0
 20
0.0
 30
0.0
  0
VERTEX
  5
49DC
330
49DB
100
AcDbEntity
  8
モデル
100
AcDbVertex
100
AcDb2dVertex
 10
351.3130213507067
 20
195.6684687329056
 30
0.0
  0
VERTEX
  5
49DD
330
49DB
100
AcDbEntity
  8
モデル
100
AcDbVertex
100
AcDb2dVertex
 10
371.2119060006943
 20
195.6684687329056
 30
0.0
  0
SEQEND
  5
49DE
330
49DB
100
AcDbEntity
  8
モデル
  0
POLYLINE
  5
49E8
330
A
100
AcDbEntity
  8
モデル
100
AcDb2dPolyline
 66
     1
 10
0.0
 20
0.0
 30
0.0
  0
VERTEX
  5
4D5A
330
49E8
100
AcDbEntity
  8
モデル
100
AcDbVertex
100
AcDb2dVertex
 10
109.024703046894
 20
314.6537837356528
 30
0.0
  0
VERTEX
  5
4D5B
330
49E8
100
AcDbEntity
  8
モデル
100
AcDbVertex
100
AcDb2dVertex
 10
109.024703046894
 20
314.6148452586211
 30
0.0
  0
SEQEND
  5
4D5C
330
49E8
100
AcDbEntity
  8
モデル
  0
POLYLINE
  5
49F1
330
A
100
AcDbEntity
  8
モデル
100
AcDb2dPolyline
 66
     1
 10
0.0
 20
0.0
 30
0.0
  0
VERTEX
  5
49F2
330
49F1
100
AcDbEntity
  8
モデル
100
AcDbVertex
100
AcDb2dVertex
 10
123.842068503887
 20
311.6520611867737
 30
0.0
  0
VERTEX
  5
49F3
330
49F1
100
AcDbEntity
  8
モデル
100
AcDbVertex
100
AcDb2dVertex
 10
123.842068503887
 20
308.6892771149268
 30
0.0
  0
SEQEND
  5
49F4
330
49F1
100
AcDbEntity
  8
モデル
  0
POLYLINE
  5
49F5
330
A
100
AcDbEntity
  8
モデル
100
AcDb2dPolyline
 66
     1
 10
0.0
 20
0.0
 30
0.0
  0
VERTEX
  5
49F6
330
49F5
100
AcDbEntity
  8
モデル
100
AcDbVertex
100
AcDb2dVertex
 10
143.7375080561157
 20
311.6520611867737
 30
0.0
  0
VERTEX
  5
49F7
330
49F5
100
AcDbEntity
  8
モデル
100
AcDbVertex
100
AcDb2dVertex
 10
143.7375080561157
 20
308.6892771149268
 30
0.0
  0
SEQEND
  5
49F8
330
49F5
100
AcDbEntity
  8
モデル
  0
POLYLINE
  5
49F9
330
A
100
AcDbEntity
  8
モデル
100
AcDb2dPolyline
 66
     1
 10
0.0
 20
0.0
 30
0.0
  0
VERTEX
  5
49FA
330
49F9
100
AcDbEntity
  8
モデル
100
AcDbVertex
100
AcDb2dVertex
 10
126.3811055515048
 20
308.6892771149268
 30
0.0
  0
VERTEX
  5
49FB
330
49F9
100
AcDbEntity
  8
モデル
100
AcDbVertex
100
AcDb2dVertex
 10
126.3811055515048
 20
272.6099349685357
 30
0.0
  0
SEQEND
  5
49FC
330
49F9
100
AcDbEntity
  8
モデル
  0
POLYLINE
  5
49FD
330
A
100
AcDbEntity
  8
モデル
100
AcDb2dPolyline
 66
     1
 10
0.0
 20
0.0
 30
0.0
  0
VERTEX
  5
49FE
330
49FD
100
AcDbEntity
  8
モデル
100
AcDbVertex
100
AcDb2dVertex
 10
141.198471008498
 20
308.6892771149268
 30
0.0
  0
VERTEX
  5
49FF
330
49FD
100
AcDbEntity
  8
モデル
100
AcDbVertex
100
AcDb2dVertex
 10
141.198471008498
 20
272.6099349685358
 30
0.0
  0
SEQEND
  5
4A00
330
49FD
100
AcDbEntity
  8
モデル
  0
POLYLINE
  5
4A01
330
A
100
AcDbEntity
  8
モデル
100
AcDb2dPolyline
 66
     1
 10
0.0
 20
0.0
 30
0.0
  0
VERTEX
  5
4A02
330
4A01
100
AcDbEntity
  8
モデル
100
AcDbVertex
100
AcDb2dVertex
 10
123.842068503887
 20
308.6892771149268
 30
0.0
  0
VERTEX
  5
4A03
330
4A01
100
AcDbEntity
  8
モデル
100
AcDbVertex
100
AcDb2dVertex
 10
143.7375080561157
 20
308.6892771149268
 30
0.0
  0
SEQEND
  5
4A04
330
4A01
100
AcDbEntity
  8
モデル
  0
POLYLINE
  5
4A05
102
{ACAD_REACTORS
330
4A20
330
4A23
102
}
330
A
100
AcDbEntity
  8
モデル
100
AcDb2dPolyline
 66
     1
 10
0.0
 20
0.0
 30
0.0
  0
VERTEX
  5
4A06
330
4A05
100
AcDbEntity
  8
モデル
100
AcDbVertex
100
AcDb2dVertex
 10
109.024703046894
 20
314.6165678074997
 30
0.0
  0
VERTEX
  5
4A07
330
4A05
100
AcDbEntity
  8
モデル
100
AcDbVertex
100
AcDb2dVertex
 10
109.024703046894
 20
311.6537837356528
 30
0.0
  0
SEQEND
  5
4A08
330
4A05
100
AcDbEntity
  8
モデル
  0
DIMENSION
  5
4A0E
330
A
100
AcDbEntity
  8
寸法
100
AcDbDimension
  2
*D4
 10
121.2897882800014
 20
219.8508232947228
 30
0.0
 11
133.7897882800014
 21
227.3508232947228
 31
0.0
 70
    32
 71
     5
 42
25.0
 73
     0
 74
     0
 75
     0
  3
tfrom線あり
100
AcDbAlignedDimension
 13
146.2897882800014
 23
257.6380552292825
 33
0.0
 14
121.2897882800014
 24
257.6380552292825
 34
0.0
100
AcDbRotatedDimension
  0
ARC
  5
4A10
330
A
100
AcDbEntity
  8
モデル
100
AcDbCircle
 10
133.7897882800014
 20
145.7145512424612
 30
0.0
 40
25.0
100
AcDbArc
 50
293.480598934641
 51
66.51940106535861
  0
DIMENSION
  5
4A11
330
A
100
AcDbEntity
  8
寸法
100
AcDbDimension
  2
*D5
 10
85.71480246358037
 20
120.7145512424612
 30
0.0
 11
78.21480246358037
 21
145.7145512424612
 31
0.0
 70
    32
 71
     5
 42
50.0
 73
     0
 74
     0
 75
     0
  3
tfrom線あり
100
AcDbAlignedDimension
 13
124.0838780616608
 23
170.7145512424612
 33
0.0
 14
124.0838780616608
 24
120.7145512424612
 34
0.0
 50
90.0
100
AcDbRotatedDimension
  0
DIMENSION
  5
4A17
330
A
100
AcDbEntity
  8
寸法
100
AcDbDimension
  2
*D6
 10
143.7379351239331
 20
234.7672747881726
 30
0.0
 11
133.7897882800014
 21
242.2672747881726
 31
0.0
 70
    32
 71
     5
 42
19.89629368786342
 73
     0
 74
     0
 75
     0
  3
tfrom線あり
100
AcDbAlignedDimension
 13
123.8416414360697
 23
262.5420940764441
 33
0.0
 14
143.7379351239331
 24
262.5420940764441
 34
0.0
 50
-0.000000000000014
100
AcDbRotatedDimension
  0
DIMENSION
  5
4A1E
102
{ACAD_REACTORS
330
4A20
102
}
102
{ACAD_XDICTIONARY
360
4A1F
102
}
330
A
100
AcDbEntity
  8
寸法
100
AcDbDimension
  2
*D7
 10
95.42071268192097
 20
311.6537837356528
 30
0.0
 11
95.42071268192097
 21
314.2553818643585
 31
0.0
 70
   160
 71
     5
 42
2.961061522968294
 73
     0
 74
     0
 75
     0
  3
tfrom線あり
100
AcDbAlignedDimension
 13
109.024703046894
 23
314.6148452586211
 33
0.0
 14
109.024703046894
 24
311.6537837356528
 34
0.0
 50
90.0
100
AcDbRotatedDimension
  0
DIMENSION
  5
4A21
102
{ACAD_REACTORS
330
4A23
102
}
102
{ACAD_XDICTIONARY
360
4A22
102
}
330
A
100
AcDbEntity
  8
寸法
100
AcDbDimension
  2
*D8
 10
95.42071268192097
 20
250.0420940764441
 30
0.0
 11
87.92071268192097
 21
280.8479389060485
 31
0.0
 70
    32
 71
     5
 42
61.61168965920865
 73
     0
 74
     0
 75
     0
  3
tfrom線あり
100
AcDbAlignedDimension
 13
109.024703046894
 23
311.6537837356528
 33
0.0
 14
133.7897882800014
 24
250.0420940764441
 34
0.0
 50
90.0
100
AcDbRotatedDimension
  0
ARC
  5
4A24
330
A
100
AcDbEntity
  8
モデル
100
AcDbCircle
 10
133.7897882800014
 20
145.7145512424612
 30
0.0
 40
25.0
100
AcDbArc
 50
113.4805989346416
 51
246.5194010653583
  0
CIRCLE
  5
4A2A
330
A
100
AcDbEntity
  8
モデル
100
AcDbCircle
 10
133.7897882800014
 20
262.5420940764441
 30
0.0
 40
9.948146843931667
  0
CIRCLE
  5
4A2F
102
{ACAD_REACTORS
330
4B59
102
}
330
A
100
AcDbEntity
  8
モデル
100
AcDbCircle
 10
133.7897882800014
 20
262.5420940764441
 30
0.0
 40
12.5
  0
POLYLINE
  5
4A30
330
A
100
AcDbEntity
  8
モデル
100
AcDb2dPolyline
 66
     1
 10
0.0
 20
0.0
 30
0.0
  0
VERTEX
  5
4A31
330
4A30
100
AcDbEntity
  8
モデル
100
AcDbVertex
100
AcDb2dVertex
 10
143.7507512323837
 20
133.2145512424612
 30
0.0
  0
VERTEX
  5
4A32
330
4A30
100
AcDbEntity
  8
モデル
100
AcDbVertex
100
AcDb2dVertex
 10
143.7507512323837
 20
95.76063375201643
 30
0.0
  0
SEQEND
  5
4A33
330
4A30
100
AcDbEntity
  8
モデル
  0
POLYLINE
  5
4A34
330
A
100
AcDbEntity
  8
モデル
100
AcDb2dPolyline
 66
     1
 10
0.0
 20
0.0
 30
0.0
  0
VERTEX
  5
4A35
330
4A34
100
AcDbEntity
  8
モデル
100
AcDbVertex
100
AcDb2dVertex
 10
146.2897882800013
 20
158.2145512424612
 30
0.0
  0
VERTEX
  5
4A36
330
4A34
100
AcDbEntity
  8
モデル
100
AcDbVertex
100
AcDb2dVertex
 10
146.2897882800013
 20
133.2145512424612
 30
0.0
  0
SEQEND
  5
4A37
330
4A34
100
AcDbEntity
  8
モデル
  0
POLYLINE
  5
4A38
102
{ACAD_REACTORS
330
4BD0
102
}
330
A
100
AcDbEntity
  8
モデル
100
AcDb2dPolyline
 66
     1
 10
0.0
 20
0.0
 30
0.0
  0
VERTEX
  5
4A39
330
4A38
100
AcDbEntity
  8
モデル
100
AcDbVertex
100
AcDb2dVertex
 10
143.7507512323837
 20
195.6684687329056
 30
0.0
  0
VERTEX
  5
4A3A
330
4A38
100
AcDbEntity
  8
モデル
100
AcDbVertex
100
AcDb2dVertex
 10
143.7507512323837
 20
158.2145512424612
 30
0.0
  0
SEQEND
  5
4A3B
330
4A38
100
AcDbEntity
  8
モデル
  0
POLYLINE
  5
4A3C
330
A
100
AcDbEntity
  8
モデル
100
AcDb2dPolyline
 66
     1
 10
0.0
 20
0.0
 30
0.0
  0
VERTEX
  5
4A3D
330
4A3C
100
AcDbEntity
  8
モデル
100
AcDbVertex
100
AcDb2dVertex
 10
146.2897882800014
 20
158.2145512424612
 30
0.0
  0
VERTEX
  5
4A3E
330
4A3C
100
AcDbEntity
  8
モデル
100
AcDbVertex
100
AcDb2dVertex
 10
133.7897882800014
 20
158.2145512424612
 30
0.0
  0
SEQEND
  5
4A3F
330
4A3C
100
AcDbEntity
  8
モデル
  0
POLYLINE
  5
4A40
330
A
100
AcDbEntity
  8
モデル
100
AcDb2dPolyline
 66
     1
 10
0.0
 20
0.0
 30
0.0
  0
VERTEX
  5
4A41
330
4A40
100
AcDbEntity
  8
モデル
100
AcDbVertex
100
AcDb2dVertex
 10
143.7507512323837
 20
195.6684687329056
 30
0.0
  0
VERTEX
  5
4A42
330
4A40
100
AcDbEntity
  8
モデル
100
AcDbVertex
100
AcDb2dVertex
 10
133.7897882800014
 20
195.6684687329056
 30
0.0
  0
SEQEND
  5
4A43
330
4A40
100
AcDbEntity
  8
モデル
  0
POLYLINE
  5
4A44
102
{ACAD_REACTORS
330
4BD0
102
}
330
A
100
AcDbEntity
  8
モデル
100
AcDb2dPolyline
 66
     1
 10
0.0
 20
0.0
 30
0.0
  0
VERTEX
  5
4A45
330
4A44
100
AcDbEntity
  8
モデル
100
AcDbVertex
100
AcDb2dVertex
 10
143.7507512323837
 20
95.76063375201643
 30
0.0
  0
VERTEX
  5
4A46
330
4A44
100
AcDbEntity
  8
モデル
100
AcDbVertex
100
AcDb2dVertex
 10
133.7897882800014
 20
95.76063375201643
 30
0.0
  0
SEQEND
  5
4A47
330
4A44
100
AcDbEntity
  8
モデル
  0
POLYLINE
  5
4A48
330
A
100
AcDbEntity
  8
モデル
100
AcDb2dPolyline
 66
     1
 10
0.0
 20
0.0
 30
0.0
  0
VERTEX
  5
4A49
330
4A48
100
AcDbEntity
  8
モデル
100
AcDbVertex
100
AcDb2dVertex
 10
121.2897882800016
 20
133.2145512424612
 30
0.0
  0
VERTEX
  5
4A4A
330
4A48
100
AcDbEntity
  8
モデル
100
AcDbVertex
100
AcDb2dVertex
 10
133.7897882800014
 20
133.2145512424612
 30
0.0
  0
SEQEND
  5
4A4B
330
4A48
100
AcDbEntity
  8
モデル
  0
POLYLINE
  5
4A4C
330
A
100
AcDbEntity
  8
モデル
100
AcDb2dPolyline
 66
     1
 10
0.0
 20
0.0
 30
0.0
  0
VERTEX
  5
4A4D
330
4A4C
100
AcDbEntity
  8
モデル
100
AcDbVertex
100
AcDb2dVertex
 10
146.2897882800014
 20
133.2145512424612
 30
0.0
  0
VERTEX
  5
4A4E
330
4A4C
100
AcDbEntity
  8
モデル
100
AcDbVertex
100
AcDb2dVertex
 10
133.7897882800014
 20
133.2145512424612
 30
0.0
  0
SEQEND
  5
4A4F
330
4A4C
100
AcDbEntity
  8
モデル
  0
LINE
  5
4A50
330
A
100
AcDbEntity
  8
モデル
100
AcDbLine
 10
351.3147438995865
 20
133.22607186985
 30
0.0
 11
351.3130213507067
 21
95.76063375201643
 31
0.0
  0
LINE
  5
4A51
330
A
100
AcDbEntity
  8
モデル
100
AcDbLine
 10
371.2119060006943
 20
133.22607186985
 30
0.0
 11
371.2119060006943
 21
95.76063375201643
 31
0.0
  0
LINE
  5
4A52
330
A
100
AcDbEntity
  8
モデル
100
AcDbLine
 10
348.7757068519686
 20
135.7651089174675
 30
0.0
 11
348.7757068519686
 21
133.22607186985
 31
0.0
  0
LINE
  5
4A53
330
A
100
AcDbEntity
  8
モデル
100
AcDbLine
 10
348.7757068519686
 20
158.2030306150724
 30
0.0
 11
348.7757068519686
 21
155.6605484696962
 31
0.0
  0
LINE
  5
4A54
330
A
100
AcDbEntity
  8
モデル
100
AcDbLine
 10
373.7509430483123
 20
158.2030306150724
 30
0.0
 11
373.7509430483123
 21
133.22607186985
 31
0.0
  0
LINE
  5
4A55
330
A
100
AcDbEntity
  8
モデル
100
AcDbLine
 10
348.7757068519686
 20
155.6605484696962
 30
0.0
 11
349.1994538761982
 21
154.8130544212382
 31
0.0
  0
LINE
  5
4A56
330
A
100
AcDbEntity
  8
モデル
100
AcDbLine
 10
349.1994538761982
 20
154.8130544212382
 30
0.0
 11
350.0452253757766
 21
153.9724505682954
 31
0.0
  0
LINE
  5
4A57
330
A
100
AcDbEntity
  8
モデル
100
AcDbLine
 10
350.0452253757766
 20
153.9724505682954
 30
0.0
 11
350.8927194242359
 21
152.6977643978495
 31
0.0
  0
LINE
  5
4A58
330
A
100
AcDbEntity
  8
モデル
100
AcDbLine
 10
350.8927194242359
 20
152.6977643978495
 30
0.0
 11
351.7384909238143
 21
151.4265233251614
 31
0.0
  0
LINE
  5
4A59
330
A
100
AcDbEntity
  8
モデル
100
AcDbLine
 10
351.7384909238143
 20
151.4265233251614
 30
0.0
 11
352.5859849722746
 21
149.7349803260023
 31
0.0
  0
LINE
  5
4A5A
330
A
100
AcDbEntity
  8
モデル
100
AcDbLine
 10
352.5859849722746
 20
149.7349803260023
 30
0.0
 11
353.4317564718539
 21
147.619690302614
 31
0.0
  0
LINE
  5
4A5B
330
A
100
AcDbEntity
  8
モデル
100
AcDbLine
 10
353.4317564718539
 20
147.619690302614
 30
0.0
 11
353.4317564718539
 21
145.9247022056967
 31
0.0
  0
LINE
  5
4A5C
330
A
100
AcDbEntity
  8
モデル
100
AcDbLine
 10
353.4317564718539
 20
145.9247022056967
 30
0.0
 11
353.4317564718539
 21
143.8094121823084
 31
0.0
  0
LINE
  5
4A5D
330
A
100
AcDbEntity
  8
モデル
100
AcDbLine
 10
353.4317564718539
 20
143.8094121823084
 30
0.0
 11
352.5859849722746
 21
142.1144240853911
 31
0.0
  0
LINE
  5
4A5E
330
A
100
AcDbEntity
  8
モデル
100
AcDbLine
 10
352.5859849722746
 20
142.1144240853911
 30
0.0
 11
351.7384909238143
 21
140.422881086232
 31
0.0
  0
LINE
  5
4A5F
330
A
100
AcDbEntity
  8
モデル
100
AcDbLine
 10
351.7384909238143
 20
140.422881086232
 30
0.0
 11
350.8927194242359
 21
138.7278929893147
 31
0.0
  0
LINE
  5
4A60
330
A
100
AcDbEntity
  8
モデル
100
AcDbLine
 10
350.8927194242359
 20
138.7278929893147
 30
0.0
 11
350.0452253757766
 21
137.456651916627
 31
0.0
  0
LINE
  5
4A61
330
A
100
AcDbEntity
  8
モデル
100
AcDbLine
 10
350.0452253757766
 20
137.456651916627
 30
0.0
 11
349.1994538761982
 21
136.6126029659264
 31
0.0
  0
LINE
  5
4A62
330
A
100
AcDbEntity
  8
モデル
100
AcDbLine
 10
349.1994538761982
 20
136.6126029659264
 30
0.0
 11
348.7757068519686
 21
136.1888559416967
 31
0.0
  0
LINE
  5
4A63
330
A
100
AcDbEntity
  8
モデル
100
AcDbLine
 10
348.7757068519686
 20
136.1888559416967
 30
0.0
 11
348.7757068519686
 21
135.7651089174675
 31
0.0
  0
LINE
  5
4A64
330
A
100
AcDbEntity
  8
モデル
100
AcDbLine
 10
351.3147438995865
 20
195.6684687329056
 30
0.0
 11
351.3147438995865
 21
158.2030306150724
 31
0.0
  0
LINE
  5
4A65
330
A
100
AcDbEntity
  8
モデル
100
AcDbLine
 10
371.2119060006943
 20
195.6684687329056
 30
0.0
 11
371.2119060006943
 21
158.2030306150724
 31
0.0
  0
LINE
  5
4A66
330
A
100
AcDbEntity
  8
モデル
100
AcDbLine
 10
348.7757068519686
 20
133.22607186985
 30
0.0
 11
373.7526655971905
 21
133.22607186985
 31
0.0
  0
LINE
  5
4A67
330
A
100
AcDbEntity
  8
モデル
100
AcDbLine
 10
348.7757068519686
 20
158.2030306150724
 30
0.0
 11
373.7526655971905
 21
158.2030306150724
 31
0.0
  0
LINE
  5
4A68
330
A
100
AcDbEntity
  8
モデル
100
AcDbLine
 10
314.7952463131532
 20
135.7651089174675
 30
0.0
 11
348.7757068519686
 21
135.7651089174675
 31
0.0
  0
LINE
  5
4A69
330
A
100
AcDbEntity
  8
モデル
100
AcDbLine
 10
314.7952463131532
 20
155.6605484696962
 30
0.0
 11
348.7757068519686
 21
155.6605484696962
 31
0.0
  0
LINE
  5
4A6A
330
A
100
AcDbEntity
  8
モデル
100
AcDbLine
 10
311.8324622413055
 20
133.0159209066141
 30
0.0
 11
314.7952463131532
 21
133.0159209066141
 31
0.0
  0
LINE
  5
4A6B
330
A
100
AcDbEntity
  8
モデル
100
AcDbLine
 10
311.8324622413055
 20
157.9928796518365
 30
0.0
 11
314.7952463131532
 21
157.9928796518365
 31
0.0
  0
LINE
  5
4A6C
330
A
100
AcDbEntity
  8
モデル
100
AcDbLine
 10
314.7952463131532
 20
133.0159209066141
 30
0.0
 11
314.7952463131532
 21
157.9928796518365
 31
0.0
  0
POLYLINE
  5
4A7B
330
A
100
AcDbEntity
  8
モデル
100
AcDb2dPolyline
 66
     1
 10
0.0
 20
0.0
 30
0.0
  0
VERTEX
  5
4FEC
330
4A7B
100
AcDbEntity
  8
モデル
100
AcDbVertex
100
AcDb2dVertex
 10
292.820010116809
 20
120.7375924972392
 30
0.0
  0
VERTEX
  5
4FED
330
4A7B
100
AcDbEntity
  8
モデル
100
AcDbVertex
100
AcDb2dVertex
 10
292.7810716397771
 20
120.7375924972392
 30
0.0
  0
SEQEND
  5
4FEF
330
4A7B
100
AcDbEntity
  8
モデル
  0
POLYLINE
  5
4A7F
330
A
100
AcDbEntity
  8
モデル
100
AcDb2dPolyline
 66
     1
 10
0.0
 20
0.0
 30
0.0
  0
VERTEX
  5
4FEA
330
4A7F
100
AcDbEntity
  8
モデル
100
AcDbVertex
100
AcDb2dVertex
 10
292.820010116809
 20
170.6915099876832
 30
0.0
  0
VERTEX
  5
4FEB
330
4A7F
100
AcDbEntity
  8
モデル
100
AcDbVertex
100
AcDb2dVertex
 10
292.7810716397771
 20
170.6915099876832
 30
0.0
  0
SEQEND
  5
4FEE
330
4A7F
100
AcDbEntity
  8
モデル
  0
POLYLINE
  5
4A84
330
A
100
AcDbEntity
  8
モデル
100
AcDb2dPolyline
 66
     1
 10
0.0
 20
0.0
 30
0.0
  0
VERTEX
  5
4A85
330
4A84
100
AcDbEntity
  8
モデル
100
AcDbVertex
100
AcDb2dVertex
 10
250.3360059096501
 20
195.6684687329056
 30
0.0
  0
VERTEX
  5
4A86
330
4A84
100
AcDbEntity
  8
モデル
100
AcDbVertex
100
AcDb2dVertex
 10
230.4371212596624
 20
195.6684687329056
 30
0.0
  0
SEQEND
  5
4A87
330
4A84
100
AcDbEntity
  8
モデル
  0
POLYLINE
  5
4A88
330
A
100
AcDbEntity
  8
モデル
100
AcDb2dPolyline
 66
     1
 10
0.0
 20
0.0
 30
0.0
  0
VERTEX
  5
4FF2
330
4A88
100
AcDbEntity
  8
モデル
100
AcDbVertex
100
AcDb2dVertex
 10
292.820010116809
 20
120.7375924972392
 30
0.0
  0
VERTEX
  5
4FF3
330
4A88
100
AcDbEntity
  8
モデル
100
AcDbVertex
100
AcDb2dVertex
 10
289.820010116809
 20
120.7375924972392
 30
0.0
  0
SEQEND
  5
4FF4
330
4A88
100
AcDbEntity
  8
モデル
  0
LINE
  5
4A91
330
A
100
AcDbEntity
  8
モデル
100
AcDbLine
 10
250.3342833607702
 20
133.22607186985
 30
0.0
 11
250.3360059096501
 21
95.76063375201643
 31
0.0
  0
LINE
  5
4A92
330
A
100
AcDbEntity
  8
モデル
100
AcDbLine
 10
252.8733204083882
 20
135.7651089174675
 30
0.0
 11
252.8733204083882
 21
133.22607186985
 31
0.0
  0
LINE
  5
4A93
330
A
100
AcDbEntity
  8
モデル
100
AcDbLine
 10
252.8733204083882
 20
158.2030306150724
 30
0.0
 11
252.8733204083882
 21
155.6605484696962
 31
0.0
  0
LINE
  5
4A94
330
A
100
AcDbEntity
  8
モデル
100
AcDbLine
 10
227.8980842120446
 20
158.2030306150724
 30
0.0
 11
227.8980842120446
 21
133.22607186985
 31
0.0
  0
LINE
  5
4A95
330
A
100
AcDbEntity
  8
モデル
100
AcDbLine
 10
252.8733204083882
 20
155.6605484696962
 30
0.0
 11
252.4495733841586
 21
154.8130544212382
 31
0.0
  0
LINE
  5
4A96
330
A
100
AcDbEntity
  8
モデル
100
AcDbLine
 10
252.4495733841586
 20
154.8130544212382
 30
0.0
 11
251.6038018845802
 21
153.9724505682954
 31
0.0
  0
LINE
  5
4A97
330
A
100
AcDbEntity
  8
モデル
100
AcDbLine
 10
251.6038018845802
 20
153.9724505682954
 30
0.0
 11
250.7563078361208
 21
152.6977643978495
 31
0.0
  0
LINE
  5
4A98
330
A
100
AcDbEntity
  8
モデル
100
AcDbLine
 10
250.7563078361208
 20
152.6977643978495
 30
0.0
 11
249.9105363365424
 21
151.4265233251614
 31
0.0
  0
LINE
  5
4A99
330
A
100
AcDbEntity
  8
モデル
100
AcDbLine
 10
249.9105363365424
 20
151.4265233251614
 30
0.0
 11
249.0630422880821
 21
149.7349803260023
 31
0.0
  0
LINE
  5
4A9A
330
A
100
AcDbEntity
  8
モデル
100
AcDbLine
 10
249.0630422880821
 20
149.7349803260023
 30
0.0
 11
248.2172707885028
 21
147.619690302614
 31
0.0
  0
LINE
  5
4A9B
330
A
100
AcDbEntity
  8
モデル
100
AcDbLine
 10
248.2172707885028
 20
147.619690302614
 30
0.0
 11
248.2172707885028
 21
145.9247022056967
 31
0.0
  0
LINE
  5
4A9C
330
A
100
AcDbEntity
  8
モデル
100
AcDbLine
 10
248.2172707885028
 20
145.9247022056967
 30
0.0
 11
248.2172707885028
 21
143.8094121823084
 31
0.0
  0
LINE
  5
4A9D
330
A
100
AcDbEntity
  8
モデル
100
AcDbLine
 10
248.2172707885028
 20
143.8094121823084
 30
0.0
 11
249.0630422880821
 21
142.1144240853911
 31
0.0
  0
LINE
  5
4A9E
330
A
100
AcDbEntity
  8
モデル
100
AcDbLine
 10
249.0630422880821
 20
142.1144240853911
 30
0.0
 11
249.9105363365424
 21
140.422881086232
 31
0.0
  0
LINE
  5
4A9F
330
A
100
AcDbEntity
  8
モデル
100
AcDbLine
 10
249.9105363365424
 20
140.422881086232
 30
0.0
 11
250.7563078361208
 21
138.7278929893147
 31
0.0
  0
LINE
  5
4AA0
330
A
100
AcDbEntity
  8
モデル
100
AcDbLine
 10
250.7563078361208
 20
138.7278929893147
 30
0.0
 11
251.6038018845802
 21
137.456651916627
 31
0.0
  0
LINE
  5
4AA1
330
A
100
AcDbEntity
  8
モデル
100
AcDbLine
 10
251.6038018845802
 20
137.456651916627
 30
0.0
 11
252.4495733841586
 21
136.6126029659264
 31
0.0
  0
LINE
  5
4AA2
330
A
100
AcDbEntity
  8
モデル
100
AcDbLine
 10
252.4495733841586
 20
136.6126029659264
 30
0.0
 11
252.8733204083882
 21
136.1888559416967
 31
0.0
  0
LINE
  5
4AA3
330
A
100
AcDbEntity
  8
モデル
100
AcDbLine
 10
252.8733204083882
 20
136.1888559416967
 30
0.0
 11
252.8733204083882
 21
135.7651089174675
 31
0.0
  0
LINE
  5
4AA4
330
A
100
AcDbEntity
  8
モデル
100
AcDbLine
 10
252.8733204083882
 20
133.22607186985
 30
0.0
 11
227.8963616631662
 21
133.22607186985
 31
0.0
  0
LINE
  5
4AA5
330
A
100
AcDbEntity
  8
モデル
100
AcDbLine
 10
252.8733204083882
 20
158.2030306150724
 30
0.0
 11
227.8963616631662
 21
158.2030306150724
 31
0.0
  0
LINE
  5
4AA6
330
A
100
AcDbEntity
  8
モデル
100
AcDbLine
 10
289.8165650190512
 20
133.0159209066141
 30
0.0
 11
286.8537809472035
 21
133.0159209066141
 31
0.0
  0
LINE
  5
4AA7
330
A
100
AcDbEntity
  8
モデル
100
AcDbLine
 10
289.8165650190512
 20
157.9928796518365
 30
0.0
 11
286.8537809472035
 21
157.9928796518365
 31
0.0
  0
LINE
  5
4AA8
330
A
100
AcDbEntity
  8
モデル
100
AcDbLine
 10
286.8537809472035
 20
133.0159209066141
 30
0.0
 11
286.8537809472035
 21
157.9928796518365
 31
0.0
  0
LINE
  5
4AA9
330
A
100
AcDbEntity
  8
モデル
100
AcDbLine
 10
250.3342833607702
 20
195.6684687329056
 30
0.0
 11
250.3342833607702
 21
158.2030306150724
 31
0.0
  0
LINE
  5
4AAA
330
A
100
AcDbEntity
  8
モデル
100
AcDbLine
 10
230.4371212596624
 20
195.6684687329056
 30
0.0
 11
230.4371212596624
 21
158.2030306150724
 31
0.0
  0
POLYLINE
  5
4AAB
330
A
100
AcDbEntity
  8
モデル
100
AcDb2dPolyline
 66
     1
 10
0.0
 20
0.0
 30
0.0
  0
VERTEX
  5
4AAC
330
4AAB
100
AcDbEntity
  8
モデル
100
AcDbVertex
100
AcDb2dVertex
 10
250.3360059096501
 20
95.76063375201643
 30
0.0
  0
VERTEX
  5
4AAD
330
4AAB
100
AcDbEntity
  8
モデル
100
AcDbVertex
100
AcDb2dVertex
 10
230.4371212596624
 20
95.76063375201643
 30
0.0
  0
SEQEND
  5
4AAE
330
4AAB
100
AcDbEntity
  8
モデル
  0
LINE
  5
4AAF
330
A
100
AcDbEntity
  8
モデル
100
AcDbLine
 10
230.4371212596624
 20
133.22607186985
 30
0.0
 11
230.4371212596624
 21
95.76063375201643
 31
0.0
  0
LINE
  5
4AB0
330
A
100
AcDbEntity
  8
モデル
100
AcDbLine
 10
282.1977313273183
 20
135.7651089174675
 30
0.0
 11
252.8733204083882
 21
135.7651089174675
 31
0.0
  0
LINE
  5
4AB1
330
A
100
AcDbEntity
  8
モデル
100
AcDbLine
 10
286.8537809472035
 20
155.6605484696962
 30
0.0
 11
252.8733204083882
 21
155.6605484696962
 31
0.0
  0
LINE
  5
4AB5
330
A
100
AcDbEntity
  8
モデル
100
AcDbLine
 10
282.1977313273183
 20
135.7651089174675
 30
0.0
 11
286.8537809472035
 21
135.7651089174675
 31
0.0
  0
DIMENSION
  5
4B57
102
{ACAD_REACTORS
330
4B59
102
}
102
{ACAD_XDICTIONARY
360
4B58
102
}
330
A
100
AcDbEntity
  8
寸法
100
AcDbDimension
  2
*D9
 10
181.6722792153189
 20
314.6165678074997
 30
0.0
 11
174.1722792153189
 21
282.3293309419719
 31
0.0
 70
    32
 71
     5
 42
64.5744737310556
 73
     0
 74
     0
 75
     0
  3
tfrom線あり
100
AcDbAlignedDimension
 13
133.7897882800014
 23
250.0420940764441
 33
0.0
 14
158.9786205373379
 24
314.6165678074997
 34
0.0
 50
90.0
100
AcDbRotatedDimension
  0
DIMENSION
  5
4BCE
102
{ACAD_REACTORS
330
4BD0
102
}
102
{ACAD_XDICTIONARY
360
4BCF
102
}
330
A
100
AcDbEntity
  8
寸法
100
AcDbDimension
  2
*D10
 10
181.6722792153189
 20
95.76063375201643
 30
0.0
 11
174.1722792153189
 21
145.714551242461
 31
0.0
 70
    32
 71
     5
 42
99.9078349808892
 73
     0
 74
     0
 75
     0
  3
tfrom線あり
100
AcDbAlignedDimension
 13
143.7507512323837
 23
195.6684687329056
 33
0.0
 14
143.7507512323837
 24
95.76063375201643
 34
0.0
 50
90.0
100
AcDbRotatedDimension
  0
TEXT
  5
4C1A
330
A
100
AcDbEntity
  8
テンプレート
100
AcDbText
 10
313.0171205424464
 20
41.53478165004991
 30
0.0
 40
5.5
  1
ガラス厚　19・15・12・10・8mm
  7
ＭＳ ゴシック
100
AcDbText
  0
LINE
  5
4CC2
330
A
100
AcDbEntity
  8
モデル
100
AcDbLine
 10
496.3164245360717
 20
285.9535605372562
 30
0.0
 11
496.3164245360717
 21
272.9535605372562
 31
0.0
  0
LINE
  5
4CC4
330
A
100
AcDbEntity
  8
モデル
100
AcDbLine
 10
436.880306938363
 20
283.4535605372562
 30
0.0
 11
472.3164245360717
 21
283.4535605372562
 31
0.0
  0
LINE
  5
4CCE
330
A
100
AcDbEntity
  8
モデル
100
AcDbLine
 10
483.3164245360717
 20
285.9535605372562
 30
0.0
 11
484.3164245360717
 21
283.9535605372563
 31
0.0
  0
LINE
  5
4CCF
330
A
100
AcDbEntity
  8
モデル
100
AcDbLine
 10
490.3164245360717
 20
285.9535605372562
 30
0.0
 11
487.3164245360717
 21
283.9535605372563
 31
0.0
  0
LINE
  5
4CD0
330
A
100
AcDbEntity
  8
モデル
100
AcDbLine
 10
484.3164245360717
 20
283.9535605372563
 30
0.0
 11
487.3164245360717
 21
283.9535605372563
 31
0.0
  0
LINE
  5
4CD2
330
A
100
AcDbEntity
  8
モデル
100
AcDbLine
 10
490.3164245360717
 20
285.9535605372562
 30
0.0
 11
496.3164245360717
 21
285.9535605372562
 31
0.0
  0
LINE
  5
4CD3
330
A
100
AcDbEntity
  8
モデル
100
AcDbLine
 10
472.3164245360717
 20
285.9535605372562
 30
0.0
 11
483.3164245360717
 21
285.9535605372562
 31
0.0
  0
LINE
  5
4CD4
330
A
100
AcDbEntity
  8
モデル
100
AcDbLine
 10
472.3164245360718
 20
275.4535605372562
 30
0.0
 11
436.8803069383632
 21
275.4535605372562
 31
0.0
  0
LINE
  5
4CD7
330
A
100
AcDbEntity
  8
モデル
100
AcDbLine
 10
490.3164245360717
 20
272.9535605372562
 30
0.0
 11
490.3164245360717
 21
285.9535605372562
 31
0.0
  0
LINE
  5
4CD8
330
A
100
AcDbEntity
  8
モデル
100
AcDbLine
 10
483.3164245360717
 20
272.9535605372562
 30
0.0
 11
483.3164245360717
 21
285.9535605372562
 31
0.0
  0
LINE
  5
4CDB
330
A
100
AcDbEntity
  8
モデル
100
AcDbLine
 10
436.3164245360718
 20
275.7595121135796
 30
0.0
 11
436.8803069383632
 21
275.4535605372562
 31
0.0
  0
LINE
  5
4CDC
330
A
100
AcDbEntity
  8
モデル
100
AcDbLine
 10
436.3164245360717
 20
283.1476089609325
 30
0.0
 11
436.880306938363
 21
283.4535605372562
 31
0.0
  0
LINE
  5
4CDD
330
A
100
AcDbEntity
  8
モデル
100
AcDbLine
 10
436.3164245360717
 20
283.1476089609325
 30
0.0
 11
436.3164245360717
 21
275.7595121135797
 31
0.0
  0
DIMENSION
  5
4CDE
330
A
100
AcDbEntity
  8
寸法
100
AcDbDimension
  2
*D11
 10
472.3164245360717
 20
256.8029071811368
 30
0.0
 11
484.3164245360717
 21
264.3029071811368
 31
0.0
 70
    32
 71
     5
 42
24.0
 73
     0
 74
     0
 75
     0
  3
tfrom線あり
100
AcDbAlignedDimension
 13
496.3164245360717
 23
274.4466134432978
 33
0.0
 14
472.3164245360717
 24
270.9535605372562
 34
0.0
 50
-0.000000000000014
100
AcDbRotatedDimension
  0
LINE
  5
4CE1
330
A
100
AcDbEntity
  8
モデル
100
AcDbLine
 10
442.5281618307796
 20
275.4535605372562
 30
0.0
 11
441.1175459851119
 21
283.4535605372562
 31
0.0
1001
ACAD
1010
0.0
1020
0.0
1030
0.0
  0
LINE
  5
4CE2
330
A
100
AcDbEntity
  8
モデル
100
AcDbLine
 10
444.1401515771483
 20
275.4535605372562
 30
0.0
 11
442.7295357314807
 21
283.4535605372562
 31
0.0
1001
ACAD
1010
0.0
1020
0.0
1030
0.0
  0
LINE
  5
4CE3
330
A
100
AcDbEntity
  8
モデル
100
AcDbLine
 10
445.752141323517
 20
275.4535605372562
 30
0.0
 11
444.3415254778492
 21
283.4535605372562
 31
0.0
1001
ACAD
1010
0.0
1020
0.0
1030
0.0
  0
LINE
  5
4CE4
330
A
100
AcDbEntity
  8
モデル
100
AcDbLine
 10
447.3641310698856
 20
275.4535605372562
 30
0.0
 11
445.9535152242178
 21
283.4535605372562
 31
0.0
1001
ACAD
1010
0.0
1020
0.0
1030
0.0
  0
LINE
  5
4CE5
330
A
100
AcDbEntity
  8
モデル
100
AcDbLine
 10
448.9761208162541
 20
275.4535605372562
 30
0.0
 11
447.5655049705865
 21
283.4535605372562
 31
0.0
1001
ACAD
1010
0.0
1020
0.0
1030
0.0
  0
LINE
  5
4CE6
330
A
100
AcDbEntity
  8
モデル
100
AcDbLine
 10
450.5881105626229
 20
275.4535605372562
 30
0.0
 11
449.1774947169552
 21
283.4535605372562
 31
0.0
1001
ACAD
1010
0.0
1020
0.0
1030
0.0
  0
LINE
  5
4CE7
330
A
100
AcDbEntity
  8
モデル
100
AcDbLine
 10
452.2001003089915
 20
275.4535605372562
 30
0.0
 11
450.7894844633237
 21
283.4535605372562
 31
0.0
1001
ACAD
1010
0.0
1020
0.0
1030
0.0
  0
LINE
  5
4CE8
330
A
100
AcDbEntity
  8
モデル
100
AcDbLine
 10
453.81209005536
 20
275.4535605372562
 30
0.0
 11
452.4014742096923
 21
283.4535605372562
 31
0.0
1001
ACAD
1010
0.0
1020
0.0
1030
0.0
  0
LINE
  5
4CE9
330
A
100
AcDbEntity
  8
モデル
100
AcDbLine
 10
455.4240798017287
 20
275.4535605372562
 30
0.0
 11
454.0134639560609
 21
283.4535605372562
 31
0.0
1001
ACAD
1010
0.0
1020
0.0
1030
0.0
  0
LINE
  5
4CEA
330
A
100
AcDbEntity
  8
モデル
100
AcDbLine
 10
457.0360695480974
 20
275.4535605372562
 30
0.0
 11
455.6254537024296
 21
283.4535605372562
 31
0.0
1001
ACAD
1010
0.0
1020
0.0
1030
0.0
  0
LINE
  5
4CEB
330
A
100
AcDbEntity
  8
モデル
100
AcDbLine
 10
458.648059294466
 20
275.4535605372562
 30
0.0
 11
457.2374434487982
 21
283.4535605372562
 31
0.0
1001
ACAD
1010
0.0
1020
0.0
1030
0.0
  0
LINE
  5
4CEC
330
A
100
AcDbEntity
  8
モデル
100
AcDbLine
 10
460.2600490408346
 20
275.4535605372562
 30
0.0
 11
458.8494331951669
 21
283.4535605372562
 31
0.0
1001
ACAD
1010
0.0
1020
0.0
1030
0.0
  0
LINE
  5
4CED
330
A
100
AcDbEntity
  8
モデル
100
AcDbLine
 10
461.8720387872031
 20
275.4535605372562
 30
0.0
 11
460.4614229415355
 21
283.4535605372562
 31
0.0
1001
ACAD
1010
0.0
1020
0.0
1030
0.0
  0
LINE
  5
4CEE
330
A
100
AcDbEntity
  8
モデル
100
AcDbLine
 10
463.4840285335717
 20
275.4535605372562
 30
0.0
 11
462.073412687904
 21
283.4535605372562
 31
0.0
1001
ACAD
1010
0.0
1020
0.0
1030
0.0
  0
LINE
  5
4CEF
330
A
100
AcDbEntity
  8
モデル
100
AcDbLine
 10
465.0960182799404
 20
275.4535605372562
 30
0.0
 11
463.6854024342726
 21
283.4535605372562
 31
0.0
1001
ACAD
1010
0.0
1020
0.0
1030
0.0
  0
LINE
  5
4CF0
330
A
100
AcDbEntity
  8
モデル
100
AcDbLine
 10
466.708008026309
 20
275.4535605372562
 30
0.0
 11
465.2973921806412
 21
283.4535605372562
 31
0.0
1001
ACAD
1010
0.0
1020
0.0
1030
0.0
  0
LINE
  5
4CF1
330
A
100
AcDbEntity
  8
モデル
100
AcDbLine
 10
468.3199977726777
 20
275.4535605372562
 30
0.0
 11
466.9093819270099
 21
283.4535605372562
 31
0.0
1001
ACAD
1010
0.0
1020
0.0
1030
0.0
  0
LINE
  5
4CF2
330
A
100
AcDbEntity
  8
モデル
100
AcDbLine
 10
469.9319875190463
 20
275.4535605372562
 30
0.0
 11
468.5213716733786
 21
283.4535605372562
 31
0.0
1001
ACAD
1010
0.0
1020
0.0
1030
0.0
  0
LINE
  5
4CF3
330
A
100
AcDbEntity
  8
モデル
100
AcDbLine
 10
471.5439772654148
 20
275.4535605372562
 30
0.0
 11
470.133361419747
 21
283.4535605372562
 31
0.0
1001
ACAD
1010
0.0
1020
0.0
1030
0.0
  0
LINE
  5
4CF4
330
A
100
AcDbEntity
  8
モデル
100
AcDbLine
 10
436.880306938363
 20
275.4535605372562
 30
0.0
 11
436.880306938363
 21
283.4535605372562
 31
0.0
  0
DIMENSION
  5
4CF5
330
A
100
AcDbEntity
  8
寸法
100
AcDbDimension
  2
*D12
 10
421.4928249901114
 20
275.4535605372562
 30
0.0
 11
421.4928249901114
 21
279.4535605372562
 31
0.0
 70
   160
 71
     5
 42
8.003801942842756
 73
     0
 74
     0
 75
     0
  3
tfrom線あり
100
AcDbAlignedDimension
 13
438.0247104681174
 23
283.4573624800989
 33
0.0
 14
438.1118278080456
 24
275.4535605372562
 34
0.0
 50
90.0
100
AcDbRotatedDimension
1001
ACAD
1000
DSTYLE
1002
{
1070
     3
1000
M<>
1002
}
  0
TEXT
  5
4CF6
330
A
100
AcDbEntity
  8
テンプレート
100
AcDbText
 10
446.207637129068
 20
297.3597764361314
 30
0.0
 40
6.0
  1
<取付部品>
  7
ＭＳ ゴシック
100
AcDbText
  0
LINE
  5
4CF7
330
A
100
AcDbEntity
  8
寸法
  6
CENTER
100
AcDbLine
 10
466.3019666633759
 20
173.5575320340424
 30
0.0
 11
466.3019666633759
 21
210.250081580788
 31
0.0
  0
CIRCLE
  5
4CF8
102
{ACAD_REACTORS
330
4CF9
102
}
330
A
100
AcDbEntity
  8
寸法
100
AcDbCircle
 10
466.3019666633759
 20
191.9038068074152
 30
0.0
 40
7.5
  0
HATCH
  5
4CF9
330
A
100
AcDbEntity
  8
寸法
100
AcDbHatch
 10
0.0
 20
0.0
 30
0.0
210
0.0
220
0.0
230
1.0
  2
ANSI31
 70
     0
 71
     1
 91
        1
 92
        1
 93
        1
 72
     2
 10
466.3019666633759
 20
191.9038068074152
 40
7.5
 50
0.0
 51
360.0
 73
     1
 97
        1
330
4CF8
 75
     0
 76
     1
 52
0.0
 41
1.0
 77
     0
 78
     1
 53
45.0
 43
-40.52035685497714
 44
24.33346157221291
 45
-2.245064030267288
 46
2.245064030267288
 79
     0
 98
        1
 10
-40.52035685497714
 20
24.33346157221291
1001
ACAD
1010
0.0
1020
0.0
1030
0.0
  0
LINE
  5
4CFA
330
A
100
AcDbEntity
  8
寸法
  6
CENTER
100
AcDbLine
 10
484.6482414367487
 20
191.9038068074152
 30
0.0
 11
447.955691890003
 21
191.9038068074152
 31
0.0
  0
LINE
  5
4CFB
330
A
100
AcDbEntity
  8
寸法
100
AcDbLine
 10
472.4813735510095
 20
186.0672898223406
 30
0.0
 11
485.1971786316232
 21
169.7801698843694
 31
0.0
  0
LINE
  5
4CFC
330
A
100
AcDbEntity
  8
寸法
100
AcDbLine
 10
485.1971786316232
 20
169.7801698843694
 30
0.0
 11
503.3986996432426
 21
169.7801698843694
 31
0.0
  0
TEXT
  5
4CFD
330
A
100
AcDbEntity
  8
テンプレート
100
AcDbText
 10
488.2394446357146
 20
172.8205490838579
 30
0.0
 40
5.5
  1
%%c15
  7
ＭＳ ゴシック
100
AcDbText
  0
TEXT
  5
4CFE
330
A
100
AcDbEntity
  8
テンプレート
100
AcDbText
 10
440.1330933042037
 20
223.5539336432231
 30
0.0
 40
5.5
  1
ガラス扉用下穴
  7
ＭＳ ゴシック
100
AcDbText
  0
POLYLINE
  5
4D2F
330
A
100
AcDbEntity
  8
モデル
100
AcDb2dPolyline
 66
     1
 10
0.0
 20
0.0
 30
0.0
  0
VERTEX
  5
4D30
330
4D2F
100
AcDbEntity
  8
モデル
100
AcDbVertex
100
AcDb2dVertex
 10
123.842068503887
 20
331.2278091544025
 30
0.0
  0
VERTEX
  5
4D31
330
4D2F
100
AcDbEntity
  8
モデル
100
AcDbVertex
100
AcDb2dVertex
 10
123.842068503887
 20
334.1905932262493
 30
0.0
  0
SEQEND
  5
4D32
330
4D2F
100
AcDbEntity
  8
モデル
  0
POLYLINE
  5
4D33
330
A
100
AcDbEntity
  8
モデル
100
AcDb2dPolyline
 66
     1
 10
0.0
 20
0.0
 30
0.0
  0
VERTEX
  5
4D34
330
4D33
100
AcDbEntity
  8
モデル
100
AcDbVertex
100
AcDb2dVertex
 10
143.7375080561157
 20
331.2278091544025
 30
0.0
  0
VERTEX
  5
4D35
330
4D33
100
AcDbEntity
  8
モデル
100
AcDbVertex
100
AcDb2dVertex
 10
143.7375080561157
 20
334.1905932262493
 30
0.0
  0
SEQEND
  5
4D36
330
4D33
100
AcDbEntity
  8
モデル
  0
POLYLINE
  5
4D37
330
A
100
AcDbEntity
  8
モデル
100
AcDb2dPolyline
 66
     1
 10
0.0
 20
0.0
 30
0.0
  0
VERTEX
  5
4D38
330
4D37
100
AcDbEntity
  8
モデル
100
AcDbVertex
100
AcDb2dVertex
 10
126.3811055515048
 20
334.1905932262493
 30
0.0
  0
VERTEX
  5
4D39
330
4D37
100
AcDbEntity
  8
モデル
100
AcDbVertex
100
AcDb2dVertex
 10
126.3811055515048
 20
370.2699353726404
 30
0.0
  0
SEQEND
  5
4D3A
330
4D37
100
AcDbEntity
  8
モデル
  0
POLYLINE
  5
4D3B
330
A
100
AcDbEntity
  8
モデル
100
AcDb2dPolyline
 66
     1
 10
0.0
 20
0.0
 30
0.0
  0
VERTEX
  5
4D3C
330
4D3B
100
AcDbEntity
  8
モデル
100
AcDbVertex
100
AcDb2dVertex
 10
141.198471008498
 20
334.1905932262493
 30
0.0
  0
VERTEX
  5
4D3D
330
4D3B
100
AcDbEntity
  8
モデル
100
AcDbVertex
100
AcDb2dVertex
 10
141.198471008498
 20
370.2699353726403
 30
0.0
  0
SEQEND
  5
4D3E
330
4D3B
100
AcDbEntity
  8
モデル
  0
POLYLINE
  5
4D3F
330
A
100
AcDbEntity
  8
モデル
100
AcDb2dPolyline
 66
     1
 10
0.0
 20
0.0
 30
0.0
  0
VERTEX
  5
4D40
330
4D3F
100
AcDbEntity
  8
モデル
100
AcDbVertex
100
AcDb2dVertex
 10
123.842068503887
 20
334.1905932262493
 30
0.0
  0
VERTEX
  5
4D41
330
4D3F
100
AcDbEntity
  8
モデル
100
AcDbVertex
100
AcDb2dVertex
 10
143.7375080561157
 20
334.1905932262493
 30
0.0
  0
SEQEND
  5
4D42
330
4D3F
100
AcDbEntity
  8
モデル
  0
LINE
  5
4D43
330
A
100
AcDbEntity
  8
モデル
100
AcDbLine
 10
126.3811055515048
 20
334.1905932262493
 30
0.0
 11
141.198471008498
 21
334.1905932262493
 31
0.0
  0
CIRCLE
  5
4D44
330
A
100
AcDbEntity
  8
モデル
100
AcDbCircle
 10
133.7897882800014
 20
380.337776264732
 30
0.0
 40
9.948146843931667
  0
CIRCLE
  5
4D45
102
{ACAD_REACTORS
330
4B59
102
}
330
A
100
AcDbEntity
  8
モデル
100
AcDbCircle
 10
133.7897882800014
 20
380.337776264732
 30
0.0
 40
12.5
  0
LINE
  5
4D5D
330
A
100
AcDbEntity
  8
寸法
100
AcDbLine
 10
109.024703046894
 20
314.6148452586211
 30
0.0
 11
158.9786205373379
 21
314.6165678074997
 31
0.0
  0
POLYLINE
  5
4D66
102
{ACAD_REACTORS
330
4A20
330
4A23
102
}
330
A
100
AcDbEntity
  8
モデル
100
AcDb2dPolyline
 66
     1
 10
0.0
 20
0.0
 30
0.0
  0
VERTEX
  5
4D67
330
4D66
100
AcDbEntity
  8
モデル
100
AcDbVertex
100
AcDb2dVertex
 10
158.9786205373379
 20
314.6165678074997
 30
0.0
  0
VERTEX
  5
4D68
330
4D66
100
AcDbEntity
  8
モデル
100
AcDbVertex
100
AcDb2dVertex
 10
158.9786205373379
 20
311.6537837356528
 30
0.0
  0
SEQEND
  5
4D69
330
4D66
100
AcDbEntity
  8
モデル
  0
POLYLINE
  5
4D6A
330
A
100
AcDbEntity
  8
モデル
100
AcDb2dPolyline
 66
     1
 10
0.0
 20
0.0
 30
0.0
  0
VERTEX
  5
4D6B
330
4D6A
100
AcDbEntity
  8
モデル
100
AcDbVertex
100
AcDb2dVertex
 10
158.9786205373379
 20
314.6537837356528
 30
0.0
  0
VERTEX
  5
4D6C
330
4D6A
100
AcDbEntity
  8
モデル
100
AcDbVertex
100
AcDb2dVertex
 10
158.9786205373379
 20
314.6148452586211
 30
0.0
  0
SEQEND
  5
4D6D
330
4D6A
100
AcDbEntity
  8
モデル
  0
LINE
  5
4D6E
330
A
100
AcDbEntity
  8
寸法
100
AcDbLine
 10
109.024703046894
 20
311.6555062845314
 30
0.0
 11
158.9786205373379
 21
311.6537837356528
 31
0.0
  0
LINE
  5
4D6F
330
A
100
AcDbEntity
  8
寸法
100
AcDbLine
 10
109.024703046894
 20
331.2272982107661
 30
0.0
 11
158.9786205373379
 21
331.2290207596448
 31
0.0
  0
LINE
  5
4D70
330
A
100
AcDbEntity
  8
寸法
100
AcDbLine
 10
109.024703046894
 20
328.2679592366765
 30
0.0
 11
158.9786205373379
 21
328.2662366877978
 31
0.0
  0
POLYLINE
  5
4D71
102
{ACAD_REACTORS
330
4A20
330
4A23
102
}
330
A
100
AcDbEntity
  8
モデル
100
AcDb2dPolyline
 66
     1
 10
0.0
 20
0.0
 30
0.0
  0
VERTEX
  5
4D72
330
4D71
100
AcDbEntity
  8
モデル
100
AcDbVertex
100
AcDb2dVertex
 10
158.9786205373379
 20
331.2290207596448
 30
0.0
  0
VERTEX
  5
4D73
330
4D71
100
AcDbEntity
  8
モデル
100
AcDbVertex
100
AcDb2dVertex
 10
158.9786205373379
 20
328.2662366877978
 30
0.0
  0
SEQEND
  5
4D74
330
4D71
100
AcDbEntity
  8
モデル
  0
POLYLINE
  5
4D75
102
{ACAD_REACTORS
330
4A20
330
4A23
102
}
330
A
100
AcDbEntity
  8
モデル
100
AcDb2dPolyline
 66
     1
 10
0.0
 20
0.0
 30
0.0
  0
VERTEX
  5
4D76
330
4D75
100
AcDbEntity
  8
モデル
100
AcDbVertex
100
AcDb2dVertex
 10
109.024703046894
 20
331.2290207596448
 30
0.0
  0
VERTEX
  5
4D77
330
4D75
100
AcDbEntity
  8
モデル
100
AcDbVertex
100
AcDb2dVertex
 10
109.024703046894
 20
328.2662366877978
 30
0.0
  0
SEQEND
  5
4D78
330
4D75
100
AcDbEntity
  8
モデル
  0
LINE
  5
4E2B
330
A
100
AcDbEntity
  8
モデル
100
AcDbLine
 10
472.3164245360717
 20
272.9535605372562
 30
0.0
 11
472.3164245360717
 21
285.9535605372562
 31
0.0
  0
LINE
  5
4E30
330
A
100
AcDbEntity
  8
モデル
100
AcDbLine
 10
490.3164245360717
 20
272.9535605372562
 30
0.0
 11
487.3164245360717
 21
274.953560537256
 31
0.0
  0
LINE
  5
4E31
330
A
100
AcDbEntity
  8
モデル
100
AcDbLine
 10
490.3164245360717
 20
272.9535605372562
 30
0.0
 11
496.3164245360717
 21
272.9535605372562
 31
0.0
  0
LINE
  5
4E32
330
A
100
AcDbEntity
  8
モデル
100
AcDbLine
 10
484.3164245360717
 20
274.953560537256
 30
0.0
 11
487.3164245360717
 21
274.953560537256
 31
0.0
  0
LINE
  5
4E33
330
A
100
AcDbEntity
  8
モデル
100
AcDbLine
 10
483.3164245360717
 20
272.9535605372562
 30
0.0
 11
484.3164245360717
 21
274.953560537256
 31
0.0
  0
LINE
  5
4E34
330
A
100
AcDbEntity
  8
モデル
100
AcDbLine
 10
472.3164245360717
 20
272.9535605372562
 30
0.0
 11
483.3164245360717
 21
272.9535605372562
 31
0.0
  0
LINE
  5
4E35
330
A
100
AcDbEntity
  8
モデル
100
AcDbLine
 10
477.6348381424791
 20
272.9535605372562
 30
0.0
 11
476.4974855166421
 21
285.9535605372562
 31
0.0
1001
ACAD
1010
0.0
1020
0.0
1030
0.0
  0
LINE
  5
4E36
330
A
100
AcDbEntity
  8
モデル
100
AcDbLine
 10
479.2284021345791
 20
272.9535605372562
 30
0.0
 11
478.0910495087422
 21
285.9535605372562
 31
0.0
1001
ACAD
1010
0.0
1020
0.0
1030
0.0
  0
LINE
  5
4E37
330
A
100
AcDbEntity
  8
モデル
100
AcDbLine
 10
480.8219661266792
 20
272.9535605372562
 30
0.0
 11
479.6846135008422
 21
285.9535605372562
 31
0.0
1001
ACAD
1010
0.0
1020
0.0
1030
0.0
  0
LINE
  5
4E38
330
A
100
AcDbEntity
  8
モデル
100
AcDbLine
 10
482.4155301187793
 20
272.9535605372562
 30
0.0
 11
481.2781774929423
 21
285.9535605372562
 31
0.0
1001
ACAD
1010
0.0
1020
0.0
1030
0.0
  0
LINE
  5
4E39
330
A
100
AcDbEntity
  8
モデル
100
AcDbLine
 10
483.3164245360717
 20
280.8708100058392
 30
0.0
 11
482.8717414850424
 21
285.9535605372562
 31
0.0
1001
ACAD
1010
0.0
1020
0.0
1030
0.0
  0
LINE
  5
4E3A
330
A
100
AcDbEntity
  8
モデル
100
AcDbLine
 10
491.9769140713797
 20
272.9535605372562
 30
0.0
 11
490.8395614455427
 21
285.9535605372562
 31
0.0
1001
ACAD
1010
0.0
1020
0.0
1030
0.0
  0
LINE
  5
4E3B
330
A
100
AcDbEntity
  8
モデル
100
AcDbLine
 10
493.5704780634797
 20
272.9535605372562
 30
0.0
 11
492.4331254376427
 21
285.9535605372562
 31
0.0
1001
ACAD
1010
0.0
1020
0.0
1030
0.0
  0
LINE
  5
4E3C
330
A
100
AcDbEntity
  8
モデル
100
AcDbLine
 10
495.1640420555798
 20
272.9535605372562
 30
0.0
 11
494.0266894297428
 21
285.9535605372562
 31
0.0
1001
ACAD
1010
0.0
1020
0.0
1030
0.0
  0
LINE
  5
4E3D
330
A
100
AcDbEntity
  8
モデル
100
AcDbLine
 10
496.3164245360717
 20
277.9962882899489
 30
0.0
 11
495.6202534218428
 21
285.9535605372562
 31
0.0
1001
ACAD
1010
0.0
1020
0.0
1030
0.0
  0
LINE
  5
4E3E
330
A
100
AcDbEntity
  8
モデル
100
AcDbLine
 10
474.4477101582789
 20
272.9535605372562
 30
0.0
 11
473.310357532442
 21
285.9535605372562
 31
0.0
1001
ACAD
1010
0.0
1020
0.0
1030
0.0
  0
LINE
  5
4E3F
330
A
100
AcDbEntity
  8
モデル
100
AcDbLine
 10
476.041274150379
 20
272.9535605372562
 30
0.0
 11
474.9039215245421
 21
285.9535605372562
 31
0.0
1001
ACAD
1010
0.0
1020
0.0
1030
0.0
  0
LINE
  5
4E41
330
A
100
AcDbEntity
  8
モデル
100
AcDbLine
 10
472.8541461661789
 20
272.9535605372562
 30
0.0
 11
472.3164245360717
 21
279.0997468937073
 31
0.0
1001
ACAD
1010
0.0
1020
0.0
1030
0.0
  0
DIMENSION
  5
4E45
330
A
100
AcDbEntity
  8
寸法
100
AcDbDimension
  2
*D13
 10
515.4475513751635
 20
272.9535605372562
 30
0.0
 11
515.4475513751635
 21
279.3226602797093
 31
0.0
 70
   160
 71
     5
 42
12.73819948490632
 73
     0
 74
     0
 75
     0
  3
tfrom線あり
100
AcDbAlignedDimension
 13
496.6871863616767
 23
285.6917600221625
 33
0.0
 14
496.3164245360717
 24
272.9535605372562
 34
0.0
 50
90.0
100
AcDbRotatedDimension
  0
DIMENSION
  5
4E62
330
A
100
AcDbEntity
  8
寸法
100
AcDbDimension
  2
*D14
 10
436.3164245360717
 20
256.8029071811368
 30
0.0
 11
454.3164245360717
 21
264.3029071811368
 31
0.0
 70
    32
 71
     5
 42
36.0
 73
     0
 74
     0
 75
     0
  3
tfrom線あり
100
AcDbAlignedDimension
 13
472.3164245360717
 23
270.9535605372562
 33
0.0
 14
436.3164245360717
 24
270.9535605372562
 34
0.0
100
AcDbRotatedDimension
  0
LINE
  5
4E78
330
A
100
AcDbEntity
  8
モデル
100
AcDbLine
 10
440.9161720844111
 20
275.4535605372562
 30
0.0
 11
439.5055562387434
 21
283.4535605372562
 31
0.0
1001
ACAD
1010
0.0
1020
0.0
1030
0.0
  0
LINE
  5
4E7A
330
A
100
AcDbEntity
  8
モデル
100
AcDbLine
 10
437.6921925916739
 20
275.4535605372562
 30
0.0
 11
436.880306938363
 21
280.0579928824867
 31
0.0
1001
ACAD
1010
0.0
1020
0.0
1030
0.0
  0
LINE
  5
4E7B
330
A
100
AcDbEntity
  8
モデル
100
AcDbLine
 10
439.3041823380426
 20
275.4535605372562
 30
0.0
 11
437.8935664923748
 21
283.4535605372562
 31
0.0
1001
ACAD
1010
0.0
1020
0.0
1030
0.0
  0
LINE
  5
4E8B
330
A
100
AcDbEntity
  8
モデル
  6
HIDDEN
100
AcDbLine
 10
140.2897882800013
 20
290.3023999748601
 30
0.0
 11
127.2897882800013
 21
290.3023999748601
 31
0.0
  0
LINE
  5
4E8C
330
A
100
AcDbEntity
  8
モデル
100
AcDbLine
 10
138.7897882800013
 20
328.1137343096714
 30
0.0
 11
138.7897882800013
 21
314.3023999748601
 31
0.0
  0
LINE
  5
4E8D
330
A
100
AcDbEntity
  8
モデル
  6
HIDDEN
100
AcDbLine
 10
140.2897882800013
 20
303.3023999748601
 30
0.0
 11
138.2897882800014
 21
302.3023999748601
 31
0.0
  0
LINE
  5
4E8E
330
A
100
AcDbEntity
  8
モデル
  6
HIDDEN
100
AcDbLine
 10
140.2897882800013
 20
296.3023999748601
 30
0.0
 11
138.2897882800014
 21
299.3023999748601
 31
0.0
  0
LINE
  5
4E8F
330
A
100
AcDbEntity
  8
モデル
  6
HIDDEN
100
AcDbLine
 10
138.2897882800014
 20
302.3023999748601
 30
0.0
 11
138.2897882800014
 21
299.3023999748601
 31
0.0
  0
LINE
  5
4E90
330
A
100
AcDbEntity
  8
モデル
  6
HIDDEN
100
AcDbLine
 10
140.2897882800013
 20
296.3023999748601
 30
0.0
 11
140.2897882800013
 21
290.3023999748601
 31
0.0
  0
LINE
  5
4E91
330
A
100
AcDbEntity
  8
モデル
  6
HIDDEN
100
AcDbLine
 10
140.2897882800013
 20
314.3023999748601
 30
0.0
 11
140.2897882800013
 21
303.3023999748601
 31
0.0
  0
LINE
  5
4E92
330
A
100
AcDbEntity
  8
モデル
100
AcDbLine
 10
128.7897882800013
 20
314.3023999748601
 30
0.0
 11
128.7897882800013
 21
328.1137343096714
 31
0.0
  0
LINE
  5
4E93
330
A
100
AcDbEntity
  8
モデル
  6
HIDDEN
100
AcDbLine
 10
127.2897882800013
 20
296.3023999748601
 30
0.0
 11
140.2897882800013
 21
296.3023999748601
 31
0.0
  0
LINE
  5
4E94
330
A
100
AcDbEntity
  8
モデル
  6
HIDDEN
100
AcDbLine
 10
127.2897882800013
 20
303.3023999748601
 30
0.0
 11
140.2897882800013
 21
303.3023999748601
 31
0.0
  0
LINE
  5
4EA4
330
A
100
AcDbEntity
  8
モデル
100
AcDbLine
 10
128.7897882800013
 20
326.1824484893887
 30
0.0
 11
138.7897882800013
 21
327.9457182964733
 31
0.0
1001
ACAD
1010
0.0
1020
0.0
1030
0.0
  0
LINE
  5
4EA5
330
A
100
AcDbEntity
  8
モデル
100
AcDbLine
 10
128.7897882800013
 20
324.5704587430202
 30
0.0
 11
138.7897882800013
 21
326.3337285501047
 31
0.0
1001
ACAD
1010
0.0
1020
0.0
1030
0.0
  0
LINE
  5
4EA6
330
A
100
AcDbEntity
  8
モデル
100
AcDbLine
 10
128.7897882800013
 20
322.9584689966516
 30
0.0
 11
138.7897882800013
 21
324.7217388037362
 31
0.0
1001
ACAD
1010
0.0
1020
0.0
1030
0.0
  0
LINE
  5
4EA7
330
A
100
AcDbEntity
  8
モデル
100
AcDbLine
 10
128.7897882800013
 20
321.3464792502829
 30
0.0
 11
138.7897882800013
 21
323.1097490573675
 31
0.0
1001
ACAD
1010
0.0
1020
0.0
1030
0.0
  0
LINE
  5
4EA8
330
A
100
AcDbEntity
  8
モデル
100
AcDbLine
 10
128.7897882800013
 20
319.7344895039143
 30
0.0
 11
138.7897882800013
 21
321.497759310999
 31
0.0
1001
ACAD
1010
0.0
1020
0.0
1030
0.0
  0
LINE
  5
4EA9
330
A
100
AcDbEntity
  8
モデル
100
AcDbLine
 10
128.7897882800013
 20
318.1224997575457
 30
0.0
 11
138.7897882800013
 21
319.8857695646303
 31
0.0
1001
ACAD
1010
0.0
1020
0.0
1030
0.0
  0
LINE
  5
4EAA
330
A
100
AcDbEntity
  8
モデル
100
AcDbLine
 10
128.7897882800013
 20
316.510510011177
 30
0.0
 11
138.7897882800013
 21
318.2737798182616
 31
0.0
1001
ACAD
1010
0.0
1020
0.0
1030
0.0
  0
LINE
  5
4EAB
330
A
100
AcDbEntity
  8
モデル
100
AcDbLine
 10
128.7897882800013
 20
314.8985202648085
 30
0.0
 11
138.7897882800013
 21
316.6617900718931
 31
0.0
1001
ACAD
1010
0.0
1020
0.0
1030
0.0
  0
LINE
  5
4EAE
330
A
100
AcDbEntity
  8
モデル
  6
HIDDEN
100
AcDbLine
 10
127.2897882800013
 20
296.3023999748601
 30
0.0
 11
129.2897882800012
 21
299.3023999748601
 31
0.0
  0
LINE
  5
4EAF
330
A
100
AcDbEntity
  8
モデル
  6
HIDDEN
100
AcDbLine
 10
127.2897882800013
 20
296.3023999748601
 30
0.0
 11
127.2897882800013
 21
290.3023999748601
 31
0.0
  0
LINE
  5
4EB0
330
A
100
AcDbEntity
  8
モデル
  6
HIDDEN
100
AcDbLine
 10
129.2897882800012
 20
302.3023999748601
 30
0.0
 11
129.2897882800012
 21
299.3023999748601
 31
0.0
  0
LINE
  5
4EB1
330
A
100
AcDbEntity
  8
モデル
  6
HIDDEN
100
AcDbLine
 10
127.2897882800013
 20
303.3023999748601
 30
0.0
 11
129.2897882800012
 21
302.3023999748601
 31
0.0
  0
LINE
  5
4EB2
330
A
100
AcDbEntity
  8
モデル
  6
HIDDEN
100
AcDbLine
 10
127.2897882800013
 20
314.3023999748601
 30
0.0
 11
127.2897882800013
 21
303.3023999748601
 31
0.0
  0
LINE
  5
4EB3
330
A
100
AcDbEntity
  8
モデル
  6
HIDDEN
100
AcDbLine
 10
127.2897882800013
 20
308.9839863684527
 30
0.0
 11
140.2897882800013
 21
310.1213389942897
 31
0.0
1001
ACAD
1010
0.0
1020
0.0
1030
0.0
  0
LINE
  5
4EB4
330
A
100
AcDbEntity
  8
モデル
  6
HIDDEN
100
AcDbLine
 10
127.2897882800013
 20
307.3904223763526
 30
0.0
 11
140.2897882800013
 21
308.5277750021896
 31
0.0
1001
ACAD
1010
0.0
1020
0.0
1030
0.0
  0
LINE
  5
4EB5
330
A
100
AcDbEntity
  8
モデル
  6
HIDDEN
100
AcDbLine
 10
127.2897882800013
 20
305.7968583842526
 30
0.0
 11
140.2897882800013
 21
306.9342110100895
 31
0.0
1001
ACAD
1010
0.0
1020
0.0
1030
0.0
  0
LINE
  5
4EB6
330
A
100
AcDbEntity
  8
モデル
  6
HIDDEN
100
AcDbLine
 10
127.2897882800013
 20
304.2032943921525
 30
0.0
 11
140.2897882800013
 21
305.3406470179895
 31
0.0
1001
ACAD
1010
0.0
1020
0.0
1030
0.0
  0
LINE
  5
4EB7
330
A
100
AcDbEntity
  8
モデル
  6
HIDDEN
100
AcDbLine
 10
135.2070377485845
 20
303.3023999748601
 30
0.0
 11
140.2897882800013
 21
303.7470830258894
 31
0.0
1001
ACAD
1010
0.0
1020
0.0
1030
0.0
  0
LINE
  5
4EB8
330
A
100
AcDbEntity
  8
モデル
  6
HIDDEN
100
AcDbLine
 10
127.2897882800013
 20
294.6419104395521
 30
0.0
 11
140.2897882800013
 21
295.779263065389
 31
0.0
1001
ACAD
1010
0.0
1020
0.0
1030
0.0
  0
LINE
  5
4EB9
330
A
100
AcDbEntity
  8
モデル
  6
HIDDEN
100
AcDbLine
 10
127.2897882800013
 20
293.048346447452
 30
0.0
 11
140.2897882800013
 21
294.185699073289
 31
0.0
1001
ACAD
1010
0.0
1020
0.0
1030
0.0
  0
LINE
  5
4EBA
330
A
100
AcDbEntity
  8
モデル
  6
HIDDEN
100
AcDbLine
 10
127.2897882800013
 20
291.454782455352
 30
0.0
 11
140.2897882800013
 21
292.5921350811889
 31
0.0
1001
ACAD
1010
0.0
1020
0.0
1030
0.0
  0
LINE
  5
4EBB
330
A
100
AcDbEntity
  8
モデル
  6
HIDDEN
100
AcDbLine
 10
132.332516032694
 20
290.3023999748601
 30
0.0
 11
140.2897882800013
 21
290.9985710890889
 31
0.0
1001
ACAD
1010
0.0
1020
0.0
1030
0.0
  0
LINE
  5
4EBC
330
A
100
AcDbEntity
  8
モデル
  6
HIDDEN
100
AcDbLine
 10
127.2897882800013
 20
312.1711143526528
 30
0.0
 11
140.2897882800013
 21
313.3084669784898
 31
0.0
1001
ACAD
1010
0.0
1020
0.0
1030
0.0
  0
LINE
  5
4EBD
330
A
100
AcDbEntity
  8
モデル
  6
HIDDEN
100
AcDbLine
 10
127.2897882800013
 20
310.5775503605527
 30
0.0
 11
140.2897882800013
 21
311.7149029863897
 31
0.0
1001
ACAD
1010
0.0
1020
0.0
1030
0.0
  0
LINE
  5
4EBE
330
A
100
AcDbEntity
  8
モデル
  6
HIDDEN
100
AcDbLine
 10
127.2897882800013
 20
313.7646783447529
 30
0.0
 11
133.4359746364526
 21
314.3023999748601
 31
0.0
1001
ACAD
1010
0.0
1020
0.0
1030
0.0
  0
LINE
  5
4EBF
330
A
100
AcDbEntity
  8
モデル
  6
HIDDEN
100
AcDbLine
 10
127.2897882800013
 20
314.3023999748601
 30
0.0
 11
140.2897882800013
 21
314.3023999748601
 31
0.0
  0
LINE
  5
4F3A
330
A
100
AcDbEntity
  8
モデル
  6
HIDDEN
100
AcDbLine
 10
268.5022229617542
 20
139.0044002792253
 30
0.0
 11
268.5022229617542
 21
152.0044002792253
 31
0.0
  0
LINE
  5
4F3B
330
A
100
AcDbEntity
  8
モデル
100
AcDbLine
 10
308.8324622413055
 20
140.5044002792253
 30
0.0
 11
292.5022229617542
 21
140.5044002792253
 31
0.0
  0
LINE
  5
4F3C
330
A
100
AcDbEntity
  8
モデル
  6
HIDDEN
100
AcDbLine
 10
281.5022229617542
 20
139.0044002792253
 30
0.0
 11
280.5022229617542
 21
141.0044002792252
 31
0.0
  0
LINE
  5
4F3D
330
A
100
AcDbEntity
  8
モデル
  6
HIDDEN
100
AcDbLine
 10
274.5022229617542
 20
139.0044002792253
 30
0.0
 11
277.5022229617542
 21
141.0044002792252
 31
0.0
  0
LINE
  5
4F3E
330
A
100
AcDbEntity
  8
モデル
  6
HIDDEN
100
AcDbLine
 10
280.5022229617542
 20
141.0044002792252
 30
0.0
 11
277.5022229617542
 21
141.0044002792252
 31
0.0
  0
LINE
  5
4F3F
330
A
100
AcDbEntity
  8
モデル
  6
HIDDEN
100
AcDbLine
 10
274.5022229617542
 20
139.0044002792253
 30
0.0
 11
268.5022229617542
 21
139.0044002792253
 31
0.0
  0
LINE
  5
4F40
330
A
100
AcDbEntity
  8
モデル
  6
HIDDEN
100
AcDbLine
 10
292.5022229617542
 20
139.0044002792253
 30
0.0
 11
281.5022229617542
 21
139.0044002792253
 31
0.0
  0
LINE
  5
4F41
330
A
100
AcDbEntity
  8
モデル
100
AcDbLine
 10
292.5022229617542
 20
150.5044002792253
 30
0.0
 11
308.8324622413055
 21
150.5044002792253
 31
0.0
  0
LINE
  5
4F42
330
A
100
AcDbEntity
  8
モデル
  6
HIDDEN
100
AcDbLine
 10
274.5022229617542
 20
152.0044002792253
 30
0.0
 11
274.5022229617542
 21
139.0044002792253
 31
0.0
  0
LINE
  5
4F43
330
A
100
AcDbEntity
  8
モデル
  6
HIDDEN
100
AcDbLine
 10
281.5022229617542
 20
152.0044002792253
 30
0.0
 11
281.5022229617542
 21
139.0044002792253
 31
0.0
  0
LINE
  5
4F55
330
A
100
AcDbEntity
  8
モデル
100
AcDbLine
 10
299.5463022371771
 20
150.5044002792253
 30
0.0
 11
301.3095720442617
 21
140.5044002792253
 31
0.0
1001
ACAD
1010
0.0
1020
0.0
1030
0.0
  0
LINE
  5
4F56
330
A
100
AcDbEntity
  8
モデル
100
AcDbLine
 10
297.9343124908085
 20
150.5044002792253
 30
0.0
 11
299.6975822978932
 21
140.5044002792253
 31
0.0
1001
ACAD
1010
0.0
1020
0.0
1030
0.0
  0
LINE
  5
4F57
330
A
100
AcDbEntity
  8
モデル
100
AcDbLine
 10
296.3223227444398
 20
150.5044002792253
 30
0.0
 11
298.0855925515244
 21
140.5044002792253
 31
0.0
1001
ACAD
1010
0.0
1020
0.0
1030
0.0
  0
LINE
  5
4F58
330
A
100
AcDbEntity
  8
モデル
100
AcDbLine
 10
294.7103329980712
 20
150.5044002792253
 30
0.0
 11
296.4736028051558
 21
140.5044002792253
 31
0.0
1001
ACAD
1010
0.0
1020
0.0
1030
0.0
  0
LINE
  5
4F59
330
A
100
AcDbEntity
  8
モデル
100
AcDbLine
 10
293.0983432517027
 20
150.5044002792253
 30
0.0
 11
294.8616130587873
 21
140.5044002792253
 31
0.0
1001
ACAD
1010
0.0
1020
0.0
1030
0.0
  0
LINE
  5
4F5B
330
A
100
AcDbEntity
  8
モデル
  6
HIDDEN
100
AcDbLine
 10
274.5022229617542
 20
152.0044002792253
 30
0.0
 11
277.5022229617542
 21
150.0044002792254
 31
0.0
  0
LINE
  5
4F5C
330
A
100
AcDbEntity
  8
モデル
  6
HIDDEN
100
AcDbLine
 10
274.5022229617542
 20
152.0044002792253
 30
0.0
 11
268.5022229617542
 21
152.0044002792253
 31
0.0
  0
LINE
  5
4F5D
330
A
100
AcDbEntity
  8
モデル
  6
HIDDEN
100
AcDbLine
 10
280.5022229617542
 20
150.0044002792254
 30
0.0
 11
277.5022229617542
 21
150.0044002792254
 31
0.0
  0
LINE
  5
4F5E
330
A
100
AcDbEntity
  8
モデル
  6
HIDDEN
100
AcDbLine
 10
281.5022229617542
 20
152.0044002792253
 30
0.0
 11
280.5022229617542
 21
150.0044002792254
 31
0.0
  0
LINE
  5
4F5F
330
A
100
AcDbEntity
  8
モデル
  6
HIDDEN
100
AcDbLine
 10
292.5022229617542
 20
152.0044002792253
 30
0.0
 11
281.5022229617542
 21
152.0044002792253
 31
0.0
  0
LINE
  5
4F60
330
A
100
AcDbEntity
  8
モデル
  6
HIDDEN
100
AcDbLine
 10
287.1838093553469
 20
152.0044002792253
 30
0.0
 11
288.3211619811838
 21
139.0044002792253
 31
0.0
1001
ACAD
1010
0.0
1020
0.0
1030
0.0
  0
LINE
  5
4F61
330
A
100
AcDbEntity
  8
モデル
  6
HIDDEN
100
AcDbLine
 10
285.5902453632468
 20
152.0044002792253
 30
0.0
 11
286.7275979890837
 21
139.0044002792253
 31
0.0
1001
ACAD
1010
0.0
1020
0.0
1030
0.0
  0
LINE
  5
4F62
330
A
100
AcDbEntity
  8
モデル
  6
HIDDEN
100
AcDbLine
 10
283.9966813711467
 20
152.0044002792253
 30
0.0
 11
285.1340339969837
 21
139.0044002792253
 31
0.0
1001
ACAD
1010
0.0
1020
0.0
1030
0.0
  0
LINE
  5
4F63
330
A
100
AcDbEntity
  8
モデル
  6
HIDDEN
100
AcDbLine
 10
282.4031173790466
 20
152.0044002792253
 30
0.0
 11
283.5404700048836
 21
139.0044002792253
 31
0.0
1001
ACAD
1010
0.0
1020
0.0
1030
0.0
  0
LINE
  5
4F64
330
A
100
AcDbEntity
  8
モデル
  6
HIDDEN
100
AcDbLine
 10
281.5022229617542
 20
144.0871508106421
 30
0.0
 11
281.9469060127835
 21
139.0044002792253
 31
0.0
1001
ACAD
1010
0.0
1020
0.0
1030
0.0
  0
LINE
  5
4F65
330
A
100
AcDbEntity
  8
モデル
  6
HIDDEN
100
AcDbLine
 10
272.8417334264462
 20
152.0044002792253
 30
0.0
 11
273.9790860522832
 21
139.0044002792253
 31
0.0
1001
ACAD
1010
0.0
1020
0.0
1030
0.0
  0
LINE
  5
4F66
330
A
100
AcDbEntity
  8
モデル
  6
HIDDEN
100
AcDbLine
 10
271.2481694343462
 20
152.0044002792253
 30
0.0
 11
272.3855220601832
 21
139.0044002792253
 31
0.0
1001
ACAD
1010
0.0
1020
0.0
1030
0.0
  0
LINE
  5
4F67
330
A
100
AcDbEntity
  8
モデル
  6
HIDDEN
100
AcDbLine
 10
269.6546054422461
 20
152.0044002792253
 30
0.0
 11
270.7919580680831
 21
139.0044002792253
 31
0.0
1001
ACAD
1010
0.0
1020
0.0
1030
0.0
  0
LINE
  5
4F68
330
A
100
AcDbEntity
  8
モデル
  6
HIDDEN
100
AcDbLine
 10
268.5022229617542
 20
146.9616725265326
 30
0.0
 11
269.1983940759831
 21
139.0044002792253
 31
0.0
1001
ACAD
1010
0.0
1020
0.0
1030
0.0
  0
LINE
  5
4F69
330
A
100
AcDbEntity
  8
モデル
  6
HIDDEN
100
AcDbLine
 10
290.370937339547
 20
152.0044002792253
 30
0.0
 11
291.5082899653839
 21
139.0044002792253
 31
0.0
1001
ACAD
1010
0.0
1020
0.0
1030
0.0
  0
LINE
  5
4F6A
330
A
100
AcDbEntity
  8
モデル
  6
HIDDEN
100
AcDbLine
 10
288.7773733474469
 20
152.0044002792253
 30
0.0
 11
289.9147259732839
 21
139.0044002792253
 31
0.0
1001
ACAD
1010
0.0
1020
0.0
1030
0.0
  0
LINE
  5
4F6B
330
A
100
AcDbEntity
  8
モデル
  6
HIDDEN
100
AcDbLine
 10
291.9645013316471
 20
152.0044002792253
 30
0.0
 11
292.5022229617542
 21
145.858213922774
 31
0.0
1001
ACAD
1010
0.0
1020
0.0
1030
0.0
  0
LINE
  5
4F6C
330
A
100
AcDbEntity
  8
モデル
  6
HIDDEN
100
AcDbLine
 10
292.5022229617542
 20
152.0044002792253
 30
0.0
 11
292.5022229617542
 21
139.0044002792253
 31
0.0
  0
CIRCLE
  5
4FB7
330
A
100
AcDbEntity
  8
寸法
  6
HIDDEN
 48
0.5
100
AcDbCircle
 10
133.7897882800013
 20
300.8019585009696
 30
0.0
 40
1.440569191596921
  0
LINE
  5
4FB8
330
A
100
AcDbEntity
  8
寸法
  6
CENTER
100
AcDbLine
 10
278.6127436128724
 20
114.9094409461741
 30
0.0
 11
278.6127436128724
 21
134.2739713457304
 31
0.0
  0
LINE
  5
4FB9
330
A
100
AcDbEntity
  8
モデル
100
AcDbLine
 10
278.6127436128724
 20
113.4382292920256
 30
0.0
 11
277.1480706771868
 21
112.0146937162027
 31
0.0
  0
LINE
  5
4FBA
330
A
100
AcDbEntity
  8
モデル
100
AcDbLine
 10
277.1480706771868
 20
112.0146937162027
 30
0.0
 11
277.1480706771868
 21
107.5367784433899
 31
0.0
  0
LINE
  5
4FBB
330
A
100
AcDbEntity
  8
モデル
100
AcDbLine
 10
278.6127436128724
 20
113.4382292920256
 30
0.0
 11
280.0774165485579
 21
112.0146937162027
 31
0.0
  0
LINE
  5
4FBC
330
A
100
AcDbEntity
  8
モデル
100
AcDbLine
 10
280.0774165485579
 20
112.0146937162027
 30
0.0
 11
280.0774165485579
 21
107.5367784433899
 31
0.0
  0
LINE
  5
4FBD
330
A
100
AcDbEntity
  8
モデル
100
AcDbLine
 10
277.1480706771868
 20
107.5367784433899
 30
0.0
 11
280.0774165485579
 21
107.5367784433899
 31
0.0
  0
LINE
  5
4FBE
330
A
100
AcDbEntity
  8
寸法
100
AcDbLine
 10
277.1480706771868
 20
112.0146937162027
 30
0.0
 11
280.0774165485579
 21
112.0146937162027
 31
0.0
  0
HATCH
  5
4FBF
330
A
100
AcDbEntity
  8
寸法
100
AcDbHatch
 10
0.0
 20
0.0
 30
0.0
210
0.0
220
0.0
230
1.0
  2
ANSI31
 70
     0
 71
     0
 91
        1
 92
        1
 93
        4
 72
     1
 10
277.1480706771868
 20
112.0146937162027
 11
277.1480706771868
 21
107.5367784433898
 72
     1
 10
277.1480706771868
 20
107.5367784433899
 11
280.077416548558
 21
107.5367784433899
 72
     1
 10
277.1480706771868
 20
112.0146937162027
 11
280.077416548558
 21
112.0146937162027
 72
     1
 10
280.0774165485579
 20
112.0146937162027
 11
280.0774165485579
 21
107.5367784433898
 97
        0
 75
     0
 76
     1
 52
330.0000000000002
 41
0.4999999999999984
 77
     0
 78
     1
 53
14.99999999999995
 43
-1.593492687983712
 44
-18.08498984208593
 45
-0.4108752341002508
 46
1.533407249233896
 79
     0
 98
        1
 10
-1.593492687983712
 20
-18.08498984208593
1001
ACAD
1010
0.0
1020
0.0
1030
0.0
  0
LINE
  5
4FE9
330
A
100
AcDbEntity
  8
寸法
100
AcDbLine
 10
292.820010116809
 20
120.7375924972392
 30
0.0
 11
292.820010116809
 21
170.6915099876832
 31
0.0
  0
LINE
  5
4FF0
330
A
100
AcDbEntity
  8
モデル
100
AcDbLine
 10
292.820010116809
 20
170.6915099876832
 30
0.0
 11
289.820010116809
 21
170.6915099876832
 31
0.0
  0
LINE
  5
4FF1
330
A
100
AcDbEntity
  8
モデル
100
AcDbLine
 10
289.820010116809
 20
170.6915099876832
 30
0.0
 11
289.820010116809
 21
120.7375924972392
 31
0.0
  0
LINE
  5
4FF5
330
A
100
AcDbEntity
  8
モデル
100
AcDbLine
 10
308.8324622413055
 20
170.6915099876832
 30
0.0
 11
308.8324622413055
 21
120.7375924972392
 31
0.0
  0
LINE
  5
4FF6
330
A
100
AcDbEntity
  8
寸法
100
AcDbLine
 10
311.8324622413055
 20
120.7375924972392
 30
0.0
 11
311.8324622413055
 21
170.6915099876832
 31
0.0
  0
POLYLINE
  5
4FF7
330
A
100
AcDbEntity
  8
モデル
100
AcDb2dPolyline
 66
     1
 10
0.0
 20
0.0
 30
0.0
  0
VERTEX
  5
4FF8
330
4FF7
100
AcDbEntity
  8
モデル
100
AcDbVertex
100
AcDb2dVertex
 10
311.8324622413055
 20
170.6915099876832
 30
0.0
  0
VERTEX
  5
4FF9
330
4FF7
100
AcDbEntity
  8
モデル
100
AcDbVertex
100
AcDb2dVertex
 10
311.7935237642735
 20
170.6915099876832
 30
0.0
  0
SEQEND
  5
4FFA
330
4FF7
100
AcDbEntity
  8
モデル
  0
LINE
  5
4FFB
330
A
100
AcDbEntity
  8
モデル
100
AcDbLine
 10
311.8324622413055
 20
170.6915099876832
 30
0.0
 11
308.8324622413055
 21
170.6915099876832
 31
0.0
  0
POLYLINE
  5
4FFC
330
A
100
AcDbEntity
  8
モデル
100
AcDb2dPolyline
 66
     1
 10
0.0
 20
0.0
 30
0.0
  0
VERTEX
  5
4FFD
330
4FFC
100
AcDbEntity
  8
モデル
100
AcDbVertex
100
AcDb2dVertex
 10
311.8324622413055
 20
120.7375924972392
 30
0.0
  0
VERTEX
  5
4FFE
330
4FFC
100
AcDbEntity
  8
モデル
100
AcDbVertex
100
AcDb2dVertex
 10
311.7935237642735
 20
120.7375924972392
 30
0.0
  0
SEQEND
  5
4FFF
330
4FFC
100
AcDbEntity
  8
モデル
  0
POLYLINE
  5
5000
330
A
100
AcDbEntity
  8
モデル
100
AcDb2dPolyline
 66
     1
 10
0.0
 20
0.0
 30
0.0
  0
VERTEX
  5
5001
330
5000
100
AcDbEntity
  8
モデル
100
AcDbVertex
100
AcDb2dVertex
 10
311.8324622413055
 20
120.7375924972392
 30
0.0
  0
VERTEX
  5
5002
330
5000
100
AcDbEntity
  8
モデル
100
AcDbVertex
100
AcDb2dVertex
 10
308.8324622413055
 20
120.7375924972392
 30
0.0
  0
SEQEND
  5
5003
330
5000
100
AcDbEntity
  8
モデル
  0
LINE
  5
500A
330
A
100
AcDbEntity
  8
モデル
100
AcDbLine
 10
307.7183130823134
 20
150.5044002792253
 30
0.0
 11
308.8324622413055
 21
144.1857464094908
 31
0.0
1001
ACAD
1010
0.0
1020
0.0
1030
0.0
  0
LINE
  5
500B
330
A
100
AcDbEntity
  8
モデル
100
AcDbLine
 10
306.1063233359448
 20
150.5044002792253
 30
0.0
 11
307.8695931430295
 21
140.5044002792253
 31
0.0
1001
ACAD
1010
0.0
1020
0.0
1030
0.0
  0
LINE
  5
500C
330
A
100
AcDbEntity
  8
モデル
100
AcDbLine
 10
304.4943335895761
 20
150.5044002792253
 30
0.0
 11
306.2576033966607
 21
140.5044002792253
 31
0.0
1001
ACAD
1010
0.0
1020
0.0
1030
0.0
  0
LINE
  5
500D
330
A
100
AcDbEntity
  8
モデル
100
AcDbLine
 10
302.8823438432075
 20
150.5044002792253
 30
0.0
 11
304.6456136502921
 21
140.5044002792253
 31
0.0
1001
ACAD
1010
0.0
1020
0.0
1030
0.0
  0
LINE
  5
500E
330
A
100
AcDbEntity
  8
モデル
100
AcDbLine
 10
301.270354096839
 20
150.5044002792253
 30
0.0
 11
303.0336239039236
 21
140.5044002792253
 31
0.0
1001
ACAD
1010
0.0
1020
0.0
1030
0.0
  0
LINE
  5
5012
330
A
100
AcDbEntity
  8
モデル
  6
HIDDEN
100
AcDbLine
 10
277.3884638653969
 20
140.9285608816537
 30
0.0
 11
277.3884638653969
 21
135.7651089174675
 31
0.0
  0
LINE
  5
5013
330
A
100
AcDbEntity
  8
モデル
  6
HIDDEN
100
AcDbLine
 10
280.5022229617542
 20
141.0044002792252
 30
0.0
 11
280.5022229617542
 21
135.7651089174675
 31
0.0
  0
TEXT
  5
5064
330
A
100
AcDbEntity
  8
テンプレート
100
AcDbText
 10
451.0750146728324
 20
50.45233502084876
 30
0.0
 40
5.5
  1
付属品
  7
ＭＳ ゴシック
100
AcDbText
  0
TEXT
  5
5065
330
A
100
AcDbEntity
  8
テンプレート
100
AcDbText
 10
451.0750146728324
 20
42.10891083065559
 30
0.0
 40
5.5
  1
M8専用ボルト、チューブ、パッキン、
  7
ＭＳ ゴシック
100
AcDbText
  0
TEXT
  5
5066
330
A
100
AcDbEntity
  8
テンプレート
100
AcDbText
 10
451.0750146728324
 20
33.76548664046243
 30
0.0
 40
5.5
  1
イモネジ
  7
ＭＳ ゴシック
100
AcDbText
  0
MTEXT
  5
50B7
102
{ACAD_XDICTIONARY
360
50B8
102
}
330
A
100
AcDbEntity
  8
MODEL
 48
0.05
100
AcDbMText
 10
16.58674878150283
 20
23.13824729838145
 30
0.0
 40
4.0
 41
0.0
 46
4.0
 71
     1
 72
     1
  1
{20180327N}
  7
ＭＳ ゴシック
 73
     1
 44
1.0
1001
ACAD
1000
ACAD_MTEXT_DEFINED_HEIGHT_BEGIN
1070
    46
1040
4.0
1000
ACAD_MTEXT_DEFINED_HEIGHT_END
  0
TEXT
  5
5142
330
A
100
AcDbEntity
  8
テンプレート
100
AcDbText
 10
188.4121909390204
 20
85.04241290254984
 30
0.0
 40
5.0
  1
※ 輸入製品の為、国内製品と比べ製品寸法の個体差に幅が有ります。
  7
ＭＳ ゴシック
100
AcDbText
  0
TEXT
  5
5143
330
A
100
AcDbEntity
  8
テンプレート
100
AcDbText
 10
188.2399478568119
 20
76.93862880640998
 30
0.0
 40
5.0
  1
　 加工は現物合わせの上行って下さい。
  7
ＭＳ ゴシック
100
AcDbText
  0
TEXT
  5
5178
330
A
100
AcDbEntity
  8
テンプレート
100
AcDbText
 10
188.0092268945829
 20
67.75507044580272
 30
0.0
 40
5.0
  1
※ ご注文の際は正確なガラス厚(19、15、12、10、8ミリ)の指示をしてください。
  7
ＭＳ ゴシック
100
AcDbText
  0
VIEWPORT
  5
349
330
B
100
AcDbEntity
 67
     1
  8
0
100
AcDbViewport
 10
202.5
 20
128.5
 30
0.0
 40
486.0
 41
308.4
 68
     1
 69
     1
 12
202.5
 22
128.5
 13
0.0
 23
0.0
 14
0.5
 24
0.5
 15
0.0
 25
0.0
 16
0.0
 26
0.0
 36
1.0
 17
0.0
 27
0.0
 37
0.0
 42
50.0
 43
0.0
 44
0.0
 45
308.4
 50
0.0
 51
0.0
 72
   100
 90
   557152
  1

281
     0
 71
     1
 74
     0
110
0.0
120
0.0
130
0.0
111
1.0
121
0.0
131
0.0
112
0.0
122
1.0
132
0.0
 79
     0
146
0.0
170
     0
 61
     5
348
26C
292
     1
282
     1
141
0.0
142
0.0
 63
   256
  0
VIEWPORT
  5
34A
330
B
100
AcDbEntity
 67
     1
  8
0
100
AcDbViewport
 10
202.5
 20
128.5
 30
0.0
 40
324.0
 41
205.6
 68
     2
 69
     2
 12
986.6781359294573
 22
1427.077061889956
 13
0.0
 23
0.0
 14
0.5
 24
0.5
 15
0.0
 25
0.0
 16
0.0
 26
0.0
 36
1.0
 17
0.0
 27
0.0
 37
0.0
 42
50.0
 43
0.0
 44
0.0
 45
2890.021615685494
 50
0.0
 51
0.0
 72
   100
 90
   557152
  1

281
     0
 71
     1
 74
     0
110
0.0
120
0.0
130
0.0
111
1.0
121
0.0
131
0.0
112
0.0
122
1.0
132
0.0
 79
     0
146
0.0
170
     0
 61
     5
348
26C
292
     1
282
     1
141
0.0
142
0.0
 63
   256
  0
ENDSEC
  0
SECTION
  2
OBJECTS
  0
DICTIONARY
  5
19
330
0
100
AcDbDictionary
281
     1
  3
ACAD_COLOR
350
674
  3
ACAD_DETAILVIEWSTYLE
350
12F4
  3
ACAD_FIELDLIST
350
50B5
  3
ACAD_GROUP
350
1A
  3
ACAD_IMAGE_VARS
350
27B
  3
ACAD_LAYOUT
350
1E
  3
ACAD_MATERIAL
350
263
  3
ACAD_MLEADERSTYLE
350
336
  3
ACAD_MLINESTYLE
350
1B
  3
ACAD_PLOTSETTINGS
350
22
  3
ACAD_PLOTSTYLENAME
350
1F
  3
ACAD_SCALELIST
350
241
  3
ACAD_SECTIONVIEWSTYLE
350
12F5
  3
ACAD_TABLESTYLE
350
278
  3
ACAD_VISUALSTYLE
350
267
  3
ACDB_RECOMPOSE_DATA
350
51B1
  3
AcDbVariableDictionary
350
330
  3
AcStStandard
350
12B9
  3
APPDATA
350
27A
  0
SUN
  5
10E8
330
15
100
AcDbSun
 90
        1
290
     0
 63
     7
421
 16777215
 40
1.0
291
     1
 91
  2455826
 92
 54000000
292
     0
 70
     2
 71
   256
280
     1
  0
DICTIONARY
  5
2E1
330
2
100
AcDbDictionary
280
     1
281
     1
  3
ACAD_LAYERSTATES
360
2E2
  3
ACLYDICTIONARY
360
4787
  0
DICTIONARY
  5
45FB
330
A
100
AcDbDictionary
280
     1
281
     1
  3
ACAD_SORTENTS
360
45FC
  0
DICTIONARY
  5
4A1F
330
4A1E
100
AcDbDictionary
280
     1
281
     1
  3
ACAD_DIMASSOC
360
4A20
  0
DICTIONARY
  5
4A22
330
4A21
100
AcDbDictionary
280
     1
281
     1
  3
ACAD_DIMASSOC
360
4A23
  0
DICTIONARY
  5
4B58
330
4B57
100
AcDbDictionary
280
     1
281
     1
  3
ACAD_DIMASSOC
360
4B59
  0
DICTIONARY
  5
4BCF
330
4BCE
100
AcDbDictionary
280
     1
281
     1
  3
ACAD_DIMASSOC
360
4BD0
  0
DICTIONARY
  5
50B8
330
50B7
100
AcDbDictionary
280
     1
281
     1
  3
ACAD_FIELD
360
50B9
  0
DICTIONARY
  5
674
102
{ACAD_REACTORS
330
19
102
}
330
19
100
AcDbDictionary
281
     1
  0
DICTIONARY
  5
12F4
102
{ACAD_REACTORS
330
19
102
}
330
19
100
AcDbDictionary
281
     1
  0
FIELDLIST
  5
50B5
102
{ACAD_REACTORS
330
19
102
}
330
19
100
AcDbIdSet
 90
        1
330
50BA
100
AcDbFieldList
  0
DICTIONARY
  5
1A
102
{ACAD_REACTORS
330
19
102
}
330
19
100
AcDbDictionary
281
     1
  0
RASTERVARIABLES
  5
27B
102
{ACAD_REACTORS
330
19
102
}
330
19
100
AcDbRasterVariables
 90
        0
 70
     1
 71
     1
 72
     1
  0
DICTIONARY
  5
1E
102
{ACAD_REACTORS
330
19
102
}
330
19
100
AcDbDictionary
281
     1
  3
Layout1
350
21
  3
Layout2
350
12C4
  3
Model
350
20
  0
DICTIONARY
  5
263
102
{ACAD_REACTORS
330
19
102
}
330
19
100
AcDbDictionary
281
     1
  3
ByBlock
350
50CB
  3
ByLayer
350
264
  3
Global
350
266
  0
DICTIONARY
  5
336
102
{ACAD_REACTORS
330
19
102
}
330
19
100
AcDbDictionary
281
     1
  3
Standard
350
4739
  0
DICTIONARY
  5
1B
102
{ACAD_REACTORS
330
19
102
}
330
19
100
AcDbDictionary
281
     1
  3
Standard
350
1C
  0
DICTIONARY
  5
22
102
{ACAD_REACTORS
330
19
102
}
330
19
100
AcDbDictionary
281
     1
  0
ACDBDICTIONARYWDFLT
  5
1F
102
{ACAD_REACTORS
330
19
102
}
330
19
100
AcDbDictionary
281
     1
  3
Normal
350
1D
100
AcDbDictionaryWithDefault
340
1D
  0
DICTIONARY
  5
241
102
{ACAD_REACTORS
330
19
102
}
330
19
100
AcDbDictionary
281
     1
  3
*A1
350
4C37
  3
A0
350
242
  3
A1
350
243
  3
A2
350
244
  3
A3
350
245
  3
A4
350
246
  3
A5
350
247
  3
A6
350
248
  3
A7
350
249
  3
A8
350
24A
  3
A9
350
24B
  3
B0
350
24C
  3
B1
350
24D
  3
B2
350
24E
  3
B3
350
24F
  3
B4
350
250
  3
B5
350
251
  3
B6
350
252
  3
B7
350
253
  3
B8
350
254
  3
B9
350
255
  3
C0
350
256
  3
C1
350
257
  3
C2
350
258
  3
C3
350
259
  3
C4
350
25A
  3
C5
350
25B
  3
C6
350
25C
  3
C7
350
25D
  3
C8
350
25E
  3
C9
350
25F
  3
D0
350
260
  3
D1
350
261
  3
D2
350
262
  0
DICTIONARY
  5
12F5
102
{ACAD_REACTORS
330
19
102
}
330
19
100
AcDbDictionary
281
     1
  0
DICTIONARY
  5
278
102
{ACAD_REACTORS
330
19
102
}
330
19
100
AcDbDictionary
281
     1
  3
Standard
350
279
  0
DICTIONARY
  5
267
102
{ACAD_REACTORS
330
19
102
}
330
19
100
AcDbDictionary
281
     1
  3
2dWireframe
350
26C
  3
3D Hidden
350
26E
  3
3dWireframe
350
26D
  3
Basic
350
26F
  3
Brighten
350
273
  3
ColorChange
350
277
  3
Conceptual
350
271
  3
Dim
350
272
  3
EdgeColorOff
350
10E2
  3
Facepattern
350
276
  3
Flat
350
268
  3
FlatWithEdges
350
269
  3
Gouraud
350
26A
  3
GouraudWithEdges
350
26B
  3
Hidden
350
10DF
  3
JitterOff
350
10E0
  3
Linepattern
350
275
  3
OverhangOff
350
10E1
  3
Realistic
350
270
  3
Shaded
350
10E7
  3
Shaded with edges
350
10E6
  3
Shades of Gray
350
10E3
  3
Sketchy
350
10E4
  3
Thicken
350
274
  3
Wireframe
350
10DE
  3
X-Ray
350
10E5
  0
XRECORD
  5
51B1
102
{ACAD_REACTORS
330
19
102
}
330
19
100
AcDbXrecord
280
     1
 90
        1
330
279
  0
DICTIONARY
  5
330
102
{ACAD_REACTORS
330
19
102
}
330
19
100
AcDbDictionary
281
     1
  3
CANNOSCALE
350
331
  3
CMLEADERSTYLE
350
4768
  3
CTABLESTYLE
350
335
  3
XCLIPFRAME
350
109E
  0
DICTIONARY
  5
12B9
102
{ACAD_REACTORS
330
19
102
}
330
19
100
AcDbDictionary
281
     1
  0
DICTIONARY
  5
27A
102
{ACAD_REACTORS
330
19
102
}
330
19
100
AcDbDictionary
281
     1
  0
DICTIONARY
  5
2E2
102
{ACAD_REACTORS
330
2E1
102
}
330
2E1
100
AcDbDictionary
281
     1
  0
DICTIONARY
  5
4787
102
{ACAD_REACTORS
330
2E1
102
}
330
2E1
100
AcDbDictionary
281
     1
1001
ACAD
1000
<All
  0
SORTENTSTABLE
  5
45FC
102
{ACAD_REACTORS
330
45FB
102
}
330
45FB
100
AcDbSortentsTable
330
A
331
0
  5
36CD
331
36CD
  5
45C4
331
36CE
  5
45C3
331
36CF
  5
45B3
331
36D0
  5
45B2
331
36D3
  5
45B1
331
36D4
  5
45B0
331
36D5
  5
45AF
331
36D6
  5
45AE
331
36D8
  5
457E
331
36D9
  5
457D
331
36DA
  5
454E
331
36DB
  5
454D
331
36DC
  5
454C
331
36DD
  5
454B
331
36DE
  5
454A
331
36E0
  5
4549
331
36E1
  5
442F
331
36E2
  5
442E
331
36E3
  5
442D
331
36E5
  5
442B
331
36E6
  5
442A
331
36E7
  5
4429
331
36E8
  5
4425
331
36E9
  5
4424
331
36EA
  5
4420
331
36EB
  5
441F
331
36EC
  5
441E
331
36ED
  5
441D
331
37DE
  5
441A
331
41D7
  5
4023
331
41D8
  5
401F
331
42C8
  5
3FF6
331
4346
  5
3FF5
  0
DIMASSOC
  5
4A20
102
{ACAD_REACTORS
330
4A1F
102
}
330
4A1F
100
AcDbDimAssoc
330
4A1E
 90
        2
 70
     0
 71
     1
  1
AcDbOsnapPointRef
 72
     1
331
4A05
 73
     2
 91
        1
 40
1.0
 10
0.0
 20
0.0
 30
0.0
 75
     0
  0
DIMASSOC
  5
4A23
102
{ACAD_REACTORS
330
4A22
102
}
330
4A22
100
AcDbDimAssoc
330
4A21
 90
        1
 70
     0
 71
     1
  1
AcDbOsnapPointRef
 72
     1
331
4A05
 73
     2
 91
        1
 40
1.0
 10
0.0
 20
0.0
 30
0.0
 75
     0
  0
DIMASSOC
  5
4B59
102
{ACAD_REACTORS
330
4B58
102
}
330
4B58
100
AcDbDimAssoc
330
4B57
 90
        1
 70
     0
 71
     1
  1
AcDbOsnapPointRef
 72
     5
331
4A2F
 73
     0
 91
        0
 40
4.71238898038469
 10
0.0
 20
0.0
 30
0.0
 75
     0
  0
DIMASSOC
  5
4BD0
102
{ACAD_REACTORS
330
4BCF
102
}
330
4BCF
100
AcDbDimAssoc
330
4BCE
 90
        3
 70
     0
 71
     1
  1
AcDbOsnapPointRef
 72
    13
331
4A38
 73
     2
 91
        1
 40
0.0
 10
0.0
 20
0.0
 30
0.0
 75
     0
  1
AcDbOsnapPointRef
 72
    13
331
4A44
 73
     2
 91
        1
 40
0.0
 10
0.0
 20
0.0
 30
0.0
 75
     0
  0
DICTIONARY
  5
50B9
102
{ACAD_REACTORS
330
50B8
102
}
330
50B8
100
AcDbDictionary
280
     1
281
     1
  3
TEXT
360
50BA
  0
LAYOUT
  5
21
102
{ACAD_REACTORS
330
1E
102
}
330
1E
100
AcDbPlotSettings
  1

  2
none_device
  4
ISO_A3_(420.00_x_297.00_MM)
  6

 40
7.5
 41
20.0
 42
7.5
 43
20.0
 44
420.0
 45
297.0
 46
0.0
 47
0.0
 48
0.0
 49
0.0
140
0.0
141
0.0
142
1.0
143
1.0
 70
     0
 72
     1
 73
     0
 74
     0
  7

 75
     0
 76
     0
 77
     2
 78
   300
147
1.0
148
0.0
149
0.0
100
AcDbLayout
  1
Layout1
 70
     0
 71
     0
 10
-7.5
 20
-20.0
 11
412.5
 21
277.0
 12
0.0
 22
0.0
 32
0.0
 14
0.0
 24
0.0
 34
0.0
 15
0.0
 25
0.0
 35
0.0
146
0.0
 13
0.0
 23
0.0
 33
0.0
 16
0.0
 26
0.0
 36
0.0
 17
0.0
 27
0.0
 37
0.0
 76
     0
330
B
331
349
  0
LAYOUT
  5
12C4
102
{ACAD_REACTORS
330
1E
102
}
330
1E
100
AcDbPlotSettings
  1

  2
none_device
  4

  6

 40
0.0
 41
0.0
 42
0.0
 43
0.0
 44
0.0
 45
0.0
 46
0.0
 47
0.0
 48
0.0
 49
0.0
140
0.0
141
0.0
142
1.0
143
1.0
 70
   688
 72
     1
 73
     0
 74
     5
  7

 75
    16
 76
     0
 77
     2
 78
   300
147
1.0
148
0.0
149
0.0
100
AcDbLayout
  1
Layout2
 70
     1
 71
     2
 10
0.0
 20
0.0
 11
0.0
 21
0.0
 12
0.0
 22
0.0
 32
0.0
 14
0.0
 24
0.0
 34
0.0
 15
0.0
 25
0.0
 35
0.0
146
0.0
 13
0.0
 23
0.0
 33
0.0
 16
1.0
 26
0.0
 36
0.0
 17
0.0
 27
1.0
 37
0.0
 76
     0
330
12C3
  0
LAYOUT
  5
20
102
{ACAD_REACTORS
330
1E
102
}
330
1E
100
AcDbPlotSettings
  1

  2
none_device
  4
ISO_A3_(420.00_x_297.00_MM)
  6

 40
7.5
 41
20.0
 42
7.5
 43
20.0
 44
420.0
 45
297.0
 46
0.0
 47
0.0
 48
0.0
 49
0.0
140
0.0
141
0.0
142
1.0
143
1.0
 70
  1024
 72
     1
 73
     0
 74
     0
  7

 75
     0
 76
     0
 77
     2
 78
   300
147
1.0
148
0.0
149
0.0
100
AcDbLayout
  1
Model
 70
     0
 71
     1
 10
0.0
 20
0.0
 11
593.9999999999999
 21
420.0
 12
0.0
 22
0.0
 32
0.0
 14
0.0
 24
0.0
 34
0.0
 15
593.9999999999999
 25
420.0
 35
0.0
146
0.0
 13
0.0
 23
0.0
 33
0.0
 16
0.0
 26
0.0
 36
0.0
 17
0.0
 27
0.0
 37
0.0
 76
     0
330
A
331
15
  0
MATERIAL
  5
50CB
102
{ACAD_REACTORS
330
263
102
}
330
263
100
AcDbMaterial
  1
ByBlock
 72
     1
 94
      127
  0
MATERIAL
  5
264
102
{ACAD_REACTORS
330
263
102
}
330
263
100
AcDbMaterial
  1
ByLayer
 72
     1
 94
      127
  0
MATERIAL
  5
266
102
{ACAD_REACTORS
330
263
102
}
330
263
100
AcDbMaterial
  1
Global
 72
     1
 94
      127
  0
MLEADERSTYLE
  5
4739
102
{ACAD_REACTORS
330
336
102
}
330
336
100
AcDbMLeaderStyle
170
     2
171
     1
172
     0
 90
        2
 40
0.0
 41
0.0
173
     1
 91
-1056964608
340
11
 92
       -2
290
     1
 42
2.0
291
     1
 43
8.0
  3
Standard
341
0
 44
4.0
300

342
17
174
     1
178
     6
175
     1
176
     0
 93
-1056964608
 45
4.0
292
     0
297
     0
 46
4.0
343
0
 94
-1056964608
 47
1.0
 49
1.0
140
1.0
293
     1
141
0.0
294
     1
177
     0
142
1.0
295
     0
296
     0
143
3.75
1001
ACAD_MLEADERVER
1070
     2
  0
MLINESTYLE
  5
1C
102
{ACAD_REACTORS
330
1B
102
}
330
1B
100
AcDbMlineStyle
  2
Standard
 70
     0
  3

 62
     0
 51
90.0
 52
90.0
 71
     2
 49
0.5
 62
   256
  6
BYLAYER
 49
-0.5
 62
   256
  6
BYLAYER
  0
ACDBPLACEHOLDER
  5
1D
102
{ACAD_REACTORS
330
1F
102
}
330
1F
  0
SCALE
  5
4C37
102
{ACAD_REACTORS
330
241
102
}
330
241
100
AcDbScale
 70
     0
300
1:1_XREF_XREF
140
1.0
141
1.0
290
     0
  0
SCALE
  5
242
102
{ACAD_REACTORS
330
241
102
}
330
241
100
AcDbScale
 70
     0
300
1:1
140
1.0
141
1.0
290
     1
  0
SCALE
  5
243
102
{ACAD_REACTORS
330
241
102
}
330
241
100
AcDbScale
 70
     0
300
1:2
140
1.0
141
2.0
290
     0
  0
SCALE
  5
244
102
{ACAD_REACTORS
330
241
102
}
330
241
100
AcDbScale
 70
     0
300
1:4
140
1.0
141
4.0
290
     0
  0
SCALE
  5
245
102
{ACAD_REACTORS
330
241
102
}
330
241
100
AcDbScale
 70
     0
300
1:5
140
1.0
141
5.0
290
     0
  0
SCALE
  5
246
102
{ACAD_REACTORS
330
241
102
}
330
241
100
AcDbScale
 70
     0
300
1:8
140
1.0
141
8.0
290
     0
  0
SCALE
  5
247
102
{ACAD_REACTORS
330
241
102
}
330
241
100
AcDbScale
 70
     0
300
1:10
140
1.0
141
10.0
290
     0
  0
SCALE
  5
248
102
{ACAD_REACTORS
330
241
102
}
330
241
100
AcDbScale
 70
     0
300
1:16
140
1.0
141
16.0
290
     0
  0
SCALE
  5
249
102
{ACAD_REACTORS
330
241
102
}
330
241
100
AcDbScale
 70
     0
300
1:20
140
1.0
141
20.0
290
     0
  0
SCALE
  5
24A
102
{ACAD_REACTORS
330
241
102
}
330
241
100
AcDbScale
 70
     0
300
1:30
140
1.0
141
30.0
290
     0
  0
SCALE
  5
24B
102
{ACAD_REACTORS
330
241
102
}
330
241
100
AcDbScale
 70
     0
300
1:40
140
1.0
141
40.0
290
     0
  0
SCALE
  5
24C
102
{ACAD_REACTORS
330
241
102
}
330
241
100
AcDbScale
 70
     0
300
1:50
140
1.0
141
50.0
290
     0
  0
SCALE
  5
24D
102
{ACAD_REACTORS
330
241
102
}
330
241
100
AcDbScale
 70
     0
300
1:100
140
1.0
141
100.0
290
     0
  0
SCALE
  5
24E
102
{ACAD_REACTORS
330
241
102
}
330
241
100
AcDbScale
 70
     0
300
2:1
140
2.0
141
1.0
290
     0
  0
SCALE
  5
24F
102
{ACAD_REACTORS
330
241
102
}
330
241
100
AcDbScale
 70
     0
300
4:1
140
4.0
141
1.0
290
     0
  0
SCALE
  5
250
102
{ACAD_REACTORS
330
241
102
}
330
241
100
AcDbScale
 70
     0
300
8:1
140
8.0
141
1.0
290
     0
  0
SCALE
  5
251
102
{ACAD_REACTORS
330
241
102
}
330
241
100
AcDbScale
 70
     0
300
10:1
140
10.0
141
1.0
290
     0
  0
SCALE
  5
252
102
{ACAD_REACTORS
330
241
102
}
330
241
100
AcDbScale
 70
     0
300
100:1
140
100.0
141
1.0
290
     0
  0
SCALE
  5
253
102
{ACAD_REACTORS
330
241
102
}
330
241
100
AcDbScale
 70
     0
300
1/128" = 1'-0"
140
0.0078125
141
12.0
290
     0
  0
SCALE
  5
254
102
{ACAD_REACTORS
330
241
102
}
330
241
100
AcDbScale
 70
     0
300
1/64" = 1'-0"
140
0.015625
141
12.0
290
     0
  0
SCALE
  5
255
102
{ACAD_REACTORS
330
241
102
}
330
241
100
AcDbScale
 70
     0
300
1/32" = 1'-0"
140
0.03125
141
12.0
290
     0
  0
SCALE
  5
256
102
{ACAD_REACTORS
330
241
102
}
330
241
100
AcDbScale
 70
     0
300
1/16" = 1'-0"
140
0.0625
141
12.0
290
     0
  0
SCALE
  5
257
102
{ACAD_REACTORS
330
241
102
}
330
241
100
AcDbScale
 70
     0
300
3/32" = 1'-0"
140
0.09375
141
12.0
290
     0
  0
SCALE
  5
258
102
{ACAD_REACTORS
330
241
102
}
330
241
100
AcDbScale
 70
     0
300
1/8" = 1'-0"
140
0.125
141
12.0
290
     0
  0
SCALE
  5
259
102
{ACAD_REACTORS
330
241
102
}
330
241
100
AcDbScale
 70
     0
300
3/16" = 1'-0"
140
0.1875
141
12.0
290
     0
  0
SCALE
  5
25A
102
{ACAD_REACTORS
330
241
102
}
330
241
100
AcDbScale
 70
     0
300
1/4" = 1'-0"
140
0.25
141
12.0
290
     0
  0
SCALE
  5
25B
102
{ACAD_REACTORS
330
241
102
}
330
241
100
AcDbScale
 70
     0
300
3/8" = 1'-0"
140
0.375
141
12.0
290
     0
  0
SCALE
  5
25C
102
{ACAD_REACTORS
330
241
102
}
330
241
100
AcDbScale
 70
     0
300
1/2" = 1'-0"
140
0.5
141
12.0
290
     0
  0
SCALE
  5
25D
102
{ACAD_REACTORS
330
241
102
}
330
241
100
AcDbScale
 70
     0
300
3/4" = 1'-0"
140
0.75
141
12.0
290
     0
  0
SCALE
  5
25E
102
{ACAD_REACTORS
330
241
102
}
330
241
100
AcDbScale
 70
     0
300
1" = 1'-0"
140
1.0
141
12.0
290
     0
  0
SCALE
  5
25F
102
{ACAD_REACTORS
330
241
102
}
330
241
100
AcDbScale
 70
     0
300
1-1/2" = 1'-0"
140
1.5
141
12.0
290
     0
  0
SCALE
  5
260
102
{ACAD_REACTORS
330
241
102
}
330
241
100
AcDbScale
 70
     0
300
3" = 1'-0"
140
3.0
141
12.0
290
     0
  0
SCALE
  5
261
102
{ACAD_REACTORS
330
241
102
}
330
241
100
AcDbScale
 70
     0
300
6" = 1'-0"
140
6.0
141
12.0
290
     0
  0
SCALE
  5
262
102
{ACAD_REACTORS
330
241
102
}
330
241
100
AcDbScale
 70
     0
300
1'-0" = 1'-0"
140
12.0
141
12.0
290
     0
  0
TABLESTYLE
  5
279
102
{ACAD_REACTORS
330
278
102
}
102
{ACAD_XDICTIONARY
360
51AF
102
}
330
278
100
AcDbTableStyle
  3
Standard
 70
     0
 71
     0
 40
0.06
 41
0.06
280
     0
281
     0
  7
Standard
140
4.5
170
     2
 62
     0
 63
   257
283
     0
 90
        4
 91
        0
  1

274
    -2
284
     1
 64
     0
275
    -2
285
     1
 65
     0
276
    -2
286
     1
 66
     0
277
    -2
287
     1
 67
     0
278
    -2
288
     1
 68
     0
279
    -2
289
     1
 69
     0
  7
Standard
140
6.0
170
     5
 62
     0
 63
   257
283
     0
 90
        4
 91
        0
  1

274
    -2
284
     1
 64
     0
275
    -2
285
     1
 65
     0
276
    -2
286
     1
 66
     0
277
    -2
287
     1
 67
     0
278
    -2
288
     1
 68
     0
279
    -2
289
     1
 69
     0
  7
Standard
140
4.5
170
     5
 62
     0
 63
   257
283
     0
 90
        4
 91
        0
  1

274
    -2
284
     1
 64
     0
275
    -2
285
     1
 65
     0
276
    -2
286
     1
 66
     0
277
    -2
287
     1
 67
     0
278
    -2
288
     1
 68
     0
279
    -2
289
     1
 69
     0
  0
VISUALSTYLE
  5
26C
102
{ACAD_REACTORS
330
267
102
}
330
267
100
AcDbVisualStyle
  2
2dWireframe
 70
     4
 71
     0
 72
     2
 73
     0
 90
        0
 40
-0.6
 41
-30.0
 62
     5
 63
     7
421
 16777215
 74
     1
 91
        4
 64
     7
 65
   257
 75
     1
175
     1
 42
1.0
 92
        0
 66
   257
 43
1.0
 76
     1
 77
     6
 78
     2
 67
     7
 79
     5
170
     0
171
     0
290
     0
174
     0
 93
        1
 44
0.0
173
     0
291
     0
 45
0.0
  0
VISUALSTYLE
  5
26E
102
{ACAD_REACTORS
330
267
102
}
330
267
100
AcDbVisualStyle
  2
3D Hidden
 70
     6
 71
     1
 72
     2
 73
     2
 90
        0
 40
-0.6
 41
-30.0
 62
     5
 63
     7
421
 16777215
 74
     2
 91
        2
 64
     7
 65
   257
 75
     2
175
     1
 42
40.0
 92
        0
 66
   257
 43
1.0
 76
     1
 77
     6
 78
     2
 67
     7
 79
     3
170
     0
171
     0
290
     0
174
     0
 93
        1
 44
0.0
173
     0
291
     0
 45
0.0
  0
VISUALSTYLE
  5
26D
102
{ACAD_REACTORS
330
267
102
}
330
267
100
AcDbVisualStyle
  2
3dWireframe
 70
     5
 71
     0
 72
     2
 73
     0
 90
        0
 40
-0.6
 41
-30.0
 62
     5
 63
     7
421
 16777215
 74
     1
 91
        4
 64
     7
 65
   257
 75
     1
175
     1
 42
1.0
 92
        0
 66
   257
 43
1.0
 76
     1
 77
     6
 78
     2
 67
     7
 79
     5
170
     0
171
     0
290
     0
174
     0
 93
        1
 44
0.0
173
     0
291
     0
 45
0.0
  0
VISUALSTYLE
  5
26F
102
{ACAD_REACTORS
330
267
102
}
330
267
100
AcDbVisualStyle
  2
Basic
 70
     7
 71
     1
 72
     0
 73
     1
 90
        0
 40
-0.6
 41
-30.0
 62
     5
 63
     7
421
 16777215
 74
     0
 91
        4
 64
     7
 65
   257
 75
     1
175
     1
 42
1.0
 92
        8
 66
     7
 43
1.0
 76
     1
 77
     6
 78
     2
 67
     7
 79
     5
170
     0
171
     0
290
     0
174
     0
 93
        1
 44
0.0
173
     0
291
     1
 45
0.0
  0
VISUALSTYLE
  5
273
102
{ACAD_REACTORS
330
267
102
}
330
267
100
AcDbVisualStyle
  2
Brighten
 70
    12
 71
     2
 72
     2
 73
     0
 90
        0
 40
-0.6
 41
-30.0
 62
     5
 63
     7
421
 16777215
 74
     1
 91
        4
 64
     7
 65
   257
 75
     1
175
     1
 42
1.0
 92
        8
 66
     7
 43
1.0
 76
     1
 77
     6
 78
     2
 67
     7
 79
     5
170
     0
171
     0
290
     0
174
     0
 93
        1
 44
50.0
173
     0
291
     1
 45
0.0
  0
VISUALSTYLE
  5
277
102
{ACAD_REACTORS
330
267
102
}
330
267
100
AcDbVisualStyle
  2
ColorChange
 70
    16
 71
     2
 72
     2
 73
     3
 90
        0
 40
-0.6
 41
-30.0
 62
     5
 63
     8
421
  8421504
 74
     1
 91
        4
 64
     7
 65
   257
 75
     1
175
     1
 42
1.0
 92
        8
 66
     8
424
  8421504
 43
1.0
 76
     1
 77
     6
 78
     2
 67
     7
 79
     5
170
     0
171
     0
290
     0
174
     0
 93
        1
 44
0.0
173
     0
291
     1
 45
0.0
  0
VISUALSTYLE
  5
271
102
{ACAD_REACTORS
330
267
102
}
330
267
100
AcDbVisualStyle
  2
Conceptual
 70
     9
 71
     3
 72
     2
 73
     0
 90
        0
 40
-0.6
 41
-30.0
 62
     5
 63
     7
421
 16777215
 74
     2
 91
        2
 64
     7
 65
   257
 75
     1
175
     1
 42
40.0
 92
        8
 66
     7
 43
1.0
 76
     1
 77
     6
 78
     2
 67
     7
 79
     3
170
     0
171
     0
290
     0
174
     0
 93
        1
 44
0.0
173
     0
291
     0
 45
0.0
  0
VISUALSTYLE
  5
272
102
{ACAD_REACTORS
330
267
102
}
330
267
100
AcDbVisualStyle
  2
Dim
 70
    11
 71
     2
 72
     2
 73
     0
 90
        0
 40
-0.6
 41
-30.0
 62
     5
 63
     7
421
 16777215
 74
     1
 91
        4
 64
     7
 65
   257
 75
     1
175
     1
 42
1.0
 92
        8
 66
     7
 43
1.0
 76
     1
 77
     6
 78
     2
 67
     7
 79
     5
170
     0
171
     0
290
     0
174
     0
 93
        1
 44
-50.0
173
     0
291
     1
 45
0.0
  0
VISUALSTYLE
  5
10E2
102
{ACAD_REACTORS
330
267
102
}
330
267
100
AcDbVisualStyle
  2
EdgeColorOff
 70
    22
 71
     2
 72
     2
 73
     0
 90
        0
 40
0.6
 41
30.0
 62
     5
 63
     7
421
 16777215
 74
     1
 91
        4
 64
     7
 65
   257
 75
     1
175
     1
 42
1.0
 92
        8
 66
     7
 43
1.0
 76
     1
 77
     6
 78
     2
 67
     7
 79
     5
170
     0
171
     0
290
     0
174
     0
 93
        1
 44
0.0
173
     0
291
     1
 45
0.0
  0
VISUALSTYLE
  5
276
102
{ACAD_REACTORS
330
267
102
}
330
267
100
AcDbVisualStyle
  2
Facepattern
 70
    15
 71
     2
 72
     2
 73
     0
 90
        0
 40
-0.6
 41
-30.0
 62
     5
 63
     7
421
 16777215
 74
     1
 91
        4
 64
     7
 65
   257
 75
     1
175
     1
 42
1.0
 92
        8
 66
     7
 43
1.0
 76
     1
 77
     6
 78
     2
 67
     7
 79
     5
170
     0
171
     0
290
     0
174
     0
 93
        1
 44
0.0
173
     0
291
     1
 45
0.0
  0
VISUALSTYLE
  5
268
102
{ACAD_REACTORS
330
267
102
}
330
267
100
AcDbVisualStyle
  2
Flat
 70
     0
 71
     2
 72
     1
 73
     1
 90
        2
 40
-0.6
 41
30.0
 62
     5
 63
     7
421
 16777215
 74
     0
 91
        4
 64
     7
 65
   257
 75
     1
175
     1
 42
1.0
 92
        8
 66
     7
 43
1.0
 76
     1
 77
     6
 78
     2
 67
     7
 79
     5
170
     0
171
     0
290
     0
174
     0
 93
       13
 44
0.0
173
     0
291
     1
 45
0.0
  0
VISUALSTYLE
  5
269
102
{ACAD_REACTORS
330
267
102
}
330
267
100
AcDbVisualStyle
  2
FlatWithEdges
 70
     1
 71
     2
 72
     1
 73
     1
 90
        2
 40
-0.6
 41
30.0
 62
     5
 63
     7
421
 16777215
 74
     1
 91
        4
 64
     7
 65
   257
 75
     1
175
     1
 42
1.0
 92
        0
 66
   257
 43
1.0
 76
     1
 77
     6
 78
     2
 67
     7
 79
     5
170
     0
171
     0
290
     0
174
     0
 93
       13
 44
0.0
173
     0
291
     1
 45
0.0
  0
VISUALSTYLE
  5
26A
102
{ACAD_REACTORS
330
267
102
}
330
267
100
AcDbVisualStyle
  2
Gouraud
 70
     2
 71
     2
 72
     2
 73
     1
 90
        2
 40
-0.6
 41
30.0
 62
     5
 63
     7
421
 16777215
 74
     0
 91
        4
 64
     7
 65
   257
 75
     1
175
     1
 42
1.0
 92
        0
 66
     7
 43
1.0
 76
     1
 77
     6
 78
     2
 67
     7
 79
     5
170
     0
171
     0
290
     0
174
     0
 93
       13
 44
0.0
173
     0
291
     1
 45
0.0
  0
VISUALSTYLE
  5
26B
102
{ACAD_REACTORS
330
267
102
}
330
267
100
AcDbVisualStyle
  2
GouraudWithEdges
 70
     3
 71
     2
 72
     2
 73
     1
 90
        2
 40
-0.6
 41
30.0
 62
     5
 63
     7
421
 16777215
 74
     1
 91
        4
 64
     7
 65
   257
 75
     1
175
     1
 42
1.0
 92
        0
 66
   257
 43
1.0
 76
     1
 77
     6
 78
     2
 67
     7
 79
     5
170
     0
171
     0
290
     0
174
     0
 93
       13
 44
0.0
173
     0
291
     1
 45
0.0
  0
VISUALSTYLE
  5
10DF
102
{ACAD_REACTORS
330
267
102
}
330
267
100
AcDbVisualStyle
  2
Hidden
 70
     6
 71
     1
 72
     2
 73
     2
 90
        0
 40
0.6
 41
30.0
 62
     5
 63
     7
421
 16777215
 74
     2
 91
        2
 64
     7
 65
   257
 75
     2
175
     1
 42
40.0
 92
        0
 66
   257
 43
1.0
 76
     1
 77
     6
 78
     2
 67
     7
 79
     3
170
     0
171
     0
290
     0
174
     0
 93
        1
 44
0.0
173
     0
291
     0
 45
0.0
  0
VISUALSTYLE
  5
10E0
102
{ACAD_REACTORS
330
267
102
}
330
267
100
AcDbVisualStyle
  2
JitterOff
 70
    20
 71
     2
 72
     2
 73
     0
 90
        0
 40
0.6
 41
30.0
 62
     5
 63
     7
421
 16777215
 74
     1
 91
        4
 64
     7
 65
   257
 75
     1
175
     1
 42
1.0
 92
       10
 66
     7
 43
1.0
 76
     1
 77
     6
 78
     2
 67
     7
 79
     5
170
     0
171
     0
290
     0
174
     0
 93
        1
 44
0.0
173
     0
291
     1
 45
0.0
  0
VISUALSTYLE
  5
275
102
{ACAD_REACTORS
330
267
102
}
330
267
100
AcDbVisualStyle
  2
Linepattern
 70
    14
 71
     2
 72
     2
 73
     0
 90
        0
 40
-0.6
 41
-30.0
 62
     5
 63
     7
421
 16777215
 74
     1
 91
        4
 64
     7
 65
   257
 75
     7
175
     7
 42
1.0
 92
        8
 66
     7
 43
1.0
 76
     1
 77
     6
 78
     2
 67
     7
 79
     5
170
     0
171
     0
290
     0
174
     0
 93
        1
 44
0.0
173
     0
291
     1
 45
0.0
  0
VISUALSTYLE
  5
10E1
102
{ACAD_REACTORS
330
267
102
}
330
267
100
AcDbVisualStyle
  2
OverhangOff
 70
    21
 71
     2
 72
     2
 73
     0
 90
        0
 40
0.6
 41
30.0
 62
     5
 63
     7
421
 16777215
 74
     1
 91
        4
 64
     7
 65
   257
 75
     1
175
     1
 42
1.0
 92
        9
 66
     7
 43
1.0
 76
     1
 77
     6
 78
     2
 67
     7
 79
     5
170
     0
171
     0
290
     0
174
     0
 93
        1
 44
0.0
173
     0
291
     1
 45
0.0
  0
VISUALSTYLE
  5
270
102
{ACAD_REACTORS
330
267
102
}
330
267
100
AcDbVisualStyle
  2
Realistic
 70
     8
 71
     2
 72
     2
 73
     0
 90
        0
 40
-0.6
 41
-30.0
 62
     5
 63
     7
421
 16777215
 74
     1
 91
        0
 64
     7
 65
   257
 75
     1
175
     1
 42
1.0
 92
        8
 66
     8
424
  7895160
 43
1.0
 76
     1
 77
     6
 78
     2
 67
     7
 79
     5
170
     0
171
     0
290
     0
174
     0
 93
       13
 44
0.0
173
     0
291
     0
 45
0.0
  0
VISUALSTYLE
  5
10E7
102
{ACAD_REACTORS
330
267
102
}
330
267
100
AcDbVisualStyle
  2
Shaded
 70
    27
 71
     2
 72
     2
 73
     1
 90
        2
 40
0.6
 41
30.0
 62
     5
 63
     7
421
 16777215
 74
     0
 91
        4
 64
     7
 65
   257
 75
     1
175
     1
 42
1.0
 92
        8
 66
   257
 43
1.0
 76
     1
 77
     6
 78
     2
 67
     8
425
  7895160
 79
     3
170
     0
171
     0
290
     0
174
     0
 93
        5
 44
0.0
173
     0
291
     0
 45
0.0
  0
VISUALSTYLE
  5
10E6
102
{ACAD_REACTORS
330
267
102
}
330
267
100
AcDbVisualStyle
  2
Shaded with edges
 70
    26
 71
     2
 72
     2
 73
     1
 90
        2
 40
0.6
 41
30.0
 62
     5
 63
     7
421
 16777215
 74
     1
 91
       10
 64
     7
 65
   257
 75
     2
175
     1
 42
1.0
 92
        8
 66
   257
 43
1.0
 76
     1
 77
     6
 78
     2
 67
     7
 79
     3
170
     0
171
     0
290
     0
174
     0
 93
        5
 44
0.0
173
     0
291
     0
 45
0.0
  0
VISUALSTYLE
  5
10E3
102
{ACAD_REACTORS
330
267
102
}
330
267
100
AcDbVisualStyle
  2
Shades of Gray
 70
    23
 71
     2
 72
     2
 73
     3
 90
        0
 40
0.6
 41
30.0
 62
     5
 63
     7
421
 16777215
 74
     2
 91
        2
 64
     7
 65
     7
 75
     1
175
     1
 42
40.0
 92
        8
 66
     7
 43
1.0
 76
     1
 77
     6
 78
     2
 67
     7
 79
     3
170
     0
171
     0
290
     0
174
     0
 93
        1
 44
0.0
173
     0
291
     0
 45
0.0
  0
VISUALSTYLE
  5
10E4
102
{ACAD_REACTORS
330
267
102
}
330
267
100
AcDbVisualStyle
  2
Sketchy
 70
    24
 71
     1
 72
     2
 73
     2
 90
        0
 40
0.6
 41
30.0
 62
     5
 63
     7
421
 16777215
 74
     2
 91
        2
 64
     7
 65
     7
 75
     1
175
     1
 42
40.0
 92
       11
 66
     7
 43
1.0
 76
     1
 77
     6
 78
     2
 67
     7
 79
     6
170
     0
171
     0
290
     0
174
     0
 93
        1
 44
0.0
173
     0
291
     0
 45
0.0
  0
VISUALSTYLE
  5
274
102
{ACAD_REACTORS
330
267
102
}
330
267
100
AcDbVisualStyle
  2
Thicken
 70
    13
 71
     2
 72
     2
 73
     0
 90
        0
 40
-0.6
 41
-30.0
 62
     5
 63
     7
421
 16777215
 74
     1
 91
        4
 64
     7
 65
   257
 75
     1
175
     1
 42
1.0
 92
       12
 66
     7
 43
1.0
 76
     1
 77
     6
 78
     2
 67
     7
 79
     5
170
     0
171
     0
290
     0
174
     0
 93
        1
 44
0.0
173
     0
291
     1
 45
0.0
  0
VISUALSTYLE
  5
10DE
102
{ACAD_REACTORS
330
267
102
}
330
267
100
AcDbVisualStyle
  2
Wireframe
 70
     5
 71
     0
 72
     2
 73
     0
 90
        0
 40
0.6
 41
30.0
 62
     5
 63
     7
421
 16777215
 74
     1
 91
        4
 64
     7
 65
   257
 75
     1
175
     1
 42
1.0
 92
        0
 66
   257
 43
1.0
 76
     1
 77
     6
 78
     2
 67
     7
 79
     3
170
     0
171
     0
290
     0
174
     0
 93
        1
 44
0.0
173
     0
291
     0
 45
0.0
  0
VISUALSTYLE
  5
10E5
102
{ACAD_REACTORS
330
267
102
}
330
267
100
AcDbVisualStyle
  2
X-Ray
 70
    25
 71
     2
 72
     2
 73
     1
 90
        1
 40
0.5
 41
30.0
 62
     5
 63
     7
421
 16777215
 74
     1
 91
        0
 64
     7
 65
   257
 75
     1
175
     1
 42
1.0
 92
        8
 66
     7
 43
1.0
 76
     1
 77
     6
 78
     2
 67
     7
 79
     3
170
     0
171
     0
290
     0
174
     0
 93
       13
 44
0.0
173
     0
291
     0
 45
0.0
  0
DICTIONARYVAR
  5
331
102
{ACAD_REACTORS
330
330
102
}
330
330
100
DictionaryVariables
280
     0
  1
1:1
  0
DICTIONARYVAR
  5
4768
102
{ACAD_REACTORS
330
330
102
}
330
330
100
DictionaryVariables
280
     0
  1
Standard
  0
DICTIONARYVAR
  5
335
102
{ACAD_REACTORS
330
330
102
}
330
330
100
DictionaryVariables
280
     0
  1
Standard
  0
DICTIONARYVAR
  5
109E
102
{ACAD_REACTORS
330
330
102
}
330
330
100
DictionaryVariables
280
     0
  1
0
  0
FIELD
  5
50BA
102
{ACAD_REACTORS
330
50B9
102
}
330
50B9
100
AcDbField
  1
_text
  2
{%<\_FldIdx 0>%N}
 90
        1
360
50BB
 97
        0
 91
       63
 92
        0
 94
        8
 95
        2
 96
        0
300

 93
        1
  6
ACFD_FIELDTEXT_CHECKSUM
 93
        2
 90
        2
140
4538.0
 94
        0
300

302

304
ACVALUE_END
  7
ACFD_FIELD_VALUE
 93
        6
 90
        4
  1
{20180327N}
 94
        0
300

302

304
ACVALUE_END
301
{20180327N}
 98
       11
  0
DICTIONARY
  5
51AF
330
279
100
AcDbDictionary
280
     1
281
     1
  3
ACAD_ROUNDTRIP_2008_TABLESTYLE_CELLSTYLEMAP
360
51B0
  0
FIELD
  5
50BB
330
50BA
100
AcDbField
  1
AcVar
  2
\AcVar CreateDate \f "yyyyMMdd"
 90
        0
 97
        0
 91
       63
 92
        0
 94
        8
 95
        2
 96
        0
300

 93
        1
  6
Variable
 93
        2
 90
        4
  1
CreateDate
 94
        0
300

302

304
ACVALUE_END
  7
ACFD_FIELD_VALUE
 93
        6
 90
        8
 92
       16
310
E207030000001B000100220011000000
 94
        0
300
yyyyMMdd
302

304
ACVALUE_END
301
20180327
 98
        8
  0
CELLSTYLEMAP
  5
51B0
102
{ACAD_REACTORS
330
51AF
102
}
330
51AF
100
AcDbCellStyleMap
 90
        3
300
CELLSTYLE
  1
TABLEFORMAT_BEGIN
 90
        5
170
     1
 91
        0
 92
    32768
 62
   257
 93
        1
300
CONTENTFORMAT
  1
CONTENTFORMAT_BEGIN
 90
        0
 91
        0
 92
        4
 93
        0
300

 40
0.0
140
1.0
 94
        5
 62
     0
340
17
144
6.0
309
CONTENTFORMAT_END
171
     1
301
MARGIN
  1
CELLMARGIN_BEGIN
 40
0.06
 40
0.06
 40
0.06
 40
0.06
 40
0.18
 40
0.18
309
CELLMARGIN_END
 94
        6
 95
        1
302
GRIDFORMAT
  1
GRIDFORMAT_BEGIN
 90
        0
 91
        1
 62
     0
 92
       -2
340
0
 93
        0
 40
0.045
309
GRIDFORMAT_END
 95
        2
302
GRIDFORMAT
  1
GRIDFORMAT_BEGIN
 90
        0
 91
        1
 62
     0
 92
       -2
340
0
 93
        0
 40
0.045
309
GRIDFORMAT_END
 95
        4
302
GRIDFORMAT
  1
GRIDFORMAT_BEGIN
 90
        0
 91
        1
 62
     0
 92
       -2
340
0
 93
        0
 40
0.045
309
GRIDFORMAT_END
 95
        8
302
GRIDFORMAT
  1
GRIDFORMAT_BEGIN
 90
        0
 91
        1
 62
     0
 92
       -2
340
0
 93
        0
 40
0.045
309
GRIDFORMAT_END
 95
       16
302
GRIDFORMAT
  1
GRIDFORMAT_BEGIN
 90
        0
 91
        1
 62
     0
 92
       -2
340
0
 93
        0
 40
0.045
309
GRIDFORMAT_END
 95
       32
302
GRIDFORMAT
  1
GRIDFORMAT_BEGIN
 90
        0
 91
        1
 62
     0
 92
       -2
340
0
 93
        0
 40
0.045
309
GRIDFORMAT_END
309
TABLEFORMAT_END
  1
CELLSTYLE_BEGIN
 90
        1
 91
        1
300
_TITLE
309
CELLSTYLE_END
300
CELLSTYLE
  1
TABLEFORMAT_BEGIN
 90
        5
170
     1
 91
        0
 92
        0
 62
   257
 93
        1
300
CONTENTFORMAT
  1
CONTENTFORMAT_BEGIN
 90
        0
 91
        0
 92
        4
 93
        0
300

 40
0.0
140
1.0
 94
        5
 62
     0
340
17
144
4.5
309
CONTENTFORMAT_END
171
     1
301
MARGIN
  1
CELLMARGIN_BEGIN
 40
0.06
 40
0.06
 40
0.06
 40
0.06
 40
0.18
 40
0.18
309
CELLMARGIN_END
 94
        6
 95
        1
302
GRIDFORMAT
  1
GRIDFORMAT_BEGIN
 90
        0
 91
        1
 62
     0
 92
       -2
340
0
 93
        0
 40
0.045
309
GRIDFORMAT_END
 95
        2
302
GRIDFORMAT
  1
GRIDFORMAT_BEGIN
 90
        0
 91
        1
 62
     0
 92
       -2
340
0
 93
        0
 40
0.045
309
GRIDFORMAT_END
 95
        4
302
GRIDFORMAT
  1
GRIDFORMAT_BEGIN
 90
        0
 91
        1
 62
     0
 92
       -2
340
0
 93
        0
 40
0.045
309
GRIDFORMAT_END
 95
        8
302
GRIDFORMAT
  1
GRIDFORMAT_BEGIN
 90
        0
 91
        1
 62
     0
 92
       -2
340
0
 93
        0
 40
0.045
309
GRIDFORMAT_END
 95
       16
302
GRIDFORMAT
  1
GRIDFORMAT_BEGIN
 90
        0
 91
        1
 62
     0
 92
       -2
340
0
 93
        0
 40
0.045
309
GRIDFORMAT_END
 95
       32
302
GRIDFORMAT
  1
GRIDFORMAT_BEGIN
 90
        0
 91
        1
 62
     0
 92
       -2
340
0
 93
        0
 40
0.045
309
GRIDFORMAT_END
309
TABLEFORMAT_END
  1
CELLSTYLE_BEGIN
 90
        2
 91
        1
300
_HEADER
309
CELLSTYLE_END
300
CELLSTYLE
  1
TABLEFORMAT_BEGIN
 90
        5
170
     1
 91
        0
 92
        0
 62
   257
 93
        1
300
CONTENTFORMAT
  1
CONTENTFORMAT_BEGIN
 90
        0
 91
        0
 92
        4
 93
        0
300

 40
0.0
140
1.0
 94
        2
 62
     0
340
17
144
4.5
309
CONTENTFORMAT_END
171
     1
301
MARGIN
  1
CELLMARGIN_BEGIN
 40
0.06
 40
0.06
 40
0.06
 40
0.06
 40
0.18
 40
0.18
309
CELLMARGIN_END
 94
        6
 95
        1
302
GRIDFORMAT
  1
GRIDFORMAT_BEGIN
 90
        0
 91
        1
 62
     0
 92
       -2
340
0
 93
        0
 40
0.045
309
GRIDFORMAT_END
 95
        2
302
GRIDFORMAT
  1
GRIDFORMAT_BEGIN
 90
        0
 91
        1
 62
     0
 92
       -2
340
0
 93
        0
 40
0.045
309
GRIDFORMAT_END
 95
        4
302
GRIDFORMAT
  1
GRIDFORMAT_BEGIN
 90
        0
 91
        1
 62
     0
 92
       -2
340
0
 93
        0
 40
0.045
309
GRIDFORMAT_END
 95
        8
302
GRIDFORMAT
  1
GRIDFORMAT_BEGIN
 90
        0
 91
        1
 62
     0
 92
       -2
340
0
 93
        0
 40
0.045
309
GRIDFORMAT_END
 95
       16
302
GRIDFORMAT
  1
GRIDFORMAT_BEGIN
 90
        0
 91
        1
 62
     0
 92
       -2
340
0
 93
        0
 40
0.045
309
GRIDFORMAT_END
 95
       32
302
GRIDFORMAT
  1
GRIDFORMAT_BEGIN
 90
        0
 91
        1
 62
     0
 92
       -2
340
0
 93
        0
 40
0.045
309
GRIDFORMAT_END
309
TABLEFORMAT_END
  1
CELLSTYLE_BEGIN
 90
        3
 91
        2
300
_DATA
309
CELLSTYLE_END
  0
ENDSEC
  0
EOF
