  0
SECTION
  2
HEADER
  9
$ACADVER
  1
AC1021
  9
$ACADMAINTVER
 70
    25
  9
$DWGCODEPAGE
  3
ANSI_932
  9
$LASTSAVEDBY
  1
howeNelson
  9
$INSBASE
 10
0.0
 20
0.0
 30
0.0
  9
$EXTMIN
 10
0.0
 20
0.0
 30
0.0
  9
$EXTMAX
 10
593.9999999999999
 20
420.0
 30
0.0
  9
$LIMMIN
 10
0.0
 20
0.0
  9
$LIMMAX
 10
593.9999999999999
 20
420.0
  9
$ORTHOMODE
 70
     0
  9
$REGENMODE
 70
     1
  9
$FILLMODE
 70
     1
  9
$QTEXTMODE
 70
     0
  9
$MIRRTEXT
 70
     1
  9
$LTSCALE
 40
0.5
  9
$ATTMODE
 70
     1
  9
$TEXTSIZE
 40
2.5
  9
$TRACEWID
 40
1.0
  9
$TEXTSTYLE
  7
ＭＳ ゴシック
  9
$CLAYER
  8
寸法
  9
$CELTYPE
  6
ByLayer
  9
$CECOLOR
 62
   256
  9
$CELTSCALE
 40
1.0
  9
$DISPSILH
 70
     0
  9
$DIMSCALE
 40
1.0
  9
$DIMASZ
 40
1.0
  9
$DIMEXO
 40
3.0
  9
$DIMDLI
 40
0.9999999999999999
  9
$DIMRND
 40
0.0
  9
$DIMDLE
 40
0.0
  9
$DIMEXE
 40
0.0
  9
$DIMTP
 40
0.0
  9
$DIMTM
 40
0.0
  9
$DIMTXT
 40
5.0
  9
$DIMCEN
 40
0.0
  9
$DIMTSZ
 40
0.0
  9
$DIMTOL
 70
     0
  9
$DIMLIM
 70
     0
  9
$DIMTIH
 70
     0
  9
$DIMTOH
 70
     0
  9
$DIMSE1
 70
     0
  9
$DIMSE2
 70
     0
  9
$DIMTAD
 70
     1
  9
$DIMZIN
 70
    11
  9
$DIMBLK
  1
DOT
  9
$DIMASO
 70
     1
  9
$DIMSHO
 70
     1
  9
$DIMPOST
  1
<>
  9
$DIMAPOST
  1
[]
  9
$DIMALT
 70
     0
  9
$DIMALTD
 70
     1
  9
$DIMALTF
 40
1.0
  9
$DIMLFAC
 40
1.0
  9
$DIMTOFL
 70
     0
  9
$DIMTVP
 40
0.0
  9
$DIMTIX
 70
     1
  9
$DIMSOXD
 70
     0
  9
$DIMSAH
 70
     0
  9
$DIMBLK1
  1

  9
$DIMBLK2
  1

  9
$DIMSTYLE
  2
tfrom線あり
  9
$DIMCLRD
 70
     0
  9
$DIMCLRE
 70
     0
  9
$DIMCLRT
 70
     0
  9
$DIMTFAC
 40
1.0
  9
$DIMGAP
 40
3.0
  9
$DIMJUST
 70
     0
  9
$DIMSD1
 70
     0
  9
$DIMSD2
 70
     0
  9
$DIMTOLJ
 70
     1
  9
$DIMTZIN
 70
    11
  9
$DIMALTZ
 70
    11
  9
$DIMALTTZ
 70
    11
  9
$DIMUPT
 70
     0
  9
$DIMDEC
 70
     0
  9
$DIMTDEC
 70
     1
  9
$DIMALTU
 70
     2
  9
$DIMALTTD
 70
     2
  9
$DIMTXSTY
  7
ＭＳ ゴシック
  9
$DIMAUNIT
 70
     0
  9
$DIMADEC
 70
     2
  9
$DIMALTRND
 40
0.0
  9
$DIMAZIN
 70
     0
  9
$DIMDSEP
 70
    46
  9
$DIMATFIT
 70
     0
  9
$DIMFRAC
 70
     2
  9
$DIMLDRBLK
  1
DOT
  9
$DIMLUNIT
 70
     2
  9
$DIMLWD
 70
    -2
  9
$DIMLWE
 70
    -2
  9
$DIMTMOVE
 70
     0
  9
$DIMFXL
 40
1.0
  9
$DIMFXLON
 70
     0
  9
$DIMJOGANG
 40
0.7853981633974483
  9
$DIMTFILL
 70
     0
  9
$DIMTFILLCLR
 70
     0
  9
$DIMARCSYM
 70
     0
  9
$DIMLTYPE
  6

  9
$DIMLTEX1
  6

  9
$DIMLTEX2
  6

  9
$LUNITS
 70
     2
  9
$LUPREC
 70
     0
  9
$SKETCHINC
 40
0.1
  9
$FILLETRAD
 40
0.0
  9
$AUNITS
 70
     0
  9
$AUPREC
 70
     0
  9
$MENU
  1
acad
  9
$ELEVATION
 40
0.0
  9
$PELEVATION
 40
0.0
  9
$THICKNESS
 40
0.0
  9
$LIMCHECK
 70
     0
  9
$CHAMFERA
 40
0.0
  9
$CHAMFERB
 40
0.0
  9
$CHAMFERC
 40
0.0
  9
$CHAMFERD
 40
0.0
  9
$SKPOLY
 70
     0
  9
$TDCREATE
 40
2447893.375
  9
$TDUCREATE
 40
0.0
  9
$TDUPDATE
 40
2457663.547978299
  9
$TDUUPDATE
 40
2457663.172978299
  9
$TDINDWG
 40
0.0
  9
$TDUSRTIMER
 40
0.0
  9
$USRTIMER
 70
     1
  9
$ANGBASE
 50
0.0
  9
$ANGDIR
 70
     0
  9
$PDMODE
 70
     1
  9
$PDSIZE
 40
-2.0
  9
$PLINEWID
 40
0.0
  9
$SPLFRAME
 70
     0
  9
$SPLINETYPE
 70
     6
  9
$SPLINESEGS
 70
     8
  9
$HANDSEED
  5
5E18
  9
$SURFTAB1
 70
     6
  9
$SURFTAB2
 70
     6
  9
$SURFTYPE
 70
     6
  9
$SURFU
 70
     6
  9
$SURFV
 70
     6
  9
$UCSBASE
  2

  9
$UCSNAME
  2

  9
$UCSORG
 10
0.0
 20
0.0
 30
0.0
  9
$UCSXDIR
 10
1.0
 20
0.0
 30
0.0
  9
$UCSYDIR
 10
0.0
 20
1.0
 30
0.0
  9
$UCSORTHOREF
  2

  9
$UCSORTHOVIEW
 70
     0
  9
$UCSORGTOP
 10
0.0
 20
0.0
 30
0.0
  9
$UCSORGBOTTOM
 10
0.0
 20
0.0
 30
0.0
  9
$UCSORGLEFT
 10
0.0
 20
0.0
 30
0.0
  9
$UCSORGRIGHT
 10
0.0
 20
0.0
 30
0.0
  9
$UCSORGFRONT
 10
0.0
 20
0.0
 30
0.0
  9
$UCSORGBACK
 10
0.0
 20
0.0
 30
0.0
  9
$PUCSBASE
  2

  9
$PUCSNAME
  2

  9
$PUCSORG
 10
0.0
 20
0.0
 30
0.0
  9
$PUCSXDIR
 10
1.0
 20
0.0
 30
0.0
  9
$PUCSYDIR
 10
0.0
 20
1.0
 30
0.0
  9
$PUCSORTHOREF
  2

  9
$PUCSORTHOVIEW
 70
     0
  9
$PUCSORGTOP
 10
0.0
 20
0.0
 30
0.0
  9
$PUCSORGBOTTOM
 10
0.0
 20
0.0
 30
0.0
  9
$PUCSORGLEFT
 10
0.0
 20
0.0
 30
0.0
  9
$PUCSORGRIGHT
 10
0.0
 20
0.0
 30
0.0
  9
$PUCSORGFRONT
 10
0.0
 20
0.0
 30
0.0
  9
$PUCSORGBACK
 10
0.0
 20
0.0
 30
0.0
  9
$USERI1
 70
     0
  9
$USERI2
 70
     0
  9
$USERI3
 70
     0
  9
$USERI4
 70
     0
  9
$USERI5
 70
     0
  9
$USERR1
 40
0.0
  9
$USERR2
 40
0.0
  9
$USERR3
 40
0.0
  9
$USERR4
 40
0.0
  9
$USERR5
 40
0.0
  9
$WORLDVIEW
 70
     1
  9
$SHADEDGE
 70
     3
  9
$SHADEDIF
 70
    70
  9
$TILEMODE
 70
     1
  9
$MAXACTVP
 70
    64
  9
$PINSBASE
 10
0.0
 20
0.0
 30
0.0
  9
$PLIMCHECK
 70
     0
  9
$PEXTMIN
 10
0.0
 20
0.0
 30
0.0
  9
$PEXTMAX
 10
0.0
 20
0.0
 30
0.0
  9
$PLIMMIN
 10
-95.87226993865028
 20
-25.69999999999999
  9
$PLIMMAX
 10
201.1277300613497
 20
184.3
  9
$UNITMODE
 70
     0
  9
$VISRETAIN
 70
     0
  9
$PLINEGEN
 70
     1
  9
$PSLTSCALE
 70
     0
  9
$TREEDEPTH
 70
  3020
  9
$CMLSTYLE
  2
Standard
  9
$CMLJUST
 70
     0
  9
$CMLSCALE
 40
1.0
  9
$PROXYGRAPHICS
 70
     0
  9
$MEASUREMENT
 70
     1
  9
$CELWEIGHT
370
    -1
  9
$ENDCAPS
280
     0
  9
$JOINSTYLE
280
     0
  9
$LWDISPLAY
290
     1
  9
$INSUNITS
 70
     4
  9
$HYPERLINKBASE
  1

  9
$STYLESHEET
  1

  9
$XEDIT
290
     1
  9
$CEPSNTYPE
380
     0
  9
$PSTYLEMODE
290
     1
  9
$FINGERPRINTGUID
  2

  9
$VERSIONGUID
  2

  9
$EXTNAMES
290
     1
  9
$PSVPSCALE
 40
0.0
  9
$OLESTARTUP
290
     0
  9
$SORTENTS
280
   127
  9
$INDEXCTL
280
     0
  9
$HIDETEXT
280
     1
  9
$XCLIPFRAME
290
     0
  9
$HALOGAP
280
     0
  9
$OBSCOLOR
 70
   257
  9
$OBSLTYPE
280
     0
  9
$INTERSECTIONDISPLAY
280
     0
  9
$INTERSECTIONCOLOR
 70
   257
  9
$DIMASSOC
280
     2
  9
$PROJECTNAME
  1

  9
$CAMERADISPLAY
290
     0
  9
$LENSLENGTH
 40
50.0
  9
$CAMERAHEIGHT
 40
0.0
  9
$STEPSPERSEC
 40
2.0
  9
$STEPSIZE
 40
6.0
  9
$3DDWFPREC
 40
2.0
  9
$PSOLWIDTH
 40
0.25
  9
$PSOLHEIGHT
 40
4.0
  9
$LOFTANG1
 40
1.570796326794897
  9
$LOFTANG2
 40
1.570796326794897
  9
$LOFTMAG1
 40
0.0
  9
$LOFTMAG2
 40
0.0
  9
$LOFTPARAM
 70
     7
  9
$LOFTNORMALS
280
     1
  9
$LATITUDE
 40
37.795
  9
$LONGITUDE
 40
-122.394
  9
$NORTHDIRECTION
 40
0.0
  9
$TIMEZONE
 70
 -8000
  9
$LIGHTGLYPHDISPLAY
280
     1
  9
$TILEMODELIGHTSYNCH
280
     1
  9
$SOLIDHIST
280
     1
  9
$SHOWHIST
280
     1
  9
$DWFFRAME
280
     2
  9
$DGNFRAME
280
     2
  9
$REALWORLDSCALE
290
     1
  9
$INTERFERECOLOR
 62
   256
  9
$CSHADOW
280
     0
  9
$SHADOWPLANELOCATION
 40
0.0
  0
ENDSEC
  0
SECTION
  2
CLASSES
  0
CLASS
  1
LWPOLYLINE
  2
AcDbPolyline
  3
ObjectDBX Classes
 90
        0
 91
        1
280
     0
281
     1
  0
CLASS
  1
IMAGE
  2
AcDbRasterImage
  3
ISM
 90
      127
 91
       28
280
     0
281
     1
  0
CLASS
  1
OLE2FRAME
  2
AcDbOle2Frame
  3
ObjectDBX Classes
 90
        0
 91
        1
280
     0
281
     1
  0
CLASS
  1
HATCH
  2
AcDbHatch
  3
ObjectDBX Classes
 90
        0
 91
        1
280
     0
281
     1
  0
CLASS
  1
DICTIONARYVAR
  2
AcDbDictionaryVar
  3
ObjectDBX Classes
 90
        0
 91
       27
280
     0
281
     0
  0
CLASS
  1
RASTERVARIABLES
  2
AcDbRasterVariables
  3
ISM
 90
        0
 91
       27
280
     0
281
     0
  0
CLASS
  1
IMAGEDEF
  2
AcDbRasterImageDef
  3
ISM
 90
        0
 91
       27
280
     0
281
     0
  0
CLASS
  1
IMAGEDEF_REACTOR
  2
AcDbRasterImageDefReactor
  3
ISM
 90
        1
 91
       27
280
     0
281
     0
  0
CLASS
  1
IDBUFFER
  2
AcDbIdBuffer
  3
ObjectDBX Classes
 90
        0
 91
       27
280
     0
281
     0
  0
CLASS
  1
SPATIAL_FILTER
  2
AcDbSpatialFilter
  3
ObjectDBX Classes
 90
        0
 91
       27
280
     0
281
     0
  0
CLASS
  1
XRECORD
  2
AcDbXrecord
  3
ObjectDBX Classes
 90
        0
 91
        1
280
     0
281
     0
  0
CLASS
  1
SORTENTSTABLE
  2
AcDbSortentsTable
  3
ObjectDBX Classes
 90
        0
 91
       27
280
     0
281
     0
  0
CLASS
  1
LAYER_INDEX
  2
AcDbLayerIndex
  3
ObjectDBX Classes
 90
        0
 91
       27
280
     0
281
     0
  0
CLASS
  1
SPATIAL_INDEX
  2
AcDbSpatialIndex
  3
AutoCAD 2000
 90
        0
 91
       27
280
     0
281
     0
  0
CLASS
  1
OBJECT_PTR
  2
CAseDLPNTableRecord
  3
ASE-LPNTableRecord
 90
        1
 91
       27
280
     0
281
     0
  0
CLASS
  1
LAYOUT
  2
AcDbLayout
  3
ObjectDBX Classes
 90
        0
 91
        1
280
     0
281
     0
  0
CLASS
  1
PLOTSETTINGS
  2
AcDbPlotSettings
  3
ObjectDBX Classes
 90
        0
 91
       27
280
     0
281
     0
  0
CLASS
  1
ACDBDICTIONARYWDFLT
  2
AcDbDictionaryWithDefault
  3
ObjectDBX Classes
 90
        0
 91
       27
280
     0
281
     0
  0
CLASS
  1
ACDBPLACEHOLDER
  2
AcDbPlaceHolder
  3
ObjectDBX Classes
 90
        0
 91
        1
280
     0
281
     0
  0
CLASS
  1
SCALE
  2
AcDbScale
  3
ObjectDBX Classes
 90
     1153
 91
       27
280
     0
281
     0
  0
CLASS
  1
MATERIAL
  2
AcDbMaterial
  3
ObjectDBX Classes
 90
     1153
 91
       27
280
     0
281
     0
  0
CLASS
  1
VISUALSTYLE
  2
AcDbVisualStyle
  3
ObjectDBX Classes
 90
     4095
 91
       27
280
     0
281
     0
  0
CLASS
  1
TABLESTYLE
  2
AcDbTableStyle
  3
ObjectDBX Classes
 90
     4095
 91
       27
280
     0
281
     0
  0
CLASS
  1
DIMASSOC
  2
AcDbDimAssoc
  3
"AcDbDimAssoc|Product Desc:     AcDim ARX App For Dimension|Company:          Autodesk, Inc.|WEB Address:      www.autodesk.com"
 90
        0
 91
       27
280
     0
281
     0
  0
CLASS
  1
CELLSTYLEMAP
  2
AcDbCellStyleMap
  3
ObjectDBX Classes
 90
     1152
 91
       27
280
     0
281
     0
  0
CLASS
  1
SUN
  2
AcDbSun
  3
SCENEOE
 90
     1153
 91
       27
280
     0
281
     0
  0
CLASS
  1
MLEADERSTYLE
  2
AcDbMLeaderStyle
  3
ACDB_MLEADERSTYLE_CLASS
 90
     4095
 91
       27
280
     0
281
     0
  0
CLASS
  1
FIELD
  2
AcDbField
  3
ObjectDBX Classes
 90
     1152
 91
       15
280
     0
281
     0
  0
CLASS
  1
FIELDLIST
  2
AcDbFieldList
  3
ObjectDBX Classes
 90
     1152
 91
       15
280
     0
281
     0
  0
ENDSEC
  0
SECTION
  2
TABLES
  0
TABLE
  2
VPORT
  5
7
330
0
100
AcDbSymbolTable
 70
     1
  0
VPORT
  5
15
330
7
100
AcDbSymbolTableRecord
100
AcDbViewportTableRecord
  2
*ACTIVE
 70
     0
 10
0.0
 20
0.0
 11
1.0
 21
1.0
 12
296.9999999999999
 22
210.0
 13
0.0
 23
0.0
 14
1.0
 24
1.0
 15
0.0
 25
0.0
 16
0.0
 26
0.0
 36
1.0
 17
0.0
 27
0.0
 37
0.0
 40
428.4
 41
2.292582417582417
 42
50.0
 43
0.0
 44
0.0
 50
0.0
 51
0.0
 71
    16
 72
  2000
 73
     1
 74
     1
 75
     0
 76
     0
 77
     0
 78
     0
281
     0
 65
     1
110
0.0
120
0.0
130
0.0
111
1.0
121
0.0
131
0.0
112
0.0
122
1.0
132
0.0
 79
     0
146
0.0
348
26C
 60
     3
 61
     5
292
     1
282
     1
141
0.0
142
0.0
 63
   256
361
10E8
  0
ENDTAB
  0
TABLE
  2
LTYPE
  5
4
330
0
100
AcDbSymbolTable
 70
     3
  0
LTYPE
  5
11
330
4
100
AcDbSymbolTableRecord
100
AcDbLinetypeTableRecord
  2
ByBlock
 70
     0
  3

 72
    65
 73
     0
 40
0.0
  0
LTYPE
  5
12
330
4
100
AcDbSymbolTableRecord
100
AcDbLinetypeTableRecord
  2
ByLayer
 70
     0
  3
Solid line
 72
    65
 73
     0
 40
0.0
  0
LTYPE
  5
13
330
4
100
AcDbSymbolTableRecord
100
AcDbLinetypeTableRecord
  2
Continuous
 70
     0
  3
Solid line
 72
    65
 73
     0
 40
0.0
  0
LTYPE
  5
88D
330
4
100
AcDbSymbolTableRecord
100
AcDbLinetypeTableRecord
  2
CENTER
 70
     0
  3
----------  --  ----------  --  
 72
    65
 73
     4
 40
20.0
 49
12.5
 74
     0
 49
-2.5
 74
     0
 49
2.5
 74
     0
 49
-2.5
 74
     0
  0
LTYPE
  5
12C7
330
4
100
AcDbSymbolTableRecord
100
AcDbLinetypeTableRecord
  2
HIDDEN
 70
     0
  3
Hidden _ _ _ _ _ _ _ _ _ _ _ _ _ _ _ _ _ _ _ _ 
 72
    65
 73
     2
 40
9.524999999999999
 49
6.35
 74
     0
 49
-3.175
 74
     0
  0
ENDTAB
  0
TABLE
  2
LAYER
  5
2
102
{ACAD_XDICTIONARY
360
2E1
102
}
330
0
100
AcDbSymbolTable
 70
     8
  0
LAYER
  5
14
330
2
100
AcDbSymbolTableRecord
100
AcDbLayerTableRecord
  2
0
 70
     0
 62
     7
  6
Continuous
370
    -3
390
1D
347
266
  0
LAYER
  5
4A
330
2
100
AcDbSymbolTableRecord
100
AcDbLayerTableRecord
  2
Defpoints
 70
     0
 62
     7
  6
Continuous
290
     0
370
    -3
390
1D
347
266
  0
LAYER
  5
12CE
330
2
100
AcDbSymbolTableRecord
100
AcDbLayerTableRecord
  2
寸法
 70
     0
 62
     3
  6
Continuous
370
    13
390
1D
347
266
1001
AcAecLayerStandard
1000

1000

  0
LAYER
  5
12CF
330
2
100
AcDbSymbolTableRecord
100
AcDbLayerTableRecord
  2
モデル
 70
     0
 62
     7
  6
Continuous
370
    20
390
1D
347
266
1001
AcAecLayerStandard
1000

1000

  0
LAYER
  5
142A
330
2
100
AcDbSymbolTableRecord
100
AcDbLayerTableRecord
  2
テンプレート
 70
     0
 62
     7
  6
Continuous
370
    20
390
1D
347
266
1001
AcAecLayerStandard
1000

1000

  0
LAYER
  5
1D5C
330
2
100
AcDbSymbolTableRecord
100
AcDbLayerTableRecord
  2
TFORMLOGO
 70
     0
 62
     7
  6
Continuous
370
    20
390
1D
347
266
  0
LAYER
  5
3848
330
2
100
AcDbSymbolTableRecord
100
AcDbLayerTableRecord
  2
PRINT BORDER
 70
     0
 62
     4
  6
Continuous
290
     0
370
    -3
390
1D
347
266
1001
AcAecLayerStandard
1000

1000

  0
LAYER
  5
5D18
330
2
100
AcDbSymbolTableRecord
100
AcDbLayerTableRecord
  2
MODEL
 70
     0
 62
     7
  6
Continuous
370
    20
390
1D
347
266
  0
ENDTAB
  0
TABLE
  2
STYLE
  5
3
330
0
100
AcDbSymbolTable
 70
     2
  0
STYLE
  5
17
330
3
100
AcDbSymbolTableRecord
100
AcDbTextStyleTableRecord
  2
Standard
 70
     0
 40
0.0
 41
1.0
 50
0.0
 71
     0
 42
2.5
  3
txt
  4
BIGFONT.SHX
  0
STYLE
  5
39
330
3
100
AcDbSymbolTableRecord
100
AcDbTextStyleTableRecord
  2
ＭＳ ゴシック
 70
     0
 40
0.0
 41
1.0
 50
0.0
 71
     0
 42
2.5
  3
msgothic.ttc
  4
ＭＳ ゴシック
1001
ACAD
1000
ＭＳ ゴシック
1071
        0
  0
ENDTAB
  0
TABLE
  2
VIEW
  5
5
330
0
100
AcDbSymbolTable
 70
     0
  0
ENDTAB
  0
TABLE
  2
UCS
  5
6
330
0
100
AcDbSymbolTable
 70
     0
  0
ENDTAB
  0
TABLE
  2
APPID
  5
8
330
0
100
AcDbSymbolTable
 70
     3
  0
APPID
  5
16
330
8
100
AcDbSymbolTableRecord
100
AcDbRegAppTableRecord
  2
ACAD
 70
     0
  0
APPID
  5
7AC
330
8
100
AcDbSymbolTableRecord
100
AcDbRegAppTableRecord
  2
AcAecLayerStandard
 70
     0
  0
APPID
  5
50FF
330
8
100
AcDbSymbolTableRecord
100
AcDbRegAppTableRecord
  2
ACAD_MLEADERVER
 70
     0
  0
ENDTAB
  0
TABLE
  2
DIMSTYLE
  5
9
330
0
100
AcDbSymbolTable
 70
     2
100
AcDbDimStyleTable
  0
DIMSTYLE
105
18
330
9
100
AcDbSymbolTableRecord
100
AcDbDimStyleTableRecord
  2
Standard
 70
     0
178
     0
340
17
  0
DIMSTYLE
105
57
102
{ACAD_REACTORS
330
4BF2
330
4C1F
330
4C2F
330
4C40
330
4C5E
330
4C6D
330
58E6
330
58F6
330
5907
330
5962
330
5971
330
5BD4
102
}
330
9
100
AcDbSymbolTableRecord
100
AcDbDimStyleTableRecord
  2
tfrom線あり
 70
     0
  3
<>
  4
[]
 41
1.0
 42
3.0
 43
0.9999999999999999
 44
0.0
 73
     0
 74
     0
 77
     1
 78
    11
140
5.0
141
0.0
143
1.0
147
3.0
171
     1
174
     1
178
     0
179
     2
271
     0
272
     1
276
     2
284
    11
285
    11
286
    11
289
     0
340
39
341
4E
342
4E
  0
ENDTAB
  0
TABLE
  2
BLOCK_RECORD
  5
1
330
0
100
AcDbSymbolTable
 70
    36
  0
BLOCK_RECORD
  5
A
330
1
100
AcDbSymbolTableRecord
100
AcDbBlockTableRecord
  2
*MODEL_SPACE
340
20
 70
     0
280
     1
281
     0
  0
BLOCK_RECORD
  5
B
330
1
100
AcDbSymbolTableRecord
100
AcDbBlockTableRecord
  2
*PAPER_SPACE
340
21
 70
     0
280
     1
281
     0
  0
BLOCK_RECORD
  5
4E
330
1
100
AcDbSymbolTableRecord
100
AcDbBlockTableRecord
  2
_DOT
340
0
102
{BLKREFS
331
4BFB
331
4BFC
331
4C28
331
4C29
331
4C38
331
4C39
331
4C49
331
4C4A
331
4C67
331
4C68
331
4C76
331
4C77
331
4F3B
331
4F3C
331
5377
331
5378
331
5383
331
5384
331
538F
331
5390
331
539B
331
539C
331
56EE
331
56EF
331
56FD
331
56FE
331
570C
331
570D
331
571B
331
571C
331
5754
331
5755
331
5771
331
5772
331
57F2
331
57F3
331
5801
331
5802
331
58C5
331
58C6
331
58D4
331
58D5
331
58ED
331
58EE
331
58FD
331
58FE
331
590E
331
590F
331
596B
331
596C
331
597A
331
597B
331
5994
331
5995
331
5BDD
331
5BDE
331
5C20
331
5C21
102
}
 70
     0
280
     1
281
     0
  0
BLOCK_RECORD
  5
12C3
330
1
100
AcDbSymbolTableRecord
100
AcDbBlockTableRecord
  2
*Paper_Space1
340
12C4
 70
     0
280
     1
281
     0
  0
BLOCK_RECORD
  5
1D88
330
1
100
AcDbSymbolTableRecord
100
AcDbBlockTableRecord
  2
名称未設定-1
340
0
102
{BLKREFS
331
36E3
102
}
 70
     1
280
     1
281
     0
  0
BLOCK_RECORD
  5
1D8B
330
1
100
AcDbSymbolTableRecord
100
AcDbBlockTableRecord
  2
block 2
340
0
102
{BLKREFS
331
1D8A
102
}
 70
     0
280
     1
281
     0
  0
BLOCK_RECORD
  5
1D8E
330
1
100
AcDbSymbolTableRecord
100
AcDbBlockTableRecord
  2
block 3
340
0
102
{BLKREFS
331
1D8D
102
}
 70
     0
280
     1
281
     0
  0
BLOCK_RECORD
  5
1D91
330
1
100
AcDbSymbolTableRecord
100
AcDbBlockTableRecord
  2
block 4
340
0
102
{BLKREFS
331
1D90
102
}
 70
     0
280
     1
281
     0
  0
BLOCK_RECORD
  5
1DA0
330
1
100
AcDbSymbolTableRecord
100
AcDbBlockTableRecord
  2
block 5
340
0
102
{BLKREFS
331
1D9F
102
}
 70
     0
280
     1
281
     0
  0
BLOCK_RECORD
  5
4BF5
330
1
100
AcDbSymbolTableRecord
100
AcDbBlockTableRecord
  2
*D7
340
0
 70
     0
280
     1
281
     0
  0
BLOCK_RECORD
  5
4C22
330
1
100
AcDbSymbolTableRecord
100
AcDbBlockTableRecord
  2
*D8
340
0
 70
     0
280
     1
281
     0
  0
BLOCK_RECORD
  5
4C32
330
1
100
AcDbSymbolTableRecord
100
AcDbBlockTableRecord
  2
*D9
340
0
 70
     0
280
     1
281
     0
  0
BLOCK_RECORD
  5
4C43
330
1
100
AcDbSymbolTableRecord
100
AcDbBlockTableRecord
  2
*D10
340
0
 70
     0
280
     1
281
     0
  0
BLOCK_RECORD
  5
4C61
330
1
100
AcDbSymbolTableRecord
100
AcDbBlockTableRecord
  2
*D11
340
0
 70
     0
280
     1
281
     0
  0
BLOCK_RECORD
  5
4C70
330
1
100
AcDbSymbolTableRecord
100
AcDbBlockTableRecord
  2
*D12
340
0
 70
     0
280
     1
281
     0
  0
BLOCK_RECORD
  5
4F35
330
1
100
AcDbSymbolTableRecord
100
AcDbBlockTableRecord
  2
*D13
340
0
 70
     0
280
     1
281
     0
  0
BLOCK_RECORD
  5
5371
330
1
100
AcDbSymbolTableRecord
100
AcDbBlockTableRecord
  2
*D14
340
0
 70
     0
280
     1
281
     0
  0
BLOCK_RECORD
  5
537D
330
1
100
AcDbSymbolTableRecord
100
AcDbBlockTableRecord
  2
*D15
340
0
 70
     0
280
     1
281
     0
  0
BLOCK_RECORD
  5
5389
330
1
100
AcDbSymbolTableRecord
100
AcDbBlockTableRecord
  2
*D16
340
0
 70
     0
280
     1
281
     0
  0
BLOCK_RECORD
  5
5395
330
1
100
AcDbSymbolTableRecord
100
AcDbBlockTableRecord
  2
*D17
340
0
 70
     0
280
     1
281
     0
  0
BLOCK_RECORD
  5
56E8
330
1
100
AcDbSymbolTableRecord
100
AcDbBlockTableRecord
  2
*D18
340
0
 70
     0
280
     1
281
     0
  0
BLOCK_RECORD
  5
56F7
330
1
100
AcDbSymbolTableRecord
100
AcDbBlockTableRecord
  2
*D19
340
0
 70
     0
280
     1
281
     0
  0
BLOCK_RECORD
  5
5706
330
1
100
AcDbSymbolTableRecord
100
AcDbBlockTableRecord
  2
*D20
340
0
 70
     0
280
     1
281
     0
  0
BLOCK_RECORD
  5
5715
330
1
100
AcDbSymbolTableRecord
100
AcDbBlockTableRecord
  2
*D21
340
0
 70
     0
280
     1
281
     0
  0
BLOCK_RECORD
  5
574D
330
1
100
AcDbSymbolTableRecord
100
AcDbBlockTableRecord
  2
*D22
340
0
 70
     0
280
     1
281
     0
  0
BLOCK_RECORD
  5
576B
330
1
100
AcDbSymbolTableRecord
100
AcDbBlockTableRecord
  2
*D23
340
0
 70
     0
280
     1
281
     0
  0
BLOCK_RECORD
  5
57EC
330
1
100
AcDbSymbolTableRecord
100
AcDbBlockTableRecord
  2
*D24
340
0
 70
     0
280
     1
281
     0
  0
BLOCK_RECORD
  5
57FB
330
1
100
AcDbSymbolTableRecord
100
AcDbBlockTableRecord
  2
*D25
340
0
 70
     0
280
     1
281
     0
  0
BLOCK_RECORD
  5
58BF
330
1
100
AcDbSymbolTableRecord
100
AcDbBlockTableRecord
  2
*D26
340
0
 70
     0
280
     1
281
     0
  0
BLOCK_RECORD
  5
58CE
330
1
100
AcDbSymbolTableRecord
100
AcDbBlockTableRecord
  2
*D27
340
0
 70
     0
280
     1
281
     0
  0
BLOCK_RECORD
  5
58E7
330
1
100
AcDbSymbolTableRecord
100
AcDbBlockTableRecord
  2
*D28
340
0
 70
     0
280
     1
281
     0
  0
BLOCK_RECORD
  5
58F7
330
1
100
AcDbSymbolTableRecord
100
AcDbBlockTableRecord
  2
*D29
340
0
 70
     0
280
     1
281
     0
  0
BLOCK_RECORD
  5
5908
330
1
100
AcDbSymbolTableRecord
100
AcDbBlockTableRecord
  2
*D30
340
0
 70
     0
280
     1
281
     0
  0
BLOCK_RECORD
  5
5965
330
1
100
AcDbSymbolTableRecord
100
AcDbBlockTableRecord
  2
*D31
340
0
 70
     0
280
     1
281
     0
  0
BLOCK_RECORD
  5
5974
330
1
100
AcDbSymbolTableRecord
100
AcDbBlockTableRecord
  2
*D32
340
0
 70
     0
280
     1
281
     0
  0
BLOCK_RECORD
  5
598E
330
1
100
AcDbSymbolTableRecord
100
AcDbBlockTableRecord
  2
*D33
340
0
 70
     0
280
     1
281
     0
  0
BLOCK_RECORD
  5
5BD7
330
1
100
AcDbSymbolTableRecord
100
AcDbBlockTableRecord
  2
*D34
340
0
 70
     0
280
     1
281
     0
  0
BLOCK_RECORD
  5
5C1A
330
1
100
AcDbSymbolTableRecord
100
AcDbBlockTableRecord
  2
*D35
340
0
 70
     0
280
     1
281
     0
  0
ENDTAB
  0
ENDSEC
  0
SECTION
  2
BLOCKS
  0
BLOCK
  5
D
330
A
100
AcDbEntity
  8
0
390
1D
100
AcDbBlockBegin
  2
*MODEL_SPACE
 70
     0
 10
0.0
 20
0.0
 30
0.0
  3
*MODEL_SPACE
  1
*MODEL_SPACE
  0
ENDBLK
  5
E
330
A
100
AcDbEntity
  8
0
390
1D
100
AcDbBlockEnd
  0
BLOCK
  5
F
330
B
100
AcDbEntity
 67
     1
  8
0
390
1D
100
AcDbBlockBegin
  2
*PAPER_SPACE
 70
     0
 10
0.0
 20
0.0
 30
0.0
  3
*PAPER_SPACE
  1
*PAPER_SPACE
  0
ENDBLK
  5
10
330
B
100
AcDbEntity
 67
     1
  8
0
390
1D
100
AcDbBlockEnd
  0
BLOCK
  5
57B8
330
4E
100
AcDbEntity
  8
0
390
1D
100
AcDbBlockBegin
  2
_DOT
 70
     0
 10
0.0
 20
0.0
 30
0.0
  3
_DOT
  1
_DOT
  0
POLYLINE
  5
57BA
330
4E
100
AcDbEntity
  8
0
  6
ByBlock
 62
     0
370
    -2
390
1D
100
AcDb2dPolyline
 66
     1
 10
0.0
 20
0.0
 30
0.0
 70
     1
 40
0.5
 41
0.5
  0
VERTEX
  5
57BB
330
57BA
100
AcDbEntity
  8
0
  6
ByBlock
 62
     0
370
    -2
390
1D
100
AcDbVertex
100
AcDb2dVertex
 10
-0.25
 20
0.0
 30
0.0
 42
1.0
  0
VERTEX
  5
57BC
330
57BA
100
AcDbEntity
  8
0
  6
ByBlock
 62
     0
370
    -2
390
1D
100
AcDbVertex
100
AcDb2dVertex
 10
0.25
 20
0.0
 30
0.0
 42
1.0
  0
SEQEND
  5
57BD
330
57BA
100
AcDbEntity
  8
0
390
1D
  0
LINE
  5
57BE
330
4E
100
AcDbEntity
  8
0
  6
ByBlock
 62
     0
370
    -2
390
1D
100
AcDbLine
 10
-0.5
 20
0.0
 30
0.0
 11
-1.0
 21
0.0
 31
0.0
  0
ENDBLK
  5
57BF
330
4E
100
AcDbEntity
  8
0
390
1D
100
AcDbBlockEnd
  0
BLOCK
  5
12C5
330
12C3
100
AcDbEntity
  8
0
100
AcDbBlockBegin
  2
*Paper_Space1
 70
     0
 10
0.0
 20
0.0
 30
0.0
  3
*Paper_Space1
  1
*Paper_Space83
  0
ENDBLK
  5
12C6
330
12C3
100
AcDbEntity
  8
0
100
AcDbBlockEnd
  0
BLOCK
  5
1D89
330
1D88
100
AcDbEntity
  8
0
100
AcDbBlockBegin
  2
名称未設定-1
 70
     0
 10
0.0
 20
0.0
 30
0.0
  3
名称未設定-1
  1
名称未設定-1
  0
INSERT
  5
1D8A
330
1D88
100
AcDbEntity
  8
TFORMLOGO
100
AcDbBlockReference
  2
block 2
 10
0.0
 20
0.0
 30
0.0
  0
ENDBLK
  5
1DAF
330
1D88
100
AcDbEntity
  8
0
100
AcDbBlockEnd
  0
BLOCK
  5
1D8C
330
1D8B
100
AcDbEntity
  8
0
100
AcDbBlockBegin
  2
block 2
 70
     0
 10
0.0
 20
0.0
 30
0.0
  3
block 2
  1
block 2
  0
INSERT
  5
1D8D
330
1D8B
100
AcDbEntity
  8
TFORMLOGO
100
AcDbBlockReference
  2
block 3
 10
0.0
 20
0.0
 30
0.0
  0
ENDBLK
  5
1DAE
330
1D8B
100
AcDbEntity
  8
0
100
AcDbBlockEnd
  0
BLOCK
  5
1D8F
330
1D8E
100
AcDbEntity
  8
0
100
AcDbBlockBegin
  2
block 3
 70
     0
 10
0.0
 20
0.0
 30
0.0
  3
block 3
  1
block 3
  0
INSERT
  5
1D90
330
1D8E
100
AcDbEntity
  8
TFORMLOGO
100
AcDbBlockReference
  2
block 4
 10
0.0
 20
0.0
 30
0.0
  0
ENDBLK
  5
1DAD
330
1D8E
100
AcDbEntity
  8
0
100
AcDbBlockEnd
  0
BLOCK
  5
1D92
330
1D91
100
AcDbEntity
  8
0
100
AcDbBlockBegin
  2
block 4
 70
     0
 10
0.0
 20
0.0
 30
0.0
  3
block 4
  1
block 4
  0
POLYLINE
  5
1D93
330
1D91
100
AcDbEntity
  8
TFORMLOGO
370
     0
100
AcDb2dPolyline
 66
     1
 10
0.0
 20
0.0
 30
0.0
  0
VERTEX
  5
1D94
330
1D93
100
AcDbEntity
  8
TFORMLOGO
370
     0
100
AcDbVertex
100
AcDb2dVertex
 10
83.79545727667795
 20
167.6444858234922
 30
0.0
  0
VERTEX
  5
1D95
330
1D93
100
AcDbEntity
  8
TFORMLOGO
370
     0
100
AcDbVertex
100
AcDb2dVertex
 10
83.79545727667795
 20
159.7968976406313
 30
0.0
  0
VERTEX
  5
1D96
330
1D93
100
AcDbEntity
  8
TFORMLOGO
370
     0
100
AcDbVertex
100
AcDb2dVertex
 10
71.3631329975216
 20
159.7968976406313
 30
0.0
  0
VERTEX
  5
1D97
330
1D93
100
AcDbEntity
  8
TFORMLOGO
370
     0
100
AcDbVertex
100
AcDb2dVertex
 10
71.3631329975216
 20
127.8027915271048
 30
0.0
  0
VERTEX
  5
1D98
330
1D93
100
AcDbEntity
  8
TFORMLOGO
370
     0
100
AcDbVertex
100
AcDb2dVertex
 10
60.43011526263018
 20
127.8027915271048
 30
0.0
  0
VERTEX
  5
1D99
330
1D93
100
AcDbEntity
  8
TFORMLOGO
370
     0
100
AcDbVertex
100
AcDb2dVertex
 10
60.43011526263018
 20
159.7968976406313
 30
0.0
  0
VERTEX
  5
1D9A
330
1D93
100
AcDbEntity
  8
TFORMLOGO
370
     0
100
AcDbVertex
100
AcDb2dVertex
 10
48.21793273020759
 20
159.7968976406313
 30
0.0
  0
VERTEX
  5
1D9B
330
1D93
100
AcDbEntity
  8
TFORMLOGO
370
     0
100
AcDbVertex
100
AcDb2dVertex
 10
48.21793273020759
 20
167.6444858234922
 30
0.0
  0
VERTEX
  5
1D9C
330
1D93
100
AcDbEntity
  8
TFORMLOGO
370
     0
100
AcDbVertex
100
AcDb2dVertex
 10
83.79545727667795
 20
167.6444858234922
 30
0.0
  0
SEQEND
  5
1D9D
330
1D93
100
AcDbEntity
  8
TFORMLOGO
370
     0
  0
HATCH
  5
1D9E
330
1D91
100
AcDbEntity
  8
TFORMLOGO
 62
   250
420
  2234388
100
AcDbHatch
 10
0.0
 20
0.0
 30
0.0
210
0.0
220
0.0
230
1.0
  2
SOLID
 70
     1
 71
     0
 91
        1
 92
        1
 93
        8
 72
     1
 10
83.79545727667795
 20
167.6444858234922
 11
83.79545727667795
 21
159.7968976406313
 72
     1
 10
83.79545727667795
 20
159.7968976406313
 11
71.3631329975216
 21
159.7968976406313
 72
     1
 10
71.3631329975216
 20
159.7968976406313
 11
71.3631329975216
 21
127.8027915271048
 72
     1
 10
71.3631329975216
 20
127.8027915271048
 11
60.43011526263018
 21
127.8027915271048
 72
     1
 10
60.43011526263018
 20
127.8027915271048
 11
60.43011526263018
 21
159.7968976406313
 72
     1
 10
60.43011526263018
 20
159.7968976406313
 11
48.21793273020759
 21
159.7968976406313
 72
     1
 10
48.21793273020759
 20
159.7968976406313
 11
48.21793273020759
 21
167.6444858234922
 72
     1
 10
48.21793273020759
 20
167.6444858234922
 11
83.79545727667795
 21
167.6444858234922
 97
        0
 75
     2
 76
     1
 98
        0
  0
INSERT
  5
1D9F
330
1D91
100
AcDbEntity
  8
TFORMLOGO
100
AcDbBlockReference
  2
block 5
 10
0.0
 20
0.0
 30
0.0
  0
ENDBLK
  5
1DAC
330
1D91
100
AcDbEntity
  8
0
100
AcDbBlockEnd
  0
BLOCK
  5
1DA1
330
1DA0
100
AcDbEntity
  8
0
100
AcDbBlockBegin
  2
block 5
 70
     0
 10
0.0
 20
0.0
 30
0.0
  3
block 5
  1
block 5
  0
SPLINE
  5
1DA2
330
1DA0
100
AcDbEntity
  8
TFORMLOGO
370
     0
100
AcDbSpline
210
0.0
220
0.0
230
1.0
 70
    11
 71
     3
 72
    56
 73
    52
 74
     0
 42
0.000000001
 43
0.0000000001
 40
0.0
 40
0.0
 40
0.0
 40
0.0
 40
1.0
 40
1.0
 40
1.0
 40
2.0
 40
2.0
 40
2.0
 40
3.0
 40
3.0
 40
3.0
 40
4.0
 40
4.0
 40
4.0
 40
5.0
 40
5.0
 40
5.0
 40
6.0
 40
6.0
 40
6.0
 40
7.0
 40
7.0
 40
7.0
 40
8.0
 40
8.0
 40
8.0
 40
9.0
 40
9.0
 40
9.0
 40
10.0
 40
10.0
 40
10.0
 40
11.0
 40
11.0
 40
11.0
 40
12.0
 40
12.0
 40
12.0
 40
13.0
 40
13.0
 40
13.0
 40
14.0
 40
14.0
 40
14.0
 40
15.0
 40
15.0
 40
15.0
 40
16.0
 40
16.0
 40
16.0
 40
17.0
 40
17.0
 40
17.0
 40
17.0
 10
100.4504378777679
 20
166.69157178364
 30
0.0
 10
101.9848844191641
 20
167.1313385124438
 30
0.0
 10
103.9637485713373
 20
166.7649523658846
 30
0.0
 10
103.9637485713373
 20
166.7649523658846
 30
0.0
 10
103.9637485713373
 20
166.7649523658846
 30
0.0
 10
103.0132460999156
 20
163.911205638077
 30
0.0
 10
103.0132460999156
 20
163.911205638077
 30
0.0
 10
103.0132460999156
 20
163.911205638077
 30
0.0
 10
101.0674548862189
 20
164.3601018759394
 30
0.0
 10
99.57090442016032
 20
163.1805004036133
 30
0.0
 10
98.40508333886608
 20
162.258247733807
 30
0.0
 10
97.65301849830304
 20
159.804132345923
 30
0.0
 10
97.3598406791005
 20
158.8699940888517
 30
0.0
 10
97.3598406791005
 20
158.8699940888517
 30
0.0
 10
96.07137411762282
 20
154.9119212747295
 30
0.0
 10
96.07137411762282
 20
154.9119212747295
 30
0.0
 10
96.07137411762282
 20
154.9119212747295
 30
0.0
 10
100.3012651448482
 20
154.9119212747295
 30
0.0
 10
100.3012651448482
 20
154.9119212747295
 30
0.0
 10
100.3012651448482
 20
154.9119212747295
 30
0.0
 10
99.64152892419852
 20
152.4199098115079
 30
0.0
 10
99.64152892419852
 20
152.4199098115079
 30
0.0
 10
99.64152892419852
 20
152.4199098115079
 30
0.0
 10
95.38097652692731
 20
152.4199098115079
 30
0.0
 10
95.38097652692731
 20
152.4199098115079
 30
0.0
 10
95.38097652692731
 20
152.4199098115079
 30
0.0
 10
87.75353009080013
 20
127.8027915271048
 30
0.0
 10
87.75353009080013
 20
127.8027915271048
 30
0.0
 10
87.75353009080013
 20
127.8027915271048
 30
0.0
 10
85.36538832498108
 20
127.8027915271048
 30
0.0
 10
85.36538832498108
 20
127.8027915271048
 30
0.0
 10
85.36538832498108
 20
127.8027915271048
 30
0.0
 10
93.00006946639998
 20
152.4199098115079
 30
0.0
 10
93.00006946639998
 20
152.4199098115079
 30
0.0
 10
93.00006946639998
 20
152.4199098115079
 30
0.0
 10
89.85297266450198
 20
152.4199098115079
 30
0.0
 10
89.85297266450198
 20
152.4199098115079
 30
0.0
 10
89.85297266450198
 20
152.4199098115079
 30
0.0
 10
90.51270888515164
 20
154.9119212747295
 30
0.0
 10
90.51270888515164
 20
154.9119212747295
 30
0.0
 10
90.51270888515164
 20
154.9119212747295
 30
0.0
 10
93.6904670570955
 20
154.9119212747295
 30
0.0
 10
93.6904670570955
 20
154.9119212747295
 30
0.0
 10
93.6904670570955
 20
154.9119212747295
 30
0.0
 10
94.81598049462158
 20
158.3616699146644
 30
0.0
 10
94.81598049462158
 20
158.3616699146644
 30
0.0
 10
95.7237637538445
 20
161.2605474231013
 30
0.0
 10
96.4968436907311
 20
162.8139420021662
 30
0.0
 10
97.15657991138076
 20
163.9844139654337
 30
0.0
 10
97.81183750494507
 20
165.1523021053827
 30
0.0
 10
99.1047826935081
 20
166.3084769129547
 30
0.0
 10
100.4504378777679
 20
166.69157178364
 30
0.0
  0
HATCH
  5
1DA3
330
1DA0
100
AcDbEntity
  8
TFORMLOGO
 62
   250
420
  2234388
100
AcDbHatch
 10
0.0
 20
0.0
 30
0.0
210
0.0
220
0.0
230
1.0
  2
SOLID
 70
     1
 71
     0
 91
        1
 92
        1
 93
        1
 72
     4
 94
        3
 73
     0
 74
     1
 95
       56
 96
       52
 40
0.0
 40
0.0
 40
0.0
 40
0.0
 40
1.0
 40
1.0
 40
1.0
 40
2.0
 40
2.0
 40
2.0
 40
3.0
 40
3.0
 40
3.0
 40
4.0
 40
4.0
 40
4.0
 40
5.0
 40
5.0
 40
5.0
 40
6.0
 40
6.0
 40
6.0
 40
7.0
 40
7.0
 40
7.0
 40
8.0
 40
8.0
 40
8.0
 40
9.0
 40
9.0
 40
9.0
 40
10.0
 40
10.0
 40
10.0
 40
11.0
 40
11.0
 40
11.0
 40
12.0
 40
12.0
 40
12.0
 40
13.0
 40
13.0
 40
13.0
 40
14.0
 40
14.0
 40
14.0
 40
15.0
 40
15.0
 40
15.0
 40
16.0
 40
16.0
 40
16.0
 40
17.0
 40
17.0
 40
17.0
 40
17.0
 10
100.4504378777679
 20
166.69157178364
 10
101.9848844191641
 20
167.1313385124438
 10
103.9637485713373
 20
166.7649523658846
 10
103.9637485713373
 20
166.7649523658846
 10
103.9637485713373
 20
166.7649523658846
 10
103.0132460999156
 20
163.911205638077
 10
103.0132460999156
 20
163.911205638077
 10
103.0132460999156
 20
163.911205638077
 10
101.0674548862189
 20
164.3601018759394
 10
99.57090442016032
 20
163.1805004036133
 10
98.40508333886608
 20
162.258247733807
 10
97.65301849830304
 20
159.804132345923
 10
97.3598406791005
 20
158.8699940888517
 10
97.3598406791005
 20
158.8699940888517
 10
96.07137411762282
 20
154.9119212747295
 10
96.07137411762282
 20
154.9119212747295
 10
96.07137411762282
 20
154.9119212747295
 10
100.3012651448482
 20
154.9119212747295
 10
100.3012651448482
 20
154.9119212747295
 10
100.3012651448482
 20
154.9119212747295
 10
99.64152892419852
 20
152.4199098115079
 10
99.64152892419852
 20
152.4199098115079
 10
99.64152892419852
 20
152.4199098115079
 10
95.38097652692731
 20
152.4199098115079
 10
95.38097652692731
 20
152.4199098115079
 10
95.38097652692731
 20
152.4199098115079
 10
87.75353009080013
 20
127.8027915271048
 10
87.75353009080013
 20
127.8027915271048
 10
87.75353009080013
 20
127.8027915271048
 10
85.36538832498108
 20
127.8027915271048
 10
85.36538832498108
 20
127.8027915271048
 10
85.36538832498108
 20
127.8027915271048
 10
93.00006946639998
 20
152.4199098115079
 10
93.00006946639998
 20
152.4199098115079
 10
93.00006946639998
 20
152.4199098115079
 10
89.85297266450198
 20
152.4199098115079
 10
89.85297266450198
 20
152.4199098115079
 10
89.85297266450198
 20
152.4199098115079
 10
90.51270888515164
 20
154.9119212747295
 10
90.51270888515164
 20
154.9119212747295
 10
90.51270888515164
 20
154.9119212747295
 10
93.6904670570955
 20
154.9119212747295
 10
93.6904670570955
 20
154.9119212747295
 10
93.6904670570955
 20
154.9119212747295
 10
94.81598049462158
 20
158.3616699146644
 10
94.81598049462158
 20
158.3616699146644
 10
95.7237637538445
 20
161.2605474231013
 10
96.4968436907311
 20
162.8139420021662
 10
97.15657991138076
 20
163.9844139654337
 10
97.81183750494507
 20
165.1523021053827
 10
99.1047826935081
 20
166.3084769129547
 10
100.4504378777679
 20
166.69157178364
 97
        0
 75
     2
 76
     1
 98
        0
  0
SPLINE
  5
1DA4
330
1DA0
100
AcDbEntity
  8
TFORMLOGO
370
     0
100
AcDbSpline
210
0.0
220
0.0
230
1.0
 70
    11
 71
     3
 72
    38
 73
    34
 74
     0
 42
0.000000001
 43
0.0000000001
 40
0.0
 40
0.0
 40
0.0
 40
0.0
 40
1.0
 40
1.0
 40
1.0
 40
2.0
 40
2.0
 40
2.0
 40
3.0
 40
3.0
 40
3.0
 40
4.0
 40
4.0
 40
4.0
 40
5.0
 40
5.0
 40
5.0
 40
6.0
 40
6.0
 40
6.0
 40
7.0
 40
7.0
 40
7.0
 40
8.0
 40
8.0
 40
8.0
 40
9.0
 40
9.0
 40
9.0
 40
10.0
 40
10.0
 40
10.0
 40
11.0
 40
11.0
 40
11.0
 40
11.0
 10
126.377554584636
 20
154.8151140277308
 30
0.0
 10
126.377554584636
 20
154.8151140277308
 30
0.0
 10
128.8311532078563
 20
154.8151140277308
 30
0.0
 10
128.8311532078563
 20
154.8151140277308
 30
0.0
 10
128.8311532078563
 20
154.8151140277308
 30
0.0
 10
127.7345785914971
 20
151.3062819612468
 30
0.0
 10
127.7345785914971
 20
151.3062819612468
 30
0.0
 10
128.571392836906
 20
152.2922689395754
 30
0.0
 10
129.8860421413442
 20
153.604506675583
 30
0.0
 10
131.0163787157314
 20
154.2664822097754
 30
0.0
 10
132.7044766171327
 20
155.2500576196734
 30
0.0
 10
133.6642808525008
 20
155.3847609420097
 30
0.0
 10
134.7284715499351
 20
155.3565111403944
 30
0.0
 10
134.7284715499351
 20
155.3565111403944
 30
0.0
 10
133.6877075172549
 20
152.0345756272799
 30
0.0
 10
133.6877075172549
 20
152.0345756272799
 30
0.0
 10
133.011434827367
 20
152.3184516825359
 30
0.0
 10
130.930940291334
 20
151.7768823149844
 30
0.0
 10
129.739280976855
 20
150.9162968950455
 30
0.0
 10
128.66613302525
 20
150.1454562717016
 30
0.0
 10
127.9192358313239
 20
149.4857200510519
 30
0.0
 10
127.0393578639405
 20
147.8282835196966
 30
0.0
 10
126.164647543194
 20
146.1699857139017
 30
0.0
 10
125.4742499524985
 20
143.5262176944419
 30
0.0
 10
124.2822461282437
 20
139.6959580071401
 30
0.0
 10
124.2822461282437
 20
139.6959580071401
 30
0.0
 10
120.5753209406769
 20
127.8027915271048
 30
0.0
 10
120.5753209406769
 20
127.8027915271048
 30
0.0
 10
120.5753209406769
 20
127.8027915271048
 30
0.0
 10
118.1964809388044
 20
127.8027915271048
 30
0.0
 10
118.1964809388044
 20
127.8027915271048
 30
0.0
 10
118.1964809388044
 20
127.8027915271048
 30
0.0
 10
126.377554584636
 20
154.8151140277308
 30
0.0
 10
126.377554584636
 20
154.8151140277308
 30
0.0
  0
HATCH
  5
1DA5
330
1DA0
100
AcDbEntity
  8
TFORMLOGO
 62
   250
420
  2234388
100
AcDbHatch
 10
0.0
 20
0.0
 30
0.0
210
0.0
220
0.0
230
1.0
  2
SOLID
 70
     1
 71
     0
 91
        1
 92
        1
 93
        1
 72
     4
 94
        3
 73
     0
 74
     1
 95
       38
 96
       34
 40
0.0
 40
0.0
 40
0.0
 40
0.0
 40
1.0
 40
1.0
 40
1.0
 40
2.0
 40
2.0
 40
2.0
 40
3.0
 40
3.0
 40
3.0
 40
4.0
 40
4.0
 40
4.0
 40
5.0
 40
5.0
 40
5.0
 40
6.0
 40
6.0
 40
6.0
 40
7.0
 40
7.0
 40
7.0
 40
8.0
 40
8.0
 40
8.0
 40
9.0
 40
9.0
 40
9.0
 40
10.0
 40
10.0
 40
10.0
 40
11.0
 40
11.0
 40
11.0
 40
11.0
 10
126.377554584636
 20
154.8151140277308
 10
126.377554584636
 20
154.8151140277308
 10
128.8311532078563
 20
154.8151140277308
 10
128.8311532078563
 20
154.8151140277308
 10
128.8311532078563
 20
154.8151140277308
 10
127.7345785914971
 20
151.3062819612468
 10
127.7345785914971
 20
151.3062819612468
 10
128.571392836906
 20
152.2922689395754
 10
129.8860421413442
 20
153.604506675583
 10
131.0163787157314
 20
154.2664822097754
 10
132.7044766171327
 20
155.2500576196734
 10
133.6642808525008
 20
155.3847609420097
 10
134.7284715499351
 20
155.3565111403944
 10
134.7284715499351
 20
155.3565111403944
 10
133.6877075172549
 20
152.0345756272799
 10
133.6877075172549
 20
152.0345756272799
 10
133.011434827367
 20
152.3184516825359
 10
130.930940291334
 20
151.7768823149844
 10
129.739280976855
 20
150.9162968950455
 10
128.66613302525
 20
150.1454562717016
 10
127.9192358313239
 20
149.4857200510519
 10
127.0393578639405
 20
147.8282835196966
 10
126.164647543194
 20
146.1699857139017
 10
125.4742499524985
 20
143.5262176944419
 10
124.2822461282437
 20
139.6959580071401
 10
124.2822461282437
 20
139.6959580071401
 10
120.5753209406769
 20
127.8027915271048
 10
120.5753209406769
 20
127.8027915271048
 10
120.5753209406769
 20
127.8027915271048
 10
118.1964809388044
 20
127.8027915271048
 10
118.1964809388044
 20
127.8027915271048
 10
118.1964809388044
 20
127.8027915271048
 10
126.377554584636
 20
154.8151140277308
 10
126.377554584636
 20
154.8151140277308
 97
        0
 75
     2
 76
     1
 98
        0
  0
SPLINE
  5
1DA6
330
1DA0
100
AcDbEntity
  8
TFORMLOGO
370
     0
100
AcDbSpline
210
0.0
220
0.0
230
1.0
 70
    11
 71
     3
 72
   104
 73
   100
 74
     0
 42
0.000000001
 43
0.0000000001
 40
0.0
 40
0.0
 40
0.0
 40
0.0
 40
1.0
 40
1.0
 40
1.0
 40
2.0
 40
2.0
 40
2.0
 40
3.0
 40
3.0
 40
3.0
 40
4.0
 40
4.0
 40
4.0
 40
5.0
 40
5.0
 40
5.0
 40
6.0
 40
6.0
 40
6.0
 40
7.0
 40
7.0
 40
7.0
 40
8.0
 40
8.0
 40
8.0
 40
9.0
 40
9.0
 40
9.0
 40
10.0
 40
10.0
 40
10.0
 40
11.0
 40
11.0
 40
11.0
 40
12.0
 40
12.0
 40
12.0
 40
13.0
 40
13.0
 40
13.0
 40
14.0
 40
14.0
 40
14.0
 40
15.0
 40
15.0
 40
15.0
 40
16.0
 40
16.0
 40
16.0
 40
17.0
 40
17.0
 40
17.0
 40
18.0
 40
18.0
 40
18.0
 40
19.0
 40
19.0
 40
19.0
 40
20.0
 40
20.0
 40
20.0
 40
21.0
 40
21.0
 40
21.0
 40
22.0
 40
22.0
 40
22.0
 40
23.0
 40
23.0
 40
23.0
 40
24.0
 40
24.0
 40
24.0
 40
25.0
 40
25.0
 40
25.0
 40
26.0
 40
26.0
 40
26.0
 40
27.0
 40
27.0
 40
27.0
 40
28.0
 40
28.0
 40
28.0
 40
29.0
 40
29.0
 40
29.0
 40
30.0
 40
30.0
 40
30.0
 40
31.0
 40
31.0
 40
31.0
 40
32.0
 40
32.0
 40
32.0
 40
33.0
 40
33.0
 40
33.0
 40
33.0
 10
139.8926730891197
 20
154.8294111834263
 30
0.0
 10
139.8926730891197
 20
154.8294111834263
 30
0.0
 10
142.0344903652445
 20
154.8294111834263
 30
0.0
 10
142.0344903652445
 20
154.8294111834263
 30
0.0
 10
142.0344903652445
 20
154.8294111834263
 30
0.0
 10
140.9516961399171
 20
151.3157559800812
 30
0.0
 10
140.9516961399171
 20
151.3157559800812
 30
0.0
 10
141.8928968473923
 20
152.7887075264977
 30
0.0
 10
142.7341897198865
 20
153.4484437471474
 30
0.0
 10
143.8552245303272
 20
154.2926649527359
 30
0.0
 10
144.9803934580775
 20
155.1296514530327
 30
0.0
 10
146.3139908001845
 20
155.3044901642492
 30
0.0
 10
147.241066606852
 20
155.3044901642492
 30
0.0
 10
148.3855280820469
 20
155.3044901642492
 30
0.0
 10
149.4969166187653
 20
155.0752189084569
 30
0.0
 10
150.0784491203092
 20
153.8172414621372
 30
0.0
 10
150.5228667310863
 20
152.833838307127
 30
0.0
 10
150.5414702589793
 20
152.7201500811143
 30
0.0
 10
150.4140016419347
 20
150.7765981809602
 30
0.0
 10
151.5818897818837
 20
152.7699317437168
 30
0.0
 10
152.4424752018226
 20
153.6256940267945
 30
0.0
 10
153.9038856707499
 20
154.4507949398263
 30
0.0
 10
155.4455669174378
 20
155.3044901642492
 30
0.0
 10
156.339225275853
 20
155.3659851592288
 30
0.0
 10
157.3748216618963
 20
155.2147453676543
 30
0.0
 10
158.911679771723
 20
154.9877134254046
 30
0.0
 10
159.8859534176746
 20
154.4390816074493
 30
0.0
 10
160.3965169054045
 20
152.7816450760939
 30
0.0
 10
160.9070803931344
 20
151.1219692311958
 30
0.0
 10
160.6328506116007
 20
150.2303779314354
 30
0.0
 10
159.9992971339115
 20
147.597634224801
 30
0.0
 10
159.7105979417943
 20
146.4014962832367
 30
0.0
 10
159.2947746424084
 20
144.9400858143094
 30
0.0
 10
158.7463150793409
 20
143.2092687007094
 30
0.0
 10
158.7463150793409
 20
143.2092687007094
 30
0.0
 10
153.9038856707499
 20
127.8027915271048
 30
0.0
 10
153.9038856707499
 20
127.8027915271048
 30
0.0
 10
153.9038856707499
 20
127.8027915271048
 30
0.0
 10
151.3882752878863
 20
127.8027915271048
 30
0.0
 10
151.3882752878863
 20
127.8027915271048
 30
0.0
 10
151.3882752878863
 20
127.8027915271048
 30
0.0
 10
155.6250565106276
 20
141.2751908193897
 30
0.0
 10
155.6250565106276
 20
141.2751908193897
 30
0.0
 10
156.5094131050963
 20
144.0936252951782
 30
0.0
 10
157.109893644309
 20
146.1506931664571
 30
0.0
 10
157.4220195011804
 20
147.4415712963654
 30
0.0
 10
157.8095929989511
 20
149.0530157726519
 30
0.0
 10
157.9656559273867
 20
149.5826995529385
 30
0.0
 10
157.7816877071116
 20
150.7529992613181
 30
0.0
 10
157.6111553680925
 20
151.8430281919372
 30
0.0
 10
157.0582171779396
 20
152.5547853887321
 30
0.0
 10
156.1170164704645
 20
152.5547853887321
 30
0.0
 10
155.1096698860365
 20
152.5547853887321
 30
0.0
 10
154.2962823053817
 20
152.4412694176073
 30
0.0
 10
153.156643967048
 20
151.2945686288697
 30
0.0
 10
152.0170056287143
 20
150.1476955852443
 30
0.0
 10
151.076149431015
 20
148.7930831468137
 30
0.0
 10
150.3337308641742
 20
147.2290087646991
 30
0.0
 10
149.5957909244188
 20
145.6683794803425
 30
0.0
 10
148.8530278478023
 20
143.6822806228776
 30
0.0
 10
148.0964843801539
 20
141.2751908193897
 30
0.0
 10
148.0964843801539
 20
141.2751908193897
 30
0.0
 10
143.8552245303272
 20
127.8027915271048
 30
0.0
 10
143.8552245303272
 20
127.8027915271048
 30
0.0
 10
143.8552245303272
 20
127.8027915271048
 30
0.0
 10
141.486030802177
 20
127.8027915271048
 30
0.0
 10
141.486030802177
 20
127.8027915271048
 30
0.0
 10
141.486030802177
 20
127.8027915271048
 30
0.0
 10
146.3329388378533
 20
143.2092687007094
 30
0.0
 10
146.3329388378533
 20
143.2092687007094
 30
0.0
 10
146.8483254624444
 20
144.8408669988801
 30
0.0
 10
147.2314203331297
 20
146.1837661049335
 30
0.0
 10
147.4867020769946
 20
147.224185627838
 30
0.0
 10
147.9169947869641
 20
149.0197705792876
 30
0.0
 10
148.0306830129768
 20
150.2400242051577
 30
0.0
 10
147.709255392159
 20
151.3157559800812
 30
0.0
 10
147.3874832615654
 20
152.3916600098926
 30
0.0
 10
146.8245542879144
 20
152.6683013598569
 30
0.0
 10
145.8840425999909
 20
152.6683013598569
 30
0.0
 10
145.0989048209514
 20
152.6683013598569
 30
0.0
 10
144.3282364524954
 20
152.3275811915945
 30
0.0
 10
143.4531816219731
 20
151.6538923250251
 30
0.0
 10
142.34627171234
 20
150.8074318058939
 30
0.0
 10
141.901854101563
 20
150.1097995099067
 30
0.0
 10
141.3578731655808
 20
149.289521733736
 30
0.0
 10
140.6299240093235
 20
148.192602607601
 30
0.0
 10
140.2850697237515
 20
147.455696197173
 30
0.0
 10
139.6652966370942
 20
145.8385673095858
 30
0.0
 10
139.0506911970739
 20
144.2214384219986
 30
0.0
 10
138.463991048893
 20
142.3252566160164
 30
0.0
 10
138.0571250036777
 20
141.0154304484394
 30
0.0
 10
138.0571250036777
 20
141.0154304484394
 30
0.0
 10
133.9009590684727
 20
127.8027915271048
 30
0.0
 10
133.9009590684727
 20
127.8027915271048
 30
0.0
 10
133.9009590684727
 20
127.8027915271048
 30
0.0
 10
131.4180771143097
 20
127.8027915271048
 30
0.0
 10
131.4180771143097
 20
127.8027915271048
 30
0.0
 10
131.4180771143097
 20
127.8027915271048
 30
0.0
 10
139.8926730891197
 20
154.8294111834263
 30
0.0
 10
139.8926730891197
 20
154.8294111834263
 30
0.0
  0
HATCH
  5
1DA7
330
1DA0
100
AcDbEntity
  8
TFORMLOGO
 62
   250
420
  2234388
100
AcDbHatch
 10
0.0
 20
0.0
 30
0.0
210
0.0
220
0.0
230
1.0
  2
SOLID
 70
     1
 71
     0
 91
        1
 92
        1
 93
        1
 72
     4
 94
        3
 73
     0
 74
     1
 95
      104
 96
      100
 40
0.0
 40
0.0
 40
0.0
 40
0.0
 40
1.0
 40
1.0
 40
1.0
 40
2.0
 40
2.0
 40
2.0
 40
3.0
 40
3.0
 40
3.0
 40
4.0
 40
4.0
 40
4.0
 40
5.0
 40
5.0
 40
5.0
 40
6.0
 40
6.0
 40
6.0
 40
7.0
 40
7.0
 40
7.0
 40
8.0
 40
8.0
 40
8.0
 40
9.0
 40
9.0
 40
9.0
 40
10.0
 40
10.0
 40
10.0
 40
11.0
 40
11.0
 40
11.0
 40
12.0
 40
12.0
 40
12.0
 40
13.0
 40
13.0
 40
13.0
 40
14.0
 40
14.0
 40
14.0
 40
15.0
 40
15.0
 40
15.0
 40
16.0
 40
16.0
 40
16.0
 40
17.0
 40
17.0
 40
17.0
 40
18.0
 40
18.0
 40
18.0
 40
19.0
 40
19.0
 40
19.0
 40
20.0
 40
20.0
 40
20.0
 40
21.0
 40
21.0
 40
21.0
 40
22.0
 40
22.0
 40
22.0
 40
23.0
 40
23.0
 40
23.0
 40
24.0
 40
24.0
 40
24.0
 40
25.0
 40
25.0
 40
25.0
 40
26.0
 40
26.0
 40
26.0
 40
27.0
 40
27.0
 40
27.0
 40
28.0
 40
28.0
 40
28.0
 40
29.0
 40
29.0
 40
29.0
 40
30.0
 40
30.0
 40
30.0
 40
31.0
 40
31.0
 40
31.0
 40
32.0
 40
32.0
 40
32.0
 40
33.0
 40
33.0
 40
33.0
 40
33.0
 10
139.8926730891197
 20
154.8294111834263
 10
139.8926730891197
 20
154.8294111834263
 10
142.0344903652445
 20
154.8294111834263
 10
142.0344903652445
 20
154.8294111834263
 10
142.0344903652445
 20
154.8294111834263
 10
140.9516961399171
 20
151.3157559800812
 10
140.9516961399171
 20
151.3157559800812
 10
141.8928968473923
 20
152.7887075264977
 10
142.7341897198865
 20
153.4484437471474
 10
143.8552245303272
 20
154.2926649527359
 10
144.9803934580775
 20
155.1296514530327
 10
146.3139908001845
 20
155.3044901642492
 10
147.241066606852
 20
155.3044901642492
 10
148.3855280820469
 20
155.3044901642492
 10
149.4969166187653
 20
155.0752189084569
 10
150.0784491203092
 20
153.8172414621372
 10
150.5228667310863
 20
152.833838307127
 10
150.5414702589793
 20
152.7201500811143
 10
150.4140016419347
 20
150.7765981809602
 10
151.5818897818837
 20
152.7699317437168
 10
152.4424752018226
 20
153.6256940267945
 10
153.9038856707499
 20
154.4507949398263
 10
155.4455669174378
 20
155.3044901642492
 10
156.339225275853
 20
155.3659851592288
 10
157.3748216618963
 20
155.2147453676543
 10
158.911679771723
 20
154.9877134254046
 10
159.8859534176746
 20
154.4390816074493
 10
160.3965169054045
 20
152.7816450760939
 10
160.9070803931344
 20
151.1219692311958
 10
160.6328506116007
 20
150.2303779314354
 10
159.9992971339115
 20
147.597634224801
 10
159.7105979417943
 20
146.4014962832367
 10
159.2947746424084
 20
144.9400858143094
 10
158.7463150793409
 20
143.2092687007094
 10
158.7463150793409
 20
143.2092687007094
 10
153.9038856707499
 20
127.8027915271048
 10
153.9038856707499
 20
127.8027915271048
 10
153.9038856707499
 20
127.8027915271048
 10
151.3882752878863
 20
127.8027915271048
 10
151.3882752878863
 20
127.8027915271048
 10
151.3882752878863
 20
127.8027915271048
 10
155.6250565106276
 20
141.2751908193897
 10
155.6250565106276
 20
141.2751908193897
 10
156.5094131050963
 20
144.0936252951782
 10
157.109893644309
 20
146.1506931664571
 10
157.4220195011804
 20
147.4415712963654
 10
157.8095929989511
 20
149.0530157726519
 10
157.9656559273867
 20
149.5826995529385
 10
157.7816877071116
 20
150.7529992613181
 10
157.6111553680925
 20
151.8430281919372
 10
157.0582171779396
 20
152.5547853887321
 10
156.1170164704645
 20
152.5547853887321
 10
155.1096698860365
 20
152.5547853887321
 10
154.2962823053817
 20
152.4412694176073
 10
153.156643967048
 20
151.2945686288697
 10
152.0170056287143
 20
150.1476955852443
 10
151.076149431015
 20
148.7930831468137
 10
150.3337308641742
 20
147.2290087646991
 10
149.5957909244188
 20
145.6683794803425
 10
148.8530278478023
 20
143.6822806228776
 10
148.0964843801539
 20
141.2751908193897
 10
148.0964843801539
 20
141.2751908193897
 10
143.8552245303272
 20
127.8027915271048
 10
143.8552245303272
 20
127.8027915271048
 10
143.8552245303272
 20
127.8027915271048
 10
141.486030802177
 20
127.8027915271048
 10
141.486030802177
 20
127.8027915271048
 10
141.486030802177
 20
127.8027915271048
 10
146.3329388378533
 20
143.2092687007094
 10
146.3329388378533
 20
143.2092687007094
 10
146.8483254624444
 20
144.8408669988801
 10
147.2314203331297
 20
146.1837661049335
 10
147.4867020769946
 20
147.224185627838
 10
147.9169947869641
 20
149.0197705792876
 10
148.0306830129768
 20
150.2400242051577
 10
147.709255392159
 20
151.3157559800812
 10
147.3874832615654
 20
152.3916600098926
 10
146.8245542879144
 20
152.6683013598569
 10
145.8840425999909
 20
152.6683013598569
 10
145.0989048209514
 20
152.6683013598569
 10
144.3282364524954
 20
152.3275811915945
 10
143.4531816219731
 20
151.6538923250251
 10
142.34627171234
 20
150.8074318058939
 10
141.901854101563
 20
150.1097995099067
 10
141.3578731655808
 20
149.289521733736
 10
140.6299240093235
 20
148.192602607601
 10
140.2850697237515
 20
147.455696197173
 10
139.6652966370942
 20
145.8385673095858
 10
139.0506911970739
 20
144.2214384219986
 10
138.463991048893
 20
142.3252566160164
 10
138.0571250036777
 20
141.0154304484394
 10
138.0571250036777
 20
141.0154304484394
 10
133.9009590684727
 20
127.8027915271048
 10
133.9009590684727
 20
127.8027915271048
 10
133.9009590684727
 20
127.8027915271048
 10
131.4180771143097
 20
127.8027915271048
 10
131.4180771143097
 20
127.8027915271048
 10
131.4180771143097
 20
127.8027915271048
 10
139.8926730891197
 20
154.8294111834263
 10
139.8926730891197
 20
154.8294111834263
 97
        0
 75
     2
 76
     1
 98
        0
  0
SPLINE
  5
1DA8
330
1DA0
100
AcDbEntity
  8
TFORMLOGO
370
     0
100
AcDbSpline
210
0.0
220
0.0
230
1.0
 70
    11
 71
     3
 72
    29
 73
    25
 74
     0
 42
0.000000001
 43
0.0000000001
 40
0.0
 40
0.0
 40
0.0
 40
0.0
 40
1.0
 40
1.0
 40
1.0
 40
2.0
 40
2.0
 40
2.0
 40
3.0
 40
3.0
 40
3.0
 40
4.0
 40
4.0
 40
4.0
 40
5.0
 40
5.0
 40
5.0
 40
6.0
 40
6.0
 40
6.0
 40
7.0
 40
7.0
 40
7.0
 40
8.0
 40
8.0
 40
8.0
 40
8.0
 10
101.6420971922469
 20
132.8388354296931
 30
0.0
 10
101.630039350094
 20
134.7164137077823
 30
0.0
 10
102.2236296937908
 20
138.0598810818841
 30
0.0
 10
103.7487744712405
 20
142.5378191476827
 30
0.0
 10
105.819967243327
 20
148.5896501242061
 30
0.0
 10
107.0602024361932
 20
150.8074318058939
 30
0.0
 10
108.1522984254671
 20
151.8833358357054
 30
0.0
 10
109.741177511439
 20
153.4532668840085
 30
0.0
 10
111.8740375333931
 20
153.5290590346837
 30
0.0
 10
112.5075910110823
 20
153.4532668840085
 30
0.0
 10
113.4012493694975
 20
153.3490526768302
 30
0.0
 10
114.6683563248758
 20
152.7580461564518
 30
0.0
 10
114.7493161221879
 20
150.7838328862519
 30
0.0
 10
114.8106388622796
 20
149.0909118479895
 30
0.0
 10
114.3186789024427
 20
145.9191825971221
 30
0.0
 10
112.6164561002338
 20
140.9489400617108
 30
0.0
 10
110.6444821435766
 20
135.1746117095912
 30
0.0
 10
109.4669477299053
 20
132.8960240524753
 30
0.0
 10
108.5212683953448
 20
131.9072809959403
 30
0.0
 10
106.7346406980658
 20
130.0538184021569
 30
0.0
 10
104.8222669326213
 20
130.2336525051225
 30
0.0
 10
104.5408024457958
 20
130.2336525051225
 30
0.0
 10
104.1721769856939
 20
130.2336525051225
 30
0.0
 10
101.6465758193322
 20
130.6305277668397
 30
0.0
 10
101.6420971922469
 20
132.8388354296931
 30
0.0
  0
SPLINE
  5
1DA9
330
1DA0
100
AcDbEntity
  8
TFORMLOGO
370
     0
100
AcDbSpline
210
0.0
220
0.0
230
1.0
 70
    11
 71
     3
 72
    32
 73
    28
 74
     0
 42
0.000000001
 43
0.0000000001
 40
0.0
 40
0.0
 40
0.0
 40
0.0
 40
1.0
 40
1.0
 40
1.0
 40
2.0
 40
2.0
 40
2.0
 40
3.0
 40
3.0
 40
3.0
 40
4.0
 40
4.0
 40
4.0
 40
5.0
 40
5.0
 40
5.0
 40
6.0
 40
6.0
 40
6.0
 40
7.0
 40
7.0
 40
7.0
 40
8.0
 40
8.0
 40
8.0
 40
9.0
 40
9.0
 40
9.0
 40
9.0
 10
106.2595617172429
 20
153.4105476718098
 30
0.0
 10
104.8222669326213
 20
151.5474388043041
 30
0.0
 10
103.7177685914188
 20
149.8758773721411
 30
0.0
 10
101.9232171692965
 20
144.6141795664062
 30
0.0
 10
100.2754269116635
 20
139.7999999594306
 30
0.0
 10
99.22777268346732
 20
136.3052927937542
 30
0.0
 10
99.06964269637689
 20
132.039572749846
 30
0.0
 10
98.94665270641765
 20
128.8673267343149
 30
0.0
 10
100.8807305877373
 20
127.8027915271048
 30
0.0
 10
103.7129454545577
 20
127.8027915271048
 30
0.0
 10
104.9352661390825
 20
127.8027915271048
 30
0.0
 10
108.0151835347002
 20
127.8827177950895
 30
0.0
 10
110.2045431598849
 20
130.5926316915021
 30
0.0
 10
111.7417457794874
 20
132.4984597712065
 30
0.0
 10
113.155269389579
 20
134.475256864725
 30
0.0
 10
115.0562743324223
 20
140.9489400617108
 30
0.0
 10
116.6361961642235
 20
146.3680788349845
 30
0.0
 10
117.7282921534974
 20
149.8639917848761
 30
0.0
 10
117.6480213757369
 20
151.8595646611754
 30
0.0
 10
117.6480213757369
 20
151.8595646611754
 30
0.0
 10
117.6480213757369
 20
151.8595646611754
 30
0.0
 10
117.6480213757369
 20
151.8595646611754
 30
0.0
 10
117.13229024137
 20
155.18150017429
 30
0.0
 10
114.7162431837115
 20
155.886194920681
 30
0.0
 10
113.3351034925446
 20
155.886194920681
 30
0.0
 10
111.9829026225447
 20
155.886194920681
 30
0.0
 10
108.3414342923792
 20
156.1251124501957
 30
0.0
 10
106.2595617172429
 20
153.4105476718098
 30
0.0
  0
HATCH
  5
1DAA
330
1DA0
100
AcDbEntity
  8
TFORMLOGO
 62
   250
420
  2234388
100
AcDbHatch
 10
0.0
 20
0.0
 30
0.0
210
0.0
220
0.0
230
1.0
  2
SOLID
 70
     1
 71
     0
 91
        2
 92
        1
 93
        1
 72
     4
 94
        3
 73
     0
 74
     1
 95
       29
 96
       25
 40
0.0
 40
0.0
 40
0.0
 40
0.0
 40
1.0
 40
1.0
 40
1.0
 40
2.0
 40
2.0
 40
2.0
 40
3.0
 40
3.0
 40
3.0
 40
4.0
 40
4.0
 40
4.0
 40
5.0
 40
5.0
 40
5.0
 40
6.0
 40
6.0
 40
6.0
 40
7.0
 40
7.0
 40
7.0
 40
8.0
 40
8.0
 40
8.0
 40
8.0
 10
101.6420971922469
 20
132.8388354296931
 10
101.630039350094
 20
134.7164137077823
 10
102.2236296937908
 20
138.0598810818841
 10
103.7487744712405
 20
142.5378191476827
 10
105.819967243327
 20
148.5896501242061
 10
107.0602024361932
 20
150.8074318058939
 10
108.1522984254671
 20
151.8833358357054
 10
109.741177511439
 20
153.4532668840085
 10
111.8740375333931
 20
153.5290590346837
 10
112.5075910110823
 20
153.4532668840085
 10
113.4012493694975
 20
153.3490526768302
 10
114.6683563248758
 20
152.7580461564518
 10
114.7493161221879
 20
150.7838328862519
 10
114.8106388622796
 20
149.0909118479895
 10
114.3186789024427
 20
145.9191825971221
 10
112.6164561002338
 20
140.9489400617108
 10
110.6444821435766
 20
135.1746117095912
 10
109.4669477299053
 20
132.8960240524753
 10
108.5212683953448
 20
131.9072809959403
 10
106.7346406980658
 20
130.0538184021569
 10
104.8222669326213
 20
130.2336525051225
 10
104.5408024457958
 20
130.2336525051225
 10
104.1721769856939
 20
130.2336525051225
 10
101.6465758193322
 20
130.6305277668397
 10
101.6420971922469
 20
132.8388354296931
 97
        0
 92
        1
 93
        1
 72
     4
 94
        3
 73
     0
 74
     1
 95
       32
 96
       28
 40
0.0
 40
0.0
 40
0.0
 40
0.0
 40
1.0
 40
1.0
 40
1.0
 40
2.0
 40
2.0
 40
2.0
 40
3.0
 40
3.0
 40
3.0
 40
4.0
 40
4.0
 40
4.0
 40
5.0
 40
5.0
 40
5.0
 40
6.0
 40
6.0
 40
6.0
 40
7.0
 40
7.0
 40
7.0
 40
8.0
 40
8.0
 40
8.0
 40
9.0
 40
9.0
 40
9.0
 40
9.0
 10
106.2595617172429
 20
153.4105476718098
 10
104.8222669326213
 20
151.5474388043041
 10
103.7177685914188
 20
149.8758773721411
 10
101.9232171692965
 20
144.6141795664062
 10
100.2754269116635
 20
139.7999999594306
 10
99.22777268346732
 20
136.3052927937542
 10
99.06964269637689
 20
132.039572749846
 10
98.94665270641765
 20
128.8673267343149
 10
100.8807305877373
 20
127.8027915271048
 10
103.7129454545577
 20
127.8027915271048
 10
104.9352661390825
 20
127.8027915271048
 10
108.0151835347002
 20
127.8827177950895
 10
110.2045431598849
 20
130.5926316915021
 10
111.7417457794874
 20
132.4984597712065
 10
113.155269389579
 20
134.475256864725
 10
115.0562743324223
 20
140.9489400617108
 10
116.6361961642235
 20
146.3680788349845
 10
117.7282921534974
 20
149.8639917848761
 10
117.6480213757369
 20
151.8595646611754
 10
117.6480213757369
 20
151.8595646611754
 10
117.6480213757369
 20
151.8595646611754
 10
117.6480213757369
 20
151.8595646611754
 10
117.13229024137
 20
155.18150017429
 10
114.7162431837115
 20
155.886194920681
 10
113.3351034925446
 20
155.886194920681
 10
111.9829026225447
 20
155.886194920681
 10
108.3414342923792
 20
156.1251124501957
 10
106.2595617172429
 20
153.4105476718098
 97
        0
 75
     2
 76
     1
 98
        0
  0
ENDBLK
  5
1DAB
330
1DA0
100
AcDbEntity
  8
0
100
AcDbBlockEnd
  0
BLOCK
  5
4BF6
330
4BF5
100
AcDbEntity
  8
0
100
AcDbBlockBegin
  2
*D7
 70
     1
 10
0.0
 20
0.0
 30
0.0
  3
*D7
  1
*D91
  0
LINE
  5
4BF8
330
4BF5
100
AcDbEntity
  8
寸法
 62
     0
370
    -2
100
AcDbLine
 10
92.40736864490646
 20
239.3533152477627
 30
0.0
 11
64.16542778197464
 21
239.3533152477627
 31
0.0
  0
LINE
  5
4BF9
330
4BF5
100
AcDbEntity
  8
寸法
 62
     0
370
    -2
100
AcDbLine
 10
92.40736864490646
 20
114.6635514933184
 30
0.0
 11
64.16542778197463
 21
114.6635514933184
 31
0.0
  0
LINE
  5
4BFA
330
4BF5
100
AcDbEntity
  8
寸法
 62
     0
370
    -2
100
AcDbLine
 10
64.16542778197464
 20
238.3533152477627
 30
0.0
 11
64.16542778197463
 21
115.6635514933184
 31
0.0
  0
INSERT
  5
4BFB
330
4BF5
100
AcDbEntity
  8
寸法
 62
     0
370
    -2
100
AcDbBlockReference
  2
_DOT
 10
64.16542778197464
 20
239.3533152477627
 30
0.0
 50
90.0
  0
INSERT
  5
4BFC
330
4BF5
100
AcDbEntity
  8
寸法
 62
     0
370
    -2
100
AcDbBlockReference
  2
_DOT
 10
64.16542778197463
 20
114.6635514933184
 30
0.0
 50
270.0
  0
MTEXT
  5
4BFD
330
4BF5
100
AcDbEntity
  8
寸法
 62
     0
100
AcDbMText
 10
58.66542778197464
 20
177.0084333705406
 30
0.0
 40
5.0
 41
0.0
 46
0.0
 71
     5
 72
     1
  1
\A1;125
  7
ＭＳ ゴシック
 11
1.139696979712618E-16
 21
1.0
 31
0.0
 73
     1
 44
1.0
  0
POINT
  5
4BFE
330
4BF5
100
AcDbEntity
  8
Defpoints
 62
     0
100
AcDbPoint
 10
95.40736864490646
 20
239.3533152477627
 30
0.0
  0
POINT
  5
4BFF
330
4BF5
100
AcDbEntity
  8
Defpoints
 62
     0
100
AcDbPoint
 10
95.40736864490646
 20
114.6635514933184
 30
0.0
  0
POINT
  5
4C00
330
4BF5
100
AcDbEntity
  8
Defpoints
 62
     0
100
AcDbPoint
 10
64.16542778197463
 20
114.6635514933184
 30
0.0
  0
ENDBLK
  5
4BF7
330
4BF5
100
AcDbEntity
  8
0
100
AcDbBlockEnd
  0
BLOCK
  5
4C23
330
4C22
100
AcDbEntity
  8
0
100
AcDbBlockBegin
  2
*D8
 70
     1
 10
0.0
 20
0.0
 30
0.0
  3
*D8
  1
*D94
  0
LINE
  5
4C25
330
4C22
100
AcDbEntity
  8
寸法
 62
     0
370
    -2
100
AcDbLine
 10
92.40736864490646
 20
277.1070908705069
 30
0.0
 11
64.16542778197464
 21
277.1070908705069
 31
0.0
  0
LINE
  5
4C26
330
4C22
100
AcDbEntity
  8
寸法
 62
     0
370
    -2
100
AcDbLine
 10
92.40736864490646
 20
264.8287624611313
 30
0.0
 11
64.16542778197464
 21
264.8287624611313
 31
0.0
  0
LINE
  5
4C27
330
4C22
100
AcDbEntity
  8
寸法
 62
     0
370
    -2
100
AcDbLine
 10
64.16542778197464
 20
276.1070908705069
 30
0.0
 11
64.16542778197464
 21
265.8287624611313
 31
0.0
  0
INSERT
  5
4C28
330
4C22
100
AcDbEntity
  8
寸法
 62
     0
370
    -2
100
AcDbBlockReference
  2
_DOT
 10
64.16542778197464
 20
277.1070908705069
 30
0.0
 50
90.0
  0
INSERT
  5
4C29
330
4C22
100
AcDbEntity
  8
寸法
 62
     0
370
    -2
100
AcDbBlockReference
  2
_DOT
 10
64.16542778197464
 20
264.8287624611313
 30
0.0
 50
270.0
  0
MTEXT
  5
4C2A
330
4C22
100
AcDbEntity
  8
寸法
 62
     0
100
AcDbMText
 10
58.66542778197464
 20
270.9679266658191
 30
0.0
 40
5.0
 41
0.0
 46
0.0
 71
     5
 72
     1
  1
\A1;12
  7
ＭＳ ゴシック
 11
0.0
 21
1.0
 31
0.0
 73
     1
 44
1.0
  0
POINT
  5
4C2B
330
4C22
100
AcDbEntity
  8
Defpoints
 62
     0
100
AcDbPoint
 10
95.40736864490646
 20
277.1070908705069
 30
0.0
  0
POINT
  5
4C2C
330
4C22
100
AcDbEntity
  8
Defpoints
 62
     0
100
AcDbPoint
 10
95.40736864490646
 20
264.8287624611313
 30
0.0
  0
POINT
  5
4C2D
330
4C22
100
AcDbEntity
  8
Defpoints
 62
     0
100
AcDbPoint
 10
64.16542778197464
 20
264.8287624611313
 30
0.0
  0
ENDBLK
  5
4C24
330
4C22
100
AcDbEntity
  8
0
100
AcDbBlockEnd
  0
BLOCK
  5
4C33
330
4C32
100
AcDbEntity
  8
0
100
AcDbBlockBegin
  2
*D9
 70
     1
 10
0.0
 20
0.0
 30
0.0
  3
*D9
  1
*D95
  0
LINE
  5
4C35
330
4C32
100
AcDbEntity
  8
寸法
 62
     0
370
    -2
100
AcDbLine
 10
109.9073686449065
 20
329.8287624611313
 30
0.0
 11
64.16542778197464
 21
329.8287624611313
 31
0.0
  0
LINE
  5
4C36
330
4C32
100
AcDbEntity
  8
寸法
 62
     0
370
    -2
100
AcDbLine
 10
109.9073686449065
 20
317.9741810759852
 30
0.0
 11
64.16542778197464
 21
317.9741810759852
 31
0.0
  0
LINE
  5
4C37
330
4C32
100
AcDbEntity
  8
寸法
 62
     0
370
    -2
100
AcDbLine
 10
64.16542778197464
 20
328.8287624611313
 30
0.0
 11
64.16542778197464
 21
318.9741810759852
 31
0.0
  0
INSERT
  5
4C38
330
4C32
100
AcDbEntity
  8
寸法
 62
     0
370
    -2
100
AcDbBlockReference
  2
_DOT
 10
64.16542778197464
 20
329.8287624611313
 30
0.0
 50
90.0
  0
INSERT
  5
4C39
330
4C32
100
AcDbEntity
  8
寸法
 62
     0
370
    -2
100
AcDbBlockReference
  2
_DOT
 10
64.16542778197464
 20
317.9741810759852
 30
0.0
 50
270.0
  0
MTEXT
  5
4C3A
330
4C32
100
AcDbEntity
  8
寸法
 62
     0
100
AcDbMText
 10
58.66542778197464
 20
323.9014717685585
 30
0.0
 40
5.0
 41
0.0
 46
0.0
 71
     5
 72
     1
  1
\A1;12
  7
ＭＳ ゴシック
 11
0.0
 21
1.0
 31
0.0
 73
     1
 44
1.0
  0
POINT
  5
4C3B
330
4C32
100
AcDbEntity
  8
Defpoints
 62
     0
100
AcDbPoint
 10
112.9073686449065
 20
329.8287624611313
 30
0.0
  0
POINT
  5
4C3C
330
4C32
100
AcDbEntity
  8
Defpoints
 62
     0
100
AcDbPoint
 10
112.9073686449065
 20
317.9741810759852
 30
0.0
  0
POINT
  5
4C3D
330
4C32
100
AcDbEntity
  8
Defpoints
 62
     0
100
AcDbPoint
 10
64.16542778197464
 20
317.9741810759852
 30
0.0
  0
ENDBLK
  5
4C34
330
4C32
100
AcDbEntity
  8
0
100
AcDbBlockEnd
  0
BLOCK
  5
4C44
330
4C43
100
AcDbEntity
  8
0
100
AcDbBlockBegin
  2
*D10
 70
     1
 10
0.0
 20
0.0
 30
0.0
  3
*D10
  1
*D96
  0
LINE
  5
4C46
330
4C43
100
AcDbEntity
  8
寸法
 62
     0
370
    -2
100
AcDbLine
 10
205.9073686449065
 20
329.8287624611313
 30
0.0
 11
248.2648865287003
 21
329.8287624611313
 31
0.0
  0
LINE
  5
4C47
330
4C43
100
AcDbEntity
  8
寸法
 62
     0
370
    -2
100
AcDbLine
 10
223.4073686449065
 20
264.8287624611313
 30
0.0
 11
248.2648865287003
 21
264.8287624611313
 31
0.0
  0
LINE
  5
4C48
330
4C43
100
AcDbEntity
  8
寸法
 62
     0
370
    -2
100
AcDbLine
 10
248.2648865287003
 20
328.8287624611313
 30
0.0
 11
248.2648865287003
 21
265.8287624611313
 31
0.0
  0
INSERT
  5
4C49
330
4C43
100
AcDbEntity
  8
寸法
 62
     0
370
    -2
100
AcDbBlockReference
  2
_DOT
 10
248.2648865287003
 20
329.8287624611313
 30
0.0
 50
90.0
  0
INSERT
  5
4C4A
330
4C43
100
AcDbEntity
  8
寸法
 62
     0
370
    -2
100
AcDbBlockReference
  2
_DOT
 10
248.2648865287003
 20
264.8287624611313
 30
0.0
 50
270.0
  0
MTEXT
  5
4C4B
330
4C43
100
AcDbEntity
  8
寸法
 62
     0
100
AcDbMText
 10
242.7648865287003
 20
297.3287624611315
 30
0.0
 40
5.0
 41
0.0
 46
0.0
 71
     5
 72
     1
  1
\A1;65
  7
ＭＳ ゴシック
 11
0.0
 21
1.0
 31
0.0
 73
     1
 44
1.0
  0
POINT
  5
4C4C
330
4C43
100
AcDbEntity
  8
Defpoints
 62
     0
100
AcDbPoint
 10
202.9073686449065
 20
329.8287624611313
 30
0.0
  0
POINT
  5
4C4D
330
4C43
100
AcDbEntity
  8
Defpoints
 62
     0
100
AcDbPoint
 10
220.4073686449065
 20
264.8287624611313
 30
0.0
  0
POINT
  5
4C4E
330
4C43
100
AcDbEntity
  8
Defpoints
 62
     0
100
AcDbPoint
 10
248.2648865287003
 20
264.8287624611313
 30
0.0
  0
ENDBLK
  5
4C45
330
4C43
100
AcDbEntity
  8
0
100
AcDbBlockEnd
  0
BLOCK
  5
4C62
330
4C61
100
AcDbEntity
  8
0
100
AcDbBlockBegin
  2
*D11
 70
     1
 10
0.0
 20
0.0
 30
0.0
  3
*D11
  1
*D98
  0
LINE
  5
4C64
330
4C61
100
AcDbEntity
  8
寸法
 62
     0
370
    -2
100
AcDbLine
 10
109.9073686449065
 20
317.9741810759852
 30
0.0
 11
64.16542778197464
 21
317.9741810759852
 31
0.0
  0
LINE
  5
4C65
330
4C61
100
AcDbEntity
  8
寸法
 62
     0
370
    -2
100
AcDbLine
 10
92.40736864490646
 20
277.1070908705069
 30
0.0
 11
64.16542778197464
 21
277.1070908705069
 31
0.0
  0
LINE
  5
4C66
330
4C61
100
AcDbEntity
  8
寸法
 62
     0
370
    -2
100
AcDbLine
 10
64.16542778197464
 20
316.9741810759852
 30
0.0
 11
64.16542778197464
 21
278.1070908705069
 31
0.0
  0
INSERT
  5
4C67
330
4C61
100
AcDbEntity
  8
寸法
 62
     0
370
    -2
100
AcDbBlockReference
  2
_DOT
 10
64.16542778197464
 20
317.9741810759852
 30
0.0
 50
90.0
  0
INSERT
  5
4C68
330
4C61
100
AcDbEntity
  8
寸法
 62
     0
370
    -2
100
AcDbBlockReference
  2
_DOT
 10
64.16542778197464
 20
277.1070908705069
 30
0.0
 50
270.0
  0
MTEXT
  5
4C69
330
4C61
100
AcDbEntity
  8
寸法
 62
     0
100
AcDbMText
 10
58.66542778197464
 20
297.540635973246
 30
0.0
 40
5.0
 41
0.0
 46
0.0
 71
     5
 72
     1
  1
\A1;41
  7
ＭＳ ゴシック
 11
0.0
 21
1.0
 31
0.0
 73
     1
 44
1.0
  0
POINT
  5
4C6A
330
4C61
100
AcDbEntity
  8
Defpoints
 62
     0
100
AcDbPoint
 10
112.9073686449065
 20
317.9741810759852
 30
0.0
  0
POINT
  5
4C6B
330
4C61
100
AcDbEntity
  8
Defpoints
 62
     0
100
AcDbPoint
 10
95.40736864490646
 20
277.1070908705069
 30
0.0
  0
POINT
  5
4C6C
330
4C61
100
AcDbEntity
  8
Defpoints
 62
     0
100
AcDbPoint
 10
64.16542778197464
 20
277.1070908705069
 30
0.0
  0
ENDBLK
  5
4C63
330
4C61
100
AcDbEntity
  8
0
100
AcDbBlockEnd
  0
BLOCK
  5
4C71
330
4C70
100
AcDbEntity
  8
0
100
AcDbBlockBegin
  2
*D12
 70
     1
 10
0.0
 20
0.0
 30
0.0
  3
*D12
  1
*D99
  0
LINE
  5
4C73
330
4C70
100
AcDbEntity
  8
寸法
 62
     0
370
    -2
100
AcDbLine
 10
95.40736864490646
 20
262.4725358750178
 30
0.0
 11
95.40736864490646
 21
246.5019097131317
 31
0.0
  0
LINE
  5
4C74
330
4C70
100
AcDbEntity
  8
寸法
 62
     0
370
    -2
100
AcDbLine
 10
220.4073686449065
 20
262.4725358750178
 30
0.0
 11
220.4073686449065
 21
246.5019097131317
 31
0.0
  0
LINE
  5
4C75
330
4C70
100
AcDbEntity
  8
寸法
 62
     0
370
    -2
100
AcDbLine
 10
96.40736864490646
 20
246.5019097131317
 30
0.0
 11
219.4073686449065
 21
246.5019097131317
 31
0.0
  0
INSERT
  5
4C76
330
4C70
100
AcDbEntity
  8
寸法
 62
     0
370
    -2
100
AcDbBlockReference
  2
_DOT
 10
95.40736864490646
 20
246.5019097131317
 30
0.0
 50
180.0
  0
INSERT
  5
4C77
330
4C70
100
AcDbEntity
  8
寸法
 62
     0
370
    -2
100
AcDbBlockReference
  2
_DOT
 10
220.4073686449065
 20
246.5019097131317
 30
0.0
  0
MTEXT
  5
4C78
330
4C70
100
AcDbEntity
  8
寸法
 62
     0
100
AcDbMText
 10
157.9073686449065
 20
252.0019097131317
 30
0.0
 40
5.0
 41
0.0
 46
0.0
 71
     5
 72
     1
  1
\A1;125
  7
ＭＳ ゴシック
 73
     1
 44
1.0
  0
POINT
  5
4C79
330
4C70
100
AcDbEntity
  8
Defpoints
 62
     0
100
AcDbPoint
 10
95.40736864490646
 20
265.4725358750178
 30
0.0
  0
POINT
  5
4C7A
330
4C70
100
AcDbEntity
  8
Defpoints
 62
     0
100
AcDbPoint
 10
220.4073686449065
 20
265.4725358750178
 30
0.0
  0
POINT
  5
4C7B
330
4C70
100
AcDbEntity
  8
Defpoints
 62
     0
100
AcDbPoint
 10
220.4073686449065
 20
246.5019097131317
 30
0.0
  0
ENDBLK
  5
4C72
330
4C70
100
AcDbEntity
  8
0
100
AcDbBlockEnd
  0
BLOCK
  5
4F36
330
4F35
100
AcDbEntity
  8
0
100
AcDbBlockBegin
  2
*D13
 70
     1
 10
0.0
 20
0.0
 30
0.0
  3
*D13
  1
*D114
  0
LINE
  5
4F38
330
4F35
100
AcDbEntity
  8
寸法
 62
     0
370
    -2
100
AcDbLine
 10
112.9073686449065
 20
324.3164792241371
 30
0.0
 11
112.9073686449065
 21
393.2734038819179
 31
0.0
  0
LINE
  5
4F39
330
4F35
100
AcDbEntity
  8
寸法
 62
     0
370
    -2
100
AcDbLine
 10
202.9073686449065
 20
324.3164792241371
 30
0.0
 11
202.9073686449065
 21
393.2734038819179
 31
0.0
  0
LINE
  5
4F3A
330
4F35
100
AcDbEntity
  8
寸法
 62
     0
370
    -2
100
AcDbLine
 10
113.9073686449065
 20
393.2734038819179
 30
0.0
 11
201.9073686449065
 21
393.2734038819179
 31
0.0
  0
INSERT
  5
4F3B
330
4F35
100
AcDbEntity
  8
寸法
 62
     0
370
    -2
100
AcDbBlockReference
  2
_DOT
 10
112.9073686449065
 20
393.2734038819179
 30
0.0
 50
180.0
  0
INSERT
  5
4F3C
330
4F35
100
AcDbEntity
  8
寸法
 62
     0
370
    -2
100
AcDbBlockReference
  2
_DOT
 10
202.9073686449065
 20
393.2734038819179
 30
0.0
  0
MTEXT
  5
4F3D
330
4F35
100
AcDbEntity
  8
寸法
 62
     0
100
AcDbMText
 10
157.9073686449065
 20
398.7734038819179
 30
0.0
 40
5.0
 41
0.0
 46
0.0
 71
     5
 72
     1
  1
\A1;90
  7
ＭＳ ゴシック
 73
     1
 44
1.0
  0
POINT
  5
4F3E
330
4F35
100
AcDbEntity
  8
Defpoints
 62
     0
100
AcDbPoint
 10
112.9073686449065
 20
321.3164792241371
 30
0.0
  0
POINT
  5
4F3F
330
4F35
100
AcDbEntity
  8
Defpoints
 62
     0
100
AcDbPoint
 10
202.9073686449065
 20
321.3164792241371
 30
0.0
  0
POINT
  5
4F40
330
4F35
100
AcDbEntity
  8
Defpoints
 62
     0
100
AcDbPoint
 10
202.9073686449065
 20
393.2734038819179
 30
0.0
  0
ENDBLK
  5
4F37
330
4F35
100
AcDbEntity
  8
0
100
AcDbBlockEnd
  0
BLOCK
  5
5372
330
5371
100
AcDbEntity
  8
0
100
AcDbBlockBegin
  2
*D14
 70
     1
 10
0.0
 20
0.0
 30
0.0
  3
*D14
  1
*D135
  0
LINE
  5
5374
330
5371
100
AcDbEntity
  8
寸法
 62
     0
370
    -2
100
AcDbLine
 10
501.9698627498768
 20
194.6865026433844
 30
0.0
 11
501.9698627498768
 21
207.7316489815963
 31
0.0
  0
LINE
  5
5375
330
5371
100
AcDbEntity
  8
寸法
 62
     0
370
    -2
100
AcDbLine
 10
528.9698627498768
 20
194.5998493288223
 30
0.0
 11
528.9698627498768
 21
207.7316489815963
 31
0.0
  0
LINE
  5
5376
330
5371
100
AcDbEntity
  8
寸法
 62
     0
370
    -2
100
AcDbLine
 10
502.9698627498768
 20
207.7316489815963
 30
0.0
 11
527.9698627498768
 21
207.7316489815963
 31
0.0
  0
INSERT
  5
5377
330
5371
100
AcDbEntity
  8
寸法
 62
     0
370
    -2
100
AcDbBlockReference
  2
_DOT
 10
501.9698627498768
 20
207.7316489815963
 30
0.0
 50
180.0
  0
INSERT
  5
5378
330
5371
100
AcDbEntity
  8
寸法
 62
     0
370
    -2
100
AcDbBlockReference
  2
_DOT
 10
528.9698627498768
 20
207.7316489815963
 30
0.0
  0
MTEXT
  5
5379
330
5371
100
AcDbEntity
  8
寸法
 62
     0
100
AcDbMText
 10
515.4698627498768
 20
213.2316489815963
 30
0.0
 40
5.0
 41
0.0
 46
0.0
 71
     5
 72
     1
  1
\A1;27
  7
ＭＳ ゴシック
 73
     1
 44
1.0
  0
POINT
  5
537A
330
5371
100
AcDbEntity
  8
Defpoints
 62
     0
100
AcDbPoint
 10
501.9698627498768
 20
191.6865026433844
 30
0.0
  0
POINT
  5
537B
330
5371
100
AcDbEntity
  8
Defpoints
 62
     0
100
AcDbPoint
 10
528.9698627498768
 20
191.5998493288223
 30
0.0
  0
POINT
  5
537C
330
5371
100
AcDbEntity
  8
Defpoints
 62
     0
100
AcDbPoint
 10
528.9698627498768
 20
207.7316489815963
 30
0.0
  0
ENDBLK
  5
5373
330
5371
100
AcDbEntity
  8
0
100
AcDbBlockEnd
  0
BLOCK
  5
537E
330
537D
100
AcDbEntity
  8
0
100
AcDbBlockBegin
  2
*D15
 70
     1
 10
0.0
 20
0.0
 30
0.0
  3
*D15
  1
*D136
  0
LINE
  5
5380
330
537D
100
AcDbEntity
  8
寸法
 62
     0
370
    -2
100
AcDbLine
 10
501.9698627498768
 20
141.6865026433844
 30
0.0
 11
501.9698627498768
 21
132.084969570208
 31
0.0
  0
LINE
  5
5381
330
537D
100
AcDbEntity
  8
寸法
 62
     0
370
    -2
100
AcDbLine
 10
504.9698627498768
 20
141.6865026433844
 30
0.0
 11
504.9698627498768
 21
132.084969570208
 31
0.0
  0
LINE
  5
5382
330
537D
100
AcDbEntity
  8
寸法
 62
     0
370
    -2
100
AcDbLine
 10
502.9698627498768
 20
132.084969570208
 30
0.0
 11
503.9698627498768
 21
132.084969570208
 31
0.0
  0
INSERT
  5
5383
330
537D
100
AcDbEntity
  8
寸法
 62
     0
370
    -2
100
AcDbBlockReference
  2
_DOT
 10
501.9698627498768
 20
132.084969570208
 30
0.0
 50
180.0
  0
INSERT
  5
5384
330
537D
100
AcDbEntity
  8
寸法
 62
     0
370
    -2
100
AcDbBlockReference
  2
_DOT
 10
504.9698627498768
 20
132.084969570208
 30
0.0
  0
MTEXT
  5
5385
330
537D
100
AcDbEntity
  8
寸法
 62
     0
100
AcDbMText
 10
503.4698627498768
 20
126.584969570208
 30
0.0
 40
5.0
 41
0.0
 46
0.0
 71
     5
 72
     1
  1
\A1;3
  7
ＭＳ ゴシック
 73
     1
 44
1.0
  0
POINT
  5
5386
330
537D
100
AcDbEntity
  8
Defpoints
 62
     0
100
AcDbPoint
 10
501.9698627498768
 20
144.6865026433844
 30
0.0
  0
POINT
  5
5387
330
537D
100
AcDbEntity
  8
Defpoints
 62
     0
100
AcDbPoint
 10
504.9698627498768
 20
144.6865026433844
 30
0.0
  0
POINT
  5
5388
330
537D
100
AcDbEntity
  8
Defpoints
 62
     0
100
AcDbPoint
 10
504.9698627498768
 20
132.084969570208
 30
0.0
  0
ENDBLK
  5
537F
330
537D
100
AcDbEntity
  8
0
100
AcDbBlockEnd
  0
BLOCK
  5
538A
330
5389
100
AcDbEntity
  8
0
100
AcDbBlockBegin
  2
*D16
 70
     1
 10
0.0
 20
0.0
 30
0.0
  3
*D16
  1
*D137
  0
LINE
  5
538C
330
5389
100
AcDbEntity
  8
寸法
 62
     0
370
    -2
100
AcDbLine
 10
397.1402721707084
 20
191.6865026433844
 30
0.0
 11
383.0460802300499
 21
191.6865026433844
 31
0.0
  0
LINE
  5
538D
330
5389
100
AcDbEntity
  8
寸法
 62
     0
370
    -2
100
AcDbLine
 10
397.1402721707084
 20
144.6865026433844
 30
0.0
 11
383.0460802300499
 21
144.6865026433844
 31
0.0
  0
LINE
  5
538E
330
5389
100
AcDbEntity
  8
寸法
 62
     0
370
    -2
100
AcDbLine
 10
383.0460802300499
 20
190.6865026433844
 30
0.0
 11
383.0460802300499
 21
145.6865026433844
 31
0.0
  0
INSERT
  5
538F
330
5389
100
AcDbEntity
  8
寸法
 62
     0
370
    -2
100
AcDbBlockReference
  2
_DOT
 10
383.0460802300499
 20
191.6865026433844
 30
0.0
 50
90.0
  0
INSERT
  5
5390
330
5389
100
AcDbEntity
  8
寸法
 62
     0
370
    -2
100
AcDbBlockReference
  2
_DOT
 10
383.0460802300499
 20
144.6865026433844
 30
0.0
 50
270.0
  0
MTEXT
  5
5391
330
5389
100
AcDbEntity
  8
寸法
 62
     0
100
AcDbMText
 10
377.5460802300499
 20
168.1865026433844
 30
0.0
 40
5.0
 41
0.0
 46
0.0
 71
     5
 72
     1
  1
\A1;47
  7
ＭＳ ゴシック
 11
0.0
 21
1.0
 31
0.0
 73
     1
 44
1.0
  0
POINT
  5
5392
330
5389
100
AcDbEntity
  8
Defpoints
 62
     0
100
AcDbPoint
 10
400.1402721707084
 20
191.6865026433844
 30
0.0
  0
POINT
  5
5393
330
5389
100
AcDbEntity
  8
Defpoints
 62
     0
100
AcDbPoint
 10
400.1402721707084
 20
144.6865026433844
 30
0.0
  0
POINT
  5
5394
330
5389
100
AcDbEntity
  8
Defpoints
 62
     0
100
AcDbPoint
 10
383.0460802300499
 20
144.6865026433844
 30
0.0
  0
ENDBLK
  5
538B
330
5389
100
AcDbEntity
  8
0
100
AcDbBlockEnd
  0
BLOCK
  5
5396
330
5395
100
AcDbEntity
  8
0
100
AcDbBlockBegin
  2
*D17
 70
     1
 10
0.0
 20
0.0
 30
0.0
  3
*D17
  1
*D138
  0
LINE
  5
5398
330
5395
100
AcDbEntity
  8
寸法
 62
     0
370
    -2
100
AcDbLine
 10
402.9795918367345
 20
343.714324299644
 30
0.0
 11
402.9795918367345
 21
353.3159910740048
 31
0.0
  0
LINE
  5
5399
330
5395
100
AcDbEntity
  8
寸法
 62
     0
370
    -2
100
AcDbLine
 10
440.9795918367345
 20
343.714324299644
 30
0.0
 11
440.9795918367345
 21
353.3159910740048
 31
0.0
  0
LINE
  5
539A
330
5395
100
AcDbEntity
  8
寸法
 62
     0
370
    -2
100
AcDbLine
 10
403.9795918367345
 20
353.3159910740048
 30
0.0
 11
439.9795918367345
 21
353.3159910740048
 31
0.0
  0
INSERT
  5
539B
330
5395
100
AcDbEntity
  8
寸法
 62
     0
370
    -2
100
AcDbBlockReference
  2
_DOT
 10
402.9795918367345
 20
353.3159910740048
 30
0.0
 50
180.0
  0
INSERT
  5
539C
330
5395
100
AcDbEntity
  8
寸法
 62
     0
370
    -2
100
AcDbBlockReference
  2
_DOT
 10
440.9795918367345
 20
353.3159910740048
 30
0.0
  0
MTEXT
  5
539D
330
5395
100
AcDbEntity
  8
寸法
 62
     0
100
AcDbMText
 10
421.9795918367345
 20
358.8159910740048
 30
0.0
 40
5.0
 41
0.0
 46
0.0
 71
     5
 72
     1
  1
\A1;38
  7
ＭＳ ゴシック
 73
     1
 44
1.0
  0
POINT
  5
539E
330
5395
100
AcDbEntity
  8
Defpoints
 62
     0
100
AcDbPoint
 10
402.9795918367345
 20
340.714324299644
 30
0.0
  0
POINT
  5
539F
330
5395
100
AcDbEntity
  8
Defpoints
 62
     0
100
AcDbPoint
 10
440.9795918367345
 20
340.714324299644
 30
0.0
  0
POINT
  5
53A0
330
5395
100
AcDbEntity
  8
Defpoints
 62
     0
100
AcDbPoint
 10
440.9795918367345
 20
353.3159910740048
 30
0.0
  0
ENDBLK
  5
5397
330
5395
100
AcDbEntity
  8
0
100
AcDbBlockEnd
  0
BLOCK
  5
56E9
330
56E8
100
AcDbEntity
  8
0
100
AcDbBlockBegin
  2
*D18
 70
     1
 10
0.0
 20
0.0
 30
0.0
  3
*D18
  1
*D18
  0
LINE
  5
56EB
330
56E8
100
AcDbEntity
  8
寸法
 62
     0
370
    -2
100
AcDbLine
 10
276.1437761836127
 20
184.1865026433844
 30
0.0
 11
293.9445962448979
 21
184.1865026433844
 31
0.0
  0
LINE
  5
56EC
330
56E8
100
AcDbEntity
  8
寸法
 62
     0
370
    -2
100
AcDbLine
 10
276.1437761836127
 20
213.1865026433844
 30
0.0
 11
293.9445962448979
 21
213.1865026433844
 31
0.0
  0
LINE
  5
56ED
330
56E8
100
AcDbEntity
  8
寸法
 62
     0
370
    -2
100
AcDbLine
 10
293.9445962448979
 20
186.1865026433844
 30
0.0
 11
293.9445962448979
 21
211.1865026433844
 31
0.0
  0
INSERT
  5
56EE
330
56E8
100
AcDbEntity
  8
寸法
 62
     0
370
    -2
100
AcDbBlockReference
  2
_DOT
 10
293.9445962448979
 20
184.1865026433844
 30
0.0
 41
2.0
 42
2.0
 43
2.0
 50
270.0
  0
INSERT
  5
56EF
330
56E8
100
AcDbEntity
  8
寸法
 62
     0
370
    -2
100
AcDbBlockReference
  2
_DOT
 10
293.9445962448979
 20
213.1865026433844
 30
0.0
 41
2.0
 42
2.0
 43
2.0
 50
90.0
  0
MTEXT
  5
56F0
330
56E8
100
AcDbEntity
  8
寸法
 62
     0
100
AcDbMText
 10
286.4445962448979
 20
198.6865026433844
 30
0.0
 40
5.0
 41
0.0
 46
0.0
 71
     5
 72
     1
  1
\A1;29
  7
ＭＳ ゴシック
 11
0.0
 21
1.0
 31
0.0
 73
     1
 44
1.0
  0
POINT
  5
56F1
330
56E8
100
AcDbEntity
  8
Defpoints
 62
     0
100
AcDbPoint
 10
271.1437761836127
 20
184.1865026433844
 30
0.0
  0
POINT
  5
56F2
330
56E8
100
AcDbEntity
  8
Defpoints
 62
     0
100
AcDbPoint
 10
271.1437761836127
 20
213.1865026433844
 30
0.0
  0
POINT
  5
56F3
330
56E8
100
AcDbEntity
  8
Defpoints
 62
     0
100
AcDbPoint
 10
293.9445962448979
 20
213.1865026433844
 30
0.0
  0
ENDBLK
  5
56EA
330
56E8
100
AcDbEntity
  8
0
100
AcDbBlockEnd
  0
BLOCK
  5
56F8
330
56F7
100
AcDbEntity
  8
0
100
AcDbBlockBegin
  2
*D19
 70
     1
 10
0.0
 20
0.0
 30
0.0
  3
*D19
  1
*D19
  0
LINE
  5
56FA
330
56F7
100
AcDbEntity
  8
寸法
 62
     0
370
    -2
100
AcDbLine
 10
303.6511510204082
 20
184.1865026433844
 30
0.0
 11
307.450362122449
 21
184.1865026433844
 31
0.0
  0
LINE
  5
56FB
330
56F7
100
AcDbEntity
  8
寸法
 62
     0
370
    -2
100
AcDbLine
 10
303.6511510204082
 20
152.1865026433844
 30
0.0
 11
307.450362122449
 21
152.1865026433844
 31
0.0
  0
LINE
  5
56FC
330
56F7
100
AcDbEntity
  8
寸法
 62
     0
370
    -2
100
AcDbLine
 10
307.450362122449
 20
182.1865026433844
 30
0.0
 11
307.450362122449
 21
154.1865026433844
 31
0.0
  0
INSERT
  5
56FD
330
56F7
100
AcDbEntity
  8
寸法
 62
     0
370
    -2
100
AcDbBlockReference
  2
_DOT
 10
307.450362122449
 20
184.1865026433844
 30
0.0
 41
2.0
 42
2.0
 43
2.0
 50
90.0
  0
INSERT
  5
56FE
330
56F7
100
AcDbEntity
  8
寸法
 62
     0
370
    -2
100
AcDbBlockReference
  2
_DOT
 10
307.450362122449
 20
152.1865026433844
 30
0.0
 41
2.0
 42
2.0
 43
2.0
 50
270.0
  0
MTEXT
  5
56FF
330
56F7
100
AcDbEntity
  8
寸法
 62
     0
100
AcDbMText
 10
299.950362122449
 20
168.1865026433844
 30
0.0
 40
5.0
 41
0.0
 46
0.0
 71
     5
 72
     1
  1
\A1;32
  7
ＭＳ ゴシック
 11
0.0
 21
1.0
 31
0.0
 73
     1
 44
1.0
  0
POINT
  5
5700
330
56F7
100
AcDbEntity
  8
Defpoints
 62
     0
100
AcDbPoint
 10
298.6511510204082
 20
184.1865026433844
 30
0.0
  0
POINT
  5
5701
330
56F7
100
AcDbEntity
  8
Defpoints
 62
     0
100
AcDbPoint
 10
298.6511510204082
 20
152.1865026433844
 30
0.0
  0
POINT
  5
5702
330
56F7
100
AcDbEntity
  8
Defpoints
 62
     0
100
AcDbPoint
 10
307.450362122449
 20
152.1865026433844
 30
0.0
  0
ENDBLK
  5
56F9
330
56F7
100
AcDbEntity
  8
0
100
AcDbBlockEnd
  0
BLOCK
  5
5707
330
5706
100
AcDbEntity
  8
0
100
AcDbBlockBegin
  2
*D20
 70
     1
 10
0.0
 20
0.0
 30
0.0
  3
*D20
  1
*D20
  0
LINE
  5
5709
330
5706
100
AcDbEntity
  8
寸法
 62
     0
370
    -2
100
AcDbLine
 10
173.9073686449065
 20
282.7861371132814
 30
0.0
 11
173.9073686449065
 21
275.5078087039059
 31
0.0
  0
LINE
  5
570A
330
5706
100
AcDbEntity
  8
寸法
 62
     0
370
    -2
100
AcDbLine
 10
141.9073686449065
 20
282.7861371132814
 30
0.0
 11
141.9073686449065
 21
275.5078087039059
 31
0.0
  0
LINE
  5
570B
330
5706
100
AcDbEntity
  8
寸法
 62
     0
370
    -2
100
AcDbLine
 10
171.9073686449065
 20
275.5078087039059
 30
0.0
 11
143.9073686449065
 21
275.5078087039059
 31
0.0
  0
INSERT
  5
570C
330
5706
100
AcDbEntity
  8
寸法
 62
     0
370
    -2
100
AcDbBlockReference
  2
_DOT
 10
173.9073686449065
 20
275.5078087039059
 30
0.0
 41
2.0
 42
2.0
 43
2.0
  0
INSERT
  5
570D
330
5706
100
AcDbEntity
  8
寸法
 62
     0
370
    -2
100
AcDbBlockReference
  2
_DOT
 10
141.9073686449065
 20
275.5078087039059
 30
0.0
 41
2.0
 42
2.0
 43
2.0
 50
180.0
  0
MTEXT
  5
570E
330
5706
100
AcDbEntity
  8
寸法
 62
     0
100
AcDbMText
 10
157.9073686449065
 20
283.0078087039059
 30
0.0
 40
5.0
 41
0.0
 46
0.0
 71
     5
 72
     1
  1
\A1;32
  7
ＭＳ ゴシック
 73
     1
 44
1.0
  0
POINT
  5
570F
330
5706
100
AcDbEntity
  8
Defpoints
 62
     0
100
AcDbPoint
 10
173.9073686449065
 20
287.7861371132814
 30
0.0
  0
POINT
  5
5710
330
5706
100
AcDbEntity
  8
Defpoints
 62
     0
100
AcDbPoint
 10
141.9073686449065
 20
287.7861371132814
 30
0.0
  0
POINT
  5
5711
330
5706
100
AcDbEntity
  8
Defpoints
 62
     0
100
AcDbPoint
 10
141.9073686449065
 20
275.5078087039059
 30
0.0
  0
ENDBLK
  5
5708
330
5706
100
AcDbEntity
  8
0
100
AcDbBlockEnd
  0
BLOCK
  5
5716
330
5715
100
AcDbEntity
  8
0
100
AcDbBlockBegin
  2
*D21
 70
     1
 10
0.0
 20
0.0
 30
0.0
  3
*D21
  1
*D21
  0
LINE
  5
5718
330
5715
100
AcDbEntity
  8
寸法
 62
     0
370
    -2
100
AcDbLine
 10
173.9073686449065
 20
312.0145697959183
 30
0.0
 11
173.9073686449065
 21
310.6197942857142
 31
0.0
  0
LINE
  5
5719
330
5715
100
AcDbEntity
  8
寸法
 62
     0
370
    -2
100
AcDbLine
 10
202.9073686449065
 20
323.6532273187598
 30
0.0
 11
202.9073686449065
 21
310.6197942857142
 31
0.0
  0
LINE
  5
571A
330
5715
100
AcDbEntity
  8
寸法
 62
     0
370
    -2
100
AcDbLine
 10
175.9073686449065
 20
310.6197942857142
 30
0.0
 11
200.9073686449065
 21
310.6197942857142
 31
0.0
  0
INSERT
  5
571B
330
5715
100
AcDbEntity
  8
寸法
 62
     0
370
    -2
100
AcDbBlockReference
  2
_DOT
 10
173.9073686449065
 20
310.6197942857142
 30
0.0
 41
2.0
 42
2.0
 43
2.0
 50
180.0
  0
INSERT
  5
571C
330
5715
100
AcDbEntity
  8
寸法
 62
     0
370
    -2
100
AcDbBlockReference
  2
_DOT
 10
202.9073686449065
 20
310.6197942857142
 30
0.0
 41
2.0
 42
2.0
 43
2.0
  0
MTEXT
  5
571D
330
5715
100
AcDbEntity
  8
寸法
 62
     0
100
AcDbMText
 10
188.4073686449065
 20
318.1197942857142
 30
0.0
 40
5.0
 41
0.0
 46
0.0
 71
     5
 72
     1
  1
\A1;29
  7
ＭＳ ゴシック
 73
     1
 44
1.0
  0
POINT
  5
571E
330
5715
100
AcDbEntity
  8
Defpoints
 62
     0
100
AcDbPoint
 10
173.9073686449065
 20
317.0145697959183
 30
0.0
  0
POINT
  5
571F
330
5715
100
AcDbEntity
  8
Defpoints
 62
     0
100
AcDbPoint
 10
202.9073686449065
 20
328.6532273187598
 30
0.0
  0
POINT
  5
5720
330
5715
100
AcDbEntity
  8
Defpoints
 62
     0
100
AcDbPoint
 10
202.9073686449065
 20
310.6197942857142
 30
0.0
  0
ENDBLK
  5
5717
330
5715
100
AcDbEntity
  8
0
100
AcDbBlockEnd
  0
BLOCK
  5
574E
330
574D
100
AcDbEntity
  8
0
100
AcDbBlockBegin
  2
*D22
 70
     1
 10
0.0
 20
0.0
 30
0.0
  3
*D22
  1
*D22
  0
LINE
  5
5750
330
574D
100
AcDbEntity
  8
寸法
 62
     0
370
    -2
100
AcDbLine
 10
485.9325271676299
 20
277.7936693641618
 30
0.0
 11
485.9325271676299
 21
273.6367975082468
 31
0.0
  0
LINE
  5
5751
330
574D
100
AcDbEntity
  8
寸法
 62
     0
370
    -2
100
AcDbLine
 10
475.9325271676299
 20
277.7936693641618
 30
0.0
 11
475.9325271676299
 21
273.6367975082468
 31
0.0
  0
LINE
  5
5752
330
574D
100
AcDbEntity
  8
寸法
 62
     0
370
    -2
100
AcDbLine
 10
487.9325271676299
 20
273.6367975082468
 30
0.0
 11
489.9325271676299
 21
273.6367975082468
 31
0.0
  0
LINE
  5
5753
330
574D
100
AcDbEntity
  8
寸法
 62
     0
370
    -2
100
AcDbLine
 10
473.9325271676299
 20
273.6367975082468
 30
0.0
 11
471.9325271676299
 21
273.6367975082468
 31
0.0
  0
INSERT
  5
5754
330
574D
100
AcDbEntity
  8
寸法
 62
     0
370
    -2
100
AcDbBlockReference
  2
_DOT
 10
485.9325271676299
 20
273.6367975082468
 30
0.0
 41
2.0
 42
2.0
 43
2.0
 50
180.0
  0
INSERT
  5
5755
330
574D
100
AcDbEntity
  8
寸法
 62
     0
370
    -2
100
AcDbBlockReference
  2
_DOT
 10
475.9325271676299
 20
273.6367975082468
 30
0.0
 41
2.0
 42
2.0
 43
2.0
  0
MTEXT
  5
5756
330
574D
100
AcDbEntity
  8
寸法
 62
     0
100
AcDbMText
 10
480.9325271676299
 20
281.1367975082468
 30
0.0
 40
5.0
 41
0.0
 46
0.0
 71
     5
 72
     1
  1
\A1;10
  7
ＭＳ ゴシック
 73
     1
 44
1.0
  0
POINT
  5
5757
330
574D
100
AcDbEntity
  8
Defpoints
 62
     0
100
AcDbPoint
 10
485.9325271676299
 20
282.7936693641618
 30
0.0
  0
POINT
  5
5758
330
574D
100
AcDbEntity
  8
Defpoints
 62
     0
100
AcDbPoint
 10
475.9325271676299
 20
282.7936693641618
 30
0.0
  0
POINT
  5
5759
330
574D
100
AcDbEntity
  8
Defpoints
 62
     0
100
AcDbPoint
 10
475.9325271676299
 20
273.6367975082468
 30
0.0
  0
ENDBLK
  5
574F
330
574D
100
AcDbEntity
  8
0
100
AcDbBlockEnd
  0
BLOCK
  5
576C
330
576B
100
AcDbEntity
  8
0
100
AcDbBlockBegin
  2
*D23
 70
     1
 10
0.0
 20
0.0
 30
0.0
  3
*D23
  1
*D23
  0
LINE
  5
576E
330
576B
100
AcDbEntity
  8
寸法
 62
     0
370
    -2
100
AcDbLine
 10
467.9926723027648
 20
315.7936693641618
 30
0.0
 11
467.6748573039023
 21
315.7936693641618
 31
0.0
  0
LINE
  5
576F
330
576B
100
AcDbEntity
  8
寸法
 62
     0
370
    -2
100
AcDbLine
 10
470.9325271676299
 20
282.7936693641618
 30
0.0
 11
467.6748573039023
 21
282.7936693641618
 31
0.0
  0
LINE
  5
5770
330
576B
100
AcDbEntity
  8
寸法
 62
     0
370
    -2
100
AcDbLine
 10
467.6748573039023
 20
313.7936693641618
 30
0.0
 11
467.6748573039023
 21
284.7936693641618
 31
0.0
  0
INSERT
  5
5771
330
576B
100
AcDbEntity
  8
寸法
 62
     0
370
    -2
100
AcDbBlockReference
  2
_DOT
 10
467.6748573039023
 20
315.7936693641618
 30
0.0
 41
2.0
 42
2.0
 43
2.0
 50
90.0
  0
INSERT
  5
5772
330
576B
100
AcDbEntity
  8
寸法
 62
     0
370
    -2
100
AcDbBlockReference
  2
_DOT
 10
467.6748573039023
 20
282.7936693641618
 30
0.0
 41
2.0
 42
2.0
 43
2.0
 50
270.0
  0
MTEXT
  5
5773
330
576B
100
AcDbEntity
  8
寸法
 62
     0
100
AcDbMText
 10
460.1748573039023
 20
299.2936693641618
 30
0.0
 40
5.0
 41
0.0
 46
0.0
 71
     5
 72
     1
  1
\A1;33
  7
ＭＳ ゴシック
 11
0.0
 21
1.0
 31
0.0
 73
     1
 44
1.0
  0
POINT
  5
5774
330
576B
100
AcDbEntity
  8
Defpoints
 62
     0
100
AcDbPoint
 10
472.9926723027648
 20
315.7936693641618
 30
0.0
  0
POINT
  5
5775
330
576B
100
AcDbEntity
  8
Defpoints
 62
     0
100
AcDbPoint
 10
475.9325271676299
 20
282.7936693641618
 30
0.0
  0
POINT
  5
5776
330
576B
100
AcDbEntity
  8
Defpoints
 62
     0
100
AcDbPoint
 10
467.6748573039023
 20
282.7936693641618
 30
0.0
  0
ENDBLK
  5
576D
330
576B
100
AcDbEntity
  8
0
100
AcDbBlockEnd
  0
BLOCK
  5
57ED
330
57EC
100
AcDbEntity
  8
0
100
AcDbBlockBegin
  2
*D24
 70
     1
 10
0.0
 20
0.0
 30
0.0
  3
*D24
  1
*D24
  0
LINE
  5
57EF
330
57EC
100
AcDbEntity
  8
モデル
 62
     0
370
    -2
100
AcDbLine
 10
501.2764763005779
 20
322.6656018416664
 30
0.0
 11
501.2764763005779
 21
326.7283248870306
 31
0.0
  0
LINE
  5
57F0
330
57EC
100
AcDbEntity
  8
モデル
 62
     0
370
    -2
100
AcDbLine
 10
518.2764763005779
 20
323.5436693641618
 30
0.0
 11
518.2764763005779
 21
326.7283248870306
 31
0.0
  0
LINE
  5
57F1
330
57EC
100
AcDbEntity
  8
モデル
 62
     0
370
    -2
100
AcDbLine
 10
502.2764763005779
 20
326.7283248870306
 30
0.0
 11
517.2764763005779
 21
326.7283248870306
 31
0.0
  0
INSERT
  5
57F2
330
57EC
100
AcDbEntity
  8
モデル
 62
     0
370
    -2
100
AcDbBlockReference
  2
_DOT
 10
501.2764763005779
 20
326.7283248870306
 30
0.0
 50
180.0
  0
INSERT
  5
57F3
330
57EC
100
AcDbEntity
  8
モデル
 62
     0
370
    -2
100
AcDbBlockReference
  2
_DOT
 10
518.2764763005779
 20
326.7283248870306
 30
0.0
  0
MTEXT
  5
57F4
330
57EC
100
AcDbEntity
  8
モデル
 62
     0
100
AcDbMText
 10
509.7764763005779
 20
332.2283248870306
 30
0.0
 40
5.0
 41
0.0
 46
0.0
 71
     5
 72
     1
  1
\A1;17
  7
ＭＳ ゴシック
 73
     1
 44
1.0
  0
POINT
  5
57F5
330
57EC
100
AcDbEntity
  8
Defpoints
 62
     0
100
AcDbPoint
 10
501.2764763005779
 20
319.6656018416664
 30
0.0
  0
POINT
  5
57F6
330
57EC
100
AcDbEntity
  8
Defpoints
 62
     0
100
AcDbPoint
 10
518.2764763005779
 20
320.5436693641618
 30
0.0
  0
POINT
  5
57F7
330
57EC
100
AcDbEntity
  8
Defpoints
 62
     0
100
AcDbPoint
 10
518.2764763005779
 20
326.7283248870306
 30
0.0
  0
ENDBLK
  5
57EE
330
57EC
100
AcDbEntity
  8
0
100
AcDbBlockEnd
  0
BLOCK
  5
57FC
330
57FB
100
AcDbEntity
  8
0
100
AcDbBlockBegin
  2
*D25
 70
     1
 10
0.0
 20
0.0
 30
0.0
  3
*D25
  1
*D25
  0
LINE
  5
57FE
330
57FB
100
AcDbEntity
  8
モデル
 62
     0
370
    -2
100
AcDbLine
 10
501.2764763005779
 20
312.7936693641618
 30
0.0
 11
501.2764763005779
 21
305.2285650283484
 31
0.0
  0
LINE
  5
57FF
330
57FB
100
AcDbEntity
  8
モデル
 62
     0
370
    -2
100
AcDbLine
 10
518.2764763005779
 20
312.7936693641618
 30
0.0
 11
518.2764763005779
 21
305.2285650283484
 31
0.0
  0
LINE
  5
5800
330
57FB
100
AcDbEntity
  8
モデル
 62
     0
370
    -2
100
AcDbLine
 10
502.2764763005779
 20
305.2285650283484
 30
0.0
 11
517.2764763005779
 21
305.2285650283484
 31
0.0
  0
INSERT
  5
5801
330
57FB
100
AcDbEntity
  8
モデル
 62
     0
370
    -2
100
AcDbBlockReference
  2
_DOT
 10
501.2764763005779
 20
305.2285650283484
 30
0.0
 50
180.0
  0
INSERT
  5
5802
330
57FB
100
AcDbEntity
  8
モデル
 62
     0
370
    -2
100
AcDbBlockReference
  2
_DOT
 10
518.2764763005779
 20
305.2285650283484
 30
0.0
  0
MTEXT
  5
5803
330
57FB
100
AcDbEntity
  8
モデル
 62
     0
100
AcDbMText
 10
509.7764763005779
 20
310.7285650283484
 30
0.0
 40
5.0
 41
0.0
 46
0.0
 71
     5
 72
     1
  1
\A1;17
  7
ＭＳ ゴシック
 73
     1
 44
1.0
  0
POINT
  5
5804
330
57FB
100
AcDbEntity
  8
Defpoints
 62
     0
100
AcDbPoint
 10
501.2764763005779
 20
315.7936693641618
 30
0.0
  0
POINT
  5
5805
330
57FB
100
AcDbEntity
  8
Defpoints
 62
     0
100
AcDbPoint
 10
518.2764763005779
 20
315.7936693641618
 30
0.0
  0
POINT
  5
5806
330
57FB
100
AcDbEntity
  8
Defpoints
 62
     0
100
AcDbPoint
 10
518.2764763005779
 20
305.2285650283484
 30
0.0
  0
ENDBLK
  5
57FD
330
57FB
100
AcDbEntity
  8
0
100
AcDbBlockEnd
  0
BLOCK
  5
58C0
330
58BF
100
AcDbEntity
  8
0
100
AcDbBlockBegin
  2
*D26
 70
     1
 10
0.0
 20
0.0
 30
0.0
  3
*D26
  1
*D26
  0
LINE
  5
58C2
330
58BF
100
AcDbEntity
  8
モデル
 62
     0
370
    -2
100
AcDbLine
 10
458.1460889936102
 20
321.0747478486423
 30
0.0
 11
458.1460889936102
 21
334.5611129428979
 31
0.0
  0
LINE
  5
58C3
330
58BF
100
AcDbEntity
  8
モデル
 62
     0
370
    -2
100
AcDbLine
 10
478.1460889936102
 20
321.0054644306921
 30
0.0
 11
478.1460889936102
 21
334.5611129428979
 31
0.0
  0
LINE
  5
58C4
330
58BF
100
AcDbEntity
  8
モデル
 62
     0
370
    -2
100
AcDbLine
 10
459.1460889936102
 20
334.5611129428979
 30
0.0
 11
477.1460889936102
 21
334.5611129428979
 31
0.0
  0
INSERT
  5
58C5
330
58BF
100
AcDbEntity
  8
モデル
 62
     0
370
    -2
100
AcDbBlockReference
  2
_DOT
 10
458.1460889936102
 20
334.5611129428979
 30
0.0
 50
180.0
  0
INSERT
  5
58C6
330
58BF
100
AcDbEntity
  8
モデル
 62
     0
370
    -2
100
AcDbBlockReference
  2
_DOT
 10
478.1460889936102
 20
334.5611129428979
 30
0.0
  0
MTEXT
  5
58C7
330
58BF
100
AcDbEntity
  8
モデル
 62
     0
100
AcDbMText
 10
468.1460889936102
 20
340.0611129428979
 30
0.0
 40
5.0
 41
0.0
 46
0.0
 71
     5
 72
     1
  1
\A1;20
  7
ＭＳ ゴシック
 73
     1
 44
1.0
  0
POINT
  5
58C8
330
58BF
100
AcDbEntity
  8
Defpoints
 62
     0
100
AcDbPoint
 10
458.1460889936102
 20
318.0747478486423
 30
0.0
  0
POINT
  5
58C9
330
58BF
100
AcDbEntity
  8
Defpoints
 62
     0
100
AcDbPoint
 10
478.1460889936102
 20
318.0054644306921
 30
0.0
  0
POINT
  5
58CA
330
58BF
100
AcDbEntity
  8
Defpoints
 62
     0
100
AcDbPoint
 10
478.1460889936102
 20
334.5611129428979
 30
0.0
  0
ENDBLK
  5
58C1
330
58BF
100
AcDbEntity
  8
0
100
AcDbBlockEnd
  0
BLOCK
  5
58CF
330
58CE
100
AcDbEntity
  8
0
100
AcDbBlockBegin
  2
*D27
 70
     1
 10
0.0
 20
0.0
 30
0.0
  3
*D27
  1
*D27
  0
LINE
  5
58D1
330
58CE
100
AcDbEntity
  8
モデル
 62
     0
370
    -2
100
AcDbLine
 10
460.6460889936103
 20
320.3856624895277
 30
0.0
 11
460.6460889936103
 21
324.5071189606736
 31
0.0
  0
LINE
  5
58D2
330
58CE
100
AcDbEntity
  8
モデル
 62
     0
370
    -2
100
AcDbLine
 10
475.6460889936102
 20
320.3856624895277
 30
0.0
 11
475.6460889936102
 21
324.5071189606736
 31
0.0
  0
LINE
  5
58D3
330
58CE
100
AcDbEntity
  8
モデル
 62
     0
370
    -2
100
AcDbLine
 10
461.6460889936103
 20
324.5071189606736
 30
0.0
 11
474.6460889936102
 21
324.5071189606736
 31
0.0
  0
INSERT
  5
58D4
330
58CE
100
AcDbEntity
  8
モデル
 62
     0
370
    -2
100
AcDbBlockReference
  2
_DOT
 10
460.6460889936103
 20
324.5071189606736
 30
0.0
 50
180.0
  0
INSERT
  5
58D5
330
58CE
100
AcDbEntity
  8
モデル
 62
     0
370
    -2
100
AcDbBlockReference
  2
_DOT
 10
475.6460889936102
 20
324.5071189606736
 30
0.0
  0
MTEXT
  5
58D6
330
58CE
100
AcDbEntity
  8
モデル
 62
     0
100
AcDbMText
 10
468.1460889936102
 20
330.0071189606736
 30
0.0
 40
5.0
 41
0.0
 46
0.0
 71
     5
 72
     1
  1
\A1;15
  7
ＭＳ ゴシック
 73
     1
 44
1.0
  0
POINT
  5
58D7
330
58CE
100
AcDbEntity
  8
Defpoints
 62
     0
100
AcDbPoint
 10
460.6460889936103
 20
317.3856624895277
 30
0.0
  0
POINT
  5
58D8
330
58CE
100
AcDbEntity
  8
Defpoints
 62
     0
100
AcDbPoint
 10
475.6460889936102
 20
317.3856624895277
 30
0.0
  0
POINT
  5
58D9
330
58CE
100
AcDbEntity
  8
Defpoints
 62
     0
100
AcDbPoint
 10
475.6460889936102
 20
324.5071189606736
 30
0.0
  0
ENDBLK
  5
58D0
330
58CE
100
AcDbEntity
  8
0
100
AcDbBlockEnd
  0
BLOCK
  5
58E8
330
58E7
100
AcDbEntity
  8
0
100
AcDbBlockBegin
  2
*D28
 70
     1
 10
0.0
 20
0.0
 30
0.0
  3
*D28
  1
*D28
  0
LINE
  5
58EA
330
58E7
100
AcDbEntity
  8
寸法
 62
     0
370
    -2
100
AcDbLine
 10
497.4108138525042
 20
308.7958849136377
 30
0.0
 11
512.0545201146653
 21
308.7958849136377
 31
0.0
  0
LINE
  5
58EB
330
58E7
100
AcDbEntity
  8
寸法
 62
     0
370
    -2
100
AcDbLine
 10
500.8313647070314
 20
289.7958849136377
 30
0.0
 11
512.0545201146653
 21
289.7958849136377
 31
0.0
  0
LINE
  5
58EC
330
58E7
100
AcDbEntity
  8
寸法
 62
     0
370
    -2
100
AcDbLine
 10
512.0545201146653
 20
307.7958849136377
 30
0.0
 11
512.0545201146653
 21
290.7958849136377
 31
0.0
  0
INSERT
  5
58ED
330
58E7
100
AcDbEntity
  8
寸法
 62
     0
370
    -2
100
AcDbBlockReference
  2
_DOT
 10
512.0545201146653
 20
308.7958849136377
 30
0.0
 50
90.0
  0
INSERT
  5
58EE
330
58E7
100
AcDbEntity
  8
寸法
 62
     0
370
    -2
100
AcDbBlockReference
  2
_DOT
 10
512.0545201146653
 20
289.7958849136377
 30
0.0
 50
270.0
  0
MTEXT
  5
58EF
330
58E7
100
AcDbEntity
  8
寸法
 62
     0
100
AcDbMText
 10
506.5545201146653
 20
299.2958849136377
 30
0.0
 40
5.0
 41
0.0
 46
0.0
 71
     5
 72
     1
  1
\A1;19
  7
ＭＳ ゴシック
 11
0.0
 21
1.0
 31
0.0
 73
     1
 44
1.0
  0
POINT
  5
58F0
330
58E7
100
AcDbEntity
  8
Defpoints
 62
     0
100
AcDbPoint
 10
494.4108138525042
 20
308.7958849136377
 30
0.0
  0
POINT
  5
58F1
330
58E7
100
AcDbEntity
  8
Defpoints
 62
     0
100
AcDbPoint
 10
497.8313647070314
 20
289.7958849136377
 30
0.0
  0
POINT
  5
58F2
330
58E7
100
AcDbEntity
  8
Defpoints
 62
     0
100
AcDbPoint
 10
512.0545201146653
 20
289.7958849136377
 30
0.0
  0
ENDBLK
  5
58E9
330
58E7
100
AcDbEntity
  8
0
100
AcDbBlockEnd
  0
BLOCK
  5
58F8
330
58F7
100
AcDbEntity
  8
0
100
AcDbBlockBegin
  2
*D29
 70
     1
 10
0.0
 20
0.0
 30
0.0
  3
*D29
  1
*D29
  0
LINE
  5
58FA
330
58F7
100
AcDbEntity
  8
寸法
 62
     0
370
    -2
100
AcDbLine
 10
500.9038667585459
 20
289.7958849136377
 30
0.0
 11
512.0545201146653
 21
289.7958849136377
 31
0.0
  0
LINE
  5
58FB
330
58F7
100
AcDbEntity
  8
寸法
 62
     0
370
    -2
100
AcDbLine
 10
500.9038667585459
 20
282.7958849136377
 30
0.0
 11
512.0545201146653
 21
282.7958849136377
 31
0.0
  0
LINE
  5
58FC
330
58F7
100
AcDbEntity
  8
寸法
 62
     0
370
    -2
100
AcDbLine
 10
512.0545201146653
 20
288.7958849136377
 30
0.0
 11
512.0545201146653
 21
283.7958849136377
 31
0.0
  0
INSERT
  5
58FD
330
58F7
100
AcDbEntity
  8
寸法
 62
     0
370
    -2
100
AcDbBlockReference
  2
_DOT
 10
512.0545201146653
 20
289.7958849136377
 30
0.0
 50
90.0
  0
INSERT
  5
58FE
330
58F7
100
AcDbEntity
  8
寸法
 62
     0
370
    -2
100
AcDbBlockReference
  2
_DOT
 10
512.0545201146653
 20
282.7958849136377
 30
0.0
 50
270.0
  0
MTEXT
  5
58FF
330
58F7
100
AcDbEntity
  8
寸法
 62
     0
100
AcDbMText
 10
506.5545201146653
 20
286.2958849136377
 30
0.0
 40
5.0
 41
0.0
 46
0.0
 71
     5
 72
     1
  1
\A1;7
  7
ＭＳ ゴシック
 11
0.0
 21
1.0
 31
0.0
 73
     1
 44
1.0
  0
POINT
  5
5900
330
58F7
100
AcDbEntity
  8
Defpoints
 62
     0
100
AcDbPoint
 10
497.9038667585459
 20
289.7958849136377
 30
0.0
  0
POINT
  5
5901
330
58F7
100
AcDbEntity
  8
Defpoints
 62
     0
100
AcDbPoint
 10
497.9038667585459
 20
282.7958849136377
 30
0.0
  0
POINT
  5
5902
330
58F7
100
AcDbEntity
  8
Defpoints
 62
     0
100
AcDbPoint
 10
512.0545201146653
 20
282.7958849136377
 30
0.0
  0
ENDBLK
  5
58F9
330
58F7
100
AcDbEntity
  8
0
100
AcDbBlockEnd
  0
BLOCK
  5
5909
330
5908
100
AcDbEntity
  8
0
100
AcDbBlockBegin
  2
*D30
 70
     1
 10
0.0
 20
0.0
 30
0.0
  3
*D30
  1
*D30
  0
LINE
  5
590B
330
5908
100
AcDbEntity
  8
寸法
 62
     0
370
    -2
100
AcDbLine
 10
500.9038667585459
 20
282.7958849136377
 30
0.0
 11
512.0545201146653
 21
282.7958849136377
 31
0.0
  0
LINE
  5
590C
330
5908
100
AcDbEntity
  8
寸法
 62
     0
370
    -2
100
AcDbLine
 10
497.347473690416
 20
249.7958849136377
 30
0.0
 11
512.0545201146653
 21
249.7958849136377
 31
0.0
  0
LINE
  5
590D
330
5908
100
AcDbEntity
  8
寸法
 62
     0
370
    -2
100
AcDbLine
 10
512.0545201146653
 20
281.7958849136377
 30
0.0
 11
512.0545201146653
 21
250.7958849136377
 31
0.0
  0
INSERT
  5
590E
330
5908
100
AcDbEntity
  8
寸法
 62
     0
370
    -2
100
AcDbBlockReference
  2
_DOT
 10
512.0545201146653
 20
282.7958849136377
 30
0.0
 50
90.0
  0
INSERT
  5
590F
330
5908
100
AcDbEntity
  8
寸法
 62
     0
370
    -2
100
AcDbBlockReference
  2
_DOT
 10
512.0545201146653
 20
249.7958849136377
 30
0.0
 50
270.0
  0
MTEXT
  5
5910
330
5908
100
AcDbEntity
  8
寸法
 62
     0
100
AcDbMText
 10
506.5545201146653
 20
266.2958849136377
 30
0.0
 40
5.0
 41
0.0
 46
0.0
 71
     5
 72
     1
  1
\A1;33
  7
ＭＳ ゴシック
 11
0.0
 21
1.0
 31
0.0
 73
     1
 44
1.0
  0
POINT
  5
5911
330
5908
100
AcDbEntity
  8
Defpoints
 62
     0
100
AcDbPoint
 10
497.9038667585459
 20
282.7958849136377
 30
0.0
  0
POINT
  5
5912
330
5908
100
AcDbEntity
  8
Defpoints
 62
     0
100
AcDbPoint
 10
494.347473690416
 20
249.7958849136377
 30
0.0
  0
POINT
  5
5913
330
5908
100
AcDbEntity
  8
Defpoints
 62
     0
100
AcDbPoint
 10
512.0545201146653
 20
249.7958849136377
 30
0.0
  0
ENDBLK
  5
590A
330
5908
100
AcDbEntity
  8
0
100
AcDbBlockEnd
  0
BLOCK
  5
5966
330
5965
100
AcDbEntity
  8
0
100
AcDbBlockBegin
  2
*D31
 70
     1
 10
0.0
 20
0.0
 30
0.0
  3
*D31
  1
*D31
  0
LINE
  5
5968
330
5965
100
AcDbEntity
  8
寸法
 62
     0
370
    -2
100
AcDbLine
 10
427.9555208924307
 20
289.6736590372514
 30
0.0
 11
427.9555208924307
 21
299.7138119210431
 31
0.0
  0
LINE
  5
5969
330
5965
100
AcDbEntity
  8
寸法
 62
     0
370
    -2
100
AcDbLine
 10
438.9555208924307
 20
289.6736590372514
 30
0.0
 11
438.9555208924307
 21
299.7138119210431
 31
0.0
  0
LINE
  5
596A
330
5965
100
AcDbEntity
  8
寸法
 62
     0
370
    -2
100
AcDbLine
 10
428.9555208924307
 20
299.7138119210431
 30
0.0
 11
437.9555208924307
 21
299.7138119210431
 31
0.0
  0
INSERT
  5
596B
330
5965
100
AcDbEntity
  8
寸法
 62
     0
370
    -2
100
AcDbBlockReference
  2
_DOT
 10
427.9555208924307
 20
299.7138119210431
 30
0.0
 50
180.0
  0
INSERT
  5
596C
330
5965
100
AcDbEntity
  8
寸法
 62
     0
370
    -2
100
AcDbBlockReference
  2
_DOT
 10
438.9555208924307
 20
299.7138119210431
 30
0.0
  0
MTEXT
  5
596D
330
5965
100
AcDbEntity
  8
寸法
 62
     0
100
AcDbMText
 10
433.4555208924307
 20
305.2138119210431
 30
0.0
 40
5.0
 41
0.0
 46
0.0
 71
     5
 72
     1
  1
\A1;11
  7
ＭＳ ゴシック
 73
     1
 44
1.0
  0
POINT
  5
596E
330
5965
100
AcDbEntity
  8
Defpoints
 62
     0
100
AcDbPoint
 10
427.9555208924307
 20
286.6736590372514
 30
0.0
  0
POINT
  5
596F
330
5965
100
AcDbEntity
  8
Defpoints
 62
     0
100
AcDbPoint
 10
438.9555208924307
 20
286.6736590372514
 30
0.0
  0
POINT
  5
5970
330
5965
100
AcDbEntity
  8
Defpoints
 62
     0
100
AcDbPoint
 10
438.9555208924307
 20
299.7138119210431
 30
0.0
  0
ENDBLK
  5
5967
330
5965
100
AcDbEntity
  8
0
100
AcDbBlockEnd
  0
BLOCK
  5
5975
330
5974
100
AcDbEntity
  8
0
100
AcDbBlockBegin
  2
*D32
 70
     1
 10
0.0
 20
0.0
 30
0.0
  3
*D32
  1
*D32
  0
LINE
  5
5977
330
5974
100
AcDbEntity
  8
寸法
 62
     0
370
    -2
100
AcDbLine
 10
443.4555208924307
 20
289.6736590372514
 30
0.0
 11
443.4555208924307
 21
311.560750852835
 31
0.0
  0
LINE
  5
5978
330
5974
100
AcDbEntity
  8
寸法
 62
     0
370
    -2
100
AcDbLine
 10
423.4555208924307
 20
289.6736590372514
 30
0.0
 11
423.4555208924307
 21
311.560750852835
 31
0.0
  0
LINE
  5
5979
330
5974
100
AcDbEntity
  8
寸法
 62
     0
370
    -2
100
AcDbLine
 10
442.4555208924307
 20
311.560750852835
 30
0.0
 11
424.4555208924307
 21
311.560750852835
 31
0.0
  0
INSERT
  5
597A
330
5974
100
AcDbEntity
  8
寸法
 62
     0
370
    -2
100
AcDbBlockReference
  2
_DOT
 10
443.4555208924307
 20
311.560750852835
 30
0.0
  0
INSERT
  5
597B
330
5974
100
AcDbEntity
  8
寸法
 62
     0
370
    -2
100
AcDbBlockReference
  2
_DOT
 10
423.4555208924307
 20
311.560750852835
 30
0.0
 50
180.0
  0
MTEXT
  5
597C
330
5974
100
AcDbEntity
  8
寸法
 62
     0
100
AcDbMText
 10
433.4555208924307
 20
317.060750852835
 30
0.0
 40
5.0
 41
0.0
 46
0.0
 71
     5
 72
     1
  1
\A1;20
  7
ＭＳ ゴシック
 73
     1
 44
1.0
  0
POINT
  5
597D
330
5974
100
AcDbEntity
  8
Defpoints
 62
     0
100
AcDbPoint
 10
443.4555208924307
 20
286.6736590372514
 30
0.0
  0
POINT
  5
597E
330
5974
100
AcDbEntity
  8
Defpoints
 62
     0
100
AcDbPoint
 10
423.4555208924307
 20
286.6736590372514
 30
0.0
  0
POINT
  5
597F
330
5974
100
AcDbEntity
  8
Defpoints
 62
     0
100
AcDbPoint
 10
423.4555208924307
 20
311.560750852835
 30
0.0
  0
ENDBLK
  5
5976
330
5974
100
AcDbEntity
  8
0
100
AcDbBlockEnd
  0
BLOCK
  5
598F
330
598E
100
AcDbEntity
  8
0
100
AcDbBlockBegin
  2
*D33
 70
     1
 10
0.0
 20
0.0
 30
0.0
  3
*D33
  1
*D33
  0
LINE
  5
5991
330
598E
100
AcDbEntity
  8
寸法
 62
     0
370
    -2
100
AcDbLine
 10
445.4658744271363
 20
272.0271261288341
 30
0.0
 11
435.6140990934756
 21
272.0271261288341
 31
0.0
  0
LINE
  5
5992
330
598E
100
AcDbEntity
  8
寸法
 62
     0
370
    -2
100
AcDbLine
 10
445.4658744271363
 20
247.0271261288341
 30
0.0
 11
435.6140990934756
 21
247.0271261288341
 31
0.0
  0
LINE
  5
5993
330
598E
100
AcDbEntity
  8
寸法
 62
     0
370
    -2
100
AcDbLine
 10
435.6140990934756
 20
271.0271261288341
 30
0.0
 11
435.6140990934756
 21
248.0271261288341
 31
0.0
  0
INSERT
  5
5994
330
598E
100
AcDbEntity
  8
寸法
 62
     0
370
    -2
100
AcDbBlockReference
  2
_DOT
 10
435.6140990934756
 20
272.0271261288341
 30
0.0
 50
90.0
  0
INSERT
  5
5995
330
598E
100
AcDbEntity
  8
寸法
 62
     0
370
    -2
100
AcDbBlockReference
  2
_DOT
 10
435.6140990934756
 20
247.0271261288341
 30
0.0
 50
270.0
  0
MTEXT
  5
5996
330
598E
100
AcDbEntity
  8
寸法
 62
     0
100
AcDbMText
 10
430.1140990934756
 20
259.5271261288341
 30
0.0
 40
5.0
 41
0.0
 46
0.0
 71
     5
 72
     1
  1
\A1;25
  7
ＭＳ ゴシック
 11
0.0
 21
1.0
 31
0.0
 73
     1
 44
1.0
  0
POINT
  5
5997
330
598E
100
AcDbEntity
  8
Defpoints
 62
     0
100
AcDbPoint
 10
448.4658744271363
 20
272.0271261288341
 30
0.0
  0
POINT
  5
5998
330
598E
100
AcDbEntity
  8
Defpoints
 62
     0
100
AcDbPoint
 10
448.4658744271363
 20
247.0271261288341
 30
0.0
  0
POINT
  5
5999
330
598E
100
AcDbEntity
  8
Defpoints
 62
     0
100
AcDbPoint
 10
435.6140990934756
 20
247.0271261288341
 30
0.0
  0
ENDBLK
  5
5990
330
598E
100
AcDbEntity
  8
0
100
AcDbBlockEnd
  0
BLOCK
  5
5BD8
330
5BD7
100
AcDbEntity
  8
0
100
AcDbBlockBegin
  2
*D34
 70
     1
 10
0.0
 20
0.0
 30
0.0
  3
*D34
  1
*D37
  0
LINE
  5
5BDA
330
5BD7
100
AcDbEntity
  8
寸法
 62
     0
370
    -2
100
AcDbLine
 10
293.4337034689867
 20
222.1635514933184
 30
0.0
 11
247.9811396046149
 21
222.1635514933184
 31
0.0
  0
LINE
  5
5BDB
330
5BD7
100
AcDbEntity
  8
寸法
 62
     0
370
    -2
100
AcDbLine
 10
293.4337034689867
 20
132.1635514933184
 30
0.0
 11
247.9811396046149
 21
132.1635514933184
 31
0.0
  0
LINE
  5
5BDC
330
5BD7
100
AcDbEntity
  8
寸法
 62
     0
370
    -2
100
AcDbLine
 10
247.9811396046149
 20
221.1635514933184
 30
0.0
 11
247.9811396046149
 21
133.1635514933184
 31
0.0
  0
INSERT
  5
5BDD
330
5BD7
100
AcDbEntity
  8
寸法
 62
     0
370
    -2
100
AcDbBlockReference
  2
_DOT
 10
247.9811396046149
 20
222.1635514933184
 30
0.0
 50
90.0
  0
INSERT
  5
5BDE
330
5BD7
100
AcDbEntity
  8
寸法
 62
     0
370
    -2
100
AcDbBlockReference
  2
_DOT
 10
247.9811396046149
 20
132.1635514933184
 30
0.0
 50
270.0
  0
MTEXT
  5
5BDF
330
5BD7
100
AcDbEntity
  8
寸法
 62
     0
100
AcDbMText
 10
242.4811396046149
 20
177.1635514933184
 30
0.0
 40
5.0
 41
0.0
 46
0.0
 71
     5
 72
     1
  1
\A1;90
  7
ＭＳ ゴシック
 11
0.0
 21
1.0
 31
0.0
 73
     1
 44
1.0
  0
POINT
  5
5BE0
330
5BD7
100
AcDbEntity
  8
Defpoints
 62
     0
100
AcDbPoint
 10
296.4337034689867
 20
222.1635514933184
 30
0.0
  0
POINT
  5
5BE1
330
5BD7
100
AcDbEntity
  8
Defpoints
 62
     0
100
AcDbPoint
 10
296.4337034689867
 20
132.1635514933184
 30
0.0
  0
POINT
  5
5BE2
330
5BD7
100
AcDbEntity
  8
Defpoints
 62
     0
100
AcDbPoint
 10
247.9811396046149
 20
132.1635514933184
 30
0.0
  0
ENDBLK
  5
5BD9
330
5BD7
100
AcDbEntity
  8
0
100
AcDbBlockEnd
  0
BLOCK
  5
5C1B
330
5C1A
100
AcDbEntity
  8
0
100
AcDbBlockBegin
  2
*D35
 70
     1
 10
0.0
 20
0.0
 30
0.0
  3
*D35
  1
*D38
  0
LINE
  5
5C1D
330
5C1A
100
AcDbEntity
  8
寸法
 62
     0
370
    -2
100
AcDbLine
 10
448.9908866814715
 20
240.9640427908859
 30
0.0
 11
448.9908866814715
 21
233.3834021555135
 31
0.0
  0
LINE
  5
5C1E
330
5C1A
100
AcDbEntity
  8
寸法
 62
     0
370
    -2
100
AcDbLine
 10
467.4908866814715
 20
240.9640427908859
 30
0.0
 11
467.4908866814715
 21
233.3834021555135
 31
0.0
  0
LINE
  5
5C1F
330
5C1A
100
AcDbEntity
  8
寸法
 62
     0
370
    -2
100
AcDbLine
 10
449.9908866814715
 20
233.3834021555135
 30
0.0
 11
466.4908866814715
 21
233.3834021555135
 31
0.0
  0
INSERT
  5
5C20
330
5C1A
100
AcDbEntity
  8
寸法
 62
     0
370
    -2
100
AcDbBlockReference
  2
_DOT
 10
448.9908866814715
 20
233.3834021555135
 30
0.0
 50
180.0
  0
INSERT
  5
5C21
330
5C1A
100
AcDbEntity
  8
寸法
 62
     0
370
    -2
100
AcDbBlockReference
  2
_DOT
 10
467.4908866814715
 20
233.3834021555135
 30
0.0
  0
MTEXT
  5
5C22
330
5C1A
100
AcDbEntity
  8
寸法
 62
     0
100
AcDbMText
 10
458.2408866814715
 20
238.8834021555135
 30
0.0
 40
5.0
 41
0.0
 46
0.0
 71
     5
 72
     1
  1
\A1;18.5
  7
ＭＳ ゴシック
 73
     1
 44
1.0
  0
POINT
  5
5C23
330
5C1A
100
AcDbEntity
  8
Defpoints
 62
     0
100
AcDbPoint
 10
448.9908866814715
 20
243.9640427908859
 30
0.0
  0
POINT
  5
5C24
330
5C1A
100
AcDbEntity
  8
Defpoints
 62
     0
100
AcDbPoint
 10
467.4908866814715
 20
243.9640427908859
 30
0.0
  0
POINT
  5
5C25
330
5C1A
100
AcDbEntity
  8
Defpoints
 62
     0
100
AcDbPoint
 10
467.4908866814715
 20
233.3834021555135
 30
0.0
  0
ENDBLK
  5
5C1C
330
5C1A
100
AcDbEntity
  8
0
100
AcDbBlockEnd
  0
ENDSEC
  0
SECTION
  2
ENTITIES
  0
LINE
  5
36CD
330
A
100
AcDbEntity
  8
PRINT BORDER
100
AcDbLine
 10
296.9999999999999
 20
0.0
 30
0.0
 11
296.9999999999999
 21
15.30952622855898
 31
0.0
  0
LINE
  5
36CE
330
A
100
AcDbEntity
  8
テンプレート
100
AcDbLine
 10
437.9999999999999
 20
38.27810890422097
 30
0.0
 11
15.30952622855898
 21
38.27810890422097
 31
0.0
  0
LINE
  5
36CF
330
A
100
AcDbEntity
  8
テンプレート
100
AcDbLine
 10
15.30952622855898
 20
26.22153683920783
 30
0.0
 11
578.6904737714407
 21
26.22153683920783
 31
0.0
  0
TEXT
  5
36D0
330
A
100
AcDbEntity
  8
テンプレート
100
AcDbText
 10
18.06121699514119
 20
32.16825981613692
 30
0.0
 40
3.5
  1
材質
  7
ＭＳ ゴシック
100
AcDbText
  0
TEXT
  5
36D1
330
A
100
AcDbEntity
  8
テンプレート
100
AcDbText
 10
36.7528253083583
 20
41.29280421576505
 30
0.0
 40
5.5
  1
サテン・ポリッシュ
  7
ＭＳ ゴシック
100
AcDbText
  0
TEXT
  5
36D2
330
A
100
AcDbEntity
  8
テンプレート
100
AcDbText
 10
36.7528253083583
 20
29.19151340726899
 30
0.0
 40
5.5
  1
ステンレス
  7
ＭＳ ゴシック
100
AcDbText
  0
TEXT
  5
36D3
330
A
100
AcDbEntity
  8
テンプレート
100
AcDbText
 10
18.06121699514119
 20
56.50959028673083
 30
0.0
 40
3.5
  1
品名
  7
ＭＳ ゴシック
100
AcDbText
  0
TEXT
  5
36D4
330
A
100
AcDbEntity
  8
テンプレート
100
AcDbText
 10
18.06121699514119
 20
44.65099339080098
 30
0.0
 40
3.5
  1
仕上げ
  7
ＭＳ ゴシック
100
AcDbText
  0
TEXT
  5
36D5
330
A
100
AcDbEntity
  8
テンプレート
100
AcDbText
 10
298.8233485179306
 20
56.58523052309897
 30
0.0
 40
3.5
  1
品番
  7
ＭＳ ゴシック
100
AcDbText
  0
TEXT
  5
36D6
330
A
100
AcDbEntity
  8
テンプレート
100
AcDbText
 10
36.7528253083583
 20
53.09440584367189
 30
0.0
 40
5.5
  1
ドアノブ(片面固定タイプ) - FORMANI,Square -
  7
ＭＳ ゴシック
100
AcDbText
  0
TEXT
  5
36D7
330
A
100
AcDbEntity
  8
テンプレート
100
AcDbText
 10
313.0171205424464
 20
52.977080524553
 30
0.0
 40
5.5
  1
FOR11-SQ125V
  7
ＭＳ ゴシック
100
AcDbText
  0
LINE
  5
36D8
330
A
100
AcDbEntity
  8
テンプレート
100
AcDbLine
 10
437.9999999999999
 20
50.16496477419605
 30
0.0
 11
15.30952622855898
 21
50.16496477419605
 31
0.0
  0
LINE
  5
36D9
330
A
100
AcDbEntity
  8
テンプレート
100
AcDbLine
 10
578.6904737714411
 20
62.22153683920783
 30
0.0
 11
15.30952622855898
 21
62.22153683920783
 31
0.0
  0
LINE
  5
36DA
330
A
100
AcDbEntity
  8
PRINT BORDER
100
AcDbLine
 10
593.9999999999999
 20
210.0
 30
0.0
 11
578.6904737714411
 21
210.0
 31
0.0
  0
LINE
  5
36DB
330
A
100
AcDbEntity
  8
PRINT BORDER
100
AcDbLine
 10
0.0
 20
210.0
 30
0.0
 11
15.30952622855898
 21
210.0
 31
0.0
  0
LINE
  5
36DC
330
A
100
AcDbEntity
  8
PRINT BORDER
100
AcDbLine
 10
296.9999999999999
 20
420.0
 30
0.0
 11
296.9999999999999
 21
404.690473771441
 31
0.0
  0
LINE
  5
36DD
330
A
100
AcDbEntity
  8
テンプレート
100
AcDbLine
 10
578.6904737714411
 20
62.22153683920783
 30
0.0
 11
578.6904737714411
 21
26.22153683920783
 31
0.0
  0
LINE
  5
36DE
330
A
100
AcDbEntity
  8
テンプレート
100
AcDbLine
 10
15.30952622855898
 20
62.22153683920783
 30
0.0
 11
15.30952622855898
 21
26.22153683920783
 31
0.0
  0
TEXT
  5
36DF
330
A
100
AcDbEntity
  8
テンプレート
100
AcDbText
 10
440.0887524673468
 20
56.58523052309897
 30
0.0
 40
3.5
  1
備考
  7
ＭＳ ゴシック
100
AcDbText
  0
TEXT
  5
36E0
330
A
100
AcDbEntity
  8
テンプレート
100
AcDbText
 10
494.9733384955217
 20
16.51938390313694
 30
0.0
 40
5.5
  1
大洋金物株式会社  
  7
ＭＳ ゴシック
100
AcDbText
  0
LINE
  5
36E1
330
A
100
AcDbEntity
  8
テンプレート
100
AcDbLine
 10
437.9999999999999
 20
62.22153683920783
 30
0.0
 11
437.9999999999999
 21
26.22153683920783
 31
0.0
  0
LINE
  5
36E2
330
A
100
AcDbEntity
  8
テンプレート
100
AcDbLine
 10
296.9999999999999
 20
62.22153683920783
 30
0.0
 11
296.9999999999999
 21
26.22153683920783
 31
0.0
  0
INSERT
  5
36E3
330
A
100
AcDbEntity
  8
テンプレート
100
AcDbBlockReference
  2
名称未設定-1
 10
548.3945198859805
 20
-7.642344203993161
 30
0.0
 41
0.180975
 42
0.180975
 43
0.180975
  0
LINE
  5
36E5
330
A
100
AcDbEntity
  8
テンプレート
100
AcDbLine
 10
15.30952622855898
 20
210.0
 30
0.0
 11
15.30952622855898
 21
26.22153683920783
 31
0.0
  0
LINE
  5
36E6
330
A
100
AcDbEntity
  8
テンプレート
100
AcDbLine
 10
15.30952622855898
 20
210.0
 30
0.0
 11
15.30952622855898
 21
404.690473771441
 31
0.0
  0
LINE
  5
36E7
330
A
100
AcDbEntity
  8
テンプレート
100
AcDbLine
 10
296.9999999999999
 20
404.690473771441
 30
0.0
 11
15.30952622855887
 21
404.690473771441
 31
0.0
  0
LINE
  5
36E8
330
A
100
AcDbEntity
  8
テンプレート
100
AcDbLine
 10
296.9999999999999
 20
404.690473771441
 30
0.0
 11
578.6904737714411
 21
404.690473771441
 31
0.0
  0
LINE
  5
36E9
330
A
100
AcDbEntity
  8
テンプレート
100
AcDbLine
 10
578.6904737714411
 20
210.0
 30
0.0
 11
578.6904737714411
 21
404.690473771441
 31
0.0
  0
LINE
  5
36EA
330
A
100
AcDbEntity
  8
テンプレート
100
AcDbLine
 10
578.6904737714411
 20
210.0
 30
0.0
 11
578.6904737714411
 21
26.22153683920783
 31
0.0
  0
LWPOLYLINE
  5
36EB
330
A
100
AcDbEntity
  8
PRINT BORDER
  6
HIDDEN
 48
3.0
100
AcDbPolyline
 90
        4
 70
     1
 43
0.0
 10
0.0
 20
0.0
 10
0.0
 20
420.0
 10
593.9999999999999
 20
420.0
 10
593.9999999999999
 20
0.0
  0
TEXT
  5
36EC
330
A
100
AcDbEntity
  8
テンプレート
100
AcDbText
 10
298.7989156222221
 20
32.62405342819488
 30
0.0
 40
3.5
  1
縮尺
  7
ＭＳ ゴシック
100
AcDbText
  0
TEXT
  5
36ED
330
A
100
AcDbEntity
  8
テンプレート
100
AcDbText
 10
313.0171205424464
 20
28.29362070227194
 30
0.0
 40
5.5
  1
1/2
  7
ＭＳ ゴシック
100
AcDbText
  0
TEXT
  5
37DE
330
A
100
AcDbEntity
  8
テンプレート
100
AcDbText
 10
298.8233485179306
 20
44.52865845808583
 30
0.0
 40
3.5
  1
扉厚
  7
ＭＳ ゴシック
100
AcDbText
  0
POLYLINE
  5
4B3D
330
A
100
AcDbEntity
  8
モデル
100
AcDb2dPolyline
 66
     1
 10
0.0
 20
0.0
 30
0.0
  0
VERTEX
  5
4B3E
330
4B3D
100
AcDbEntity
  8
モデル
100
AcDbVertex
100
AcDb2dVertex
 10
95.40736864490646
 20
114.6635514933184
 30
0.0
  0
VERTEX
  5
4B3F
330
4B3D
100
AcDbEntity
  8
モデル
100
AcDbVertex
100
AcDb2dVertex
 10
95.40736864490646
 20
239.3533152477627
 30
0.0
  0
VERTEX
  5
4B40
330
4B3D
100
AcDbEntity
  8
モデル
100
AcDbVertex
100
AcDb2dVertex
 10
220.4073686449065
 20
239.3533152477627
 30
0.0
  0
VERTEX
  5
4B41
330
4B3D
100
AcDbEntity
  8
モデル
100
AcDbVertex
100
AcDb2dVertex
 10
220.4073686449065
 20
114.6635514933184
 30
0.0
  0
VERTEX
  5
4B42
330
4B3D
100
AcDbEntity
  8
モデル
100
AcDbVertex
100
AcDb2dVertex
 10
95.40736864490646
 20
114.6635514933184
 30
0.0
  0
SEQEND
  5
4B43
330
4B3D
100
AcDbEntity
  8
モデル
  0
POLYLINE
  5
4B82
102
{ACAD_REACTORS
330
4C21
330
4C42
330
4C60
102
}
330
A
100
AcDbEntity
  8
モデル
100
AcDb2dPolyline
 66
     1
 10
0.0
 20
0.0
 30
0.0
  0
VERTEX
  5
4B83
330
4B82
100
AcDbEntity
  8
モデル
100
AcDbVertex
100
AcDb2dVertex
 10
95.40736864490646
 20
277.1070908705069
 30
0.0
  0
VERTEX
  5
4B84
330
4B82
100
AcDbEntity
  8
モデル
100
AcDbVertex
100
AcDb2dVertex
 10
95.40736864490646
 20
264.8287624611313
 30
0.0
  0
VERTEX
  5
4B85
330
4B82
100
AcDbEntity
  8
モデル
100
AcDbVertex
100
AcDb2dVertex
 10
220.4073686449065
 20
264.8287624611313
 30
0.0
  0
VERTEX
  5
4B86
330
4B82
100
AcDbEntity
  8
モデル
100
AcDbVertex
100
AcDb2dVertex
 10
220.4073686449065
 20
277.1070908705069
 30
0.0
  0
VERTEX
  5
4B87
330
4B82
100
AcDbEntity
  8
モデル
100
AcDbVertex
100
AcDb2dVertex
 10
95.40736864490646
 20
277.1070908705069
 30
0.0
  0
SEQEND
  5
4B88
330
4B82
100
AcDbEntity
  8
モデル
  0
POLYLINE
  5
4B98
102
{ACAD_REACTORS
330
4C31
330
4C42
330
4C60
102
}
330
A
100
AcDbEntity
  8
モデル
100
AcDb2dPolyline
 66
     1
 10
0.0
 20
0.0
 30
0.0
  0
VERTEX
  5
4B99
330
4B98
100
AcDbEntity
  8
モデル
100
AcDbVertex
100
AcDb2dVertex
 10
202.9073686449065
 20
317.9741810759852
 30
0.0
  0
VERTEX
  5
4B9A
330
4B98
100
AcDbEntity
  8
モデル
100
AcDbVertex
100
AcDb2dVertex
 10
202.9073686449065
 20
329.8287624611313
 30
0.0
  0
VERTEX
  5
4B9B
330
4B98
100
AcDbEntity
  8
モデル
100
AcDbVertex
100
AcDb2dVertex
 10
112.9073686449065
 20
329.8287624611313
 30
0.0
  0
VERTEX
  5
4B9C
330
4B98
100
AcDbEntity
  8
モデル
100
AcDbVertex
100
AcDb2dVertex
 10
112.9073686449065
 20
317.9741810759852
 30
0.0
  0
VERTEX
  5
4B9D
330
4B98
100
AcDbEntity
  8
モデル
100
AcDbVertex
100
AcDb2dVertex
 10
202.9073686449065
 20
317.9741810759852
 30
0.0
  0
SEQEND
  5
4B9E
330
4B98
100
AcDbEntity
  8
モデル
  0
POLYLINE
  5
4B9F
330
A
100
AcDbEntity
  8
モデル
100
AcDb2dPolyline
 66
     1
 10
0.0
 20
0.0
 30
0.0
  0
VERTEX
  5
4BA0
330
4B9F
100
AcDbEntity
  8
モデル
100
AcDbVertex
100
AcDb2dVertex
 10
173.9073686449065
 20
317.9741810759852
 30
0.0
  0
VERTEX
  5
4BA1
330
4B9F
100
AcDbEntity
  8
モデル
100
AcDbVertex
100
AcDb2dVertex
 10
173.9073686449065
 20
277.1070908705069
 30
0.0
  0
SEQEND
  5
4BA2
330
4B9F
100
AcDbEntity
  8
モデル
  0
POLYLINE
  5
4BA3
330
A
100
AcDbEntity
  8
モデル
100
AcDb2dPolyline
 66
     1
 10
0.0
 20
0.0
 30
0.0
  0
VERTEX
  5
4BA4
330
4BA3
100
AcDbEntity
  8
モデル
100
AcDbVertex
100
AcDb2dVertex
 10
141.9073686449065
 20
317.9741810759852
 30
0.0
  0
VERTEX
  5
4BA5
330
4BA3
100
AcDbEntity
  8
モデル
100
AcDbVertex
100
AcDb2dVertex
 10
141.9073686449065
 20
277.1070908705069
 30
0.0
  0
SEQEND
  5
4BA6
330
4BA3
100
AcDbEntity
  8
モデル
  0
DIMENSION
  5
4BF2
330
A
100
AcDbEntity
  8
寸法
100
AcDbDimension
  2
*D7
 10
64.16542778197463
 20
114.6635514933184
 30
0.0
 11
64.16542778197464
 21
177.0084333705406
 31
0.0
 70
   160
 71
     5
 42
124.6897637544443
 73
     0
 74
     0
 75
     0
  3
tfrom線あり
100
AcDbAlignedDimension
 13
95.40736864490646
 23
239.3533152477627
 33
0.0
 14
95.40736864490646
 24
114.6635514933184
 34
0.0
 50
90.0
100
AcDbRotatedDimension
  0
DIMENSION
  5
4C1F
102
{ACAD_REACTORS
330
4C21
102
}
102
{ACAD_XDICTIONARY
360
4C20
102
}
330
A
100
AcDbEntity
  8
寸法
100
AcDbDimension
  2
*D8
 10
64.16542778197464
 20
264.8287624611313
 30
0.0
 11
64.16542778197464
 21
270.9679266658191
 31
0.0
 70
   160
 71
     5
 42
12.27832840937555
 73
     0
 74
     0
 75
     0
  3
tfrom線あり
100
AcDbAlignedDimension
 13
95.40736864490646
 23
277.1070908705069
 33
0.0
 14
95.40736864490646
 24
264.8287624611313
 34
0.0
 50
90.0
100
AcDbRotatedDimension
  0
DIMENSION
  5
4C2F
102
{ACAD_REACTORS
330
4C31
102
}
102
{ACAD_XDICTIONARY
360
4C30
102
}
330
A
100
AcDbEntity
  8
寸法
100
AcDbDimension
  2
*D9
 10
64.16542778197464
 20
317.9741810759852
 30
0.0
 11
64.16542778197464
 21
323.9014717685585
 31
0.0
 70
   160
 71
     5
 42
11.8545813851461
 73
     0
 74
     0
 75
     0
  3
tfrom線あり
100
AcDbAlignedDimension
 13
112.9073686449065
 23
329.8287624611313
 33
0.0
 14
112.9073686449065
 24
317.9741810759852
 34
0.0
 50
90.0
100
AcDbRotatedDimension
  0
DIMENSION
  5
4C40
102
{ACAD_REACTORS
330
4C42
102
}
102
{ACAD_XDICTIONARY
360
4C41
102
}
330
A
100
AcDbEntity
  8
寸法
100
AcDbDimension
  2
*D10
 10
248.2648865287003
 20
264.8287624611313
 30
0.0
 11
248.2648865287003
 21
297.3287624611315
 31
0.0
 70
   160
 71
     5
 42
65.0
 73
     0
 74
     0
 75
     0
  3
tfrom線あり
100
AcDbAlignedDimension
 13
202.9073686449065
 23
329.8287624611313
 33
0.0
 14
220.4073686449065
 24
264.8287624611313
 34
0.0
 50
90.0
100
AcDbRotatedDimension
  0
DIMENSION
  5
4C5E
102
{ACAD_REACTORS
330
4C60
102
}
102
{ACAD_XDICTIONARY
360
4C5F
102
}
330
A
100
AcDbEntity
  8
寸法
100
AcDbDimension
  2
*D11
 10
64.16542778197464
 20
277.1070908705069
 30
0.0
 11
58.66542778197464
 21
297.540635973246
 31
0.0
 70
    32
 71
     5
 42
40.86709020547835
 73
     0
 74
     0
 75
     0
  3
tfrom線あり
100
AcDbAlignedDimension
 13
112.9073686449065
 23
317.9741810759852
 33
0.0
 14
95.40736864490646
 24
277.1070908705069
 34
0.0
 50
90.0
100
AcDbRotatedDimension
  0
DIMENSION
  5
4C6D
330
A
100
AcDbEntity
  8
寸法
100
AcDbDimension
  2
*D12
 10
220.4073686449065
 20
246.5019097131317
 30
0.0
 11
157.9073686449065
 21
252.0019097131317
 31
0.0
 70
    32
 71
     5
 42
125.0000000000001
 73
     0
 74
     0
 75
     0
  3
tfrom線あり
100
AcDbAlignedDimension
 13
95.40736864490646
 23
265.4725358750178
 33
0.0
 14
220.4073686449065
 24
265.4725358750178
 34
0.0
100
AcDbRotatedDimension
  0
POLYLINE
  5
504D
330
A
100
AcDbEntity
  8
モデル
100
AcDb2dPolyline
 66
     1
 10
0.0
 20
0.0
 30
0.0
  0
VERTEX
  5
504E
330
504D
100
AcDbEntity
  8
モデル
100
AcDbVertex
100
AcDb2dVertex
 10
349.1553750596113
 20
114.6635514933184
 30
0.0
  0
VERTEX
  5
504F
330
504D
100
AcDbEntity
  8
モデル
100
AcDbVertex
100
AcDb2dVertex
 10
361.4337034689867
 20
114.6635514933184
 30
0.0
  0
VERTEX
  5
5050
330
504D
100
AcDbEntity
  8
モデル
100
AcDbVertex
100
AcDb2dVertex
 10
361.4337034689867
 20
239.6635514933184
 30
0.0
  0
VERTEX
  5
5051
330
504D
100
AcDbEntity
  8
モデル
100
AcDbVertex
100
AcDb2dVertex
 10
349.1553750596113
 20
239.6635514933184
 30
0.0
  0
VERTEX
  5
5052
330
504D
100
AcDbEntity
  8
モデル
100
AcDbVertex
100
AcDb2dVertex
 10
349.1553750596113
 20
114.6635514933184
 30
0.0
  0
SEQEND
  5
5053
330
504D
100
AcDbEntity
  8
モデル
  0
POLYLINE
  5
5054
102
{ACAD_REACTORS
330
5BD6
102
}
330
A
100
AcDbEntity
  8
モデル
100
AcDb2dPolyline
 66
     1
 10
0.0
 20
0.0
 30
0.0
  0
VERTEX
  5
5055
330
5054
100
AcDbEntity
  8
モデル
100
AcDbVertex
100
AcDb2dVertex
 10
308.2882848541329
 20
222.1635514933184
 30
0.0
  0
VERTEX
  5
5056
330
5054
100
AcDbEntity
  8
モデル
100
AcDbVertex
100
AcDb2dVertex
 10
296.4337034689867
 20
222.1635514933184
 30
0.0
  0
VERTEX
  5
5057
330
5054
100
AcDbEntity
  8
モデル
100
AcDbVertex
100
AcDb2dVertex
 10
296.4337034689867
 20
132.1635514933184
 30
0.0
  0
VERTEX
  5
5058
330
5054
100
AcDbEntity
  8
モデル
100
AcDbVertex
100
AcDb2dVertex
 10
308.2882848541329
 20
132.1635514933184
 30
0.0
  0
VERTEX
  5
5059
330
5054
100
AcDbEntity
  8
モデル
100
AcDbVertex
100
AcDb2dVertex
 10
308.2882848541329
 20
222.1635514933184
 30
0.0
  0
SEQEND
  5
505A
330
5054
100
AcDbEntity
  8
モデル
  0
POLYLINE
  5
505B
330
A
100
AcDbEntity
  8
モデル
100
AcDb2dPolyline
 66
     1
 10
0.0
 20
0.0
 30
0.0
  0
VERTEX
  5
505C
330
505B
100
AcDbEntity
  8
モデル
100
AcDbVertex
100
AcDb2dVertex
 10
308.2882848541329
 20
193.1635514933184
 30
0.0
  0
VERTEX
  5
505D
330
505B
100
AcDbEntity
  8
モデル
100
AcDbVertex
100
AcDb2dVertex
 10
349.1553750596113
 20
193.1635514933184
 30
0.0
  0
SEQEND
  5
505E
330
505B
100
AcDbEntity
  8
モデル
  0
POLYLINE
  5
505F
330
A
100
AcDbEntity
  8
モデル
100
AcDb2dPolyline
 66
     1
 10
0.0
 20
0.0
 30
0.0
  0
VERTEX
  5
5060
330
505F
100
AcDbEntity
  8
モデル
100
AcDbVertex
100
AcDb2dVertex
 10
308.2882848541329
 20
161.1635514933184
 30
0.0
  0
VERTEX
  5
5061
330
505F
100
AcDbEntity
  8
モデル
100
AcDbVertex
100
AcDb2dVertex
 10
349.1553750596113
 20
161.1635514933184
 30
0.0
  0
SEQEND
  5
5062
330
505F
100
AcDbEntity
  8
モデル
  0
TEXT
  5
5370
330
A
100
AcDbEntity
  8
テンプレート
100
AcDbText
 10
448.6410827757887
 20
335.0074505284583
 30
0.0
 40
6.0
  1
<取付部品>
  7
ＭＳ ゴシック
100
AcDbText
  0
TEXT
  5
5497
330
A
100
AcDbEntity
  8
テンプレート
100
AcDbText
 10
452.2203065686471
 20
53.38158042870626
 30
0.0
 40
5.5
  1
付属品
  7
ＭＳ ゴシック
100
AcDbText
  0
TEXT
  5
5498
330
A
100
AcDbEntity
  8
テンプレート
100
AcDbText
 10
452.2203065686471
 20
45.00155565301887
 30
0.0
 40
5.5
  1
M10専用ボルト・
  7
ＭＳ ゴシック
100
AcDbText
  0
TEXT
  5
5499
330
A
100
AcDbEntity
  8
テンプレート
100
AcDbText
 10
452.2203065686471
 20
37.63729145620266
 30
0.0
 40
5.5
  1
ワッシャ・ウッドアンカー18.5x25
  7
ＭＳ ゴシック
100
AcDbText
  0
TEXT
  5
549A
330
A
100
AcDbEntity
  8
テンプレート
100
AcDbText
 10
452.2203065686471
 20
30.01908711466865
 30
0.0
 40
5.5
  1
イモネジ
  7
ＭＳ ゴシック
100
AcDbText
  0
TEXT
  5
549B
330
A
100
AcDbEntity
  8
テンプレート
100
AcDbText
 10
205.1078900144718
 20
78.32361641779728
 30
0.0
 40
5.0
  1
　 加工は現物合わせの上行って下さい。
  7
ＭＳ ゴシック
100
AcDbText
  0
TEXT
  5
549C
330
A
100
AcDbEntity
  8
テンプレート
100
AcDbText
 10
205.2801330966802
 20
86.00824480117748
 30
0.0
 40
5.0
  1
※ 輸入製品の為、国内製品と比べ製品寸法の個体差に幅が有ります。
  7
ＭＳ ゴシック
100
AcDbText
  0
CIRCLE
  5
54B1
330
A
100
AcDbEntity
  8
モデル
  6
HIDDEN
 48
0.5
100
AcDbCircle
 10
157.9073686449065
 20
314.8287624611313
 30
0.0
 40
2.0
  0
LINE
  5
54E1
330
A
100
AcDbEntity
  8
モデル
  6
HIDDEN
100
AcDbLine
 10
314.0984303438447
 20
173.1635514933184
 30
0.0
 11
314.0984303438447
 21
161.1635514933184
 31
0.0
  0
LINE
  5
54EE
330
A
100
AcDbEntity
  8
モデル
100
AcDbLine
 10
311.9205639730329
 20
137.1921880778624
 30
0.0
 11
310.4558910373473
 21
135.7686525020395
 31
0.0
  0
LINE
  5
54EF
330
A
100
AcDbEntity
  8
モデル
100
AcDbLine
 10
310.4558910373473
 20
135.7686525020395
 30
0.0
 11
310.4558910373473
 21
131.2907372292267
 31
0.0
  0
LINE
  5
54F0
330
A
100
AcDbEntity
  8
モデル
100
AcDbLine
 10
311.9205639730329
 20
137.1921880778624
 30
0.0
 11
313.3852369087185
 21
135.7686525020395
 31
0.0
  0
LINE
  5
54F1
330
A
100
AcDbEntity
  8
モデル
100
AcDbLine
 10
313.3852369087185
 20
135.7686525020395
 30
0.0
 11
313.3852369087185
 21
131.2907372292267
 31
0.0
  0
LINE
  5
54F2
330
A
100
AcDbEntity
  8
モデル
100
AcDbLine
 10
310.4558910373473
 20
131.2907372292267
 30
0.0
 11
313.3852369087185
 21
131.2907372292267
 31
0.0
  0
LINE
  5
54F3
330
A
100
AcDbEntity
  8
寸法
100
AcDbLine
 10
310.4558910373473
 20
135.7686525020395
 30
0.0
 11
313.3852369087185
 21
135.7686525020395
 31
0.0
  0
HATCH
  5
54F4
330
A
100
AcDbEntity
  8
寸法
100
AcDbHatch
 10
0.0
 20
0.0
 30
0.0
210
0.0
220
0.0
230
1.0
  2
ANSI31
 70
     0
 71
     0
 91
        1
 92
        1
 93
        4
 72
     1
 10
310.4558910373473
 20
135.7686525020395
 11
310.4558910373473
 21
131.2907372292266
 72
     1
 10
310.4558910373473
 20
131.2907372292267
 11
313.3852369087185
 21
131.2907372292267
 72
     1
 10
310.4558910373473
 20
135.7686525020395
 11
313.3852369087185
 21
135.7686525020395
 72
     1
 10
313.3852369087185
 20
135.7686525020395
 11
313.3852369087185
 21
131.2907372292266
 97
        0
 75
     0
 76
     1
 52
330.0000000000002
 41
0.4999999999999993
 77
     0
 78
     1
 53
14.99999999999995
 43
31.71432767217686
 44
5.668968943750855
 45
-0.4108752341002508
 46
1.533407249233896
 79
     0
 98
        1
 10
31.71432767217686
 20
5.668968943750855
1001
ACAD
1010
0.0
1020
0.0
1030
0.0
  0
LINE
  5
54F5
330
A
100
AcDbEntity
  8
モデル
  6
HIDDEN
100
AcDbLine
 10
310.0984303438447
 20
173.1635514933184
 30
0.0
 11
310.0984303438447
 21
161.1635514933184
 31
0.0
  0
LINE
  5
54F6
330
A
100
AcDbEntity
  8
寸法
  6
CENTER
100
AcDbLine
 10
311.9205639730329
 20
138.6633997320109
 30
0.0
 11
311.9205639730329
 21
158.0279301315672
 31
0.0
  0
LINE
  5
5724
102
{ACAD_REACTORS
330
5761
330
59B8
102
}
330
A
100
AcDbEntity
  8
モデル
100
AcDbLine
 10
484.4038667585459
 20
308.7958849136377
 30
0.0
 11
494.4038667585459
 21
308.7958849136377
 31
0.0
  0
LINE
  5
5725
102
{ACAD_REACTORS
330
5761
330
59B8
102
}
330
A
100
AcDbEntity
  8
モデル
100
AcDbLine
 10
494.4038667585459
 20
308.7958849136377
 30
0.0
 11
494.4038667585459
 21
302.7958849136377
 31
0.0
  0
LINE
  5
5726
102
{ACAD_REACTORS
330
579C
330
59B8
102
}
330
A
100
AcDbEntity
  8
モデル
100
AcDbLine
 10
494.4038667585459
 20
250.3597673159291
 30
0.0
 11
484.4038667585459
 21
250.3597673159291
 31
0.0
  0
LINE
  5
5727
102
{ACAD_REACTORS
330
579C
330
59B8
102
}
330
A
100
AcDbEntity
  8
モデル
100
AcDbLine
 10
484.4038667585459
 20
250.3597673159291
 30
0.0
 11
484.4038667585459
 21
282.7958849136377
 31
0.0
  0
LINE
  5
5729
102
{ACAD_REACTORS
330
59B8
102
}
330
A
100
AcDbEntity
  8
モデル
100
AcDbLine
 10
497.9038667585459
 20
282.7958849136377
 30
0.0
 11
480.9038667585459
 21
282.7958849136377
 31
0.0
  0
LINE
  5
572B
102
{ACAD_REACTORS
330
59B8
102
}
330
A
100
AcDbEntity
  8
モデル
100
AcDbLine
 10
480.9038667585459
 20
289.7958849136377
 30
0.0
 11
497.9038667585459
 21
289.7958849136377
 31
0.0
  0
LINE
  5
572D
102
{ACAD_REACTORS
330
59B8
102
}
330
A
100
AcDbEntity
  8
モデル
100
AcDbLine
 10
480.9038667585459
 20
285.2958849136377
 30
0.0
 11
497.9038667585459
 21
285.2958849136377
 31
0.0
  0
LINE
  5
5734
102
{ACAD_REACTORS
330
59B8
102
}
330
A
100
AcDbEntity
  8
モデル
100
AcDbLine
 10
480.9038667585459
 20
289.7958849136377
 30
0.0
 11
480.9038667585459
 21
285.2958849136377
 31
0.0
  0
LINE
  5
5735
102
{ACAD_REACTORS
330
59B8
102
}
330
A
100
AcDbEntity
  8
モデル
100
AcDbLine
 10
480.9038667585459
 20
285.2958849136377
 30
0.0
 11
480.9038667585459
 21
282.7958849136377
 31
0.0
  0
LINE
  5
5736
102
{ACAD_REACTORS
330
59B8
102
}
330
A
100
AcDbEntity
  8
モデル
100
AcDbLine
 10
497.9038667585459
 20
282.7958849136377
 30
0.0
 11
497.9038667585459
 21
285.2958849136377
 31
0.0
  0
LINE
  5
5737
102
{ACAD_REACTORS
330
59B8
102
}
330
A
100
AcDbEntity
  8
モデル
100
AcDbLine
 10
497.9038667585459
 20
285.2958849136377
 30
0.0
 11
497.9038667585459
 21
289.7958849136377
 31
0.0
  0
LINE
  5
573E
102
{ACAD_REACTORS
330
59B8
102
}
330
A
100
AcDbEntity
  8
モデル
100
AcDbLine
 10
494.4038667585459
 20
295.7958849136377
 30
0.0
 11
492.4038667585459
 21
296.7958849136377
 31
0.0
  0
LINE
  5
5743
102
{ACAD_REACTORS
330
59B8
102
}
330
A
100
AcDbEntity
  8
モデル
100
AcDbLine
 10
492.4038667585459
 20
296.7958849136377
 30
0.0
 11
492.4038667585459
 21
299.7958849136377
 31
0.0
  0
LINE
  5
5744
102
{ACAD_REACTORS
330
59B8
102
}
330
A
100
AcDbEntity
  8
モデル
100
AcDbLine
 10
494.4038667585459
 20
302.7958849136377
 30
0.0
 11
492.4038667585459
 21
299.7958849136377
 31
0.0
  0
LINE
  5
5745
102
{ACAD_REACTORS
330
59B8
102
}
330
A
100
AcDbEntity
  8
モデル
100
AcDbLine
 10
484.4038667585459
 20
295.7958849136377
 30
0.0
 11
486.4038667585458
 21
296.7958849136377
 31
0.0
  0
LINE
  5
5746
102
{ACAD_REACTORS
330
59B8
102
}
330
A
100
AcDbEntity
  8
モデル
100
AcDbLine
 10
484.4038667585459
 20
302.7958849136377
 30
0.0
 11
486.4038667585458
 21
299.7958849136377
 31
0.0
  0
LINE
  5
5747
102
{ACAD_REACTORS
330
59B8
102
}
330
A
100
AcDbEntity
  8
モデル
100
AcDbLine
 10
486.4038667585458
 20
296.7958849136377
 30
0.0
 11
486.4038667585458
 21
299.7958849136377
 31
0.0
  0
LINE
  5
5748
102
{ACAD_REACTORS
330
5761
330
59B8
102
}
330
A
100
AcDbEntity
  8
モデル
100
AcDbLine
 10
494.4038667585459
 20
295.7958849136377
 30
0.0
 11
494.4038667585459
 21
289.7958849136377
 31
0.0
  0
LINE
  5
5749
102
{ACAD_REACTORS
330
5761
330
59B8
102
}
330
A
100
AcDbEntity
  8
モデル
100
AcDbLine
 10
484.4038667585459
 20
302.7958849136377
 30
0.0
 11
484.4038667585459
 21
308.7958849136377
 31
0.0
  0
LINE
  5
575A
102
{ACAD_REACTORS
330
5761
330
59B8
102
}
330
A
100
AcDbEntity
  8
モデル
100
AcDbLine
 10
484.4038667585459
 20
289.7958849136377
 30
0.0
 11
484.4038667585459
 21
295.7958849136377
 31
0.0
  0
LINE
  5
575B
102
{ACAD_REACTORS
330
579C
330
59B8
102
}
330
A
100
AcDbEntity
  8
モデル
100
AcDbLine
 10
494.4038667585459
 20
282.7958849136377
 30
0.0
 11
494.4038667585459
 21
250.3597673159291
 31
0.0
  0
LINE
  5
575C
102
{ACAD_REACTORS
330
59B8
102
}
330
A
100
AcDbEntity
  8
モデル
100
AcDbLine
 10
495.1137551546502
 20
289.7958849136377
 30
0.0
 11
495.1137551546502
 21
282.7958849136377
 31
0.0
  0
LINE
  5
575D
102
{ACAD_REACTORS
330
59B8
102
}
330
A
100
AcDbEntity
  8
モデル
100
AcDbLine
 10
483.6939783624416
 20
289.7958849136377
 30
0.0
 11
483.6939783624416
 21
282.7958849136377
 31
0.0
  0
LINE
  5
575E
102
{ACAD_REACTORS
330
5761
330
59B8
102
}
330
A
100
AcDbEntity
  8
モデル
100
AcDbLine
 10
494.4038667585459
 20
302.7958849136377
 30
0.0
 11
484.4038667585459
 21
302.7958849136377
 31
0.0
  0
LINE
  5
575F
102
{ACAD_REACTORS
330
5761
330
59B8
102
}
330
A
100
AcDbEntity
  8
モデル
100
AcDbLine
 10
494.4038667585459
 20
295.7958849136377
 30
0.0
 11
484.4038667585459
 21
295.7958849136377
 31
0.0
  0
LINE
  5
5760
102
{ACAD_REACTORS
330
5761
330
59B8
102
}
330
A
100
AcDbEntity
  8
モデル
100
AcDbLine
 10
484.4038667585459
 20
289.7958849136377
 30
0.0
 11
494.4038667585459
 21
289.7958849136377
 31
0.0
  0
HATCH
  5
5761
102
{ACAD_REACTORS
330
59B8
102
}
330
A
100
AcDbEntity
  8
モデル
100
AcDbHatch
 10
0.0
 20
0.0
 30
0.0
210
0.0
220
0.0
230
1.0
  2
ANSI31
 70
     0
 71
     1
 91
        2
 92
        1
 93
        4
 72
     1
 10
484.4038667585459
 20
289.7958849136377
 11
494.4038667585459
 21
289.7958849136377
 72
     1
 10
484.4038667585459
 20
289.7958849136377
 11
484.4038667585459
 21
295.7958849136377
 72
     1
 10
494.4038667585459
 20
295.7958849136377
 11
484.4038667585459
 21
295.7958849136377
 72
     1
 10
494.4038667585459
 20
295.7958849136377
 11
494.4038667585459
 21
289.7958849136377
 97
        4
330
5760
330
575A
330
575F
330
5748
 92
        1
 93
        4
 72
     1
 10
494.4038667585459
 20
308.7958849136377
 11
494.4038667585459
 21
302.7958849136377
 72
     1
 10
484.4038667585459
 20
308.7958849136377
 11
494.4038667585459
 21
308.7958849136377
 72
     1
 10
484.4038667585459
 20
302.7958849136377
 11
484.4038667585459
 21
308.7958849136377
 72
     1
 10
494.4038667585459
 20
302.7958849136377
 11
484.4038667585459
 21
302.7958849136377
 97
        4
330
5725
330
5724
330
5749
330
575E
 75
     0
 76
     1
 52
140.0
 41
0.5
 77
     0
 78
     1
 53
184.9999999999998
 43
8.471339590915989
 44
-32.99778445052405
 45
0.138359741611907
 46
-1.581459083220646
 79
     0
 98
        1
 10
8.471339590915989
 20
-32.99778445052405
1001
ACAD
1010
0.0
1020
0.0
1030
0.0
  0
LINE
  5
579B
102
{ACAD_REACTORS
330
579C
330
59B8
102
}
330
A
100
AcDbEntity
  8
モデル
100
AcDbLine
 10
484.4038667585459
 20
282.7958849136377
 30
0.0
 11
494.4038667585459
 21
282.7958849136377
 31
0.0
  0
HATCH
  5
579C
102
{ACAD_REACTORS
330
59B8
102
}
330
A
100
AcDbEntity
  8
モデル
100
AcDbHatch
 10
0.0
 20
0.0
 30
0.0
210
0.0
220
0.0
230
1.0
  2
ANSI31
 70
     0
 71
     1
 91
        1
 92
        1
 93
        4
 72
     1
 10
484.4038667585459
 20
282.7958849136377
 11
494.4038667585459
 21
282.7958849136377
 72
     1
 10
494.4038667585459
 20
282.7958849136377
 11
494.4038667585459
 21
250.3597673159291
 72
     1
 10
484.4038667585459
 20
250.3597673159291
 11
484.4038667585459
 21
282.7958849136377
 72
     1
 10
494.4038667585459
 20
250.3597673159291
 11
484.4038667585459
 21
250.3597673159291
 97
        4
330
579B
330
575B
330
5727
330
5726
 75
     0
 76
     1
 52
145.0
 41
0.4999999999999999
 77
     0
 78
     1
 53
189.9999999999999
 43
8.471339590915989
 44
-32.99778445052405
 45
0.2756664820462521
 46
-1.56338230790688
 79
     0
 98
        1
 10
8.471339590915989
 20
-32.99778445052405
1001
ACAD
1010
0.0
1020
0.0
1030
0.0
  0
LINE
  5
57AC
102
{ACAD_REACTORS
330
59B8
102
}
330
A
100
AcDbEntity
  8
モデル
100
AcDbLine
 10
494.0979151822224
 20
249.7958849136377
 30
0.0
 11
494.4038667585459
 21
250.3597673159291
 31
0.0
  0
LINE
  5
57AD
102
{ACAD_REACTORS
330
59B8
102
}
330
A
100
AcDbEntity
  8
モデル
100
AcDbLine
 10
484.7098183348695
 20
249.7958849136377
 30
0.0
 11
484.4038667585459
 21
250.3597673159291
 31
0.0
  0
LINE
  5
57AE
102
{ACAD_REACTORS
330
59B8
102
}
330
A
100
AcDbEntity
  8
モデル
100
AcDbLine
 10
484.7098183348695
 20
249.7958849136377
 30
0.0
 11
494.0979151822224
 21
249.7958849136377
 31
0.0
  0
LINE
  5
580A
102
{ACAD_REACTORS
330
5C56
102
}
330
A
100
AcDbEntity
  8
モデル
100
AcDbLine
 10
426.0877709544685
 20
257.4081350309112
 30
0.0
 11
442.0877709544685
 21
257.4081350309112
 31
0.0
  0
LINE
  5
580C
102
{ACAD_REACTORS
330
5C56
102
}
330
A
100
AcDbEntity
  8
モデル
100
AcDbLine
 10
442.0877709544685
 20
232.4081350309112
 30
0.0
 11
426.0877709544685
 21
232.4081350309112
 31
0.0
  0
LINE
  5
581B
102
{ACAD_REACTORS
330
5C2C
330
5C56
102
}
330
A
100
AcDbEntity
  8
モデル
100
AcDbLine
 10
442.8404258669352
 20
257.1524292879669
 30
0.0
 11
424.981463674366
 21
253.4913420384902
 31
0.0
  0
LINE
  5
5820
102
{ACAD_REACTORS
330
5C2C
330
5C56
102
}
330
A
100
AcDbEntity
  8
モデル
100
AcDbLine
 10
442.9938515558518
 20
256.4741379681554
 30
0.0
 11
425.172316036352
 21
252.8207231866579
 31
0.0
  0
LINE
  5
5821
102
{ACAD_REACTORS
330
5C2C
330
5C56
102
}
330
A
100
AcDbEntity
  8
モデル
100
AcDbLine
 10
425.172316036352
 20
252.8207231866578
 30
0.0
 11
424.8377709544685
 21
253.147504715569
 31
0.0
  0
LINE
  5
5822
102
{ACAD_REACTORS
330
5C2C
330
5C56
102
}
330
A
100
AcDbEntity
  8
モデル
100
AcDbLine
 10
424.8377709544685
 20
253.147504715569
 30
0.0
 11
424.9822117663319
 21
253.4931321217944
 31
0.0
  0
LINE
  5
5825
102
{ACAD_REACTORS
330
5C2C
330
5C56
102
}
330
A
100
AcDbEntity
  8
モデル
100
AcDbLine
 10
443.3411255391679
 20
256.8697722630312
 30
0.0
 11
442.8404258669352
 21
257.1524292879669
 31
0.0
  0
LINE
  5
5826
102
{ACAD_REACTORS
330
5C2C
330
5C56
102
}
330
A
100
AcDbEntity
  8
モデル
100
AcDbLine
 10
443.3411255391679
 20
256.8697722630312
 30
0.0
 11
442.9938515558518
 21
256.4741379681554
 31
0.0
  0
LINE
  5
58A9
102
{ACAD_REACTORS
330
5C56
102
}
330
A
100
AcDbEntity
  8
モデル
100
AcDbLine
 10
442.0877709544685
 20
232.7543932717119
 30
0.0
 11
440.3987063651965
 21
232.4081350309112
 31
0.0
  0
LINE
  5
58B1
102
{ACAD_REACTORS
330
5C56
102
}
330
A
100
AcDbEntity
  8
モデル
100
AcDbLine
 10
426.0877709544685
 20
256.4655651820361
 30
0.0
 11
429.1982676933486
 21
257.4081350309112
 31
0.0
  0
DIMENSION
  5
58E6
330
A
100
AcDbEntity
  8
寸法
100
AcDbDimension
  2
*D28
 10
512.0545201146653
 20
289.7958849136377
 30
0.0
 11
506.5545201146653
 21
299.2958849136377
 31
0.0
 70
    32
 71
     5
 42
19.0
 73
     0
 74
     0
 75
     0
  3
tfrom線あり
100
AcDbAlignedDimension
 13
494.4108138525042
 23
308.7958849136377
 33
0.0
 14
497.8313647070314
 24
289.7958849136377
 34
0.0
 50
90.0
100
AcDbRotatedDimension
  0
DIMENSION
  5
58F6
330
A
100
AcDbEntity
  8
寸法
100
AcDbDimension
  2
*D29
 10
512.0545201146653
 20
282.7958849136377
 30
0.0
 11
512.0545201146653
 21
286.2958849136377
 31
0.0
 70
   160
 71
     5
 42
7.0
 73
     0
 74
     0
 75
     0
  3
tfrom線あり
100
AcDbAlignedDimension
 13
497.9038667585459
 23
289.7958849136377
 33
0.0
 14
497.9038667585459
 24
282.7958849136377
 34
0.0
 50
90.0
100
AcDbRotatedDimension
  0
DIMENSION
  5
5907
330
A
100
AcDbEntity
  8
寸法
100
AcDbDimension
  2
*D30
 10
512.0545201146653
 20
249.7958849136377
 30
0.0
 11
506.5545201146653
 21
266.2958849136377
 31
0.0
 70
    32
 71
     5
 42
32.99999999999997
 73
     0
 74
     0
 75
     0
  3
tfrom線あり
100
AcDbAlignedDimension
 13
497.9038667585459
 23
282.7958849136377
 33
0.0
 14
494.347473690416
 24
249.7958849136377
 34
0.0
 50
90.0
100
AcDbRotatedDimension
  0
LINE
  5
5934
102
{ACAD_REACTORS
330
5C56
102
}
330
A
100
AcDbEntity
  8
モデル
100
AcDbLine
 10
426.0877709544685
 20
257.4081350309112
 30
0.0
 11
426.0877709544685
 21
253.7181350309112
 31
0.0
  0
LINE
  5
5935
102
{ACAD_REACTORS
330
5C56
102
}
330
A
100
AcDbEntity
  8
モデル
100
AcDbLine
 10
442.0877709544685
 20
257.4081350309112
 30
0.0
 11
442.0877709544685
 21
256.9981350309113
 31
0.0
  0
LINE
  5
594B
102
{ACAD_REACTORS
330
5C56
102
}
330
A
100
AcDbEntity
  8
モデル
100
AcDbLine
 10
426.0877709544685
 20
253.0083914448718
 30
0.0
 11
426.0877709544685
 21
249.7181350309112
 31
0.0
  0
LINE
  5
594C
102
{ACAD_REACTORS
330
5C56
102
}
330
A
100
AcDbEntity
  8
モデル
100
AcDbLine
 10
426.0877709544685
 20
249.0083914448717
 30
0.0
 11
426.0877709544685
 21
245.7181350309112
 31
0.0
  0
LINE
  5
594D
102
{ACAD_REACTORS
330
5C56
102
}
330
A
100
AcDbEntity
  8
モデル
100
AcDbLine
 10
442.0877709544685
 20
256.2883914448719
 30
0.0
 11
442.0877709544685
 21
252.9981350309113
 31
0.0
  0
LINE
  5
594E
102
{ACAD_REACTORS
330
5C56
102
}
330
A
100
AcDbEntity
  8
モデル
100
AcDbLine
 10
442.0877709544685
 20
252.2883914448719
 30
0.0
 11
442.0877709544685
 21
248.9981350309112
 31
0.0
  0
LINE
  5
594F
102
{ACAD_REACTORS
330
5C56
102
}
330
A
100
AcDbEntity
  8
モデル
100
AcDbLine
 10
442.0877709544685
 20
248.2883914448718
 30
0.0
 11
442.0877709544685
 21
244.9981350309112
 31
0.0
  0
LINE
  5
5950
102
{ACAD_REACTORS
330
5C56
102
}
330
A
100
AcDbEntity
  8
モデル
100
AcDbLine
 10
426.0877709544685
 20
245.0083914448717
 30
0.0
 11
426.0877709544685
 21
241.7181350309112
 31
0.0
  0
LINE
  5
5951
102
{ACAD_REACTORS
330
5C56
102
}
330
A
100
AcDbEntity
  8
モデル
100
AcDbLine
 10
442.0877709544685
 20
244.2883914448718
 30
0.0
 11
442.0877709544685
 21
240.9981350309112
 31
0.0
  0
LINE
  5
5952
102
{ACAD_REACTORS
330
5C56
102
}
330
A
100
AcDbEntity
  8
モデル
100
AcDbLine
 10
426.0877709544685
 20
241.0083914448717
 30
0.0
 11
426.0877709544685
 21
237.7181350309112
 31
0.0
  0
LINE
  5
5953
102
{ACAD_REACTORS
330
5C56
102
}
330
A
100
AcDbEntity
  8
モデル
100
AcDbLine
 10
426.0877709544685
 20
237.0083914448717
 30
0.0
 11
426.0877709544685
 21
233.7181350309112
 31
0.0
  0
LINE
  5
5954
102
{ACAD_REACTORS
330
5C56
102
}
330
A
100
AcDbEntity
  8
モデル
100
AcDbLine
 10
442.0877709544685
 20
240.2883914448718
 30
0.0
 11
442.0877709544685
 21
236.9981350309112
 31
0.0
  0
LINE
  5
5955
102
{ACAD_REACTORS
330
5C56
102
}
330
A
100
AcDbEntity
  8
モデル
100
AcDbLine
 10
442.0877709544685
 20
236.2883914448718
 30
0.0
 11
442.0877709544685
 21
232.4081350309112
 31
0.0
  0
LINE
  5
5956
102
{ACAD_REACTORS
330
5C56
102
}
330
A
100
AcDbEntity
  8
モデル
100
AcDbLine
 10
426.0877709544685
 20
233.0083914448717
 30
0.0
 11
426.0877709544685
 21
232.4081350309112
 31
0.0
  0
CIRCLE
  5
595D
102
{ACAD_REACTORS
330
5964
102
}
330
A
100
AcDbEntity
  8
モデル
100
AcDbCircle
 10
433.4555208924307
 20
286.6736590372514
 30
0.0
 40
5.5
  0
CIRCLE
  5
595E
102
{ACAD_REACTORS
330
5973
102
}
330
A
100
AcDbEntity
  8
モデル
100
AcDbCircle
 10
433.4555208924307
 20
286.6736590372514
 30
0.0
 40
10.0
  0
DIMENSION
  5
5962
102
{ACAD_REACTORS
330
5964
102
}
102
{ACAD_XDICTIONARY
360
5963
102
}
330
A
100
AcDbEntity
  8
寸法
100
AcDbDimension
  2
*D31
 10
438.9555208924307
 20
299.7138119210431
 30
0.0
 11
433.4555208924307
 21
305.2138119210431
 31
0.0
 70
    32
 71
     5
 42
11.0
 73
     0
 74
     0
 75
     0
  3
tfrom線あり
100
AcDbAlignedDimension
 13
427.9555208924307
 23
286.6736590372514
 33
0.0
 14
438.9555208924307
 24
286.6736590372514
 34
0.0
100
AcDbRotatedDimension
  0
DIMENSION
  5
5971
102
{ACAD_REACTORS
330
5973
102
}
102
{ACAD_XDICTIONARY
360
5972
102
}
330
A
100
AcDbEntity
  8
寸法
100
AcDbDimension
  2
*D32
 10
423.4555208924307
 20
311.560750852835
 30
0.0
 11
433.4555208924307
 21
317.060750852835
 31
0.0
 70
    32
 71
     5
 42
20.0
 73
     0
 74
     0
 75
     0
  3
tfrom線あり
100
AcDbAlignedDimension
 13
443.4555208924307
 23
286.6736590372514
 33
0.0
 14
423.4555208924307
 24
286.6736590372514
 34
0.0
100
AcDbRotatedDimension
  0
LINE
  5
5A0B
330
A
100
AcDbEntity
  8
モデル
  6
HIDDEN
100
AcDbLine
 10
322.4337034689866
 20
181.5791774112778
 30
0.0
 11
322.4337034689866
 21
171.5791774112779
 31
0.0
  0
LINE
  5
5A0C
330
A
100
AcDbEntity
  8
モデル
100
AcDbLine
 10
263.997585871278
 20
171.5791774112779
 30
0.0
 11
263.997585871278
 21
181.5791774112778
 31
0.0
  0
LINE
  5
5A0D
330
A
100
AcDbEntity
  8
モデル
100
AcDbLine
 10
296.4337034689867
 20
168.0791774112779
 30
0.0
 11
296.4337034689867
 21
185.0791774112778
 31
0.0
  0
LINE
  5
5A0E
330
A
100
AcDbEntity
  8
モデル
  6
HIDDEN
100
AcDbLine
 10
303.4337034689867
 20
185.0791774112778
 30
0.0
 11
303.4337034689867
 21
168.0791774112779
 31
0.0
  0
LINE
  5
5A0F
330
A
100
AcDbEntity
  8
モデル
  6
HIDDEN
100
AcDbLine
 10
298.9337034689867
 20
185.0791774112778
 30
0.0
 11
298.9337034689867
 21
168.0791774112779
 31
0.0
  0
LINE
  5
5A10
330
A
100
AcDbEntity
  8
モデル
  6
HIDDEN
100
AcDbLine
 10
303.4337034689867
 20
185.0791774112778
 30
0.0
 11
298.9337034689867
 21
185.0791774112778
 31
0.0
  0
LINE
  5
5A11
330
A
100
AcDbEntity
  8
モデル
  6
HIDDEN
100
AcDbLine
 10
298.9337034689867
 20
185.0791774112778
 30
0.0
 11
296.4337034689867
 21
185.0791774112778
 31
0.0
  0
LINE
  5
5A12
330
A
100
AcDbEntity
  8
モデル
  6
HIDDEN
100
AcDbLine
 10
296.4337034689867
 20
168.0791774112779
 30
0.0
 11
298.9337034689867
 21
168.0791774112779
 31
0.0
  0
LINE
  5
5A13
330
A
100
AcDbEntity
  8
モデル
  6
HIDDEN
100
AcDbLine
 10
298.9337034689867
 20
168.0791774112779
 30
0.0
 11
303.4337034689867
 21
168.0791774112779
 31
0.0
  0
LINE
  5
5A14
330
A
100
AcDbEntity
  8
モデル
  6
HIDDEN
100
AcDbLine
 10
309.4337034689867
 20
171.5791774112779
 30
0.0
 11
310.4337034689867
 21
173.5791774112779
 31
0.0
  0
LINE
  5
5A15
330
A
100
AcDbEntity
  8
モデル
  6
HIDDEN
100
AcDbLine
 10
316.4337034689867
 20
171.5791774112779
 30
0.0
 11
313.4337034689867
 21
173.5791774112779
 31
0.0
  0
LINE
  5
5A16
330
A
100
AcDbEntity
  8
モデル
  6
HIDDEN
100
AcDbLine
 10
310.4337034689867
 20
173.5791774112779
 30
0.0
 11
313.4337034689867
 21
173.5791774112779
 31
0.0
  0
LINE
  5
5A17
330
A
100
AcDbEntity
  8
モデル
  6
HIDDEN
100
AcDbLine
 10
309.4337034689867
 20
181.5791774112778
 30
0.0
 11
310.4337034689867
 21
179.5791774112779
 31
0.0
  0
LINE
  5
5A18
330
A
100
AcDbEntity
  8
モデル
  6
HIDDEN
100
AcDbLine
 10
316.4337034689867
 20
181.5791774112778
 30
0.0
 11
313.4337034689867
 21
179.5791774112779
 31
0.0
  0
LINE
  5
5A19
330
A
100
AcDbEntity
  8
モデル
  6
HIDDEN
100
AcDbLine
 10
310.4337034689867
 20
179.5791774112779
 30
0.0
 11
313.4337034689867
 21
179.5791774112779
 31
0.0
  0
LINE
  5
5A1A
330
A
100
AcDbEntity
  8
モデル
  6
HIDDEN
100
AcDbLine
 10
322.4337034689866
 20
171.5791774112779
 30
0.0
 11
316.4337034689867
 21
171.5791774112779
 31
0.0
  0
LINE
  5
5A1B
330
A
100
AcDbEntity
  8
モデル
  6
HIDDEN
100
AcDbLine
 10
316.4337034689867
 20
181.5791774112778
 30
0.0
 11
322.4337034689866
 21
181.5791774112778
 31
0.0
  0
LINE
  5
5A1C
330
A
100
AcDbEntity
  8
モデル
  6
HIDDEN
100
AcDbLine
 10
303.4337034689867
 20
181.5791774112778
 30
0.0
 11
309.4337034689867
 21
181.5791774112778
 31
0.0
  0
LINE
  5
5A1D
330
A
100
AcDbEntity
  8
モデル
100
AcDbLine
 10
263.997585871278
 20
181.5791774112778
 30
0.0
 11
296.4337034689867
 21
181.5791774112778
 31
0.0
  0
LINE
  5
5A1E
330
A
100
AcDbEntity
  8
モデル
100
AcDbLine
 10
296.4337034689867
 20
171.5791774112779
 30
0.0
 11
263.997585871278
 21
171.5791774112779
 31
0.0
  0
LINE
  5
5A1F
330
A
100
AcDbEntity
  8
モデル
  6
HIDDEN
100
AcDbLine
 10
309.4337034689867
 20
171.5791774112779
 30
0.0
 11
303.4337034689867
 21
171.5791774112779
 31
0.0
  0
LINE
  5
5A20
330
A
100
AcDbEntity
  8
モデル
  6
HIDDEN
100
AcDbLine
 10
303.4337034689867
 20
170.8692890151735
 30
0.0
 11
296.4337034689867
 21
170.8692890151735
 31
0.0
  0
LINE
  5
5A21
330
A
100
AcDbEntity
  8
モデル
  6
HIDDEN
100
AcDbLine
 10
303.4337034689867
 20
182.2890658073822
 30
0.0
 11
296.4337034689867
 21
182.2890658073822
 31
0.0
  0
LINE
  5
5A22
330
A
100
AcDbEntity
  8
モデル
  6
HIDDEN
100
AcDbLine
 10
316.4337034689867
 20
171.5791774112779
 30
0.0
 11
316.4337034689867
 21
181.5791774112778
 31
0.0
  0
LINE
  5
5A23
330
A
100
AcDbEntity
  8
モデル
  6
HIDDEN
100
AcDbLine
 10
309.4337034689867
 20
171.5791774112779
 30
0.0
 11
309.4337034689867
 21
181.5791774112778
 31
0.0
  0
LINE
  5
5A24
330
A
100
AcDbEntity
  8
モデル
  6
HIDDEN
100
AcDbLine
 10
303.4337034689867
 20
181.5791774112778
 30
0.0
 11
303.4337034689867
 21
171.5791774112779
 31
0.0
  0
HATCH
  5
5A25
330
A
100
AcDbEntity
  8
モデル
  6
HIDDEN
100
AcDbHatch
 10
0.0
 20
0.0
 30
0.0
210
0.0
220
0.0
230
1.0
  2
ANSI31
 70
     0
 71
     0
 91
        2
 92
        1
 93
        4
 72
     1
 10
303.4337034689867
 20
181.5791774112778
 11
303.4337034689867
 21
171.5791774112779
 72
     1
 10
303.4337034689867
 20
181.5791774112778
 11
309.4337034689867
 21
181.5791774112778
 72
     1
 10
309.4337034689867
 20
171.5791774112779
 11
309.4337034689867
 21
181.5791774112778
 72
     1
 10
309.4337034689867
 20
171.5791774112779
 11
303.4337034689867
 21
171.5791774112779
 97
        0
 92
        1
 93
        4
 72
     1
 10
322.4337034689866
 20
171.5791774112779
 11
316.4337034689867
 21
171.5791774112779
 72
     1
 10
322.4337034689866
 20
181.5791774112778
 11
322.4337034689866
 21
171.5791774112779
 72
     1
 10
316.4337034689867
 20
181.5791774112778
 11
322.4337034689866
 21
181.5791774112778
 72
     1
 10
316.4337034689867
 20
171.5791774112779
 11
316.4337034689867
 21
181.5791774112778
 97
        0
 75
     0
 76
     1
 52
49.99999999999999
 41
0.5
 77
     0
 78
     1
 53
94.99999999999983
 43
-19.35996589517515
 44
657.5117045789077
 45
-1.581459083220646
 46
-0.1383597416119067
 79
     0
 98
        1
 10
-19.35996589517515
 20
657.5117045789077
1001
ACAD
1010
0.0
1020
0.0
1030
0.0
  0
LINE
  5
5A26
330
A
100
AcDbEntity
  8
モデル
100
AcDbLine
 10
296.4337034689867
 20
181.5791774112778
 30
0.0
 11
296.4337034689867
 21
171.5791774112779
 31
0.0
  0
HATCH
  5
5A27
330
A
100
AcDbEntity
  8
モデル
100
AcDbHatch
 10
0.0
 20
0.0
 30
0.0
210
0.0
220
0.0
230
1.0
  2
ANSI31
 70
     0
 71
     0
 91
        1
 92
        1
 93
        4
 72
     1
 10
296.4337034689867
 20
181.5791774112778
 11
296.4337034689867
 21
171.5791774112779
 72
     1
 10
296.4337034689867
 20
171.5791774112779
 11
263.997585871278
 21
171.5791774112779
 72
     1
 10
263.997585871278
 20
181.5791774112778
 11
296.4337034689867
 21
181.5791774112778
 72
     1
 10
263.997585871278
 20
171.5791774112779
 11
263.997585871278
 21
181.5791774112778
 97
        0
 75
     0
 76
     1
 52
55.00000000000002
 41
0.4999999999999996
 77
     0
 78
     1
 53
99.99999999999986
 43
-19.35996589517515
 44
657.5117045789077
 45
-1.56338230790688
 46
-0.2756664820462518
 79
     0
 98
        1
 10
-19.35996589517515
 20
657.5117045789077
1001
ACAD
1010
0.0
1020
0.0
1030
0.0
  0
LINE
  5
5A28
330
A
100
AcDbEntity
  8
モデル
100
AcDbLine
 10
263.4337034689867
 20
171.8851289876013
 30
0.0
 11
263.997585871278
 21
171.5791774112779
 31
0.0
  0
LINE
  5
5A29
330
A
100
AcDbEntity
  8
モデル
100
AcDbLine
 10
263.4337034689867
 20
181.2732258349543
 30
0.0
 11
263.997585871278
 21
181.5791774112778
 31
0.0
  0
LINE
  5
5A2A
330
A
100
AcDbEntity
  8
モデル
100
AcDbLine
 10
263.4337034689867
 20
181.2732258349543
 30
0.0
 11
263.4337034689867
 21
171.8851289876013
 31
0.0
  0
HATCH
  5
5AAC
102
{ACAD_REACTORS
330
5ACF
102
}
330
A
100
AcDbEntity
  8
モデル
100
AcDbHatch
 10
0.0
 20
0.0
 30
0.0
210
0.0
220
0.0
230
1.0
  2
ANSI31
 70
     0
 71
     0
 91
        1
 92
        1
 93
        4
 72
     1
 10
162.9073686449065
 20
329.8287624611313
 11
152.9073686449065
 21
329.8287624611313
 72
     1
 10
152.9073686449066
 20
329.8287624611313
 11
152.9073686449066
 21
362.2648800588399
 72
     1
 10
162.9073686449065
 20
362.2648800588399
 11
162.9073686449065
 21
329.8287624611313
 72
     1
 10
152.9073686449066
 20
362.2648800588399
 11
162.9073686449065
 21
362.2648800588399
 97
        0
 75
     0
 76
     1
 52
325.0000000000001
 41
0.4999999999999994
 77
     0
 78
     1
 53
9.999999999999861
 43
638.8398958125363
 44
645.622431825293
 45
-0.2756664820462515
 46
1.56338230790688
 79
     0
 98
        1
 10
638.8398958125363
 20
645.622431825293
1001
ACAD
1010
0.0
1020
0.0
1030
0.0
  0
LINE
  5
5AAD
102
{ACAD_REACTORS
330
5ACF
102
}
330
A
100
AcDbEntity
  8
モデル
100
AcDbLine
 10
162.9073686449065
 20
362.2648800588399
 30
0.0
 11
162.9073686449065
 21
329.8287624611313
 31
0.0
  0
LINE
  5
5AAE
102
{ACAD_REACTORS
330
5ACF
102
}
330
A
100
AcDbEntity
  8
モデル
100
AcDbLine
 10
152.9073686449066
 20
329.8287624611313
 30
0.0
 11
152.9073686449066
 21
362.2648800588399
 31
0.0
  0
LINE
  5
5AAF
102
{ACAD_REACTORS
330
5ACF
102
}
330
A
100
AcDbEntity
  8
モデル
100
AcDbLine
 10
152.9073686449066
 20
362.2648800588399
 30
0.0
 11
162.9073686449065
 21
362.2648800588399
 31
0.0
  0
LINE
  5
5AB0
102
{ACAD_REACTORS
330
5ACF
102
}
330
A
100
AcDbEntity
  8
モデル
100
AcDbLine
 10
153.21332022123
 20
362.8287624611313
 30
0.0
 11
152.9073686449066
 21
362.2648800588399
 31
0.0
  0
LINE
  5
5AB1
102
{ACAD_REACTORS
330
5ACF
102
}
330
A
100
AcDbEntity
  8
モデル
100
AcDbLine
 10
162.6014170685829
 20
362.8287624611313
 30
0.0
 11
162.9073686449065
 21
362.2648800588399
 31
0.0
  0
LINE
  5
5AB2
102
{ACAD_REACTORS
330
5ACF
102
}
330
A
100
AcDbEntity
  8
モデル
100
AcDbLine
 10
162.6014170685829
 20
362.8287624611313
 30
0.0
 11
153.21332022123
 21
362.8287624611313
 31
0.0
  0
LINE
  5
5AB5
102
{ACAD_REACTORS
330
5ACF
102
}
330
A
100
AcDbEntity
  8
モデル
  6
HIDDEN
100
AcDbLine
 10
162.9073686449065
 20
303.8287624611314
 30
0.0
 11
152.9073686449066
 21
303.8287624611314
 31
0.0
  0
LINE
  5
5AB6
102
{ACAD_REACTORS
330
5ACF
102
}
330
A
100
AcDbEntity
  8
モデル
  6
HIDDEN
100
AcDbLine
 10
152.9073686449066
 20
316.8287624611313
 30
0.0
 11
154.9073686449066
 21
315.8287624611313
 31
0.0
  0
LINE
  5
5AB7
102
{ACAD_REACTORS
330
5ACF
102
}
330
A
100
AcDbEntity
  8
モデル
  6
HIDDEN
100
AcDbLine
 10
152.9073686449066
 20
309.8287624611313
 30
0.0
 11
154.9073686449066
 21
312.8287624611313
 31
0.0
  0
LINE
  5
5AB8
102
{ACAD_REACTORS
330
5ACF
102
}
330
A
100
AcDbEntity
  8
モデル
  6
HIDDEN
100
AcDbLine
 10
154.9073686449066
 20
315.8287624611313
 30
0.0
 11
154.9073686449066
 21
312.8287624611313
 31
0.0
  0
LINE
  5
5AB9
102
{ACAD_REACTORS
330
5ACF
102
}
330
A
100
AcDbEntity
  8
モデル
  6
HIDDEN
100
AcDbLine
 10
162.9073686449065
 20
316.8287624611313
 30
0.0
 11
160.9073686449066
 21
315.8287624611313
 31
0.0
  0
LINE
  5
5ABA
102
{ACAD_REACTORS
330
5ACF
102
}
330
A
100
AcDbEntity
  8
モデル
  6
HIDDEN
100
AcDbLine
 10
162.9073686449065
 20
309.8287624611313
 30
0.0
 11
160.9073686449066
 21
312.8287624611313
 31
0.0
  0
LINE
  5
5ABB
102
{ACAD_REACTORS
330
5ACF
102
}
330
A
100
AcDbEntity
  8
モデル
  6
HIDDEN
100
AcDbLine
 10
160.9073686449066
 20
315.8287624611313
 30
0.0
 11
160.9073686449066
 21
312.8287624611313
 31
0.0
  0
LINE
  5
5ABC
102
{ACAD_REACTORS
330
5ACF
102
}
330
A
100
AcDbEntity
  8
モデル
  6
HIDDEN
100
AcDbLine
 10
152.9073686449066
 20
303.8287624611314
 30
0.0
 11
152.9073686449066
 21
309.8287624611313
 31
0.0
  0
LINE
  5
5ABD
102
{ACAD_REACTORS
330
5ACF
102
}
330
A
100
AcDbEntity
  8
モデル
  6
HIDDEN
100
AcDbLine
 10
162.9073686449065
 20
309.8287624611313
 30
0.0
 11
162.9073686449065
 21
303.8287624611314
 31
0.0
  0
LINE
  5
5ABE
102
{ACAD_REACTORS
330
5ACF
102
}
330
A
100
AcDbEntity
  8
モデル
  6
HIDDEN
100
AcDbLine
 10
162.9073686449065
 20
322.8287624611313
 30
0.0
 11
162.9073686449065
 21
316.8287624611313
 31
0.0
  0
LINE
  5
5ABF
102
{ACAD_REACTORS
330
5ACF
102
}
330
A
100
AcDbEntity
  8
モデル
  6
HIDDEN
100
AcDbLine
 10
152.9073686449066
 20
316.8287624611313
 30
0.0
 11
152.9073686449066
 21
322.8287624611313
 31
0.0
  0
LINE
  5
5AC0
102
{ACAD_REACTORS
330
5ACF
102
}
330
A
100
AcDbEntity
  8
モデル
  6
HIDDEN
100
AcDbLine
 10
152.9073686449066
 20
309.8287624611313
 30
0.0
 11
162.9073686449065
 21
309.8287624611313
 31
0.0
  0
LINE
  5
5AC1
102
{ACAD_REACTORS
330
5ACF
102
}
330
A
100
AcDbEntity
  8
モデル
  6
HIDDEN
100
AcDbLine
 10
152.9073686449066
 20
316.8287624611313
 30
0.0
 11
162.9073686449065
 21
316.8287624611313
 31
0.0
  0
HATCH
  5
5AC2
102
{ACAD_REACTORS
330
5ACF
102
}
330
A
100
AcDbEntity
  8
モデル
  6
HIDDEN
100
AcDbHatch
 10
0.0
 20
0.0
 30
0.0
210
0.0
220
0.0
230
1.0
  2
ANSI31
 70
     0
 71
     0
 91
        2
 92
        1
 93
        4
 72
     1
 10
162.9073686449065
 20
322.8287624611313
 11
152.9073686449065
 21
322.8287624611313
 72
     1
 10
162.9073686449065
 20
322.8287624611313
 11
162.9073686449065
 21
316.8287624611313
 72
     1
 10
152.9073686449066
 20
316.8287624611313
 11
162.9073686449065
 21
316.8287624611313
 72
     1
 10
152.9073686449066
 20
316.8287624611313
 11
152.9073686449066
 21
322.8287624611313
 97
        0
 92
        1
 93
        4
 72
     1
 10
152.9073686449066
 20
303.8287624611314
 11
152.9073686449066
 21
309.8287624611313
 72
     1
 10
162.9073686449065
 20
303.8287624611314
 11
152.9073686449065
 21
303.8287624611314
 72
     1
 10
162.9073686449065
 20
309.8287624611313
 11
162.9073686449065
 21
303.8287624611314
 72
     1
 10
152.9073686449066
 20
309.8287624611313
 11
162.9073686449065
 21
309.8287624611313
 97
        0
 75
     0
 76
     1
 52
319.9999999999999
 41
0.5
 77
     0
 78
     1
 53
4.999999999999815
 43
638.8398958125363
 44
645.622431825293
 45
-0.1383597416119064
 46
1.581459083220646
 79
     0
 98
        1
 10
638.8398958125363
 20
645.622431825293
1001
ACAD
1010
0.0
1020
0.0
1030
0.0
  0
LINE
  5
5AC3
102
{ACAD_REACTORS
330
5ACF
102
}
330
A
100
AcDbEntity
  8
モデル
  6
HIDDEN
100
AcDbLine
 10
166.4073686449065
 20
322.8287624611313
 30
0.0
 11
149.4073686449066
 21
322.8287624611313
 31
0.0
  0
LINE
  5
5AC4
102
{ACAD_REACTORS
330
5ACF
102
}
330
A
100
AcDbEntity
  8
モデル
  6
HIDDEN
100
AcDbLine
 10
166.4073686449065
 20
327.3287624611313
 30
0.0
 11
149.4073686449066
 21
327.3287624611313
 31
0.0
  0
LINE
  5
5AC5
102
{ACAD_REACTORS
330
5ACF
102
}
330
A
100
AcDbEntity
  8
モデル
  6
HIDDEN
100
AcDbLine
 10
166.4073686449065
 20
322.8287624611313
 30
0.0
 11
166.4073686449065
 21
327.3287624611313
 31
0.0
  0
LINE
  5
5AC6
102
{ACAD_REACTORS
330
5ACF
102
}
330
A
100
AcDbEntity
  8
モデル
  6
HIDDEN
100
AcDbLine
 10
166.4073686449065
 20
327.3287624611313
 30
0.0
 11
166.4073686449065
 21
329.8287624611313
 31
0.0
  0
LINE
  5
5AC7
102
{ACAD_REACTORS
330
5ACF
102
}
330
A
100
AcDbEntity
  8
モデル
  6
HIDDEN
100
AcDbLine
 10
149.4073686449066
 20
329.8287624611313
 30
0.0
 11
149.4073686449066
 21
327.3287624611313
 31
0.0
  0
LINE
  5
5AC8
102
{ACAD_REACTORS
330
5ACF
102
}
330
A
100
AcDbEntity
  8
モデル
  6
HIDDEN
100
AcDbLine
 10
149.4073686449066
 20
327.3287624611313
 30
0.0
 11
149.4073686449066
 21
322.8287624611313
 31
0.0
  0
LINE
  5
5AC9
102
{ACAD_REACTORS
330
5ACF
102
}
330
A
100
AcDbEntity
  8
モデル
  6
HIDDEN
100
AcDbLine
 10
152.1974802488022
 20
322.8287624611313
 30
0.0
 11
152.1974802488022
 21
329.8287624611313
 31
0.0
  0
LINE
  5
5ACA
102
{ACAD_REACTORS
330
5ACF
102
}
330
A
100
AcDbEntity
  8
モデル
  6
HIDDEN
100
AcDbLine
 10
163.6172570410108
 20
322.8287624611313
 30
0.0
 11
163.6172570410108
 21
329.8287624611313
 31
0.0
  0
LINE
  5
5ACB
102
{ACAD_REACTORS
330
5ACF
102
}
330
A
100
AcDbEntity
  8
モデル
  6
HIDDEN
100
AcDbLine
 10
162.9073686449065
 20
322.8287624611313
 30
0.0
 11
152.9073686449066
 21
322.8287624611313
 31
0.0
  0
LINE
  5
5ACC
102
{ACAD_REACTORS
330
5ACF
102
}
330
A
100
AcDbEntity
  8
モデル
100
AcDbLine
 10
162.9073686449065
 20
329.8287624611313
 30
0.0
 11
152.9073686449066
 21
329.8287624611313
 31
0.0
  0
LINE
  5
5ACD
102
{ACAD_REACTORS
330
5ACF
102
}
330
A
100
AcDbEntity
  8
モデル
100
AcDbLine
 10
149.4073686449066
 20
329.8287624611313
 30
0.0
 11
166.4073686449065
 21
329.8287624611313
 31
0.0
  0
LINE
  5
5B0F
330
A
100
AcDbEntity
  8
寸法
  6
CENTER
100
AcDbLine
 10
157.9073686449065
 20
397.7006232021491
 30
0.0
 11
157.9073686449065
 21
362.8287624611313
 31
0.0
  0
DIMENSION
  5
5BD4
102
{ACAD_REACTORS
330
5BD6
102
}
102
{ACAD_XDICTIONARY
360
5BD5
102
}
330
A
100
AcDbEntity
  8
寸法
100
AcDbDimension
  2
*D34
 10
247.9811396046149
 20
132.1635514933184
 30
0.0
 11
242.4811396046149
 21
177.1635514933184
 31
0.0
 70
    32
 71
     5
 42
90.0
 73
     0
 74
     0
 75
     0
  3
tfrom線あり
100
AcDbAlignedDimension
 13
296.4337034689867
 23
222.1635514933184
 33
0.0
 14
296.4337034689867
 24
132.1635514933184
 34
0.0
 50
90.0
100
AcDbRotatedDimension
  0
LINE
  5
5C2D
102
{ACAD_REACTORS
330
5C33
330
5C56
102
}
330
A
100
AcDbEntity
  8
モデル
100
AcDbLine
 10
425.172316036352
 20
248.8207231866578
 30
0.0
 11
424.8377709544685
 21
249.147504715569
 31
0.0
  0
LINE
  5
5C2E
102
{ACAD_REACTORS
330
5C33
330
5C56
102
}
330
A
100
AcDbEntity
  8
モデル
100
AcDbLine
 10
424.8377709544685
 20
249.147504715569
 30
0.0
 11
424.9822117663319
 21
249.4931321217943
 31
0.0
  0
LINE
  5
5C2F
102
{ACAD_REACTORS
330
5C33
330
5C56
102
}
330
A
100
AcDbEntity
  8
モデル
100
AcDbLine
 10
443.3411255391679
 20
252.8697722630312
 30
0.0
 11
442.8404258669352
 21
253.1524292879669
 31
0.0
  0
LINE
  5
5C30
102
{ACAD_REACTORS
330
5C33
330
5C56
102
}
330
A
100
AcDbEntity
  8
モデル
100
AcDbLine
 10
443.3411255391679
 20
252.8697722630312
 30
0.0
 11
442.9938515558518
 21
252.4741379681554
 31
0.0
  0
LINE
  5
5C31
102
{ACAD_REACTORS
330
5C33
330
5C56
102
}
330
A
100
AcDbEntity
  8
モデル
100
AcDbLine
 10
442.8404258669352
 20
253.1524292879669
 30
0.0
 11
424.981463674366
 21
249.4913420384902
 31
0.0
  0
LINE
  5
5C32
102
{ACAD_REACTORS
330
5C33
330
5C56
102
}
330
A
100
AcDbEntity
  8
モデル
100
AcDbLine
 10
442.9938515558518
 20
252.4741379681554
 30
0.0
 11
425.172316036352
 21
248.8207231866579
 31
0.0
  0
LINE
  5
5C34
102
{ACAD_REACTORS
330
5C3A
330
5C56
102
}
330
A
100
AcDbEntity
  8
モデル
100
AcDbLine
 10
425.172316036352
 20
244.8207231866578
 30
0.0
 11
424.8377709544685
 21
245.147504715569
 31
0.0
  0
LINE
  5
5C35
102
{ACAD_REACTORS
330
5C3A
330
5C56
102
}
330
A
100
AcDbEntity
  8
モデル
100
AcDbLine
 10
424.8377709544685
 20
245.147504715569
 30
0.0
 11
424.9822117663319
 21
245.4931321217943
 31
0.0
  0
LINE
  5
5C36
102
{ACAD_REACTORS
330
5C3A
330
5C56
102
}
330
A
100
AcDbEntity
  8
モデル
100
AcDbLine
 10
443.3411255391679
 20
248.8697722630313
 30
0.0
 11
442.8404258669352
 21
249.152429287967
 31
0.0
  0
LINE
  5
5C37
102
{ACAD_REACTORS
330
5C3A
330
5C56
102
}
330
A
100
AcDbEntity
  8
モデル
100
AcDbLine
 10
443.3411255391679
 20
248.8697722630313
 30
0.0
 11
442.9938515558518
 21
248.4741379681554
 31
0.0
  0
LINE
  5
5C38
102
{ACAD_REACTORS
330
5C3A
330
5C56
102
}
330
A
100
AcDbEntity
  8
モデル
100
AcDbLine
 10
442.8404258669352
 20
249.152429287967
 30
0.0
 11
424.981463674366
 21
245.4913420384902
 31
0.0
  0
LINE
  5
5C39
102
{ACAD_REACTORS
330
5C3A
330
5C56
102
}
330
A
100
AcDbEntity
  8
モデル
100
AcDbLine
 10
442.9938515558518
 20
248.4741379681554
 30
0.0
 11
425.172316036352
 21
244.8207231866579
 31
0.0
  0
LINE
  5
5C3B
102
{ACAD_REACTORS
330
5C41
330
5C56
102
}
330
A
100
AcDbEntity
  8
モデル
100
AcDbLine
 10
425.172316036352
 20
240.8207231866578
 30
0.0
 11
424.8377709544685
 21
241.147504715569
 31
0.0
  0
LINE
  5
5C3C
102
{ACAD_REACTORS
330
5C41
330
5C56
102
}
330
A
100
AcDbEntity
  8
モデル
100
AcDbLine
 10
424.8377709544685
 20
241.147504715569
 30
0.0
 11
424.9822117663319
 21
241.4931321217943
 31
0.0
  0
LINE
  5
5C3D
102
{ACAD_REACTORS
330
5C41
330
5C56
102
}
330
A
100
AcDbEntity
  8
モデル
100
AcDbLine
 10
443.3411255391679
 20
244.8697722630313
 30
0.0
 11
442.8404258669352
 21
245.152429287967
 31
0.0
  0
LINE
  5
5C3E
102
{ACAD_REACTORS
330
5C41
330
5C56
102
}
330
A
100
AcDbEntity
  8
モデル
100
AcDbLine
 10
443.3411255391679
 20
244.8697722630313
 30
0.0
 11
442.9938515558518
 21
244.4741379681554
 31
0.0
  0
LINE
  5
5C3F
102
{ACAD_REACTORS
330
5C41
330
5C56
102
}
330
A
100
AcDbEntity
  8
モデル
100
AcDbLine
 10
442.8404258669352
 20
245.152429287967
 30
0.0
 11
424.981463674366
 21
241.4913420384902
 31
0.0
  0
LINE
  5
5C40
102
{ACAD_REACTORS
330
5C41
330
5C56
102
}
330
A
100
AcDbEntity
  8
モデル
100
AcDbLine
 10
442.9938515558518
 20
244.4741379681554
 30
0.0
 11
425.172316036352
 21
240.8207231866579
 31
0.0
  0
LINE
  5
5C42
102
{ACAD_REACTORS
330
5C48
330
5C56
102
}
330
A
100
AcDbEntity
  8
モデル
100
AcDbLine
 10
425.172316036352
 20
236.8207231866578
 30
0.0
 11
424.8377709544685
 21
237.147504715569
 31
0.0
  0
LINE
  5
5C43
102
{ACAD_REACTORS
330
5C48
330
5C56
102
}
330
A
100
AcDbEntity
  8
モデル
100
AcDbLine
 10
424.8377709544685
 20
237.147504715569
 30
0.0
 11
424.9822117663319
 21
237.4931321217943
 31
0.0
  0
LINE
  5
5C44
102
{ACAD_REACTORS
330
5C48
330
5C56
102
}
330
A
100
AcDbEntity
  8
モデル
100
AcDbLine
 10
443.3411255391679
 20
240.8697722630312
 30
0.0
 11
442.8404258669352
 21
241.1524292879669
 31
0.0
  0
LINE
  5
5C45
102
{ACAD_REACTORS
330
5C48
330
5C56
102
}
330
A
100
AcDbEntity
  8
モデル
100
AcDbLine
 10
443.3411255391679
 20
240.8697722630312
 30
0.0
 11
442.9938515558518
 21
240.4741379681554
 31
0.0
  0
LINE
  5
5C46
102
{ACAD_REACTORS
330
5C48
330
5C56
102
}
330
A
100
AcDbEntity
  8
モデル
100
AcDbLine
 10
442.8404258669352
 20
241.1524292879669
 30
0.0
 11
424.981463674366
 21
237.4913420384902
 31
0.0
  0
LINE
  5
5C47
102
{ACAD_REACTORS
330
5C48
330
5C56
102
}
330
A
100
AcDbEntity
  8
モデル
100
AcDbLine
 10
442.9938515558518
 20
240.4741379681554
 30
0.0
 11
425.172316036352
 21
236.8207231866579
 31
0.0
  0
LINE
  5
5C49
102
{ACAD_REACTORS
330
5C4F
330
5C56
102
}
330
A
100
AcDbEntity
  8
モデル
100
AcDbLine
 10
425.172316036352
 20
232.8207231866578
 30
0.0
 11
424.8377709544685
 21
233.147504715569
 31
0.0
  0
LINE
  5
5C4A
102
{ACAD_REACTORS
330
5C4F
330
5C56
102
}
330
A
100
AcDbEntity
  8
モデル
100
AcDbLine
 10
424.8377709544685
 20
233.147504715569
 30
0.0
 11
424.9822117663319
 21
233.4931321217943
 31
0.0
  0
LINE
  5
5C4B
102
{ACAD_REACTORS
330
5C4F
330
5C56
102
}
330
A
100
AcDbEntity
  8
モデル
100
AcDbLine
 10
443.3411255391679
 20
236.8697722630312
 30
0.0
 11
442.8404258669352
 21
237.1524292879669
 31
0.0
  0
LINE
  5
5C4C
102
{ACAD_REACTORS
330
5C4F
330
5C56
102
}
330
A
100
AcDbEntity
  8
モデル
100
AcDbLine
 10
443.3411255391679
 20
236.8697722630312
 30
0.0
 11
442.9938515558518
 21
236.4741379681554
 31
0.0
  0
LINE
  5
5C4D
102
{ACAD_REACTORS
330
5C4F
330
5C56
102
}
330
A
100
AcDbEntity
  8
モデル
100
AcDbLine
 10
442.8404258669352
 20
237.1524292879669
 30
0.0
 11
424.981463674366
 21
233.4913420384902
 31
0.0
  0
LINE
  5
5C4E
102
{ACAD_REACTORS
330
5C4F
330
5C56
102
}
330
A
100
AcDbEntity
  8
モデル
100
AcDbLine
 10
442.9938515558518
 20
236.4741379681554
 30
0.0
 11
425.172316036352
 21
232.8207231866579
 31
0.0
  0
LINE
  5
5CBC
102
{ACAD_REACTORS
330
5CF2
102
}
330
A
100
AcDbEntity
  8
モデル
100
AcDbLine
 10
148.9919137267901
 20
390.6699991765838
 30
0.0
 11
148.6573686449065
 21
390.996780705495
 31
0.0
  0
LINE
  5
5CBD
102
{ACAD_REACTORS
330
5CF2
102
}
330
A
100
AcDbEntity
  8
モデル
100
AcDbLine
 10
148.6573686449065
 20
390.996780705495
 30
0.0
 11
148.8018094567699
 21
391.3424081117203
 31
0.0
  0
LINE
  5
5CBE
102
{ACAD_REACTORS
330
5CF2
102
}
330
A
100
AcDbEntity
  8
モデル
100
AcDbLine
 10
167.1607232296059
 20
394.7190482529571
 30
0.0
 11
166.6600235573732
 21
395.0017052778928
 31
0.0
  0
LINE
  5
5CBF
102
{ACAD_REACTORS
330
5CF2
102
}
330
A
100
AcDbEntity
  8
モデル
100
AcDbLine
 10
167.1607232296059
 20
394.7190482529571
 30
0.0
 11
166.8134492462898
 21
394.3234139580813
 31
0.0
  0
LINE
  5
5CC0
102
{ACAD_REACTORS
330
5CF2
102
}
330
A
100
AcDbEntity
  8
モデル
100
AcDbLine
 10
149.9073686449065
 20
395.2574110208372
 30
0.0
 11
165.9073686449065
 21
395.2574110208372
 31
0.0
  0
LINE
  5
5CC1
102
{ACAD_REACTORS
330
5CF2
102
}
330
A
100
AcDbEntity
  8
モデル
100
AcDbLine
 10
165.9073686449065
 20
370.2574110208372
 30
0.0
 11
149.9073686449065
 21
370.2574110208372
 31
0.0
  0
LINE
  5
5CC2
102
{ACAD_REACTORS
330
5CF2
102
}
330
A
100
AcDbEntity
  8
モデル
100
AcDbLine
 10
165.9073686449065
 20
370.6036692616379
 30
0.0
 11
164.2183040556345
 21
370.2574110208372
 31
0.0
  0
LINE
  5
5CC3
102
{ACAD_REACTORS
330
5CF2
102
}
330
A
100
AcDbEntity
  8
モデル
100
AcDbLine
 10
149.9073686449065
 20
394.3148411719621
 30
0.0
 11
153.0178653837866
 21
395.2574110208372
 31
0.0
  0
LINE
  5
5CC4
102
{ACAD_REACTORS
330
5CF2
102
}
330
A
100
AcDbEntity
  8
モデル
100
AcDbLine
 10
149.9073686449065
 20
395.2574110208372
 30
0.0
 11
149.9073686449065
 21
391.5674110208371
 31
0.0
  0
LINE
  5
5CC5
102
{ACAD_REACTORS
330
5CF2
102
}
330
A
100
AcDbEntity
  8
モデル
100
AcDbLine
 10
165.9073686449065
 20
395.2574110208372
 30
0.0
 11
165.9073686449065
 21
394.8474110208371
 31
0.0
  0
LINE
  5
5CC6
102
{ACAD_REACTORS
330
5CF2
102
}
330
A
100
AcDbEntity
  8
モデル
100
AcDbLine
 10
165.9073686449065
 20
374.1376674347977
 30
0.0
 11
165.9073686449065
 21
370.2574110208372
 31
0.0
  0
LINE
  5
5CC7
102
{ACAD_REACTORS
330
5CF2
102
}
330
A
100
AcDbEntity
  8
モデル
100
AcDbLine
 10
149.9073686449065
 20
370.8576674347977
 30
0.0
 11
149.9073686449065
 21
370.2574110208372
 31
0.0
  0
LINE
  5
5CC8
102
{ACAD_REACTORS
330
5CF2
102
}
330
A
100
AcDbEntity
  8
モデル
100
AcDbLine
 10
166.6600235573732
 20
395.0017052778928
 30
0.0
 11
148.8010613648041
 21
391.3406180284161
 31
0.0
  0
LINE
  5
5CC9
102
{ACAD_REACTORS
330
5CF2
102
}
330
A
100
AcDbEntity
  8
モデル
100
AcDbLine
 10
166.8134492462898
 20
394.3234139580813
 30
0.0
 11
148.99191372679
 21
390.6699991765838
 31
0.0
  0
LINE
  5
5CCA
102
{ACAD_REACTORS
330
5CF2
102
}
330
A
100
AcDbEntity
  8
モデル
100
AcDbLine
 10
148.9919137267901
 20
386.6699991765838
 30
0.0
 11
148.6573686449065
 21
386.996780705495
 31
0.0
  0
LINE
  5
5CCB
102
{ACAD_REACTORS
330
5CF2
102
}
330
A
100
AcDbEntity
  8
モデル
100
AcDbLine
 10
148.6573686449065
 20
386.996780705495
 30
0.0
 11
148.8018094567699
 21
387.3424081117203
 31
0.0
  0
LINE
  5
5CCC
102
{ACAD_REACTORS
330
5CF2
102
}
330
A
100
AcDbEntity
  8
モデル
100
AcDbLine
 10
167.1607232296059
 20
390.7190482529571
 30
0.0
 11
166.6600235573732
 21
391.0017052778928
 31
0.0
  0
LINE
  5
5CCD
102
{ACAD_REACTORS
330
5CF2
102
}
330
A
100
AcDbEntity
  8
モデル
100
AcDbLine
 10
167.1607232296059
 20
390.7190482529571
 30
0.0
 11
166.8134492462898
 21
390.3234139580813
 31
0.0
  0
LINE
  5
5CCE
102
{ACAD_REACTORS
330
5CF2
102
}
330
A
100
AcDbEntity
  8
モデル
100
AcDbLine
 10
166.6600235573732
 20
391.0017052778928
 30
0.0
 11
148.8010613648041
 21
387.3406180284161
 31
0.0
  0
LINE
  5
5CCF
102
{ACAD_REACTORS
330
5CF2
102
}
330
A
100
AcDbEntity
  8
モデル
100
AcDbLine
 10
166.8134492462898
 20
390.3234139580813
 30
0.0
 11
148.99191372679
 21
386.6699991765838
 31
0.0
  0
LINE
  5
5CD0
102
{ACAD_REACTORS
330
5CF2
102
}
330
A
100
AcDbEntity
  8
モデル
100
AcDbLine
 10
148.9919137267901
 20
382.6699991765838
 30
0.0
 11
148.6573686449065
 21
382.996780705495
 31
0.0
  0
LINE
  5
5CD1
102
{ACAD_REACTORS
330
5CF2
102
}
330
A
100
AcDbEntity
  8
モデル
100
AcDbLine
 10
148.6573686449065
 20
382.996780705495
 30
0.0
 11
148.8018094567699
 21
383.3424081117203
 31
0.0
  0
LINE
  5
5CD2
102
{ACAD_REACTORS
330
5CF2
102
}
330
A
100
AcDbEntity
  8
モデル
100
AcDbLine
 10
167.1607232296059
 20
386.7190482529571
 30
0.0
 11
166.6600235573732
 21
387.0017052778928
 31
0.0
  0
LINE
  5
5CD3
102
{ACAD_REACTORS
330
5CF2
102
}
330
A
100
AcDbEntity
  8
モデル
100
AcDbLine
 10
167.1607232296059
 20
386.7190482529571
 30
0.0
 11
166.8134492462898
 21
386.3234139580813
 31
0.0
  0
LINE
  5
5CD4
102
{ACAD_REACTORS
330
5CF2
102
}
330
A
100
AcDbEntity
  8
モデル
100
AcDbLine
 10
166.6600235573732
 20
387.0017052778928
 30
0.0
 11
148.8010613648041
 21
383.3406180284161
 31
0.0
  0
LINE
  5
5CD5
102
{ACAD_REACTORS
330
5CF2
102
}
330
A
100
AcDbEntity
  8
モデル
100
AcDbLine
 10
166.8134492462898
 20
386.3234139580813
 30
0.0
 11
148.99191372679
 21
382.6699991765838
 31
0.0
  0
LINE
  5
5CD6
102
{ACAD_REACTORS
330
5CF2
102
}
330
A
100
AcDbEntity
  8
モデル
100
AcDbLine
 10
148.9919137267901
 20
378.6699991765838
 30
0.0
 11
148.6573686449065
 21
378.996780705495
 31
0.0
  0
LINE
  5
5CD7
102
{ACAD_REACTORS
330
5CF2
102
}
330
A
100
AcDbEntity
  8
モデル
100
AcDbLine
 10
148.6573686449065
 20
378.996780705495
 30
0.0
 11
148.8018094567699
 21
379.3424081117203
 31
0.0
  0
LINE
  5
5CD8
102
{ACAD_REACTORS
330
5CF2
102
}
330
A
100
AcDbEntity
  8
モデル
100
AcDbLine
 10
167.1607232296059
 20
382.7190482529571
 30
0.0
 11
166.6600235573732
 21
383.0017052778928
 31
0.0
  0
LINE
  5
5CD9
102
{ACAD_REACTORS
330
5CF2
102
}
330
A
100
AcDbEntity
  8
モデル
100
AcDbLine
 10
167.1607232296059
 20
382.7190482529571
 30
0.0
 11
166.8134492462898
 21
382.3234139580813
 31
0.0
  0
LINE
  5
5CDA
102
{ACAD_REACTORS
330
5CF2
102
}
330
A
100
AcDbEntity
  8
モデル
100
AcDbLine
 10
166.6600235573732
 20
383.0017052778928
 30
0.0
 11
148.8010613648041
 21
379.3406180284161
 31
0.0
  0
LINE
  5
5CDB
102
{ACAD_REACTORS
330
5CF2
102
}
330
A
100
AcDbEntity
  8
モデル
100
AcDbLine
 10
166.8134492462898
 20
382.3234139580813
 30
0.0
 11
148.99191372679
 21
378.6699991765838
 31
0.0
  0
LINE
  5
5CDC
102
{ACAD_REACTORS
330
5CF2
102
}
330
A
100
AcDbEntity
  8
モデル
100
AcDbLine
 10
148.9919137267901
 20
374.6699991765838
 30
0.0
 11
148.6573686449065
 21
374.996780705495
 31
0.0
  0
LINE
  5
5CDD
102
{ACAD_REACTORS
330
5CF2
102
}
330
A
100
AcDbEntity
  8
モデル
100
AcDbLine
 10
148.6573686449065
 20
374.996780705495
 30
0.0
 11
148.8018094567699
 21
375.3424081117203
 31
0.0
  0
LINE
  5
5CDE
102
{ACAD_REACTORS
330
5CF2
102
}
330
A
100
AcDbEntity
  8
モデル
100
AcDbLine
 10
167.1607232296059
 20
378.7190482529571
 30
0.0
 11
166.6600235573732
 21
379.0017052778928
 31
0.0
  0
LINE
  5
5CDF
102
{ACAD_REACTORS
330
5CF2
102
}
330
A
100
AcDbEntity
  8
モデル
100
AcDbLine
 10
167.1607232296059
 20
378.7190482529571
 30
0.0
 11
166.8134492462898
 21
378.3234139580813
 31
0.0
  0
LINE
  5
5CE0
102
{ACAD_REACTORS
330
5CF2
102
}
330
A
100
AcDbEntity
  8
モデル
100
AcDbLine
 10
166.6600235573732
 20
379.0017052778928
 30
0.0
 11
148.8010613648041
 21
375.3406180284161
 31
0.0
  0
LINE
  5
5CE1
102
{ACAD_REACTORS
330
5CF2
102
}
330
A
100
AcDbEntity
  8
モデル
100
AcDbLine
 10
166.8134492462898
 20
378.3234139580813
 30
0.0
 11
148.99191372679
 21
374.6699991765838
 31
0.0
  0
LINE
  5
5CE2
102
{ACAD_REACTORS
330
5CF2
102
}
330
A
100
AcDbEntity
  8
モデル
100
AcDbLine
 10
148.9919137267901
 20
370.6699991765838
 30
0.0
 11
148.6573686449065
 21
370.996780705495
 31
0.0
  0
LINE
  5
5CE3
102
{ACAD_REACTORS
330
5CF2
102
}
330
A
100
AcDbEntity
  8
モデル
100
AcDbLine
 10
148.6573686449065
 20
370.996780705495
 30
0.0
 11
148.8018094567699
 21
371.3424081117203
 31
0.0
  0
LINE
  5
5CE4
102
{ACAD_REACTORS
330
5CF2
102
}
330
A
100
AcDbEntity
  8
モデル
100
AcDbLine
 10
167.1607232296059
 20
374.7190482529571
 30
0.0
 11
166.6600235573732
 21
375.0017052778928
 31
0.0
  0
LINE
  5
5CE5
102
{ACAD_REACTORS
330
5CF2
102
}
330
A
100
AcDbEntity
  8
モデル
100
AcDbLine
 10
167.1607232296059
 20
374.7190482529571
 30
0.0
 11
166.8134492462898
 21
374.3234139580813
 31
0.0
  0
LINE
  5
5CE6
102
{ACAD_REACTORS
330
5CF2
102
}
330
A
100
AcDbEntity
  8
モデル
100
AcDbLine
 10
166.6600235573732
 20
375.0017052778928
 30
0.0
 11
148.8010613648041
 21
371.3406180284161
 31
0.0
  0
LINE
  5
5CE7
102
{ACAD_REACTORS
330
5CF2
102
}
330
A
100
AcDbEntity
  8
モデル
100
AcDbLine
 10
166.8134492462898
 20
374.3234139580813
 30
0.0
 11
148.99191372679
 21
370.6699991765838
 31
0.0
  0
LINE
  5
5CE8
102
{ACAD_REACTORS
330
5CF2
102
}
330
A
100
AcDbEntity
  8
モデル
100
AcDbLine
 10
165.9073686449065
 20
394.1376674347977
 30
0.0
 11
165.9073686449065
 21
390.8474110208371
 31
0.0
  0
LINE
  5
5CE9
102
{ACAD_REACTORS
330
5CF2
102
}
330
A
100
AcDbEntity
  8
モデル
100
AcDbLine
 10
165.9073686449065
 20
390.1376674347977
 30
0.0
 11
165.9073686449065
 21
386.8474110208371
 31
0.0
  0
LINE
  5
5CEA
102
{ACAD_REACTORS
330
5CF2
102
}
330
A
100
AcDbEntity
  8
モデル
100
AcDbLine
 10
165.9073686449065
 20
386.1376674347977
 30
0.0
 11
165.9073686449065
 21
382.8474110208371
 31
0.0
  0
LINE
  5
5CEB
102
{ACAD_REACTORS
330
5CF2
102
}
330
A
100
AcDbEntity
  8
モデル
100
AcDbLine
 10
165.9073686449065
 20
382.1376674347977
 30
0.0
 11
165.9073686449065
 21
378.8474110208371
 31
0.0
  0
LINE
  5
5CEC
102
{ACAD_REACTORS
330
5CF2
102
}
330
A
100
AcDbEntity
  8
モデル
100
AcDbLine
 10
165.9073686449065
 20
378.1376674347977
 30
0.0
 11
165.9073686449065
 21
374.8474110208371
 31
0.0
  0
LINE
  5
5CED
102
{ACAD_REACTORS
330
5CF2
102
}
330
A
100
AcDbEntity
  8
モデル
100
AcDbLine
 10
149.9073686449065
 20
374.8576674347977
 30
0.0
 11
149.9073686449065
 21
371.5674110208371
 31
0.0
  0
LINE
  5
5CEE
102
{ACAD_REACTORS
330
5CF2
102
}
330
A
100
AcDbEntity
  8
モデル
100
AcDbLine
 10
149.9073686449065
 20
378.8576674347977
 30
0.0
 11
149.9073686449065
 21
375.5674110208371
 31
0.0
  0
LINE
  5
5CEF
102
{ACAD_REACTORS
330
5CF2
102
}
330
A
100
AcDbEntity
  8
モデル
100
AcDbLine
 10
149.9073686449065
 20
382.8576674347977
 30
0.0
 11
149.9073686449065
 21
379.5674110208371
 31
0.0
  0
LINE
  5
5CF0
102
{ACAD_REACTORS
330
5CF2
102
}
330
A
100
AcDbEntity
  8
モデル
100
AcDbLine
 10
149.9073686449065
 20
386.8576674347977
 30
0.0
 11
149.9073686449065
 21
383.5674110208371
 31
0.0
  0
LINE
  5
5CF1
102
{ACAD_REACTORS
330
5CF2
102
}
330
A
100
AcDbEntity
  8
モデル
100
AcDbLine
 10
149.9073686449065
 20
390.8576674347977
 30
0.0
 11
149.9073686449065
 21
387.5674110208371
 31
0.0
  0
MTEXT
  5
5D4C
102
{ACAD_XDICTIONARY
360
5D4D
102
}
330
A
100
AcDbEntity
  8
MODEL
 48
0.05
100
AcDbMText
 10
15.9873234421363
 20
22.77697830118682
 30
0.0
 40
4.0
 41
0.0
 46
4.0
 71
     1
 72
     1
  1
{20161001N}
  7
ＭＳ ゴシック
 73
     1
 44
1.0
1001
ACAD
1000
ACAD_MTEXT_DEFINED_HEIGHT_BEGIN
1070
    46
1040
4.0
1000
ACAD_MTEXT_DEFINED_HEIGHT_END
  0
TEXT
  5
5D5D
330
A
100
AcDbEntity
  8
テンプレート
100
AcDbText
 10
483.6506747934505
 20
232.1260778579776
 30
0.0
 40
6.0
  1
M10
  7
ＭＳ ゴシック
100
AcDbText
  0
TEXT
  5
5D73
330
A
100
AcDbEntity
  8
テンプレート
100
AcDbText
 10
448.6410827757887
 20
196.5556893415146
 30
0.0
 40
6.0
  1
木製用下穴
  7
ＭＳ ゴシック
100
AcDbText
  0
LINE
  5
5D77
330
A
100
AcDbEntity
  8
寸法
  6
CENTER
 48
2.0
100
AcDbLine
 10
466.8130066271027
 20
184.5886510032931
 30
0.0
 11
466.8130066271027
 21
149.7167902622753
 31
0.0
  0
LINE
  5
5D7C
330
A
100
AcDbEntity
  8
寸法
  6
CENTER
 48
2.0
100
AcDbLine
 10
449.3770762565937
 20
167.1527206327842
 30
0.0
 11
484.2489369976115
 21
167.1527206327842
 31
0.0
  0
CIRCLE
  5
5D83
102
{ACAD_REACTORS
330
5D8A
102
}
330
A
100
AcDbEntity
  8
モデル
100
AcDbCircle
 10
466.8130066271027
 20
167.1527206327842
 30
0.0
 40
8.25
  0
HATCH
  5
5D8A
330
A
100
AcDbEntity
  8
モデル
100
AcDbHatch
 10
0.0
 20
0.0
 30
0.0
210
0.0
220
0.0
230
1.0
  2
ANSI31
 70
     0
 71
     1
 91
        1
 92
        1
 93
        1
 72
     2
 10
466.8130066271027
 20
167.1527206327842
 40
8.25
 50
0.0
 51
360.0
 73
     1
 97
        1
330
5D83
 75
     0
 76
     1
 52
0.0
 41
1.0
 77
     0
 78
     1
 53
45.0
 43
-24.15311572700307
 44
1.906824925815982
 45
-2.245064030267288
 46
2.245064030267288
 79
     0
 98
        1
 10
-24.15311572700307
 20
1.906824925815982
1001
ACAD
1010
0.0
1020
0.0
1030
0.0
  0
LINE
  5
5D8F
330
A
100
AcDbEntity
  8
寸法
100
AcDbLine
 10
471.9652117067399
 20
160.709330002273
 30
0.0
 11
488.6955143239404
 21
148.9731021043085
 31
0.0
  0
LINE
  5
5D90
330
A
100
AcDbEntity
  8
寸法
100
AcDbLine
 10
488.6955143239404
 20
148.9731021043085
 30
0.0
 11
514.99037580762
 21
148.9731021043085
 31
0.0
  0
TEXT
  5
5D91
330
A
100
AcDbEntity
  8
テンプレート
100
AcDbText
 10
491.5980347045721
 20
151.5393664928499
 30
0.0
 40
6.0
  1
%%c16.5
  7
ＭＳ ゴシック
100
AcDbText
  0
TEXT
  5
5DF1
330
A
100
AcDbEntity
  8
モデル
100
AcDbText
 10
205.0670540928448
 20
96.68557574317204
 30
0.0
 40
5.0
  1
※ 木割れ防止の為、下穴のふちに面取り加工を必ずして下さい。
  7
ＭＳ ゴシック
100
AcDbText
  0
TEXT
  5
5DF2
330
A
100
AcDbEntity
  8
モデル
100
AcDbText
 10
205.2801330966802
 20
68.23335879766489
 30
0.0
 40
5.0
  1
※ ご注文の際は、正確な扉厚の指示をしてください。
  7
ＭＳ ゴシック
100
AcDbText
  0
VIEWPORT
  5
349
330
B
100
AcDbEntity
 67
     1
  8
0
100
AcDbViewport
 10
202.5
 20
128.5
 30
0.0
 40
486.0
 41
308.4
 68
     1
 69
     1
 12
202.5
 22
128.5
 13
0.0
 23
0.0
 14
0.5
 24
0.5
 15
0.0
 25
0.0
 16
0.0
 26
0.0
 36
1.0
 17
0.0
 27
0.0
 37
0.0
 42
50.0
 43
0.0
 44
0.0
 45
308.4
 50
0.0
 51
0.0
 72
   100
 90
   557152
  1

281
     0
 71
     1
 74
     0
110
0.0
120
0.0
130
0.0
111
1.0
121
0.0
131
0.0
112
0.0
122
1.0
132
0.0
 79
     0
146
0.0
170
     0
 61
     5
348
26C
292
     1
282
     1
141
0.0
142
0.0
 63
   256
  0
VIEWPORT
  5
34A
330
B
100
AcDbEntity
 67
     1
  8
0
100
AcDbViewport
 10
202.5
 20
128.5
 30
0.0
 40
324.0
 41
205.6
 68
     2
 69
     2
 12
986.6781359294573
 22
1427.077061889956
 13
0.0
 23
0.0
 14
0.5
 24
0.5
 15
0.0
 25
0.0
 16
0.0
 26
0.0
 36
1.0
 17
0.0
 27
0.0
 37
0.0
 42
50.0
 43
0.0
 44
0.0
 45
2890.021615685494
 50
0.0
 51
0.0
 72
   100
 90
   557152
  1

281
     0
 71
     1
 74
     0
110
0.0
120
0.0
130
0.0
111
1.0
121
0.0
131
0.0
112
0.0
122
1.0
132
0.0
 79
     0
146
0.0
170
     0
 61
     5
348
26C
292
     1
282
     1
141
0.0
142
0.0
 63
   256
  0
ENDSEC
  0
SECTION
  2
OBJECTS
  0
DICTIONARY
  5
19
330
0
100
AcDbDictionary
281
     1
  3
ACAD_COLOR
350
674
  3
ACAD_DETAILVIEWSTYLE
350
12F4
  3
ACAD_FIELDLIST
350
5D4A
  3
ACAD_GROUP
350
1A
  3
ACAD_IMAGE_VARS
350
27B
  3
ACAD_LAYOUT
350
1E
  3
ACAD_MATERIAL
350
263
  3
ACAD_MLEADERSTYLE
350
336
  3
ACAD_MLINESTYLE
350
1B
  3
ACAD_PLOTSETTINGS
350
22
  3
ACAD_PLOTSTYLENAME
350
1F
  3
ACAD_SCALELIST
350
241
  3
ACAD_SECTIONVIEWSTYLE
350
12F5
  3
ACAD_TABLESTYLE
350
278
  3
ACAD_VISUALSTYLE
350
267
  3
ACDB_RECOMPOSE_DATA
350
5E17
  3
AcDbVariableDictionary
350
330
  3
AcStStandard
350
12B9
  3
APPDATA
350
27A
  3
DimOffsetDictionary
350
57C1
  0
SUN
  5
10E8
330
15
100
AcDbSun
 90
        1
290
     0
 63
     7
421
 16777215
 40
1.0
291
     1
 91
  2455826
 92
 54000000
292
     0
 70
     2
 71
   256
280
     1
  0
DICTIONARY
  5
2E1
330
2
100
AcDbDictionary
280
     1
281
     1
  3
ACAD_LAYERSTATES
360
2E2
  3
ACLYDICTIONARY
360
57C8
  0
DICTIONARY
  5
4C20
330
4C1F
100
AcDbDictionary
280
     1
281
     1
  3
ACAD_DIMASSOC
360
4C21
  0
DICTIONARY
  5
4C30
330
4C2F
100
AcDbDictionary
280
     1
281
     1
  3
ACAD_DIMASSOC
360
4C31
  0
DICTIONARY
  5
4C41
330
4C40
100
AcDbDictionary
280
     1
281
     1
  3
ACAD_DIMASSOC
360
4C42
  0
DICTIONARY
  5
4C5F
330
4C5E
100
AcDbDictionary
280
     1
281
     1
  3
ACAD_DIMASSOC
360
4C60
  0
DICTIONARY
  5
5963
330
5962
100
AcDbDictionary
280
     1
281
     1
  3
ACAD_DIMASSOC
360
5964
  0
DICTIONARY
  5
5972
330
5971
100
AcDbDictionary
280
     1
281
     1
  3
ACAD_DIMASSOC
360
5973
  0
DICTIONARY
  5
5BD5
330
5BD4
100
AcDbDictionary
280
     1
281
     1
  3
ACAD_DIMASSOC
360
5BD6
  0
DICTIONARY
  5
5D4D
330
5D4C
100
AcDbDictionary
280
     1
281
     1
  3
ACAD_FIELD
360
5D4E
  0
DICTIONARY
  5
674
102
{ACAD_REACTORS
330
19
102
}
330
19
100
AcDbDictionary
281
     1
  0
DICTIONARY
  5
12F4
102
{ACAD_REACTORS
330
19
102
}
330
19
100
AcDbDictionary
281
     1
  0
FIELDLIST
  5
5D4A
102
{ACAD_REACTORS
330
19
102
}
330
19
100
AcDbIdSet
 90
        1
330
5D4F
100
AcDbFieldList
  0
DICTIONARY
  5
1A
102
{ACAD_REACTORS
330
19
102
}
330
19
100
AcDbDictionary
281
     1
  3
*A1
350
5C2C
  3
*A10
350
5C4F
  3
*A2
350
5C56
  3
*A3
350
5CF2
  3
*A4
350
59B8
  3
*A5
350
5ACF
  3
*A6
350
5C33
  3
*A7
350
5C3A
  3
*A8
350
5C41
  3
*A9
350
5C48
  0
RASTERVARIABLES
  5
27B
102
{ACAD_REACTORS
330
19
102
}
330
19
100
AcDbRasterVariables
 90
        0
 70
     1
 71
     1
 72
     1
  0
DICTIONARY
  5
1E
102
{ACAD_REACTORS
330
19
102
}
330
19
100
AcDbDictionary
281
     1
  3
Layout1
350
21
  3
Layout2
350
12C4
  3
Model
350
20
  0
DICTIONARY
  5
263
102
{ACAD_REACTORS
330
19
102
}
330
19
100
AcDbDictionary
281
     1
  3
ByBlock
350
56E4
  3
ByLayer
350
264
  3
Global
350
266
  0
DICTIONARY
  5
336
102
{ACAD_REACTORS
330
19
102
}
330
19
100
AcDbDictionary
281
     1
  3
Standard
350
50FC
  0
DICTIONARY
  5
1B
102
{ACAD_REACTORS
330
19
102
}
330
19
100
AcDbDictionary
281
     1
  3
Standard
350
1C
  0
DICTIONARY
  5
22
102
{ACAD_REACTORS
330
19
102
}
330
19
100
AcDbDictionary
281
     1
  0
ACDBDICTIONARYWDFLT
  5
1F
102
{ACAD_REACTORS
330
19
102
}
330
19
100
AcDbDictionary
281
     1
  3
Normal
350
1D
100
AcDbDictionaryWithDefault
340
1D
  0
DICTIONARY
  5
241
102
{ACAD_REACTORS
330
19
102
}
330
19
100
AcDbDictionary
281
     1
  3
A0
350
242
  3
A1
350
243
  3
A2
350
244
  3
A3
350
245
  3
A4
350
246
  3
A5
350
247
  3
A6
350
248
  3
A7
350
249
  3
A8
350
24A
  3
A9
350
24B
  3
B0
350
24C
  3
B1
350
24D
  3
B2
350
24E
  3
B3
350
24F
  3
B4
350
250
  3
B5
350
251
  3
B6
350
252
  3
B7
350
253
  3
B8
350
254
  3
B9
350
255
  3
C0
350
256
  3
C1
350
257
  3
C2
350
258
  3
C3
350
259
  3
C4
350
25A
  3
C5
350
25B
  3
C6
350
25C
  3
C7
350
25D
  3
C8
350
25E
  3
C9
350
25F
  3
D0
350
260
  3
D1
350
261
  3
D2
350
262
  0
DICTIONARY
  5
12F5
102
{ACAD_REACTORS
330
19
102
}
330
19
100
AcDbDictionary
281
     1
  0
DICTIONARY
  5
278
102
{ACAD_REACTORS
330
19
102
}
330
19
100
AcDbDictionary
281
     1
  3
Standard
350
279
  0
DICTIONARY
  5
267
102
{ACAD_REACTORS
330
19
102
}
330
19
100
AcDbDictionary
281
     1
  3
2dWireframe
350
26C
  3
3D Hidden
350
26E
  3
3dWireframe
350
26D
  3
Basic
350
26F
  3
Brighten
350
273
  3
ColorChange
350
277
  3
Conceptual
350
271
  3
Dim
350
272
  3
EdgeColorOff
350
10E2
  3
Facepattern
350
276
  3
Flat
350
268
  3
FlatWithEdges
350
269
  3
Gouraud
350
26A
  3
GouraudWithEdges
350
26B
  3
Hidden
350
10DF
  3
JitterOff
350
10E0
  3
Linepattern
350
275
  3
OverhangOff
350
10E1
  3
Realistic
350
270
  3
Shaded
350
10E7
  3
Shaded with edges
350
10E6
  3
Shades of Gray
350
10E3
  3
Sketchy
350
10E4
  3
Thicken
350
274
  3
Wireframe
350
10DE
  3
X-Ray
350
10E5
  0
XRECORD
  5
5E17
102
{ACAD_REACTORS
330
19
102
}
330
19
100
AcDbXrecord
280
     1
 90
        1
330
279
  0
DICTIONARY
  5
330
102
{ACAD_REACTORS
330
19
102
}
330
19
100
AcDbDictionary
281
     1
  3
CANNOSCALE
350
331
  3
CMLEADERSTYLE
350
5103
  3
CTABLESTYLE
350
335
  3
HPTRANSPARENCY
350
57C0
  3
XCLIPFRAME
350
109E
  0
DICTIONARY
  5
12B9
102
{ACAD_REACTORS
330
19
102
}
330
19
100
AcDbDictionary
281
     1
  0
DICTIONARY
  5
27A
102
{ACAD_REACTORS
330
19
102
}
330
19
100
AcDbDictionary
281
     1
  0
DICTIONARY
  5
57C1
102
{ACAD_REACTORS
330
19
102
}
330
19
100
AcDbDictionary
281
     1
  3
DIMRAILANGLE
350
57C4
  3
DIMRAILFIRSTOFFSET
350
57C2
  3
DIMRAILOFFSET
350
57C3
  3
DIMRAILSENABLED
350
57C5
  0
DICTIONARY
  5
2E2
102
{ACAD_REACTORS
330
2E1
102
}
330
2E1
100
AcDbDictionary
281
     1
  3
ARGON_LAYERP_6
350
10DB
  3
ARGON_LAYERP_7
350
DEA
  3
ARGON_LAYERP_8
350
C70
  3
ARGON_LAYERP_9
350
7AA
  0
DICTIONARY
  5
57C8
102
{ACAD_REACTORS
330
2E1
102
}
330
2E1
100
AcDbDictionary
281
     1
1001
ACAD
1000
<All
  0
DIMASSOC
  5
4C21
102
{ACAD_REACTORS
330
4C20
102
}
330
4C20
100
AcDbDimAssoc
330
4C1F
 90
        3
 70
     0
 71
     1
  1
AcDbOsnapPointRef
 72
    13
331
4B82
 73
     2
 91
        1
 40
0.0
 10
0.0
 20
0.0
 30
0.0
 75
     0
  1
AcDbOsnapPointRef
 72
     1
331
4B82
 73
     2
 91
        1
 40
1.0
 10
0.0
 20
0.0
 30
0.0
 75
     0
  0
DIMASSOC
  5
4C31
102
{ACAD_REACTORS
330
4C30
102
}
330
4C30
100
AcDbDimAssoc
330
4C2F
 90
        3
 70
     0
 71
     1
  1
AcDbOsnapPointRef
 72
     1
331
4B98
 73
     2
 91
        2
 40
1.0
 10
0.0
 20
0.0
 30
0.0
 75
     0
  1
AcDbOsnapPointRef
 72
     1
331
4B98
 73
     2
 91
        3
 40
1.0
 10
0.0
 20
0.0
 30
0.0
 75
     0
  0
DIMASSOC
  5
4C42
102
{ACAD_REACTORS
330
4C41
102
}
330
4C41
100
AcDbDimAssoc
330
4C40
 90
        3
 70
     0
 71
     1
  1
AcDbOsnapPointRef
 72
     1
331
4B98
 73
     2
 91
        1
 40
1.0
 10
0.0
 20
0.0
 30
0.0
 75
     0
  1
AcDbOsnapPointRef
 72
     1
331
4B82
 73
     2
 91
        2
 40
1.0
 10
0.0
 20
0.0
 30
0.0
 75
     0
  0
DIMASSOC
  5
4C60
102
{ACAD_REACTORS
330
4C5F
102
}
330
4C5F
100
AcDbDimAssoc
330
4C5E
 90
        3
 70
     0
 71
     1
  1
AcDbOsnapPointRef
 72
     1
331
4B98
 73
     2
 91
        3
 40
1.0
 10
0.0
 20
0.0
 30
0.0
 75
     0
  1
AcDbOsnapPointRef
 72
    13
331
4B82
 73
     2
 91
        1
 40
0.0
 10
0.0
 20
0.0
 30
0.0
 75
     0
  0
DIMASSOC
  5
5964
102
{ACAD_REACTORS
330
5963
102
}
330
5963
100
AcDbDimAssoc
330
5962
 90
        3
 70
     0
 71
     1
  1
AcDbOsnapPointRef
 72
     5
331
595D
 73
     0
 91
        0
 40
3.141592653589793
 10
0.0
 20
0.0
 30
0.0
 75
     0
  1
AcDbOsnapPointRef
 72
     5
331
595D
 73
     0
 91
        0
 40
0.0
 10
0.0
 20
0.0
 30
0.0
 75
     0
  0
DIMASSOC
  5
5973
102
{ACAD_REACTORS
330
5972
102
}
330
5972
100
AcDbDimAssoc
330
5971
 90
        3
 70
     0
 71
     1
  1
AcDbOsnapPointRef
 72
     5
331
595E
 73
     0
 91
        0
 40
0.0
 10
0.0
 20
0.0
 30
0.0
 75
     0
  1
AcDbOsnapPointRef
 72
     5
331
595E
 73
     0
 91
        0
 40
3.141592653589793
 10
0.0
 20
0.0
 30
0.0
 75
     0
  0
DIMASSOC
  5
5BD6
102
{ACAD_REACTORS
330
5BD5
102
}
330
5BD5
100
AcDbDimAssoc
330
5BD4
 90
        3
 70
     0
 71
     1
  1
AcDbOsnapPointRef
 72
     1
331
5054
 73
     2
 91
        1
 40
1.0
 10
0.0
 20
0.0
 30
0.0
 75
     0
  1
AcDbOsnapPointRef
 72
     1
331
5054
 73
     2
 91
        2
 40
1.0
 10
0.0
 20
0.0
 30
0.0
 75
     0
  0
DICTIONARY
  5
5D4E
102
{ACAD_REACTORS
330
5D4D
102
}
330
5D4D
100
AcDbDictionary
280
     1
281
     1
  3
TEXT
360
5D4F
  0
GROUP
  5
5C2C
102
{ACAD_REACTORS
330
1A
102
}
330
1A
100
AcDbGroup
300

 70
     1
 71
     1
340
5820
340
581B
340
5822
340
5821
340
5825
340
5826
  0
GROUP
  5
5C4F
102
{ACAD_REACTORS
330
1A
102
}
330
1A
100
AcDbGroup
300

 70
     1
 71
     1
340
5C49
340
5C4A
340
5C4B
340
5C4C
340
5C4D
340
5C4E
  0
GROUP
  5
5C56
102
{ACAD_REACTORS
330
1A
102
}
330
1A
100
AcDbGroup
300

 70
     1
 71
     1
340
5821
340
5822
340
5825
340
5826
340
580A
340
580C
340
58A9
340
58B1
340
5934
340
5935
340
5955
340
5956
340
581B
340
5820
340
5C2D
340
5C2E
340
5C2F
340
5C30
340
5C31
340
5C32
340
5C34
340
5C35
340
5C36
340
5C37
340
5C38
340
5C39
340
5C3B
340
5C3C
340
5C3D
340
5C3E
340
5C3F
340
5C40
340
5C42
340
5C43
340
5C44
340
5C45
340
5C46
340
5C47
340
5C49
340
5C4A
340
5C4B
340
5C4C
340
5C4D
340
5C4E
340
594D
340
594E
340
594F
340
5951
340
5954
340
5953
340
5952
340
5950
340
594C
340
594B
  0
GROUP
  5
5CF2
102
{ACAD_REACTORS
330
1A
102
}
330
1A
100
AcDbGroup
300

 70
     1
 71
     1
340
5CE0
340
5CE1
340
5CBC
340
5CBD
340
5CBE
340
5CBF
340
5CC0
340
5CC1
340
5CC2
340
5CC3
340
5CC4
340
5CC5
340
5CC6
340
5CC7
340
5CC8
340
5CC9
340
5CCA
340
5CCB
340
5CCC
340
5CCD
340
5CCE
340
5CCF
340
5CD0
340
5CD1
340
5CD2
340
5CD3
340
5CD4
340
5CD5
340
5CD6
340
5CD7
340
5CD8
340
5CD9
340
5CDA
340
5CDB
340
5CDC
340
5CDD
340
5CDE
340
5CDF
340
5CE2
340
5CE3
340
5CE4
340
5CE5
340
5CE6
340
5CE7
340
5CE8
340
5CE9
340
5CEA
340
5CEB
340
5CEC
340
5CED
340
5CEE
340
5CEF
340
5CF0
340
5CF1
  0
GROUP
  5
59B8
102
{ACAD_REACTORS
330
1A
102
}
330
1A
100
AcDbGroup
300

 70
     1
 71
     1
340
5724
340
5726
340
5729
340
572B
340
572D
340
5734
340
5735
340
5736
340
5737
340
573E
340
5744
340
5743
340
5745
340
5746
340
5747
340
5725
340
5749
340
575A
340
5727
340
575B
340
5748
340
575C
340
575D
340
575E
340
575F
340
5760
340
5761
340
579B
340
579C
340
57AC
340
57AD
340
57AE
  0
GROUP
  5
5ACF
102
{ACAD_REACTORS
330
1A
102
}
330
1A
100
AcDbGroup
300

 70
     1
 71
     1
340
5AAC
340
5AAD
340
5AAE
340
5AAF
340
5AB0
340
5AB1
340
5AB2
340
5AB5
340
5AB6
340
5AB7
340
5AB8
340
5AB9
340
5ABA
340
5ABB
340
5ABC
340
5ABD
340
5ABE
340
5ABF
340
5AC0
340
5AC1
340
5AC2
340
5AC3
340
5AC4
340
5AC5
340
5AC6
340
5AC7
340
5AC8
340
5AC9
340
5ACA
340
5ACB
340
5ACC
340
5ACD
  0
GROUP
  5
5C33
102
{ACAD_REACTORS
330
1A
102
}
330
1A
100
AcDbGroup
300

 70
     1
 71
     1
340
5C2D
340
5C2E
340
5C2F
340
5C30
340
5C31
340
5C32
  0
GROUP
  5
5C3A
102
{ACAD_REACTORS
330
1A
102
}
330
1A
100
AcDbGroup
300

 70
     1
 71
     1
340
5C34
340
5C35
340
5C36
340
5C37
340
5C38
340
5C39
  0
GROUP
  5
5C41
102
{ACAD_REACTORS
330
1A
102
}
330
1A
100
AcDbGroup
300

 70
     1
 71
     1
340
5C3B
340
5C3C
340
5C3D
340
5C3E
340
5C3F
340
5C40
  0
GROUP
  5
5C48
102
{ACAD_REACTORS
330
1A
102
}
330
1A
100
AcDbGroup
300

 70
     1
 71
     1
340
5C42
340
5C43
340
5C44
340
5C45
340
5C46
340
5C47
  0
LAYOUT
  5
21
102
{ACAD_REACTORS
330
1E
102
}
330
1E
100
AcDbPlotSettings
  1

  2
none_device
  4
ISO_A3_(420.00_x_297.00_MM)
  6

 40
7.5
 41
20.0
 42
7.5
 43
20.0
 44
420.0
 45
297.0
 46
0.0
 47
0.0
 48
0.0
 49
0.0
140
0.0
141
0.0
142
1.0
143
1.0
 70
     0
 72
     1
 73
     0
 74
     0
  7

 75
     0
 76
     0
 77
     2
 78
   300
147
1.0
148
0.0
149
0.0
100
AcDbLayout
  1
Layout1
 70
     0
 71
     0
 10
-7.5
 20
-20.0
 11
412.5
 21
277.0
 12
0.0
 22
0.0
 32
0.0
 14
0.0
 24
0.0
 34
0.0
 15
0.0
 25
0.0
 35
0.0
146
0.0
 13
0.0
 23
0.0
 33
0.0
 16
0.0
 26
0.0
 36
0.0
 17
0.0
 27
0.0
 37
0.0
 76
     0
330
B
331
349
  0
LAYOUT
  5
12C4
102
{ACAD_REACTORS
330
1E
102
}
330
1E
100
AcDbPlotSettings
  1

  2
none_device
  4

  6

 40
0.0
 41
0.0
 42
0.0
 43
0.0
 44
0.0
 45
0.0
 46
0.0
 47
0.0
 48
0.0
 49
0.0
140
0.0
141
0.0
142
1.0
143
1.0
 70
   688
 72
     1
 73
     0
 74
     5
  7

 75
    16
 76
     0
 77
     2
 78
   300
147
1.0
148
0.0
149
0.0
100
AcDbLayout
  1
Layout2
 70
     1
 71
     2
 10
0.0
 20
0.0
 11
0.0
 21
0.0
 12
0.0
 22
0.0
 32
0.0
 14
0.0
 24
0.0
 34
0.0
 15
0.0
 25
0.0
 35
0.0
146
0.0
 13
0.0
 23
0.0
 33
0.0
 16
1.0
 26
0.0
 36
0.0
 17
0.0
 27
1.0
 37
0.0
 76
     0
330
12C3
  0
LAYOUT
  5
20
102
{ACAD_REACTORS
330
1E
102
}
330
1E
100
AcDbPlotSettings
  1

  2
none_device
  4
ISO_A3_(420.00_x_297.00_MM)
  6

 40
7.5
 41
20.0
 42
7.5
 43
20.0
 44
420.0
 45
297.0
 46
0.0
 47
0.0
 48
0.0
 49
0.0
140
0.0
141
0.0
142
1.0
143
1.0
 70
  1024
 72
     1
 73
     0
 74
     0
  7

 75
     0
 76
     0
 77
     2
 78
   300
147
1.0
148
0.0
149
0.0
100
AcDbLayout
  1
Model
 70
     0
 71
     1
 10
0.0
 20
0.0
 11
593.9999999999999
 21
420.0
 12
0.0
 22
0.0
 32
0.0
 14
0.0
 24
0.0
 34
0.0
 15
593.9999999999999
 25
420.0
 35
0.0
146
0.0
 13
0.0
 23
0.0
 33
0.0
 16
0.0
 26
0.0
 36
0.0
 17
0.0
 27
0.0
 37
0.0
 76
     0
330
A
331
15
  0
MATERIAL
  5
56E4
102
{ACAD_REACTORS
330
263
102
}
330
263
100
AcDbMaterial
  1
ByBlock
 72
     1
 94
      127
  0
MATERIAL
  5
264
102
{ACAD_REACTORS
330
263
102
}
330
263
100
AcDbMaterial
  1
ByLayer
 72
     1
 94
      127
  0
MATERIAL
  5
266
102
{ACAD_REACTORS
330
263
102
}
330
263
100
AcDbMaterial
  1
Global
 72
     1
 94
      127
  0
MLEADERSTYLE
  5
50FC
102
{ACAD_REACTORS
330
336
102
}
330
336
100
AcDbMLeaderStyle
170
     2
171
     1
172
     0
 90
        2
 40
0.0
 41
0.0
173
     1
 91
-1056964608
340
11
 92
       -2
290
     1
 42
2.0
291
     1
 43
8.0
  3
Standard
341
0
 44
4.0
300

342
17
174
     1
178
     6
175
     1
176
     0
 93
-1056964608
 45
4.0
292
     0
297
     0
 46
4.0
343
0
 94
-1056964608
 47
1.0
 49
1.0
140
1.0
293
     1
141
0.0
294
     1
177
     0
142
1.0
295
     0
296
     0
143
3.75
1001
ACAD_MLEADERVER
1070
     2
  0
MLINESTYLE
  5
1C
102
{ACAD_REACTORS
330
1B
102
}
330
1B
100
AcDbMlineStyle
  2
Standard
 70
     0
  3

 62
     0
 51
90.0
 52
90.0
 71
     2
 49
0.5
 62
   256
  6
BYLAYER
 49
-0.5
 62
   256
  6
BYLAYER
  0
ACDBPLACEHOLDER
  5
1D
102
{ACAD_REACTORS
330
1F
102
}
330
1F
  0
SCALE
  5
242
102
{ACAD_REACTORS
330
241
102
}
330
241
100
AcDbScale
 70
     0
300
1:1
140
1.0
141
1.0
290
     1
  0
SCALE
  5
243
102
{ACAD_REACTORS
330
241
102
}
330
241
100
AcDbScale
 70
     0
300
1:2
140
1.0
141
2.0
290
     0
  0
SCALE
  5
244
102
{ACAD_REACTORS
330
241
102
}
330
241
100
AcDbScale
 70
     0
300
1:4
140
1.0
141
4.0
290
     0
  0
SCALE
  5
245
102
{ACAD_REACTORS
330
241
102
}
330
241
100
AcDbScale
 70
     0
300
1:5
140
1.0
141
5.0
290
     0
  0
SCALE
  5
246
102
{ACAD_REACTORS
330
241
102
}
330
241
100
AcDbScale
 70
     0
300
1:8
140
1.0
141
8.0
290
     0
  0
SCALE
  5
247
102
{ACAD_REACTORS
330
241
102
}
330
241
100
AcDbScale
 70
     0
300
1:10
140
1.0
141
10.0
290
     0
  0
SCALE
  5
248
102
{ACAD_REACTORS
330
241
102
}
330
241
100
AcDbScale
 70
     0
300
1:16
140
1.0
141
16.0
290
     0
  0
SCALE
  5
249
102
{ACAD_REACTORS
330
241
102
}
330
241
100
AcDbScale
 70
     0
300
1:20
140
1.0
141
20.0
290
     0
  0
SCALE
  5
24A
102
{ACAD_REACTORS
330
241
102
}
330
241
100
AcDbScale
 70
     0
300
1:30
140
1.0
141
30.0
290
     0
  0
SCALE
  5
24B
102
{ACAD_REACTORS
330
241
102
}
330
241
100
AcDbScale
 70
     0
300
1:40
140
1.0
141
40.0
290
     0
  0
SCALE
  5
24C
102
{ACAD_REACTORS
330
241
102
}
330
241
100
AcDbScale
 70
     0
300
1:50
140
1.0
141
50.0
290
     0
  0
SCALE
  5
24D
102
{ACAD_REACTORS
330
241
102
}
330
241
100
AcDbScale
 70
     0
300
1:100
140
1.0
141
100.0
290
     0
  0
SCALE
  5
24E
102
{ACAD_REACTORS
330
241
102
}
330
241
100
AcDbScale
 70
     0
300
2:1
140
2.0
141
1.0
290
     0
  0
SCALE
  5
24F
102
{ACAD_REACTORS
330
241
102
}
330
241
100
AcDbScale
 70
     0
300
4:1
140
4.0
141
1.0
290
     0
  0
SCALE
  5
250
102
{ACAD_REACTORS
330
241
102
}
330
241
100
AcDbScale
 70
     0
300
8:1
140
8.0
141
1.0
290
     0
  0
SCALE
  5
251
102
{ACAD_REACTORS
330
241
102
}
330
241
100
AcDbScale
 70
     0
300
10:1
140
10.0
141
1.0
290
     0
  0
SCALE
  5
252
102
{ACAD_REACTORS
330
241
102
}
330
241
100
AcDbScale
 70
     0
300
100:1
140
100.0
141
1.0
290
     0
  0
SCALE
  5
253
102
{ACAD_REACTORS
330
241
102
}
330
241
100
AcDbScale
 70
     0
300
1/128" = 1'-0"
140
0.0078125
141
12.0
290
     0
  0
SCALE
  5
254
102
{ACAD_REACTORS
330
241
102
}
330
241
100
AcDbScale
 70
     0
300
1/64" = 1'-0"
140
0.015625
141
12.0
290
     0
  0
SCALE
  5
255
102
{ACAD_REACTORS
330
241
102
}
330
241
100
AcDbScale
 70
     0
300
1/32" = 1'-0"
140
0.03125
141
12.0
290
     0
  0
SCALE
  5
256
102
{ACAD_REACTORS
330
241
102
}
330
241
100
AcDbScale
 70
     0
300
1/16" = 1'-0"
140
0.0625
141
12.0
290
     0
  0
SCALE
  5
257
102
{ACAD_REACTORS
330
241
102
}
330
241
100
AcDbScale
 70
     0
300
3/32" = 1'-0"
140
0.09375
141
12.0
290
     0
  0
SCALE
  5
258
102
{ACAD_REACTORS
330
241
102
}
330
241
100
AcDbScale
 70
     0
300
1/8" = 1'-0"
140
0.125
141
12.0
290
     0
  0
SCALE
  5
259
102
{ACAD_REACTORS
330
241
102
}
330
241
100
AcDbScale
 70
     0
300
3/16" = 1'-0"
140
0.1875
141
12.0
290
     0
  0
SCALE
  5
25A
102
{ACAD_REACTORS
330
241
102
}
330
241
100
AcDbScale
 70
     0
300
1/4" = 1'-0"
140
0.25
141
12.0
290
     0
  0
SCALE
  5
25B
102
{ACAD_REACTORS
330
241
102
}
330
241
100
AcDbScale
 70
     0
300
3/8" = 1'-0"
140
0.375
141
12.0
290
     0
  0
SCALE
  5
25C
102
{ACAD_REACTORS
330
241
102
}
330
241
100
AcDbScale
 70
     0
300
1/2" = 1'-0"
140
0.5
141
12.0
290
     0
  0
SCALE
  5
25D
102
{ACAD_REACTORS
330
241
102
}
330
241
100
AcDbScale
 70
     0
300
3/4" = 1'-0"
140
0.75
141
12.0
290
     0
  0
SCALE
  5
25E
102
{ACAD_REACTORS
330
241
102
}
330
241
100
AcDbScale
 70
     0
300
1" = 1'-0"
140
1.0
141
12.0
290
     0
  0
SCALE
  5
25F
102
{ACAD_REACTORS
330
241
102
}
330
241
100
AcDbScale
 70
     0
300
1-1/2" = 1'-0"
140
1.5
141
12.0
290
     0
  0
SCALE
  5
260
102
{ACAD_REACTORS
330
241
102
}
330
241
100
AcDbScale
 70
     0
300
3" = 1'-0"
140
3.0
141
12.0
290
     0
  0
SCALE
  5
261
102
{ACAD_REACTORS
330
241
102
}
330
241
100
AcDbScale
 70
     0
300
6" = 1'-0"
140
6.0
141
12.0
290
     0
  0
SCALE
  5
262
102
{ACAD_REACTORS
330
241
102
}
330
241
100
AcDbScale
 70
     0
300
1'-0" = 1'-0"
140
12.0
141
12.0
290
     0
  0
TABLESTYLE
  5
279
102
{ACAD_REACTORS
330
278
102
}
102
{ACAD_XDICTIONARY
360
5E15
102
}
330
278
100
AcDbTableStyle
  3
Standard
 70
     0
 71
     0
 40
0.06
 41
0.06
280
     0
281
     0
  7
Standard
140
4.5
170
     2
 62
     0
 63
   257
283
     0
 90
        4
 91
        0
  1

274
    -2
284
     1
 64
     0
275
    -2
285
     1
 65
     0
276
    -2
286
     1
 66
     0
277
    -2
287
     1
 67
     0
278
    -2
288
     1
 68
     0
279
    -2
289
     1
 69
     0
  7
Standard
140
6.0
170
     5
 62
     0
 63
   257
283
     0
 90
        4
 91
        0
  1

274
    -2
284
     1
 64
     0
275
    -2
285
     1
 65
     0
276
    -2
286
     1
 66
     0
277
    -2
287
     1
 67
     0
278
    -2
288
     1
 68
     0
279
    -2
289
     1
 69
     0
  7
Standard
140
4.5
170
     5
 62
     0
 63
   257
283
     0
 90
        4
 91
        0
  1

274
    -2
284
     1
 64
     0
275
    -2
285
     1
 65
     0
276
    -2
286
     1
 66
     0
277
    -2
287
     1
 67
     0
278
    -2
288
     1
 68
     0
279
    -2
289
     1
 69
     0
  0
VISUALSTYLE
  5
26C
102
{ACAD_REACTORS
330
267
102
}
330
267
100
AcDbVisualStyle
  2
2dWireframe
 70
     4
 71
     0
 72
     2
 73
     0
 90
        0
 40
-0.6
 41
-30.0
 62
     5
 63
     7
421
 16777215
 74
     1
 91
        4
 64
     7
 65
   257
 75
     1
175
     1
 42
1.0
 92
        0
 66
   257
 43
1.0
 76
     1
 77
     6
 78
     2
 67
     7
 79
     5
170
     0
171
     0
290
     0
174
     0
 93
        1
 44
0.0
173
     0
291
     0
 45
0.0
  0
VISUALSTYLE
  5
26E
102
{ACAD_REACTORS
330
267
102
}
330
267
100
AcDbVisualStyle
  2
3D Hidden
 70
     6
 71
     1
 72
     2
 73
     2
 90
        0
 40
-0.6
 41
-30.0
 62
     5
 63
     7
421
 16777215
 74
     2
 91
        2
 64
     7
 65
   257
 75
     2
175
     1
 42
40.0
 92
        0
 66
   257
 43
1.0
 76
     1
 77
     6
 78
     2
 67
     7
 79
     3
170
     0
171
     0
290
     0
174
     0
 93
        1
 44
0.0
173
     0
291
     0
 45
0.0
  0
VISUALSTYLE
  5
26D
102
{ACAD_REACTORS
330
267
102
}
330
267
100
AcDbVisualStyle
  2
3dWireframe
 70
     5
 71
     0
 72
     2
 73
     0
 90
        0
 40
-0.6
 41
-30.0
 62
     5
 63
     7
421
 16777215
 74
     1
 91
        4
 64
     7
 65
   257
 75
     1
175
     1
 42
1.0
 92
        0
 66
   257
 43
1.0
 76
     1
 77
     6
 78
     2
 67
     7
 79
     5
170
     0
171
     0
290
     0
174
     0
 93
        1
 44
0.0
173
     0
291
     0
 45
0.0
  0
VISUALSTYLE
  5
26F
102
{ACAD_REACTORS
330
267
102
}
330
267
100
AcDbVisualStyle
  2
Basic
 70
     7
 71
     1
 72
     0
 73
     1
 90
        0
 40
-0.6
 41
-30.0
 62
     5
 63
     7
421
 16777215
 74
     0
 91
        4
 64
     7
 65
   257
 75
     1
175
     1
 42
1.0
 92
        8
 66
     7
 43
1.0
 76
     1
 77
     6
 78
     2
 67
     7
 79
     5
170
     0
171
     0
290
     0
174
     0
 93
        1
 44
0.0
173
     0
291
     1
 45
0.0
  0
VISUALSTYLE
  5
273
102
{ACAD_REACTORS
330
267
102
}
330
267
100
AcDbVisualStyle
  2
Brighten
 70
    12
 71
     2
 72
     2
 73
     0
 90
        0
 40
-0.6
 41
-30.0
 62
     5
 63
     7
421
 16777215
 74
     1
 91
        4
 64
     7
 65
   257
 75
     1
175
     1
 42
1.0
 92
        8
 66
     7
 43
1.0
 76
     1
 77
     6
 78
     2
 67
     7
 79
     5
170
     0
171
     0
290
     0
174
     0
 93
        1
 44
50.0
173
     0
291
     1
 45
0.0
  0
VISUALSTYLE
  5
277
102
{ACAD_REACTORS
330
267
102
}
330
267
100
AcDbVisualStyle
  2
ColorChange
 70
    16
 71
     2
 72
     2
 73
     3
 90
        0
 40
-0.6
 41
-30.0
 62
     5
 63
     8
421
  8421504
 74
     1
 91
        4
 64
     7
 65
   257
 75
     1
175
     1
 42
1.0
 92
        8
 66
     8
424
  8421504
 43
1.0
 76
     1
 77
     6
 78
     2
 67
     7
 79
     5
170
     0
171
     0
290
     0
174
     0
 93
        1
 44
0.0
173
     0
291
     1
 45
0.0
  0
VISUALSTYLE
  5
271
102
{ACAD_REACTORS
330
267
102
}
330
267
100
AcDbVisualStyle
  2
Conceptual
 70
     9
 71
     3
 72
     2
 73
     0
 90
        0
 40
-0.6
 41
-30.0
 62
     5
 63
     7
421
 16777215
 74
     2
 91
        2
 64
     7
 65
   257
 75
     1
175
     1
 42
40.0
 92
        8
 66
     7
 43
1.0
 76
     1
 77
     6
 78
     2
 67
     7
 79
     3
170
     0
171
     0
290
     0
174
     0
 93
        1
 44
0.0
173
     0
291
     0
 45
0.0
  0
VISUALSTYLE
  5
272
102
{ACAD_REACTORS
330
267
102
}
330
267
100
AcDbVisualStyle
  2
Dim
 70
    11
 71
     2
 72
     2
 73
     0
 90
        0
 40
-0.6
 41
-30.0
 62
     5
 63
     7
421
 16777215
 74
     1
 91
        4
 64
     7
 65
   257
 75
     1
175
     1
 42
1.0
 92
        8
 66
     7
 43
1.0
 76
     1
 77
     6
 78
     2
 67
     7
 79
     5
170
     0
171
     0
290
     0
174
     0
 93
        1
 44
-50.0
173
     0
291
     1
 45
0.0
  0
VISUALSTYLE
  5
10E2
102
{ACAD_REACTORS
330
267
102
}
330
267
100
AcDbVisualStyle
  2
EdgeColorOff
 70
    22
 71
     2
 72
     2
 73
     0
 90
        0
 40
0.6
 41
30.0
 62
     5
 63
     7
421
 16777215
 74
     1
 91
        4
 64
     7
 65
   257
 75
     1
175
     1
 42
1.0
 92
        8
 66
     7
 43
1.0
 76
     1
 77
     6
 78
     2
 67
     7
 79
     5
170
     0
171
     0
290
     0
174
     0
 93
        1
 44
0.0
173
     0
291
     1
 45
0.0
  0
VISUALSTYLE
  5
276
102
{ACAD_REACTORS
330
267
102
}
330
267
100
AcDbVisualStyle
  2
Facepattern
 70
    15
 71
     2
 72
     2
 73
     0
 90
        0
 40
-0.6
 41
-30.0
 62
     5
 63
     7
421
 16777215
 74
     1
 91
        4
 64
     7
 65
   257
 75
     1
175
     1
 42
1.0
 92
        8
 66
     7
 43
1.0
 76
     1
 77
     6
 78
     2
 67
     7
 79
     5
170
     0
171
     0
290
     0
174
     0
 93
        1
 44
0.0
173
     0
291
     1
 45
0.0
  0
VISUALSTYLE
  5
268
102
{ACAD_REACTORS
330
267
102
}
330
267
100
AcDbVisualStyle
  2
Flat
 70
     0
 71
     2
 72
     1
 73
     1
 90
        2
 40
-0.6
 41
30.0
 62
     5
 63
     7
421
 16777215
 74
     0
 91
        4
 64
     7
 65
   257
 75
     1
175
     1
 42
1.0
 92
        8
 66
     7
 43
1.0
 76
     1
 77
     6
 78
     2
 67
     7
 79
     5
170
     0
171
     0
290
     0
174
     0
 93
       13
 44
0.0
173
     0
291
     1
 45
0.0
  0
VISUALSTYLE
  5
269
102
{ACAD_REACTORS
330
267
102
}
330
267
100
AcDbVisualStyle
  2
FlatWithEdges
 70
     1
 71
     2
 72
     1
 73
     1
 90
        2
 40
-0.6
 41
30.0
 62
     5
 63
     7
421
 16777215
 74
     1
 91
        4
 64
     7
 65
   257
 75
     1
175
     1
 42
1.0
 92
        0
 66
   257
 43
1.0
 76
     1
 77
     6
 78
     2
 67
     7
 79
     5
170
     0
171
     0
290
     0
174
     0
 93
       13
 44
0.0
173
     0
291
     1
 45
0.0
  0
VISUALSTYLE
  5
26A
102
{ACAD_REACTORS
330
267
102
}
330
267
100
AcDbVisualStyle
  2
Gouraud
 70
     2
 71
     2
 72
     2
 73
     1
 90
        2
 40
-0.6
 41
30.0
 62
     5
 63
     7
421
 16777215
 74
     0
 91
        4
 64
     7
 65
   257
 75
     1
175
     1
 42
1.0
 92
        0
 66
     7
 43
1.0
 76
     1
 77
     6
 78
     2
 67
     7
 79
     5
170
     0
171
     0
290
     0
174
     0
 93
       13
 44
0.0
173
     0
291
     1
 45
0.0
  0
VISUALSTYLE
  5
26B
102
{ACAD_REACTORS
330
267
102
}
330
267
100
AcDbVisualStyle
  2
GouraudWithEdges
 70
     3
 71
     2
 72
     2
 73
     1
 90
        2
 40
-0.6
 41
30.0
 62
     5
 63
     7
421
 16777215
 74
     1
 91
        4
 64
     7
 65
   257
 75
     1
175
     1
 42
1.0
 92
        0
 66
   257
 43
1.0
 76
     1
 77
     6
 78
     2
 67
     7
 79
     5
170
     0
171
     0
290
     0
174
     0
 93
       13
 44
0.0
173
     0
291
     1
 45
0.0
  0
VISUALSTYLE
  5
10DF
102
{ACAD_REACTORS
330
267
102
}
330
267
100
AcDbVisualStyle
  2
Hidden
 70
     6
 71
     1
 72
     2
 73
     2
 90
        0
 40
0.6
 41
30.0
 62
     5
 63
     7
421
 16777215
 74
     2
 91
        2
 64
     7
 65
   257
 75
     2
175
     1
 42
40.0
 92
        0
 66
   257
 43
1.0
 76
     1
 77
     6
 78
     2
 67
     7
 79
     3
170
     0
171
     0
290
     0
174
     0
 93
        1
 44
0.0
173
     0
291
     0
 45
0.0
  0
VISUALSTYLE
  5
10E0
102
{ACAD_REACTORS
330
267
102
}
330
267
100
AcDbVisualStyle
  2
JitterOff
 70
    20
 71
     2
 72
     2
 73
     0
 90
        0
 40
0.6
 41
30.0
 62
     5
 63
     7
421
 16777215
 74
     1
 91
        4
 64
     7
 65
   257
 75
     1
175
     1
 42
1.0
 92
       10
 66
     7
 43
1.0
 76
     1
 77
     6
 78
     2
 67
     7
 79
     5
170
     0
171
     0
290
     0
174
     0
 93
        1
 44
0.0
173
     0
291
     1
 45
0.0
  0
VISUALSTYLE
  5
275
102
{ACAD_REACTORS
330
267
102
}
330
267
100
AcDbVisualStyle
  2
Linepattern
 70
    14
 71
     2
 72
     2
 73
     0
 90
        0
 40
-0.6
 41
-30.0
 62
     5
 63
     7
421
 16777215
 74
     1
 91
        4
 64
     7
 65
   257
 75
     7
175
     7
 42
1.0
 92
        8
 66
     7
 43
1.0
 76
     1
 77
     6
 78
     2
 67
     7
 79
     5
170
     0
171
     0
290
     0
174
     0
 93
        1
 44
0.0
173
     0
291
     1
 45
0.0
  0
VISUALSTYLE
  5
10E1
102
{ACAD_REACTORS
330
267
102
}
330
267
100
AcDbVisualStyle
  2
OverhangOff
 70
    21
 71
     2
 72
     2
 73
     0
 90
        0
 40
0.6
 41
30.0
 62
     5
 63
     7
421
 16777215
 74
     1
 91
        4
 64
     7
 65
   257
 75
     1
175
     1
 42
1.0
 92
        9
 66
     7
 43
1.0
 76
     1
 77
     6
 78
     2
 67
     7
 79
     5
170
     0
171
     0
290
     0
174
     0
 93
        1
 44
0.0
173
     0
291
     1
 45
0.0
  0
VISUALSTYLE
  5
270
102
{ACAD_REACTORS
330
267
102
}
330
267
100
AcDbVisualStyle
  2
Realistic
 70
     8
 71
     2
 72
     2
 73
     0
 90
        0
 40
-0.6
 41
-30.0
 62
     5
 63
     7
421
 16777215
 74
     1
 91
        0
 64
     7
 65
   257
 75
     1
175
     1
 42
1.0
 92
        8
 66
     8
424
  7895160
 43
1.0
 76
     1
 77
     6
 78
     2
 67
     7
 79
     5
170
     0
171
     0
290
     0
174
     0
 93
       13
 44
0.0
173
     0
291
     0
 45
0.0
  0
VISUALSTYLE
  5
10E7
102
{ACAD_REACTORS
330
267
102
}
330
267
100
AcDbVisualStyle
  2
Shaded
 70
    27
 71
     2
 72
     2
 73
     1
 90
        2
 40
0.6
 41
30.0
 62
     5
 63
     7
421
 16777215
 74
     0
 91
        4
 64
     7
 65
   257
 75
     1
175
     1
 42
1.0
 92
        8
 66
   257
 43
1.0
 76
     1
 77
     6
 78
     2
 67
     8
425
  7895160
 79
     3
170
     0
171
     0
290
     0
174
     0
 93
        5
 44
0.0
173
     0
291
     0
 45
0.0
  0
VISUALSTYLE
  5
10E6
102
{ACAD_REACTORS
330
267
102
}
330
267
100
AcDbVisualStyle
  2
Shaded with edges
 70
    26
 71
     2
 72
     2
 73
     1
 90
        2
 40
0.6
 41
30.0
 62
     5
 63
     7
421
 16777215
 74
     1
 91
       10
 64
     7
 65
   257
 75
     2
175
     1
 42
1.0
 92
        8
 66
   257
 43
1.0
 76
     1
 77
     6
 78
     2
 67
     7
 79
     3
170
     0
171
     0
290
     0
174
     0
 93
        5
 44
0.0
173
     0
291
     0
 45
0.0
  0
VISUALSTYLE
  5
10E3
102
{ACAD_REACTORS
330
267
102
}
330
267
100
AcDbVisualStyle
  2
Shades of Gray
 70
    23
 71
     2
 72
     2
 73
     3
 90
        0
 40
0.6
 41
30.0
 62
     5
 63
     7
421
 16777215
 74
     2
 91
        2
 64
     7
 65
     7
 75
     1
175
     1
 42
40.0
 92
        8
 66
     7
 43
1.0
 76
     1
 77
     6
 78
     2
 67
     7
 79
     3
170
     0
171
     0
290
     0
174
     0
 93
        1
 44
0.0
173
     0
291
     0
 45
0.0
  0
VISUALSTYLE
  5
10E4
102
{ACAD_REACTORS
330
267
102
}
330
267
100
AcDbVisualStyle
  2
Sketchy
 70
    24
 71
     1
 72
     2
 73
     2
 90
        0
 40
0.6
 41
30.0
 62
     5
 63
     7
421
 16777215
 74
     2
 91
        2
 64
     7
 65
     7
 75
     1
175
     1
 42
40.0
 92
       11
 66
     7
 43
1.0
 76
     1
 77
     6
 78
     2
 67
     7
 79
     6
170
     0
171
     0
290
     0
174
     0
 93
        1
 44
0.0
173
     0
291
     0
 45
0.0
  0
VISUALSTYLE
  5
274
102
{ACAD_REACTORS
330
267
102
}
330
267
100
AcDbVisualStyle
  2
Thicken
 70
    13
 71
     2
 72
     2
 73
     0
 90
        0
 40
-0.6
 41
-30.0
 62
     5
 63
     7
421
 16777215
 74
     1
 91
        4
 64
     7
 65
   257
 75
     1
175
     1
 42
1.0
 92
       12
 66
     7
 43
1.0
 76
     1
 77
     6
 78
     2
 67
     7
 79
     5
170
     0
171
     0
290
     0
174
     0
 93
        1
 44
0.0
173
     0
291
     1
 45
0.0
  0
VISUALSTYLE
  5
10DE
102
{ACAD_REACTORS
330
267
102
}
330
267
100
AcDbVisualStyle
  2
Wireframe
 70
     5
 71
     0
 72
     2
 73
     0
 90
        0
 40
0.6
 41
30.0
 62
     5
 63
     7
421
 16777215
 74
     1
 91
        4
 64
     7
 65
   257
 75
     1
175
     1
 42
1.0
 92
        0
 66
   257
 43
1.0
 76
     1
 77
     6
 78
     2
 67
     7
 79
     3
170
     0
171
     0
290
     0
174
     0
 93
        1
 44
0.0
173
     0
291
     0
 45
0.0
  0
VISUALSTYLE
  5
10E5
102
{ACAD_REACTORS
330
267
102
}
330
267
100
AcDbVisualStyle
  2
X-Ray
 70
    25
 71
     2
 72
     2
 73
     1
 90
        1
 40
0.5
 41
30.0
 62
     5
 63
     7
421
 16777215
 74
     1
 91
        0
 64
     7
 65
   257
 75
     1
175
     1
 42
1.0
 92
        8
 66
     7
 43
1.0
 76
     1
 77
     6
 78
     2
 67
     7
 79
     3
170
     0
171
     0
290
     0
174
     0
 93
       13
 44
0.0
173
     0
291
     0
 45
0.0
  0
DICTIONARYVAR
  5
331
102
{ACAD_REACTORS
330
330
102
}
330
330
100
DictionaryVariables
280
     0
  1
1:1
  0
DICTIONARYVAR
  5
5103
102
{ACAD_REACTORS
330
330
102
}
330
330
100
DictionaryVariables
280
     0
  1
Standard
  0
DICTIONARYVAR
  5
335
102
{ACAD_REACTORS
330
330
102
}
330
330
100
DictionaryVariables
280
     0
  1
Standard
  0
DICTIONARYVAR
  5
57C0
102
{ACAD_REACTORS
330
330
102
}
330
330
100
DictionaryVariables
280
     0
  1
ByLayer
  0
DICTIONARYVAR
  5
109E
102
{ACAD_REACTORS
330
330
102
}
330
330
100
DictionaryVariables
280
     0
  1
0
  0
DICTIONARYVAR
  5
57C4
102
{ACAD_REACTORS
330
57C1
102
}
330
57C1
100
DictionaryVariables
280
     0
  1
0.261799
  0
DICTIONARYVAR
  5
57C2
102
{ACAD_REACTORS
330
57C1
102
}
330
57C1
100
DictionaryVariables
280
     0
  1
0.400000
  0
DICTIONARYVAR
  5
57C3
102
{ACAD_REACTORS
330
57C1
102
}
330
57C1
100
DictionaryVariables
280
     0
  1
0.250000
  0
DICTIONARYVAR
  5
57C5
102
{ACAD_REACTORS
330
57C1
102
}
330
57C1
100
DictionaryVariables
280
     0
  1
1
  0
XRECORD
  5
10DB
102
{ACAD_REACTORS
330
2E2
102
}
330
2E2
100
AcDbXrecord
280
     1
 91
    34815
301

290
     0
302
テンプレート
330
14
 90
        8
 62
     7
370
    -3
331
13
  1
Color_7
440
 33554687
330
4A
 90
        0
 62
     7
370
    -3
331
13
  1
Color_7
440
 33554687
330
12CE
 90
        8
 62
     3
370
    13
331
13
  1
Color_3
440
 33554687
330
12CF
 90
        8
 62
     7
370
    20
331
13
  1
Color_7
440
 33554687
330
142A
 90
        8
 62
     7
370
    20
331
13
  1
Color_7
440
 33554687
330
1D5C
 90
        8
 62
     7
370
    20
331
13
  1
Color_7
440
 33554687
330
3848
 90
        0
 62
     4
370
    -3
331
13
  1
Color_4
440
 33554687
  0
XRECORD
  5
DEA
102
{ACAD_REACTORS
330
2E2
102
}
330
2E2
100
AcDbXrecord
280
     1
 91
     1023
301

290
     0
302
テンプレート
330
14
 90
        8
 62
     7
370
    -3
331
13
  1
Color_7
330
4A
 90
        0
 62
     7
370
    -3
331
13
  1
Color_7
330
0
 90
        8
 62
     7
370
     9
331
13
  1
Color_7
330
12CE
 90
        9
 62
     7
370
    13
331
13
  1
Color_7
330
12CF
 90
        8
 62
     7
370
    20
331
13
  1
Color_7
330
142A
 90
        8
 62
     7
370
    20
331
13
  1
Color_7
330
0
 90
        8
 62
     7
370
    -3
331
13
  1
Color_7
330
0
 90
        8
 62
     7
370
    -3
331
13
  1
Color_7
330
0
 90
        8
 62
     7
370
    -3
331
13
  1
Color_7
330
0
 90
        8
 62
     7
370
    -3
331
13
  1
Color_7
  0
XRECORD
  5
C70
102
{ACAD_REACTORS
330
2E2
102
}
330
2E2
100
AcDbXrecord
280
     1
 91
     1023
301

290
     0
302
Defpoints
330
14
 90
        8
 62
     7
370
    -3
331
13
  1
Color_7
330
4A
 90
        0
 62
     7
370
    -3
331
13
  1
Color_7
330
0
 90
        8
 62
     7
370
    -3
331
13
  1
Color_7
330
0
 90
        8
 62
     7
370
    -3
331
13
  1
Color_7
330
0
 90
        8
 62
     7
370
    -3
331
13
  1
Color_7
330
0
 90
       12
 62
     7
370
    -3
331
13
  1
Color_7
330
0
 90
        8
 62
     7
370
    -3
331
13
  1
Color_7
  0
XRECORD
  5
7AA
102
{ACAD_REACTORS
330
2E2
102
}
330
2E2
100
AcDbXrecord
280
     1
 91
     1023
301

290
     0
302
レイヤー 1
330
14
 90
        9
 62
     7
370
    -3
331
13
  1
Color_7
330
4A
 90
        1
 62
     7
370
    -3
331
13
  1
Color_7
330
0
 90
        8
 62
     7
370
    -3
331
13
  1
Color_7
330
0
 90
        9
 62
     7
370
    -3
331
13
  1
Color_7
330
0
 90
        9
 62
     7
370
    -3
331
13
  1
Color_7
330
0
 90
       13
 62
     7
370
    -3
331
13
  1
Color_7
330
0
 90
        9
 62
     7
370
    -3
331
13
  1
Color_7
330
0
 90
        9
 62
     7
370
    -3
331
13
  1
Color_7
330
0
 90
        9
 62
     7
370
    -3
331
13
  1
Color_7
330
0
 90
        9
 62
     7
370
    -3
331
13
  1
Color_7
330
0
 90
        9
 62
     7
370
    -3
331
13
  1
Color_7
330
0
 90
        8
 62
     7
370
    -3
331
13
  1
Color_7
  0
FIELD
  5
5D4F
102
{ACAD_REACTORS
330
5D4E
102
}
330
5D4E
100
AcDbField
  1
_text
  2
{%<\_FldIdx 0>%N}
 90
        1
360
5D50
 97
        0
 91
       63
 92
        0
 94
        8
 95
        2
 96
        0
300

 93
        1
  6
ACFD_FIELDTEXT_CHECKSUM
 93
        2
 90
        2
140
4443.0
 94
        0
300

302

304
ACVALUE_END
  7
ACFD_FIELD_VALUE
 93
        6
 90
        4
  1
{20161001N}
 94
        0
300

302

304
ACVALUE_END
301
{20161001N}
 98
       11
  0
DICTIONARY
  5
5E15
330
279
100
AcDbDictionary
280
     1
281
     1
  3
ACAD_ROUNDTRIP_2008_TABLESTYLE_CELLSTYLEMAP
360
5E16
  0
FIELD
  5
5D50
330
5D4F
100
AcDbField
  1
AcVar
  2
\AcVar CreateDate \f "yyyyMMdd"
 90
        0
 97
        0
 91
       63
 92
        0
 94
        8
 95
        2
 96
        0
300

 93
        1
  6
Variable
 93
        2
 90
        4
  1
CreateDate
 94
        0
300

302

304
ACVALUE_END
  7
ACFD_FIELD_VALUE
 93
        6
 90
        8
 92
       16
310
E0070A00000001000300000029000000
 94
        0
300
yyyyMMdd
302

304
ACVALUE_END
301
20161001
 98
        8
  0
CELLSTYLEMAP
  5
5E16
102
{ACAD_REACTORS
330
5E15
102
}
330
5E15
100
AcDbCellStyleMap
 90
        3
300
CELLSTYLE
  1
TABLEFORMAT_BEGIN
 90
        5
170
     1
 91
        0
 92
    32768
 62
   257
 93
        1
300
CONTENTFORMAT
  1
CONTENTFORMAT_BEGIN
 90
        0
 91
        0
 92
        4
 93
        0
300

 40
0.0
140
1.0
 94
        5
 62
     0
340
17
144
6.0
309
CONTENTFORMAT_END
171
     1
301
MARGIN
  1
CELLMARGIN_BEGIN
 40
0.06
 40
0.06
 40
0.06
 40
0.06
 40
0.18
 40
0.18
309
CELLMARGIN_END
 94
        6
 95
        1
302
GRIDFORMAT
  1
GRIDFORMAT_BEGIN
 90
        0
 91
        1
 62
     0
 92
       -2
340
0
 93
        0
 40
0.045
309
GRIDFORMAT_END
 95
        2
302
GRIDFORMAT
  1
GRIDFORMAT_BEGIN
 90
        0
 91
        1
 62
     0
 92
       -2
340
0
 93
        0
 40
0.045
309
GRIDFORMAT_END
 95
        4
302
GRIDFORMAT
  1
GRIDFORMAT_BEGIN
 90
        0
 91
        1
 62
     0
 92
       -2
340
0
 93
        0
 40
0.045
309
GRIDFORMAT_END
 95
        8
302
GRIDFORMAT
  1
GRIDFORMAT_BEGIN
 90
        0
 91
        1
 62
     0
 92
       -2
340
0
 93
        0
 40
0.045
309
GRIDFORMAT_END
 95
       16
302
GRIDFORMAT
  1
GRIDFORMAT_BEGIN
 90
        0
 91
        1
 62
     0
 92
       -2
340
0
 93
        0
 40
0.045
309
GRIDFORMAT_END
 95
       32
302
GRIDFORMAT
  1
GRIDFORMAT_BEGIN
 90
        0
 91
        1
 62
     0
 92
       -2
340
0
 93
        0
 40
0.045
309
GRIDFORMAT_END
309
TABLEFORMAT_END
  1
CELLSTYLE_BEGIN
 90
        1
 91
        1
300
_TITLE
309
CELLSTYLE_END
300
CELLSTYLE
  1
TABLEFORMAT_BEGIN
 90
        5
170
     1
 91
        0
 92
        0
 62
   257
 93
        1
300
CONTENTFORMAT
  1
CONTENTFORMAT_BEGIN
 90
        0
 91
        0
 92
        4
 93
        0
300

 40
0.0
140
1.0
 94
        5
 62
     0
340
17
144
4.5
309
CONTENTFORMAT_END
171
     1
301
MARGIN
  1
CELLMARGIN_BEGIN
 40
0.06
 40
0.06
 40
0.06
 40
0.06
 40
0.18
 40
0.18
309
CELLMARGIN_END
 94
        6
 95
        1
302
GRIDFORMAT
  1
GRIDFORMAT_BEGIN
 90
        0
 91
        1
 62
     0
 92
       -2
340
0
 93
        0
 40
0.045
309
GRIDFORMAT_END
 95
        2
302
GRIDFORMAT
  1
GRIDFORMAT_BEGIN
 90
        0
 91
        1
 62
     0
 92
       -2
340
0
 93
        0
 40
0.045
309
GRIDFORMAT_END
 95
        4
302
GRIDFORMAT
  1
GRIDFORMAT_BEGIN
 90
        0
 91
        1
 62
     0
 92
       -2
340
0
 93
        0
 40
0.045
309
GRIDFORMAT_END
 95
        8
302
GRIDFORMAT
  1
GRIDFORMAT_BEGIN
 90
        0
 91
        1
 62
     0
 92
       -2
340
0
 93
        0
 40
0.045
309
GRIDFORMAT_END
 95
       16
302
GRIDFORMAT
  1
GRIDFORMAT_BEGIN
 90
        0
 91
        1
 62
     0
 92
       -2
340
0
 93
        0
 40
0.045
309
GRIDFORMAT_END
 95
       32
302
GRIDFORMAT
  1
GRIDFORMAT_BEGIN
 90
        0
 91
        1
 62
     0
 92
       -2
340
0
 93
        0
 40
0.045
309
GRIDFORMAT_END
309
TABLEFORMAT_END
  1
CELLSTYLE_BEGIN
 90
        2
 91
        1
300
_HEADER
309
CELLSTYLE_END
300
CELLSTYLE
  1
TABLEFORMAT_BEGIN
 90
        5
170
     1
 91
        0
 92
        0
 62
   257
 93
        1
300
CONTENTFORMAT
  1
CONTENTFORMAT_BEGIN
 90
        0
 91
        0
 92
        4
 93
        0
300

 40
0.0
140
1.0
 94
        2
 62
     0
340
17
144
4.5
309
CONTENTFORMAT_END
171
     1
301
MARGIN
  1
CELLMARGIN_BEGIN
 40
0.06
 40
0.06
 40
0.06
 40
0.06
 40
0.18
 40
0.18
309
CELLMARGIN_END
 94
        6
 95
        1
302
GRIDFORMAT
  1
GRIDFORMAT_BEGIN
 90
        0
 91
        1
 62
     0
 92
       -2
340
0
 93
        0
 40
0.045
309
GRIDFORMAT_END
 95
        2
302
GRIDFORMAT
  1
GRIDFORMAT_BEGIN
 90
        0
 91
        1
 62
     0
 92
       -2
340
0
 93
        0
 40
0.045
309
GRIDFORMAT_END
 95
        4
302
GRIDFORMAT
  1
GRIDFORMAT_BEGIN
 90
        0
 91
        1
 62
     0
 92
       -2
340
0
 93
        0
 40
0.045
309
GRIDFORMAT_END
 95
        8
302
GRIDFORMAT
  1
GRIDFORMAT_BEGIN
 90
        0
 91
        1
 62
     0
 92
       -2
340
0
 93
        0
 40
0.045
309
GRIDFORMAT_END
 95
       16
302
GRIDFORMAT
  1
GRIDFORMAT_BEGIN
 90
        0
 91
        1
 62
     0
 92
       -2
340
0
 93
        0
 40
0.045
309
GRIDFORMAT_END
 95
       32
302
GRIDFORMAT
  1
GRIDFORMAT_BEGIN
 90
        0
 91
        1
 62
     0
 92
       -2
340
0
 93
        0
 40
0.045
309
GRIDFORMAT_END
309
TABLEFORMAT_END
  1
CELLSTYLE_BEGIN
 90
        3
 91
        2
300
_DATA
309
CELLSTYLE_END
  0
ENDSEC
  0
EOF
