  0
SECTION
  2
HEADER
  9
$ACADVER
  1
AC1021
  9
$ACADMAINTVER
 70
    25
  9
$DWGCODEPAGE
  3
ANSI_932
  9
$LASTSAVEDBY
  1
howeNelson
  9
$INSBASE
 10
0.0
 20
0.0
 30
0.0
  9
$EXTMIN
 10
0.0
 20
0.0
 30
0.0
  9
$EXTMAX
 10
593.9999999999999
 20
420.0
 30
0.0
  9
$LIMMIN
 10
0.0
 20
0.0
  9
$LIMMAX
 10
593.9999999999999
 20
420.0
  9
$ORTHOMODE
 70
     0
  9
$REGENMODE
 70
     1
  9
$FILLMODE
 70
     1
  9
$QTEXTMODE
 70
     0
  9
$MIRRTEXT
 70
     1
  9
$LTSCALE
 40
0.5
  9
$ATTMODE
 70
     1
  9
$TEXTSIZE
 40
136.139079520063
  9
$TRACEWID
 40
1.0
  9
$TEXTSTYLE
  7
ＭＳ ゴシック
  9
$CLAYER
  8
寸法
  9
$CELTYPE
  6
ByLayer
  9
$CECOLOR
 62
   256
  9
$CELTSCALE
 40
1.0
  9
$DISPSILH
 70
     0
  9
$DIMSCALE
 40
1.0
  9
$DIMASZ
 40
2.0
  9
$DIMEXO
 40
5.0
  9
$DIMDLI
 40
0.9999999999999999
  9
$DIMRND
 40
0.0
  9
$DIMDLE
 40
0.0
  9
$DIMEXE
 40
0.0
  9
$DIMTP
 40
0.0
  9
$DIMTM
 40
0.0
  9
$DIMTXT
 40
5.0
  9
$DIMCEN
 40
0.0
  9
$DIMTSZ
 40
0.0
  9
$DIMTOL
 70
     0
  9
$DIMLIM
 70
     0
  9
$DIMTIH
 70
     0
  9
$DIMTOH
 70
     0
  9
$DIMSE1
 70
     0
  9
$DIMSE2
 70
     0
  9
$DIMTAD
 70
     1
  9
$DIMZIN
 70
    11
  9
$DIMBLK
  1
DOT
  9
$DIMASO
 70
     1
  9
$DIMSHO
 70
     1
  9
$DIMPOST
  1
<>
  9
$DIMAPOST
  1
[]
  9
$DIMALT
 70
     0
  9
$DIMALTD
 70
     1
  9
$DIMALTF
 40
1.0
  9
$DIMLFAC
 40
1.0
  9
$DIMTOFL
 70
     0
  9
$DIMTVP
 40
0.0
  9
$DIMTIX
 70
     1
  9
$DIMSOXD
 70
     0
  9
$DIMSAH
 70
     0
  9
$DIMBLK1
  1

  9
$DIMBLK2
  1

  9
$DIMSTYLE
  2
tfrom線あり
  9
$DIMCLRD
 70
     0
  9
$DIMCLRE
 70
     0
  9
$DIMCLRT
 70
     0
  9
$DIMTFAC
 40
1.0
  9
$DIMGAP
 40
5.0
  9
$DIMJUST
 70
     0
  9
$DIMSD1
 70
     0
  9
$DIMSD2
 70
     0
  9
$DIMTOLJ
 70
     1
  9
$DIMTZIN
 70
    11
  9
$DIMALTZ
 70
    11
  9
$DIMALTTZ
 70
    11
  9
$DIMUPT
 70
     0
  9
$DIMDEC
 70
     0
  9
$DIMTDEC
 70
     1
  9
$DIMALTU
 70
     2
  9
$DIMALTTD
 70
     2
  9
$DIMTXSTY
  7
ＭＳ ゴシック
  9
$DIMAUNIT
 70
     0
  9
$DIMADEC
 70
     2
  9
$DIMALTRND
 40
0.0
  9
$DIMAZIN
 70
     0
  9
$DIMDSEP
 70
    46
  9
$DIMATFIT
 70
     0
  9
$DIMFRAC
 70
     2
  9
$DIMLDRBLK
  1
DOT
  9
$DIMLUNIT
 70
     2
  9
$DIMLWD
 70
    -2
  9
$DIMLWE
 70
    -2
  9
$DIMTMOVE
 70
     0
  9
$DIMFXL
 40
1.0
  9
$DIMFXLON
 70
     0
  9
$DIMJOGANG
 40
0.7853981633974483
  9
$DIMTFILL
 70
     0
  9
$DIMTFILLCLR
 70
     0
  9
$DIMARCSYM
 70
     0
  9
$DIMLTYPE
  6

  9
$DIMLTEX1
  6

  9
$DIMLTEX2
  6

  9
$LUNITS
 70
     2
  9
$LUPREC
 70
     0
  9
$SKETCHINC
 40
0.1
  9
$FILLETRAD
 40
0.0
  9
$AUNITS
 70
     0
  9
$AUPREC
 70
     0
  9
$MENU
  1
acad
  9
$ELEVATION
 40
0.0
  9
$PELEVATION
 40
0.0
  9
$THICKNESS
 40
0.0
  9
$LIMCHECK
 70
     0
  9
$CHAMFERA
 40
0.0
  9
$CHAMFERB
 40
0.0
  9
$CHAMFERC
 40
0.0
  9
$CHAMFERD
 40
0.0
  9
$SKPOLY
 70
     0
  9
$TDCREATE
 40
2447893.375
  9
$TDUCREATE
 40
0.0
  9
$TDUPDATE
 40
2457663.547964537
  9
$TDUUPDATE
 40
2457663.172964537
  9
$TDINDWG
 40
0.0
  9
$TDUSRTIMER
 40
0.0
  9
$USRTIMER
 70
     1
  9
$ANGBASE
 50
0.0
  9
$ANGDIR
 70
     0
  9
$PDMODE
 70
     1
  9
$PDSIZE
 40
-2.0
  9
$PLINEWID
 40
0.0
  9
$SPLFRAME
 70
     0
  9
$SPLINETYPE
 70
     6
  9
$SPLINESEGS
 70
     8
  9
$HANDSEED
  5
5195
  9
$SURFTAB1
 70
     6
  9
$SURFTAB2
 70
     6
  9
$SURFTYPE
 70
     6
  9
$SURFU
 70
     6
  9
$SURFV
 70
     6
  9
$UCSBASE
  2

  9
$UCSNAME
  2

  9
$UCSORG
 10
0.0
 20
0.0
 30
0.0
  9
$UCSXDIR
 10
1.0
 20
0.0
 30
0.0
  9
$UCSYDIR
 10
0.0
 20
1.0
 30
0.0
  9
$UCSORTHOREF
  2

  9
$UCSORTHOVIEW
 70
     1
  9
$UCSORGTOP
 10
0.0
 20
0.0
 30
0.0
  9
$UCSORGBOTTOM
 10
0.0
 20
0.0
 30
0.0
  9
$UCSORGLEFT
 10
0.0
 20
0.0
 30
0.0
  9
$UCSORGRIGHT
 10
0.0
 20
0.0
 30
0.0
  9
$UCSORGFRONT
 10
0.0
 20
0.0
 30
0.0
  9
$UCSORGBACK
 10
0.0
 20
0.0
 30
0.0
  9
$PUCSBASE
  2

  9
$PUCSNAME
  2

  9
$PUCSORG
 10
0.0
 20
0.0
 30
0.0
  9
$PUCSXDIR
 10
1.0
 20
0.0
 30
0.0
  9
$PUCSYDIR
 10
0.0
 20
1.0
 30
0.0
  9
$PUCSORTHOREF
  2

  9
$PUCSORTHOVIEW
 70
     0
  9
$PUCSORGTOP
 10
0.0
 20
0.0
 30
0.0
  9
$PUCSORGBOTTOM
 10
0.0
 20
0.0
 30
0.0
  9
$PUCSORGLEFT
 10
0.0
 20
0.0
 30
0.0
  9
$PUCSORGRIGHT
 10
0.0
 20
0.0
 30
0.0
  9
$PUCSORGFRONT
 10
0.0
 20
0.0
 30
0.0
  9
$PUCSORGBACK
 10
0.0
 20
0.0
 30
0.0
  9
$USERI1
 70
     0
  9
$USERI2
 70
     0
  9
$USERI3
 70
     0
  9
$USERI4
 70
     0
  9
$USERI5
 70
     0
  9
$USERR1
 40
0.0
  9
$USERR2
 40
0.0
  9
$USERR3
 40
0.0
  9
$USERR4
 40
0.0
  9
$USERR5
 40
0.0
  9
$WORLDVIEW
 70
     1
  9
$SHADEDGE
 70
     3
  9
$SHADEDIF
 70
    70
  9
$TILEMODE
 70
     1
  9
$MAXACTVP
 70
    64
  9
$PINSBASE
 10
0.0
 20
0.0
 30
0.0
  9
$PLIMCHECK
 70
     0
  9
$PEXTMIN
 10
0.0
 20
0.0
 30
0.0
  9
$PEXTMAX
 10
0.0
 20
0.0
 30
0.0
  9
$PLIMMIN
 10
-95.87226993865028
 20
-25.69999999999999
  9
$PLIMMAX
 10
201.1277300613497
 20
184.3
  9
$UNITMODE
 70
     0
  9
$VISRETAIN
 70
     0
  9
$PLINEGEN
 70
     1
  9
$PSLTSCALE
 70
     0
  9
$TREEDEPTH
 70
  3020
  9
$CMLSTYLE
  2
Standard
  9
$CMLJUST
 70
     0
  9
$CMLSCALE
 40
1.0
  9
$PROXYGRAPHICS
 70
     0
  9
$MEASUREMENT
 70
     1
  9
$CELWEIGHT
370
    -1
  9
$ENDCAPS
280
     0
  9
$JOINSTYLE
280
     0
  9
$LWDISPLAY
290
     1
  9
$INSUNITS
 70
     4
  9
$HYPERLINKBASE
  1

  9
$STYLESHEET
  1

  9
$XEDIT
290
     1
  9
$CEPSNTYPE
380
     0
  9
$PSTYLEMODE
290
     1
  9
$FINGERPRINTGUID
  2

  9
$VERSIONGUID
  2

  9
$EXTNAMES
290
     1
  9
$PSVPSCALE
 40
0.0
  9
$OLESTARTUP
290
     0
  9
$SORTENTS
280
   127
  9
$INDEXCTL
280
     0
  9
$HIDETEXT
280
     1
  9
$XCLIPFRAME
290
     0
  9
$HALOGAP
280
     0
  9
$OBSCOLOR
 70
   257
  9
$OBSLTYPE
280
     0
  9
$INTERSECTIONDISPLAY
280
     0
  9
$INTERSECTIONCOLOR
 70
   257
  9
$DIMASSOC
280
     2
  9
$PROJECTNAME
  1

  9
$CAMERADISPLAY
290
     0
  9
$LENSLENGTH
 40
50.0
  9
$CAMERAHEIGHT
 40
0.0
  9
$STEPSPERSEC
 40
2.0
  9
$STEPSIZE
 40
6.0
  9
$3DDWFPREC
 40
2.0
  9
$PSOLWIDTH
 40
0.25
  9
$PSOLHEIGHT
 40
4.0
  9
$LOFTANG1
 40
1.570796326794897
  9
$LOFTANG2
 40
1.570796326794897
  9
$LOFTMAG1
 40
0.0
  9
$LOFTMAG2
 40
0.0
  9
$LOFTPARAM
 70
     7
  9
$LOFTNORMALS
280
     1
  9
$LATITUDE
 40
37.795
  9
$LONGITUDE
 40
-122.394
  9
$NORTHDIRECTION
 40
0.0
  9
$TIMEZONE
 70
 -8000
  9
$LIGHTGLYPHDISPLAY
280
     1
  9
$TILEMODELIGHTSYNCH
280
     1
  9
$SOLIDHIST
280
     1
  9
$SHOWHIST
280
     1
  9
$DWFFRAME
280
     2
  9
$DGNFRAME
280
     2
  9
$REALWORLDSCALE
290
     1
  9
$INTERFERECOLOR
 62
   256
  9
$CSHADOW
280
     0
  9
$SHADOWPLANELOCATION
 40
0.0
  0
ENDSEC
  0
SECTION
  2
CLASSES
  0
CLASS
  1
LWPOLYLINE
  2
AcDbPolyline
  3
ObjectDBX Classes
 90
        0
 91
        1
280
     0
281
     1
  0
CLASS
  1
IMAGE
  2
AcDbRasterImage
  3
ISM
 90
      127
 91
       28
280
     0
281
     1
  0
CLASS
  1
OLE2FRAME
  2
AcDbOle2Frame
  3
ObjectDBX Classes
 90
        0
 91
        1
280
     0
281
     1
  0
CLASS
  1
HATCH
  2
AcDbHatch
  3
ObjectDBX Classes
 90
        0
 91
        1
280
     0
281
     1
  0
CLASS
  1
DICTIONARYVAR
  2
AcDbDictionaryVar
  3
ObjectDBX Classes
 90
        0
 91
       27
280
     0
281
     0
  0
CLASS
  1
RASTERVARIABLES
  2
AcDbRasterVariables
  3
ISM
 90
        0
 91
       27
280
     0
281
     0
  0
CLASS
  1
IMAGEDEF
  2
AcDbRasterImageDef
  3
ISM
 90
        0
 91
       27
280
     0
281
     0
  0
CLASS
  1
IMAGEDEF_REACTOR
  2
AcDbRasterImageDefReactor
  3
ISM
 90
        1
 91
       27
280
     0
281
     0
  0
CLASS
  1
IDBUFFER
  2
AcDbIdBuffer
  3
ObjectDBX Classes
 90
        0
 91
       27
280
     0
281
     0
  0
CLASS
  1
SPATIAL_FILTER
  2
AcDbSpatialFilter
  3
ObjectDBX Classes
 90
        0
 91
       27
280
     0
281
     0
  0
CLASS
  1
XRECORD
  2
AcDbXrecord
  3
ObjectDBX Classes
 90
        0
 91
        1
280
     0
281
     0
  0
CLASS
  1
SORTENTSTABLE
  2
AcDbSortentsTable
  3
ObjectDBX Classes
 90
        0
 91
       27
280
     0
281
     0
  0
CLASS
  1
LAYER_INDEX
  2
AcDbLayerIndex
  3
ObjectDBX Classes
 90
        0
 91
       27
280
     0
281
     0
  0
CLASS
  1
SPATIAL_INDEX
  2
AcDbSpatialIndex
  3
AutoCAD 2000
 90
        0
 91
       27
280
     0
281
     0
  0
CLASS
  1
OBJECT_PTR
  2
CAseDLPNTableRecord
  3
ASE-LPNTableRecord
 90
        1
 91
       27
280
     0
281
     0
  0
CLASS
  1
LAYOUT
  2
AcDbLayout
  3
ObjectDBX Classes
 90
        0
 91
        1
280
     0
281
     0
  0
CLASS
  1
PLOTSETTINGS
  2
AcDbPlotSettings
  3
ObjectDBX Classes
 90
        0
 91
       27
280
     0
281
     0
  0
CLASS
  1
ACDBDICTIONARYWDFLT
  2
AcDbDictionaryWithDefault
  3
ObjectDBX Classes
 90
        0
 91
       27
280
     0
281
     0
  0
CLASS
  1
ACDBPLACEHOLDER
  2
AcDbPlaceHolder
  3
ObjectDBX Classes
 90
        0
 91
        1
280
     0
281
     0
  0
CLASS
  1
SCALE
  2
AcDbScale
  3
ObjectDBX Classes
 90
     1153
 91
       27
280
     0
281
     0
  0
CLASS
  1
MATERIAL
  2
AcDbMaterial
  3
ObjectDBX Classes
 90
     1153
 91
       27
280
     0
281
     0
  0
CLASS
  1
VISUALSTYLE
  2
AcDbVisualStyle
  3
ObjectDBX Classes
 90
     4095
 91
       27
280
     0
281
     0
  0
CLASS
  1
TABLESTYLE
  2
AcDbTableStyle
  3
ObjectDBX Classes
 90
     4095
 91
       27
280
     0
281
     0
  0
CLASS
  1
DIMASSOC
  2
AcDbDimAssoc
  3
"AcDbDimAssoc|Product Desc:     AcDim ARX App For Dimension|Company:          Autodesk, Inc.|WEB Address:      www.autodesk.com"
 90
        0
 91
       27
280
     0
281
     0
  0
CLASS
  1
CELLSTYLEMAP
  2
AcDbCellStyleMap
  3
ObjectDBX Classes
 90
     1152
 91
       27
280
     0
281
     0
  0
CLASS
  1
SUN
  2
AcDbSun
  3
SCENEOE
 90
     1153
 91
       27
280
     0
281
     0
  0
CLASS
  1
MLEADERSTYLE
  2
AcDbMLeaderStyle
  3
ACDB_MLEADERSTYLE_CLASS
 90
     4095
 91
       27
280
     0
281
     0
  0
CLASS
  1
FIELD
  2
AcDbField
  3
ObjectDBX Classes
 90
     1152
 91
       15
280
     0
281
     0
  0
CLASS
  1
FIELDLIST
  2
AcDbFieldList
  3
ObjectDBX Classes
 90
     1152
 91
       15
280
     0
281
     0
  0
ENDSEC
  0
SECTION
  2
TABLES
  0
TABLE
  2
VPORT
  5
7
330
0
100
AcDbSymbolTable
 70
     1
  0
VPORT
  5
15
330
7
100
AcDbSymbolTableRecord
100
AcDbViewportTableRecord
  2
*ACTIVE
 70
     0
 10
0.0
 20
0.0
 11
1.0
 21
1.0
 12
296.9999999999999
 22
210.0
 13
0.0
 23
0.0
 14
1.0
 24
1.0
 15
0.0
 25
0.0
 16
0.0
 26
0.0
 36
1.0
 17
0.0
 27
0.0
 37
0.0
 40
428.4
 41
2.292582417582417
 42
50.0
 43
0.0
 44
0.0
 50
0.0
 51
0.0
 71
    16
 72
  2000
 73
     1
 74
     1
 75
     0
 76
     0
 77
     0
 78
     1
281
     0
 65
     0
110
0.0
120
0.0
130
0.0
111
1.0
121
0.0
131
0.0
112
0.0
122
1.0
132
0.0
 79
     0
146
0.0
348
26C
 60
     3
 61
     5
292
     1
282
     1
141
0.0
142
0.0
 63
   256
361
10E8
  0
ENDTAB
  0
TABLE
  2
LTYPE
  5
4
330
0
100
AcDbSymbolTable
 70
     3
  0
LTYPE
  5
11
330
4
100
AcDbSymbolTableRecord
100
AcDbLinetypeTableRecord
  2
ByBlock
 70
     0
  3

 72
    65
 73
     0
 40
0.0
  0
LTYPE
  5
12
330
4
100
AcDbSymbolTableRecord
100
AcDbLinetypeTableRecord
  2
ByLayer
 70
     0
  3
Solid line
 72
    65
 73
     0
 40
0.0
  0
LTYPE
  5
13
330
4
100
AcDbSymbolTableRecord
100
AcDbLinetypeTableRecord
  2
Continuous
 70
     0
  3
Solid line
 72
    65
 73
     0
 40
0.0
  0
LTYPE
  5
88D
330
4
100
AcDbSymbolTableRecord
100
AcDbLinetypeTableRecord
  2
CENTER
 70
     0
  3
----------  --  ----------  --  
 72
    65
 73
     4
 40
20.0
 49
12.5
 74
     0
 49
-2.5
 74
     0
 49
2.5
 74
     0
 49
-2.5
 74
     0
  0
LTYPE
  5
12C7
330
4
100
AcDbSymbolTableRecord
100
AcDbLinetypeTableRecord
  2
HIDDEN
 70
     0
  3
Hidden _ _ _ _ _ _ _ _ _ _ _ _ _ _ _ _ _ _ _ _ 
 72
    65
 73
     2
 40
9.524999999999999
 49
6.35
 74
     0
 49
-3.175
 74
     0
  0
ENDTAB
  0
TABLE
  2
LAYER
  5
2
102
{ACAD_XDICTIONARY
360
2E1
102
}
330
0
100
AcDbSymbolTable
 70
     8
  0
LAYER
  5
14
330
2
100
AcDbSymbolTableRecord
100
AcDbLayerTableRecord
  2
0
 70
     0
 62
     7
  6
Continuous
370
    -3
390
1D
347
266
  0
LAYER
  5
4A
330
2
100
AcDbSymbolTableRecord
100
AcDbLayerTableRecord
  2
Defpoints
 70
     0
 62
     7
  6
Continuous
290
     0
370
    -3
390
1D
347
266
  0
LAYER
  5
12CE
330
2
100
AcDbSymbolTableRecord
100
AcDbLayerTableRecord
  2
寸法
 70
     0
 62
     7
  6
Continuous
370
    13
390
1D
347
266
1001
AcAecLayerStandard
1000

1000

  0
LAYER
  5
12CF
330
2
100
AcDbSymbolTableRecord
100
AcDbLayerTableRecord
  2
モデル
 70
     0
 62
     7
  6
Continuous
370
    20
390
1D
347
266
1001
AcAecLayerStandard
1000

1000

  0
LAYER
  5
142A
330
2
100
AcDbSymbolTableRecord
100
AcDbLayerTableRecord
  2
テンプレート
 70
     0
 62
     7
  6
Continuous
370
    20
390
1D
347
266
1001
AcAecLayerStandard
1000

1000

  0
LAYER
  5
1D5C
330
2
100
AcDbSymbolTableRecord
100
AcDbLayerTableRecord
  2
TFORMLOGO
 70
     0
 62
     7
  6
Continuous
370
    20
390
1D
347
266
  0
LAYER
  5
3848
330
2
100
AcDbSymbolTableRecord
100
AcDbLayerTableRecord
  2
PRINT BORDER
 70
     0
 62
     4
  6
Continuous
290
     0
370
    -3
390
1D
347
266
1001
AcAecLayerStandard
1000

1000

  0
LAYER
  5
50BB
330
2
100
AcDbSymbolTableRecord
100
AcDbLayerTableRecord
  2
MODEL
 70
     0
 62
     7
  6
Continuous
370
    20
390
1D
347
266
  0
ENDTAB
  0
TABLE
  2
STYLE
  5
3
330
0
100
AcDbSymbolTable
 70
     2
  0
STYLE
  5
17
330
3
100
AcDbSymbolTableRecord
100
AcDbTextStyleTableRecord
  2
Standard
 70
     0
 40
0.0
 41
1.0
 50
0.0
 71
     0
 42
2.5
  3
txt
  4
BIGFONT.SHX
  0
STYLE
  5
39
330
3
100
AcDbSymbolTableRecord
100
AcDbTextStyleTableRecord
  2
ＭＳ ゴシック
 70
     0
 40
0.0
 41
1.0
 50
0.0
 71
     0
 42
136.139079520063
  3
msgothic.ttc
  4
ＭＳ ゴシック
1001
ACAD
1000
ＭＳ ゴシック
1071
        0
  0
ENDTAB
  0
TABLE
  2
VIEW
  5
5
330
0
100
AcDbSymbolTable
 70
     0
  0
ENDTAB
  0
TABLE
  2
UCS
  5
6
330
0
100
AcDbSymbolTable
 70
     0
  0
ENDTAB
  0
TABLE
  2
APPID
  5
8
330
0
100
AcDbSymbolTable
 70
     3
  0
APPID
  5
16
330
8
100
AcDbSymbolTableRecord
100
AcDbRegAppTableRecord
  2
ACAD
 70
     0
  0
APPID
  5
7AC
330
8
100
AcDbSymbolTableRecord
100
AcDbRegAppTableRecord
  2
AcAecLayerStandard
 70
     0
  0
APPID
  5
478C
330
8
100
AcDbSymbolTableRecord
100
AcDbRegAppTableRecord
  2
ACAD_MLEADERVER
 70
     0
  0
ENDTAB
  0
TABLE
  2
DIMSTYLE
  5
9
330
0
100
AcDbSymbolTable
 70
     2
100
AcDbDimStyleTable
  0
DIMSTYLE
105
18
330
9
100
AcDbSymbolTableRecord
100
AcDbDimStyleTableRecord
  2
Standard
 70
     0
178
     0
340
17
  0
DIMSTYLE
105
57
102
{ACAD_REACTORS
330
4B13
330
4B22
330
4B31
330
4ED4
330
4EE9
330
4F34
330
4F35
102
}
330
9
100
AcDbSymbolTableRecord
100
AcDbDimStyleTableRecord
  2
tfrom線あり
 70
     0
  3
<>
  4
[]
 41
2.0
 42
5.0
 43
0.9999999999999999
 44
0.0
 73
     0
 74
     0
 77
     1
 78
    11
140
5.0
141
0.0
143
1.0
147
5.0
171
     1
174
     1
178
     0
179
     2
271
     0
272
     1
276
     2
284
    11
285
    11
286
    11
289
     0
340
39
341
4E
342
4E
  0
ENDTAB
  0
TABLE
  2
BLOCK_RECORD
  5
1
330
0
100
AcDbSymbolTable
 70
    11
  0
BLOCK_RECORD
  5
A
102
{ACAD_XDICTIONARY
360
45FB
102
}
330
1
100
AcDbSymbolTableRecord
100
AcDbBlockTableRecord
  2
*MODEL_SPACE
340
20
 70
     0
280
     1
281
     0
  0
BLOCK_RECORD
  5
B
330
1
100
AcDbSymbolTableRecord
100
AcDbBlockTableRecord
  2
*PAPER_SPACE
340
21
 70
     0
280
     1
281
     0
  0
BLOCK_RECORD
  5
4E
330
1
100
AcDbSymbolTableRecord
100
AcDbBlockTableRecord
  2
_DOT
340
0
102
{BLKREFS
331
4B1C
331
4B1D
331
4B2B
331
4B2C
331
4B3A
331
4B3B
331
5007
331
5008
331
5013
331
5014
331
501F
331
5020
331
502B
331
502C
102
}
 70
     0
280
     1
281
     0
  0
BLOCK_RECORD
  5
12C3
330
1
100
AcDbSymbolTableRecord
100
AcDbBlockTableRecord
  2
*Paper_Space1
340
12C4
 70
     0
280
     1
281
     0
  0
BLOCK_RECORD
  5
1D88
330
1
100
AcDbSymbolTableRecord
100
AcDbBlockTableRecord
  2
名称未設定-1
340
0
102
{BLKREFS
331
36E3
102
}
 70
     1
280
     1
281
     0
  0
BLOCK_RECORD
  5
1D8B
330
1
100
AcDbSymbolTableRecord
100
AcDbBlockTableRecord
  2
block 2
340
0
102
{BLKREFS
331
1D8A
102
}
 70
     0
280
     1
281
     0
  0
BLOCK_RECORD
  5
4B16
330
1
100
AcDbSymbolTableRecord
100
AcDbBlockTableRecord
  2
*D4
340
0
 70
     0
280
     1
281
     0
  0
BLOCK_RECORD
  5
4B25
330
1
100
AcDbSymbolTableRecord
100
AcDbBlockTableRecord
  2
*D5
340
0
 70
     0
280
     1
281
     0
  0
BLOCK_RECORD
  5
4B34
330
1
100
AcDbSymbolTableRecord
100
AcDbBlockTableRecord
  2
*D6
340
0
 70
     0
280
     1
281
     0
  0
BLOCK_RECORD
  5
5001
330
1
100
AcDbSymbolTableRecord
100
AcDbBlockTableRecord
  2
*D7
340
0
 70
     0
280
     1
281
     0
  0
BLOCK_RECORD
  5
500D
330
1
100
AcDbSymbolTableRecord
100
AcDbBlockTableRecord
  2
*D8
340
0
 70
     0
280
     1
281
     0
  0
BLOCK_RECORD
  5
5019
330
1
100
AcDbSymbolTableRecord
100
AcDbBlockTableRecord
  2
*D9
340
0
 70
     0
280
     1
281
     0
  0
BLOCK_RECORD
  5
5025
330
1
100
AcDbSymbolTableRecord
100
AcDbBlockTableRecord
  2
*D10
340
0
 70
     0
280
     1
281
     0
  0
ENDTAB
  0
ENDSEC
  0
SECTION
  2
BLOCKS
  0
BLOCK
  5
D
330
A
100
AcDbEntity
  8
0
390
1D
100
AcDbBlockBegin
  2
*MODEL_SPACE
 70
     0
 10
0.0
 20
0.0
 30
0.0
  3
*MODEL_SPACE
  1
*MODEL_SPACE
  0
ENDBLK
  5
E
330
A
100
AcDbEntity
  8
0
390
1D
100
AcDbBlockEnd
  0
BLOCK
  5
F
330
B
100
AcDbEntity
 67
     1
  8
0
390
1D
100
AcDbBlockBegin
  2
*PAPER_SPACE
 70
     0
 10
0.0
 20
0.0
 30
0.0
  3
*PAPER_SPACE
  1
*PAPER_SPACE
  0
ENDBLK
  5
10
330
B
100
AcDbEntity
 67
     1
  8
0
390
1D
100
AcDbBlockEnd
  0
BLOCK
  5
1066
330
4E
100
AcDbEntity
  8
0
390
1D
100
AcDbBlockBegin
  2
_DOT
 70
     0
 10
0.0
 20
0.0
 30
0.0
  3
_DOT
  1
_DOT
  0
POLYLINE
  5
1068
330
4E
100
AcDbEntity
  8
0
  6
ByBlock
 62
     0
370
    -2
390
1D
100
AcDb2dPolyline
 66
     1
 10
0.0
 20
0.0
 30
0.0
 70
     1
 40
0.5
 41
0.5
  0
VERTEX
  5
1069
330
1068
100
AcDbEntity
  8
0
  6
ByBlock
 62
     0
370
    -2
390
1D
100
AcDbVertex
100
AcDb2dVertex
 10
-0.25
 20
0.0
 30
0.0
 42
1.0
  0
VERTEX
  5
106A
330
1068
100
AcDbEntity
  8
0
  6
ByBlock
 62
     0
370
    -2
390
1D
100
AcDbVertex
100
AcDb2dVertex
 10
0.25
 20
0.0
 30
0.0
 42
1.0
  0
SEQEND
  5
106B
330
1068
100
AcDbEntity
  8
0
390
1D
  0
LINE
  5
106C
330
4E
100
AcDbEntity
  8
0
  6
ByBlock
 62
     0
370
    -2
390
1D
100
AcDbLine
 10
-0.5
 20
0.0
 30
0.0
 11
-1.0
 21
0.0
 31
0.0
  0
ENDBLK
  5
106D
330
4E
100
AcDbEntity
  8
0
390
1D
100
AcDbBlockEnd
  0
BLOCK
  5
12C5
330
12C3
100
AcDbEntity
  8
0
100
AcDbBlockBegin
  2
*Paper_Space1
 70
     0
 10
0.0
 20
0.0
 30
0.0
  3
*Paper_Space1
  1
*Paper_Space83
  0
ENDBLK
  5
12C6
330
12C3
100
AcDbEntity
  8
0
100
AcDbBlockEnd
  0
BLOCK
  5
1D89
330
1D88
100
AcDbEntity
  8
0
100
AcDbBlockBegin
  2
名称未設定-1
 70
     0
 10
0.0
 20
0.0
 30
0.0
  3
名称未設定-1
  1
名称未設定-1
  0
INSERT
  5
1D8A
330
1D88
100
AcDbEntity
  8
TFORMLOGO
100
AcDbBlockReference
  2
block 2
 10
0.0
 20
0.0
 30
0.0
  0
ENDBLK
  5
1DAF
330
1D88
100
AcDbEntity
  8
0
100
AcDbBlockEnd
  0
BLOCK
  5
1D8C
330
1D8B
100
AcDbEntity
  8
0
100
AcDbBlockBegin
  2
block 2
 70
     0
 10
0.0
 20
0.0
 30
0.0
  3
block 2
  1
block 2
  0
SPLINE
  5
4753
330
1D8B
100
AcDbEntity
  8
TFORMLOGO
 62
    18
420
        0
370
     0
100
AcDbSpline
210
0.0
220
0.0
230
1.0
 70
    11
 71
     3
 72
    38
 73
    34
 74
     0
 42
0.000000001
 43
0.0000000001
 40
0.0
 40
0.0
 40
0.0
 40
0.0
 40
1.0
 40
1.0
 40
1.0
 40
2.0
 40
2.0
 40
2.0
 40
3.0
 40
3.0
 40
3.0
 40
4.0
 40
4.0
 40
4.0
 40
5.0
 40
5.0
 40
5.0
 40
6.0
 40
6.0
 40
6.0
 40
7.0
 40
7.0
 40
7.0
 40
8.0
 40
8.0
 40
8.0
 40
9.0
 40
9.0
 40
9.0
 40
10.0
 40
10.0
 40
10.0
 40
11.0
 40
11.0
 40
11.0
 40
11.0
 10
126.3775545846356
 20
154.8151140277308
 30
0.0
 10
126.3775545846356
 20
154.8151140277308
 30
0.0
 10
128.831153207856
 20
154.8151140277308
 30
0.0
 10
128.831153207856
 20
154.8151140277308
 30
0.0
 10
128.831153207856
 20
154.8151140277308
 30
0.0
 10
127.7345785914972
 20
151.3062819612468
 30
0.0
 10
127.7345785914972
 20
151.3062819612468
 30
0.0
 10
128.5713928369064
 20
152.2922689395754
 30
0.0
 10
129.8860421413442
 20
153.604506675583
 30
0.0
 10
131.0163787157312
 20
154.2664822097754
 30
0.0
 10
132.704476617133
 20
155.2500576196734
 30
0.0
 10
133.6642808525007
 20
155.3847609420097
 30
0.0
 10
134.7284715499354
 20
155.3565111403944
 30
0.0
 10
134.7284715499354
 20
155.3565111403944
 30
0.0
 10
133.6877075172547
 20
152.0345756272799
 30
0.0
 10
133.6877075172547
 20
152.0345756272799
 30
0.0
 10
133.0114348273673
 20
152.3184516825359
 30
0.0
 10
130.9309402913341
 20
151.7768823149844
 30
0.0
 10
129.7392809768553
 20
150.9162968950455
 30
0.0
 10
128.66613302525
 20
150.1454562717016
 30
0.0
 10
127.9192358313235
 20
149.4857200510519
 30
0.0
 10
127.0393578639405
 20
147.8282835196966
 30
0.0
 10
126.164647543194
 20
146.1699857139017
 30
0.0
 10
125.4742499524987
 20
143.5262176944419
 30
0.0
 10
124.282246128244
 20
139.6959580071401
 30
0.0
 10
124.282246128244
 20
139.6959580071401
 30
0.0
 10
120.5753209406766
 20
127.8027915271048
 30
0.0
 10
120.5753209406766
 20
127.8027915271048
 30
0.0
 10
120.5753209406766
 20
127.8027915271048
 30
0.0
 10
118.1964809388046
 20
127.8027915271048
 30
0.0
 10
118.1964809388046
 20
127.8027915271048
 30
0.0
 10
118.1964809388046
 20
127.8027915271048
 30
0.0
 10
126.3775545846356
 20
154.8151140277308
 30
0.0
 10
126.3775545846356
 20
154.8151140277308
 30
0.0
  0
SPLINE
  5
4754
330
1D8B
100
AcDbEntity
  8
TFORMLOGO
 62
    18
420
        0
370
     0
100
AcDbSpline
210
0.0
220
0.0
230
1.0
 70
    11
 71
     3
 72
   104
 73
   100
 74
     0
 42
0.000000001
 43
0.0000000001
 40
0.0
 40
0.0
 40
0.0
 40
0.0
 40
1.0
 40
1.0
 40
1.0
 40
2.0
 40
2.0
 40
2.0
 40
3.0
 40
3.0
 40
3.0
 40
4.0
 40
4.0
 40
4.0
 40
5.0
 40
5.0
 40
5.0
 40
6.0
 40
6.0
 40
6.0
 40
7.0
 40
7.0
 40
7.0
 40
8.0
 40
8.0
 40
8.0
 40
9.0
 40
9.0
 40
9.0
 40
10.0
 40
10.0
 40
10.0
 40
11.0
 40
11.0
 40
11.0
 40
12.0
 40
12.0
 40
12.0
 40
13.0
 40
13.0
 40
13.0
 40
14.0
 40
14.0
 40
14.0
 40
15.0
 40
15.0
 40
15.0
 40
16.0
 40
16.0
 40
16.0
 40
17.0
 40
17.0
 40
17.0
 40
18.0
 40
18.0
 40
18.0
 40
19.0
 40
19.0
 40
19.0
 40
20.0
 40
20.0
 40
20.0
 40
21.0
 40
21.0
 40
21.0
 40
22.0
 40
22.0
 40
22.0
 40
23.0
 40
23.0
 40
23.0
 40
24.0
 40
24.0
 40
24.0
 40
25.0
 40
25.0
 40
25.0
 40
26.0
 40
26.0
 40
26.0
 40
27.0
 40
27.0
 40
27.0
 40
28.0
 40
28.0
 40
28.0
 40
29.0
 40
29.0
 40
29.0
 40
30.0
 40
30.0
 40
30.0
 40
31.0
 40
31.0
 40
31.0
 40
32.0
 40
32.0
 40
32.0
 40
33.0
 40
33.0
 40
33.0
 40
33.0
 10
139.8926730891194
 20
154.8294111834263
 30
0.0
 10
139.8926730891194
 20
154.8294111834263
 30
0.0
 10
142.0344903652449
 20
154.8294111834263
 30
0.0
 10
142.0344903652449
 20
154.8294111834263
 30
0.0
 10
142.0344903652449
 20
154.8294111834263
 30
0.0
 10
140.9516961399172
 20
151.3157559800812
 30
0.0
 10
140.9516961399172
 20
151.3157559800812
 30
0.0
 10
141.8928968473924
 20
152.7887075264977
 30
0.0
 10
142.7341897198862
 20
153.4484437471474
 30
0.0
 10
143.8552245303276
 20
154.2926649527359
 30
0.0
 10
144.9803934580773
 20
155.1296514530327
 30
0.0
 10
146.3139908001845
 20
155.3044901642492
 30
0.0
 10
147.2410666068522
 20
155.3044901642492
 30
0.0
 10
148.3855280820471
 20
155.3044901642492
 30
0.0
 10
149.4969166187652
 20
155.0752189084569
 30
0.0
 10
150.0784491203094
 20
153.8172414621372
 30
0.0
 10
150.5228667310862
 20
152.833838307127
 30
0.0
 10
150.5414702589792
 20
152.7201500811143
 30
0.0
 10
150.4140016419351
 20
150.7765981809602
 30
0.0
 10
151.581889781884
 20
152.7699317437168
 30
0.0
 10
152.4424752018226
 20
153.6256940267945
 30
0.0
 10
153.9038856707502
 20
154.4507949398263
 30
0.0
 10
155.4455669174381
 20
155.3044901642492
 30
0.0
 10
156.3392252758531
 20
155.3659851592288
 30
0.0
 10
157.374821661896
 20
155.2147453676543
 30
0.0
 10
158.9116797717234
 20
154.9877134254046
 30
0.0
 10
159.885953417675
 20
154.4390816074493
 30
0.0
 10
160.3965169054045
 20
152.7816450760939
 30
0.0
 10
160.9070803931345
 20
151.1219692311958
 30
0.0
 10
160.632850611601
 20
150.2303779314354
 30
0.0
 10
159.9992971339116
 20
147.597634224801
 30
0.0
 10
159.7105979417938
 20
146.4014962832367
 30
0.0
 10
159.2947746424084
 20
144.9400858143094
 30
0.0
 10
158.7463150793405
 20
143.2092687007094
 30
0.0
 10
158.7463150793405
 20
143.2092687007094
 30
0.0
 10
153.9038856707502
 20
127.8027915271048
 30
0.0
 10
153.9038856707502
 20
127.8027915271048
 30
0.0
 10
153.9038856707502
 20
127.8027915271048
 30
0.0
 10
151.3882752878862
 20
127.8027915271048
 30
0.0
 10
151.3882752878862
 20
127.8027915271048
 30
0.0
 10
151.3882752878862
 20
127.8027915271048
 30
0.0
 10
155.6250565106279
 20
141.2751908193897
 30
0.0
 10
155.6250565106279
 20
141.2751908193897
 30
0.0
 10
156.5094131050964
 20
144.0936252951782
 30
0.0
 10
157.1098936443091
 20
146.1506931664571
 30
0.0
 10
157.4220195011803
 20
147.4415712963654
 30
0.0
 10
157.8095929989513
 20
149.0530157726519
 30
0.0
 10
157.9656559273863
 20
149.5826995529385
 30
0.0
 10
157.7816877071118
 20
150.7529992613181
 30
0.0
 10
157.6111553680926
 20
151.8430281919372
 30
0.0
 10
157.0582171779397
 20
152.5547853887321
 30
0.0
 10
156.1170164704645
 20
152.5547853887321
 30
0.0
 10
155.1096698860365
 20
152.5547853887321
 30
0.0
 10
154.2962823053817
 20
152.4412694176073
 30
0.0
 10
153.1566439670478
 20
151.2945686288697
 30
0.0
 10
152.0170056287143
 20
150.1476955852443
 30
0.0
 10
151.076149431015
 20
148.7930831468137
 30
0.0
 10
150.3337308641744
 20
147.2290087646991
 30
0.0
 10
149.5957909244185
 20
145.6683794803425
 30
0.0
 10
148.8530278478024
 20
143.6822806228776
 30
0.0
 10
148.0964843801535
 20
141.2751908193897
 30
0.0
 10
148.0964843801535
 20
141.2751908193897
 30
0.0
 10
143.8552245303276
 20
127.8027915271048
 30
0.0
 10
143.8552245303276
 20
127.8027915271048
 30
0.0
 10
143.8552245303276
 20
127.8027915271048
 30
0.0
 10
141.4860308021766
 20
127.8027915271048
 30
0.0
 10
141.4860308021766
 20
127.8027915271048
 30
0.0
 10
141.4860308021766
 20
127.8027915271048
 30
0.0
 10
146.3329388378534
 20
143.2092687007094
 30
0.0
 10
146.3329388378534
 20
143.2092687007094
 30
0.0
 10
146.8483254624448
 20
144.8408669988801
 30
0.0
 10
147.2314203331298
 20
146.1837661049335
 30
0.0
 10
147.4867020769948
 20
147.224185627838
 30
0.0
 10
147.9169947869636
 20
149.0197705792876
 30
0.0
 10
148.0306830129766
 20
150.2400242051577
 30
0.0
 10
147.7092553921589
 20
151.3157559800812
 30
0.0
 10
147.3874832615656
 20
152.3916600098926
 30
0.0
 10
146.824554287914
 20
152.6683013598569
 30
0.0
 10
145.8840425999911
 20
152.6683013598569
 30
0.0
 10
145.0989048209517
 20
152.6683013598569
 30
0.0
 10
144.3282364524957
 20
152.3275811915945
 30
0.0
 10
143.4531816219733
 20
151.6538923250251
 30
0.0
 10
142.3462717123398
 20
150.8074318058939
 30
0.0
 10
141.901854101563
 20
150.1097995099067
 30
0.0
 10
141.3578731655807
 20
149.289521733736
 30
0.0
 10
140.6299240093235
 20
148.192602607601
 30
0.0
 10
140.2850697237518
 20
147.455696197173
 30
0.0
 10
139.6652966370939
 20
145.8385673095858
 30
0.0
 10
139.0506911970738
 20
144.2214384219986
 30
0.0
 10
138.4639910488931
 20
142.3252566160164
 30
0.0
 10
138.0571250036778
 20
141.0154304484394
 30
0.0
 10
138.0571250036778
 20
141.0154304484394
 30
0.0
 10
133.9009590684727
 20
127.8027915271048
 30
0.0
 10
133.9009590684727
 20
127.8027915271048
 30
0.0
 10
133.9009590684727
 20
127.8027915271048
 30
0.0
 10
131.4180771143097
 20
127.8027915271048
 30
0.0
 10
131.4180771143097
 20
127.8027915271048
 30
0.0
 10
131.4180771143097
 20
127.8027915271048
 30
0.0
 10
139.8926730891194
 20
154.8294111834263
 30
0.0
 10
139.8926730891194
 20
154.8294111834263
 30
0.0
  0
HATCH
  5
4755
330
1D8B
100
AcDbEntity
  8
TFORMLOGO
 62
    18
420
        0
100
AcDbHatch
 10
0.0
 20
0.0
 30
0.0
210
0.0
220
0.0
230
1.0
  2
SOLID
 70
     1
 71
     0
 91
        1
 92
        1
 93
        1
 72
     4
 94
        3
 73
     0
 74
     1
 95
       56
 96
       52
 40
0.0
 40
0.0
 40
0.0
 40
0.0
 40
1.0
 40
1.0
 40
1.0
 40
2.0
 40
2.0
 40
2.0
 40
3.0
 40
3.0
 40
3.0
 40
4.0
 40
4.0
 40
4.0
 40
5.0
 40
5.0
 40
5.0
 40
6.0
 40
6.0
 40
6.0
 40
7.0
 40
7.0
 40
7.0
 40
8.0
 40
8.0
 40
8.0
 40
9.0
 40
9.0
 40
9.0
 40
10.0
 40
10.0
 40
10.0
 40
11.0
 40
11.0
 40
11.0
 40
12.0
 40
12.0
 40
12.0
 40
13.0
 40
13.0
 40
13.0
 40
14.0
 40
14.0
 40
14.0
 40
15.0
 40
15.0
 40
15.0
 40
16.0
 40
16.0
 40
16.0
 40
17.0
 40
17.0
 40
17.0
 40
17.0
 10
100.4504378777679
 20
166.69157178364
 10
101.9848844191642
 20
167.1313385124438
 10
103.963748571337
 20
166.7649523658846
 10
103.963748571337
 20
166.7649523658846
 10
103.963748571337
 20
166.7649523658846
 10
103.0132460999152
 20
163.911205638077
 10
103.0132460999152
 20
163.911205638077
 10
103.0132460999152
 20
163.911205638077
 10
101.0674548862189
 20
164.3601018759394
 10
99.57090442016033
 20
163.1805004036133
 10
98.40508333886646
 20
162.258247733807
 10
97.65301849830303
 20
159.804132345923
 10
97.35984067910067
 20
158.8699940888517
 10
97.35984067910067
 20
158.8699940888517
 10
96.07137411762278
 20
154.9119212747295
 10
96.07137411762278
 20
154.9119212747295
 10
96.07137411762278
 20
154.9119212747295
 10
100.3012651448485
 20
154.9119212747295
 10
100.3012651448485
 20
154.9119212747295
 10
100.3012651448485
 20
154.9119212747295
 10
99.64152892419816
 20
152.4199098115079
 10
99.64152892419816
 20
152.4199098115079
 10
99.64152892419816
 20
152.4199098115079
 10
95.38097652692704
 20
152.4199098115079
 10
95.38097652692704
 20
152.4199098115079
 10
95.38097652692704
 20
152.4199098115079
 10
87.75353009079981
 20
127.8027915271048
 10
87.75353009079981
 20
127.8027915271048
 10
87.75353009079981
 20
127.8027915271048
 10
85.36538832498081
 20
127.8027915271048
 10
85.36538832498081
 20
127.8027915271048
 10
85.36538832498081
 20
127.8027915271048
 10
93.00006946639996
 20
152.4199098115079
 10
93.00006946639996
 20
152.4199098115079
 10
93.00006946639996
 20
152.4199098115079
 10
89.85297266450198
 20
152.4199098115079
 10
89.85297266450198
 20
152.4199098115079
 10
89.85297266450198
 20
152.4199098115079
 10
90.51270888515137
 20
154.9119212747295
 10
90.51270888515137
 20
154.9119212747295
 10
90.51270888515137
 20
154.9119212747295
 10
93.6904670570957
 20
154.9119212747295
 10
93.6904670570957
 20
154.9119212747295
 10
93.6904670570957
 20
154.9119212747295
 10
94.81598049462127
 20
158.3616699146644
 10
94.81598049462127
 20
158.3616699146644
 10
95.7237637538442
 20
161.2605474231013
 10
96.49684369073111
 20
162.8139420021662
 10
97.15657991138096
 20
163.9844139654337
 10
97.81183750494529
 20
165.1523021053827
 10
99.10478269350824
 20
166.3084769129547
 10
100.4504378777679
 20
166.69157178364
 97
        0
 75
     2
 76
     1
 98
        0
  0
HATCH
  5
4756
330
1D8B
100
AcDbEntity
  8
TFORMLOGO
 62
    18
420
        0
100
AcDbHatch
 10
0.0
 20
0.0
 30
0.0
210
0.0
220
0.0
230
1.0
  2
SOLID
 70
     1
 71
     0
 91
        1
 92
        1
 93
        1
 72
     4
 94
        3
 73
     0
 74
     1
 95
      104
 96
      100
 40
0.0
 40
0.0
 40
0.0
 40
0.0
 40
1.0
 40
1.0
 40
1.0
 40
2.0
 40
2.0
 40
2.0
 40
3.0
 40
3.0
 40
3.0
 40
4.0
 40
4.0
 40
4.0
 40
5.0
 40
5.0
 40
5.0
 40
6.0
 40
6.0
 40
6.0
 40
7.0
 40
7.0
 40
7.0
 40
8.0
 40
8.0
 40
8.0
 40
9.0
 40
9.0
 40
9.0
 40
10.0
 40
10.0
 40
10.0
 40
11.0
 40
11.0
 40
11.0
 40
12.0
 40
12.0
 40
12.0
 40
13.0
 40
13.0
 40
13.0
 40
14.0
 40
14.0
 40
14.0
 40
15.0
 40
15.0
 40
15.0
 40
16.0
 40
16.0
 40
16.0
 40
17.0
 40
17.0
 40
17.0
 40
18.0
 40
18.0
 40
18.0
 40
19.0
 40
19.0
 40
19.0
 40
20.0
 40
20.0
 40
20.0
 40
21.0
 40
21.0
 40
21.0
 40
22.0
 40
22.0
 40
22.0
 40
23.0
 40
23.0
 40
23.0
 40
24.0
 40
24.0
 40
24.0
 40
25.0
 40
25.0
 40
25.0
 40
26.0
 40
26.0
 40
26.0
 40
27.0
 40
27.0
 40
27.0
 40
28.0
 40
28.0
 40
28.0
 40
29.0
 40
29.0
 40
29.0
 40
30.0
 40
30.0
 40
30.0
 40
31.0
 40
31.0
 40
31.0
 40
32.0
 40
32.0
 40
32.0
 40
33.0
 40
33.0
 40
33.0
 40
33.0
 10
139.8926730891194
 20
154.8294111834263
 10
139.8926730891194
 20
154.8294111834263
 10
142.0344903652449
 20
154.8294111834263
 10
142.0344903652449
 20
154.8294111834263
 10
142.0344903652449
 20
154.8294111834263
 10
140.9516961399172
 20
151.3157559800812
 10
140.9516961399172
 20
151.3157559800812
 10
141.8928968473924
 20
152.7887075264977
 10
142.7341897198862
 20
153.4484437471474
 10
143.8552245303276
 20
154.2926649527359
 10
144.9803934580773
 20
155.1296514530327
 10
146.3139908001845
 20
155.3044901642492
 10
147.2410666068522
 20
155.3044901642492
 10
148.3855280820471
 20
155.3044901642492
 10
149.4969166187652
 20
155.0752189084569
 10
150.0784491203094
 20
153.8172414621372
 10
150.5228667310862
 20
152.833838307127
 10
150.5414702589792
 20
152.7201500811143
 10
150.4140016419351
 20
150.7765981809602
 10
151.581889781884
 20
152.7699317437168
 10
152.4424752018226
 20
153.6256940267945
 10
153.9038856707502
 20
154.4507949398263
 10
155.4455669174381
 20
155.3044901642492
 10
156.3392252758531
 20
155.3659851592288
 10
157.374821661896
 20
155.2147453676543
 10
158.9116797717234
 20
154.9877134254046
 10
159.885953417675
 20
154.4390816074493
 10
160.3965169054045
 20
152.7816450760939
 10
160.9070803931345
 20
151.1219692311958
 10
160.632850611601
 20
150.2303779314354
 10
159.9992971339116
 20
147.597634224801
 10
159.7105979417938
 20
146.4014962832367
 10
159.2947746424084
 20
144.9400858143094
 10
158.7463150793405
 20
143.2092687007094
 10
158.7463150793405
 20
143.2092687007094
 10
153.9038856707502
 20
127.8027915271048
 10
153.9038856707502
 20
127.8027915271048
 10
153.9038856707502
 20
127.8027915271048
 10
151.3882752878862
 20
127.8027915271048
 10
151.3882752878862
 20
127.8027915271048
 10
151.3882752878862
 20
127.8027915271048
 10
155.6250565106279
 20
141.2751908193897
 10
155.6250565106279
 20
141.2751908193897
 10
156.5094131050964
 20
144.0936252951782
 10
157.1098936443091
 20
146.1506931664571
 10
157.4220195011803
 20
147.4415712963654
 10
157.8095929989513
 20
149.0530157726519
 10
157.9656559273863
 20
149.5826995529385
 10
157.7816877071118
 20
150.7529992613181
 10
157.6111553680926
 20
151.8430281919372
 10
157.0582171779397
 20
152.5547853887321
 10
156.1170164704645
 20
152.5547853887321
 10
155.1096698860365
 20
152.5547853887321
 10
154.2962823053817
 20
152.4412694176073
 10
153.1566439670478
 20
151.2945686288697
 10
152.0170056287143
 20
150.1476955852443
 10
151.076149431015
 20
148.7930831468137
 10
150.3337308641744
 20
147.2290087646991
 10
149.5957909244185
 20
145.6683794803425
 10
148.8530278478024
 20
143.6822806228776
 10
148.0964843801535
 20
141.2751908193897
 10
148.0964843801535
 20
141.2751908193897
 10
143.8552245303276
 20
127.8027915271048
 10
143.8552245303276
 20
127.8027915271048
 10
143.8552245303276
 20
127.8027915271048
 10
141.4860308021766
 20
127.8027915271048
 10
141.4860308021766
 20
127.8027915271048
 10
141.4860308021766
 20
127.8027915271048
 10
146.3329388378534
 20
143.2092687007094
 10
146.3329388378534
 20
143.2092687007094
 10
146.8483254624448
 20
144.8408669988801
 10
147.2314203331298
 20
146.1837661049335
 10
147.4867020769948
 20
147.224185627838
 10
147.9169947869636
 20
149.0197705792876
 10
148.0306830129766
 20
150.2400242051577
 10
147.7092553921589
 20
151.3157559800812
 10
147.3874832615656
 20
152.3916600098926
 10
146.824554287914
 20
152.6683013598569
 10
145.8840425999911
 20
152.6683013598569
 10
145.0989048209517
 20
152.6683013598569
 10
144.3282364524957
 20
152.3275811915945
 10
143.4531816219733
 20
151.6538923250251
 10
142.3462717123398
 20
150.8074318058939
 10
141.901854101563
 20
150.1097995099067
 10
141.3578731655807
 20
149.289521733736
 10
140.6299240093235
 20
148.192602607601
 10
140.2850697237518
 20
147.455696197173
 10
139.6652966370939
 20
145.8385673095858
 10
139.0506911970738
 20
144.2214384219986
 10
138.4639910488931
 20
142.3252566160164
 10
138.0571250036778
 20
141.0154304484394
 10
138.0571250036778
 20
141.0154304484394
 10
133.9009590684727
 20
127.8027915271048
 10
133.9009590684727
 20
127.8027915271048
 10
133.9009590684727
 20
127.8027915271048
 10
131.4180771143097
 20
127.8027915271048
 10
131.4180771143097
 20
127.8027915271048
 10
131.4180771143097
 20
127.8027915271048
 10
139.8926730891194
 20
154.8294111834263
 10
139.8926730891194
 20
154.8294111834263
 97
        0
 75
     2
 76
     1
 98
        0
  0
SPLINE
  5
4757
330
1D8B
100
AcDbEntity
  8
TFORMLOGO
 62
    18
420
        0
370
     0
100
AcDbSpline
210
0.0
220
0.0
230
1.0
 70
    11
 71
     3
 72
    32
 73
    28
 74
     0
 42
0.000000001
 43
0.0000000001
 40
0.0
 40
0.0
 40
0.0
 40
0.0
 40
1.0
 40
1.0
 40
1.0
 40
2.0
 40
2.0
 40
2.0
 40
3.0
 40
3.0
 40
3.0
 40
4.0
 40
4.0
 40
4.0
 40
5.0
 40
5.0
 40
5.0
 40
6.0
 40
6.0
 40
6.0
 40
7.0
 40
7.0
 40
7.0
 40
8.0
 40
8.0
 40
8.0
 40
9.0
 40
9.0
 40
9.0
 40
9.0
 10
106.2595617172433
 20
153.4105476718098
 30
0.0
 10
104.822266932621
 20
151.5474388043041
 30
0.0
 10
103.7177685914189
 20
149.8758773721411
 30
0.0
 10
101.9232171692961
 20
144.6141795664062
 30
0.0
 10
100.2754269116635
 20
139.7999999594306
 30
0.0
 10
99.22777268346681
 20
136.3052927937542
 30
0.0
 10
99.06964269637729
 20
132.039572749846
 30
0.0
 10
98.94665270641735
 20
128.8673267343149
 30
0.0
 10
100.8807305877372
 20
127.8027915271048
 30
0.0
 10
103.7129454545575
 20
127.8027915271048
 30
0.0
 10
104.9352661390826
 20
127.8027915271048
 30
0.0
 10
108.0151835347001
 20
127.8827177950895
 30
0.0
 10
110.2045431598849
 20
130.5926316915021
 30
0.0
 10
111.7417457794872
 20
132.4984597712065
 30
0.0
 10
113.1552693895792
 20
134.475256864725
 30
0.0
 10
115.0562743324226
 20
140.9489400617108
 30
0.0
 10
116.6361961642233
 20
146.3680788349845
 30
0.0
 10
117.728292153497
 20
149.8639917848761
 30
0.0
 10
117.6480213757372
 20
151.8595646611754
 30
0.0
 10
117.6480213757372
 20
151.8595646611754
 30
0.0
 10
117.6480213757372
 20
151.8595646611754
 30
0.0
 10
117.6480213757372
 20
151.8595646611754
 30
0.0
 10
117.1322902413699
 20
155.18150017429
 30
0.0
 10
114.7162431837114
 20
155.886194920681
 30
0.0
 10
113.3351034925449
 20
155.886194920681
 30
0.0
 10
111.9829026225448
 20
155.886194920681
 30
0.0
 10
108.3414342923793
 20
156.1251124501957
 30
0.0
 10
106.2595617172433
 20
153.4105476718098
 30
0.0
  0
SPLINE
  5
4758
330
1D8B
100
AcDbEntity
  8
TFORMLOGO
 62
    18
420
        0
370
     0
100
AcDbSpline
210
0.0
220
0.0
230
1.0
 70
    11
 71
     3
 72
    56
 73
    52
 74
     0
 42
0.000000001
 43
0.0000000001
 40
0.0
 40
0.0
 40
0.0
 40
0.0
 40
1.0
 40
1.0
 40
1.0
 40
2.0
 40
2.0
 40
2.0
 40
3.0
 40
3.0
 40
3.0
 40
4.0
 40
4.0
 40
4.0
 40
5.0
 40
5.0
 40
5.0
 40
6.0
 40
6.0
 40
6.0
 40
7.0
 40
7.0
 40
7.0
 40
8.0
 40
8.0
 40
8.0
 40
9.0
 40
9.0
 40
9.0
 40
10.0
 40
10.0
 40
10.0
 40
11.0
 40
11.0
 40
11.0
 40
12.0
 40
12.0
 40
12.0
 40
13.0
 40
13.0
 40
13.0
 40
14.0
 40
14.0
 40
14.0
 40
15.0
 40
15.0
 40
15.0
 40
16.0
 40
16.0
 40
16.0
 40
17.0
 40
17.0
 40
17.0
 40
17.0
 10
100.4504378777679
 20
166.69157178364
 30
0.0
 10
101.9848844191642
 20
167.1313385124438
 30
0.0
 10
103.963748571337
 20
166.7649523658846
 30
0.0
 10
103.963748571337
 20
166.7649523658846
 30
0.0
 10
103.963748571337
 20
166.7649523658846
 30
0.0
 10
103.0132460999152
 20
163.911205638077
 30
0.0
 10
103.0132460999152
 20
163.911205638077
 30
0.0
 10
103.0132460999152
 20
163.911205638077
 30
0.0
 10
101.0674548862189
 20
164.3601018759394
 30
0.0
 10
99.57090442016033
 20
163.1805004036133
 30
0.0
 10
98.40508333886646
 20
162.258247733807
 30
0.0
 10
97.65301849830303
 20
159.804132345923
 30
0.0
 10
97.35984067910067
 20
158.8699940888517
 30
0.0
 10
97.35984067910067
 20
158.8699940888517
 30
0.0
 10
96.07137411762278
 20
154.9119212747295
 30
0.0
 10
96.07137411762278
 20
154.9119212747295
 30
0.0
 10
96.07137411762278
 20
154.9119212747295
 30
0.0
 10
100.3012651448485
 20
154.9119212747295
 30
0.0
 10
100.3012651448485
 20
154.9119212747295
 30
0.0
 10
100.3012651448485
 20
154.9119212747295
 30
0.0
 10
99.64152892419816
 20
152.4199098115079
 30
0.0
 10
99.64152892419816
 20
152.4199098115079
 30
0.0
 10
99.64152892419816
 20
152.4199098115079
 30
0.0
 10
95.38097652692704
 20
152.4199098115079
 30
0.0
 10
95.38097652692704
 20
152.4199098115079
 30
0.0
 10
95.38097652692704
 20
152.4199098115079
 30
0.0
 10
87.75353009079981
 20
127.8027915271048
 30
0.0
 10
87.75353009079981
 20
127.8027915271048
 30
0.0
 10
87.75353009079981
 20
127.8027915271048
 30
0.0
 10
85.36538832498081
 20
127.8027915271048
 30
0.0
 10
85.36538832498081
 20
127.8027915271048
 30
0.0
 10
85.36538832498081
 20
127.8027915271048
 30
0.0
 10
93.00006946639996
 20
152.4199098115079
 30
0.0
 10
93.00006946639996
 20
152.4199098115079
 30
0.0
 10
93.00006946639996
 20
152.4199098115079
 30
0.0
 10
89.85297266450198
 20
152.4199098115079
 30
0.0
 10
89.85297266450198
 20
152.4199098115079
 30
0.0
 10
89.85297266450198
 20
152.4199098115079
 30
0.0
 10
90.51270888515137
 20
154.9119212747295
 30
0.0
 10
90.51270888515137
 20
154.9119212747295
 30
0.0
 10
90.51270888515137
 20
154.9119212747295
 30
0.0
 10
93.6904670570957
 20
154.9119212747295
 30
0.0
 10
93.6904670570957
 20
154.9119212747295
 30
0.0
 10
93.6904670570957
 20
154.9119212747295
 30
0.0
 10
94.81598049462127
 20
158.3616699146644
 30
0.0
 10
94.81598049462127
 20
158.3616699146644
 30
0.0
 10
95.7237637538442
 20
161.2605474231013
 30
0.0
 10
96.49684369073111
 20
162.8139420021662
 30
0.0
 10
97.15657991138096
 20
163.9844139654337
 30
0.0
 10
97.81183750494529
 20
165.1523021053827
 30
0.0
 10
99.10478269350824
 20
166.3084769129547
 30
0.0
 10
100.4504378777679
 20
166.69157178364
 30
0.0
  0
HATCH
  5
4759
330
1D8B
100
AcDbEntity
  8
TFORMLOGO
 62
    18
420
        0
100
AcDbHatch
 10
0.0
 20
0.0
 30
0.0
210
0.0
220
0.0
230
1.0
  2
SOLID
 70
     1
 71
     0
 91
        1
 92
        1
 93
        8
 72
     1
 10
83.79545727667801
 20
167.6444858234922
 11
83.79545727667801
 21
159.7968976406313
 72
     1
 10
83.79545727667801
 20
159.7968976406313
 11
71.36313299752166
 21
159.7968976406313
 72
     1
 10
71.36313299752192
 20
159.7968976406313
 11
71.36313299752192
 21
127.8027915271048
 72
     1
 10
71.36313299752192
 20
127.8027915271048
 11
60.43011526263049
 21
127.8027915271048
 72
     1
 10
60.4301152626299
 20
127.8027915271048
 11
60.4301152626299
 21
159.7968976406313
 72
     1
 10
60.4301152626299
 20
159.7968976406313
 11
48.21793273020731
 21
159.7968976406313
 72
     1
 10
48.21793273020739
 20
159.7968976406313
 11
48.21793273020739
 21
167.6444858234922
 72
     1
 10
48.21793273020739
 20
167.6444858234922
 11
83.79545727667775
 21
167.6444858234922
 97
        0
 75
     2
 76
     1
 98
        0
  0
POLYLINE
  5
475A
330
1D8B
100
AcDbEntity
  8
TFORMLOGO
 62
    18
420
        0
370
     0
100
AcDb2dPolyline
 66
     1
 10
0.0
 20
0.0
 30
0.0
  0
VERTEX
  5
475B
330
475A
100
AcDbEntity
  8
TFORMLOGO
 62
    18
420
        0
370
     0
100
AcDbVertex
100
AcDb2dVertex
 10
83.79545727667801
 20
167.6444858234922
 30
0.0
  0
VERTEX
  5
475C
330
475A
100
AcDbEntity
  8
TFORMLOGO
 62
    18
420
        0
370
     0
100
AcDbVertex
100
AcDb2dVertex
 10
83.79545727667801
 20
159.7968976406313
 30
0.0
  0
VERTEX
  5
475D
330
475A
100
AcDbEntity
  8
TFORMLOGO
 62
    18
420
        0
370
     0
100
AcDbVertex
100
AcDb2dVertex
 10
71.36313299752192
 20
159.7968976406313
 30
0.0
  0
VERTEX
  5
475E
330
475A
100
AcDbEntity
  8
TFORMLOGO
 62
    18
420
        0
370
     0
100
AcDbVertex
100
AcDb2dVertex
 10
71.36313299752192
 20
127.8027915271048
 30
0.0
  0
VERTEX
  5
475F
330
475A
100
AcDbEntity
  8
TFORMLOGO
 62
    18
420
        0
370
     0
100
AcDbVertex
100
AcDb2dVertex
 10
60.4301152626299
 20
127.8027915271048
 30
0.0
  0
VERTEX
  5
4760
330
475A
100
AcDbEntity
  8
TFORMLOGO
 62
    18
420
        0
370
     0
100
AcDbVertex
100
AcDb2dVertex
 10
60.4301152626299
 20
159.7968976406313
 30
0.0
  0
VERTEX
  5
4761
330
475A
100
AcDbEntity
  8
TFORMLOGO
 62
    18
420
        0
370
     0
100
AcDbVertex
100
AcDb2dVertex
 10
48.21793273020739
 20
159.7968976406313
 30
0.0
  0
VERTEX
  5
4762
330
475A
100
AcDbEntity
  8
TFORMLOGO
 62
    18
420
        0
370
     0
100
AcDbVertex
100
AcDb2dVertex
 10
48.21793273020739
 20
167.6444858234922
 30
0.0
  0
VERTEX
  5
4763
330
475A
100
AcDbEntity
  8
TFORMLOGO
 62
    18
420
        0
370
     0
100
AcDbVertex
100
AcDb2dVertex
 10
83.79545727667801
 20
167.6444858234922
 30
0.0
  0
SEQEND
  5
4764
330
475A
100
AcDbEntity
  8
TFORMLOGO
 62
    18
420
        0
370
     0
  0
HATCH
  5
4765
330
1D8B
100
AcDbEntity
  8
TFORMLOGO
 62
    18
420
        0
100
AcDbHatch
 10
0.0
 20
0.0
 30
0.0
210
0.0
220
0.0
230
1.0
  2
SOLID
 70
     1
 71
     0
 91
        1
 92
        1
 93
        1
 72
     4
 94
        3
 73
     0
 74
     1
 95
       38
 96
       34
 40
0.0
 40
0.0
 40
0.0
 40
0.0
 40
1.0
 40
1.0
 40
1.0
 40
2.0
 40
2.0
 40
2.0
 40
3.0
 40
3.0
 40
3.0
 40
4.0
 40
4.0
 40
4.0
 40
5.0
 40
5.0
 40
5.0
 40
6.0
 40
6.0
 40
6.0
 40
7.0
 40
7.0
 40
7.0
 40
8.0
 40
8.0
 40
8.0
 40
9.0
 40
9.0
 40
9.0
 40
10.0
 40
10.0
 40
10.0
 40
11.0
 40
11.0
 40
11.0
 40
11.0
 10
126.3775545846356
 20
154.8151140277308
 10
126.3775545846356
 20
154.8151140277308
 10
128.831153207856
 20
154.8151140277308
 10
128.831153207856
 20
154.8151140277308
 10
128.831153207856
 20
154.8151140277308
 10
127.7345785914972
 20
151.3062819612468
 10
127.7345785914972
 20
151.3062819612468
 10
128.5713928369064
 20
152.2922689395754
 10
129.8860421413442
 20
153.604506675583
 10
131.0163787157312
 20
154.2664822097754
 10
132.704476617133
 20
155.2500576196734
 10
133.6642808525007
 20
155.3847609420097
 10
134.7284715499354
 20
155.3565111403944
 10
134.7284715499354
 20
155.3565111403944
 10
133.6877075172547
 20
152.0345756272799
 10
133.6877075172547
 20
152.0345756272799
 10
133.0114348273673
 20
152.3184516825359
 10
130.9309402913341
 20
151.7768823149844
 10
129.7392809768553
 20
150.9162968950455
 10
128.66613302525
 20
150.1454562717016
 10
127.9192358313235
 20
149.4857200510519
 10
127.0393578639405
 20
147.8282835196966
 10
126.164647543194
 20
146.1699857139017
 10
125.4742499524987
 20
143.5262176944419
 10
124.282246128244
 20
139.6959580071401
 10
124.282246128244
 20
139.6959580071401
 10
120.5753209406766
 20
127.8027915271048
 10
120.5753209406766
 20
127.8027915271048
 10
120.5753209406766
 20
127.8027915271048
 10
118.1964809388046
 20
127.8027915271048
 10
118.1964809388046
 20
127.8027915271048
 10
118.1964809388046
 20
127.8027915271048
 10
126.3775545846356
 20
154.8151140277308
 10
126.3775545846356
 20
154.8151140277308
 97
        0
 75
     2
 76
     1
 98
        0
  0
HATCH
  5
4766
330
1D8B
100
AcDbEntity
  8
TFORMLOGO
 62
    18
420
        0
100
AcDbHatch
 10
0.0
 20
0.0
 30
0.0
210
0.0
220
0.0
230
1.0
  2
SOLID
 70
     1
 71
     0
 91
        2
 92
        1
 93
        1
 72
     4
 94
        3
 73
     0
 74
     1
 95
       29
 96
       25
 40
0.0
 40
0.0
 40
0.0
 40
0.0
 40
1.0
 40
1.0
 40
1.0
 40
2.0
 40
2.0
 40
2.0
 40
3.0
 40
3.0
 40
3.0
 40
4.0
 40
4.0
 40
4.0
 40
5.0
 40
5.0
 40
5.0
 40
6.0
 40
6.0
 40
6.0
 40
7.0
 40
7.0
 40
7.0
 40
8.0
 40
8.0
 40
8.0
 40
8.0
 10
101.6420971922466
 20
132.8388354296931
 10
101.6300393500937
 20
134.7164137077823
 10
102.2236296937908
 20
138.0598810818841
 10
103.7487744712403
 20
142.5378191476827
 10
105.819967243327
 20
148.5896501242061
 10
107.0602024361933
 20
150.8074318058939
 10
108.1522984254675
 20
151.8833358357054
 10
109.7411775114392
 20
153.4532668840085
 10
111.8740375333932
 20
153.5290590346837
 10
112.5075910110822
 20
153.4532668840085
 10
113.4012493694977
 20
153.3490526768302
 10
114.6683563248757
 20
152.7580461564518
 10
114.7493161221878
 20
150.7838328862519
 10
114.8106388622796
 20
149.0909118479895
 10
114.3186789024426
 20
145.9191825971221
 10
112.6164561002338
 20
140.9489400617108
 10
110.6444821435762
 20
135.1746117095912
 10
109.4669477299053
 20
132.8960240524753
 10
108.521268395345
 20
131.9072809959403
 10
106.734640698066
 20
130.0538184021569
 10
104.822266932621
 20
130.2336525051225
 10
104.5408024457956
 20
130.2336525051225
 10
104.172176985694
 20
130.2336525051225
 10
101.6465758193322
 20
130.6305277668397
 10
101.6420971922466
 20
132.8388354296931
 97
        0
 92
        1
 93
        1
 72
     4
 94
        3
 73
     0
 74
     1
 95
       32
 96
       28
 40
0.0
 40
0.0
 40
0.0
 40
0.0
 40
1.0
 40
1.0
 40
1.0
 40
2.0
 40
2.0
 40
2.0
 40
3.0
 40
3.0
 40
3.0
 40
4.0
 40
4.0
 40
4.0
 40
5.0
 40
5.0
 40
5.0
 40
6.0
 40
6.0
 40
6.0
 40
7.0
 40
7.0
 40
7.0
 40
8.0
 40
8.0
 40
8.0
 40
9.0
 40
9.0
 40
9.0
 40
9.0
 10
106.2595617172433
 20
153.4105476718098
 10
104.822266932621
 20
151.5474388043041
 10
103.7177685914189
 20
149.8758773721411
 10
101.9232171692961
 20
144.6141795664062
 10
100.2754269116635
 20
139.7999999594306
 10
99.22777268346681
 20
136.3052927937542
 10
99.06964269637729
 20
132.039572749846
 10
98.94665270641735
 20
128.8673267343149
 10
100.8807305877372
 20
127.8027915271048
 10
103.7129454545575
 20
127.8027915271048
 10
104.9352661390826
 20
127.8027915271048
 10
108.0151835347001
 20
127.8827177950895
 10
110.2045431598849
 20
130.5926316915021
 10
111.7417457794872
 20
132.4984597712065
 10
113.1552693895792
 20
134.475256864725
 10
115.0562743324226
 20
140.9489400617108
 10
116.6361961642233
 20
146.3680788349845
 10
117.728292153497
 20
149.8639917848761
 10
117.6480213757372
 20
151.8595646611754
 10
117.6480213757372
 20
151.8595646611754
 10
117.6480213757372
 20
151.8595646611754
 10
117.6480213757372
 20
151.8595646611754
 10
117.1322902413699
 20
155.18150017429
 10
114.7162431837114
 20
155.886194920681
 10
113.3351034925449
 20
155.886194920681
 10
111.9829026225448
 20
155.886194920681
 10
108.3414342923793
 20
156.1251124501957
 10
106.2595617172433
 20
153.4105476718098
 97
        0
 75
     2
 76
     1
 98
        0
  0
SPLINE
  5
4767
330
1D8B
100
AcDbEntity
  8
TFORMLOGO
 62
    18
420
        0
370
     0
100
AcDbSpline
210
0.0
220
0.0
230
1.0
 70
    11
 71
     3
 72
    29
 73
    25
 74
     0
 42
0.000000001
 43
0.0000000001
 40
0.0
 40
0.0
 40
0.0
 40
0.0
 40
1.0
 40
1.0
 40
1.0
 40
2.0
 40
2.0
 40
2.0
 40
3.0
 40
3.0
 40
3.0
 40
4.0
 40
4.0
 40
4.0
 40
5.0
 40
5.0
 40
5.0
 40
6.0
 40
6.0
 40
6.0
 40
7.0
 40
7.0
 40
7.0
 40
8.0
 40
8.0
 40
8.0
 40
8.0
 10
101.6420971922466
 20
132.8388354296931
 30
0.0
 10
101.6300393500937
 20
134.7164137077823
 30
0.0
 10
102.2236296937908
 20
138.0598810818841
 30
0.0
 10
103.7487744712403
 20
142.5378191476827
 30
0.0
 10
105.819967243327
 20
148.5896501242061
 30
0.0
 10
107.0602024361933
 20
150.8074318058939
 30
0.0
 10
108.1522984254675
 20
151.8833358357054
 30
0.0
 10
109.7411775114392
 20
153.4532668840085
 30
0.0
 10
111.8740375333932
 20
153.5290590346837
 30
0.0
 10
112.5075910110822
 20
153.4532668840085
 30
0.0
 10
113.4012493694977
 20
153.3490526768302
 30
0.0
 10
114.6683563248757
 20
152.7580461564518
 30
0.0
 10
114.7493161221878
 20
150.7838328862519
 30
0.0
 10
114.8106388622796
 20
149.0909118479895
 30
0.0
 10
114.3186789024426
 20
145.9191825971221
 30
0.0
 10
112.6164561002338
 20
140.9489400617108
 30
0.0
 10
110.6444821435762
 20
135.1746117095912
 30
0.0
 10
109.4669477299053
 20
132.8960240524753
 30
0.0
 10
108.521268395345
 20
131.9072809959403
 30
0.0
 10
106.734640698066
 20
130.0538184021569
 30
0.0
 10
104.822266932621
 20
130.2336525051225
 30
0.0
 10
104.5408024457956
 20
130.2336525051225
 30
0.0
 10
104.172176985694
 20
130.2336525051225
 30
0.0
 10
101.6465758193322
 20
130.6305277668397
 30
0.0
 10
101.6420971922466
 20
132.8388354296931
 30
0.0
  0
ENDBLK
  5
1DAE
330
1D8B
100
AcDbEntity
  8
0
100
AcDbBlockEnd
  0
BLOCK
  5
4B17
330
4B16
100
AcDbEntity
  8
0
100
AcDbBlockBegin
  2
*D4
 70
     1
 10
0.0
 20
0.0
 30
0.0
  3
*D4
  1
*D100
  0
LINE
  5
4B19
330
4B16
100
AcDbEntity
  8
寸法
 62
     0
370
    -2
100
AcDbLine
 10
158.6275249336074
 20
301.9338476586759
 30
0.0
 11
174.9800423734127
 21
301.9338476586759
 31
0.0
  0
LINE
  5
4B1A
330
4B16
100
AcDbEntity
  8
寸法
 62
     0
370
    -2
100
AcDbLine
 10
157.7817534340277
 20
242.2440839042319
 30
0.0
 11
174.9800423734127
 21
242.2440839042319
 31
0.0
  0
LINE
  5
4B1B
330
4B16
100
AcDbEntity
  8
寸法
 62
     0
370
    -2
100
AcDbLine
 10
174.9800423734127
 20
299.9338476586759
 30
0.0
 11
174.9800423734127
 21
244.2440839042319
 31
0.0
  0
INSERT
  5
4B1C
330
4B16
100
AcDbEntity
  8
寸法
 62
     0
370
    -2
100
AcDbBlockReference
  2
_DOT
 10
174.9800423734127
 20
301.9338476586759
 30
0.0
 41
2.0
 42
2.0
 43
2.0
 50
90.0
  0
INSERT
  5
4B1D
330
4B16
100
AcDbEntity
  8
寸法
 62
     0
370
    -2
100
AcDbBlockReference
  2
_DOT
 10
174.9800423734127
 20
242.2440839042319
 30
0.0
 41
2.0
 42
2.0
 43
2.0
 50
270.0
  0
MTEXT
  5
4B1E
330
4B16
100
AcDbEntity
  8
寸法
 62
     0
100
AcDbMText
 10
167.4800423734127
 20
272.0889657814539
 30
0.0
 40
5.0
 41
0.0
 46
0.0
 71
     5
 72
     1
  1
\A1;60
  7
ＭＳ ゴシック
 11
0.0
 21
1.0
 31
0.0
 73
     1
 44
1.0
  0
POINT
  5
4B1F
330
4B16
100
AcDbEntity
  8
Defpoints
 62
     0
100
AcDbPoint
 10
153.6275249336074
 20
301.9338476586759
 30
0.0
  0
POINT
  5
4B20
330
4B16
100
AcDbEntity
  8
Defpoints
 62
     0
100
AcDbPoint
 10
152.7817534340277
 20
242.2440839042319
 30
0.0
  0
POINT
  5
4B21
330
4B16
100
AcDbEntity
  8
Defpoints
 62
     0
100
AcDbPoint
 10
174.9800423734127
 20
242.2440839042319
 30
0.0
  0
ENDBLK
  5
4B18
330
4B16
100
AcDbEntity
  8
0
100
AcDbBlockEnd
  0
BLOCK
  5
4B26
330
4B25
100
AcDbEntity
  8
0
100
AcDbBlockBegin
  2
*D5
 70
     1
 10
0.0
 20
0.0
 30
0.0
  3
*D5
  1
*D101
  0
LINE
  5
4B28
330
4B25
100
AcDbEntity
  8
寸法
 62
     0
370
    -2
100
AcDbLine
 10
103.6753299920418
 20
238.0915779526905
 30
0.0
 11
103.6753299920418
 21
221.2948901252216
 31
0.0
  0
LINE
  5
4B29
330
4B25
100
AcDbEntity
  8
寸法
 62
     0
370
    -2
100
AcDbLine
 10
153.6291934439126
 20
239.9375356317967
 30
0.0
 11
153.6291934439126
 21
221.2948901252216
 31
0.0
  0
LINE
  5
4B2A
330
4B25
100
AcDbEntity
  8
寸法
 62
     0
370
    -2
100
AcDbLine
 10
105.6753299920418
 20
221.2948901252216
 30
0.0
 11
151.6291934439126
 21
221.2948901252216
 31
0.0
  0
INSERT
  5
4B2B
330
4B25
100
AcDbEntity
  8
寸法
 62
     0
370
    -2
100
AcDbBlockReference
  2
_DOT
 10
103.6753299920418
 20
221.2948901252216
 30
0.0
 41
2.0
 42
2.0
 43
2.0
 50
180.0
  0
INSERT
  5
4B2C
330
4B25
100
AcDbEntity
  8
寸法
 62
     0
370
    -2
100
AcDbBlockReference
  2
_DOT
 10
153.6291934439126
 20
221.2948901252216
 30
0.0
 41
2.0
 42
2.0
 43
2.0
  0
MTEXT
  5
4B2D
330
4B25
100
AcDbEntity
  8
寸法
 62
     0
100
AcDbMText
 10
128.6522617179772
 20
228.7948901252216
 30
0.0
 40
5.0
 41
0.0
 46
0.0
 71
     5
 72
     1
  1
\A1;50
  7
ＭＳ ゴシック
 73
     1
 44
1.0
  0
POINT
  5
4B2E
330
4B25
100
AcDbEntity
  8
Defpoints
 62
     0
100
AcDbPoint
 10
103.6753299920418
 20
243.0915779526905
 30
0.0
  0
POINT
  5
4B2F
330
4B25
100
AcDbEntity
  8
Defpoints
 62
     0
100
AcDbPoint
 10
153.6291934439126
 20
244.9375356317967
 30
0.0
  0
POINT
  5
4B30
330
4B25
100
AcDbEntity
  8
Defpoints
 62
     0
100
AcDbPoint
 10
153.6291934439126
 20
221.2948901252216
 30
0.0
  0
ENDBLK
  5
4B27
330
4B25
100
AcDbEntity
  8
0
100
AcDbBlockEnd
  0
BLOCK
  5
4B35
330
4B34
100
AcDbEntity
  8
0
100
AcDbBlockBegin
  2
*D6
 70
     1
 10
0.0
 20
0.0
 30
0.0
  3
*D6
  1
*D102
  0
LINE
  5
4B37
330
4B34
100
AcDbEntity
  8
寸法
 62
     0
370
    -2
100
AcDbLine
 10
99.90514946478373
 20
189.3144987771025
 30
0.0
 11
80.76663869770101
 21
189.3144987771025
 31
0.0
  0
LINE
  5
4B38
330
4B34
100
AcDbEntity
  8
寸法
 62
     0
370
    -2
100
AcDbLine
 10
99.90514946478373
 20
139.358858737779
 30
0.0
 11
80.76663869770101
 21
139.358858737779
 31
0.0
  0
LINE
  5
4B39
330
4B34
100
AcDbEntity
  8
寸法
 62
     0
370
    -2
100
AcDbLine
 10
80.76663869770101
 20
187.3144987771025
 30
0.0
 11
80.76663869770101
 21
141.358858737779
 31
0.0
  0
INSERT
  5
4B3A
330
4B34
100
AcDbEntity
  8
寸法
 62
     0
370
    -2
100
AcDbBlockReference
  2
_DOT
 10
80.76663869770101
 20
189.3144987771025
 30
0.0
 41
2.0
 42
2.0
 43
2.0
 50
90.0
  0
INSERT
  5
4B3B
330
4B34
100
AcDbEntity
  8
寸法
 62
     0
370
    -2
100
AcDbBlockReference
  2
_DOT
 10
80.76663869770101
 20
139.358858737779
 30
0.0
 41
2.0
 42
2.0
 43
2.0
 50
270.0
  0
MTEXT
  5
4B3C
330
4B34
100
AcDbEntity
  8
寸法
 62
     0
100
AcDbMText
 10
73.26663869770101
 20
164.3366787574407
 30
0.0
 40
5.0
 41
0.0
 46
0.0
 71
     5
 72
     1
  1
\A1;50
  7
ＭＳ ゴシック
 11
0.0
 21
1.0
 31
0.0
 73
     1
 44
1.0
  0
POINT
  5
4B3D
330
4B34
100
AcDbEntity
  8
Defpoints
 62
     0
100
AcDbPoint
 10
104.9051494647837
 20
189.3144987771025
 30
0.0
  0
POINT
  5
4B3E
330
4B34
100
AcDbEntity
  8
Defpoints
 62
     0
100
AcDbPoint
 10
104.9051494647837
 20
139.358858737779
 30
0.0
  0
POINT
  5
4B3F
330
4B34
100
AcDbEntity
  8
Defpoints
 62
     0
100
AcDbPoint
 10
80.76663869770101
 20
139.358858737779
 30
0.0
  0
ENDBLK
  5
4B36
330
4B34
100
AcDbEntity
  8
0
100
AcDbBlockEnd
  0
BLOCK
  5
5002
330
5001
100
AcDbEntity
  8
0
100
AcDbBlockBegin
  2
*D7
 70
     1
 10
0.0
 20
0.0
 30
0.0
  3
*D7
  1
*D120
  0
LINE
  5
5004
330
5001
100
AcDbEntity
  8
寸法
 62
     0
370
    -2
100
AcDbLine
 10
479.6689693079787
 20
288.7283449732655
 30
0.0
 11
479.6689693079787
 21
276.0846387111045
 31
0.0
  0
LINE
  5
5005
330
5001
100
AcDbEntity
  8
寸法
 62
     0
370
    -2
100
AcDbLine
 10
455.6689693079787
 20
285.2352920672238
 30
0.0
 11
455.6689693079787
 21
276.0846387111045
 31
0.0
  0
LINE
  5
5006
330
5001
100
AcDbEntity
  8
寸法
 62
     0
370
    -2
100
AcDbLine
 10
477.6689693079787
 20
276.0846387111045
 30
0.0
 11
457.6689693079787
 21
276.0846387111045
 31
0.0
  0
INSERT
  5
5007
330
5001
100
AcDbEntity
  8
寸法
 62
     0
370
    -2
100
AcDbBlockReference
  2
_DOT
 10
479.6689693079787
 20
276.0846387111045
 30
0.0
 41
2.0
 42
2.0
 43
2.0
  0
INSERT
  5
5008
330
5001
100
AcDbEntity
  8
寸法
 62
     0
370
    -2
100
AcDbBlockReference
  2
_DOT
 10
455.6689693079787
 20
276.0846387111045
 30
0.0
 41
2.0
 42
2.0
 43
2.0
 50
180.0
  0
MTEXT
  5
5009
330
5001
100
AcDbEntity
  8
寸法
 62
     0
100
AcDbMText
 10
467.6689693079787
 20
283.5846387111045
 30
0.0
 40
5.0
 41
0.0
 46
0.0
 71
     5
 72
     1
  1
\A1;24
  7
ＭＳ ゴシック
 73
     1
 44
1.0
  0
POINT
  5
500A
330
5001
100
AcDbEntity
  8
Defpoints
 62
     0
100
AcDbPoint
 10
479.6689693079787
 20
293.7283449732655
 30
0.0
  0
POINT
  5
500B
330
5001
100
AcDbEntity
  8
Defpoints
 62
     0
100
AcDbPoint
 10
455.6689693079787
 20
290.2352920672238
 30
0.0
  0
POINT
  5
500C
330
5001
100
AcDbEntity
  8
Defpoints
 62
     0
100
AcDbPoint
 10
455.6689693079787
 20
276.0846387111045
 30
0.0
  0
ENDBLK
  5
5003
330
5001
100
AcDbEntity
  8
0
100
AcDbBlockEnd
  0
BLOCK
  5
500E
330
500D
100
AcDbEntity
  8
0
100
AcDbBlockBegin
  2
*D8
 70
     1
 10
0.0
 20
0.0
 30
0.0
  3
*D8
  1
*D121
  0
LINE
  5
5010
330
500D
100
AcDbEntity
  8
寸法
 62
     0
370
    -2
100
AcDbLine
 10
416.4643725799527
 20
303.7352920672238
 30
0.0
 11
404.8453697620185
 21
303.7352920672238
 31
0.0
  0
LINE
  5
5011
330
500D
100
AcDbEntity
  8
寸法
 62
     0
370
    -2
100
AcDbLine
 10
416.4643725799527
 20
293.7352920672238
 30
0.0
 11
404.8453697620185
 21
293.7352920672238
 31
0.0
  0
LINE
  5
5012
330
500D
100
AcDbEntity
  8
寸法
 62
     0
370
    -2
100
AcDbLine
 10
404.8453697620185
 20
301.7352920672238
 30
0.0
 11
404.8453697620185
 21
295.7352920672238
 31
0.0
  0
INSERT
  5
5013
330
500D
100
AcDbEntity
  8
寸法
 62
     0
370
    -2
100
AcDbBlockReference
  2
_DOT
 10
404.8453697620185
 20
303.7352920672238
 30
0.0
 41
2.0
 42
2.0
 43
2.0
 50
90.0
  0
INSERT
  5
5014
330
500D
100
AcDbEntity
  8
寸法
 62
     0
370
    -2
100
AcDbBlockReference
  2
_DOT
 10
404.8453697620185
 20
293.7352920672238
 30
0.0
 41
2.0
 42
2.0
 43
2.0
 50
270.0
  0
MTEXT
  5
5015
330
500D
100
AcDbEntity
  8
寸法
 62
     0
100
AcDbMText
 10
397.3453697620185
 20
298.7352920672238
 30
0.0
 40
5.0
 41
0.0
 46
0.0
 71
     5
 72
     1
  1
\A1;M10
  7
ＭＳ ゴシック
 11
0.0
 21
1.0
 31
0.0
 73
     1
 44
1.0
  0
POINT
  5
5016
330
500D
100
AcDbEntity
  8
Defpoints
 62
     0
100
AcDbPoint
 10
421.4643725799527
 20
303.7352920672238
 30
0.0
  0
POINT
  5
5017
330
500D
100
AcDbEntity
  8
Defpoints
 62
     0
100
AcDbPoint
 10
421.4643725799527
 20
293.7352920672238
 30
0.0
  0
POINT
  5
5018
330
500D
100
AcDbEntity
  8
Defpoints
 62
     0
100
AcDbPoint
 10
404.8453697620185
 20
293.7352920672238
 30
0.0
  0
ENDBLK
  5
500F
330
500D
100
AcDbEntity
  8
0
100
AcDbBlockEnd
  0
BLOCK
  5
501A
330
5019
100
AcDbEntity
  8
0
100
AcDbBlockBegin
  2
*D9
 70
     1
 10
0.0
 20
0.0
 30
0.0
  3
*D9
  1
*D122
  0
LINE
  5
501C
330
5019
100
AcDbEntity
  8
寸法
 62
     0
370
    -2
100
AcDbLine
 10
485.0397311335838
 20
304.9734915521302
 30
0.0
 11
498.8000961470706
 21
304.9734915521302
 31
0.0
  0
LINE
  5
501D
330
5019
100
AcDbEntity
  8
寸法
 62
     0
370
    -2
100
AcDbLine
 10
484.6689693079787
 20
292.2352920672238
 30
0.0
 11
498.8000961470706
 21
292.2352920672238
 31
0.0
  0
LINE
  5
501E
330
5019
100
AcDbEntity
  8
寸法
 62
     0
370
    -2
100
AcDbLine
 10
498.8000961470706
 20
302.9734915521302
 30
0.0
 11
498.8000961470706
 21
294.2352920672238
 31
0.0
  0
INSERT
  5
501F
330
5019
100
AcDbEntity
  8
寸法
 62
     0
370
    -2
100
AcDbBlockReference
  2
_DOT
 10
498.8000961470706
 20
304.9734915521302
 30
0.0
 41
2.0
 42
2.0
 43
2.0
 50
90.0
  0
INSERT
  5
5020
330
5019
100
AcDbEntity
  8
寸法
 62
     0
370
    -2
100
AcDbBlockReference
  2
_DOT
 10
498.8000961470706
 20
292.2352920672238
 30
0.0
 41
2.0
 42
2.0
 43
2.0
 50
270.0
  0
MTEXT
  5
5021
330
5019
100
AcDbEntity
  8
寸法
 62
     0
100
AcDbMText
 10
491.3000961470706
 20
298.6043918096769
 30
0.0
 40
5.0
 41
0.0
 46
0.0
 71
     5
 72
     1
  1
\A1;13
  7
ＭＳ ゴシック
 11
0.0
 21
1.0
 31
0.0
 73
     1
 44
1.0
  0
POINT
  5
5022
330
5019
100
AcDbEntity
  8
Defpoints
 62
     0
100
AcDbPoint
 10
480.0397311335838
 20
304.9734915521302
 30
0.0
  0
POINT
  5
5023
330
5019
100
AcDbEntity
  8
Defpoints
 62
     0
100
AcDbPoint
 10
479.6689693079787
 20
292.2352920672238
 30
0.0
  0
POINT
  5
5024
330
5019
100
AcDbEntity
  8
Defpoints
 62
     0
100
AcDbPoint
 10
498.8000961470706
 20
292.2352920672238
 30
0.0
  0
ENDBLK
  5
501B
330
5019
100
AcDbEntity
  8
0
100
AcDbBlockEnd
  0
BLOCK
  5
5026
330
5025
100
AcDbEntity
  8
0
100
AcDbBlockBegin
  2
*D10
 70
     1
 10
0.0
 20
0.0
 30
0.0
  3
*D10
  1
*D123
  0
LINE
  5
5028
330
5025
100
AcDbEntity
  8
寸法
 62
     0
370
    -2
100
AcDbLine
 10
455.6689693079787
 20
285.2352920672238
 30
0.0
 11
455.6689693079787
 21
276.0846387111045
 31
0.0
  0
LINE
  5
5029
330
5025
100
AcDbEntity
  8
寸法
 62
     0
370
    -2
100
AcDbLine
 10
419.6689693079787
 20
285.2352920672238
 30
0.0
 11
419.6689693079787
 21
276.0846387111045
 31
0.0
  0
LINE
  5
502A
330
5025
100
AcDbEntity
  8
寸法
 62
     0
370
    -2
100
AcDbLine
 10
453.6689693079787
 20
276.0846387111045
 30
0.0
 11
421.6689693079787
 21
276.0846387111045
 31
0.0
  0
INSERT
  5
502B
330
5025
100
AcDbEntity
  8
寸法
 62
     0
370
    -2
100
AcDbBlockReference
  2
_DOT
 10
455.6689693079787
 20
276.0846387111045
 30
0.0
 41
2.0
 42
2.0
 43
2.0
  0
INSERT
  5
502C
330
5025
100
AcDbEntity
  8
寸法
 62
     0
370
    -2
100
AcDbBlockReference
  2
_DOT
 10
419.6689693079787
 20
276.0846387111045
 30
0.0
 41
2.0
 42
2.0
 43
2.0
 50
180.0
  0
MTEXT
  5
502D
330
5025
100
AcDbEntity
  8
寸法
 62
     0
100
AcDbMText
 10
437.6689693079787
 20
283.5846387111045
 30
0.0
 40
5.0
 41
0.0
 46
0.0
 71
     5
 72
     1
  1
\A1;36
  7
ＭＳ ゴシック
 73
     1
 44
1.0
  0
POINT
  5
502E
330
5025
100
AcDbEntity
  8
Defpoints
 62
     0
100
AcDbPoint
 10
455.6689693079787
 20
290.2352920672238
 30
0.0
  0
POINT
  5
502F
330
5025
100
AcDbEntity
  8
Defpoints
 62
     0
100
AcDbPoint
 10
419.6689693079787
 20
290.2352920672238
 30
0.0
  0
POINT
  5
5030
330
5025
100
AcDbEntity
  8
Defpoints
 62
     0
100
AcDbPoint
 10
419.6689693079787
 20
276.0846387111045
 30
0.0
  0
ENDBLK
  5
5027
330
5025
100
AcDbEntity
  8
0
100
AcDbBlockEnd
  0
ENDSEC
  0
SECTION
  2
ENTITIES
  0
LINE
  5
36CD
330
A
100
AcDbEntity
  8
PRINT BORDER
100
AcDbLine
 10
296.9999999999999
 20
0.0
 30
0.0
 11
296.9999999999999
 21
15.30952622855898
 31
0.0
  0
LINE
  5
36CE
330
A
100
AcDbEntity
  8
テンプレート
100
AcDbLine
 10
437.9999999999999
 20
38.27810890422097
 30
0.0
 11
15.30952622855898
 21
38.27810890422097
 31
0.0
  0
LINE
  5
36CF
330
A
100
AcDbEntity
  8
テンプレート
100
AcDbLine
 10
15.30952622855898
 20
26.22153683920783
 30
0.0
 11
578.6904737714407
 21
26.22153683920783
 31
0.0
  0
TEXT
  5
36D0
330
A
100
AcDbEntity
  8
テンプレート
100
AcDbText
 10
18.06121699514119
 20
32.16825981613692
 30
0.0
 40
3.5
  1
材質
  7
ＭＳ ゴシック
100
AcDbText
  0
TEXT
  5
36D3
330
A
100
AcDbEntity
  8
テンプレート
100
AcDbText
 10
18.06121699514119
 20
56.50959028673083
 30
0.0
 40
3.5
  1
品名
  7
ＭＳ ゴシック
100
AcDbText
  0
TEXT
  5
36D4
330
A
100
AcDbEntity
  8
テンプレート
100
AcDbText
 10
18.06121699514119
 20
44.65099339080098
 30
0.0
 40
3.5
  1
仕上げ
  7
ＭＳ ゴシック
100
AcDbText
  0
TEXT
  5
36D5
330
A
100
AcDbEntity
  8
テンプレート
100
AcDbText
 10
298.8233485179306
 20
56.58523052309897
 30
0.0
 40
3.5
  1
品番
  7
ＭＳ ゴシック
100
AcDbText
  0
TEXT
  5
36D6
330
A
100
AcDbEntity
  8
テンプレート
100
AcDbText
 10
36.7528253083583
 20
53.09440584367189
 30
0.0
 40
5.5
  1
ガラスドア用ノブ（両面固定タイプ） - FORMANI,Square -
  7
ＭＳ ゴシック
100
AcDbText
  0
LINE
  5
36D8
330
A
100
AcDbEntity
  8
テンプレート
100
AcDbLine
 10
437.9999999999999
 20
50.16496477419605
 30
0.0
 11
15.30952622855898
 21
50.16496477419605
 31
0.0
  0
LINE
  5
36D9
330
A
100
AcDbEntity
  8
テンプレート
100
AcDbLine
 10
578.6904737714411
 20
62.22153683920783
 30
0.0
 11
15.30952622855898
 21
62.22153683920783
 31
0.0
  0
LINE
  5
36DA
330
A
100
AcDbEntity
  8
PRINT BORDER
100
AcDbLine
 10
593.9999999999999
 20
210.0
 30
0.0
 11
578.6904737714411
 21
210.0
 31
0.0
  0
LINE
  5
36DB
330
A
100
AcDbEntity
  8
PRINT BORDER
100
AcDbLine
 10
0.0
 20
210.0
 30
0.0
 11
15.30952622855898
 21
210.0
 31
0.0
  0
LINE
  5
36DC
330
A
100
AcDbEntity
  8
PRINT BORDER
100
AcDbLine
 10
296.9999999999999
 20
420.0
 30
0.0
 11
296.9999999999999
 21
404.690473771441
 31
0.0
  0
LINE
  5
36DD
330
A
100
AcDbEntity
  8
テンプレート
100
AcDbLine
 10
578.6904737714411
 20
62.22153683920783
 30
0.0
 11
578.6904737714411
 21
26.22153683920783
 31
0.0
  0
LINE
  5
36DE
330
A
100
AcDbEntity
  8
テンプレート
100
AcDbLine
 10
15.30952622855898
 20
62.22153683920783
 30
0.0
 11
15.30952622855898
 21
26.22153683920783
 31
0.0
  0
TEXT
  5
36E0
330
A
100
AcDbEntity
  8
テンプレート
100
AcDbText
 10
494.9733384955217
 20
16.51938390313694
 30
0.0
 40
5.5
  1
大洋金物株式会社  
  7
ＭＳ ゴシック
100
AcDbText
  0
LINE
  5
36E1
330
A
100
AcDbEntity
  8
テンプレート
100
AcDbLine
 10
437.9999999999999
 20
62.22153683920783
 30
0.0
 11
437.9999999999999
 21
26.22153683920783
 31
0.0
  0
LINE
  5
36E2
330
A
100
AcDbEntity
  8
テンプレート
100
AcDbLine
 10
296.9999999999999
 20
62.22153683920783
 30
0.0
 11
296.9999999999999
 21
26.22153683920783
 31
0.0
  0
INSERT
  5
36E3
330
A
100
AcDbEntity
  8
テンプレート
100
AcDbBlockReference
  2
名称未設定-1
 10
548.3945198859805
 20
-7.642344203993161
 30
0.0
 41
0.180975
 42
0.180975
 43
0.180975
  0
LINE
  5
36E5
330
A
100
AcDbEntity
  8
テンプレート
100
AcDbLine
 10
15.30952622855898
 20
210.0
 30
0.0
 11
15.30952622855898
 21
26.22153683920783
 31
0.0
  0
LINE
  5
36E6
330
A
100
AcDbEntity
  8
テンプレート
100
AcDbLine
 10
15.30952622855898
 20
210.0
 30
0.0
 11
15.30952622855898
 21
404.690473771441
 31
0.0
  0
LINE
  5
36E7
330
A
100
AcDbEntity
  8
テンプレート
100
AcDbLine
 10
296.9999999999999
 20
404.690473771441
 30
0.0
 11
15.30952622855887
 21
404.690473771441
 31
0.0
  0
LINE
  5
36E8
330
A
100
AcDbEntity
  8
テンプレート
100
AcDbLine
 10
296.9999999999999
 20
404.690473771441
 30
0.0
 11
578.6904737714411
 21
404.690473771441
 31
0.0
  0
LINE
  5
36E9
330
A
100
AcDbEntity
  8
テンプレート
100
AcDbLine
 10
578.6904737714411
 20
210.0
 30
0.0
 11
578.6904737714411
 21
404.690473771441
 31
0.0
  0
LINE
  5
36EA
330
A
100
AcDbEntity
  8
テンプレート
100
AcDbLine
 10
578.6904737714411
 20
210.0
 30
0.0
 11
578.6904737714411
 21
26.22153683920783
 31
0.0
  0
LWPOLYLINE
  5
36EB
330
A
100
AcDbEntity
  8
PRINT BORDER
  6
HIDDEN
 48
3.0
100
AcDbPolyline
 90
        4
 70
     1
 43
0.0
 10
0.0
 20
0.0
 10
0.0
 20
420.0
 10
593.9999999999999
 20
420.0
 10
593.9999999999999
 20
0.0
  0
TEXT
  5
36EC
330
A
100
AcDbEntity
  8
テンプレート
100
AcDbText
 10
298.7989156222221
 20
32.62405342819488
 30
0.0
 40
3.5
  1
縮尺
  7
ＭＳ ゴシック
100
AcDbText
  0
TEXT
  5
36ED
330
A
100
AcDbEntity
  8
テンプレート
100
AcDbText
 10
313.0171205424464
 20
29.43815249371804
 30
0.0
 40
5.5
  1
1/2
  7
ＭＳ ゴシック
100
AcDbText
  0
TEXT
  5
37DE
330
A
100
AcDbEntity
  8
テンプレート
100
AcDbText
 10
298.8233485179306
 20
44.52865845808583
 30
0.0
 40
3.5
  1
扉厚
  7
ＭＳ ゴシック
100
AcDbText
  0
TEXT
  5
41D7
330
A
100
AcDbEntity
  8
テンプレート
100
AcDbText
 10
36.7528253083583
 20
29.15097790868504
 30
0.0
 40
5.5
  1
ステンレス
  7
ＭＳ ゴシック
100
AcDbText
  0
TEXT
  5
41D8
330
A
100
AcDbEntity
  8
テンプレート
100
AcDbText
 10
36.7528253083583
 20
41.03783377866012
 30
0.0
 40
5.5
  1
サテン・ポリッシュ
  7
ＭＳ ゴシック
100
AcDbText
  0
TEXT
  5
42C8
330
A
100
AcDbEntity
  8
テンプレート
100
AcDbText
 10
313.0171205424464
 20
53.38158042870626
 30
0.0
 40
5.5
  1
FOR11-SQ51G
  7
ＭＳ ゴシック
100
AcDbText
  0
TEXT
  5
4346
330
A
100
AcDbEntity
  8
テンプレート
100
AcDbText
 10
440.0887524673468
 20
56.58523052309891
 30
0.0
 40
3.5
  1
備考
  7
ＭＳ ゴシック
100
AcDbText
  0
LINE
  5
49BA
330
A
100
AcDbEntity
  8
モデル
100
AcDbLine
 10
153.6292474824864
 20
140.2063527862376
 30
0.0
 11
153.6292474824864
 21
188.4670047286439
 31
0.0
  0
LINE
  5
49BB
330
A
100
AcDbEntity
  8
モデル
100
AcDbLine
 10
153.6292474824864
 20
188.4670047286439
 30
0.0
 11
152.7817534340277
 21
189.3144987771025
 31
0.0
  0
LINE
  5
49BC
330
A
100
AcDbEntity
  8
モデル
100
AcDbLine
 10
152.7817534340277
 20
189.3144987771025
 30
0.0
 11
104.9465710647297
 21
189.3144987771025
 31
0.0
  0
LINE
  5
49BD
330
A
100
AcDbEntity
  8
モデル
100
AcDbLine
 10
104.9465710647297
 20
189.3144987771025
 30
0.0
 11
103.6753299920418
 21
188.4670047286439
 31
0.0
  0
LINE
  5
49BE
330
A
100
AcDbEntity
  8
モデル
100
AcDbLine
 10
103.6753299920418
 20
188.4670047286439
 30
0.0
 11
103.6753299920418
 21
140.2063527862376
 31
0.0
  0
LINE
  5
49BF
330
A
100
AcDbEntity
  8
モデル
100
AcDbLine
 10
103.6753299920418
 20
140.2063527862376
 30
0.0
 11
104.9448485158508
 21
139.358858737779
 31
0.0
  0
LINE
  5
49C0
330
A
100
AcDbEntity
  8
モデル
100
AcDbLine
 10
104.9448485158508
 20
139.358858737779
 30
0.0
 11
152.7817534340277
 21
139.358858737779
 31
0.0
  0
LINE
  5
49C1
330
A
100
AcDbEntity
  8
モデル
100
AcDbLine
 10
152.7817534340277
 20
139.358858737779
 30
0.0
 11
153.6292474824864
 21
140.2063527862376
 31
0.0
  0
LINE
  5
49C5
330
A
100
AcDbEntity
  8
モデル
100
AcDbLine
 10
103.6753299920418
 20
243.0915779526905
 30
0.0
 11
104.9448485158508
 21
242.2440839042319
 31
0.0
  0
LINE
  5
49C6
102
{ACAD_REACTORS
330
4B15
102
}
330
A
100
AcDbEntity
  8
モデル
100
AcDbLine
 10
104.9448485158508
 20
242.2440839042319
 30
0.0
 11
152.7817534340277
 21
242.2440839042319
 31
0.0
  0
LINE
  5
49C7
330
A
100
AcDbEntity
  8
モデル
100
AcDbLine
 10
152.7817534340277
 20
242.2440839042319
 30
0.0
 11
153.6292474824864
 21
243.0915779526905
 31
0.0
  0
LINE
  5
49C8
102
{ACAD_REACTORS
330
4B24
102
}
330
A
100
AcDbEntity
  8
モデル
100
AcDbLine
 10
153.6292474824864
 20
243.0915779526905
 30
0.0
 11
153.6275249336074
 21
301.9338476586759
 31
0.0
  0
LINE
  5
49C9
102
{ACAD_REACTORS
330
4B24
102
}
330
A
100
AcDbEntity
  8
モデル
100
AcDbLine
 10
103.6753299920418
 20
301.9338476586759
 30
0.0
 11
103.6753299920418
 21
243.0915779526905
 31
0.0
  0
LINE
  5
49CF
330
A
100
AcDbEntity
  8
モデル
100
AcDbLine
 10
153.6275249336074
 20
301.9338476586759
 30
0.0
 11
103.6753299920418
 21
301.9338476586759
 31
0.0
  0
LINE
  5
4ABE
330
A
100
AcDbEntity
  8
モデル
100
AcDbLine
 10
218.8801764076076
 20
139.1487077745433
 30
0.0
 11
218.032682359149
 21
140.4182262983523
 31
0.0
  0
LINE
  5
4ABF
330
A
100
AcDbEntity
  8
モデル
100
AcDbLine
 10
218.032682359149
 20
140.4182262983523
 30
0.0
 11
218.0326823591489
 21
188.2551312165292
 31
0.0
  0
LINE
  5
4AC0
330
A
100
AcDbEntity
  8
モデル
100
AcDbLine
 10
218.0326823591489
 20
188.2551312165292
 30
0.0
 11
218.8801764076075
 21
189.1026252649879
 31
0.0
  0
LINE
  5
4AC1
330
A
100
AcDbEntity
  8
モデル
100
AcDbLine
 10
218.8801764076075
 20
189.1026252649879
 30
0.0
 11
277.722446113593
 21
189.1009027161089
 31
0.0
  0
LINE
  5
4AC2
330
A
100
AcDbEntity
  8
モデル
100
AcDbLine
 10
277.7224461135932
 20
139.1487077745433
 30
0.0
 11
258.6216390249552
 21
139.1487077745433
 31
0.0
  0
LINE
  5
4AC8
330
A
100
AcDbEntity
  8
モデル
100
AcDbLine
 10
277.722446113593
 20
189.1009027161089
 30
0.0
 11
277.7224461135932
 21
139.1487077745433
 31
0.0
  0
DIMENSION
  5
4B13
102
{ACAD_REACTORS
330
4B15
102
}
102
{ACAD_XDICTIONARY
360
4B14
102
}
330
A
100
AcDbEntity
  8
寸法
100
AcDbDimension
  2
*D4
 10
174.9800423734127
 20
242.2440839042319
 30
0.0
 11
167.4800423734127
 21
272.0889657814539
 31
0.0
 70
    32
 71
     5
 42
59.68976375444402
 73
     0
 74
     0
 75
     0
  3
tfrom線あり
100
AcDbAlignedDimension
 13
153.6275249336074
 23
301.9338476586759
 33
0.0
 14
152.7817534340277
 24
242.2440839042319
 34
0.0
 50
90.0
100
AcDbRotatedDimension
  0
DIMENSION
  5
4B22
102
{ACAD_REACTORS
330
4B24
102
}
102
{ACAD_XDICTIONARY
360
4B23
102
}
330
A
100
AcDbEntity
  8
寸法
100
AcDbDimension
  2
*D5
 10
153.6291934439126
 20
221.2948901252216
 30
0.0
 11
128.6522617179772
 21
228.7948901252216
 31
0.0
 70
    32
 71
     5
 42
49.95386345187077
 73
     0
 74
     0
 75
     0
  3
tfrom線あり
100
AcDbAlignedDimension
 13
103.6753299920418
 23
243.0915779526905
 33
0.0
 14
153.6291934439126
 24
244.9375356317967
 34
0.0
100
AcDbRotatedDimension
  0
DIMENSION
  5
4B31
330
A
100
AcDbEntity
  8
寸法
100
AcDbDimension
  2
*D6
 10
80.76663869770101
 20
139.358858737779
 30
0.0
 11
73.26663869770101
 21
164.3366787574407
 31
0.0
 70
    32
 71
     5
 42
49.9556400393235
 73
     0
 74
     0
 75
     0
  3
tfrom線あり
100
AcDbAlignedDimension
 13
104.9051494647837
 23
189.3144987771025
 33
0.0
 14
104.9051494647837
 24
139.358858737779
 34
0.0
 50
90.0
100
AcDbRotatedDimension
  0
ARC
  5
4BB2
330
A
100
AcDbEntity
  8
モデル
100
AcDbCircle
 10
243.6799530909527
 20
133.8148476433335
 30
0.0
 40
15.86518334119326
100
AcDbArc
 50
19.64216758541766
 51
160.3578324145822
  0
LINE
  5
4BB3
330
A
100
AcDbEntity
  8
モデル
  6
HIDDEN
100
AcDbLine
 10
103.6761912664813
 20
282.833347998481
 30
0.0
 11
153.6301087569261
 21
282.833347998481
 31
0.0
  0
LINE
  5
4BB4
330
A
100
AcDbEntity
  8
モデル
  6
HIDDEN
100
AcDbLine
 10
103.6761912664813
 20
252.9493612735902
 30
0.0
 11
153.6301087569261
 21
252.9493612735902
 31
0.0
  0
LINE
  5
4BBF
330
A
100
AcDbEntity
  8
モデル
100
AcDbLine
 10
228.7382671569502
 20
139.1487077745433
 30
0.0
 11
218.8801764076076
 21
139.1487077745433
 31
0.0
  0
LINE
  5
4EC7
330
A
100
AcDbEntity
  8
モデル
100
AcDbLine
 10
479.6689693079787
 20
305.2352920672238
 30
0.0
 11
479.6689693079787
 21
292.2352920672238
 31
0.0
  0
LINE
  5
4EC8
330
A
100
AcDbEntity
  8
モデル
100
AcDbLine
 10
420.2328517102701
 20
303.7352920672238
 30
0.0
 11
455.6689693079787
 21
303.7352920672238
 31
0.0
  0
LINE
  5
4EC9
330
A
100
AcDbEntity
  8
モデル
100
AcDbLine
 10
466.6689693079787
 20
305.2352920672238
 30
0.0
 11
467.6689693079787
 21
303.235292067224
 31
0.0
  0
LINE
  5
4ECA
330
A
100
AcDbEntity
  8
モデル
100
AcDbLine
 10
473.6689693079787
 20
305.2352920672238
 30
0.0
 11
470.6689693079787
 21
303.235292067224
 31
0.0
  0
LINE
  5
4ECB
330
A
100
AcDbEntity
  8
モデル
100
AcDbLine
 10
467.6689693079787
 20
303.235292067224
 30
0.0
 11
470.6689693079787
 21
303.235292067224
 31
0.0
  0
LINE
  5
4ECC
330
A
100
AcDbEntity
  8
モデル
100
AcDbLine
 10
473.6689693079787
 20
305.2352920672238
 30
0.0
 11
479.6689693079787
 21
305.2352920672238
 31
0.0
  0
LINE
  5
4ECD
330
A
100
AcDbEntity
  8
モデル
100
AcDbLine
 10
455.6689693079787
 20
305.2352920672238
 30
0.0
 11
466.6689693079787
 21
305.2352920672238
 31
0.0
  0
LINE
  5
4ECE
330
A
100
AcDbEntity
  8
モデル
100
AcDbLine
 10
455.6689693079787
 20
293.7352920672238
 30
0.0
 11
420.2328517102701
 21
293.7352920672238
 31
0.0
  0
LINE
  5
4ECF
330
A
100
AcDbEntity
  8
モデル
100
AcDbLine
 10
473.6689693079787
 20
292.2352920672238
 30
0.0
 11
473.6689693079787
 21
305.2352920672238
 31
0.0
  0
LINE
  5
4ED0
330
A
100
AcDbEntity
  8
モデル
100
AcDbLine
 10
466.6689693079787
 20
292.2352920672238
 30
0.0
 11
466.6689693079787
 21
305.2352920672238
 31
0.0
  0
LINE
  5
4ED1
330
A
100
AcDbEntity
  8
モデル
100
AcDbLine
 10
419.6689693079787
 20
294.0412436435473
 30
0.0
 11
420.2328517102701
 21
293.7352920672238
 31
0.0
  0
LINE
  5
4ED2
330
A
100
AcDbEntity
  8
モデル
100
AcDbLine
 10
419.6689693079787
 20
303.4293404909002
 30
0.0
 11
420.2328517102701
 21
303.7352920672238
 31
0.0
  0
LINE
  5
4ED3
330
A
100
AcDbEntity
  8
モデル
100
AcDbLine
 10
419.6689693079787
 20
303.4293404909002
 30
0.0
 11
419.6689693079787
 21
294.0412436435473
 31
0.0
  0
DIMENSION
  5
4ED4
330
A
100
AcDbEntity
  8
寸法
100
AcDbDimension
  2
*D7
 10
455.6689693079787
 20
276.0846387111045
 30
0.0
 11
467.6689693079787
 21
283.5846387111045
 31
0.0
 70
    32
 71
     5
 42
24.0
 73
     0
 74
     0
 75
     0
  3
tfrom線あり
100
AcDbAlignedDimension
 13
479.6689693079787
 23
293.7283449732655
 33
0.0
 14
455.6689693079787
 24
290.2352920672238
 34
0.0
 50
-0.000000000000014
100
AcDbRotatedDimension
  0
LINE
  5
4ED5
330
A
100
AcDbEntity
  8
モデル
100
AcDbLine
 10
426.0570335833952
 20
293.7352920672238
 30
0.0
 11
424.2937637763105
 21
303.7352920672238
 31
0.0
1001
ACAD
1010
0.0
1020
0.0
1030
0.0
  0
LINE
  5
4ED6
330
A
100
AcDbEntity
  8
モデル
100
AcDbLine
 10
427.6690233297638
 20
293.7352920672238
 30
0.0
 11
425.9057535226793
 21
303.7352920672238
 31
0.0
1001
ACAD
1010
0.0
1020
0.0
1030
0.0
  0
LINE
  5
4ED7
330
A
100
AcDbEntity
  8
モデル
100
AcDbLine
 10
429.2810130761325
 20
293.7352920672238
 30
0.0
 11
427.5177432690478
 21
303.7352920672238
 31
0.0
1001
ACAD
1010
0.0
1020
0.0
1030
0.0
  0
LINE
  5
4ED8
330
A
100
AcDbEntity
  8
モデル
100
AcDbLine
 10
430.8930028225011
 20
293.7352920672238
 30
0.0
 11
429.1297330154164
 21
303.7352920672238
 31
0.0
1001
ACAD
1010
0.0
1020
0.0
1030
0.0
  0
LINE
  5
4ED9
330
A
100
AcDbEntity
  8
モデル
100
AcDbLine
 10
432.5049925688696
 20
293.7352920672238
 30
0.0
 11
430.741722761785
 21
303.7352920672238
 31
0.0
1001
ACAD
1010
0.0
1020
0.0
1030
0.0
  0
LINE
  5
4EDA
330
A
100
AcDbEntity
  8
モデル
100
AcDbLine
 10
434.1169823152384
 20
293.7352920672238
 30
0.0
 11
432.3537125081538
 21
303.7352920672238
 31
0.0
1001
ACAD
1010
0.0
1020
0.0
1030
0.0
  0
LINE
  5
4EDB
330
A
100
AcDbEntity
  8
モデル
100
AcDbLine
 10
435.728972061607
 20
293.7352920672238
 30
0.0
 11
433.9657022545223
 21
303.7352920672238
 31
0.0
1001
ACAD
1010
0.0
1020
0.0
1030
0.0
  0
LINE
  5
4EDC
330
A
100
AcDbEntity
  8
モデル
100
AcDbLine
 10
437.3409618079755
 20
293.7352920672238
 30
0.0
 11
435.5776920008909
 21
303.7352920672238
 31
0.0
1001
ACAD
1010
0.0
1020
0.0
1030
0.0
  0
LINE
  5
4EDD
330
A
100
AcDbEntity
  8
モデル
100
AcDbLine
 10
438.9529515543442
 20
293.7352920672238
 30
0.0
 11
437.1896817472595
 21
303.7352920672238
 31
0.0
1001
ACAD
1010
0.0
1020
0.0
1030
0.0
  0
LINE
  5
4EDE
330
A
100
AcDbEntity
  8
モデル
100
AcDbLine
 10
440.5649413007129
 20
293.7352920672238
 30
0.0
 11
438.8016714936282
 21
303.7352920672238
 31
0.0
1001
ACAD
1010
0.0
1020
0.0
1030
0.0
  0
LINE
  5
4EDF
330
A
100
AcDbEntity
  8
モデル
100
AcDbLine
 10
442.1769310470814
 20
293.7352920672238
 30
0.0
 11
440.4136612399968
 21
303.7352920672238
 31
0.0
1001
ACAD
1010
0.0
1020
0.0
1030
0.0
  0
LINE
  5
4EE0
330
A
100
AcDbEntity
  8
モデル
100
AcDbLine
 10
443.7889207934501
 20
293.7352920672238
 30
0.0
 11
442.0256509863655
 21
303.7352920672238
 31
0.0
1001
ACAD
1010
0.0
1020
0.0
1030
0.0
  0
LINE
  5
4EE1
330
A
100
AcDbEntity
  8
モデル
100
AcDbLine
 10
445.4009105398186
 20
293.7352920672238
 30
0.0
 11
443.6376407327341
 21
303.7352920672238
 31
0.0
1001
ACAD
1010
0.0
1020
0.0
1030
0.0
  0
LINE
  5
4EE2
330
A
100
AcDbEntity
  8
モデル
100
AcDbLine
 10
447.0129002861872
 20
293.7352920672238
 30
0.0
 11
445.2496304791026
 21
303.7352920672238
 31
0.0
1001
ACAD
1010
0.0
1020
0.0
1030
0.0
  0
LINE
  5
4EE3
330
A
100
AcDbEntity
  8
モデル
100
AcDbLine
 10
448.6248900325559
 20
293.7352920672238
 30
0.0
 11
446.8616202254712
 21
303.7352920672238
 31
0.0
1001
ACAD
1010
0.0
1020
0.0
1030
0.0
  0
LINE
  5
4EE4
330
A
100
AcDbEntity
  8
モデル
100
AcDbLine
 10
450.2368797789245
 20
293.7352920672238
 30
0.0
 11
448.4736099718398
 21
303.7352920672238
 31
0.0
1001
ACAD
1010
0.0
1020
0.0
1030
0.0
  0
LINE
  5
4EE5
330
A
100
AcDbEntity
  8
モデル
100
AcDbLine
 10
451.8488695252931
 20
293.7352920672238
 30
0.0
 11
450.0855997182085
 21
303.7352920672238
 31
0.0
1001
ACAD
1010
0.0
1020
0.0
1030
0.0
  0
LINE
  5
4EE6
330
A
100
AcDbEntity
  8
モデル
100
AcDbLine
 10
453.4608592716618
 20
293.7352920672238
 30
0.0
 11
451.6975894645772
 21
303.7352920672238
 31
0.0
1001
ACAD
1010
0.0
1020
0.0
1030
0.0
  0
LINE
  5
4EE7
330
A
100
AcDbEntity
  8
モデル
100
AcDbLine
 10
455.0728490180303
 20
293.7352920672238
 30
0.0
 11
453.3095792109457
 21
303.7352920672238
 31
0.0
1001
ACAD
1010
0.0
1020
0.0
1030
0.0
  0
LINE
  5
4EE8
330
A
100
AcDbEntity
  8
モデル
100
AcDbLine
 10
420.2328517102701
 20
293.7352920672238
 30
0.0
 11
420.2328517102701
 21
303.7352920672238
 31
0.0
  0
DIMENSION
  5
4EE9
330
A
100
AcDbEntity
  8
寸法
100
AcDbDimension
  2
*D8
 10
404.8453697620185
 20
293.7352920672238
 30
0.0
 11
404.8453697620185
 21
298.7352920672238
 31
0.0
 70
   160
  1
M10
 71
     5
 42
10.0
 73
     0
 74
     0
 75
     0
  3
tfrom線あり
100
AcDbAlignedDimension
 13
421.4643725799527
 23
303.7352920672238
 33
0.0
 14
421.4643725799527
 24
293.7352920672238
 34
0.0
 50
90.0
100
AcDbRotatedDimension
  0
TEXT
  5
4EEA
330
A
100
AcDbEntity
  8
テンプレート
100
AcDbText
 10
429.5601819009751
 20
323.6331993607579
 30
0.0
 40
6.0
  1
<取付部品>
  7
ＭＳ ゴシック
100
AcDbText
  0
LINE
  5
4EEB
330
A
100
AcDbEntity
  8
寸法
  6
CENTER
100
AcDbLine
 10
449.654511435283
 20
183.2794206796685
 30
0.0
 11
449.654511435283
 21
219.971970226414
 31
0.0
  0
CIRCLE
  5
4EEC
102
{ACAD_REACTORS
330
4EED
102
}
330
A
100
AcDbEntity
  8
寸法
100
AcDbCircle
 10
449.654511435283
 20
201.6256954530413
 30
0.0
 40
8.5
  0
HATCH
  5
4EED
330
A
100
AcDbEntity
  8
寸法
100
AcDbHatch
 10
0.0
 20
0.0
 30
0.0
210
0.0
220
0.0
230
1.0
  2
ANSI31
 70
     0
 71
     1
 91
        1
 92
        1
 93
        1
 72
     2
 10
449.654511435283
 20
201.6256954530413
 40
8.5
 50
0.0
 51
360.0
 73
     1
 97
        1
330
4EEC
 75
     0
 76
     1
 52
0.0
 41
1.0
 77
     0
 78
     1
 53
45.0
 43
-57.16781208307009
 44
34.05535021783892
 45
-2.245064030267288
 46
2.245064030267288
 79
     0
 98
        1
 10
-57.16781208307009
 20
34.05535021783892
1001
ACAD
1010
0.0
1020
0.0
1030
0.0
  0
LINE
  5
4EEE
330
A
100
AcDbEntity
  8
寸法
  6
CENTER
100
AcDbLine
 10
468.0007862086558
 20
201.6256954530413
 30
0.0
 11
431.3082366619101
 21
201.6256954530413
 31
0.0
  0
LINE
  5
4EEF
330
A
100
AcDbEntity
  8
寸法
100
AcDbLine
 10
455.8339183229166
 20
195.7891784679666
 30
0.0
 11
468.5497234035303
 21
179.5020585299955
 31
0.0
  0
LINE
  5
4EF0
330
A
100
AcDbEntity
  8
寸法
100
AcDbLine
 10
468.5497234035303
 20
179.5020585299955
 30
0.0
 11
486.7512444151497
 21
179.5020585299955
 31
0.0
  0
TEXT
  5
4EF1
330
A
100
AcDbEntity
  8
テンプレート
100
AcDbText
 10
471.5919894076217
 20
182.5424377294839
 30
0.0
 40
5.5
  1
%%c17
  7
ＭＳ ゴシック
100
AcDbText
  0
TEXT
  5
4EF2
330
A
100
AcDbEntity
  8
テンプレート
100
AcDbText
 10
423.4856380761108
 20
239.6319053749025
 30
0.0
 40
5.5
  1
ガラス扉用下穴
  7
ＭＳ ゴシック
100
AcDbText
  0
LINE
  5
4F22
330
A
100
AcDbEntity
  8
モデル
100
AcDbLine
 10
473.6689693079787
 20
292.2352920672238
 30
0.0
 11
470.6689693079787
 21
294.2352920672237
 31
0.0
  0
LINE
  5
4F23
330
A
100
AcDbEntity
  8
モデル
100
AcDbLine
 10
473.6689693079787
 20
292.2352920672238
 30
0.0
 11
479.6689693079787
 21
292.2352920672238
 31
0.0
  0
LINE
  5
4F24
330
A
100
AcDbEntity
  8
モデル
100
AcDbLine
 10
467.6689693079787
 20
294.2352920672237
 30
0.0
 11
470.6689693079787
 21
294.2352920672237
 31
0.0
  0
LINE
  5
4F25
330
A
100
AcDbEntity
  8
モデル
100
AcDbLine
 10
466.6689693079787
 20
292.2352920672238
 30
0.0
 11
467.6689693079787
 21
294.2352920672237
 31
0.0
  0
LINE
  5
4F26
330
A
100
AcDbEntity
  8
モデル
100
AcDbLine
 10
455.6689693079787
 20
292.2352920672238
 30
0.0
 11
466.6689693079787
 21
292.2352920672238
 31
0.0
  0
LINE
  5
4F27
330
A
100
AcDbEntity
  8
モデル
100
AcDbLine
 10
460.9873829143861
 20
292.2352920672238
 30
0.0
 11
459.8500302885492
 21
305.2352920672238
 31
0.0
1001
ACAD
1010
0.0
1020
0.0
1030
0.0
  0
LINE
  5
4F28
330
A
100
AcDbEntity
  8
モデル
100
AcDbLine
 10
462.5809469064862
 20
292.2352920672238
 30
0.0
 11
461.4435942806492
 21
305.2352920672238
 31
0.0
1001
ACAD
1010
0.0
1020
0.0
1030
0.0
  0
LINE
  5
4F29
330
A
100
AcDbEntity
  8
モデル
100
AcDbLine
 10
464.1745108985863
 20
292.2352920672238
 30
0.0
 11
463.0371582727492
 21
305.2352920672238
 31
0.0
1001
ACAD
1010
0.0
1020
0.0
1030
0.0
  0
LINE
  5
4F2A
330
A
100
AcDbEntity
  8
モデル
100
AcDbLine
 10
465.7680748906863
 20
292.2352920672238
 30
0.0
 11
464.6307222648494
 21
305.2352920672238
 31
0.0
1001
ACAD
1010
0.0
1020
0.0
1030
0.0
  0
LINE
  5
4F2B
330
A
100
AcDbEntity
  8
モデル
100
AcDbLine
 10
466.6689693079787
 20
300.152541535807
 30
0.0
 11
466.2242862569494
 21
305.2352920672238
 31
0.0
1001
ACAD
1010
0.0
1020
0.0
1030
0.0
  0
LINE
  5
4F2C
330
A
100
AcDbEntity
  8
モデル
100
AcDbLine
 10
475.3294588432867
 20
292.2352920672238
 30
0.0
 11
474.1921062174498
 21
305.2352920672238
 31
0.0
1001
ACAD
1010
0.0
1020
0.0
1030
0.0
  0
LINE
  5
4F2D
330
A
100
AcDbEntity
  8
モデル
100
AcDbLine
 10
476.9230228353868
 20
292.2352920672238
 30
0.0
 11
475.7856702095497
 21
305.2352920672238
 31
0.0
1001
ACAD
1010
0.0
1020
0.0
1030
0.0
  0
LINE
  5
4F2E
330
A
100
AcDbEntity
  8
モデル
100
AcDbLine
 10
478.5165868274868
 20
292.2352920672238
 30
0.0
 11
477.3792342016499
 21
305.2352920672238
 31
0.0
1001
ACAD
1010
0.0
1020
0.0
1030
0.0
  0
LINE
  5
4F2F
330
A
100
AcDbEntity
  8
モデル
100
AcDbLine
 10
479.6689693079787
 20
297.2780198199166
 30
0.0
 11
478.97279819375
 21
305.2352920672238
 31
0.0
1001
ACAD
1010
0.0
1020
0.0
1030
0.0
  0
LINE
  5
4F30
330
A
100
AcDbEntity
  8
モデル
100
AcDbLine
 10
457.800254930186
 20
292.2352920672238
 30
0.0
 11
456.662902304349
 21
305.2352920672238
 31
0.0
1001
ACAD
1010
0.0
1020
0.0
1030
0.0
  0
LINE
  5
4F31
330
A
100
AcDbEntity
  8
モデル
100
AcDbLine
 10
459.3938189222861
 20
292.2352920672238
 30
0.0
 11
458.2564662964492
 21
305.2352920672238
 31
0.0
1001
ACAD
1010
0.0
1020
0.0
1030
0.0
  0
LINE
  5
4F32
330
A
100
AcDbEntity
  8
モデル
100
AcDbLine
 10
456.2066909380859
 20
292.2352920672238
 30
0.0
 11
455.6689693079787
 21
298.381478423675
 31
0.0
1001
ACAD
1010
0.0
1020
0.0
1030
0.0
  0
LINE
  5
4F33
330
A
100
AcDbEntity
  8
モデル
100
AcDbLine
 10
455.6689693079787
 20
292.2352920672238
 30
0.0
 11
455.6689693079787
 21
305.2352920672238
 31
0.0
  0
DIMENSION
  5
4F34
330
A
100
AcDbEntity
  8
寸法
100
AcDbDimension
  2
*D9
 10
498.8000961470706
 20
292.2352920672238
 30
0.0
 11
498.8000961470706
 21
298.6043918096769
 31
0.0
 70
   160
 71
     5
 42
12.73819948490643
 73
     0
 74
     0
 75
     0
  3
tfrom線あり
100
AcDbAlignedDimension
 13
480.0397311335838
 23
304.9734915521302
 33
0.0
 14
479.6689693079787
 24
292.2352920672238
 34
0.0
 50
90.0
100
AcDbRotatedDimension
  0
DIMENSION
  5
4F35
330
A
100
AcDbEntity
  8
寸法
100
AcDbDimension
  2
*D10
 10
419.6689693079787
 20
276.0846387111045
 30
0.0
 11
437.6689693079787
 21
283.5846387111045
 31
0.0
 70
    32
 71
     5
 42
36.0
 73
     0
 74
     0
 75
     0
  3
tfrom線あり
100
AcDbAlignedDimension
 13
455.6689693079787
 23
290.2352920672238
 33
0.0
 14
419.6689693079787
 24
290.2352920672238
 34
0.0
100
AcDbRotatedDimension
  0
LINE
  5
4F37
330
A
100
AcDbEntity
  8
モデル
100
AcDbLine
 10
424.4450438370267
 20
293.7352920672238
 30
0.0
 11
422.6817740299419
 21
303.7352920672238
 31
0.0
1001
ACAD
1010
0.0
1020
0.0
1030
0.0
  0
LINE
  5
4F38
330
A
100
AcDbEntity
  8
モデル
100
AcDbLine
 10
422.833054090658
 20
293.7352920672238
 30
0.0
 11
421.0697842835734
 21
303.7352920672238
 31
0.0
1001
ACAD
1010
0.0
1020
0.0
1030
0.0
  0
LINE
  5
4F39
330
A
100
AcDbEntity
  8
モデル
100
AcDbLine
 10
421.2210643442894
 20
293.7352920672238
 30
0.0
 11
420.2328517102701
 21
299.3397244124544
 31
0.0
1001
ACAD
1010
0.0
1020
0.0
1030
0.0
  0
LINE
  5
4F3A
102
{ACAD_REACTORS
330
503D
102
}
330
A
100
AcDbEntity
  8
モデル
  6
HIDDEN
100
AcDbLine
 10
135.5052411063734
 20
277.9338476586759
 30
0.0
 11
122.5052411063734
 21
277.9338476586759
 31
0.0
  0
LINE
  5
4F3B
102
{ACAD_REACTORS
330
503D
102
}
330
A
100
AcDbEntity
  8
モデル
  6
HIDDEN
100
AcDbLine
 10
135.5052411063734
 20
290.9338476586759
 30
0.0
 11
133.5052411063735
 21
289.9338476586759
 31
0.0
  0
LINE
  5
4F3C
102
{ACAD_REACTORS
330
503D
102
}
330
A
100
AcDbEntity
  8
モデル
  6
HIDDEN
100
AcDbLine
 10
135.5052411063734
 20
283.9338476586759
 30
0.0
 11
133.5052411063735
 21
286.9338476586759
 31
0.0
  0
LINE
  5
4F3D
102
{ACAD_REACTORS
330
503D
102
}
330
A
100
AcDbEntity
  8
モデル
  6
HIDDEN
100
AcDbLine
 10
133.5052411063735
 20
289.9338476586759
 30
0.0
 11
133.5052411063735
 21
286.9338476586759
 31
0.0
  0
LINE
  5
4F3E
102
{ACAD_REACTORS
330
503D
102
}
330
A
100
AcDbEntity
  8
モデル
  6
HIDDEN
100
AcDbLine
 10
135.5052411063734
 20
283.9338476586759
 30
0.0
 11
135.5052411063734
 21
277.9338476586759
 31
0.0
  0
LINE
  5
4F3F
102
{ACAD_REACTORS
330
503D
102
}
330
A
100
AcDbEntity
  8
モデル
  6
HIDDEN
100
AcDbLine
 10
135.5052411063734
 20
301.9338476586759
 30
0.0
 11
135.5052411063734
 21
290.9338476586759
 31
0.0
  0
LINE
  5
4F40
102
{ACAD_REACTORS
330
503D
102
}
330
A
100
AcDbEntity
  8
モデル
  6
HIDDEN
100
AcDbLine
 10
122.5052411063734
 20
283.9338476586759
 30
0.0
 11
135.5052411063734
 21
283.9338476586759
 31
0.0
  0
LINE
  5
4F41
102
{ACAD_REACTORS
330
503D
102
}
330
A
100
AcDbEntity
  8
モデル
  6
HIDDEN
100
AcDbLine
 10
122.5052411063734
 20
290.9338476586759
 30
0.0
 11
135.5052411063734
 21
290.9338476586759
 31
0.0
  0
LINE
  5
4F42
102
{ACAD_REACTORS
330
503D
102
}
330
A
100
AcDbEntity
  8
モデル
100
AcDbLine
 10
124.0052411063734
 20
313.8138961732046
 30
0.0
 11
134.0052411063734
 21
315.5771659802892
 31
0.0
1001
ACAD
1010
0.0
1020
0.0
1030
0.0
  0
LINE
  5
4F43
102
{ACAD_REACTORS
330
503D
102
}
330
A
100
AcDbEntity
  8
モデル
100
AcDbLine
 10
124.0052411063734
 20
312.201906426836
 30
0.0
 11
134.0052411063734
 21
313.9651762339205
 31
0.0
1001
ACAD
1010
0.0
1020
0.0
1030
0.0
  0
LINE
  5
4F44
102
{ACAD_REACTORS
330
503D
102
}
330
A
100
AcDbEntity
  8
モデル
100
AcDbLine
 10
124.0052411063734
 20
310.5899166804674
 30
0.0
 11
134.0052411063734
 21
312.353186487552
 31
0.0
1001
ACAD
1010
0.0
1020
0.0
1030
0.0
  0
LINE
  5
4F45
102
{ACAD_REACTORS
330
503D
102
}
330
A
100
AcDbEntity
  8
モデル
100
AcDbLine
 10
124.0052411063734
 20
308.9779269340988
 30
0.0
 11
134.0052411063734
 21
310.7411967411834
 31
0.0
1001
ACAD
1010
0.0
1020
0.0
1030
0.0
  0
LINE
  5
4F46
102
{ACAD_REACTORS
330
503D
102
}
330
A
100
AcDbEntity
  8
モデル
100
AcDbLine
 10
124.0052411063734
 20
307.3659371877301
 30
0.0
 11
134.0052411063734
 21
309.1292069948149
 31
0.0
1001
ACAD
1010
0.0
1020
0.0
1030
0.0
  0
LINE
  5
4F47
102
{ACAD_REACTORS
330
503D
102
}
330
A
100
AcDbEntity
  8
モデル
100
AcDbLine
 10
124.0052411063734
 20
305.7539474413615
 30
0.0
 11
134.0052411063734
 21
307.5172172484461
 31
0.0
1001
ACAD
1010
0.0
1020
0.0
1030
0.0
  0
LINE
  5
4F48
102
{ACAD_REACTORS
330
503D
102
}
330
A
100
AcDbEntity
  8
モデル
100
AcDbLine
 10
124.0052411063734
 20
304.1419576949929
 30
0.0
 11
134.0052411063734
 21
305.9052275020775
 31
0.0
1001
ACAD
1010
0.0
1020
0.0
1030
0.0
  0
LINE
  5
4F49
102
{ACAD_REACTORS
330
503D
102
}
330
A
100
AcDbEntity
  8
モデル
100
AcDbLine
 10
124.0052411063734
 20
302.5299679486243
 30
0.0
 11
134.0052411063734
 21
304.293237755709
 31
0.0
1001
ACAD
1010
0.0
1020
0.0
1030
0.0
  0
LINE
  5
4F4A
102
{ACAD_REACTORS
330
503D
102
}
330
A
100
AcDbEntity
  8
モデル
  6
HIDDEN
100
AcDbLine
 10
122.5052411063734
 20
283.9338476586759
 30
0.0
 11
124.5052411063733
 21
286.9338476586759
 31
0.0
  0
LINE
  5
4F4B
102
{ACAD_REACTORS
330
503D
102
}
330
A
100
AcDbEntity
  8
モデル
  6
HIDDEN
100
AcDbLine
 10
122.5052411063734
 20
283.9338476586759
 30
0.0
 11
122.5052411063734
 21
277.9338476586759
 31
0.0
  0
LINE
  5
4F4C
102
{ACAD_REACTORS
330
503D
102
}
330
A
100
AcDbEntity
  8
モデル
  6
HIDDEN
100
AcDbLine
 10
124.5052411063733
 20
289.9338476586759
 30
0.0
 11
124.5052411063733
 21
286.9338476586759
 31
0.0
  0
LINE
  5
4F4D
102
{ACAD_REACTORS
330
503D
102
}
330
A
100
AcDbEntity
  8
モデル
  6
HIDDEN
100
AcDbLine
 10
122.5052411063734
 20
290.9338476586759
 30
0.0
 11
124.5052411063733
 21
289.9338476586759
 31
0.0
  0
LINE
  5
4F4E
102
{ACAD_REACTORS
330
503D
102
}
330
A
100
AcDbEntity
  8
モデル
  6
HIDDEN
100
AcDbLine
 10
122.5052411063734
 20
301.9338476586759
 30
0.0
 11
122.5052411063734
 21
290.9338476586759
 31
0.0
  0
LINE
  5
4F4F
102
{ACAD_REACTORS
330
503D
102
}
330
A
100
AcDbEntity
  8
モデル
  6
HIDDEN
100
AcDbLine
 10
122.5052411063734
 20
296.6154340522685
 30
0.0
 11
135.5052411063734
 21
297.7527866781056
 31
0.0
1001
ACAD
1010
0.0
1020
0.0
1030
0.0
  0
LINE
  5
4F50
102
{ACAD_REACTORS
330
503D
102
}
330
A
100
AcDbEntity
  8
モデル
  6
HIDDEN
100
AcDbLine
 10
122.5052411063734
 20
295.0218700601685
 30
0.0
 11
135.5052411063734
 21
296.1592226860054
 31
0.0
1001
ACAD
1010
0.0
1020
0.0
1030
0.0
  0
LINE
  5
4F51
102
{ACAD_REACTORS
330
503D
102
}
330
A
100
AcDbEntity
  8
モデル
  6
HIDDEN
100
AcDbLine
 10
122.5052411063734
 20
293.4283060680685
 30
0.0
 11
135.5052411063734
 21
294.5656586939054
 31
0.0
1001
ACAD
1010
0.0
1020
0.0
1030
0.0
  0
LINE
  5
4F52
102
{ACAD_REACTORS
330
503D
102
}
330
A
100
AcDbEntity
  8
モデル
  6
HIDDEN
100
AcDbLine
 10
122.5052411063734
 20
291.8347420759683
 30
0.0
 11
135.5052411063734
 21
292.9720947018054
 31
0.0
1001
ACAD
1010
0.0
1020
0.0
1030
0.0
  0
LINE
  5
4F53
102
{ACAD_REACTORS
330
503D
102
}
330
A
100
AcDbEntity
  8
モデル
  6
HIDDEN
100
AcDbLine
 10
130.4224905749565
 20
290.9338476586759
 30
0.0
 11
135.5052411063734
 21
291.3785307097052
 31
0.0
1001
ACAD
1010
0.0
1020
0.0
1030
0.0
  0
LINE
  5
4F54
102
{ACAD_REACTORS
330
503D
102
}
330
A
100
AcDbEntity
  8
モデル
  6
HIDDEN
100
AcDbLine
 10
122.5052411063734
 20
282.2733581233679
 30
0.0
 11
135.5052411063734
 21
283.410710749205
 31
0.0
1001
ACAD
1010
0.0
1020
0.0
1030
0.0
  0
LINE
  5
4F55
102
{ACAD_REACTORS
330
503D
102
}
330
A
100
AcDbEntity
  8
モデル
  6
HIDDEN
100
AcDbLine
 10
122.5052411063734
 20
280.6797941312679
 30
0.0
 11
135.5052411063734
 21
281.8171467571049
 31
0.0
1001
ACAD
1010
0.0
1020
0.0
1030
0.0
  0
LINE
  5
4F56
102
{ACAD_REACTORS
330
503D
102
}
330
A
100
AcDbEntity
  8
モデル
  6
HIDDEN
100
AcDbLine
 10
122.5052411063734
 20
279.0862301391679
 30
0.0
 11
135.5052411063734
 21
280.2235827650048
 31
0.0
1001
ACAD
1010
0.0
1020
0.0
1030
0.0
  0
LINE
  5
4F57
102
{ACAD_REACTORS
330
503D
102
}
330
A
100
AcDbEntity
  8
モデル
  6
HIDDEN
100
AcDbLine
 10
127.5479688590661
 20
277.9338476586759
 30
0.0
 11
135.5052411063734
 21
278.6300187729047
 31
0.0
1001
ACAD
1010
0.0
1020
0.0
1030
0.0
  0
LINE
  5
4F58
102
{ACAD_REACTORS
330
503D
102
}
330
A
100
AcDbEntity
  8
モデル
  6
HIDDEN
100
AcDbLine
 10
122.5052411063734
 20
299.8025620364687
 30
0.0
 11
135.5052411063734
 21
300.9399146623056
 31
0.0
1001
ACAD
1010
0.0
1020
0.0
1030
0.0
  0
LINE
  5
4F59
102
{ACAD_REACTORS
330
503D
102
}
330
A
100
AcDbEntity
  8
モデル
  6
HIDDEN
100
AcDbLine
 10
122.5052411063734
 20
298.2089980443686
 30
0.0
 11
135.5052411063734
 21
299.3463506702056
 31
0.0
1001
ACAD
1010
0.0
1020
0.0
1030
0.0
  0
LINE
  5
4F5A
102
{ACAD_REACTORS
330
503D
102
}
330
A
100
AcDbEntity
  8
モデル
  6
HIDDEN
100
AcDbLine
 10
122.5052411063734
 20
301.3961260285687
 30
0.0
 11
128.6514274628246
 21
301.9338476586759
 31
0.0
1001
ACAD
1010
0.0
1020
0.0
1030
0.0
  0
LINE
  5
4F5B
102
{ACAD_REACTORS
330
503D
102
}
330
A
100
AcDbEntity
  8
モデル
  6
HIDDEN
100
AcDbLine
 10
122.5052411063734
 20
301.9338476586759
 30
0.0
 11
135.5052411063734
 21
301.9338476586759
 31
0.0
  0
LINE
  5
4F5C
330
A
100
AcDbEntity
  8
モデル
  6
HIDDEN
100
AcDbLine
 10
253.7224461135931
 20
157.6248052453261
 30
0.0
 11
253.7224461135931
 21
170.6248052453261
 31
0.0
  0
LINE
  5
4F5D
330
A
100
AcDbEntity
  8
モデル
  6
HIDDEN
100
AcDbLine
 10
266.7224461135931
 20
157.6248052453261
 30
0.0
 11
265.7224461135931
 21
159.6248052453259
 31
0.0
  0
LINE
  5
4F5E
330
A
100
AcDbEntity
  8
モデル
  6
HIDDEN
100
AcDbLine
 10
259.7224461135931
 20
157.6248052453261
 30
0.0
 11
262.7224461135931
 21
159.6248052453259
 31
0.0
  0
LINE
  5
4F5F
330
A
100
AcDbEntity
  8
モデル
  6
HIDDEN
100
AcDbLine
 10
265.7224461135931
 20
159.6248052453259
 30
0.0
 11
262.7224461135931
 21
159.6248052453259
 31
0.0
  0
LINE
  5
4F60
330
A
100
AcDbEntity
  8
モデル
  6
HIDDEN
100
AcDbLine
 10
259.7224461135931
 20
157.6248052453261
 30
0.0
 11
253.7224461135931
 21
157.6248052453261
 31
0.0
  0
LINE
  5
4F61
330
A
100
AcDbEntity
  8
モデル
  6
HIDDEN
100
AcDbLine
 10
277.7224461135931
 20
157.6248052453261
 30
0.0
 11
266.7224461135931
 21
157.6248052453261
 31
0.0
  0
LINE
  5
4F62
330
A
100
AcDbEntity
  8
モデル
  6
HIDDEN
100
AcDbLine
 10
259.7224461135931
 20
170.6248052453261
 30
0.0
 11
259.7224461135931
 21
157.6248052453261
 31
0.0
  0
LINE
  5
4F63
330
A
100
AcDbEntity
  8
モデル
  6
HIDDEN
100
AcDbLine
 10
266.7224461135931
 20
170.6248052453261
 30
0.0
 11
266.7224461135931
 21
157.6248052453261
 31
0.0
  0
LINE
  5
4F64
330
A
100
AcDbEntity
  8
モデル
100
AcDbLine
 10
284.766525389016
 20
169.1248052453261
 30
0.0
 11
286.5297951961006
 21
159.1248052453261
 31
0.0
1001
ACAD
1010
0.0
1020
0.0
1030
0.0
  0
LINE
  5
4F65
330
A
100
AcDbEntity
  8
モデル
100
AcDbLine
 10
283.1545356426473
 20
169.1248052453261
 30
0.0
 11
284.917805449732
 21
159.1248052453261
 31
0.0
1001
ACAD
1010
0.0
1020
0.0
1030
0.0
  0
LINE
  5
4F66
330
A
100
AcDbEntity
  8
モデル
100
AcDbLine
 10
281.5425458962787
 20
169.1248052453261
 30
0.0
 11
283.3058157033633
 21
159.1248052453261
 31
0.0
1001
ACAD
1010
0.0
1020
0.0
1030
0.0
  0
LINE
  5
4F67
330
A
100
AcDbEntity
  8
モデル
100
AcDbLine
 10
279.93055614991
 20
169.1248052453261
 30
0.0
 11
281.6938259569947
 21
159.1248052453261
 31
0.0
1001
ACAD
1010
0.0
1020
0.0
1030
0.0
  0
LINE
  5
4F68
330
A
100
AcDbEntity
  8
モデル
100
AcDbLine
 10
278.3185664035415
 20
169.1248052453261
 30
0.0
 11
280.0818362106261
 21
159.1248052453261
 31
0.0
1001
ACAD
1010
0.0
1020
0.0
1030
0.0
  0
LINE
  5
4F69
330
A
100
AcDbEntity
  8
モデル
  6
HIDDEN
100
AcDbLine
 10
259.7224461135931
 20
170.6248052453261
 30
0.0
 11
262.7224461135931
 21
168.6248052453262
 31
0.0
  0
LINE
  5
4F6A
330
A
100
AcDbEntity
  8
モデル
  6
HIDDEN
100
AcDbLine
 10
259.7224461135931
 20
170.6248052453261
 30
0.0
 11
253.7224461135931
 21
170.6248052453261
 31
0.0
  0
LINE
  5
4F6B
330
A
100
AcDbEntity
  8
モデル
  6
HIDDEN
100
AcDbLine
 10
265.7224461135931
 20
168.6248052453262
 30
0.0
 11
262.7224461135931
 21
168.6248052453262
 31
0.0
  0
LINE
  5
4F6C
330
A
100
AcDbEntity
  8
モデル
  6
HIDDEN
100
AcDbLine
 10
266.7224461135931
 20
170.6248052453261
 30
0.0
 11
265.7224461135931
 21
168.6248052453262
 31
0.0
  0
LINE
  5
4F6D
330
A
100
AcDbEntity
  8
モデル
  6
HIDDEN
100
AcDbLine
 10
277.7224461135931
 20
170.6248052453261
 30
0.0
 11
266.7224461135931
 21
170.6248052453261
 31
0.0
  0
LINE
  5
4F6E
330
A
100
AcDbEntity
  8
モデル
  6
HIDDEN
100
AcDbLine
 10
272.4040325071857
 20
170.6248052453261
 30
0.0
 11
273.5413851330226
 21
157.6248052453261
 31
0.0
1001
ACAD
1010
0.0
1020
0.0
1030
0.0
  0
LINE
  5
4F6F
330
A
100
AcDbEntity
  8
モデル
  6
HIDDEN
100
AcDbLine
 10
270.8104685150856
 20
170.6248052453261
 30
0.0
 11
271.9478211409226
 21
157.6248052453261
 31
0.0
1001
ACAD
1010
0.0
1020
0.0
1030
0.0
  0
LINE
  5
4F70
330
A
100
AcDbEntity
  8
モデル
  6
HIDDEN
100
AcDbLine
 10
269.2169045229855
 20
170.6248052453261
 30
0.0
 11
270.3542571488226
 21
157.6248052453261
 31
0.0
1001
ACAD
1010
0.0
1020
0.0
1030
0.0
  0
LINE
  5
4F71
330
A
100
AcDbEntity
  8
モデル
  6
HIDDEN
100
AcDbLine
 10
267.6233405308855
 20
170.6248052453261
 30
0.0
 11
268.7606931567224
 21
157.6248052453261
 31
0.0
1001
ACAD
1010
0.0
1020
0.0
1030
0.0
  0
LINE
  5
4F72
330
A
100
AcDbEntity
  8
モデル
  6
HIDDEN
100
AcDbLine
 10
266.7224461135931
 20
162.7075557767429
 30
0.0
 11
267.1671291646224
 21
157.6248052453261
 31
0.0
1001
ACAD
1010
0.0
1020
0.0
1030
0.0
  0
LINE
  5
4F73
330
A
100
AcDbEntity
  8
モデル
  6
HIDDEN
100
AcDbLine
 10
258.0619565782851
 20
170.6248052453261
 30
0.0
 11
259.199309204122
 21
157.6248052453261
 31
0.0
1001
ACAD
1010
0.0
1020
0.0
1030
0.0
  0
LINE
  5
4F74
330
A
100
AcDbEntity
  8
モデル
  6
HIDDEN
100
AcDbLine
 10
256.4683925861851
 20
170.6248052453261
 30
0.0
 11
257.605745212022
 21
157.6248052453261
 31
0.0
1001
ACAD
1010
0.0
1020
0.0
1030
0.0
  0
LINE
  5
4F75
330
A
100
AcDbEntity
  8
モデル
  6
HIDDEN
100
AcDbLine
 10
254.8748285940849
 20
170.6248052453261
 30
0.0
 11
256.012181219922
 21
157.6248052453261
 31
0.0
1001
ACAD
1010
0.0
1020
0.0
1030
0.0
  0
LINE
  5
4F76
330
A
100
AcDbEntity
  8
モデル
  6
HIDDEN
100
AcDbLine
 10
253.7224461135931
 20
165.5820774926333
 30
0.0
 11
254.4186172278219
 21
157.6248052453261
 31
0.0
1001
ACAD
1010
0.0
1020
0.0
1030
0.0
  0
LINE
  5
4F77
330
A
100
AcDbEntity
  8
モデル
  6
HIDDEN
100
AcDbLine
 10
275.5911604913858
 20
170.6248052453261
 30
0.0
 11
276.7285131172228
 21
157.6248052453261
 31
0.0
1001
ACAD
1010
0.0
1020
0.0
1030
0.0
  0
LINE
  5
4F78
330
A
100
AcDbEntity
  8
モデル
  6
HIDDEN
100
AcDbLine
 10
273.9975964992857
 20
170.6248052453261
 30
0.0
 11
275.1349491251227
 21
157.6248052453261
 31
0.0
1001
ACAD
1010
0.0
1020
0.0
1030
0.0
  0
LINE
  5
4F79
330
A
100
AcDbEntity
  8
モデル
  6
HIDDEN
100
AcDbLine
 10
277.1847244834859
 20
170.6248052453261
 30
0.0
 11
277.7224461135931
 21
164.4786188888748
 31
0.0
1001
ACAD
1010
0.0
1020
0.0
1030
0.0
  0
LINE
  5
4F7A
330
A
100
AcDbEntity
  8
モデル
  6
HIDDEN
100
AcDbLine
 10
277.7224461135931
 20
170.6248052453261
 30
0.0
 11
277.7224461135931
 21
157.6248052453261
 31
0.0
  0
CIRCLE
  5
4F7B
102
{ACAD_REACTORS
330
503D
102
}
330
A
100
AcDbEntity
  8
寸法
  6
HIDDEN
 48
0.5
100
AcDbCircle
 10
129.0052411063734
 20
288.4334061847855
 30
0.0
 40
1.440569191596921
  0
LINE
  5
4F7C
330
A
100
AcDbEntity
  8
寸法
  6
CENTER
100
AcDbLine
 10
263.8329667647112
 20
118.4382350364923
 30
0.0
 11
263.8329667647112
 21
137.8027654360487
 31
0.0
  0
LINE
  5
4F7D
330
A
100
AcDbEntity
  8
モデル
100
AcDbLine
 10
263.8329667647112
 20
116.9670233823439
 30
0.0
 11
262.3682938290256
 21
115.543487806521
 31
0.0
  0
LINE
  5
4F7E
330
A
100
AcDbEntity
  8
モデル
100
AcDbLine
 10
262.3682938290256
 20
115.543487806521
 30
0.0
 11
262.3682938290256
 21
111.0655725337082
 31
0.0
  0
LINE
  5
4F7F
330
A
100
AcDbEntity
  8
モデル
100
AcDbLine
 10
263.8329667647112
 20
116.9670233823439
 30
0.0
 11
265.2976397003968
 21
115.543487806521
 31
0.0
  0
LINE
  5
4F80
330
A
100
AcDbEntity
  8
モデル
100
AcDbLine
 10
265.2976397003968
 20
115.543487806521
 30
0.0
 11
265.2976397003968
 21
111.0655725337082
 31
0.0
  0
LINE
  5
4F81
330
A
100
AcDbEntity
  8
モデル
100
AcDbLine
 10
262.3682938290256
 20
111.0655725337082
 30
0.0
 11
265.2976397003968
 21
111.0655725337082
 31
0.0
  0
LINE
  5
4F82
330
A
100
AcDbEntity
  8
寸法
100
AcDbLine
 10
262.3682938290256
 20
115.543487806521
 30
0.0
 11
265.2976397003968
 21
115.543487806521
 31
0.0
  0
HATCH
  5
4F83
330
A
100
AcDbEntity
  8
寸法
100
AcDbHatch
 10
0.0
 20
0.0
 30
0.0
210
0.0
220
0.0
230
1.0
  2
ANSI31
 70
     0
 71
     0
 91
        1
 92
        1
 93
        4
 72
     1
 10
262.3682938290256
 20
115.543487806521
 11
262.3682938290256
 21
111.0655725337081
 72
     1
 10
262.3682938290256
 20
111.0655725337082
 11
265.2976397003969
 21
111.0655725337082
 72
     1
 10
262.3682938290256
 20
115.543487806521
 11
265.2976397003969
 21
115.543487806521
 72
     1
 10
265.2976397003968
 20
115.543487806521
 11
265.2976397003968
 21
111.0655725337081
 97
        0
 75
     0
 76
     1
 52
330.0000000000002
 41
0.4999999999999981
 77
     0
 78
     1
 53
14.99999999999995
 43
-16.37326953614485
 44
-14.55619575176765
 45
-0.4108752341002508
 46
1.533407249233896
 79
     0
 98
        1
 10
-16.37326953614485
 20
-14.55619575176765
1001
ACAD
1010
0.0
1020
0.0
1030
0.0
  0
LINE
  5
4F84
102
{ACAD_REACTORS
330
503D
102
}
330
A
100
AcDbEntity
  8
モデル
100
AcDbLine
 10
124.0052411063734
 20
301.9338476586759
 30
0.0
 11
124.0052411063734
 21
315.7451819934873
 31
0.0
  0
LINE
  5
4F85
102
{ACAD_REACTORS
330
503D
102
}
330
A
100
AcDbEntity
  8
モデル
100
AcDbLine
 10
134.0052411063734
 20
315.7451819934873
 30
0.0
 11
134.0052411063734
 21
301.9338476586759
 31
0.0
  0
LINE
  5
4FA4
330
A
100
AcDbEntity
  8
モデル
100
AcDbLine
 10
277.7224461135931
 20
169.1248052453261
 30
0.0
 11
294.0526853931444
 21
169.1248052453261
 31
0.0
  0
LINE
  5
4FA5
330
A
100
AcDbEntity
  8
モデル
100
AcDbLine
 10
294.0526853931444
 20
159.1248052453261
 30
0.0
 11
277.7224461135931
 21
159.1248052453261
 31
0.0
  0
LINE
  5
4FA6
330
A
100
AcDbEntity
  8
モデル
100
AcDbLine
 10
291.3265464877836
 20
169.1248052453261
 30
0.0
 11
293.0898162948683
 21
159.1248052453261
 31
0.0
1001
ACAD
1010
0.0
1020
0.0
1030
0.0
  0
LINE
  5
4FA7
330
A
100
AcDbEntity
  8
モデル
100
AcDbLine
 10
289.7145567414149
 20
169.1248052453261
 30
0.0
 11
291.4778265484995
 21
159.1248052453261
 31
0.0
1001
ACAD
1010
0.0
1020
0.0
1030
0.0
  0
LINE
  5
4FA8
330
A
100
AcDbEntity
  8
モデル
100
AcDbLine
 10
288.1025669950463
 20
169.1248052453261
 30
0.0
 11
289.8658368021309
 21
159.1248052453261
 31
0.0
1001
ACAD
1010
0.0
1020
0.0
1030
0.0
  0
LINE
  5
4FA9
330
A
100
AcDbEntity
  8
モデル
100
AcDbLine
 10
286.4905772486778
 20
169.1248052453261
 30
0.0
 11
288.2538470557624
 21
159.1248052453261
 31
0.0
1001
ACAD
1010
0.0
1020
0.0
1030
0.0
  0
LINE
  5
4FAA
330
A
100
AcDbEntity
  8
モデル
100
AcDbLine
 10
292.9385362341522
 20
169.1248052453261
 30
0.0
 11
294.0526853931444
 21
162.8061513755916
 31
0.0
1001
ACAD
1010
0.0
1020
0.0
1030
0.0
  0
LINE
  5
4FAB
330
A
100
AcDbEntity
  8
モデル
  6
HIDDEN
100
AcDbLine
 10
262.6086870172358
 20
159.5489658477544
 30
0.0
 11
262.6086870172358
 21
139.1487077745433
 31
0.0
  0
LINE
  5
4FAC
330
A
100
AcDbEntity
  8
モデル
  6
HIDDEN
100
AcDbLine
 10
265.7224461135931
 20
159.6248052453259
 30
0.0
 11
265.7224461135931
 21
139.1487077745433
 31
0.0
  0
LINE
  5
5041
330
A
100
AcDbEntity
  8
モデル
100
AcDbLine
 10
103.6753299920418
 20
374.5874516994727
 30
0.0
 11
104.9448485158508
 21
375.4349457479313
 31
0.0
  0
LINE
  5
5042
102
{ACAD_REACTORS
330
4B15
102
}
330
A
100
AcDbEntity
  8
モデル
100
AcDbLine
 10
104.9448485158508
 20
375.4349457479313
 30
0.0
 11
152.7817534340277
 21
375.4349457479313
 31
0.0
  0
LINE
  5
5043
330
A
100
AcDbEntity
  8
モデル
100
AcDbLine
 10
152.7817534340277
 20
375.4349457479313
 30
0.0
 11
153.6292474824864
 21
374.5874516994727
 31
0.0
  0
LINE
  5
5044
102
{ACAD_REACTORS
330
4B24
102
}
330
A
100
AcDbEntity
  8
モデル
100
AcDbLine
 10
153.6292474824864
 20
374.5874516994727
 30
0.0
 11
153.6275249336074
 21
315.7451819934873
 31
0.0
  0
LINE
  5
5045
102
{ACAD_REACTORS
330
4B24
102
}
330
A
100
AcDbEntity
  8
モデル
100
AcDbLine
 10
103.6753299920418
 20
315.7451819934873
 30
0.0
 11
103.6753299920418
 21
374.5874516994727
 31
0.0
  0
LINE
  5
5046
330
A
100
AcDbEntity
  8
モデル
100
AcDbLine
 10
153.6275249336074
 20
315.7451819934873
 30
0.0
 11
103.6753299920418
 21
315.7451819934873
 31
0.0
  0
LINE
  5
5047
330
A
100
AcDbEntity
  8
モデル
  6
HIDDEN
100
AcDbLine
 10
103.6761912664813
 20
334.8456816536822
 30
0.0
 11
153.6301087569261
 21
334.8456816536822
 31
0.0
  0
LINE
  5
5048
330
A
100
AcDbEntity
  8
モデル
  6
HIDDEN
100
AcDbLine
 10
103.6761912664813
 20
364.729668378573
 30
0.0
 11
153.6301087569261
 21
364.729668378573
 31
0.0
  0
LINE
  5
5053
330
A
100
AcDbEntity
  8
モデル
100
AcDbLine
 10
353.7424491475884
 20
140.4182262983523
 30
0.0
 11
353.7424491475886
 21
188.2551312165292
 31
0.0
  0
LINE
  5
5054
330
A
100
AcDbEntity
  8
モデル
100
AcDbLine
 10
353.7424491475886
 20
188.2551312165292
 30
0.0
 11
352.89495509913
 21
189.1026252649879
 31
0.0
  0
LINE
  5
5055
330
A
100
AcDbEntity
  8
モデル
100
AcDbLine
 10
352.89495509913
 20
189.1026252649879
 30
0.0
 11
294.0526853931444
 21
189.1009027161089
 31
0.0
  0
LINE
  5
5056
330
A
100
AcDbEntity
  8
モデル
100
AcDbLine
 10
294.0526853931444
 20
189.1009027161089
 30
0.0
 11
294.0526853931443
 21
139.1487077745433
 31
0.0
  0
LINE
  5
5057
330
A
100
AcDbEntity
  8
モデル
100
AcDbLine
 10
352.8949550991298
 20
139.1487077745433
 30
0.0
 11
353.7424491475884
 21
140.4182262983523
 31
0.0
  0
ARC
  5
5058
330
A
100
AcDbEntity
  8
モデル
100
AcDbCircle
 10
328.0951784157847
 20
133.8148476433335
 30
0.0
 40
15.86518334119326
100
AcDbArc
 50
19.64216758541776
 51
160.3578324145824
  0
LINE
  5
5059
330
A
100
AcDbEntity
  8
モデル
100
AcDbLine
 10
343.0368643497873
 20
139.1487077745433
 30
0.0
 11
352.8949550991298
 21
139.1487077745433
 31
0.0
  0
LINE
  5
505A
330
A
100
AcDbEntity
  8
モデル
100
AcDbLine
 10
294.0526853931443
 20
139.1487077745433
 30
0.0
 11
313.1534924817822
 21
139.1487077745433
 31
0.0
  0
TEXT
  5
50A0
330
A
100
AcDbEntity
  8
テンプレート
100
AcDbText
 10
451.0750146728325
 20
42.10891083065559
 30
0.0
 40
5.5
  1
M10専用ボルト、チューブ、パッキン、
  7
ＭＳ ゴシック
100
AcDbText
  0
TEXT
  5
50A1
330
A
100
AcDbEntity
  8
テンプレート
100
AcDbText
 10
451.0750146728325
 20
50.45233502084876
 30
0.0
 40
5.5
  1
付属品
  7
ＭＳ ゴシック
100
AcDbText
  0
TEXT
  5
50A2
330
A
100
AcDbEntity
  8
テンプレート
100
AcDbText
 10
451.0750146728325
 20
33.76548664046243
 30
0.0
 40
5.5
  1
イモネジ
  7
ＭＳ ゴシック
100
AcDbText
  0
TEXT
  5
50A3
330
A
100
AcDbEntity
  8
テンプレート
100
AcDbText
 10
313.0171205424464
 20
41.53478165004991
 30
0.0
 40
5.5
  1
ガラス厚　19・15・12・10・8mm
  7
ＭＳ ゴシック
100
AcDbText
  0
MTEXT
  5
50EF
102
{ACAD_XDICTIONARY
360
50F0
102
}
330
A
100
AcDbEntity
  8
MODEL
 48
0.05
100
AcDbMText
 10
16.22250147514444
 20
23.21869338947973
 30
0.0
 40
4.0
 41
0.0
 46
4.0
 71
     1
 72
     1
  1
{20161001N}
  7
ＭＳ ゴシック
 73
     1
 44
1.0
1001
ACAD
1000
ACAD_MTEXT_DEFINED_HEIGHT_BEGIN
1070
    46
1040
4.0
1000
ACAD_MTEXT_DEFINED_HEIGHT_END
  0
TEXT
  5
5134
330
A
100
AcDbEntity
  8
テンプレート
100
AcDbText
 10
196.0566361457923
 20
92.41918321994213
 30
0.0
 40
5.0
  1
※ 輸入製品の為、国内製品と比べ製品寸法の個体差に幅が有ります。
  7
ＭＳ ゴシック
100
AcDbText
  0
TEXT
  5
5135
330
A
100
AcDbEntity
  8
テンプレート
100
AcDbText
 10
195.8843930635838
 20
84.31539912380227
 30
0.0
 40
5.0
  1
　 加工は現物合わせの上行って下さい。
  7
ＭＳ ゴシック
100
AcDbText
  0
TEXT
  5
516D
330
A
100
AcDbEntity
  8
テンプレート
100
AcDbText
 10
196.0484853778646
 20
73.80127172147003
 30
0.0
 40
5.0
  1
※ ご注文の際は正確なガラス厚(19、15、12、10、8ミリ)の指示をしてください。
  7
ＭＳ ゴシック
100
AcDbText
  0
VIEWPORT
  5
349
330
B
100
AcDbEntity
 67
     1
  8
0
100
AcDbViewport
 10
202.5
 20
128.5
 30
0.0
 40
486.0
 41
308.4
 68
     1
 69
     1
 12
202.5
 22
128.5
 13
0.0
 23
0.0
 14
0.5
 24
0.5
 15
0.0
 25
0.0
 16
0.0
 26
0.0
 36
1.0
 17
0.0
 27
0.0
 37
0.0
 42
50.0
 43
0.0
 44
0.0
 45
308.4
 50
0.0
 51
0.0
 72
   100
 90
   557152
  1

281
     0
 71
     1
 74
     0
110
0.0
120
0.0
130
0.0
111
1.0
121
0.0
131
0.0
112
0.0
122
1.0
132
0.0
 79
     0
146
0.0
170
     0
 61
     5
348
26C
292
     1
282
     1
141
0.0
142
0.0
 63
   256
  0
VIEWPORT
  5
34A
330
B
100
AcDbEntity
 67
     1
  8
0
100
AcDbViewport
 10
202.5
 20
128.5
 30
0.0
 40
324.0
 41
205.6
 68
     2
 69
     2
 12
986.6781359294573
 22
1427.077061889956
 13
0.0
 23
0.0
 14
0.5
 24
0.5
 15
0.0
 25
0.0
 16
0.0
 26
0.0
 36
1.0
 17
0.0
 27
0.0
 37
0.0
 42
50.0
 43
0.0
 44
0.0
 45
2890.021615685494
 50
0.0
 51
0.0
 72
   100
 90
   557152
  1

281
     0
 71
     1
 74
     0
110
0.0
120
0.0
130
0.0
111
1.0
121
0.0
131
0.0
112
0.0
122
1.0
132
0.0
 79
     0
146
0.0
170
     0
 61
     5
348
26C
292
     1
282
     1
141
0.0
142
0.0
 63
   256
  0
ENDSEC
  0
SECTION
  2
OBJECTS
  0
DICTIONARY
  5
19
330
0
100
AcDbDictionary
281
     1
  3
ACAD_COLOR
350
674
  3
ACAD_DETAILVIEWSTYLE
350
12F4
  3
ACAD_FIELDLIST
350
50ED
  3
ACAD_GROUP
350
1A
  3
ACAD_IMAGE_VARS
350
27B
  3
ACAD_LAYOUT
350
1E
  3
ACAD_MATERIAL
350
263
  3
ACAD_MLEADERSTYLE
350
336
  3
ACAD_MLINESTYLE
350
1B
  3
ACAD_PLOTSETTINGS
350
22
  3
ACAD_PLOTSTYLENAME
350
1F
  3
ACAD_SCALELIST
350
241
  3
ACAD_SECTIONVIEWSTYLE
350
12F5
  3
ACAD_TABLESTYLE
350
278
  3
ACAD_VISUALSTYLE
350
267
  3
ACDB_RECOMPOSE_DATA
350
5194
  3
AcDbVariableDictionary
350
330
  3
AcStStandard
350
12B9
  3
APPDATA
350
27A
  0
SUN
  5
10E8
330
15
100
AcDbSun
 90
        1
290
     0
 63
     7
421
 16777215
 40
1.0
291
     1
 91
  2455826
 92
 54000000
292
     0
 70
     2
 71
   256
280
     1
  0
DICTIONARY
  5
2E1
330
2
100
AcDbDictionary
280
     1
281
     1
  3
ACAD_LAYERSTATES
360
2E2
  3
ACLYDICTIONARY
360
4787
  0
DICTIONARY
  5
45FB
330
A
100
AcDbDictionary
280
     1
281
     1
  3
ACAD_SORTENTS
360
45FC
  0
DICTIONARY
  5
4B14
330
4B13
100
AcDbDictionary
280
     1
281
     1
  3
ACAD_DIMASSOC
360
4B15
  0
DICTIONARY
  5
4B23
330
4B22
100
AcDbDictionary
280
     1
281
     1
  3
ACAD_DIMASSOC
360
4B24
  0
DICTIONARY
  5
50F0
330
50EF
100
AcDbDictionary
280
     1
281
     1
  3
ACAD_FIELD
360
50F1
  0
DICTIONARY
  5
674
102
{ACAD_REACTORS
330
19
102
}
330
19
100
AcDbDictionary
281
     1
  0
DICTIONARY
  5
12F4
102
{ACAD_REACTORS
330
19
102
}
330
19
100
AcDbDictionary
281
     1
  0
FIELDLIST
  5
50ED
102
{ACAD_REACTORS
330
19
102
}
330
19
100
AcDbIdSet
 90
        1
330
50F2
100
AcDbFieldList
  0
DICTIONARY
  5
1A
102
{ACAD_REACTORS
330
19
102
}
330
19
100
AcDbDictionary
281
     1
  3
*A1
350
503D
  0
RASTERVARIABLES
  5
27B
102
{ACAD_REACTORS
330
19
102
}
330
19
100
AcDbRasterVariables
 90
        0
 70
     1
 71
     1
 72
     1
  0
DICTIONARY
  5
1E
102
{ACAD_REACTORS
330
19
102
}
330
19
100
AcDbDictionary
281
     1
  3
Layout1
350
21
  3
Layout2
350
12C4
  3
Model
350
20
  0
DICTIONARY
  5
263
102
{ACAD_REACTORS
330
19
102
}
330
19
100
AcDbDictionary
281
     1
  3
ByBlock
350
5111
  3
ByLayer
350
264
  3
Global
350
266
  0
DICTIONARY
  5
336
102
{ACAD_REACTORS
330
19
102
}
330
19
100
AcDbDictionary
281
     1
  3
Standard
350
4739
  0
DICTIONARY
  5
1B
102
{ACAD_REACTORS
330
19
102
}
330
19
100
AcDbDictionary
281
     1
  3
Standard
350
1C
  0
DICTIONARY
  5
22
102
{ACAD_REACTORS
330
19
102
}
330
19
100
AcDbDictionary
281
     1
  0
ACDBDICTIONARYWDFLT
  5
1F
102
{ACAD_REACTORS
330
19
102
}
330
19
100
AcDbDictionary
281
     1
  3
Normal
350
1D
100
AcDbDictionaryWithDefault
340
1D
  0
DICTIONARY
  5
241
102
{ACAD_REACTORS
330
19
102
}
330
19
100
AcDbDictionary
281
     1
  3
*A1
350
4BE3
  3
A0
350
242
  3
A1
350
243
  3
A2
350
244
  3
A3
350
245
  3
A4
350
246
  3
A5
350
247
  3
A6
350
248
  3
A7
350
249
  3
A8
350
24A
  3
A9
350
24B
  3
B0
350
24C
  3
B1
350
24D
  3
B2
350
24E
  3
B3
350
24F
  3
B4
350
250
  3
B5
350
251
  3
B6
350
252
  3
B7
350
253
  3
B8
350
254
  3
B9
350
255
  3
C0
350
256
  3
C1
350
257
  3
C2
350
258
  3
C3
350
259
  3
C4
350
25A
  3
C5
350
25B
  3
C6
350
25C
  3
C7
350
25D
  3
C8
350
25E
  3
C9
350
25F
  3
D0
350
260
  3
D1
350
261
  3
D2
350
262
  0
DICTIONARY
  5
12F5
102
{ACAD_REACTORS
330
19
102
}
330
19
100
AcDbDictionary
281
     1
  0
DICTIONARY
  5
278
102
{ACAD_REACTORS
330
19
102
}
330
19
100
AcDbDictionary
281
     1
  3
Standard
350
279
  0
DICTIONARY
  5
267
102
{ACAD_REACTORS
330
19
102
}
330
19
100
AcDbDictionary
281
     1
  3
2dWireframe
350
26C
  3
3D Hidden
350
26E
  3
3dWireframe
350
26D
  3
Basic
350
26F
  3
Brighten
350
273
  3
ColorChange
350
277
  3
Conceptual
350
271
  3
Dim
350
272
  3
EdgeColorOff
350
10E2
  3
Facepattern
350
276
  3
Flat
350
268
  3
FlatWithEdges
350
269
  3
Gouraud
350
26A
  3
GouraudWithEdges
350
26B
  3
Hidden
350
10DF
  3
JitterOff
350
10E0
  3
Linepattern
350
275
  3
OverhangOff
350
10E1
  3
Realistic
350
270
  3
Shaded
350
10E7
  3
Shaded with edges
350
10E6
  3
Shades of Gray
350
10E3
  3
Sketchy
350
10E4
  3
Thicken
350
274
  3
Wireframe
350
10DE
  3
X-Ray
350
10E5
  0
XRECORD
  5
5194
102
{ACAD_REACTORS
330
19
102
}
330
19
100
AcDbXrecord
280
     1
 90
        1
330
279
  0
DICTIONARY
  5
330
102
{ACAD_REACTORS
330
19
102
}
330
19
100
AcDbDictionary
281
     1
  3
CANNOSCALE
350
331
  3
CMLEADERSTYLE
350
4768
  3
CTABLESTYLE
350
335
  3
XCLIPFRAME
350
109E
  0
DICTIONARY
  5
12B9
102
{ACAD_REACTORS
330
19
102
}
330
19
100
AcDbDictionary
281
     1
  0
DICTIONARY
  5
27A
102
{ACAD_REACTORS
330
19
102
}
330
19
100
AcDbDictionary
281
     1
  0
DICTIONARY
  5
2E2
102
{ACAD_REACTORS
330
2E1
102
}
330
2E1
100
AcDbDictionary
281
     1
  3
ARGON_LAYERP_6
350
10DB
  3
ARGON_LAYERP_7
350
DEA
  3
ARGON_LAYERP_8
350
C70
  3
ARGON_LAYERP_9
350
7AA
  0
DICTIONARY
  5
4787
102
{ACAD_REACTORS
330
2E1
102
}
330
2E1
100
AcDbDictionary
281
     1
1001
ACAD
1000
<All
  0
SORTENTSTABLE
  5
45FC
102
{ACAD_REACTORS
330
45FB
102
}
330
45FB
100
AcDbSortentsTable
330
A
331
0
  5
36CD
331
36CD
  5
45C4
331
36CE
  5
45C3
331
36CF
  5
45B3
331
36D0
  5
45B2
331
36D3
  5
45B1
331
36D4
  5
45B0
331
36D5
  5
45AF
331
36D6
  5
45AE
331
36D8
  5
457E
331
36D9
  5
457D
331
36DA
  5
454E
331
36DB
  5
454D
331
36DC
  5
454C
331
36DD
  5
454B
331
36DE
  5
454A
331
36E0
  5
4549
331
36E1
  5
442F
331
36E2
  5
442E
331
36E3
  5
442D
331
36E5
  5
442B
331
36E6
  5
442A
331
36E7
  5
4429
331
36E8
  5
4425
331
36E9
  5
4424
331
36EA
  5
4420
331
36EB
  5
441F
331
36EC
  5
441E
331
36ED
  5
441D
331
37DE
  5
441A
331
41D7
  5
4023
331
41D8
  5
401F
331
42C8
  5
3FF6
331
4346
  5
3FF5
  0
DIMASSOC
  5
4B15
102
{ACAD_REACTORS
330
4B14
102
}
330
4B14
100
AcDbDimAssoc
330
4B13
 90
        2
 70
     0
 71
     1
  1
AcDbOsnapPointRef
 72
     1
331
49C6
 73
     0
 91
        0
 40
0.0
 10
0.0
 20
0.0
 30
0.0
 75
     0
  0
DIMASSOC
  5
4B24
102
{ACAD_REACTORS
330
4B23
102
}
330
4B23
100
AcDbDimAssoc
330
4B22
 90
        3
 70
     0
 71
     1
  1
AcDbOsnapPointRef
 72
     1
331
49C9
 73
     0
 91
        0
 40
0.0
 10
0.0
 20
0.0
 30
0.0
 75
     0
  1
AcDbOsnapPointRef
 72
    10
331
49C8
 73
     0
 91
        0
 40
0.0313712861235603
 10
0.0
 20
0.0
 30
0.0
 75
     0
  0
DICTIONARY
  5
50F1
102
{ACAD_REACTORS
330
50F0
102
}
330
50F0
100
AcDbDictionary
280
     1
281
     1
  3
TEXT
360
50F2
  0
GROUP
  5
503D
102
{ACAD_REACTORS
330
1A
102
}
330
1A
100
AcDbGroup
300

 70
     1
 71
     1
340
4F3A
340
4F3B
340
4F3C
340
4F3D
340
4F3E
340
4F3F
340
4F40
340
4F41
340
4F42
340
4F43
340
4F44
340
4F45
340
4F46
340
4F47
340
4F48
340
4F49
340
4F4A
340
4F4B
340
4F4C
340
4F4D
340
4F4E
340
4F4F
340
4F50
340
4F51
340
4F52
340
4F53
340
4F54
340
4F55
340
4F56
340
4F57
340
4F58
340
4F59
340
4F5A
340
4F5B
340
4F7B
340
4F84
340
4F85
  0
LAYOUT
  5
21
102
{ACAD_REACTORS
330
1E
102
}
330
1E
100
AcDbPlotSettings
  1

  2
none_device
  4
ISO_A3_(420.00_x_297.00_MM)
  6

 40
7.5
 41
20.0
 42
7.5
 43
20.0
 44
420.0
 45
297.0
 46
0.0
 47
0.0
 48
0.0
 49
0.0
140
0.0
141
0.0
142
1.0
143
1.0
 70
     0
 72
     1
 73
     0
 74
     0
  7

 75
     0
 76
     0
 77
     2
 78
   300
147
1.0
148
0.0
149
0.0
100
AcDbLayout
  1
Layout1
 70
     0
 71
     0
 10
-7.5
 20
-20.0
 11
412.5
 21
277.0
 12
0.0
 22
0.0
 32
0.0
 14
0.0
 24
0.0
 34
0.0
 15
0.0
 25
0.0
 35
0.0
146
0.0
 13
0.0
 23
0.0
 33
0.0
 16
0.0
 26
0.0
 36
0.0
 17
0.0
 27
0.0
 37
0.0
 76
     0
330
B
331
349
  0
LAYOUT
  5
12C4
102
{ACAD_REACTORS
330
1E
102
}
330
1E
100
AcDbPlotSettings
  1

  2
none_device
  4

  6

 40
0.0
 41
0.0
 42
0.0
 43
0.0
 44
0.0
 45
0.0
 46
0.0
 47
0.0
 48
0.0
 49
0.0
140
0.0
141
0.0
142
1.0
143
1.0
 70
   688
 72
     1
 73
     0
 74
     5
  7

 75
    16
 76
     0
 77
     2
 78
   300
147
1.0
148
0.0
149
0.0
100
AcDbLayout
  1
Layout2
 70
     1
 71
     2
 10
0.0
 20
0.0
 11
0.0
 21
0.0
 12
0.0
 22
0.0
 32
0.0
 14
0.0
 24
0.0
 34
0.0
 15
0.0
 25
0.0
 35
0.0
146
0.0
 13
0.0
 23
0.0
 33
0.0
 16
1.0
 26
0.0
 36
0.0
 17
0.0
 27
1.0
 37
0.0
 76
     0
330
12C3
  0
LAYOUT
  5
20
102
{ACAD_REACTORS
330
1E
102
}
330
1E
100
AcDbPlotSettings
  1

  2
none_device
  4
ISO_A3_(420.00_x_297.00_MM)
  6

 40
7.5
 41
20.0
 42
7.5
 43
20.0
 44
420.0
 45
297.0
 46
0.0
 47
0.0
 48
0.0
 49
0.0
140
0.0
141
0.0
142
1.0
143
1.0
 70
  1024
 72
     1
 73
     0
 74
     0
  7

 75
     0
 76
     0
 77
     2
 78
   300
147
1.0
148
0.0
149
0.0
100
AcDbLayout
  1
Model
 70
     0
 71
     1
 10
0.0
 20
0.0
 11
593.9999999999999
 21
420.0
 12
0.0
 22
0.0
 32
0.0
 14
0.0
 24
0.0
 34
0.0
 15
593.9999999999999
 25
420.0
 35
0.0
146
0.0
 13
0.0
 23
0.0
 33
0.0
 16
0.0
 26
0.0
 36
0.0
 17
0.0
 27
0.0
 37
0.0
 76
     0
330
A
331
15
  0
MATERIAL
  5
5111
102
{ACAD_REACTORS
330
263
102
}
330
263
100
AcDbMaterial
  1
ByBlock
 72
     1
 94
      127
  0
MATERIAL
  5
264
102
{ACAD_REACTORS
330
263
102
}
330
263
100
AcDbMaterial
  1
ByLayer
 72
     1
 94
      127
  0
MATERIAL
  5
266
102
{ACAD_REACTORS
330
263
102
}
330
263
100
AcDbMaterial
  1
Global
 72
     1
 94
      127
  0
MLEADERSTYLE
  5
4739
102
{ACAD_REACTORS
330
336
102
}
330
336
100
AcDbMLeaderStyle
170
     2
171
     1
172
     0
 90
        2
 40
0.0
 41
0.0
173
     1
 91
-1056964608
340
11
 92
       -2
290
     1
 42
2.0
291
     1
 43
8.0
  3
Standard
341
0
 44
4.0
300

342
17
174
     1
178
     6
175
     1
176
     0
 93
-1056964608
 45
4.0
292
     0
297
     0
 46
4.0
343
0
 94
-1056964608
 47
1.0
 49
1.0
140
1.0
293
     1
141
0.0
294
     1
177
     0
142
1.0
295
     0
296
     0
143
3.75
1001
ACAD_MLEADERVER
1070
     2
  0
MLINESTYLE
  5
1C
102
{ACAD_REACTORS
330
1B
102
}
330
1B
100
AcDbMlineStyle
  2
Standard
 70
     0
  3

 62
     0
 51
90.0
 52
90.0
 71
     2
 49
0.5
 62
   256
  6
BYLAYER
 49
-0.5
 62
   256
  6
BYLAYER
  0
ACDBPLACEHOLDER
  5
1D
102
{ACAD_REACTORS
330
1F
102
}
330
1F
  0
SCALE
  5
4BE3
102
{ACAD_REACTORS
330
241
102
}
330
241
100
AcDbScale
 70
     0
300
1:1_XREF_XREF
140
1.0
141
1.0
290
     1
  0
SCALE
  5
242
102
{ACAD_REACTORS
330
241
102
}
330
241
100
AcDbScale
 70
     0
300
1:1
140
1.0
141
1.0
290
     0
  0
SCALE
  5
243
102
{ACAD_REACTORS
330
241
102
}
330
241
100
AcDbScale
 70
     0
300
1:2
140
1.0
141
2.0
290
     0
  0
SCALE
  5
244
102
{ACAD_REACTORS
330
241
102
}
330
241
100
AcDbScale
 70
     0
300
1:4
140
1.0
141
4.0
290
     0
  0
SCALE
  5
245
102
{ACAD_REACTORS
330
241
102
}
330
241
100
AcDbScale
 70
     0
300
1:5
140
1.0
141
5.0
290
     0
  0
SCALE
  5
246
102
{ACAD_REACTORS
330
241
102
}
330
241
100
AcDbScale
 70
     0
300
1:8
140
1.0
141
8.0
290
     0
  0
SCALE
  5
247
102
{ACAD_REACTORS
330
241
102
}
330
241
100
AcDbScale
 70
     0
300
1:10
140
1.0
141
10.0
290
     0
  0
SCALE
  5
248
102
{ACAD_REACTORS
330
241
102
}
330
241
100
AcDbScale
 70
     0
300
1:16
140
1.0
141
16.0
290
     0
  0
SCALE
  5
249
102
{ACAD_REACTORS
330
241
102
}
330
241
100
AcDbScale
 70
     0
300
1:20
140
1.0
141
20.0
290
     0
  0
SCALE
  5
24A
102
{ACAD_REACTORS
330
241
102
}
330
241
100
AcDbScale
 70
     0
300
1:30
140
1.0
141
30.0
290
     0
  0
SCALE
  5
24B
102
{ACAD_REACTORS
330
241
102
}
330
241
100
AcDbScale
 70
     0
300
1:40
140
1.0
141
40.0
290
     0
  0
SCALE
  5
24C
102
{ACAD_REACTORS
330
241
102
}
330
241
100
AcDbScale
 70
     0
300
1:50
140
1.0
141
50.0
290
     0
  0
SCALE
  5
24D
102
{ACAD_REACTORS
330
241
102
}
330
241
100
AcDbScale
 70
     0
300
1:100
140
1.0
141
100.0
290
     0
  0
SCALE
  5
24E
102
{ACAD_REACTORS
330
241
102
}
330
241
100
AcDbScale
 70
     0
300
2:1
140
2.0
141
1.0
290
     0
  0
SCALE
  5
24F
102
{ACAD_REACTORS
330
241
102
}
330
241
100
AcDbScale
 70
     0
300
4:1
140
4.0
141
1.0
290
     0
  0
SCALE
  5
250
102
{ACAD_REACTORS
330
241
102
}
330
241
100
AcDbScale
 70
     0
300
8:1
140
8.0
141
1.0
290
     0
  0
SCALE
  5
251
102
{ACAD_REACTORS
330
241
102
}
330
241
100
AcDbScale
 70
     0
300
10:1
140
10.0
141
1.0
290
     0
  0
SCALE
  5
252
102
{ACAD_REACTORS
330
241
102
}
330
241
100
AcDbScale
 70
     0
300
100:1
140
100.0
141
1.0
290
     0
  0
SCALE
  5
253
102
{ACAD_REACTORS
330
241
102
}
330
241
100
AcDbScale
 70
     0
300
1/128" = 1'-0"
140
0.0078125
141
12.0
290
     0
  0
SCALE
  5
254
102
{ACAD_REACTORS
330
241
102
}
330
241
100
AcDbScale
 70
     0
300
1/64" = 1'-0"
140
0.015625
141
12.0
290
     0
  0
SCALE
  5
255
102
{ACAD_REACTORS
330
241
102
}
330
241
100
AcDbScale
 70
     0
300
1/32" = 1'-0"
140
0.03125
141
12.0
290
     0
  0
SCALE
  5
256
102
{ACAD_REACTORS
330
241
102
}
330
241
100
AcDbScale
 70
     0
300
1/16" = 1'-0"
140
0.0625
141
12.0
290
     0
  0
SCALE
  5
257
102
{ACAD_REACTORS
330
241
102
}
330
241
100
AcDbScale
 70
     0
300
3/32" = 1'-0"
140
0.09375
141
12.0
290
     0
  0
SCALE
  5
258
102
{ACAD_REACTORS
330
241
102
}
330
241
100
AcDbScale
 70
     0
300
1/8" = 1'-0"
140
0.125
141
12.0
290
     0
  0
SCALE
  5
259
102
{ACAD_REACTORS
330
241
102
}
330
241
100
AcDbScale
 70
     0
300
3/16" = 1'-0"
140
0.1875
141
12.0
290
     0
  0
SCALE
  5
25A
102
{ACAD_REACTORS
330
241
102
}
330
241
100
AcDbScale
 70
     0
300
1/4" = 1'-0"
140
0.25
141
12.0
290
     0
  0
SCALE
  5
25B
102
{ACAD_REACTORS
330
241
102
}
330
241
100
AcDbScale
 70
     0
300
3/8" = 1'-0"
140
0.375
141
12.0
290
     0
  0
SCALE
  5
25C
102
{ACAD_REACTORS
330
241
102
}
330
241
100
AcDbScale
 70
     0
300
1/2" = 1'-0"
140
0.5
141
12.0
290
     0
  0
SCALE
  5
25D
102
{ACAD_REACTORS
330
241
102
}
330
241
100
AcDbScale
 70
     0
300
3/4" = 1'-0"
140
0.75
141
12.0
290
     0
  0
SCALE
  5
25E
102
{ACAD_REACTORS
330
241
102
}
330
241
100
AcDbScale
 70
     0
300
1" = 1'-0"
140
1.0
141
12.0
290
     0
  0
SCALE
  5
25F
102
{ACAD_REACTORS
330
241
102
}
330
241
100
AcDbScale
 70
     0
300
1-1/2" = 1'-0"
140
1.5
141
12.0
290
     0
  0
SCALE
  5
260
102
{ACAD_REACTORS
330
241
102
}
330
241
100
AcDbScale
 70
     0
300
3" = 1'-0"
140
3.0
141
12.0
290
     0
  0
SCALE
  5
261
102
{ACAD_REACTORS
330
241
102
}
330
241
100
AcDbScale
 70
     0
300
6" = 1'-0"
140
6.0
141
12.0
290
     0
  0
SCALE
  5
262
102
{ACAD_REACTORS
330
241
102
}
330
241
100
AcDbScale
 70
     0
300
1'-0" = 1'-0"
140
12.0
141
12.0
290
     0
  0
TABLESTYLE
  5
279
102
{ACAD_REACTORS
330
278
102
}
102
{ACAD_XDICTIONARY
360
5192
102
}
330
278
100
AcDbTableStyle
  3
Standard
 70
     0
 71
     0
 40
0.06
 41
0.06
280
     0
281
     0
  7
Standard
140
4.5
170
     2
 62
     0
 63
   257
283
     0
 90
        4
 91
        0
  1

274
    -2
284
     1
 64
     0
275
    -2
285
     1
 65
     0
276
    -2
286
     1
 66
     0
277
    -2
287
     1
 67
     0
278
    -2
288
     1
 68
     0
279
    -2
289
     1
 69
     0
  7
Standard
140
6.0
170
     5
 62
     0
 63
   257
283
     0
 90
        4
 91
        0
  1

274
    -2
284
     1
 64
     0
275
    -2
285
     1
 65
     0
276
    -2
286
     1
 66
     0
277
    -2
287
     1
 67
     0
278
    -2
288
     1
 68
     0
279
    -2
289
     1
 69
     0
  7
Standard
140
4.5
170
     5
 62
     0
 63
   257
283
     0
 90
        4
 91
        0
  1

274
    -2
284
     1
 64
     0
275
    -2
285
     1
 65
     0
276
    -2
286
     1
 66
     0
277
    -2
287
     1
 67
     0
278
    -2
288
     1
 68
     0
279
    -2
289
     1
 69
     0
  0
VISUALSTYLE
  5
26C
102
{ACAD_REACTORS
330
267
102
}
330
267
100
AcDbVisualStyle
  2
2dWireframe
 70
     4
 71
     0
 72
     2
 73
     0
 90
        0
 40
-0.6
 41
-30.0
 62
     5
 63
     7
421
 16777215
 74
     1
 91
        4
 64
     7
 65
   257
 75
     1
175
     1
 42
1.0
 92
        0
 66
   257
 43
1.0
 76
     1
 77
     6
 78
     2
 67
     7
 79
     5
170
     0
171
     0
290
     0
174
     0
 93
        1
 44
0.0
173
     0
291
     0
 45
0.0
  0
VISUALSTYLE
  5
26E
102
{ACAD_REACTORS
330
267
102
}
330
267
100
AcDbVisualStyle
  2
3D Hidden
 70
     6
 71
     1
 72
     2
 73
     2
 90
        0
 40
-0.6
 41
-30.0
 62
     5
 63
     7
421
 16777215
 74
     2
 91
        2
 64
     7
 65
   257
 75
     2
175
     1
 42
40.0
 92
        0
 66
   257
 43
1.0
 76
     1
 77
     6
 78
     2
 67
     7
 79
     3
170
     0
171
     0
290
     0
174
     0
 93
        1
 44
0.0
173
     0
291
     0
 45
0.0
  0
VISUALSTYLE
  5
26D
102
{ACAD_REACTORS
330
267
102
}
330
267
100
AcDbVisualStyle
  2
3dWireframe
 70
     5
 71
     0
 72
     2
 73
     0
 90
        0
 40
-0.6
 41
-30.0
 62
     5
 63
     7
421
 16777215
 74
     1
 91
        4
 64
     7
 65
   257
 75
     1
175
     1
 42
1.0
 92
        0
 66
   257
 43
1.0
 76
     1
 77
     6
 78
     2
 67
     7
 79
     5
170
     0
171
     0
290
     0
174
     0
 93
        1
 44
0.0
173
     0
291
     0
 45
0.0
  0
VISUALSTYLE
  5
26F
102
{ACAD_REACTORS
330
267
102
}
330
267
100
AcDbVisualStyle
  2
Basic
 70
     7
 71
     1
 72
     0
 73
     1
 90
        0
 40
-0.6
 41
-30.0
 62
     5
 63
     7
421
 16777215
 74
     0
 91
        4
 64
     7
 65
   257
 75
     1
175
     1
 42
1.0
 92
        8
 66
     7
 43
1.0
 76
     1
 77
     6
 78
     2
 67
     7
 79
     5
170
     0
171
     0
290
     0
174
     0
 93
        1
 44
0.0
173
     0
291
     1
 45
0.0
  0
VISUALSTYLE
  5
273
102
{ACAD_REACTORS
330
267
102
}
330
267
100
AcDbVisualStyle
  2
Brighten
 70
    12
 71
     2
 72
     2
 73
     0
 90
        0
 40
-0.6
 41
-30.0
 62
     5
 63
     7
421
 16777215
 74
     1
 91
        4
 64
     7
 65
   257
 75
     1
175
     1
 42
1.0
 92
        8
 66
     7
 43
1.0
 76
     1
 77
     6
 78
     2
 67
     7
 79
     5
170
     0
171
     0
290
     0
174
     0
 93
        1
 44
50.0
173
     0
291
     1
 45
0.0
  0
VISUALSTYLE
  5
277
102
{ACAD_REACTORS
330
267
102
}
330
267
100
AcDbVisualStyle
  2
ColorChange
 70
    16
 71
     2
 72
     2
 73
     3
 90
        0
 40
-0.6
 41
-30.0
 62
     5
 63
     8
421
  8421504
 74
     1
 91
        4
 64
     7
 65
   257
 75
     1
175
     1
 42
1.0
 92
        8
 66
     8
424
  8421504
 43
1.0
 76
     1
 77
     6
 78
     2
 67
     7
 79
     5
170
     0
171
     0
290
     0
174
     0
 93
        1
 44
0.0
173
     0
291
     1
 45
0.0
  0
VISUALSTYLE
  5
271
102
{ACAD_REACTORS
330
267
102
}
330
267
100
AcDbVisualStyle
  2
Conceptual
 70
     9
 71
     3
 72
     2
 73
     0
 90
        0
 40
-0.6
 41
-30.0
 62
     5
 63
     7
421
 16777215
 74
     2
 91
        2
 64
     7
 65
   257
 75
     1
175
     1
 42
40.0
 92
        8
 66
     7
 43
1.0
 76
     1
 77
     6
 78
     2
 67
     7
 79
     3
170
     0
171
     0
290
     0
174
     0
 93
        1
 44
0.0
173
     0
291
     0
 45
0.0
  0
VISUALSTYLE
  5
272
102
{ACAD_REACTORS
330
267
102
}
330
267
100
AcDbVisualStyle
  2
Dim
 70
    11
 71
     2
 72
     2
 73
     0
 90
        0
 40
-0.6
 41
-30.0
 62
     5
 63
     7
421
 16777215
 74
     1
 91
        4
 64
     7
 65
   257
 75
     1
175
     1
 42
1.0
 92
        8
 66
     7
 43
1.0
 76
     1
 77
     6
 78
     2
 67
     7
 79
     5
170
     0
171
     0
290
     0
174
     0
 93
        1
 44
-50.0
173
     0
291
     1
 45
0.0
  0
VISUALSTYLE
  5
10E2
102
{ACAD_REACTORS
330
267
102
}
330
267
100
AcDbVisualStyle
  2
EdgeColorOff
 70
    22
 71
     2
 72
     2
 73
     0
 90
        0
 40
0.6
 41
30.0
 62
     5
 63
     7
421
 16777215
 74
     1
 91
        4
 64
     7
 65
   257
 75
     1
175
     1
 42
1.0
 92
        8
 66
     7
 43
1.0
 76
     1
 77
     6
 78
     2
 67
     7
 79
     5
170
     0
171
     0
290
     0
174
     0
 93
        1
 44
0.0
173
     0
291
     1
 45
0.0
  0
VISUALSTYLE
  5
276
102
{ACAD_REACTORS
330
267
102
}
330
267
100
AcDbVisualStyle
  2
Facepattern
 70
    15
 71
     2
 72
     2
 73
     0
 90
        0
 40
-0.6
 41
-30.0
 62
     5
 63
     7
421
 16777215
 74
     1
 91
        4
 64
     7
 65
   257
 75
     1
175
     1
 42
1.0
 92
        8
 66
     7
 43
1.0
 76
     1
 77
     6
 78
     2
 67
     7
 79
     5
170
     0
171
     0
290
     0
174
     0
 93
        1
 44
0.0
173
     0
291
     1
 45
0.0
  0
VISUALSTYLE
  5
268
102
{ACAD_REACTORS
330
267
102
}
330
267
100
AcDbVisualStyle
  2
Flat
 70
     0
 71
     2
 72
     1
 73
     1
 90
        2
 40
-0.6
 41
30.0
 62
     5
 63
     7
421
 16777215
 74
     0
 91
        4
 64
     7
 65
   257
 75
     1
175
     1
 42
1.0
 92
        8
 66
     7
 43
1.0
 76
     1
 77
     6
 78
     2
 67
     7
 79
     5
170
     0
171
     0
290
     0
174
     0
 93
       13
 44
0.0
173
     0
291
     1
 45
0.0
  0
VISUALSTYLE
  5
269
102
{ACAD_REACTORS
330
267
102
}
330
267
100
AcDbVisualStyle
  2
FlatWithEdges
 70
     1
 71
     2
 72
     1
 73
     1
 90
        2
 40
-0.6
 41
30.0
 62
     5
 63
     7
421
 16777215
 74
     1
 91
        4
 64
     7
 65
   257
 75
     1
175
     1
 42
1.0
 92
        0
 66
   257
 43
1.0
 76
     1
 77
     6
 78
     2
 67
     7
 79
     5
170
     0
171
     0
290
     0
174
     0
 93
       13
 44
0.0
173
     0
291
     1
 45
0.0
  0
VISUALSTYLE
  5
26A
102
{ACAD_REACTORS
330
267
102
}
330
267
100
AcDbVisualStyle
  2
Gouraud
 70
     2
 71
     2
 72
     2
 73
     1
 90
        2
 40
-0.6
 41
30.0
 62
     5
 63
     7
421
 16777215
 74
     0
 91
        4
 64
     7
 65
   257
 75
     1
175
     1
 42
1.0
 92
        0
 66
     7
 43
1.0
 76
     1
 77
     6
 78
     2
 67
     7
 79
     5
170
     0
171
     0
290
     0
174
     0
 93
       13
 44
0.0
173
     0
291
     1
 45
0.0
  0
VISUALSTYLE
  5
26B
102
{ACAD_REACTORS
330
267
102
}
330
267
100
AcDbVisualStyle
  2
GouraudWithEdges
 70
     3
 71
     2
 72
     2
 73
     1
 90
        2
 40
-0.6
 41
30.0
 62
     5
 63
     7
421
 16777215
 74
     1
 91
        4
 64
     7
 65
   257
 75
     1
175
     1
 42
1.0
 92
        0
 66
   257
 43
1.0
 76
     1
 77
     6
 78
     2
 67
     7
 79
     5
170
     0
171
     0
290
     0
174
     0
 93
       13
 44
0.0
173
     0
291
     1
 45
0.0
  0
VISUALSTYLE
  5
10DF
102
{ACAD_REACTORS
330
267
102
}
330
267
100
AcDbVisualStyle
  2
Hidden
 70
     6
 71
     1
 72
     2
 73
     2
 90
        0
 40
0.6
 41
30.0
 62
     5
 63
     7
421
 16777215
 74
     2
 91
        2
 64
     7
 65
   257
 75
     2
175
     1
 42
40.0
 92
        0
 66
   257
 43
1.0
 76
     1
 77
     6
 78
     2
 67
     7
 79
     3
170
     0
171
     0
290
     0
174
     0
 93
        1
 44
0.0
173
     0
291
     0
 45
0.0
  0
VISUALSTYLE
  5
10E0
102
{ACAD_REACTORS
330
267
102
}
330
267
100
AcDbVisualStyle
  2
JitterOff
 70
    20
 71
     2
 72
     2
 73
     0
 90
        0
 40
0.6
 41
30.0
 62
     5
 63
     7
421
 16777215
 74
     1
 91
        4
 64
     7
 65
   257
 75
     1
175
     1
 42
1.0
 92
       10
 66
     7
 43
1.0
 76
     1
 77
     6
 78
     2
 67
     7
 79
     5
170
     0
171
     0
290
     0
174
     0
 93
        1
 44
0.0
173
     0
291
     1
 45
0.0
  0
VISUALSTYLE
  5
275
102
{ACAD_REACTORS
330
267
102
}
330
267
100
AcDbVisualStyle
  2
Linepattern
 70
    14
 71
     2
 72
     2
 73
     0
 90
        0
 40
-0.6
 41
-30.0
 62
     5
 63
     7
421
 16777215
 74
     1
 91
        4
 64
     7
 65
   257
 75
     7
175
     7
 42
1.0
 92
        8
 66
     7
 43
1.0
 76
     1
 77
     6
 78
     2
 67
     7
 79
     5
170
     0
171
     0
290
     0
174
     0
 93
        1
 44
0.0
173
     0
291
     1
 45
0.0
  0
VISUALSTYLE
  5
10E1
102
{ACAD_REACTORS
330
267
102
}
330
267
100
AcDbVisualStyle
  2
OverhangOff
 70
    21
 71
     2
 72
     2
 73
     0
 90
        0
 40
0.6
 41
30.0
 62
     5
 63
     7
421
 16777215
 74
     1
 91
        4
 64
     7
 65
   257
 75
     1
175
     1
 42
1.0
 92
        9
 66
     7
 43
1.0
 76
     1
 77
     6
 78
     2
 67
     7
 79
     5
170
     0
171
     0
290
     0
174
     0
 93
        1
 44
0.0
173
     0
291
     1
 45
0.0
  0
VISUALSTYLE
  5
270
102
{ACAD_REACTORS
330
267
102
}
330
267
100
AcDbVisualStyle
  2
Realistic
 70
     8
 71
     2
 72
     2
 73
     0
 90
        0
 40
-0.6
 41
-30.0
 62
     5
 63
     7
421
 16777215
 74
     1
 91
        0
 64
     7
 65
   257
 75
     1
175
     1
 42
1.0
 92
        8
 66
     8
424
  7895160
 43
1.0
 76
     1
 77
     6
 78
     2
 67
     7
 79
     5
170
     0
171
     0
290
     0
174
     0
 93
       13
 44
0.0
173
     0
291
     0
 45
0.0
  0
VISUALSTYLE
  5
10E7
102
{ACAD_REACTORS
330
267
102
}
330
267
100
AcDbVisualStyle
  2
Shaded
 70
    27
 71
     2
 72
     2
 73
     1
 90
        2
 40
0.6
 41
30.0
 62
     5
 63
     7
421
 16777215
 74
     0
 91
        4
 64
     7
 65
   257
 75
     1
175
     1
 42
1.0
 92
        8
 66
   257
 43
1.0
 76
     1
 77
     6
 78
     2
 67
     8
425
  7895160
 79
     3
170
     0
171
     0
290
     0
174
     0
 93
        5
 44
0.0
173
     0
291
     0
 45
0.0
  0
VISUALSTYLE
  5
10E6
102
{ACAD_REACTORS
330
267
102
}
330
267
100
AcDbVisualStyle
  2
Shaded with edges
 70
    26
 71
     2
 72
     2
 73
     1
 90
        2
 40
0.6
 41
30.0
 62
     5
 63
     7
421
 16777215
 74
     1
 91
       10
 64
     7
 65
   257
 75
     2
175
     1
 42
1.0
 92
        8
 66
   257
 43
1.0
 76
     1
 77
     6
 78
     2
 67
     7
 79
     3
170
     0
171
     0
290
     0
174
     0
 93
        5
 44
0.0
173
     0
291
     0
 45
0.0
  0
VISUALSTYLE
  5
10E3
102
{ACAD_REACTORS
330
267
102
}
330
267
100
AcDbVisualStyle
  2
Shades of Gray
 70
    23
 71
     2
 72
     2
 73
     3
 90
        0
 40
0.6
 41
30.0
 62
     5
 63
     7
421
 16777215
 74
     2
 91
        2
 64
     7
 65
     7
 75
     1
175
     1
 42
40.0
 92
        8
 66
     7
 43
1.0
 76
     1
 77
     6
 78
     2
 67
     7
 79
     3
170
     0
171
     0
290
     0
174
     0
 93
        1
 44
0.0
173
     0
291
     0
 45
0.0
  0
VISUALSTYLE
  5
10E4
102
{ACAD_REACTORS
330
267
102
}
330
267
100
AcDbVisualStyle
  2
Sketchy
 70
    24
 71
     1
 72
     2
 73
     2
 90
        0
 40
0.6
 41
30.0
 62
     5
 63
     7
421
 16777215
 74
     2
 91
        2
 64
     7
 65
     7
 75
     1
175
     1
 42
40.0
 92
       11
 66
     7
 43
1.0
 76
     1
 77
     6
 78
     2
 67
     7
 79
     6
170
     0
171
     0
290
     0
174
     0
 93
        1
 44
0.0
173
     0
291
     0
 45
0.0
  0
VISUALSTYLE
  5
274
102
{ACAD_REACTORS
330
267
102
}
330
267
100
AcDbVisualStyle
  2
Thicken
 70
    13
 71
     2
 72
     2
 73
     0
 90
        0
 40
-0.6
 41
-30.0
 62
     5
 63
     7
421
 16777215
 74
     1
 91
        4
 64
     7
 65
   257
 75
     1
175
     1
 42
1.0
 92
       12
 66
     7
 43
1.0
 76
     1
 77
     6
 78
     2
 67
     7
 79
     5
170
     0
171
     0
290
     0
174
     0
 93
        1
 44
0.0
173
     0
291
     1
 45
0.0
  0
VISUALSTYLE
  5
10DE
102
{ACAD_REACTORS
330
267
102
}
330
267
100
AcDbVisualStyle
  2
Wireframe
 70
     5
 71
     0
 72
     2
 73
     0
 90
        0
 40
0.6
 41
30.0
 62
     5
 63
     7
421
 16777215
 74
     1
 91
        4
 64
     7
 65
   257
 75
     1
175
     1
 42
1.0
 92
        0
 66
   257
 43
1.0
 76
     1
 77
     6
 78
     2
 67
     7
 79
     3
170
     0
171
     0
290
     0
174
     0
 93
        1
 44
0.0
173
     0
291
     0
 45
0.0
  0
VISUALSTYLE
  5
10E5
102
{ACAD_REACTORS
330
267
102
}
330
267
100
AcDbVisualStyle
  2
X-Ray
 70
    25
 71
     2
 72
     2
 73
     1
 90
        1
 40
0.5
 41
30.0
 62
     5
 63
     7
421
 16777215
 74
     1
 91
        0
 64
     7
 65
   257
 75
     1
175
     1
 42
1.0
 92
        8
 66
     7
 43
1.0
 76
     1
 77
     6
 78
     2
 67
     7
 79
     3
170
     0
171
     0
290
     0
174
     0
 93
       13
 44
0.0
173
     0
291
     0
 45
0.0
  0
DICTIONARYVAR
  5
331
102
{ACAD_REACTORS
330
330
102
}
330
330
100
DictionaryVariables
280
     0
  1
1:1
  0
DICTIONARYVAR
  5
4768
102
{ACAD_REACTORS
330
330
102
}
330
330
100
DictionaryVariables
280
     0
  1
Standard
  0
DICTIONARYVAR
  5
335
102
{ACAD_REACTORS
330
330
102
}
330
330
100
DictionaryVariables
280
     0
  1
Standard
  0
DICTIONARYVAR
  5
109E
102
{ACAD_REACTORS
330
330
102
}
330
330
100
DictionaryVariables
280
     0
  1
0
  0
XRECORD
  5
10DB
102
{ACAD_REACTORS
330
2E2
102
}
330
2E2
100
AcDbXrecord
280
     1
 91
     1023
301

290
     0
302
TFORMLOGO
330
14
 90
        8
 62
     7
370
    -3
331
13
  1
Color_7
330
4A
 90
        0
 62
     7
370
    -3
331
13
  1
Color_7
330
12CE
 90
        8
 62
     7
370
    13
331
13
  1
Color_7
330
12CF
 90
        8
 62
     7
370
    20
331
13
  1
Color_7
330
142A
 90
        8
 62
     7
370
    20
331
13
  1
Color_7
330
1D5C
 90
        8
 62
     7
370
    20
331
13
  1
Color_7
330
3848
 90
        9
 62
     4
370
    -3
331
13
  1
Color_4
330
0
 90
        8
 62
     7
370
    -3
331
13
  1
Color_7
330
0
 90
        8
 62
     7
370
    -3
331
13
  1
Color_7
330
0
 90
        8
 62
     7
370
    20
331
13
  1
Color_7
330
0
 90
        8
 62
   254
370
    20
331
13
  1
Color_254
  0
XRECORD
  5
DEA
102
{ACAD_REACTORS
330
2E2
102
}
330
2E2
100
AcDbXrecord
280
     1
 91
     1023
301

290
     0
302
テンプレート
330
14
 90
        8
 62
     7
370
    -3
331
13
  1
Color_7
330
4A
 90
        0
 62
     7
370
    -3
331
13
  1
Color_7
330
0
 90
        8
 62
     7
370
     9
331
13
  1
Color_7
330
12CE
 90
        9
 62
     7
370
    13
331
13
  1
Color_7
330
12CF
 90
        8
 62
     7
370
    20
331
13
  1
Color_7
330
142A
 90
        8
 62
     7
370
    20
331
13
  1
Color_7
330
0
 90
        8
 62
     7
370
    -3
331
13
  1
Color_7
330
0
 90
        8
 62
     7
370
    -3
331
13
  1
Color_7
330
0
 90
        8
 62
     7
370
    -3
331
13
  1
Color_7
330
0
 90
        8
 62
     7
370
    -3
331
13
  1
Color_7
  0
XRECORD
  5
C70
102
{ACAD_REACTORS
330
2E2
102
}
330
2E2
100
AcDbXrecord
280
     1
 91
     1023
301

290
     0
302
Defpoints
330
14
 90
        8
 62
     7
370
    -3
331
13
  1
Color_7
330
4A
 90
        0
 62
     7
370
    -3
331
13
  1
Color_7
330
0
 90
        8
 62
     7
370
    -3
331
13
  1
Color_7
330
0
 90
        8
 62
     7
370
    -3
331
13
  1
Color_7
330
0
 90
        8
 62
     7
370
    -3
331
13
  1
Color_7
330
0
 90
       12
 62
     7
370
    -3
331
13
  1
Color_7
330
0
 90
        8
 62
     7
370
    -3
331
13
  1
Color_7
  0
XRECORD
  5
7AA
102
{ACAD_REACTORS
330
2E2
102
}
330
2E2
100
AcDbXrecord
280
     1
 91
     1023
301

290
     0
302
レイヤー 1
330
14
 90
        9
 62
     7
370
    -3
331
13
  1
Color_7
330
4A
 90
        1
 62
     7
370
    -3
331
13
  1
Color_7
330
0
 90
        8
 62
     7
370
    -3
331
13
  1
Color_7
330
0
 90
        9
 62
     7
370
    -3
331
13
  1
Color_7
330
0
 90
        9
 62
     7
370
    -3
331
13
  1
Color_7
330
0
 90
       13
 62
     7
370
    -3
331
13
  1
Color_7
330
0
 90
        9
 62
     7
370
    -3
331
13
  1
Color_7
330
0
 90
        9
 62
     7
370
    -3
331
13
  1
Color_7
330
0
 90
        9
 62
     7
370
    -3
331
13
  1
Color_7
330
0
 90
        9
 62
     7
370
    -3
331
13
  1
Color_7
330
0
 90
        9
 62
     7
370
    -3
331
13
  1
Color_7
330
0
 90
        8
 62
     7
370
    -3
331
13
  1
Color_7
  0
FIELD
  5
50F2
102
{ACAD_REACTORS
330
50F1
102
}
330
50F1
100
AcDbField
  1
_text
  2
{%<\_FldIdx 0>%N}
 90
        1
360
50F3
 97
        0
 91
       63
 92
        0
 94
        8
 95
        2
 96
        0
300

 93
        1
  6
ACFD_FIELDTEXT_CHECKSUM
 93
        2
 90
        2
140
4443.0
 94
        0
300

302

304
ACVALUE_END
  7
ACFD_FIELD_VALUE
 93
        6
 90
        4
  1
{20161001N}
 94
        0
300

302

304
ACVALUE_END
301
{20161001N}
 98
       11
  0
DICTIONARY
  5
5192
330
279
100
AcDbDictionary
280
     1
281
     1
  3
ACAD_ROUNDTRIP_2008_TABLESTYLE_CELLSTYLEMAP
360
5193
  0
FIELD
  5
50F3
330
50F2
100
AcDbField
  1
AcVar
  2
\AcVar CreateDate \f "yyyyMMdd"
 90
        0
 97
        0
 91
       63
 92
        0
 94
        8
 95
        2
 96
        0
300

 93
        1
  6
Variable
 93
        2
 90
        4
  1
CreateDate
 94
        0
300

302

304
ACVALUE_END
  7
ACFD_FIELD_VALUE
 93
        6
 90
        8
 92
       16
310
E007090000001E001100390010000000
 94
        0
300
yyyyMMdd
302

304
ACVALUE_END
301
20161001
 98
        8
  0
CELLSTYLEMAP
  5
5193
102
{ACAD_REACTORS
330
5192
102
}
330
5192
100
AcDbCellStyleMap
 90
        3
300
CELLSTYLE
  1
TABLEFORMAT_BEGIN
 90
        5
170
     1
 91
        0
 92
    32768
 62
   257
 93
        1
300
CONTENTFORMAT
  1
CONTENTFORMAT_BEGIN
 90
        0
 91
        0
 92
        4
 93
        0
300

 40
0.0
140
1.0
 94
        5
 62
     0
340
17
144
6.0
309
CONTENTFORMAT_END
171
     1
301
MARGIN
  1
CELLMARGIN_BEGIN
 40
0.06
 40
0.06
 40
0.06
 40
0.06
 40
0.18
 40
0.18
309
CELLMARGIN_END
 94
        6
 95
        1
302
GRIDFORMAT
  1
GRIDFORMAT_BEGIN
 90
        0
 91
        1
 62
     0
 92
       -2
340
0
 93
        0
 40
0.045
309
GRIDFORMAT_END
 95
        2
302
GRIDFORMAT
  1
GRIDFORMAT_BEGIN
 90
        0
 91
        1
 62
     0
 92
       -2
340
0
 93
        0
 40
0.045
309
GRIDFORMAT_END
 95
        4
302
GRIDFORMAT
  1
GRIDFORMAT_BEGIN
 90
        0
 91
        1
 62
     0
 92
       -2
340
0
 93
        0
 40
0.045
309
GRIDFORMAT_END
 95
        8
302
GRIDFORMAT
  1
GRIDFORMAT_BEGIN
 90
        0
 91
        1
 62
     0
 92
       -2
340
0
 93
        0
 40
0.045
309
GRIDFORMAT_END
 95
       16
302
GRIDFORMAT
  1
GRIDFORMAT_BEGIN
 90
        0
 91
        1
 62
     0
 92
       -2
340
0
 93
        0
 40
0.045
309
GRIDFORMAT_END
 95
       32
302
GRIDFORMAT
  1
GRIDFORMAT_BEGIN
 90
        0
 91
        1
 62
     0
 92
       -2
340
0
 93
        0
 40
0.045
309
GRIDFORMAT_END
309
TABLEFORMAT_END
  1
CELLSTYLE_BEGIN
 90
        1
 91
        1
300
_TITLE
309
CELLSTYLE_END
300
CELLSTYLE
  1
TABLEFORMAT_BEGIN
 90
        5
170
     1
 91
        0
 92
        0
 62
   257
 93
        1
300
CONTENTFORMAT
  1
CONTENTFORMAT_BEGIN
 90
        0
 91
        0
 92
        4
 93
        0
300

 40
0.0
140
1.0
 94
        5
 62
     0
340
17
144
4.5
309
CONTENTFORMAT_END
171
     1
301
MARGIN
  1
CELLMARGIN_BEGIN
 40
0.06
 40
0.06
 40
0.06
 40
0.06
 40
0.18
 40
0.18
309
CELLMARGIN_END
 94
        6
 95
        1
302
GRIDFORMAT
  1
GRIDFORMAT_BEGIN
 90
        0
 91
        1
 62
     0
 92
       -2
340
0
 93
        0
 40
0.045
309
GRIDFORMAT_END
 95
        2
302
GRIDFORMAT
  1
GRIDFORMAT_BEGIN
 90
        0
 91
        1
 62
     0
 92
       -2
340
0
 93
        0
 40
0.045
309
GRIDFORMAT_END
 95
        4
302
GRIDFORMAT
  1
GRIDFORMAT_BEGIN
 90
        0
 91
        1
 62
     0
 92
       -2
340
0
 93
        0
 40
0.045
309
GRIDFORMAT_END
 95
        8
302
GRIDFORMAT
  1
GRIDFORMAT_BEGIN
 90
        0
 91
        1
 62
     0
 92
       -2
340
0
 93
        0
 40
0.045
309
GRIDFORMAT_END
 95
       16
302
GRIDFORMAT
  1
GRIDFORMAT_BEGIN
 90
        0
 91
        1
 62
     0
 92
       -2
340
0
 93
        0
 40
0.045
309
GRIDFORMAT_END
 95
       32
302
GRIDFORMAT
  1
GRIDFORMAT_BEGIN
 90
        0
 91
        1
 62
     0
 92
       -2
340
0
 93
        0
 40
0.045
309
GRIDFORMAT_END
309
TABLEFORMAT_END
  1
CELLSTYLE_BEGIN
 90
        2
 91
        1
300
_HEADER
309
CELLSTYLE_END
300
CELLSTYLE
  1
TABLEFORMAT_BEGIN
 90
        5
170
     1
 91
        0
 92
        0
 62
   257
 93
        1
300
CONTENTFORMAT
  1
CONTENTFORMAT_BEGIN
 90
        0
 91
        0
 92
        4
 93
        0
300

 40
0.0
140
1.0
 94
        2
 62
     0
340
17
144
4.5
309
CONTENTFORMAT_END
171
     1
301
MARGIN
  1
CELLMARGIN_BEGIN
 40
0.06
 40
0.06
 40
0.06
 40
0.06
 40
0.18
 40
0.18
309
CELLMARGIN_END
 94
        6
 95
        1
302
GRIDFORMAT
  1
GRIDFORMAT_BEGIN
 90
        0
 91
        1
 62
     0
 92
       -2
340
0
 93
        0
 40
0.045
309
GRIDFORMAT_END
 95
        2
302
GRIDFORMAT
  1
GRIDFORMAT_BEGIN
 90
        0
 91
        1
 62
     0
 92
       -2
340
0
 93
        0
 40
0.045
309
GRIDFORMAT_END
 95
        4
302
GRIDFORMAT
  1
GRIDFORMAT_BEGIN
 90
        0
 91
        1
 62
     0
 92
       -2
340
0
 93
        0
 40
0.045
309
GRIDFORMAT_END
 95
        8
302
GRIDFORMAT
  1
GRIDFORMAT_BEGIN
 90
        0
 91
        1
 62
     0
 92
       -2
340
0
 93
        0
 40
0.045
309
GRIDFORMAT_END
 95
       16
302
GRIDFORMAT
  1
GRIDFORMAT_BEGIN
 90
        0
 91
        1
 62
     0
 92
       -2
340
0
 93
        0
 40
0.045
309
GRIDFORMAT_END
 95
       32
302
GRIDFORMAT
  1
GRIDFORMAT_BEGIN
 90
        0
 91
        1
 62
     0
 92
       -2
340
0
 93
        0
 40
0.045
309
GRIDFORMAT_END
309
TABLEFORMAT_END
  1
CELLSTYLE_BEGIN
 90
        3
 91
        2
300
_DATA
309
CELLSTYLE_END
  0
ENDSEC
  0
EOF
