  0
SECTION
  2
HEADER
  9
$ACADVER
  1
AC1021
  9
$ACADMAINTVER
 70
    25
  9
$DWGCODEPAGE
  3
ANSI_932
  9
$LASTSAVEDBY
  1
tform
  9
$INSBASE
 10
0.0
 20
0.0
 30
0.0
  9
$EXTMIN
 10
0.0
 20
0.0
 30
0.0
  9
$EXTMAX
 10
593.9999999999999
 20
420.0
 30
0.0
  9
$LIMMIN
 10
0.0
 20
0.0
  9
$LIMMAX
 10
594.0
 20
419.9999999999996
  9
$ORTHOMODE
 70
     1
  9
$REGENMODE
 70
     1
  9
$FILLMODE
 70
     1
  9
$QTEXTMODE
 70
     0
  9
$MIRRTEXT
 70
     1
  9
$LTSCALE
 40
2.0
  9
$ATTMODE
 70
     1
  9
$TEXTSIZE
 40
2.5
  9
$TRACEWID
 40
1.0
  9
$TEXTSTYLE
  7
ＭＳ ゴシック
  9
$CLAYER
  8
寸法
  9
$CELTYPE
  6
Continuous
  9
$CECOLOR
 62
   256
  9
$CELTSCALE
 40
1.0
  9
$DISPSILH
 70
     0
  9
$DIMSCALE
 40
1.0
  9
$DIMASZ
 40
1.5
  9
$DIMEXO
 40
5.0
  9
$DIMDLI
 40
0.9999999999999999
  9
$DIMRND
 40
0.0
  9
$DIMDLE
 40
0.0
  9
$DIMEXE
 40
0.0
  9
$DIMTP
 40
0.0
  9
$DIMTM
 40
0.0
  9
$DIMTXT
 40
5.0
  9
$DIMCEN
 40
0.0
  9
$DIMTSZ
 40
0.0
  9
$DIMTOL
 70
     0
  9
$DIMLIM
 70
     0
  9
$DIMTIH
 70
     0
  9
$DIMTOH
 70
     0
  9
$DIMSE1
 70
     0
  9
$DIMSE2
 70
     0
  9
$DIMTAD
 70
     1
  9
$DIMZIN
 70
    11
  9
$DIMBLK
  1
DOT
  9
$DIMASO
 70
     1
  9
$DIMSHO
 70
     1
  9
$DIMPOST
  1
<>
  9
$DIMAPOST
  1
[]
  9
$DIMALT
 70
     0
  9
$DIMALTD
 70
     1
  9
$DIMALTF
 40
1.0
  9
$DIMLFAC
 40
1.0
  9
$DIMTOFL
 70
     0
  9
$DIMTVP
 40
0.0
  9
$DIMTIX
 70
     1
  9
$DIMSOXD
 70
     0
  9
$DIMSAH
 70
     0
  9
$DIMBLK1
  1

  9
$DIMBLK2
  1

  9
$DIMSTYLE
  2
tfrom線あり
  9
$DIMCLRD
 70
     0
  9
$DIMCLRE
 70
     0
  9
$DIMCLRT
 70
     0
  9
$DIMTFAC
 40
1.0
  9
$DIMGAP
 40
2.0
  9
$DIMJUST
 70
     0
  9
$DIMSD1
 70
     0
  9
$DIMSD2
 70
     0
  9
$DIMTOLJ
 70
     1
  9
$DIMTZIN
 70
    11
  9
$DIMALTZ
 70
    11
  9
$DIMALTTZ
 70
    11
  9
$DIMUPT
 70
     0
  9
$DIMDEC
 70
     0
  9
$DIMTDEC
 70
     1
  9
$DIMALTU
 70
     2
  9
$DIMALTTD
 70
     2
  9
$DIMTXSTY
  7
ＭＳ ゴシック
  9
$DIMAUNIT
 70
     0
  9
$DIMADEC
 70
     2
  9
$DIMALTRND
 40
0.0
  9
$DIMAZIN
 70
     0
  9
$DIMDSEP
 70
    46
  9
$DIMATFIT
 70
     0
  9
$DIMFRAC
 70
     2
  9
$DIMLDRBLK
  1
DOT
  9
$DIMLUNIT
 70
     2
  9
$DIMLWD
 70
    -2
  9
$DIMLWE
 70
    -2
  9
$DIMTMOVE
 70
     0
  9
$DIMFXL
 40
1.0
  9
$DIMFXLON
 70
     0
  9
$DIMJOGANG
 40
0.7853981633974483
  9
$DIMTFILL
 70
     0
  9
$DIMTFILLCLR
 70
     0
  9
$DIMARCSYM
 70
     0
  9
$DIMLTYPE
  6

  9
$DIMLTEX1
  6

  9
$DIMLTEX2
  6

  9
$LUNITS
 70
     2
  9
$LUPREC
 70
     0
  9
$SKETCHINC
 40
0.1
  9
$FILLETRAD
 40
0.0
  9
$AUNITS
 70
     0
  9
$AUPREC
 70
     0
  9
$MENU
  1
acad
  9
$ELEVATION
 40
0.0
  9
$PELEVATION
 40
0.0
  9
$THICKNESS
 40
0.0
  9
$LIMCHECK
 70
     0
  9
$CHAMFERA
 40
0.0
  9
$CHAMFERB
 40
0.0
  9
$CHAMFERC
 40
0.0
  9
$CHAMFERD
 40
0.0
  9
$SKPOLY
 70
     0
  9
$TDCREATE
 40
2447893.375
  9
$TDUCREATE
 40
0.0
  9
$TDUPDATE
 40
2459877.565166875
  9
$TDUUPDATE
 40
2459877.190166875
  9
$TDINDWG
 40
0.0384699421
  9
$TDUSRTIMER
 40
0.0000326852
  9
$USRTIMER
 70
     1
  9
$ANGBASE
 50
0.0
  9
$ANGDIR
 70
     0
  9
$PDMODE
 70
     1
  9
$PDSIZE
 40
-2.0
  9
$PLINEWID
 40
0.0
  9
$SPLFRAME
 70
     0
  9
$SPLINETYPE
 70
     6
  9
$SPLINESEGS
 70
     8
  9
$HANDSEED
  5
8512
  9
$SURFTAB1
 70
     6
  9
$SURFTAB2
 70
     6
  9
$SURFTYPE
 70
     6
  9
$SURFU
 70
     6
  9
$SURFV
 70
     6
  9
$UCSBASE
  2

  9
$UCSNAME
  2

  9
$UCSORG
 10
0.0
 20
0.0
 30
0.0
  9
$UCSXDIR
 10
1.0
 20
0.0
 30
0.0
  9
$UCSYDIR
 10
0.0
 20
1.0
 30
0.0
  9
$UCSORTHOREF
  2

  9
$UCSORTHOVIEW
 70
     1
  9
$UCSORGTOP
 10
0.0
 20
0.0
 30
0.0
  9
$UCSORGBOTTOM
 10
0.0
 20
0.0
 30
0.0
  9
$UCSORGLEFT
 10
0.0
 20
0.0
 30
0.0
  9
$UCSORGRIGHT
 10
0.0
 20
0.0
 30
0.0
  9
$UCSORGFRONT
 10
0.0
 20
0.0
 30
0.0
  9
$UCSORGBACK
 10
0.0
 20
0.0
 30
0.0
  9
$PUCSBASE
  2

  9
$PUCSNAME
  2

  9
$PUCSORG
 10
0.0
 20
0.0
 30
0.0
  9
$PUCSXDIR
 10
1.0
 20
0.0
 30
0.0
  9
$PUCSYDIR
 10
0.0
 20
1.0
 30
0.0
  9
$PUCSORTHOREF
  2

  9
$PUCSORTHOVIEW
 70
     0
  9
$PUCSORGTOP
 10
0.0
 20
0.0
 30
0.0
  9
$PUCSORGBOTTOM
 10
0.0
 20
0.0
 30
0.0
  9
$PUCSORGLEFT
 10
0.0
 20
0.0
 30
0.0
  9
$PUCSORGRIGHT
 10
0.0
 20
0.0
 30
0.0
  9
$PUCSORGFRONT
 10
0.0
 20
0.0
 30
0.0
  9
$PUCSORGBACK
 10
0.0
 20
0.0
 30
0.0
  9
$USERI1
 70
     0
  9
$USERI2
 70
     0
  9
$USERI3
 70
     0
  9
$USERI4
 70
     0
  9
$USERI5
 70
     0
  9
$USERR1
 40
0.0
  9
$USERR2
 40
0.0
  9
$USERR3
 40
0.0
  9
$USERR4
 40
0.0
  9
$USERR5
 40
0.0
  9
$WORLDVIEW
 70
     1
  9
$SHADEDGE
 70
     3
  9
$SHADEDIF
 70
    70
  9
$TILEMODE
 70
     1
  9
$MAXACTVP
 70
    64
  9
$PINSBASE
 10
0.0
 20
0.0
 30
0.0
  9
$PLIMCHECK
 70
     0
  9
$PEXTMIN
 10
0.0
 20
0.0
 30
0.0
  9
$PEXTMAX
 10
0.0
 20
0.0
 30
0.0
  9
$PLIMMIN
 10
-7.5
 20
-20.0
  9
$PLIMMAX
 10
412.5
 20
277.0
  9
$UNITMODE
 70
     0
  9
$VISRETAIN
 70
     0
  9
$PLINEGEN
 70
     1
  9
$PSLTSCALE
 70
     1
  9
$TREEDEPTH
 70
  3020
  9
$CMLSTYLE
  2
Standard
  9
$CMLJUST
 70
     0
  9
$CMLSCALE
 40
1.0
  9
$PROXYGRAPHICS
 70
     0
  9
$MEASUREMENT
 70
     1
  9
$CELWEIGHT
370
    -1
  9
$ENDCAPS
280
     0
  9
$JOINSTYLE
280
     0
  9
$LWDISPLAY
290
     1
  9
$INSUNITS
 70
     4
  9
$HYPERLINKBASE
  1

  9
$STYLESHEET
  1

  9
$XEDIT
290
     1
  9
$CEPSNTYPE
380
     0
  9
$PSTYLEMODE
290
     1
  9
$FINGERPRINTGUID
  2

  9
$VERSIONGUID
  2

  9
$EXTNAMES
290
     1
  9
$PSVPSCALE
 40
0.0
  9
$OLESTARTUP
290
     0
  9
$SORTENTS
280
   127
  9
$INDEXCTL
280
     0
  9
$HIDETEXT
280
     1
  9
$XCLIPFRAME
290
     0
  9
$HALOGAP
280
     0
  9
$OBSCOLOR
 70
   257
  9
$OBSLTYPE
280
     0
  9
$INTERSECTIONDISPLAY
280
     0
  9
$INTERSECTIONCOLOR
 70
   257
  9
$DIMASSOC
280
     2
  9
$PROJECTNAME
  1

  9
$CAMERADISPLAY
290
     0
  9
$LENSLENGTH
 40
50.0
  9
$CAMERAHEIGHT
 40
0.0
  9
$STEPSPERSEC
 40
2.0
  9
$STEPSIZE
 40
6.0
  9
$3DDWFPREC
 40
2.0
  9
$PSOLWIDTH
 40
0.25
  9
$PSOLHEIGHT
 40
4.0
  9
$LOFTANG1
 40
1.570796326794897
  9
$LOFTANG2
 40
1.570796326794897
  9
$LOFTMAG1
 40
0.0
  9
$LOFTMAG2
 40
0.0
  9
$LOFTPARAM
 70
     7
  9
$LOFTNORMALS
280
     1
  9
$LATITUDE
 40
37.795
  9
$LONGITUDE
 40
-122.394
  9
$NORTHDIRECTION
 40
0.0
  9
$TIMEZONE
 70
 -8000
  9
$LIGHTGLYPHDISPLAY
280
     1
  9
$TILEMODELIGHTSYNCH
280
     1
  9
$SOLIDHIST
280
     1
  9
$SHOWHIST
280
     1
  9
$DWFFRAME
280
     2
  9
$DGNFRAME
280
     2
  9
$REALWORLDSCALE
290
     1
  9
$INTERFERECOLOR
 62
   256
  9
$CSHADOW
280
     0
  9
$SHADOWPLANELOCATION
 40
0.0
  0
ENDSEC
  0
SECTION
  2
CLASSES
  0
CLASS
  1
LWPOLYLINE
  2
AcDbPolyline
  3
ObjectDBX Classes
 90
        0
 91
        1
280
     0
281
     1
  0
CLASS
  1
IMAGE
  2
AcDbRasterImage
  3
ISM
 90
      127
 91
        4
280
     0
281
     1
  0
CLASS
  1
OLE2FRAME
  2
AcDbOle2Frame
  3
ObjectDBX Classes
 90
        0
 91
        1
280
     0
281
     1
  0
CLASS
  1
HATCH
  2
AcDbHatch
  3
ObjectDBX Classes
 90
        0
 91
        1
280
     0
281
     1
  0
CLASS
  1
DICTIONARYVAR
  2
AcDbDictionaryVar
  3
ObjectDBX Classes
 90
        0
 91
        3
280
     0
281
     0
  0
CLASS
  1
RASTERVARIABLES
  2
AcDbRasterVariables
  3
ISM
 90
        0
 91
        3
280
     0
281
     0
  0
CLASS
  1
IMAGEDEF
  2
AcDbRasterImageDef
  3
ISM
 90
        0
 91
        3
280
     0
281
     0
  0
CLASS
  1
IMAGEDEF_REACTOR
  2
AcDbRasterImageDefReactor
  3
ISM
 90
        1
 91
        3
280
     0
281
     0
  0
CLASS
  1
IDBUFFER
  2
AcDbIdBuffer
  3
ObjectDBX Classes
 90
        0
 91
        3
280
     0
281
     0
  0
CLASS
  1
SPATIAL_FILTER
  2
AcDbSpatialFilter
  3
ObjectDBX Classes
 90
        0
 91
        3
280
     0
281
     0
  0
CLASS
  1
XRECORD
  2
AcDbXrecord
  3
ObjectDBX Classes
 90
        0
 91
        1
280
     0
281
     0
  0
CLASS
  1
SORTENTSTABLE
  2
AcDbSortentsTable
  3
ObjectDBX Classes
 90
        0
 91
        3
280
     0
281
     0
  0
CLASS
  1
LAYER_INDEX
  2
AcDbLayerIndex
  3
ObjectDBX Classes
 90
        0
 91
        3
280
     0
281
     0
  0
CLASS
  1
SPATIAL_INDEX
  2
AcDbSpatialIndex
  3
AutoCAD 2000
 90
        0
 91
        3
280
     0
281
     0
  0
CLASS
  1
OBJECT_PTR
  2
CAseDLPNTableRecord
  3
ASE-LPNTableRecord
 90
        1
 91
        3
280
     0
281
     0
  0
CLASS
  1
LAYOUT
  2
AcDbLayout
  3
ObjectDBX Classes
 90
        0
 91
        1
280
     0
281
     0
  0
CLASS
  1
PLOTSETTINGS
  2
AcDbPlotSettings
  3
ObjectDBX Classes
 90
        0
 91
        3
280
     0
281
     0
  0
CLASS
  1
ACDBDICTIONARYWDFLT
  2
AcDbDictionaryWithDefault
  3
ObjectDBX Classes
 90
        0
 91
        3
280
     0
281
     0
  0
CLASS
  1
ACDBPLACEHOLDER
  2
AcDbPlaceHolder
  3
ObjectDBX Classes
 90
        0
 91
        1
280
     0
281
     0
  0
CLASS
  1
SCALE
  2
AcDbScale
  3
ObjectDBX Classes
 90
     1153
 91
        3
280
     0
281
     0
  0
CLASS
  1
MATERIAL
  2
AcDbMaterial
  3
ObjectDBX Classes
 90
     1153
 91
        3
280
     0
281
     0
  0
CLASS
  1
VISUALSTYLE
  2
AcDbVisualStyle
  3
ObjectDBX Classes
 90
     4095
 91
        3
280
     0
281
     0
  0
CLASS
  1
TABLESTYLE
  2
AcDbTableStyle
  3
ObjectDBX Classes
 90
     4095
 91
        3
280
     0
281
     0
  0
CLASS
  1
DIMASSOC
  2
AcDbDimAssoc
  3
"AcDbDimAssoc|Product Desc:     AcDim ARX App For Dimension|Company:          Autodesk, Inc.|WEB Address:      www.autodesk.com"
 90
        0
 91
        3
280
     0
281
     0
  0
CLASS
  1
CELLSTYLEMAP
  2
AcDbCellStyleMap
  3
ObjectDBX Classes
 90
     1152
 91
        3
280
     0
281
     0
  0
CLASS
  1
SUN
  2
AcDbSun
  3
SCENEOE
 90
     1153
 91
        3
280
     0
281
     0
  0
CLASS
  1
MLEADERSTYLE
  2
AcDbMLeaderStyle
  3
ACDB_MLEADERSTYLE_CLASS
 90
     4095
 91
        3
280
     0
281
     0
  0
CLASS
  1
FIELD
  2
AcDbField
  3
ObjectDBX Classes
 90
     1152
 91
        3
280
     0
281
     0
  0
CLASS
  1
FIELDLIST
  2
AcDbFieldList
  3
ObjectDBX Classes
 90
     1152
 91
        3
280
     0
281
     0
  0
ENDSEC
  0
SECTION
  2
TABLES
  0
TABLE
  2
VPORT
  5
7
330
0
100
AcDbSymbolTable
 70
     1
  0
VPORT
  5
15
330
7
100
AcDbSymbolTableRecord
100
AcDbViewportTableRecord
  2
*ACTIVE
 70
     0
 10
0.0
 20
0.0
 11
1.0
 21
1.0
 12
296.9999999999999
 22
0.0000000000001137
 13
0.0
 23
0.0
 14
1.0
 24
1.0
 15
0.0
 25
0.0
 16
0.0
 26
0.0
 36
1.0
 17
0.0
 27
209.9999999999999
 37
0.0
 40
428.4
 41
2.120713305898491
 42
50.0
 43
0.0
 44
0.0
 50
0.0
 51
0.0
 71
    16
 72
  2000
 73
     1
 74
     1
 75
     0
 76
     0
 77
     0
 78
     0
281
     0
 65
     1
110
0.0
120
0.0
130
0.0
111
1.0
121
0.0
131
0.0
112
0.0
122
1.0
132
0.0
 79
     1
146
0.0
348
26C
 60
     3
 61
     5
292
     1
282
     1
141
0.0
142
0.0
 63
   256
361
F1A
  0
ENDTAB
  0
TABLE
  2
LTYPE
  5
4
330
0
100
AcDbSymbolTable
 70
     3
  0
LTYPE
  5
11
330
4
100
AcDbSymbolTableRecord
100
AcDbLinetypeTableRecord
  2
ByBlock
 70
     0
  3

 72
    65
 73
     0
 40
0.0
  0
LTYPE
  5
12
330
4
100
AcDbSymbolTableRecord
100
AcDbLinetypeTableRecord
  2
ByLayer
 70
     0
  3
Solid line
 72
    65
 73
     0
 40
0.0
  0
LTYPE
  5
13
330
4
100
AcDbSymbolTableRecord
100
AcDbLinetypeTableRecord
  2
Continuous
 70
     0
  3
Solid line
 72
    65
 73
     0
 40
0.0
  0
LTYPE
  5
529A
330
4
100
AcDbSymbolTableRecord
100
AcDbLinetypeTableRecord
  2
CENTER
 70
     0
  3
----------  --  ----------  --  
 72
    65
 73
     4
 40
20.0
 49
12.5
 74
     0
 49
-2.5
 74
     0
 49
2.5
 74
     0
 49
-2.5
 74
     0
  0
LTYPE
  5
529B
330
4
100
AcDbSymbolTableRecord
100
AcDbLinetypeTableRecord
  2
HIDDEN
 70
     0
  3
Hidden _ _ _ _ _ _ _ _ _ _ _ _ _ _ _ _ _ _ _ _ 
 72
    65
 73
     2
 40
9.524999999999999
 49
6.35
 74
     0
 49
-3.175
 74
     0
  0
ENDTAB
  0
TABLE
  2
LAYER
  5
2
102
{ACAD_XDICTIONARY
360
2E1
102
}
330
0
100
AcDbSymbolTable
 70
    10
  0
LAYER
  5
14
330
2
100
AcDbSymbolTableRecord
100
AcDbLayerTableRecord
  2
0
 70
     0
 62
     7
  6
Continuous
370
    -3
390
1D
347
266
  0
LAYER
  5
4A
330
2
100
AcDbSymbolTableRecord
100
AcDbLayerTableRecord
  2
Defpoints
 70
     0
 62
    -7
  6
Continuous
290
     0
370
    -3
390
1D
347
266
  0
LAYER
  5
667
330
2
100
AcDbSymbolTableRecord
100
AcDbLayerTableRecord
  2
レイヤー 1
 70
     0
 62
     7
  6
Continuous
370
    -3
390
1D
347
266
  0
LAYER
  5
528F
330
2
100
AcDbSymbolTableRecord
100
AcDbLayerTableRecord
  2
寸法
 70
     0
 62
     7
  6
Continuous
370
    13
390
1D
347
266
1001
AcAecLayerStandard
1000

1000

  0
LAYER
  5
5293
330
2
100
AcDbSymbolTableRecord
100
AcDbLayerTableRecord
  2
テンプレート
 70
     0
 62
     7
  6
Continuous
370
    20
390
1D
347
266
1001
AcAecLayerStandard
1000

1000

  0
LAYER
  5
5294
330
2
100
AcDbSymbolTableRecord
100
AcDbLayerTableRecord
  2
TFORMLOGO
 70
     0
 62
     7
  6
Continuous
370
    20
390
1D
347
266
  0
LAYER
  5
5295
330
2
100
AcDbSymbolTableRecord
100
AcDbLayerTableRecord
  2
PRINT BORDER
 70
     0
 62
     4
  6
Continuous
290
     0
370
    -3
390
1D
347
266
1001
AcAecLayerStandard
1000

1000

  0
LAYER
  5
5298
330
2
100
AcDbSymbolTableRecord
100
AcDbLayerTableRecord
  2
CutoutUnderlay
 70
     0
 62
   254
  6
Continuous
370
    20
390
1D
347
266
1001
AcAecLayerStandard
1000

1000

  0
LAYER
  5
5299
330
2
100
AcDbSymbolTableRecord
100
AcDbLayerTableRecord
  2
CutoutOverlay
 70
     0
 62
     7
  6
Continuous
370
    20
390
1D
347
266
1001
AcAecLayerStandard
1000

1000

  0
LAYER
  5
7445
330
2
100
AcDbSymbolTableRecord
100
AcDbLayerTableRecord
  2
モデル
 70
     0
 62
     7
  6
Continuous
370
    20
390
1D
347
266
1001
AcAecLayerStandard
1000

1000

  0
ENDTAB
  0
TABLE
  2
STYLE
  5
3
330
0
100
AcDbSymbolTable
 70
     2
  0
STYLE
  5
17
330
3
100
AcDbSymbolTableRecord
100
AcDbTextStyleTableRecord
  2
Standard
 70
     0
 40
0.0
 41
1.0
 50
0.0
 71
     0
 42
2.5
  3
txt
  4
BIGFONT.SHX
  0
STYLE
  5
39
330
3
100
AcDbSymbolTableRecord
100
AcDbTextStyleTableRecord
  2
ＭＳ ゴシック
 70
     0
 40
0.0
 41
1.0
 50
0.0
 71
     0
 42
2.5
  3
msgothic.ttc
  4
ＭＳ ゴシック
1001
ACAD
1000
ＭＳ ゴシック
1071
        0
  0
ENDTAB
  0
TABLE
  2
VIEW
  5
5
330
0
100
AcDbSymbolTable
 70
     0
  0
ENDTAB
  0
TABLE
  2
UCS
  5
6
330
0
100
AcDbSymbolTable
 70
     0
  0
ENDTAB
  0
TABLE
  2
APPID
  5
8
330
0
100
AcDbSymbolTable
 70
     6
  0
APPID
  5
16
330
8
100
AcDbSymbolTableRecord
100
AcDbRegAppTableRecord
  2
ACAD
 70
     0
  0
APPID
  5
7AC
330
8
100
AcDbSymbolTableRecord
100
AcDbRegAppTableRecord
  2
AcAecLayerStandard
 70
     0
  0
APPID
  5
5992
330
8
100
AcDbSymbolTableRecord
100
AcDbRegAppTableRecord
  2
ACAD_MLEADERVER
 70
     0
  0
APPID
  5
6C9A
330
8
100
AcDbSymbolTableRecord
100
AcDbRegAppTableRecord
  2
PLOTTRANSPARENCY
 70
     0
  0
APPID
  5
6D11
330
8
100
AcDbSymbolTableRecord
100
AcDbRegAppTableRecord
  2
IDW_INSPOINT
 70
     0
  0
APPID
  5
7025
330
8
100
AcDbSymbolTableRecord
100
AcDbRegAppTableRecord
  2
PE_DIMMEASUREMENT
 70
     0
  0
ENDTAB
  0
TABLE
  2
DIMSTYLE
  5
9
330
0
100
AcDbSymbolTable
 70
     2
100
AcDbDimStyleTable
  0
DIMSTYLE
105
57
102
{ACAD_REACTORS
330
7F53
330
7F54
330
7F5C
330
7F60
330
7F63
330
7F65
330
83D8
330
83E7
330
83F7
330
8416
330
8444
330
8453
330
8465
330
8475
330
8485
330
8494
330
84BD
330
84CE
330
84E6
330
84F4
102
}
330
9
100
AcDbSymbolTableRecord
100
AcDbDimStyleTableRecord
  2
tfrom線あり
 70
     0
  3
<>
  4
[]
 41
1.5
 42
5.0
 43
0.9999999999999999
 44
0.0
 73
     0
 74
     0
 77
     1
 78
    11
140
5.0
141
0.0
143
1.0
147
2.0
171
     1
174
     1
178
     0
179
     2
271
     0
272
     1
276
     2
284
    11
285
    11
286
    11
289
     0
340
39
341
4E
342
4E
  0
DIMSTYLE
105
815F
330
9
100
AcDbSymbolTableRecord
100
AcDbDimStyleTableRecord
  2
Standard
 70
     0
178
     0
340
17
  0
ENDTAB
  0
TABLE
  2
BLOCK_RECORD
  5
1
330
0
100
AcDbSymbolTable
 70
    36
  0
BLOCK_RECORD
  5
A
102
{ACAD_XDICTIONARY
360
59FD
102
}
330
1
100
AcDbSymbolTableRecord
100
AcDbBlockTableRecord
  2
*MODEL_SPACE
340
20
 70
     0
280
     1
281
     0
  0
BLOCK_RECORD
  5
B
330
1
100
AcDbSymbolTableRecord
100
AcDbBlockTableRecord
  2
*PAPER_SPACE
340
21
 70
     0
280
     1
281
     0
  0
BLOCK_RECORD
  5
4E
330
1
100
AcDbSymbolTableRecord
100
AcDbBlockTableRecord
  2
_DOT
340
0
102
{BLKREFS
331
7F39
331
7F3A
331
7F6E
331
7F6F
331
7F7A
331
7F7B
331
8026
331
8027
331
8035
331
8036
331
8046
331
8047
331
8056
331
8057
331
8065
331
8066
331
8076
331
8077
331
8085
331
8086
331
8094
331
8095
331
80A3
331
80A4
331
80BB
331
80BC
331
83E1
331
83E2
331
83F0
331
83F1
331
8400
331
8401
331
840F
331
8410
331
841F
331
8420
331
842E
331
842F
331
844D
331
844E
331
845C
331
845D
331
846E
331
846F
331
8480
331
8481
331
848E
331
848F
331
849F
331
84A0
331
84C6
331
84C7
331
84D7
331
84D8
331
84EE
331
84EF
331
84FC
331
84FD
102
}
 70
     0
280
     1
281
     0
  0
BLOCK_RECORD
  5
690
330
1
100
AcDbSymbolTableRecord
100
AcDbBlockTableRecord
  2
block 3
340
0
102
{BLKREFS
331
52DC
102
}
 70
     0
280
     1
281
     0
  0
BLOCK_RECORD
  5
693
330
1
100
AcDbSymbolTableRecord
100
AcDbBlockTableRecord
  2
block 4
340
0
102
{BLKREFS
331
692
102
}
 70
     0
280
     1
281
     0
  0
BLOCK_RECORD
  5
6A2
330
1
100
AcDbSymbolTableRecord
100
AcDbBlockTableRecord
  2
block 5
340
0
102
{BLKREFS
331
6A1
102
}
 70
     0
280
     1
281
     0
  0
BLOCK_RECORD
  5
52D7
330
1
100
AcDbSymbolTableRecord
100
AcDbBlockTableRecord
  2
名称未設定-1
340
0
102
{BLKREFS
331
54B3
102
}
 70
     1
280
     1
281
     0
  0
BLOCK_RECORD
  5
52DA
330
1
100
AcDbSymbolTableRecord
100
AcDbBlockTableRecord
  2
block 2
340
0
102
{BLKREFS
331
52D9
102
}
 70
     0
280
     1
281
     0
  0
BLOCK_RECORD
  5
74B6
330
1
100
AcDbSymbolTableRecord
100
AcDbBlockTableRecord
  2
_NONE
340
0
 70
     0
280
     1
281
     0
  0
BLOCK_RECORD
  5
7F33
330
1
100
AcDbSymbolTableRecord
100
AcDbBlockTableRecord
  2
*D7
340
0
 70
     0
280
     1
281
     0
  0
BLOCK_RECORD
  5
7F68
330
1
100
AcDbSymbolTableRecord
100
AcDbBlockTableRecord
  2
*D8
340
0
 70
     0
280
     1
281
     0
  0
BLOCK_RECORD
  5
7F74
330
1
100
AcDbSymbolTableRecord
100
AcDbBlockTableRecord
  2
*D9
340
0
 70
     0
280
     1
281
     0
  0
BLOCK_RECORD
  5
8020
330
1
100
AcDbSymbolTableRecord
100
AcDbBlockTableRecord
  2
*D10
340
0
 70
     0
280
     1
281
     0
  0
BLOCK_RECORD
  5
802F
330
1
100
AcDbSymbolTableRecord
100
AcDbBlockTableRecord
  2
*D11
340
0
 70
     0
280
     1
281
     0
  0
BLOCK_RECORD
  5
8040
330
1
100
AcDbSymbolTableRecord
100
AcDbBlockTableRecord
  2
*D12
340
0
 70
     0
280
     1
281
     0
  0
BLOCK_RECORD
  5
8050
330
1
100
AcDbSymbolTableRecord
100
AcDbBlockTableRecord
  2
*D13
340
0
 70
     0
280
     1
281
     0
  0
BLOCK_RECORD
  5
805F
330
1
100
AcDbSymbolTableRecord
100
AcDbBlockTableRecord
  2
*D14
340
0
 70
     0
280
     1
281
     0
  0
BLOCK_RECORD
  5
8070
330
1
100
AcDbSymbolTableRecord
100
AcDbBlockTableRecord
  2
*D15
340
0
 70
     0
280
     1
281
     0
  0
BLOCK_RECORD
  5
807F
330
1
100
AcDbSymbolTableRecord
100
AcDbBlockTableRecord
  2
*D16
340
0
 70
     0
280
     1
281
     0
  0
BLOCK_RECORD
  5
808E
330
1
100
AcDbSymbolTableRecord
100
AcDbBlockTableRecord
  2
*D17
340
0
 70
     0
280
     1
281
     0
  0
BLOCK_RECORD
  5
809D
330
1
100
AcDbSymbolTableRecord
100
AcDbBlockTableRecord
  2
*D18
340
0
 70
     0
280
     1
281
     0
  0
BLOCK_RECORD
  5
80B5
330
1
100
AcDbSymbolTableRecord
100
AcDbBlockTableRecord
  2
*D19
340
0
 70
     0
280
     1
281
     0
  0
BLOCK_RECORD
  5
83DB
330
1
100
AcDbSymbolTableRecord
100
AcDbBlockTableRecord
  2
*D20
340
0
 70
     0
280
     1
281
     0
  0
BLOCK_RECORD
  5
83EA
330
1
100
AcDbSymbolTableRecord
100
AcDbBlockTableRecord
  2
*D21
340
0
 70
     0
280
     1
281
     0
  0
BLOCK_RECORD
  5
83FA
330
1
100
AcDbSymbolTableRecord
100
AcDbBlockTableRecord
  2
*D22
340
0
 70
     0
280
     1
281
     0
  0
BLOCK_RECORD
  5
8409
330
1
100
AcDbSymbolTableRecord
100
AcDbBlockTableRecord
  2
*D23
340
0
 70
     0
280
     1
281
     0
  0
BLOCK_RECORD
  5
8419
330
1
100
AcDbSymbolTableRecord
100
AcDbBlockTableRecord
  2
*D24
340
0
 70
     0
280
     1
281
     0
  0
BLOCK_RECORD
  5
8428
330
1
100
AcDbSymbolTableRecord
100
AcDbBlockTableRecord
  2
*D25
340
0
 70
     0
280
     1
281
     0
  0
BLOCK_RECORD
  5
8447
330
1
100
AcDbSymbolTableRecord
100
AcDbBlockTableRecord
  2
*D26
340
0
 70
     0
280
     1
281
     0
  0
BLOCK_RECORD
  5
8456
330
1
100
AcDbSymbolTableRecord
100
AcDbBlockTableRecord
  2
*D27
340
0
 70
     0
280
     1
281
     0
  0
BLOCK_RECORD
  5
8468
330
1
100
AcDbSymbolTableRecord
100
AcDbBlockTableRecord
  2
*D28
340
0
 70
     0
280
     1
281
     0
  0
BLOCK_RECORD
  5
8478
330
1
100
AcDbSymbolTableRecord
100
AcDbBlockTableRecord
  2
*D29
340
0
 70
     0
280
     1
281
     0
  0
BLOCK_RECORD
  5
8488
330
1
100
AcDbSymbolTableRecord
100
AcDbBlockTableRecord
  2
*D30
340
0
 70
     0
280
     1
281
     0
  0
BLOCK_RECORD
  5
8497
330
1
100
AcDbSymbolTableRecord
100
AcDbBlockTableRecord
  2
*D31
340
0
 70
     0
280
     1
281
     0
  0
BLOCK_RECORD
  5
84C0
330
1
100
AcDbSymbolTableRecord
100
AcDbBlockTableRecord
  2
*D32
340
0
 70
     0
280
     1
281
     0
  0
BLOCK_RECORD
  5
84D1
330
1
100
AcDbSymbolTableRecord
100
AcDbBlockTableRecord
  2
*D33
340
0
 70
     0
280
     1
281
     0
  0
BLOCK_RECORD
  5
84E8
330
1
100
AcDbSymbolTableRecord
100
AcDbBlockTableRecord
  2
*D34
340
0
 70
     0
280
     1
281
     0
  0
BLOCK_RECORD
  5
84F6
330
1
100
AcDbSymbolTableRecord
100
AcDbBlockTableRecord
  2
*D35
340
0
 70
     0
280
     1
281
     0
  0
ENDTAB
  0
ENDSEC
  0
SECTION
  2
BLOCKS
  0
BLOCK
  5
D
330
A
100
AcDbEntity
  8
0
390
1D
100
AcDbBlockBegin
  2
*MODEL_SPACE
 70
     0
 10
0.0
 20
0.0
 30
0.0
  3
*MODEL_SPACE
  1
*MODEL_SPACE
  0
ENDBLK
  5
E
330
A
100
AcDbEntity
  8
0
390
1D
100
AcDbBlockEnd
  0
BLOCK
  5
F
330
B
100
AcDbEntity
 67
     1
  8
0
390
1D
100
AcDbBlockBegin
  2
*PAPER_SPACE
 70
     0
 10
0.0
 20
0.0
 30
0.0
  3
*PAPER_SPACE
  1
*PAPER_SPACE
  0
ENDBLK
  5
10
330
B
100
AcDbEntity
 67
     1
  8
0
390
1D
100
AcDbBlockEnd
  0
BLOCK
  5
5282
330
4E
100
AcDbEntity
  8
0
390
1D
100
AcDbBlockBegin
  2
_DOT
 70
     0
 10
0.0
 20
0.0
 30
0.0
  3
_DOT
  1
_DOT
  0
POLYLINE
  5
5284
330
4E
100
AcDbEntity
  8
0
  6
ByBlock
 62
     0
370
    -2
390
1D
100
AcDb2dPolyline
 66
     1
 10
0.0
 20
0.0
 30
0.0
 70
     1
 40
0.5
 41
0.5
  0
VERTEX
  5
5285
330
5284
100
AcDbEntity
  8
0
  6
ByBlock
 62
     0
370
    -2
390
1D
100
AcDbVertex
100
AcDb2dVertex
 10
-0.25
 20
0.0
 30
0.0
 42
1.0
  0
VERTEX
  5
5286
330
5284
100
AcDbEntity
  8
0
  6
ByBlock
 62
     0
370
    -2
390
1D
100
AcDbVertex
100
AcDb2dVertex
 10
0.25
 20
0.0
 30
0.0
 42
1.0
  0
SEQEND
  5
5287
330
5284
100
AcDbEntity
  8
0
390
1D
  0
LINE
  5
5288
330
4E
100
AcDbEntity
  8
0
  6
ByBlock
 62
     0
370
    -2
390
1D
100
AcDbLine
 10
-0.5
 20
0.0
 30
0.0
 11
-1.0
 21
0.0
 31
0.0
  0
ENDBLK
  5
5289
330
4E
100
AcDbEntity
  8
0
390
1D
100
AcDbBlockEnd
  0
BLOCK
  5
691
330
690
100
AcDbEntity
  8
0
100
AcDbBlockBegin
  2
block 3
 70
     0
 10
0.0
 20
0.0
 30
0.0
  3
block 3
  1
block 3
  0
INSERT
  5
692
330
690
100
AcDbEntity
  8
レイヤー 1
100
AcDbBlockReference
  2
block 4
 10
0.0
 20
0.0
 30
0.0
  0
ENDBLK
  5
6AF
330
690
100
AcDbEntity
  8
0
100
AcDbBlockEnd
  0
BLOCK
  5
694
330
693
100
AcDbEntity
  8
0
100
AcDbBlockBegin
  2
block 4
 70
     0
 10
0.0
 20
0.0
 30
0.0
  3
block 4
  1
block 4
  0
POLYLINE
  5
695
330
693
100
AcDbEntity
  8
レイヤー 1
370
     0
100
AcDb2dPolyline
 66
     1
 10
0.0
 20
0.0
 30
0.0
  0
VERTEX
  5
696
330
695
100
AcDbEntity
  8
レイヤー 1
370
     0
100
AcDbVertex
100
AcDb2dVertex
 10
83.79545727667795
 20
167.6444858234922
 30
0.0
  0
VERTEX
  5
697
330
695
100
AcDbEntity
  8
レイヤー 1
370
     0
100
AcDbVertex
100
AcDb2dVertex
 10
83.79545727667795
 20
159.7968976406313
 30
0.0
  0
VERTEX
  5
698
330
695
100
AcDbEntity
  8
レイヤー 1
370
     0
100
AcDbVertex
100
AcDb2dVertex
 10
71.3631329975216
 20
159.7968976406313
 30
0.0
  0
VERTEX
  5
699
330
695
100
AcDbEntity
  8
レイヤー 1
370
     0
100
AcDbVertex
100
AcDb2dVertex
 10
71.3631329975216
 20
127.8027915271048
 30
0.0
  0
VERTEX
  5
69A
330
695
100
AcDbEntity
  8
レイヤー 1
370
     0
100
AcDbVertex
100
AcDb2dVertex
 10
60.43011526263018
 20
127.8027915271048
 30
0.0
  0
VERTEX
  5
69B
330
695
100
AcDbEntity
  8
レイヤー 1
370
     0
100
AcDbVertex
100
AcDb2dVertex
 10
60.43011526263018
 20
159.7968976406313
 30
0.0
  0
VERTEX
  5
69C
330
695
100
AcDbEntity
  8
レイヤー 1
370
     0
100
AcDbVertex
100
AcDb2dVertex
 10
48.21793273020759
 20
159.7968976406313
 30
0.0
  0
VERTEX
  5
69D
330
695
100
AcDbEntity
  8
レイヤー 1
370
     0
100
AcDbVertex
100
AcDb2dVertex
 10
48.21793273020759
 20
167.6444858234922
 30
0.0
  0
VERTEX
  5
69E
330
695
100
AcDbEntity
  8
レイヤー 1
370
     0
100
AcDbVertex
100
AcDb2dVertex
 10
83.79545727667795
 20
167.6444858234922
 30
0.0
  0
SEQEND
  5
69F
330
695
100
AcDbEntity
  8
レイヤー 1
370
     0
  0
HATCH
  5
6A0
330
693
100
AcDbEntity
  8
レイヤー 1
 62
   250
420
  2234388
100
AcDbHatch
 10
0.0
 20
0.0
 30
0.0
210
0.0
220
0.0
230
1.0
  2
SOLID
 70
     1
 71
     0
 91
        1
 92
        1
 93
        8
 72
     1
 10
83.79545727667795
 20
167.6444858234922
 11
83.79545727667795
 21
159.7968976406313
 72
     1
 10
83.79545727667795
 20
159.7968976406313
 11
71.3631329975216
 21
159.7968976406313
 72
     1
 10
71.3631329975216
 20
159.7968976406313
 11
71.3631329975216
 21
127.8027915271048
 72
     1
 10
71.3631329975216
 20
127.8027915271048
 11
60.43011526263018
 21
127.8027915271048
 72
     1
 10
60.43011526263018
 20
127.8027915271048
 11
60.43011526263018
 21
159.7968976406313
 72
     1
 10
60.43011526263018
 20
159.7968976406313
 11
48.21793273020759
 21
159.7968976406313
 72
     1
 10
48.21793273020759
 20
159.7968976406313
 11
48.21793273020759
 21
167.6444858234922
 72
     1
 10
48.21793273020759
 20
167.6444858234922
 11
83.79545727667795
 21
167.6444858234922
 97
        0
 75
     2
 76
     1
 98
        0
  0
INSERT
  5
6A1
330
693
100
AcDbEntity
  8
レイヤー 1
100
AcDbBlockReference
  2
block 5
 10
0.0
 20
0.0
 30
0.0
  0
ENDBLK
  5
6AE
330
693
100
AcDbEntity
  8
0
100
AcDbBlockEnd
  0
BLOCK
  5
6A3
330
6A2
100
AcDbEntity
  8
0
100
AcDbBlockBegin
  2
block 5
 70
     0
 10
0.0
 20
0.0
 30
0.0
  3
block 5
  1
block 5
  0
SPLINE
  5
6A4
330
6A2
100
AcDbEntity
  8
レイヤー 1
370
     0
100
AcDbSpline
210
0.0
220
0.0
230
1.0
 70
    11
 71
     3
 72
    56
 73
    52
 74
     0
 42
0.000000001
 43
0.0000000001
 40
0.0
 40
0.0
 40
0.0
 40
0.0
 40
1.0
 40
1.0
 40
1.0
 40
2.0
 40
2.0
 40
2.0
 40
3.0
 40
3.0
 40
3.0
 40
4.0
 40
4.0
 40
4.0
 40
5.0
 40
5.0
 40
5.0
 40
6.0
 40
6.0
 40
6.0
 40
7.0
 40
7.0
 40
7.0
 40
8.0
 40
8.0
 40
8.0
 40
9.0
 40
9.0
 40
9.0
 40
10.0
 40
10.0
 40
10.0
 40
11.0
 40
11.0
 40
11.0
 40
12.0
 40
12.0
 40
12.0
 40
13.0
 40
13.0
 40
13.0
 40
14.0
 40
14.0
 40
14.0
 40
15.0
 40
15.0
 40
15.0
 40
16.0
 40
16.0
 40
16.0
 40
17.0
 40
17.0
 40
17.0
 40
17.0
 10
100.4504378777679
 20
166.69157178364
 30
0.0
 10
101.9848844191641
 20
167.1313385124438
 30
0.0
 10
103.9637485713373
 20
166.7649523658846
 30
0.0
 10
103.9637485713373
 20
166.7649523658846
 30
0.0
 10
103.9637485713373
 20
166.7649523658846
 30
0.0
 10
103.0132460999156
 20
163.911205638077
 30
0.0
 10
103.0132460999156
 20
163.911205638077
 30
0.0
 10
103.0132460999156
 20
163.911205638077
 30
0.0
 10
101.0674548862189
 20
164.3601018759394
 30
0.0
 10
99.57090442016032
 20
163.1805004036133
 30
0.0
 10
98.40508333886608
 20
162.258247733807
 30
0.0
 10
97.65301849830304
 20
159.804132345923
 30
0.0
 10
97.3598406791005
 20
158.8699940888517
 30
0.0
 10
97.3598406791005
 20
158.8699940888517
 30
0.0
 10
96.07137411762282
 20
154.9119212747295
 30
0.0
 10
96.07137411762282
 20
154.9119212747295
 30
0.0
 10
96.07137411762282
 20
154.9119212747295
 30
0.0
 10
100.3012651448482
 20
154.9119212747295
 30
0.0
 10
100.3012651448482
 20
154.9119212747295
 30
0.0
 10
100.3012651448482
 20
154.9119212747295
 30
0.0
 10
99.64152892419852
 20
152.4199098115079
 30
0.0
 10
99.64152892419852
 20
152.4199098115079
 30
0.0
 10
99.64152892419852
 20
152.4199098115079
 30
0.0
 10
95.38097652692731
 20
152.4199098115079
 30
0.0
 10
95.38097652692731
 20
152.4199098115079
 30
0.0
 10
95.38097652692731
 20
152.4199098115079
 30
0.0
 10
87.75353009080013
 20
127.8027915271048
 30
0.0
 10
87.75353009080013
 20
127.8027915271048
 30
0.0
 10
87.75353009080013
 20
127.8027915271048
 30
0.0
 10
85.36538832498108
 20
127.8027915271048
 30
0.0
 10
85.36538832498108
 20
127.8027915271048
 30
0.0
 10
85.36538832498108
 20
127.8027915271048
 30
0.0
 10
93.00006946639998
 20
152.4199098115079
 30
0.0
 10
93.00006946639998
 20
152.4199098115079
 30
0.0
 10
93.00006946639998
 20
152.4199098115079
 30
0.0
 10
89.85297266450198
 20
152.4199098115079
 30
0.0
 10
89.85297266450198
 20
152.4199098115079
 30
0.0
 10
89.85297266450198
 20
152.4199098115079
 30
0.0
 10
90.51270888515164
 20
154.9119212747295
 30
0.0
 10
90.51270888515164
 20
154.9119212747295
 30
0.0
 10
90.51270888515164
 20
154.9119212747295
 30
0.0
 10
93.6904670570955
 20
154.9119212747295
 30
0.0
 10
93.6904670570955
 20
154.9119212747295
 30
0.0
 10
93.6904670570955
 20
154.9119212747295
 30
0.0
 10
94.81598049462158
 20
158.3616699146644
 30
0.0
 10
94.81598049462158
 20
158.3616699146644
 30
0.0
 10
95.7237637538445
 20
161.2605474231013
 30
0.0
 10
96.4968436907311
 20
162.8139420021662
 30
0.0
 10
97.15657991138076
 20
163.9844139654337
 30
0.0
 10
97.81183750494507
 20
165.1523021053827
 30
0.0
 10
99.1047826935081
 20
166.3084769129547
 30
0.0
 10
100.4504378777679
 20
166.69157178364
 30
0.0
  0
HATCH
  5
6A5
330
6A2
100
AcDbEntity
  8
レイヤー 1
 62
   250
420
  2234388
100
AcDbHatch
 10
0.0
 20
0.0
 30
0.0
210
0.0
220
0.0
230
1.0
  2
SOLID
 70
     1
 71
     0
 91
        1
 92
        1
 93
        1
 72
     4
 94
        3
 73
     0
 74
     1
 95
       56
 96
       52
 40
0.0
 40
0.0
 40
0.0
 40
0.0
 40
1.0
 40
1.0
 40
1.0
 40
2.0
 40
2.0
 40
2.0
 40
3.0
 40
3.0
 40
3.0
 40
4.0
 40
4.0
 40
4.0
 40
5.0
 40
5.0
 40
5.0
 40
6.0
 40
6.0
 40
6.0
 40
7.0
 40
7.0
 40
7.0
 40
8.0
 40
8.0
 40
8.0
 40
9.0
 40
9.0
 40
9.0
 40
10.0
 40
10.0
 40
10.0
 40
11.0
 40
11.0
 40
11.0
 40
12.0
 40
12.0
 40
12.0
 40
13.0
 40
13.0
 40
13.0
 40
14.0
 40
14.0
 40
14.0
 40
15.0
 40
15.0
 40
15.0
 40
16.0
 40
16.0
 40
16.0
 40
17.0
 40
17.0
 40
17.0
 40
17.0
 10
100.4504378777679
 20
166.69157178364
 10
101.9848844191641
 20
167.1313385124438
 10
103.9637485713373
 20
166.7649523658846
 10
103.9637485713373
 20
166.7649523658846
 10
103.9637485713373
 20
166.7649523658846
 10
103.0132460999156
 20
163.911205638077
 10
103.0132460999156
 20
163.911205638077
 10
103.0132460999156
 20
163.911205638077
 10
101.0674548862189
 20
164.3601018759394
 10
99.57090442016032
 20
163.1805004036133
 10
98.40508333886608
 20
162.258247733807
 10
97.65301849830304
 20
159.804132345923
 10
97.3598406791005
 20
158.8699940888517
 10
97.3598406791005
 20
158.8699940888517
 10
96.07137411762282
 20
154.9119212747295
 10
96.07137411762282
 20
154.9119212747295
 10
96.07137411762282
 20
154.9119212747295
 10
100.3012651448482
 20
154.9119212747295
 10
100.3012651448482
 20
154.9119212747295
 10
100.3012651448482
 20
154.9119212747295
 10
99.64152892419852
 20
152.4199098115079
 10
99.64152892419852
 20
152.4199098115079
 10
99.64152892419852
 20
152.4199098115079
 10
95.38097652692731
 20
152.4199098115079
 10
95.38097652692731
 20
152.4199098115079
 10
95.38097652692731
 20
152.4199098115079
 10
87.75353009080013
 20
127.8027915271048
 10
87.75353009080013
 20
127.8027915271048
 10
87.75353009080013
 20
127.8027915271048
 10
85.36538832498108
 20
127.8027915271048
 10
85.36538832498108
 20
127.8027915271048
 10
85.36538832498108
 20
127.8027915271048
 10
93.00006946639998
 20
152.4199098115079
 10
93.00006946639998
 20
152.4199098115079
 10
93.00006946639998
 20
152.4199098115079
 10
89.85297266450198
 20
152.4199098115079
 10
89.85297266450198
 20
152.4199098115079
 10
89.85297266450198
 20
152.4199098115079
 10
90.51270888515164
 20
154.9119212747295
 10
90.51270888515164
 20
154.9119212747295
 10
90.51270888515164
 20
154.9119212747295
 10
93.6904670570955
 20
154.9119212747295
 10
93.6904670570955
 20
154.9119212747295
 10
93.6904670570955
 20
154.9119212747295
 10
94.81598049462158
 20
158.3616699146644
 10
94.81598049462158
 20
158.3616699146644
 10
95.7237637538445
 20
161.2605474231013
 10
96.4968436907311
 20
162.8139420021662
 10
97.15657991138076
 20
163.9844139654337
 10
97.81183750494507
 20
165.1523021053827
 10
99.1047826935081
 20
166.3084769129547
 10
100.4504378777679
 20
166.69157178364
 97
        0
 75
     2
 76
     1
 98
        0
  0
SPLINE
  5
6A6
330
6A2
100
AcDbEntity
  8
レイヤー 1
370
     0
100
AcDbSpline
210
0.0
220
0.0
230
1.0
 70
    11
 71
     3
 72
    38
 73
    34
 74
     0
 42
0.000000001
 43
0.0000000001
 40
0.0
 40
0.0
 40
0.0
 40
0.0
 40
1.0
 40
1.0
 40
1.0
 40
2.0
 40
2.0
 40
2.0
 40
3.0
 40
3.0
 40
3.0
 40
4.0
 40
4.0
 40
4.0
 40
5.0
 40
5.0
 40
5.0
 40
6.0
 40
6.0
 40
6.0
 40
7.0
 40
7.0
 40
7.0
 40
8.0
 40
8.0
 40
8.0
 40
9.0
 40
9.0
 40
9.0
 40
10.0
 40
10.0
 40
10.0
 40
11.0
 40
11.0
 40
11.0
 40
11.0
 10
126.377554584636
 20
154.8151140277308
 30
0.0
 10
126.377554584636
 20
154.8151140277308
 30
0.0
 10
128.8311532078563
 20
154.8151140277308
 30
0.0
 10
128.8311532078563
 20
154.8151140277308
 30
0.0
 10
128.8311532078563
 20
154.8151140277308
 30
0.0
 10
127.7345785914971
 20
151.3062819612468
 30
0.0
 10
127.7345785914971
 20
151.3062819612468
 30
0.0
 10
128.571392836906
 20
152.2922689395754
 30
0.0
 10
129.8860421413442
 20
153.604506675583
 30
0.0
 10
131.0163787157314
 20
154.2664822097754
 30
0.0
 10
132.7044766171327
 20
155.2500576196734
 30
0.0
 10
133.6642808525008
 20
155.3847609420097
 30
0.0
 10
134.7284715499351
 20
155.3565111403944
 30
0.0
 10
134.7284715499351
 20
155.3565111403944
 30
0.0
 10
133.6877075172549
 20
152.0345756272799
 30
0.0
 10
133.6877075172549
 20
152.0345756272799
 30
0.0
 10
133.011434827367
 20
152.3184516825359
 30
0.0
 10
130.930940291334
 20
151.7768823149844
 30
0.0
 10
129.739280976855
 20
150.9162968950455
 30
0.0
 10
128.66613302525
 20
150.1454562717016
 30
0.0
 10
127.9192358313239
 20
149.4857200510519
 30
0.0
 10
127.0393578639405
 20
147.8282835196966
 30
0.0
 10
126.164647543194
 20
146.1699857139017
 30
0.0
 10
125.4742499524985
 20
143.5262176944419
 30
0.0
 10
124.2822461282437
 20
139.6959580071401
 30
0.0
 10
124.2822461282437
 20
139.6959580071401
 30
0.0
 10
120.5753209406769
 20
127.8027915271048
 30
0.0
 10
120.5753209406769
 20
127.8027915271048
 30
0.0
 10
120.5753209406769
 20
127.8027915271048
 30
0.0
 10
118.1964809388044
 20
127.8027915271048
 30
0.0
 10
118.1964809388044
 20
127.8027915271048
 30
0.0
 10
118.1964809388044
 20
127.8027915271048
 30
0.0
 10
126.377554584636
 20
154.8151140277308
 30
0.0
 10
126.377554584636
 20
154.8151140277308
 30
0.0
  0
HATCH
  5
6A7
330
6A2
100
AcDbEntity
  8
レイヤー 1
 62
   250
420
  2234388
100
AcDbHatch
 10
0.0
 20
0.0
 30
0.0
210
0.0
220
0.0
230
1.0
  2
SOLID
 70
     1
 71
     0
 91
        1
 92
        1
 93
        1
 72
     4
 94
        3
 73
     0
 74
     1
 95
       38
 96
       34
 40
0.0
 40
0.0
 40
0.0
 40
0.0
 40
1.0
 40
1.0
 40
1.0
 40
2.0
 40
2.0
 40
2.0
 40
3.0
 40
3.0
 40
3.0
 40
4.0
 40
4.0
 40
4.0
 40
5.0
 40
5.0
 40
5.0
 40
6.0
 40
6.0
 40
6.0
 40
7.0
 40
7.0
 40
7.0
 40
8.0
 40
8.0
 40
8.0
 40
9.0
 40
9.0
 40
9.0
 40
10.0
 40
10.0
 40
10.0
 40
11.0
 40
11.0
 40
11.0
 40
11.0
 10
126.377554584636
 20
154.8151140277308
 10
126.377554584636
 20
154.8151140277308
 10
128.8311532078563
 20
154.8151140277308
 10
128.8311532078563
 20
154.8151140277308
 10
128.8311532078563
 20
154.8151140277308
 10
127.7345785914971
 20
151.3062819612468
 10
127.7345785914971
 20
151.3062819612468
 10
128.571392836906
 20
152.2922689395754
 10
129.8860421413442
 20
153.604506675583
 10
131.0163787157314
 20
154.2664822097754
 10
132.7044766171327
 20
155.2500576196734
 10
133.6642808525008
 20
155.3847609420097
 10
134.7284715499351
 20
155.3565111403944
 10
134.7284715499351
 20
155.3565111403944
 10
133.6877075172549
 20
152.0345756272799
 10
133.6877075172549
 20
152.0345756272799
 10
133.011434827367
 20
152.3184516825359
 10
130.930940291334
 20
151.7768823149844
 10
129.739280976855
 20
150.9162968950455
 10
128.66613302525
 20
150.1454562717016
 10
127.9192358313239
 20
149.4857200510519
 10
127.0393578639405
 20
147.8282835196966
 10
126.164647543194
 20
146.1699857139017
 10
125.4742499524985
 20
143.5262176944419
 10
124.2822461282437
 20
139.6959580071401
 10
124.2822461282437
 20
139.6959580071401
 10
120.5753209406769
 20
127.8027915271048
 10
120.5753209406769
 20
127.8027915271048
 10
120.5753209406769
 20
127.8027915271048
 10
118.1964809388044
 20
127.8027915271048
 10
118.1964809388044
 20
127.8027915271048
 10
118.1964809388044
 20
127.8027915271048
 10
126.377554584636
 20
154.8151140277308
 10
126.377554584636
 20
154.8151140277308
 97
        0
 75
     2
 76
     1
 98
        0
  0
SPLINE
  5
6A8
330
6A2
100
AcDbEntity
  8
レイヤー 1
370
     0
100
AcDbSpline
210
0.0
220
0.0
230
1.0
 70
    11
 71
     3
 72
   104
 73
   100
 74
     0
 42
0.000000001
 43
0.0000000001
 40
0.0
 40
0.0
 40
0.0
 40
0.0
 40
1.0
 40
1.0
 40
1.0
 40
2.0
 40
2.0
 40
2.0
 40
3.0
 40
3.0
 40
3.0
 40
4.0
 40
4.0
 40
4.0
 40
5.0
 40
5.0
 40
5.0
 40
6.0
 40
6.0
 40
6.0
 40
7.0
 40
7.0
 40
7.0
 40
8.0
 40
8.0
 40
8.0
 40
9.0
 40
9.0
 40
9.0
 40
10.0
 40
10.0
 40
10.0
 40
11.0
 40
11.0
 40
11.0
 40
12.0
 40
12.0
 40
12.0
 40
13.0
 40
13.0
 40
13.0
 40
14.0
 40
14.0
 40
14.0
 40
15.0
 40
15.0
 40
15.0
 40
16.0
 40
16.0
 40
16.0
 40
17.0
 40
17.0
 40
17.0
 40
18.0
 40
18.0
 40
18.0
 40
19.0
 40
19.0
 40
19.0
 40
20.0
 40
20.0
 40
20.0
 40
21.0
 40
21.0
 40
21.0
 40
22.0
 40
22.0
 40
22.0
 40
23.0
 40
23.0
 40
23.0
 40
24.0
 40
24.0
 40
24.0
 40
25.0
 40
25.0
 40
25.0
 40
26.0
 40
26.0
 40
26.0
 40
27.0
 40
27.0
 40
27.0
 40
28.0
 40
28.0
 40
28.0
 40
29.0
 40
29.0
 40
29.0
 40
30.0
 40
30.0
 40
30.0
 40
31.0
 40
31.0
 40
31.0
 40
32.0
 40
32.0
 40
32.0
 40
33.0
 40
33.0
 40
33.0
 40
33.0
 10
139.8926730891197
 20
154.8294111834263
 30
0.0
 10
139.8926730891197
 20
154.8294111834263
 30
0.0
 10
142.0344903652445
 20
154.8294111834263
 30
0.0
 10
142.0344903652445
 20
154.8294111834263
 30
0.0
 10
142.0344903652445
 20
154.8294111834263
 30
0.0
 10
140.9516961399171
 20
151.3157559800812
 30
0.0
 10
140.9516961399171
 20
151.3157559800812
 30
0.0
 10
141.8928968473923
 20
152.7887075264977
 30
0.0
 10
142.7341897198865
 20
153.4484437471474
 30
0.0
 10
143.8552245303272
 20
154.2926649527359
 30
0.0
 10
144.9803934580775
 20
155.1296514530327
 30
0.0
 10
146.3139908001845
 20
155.3044901642492
 30
0.0
 10
147.241066606852
 20
155.3044901642492
 30
0.0
 10
148.3855280820469
 20
155.3044901642492
 30
0.0
 10
149.4969166187653
 20
155.0752189084569
 30
0.0
 10
150.0784491203092
 20
153.8172414621372
 30
0.0
 10
150.5228667310863
 20
152.833838307127
 30
0.0
 10
150.5414702589793
 20
152.7201500811143
 30
0.0
 10
150.4140016419347
 20
150.7765981809602
 30
0.0
 10
151.5818897818837
 20
152.7699317437168
 30
0.0
 10
152.4424752018226
 20
153.6256940267945
 30
0.0
 10
153.9038856707499
 20
154.4507949398263
 30
0.0
 10
155.4455669174378
 20
155.3044901642492
 30
0.0
 10
156.339225275853
 20
155.3659851592288
 30
0.0
 10
157.3748216618963
 20
155.2147453676543
 30
0.0
 10
158.911679771723
 20
154.9877134254046
 30
0.0
 10
159.8859534176746
 20
154.4390816074493
 30
0.0
 10
160.3965169054045
 20
152.7816450760939
 30
0.0
 10
160.9070803931344
 20
151.1219692311958
 30
0.0
 10
160.6328506116007
 20
150.2303779314354
 30
0.0
 10
159.9992971339115
 20
147.597634224801
 30
0.0
 10
159.7105979417943
 20
146.4014962832367
 30
0.0
 10
159.2947746424084
 20
144.9400858143094
 30
0.0
 10
158.7463150793409
 20
143.2092687007094
 30
0.0
 10
158.7463150793409
 20
143.2092687007094
 30
0.0
 10
153.9038856707499
 20
127.8027915271048
 30
0.0
 10
153.9038856707499
 20
127.8027915271048
 30
0.0
 10
153.9038856707499
 20
127.8027915271048
 30
0.0
 10
151.3882752878863
 20
127.8027915271048
 30
0.0
 10
151.3882752878863
 20
127.8027915271048
 30
0.0
 10
151.3882752878863
 20
127.8027915271048
 30
0.0
 10
155.6250565106276
 20
141.2751908193897
 30
0.0
 10
155.6250565106276
 20
141.2751908193897
 30
0.0
 10
156.5094131050963
 20
144.0936252951782
 30
0.0
 10
157.109893644309
 20
146.1506931664571
 30
0.0
 10
157.4220195011804
 20
147.4415712963654
 30
0.0
 10
157.8095929989511
 20
149.0530157726519
 30
0.0
 10
157.9656559273867
 20
149.5826995529385
 30
0.0
 10
157.7816877071116
 20
150.7529992613181
 30
0.0
 10
157.6111553680925
 20
151.8430281919372
 30
0.0
 10
157.0582171779396
 20
152.5547853887321
 30
0.0
 10
156.1170164704645
 20
152.5547853887321
 30
0.0
 10
155.1096698860365
 20
152.5547853887321
 30
0.0
 10
154.2962823053817
 20
152.4412694176073
 30
0.0
 10
153.156643967048
 20
151.2945686288697
 30
0.0
 10
152.0170056287143
 20
150.1476955852443
 30
0.0
 10
151.076149431015
 20
148.7930831468137
 30
0.0
 10
150.3337308641742
 20
147.2290087646991
 30
0.0
 10
149.5957909244188
 20
145.6683794803425
 30
0.0
 10
148.8530278478023
 20
143.6822806228776
 30
0.0
 10
148.0964843801539
 20
141.2751908193897
 30
0.0
 10
148.0964843801539
 20
141.2751908193897
 30
0.0
 10
143.8552245303272
 20
127.8027915271048
 30
0.0
 10
143.8552245303272
 20
127.8027915271048
 30
0.0
 10
143.8552245303272
 20
127.8027915271048
 30
0.0
 10
141.486030802177
 20
127.8027915271048
 30
0.0
 10
141.486030802177
 20
127.8027915271048
 30
0.0
 10
141.486030802177
 20
127.8027915271048
 30
0.0
 10
146.3329388378533
 20
143.2092687007094
 30
0.0
 10
146.3329388378533
 20
143.2092687007094
 30
0.0
 10
146.8483254624444
 20
144.8408669988801
 30
0.0
 10
147.2314203331297
 20
146.1837661049335
 30
0.0
 10
147.4867020769946
 20
147.224185627838
 30
0.0
 10
147.9169947869641
 20
149.0197705792876
 30
0.0
 10
148.0306830129768
 20
150.2400242051577
 30
0.0
 10
147.709255392159
 20
151.3157559800812
 30
0.0
 10
147.3874832615654
 20
152.3916600098926
 30
0.0
 10
146.8245542879144
 20
152.6683013598569
 30
0.0
 10
145.8840425999909
 20
152.6683013598569
 30
0.0
 10
145.0989048209514
 20
152.6683013598569
 30
0.0
 10
144.3282364524954
 20
152.3275811915945
 30
0.0
 10
143.4531816219731
 20
151.6538923250251
 30
0.0
 10
142.34627171234
 20
150.8074318058939
 30
0.0
 10
141.901854101563
 20
150.1097995099067
 30
0.0
 10
141.3578731655808
 20
149.289521733736
 30
0.0
 10
140.6299240093235
 20
148.192602607601
 30
0.0
 10
140.2850697237515
 20
147.455696197173
 30
0.0
 10
139.6652966370942
 20
145.8385673095858
 30
0.0
 10
139.0506911970739
 20
144.2214384219986
 30
0.0
 10
138.463991048893
 20
142.3252566160164
 30
0.0
 10
138.0571250036777
 20
141.0154304484394
 30
0.0
 10
138.0571250036777
 20
141.0154304484394
 30
0.0
 10
133.9009590684727
 20
127.8027915271048
 30
0.0
 10
133.9009590684727
 20
127.8027915271048
 30
0.0
 10
133.9009590684727
 20
127.8027915271048
 30
0.0
 10
131.4180771143097
 20
127.8027915271048
 30
0.0
 10
131.4180771143097
 20
127.8027915271048
 30
0.0
 10
131.4180771143097
 20
127.8027915271048
 30
0.0
 10
139.8926730891197
 20
154.8294111834263
 30
0.0
 10
139.8926730891197
 20
154.8294111834263
 30
0.0
  0
HATCH
  5
6A9
330
6A2
100
AcDbEntity
  8
レイヤー 1
 62
   250
420
  2234388
100
AcDbHatch
 10
0.0
 20
0.0
 30
0.0
210
0.0
220
0.0
230
1.0
  2
SOLID
 70
     1
 71
     0
 91
        1
 92
        1
 93
        1
 72
     4
 94
        3
 73
     0
 74
     1
 95
      104
 96
      100
 40
0.0
 40
0.0
 40
0.0
 40
0.0
 40
1.0
 40
1.0
 40
1.0
 40
2.0
 40
2.0
 40
2.0
 40
3.0
 40
3.0
 40
3.0
 40
4.0
 40
4.0
 40
4.0
 40
5.0
 40
5.0
 40
5.0
 40
6.0
 40
6.0
 40
6.0
 40
7.0
 40
7.0
 40
7.0
 40
8.0
 40
8.0
 40
8.0
 40
9.0
 40
9.0
 40
9.0
 40
10.0
 40
10.0
 40
10.0
 40
11.0
 40
11.0
 40
11.0
 40
12.0
 40
12.0
 40
12.0
 40
13.0
 40
13.0
 40
13.0
 40
14.0
 40
14.0
 40
14.0
 40
15.0
 40
15.0
 40
15.0
 40
16.0
 40
16.0
 40
16.0
 40
17.0
 40
17.0
 40
17.0
 40
18.0
 40
18.0
 40
18.0
 40
19.0
 40
19.0
 40
19.0
 40
20.0
 40
20.0
 40
20.0
 40
21.0
 40
21.0
 40
21.0
 40
22.0
 40
22.0
 40
22.0
 40
23.0
 40
23.0
 40
23.0
 40
24.0
 40
24.0
 40
24.0
 40
25.0
 40
25.0
 40
25.0
 40
26.0
 40
26.0
 40
26.0
 40
27.0
 40
27.0
 40
27.0
 40
28.0
 40
28.0
 40
28.0
 40
29.0
 40
29.0
 40
29.0
 40
30.0
 40
30.0
 40
30.0
 40
31.0
 40
31.0
 40
31.0
 40
32.0
 40
32.0
 40
32.0
 40
33.0
 40
33.0
 40
33.0
 40
33.0
 10
139.8926730891197
 20
154.8294111834263
 10
139.8926730891197
 20
154.8294111834263
 10
142.0344903652445
 20
154.8294111834263
 10
142.0344903652445
 20
154.8294111834263
 10
142.0344903652445
 20
154.8294111834263
 10
140.9516961399171
 20
151.3157559800812
 10
140.9516961399171
 20
151.3157559800812
 10
141.8928968473923
 20
152.7887075264977
 10
142.7341897198865
 20
153.4484437471474
 10
143.8552245303272
 20
154.2926649527359
 10
144.9803934580775
 20
155.1296514530327
 10
146.3139908001845
 20
155.3044901642492
 10
147.241066606852
 20
155.3044901642492
 10
148.3855280820469
 20
155.3044901642492
 10
149.4969166187653
 20
155.0752189084569
 10
150.0784491203092
 20
153.8172414621372
 10
150.5228667310863
 20
152.833838307127
 10
150.5414702589793
 20
152.7201500811143
 10
150.4140016419347
 20
150.7765981809602
 10
151.5818897818837
 20
152.7699317437168
 10
152.4424752018226
 20
153.6256940267945
 10
153.9038856707499
 20
154.4507949398263
 10
155.4455669174378
 20
155.3044901642492
 10
156.339225275853
 20
155.3659851592288
 10
157.3748216618963
 20
155.2147453676543
 10
158.911679771723
 20
154.9877134254046
 10
159.8859534176746
 20
154.4390816074493
 10
160.3965169054045
 20
152.7816450760939
 10
160.9070803931344
 20
151.1219692311958
 10
160.6328506116007
 20
150.2303779314354
 10
159.9992971339115
 20
147.597634224801
 10
159.7105979417943
 20
146.4014962832367
 10
159.2947746424084
 20
144.9400858143094
 10
158.7463150793409
 20
143.2092687007094
 10
158.7463150793409
 20
143.2092687007094
 10
153.9038856707499
 20
127.8027915271048
 10
153.9038856707499
 20
127.8027915271048
 10
153.9038856707499
 20
127.8027915271048
 10
151.3882752878863
 20
127.8027915271048
 10
151.3882752878863
 20
127.8027915271048
 10
151.3882752878863
 20
127.8027915271048
 10
155.6250565106276
 20
141.2751908193897
 10
155.6250565106276
 20
141.2751908193897
 10
156.5094131050963
 20
144.0936252951782
 10
157.109893644309
 20
146.1506931664571
 10
157.4220195011804
 20
147.4415712963654
 10
157.8095929989511
 20
149.0530157726519
 10
157.9656559273867
 20
149.5826995529385
 10
157.7816877071116
 20
150.7529992613181
 10
157.6111553680925
 20
151.8430281919372
 10
157.0582171779396
 20
152.5547853887321
 10
156.1170164704645
 20
152.5547853887321
 10
155.1096698860365
 20
152.5547853887321
 10
154.2962823053817
 20
152.4412694176073
 10
153.156643967048
 20
151.2945686288697
 10
152.0170056287143
 20
150.1476955852443
 10
151.076149431015
 20
148.7930831468137
 10
150.3337308641742
 20
147.2290087646991
 10
149.5957909244188
 20
145.6683794803425
 10
148.8530278478023
 20
143.6822806228776
 10
148.0964843801539
 20
141.2751908193897
 10
148.0964843801539
 20
141.2751908193897
 10
143.8552245303272
 20
127.8027915271048
 10
143.8552245303272
 20
127.8027915271048
 10
143.8552245303272
 20
127.8027915271048
 10
141.486030802177
 20
127.8027915271048
 10
141.486030802177
 20
127.8027915271048
 10
141.486030802177
 20
127.8027915271048
 10
146.3329388378533
 20
143.2092687007094
 10
146.3329388378533
 20
143.2092687007094
 10
146.8483254624444
 20
144.8408669988801
 10
147.2314203331297
 20
146.1837661049335
 10
147.4867020769946
 20
147.224185627838
 10
147.9169947869641
 20
149.0197705792876
 10
148.0306830129768
 20
150.2400242051577
 10
147.709255392159
 20
151.3157559800812
 10
147.3874832615654
 20
152.3916600098926
 10
146.8245542879144
 20
152.6683013598569
 10
145.8840425999909
 20
152.6683013598569
 10
145.0989048209514
 20
152.6683013598569
 10
144.3282364524954
 20
152.3275811915945
 10
143.4531816219731
 20
151.6538923250251
 10
142.34627171234
 20
150.8074318058939
 10
141.901854101563
 20
150.1097995099067
 10
141.3578731655808
 20
149.289521733736
 10
140.6299240093235
 20
148.192602607601
 10
140.2850697237515
 20
147.455696197173
 10
139.6652966370942
 20
145.8385673095858
 10
139.0506911970739
 20
144.2214384219986
 10
138.463991048893
 20
142.3252566160164
 10
138.0571250036777
 20
141.0154304484394
 10
138.0571250036777
 20
141.0154304484394
 10
133.9009590684727
 20
127.8027915271048
 10
133.9009590684727
 20
127.8027915271048
 10
133.9009590684727
 20
127.8027915271048
 10
131.4180771143097
 20
127.8027915271048
 10
131.4180771143097
 20
127.8027915271048
 10
131.4180771143097
 20
127.8027915271048
 10
139.8926730891197
 20
154.8294111834263
 10
139.8926730891197
 20
154.8294111834263
 97
        0
 75
     2
 76
     1
 98
        0
  0
SPLINE
  5
6AA
330
6A2
100
AcDbEntity
  8
レイヤー 1
370
     0
100
AcDbSpline
210
0.0
220
0.0
230
1.0
 70
    11
 71
     3
 72
    29
 73
    25
 74
     0
 42
0.000000001
 43
0.0000000001
 40
0.0
 40
0.0
 40
0.0
 40
0.0
 40
1.0
 40
1.0
 40
1.0
 40
2.0
 40
2.0
 40
2.0
 40
3.0
 40
3.0
 40
3.0
 40
4.0
 40
4.0
 40
4.0
 40
5.0
 40
5.0
 40
5.0
 40
6.0
 40
6.0
 40
6.0
 40
7.0
 40
7.0
 40
7.0
 40
8.0
 40
8.0
 40
8.0
 40
8.0
 10
101.6420971922469
 20
132.8388354296931
 30
0.0
 10
101.630039350094
 20
134.7164137077823
 30
0.0
 10
102.2236296937908
 20
138.0598810818841
 30
0.0
 10
103.7487744712405
 20
142.5378191476827
 30
0.0
 10
105.819967243327
 20
148.5896501242061
 30
0.0
 10
107.0602024361932
 20
150.8074318058939
 30
0.0
 10
108.1522984254671
 20
151.8833358357054
 30
0.0
 10
109.741177511439
 20
153.4532668840085
 30
0.0
 10
111.8740375333931
 20
153.5290590346837
 30
0.0
 10
112.5075910110823
 20
153.4532668840085
 30
0.0
 10
113.4012493694975
 20
153.3490526768302
 30
0.0
 10
114.6683563248758
 20
152.7580461564518
 30
0.0
 10
114.7493161221879
 20
150.7838328862519
 30
0.0
 10
114.8106388622796
 20
149.0909118479895
 30
0.0
 10
114.3186789024427
 20
145.9191825971221
 30
0.0
 10
112.6164561002338
 20
140.9489400617108
 30
0.0
 10
110.6444821435766
 20
135.1746117095912
 30
0.0
 10
109.4669477299053
 20
132.8960240524753
 30
0.0
 10
108.5212683953448
 20
131.9072809959403
 30
0.0
 10
106.7346406980658
 20
130.0538184021569
 30
0.0
 10
104.8222669326213
 20
130.2336525051225
 30
0.0
 10
104.5408024457958
 20
130.2336525051225
 30
0.0
 10
104.1721769856939
 20
130.2336525051225
 30
0.0
 10
101.6465758193322
 20
130.6305277668397
 30
0.0
 10
101.6420971922469
 20
132.8388354296931
 30
0.0
  0
SPLINE
  5
6AB
330
6A2
100
AcDbEntity
  8
レイヤー 1
370
     0
100
AcDbSpline
210
0.0
220
0.0
230
1.0
 70
    11
 71
     3
 72
    32
 73
    28
 74
     0
 42
0.000000001
 43
0.0000000001
 40
0.0
 40
0.0
 40
0.0
 40
0.0
 40
1.0
 40
1.0
 40
1.0
 40
2.0
 40
2.0
 40
2.0
 40
3.0
 40
3.0
 40
3.0
 40
4.0
 40
4.0
 40
4.0
 40
5.0
 40
5.0
 40
5.0
 40
6.0
 40
6.0
 40
6.0
 40
7.0
 40
7.0
 40
7.0
 40
8.0
 40
8.0
 40
8.0
 40
9.0
 40
9.0
 40
9.0
 40
9.0
 10
106.2595617172429
 20
153.4105476718098
 30
0.0
 10
104.8222669326213
 20
151.5474388043041
 30
0.0
 10
103.7177685914188
 20
149.8758773721411
 30
0.0
 10
101.9232171692965
 20
144.6141795664062
 30
0.0
 10
100.2754269116635
 20
139.7999999594306
 30
0.0
 10
99.22777268346732
 20
136.3052927937542
 30
0.0
 10
99.06964269637689
 20
132.039572749846
 30
0.0
 10
98.94665270641765
 20
128.8673267343149
 30
0.0
 10
100.8807305877373
 20
127.8027915271048
 30
0.0
 10
103.7129454545577
 20
127.8027915271048
 30
0.0
 10
104.9352661390825
 20
127.8027915271048
 30
0.0
 10
108.0151835347002
 20
127.8827177950895
 30
0.0
 10
110.2045431598849
 20
130.5926316915021
 30
0.0
 10
111.7417457794874
 20
132.4984597712065
 30
0.0
 10
113.155269389579
 20
134.475256864725
 30
0.0
 10
115.0562743324223
 20
140.9489400617108
 30
0.0
 10
116.6361961642235
 20
146.3680788349845
 30
0.0
 10
117.7282921534974
 20
149.8639917848761
 30
0.0
 10
117.6480213757369
 20
151.8595646611754
 30
0.0
 10
117.6480213757369
 20
151.8595646611754
 30
0.0
 10
117.6480213757369
 20
151.8595646611754
 30
0.0
 10
117.6480213757369
 20
151.8595646611754
 30
0.0
 10
117.13229024137
 20
155.18150017429
 30
0.0
 10
114.7162431837115
 20
155.886194920681
 30
0.0
 10
113.3351034925446
 20
155.886194920681
 30
0.0
 10
111.9829026225447
 20
155.886194920681
 30
0.0
 10
108.3414342923792
 20
156.1251124501957
 30
0.0
 10
106.2595617172429
 20
153.4105476718098
 30
0.0
  0
HATCH
  5
6AC
330
6A2
100
AcDbEntity
  8
レイヤー 1
 62
   250
420
  2234388
100
AcDbHatch
 10
0.0
 20
0.0
 30
0.0
210
0.0
220
0.0
230
1.0
  2
SOLID
 70
     1
 71
     0
 91
        2
 92
        1
 93
        1
 72
     4
 94
        3
 73
     0
 74
     1
 95
       29
 96
       25
 40
0.0
 40
0.0
 40
0.0
 40
0.0
 40
1.0
 40
1.0
 40
1.0
 40
2.0
 40
2.0
 40
2.0
 40
3.0
 40
3.0
 40
3.0
 40
4.0
 40
4.0
 40
4.0
 40
5.0
 40
5.0
 40
5.0
 40
6.0
 40
6.0
 40
6.0
 40
7.0
 40
7.0
 40
7.0
 40
8.0
 40
8.0
 40
8.0
 40
8.0
 10
101.6420971922469
 20
132.8388354296931
 10
101.630039350094
 20
134.7164137077823
 10
102.2236296937908
 20
138.0598810818841
 10
103.7487744712405
 20
142.5378191476827
 10
105.819967243327
 20
148.5896501242061
 10
107.0602024361932
 20
150.8074318058939
 10
108.1522984254671
 20
151.8833358357054
 10
109.741177511439
 20
153.4532668840085
 10
111.8740375333931
 20
153.5290590346837
 10
112.5075910110823
 20
153.4532668840085
 10
113.4012493694975
 20
153.3490526768302
 10
114.6683563248758
 20
152.7580461564518
 10
114.7493161221879
 20
150.7838328862519
 10
114.8106388622796
 20
149.0909118479895
 10
114.3186789024427
 20
145.9191825971221
 10
112.6164561002338
 20
140.9489400617108
 10
110.6444821435766
 20
135.1746117095912
 10
109.4669477299053
 20
132.8960240524753
 10
108.5212683953448
 20
131.9072809959403
 10
106.7346406980658
 20
130.0538184021569
 10
104.8222669326213
 20
130.2336525051225
 10
104.5408024457958
 20
130.2336525051225
 10
104.1721769856939
 20
130.2336525051225
 10
101.6465758193322
 20
130.6305277668397
 10
101.6420971922469
 20
132.8388354296931
 97
        0
 92
        1
 93
        1
 72
     4
 94
        3
 73
     0
 74
     1
 95
       32
 96
       28
 40
0.0
 40
0.0
 40
0.0
 40
0.0
 40
1.0
 40
1.0
 40
1.0
 40
2.0
 40
2.0
 40
2.0
 40
3.0
 40
3.0
 40
3.0
 40
4.0
 40
4.0
 40
4.0
 40
5.0
 40
5.0
 40
5.0
 40
6.0
 40
6.0
 40
6.0
 40
7.0
 40
7.0
 40
7.0
 40
8.0
 40
8.0
 40
8.0
 40
9.0
 40
9.0
 40
9.0
 40
9.0
 10
106.2595617172429
 20
153.4105476718098
 10
104.8222669326213
 20
151.5474388043041
 10
103.7177685914188
 20
149.8758773721411
 10
101.9232171692965
 20
144.6141795664062
 10
100.2754269116635
 20
139.7999999594306
 10
99.22777268346732
 20
136.3052927937542
 10
99.06964269637689
 20
132.039572749846
 10
98.94665270641765
 20
128.8673267343149
 10
100.8807305877373
 20
127.8027915271048
 10
103.7129454545577
 20
127.8027915271048
 10
104.9352661390825
 20
127.8027915271048
 10
108.0151835347002
 20
127.8827177950895
 10
110.2045431598849
 20
130.5926316915021
 10
111.7417457794874
 20
132.4984597712065
 10
113.155269389579
 20
134.475256864725
 10
115.0562743324223
 20
140.9489400617108
 10
116.6361961642235
 20
146.3680788349845
 10
117.7282921534974
 20
149.8639917848761
 10
117.6480213757369
 20
151.8595646611754
 10
117.6480213757369
 20
151.8595646611754
 10
117.6480213757369
 20
151.8595646611754
 10
117.6480213757369
 20
151.8595646611754
 10
117.13229024137
 20
155.18150017429
 10
114.7162431837115
 20
155.886194920681
 10
113.3351034925446
 20
155.886194920681
 10
111.9829026225447
 20
155.886194920681
 10
108.3414342923792
 20
156.1251124501957
 10
106.2595617172429
 20
153.4105476718098
 97
        0
 75
     2
 76
     1
 98
        0
  0
ENDBLK
  5
6AD
330
6A2
100
AcDbEntity
  8
0
100
AcDbBlockEnd
  0
BLOCK
  5
52D8
330
52D7
100
AcDbEntity
  8
0
100
AcDbBlockBegin
  2
名称未設定-1
 70
     0
 10
0.0
 20
0.0
 30
0.0
  3
名称未設定-1
  1
名称未設定-1
  0
INSERT
  5
52D9
330
52D7
100
AcDbEntity
  8
TFORMLOGO
100
AcDbBlockReference
  2
block 2
 10
0.0
 20
0.0
 30
0.0
  0
ENDBLK
  5
52FE
330
52D7
100
AcDbEntity
  8
0
100
AcDbBlockEnd
  0
BLOCK
  5
52DB
330
52DA
100
AcDbEntity
  8
0
100
AcDbBlockBegin
  2
block 2
 70
     0
 10
0.0
 20
0.0
 30
0.0
  3
block 2
  1
block 2
  0
INSERT
  5
52DC
330
52DA
100
AcDbEntity
  8
TFORMLOGO
100
AcDbBlockReference
  2
block 3
 10
0.0
 20
0.0
 30
0.0
  0
ENDBLK
  5
52FD
330
52DA
100
AcDbEntity
  8
0
100
AcDbBlockEnd
  0
BLOCK
  5
74B7
330
74B6
100
AcDbEntity
  8
0
100
AcDbBlockBegin
  2
_NONE
 70
     0
 10
0.0
 20
0.0
 30
0.0
  3
_NONE
  1
_NONE
  0
ENDBLK
  5
74B8
330
74B6
100
AcDbEntity
  8
0
100
AcDbBlockEnd
  0
BLOCK
  5
7F34
330
7F33
100
AcDbEntity
  8
0
100
AcDbBlockBegin
  2
*D7
 70
     1
 10
0.0
 20
0.0
 30
0.0
  3
*D7
  1

  0
LINE
  5
7F36
330
7F33
100
AcDbEntity
  8
寸法
  6
Continuous
 62
     0
370
    -2
100
AcDbLine
 10
436.1767865647566
 20
495.4907338152053
 30
0.0
 11
436.1767865647566
 21
519.2877444895188
 31
0.0
  0
LINE
  5
7F37
330
7F33
100
AcDbEntity
  8
寸法
  6
Continuous
 62
     0
370
    -2
100
AcDbLine
 10
490.1767865647566
 20
494.6674017800146
 30
0.0
 11
490.1767865647566
 21
519.2877444895188
 31
0.0
  0
LINE
  5
7F38
330
7F33
100
AcDbEntity
  8
寸法
  6
Continuous
 62
     0
370
    -2
100
AcDbLine
 10
437.6767865647566
 20
519.2877444895188
 30
0.0
 11
488.6767865647566
 21
519.2877444895188
 31
0.0
  0
INSERT
  5
7F39
330
7F33
100
AcDbEntity
  8
寸法
 62
     0
370
    -2
100
AcDbBlockReference
  2
_DOT
 10
436.1767865647566
 20
519.2877444895188
 30
0.0
 41
1.5
 42
1.5
 43
1.5
 50
180.0
  0
INSERT
  5
7F3A
330
7F33
100
AcDbEntity
  8
寸法
 62
     0
370
    -2
100
AcDbBlockReference
  2
_DOT
 10
490.1767865647566
 20
519.2877444895188
 30
0.0
 41
1.5
 42
1.5
 43
1.5
  0
MTEXT
  5
7F3B
330
7F33
100
AcDbEntity
  8
寸法
  6
Continuous
 62
     0
100
AcDbMText
 10
463.1767865647566
 20
523.7886823412132
 30
0.0
 40
5.0
 41
0.0
 46
0.0
 71
     5
 72
     1
  1
\A1;54
  7
ＭＳ ゴシック
 73
     1
 44
1.0
  0
POINT
  5
7F3C
330
7F33
100
AcDbEntity
  8
Defpoints
 62
     0
100
AcDbPoint
 10
436.1767865647566
 20
490.4907338152053
 30
0.0
  0
POINT
  5
7F3D
330
7F33
100
AcDbEntity
  8
Defpoints
 62
     0
100
AcDbPoint
 10
490.1767865647566
 20
489.6674017800146
 30
0.0
  0
POINT
  5
7F3E
330
7F33
100
AcDbEntity
  8
Defpoints
 62
     0
100
AcDbPoint
 10
490.1767865647566
 20
519.2877444895188
 30
0.0
  0
ENDBLK
  5
7F35
330
7F33
100
AcDbEntity
  8
0
100
AcDbBlockEnd
  0
BLOCK
  5
7F69
330
7F68
100
AcDbEntity
  8
0
100
AcDbBlockBegin
  2
*D8
 70
     1
 10
0.0
 20
0.0
 30
0.0
  3
*D8
  1

  0
LINE
  5
7F6B
330
7F68
100
AcDbEntity
  8
寸法
 62
     0
370
    -2
100
AcDbLine
 10
463.1767865647565
 20
206.8976396168313
 30
0.0
 11
463.1767865647565
 21
209.2508625328144
 31
0.0
  0
LINE
  5
7F6C
330
7F68
100
AcDbEntity
  8
寸法
 62
     0
370
    -2
100
AcDbLine
 10
482.1767865647565
 20
198.9204030921152
 30
0.0
 11
482.1767865647565
 21
209.2508625328144
 31
0.0
  0
LINE
  5
7F6D
330
7F68
100
AcDbEntity
  8
寸法
 62
     0
370
    -2
100
AcDbLine
 10
464.6767865647565
 20
209.2508625328144
 30
0.0
 11
480.6767865647565
 21
209.2508625328144
 31
0.0
  0
INSERT
  5
7F6E
330
7F68
100
AcDbEntity
  8
寸法
 62
     0
370
    -2
100
AcDbBlockReference
  2
_DOT
 10
463.1767865647565
 20
209.2508625328144
 30
0.0
 41
1.5
 42
1.5
 43
1.5
 50
180.0
  0
INSERT
  5
7F6F
330
7F68
100
AcDbEntity
  8
寸法
 62
     0
370
    -2
100
AcDbBlockReference
  2
_DOT
 10
482.1767865647565
 20
209.2508625328144
 30
0.0
 41
1.5
 42
1.5
 43
1.5
  0
MTEXT
  5
7F70
330
7F68
100
AcDbEntity
  8
寸法
  6
Continuous
 62
     0
100
AcDbMText
 10
472.6767865647565
 20
213.7518003845087
 30
0.0
 40
5.0
 41
0.0
 46
0.0
 71
     5
 72
     1
  1
\A1;19
  7
ＭＳ ゴシック
 73
     1
 44
1.0
  0
POINT
  5
7F71
330
7F68
100
AcDbEntity
  8
Defpoints
 62
     0
100
AcDbPoint
 10
463.1767865647565
 20
201.8976396168313
 30
0.0
  0
POINT
  5
7F72
330
7F68
100
AcDbEntity
  8
Defpoints
 62
     0
100
AcDbPoint
 10
482.1767865647565
 20
193.9204030921152
 30
0.0
  0
POINT
  5
7F73
330
7F68
100
AcDbEntity
  8
Defpoints
 62
     0
100
AcDbPoint
 10
482.1767865647565
 20
209.2508625328144
 30
0.0
  0
ENDBLK
  5
7F6A
330
7F68
100
AcDbEntity
  8
0
100
AcDbBlockEnd
  0
BLOCK
  5
7F75
330
7F74
100
AcDbEntity
  8
0
100
AcDbBlockBegin
  2
*D9
 70
     1
 10
0.0
 20
0.0
 30
0.0
  3
*D9
  1

  0
LINE
  5
7F77
330
7F74
100
AcDbEntity
  8
寸法
 62
     0
370
    -2
100
AcDbLine
 10
444.1767865647563
 20
198.9204030921152
 30
0.0
 11
444.1767865647563
 21
209.2508625328144
 31
0.0
  0
LINE
  5
7F78
330
7F74
100
AcDbEntity
  8
寸法
 62
     0
370
    -2
100
AcDbLine
 10
463.1767865647565
 20
206.8976396168313
 30
0.0
 11
463.1767865647565
 21
209.2508625328144
 31
0.0
  0
LINE
  5
7F79
330
7F74
100
AcDbEntity
  8
寸法
 62
     0
370
    -2
100
AcDbLine
 10
445.6767865647563
 20
209.2508625328144
 30
0.0
 11
461.6767865647565
 21
209.2508625328144
 31
0.0
  0
INSERT
  5
7F7A
330
7F74
100
AcDbEntity
  8
寸法
 62
     0
370
    -2
100
AcDbBlockReference
  2
_DOT
 10
444.1767865647563
 20
209.2508625328144
 30
0.0
 41
1.5
 42
1.5
 43
1.5
 50
180.0
  0
INSERT
  5
7F7B
330
7F74
100
AcDbEntity
  8
寸法
 62
     0
370
    -2
100
AcDbBlockReference
  2
_DOT
 10
463.1767865647565
 20
209.2508625328144
 30
0.0
 41
1.5
 42
1.5
 43
1.5
  0
MTEXT
  5
7F7C
330
7F74
100
AcDbEntity
  8
寸法
  6
Continuous
 62
     0
100
AcDbMText
 10
453.6767865647564
 20
213.7518003845087
 30
0.0
 40
5.0
 41
0.0
 46
0.0
 71
     5
 72
     1
  1
\A1;19
  7
ＭＳ ゴシック
 73
     1
 44
1.0
  0
POINT
  5
7F7D
330
7F74
100
AcDbEntity
  8
Defpoints
 62
     0
100
AcDbPoint
 10
444.1767865647563
 20
193.9204030921152
 30
0.0
  0
POINT
  5
7F7E
330
7F74
100
AcDbEntity
  8
Defpoints
 62
     0
100
AcDbPoint
 10
463.1767865647565
 20
201.8976396168313
 30
0.0
  0
POINT
  5
7F7F
330
7F74
100
AcDbEntity
  8
Defpoints
 62
     0
100
AcDbPoint
 10
463.1767865647565
 20
209.2508625328144
 30
0.0
  0
ENDBLK
  5
7F76
330
7F74
100
AcDbEntity
  8
0
100
AcDbBlockEnd
  0
BLOCK
  5
8021
330
8020
100
AcDbEntity
  8
0
100
AcDbBlockBegin
  2
*D10
 70
     1
 10
0.0
 20
0.0
 30
0.0
  3
*D10
  1

  0
LINE
  5
8023
330
8020
100
AcDbEntity
  8
寸法
  6
Continuous
 62
     0
370
    -2
100
AcDbLine
 10
160.8654442520858
 20
506.660786129948
 30
0.0
 11
172.5208572345564
 21
506.660786129948
 31
0.0
  0
LINE
  5
8024
330
8020
100
AcDbEntity
  8
寸法
  6
Continuous
 62
     0
370
    -2
100
AcDbLine
 10
143.8654442520858
 20
492.2607861299481
 30
0.0
 11
172.5208572345564
 21
492.2607861299481
 31
0.0
  0
LINE
  5
8025
330
8020
100
AcDbEntity
  8
寸法
  6
Continuous
 62
     0
370
    -2
100
AcDbLine
 10
172.5208572345564
 20
505.160786129948
 30
0.0
 11
172.5208572345564
 21
493.7607861299481
 31
0.0
  0
INSERT
  5
8026
330
8020
100
AcDbEntity
  8
寸法
 62
     0
370
    -2
100
AcDbBlockReference
  2
_DOT
 10
172.5208572345564
 20
506.660786129948
 30
0.0
 41
1.5
 42
1.5
 43
1.5
 50
90.0
  0
INSERT
  5
8027
330
8020
100
AcDbEntity
  8
寸法
 62
     0
370
    -2
100
AcDbBlockReference
  2
_DOT
 10
172.5208572345564
 20
492.2607861299481
 30
0.0
 41
1.5
 42
1.5
 43
1.5
 50
270.0
  0
MTEXT
  5
8028
330
8020
100
AcDbEntity
  8
寸法
  6
Continuous
 62
     0
100
AcDbMText
 10
168.019919382862
 20
499.460786129948
 30
0.0
 40
5.0
 41
0.0
 46
0.0
 71
     5
 72
     1
  1
\A1;15
  7
ＭＳ ゴシック
 11
0.0
 21
1.0
 31
0.0
 73
     1
 44
1.0
  0
POINT
  5
8029
330
8020
100
AcDbEntity
  8
Defpoints
 62
     0
100
AcDbPoint
 10
155.8654442520858
 20
506.660786129948
 30
0.0
  0
POINT
  5
802A
330
8020
100
AcDbEntity
  8
Defpoints
 62
     0
100
AcDbPoint
 10
138.8654442520858
 20
492.2607861299481
 30
0.0
  0
POINT
  5
802B
330
8020
100
AcDbEntity
  8
Defpoints
 62
     0
100
AcDbPoint
 10
172.5208572345564
 20
492.2607861299481
 30
0.0
  0
ENDBLK
  5
8022
330
8020
100
AcDbEntity
  8
0
100
AcDbBlockEnd
  0
BLOCK
  5
8030
330
802F
100
AcDbEntity
  8
0
100
AcDbBlockBegin
  2
*D11
 70
     1
 10
0.0
 20
0.0
 30
0.0
  3
*D11
  1

  0
LINE
  5
8032
330
802F
100
AcDbEntity
  8
寸法
  6
Continuous
 62
     0
370
    -2
100
AcDbLine
 10
97.03262852208836
 20
506.6607861299491
 30
0.0
 11
88.28772192727857
 21
506.6607861299491
 31
0.0
  0
LINE
  5
8033
330
802F
100
AcDbEntity
  8
寸法
  6
Continuous
 62
     0
370
    -2
100
AcDbLine
 10
98.36544425208585
 20
499.8607861299481
 30
0.0
 11
88.28772192727857
 21
499.8607861299481
 31
0.0
  0
LINE
  5
8034
330
802F
100
AcDbEntity
  8
寸法
  6
Continuous
 62
     0
370
    -2
100
AcDbLine
 10
88.28772192727857
 20
505.1607861299491
 30
0.0
 11
88.28772192727857
 21
501.3607861299481
 31
0.0
  0
INSERT
  5
8035
330
802F
100
AcDbEntity
  8
寸法
 62
     0
370
    -2
100
AcDbBlockReference
  2
_DOT
 10
88.28772192727857
 20
506.6607861299491
 30
0.0
 41
1.5
 42
1.5
 43
1.5
 50
90.0
  0
INSERT
  5
8036
330
802F
100
AcDbEntity
  8
寸法
 62
     0
370
    -2
100
AcDbBlockReference
  2
_DOT
 10
88.28772192727857
 20
499.8607861299481
 30
0.0
 41
1.5
 42
1.5
 43
1.5
 50
270.0
  0
MTEXT
  5
8037
330
802F
100
AcDbEntity
  8
寸法
  6
Continuous
 62
     0
100
AcDbMText
 10
83.78678407558417
 20
503.2607861299485
 30
0.0
 40
5.0
 41
0.0
 46
0.0
 71
     5
 72
     1
  1
\A1;7
  7
ＭＳ ゴシック
 11
0.0
 21
1.0
 31
0.0
 73
     1
 44
1.0
  0
POINT
  5
8038
330
802F
100
AcDbEntity
  8
Defpoints
 62
     0
100
AcDbPoint
 10
102.0326285220884
 20
506.6607861299491
 30
0.0
  0
POINT
  5
8039
330
802F
100
AcDbEntity
  8
Defpoints
 62
     0
100
AcDbPoint
 10
103.3654442520859
 20
499.8607861299481
 30
0.0
  0
POINT
  5
803A
330
802F
100
AcDbEntity
  8
Defpoints
 62
     0
100
AcDbPoint
 10
88.28772192727857
 20
499.8607861299481
 30
0.0
  0
ENDBLK
  5
8031
330
802F
100
AcDbEntity
  8
0
100
AcDbBlockEnd
  0
BLOCK
  5
8041
330
8040
100
AcDbEntity
  8
0
100
AcDbBlockBegin
  2
*D12
 70
     1
 10
0.0
 20
0.0
 30
0.0
  3
*D12
  1

  0
LINE
  5
8043
330
8040
100
AcDbEntity
  8
寸法
  6
Continuous
 62
     0
370
    -2
100
AcDbLine
 10
98.36544425208585
 20
499.8607861299481
 30
0.0
 11
88.28772192727857
 21
499.8607861299481
 31
0.0
  0
LINE
  5
8044
330
8040
100
AcDbEntity
  8
寸法
  6
Continuous
 62
     0
370
    -2
100
AcDbLine
 10
113.8654442520858
 20
492.2607861299481
 30
0.0
 11
88.28772192727857
 21
492.2607861299481
 31
0.0
  0
LINE
  5
8045
330
8040
100
AcDbEntity
  8
寸法
  6
Continuous
 62
     0
370
    -2
100
AcDbLine
 10
88.28772192727857
 20
498.3607861299481
 30
0.0
 11
88.28772192727857
 21
493.7607861299481
 31
0.0
  0
INSERT
  5
8046
330
8040
100
AcDbEntity
  8
寸法
 62
     0
370
    -2
100
AcDbBlockReference
  2
_DOT
 10
88.28772192727857
 20
499.8607861299481
 30
0.0
 41
1.5
 42
1.5
 43
1.5
 50
90.0
  0
INSERT
  5
8047
330
8040
100
AcDbEntity
  8
寸法
 62
     0
370
    -2
100
AcDbBlockReference
  2
_DOT
 10
88.28772192727857
 20
492.2607861299481
 30
0.0
 41
1.5
 42
1.5
 43
1.5
 50
270.0
  0
MTEXT
  5
8048
330
8040
100
AcDbEntity
  8
寸法
  6
Continuous
 62
     0
100
AcDbMText
 10
83.78772192727857
 20
496.060786129948
 30
0.0
 40
5.0
 41
0.0
 46
0.0
 71
     5
 72
     1
  1
\A1;8
  7
ＭＳ ゴシック
 11
0.0
 21
1.0
 31
0.0
 73
     1
 44
1.0
  0
POINT
  5
8049
330
8040
100
AcDbEntity
  8
Defpoints
 62
     0
100
AcDbPoint
 10
103.3654442520859
 20
499.8607861299481
 30
0.0
  0
POINT
  5
804A
330
8040
100
AcDbEntity
  8
Defpoints
 62
     0
100
AcDbPoint
 10
118.8654442520858
 20
492.2607861299481
 30
0.0
  0
POINT
  5
804B
330
8040
100
AcDbEntity
  8
Defpoints
 62
     0
100
AcDbPoint
 10
88.28772192727857
 20
492.2607861299481
 30
0.0
  0
ENDBLK
  5
8042
330
8040
100
AcDbEntity
  8
0
100
AcDbBlockEnd
  0
BLOCK
  5
8051
330
8050
100
AcDbEntity
  8
0
100
AcDbBlockBegin
  2
*D13
 70
     1
 10
0.0
 20
0.0
 30
0.0
  3
*D13
  1

  0
LINE
  5
8053
330
8050
100
AcDbEntity
  8
寸法
  6
Continuous
 62
     0
370
    -2
100
AcDbLine
 10
374.4217857486187
 20
504.4607861299478
 30
0.0
 11
394.8745512938556
 21
504.4607861299478
 31
0.0
  0
LINE
  5
8054
330
8050
100
AcDbEntity
  8
寸法
  6
Continuous
 62
     0
370
    -2
100
AcDbLine
 10
354.7609782062921
 20
464.6639280838825
 30
0.0
 11
394.8745512938556
 21
464.6639280838825
 31
0.0
  0
LINE
  5
8055
330
8050
100
AcDbEntity
  8
寸法
  6
Continuous
 62
     0
370
    -2
100
AcDbLine
 10
394.8745512938556
 20
502.9607861299478
 30
0.0
 11
394.8745512938556
 21
466.1639280838825
 31
0.0
  0
INSERT
  5
8056
330
8050
100
AcDbEntity
  8
寸法
 62
     0
370
    -2
100
AcDbBlockReference
  2
_DOT
 10
394.8745512938556
 20
504.4607861299478
 30
0.0
 41
1.5
 42
1.5
 43
1.5
 50
90.0
  0
INSERT
  5
8057
330
8050
100
AcDbEntity
  8
寸法
 62
     0
370
    -2
100
AcDbBlockReference
  2
_DOT
 10
394.8745512938556
 20
464.6639280838825
 30
0.0
 41
1.5
 42
1.5
 43
1.5
 50
270.0
  0
MTEXT
  5
8058
330
8050
100
AcDbEntity
  8
寸法
  6
Continuous
 62
     0
100
AcDbMText
 10
390.3745512938556
 20
484.5623571069152
 30
0.0
 40
5.0
 41
0.0
 46
0.0
 71
     5
 72
     1
  1
\A1;40
  7
ＭＳ ゴシック
 11
0.0
 21
1.0
 31
0.0
 73
     1
 44
1.0
  0
POINT
  5
8059
330
8050
100
AcDbEntity
  8
Defpoints
 62
     0
100
AcDbPoint
 10
369.4217857486187
 20
504.4607861299478
 30
0.0
  0
POINT
  5
805A
330
8050
100
AcDbEntity
  8
Defpoints
 62
     0
100
AcDbPoint
 10
349.7609782062921
 20
464.6639280838825
 30
0.0
  0
POINT
  5
805B
330
8050
100
AcDbEntity
  8
Defpoints
 62
     0
100
AcDbPoint
 10
394.8745512938556
 20
464.6639280838825
 30
0.0
  0
ENDBLK
  5
8052
330
8050
100
AcDbEntity
  8
0
100
AcDbBlockEnd
  0
BLOCK
  5
8060
330
805F
100
AcDbEntity
  8
0
100
AcDbBlockBegin
  2
*D14
 70
     1
 10
0.0
 20
0.0
 30
0.0
  3
*D14
  1

  0
LINE
  5
8062
330
805F
100
AcDbEntity
  8
寸法
  6
Continuous
 62
     0
370
    -2
100
AcDbLine
 10
310.5889700186212
 20
504.4607861299488
 30
0.0
 11
300.2110775518256
 21
504.4607861299488
 31
0.0
  0
LINE
  5
8063
330
805F
100
AcDbEntity
  8
寸法
  6
Continuous
 62
     0
370
    -2
100
AcDbLine
 10
311.9217857486191
 20
497.660786129948
 30
0.0
 11
300.2110775518256
 21
497.660786129948
 31
0.0
  0
LINE
  5
8064
330
805F
100
AcDbEntity
  8
寸法
  6
Continuous
 62
     0
370
    -2
100
AcDbLine
 10
300.2110775518256
 20
502.9607861299488
 30
0.0
 11
300.2110775518256
 21
499.160786129948
 31
0.0
  0
INSERT
  5
8065
330
805F
100
AcDbEntity
  8
寸法
 62
     0
370
    -2
100
AcDbBlockReference
  2
_DOT
 10
300.2110775518256
 20
504.4607861299488
 30
0.0
 41
1.5
 42
1.5
 43
1.5
 50
90.0
  0
INSERT
  5
8066
330
805F
100
AcDbEntity
  8
寸法
 62
     0
370
    -2
100
AcDbBlockReference
  2
_DOT
 10
300.2110775518256
 20
497.660786129948
 30
0.0
 41
1.5
 42
1.5
 43
1.5
 50
270.0
  0
MTEXT
  5
8067
330
805F
100
AcDbEntity
  8
寸法
  6
Continuous
 62
     0
100
AcDbMText
 10
295.7101397001312
 20
501.0607861299484
 30
0.0
 40
5.0
 41
0.0
 46
0.0
 71
     5
 72
     1
  1
\A1;7
  7
ＭＳ ゴシック
 11
0.0
 21
1.0
 31
0.0
 73
     1
 44
1.0
  0
POINT
  5
8068
330
805F
100
AcDbEntity
  8
Defpoints
 62
     0
100
AcDbPoint
 10
315.5889700186212
 20
504.4607861299488
 30
0.0
  0
POINT
  5
8069
330
805F
100
AcDbEntity
  8
Defpoints
 62
     0
100
AcDbPoint
 10
316.9217857486191
 20
497.660786129948
 30
0.0
  0
POINT
  5
806A
330
805F
100
AcDbEntity
  8
Defpoints
 62
     0
100
AcDbPoint
 10
300.2110775518256
 20
497.660786129948
 30
0.0
  0
ENDBLK
  5
8061
330
805F
100
AcDbEntity
  8
0
100
AcDbBlockEnd
  0
BLOCK
  5
8071
330
8070
100
AcDbEntity
  8
0
100
AcDbBlockBegin
  2
*D15
 70
     1
 10
0.0
 20
0.0
 30
0.0
  3
*D15
  1

  0
LINE
  5
8073
330
8070
100
AcDbEntity
  8
寸法
  6
Continuous
 62
     0
370
    -2
100
AcDbLine
 10
311.9217857486191
 20
497.660786129948
 30
0.0
 11
300.2110775518256
 21
497.660786129948
 31
0.0
  0
LINE
  5
8074
330
8070
100
AcDbEntity
  8
寸法
  6
Continuous
 62
     0
370
    -2
100
AcDbLine
 10
330.084716812558
 20
464.660786129948
 30
0.0
 11
300.2110775518256
 21
464.660786129948
 31
0.0
  0
LINE
  5
8075
330
8070
100
AcDbEntity
  8
寸法
  6
Continuous
 62
     0
370
    -2
100
AcDbLine
 10
300.2110775518256
 20
496.160786129948
 30
0.0
 11
300.2110775518256
 21
466.160786129948
 31
0.0
  0
INSERT
  5
8076
330
8070
100
AcDbEntity
  8
寸法
 62
     0
370
    -2
100
AcDbBlockReference
  2
_DOT
 10
300.2110775518256
 20
497.660786129948
 30
0.0
 41
1.5
 42
1.5
 43
1.5
 50
90.0
  0
INSERT
  5
8077
330
8070
100
AcDbEntity
  8
寸法
 62
     0
370
    -2
100
AcDbBlockReference
  2
_DOT
 10
300.2110775518256
 20
464.660786129948
 30
0.0
 41
1.5
 42
1.5
 43
1.5
 50
270.0
  0
MTEXT
  5
8078
330
8070
100
AcDbEntity
  8
寸法
  6
Continuous
 62
     0
100
AcDbMText
 10
295.7101397001312
 20
481.160786129948
 30
0.0
 40
5.0
 41
0.0
 46
0.0
 71
     5
 72
     1
  1
\A1;33
  7
ＭＳ ゴシック
 11
0.0
 21
1.0
 31
0.0
 73
     1
 44
1.0
  0
POINT
  5
8079
330
8070
100
AcDbEntity
  8
Defpoints
 62
     0
100
AcDbPoint
 10
316.9217857486191
 20
497.660786129948
 30
0.0
  0
POINT
  5
807A
330
8070
100
AcDbEntity
  8
Defpoints
 62
     0
100
AcDbPoint
 10
335.084716812558
 20
464.660786129948
 30
0.0
  0
POINT
  5
807B
330
8070
100
AcDbEntity
  8
Defpoints
 62
     0
100
AcDbPoint
 10
300.2110775518256
 20
464.660786129948
 30
0.0
  0
ENDBLK
  5
8072
330
8070
100
AcDbEntity
  8
0
100
AcDbBlockEnd
  0
BLOCK
  5
8080
330
807F
100
AcDbEntity
  8
0
100
AcDbBlockBegin
  2
*D16
 70
     1
 10
0.0
 20
0.0
 30
0.0
  3
*D16
  1

  0
LINE
  5
8082
330
807F
100
AcDbEntity
  8
寸法
  6
Continuous
 62
     0
370
    -2
100
AcDbLine
 10
220.9639778307298
 20
450.0497920210997
 30
0.0
 11
220.9639778307298
 21
432.5494249438367
 31
0.0
  0
LINE
  5
8083
330
807F
100
AcDbEntity
  8
寸法
  6
Continuous
 62
     0
370
    -2
100
AcDbLine
 10
240.96397783073
 20
450.0497920210997
 30
0.0
 11
240.96397783073
 21
432.5494249438367
 31
0.0
  0
LINE
  5
8084
330
807F
100
AcDbEntity
  8
寸法
  6
Continuous
 62
     0
370
    -2
100
AcDbLine
 10
222.4639778307298
 20
432.5494249438367
 30
0.0
 11
239.46397783073
 21
432.5494249438367
 31
0.0
  0
INSERT
  5
8085
330
807F
100
AcDbEntity
  8
寸法
 62
     0
370
    -2
100
AcDbBlockReference
  2
_DOT
 10
220.9639778307298
 20
432.5494249438367
 30
0.0
 41
1.5
 42
1.5
 43
1.5
 50
180.0
  0
INSERT
  5
8086
330
807F
100
AcDbEntity
  8
寸法
 62
     0
370
    -2
100
AcDbBlockReference
  2
_DOT
 10
240.96397783073
 20
432.5494249438367
 30
0.0
 41
1.5
 42
1.5
 43
1.5
  0
MTEXT
  5
8087
330
807F
100
AcDbEntity
  8
寸法
  6
Continuous
 62
     0
100
AcDbMText
 10
230.9639778307299
 20
437.0503627955311
 30
0.0
 40
5.0
 41
0.0
 46
0.0
 71
     5
 72
     1
  1
\A1;20
  7
ＭＳ ゴシック
 73
     1
 44
1.0
  0
POINT
  5
8088
330
807F
100
AcDbEntity
  8
Defpoints
 62
     0
100
AcDbPoint
 10
220.9639778307298
 20
455.0497920210997
 30
0.0
  0
POINT
  5
8089
330
807F
100
AcDbEntity
  8
Defpoints
 62
     0
100
AcDbPoint
 10
240.96397783073
 20
455.0497920210997
 30
0.0
  0
POINT
  5
808A
330
807F
100
AcDbEntity
  8
Defpoints
 62
     0
100
AcDbPoint
 10
240.96397783073
 20
432.5494249438367
 30
0.0
  0
ENDBLK
  5
8081
330
807F
100
AcDbEntity
  8
0
100
AcDbBlockEnd
  0
BLOCK
  5
808F
330
808E
100
AcDbEntity
  8
0
100
AcDbBlockBegin
  2
*D17
 70
     1
 10
0.0
 20
0.0
 30
0.0
  3
*D17
  1

  0
LINE
  5
8091
330
808E
100
AcDbEntity
  8
寸法
  6
Continuous
 62
     0
370
    -2
100
AcDbLine
 10
203.96397783073
 20
485.1296644290684
 30
0.0
 11
203.96397783073
 21
519.2877444895188
 31
0.0
  0
LINE
  5
8092
330
808E
100
AcDbEntity
  8
寸法
  6
Continuous
 62
     0
370
    -2
100
AcDbLine
 10
257.9639778307298
 20
485.1296644290684
 30
0.0
 11
257.9639778307298
 21
519.2877444895188
 31
0.0
  0
LINE
  5
8093
330
808E
100
AcDbEntity
  8
寸法
  6
Continuous
 62
     0
370
    -2
100
AcDbLine
 10
205.46397783073
 20
519.2877444895188
 30
0.0
 11
256.4639778307298
 21
519.2877444895188
 31
0.0
  0
INSERT
  5
8094
330
808E
100
AcDbEntity
  8
寸法
 62
     0
370
    -2
100
AcDbBlockReference
  2
_DOT
 10
203.96397783073
 20
519.2877444895188
 30
0.0
 41
1.5
 42
1.5
 43
1.5
 50
180.0
  0
INSERT
  5
8095
330
808E
100
AcDbEntity
  8
寸法
 62
     0
370
    -2
100
AcDbBlockReference
  2
_DOT
 10
257.9639778307298
 20
519.2877444895188
 30
0.0
 41
1.5
 42
1.5
 43
1.5
  0
MTEXT
  5
8096
330
808E
100
AcDbEntity
  8
寸法
  6
Continuous
 62
     0
100
AcDbMText
 10
230.9639778307299
 20
523.7886823412132
 30
0.0
 40
5.0
 41
0.0
 46
0.0
 71
     5
 72
     1
  1
\A1;54
  7
ＭＳ ゴシック
 73
     1
 44
1.0
  0
POINT
  5
8097
330
808E
100
AcDbEntity
  8
Defpoints
 62
     0
100
AcDbPoint
 10
203.96397783073
 20
480.1296644290684
 30
0.0
  0
POINT
  5
8098
330
808E
100
AcDbEntity
  8
Defpoints
 62
     0
100
AcDbPoint
 10
257.9639778307298
 20
480.1296644290684
 30
0.0
  0
POINT
  5
8099
330
808E
100
AcDbEntity
  8
Defpoints
 62
     0
100
AcDbPoint
 10
257.9639778307298
 20
519.2877444895188
 30
0.0
  0
ENDBLK
  5
8090
330
808E
100
AcDbEntity
  8
0
100
AcDbBlockEnd
  0
BLOCK
  5
809E
330
809D
100
AcDbEntity
  8
0
100
AcDbBlockBegin
  2
*D18
 70
     1
 10
0.0
 20
0.0
 30
0.0
  3
*D18
  1

  0
LINE
  5
80A0
330
809D
100
AcDbEntity
  8
寸法
  6
Continuous
 62
     0
370
    -2
100
AcDbLine
 10
455.1767865647566
 20
448.873192213493
 30
0.0
 11
455.1767865647566
 21
432.5494249438367
 31
0.0
  0
LINE
  5
80A1
330
809D
100
AcDbEntity
  8
寸法
  6
Continuous
 62
     0
370
    -2
100
AcDbLine
 10
471.1767865647566
 20
448.873192213493
 30
0.0
 11
471.1767865647566
 21
432.5494249438367
 31
0.0
  0
LINE
  5
80A2
330
809D
100
AcDbEntity
  8
寸法
  6
Continuous
 62
     0
370
    -2
100
AcDbLine
 10
456.6767865647566
 20
432.5494249438367
 30
0.0
 11
469.6767865647566
 21
432.5494249438367
 31
0.0
  0
INSERT
  5
80A3
330
809D
100
AcDbEntity
  8
寸法
 62
     0
370
    -2
100
AcDbBlockReference
  2
_DOT
 10
455.1767865647566
 20
432.5494249438367
 30
0.0
 41
1.5
 42
1.5
 43
1.5
 50
180.0
  0
INSERT
  5
80A4
330
809D
100
AcDbEntity
  8
寸法
 62
     0
370
    -2
100
AcDbBlockReference
  2
_DOT
 10
471.1767865647566
 20
432.5494249438367
 30
0.0
 41
1.5
 42
1.5
 43
1.5
  0
MTEXT
  5
80A5
330
809D
100
AcDbEntity
  8
寸法
  6
Continuous
 62
     0
100
AcDbMText
 10
463.1767865647566
 20
437.0503627955311
 30
0.0
 40
5.0
 41
0.0
 46
0.0
 71
     5
 72
     1
  1
\A1;16
  7
ＭＳ ゴシック
 73
     1
 44
1.0
  0
POINT
  5
80A6
330
809D
100
AcDbEntity
  8
Defpoints
 62
     0
100
AcDbPoint
 10
455.1767865647566
 20
453.873192213493
 30
0.0
  0
POINT
  5
80A7
330
809D
100
AcDbEntity
  8
Defpoints
 62
     0
100
AcDbPoint
 10
471.1767865647566
 20
453.873192213493
 30
0.0
  0
POINT
  5
80A8
330
809D
100
AcDbEntity
  8
Defpoints
 62
     0
100
AcDbPoint
 10
471.1767865647566
 20
432.5494249438367
 30
0.0
  0
ENDBLK
  5
809F
330
809D
100
AcDbEntity
  8
0
100
AcDbBlockEnd
  0
BLOCK
  5
80B6
330
80B5
100
AcDbEntity
  8
0
100
AcDbBlockBegin
  2
*D19
 70
     1
 10
0.0
 20
0.0
 30
0.0
  3
*D19
  1

  0
LINE
  5
80B8
330
80B5
100
AcDbEntity
  8
寸法
  6
Continuous
 62
     0
370
    -2
100
AcDbLine
 10
351.6449084462188
 20
204.8938505415327
 30
0.0
 11
351.6449084462188
 21
211.061767294613
 31
0.0
  0
LINE
  5
80B9
330
80B5
100
AcDbEntity
  8
寸法
  6
Continuous
 62
     0
370
    -2
100
AcDbLine
 10
361.6449084462188
 20
202.1476867842136
 30
0.0
 11
361.6449084462188
 21
211.061767294613
 31
0.0
  0
LINE
  5
80BA
330
80B5
100
AcDbEntity
  8
寸法
  6
Continuous
 62
     0
370
    -2
100
AcDbLine
 10
353.1449084462188
 20
211.061767294613
 30
0.0
 11
360.1449084462188
 21
211.061767294613
 31
0.0
  0
INSERT
  5
80BB
330
80B5
100
AcDbEntity
  8
寸法
 62
     0
370
    -2
100
AcDbBlockReference
  2
_DOT
 10
351.6449084462188
 20
211.061767294613
 30
0.0
 41
1.5
 42
1.5
 43
1.5
 50
180.0
  0
INSERT
  5
80BC
330
80B5
100
AcDbEntity
  8
寸法
 62
     0
370
    -2
100
AcDbBlockReference
  2
_DOT
 10
361.6449084462188
 20
211.061767294613
 30
0.0
 41
1.5
 42
1.5
 43
1.5
  0
MTEXT
  5
80BD
330
80B5
100
AcDbEntity
  8
寸法
  6
Continuous
 62
     0
100
AcDbMText
 10
356.6449084462188
 20
215.561767294613
 30
0.0
 40
5.0
 41
0.0
 46
0.0
 71
     5
 72
     1
  1
\A1;9
  7
ＭＳ ゴシック
 73
     1
 44
1.0
  0
POINT
  5
80BE
330
80B5
100
AcDbEntity
  8
Defpoints
 62
     0
100
AcDbPoint
 10
351.6449084462188
 20
199.8938505415327
 30
0.0
  0
POINT
  5
80BF
330
80B5
100
AcDbEntity
  8
Defpoints
 62
     0
100
AcDbPoint
 10
361.6449084462188
 20
197.1476867842136
 30
0.0
  0
POINT
  5
80C0
330
80B5
100
AcDbEntity
  8
Defpoints
 62
     0
100
AcDbPoint
 10
361.6449084462188
 20
211.061767294613
 30
0.0
  0
ENDBLK
  5
80B7
330
80B5
100
AcDbEntity
  8
0
100
AcDbBlockEnd
  0
BLOCK
  5
83DC
330
83DB
100
AcDbEntity
  8
0
100
AcDbBlockBegin
  2
*D20
 70
     1
 10
0.0
 20
0.0
 30
0.0
  3
*D20
  1

  0
LINE
  5
83DE
330
83DB
100
AcDbEntity
  8
寸法
  6
Continuous
 62
     0
370
    -2
100
AcDbLine
 10
380.9682681830137
 20
347.2055479018463
 30
0.0
 11
400.1085260201901
 21
347.2055479018463
 31
0.0
  0
LINE
  5
83DF
330
83DB
100
AcDbEntity
  8
寸法
  6
Continuous
 62
     0
370
    -2
100
AcDbLine
 10
379.5077189885259
 20
309.7407988035646
 30
0.0
 11
400.1085260201901
 21
309.7407988035646
 31
0.0
  0
LINE
  5
83E0
330
83DB
100
AcDbEntity
  8
寸法
  6
Continuous
 62
     0
370
    -2
100
AcDbLine
 10
400.1085260201901
 20
345.7055479018463
 30
0.0
 11
400.1085260201901
 21
311.2407988035646
 31
0.0
  0
INSERT
  5
83E1
330
83DB
100
AcDbEntity
  8
寸法
 62
     0
370
    -2
100
AcDbBlockReference
  2
_DOT
 10
400.1085260201901
 20
347.2055479018463
 30
0.0
 41
1.5
 42
1.5
 43
1.5
 50
90.0
  0
INSERT
  5
83E2
330
83DB
100
AcDbEntity
  8
寸法
 62
     0
370
    -2
100
AcDbBlockReference
  2
_DOT
 10
400.1085260201901
 20
309.7407988035646
 30
0.0
 41
1.5
 42
1.5
 43
1.5
 50
270.0
  0
MTEXT
  5
83E3
330
83DB
100
AcDbEntity
  8
寸法
  6
Continuous
 62
     0
100
AcDbMText
 10
395.6075881684957
 20
328.4731733527054
 30
0.0
 40
5.0
 41
0.0
 46
0.0
 71
     5
 72
     1
  1
\A1;37.5
  7
ＭＳ ゴシック
 11
0.0
 21
1.0
 31
0.0
 73
     1
 44
1.0
  0
POINT
  5
83E4
330
83DB
100
AcDbEntity
  8
Defpoints
 62
     0
100
AcDbPoint
 10
375.9682681830137
 20
347.2055479018463
 30
0.0
  0
POINT
  5
83E5
330
83DB
100
AcDbEntity
  8
Defpoints
 62
     0
100
AcDbPoint
 10
374.5077189885259
 20
309.7407988035646
 30
0.0
  0
POINT
  5
83E6
330
83DB
100
AcDbEntity
  8
Defpoints
 62
     0
100
AcDbPoint
 10
400.1085260201901
 20
309.7407988035646
 30
0.0
  0
ENDBLK
  5
83DD
330
83DB
100
AcDbEntity
  8
0
100
AcDbBlockEnd
  0
BLOCK
  5
83EB
330
83EA
100
AcDbEntity
  8
0
100
AcDbBlockBegin
  2
*D21
 70
     1
 10
0.0
 20
0.0
 30
0.0
  3
*D21
  1

  0
LINE
  5
83ED
330
83EA
100
AcDbEntity
  8
寸法
  6
Continuous
 62
     0
370
    -2
100
AcDbLine
 10
318.1995335694267
 20
347.2055479018463
 30
0.0
 11
300.9993723627479
 21
347.2055479018463
 31
0.0
  0
LINE
  5
83EE
330
83EA
100
AcDbEntity
  8
寸法
  6
Continuous
 62
     0
370
    -2
100
AcDbLine
 10
318.3266576766954
 20
340.7287641168783
 30
0.0
 11
300.9993723627479
 21
340.7287641168783
 31
0.0
  0
LINE
  5
83EF
330
83EA
100
AcDbEntity
  8
寸法
  6
Continuous
 62
     0
370
    -2
100
AcDbLine
 10
300.9993723627479
 20
345.7055479018463
 30
0.0
 11
300.9993723627479
 21
342.2287641168783
 31
0.0
  0
INSERT
  5
83F0
330
83EA
100
AcDbEntity
  8
寸法
 62
     0
370
    -2
100
AcDbBlockReference
  2
_DOT
 10
300.9993723627479
 20
347.2055479018463
 30
0.0
 41
1.5
 42
1.5
 43
1.5
 50
90.0
  0
INSERT
  5
83F1
330
83EA
100
AcDbEntity
  8
寸法
 62
     0
370
    -2
100
AcDbBlockReference
  2
_DOT
 10
300.9993723627479
 20
340.7287641168783
 30
0.0
 41
1.5
 42
1.5
 43
1.5
 50
270.0
  0
MTEXT
  5
83F2
330
83EA
100
AcDbEntity
  8
寸法
  6
Continuous
 62
     0
100
AcDbMText
 10
296.4984345110535
 20
343.9671560093624
 30
0.0
 40
5.0
 41
0.0
 46
0.0
 71
     5
 72
     1
  1
\A1;6.5
  7
ＭＳ ゴシック
 11
0.0
 21
1.0
 31
0.0
 73
     1
 44
1.0
  0
POINT
  5
83F3
330
83EA
100
AcDbEntity
  8
Defpoints
 62
     0
100
AcDbPoint
 10
323.1995335694267
 20
347.2055479018463
 30
0.0
  0
POINT
  5
83F4
330
83EA
100
AcDbEntity
  8
Defpoints
 62
     0
100
AcDbPoint
 10
323.3266576766954
 20
340.7287641168783
 30
0.0
  0
POINT
  5
83F5
330
83EA
100
AcDbEntity
  8
Defpoints
 62
     0
100
AcDbPoint
 10
300.9993723627479
 20
340.7287641168783
 30
0.0
  0
ENDBLK
  5
83EC
330
83EA
100
AcDbEntity
  8
0
100
AcDbBlockEnd
  0
BLOCK
  5
83FB
330
83FA
100
AcDbEntity
  8
0
100
AcDbBlockBegin
  2
*D22
 70
     1
 10
0.0
 20
0.0
 30
0.0
  3
*D22
  1

  0
LINE
  5
83FD
330
83FA
100
AcDbEntity
  8
寸法
  6
Continuous
 62
     0
370
    -2
100
AcDbLine
 10
318.3266576766954
 20
340.7287641168783
 30
0.0
 11
300.9993723627479
 21
340.7287641168783
 31
0.0
  0
LINE
  5
83FE
330
83FA
100
AcDbEntity
  8
寸法
  6
Continuous
 62
     0
370
    -2
100
AcDbLine
 10
319.5331309115336
 20
309.7407988035646
 30
0.0
 11
300.9993723627479
 21
309.7407988035646
 31
0.0
  0
LINE
  5
83FF
330
83FA
100
AcDbEntity
  8
寸法
  6
Continuous
 62
     0
370
    -2
100
AcDbLine
 10
300.9993723627479
 20
339.2287641168783
 30
0.0
 11
300.9993723627479
 21
311.2407988035646
 31
0.0
  0
INSERT
  5
8400
330
83FA
100
AcDbEntity
  8
寸法
 62
     0
370
    -2
100
AcDbBlockReference
  2
_DOT
 10
300.9993723627479
 20
340.7287641168783
 30
0.0
 41
1.5
 42
1.5
 43
1.5
 50
90.0
  0
INSERT
  5
8401
330
83FA
100
AcDbEntity
  8
寸法
 62
     0
370
    -2
100
AcDbBlockReference
  2
_DOT
 10
300.9993723627479
 20
309.7407988035646
 30
0.0
 41
1.5
 42
1.5
 43
1.5
 50
270.0
  0
MTEXT
  5
8402
330
83FA
100
AcDbEntity
  8
寸法
  6
Continuous
 62
     0
100
AcDbMText
 10
296.4984345110535
 20
325.2347814602215
 30
0.0
 40
5.0
 41
0.0
 46
0.0
 71
     5
 72
     1
  1
\A1;31
  7
ＭＳ ゴシック
 11
0.0
 21
1.0
 31
0.0
 73
     1
 44
1.0
  0
POINT
  5
8403
330
83FA
100
AcDbEntity
  8
Defpoints
 62
     0
100
AcDbPoint
 10
323.3266576766954
 20
340.7287641168783
 30
0.0
  0
POINT
  5
8404
330
83FA
100
AcDbEntity
  8
Defpoints
 62
     0
100
AcDbPoint
 10
324.5331309115336
 20
309.7407988035646
 30
0.0
  0
POINT
  5
8405
330
83FA
100
AcDbEntity
  8
Defpoints
 62
     0
100
AcDbPoint
 10
300.9993723627479
 20
309.7407988035646
 30
0.0
  0
ENDBLK
  5
83FC
330
83FA
100
AcDbEntity
  8
0
100
AcDbBlockEnd
  0
BLOCK
  5
840A
330
8409
100
AcDbEntity
  8
0
100
AcDbBlockBegin
  2
*D23
 70
     1
 10
0.0
 20
0.0
 30
0.0
  3
*D23
  1

  0
LINE
  5
840C
330
8409
100
AcDbEntity
  8
寸法
  6
Continuous
 62
     0
370
    -2
100
AcDbLine
 10
437.4201018358791
 20
339.9589906165259
 30
0.0
 11
437.4201018358791
 21
362.6229469989305
 31
0.0
  0
LINE
  5
840D
330
8409
100
AcDbEntity
  8
寸法
  6
Continuous
 62
     0
370
    -2
100
AcDbLine
 10
490.3032284657187
 20
339.9589906165259
 30
0.0
 11
490.3032284657187
 21
362.6229469989305
 31
0.0
  0
LINE
  5
840E
330
8409
100
AcDbEntity
  8
寸法
  6
Continuous
 62
     0
370
    -2
100
AcDbLine
 10
438.9201018358791
 20
362.6229469989305
 30
0.0
 11
488.8032284657187
 21
362.6229469989305
 31
0.0
  0
INSERT
  5
840F
330
8409
100
AcDbEntity
  8
寸法
 62
     0
370
    -2
100
AcDbBlockReference
  2
_DOT
 10
437.4201018358791
 20
362.6229469989305
 30
0.0
 41
1.5
 42
1.5
 43
1.5
 50
180.0
  0
INSERT
  5
8410
330
8409
100
AcDbEntity
  8
寸法
 62
     0
370
    -2
100
AcDbBlockReference
  2
_DOT
 10
490.3032284657187
 20
362.6229469989305
 30
0.0
 41
1.5
 42
1.5
 43
1.5
  0
MTEXT
  5
8411
330
8409
100
AcDbEntity
  8
寸法
  6
Continuous
 62
     0
100
AcDbMText
 10
463.8616651507989
 20
367.1238848506249
 30
0.0
 40
5.0
 41
0.0
 46
0.0
 71
     5
 72
     1
  1
\A1;53
  7
ＭＳ ゴシック
 73
     1
 44
1.0
  0
POINT
  5
8412
330
8409
100
AcDbEntity
  8
Defpoints
 62
     0
100
AcDbPoint
 10
437.4201018358791
 20
334.9589906165259
 30
0.0
  0
POINT
  5
8413
330
8409
100
AcDbEntity
  8
Defpoints
 62
     0
100
AcDbPoint
 10
490.3032284657187
 20
334.9589906165259
 30
0.0
  0
POINT
  5
8414
330
8409
100
AcDbEntity
  8
Defpoints
 62
     0
100
AcDbPoint
 10
490.3032284657187
 20
362.6229469989305
 30
0.0
  0
ENDBLK
  5
840B
330
8409
100
AcDbEntity
  8
0
100
AcDbBlockEnd
  0
BLOCK
  5
841A
330
8419
100
AcDbEntity
  8
0
100
AcDbBlockBegin
  2
*D24
 70
     1
 10
0.0
 20
0.0
 30
0.0
  3
*D24
  1

  0
LINE
  5
841C
330
8419
100
AcDbEntity
  8
寸法
  6
Continuous
 62
     0
370
    -2
100
AcDbLine
 10
457.3544352363533
 20
290.770582885254
 30
0.0
 11
457.3544352363533
 21
276.2481094356226
 31
0.0
  0
LINE
  5
841D
330
8419
100
AcDbEntity
  8
寸法
  6
Continuous
 62
     0
370
    -2
100
AcDbLine
 10
470.3720816245874
 20
290.770582885254
 30
0.0
 11
470.3720816245874
 21
276.2481094356226
 31
0.0
  0
LINE
  5
841E
330
8419
100
AcDbEntity
  8
寸法
  6
Continuous
 62
     0
370
    -2
100
AcDbLine
 10
458.8544352363533
 20
276.2481094356226
 30
0.0
 11
468.8720816245874
 21
276.2481094356226
 31
0.0
  0
INSERT
  5
841F
330
8419
100
AcDbEntity
  8
寸法
 62
     0
370
    -2
100
AcDbBlockReference
  2
_DOT
 10
457.3544352363533
 20
276.2481094356226
 30
0.0
 41
1.5
 42
1.5
 43
1.5
 50
180.0
  0
INSERT
  5
8420
330
8419
100
AcDbEntity
  8
寸法
 62
     0
370
    -2
100
AcDbBlockReference
  2
_DOT
 10
470.3720816245874
 20
276.2481094356226
 30
0.0
 41
1.5
 42
1.5
 43
1.5
  0
MTEXT
  5
8421
330
8419
100
AcDbEntity
  8
寸法
  6
Continuous
 62
     0
100
AcDbMText
 10
463.8632584304704
 20
280.749047287317
 30
0.0
 40
5.0
 41
0.0
 46
0.0
 71
     5
 72
     1
  1
\A1;13
  7
ＭＳ ゴシック
 73
     1
 44
1.0
  0
POINT
  5
8422
330
8419
100
AcDbEntity
  8
Defpoints
 62
     0
100
AcDbPoint
 10
457.3544352363533
 20
295.770582885254
 30
0.0
  0
POINT
  5
8423
330
8419
100
AcDbEntity
  8
Defpoints
 62
     0
100
AcDbPoint
 10
470.3720816245874
 20
295.770582885254
 30
0.0
  0
POINT
  5
8424
330
8419
100
AcDbEntity
  8
Defpoints
 62
     0
100
AcDbPoint
 10
470.3720816245874
 20
276.2481094356226
 30
0.0
  0
ENDBLK
  5
841B
330
8419
100
AcDbEntity
  8
0
100
AcDbBlockEnd
  0
BLOCK
  5
8429
330
8428
100
AcDbEntity
  8
0
100
AcDbBlockBegin
  2
*D25
 70
     1
 10
0.0
 20
0.0
 30
0.0
  3
*D25
  1

  0
LINE
  5
842B
330
8428
100
AcDbEntity
  8
寸法
  6
Continuous
 62
     0
370
    -2
100
AcDbLine
 10
212.1537885042762
 20
339.9589906165259
 30
0.0
 11
212.1537885042762
 21
362.6229469989305
 31
0.0
  0
LINE
  5
842C
330
8428
100
AcDbEntity
  8
寸法
  6
Continuous
 62
     0
370
    -2
100
AcDbLine
 10
265.0446051693503
 20
339.9589906165259
 30
0.0
 11
265.0446051693503
 21
362.6229469989305
 31
0.0
  0
LINE
  5
842D
330
8428
100
AcDbEntity
  8
寸法
  6
Continuous
 62
     0
370
    -2
100
AcDbLine
 10
213.6537885042762
 20
362.6229469989305
 30
0.0
 11
263.5446051693503
 21
362.6229469989305
 31
0.0
  0
INSERT
  5
842E
330
8428
100
AcDbEntity
  8
寸法
 62
     0
370
    -2
100
AcDbBlockReference
  2
_DOT
 10
212.1537885042762
 20
362.6229469989305
 30
0.0
 41
1.5
 42
1.5
 43
1.5
 50
180.0
  0
INSERT
  5
842F
330
8428
100
AcDbEntity
  8
寸法
 62
     0
370
    -2
100
AcDbBlockReference
  2
_DOT
 10
265.0446051693503
 20
362.6229469989305
 30
0.0
 41
1.5
 42
1.5
 43
1.5
  0
MTEXT
  5
8430
330
8428
100
AcDbEntity
  8
寸法
  6
Continuous
 62
     0
100
AcDbMText
 10
238.5991968368132
 20
367.1238848506249
 30
0.0
 40
5.0
 41
0.0
 46
0.0
 71
     5
 72
     1
  1
\A1;53
  7
ＭＳ ゴシック
 73
     1
 44
1.0
  0
POINT
  5
8431
330
8428
100
AcDbEntity
  8
Defpoints
 62
     0
100
AcDbPoint
 10
212.1537885042762
 20
334.9589906165259
 30
0.0
  0
POINT
  5
8432
330
8428
100
AcDbEntity
  8
Defpoints
 62
     0
100
AcDbPoint
 10
265.0446051693503
 20
334.9589906165259
 30
0.0
  0
POINT
  5
8433
330
8428
100
AcDbEntity
  8
Defpoints
 62
     0
100
AcDbPoint
 10
265.0446051693503
 20
362.6229469989305
 30
0.0
  0
ENDBLK
  5
842A
330
8428
100
AcDbEntity
  8
0
100
AcDbBlockEnd
  0
BLOCK
  5
8448
330
8447
100
AcDbEntity
  8
0
100
AcDbBlockBegin
  2
*D26
 70
     1
 10
0.0
 20
0.0
 30
0.0
  3
*D26
  1

  0
LINE
  5
844A
330
8447
100
AcDbEntity
  8
寸法
  6
Continuous
 62
     0
370
    -2
100
AcDbLine
 10
230.6307552171823
 20
290.5349994494929
 30
0.0
 11
230.6307552171823
 21
276.2481094356226
 31
0.0
  0
LINE
  5
844B
330
8447
100
AcDbEntity
  8
寸法
  6
Continuous
 62
     0
370
    -2
100
AcDbLine
 10
246.5692416120601
 20
290.5351323885078
 30
0.0
 11
246.5692416120601
 21
276.2481094356226
 31
0.0
  0
LINE
  5
844C
330
8447
100
AcDbEntity
  8
寸法
  6
Continuous
 62
     0
370
    -2
100
AcDbLine
 10
232.1307552171823
 20
276.2481094356226
 30
0.0
 11
245.0692416120601
 21
276.2481094356226
 31
0.0
  0
INSERT
  5
844D
330
8447
100
AcDbEntity
  8
寸法
 62
     0
370
    -2
100
AcDbBlockReference
  2
_DOT
 10
230.6307552171823
 20
276.2481094356226
 30
0.0
 41
1.5
 42
1.5
 43
1.5
 50
180.0
  0
INSERT
  5
844E
330
8447
100
AcDbEntity
  8
寸法
 62
     0
370
    -2
100
AcDbBlockReference
  2
_DOT
 10
246.5692416120601
 20
276.2481094356226
 30
0.0
 41
1.5
 42
1.5
 43
1.5
  0
MTEXT
  5
844F
330
8447
100
AcDbEntity
  8
寸法
  6
Continuous
 62
     0
100
AcDbMText
 10
238.5999984146212
 20
280.749047287317
 30
0.0
 40
5.0
 41
0.0
 46
0.0
 71
     5
 72
     1
  1
\A1;16
  7
ＭＳ ゴシック
 73
     1
 44
1.0
  0
POINT
  5
8450
330
8447
100
AcDbEntity
  8
Defpoints
 62
     0
100
AcDbPoint
 10
230.6307552171823
 20
295.5349994494929
 30
0.0
  0
POINT
  5
8451
330
8447
100
AcDbEntity
  8
Defpoints
 62
     0
100
AcDbPoint
 10
246.5692416120601
 20
295.5351323885078
 30
0.0
  0
POINT
  5
8452
330
8447
100
AcDbEntity
  8
Defpoints
 62
     0
100
AcDbPoint
 10
246.5692416120601
 20
276.2481094356226
 30
0.0
  0
ENDBLK
  5
8449
330
8447
100
AcDbEntity
  8
0
100
AcDbBlockEnd
  0
BLOCK
  5
8457
330
8456
100
AcDbEntity
  8
0
100
AcDbBlockBegin
  2
*D27
 70
     1
 10
0.0
 20
0.0
 30
0.0
  3
*D27
  1

  0
LINE
  5
8459
330
8456
100
AcDbEntity
  8
寸法
  6
Continuous
 62
     0
370
    -2
100
AcDbLine
 10
149.4748683610185
 20
347.2055479018464
 30
0.0
 11
158.6810852051131
 21
347.2055479018464
 31
0.0
  0
LINE
  5
845A
330
8456
100
AcDbEntity
  8
寸法
  6
Continuous
 62
     0
370
    -2
100
AcDbLine
 10
130.9963975166395
 20
333.2356764933118
 30
0.0
 11
158.6810852051131
 21
333.2356764933118
 31
0.0
  0
LINE
  5
845B
330
8456
100
AcDbEntity
  8
寸法
  6
Continuous
 62
     0
370
    -2
100
AcDbLine
 10
158.6810852051131
 20
345.7055479018464
 30
0.0
 11
158.6810852051131
 21
334.7356764933118
 31
0.0
  0
INSERT
  5
845C
330
8456
100
AcDbEntity
  8
寸法
 62
     0
370
    -2
100
AcDbBlockReference
  2
_DOT
 10
158.6810852051131
 20
347.2055479018464
 30
0.0
 41
1.5
 42
1.5
 43
1.5
 50
90.0
  0
INSERT
  5
845D
330
8456
100
AcDbEntity
  8
寸法
 62
     0
370
    -2
100
AcDbBlockReference
  2
_DOT
 10
158.6810852051131
 20
333.2356764933118
 30
0.0
 41
1.5
 42
1.5
 43
1.5
 50
270.0
  0
MTEXT
  5
845E
330
8456
100
AcDbEntity
  8
寸法
  6
Continuous
 62
     0
100
AcDbMText
 10
154.1801473534187
 20
340.2206121975791
 30
0.0
 40
5.0
 41
0.0
 46
0.0
 71
     5
 72
     1
  1
\A1;14
  7
ＭＳ ゴシック
 11
0.0
 21
1.0
 31
0.0
 73
     1
 44
1.0
  0
POINT
  5
845F
330
8456
100
AcDbEntity
  8
Defpoints
 62
     0
100
AcDbPoint
 10
144.4748683610185
 20
347.2055479018464
 30
0.0
  0
POINT
  5
8460
330
8456
100
AcDbEntity
  8
Defpoints
 62
     0
100
AcDbPoint
 10
125.9963975166395
 20
333.2356764933118
 30
0.0
  0
POINT
  5
8461
330
8456
100
AcDbEntity
  8
Defpoints
 62
     0
100
AcDbPoint
 10
158.6810852051131
 20
333.2356764933118
 30
0.0
  0
ENDBLK
  5
8458
330
8456
100
AcDbEntity
  8
0
100
AcDbBlockEnd
  0
BLOCK
  5
8469
330
8468
100
AcDbEntity
  8
0
100
AcDbBlockBegin
  2
*D28
 70
     1
 10
0.0
 20
0.0
 30
0.0
  3
*D28
  1

  0
LINE
  5
846B
330
8468
100
AcDbEntity
  8
寸法
  6
Continuous
 62
     0
370
    -2
100
AcDbLine
 10
86.70613374743144
 20
347.2055479018463
 30
0.0
 11
69.82408597795191
 21
347.2055479018463
 31
0.0
  0
LINE
  5
846C
330
8468
100
AcDbEntity
  8
寸法
  6
Continuous
 62
     0
370
    -2
100
AcDbLine
 10
87.26602167551512
 20
340.7287641168784
 30
0.0
 11
69.82408597795191
 21
340.7287641168784
 31
0.0
  0
LINE
  5
846D
330
8468
100
AcDbEntity
  8
寸法
  6
Continuous
 62
     0
370
    -2
100
AcDbLine
 10
69.82408597795191
 20
345.7055479018463
 30
0.0
 11
69.82408597795191
 21
342.2287641168784
 31
0.0
  0
INSERT
  5
846E
330
8468
100
AcDbEntity
  8
寸法
 62
     0
370
    -2
100
AcDbBlockReference
  2
_DOT
 10
69.82408597795191
 20
347.2055479018463
 30
0.0
 41
1.5
 42
1.5
 43
1.5
 50
90.0
  0
INSERT
  5
846F
330
8468
100
AcDbEntity
  8
寸法
 62
     0
370
    -2
100
AcDbBlockReference
  2
_DOT
 10
69.82408597795191
 20
340.7287641168784
 30
0.0
 41
1.5
 42
1.5
 43
1.5
 50
270.0
  0
MTEXT
  5
8470
330
8468
100
AcDbEntity
  8
寸法
  6
Continuous
 62
     0
100
AcDbMText
 10
65.32314812625751
 20
343.9671560093623
 30
0.0
 40
5.0
 41
0.0
 46
0.0
 71
     5
 72
     1
  1
\A1;6.5
  7
ＭＳ ゴシック
 11
0.0
 21
1.0
 31
0.0
 73
     1
 44
1.0
  0
POINT
  5
8471
330
8468
100
AcDbEntity
  8
Defpoints
 62
     0
100
AcDbPoint
 10
91.70613374743144
 20
347.2055479018463
 30
0.0
  0
POINT
  5
8472
330
8468
100
AcDbEntity
  8
Defpoints
 62
     0
100
AcDbPoint
 10
92.26602167551512
 20
340.7287641168784
 30
0.0
  0
POINT
  5
8473
330
8468
100
AcDbEntity
  8
Defpoints
 62
     0
100
AcDbPoint
 10
69.82408597795191
 20
340.7287641168784
 30
0.0
  0
ENDBLK
  5
846A
330
8468
100
AcDbEntity
  8
0
100
AcDbBlockEnd
  0
BLOCK
  5
8479
330
8478
100
AcDbEntity
  8
0
100
AcDbBlockBegin
  2
*D29
 70
     1
 10
0.0
 20
0.0
 30
0.0
  3
*D29
  1

  0
LINE
  5
847B
330
8478
100
AcDbEntity
  8
寸法
  6
Continuous
 62
     0
370
    -2
100
AcDbLine
 10
104.9944351955711
 20
333.2356764933118
 30
0.0
 11
69.82408597795191
 21
333.2356764933118
 31
0.0
  0
LINE
  5
847C
330
8478
100
AcDbEntity
  8
寸法
  6
Continuous
 62
     0
370
    -2
100
AcDbLine
 10
86.83325785470018
 20
340.7287641168784
 30
0.0
 11
69.82408597795191
 21
340.7287641168784
 31
0.0
  0
LINE
  5
847D
330
8478
100
AcDbEntity
  8
寸法
  6
Continuous
 62
     0
370
    -2
100
AcDbLine
 10
69.82408597795191
 20
333.2356764933118
 30
0.0
 11
69.82408597795191
 21
317.2723152328392
 31
0.0
  0
LINE
  5
847E
330
8478
100
AcDbEntity
  8
寸法
  6
Continuous
 62
     0
370
    -2
100
AcDbLine
 10
69.82408597795191
 20
334.7356764933118
 30
0.0
 11
69.82408597795191
 21
339.2287641168784
 31
0.0
  0
LINE
  5
847F
330
8478
100
AcDbEntity
  8
寸法
  6
Continuous
 62
     0
370
    -2
100
AcDbLine
 10
69.82408597795191
 20
334.7356764933118
 30
0.0
 11
69.82408597795191
 21
336.2356764933118
 31
0.0
  0
INSERT
  5
8480
330
8478
100
AcDbEntity
  8
寸法
 62
     0
370
    -2
100
AcDbBlockReference
  2
_DOT
 10
69.82408597795191
 20
333.2356764933118
 30
0.0
 41
1.5
 42
1.5
 43
1.5
 50
270.0
  0
INSERT
  5
8481
330
8478
100
AcDbEntity
  8
寸法
 62
     0
370
    -2
100
AcDbBlockReference
  2
_DOT
 10
69.82408597795191
 20
340.7287641168784
 30
0.0
 41
1.5
 42
1.5
 43
1.5
 50
90.0
  0
MTEXT
  5
8482
330
8478
100
AcDbEntity
  8
寸法
  6
Continuous
 62
     0
100
AcDbMText
 10
65.32314812625751
 20
323.7539958630755
 30
0.0
 40
5.0
 41
0.0
 46
0.0
 71
     5
 72
     1
  1
\A1;7.5
  7
ＭＳ ゴシック
 11
0.0
 21
1.0
 31
0.0
 73
     1
 44
1.0
  0
POINT
  5
8483
330
8478
100
AcDbEntity
  8
Defpoints
 62
     0
100
AcDbPoint
 10
109.9944351955711
 20
333.2356764933118
 30
0.0
  0
POINT
  5
84B3
330
8478
100
AcDbEntity
  8
Defpoints
 62
     0
100
AcDbPoint
 10
91.83325785470018
 20
340.7287641168784
 30
0.0
  0
POINT
  5
84B4
330
8478
100
AcDbEntity
  8
Defpoints
 62
     0
100
AcDbPoint
 10
69.82408597795191
 20
340.7287641168784
 30
0.0
  0
ENDBLK
  5
847A
330
8478
100
AcDbEntity
  8
0
100
AcDbBlockEnd
  0
BLOCK
  5
8489
330
8488
100
AcDbEntity
  8
0
100
AcDbBlockBegin
  2
*D30
 70
     1
 10
0.0
 20
0.0
 30
0.0
  3
*D30
  1

  0
LINE
  5
848B
330
8488
100
AcDbEntity
  8
寸法
  6
Continuous
 62
     0
370
    -2
100
AcDbLine
 10
373.0729011041008
 20
199.915303700495
 30
0.0
 11
386.4283944278043
 21
199.915303700495
 31
0.0
  0
LINE
  5
848C
330
8488
100
AcDbEntity
  8
寸法
  6
Continuous
 62
     0
370
    -2
100
AcDbLine
 10
373.0729011041008
 20
149.9407156235028
 30
0.0
 11
386.4283944278043
 21
149.9407156235028
 31
0.0
  0
LINE
  5
848D
330
8488
100
AcDbEntity
  8
寸法
  6
Continuous
 62
     0
370
    -2
100
AcDbLine
 10
386.4283944278043
 20
198.415303700495
 30
0.0
 11
386.4283944278043
 21
151.4407156235028
 31
0.0
  0
INSERT
  5
848E
330
8488
100
AcDbEntity
  8
寸法
 62
     0
370
    -2
100
AcDbBlockReference
  2
_DOT
 10
386.4283944278043
 20
199.915303700495
 30
0.0
 41
1.5
 42
1.5
 43
1.5
 50
90.0
  0
INSERT
  5
848F
330
8488
100
AcDbEntity
  8
寸法
 62
     0
370
    -2
100
AcDbBlockReference
  2
_DOT
 10
386.4283944278043
 20
149.9407156235028
 30
0.0
 41
1.5
 42
1.5
 43
1.5
 50
270.0
  0
MTEXT
  5
8490
330
8488
100
AcDbEntity
  8
寸法
  6
Continuous
 62
     0
100
AcDbMText
 10
381.92745657611
 20
174.9280096619989
 30
0.0
 40
5.0
 41
0.0
 46
0.0
 71
     5
 72
     1
  1
\A1;50
  7
ＭＳ ゴシック
 11
0.0
 21
1.0
 31
0.0
 73
     1
 44
1.0
  0
POINT
  5
8491
330
8488
100
AcDbEntity
  8
Defpoints
 62
     0
100
AcDbPoint
 10
368.0729011041008
 20
199.915303700495
 30
0.0
  0
POINT
  5
8492
330
8488
100
AcDbEntity
  8
Defpoints
 62
     0
100
AcDbPoint
 10
368.0729011041008
 20
149.9407156235028
 30
0.0
  0
POINT
  5
8493
330
8488
100
AcDbEntity
  8
Defpoints
 62
     0
100
AcDbPoint
 10
386.4283944278043
 20
149.9407156235028
 30
0.0
  0
ENDBLK
  5
848A
330
8488
100
AcDbEntity
  8
0
100
AcDbBlockEnd
  0
BLOCK
  5
8498
330
8497
100
AcDbEntity
  8
0
100
AcDbBlockBegin
  2
*D31
 70
     1
 10
0.0
 20
0.0
 30
0.0
  3
*D31
  1

  0
LINE
  5
849A
330
8497
100
AcDbEntity
  8
寸法
  6
Continuous
 62
     0
370
    -2
100
AcDbLine
 10
360.2628644868017
 20
144.9407156235028
 30
0.0
 11
360.2628644868017
 21
131.8985009882012
 31
0.0
  0
LINE
  5
849B
330
8497
100
AcDbEntity
  8
寸法
  6
Continuous
 62
     0
370
    -2
100
AcDbLine
 10
368.0729011041008
 20
144.9407156235028
 30
0.0
 11
368.0729011041008
 21
131.8985009882012
 31
0.0
  0
LINE
  5
849C
330
8497
100
AcDbEntity
  8
寸法
  6
Continuous
 62
     0
370
    -2
100
AcDbLine
 10
368.0729011041008
 20
131.8985009882012
 30
0.0
 11
384.0889383680748
 21
131.8985009882012
 31
0.0
  0
LINE
  5
849D
330
8497
100
AcDbEntity
  8
寸法
  6
Continuous
 62
     0
370
    -2
100
AcDbLine
 10
361.7628644868017
 20
131.8985009882012
 30
0.0
 11
366.5729011041008
 21
131.8985009882012
 31
0.0
  0
LINE
  5
849E
330
8497
100
AcDbEntity
  8
寸法
  6
Continuous
 62
     0
370
    -2
100
AcDbLine
 10
366.5729011041008
 20
131.8985009882012
 30
0.0
 11
365.0729011041008
 21
131.8985009882012
 31
0.0
  0
INSERT
  5
849F
330
8497
100
AcDbEntity
  8
寸法
 62
     0
370
    -2
100
AcDbBlockReference
  2
_DOT
 10
360.2628644868017
 20
131.8985009882012
 30
0.0
 41
1.5
 42
1.5
 43
1.5
 50
180.0
  0
INSERT
  5
84A0
330
8497
100
AcDbEntity
  8
寸法
 62
     0
370
    -2
100
AcDbBlockReference
  2
_DOT
 10
368.0729011041008
 20
131.8985009882012
 30
0.0
 41
1.5
 42
1.5
 43
1.5
  0
MTEXT
  5
84A1
330
8497
100
AcDbEntity
  8
寸法
  6
Continuous
 62
     0
100
AcDbMText
 10
377.5809197360878
 20
136.3994388398956
 30
0.0
 40
5.0
 41
0.0
 46
0.0
 71
     5
 72
     1
  1
\A1;7.8
  7
ＭＳ ゴシック
 73
     1
 44
1.0
  0
POINT
  5
84A2
330
8497
100
AcDbEntity
  8
Defpoints
 62
     0
100
AcDbPoint
 10
360.2628644868017
 20
149.9407156235028
 30
0.0
  0
POINT
  5
8503
330
8497
100
AcDbEntity
  8
Defpoints
 62
     0
100
AcDbPoint
 10
368.0729011041008
 20
149.9407156235028
 30
0.0
  0
POINT
  5
8504
330
8497
100
AcDbEntity
  8
Defpoints
 62
     0
100
AcDbPoint
 10
368.0729011041008
 20
131.8985009882012
 30
0.0
  0
ENDBLK
  5
8499
330
8497
100
AcDbEntity
  8
0
100
AcDbBlockEnd
  0
BLOCK
  5
84C1
330
84C0
100
AcDbEntity
  8
0
100
AcDbBlockBegin
  2
*D32
 70
     1
 10
0.0
 20
0.0
 30
0.0
  3
*D32
  1

  0
LINE
  5
84C3
330
84C0
100
AcDbEntity
  8
寸法
  6
Continuous
 62
     0
370
    -2
100
AcDbLine
 10
219.6336134832739
 20
350.5773495126454
 30
0.0
 11
219.6336134832739
 21
369.8390605432099
 31
0.0
  0
LINE
  5
84C4
330
84C0
100
AcDbEntity
  8
寸法
  6
Continuous
 62
     0
370
    -2
100
AcDbLine
 10
257.6335583005908
 20
350.5213176874475
 30
0.0
 11
257.6335583005908
 21
369.8390605432099
 31
0.0
  0
LINE
  5
84C5
330
84C0
100
AcDbEntity
  8
寸法
  6
Continuous
 62
     0
370
    -2
100
AcDbLine
 10
221.1336134832739
 20
369.8390605432099
 30
0.0
 11
256.1335583005908
 21
369.8390605432099
 31
0.0
  0
INSERT
  5
84C6
330
84C0
100
AcDbEntity
  8
寸法
 62
     0
370
    -2
100
AcDbBlockReference
  2
_DOT
 10
219.6336134832739
 20
369.8390605432099
 30
0.0
 41
1.5
 42
1.5
 43
1.5
 50
180.0
  0
INSERT
  5
84C7
330
84C0
100
AcDbEntity
  8
寸法
 62
     0
370
    -2
100
AcDbBlockReference
  2
_DOT
 10
257.6335583005908
 20
369.8390605432099
 30
0.0
 41
1.5
 42
1.5
 43
1.5
  0
MTEXT
  5
84C8
330
84C0
100
AcDbEntity
  8
寸法
  6
Continuous
 62
     0
100
AcDbMText
 10
238.6335858919323
 20
374.3399983949043
 30
0.0
 40
5.0
 41
0.0
 46
0.0
 71
     5
 72
     1
  1
\A1;38
  7
ＭＳ ゴシック
 73
     1
 44
1.0
  0
POINT
  5
84C9
330
84C0
100
AcDbEntity
  8
Defpoints
 62
     0
100
AcDbPoint
 10
219.6336134832739
 20
345.5773495126454
 30
0.0
  0
POINT
  5
84CA
330
84C0
100
AcDbEntity
  8
Defpoints
 62
     0
100
AcDbPoint
 10
257.6335583005908
 20
345.5213176874475
 30
0.0
  0
POINT
  5
84CB
330
84C0
100
AcDbEntity
  8
Defpoints
 62
     0
100
AcDbPoint
 10
257.6335583005908
 20
369.8390605432099
 30
0.0
  0
ENDBLK
  5
84C2
330
84C0
100
AcDbEntity
  8
0
100
AcDbBlockEnd
  0
BLOCK
  5
84D2
330
84D1
100
AcDbEntity
  8
0
100
AcDbBlockBegin
  2
*D33
 70
     1
 10
0.0
 20
0.0
 30
0.0
  3
*D33
  1

  0
LINE
  5
84D4
330
84D1
100
AcDbEntity
  8
寸法
  6
Continuous
 62
     0
370
    -2
100
AcDbLine
 10
214.6336134832739
 20
347.1946677870764
 30
0.0
 11
197.4761410269052
 21
347.1946677870764
 31
0.0
  0
LINE
  5
84D5
330
84D1
100
AcDbEntity
  8
寸法
  6
Continuous
 62
     0
370
    -2
100
AcDbLine
 10
214.6336134832739
 20
294.3075001782274
 30
0.0
 11
197.4761410269052
 21
294.3075001782274
 31
0.0
  0
LINE
  5
84D6
330
84D1
100
AcDbEntity
  8
寸法
  6
Continuous
 62
     0
370
    -2
100
AcDbLine
 10
197.4761410269052
 20
345.6946677870764
 30
0.0
 11
197.4761410269052
 21
295.8075001782274
 31
0.0
  0
INSERT
  5
84D7
330
84D1
100
AcDbEntity
  8
寸法
 62
     0
370
    -2
100
AcDbBlockReference
  2
_DOT
 10
197.4761410269052
 20
347.1946677870764
 30
0.0
 41
1.5
 42
1.5
 43
1.5
 50
90.0
  0
INSERT
  5
84D8
330
84D1
100
AcDbEntity
  8
寸法
 62
     0
370
    -2
100
AcDbBlockReference
  2
_DOT
 10
197.4761410269052
 20
294.3075001782274
 30
0.0
 41
1.5
 42
1.5
 43
1.5
 50
270.0
  0
MTEXT
  5
84D9
330
84D1
100
AcDbEntity
  8
寸法
  6
Continuous
 62
     0
100
AcDbMText
 10
192.9752031752108
 20
320.7510839826519
 30
0.0
 40
5.0
 41
0.0
 46
0.0
 71
     5
 72
     1
  1
\A1;53
  7
ＭＳ ゴシック
 11
0.0
 21
1.0
 31
0.0
 73
     1
 44
1.0
  0
POINT
  5
84DA
330
84D1
100
AcDbEntity
  8
Defpoints
 62
     0
100
AcDbPoint
 10
219.6336134832739
 20
347.1946677870764
 30
0.0
  0
POINT
  5
84DB
330
84D1
100
AcDbEntity
  8
Defpoints
 62
     0
100
AcDbPoint
 10
219.6336134832739
 20
294.3075001782274
 30
0.0
  0
POINT
  5
84DC
330
84D1
100
AcDbEntity
  8
Defpoints
 62
     0
100
AcDbPoint
 10
197.4761410269052
 20
294.3075001782274
 30
0.0
  0
ENDBLK
  5
84D3
330
84D1
100
AcDbEntity
  8
0
100
AcDbBlockEnd
  0
BLOCK
  5
84E9
330
84E8
100
AcDbEntity
  8
0
100
AcDbBlockBegin
  2
*D34
 70
     1
 10
0.0
 20
0.0
 30
0.0
  3
*D34
  1

  0
LINE
  5
84EB
330
84E8
100
AcDbEntity
  8
寸法
  6
Continuous
 62
     0
370
    -2
100
AcDbLine
 10
444.8633136131534
 20
350.6771864952223
 30
0.0
 11
444.8633136131534
 21
369.8390605432099
 31
0.0
  0
LINE
  5
84EC
330
84E8
100
AcDbEntity
  8
寸法
  6
Continuous
 62
     0
370
    -2
100
AcDbLine
 10
482.8632584304703
 20
350.5785944604569
 30
0.0
 11
482.8632584304703
 21
369.8390605432099
 31
0.0
  0
LINE
  5
84ED
330
84E8
100
AcDbEntity
  8
寸法
  6
Continuous
 62
     0
370
    -2
100
AcDbLine
 10
446.3633136131534
 20
369.8390605432099
 30
0.0
 11
481.3632584304703
 21
369.8390605432099
 31
0.0
  0
INSERT
  5
84EE
330
84E8
100
AcDbEntity
  8
寸法
 62
     0
370
    -2
100
AcDbBlockReference
  2
_DOT
 10
444.8633136131534
 20
369.8390605432099
 30
0.0
 41
1.5
 42
1.5
 43
1.5
 50
180.0
  0
INSERT
  5
84EF
330
84E8
100
AcDbEntity
  8
寸法
 62
     0
370
    -2
100
AcDbBlockReference
  2
_DOT
 10
482.8632584304703
 20
369.8390605432099
 30
0.0
 41
1.5
 42
1.5
 43
1.5
  0
MTEXT
  5
84F0
330
84E8
100
AcDbEntity
  8
寸法
  6
Continuous
 62
     0
100
AcDbMText
 10
463.8632860218119
 20
374.3399983949043
 30
0.0
 40
5.0
 41
0.0
 46
0.0
 71
     5
 72
     1
  1
\A1;38
  7
ＭＳ ゴシック
 73
     1
 44
1.0
  0
POINT
  5
84F1
330
84E8
100
AcDbEntity
  8
Defpoints
 62
     0
100
AcDbPoint
 10
444.8633136131534
 20
345.6771864952223
 30
0.0
  0
POINT
  5
84F2
330
84E8
100
AcDbEntity
  8
Defpoints
 62
     0
100
AcDbPoint
 10
482.8632584304703
 20
345.5785944604569
 30
0.0
  0
POINT
  5
84F3
330
84E8
100
AcDbEntity
  8
Defpoints
 62
     0
100
AcDbPoint
 10
482.8632584304703
 20
369.8390605432099
 30
0.0
  0
ENDBLK
  5
84EA
330
84E8
100
AcDbEntity
  8
0
100
AcDbBlockEnd
  0
BLOCK
  5
84F7
330
84F6
100
AcDbEntity
  8
0
100
AcDbBlockBegin
  2
*D35
 70
     1
 10
0.0
 20
0.0
 30
0.0
  3
*D35
  1

  0
LINE
  5
84F9
330
84F6
100
AcDbEntity
  8
寸法
  6
Continuous
 62
     0
370
    -2
100
AcDbLine
 10
439.8633136131534
 20
347.1946677870764
 30
0.0
 11
424.6359523244711
 21
347.1946677870764
 31
0.0
  0
LINE
  5
84FA
330
84F6
100
AcDbEntity
  8
寸法
  6
Continuous
 62
     0
370
    -2
100
AcDbLine
 10
439.8633136131534
 20
294.3075001782274
 30
0.0
 11
424.6359523244711
 21
294.3075001782274
 31
0.0
  0
LINE
  5
84FB
330
84F6
100
AcDbEntity
  8
寸法
  6
Continuous
 62
     0
370
    -2
100
AcDbLine
 10
424.6359523244711
 20
345.6946677870764
 30
0.0
 11
424.6359523244711
 21
295.8075001782274
 31
0.0
  0
INSERT
  5
84FC
330
84F6
100
AcDbEntity
  8
寸法
 62
     0
370
    -2
100
AcDbBlockReference
  2
_DOT
 10
424.6359523244711
 20
347.1946677870764
 30
0.0
 41
1.5
 42
1.5
 43
1.5
 50
90.0
  0
INSERT
  5
84FD
330
84F6
100
AcDbEntity
  8
寸法
 62
     0
370
    -2
100
AcDbBlockReference
  2
_DOT
 10
424.6359523244711
 20
294.3075001782274
 30
0.0
 41
1.5
 42
1.5
 43
1.5
 50
270.0
  0
MTEXT
  5
84FE
330
84F6
100
AcDbEntity
  8
寸法
  6
Continuous
 62
     0
100
AcDbMText
 10
420.1350144727767
 20
320.7510839826519
 30
0.0
 40
5.0
 41
0.0
 46
0.0
 71
     5
 72
     1
  1
\A1;53
  7
ＭＳ ゴシック
 11
0.0
 21
1.0
 31
0.0
 73
     1
 44
1.0
  0
POINT
  5
84FF
330
84F6
100
AcDbEntity
  8
Defpoints
 62
     0
100
AcDbPoint
 10
444.8633136131534
 20
347.1946677870764
 30
0.0
  0
POINT
  5
8500
330
84F6
100
AcDbEntity
  8
Defpoints
 62
     0
100
AcDbPoint
 10
444.8633136131534
 20
294.3075001782274
 30
0.0
  0
POINT
  5
8501
330
84F6
100
AcDbEntity
  8
Defpoints
 62
     0
100
AcDbPoint
 10
424.6359523244711
 20
294.3075001782274
 30
0.0
  0
ENDBLK
  5
84F8
330
84F6
100
AcDbEntity
  8
0
100
AcDbBlockEnd
  0
ENDSEC
  0
SECTION
  2
ENTITIES
  0
LINE
  5
54A0
330
A
100
AcDbEntity
  8
PRINT BORDER
100
AcDbLine
 10
296.9999999999999
 20
0.0
 30
0.0
 11
296.9999999999999
 21
15.30952622855898
 31
0.0
  0
LINE
  5
54A1
330
A
100
AcDbEntity
  8
テンプレート
100
AcDbLine
 10
437.9999999999999
 20
38.27810890422097
 30
0.0
 11
15.30952622855898
 21
38.27810890422097
 31
0.0
  0
LINE
  5
54A2
330
A
100
AcDbEntity
  8
テンプレート
100
AcDbLine
 10
15.30952622855898
 20
26.22153683920783
 30
0.0
 11
578.6904737714407
 21
26.22153683920783
 31
0.0
  0
TEXT
  5
54A3
330
A
100
AcDbEntity
  8
テンプレート
100
AcDbText
 10
18.06121699514119
 20
32.16825981613692
 30
0.0
 40
3.5
  1
材質
  7
ＭＳ ゴシック
100
AcDbText
  0
TEXT
  5
54A4
330
A
100
AcDbEntity
  8
テンプレート
100
AcDbText
 10
18.06121699514119
 20
56.50959028673083
 30
0.0
 40
3.5
  1
品名
  7
ＭＳ ゴシック
100
AcDbText
  0
TEXT
  5
54A5
330
A
100
AcDbEntity
  8
テンプレート
100
AcDbText
 10
18.06121699514119
 20
44.65099339080098
 30
0.0
 40
3.5
  1
仕上げ
  7
ＭＳ ゴシック
100
AcDbText
  0
TEXT
  5
54A6
330
A
100
AcDbEntity
  8
テンプレート
100
AcDbText
 10
326.5323022261666
 20
56.58523052309899
 30
0.0
 40
3.5
  1
品番
  7
ＭＳ ゴシック
100
AcDbText
  0
TEXT
  5
54A7
330
A
100
AcDbEntity
  8
テンプレート
100
AcDbText
 10
36.7528253083583
 20
53.09440584367189
 30
0.0
 40
5.5
  1
間仕切装置 - FORMANI,Arc -
  7
ＭＳ ゴシック
100
AcDbText
  0
TEXT
  5
54A8
330
A
100
AcDbEntity
  8
テンプレート
100
AcDbText
 10
340.7260742506825
 20
52.97708052455302
 30
0.0
 40
5.5
  1
FOR16-AR01
  7
ＭＳ ゴシック
100
AcDbText
  0
LINE
  5
54A9
330
A
100
AcDbEntity
  8
テンプレート
100
AcDbLine
 10
437.9999999999999
 20
50.16496477419605
 30
0.0
 11
15.30952622855898
 21
50.16496477419605
 31
0.0
  0
LINE
  5
54AA
330
A
100
AcDbEntity
  8
テンプレート
100
AcDbLine
 10
578.6904737714411
 20
62.22153683920783
 30
0.0
 11
15.30952622855898
 21
62.22153683920783
 31
0.0
  0
LINE
  5
54AB
330
A
100
AcDbEntity
  8
PRINT BORDER
100
AcDbLine
 10
593.9999999999999
 20
210.0
 30
0.0
 11
578.6904737714411
 21
210.0
 31
0.0
  0
LINE
  5
54AC
330
A
100
AcDbEntity
  8
PRINT BORDER
100
AcDbLine
 10
0.0
 20
210.0
 30
0.0
 11
15.30952622855898
 21
210.0
 31
0.0
  0
LINE
  5
54AD
330
A
100
AcDbEntity
  8
PRINT BORDER
100
AcDbLine
 10
296.9999999999999
 20
420.0
 30
0.0
 11
296.9999999999999
 21
404.690473771441
 31
0.0
  0
LINE
  5
54AE
330
A
100
AcDbEntity
  8
テンプレート
100
AcDbLine
 10
578.6904737714411
 20
62.22153683920783
 30
0.0
 11
578.6904737714411
 21
26.22153683920783
 31
0.0
  0
LINE
  5
54AF
330
A
100
AcDbEntity
  8
テンプレート
100
AcDbLine
 10
15.30952622855898
 20
62.22153683920783
 30
0.0
 11
15.30952622855898
 21
26.22153683920783
 31
0.0
  0
TEXT
  5
54B0
330
A
100
AcDbEntity
  8
テンプレート
100
AcDbText
 10
494.9733384955217
 20
16.51938390313694
 30
0.0
 40
5.5
  1
大洋金物株式会社  
  7
ＭＳ ゴシック
100
AcDbText
  0
LINE
  5
54B1
330
A
100
AcDbEntity
  8
テンプレート
100
AcDbLine
 10
437.9999999999999
 20
62.22153683920783
 30
0.0
 11
437.9999999999999
 21
26.22153683920783
 31
0.0
  0
LINE
  5
54B2
330
A
100
AcDbEntity
  8
テンプレート
100
AcDbLine
 10
323.7181790590112
 20
62.22153683920784
 30
0.0
 11
323.7181790590112
 21
26.22153683920784
 31
0.0
  0
INSERT
  5
54B3
330
A
100
AcDbEntity
  8
テンプレート
100
AcDbBlockReference
  2
名称未設定-1
 10
548.3945198859805
 20
-7.642344203993161
 30
0.0
 41
0.180975
 42
0.180975
 43
0.180975
  0
LINE
  5
54B5
330
A
100
AcDbEntity
  8
テンプレート
100
AcDbLine
 10
15.30952622855898
 20
210.0
 30
0.0
 11
15.30952622855898
 21
26.22153683920783
 31
0.0
  0
LINE
  5
54B6
330
A
100
AcDbEntity
  8
テンプレート
100
AcDbLine
 10
15.30952622855898
 20
210.0
 30
0.0
 11
15.30952622855898
 21
404.690473771441
 31
0.0
  0
LINE
  5
54B7
330
A
100
AcDbEntity
  8
テンプレート
100
AcDbLine
 10
296.9999999999999
 20
404.690473771441
 30
0.0
 11
15.30952622855887
 21
404.690473771441
 31
0.0
  0
LINE
  5
54B8
330
A
100
AcDbEntity
  8
テンプレート
100
AcDbLine
 10
296.9999999999999
 20
404.690473771441
 30
0.0
 11
578.6904737714411
 21
404.690473771441
 31
0.0
  0
LINE
  5
54B9
330
A
100
AcDbEntity
  8
テンプレート
100
AcDbLine
 10
578.6904737714411
 20
210.0
 30
0.0
 11
578.6904737714411
 21
404.690473771441
 31
0.0
  0
LINE
  5
54BA
330
A
100
AcDbEntity
  8
テンプレート
100
AcDbLine
 10
578.6904737714411
 20
210.0
 30
0.0
 11
578.6904737714411
 21
26.22153683920783
 31
0.0
  0
LWPOLYLINE
  5
54BB
330
A
100
AcDbEntity
  8
PRINT BORDER
  6
HIDDEN
 48
3.0
100
AcDbPolyline
 90
        4
 70
     1
 43
0.0
 10
0.0
 20
0.0
 10
0.0
 20
420.0
 10
593.9999999999999
 20
420.0
 10
593.9999999999999
 20
0.0
  0
TEXT
  5
54BC
330
A
100
AcDbEntity
  8
テンプレート
100
AcDbText
 10
326.5078693304582
 20
32.62405342819489
 30
0.0
 40
3.5
  1
縮尺
  7
ＭＳ ゴシック
100
AcDbText
  0
TEXT
  5
54BD
330
A
100
AcDbEntity
  8
テンプレート
100
AcDbText
 10
340.7260742506825
 20
28.29362070227196
 30
0.0
 40
5.5
  1
1/2
  7
ＭＳ ゴシック
100
AcDbText
  0
TEXT
  5
54BE
330
A
100
AcDbEntity
  8
テンプレート
100
AcDbText
 10
326.5323022261666
 20
44.52865845808584
 30
0.0
 40
3.5
  1
扉厚
  7
ＭＳ ゴシック
100
AcDbText
  0
TEXT
  5
54BF
330
A
100
AcDbEntity
  8
テンプレート
100
AcDbText
 10
440.0887524673468
 20
56.58523052309897
 30
0.0
 40
3.5
  1
備考
  7
ＭＳ ゴシック
100
AcDbText
  0
LWPOLYLINE
  5
5528
330
A
100
AcDbEntity
  8
Defpoints
100
AcDbPolyline
 90
        4
 70
     1
 43
0.0
 10
161.5928474918056
 20
97.1045060433407
 10
161.5928474918056
 20
69.6571102646527
 10
432.4071525081941
 20
69.6571102646527
 10
432.4071525081941
 20
97.1045060433407
  0
LINE
  5
5529
330
A
100
AcDbEntity
  8
Defpoints
  6
CENTER
 48
3.0
100
AcDbLine
 10
296.9999999999999
 20
404.690473771441
 30
0.0
 11
297.0
 21
106.25363796957
 31
0.0
  0
LINE
  5
552A
330
A
100
AcDbEntity
  8
Defpoints
  6
CENTER
 48
3.0
100
AcDbLine
 10
15.30952622855898
 20
255.4720558705055
 30
0.0
 11
578.690473771441
 21
255.4720558705055
 31
0.0
  0
LINE
  5
552B
330
A
100
AcDbEntity
  8
Defpoints
  6
CENTER
 48
3.0
100
AcDbLine
 10
15.30952622855898
 20
106.25363796957
 30
0.0
 11
578.690473771441
 21
106.25363796957
 31
0.0
  0
LINE
  5
552C
330
A
100
AcDbEntity
  8
Defpoints
  6
CENTER
 48
3.0
100
AcDbLine
 10
408.8721245115548
 20
224.6771809568476
 30
0.0
 11
408.8721245115548
 21
137.0485128832279
 31
0.0
  0
LINE
  5
552D
330
A
100
AcDbEntity
  8
Defpoints
  6
CENTER
 48
3.0
100
AcDbLine
 10
365.057790474745
 20
180.8628469200378
 30
0.0
 11
452.6864585483647
 21
180.8628469200378
 31
0.0
  0
LINE
  5
59F5
330
A
100
AcDbEntity
  8
テンプレート
  6
Continuous
100
AcDbLine
 10
33.63100153769659
 20
26.22153683920783
 30
0.0
 11
33.63100153769659
 21
50.16496477419605
 31
0.0
  0
MTEXT
  5
59F7
102
{ACAD_XDICTIONARY
360
59F8
102
}
330
A
100
AcDbEntity
  8
寸法
  6
Continuous
370
     0
100
AcDbMText
 10
16.03746315898582
 20
23.37395828580276
 30
0.0
 40
4.0
 41
0.0
 46
4.0
 71
     1
 72
     1
  1
{20221024M}
  7
ＭＳ ゴシック
 73
     1
 44
1.0
1001
ACAD
1000
ACAD_MTEXT_DEFINED_HEIGHT_BEGIN
1070
    46
1040
4.0
1000
ACAD_MTEXT_DEFINED_HEIGHT_END
  0
MTEXT
  5
5A9F
330
A
100
AcDbEntity
  8
テンプレート
390
1D
100
AcDbMText
 10
40.82496584043753
 20
34.57354675141926
 30
0.0
 40
5.0
 41
0.0
 46
5.075
 71
     1
 72
     1
  1
{ステンレス}
  7
ＭＳ ゴシック
 73
     1
 44
0.7828267384257843
1001
ACAD
1000
ACAD_MTEXT_DEFINED_HEIGHT_BEGIN
1070
    46
1040
5.075
1000
ACAD_MTEXT_DEFINED_HEIGHT_END
  0
LINE
  5
5AA7
330
A
100
AcDbEntity
  8
テンプレート
  6
Continuous
100
AcDbLine
 10
224.2453682111437
 20
50.16496477419606
 30
0.0
 11
224.2453682111437
 21
38.27810890422099
 31
0.0
  0
LINE
  5
5AA8
330
A
100
AcDbEntity
  8
テンプレート
  6
Continuous
100
AcDbLine
 10
147.2638229208211
 20
50.16496477419603
 30
0.0
 11
147.2638229208211
 21
38.27810890422096
 31
0.0
  0
LINE
  5
5AA9
330
A
100
AcDbEntity
  8
テンプレート
  6
Continuous
100
AcDbLine
 10
86.44498978318508
 20
50.16496477419605
 30
0.0
 11
86.44498978318518
 21
38.27810890422097
 31
0.0
  0
LINE
  5
6CFF
330
A
100
AcDbEntity
  8
寸法
  6
Continuous
100
AcDbLine
 10
224.2453682111437
 20
38.27810890422099
 30
0.0
 11
224.2453682111437
 21
26.22153683920781
 31
0.0
  0
MTEXT
  5
718F
330
A
100
AcDbEntity
  8
テンプレート
390
1D
100
AcDbMText
 10
40.82496584043753
 20
46.67269218827177
 30
0.0
 40
5.0
 41
0.0
 46
5.190383893960235
 71
     1
 72
     1
  1
{サテン}
  7
ＭＳ ゴシック
 73
     1
 44
0.7828267384257843
1001
ACAD
1000
ACAD_MTEXT_DEFINED_HEIGHT_BEGIN
1070
    46
1040
5.190383893960235
1000
ACAD_MTEXT_DEFINED_HEIGHT_END
  0
MTEXT
  5
7190
330
A
100
AcDbEntity
  8
テンプレート
390
1D
100
AcDbMText
 10
89.3679633832603
 20
46.67269218827177
 30
0.0
 40
5.0
 41
0.0
 46
5.480180067525322
 71
     1
 72
     1
  1
{PVDブラック}
  7
ＭＳ ゴシック
 73
     1
 44
0.7828267384257843
1001
ACAD
1000
ACAD_MTEXT_DEFINED_HEIGHT_BEGIN
1070
    46
1040
5.480180067525322
1000
ACAD_MTEXT_DEFINED_HEIGHT_END
  0
TEXT
  5
7F3F
330
A
100
AcDbEntity
  8
寸法
100
AcDbText
 10
411.4782508872128
 20
213.218441988149
 30
0.0
 40
5.0
  1
<切欠図>
  7
ＭＳ ゴシック
100
AcDbText
  0
DIMENSION
  5
7F53
330
A
100
AcDbEntity
  8
寸法
100
AcDbDimension
  2
*D8
 10
482.1767865647565
 20
209.2508625328144
 30
0.0
 11
472.6767865647565
 21
213.7518003845087
 31
0.0
 70
    32
 71
     5
 42
19.0
 73
     0
 74
     0
 75
     0
  3
tfrom線あり
100
AcDbAlignedDimension
 13
463.1767865647565
 23
201.8976396168313
 33
0.0
 14
482.1767865647565
 24
193.9204030921152
 34
0.0
100
AcDbRotatedDimension
  0
DIMENSION
  5
7F54
330
A
100
AcDbEntity
  8
寸法
100
AcDbDimension
  2
*D9
 10
463.1767865647565
 20
209.2508625328144
 30
0.0
 11
453.6767865647564
 21
213.7518003845087
 31
0.0
 70
    32
 71
     5
 42
19.00000000000023
 73
     0
 74
     0
 75
     0
  3
tfrom線あり
100
AcDbAlignedDimension
 13
444.1767865647563
 23
193.9204030921152
 33
0.0
 14
463.1767865647565
 24
201.8976396168313
 34
0.0
100
AcDbRotatedDimension
  0
CIRCLE
  5
7F55
102
{ACAD_REACTORS
330
7F58
102
}
330
A
100
AcDbEntity
  8
CutoutOverlay
100
AcDbCircle
 10
463.1767865647565
 20
174.8646844588354
 30
0.0
 40
14.0
  0
CIRCLE
  5
7F56
102
{ACAD_REACTORS
330
7F58
102
}
330
A
100
AcDbEntity
  8
CutoutOverlay
100
AcDbCircle
 10
444.1767865647563
 20
174.8646844588354
 30
0.0
 40
4.0
  0
CIRCLE
  5
7F57
102
{ACAD_REACTORS
330
7F58
102
}
330
A
100
AcDbEntity
  8
CutoutOverlay
100
AcDbCircle
 10
482.1767865647565
 20
174.8646844588354
 30
0.0
 40
4.0
  0
HATCH
  5
7F58
330
A
100
AcDbEntity
  8
CutoutOverlay
100
AcDbHatch
 10
0.0
 20
0.0
 30
0.0
210
0.0
220
0.0
230
1.0
  2
ANSI31
 70
     0
 71
     1
 91
        3
 92
        1
 93
        1
 72
     2
 10
444.1767865647563
 20
174.8646844588354
 40
4.0
 50
0.0
 51
360.0
 73
     1
 97
        1
330
7F56
 92
        1
 93
        1
 72
     2
 10
463.1767865647565
 20
174.8646844588354
 40
14.0
 50
0.0
 51
360.0
 73
     1
 97
        1
330
7F55
 92
        1
 93
        1
 72
     2
 10
482.1767865647565
 20
174.8646844588354
 40
4.0
 50
0.0
 51
360.0
 73
     1
 97
        1
330
7F57
 75
     0
 76
     1
 52
0.0
 41
1.0
 77
     0
 78
     1
 53
45.0
 43
54.3046620532017
 44
-5.998162461202497
 45
-2.245064030267288
 46
2.245064030267288
 79
     0
 98
        1
 10
54.3046620532017
 20
-5.998162461202497
1001
ACAD
1010
0.0
1020
0.0
1030
0.0
  0
LINE
  5
7F59
330
A
100
AcDbEntity
  8
CutoutOverlay
  6
CENTER
100
AcDbLine
 10
463.1767865647565
 20
203.3279842805866
 30
0.0
 11
463.1767865647565
 21
144.5040383088837
 31
0.0
  0
LINE
  5
7F5A
330
A
100
AcDbEntity
  8
CutoutOverlay
  6
CENTER
100
AcDbLine
 10
430.5867555227065
 20
174.8612210880299
 30
0.0
 11
495.1779113509273
 21
174.8612210880299
 31
0.0
  0
LINE
  5
7F5B
330
A
100
AcDbEntity
  8
CutoutOverlay
  6
CENTER
100
AcDbLine
 10
430.5867555227065
 20
174.8646844588354
 30
0.0
 11
495.1779113509273
 21
174.8646844588354
 31
0.0
  0
LEADER
  5
7F5C
102
{ACAD_XDICTIONARY
360
7F5D
102
}
330
A
100
AcDbEntity
  8
寸法
100
AcDbLeader
  3
tfrom線あり
 76
     3
 10
463.1767865647565
 20
174.8646844588354
 30
0.0
 10
496.4576734663098
 20
150.5687869876178
 30
0.0
 10
542.8392120862294
 20
150.5687869876178
 30
0.0
  0
TEXT
  5
7F5E
330
A
100
AcDbEntity
  8
寸法
100
AcDbText
 10
498.0386105359329
 20
153.2042399373133
 30
0.0
 40
5.0
  1
角芯 センター
  7
ＭＳ ゴシック
100
AcDbText
  0
TEXT
  5
7F5F
330
A
100
AcDbEntity
  8
寸法
100
AcDbText
 10
496.6320172667655
 20
194.7673383148817
 30
0.0
 40
5.0
  1
ø28
  7
ＭＳ ゴシック
100
AcDbText
  0
LEADER
  5
7F60
102
{ACAD_XDICTIONARY
360
7F61
102
}
330
A
100
AcDbEntity
  8
寸法
100
AcDbLeader
  3
tfrom線あり
 76
     3
 10
473.7431852648677
 20
184.0489764027083
 30
0.0
 10
494.368786480588
 20
193.1856635380239
 30
0.0
 10
508.2074932477316
 20
193.1856635380239
 30
0.0
1001
ACAD
1000
DSTYLE
1002
{
1070
   341
1005
74B6
1002
}
  0
TEXT
  5
7F62
330
A
100
AcDbEntity
  8
寸法
100
AcDbText
 10
497.6310214729091
 20
181.6730608285484
 30
0.0
 40
5.0
  1
ø8
  7
ＭＳ ゴシック
100
AcDbText
  0
LEADER
  5
7F63
102
{ACAD_XDICTIONARY
360
7F64
102
}
330
A
100
AcDbEntity
  8
寸法
100
AcDbLeader
  3
tfrom線あり
 76
     3
 10
485.8842055778886
 20
176.9672132023243
 30
0.0
 10
494.4095179566096
 20
180.0258625704779
 30
0.0
 10
504.9663886775448
 20
180.0258625704779
 30
0.0
1001
ACAD
1000
DSTYLE
1002
{
1070
   341
1005
74B6
1002
}
  0
LEADER
  5
7F65
102
{ACAD_XDICTIONARY
360
7F66
102
}
330
A
100
AcDbEntity
  8
寸法
100
AcDbLeader
  3
tfrom線あり
 76
     3
 10
440.4693675516247
 20
176.9672132023243
 30
0.0
 10
434.0086282427077
 20
180.6798152200225
 30
0.0
 10
423.4517575217723
 20
180.6798152200225
 30
0.0
211
-1.0
221
0.0
231
0.0
1001
ACAD
1000
DSTYLE
1002
{
1070
   341
1005
74B6
1002
}
  0
TEXT
  5
7F67
330
A
100
AcDbEntity
  8
寸法
100
AcDbText
 10
425.5202928532118
 20
182.7555349312766
 30
0.0
 40
5.0
  1
ø8
  7
ＭＳ ゴシック
100
AcDbText
  0
TEXT
  5
7FF1
330
A
100
AcDbEntity
  8
テンプレート
100
AcDbText
 10
197.4800228716895
 20
72.60802090269735
 30
0.0
 40
5.0
  1
※ ご注文の際は正確な扉厚の指示をしてください。
  7
ＭＳ ゴシック
100
AcDbText
  0
TEXT
  5
7FF2
330
A
100
AcDbEntity
  8
テンプレート
100
AcDbText
 10
197.6522659538973
 20
90.08343630331825
 30
0.0
 40
5.0
  1
※ 輸入製品の為、国内製品と比べ製品寸法の個体差に幅が有ります。
  7
ＭＳ ゴシック
100
AcDbText
  0
TEXT
  5
7FF3
330
A
100
AcDbEntity
  8
テンプレート
100
AcDbText
 10
197.4800228716895
 20
81.97965220717845
 30
0.0
 40
5.0
  1
　 加工は現物合わせの上行って下さい。
  7
ＭＳ ゴシック
100
AcDbText
  0
TEXT
  5
8015
330
A
100
AcDbEntity
  8
テンプレート
100
AcDbText
 10
339.1565091947365
 20
40.86032982095322
 30
0.0
 40
5.0
  1
ユーロケース(DIN規格)：36～55
  7
ＭＳ ゴシック
100
AcDbText
  0
TEXT
  5
8016
330
A
100
AcDbEntity
  8
テンプレート
100
AcDbText
 10
454.7154516830578
 20
46.39543212083046
 30
0.0
 40
5.0
  1
取付方＝呼込み(ビス・ナット付)
  7
ＭＳ ゴシック
100
AcDbText
  0
TEXT
  5
8017
330
A
100
AcDbEntity
  8
テンプレート
100
AcDbText
 10
454.7154516830578
 20
36.96512336991022
 30
0.0
 40
5.0
  1
ユーロケース(DIN規格)専用
  7
ＭＳ ゴシック
100
AcDbText
  0
LINE
  5
8124
330
A
100
AcDbEntity
  8
CutoutUnderlay
100
AcDbLine
 10
463.3100668424345
 20
197.1147316262176
 30
0.0
 11
463.0435062870788
 21
197.1147316262176
 31
0.0
  0
LINE
  5
8130
330
A
100
AcDbEntity
  8
CutoutUnderlay
100
AcDbLine
 10
463.0435062870788
 20
152.6146372914533
 30
0.0
 11
463.3100668424345
 21
152.6146372914533
 31
0.0
  0
SPLINE
  5
825E
330
A
100
AcDbEntity
  8
モデル
100
AcDbSpline
210
0.0
220
0.0
230
1.0
 70
     8
 71
     3
 72
     8
 73
     4
 74
     0
 42
0.000000001
 43
0.0000000001
 40
0.0
 40
0.0
 40
0.0
 40
0.0
 40
1.0
 40
1.0
 40
1.0
 40
1.0
 10
460.8574106366488
 20
294.4814273042248
 30
0.0
 10
462.8522944933965
 20
294.2533618326478
 30
0.0
 10
464.8666431524767
 20
294.253017322872
 30
0.0
 10
466.8615270092245
 20
294.4807382846732
 30
0.0
  0
SPLINE
  5
82BE
330
A
100
AcDbEntity
  8
モデル
100
AcDbSpline
210
0.0
220
0.0
230
1.0
 70
     8
 71
     3
 72
     8
 73
     4
 74
     0
 42
0.000000001
 43
0.0000000001
 40
0.0
 40
0.0
 40
0.0
 40
0.0
 40
1.0
 40
1.0
 40
1.0
 40
1.0
 10
246.5066700240311
 20
319.7603488679324
 30
0.0
 10
246.5900413897738
 20
320.421807637461
 30
0.0
 10
246.5900413897738
 20
321.0910178769451
 30
0.0
 10
246.5070145338069
 20
321.7524766464738
 30
0.0
  0
SPLINE
  5
82BF
330
A
100
AcDbEntity
  8
モデル
100
AcDbSpline
210
0.0
220
0.0
230
1.0
 70
     8
 71
     3
 72
     8
 73
     4
 74
     0
 42
0.000000001
 43
0.0000000001
 40
0.0
 40
0.0
 40
0.0
 40
0.0
 40
1.0
 40
1.0
 40
1.0
 40
1.0
 10
230.6933268052112
 20
321.7545437051285
 30
0.0
 10
230.6099554394686
 20
321.0932571904878
 30
0.0
 10
230.6099554394686
 20
320.4240469510037
 30
0.0
 10
230.6929822954354
 20
319.7625881814751
 30
0.0
  0
SPLINE
  5
82C4
330
A
100
AcDbEntity
  8
モデル
100
AcDbSpline
210
0.0
220
0.0
230
1.0
 70
     8
 71
     3
 72
    11
 73
     7
 74
     0
 42
0.000000001
 43
0.0000000001
 40
0.0
 40
0.0
 40
0.0
 40
0.0
 40
1.0
 40
1.0
 40
1.0
 40
2.0
 40
2.0
 40
2.0
 40
2.0
 10
230.6933268052112
 20
319.762760436363
 30
0.0
 10
231.1945885289946
 20
315.7779881146166
 30
0.0
 10
234.5828421739499
 20
312.7893658095849
 30
0.0
 10
238.5987926304058
 20
312.7886767900333
 30
0.0
 10
242.6147430868619
 20
312.7879877704817
 30
0.0
 10
246.0040302611445
 20
315.7759210559618
 30
0.0
 10
246.5066700240311
 20
319.7603488679324
 30
0.0
  0
SPLINE
  5
82CE
330
A
100
AcDbEntity
  8
モデル
100
AcDbSpline
210
0.0
220
0.0
230
1.0
 70
     8
 71
     3
 72
     8
 73
     4
 74
     0
 42
0.000000001
 43
0.0000000001
 40
0.0
 40
0.0
 40
0.0
 40
0.0
 40
1.0
 40
1.0
 40
1.0
 40
1.0
 10
235.5943228756875
 20
294.4814273042248
 30
0.0
 10
237.5890344775474
 20
294.2533618326478
 30
0.0
 10
239.6033831366275
 20
294.253017322872
 30
0.0
 10
241.5984392482631
 20
294.4807382846732
 30
0.0
  0
LINE
  5
831F
330
A
100
AcDbEntity
  8
モデル
100
AcDbLine
 10
470.3720816245874
 20
320.726182024377
 30
0.0
 11
470.3720816245874
 21
295.770582885254
 31
0.0
  0
LINE
  5
8320
330
A
100
AcDbEntity
  8
モデル
100
AcDbLine
 10
457.3544352363533
 20
295.770582885254
 30
0.0
 11
457.3544352363533
 21
320.726182024377
 31
0.0
  0
LINE
  5
8321
330
A
100
AcDbEntity
  8
モデル
100
AcDbLine
 10
457.3544352363533
 20
320.726182024377
 30
0.0
 11
457.3544352363533
 21
345.7451709622463
 31
0.0
  0
LINE
  5
8322
330
A
100
AcDbEntity
  8
モデル
100
AcDbLine
 10
457.3544352363533
 20
345.7451709622463
 30
0.0
 11
470.3720816245874
 21
345.7451709622463
 31
0.0
  0
LINE
  5
8323
330
A
100
AcDbEntity
  8
モデル
100
AcDbLine
 10
470.3720816245874
 20
345.7451709622463
 30
0.0
 11
470.3720816245874
 21
320.726182024377
 31
0.0
  0
LINE
  5
8324
102
{ACAD_REACTORS
330
8418
102
}
330
A
100
AcDbEntity
  8
モデル
100
AcDbLine
 10
470.3720816245874
 20
295.770582885254
 30
0.0
 11
457.3544352363533
 21
295.770582885254
 31
0.0
  0
LINE
  5
8325
330
A
100
AcDbEntity
  8
モデル
100
AcDbLine
 10
466.8794415175659
 20
294.5007198516694
 30
0.0
 11
466.8794415175659
 21
294.4369855431471
 31
0.0
  0
LINE
  5
8326
330
A
100
AcDbEntity
  8
モデル
100
AcDbLine
 10
460.9104651421214
 20
294.4369855431471
 30
0.0
 11
460.9104651421214
 21
294.5007198516694
 31
0.0
  0
SPLINE
  5
8327
330
A
100
AcDbEntity
  8
モデル
100
AcDbSpline
210
0.0
220
0.0
230
1.0
 70
     8
 71
     3
 72
     8
 73
     4
 74
     0
 42
0.000000001
 43
0.0000000001
 40
0.0
 40
0.0
 40
0.0
 40
0.0
 40
1.0
 40
1.0
 40
1.0
 40
1.0
 10
466.8589431859059
 20
294.4803937748974
 30
0.0
 10
480.7914352837668
 20
296.0689283510935
 30
0.0
 10
491.0623052295779
 20
308.2549281405556
 30
0.0
 10
490.2685547061435
 20
322.2551164093603
 30
0.0
  0
SPLINE
  5
8328
330
A
100
AcDbEntity
  8
モデル
100
AcDbSpline
210
0.0
220
0.0
230
1.0
 70
     8
 71
     3
 72
     8
 73
     4
 74
     0
 42
0.000000001
 43
0.0000000001
 40
1.0
 40
1.0
 40
1.0
 40
1.0
 40
2.0
 40
2.0
 40
2.0
 40
2.0
 10
490.2685547061435
 20
322.2551164093603
 30
0.0
 10
489.4748041827091
 20
336.2551324232771
 30
0.0
 10
477.892213265554
 20
347.2022750589763
 30
0.0
 10
463.8696318613227
 20
347.2055479018463
 30
0.0
  0
SPLINE
  5
8329
330
A
100
AcDbEntity
  8
モデル
100
AcDbSpline
210
0.0
220
0.0
230
1.0
 70
     8
 71
     3
 72
     8
 73
     4
 74
     0
 42
0.000000001
 43
0.0000000001
 40
2.0
 40
2.0
 40
2.0
 40
2.0
 40
3.0
 40
3.0
 40
3.0
 40
3.0
 10
463.8696318613227
 20
347.2055479018463
 30
0.0
 10
449.8470504570912
 20
347.2089929996042
 30
0.0
 10
438.2592918932991
 20
336.2673625203179
 30
0.0
 10
437.4586511743488
 20
322.2676910161769
 30
0.0
  0
SPLINE
  5
832A
330
A
100
AcDbEntity
  8
モデル
100
AcDbSpline
210
0.0
220
0.0
230
1.0
 70
     8
 71
     3
 72
     8
 73
     4
 74
     0
 42
0.000000001
 43
0.0000000001
 40
3.0
 40
3.0
 40
3.0
 40
3.0
 40
4.0
 40
4.0
 40
4.0
 40
4.0
 10
437.4586511743488
 20
322.2676910161769
 30
0.0
 10
436.6581827102864
 20
308.2680195120359
 30
0.0
 10
446.923368244797
 20
296.0768520759369
 30
0.0
 10
460.8548268133303
 20
294.4817718140006
 30
0.0
  0
LINE
  5
832B
330
A
100
AcDbEntity
  8
モデル
100
AcDbLine
 10
343.0116017559127
 20
336.2838989895562
 30
0.0
 11
343.0749915546592
 21
336.1564303725116
 31
0.0
  0
LINE
  5
832C
330
A
100
AcDbEntity
  8
モデル
100
AcDbLine
 10
343.0749915546592
 20
336.1564303725116
 30
0.0
 11
343.2024601717039
 21
335.7120127617346
 31
0.0
  0
LINE
  5
832D
330
A
100
AcDbEntity
  8
モデル
100
AcDbLine
 10
343.2024601717039
 20
335.7120127617346
 30
0.0
 11
343.2658499704503
 21
335.0133469364199
 31
0.0
  0
LINE
  5
832E
330
A
100
AcDbEntity
  8
モデル
100
AcDbLine
 10
343.2658499704503
 20
335.0133469364199
 30
0.0
 11
343.3292397691968
 21
334.2512913123588
 31
0.0
  0
LINE
  5
832F
330
A
100
AcDbEntity
  8
モデル
100
AcDbLine
 10
343.3292397691968
 20
334.2512913123588
 30
0.0
 11
343.2658499704503
 21
333.4258458895512
 31
0.0
  0
LINE
  5
8330
330
A
100
AcDbEntity
  8
モデル
100
AcDbLine
 10
343.2658499704503
 20
333.4258458895512
 30
0.0
 11
343.2024601717039
 21
332.7912588825346
 31
0.0
  0
LINE
  5
8331
330
A
100
AcDbEntity
  8
モデル
100
AcDbLine
 10
343.2024601717039
 20
332.7912588825346
 30
0.0
 11
343.0749915546592
 21
332.3468412717576
 31
0.0
  0
LINE
  5
8332
330
A
100
AcDbEntity
  8
モデル
100
AcDbLine
 10
343.0749915546592
 20
332.3468412717576
 30
0.0
 11
343.0116017559127
 21
332.1559828559665
 31
0.0
  0
LINE
  5
8333
330
A
100
AcDbEntity
  8
モデル
100
AcDbLine
 10
344.980130614812
 20
348.4120211366845
 30
0.0
 11
353.9971572316131
 21
348.4120211366845
 31
0.0
  0
LINE
  5
8334
330
A
100
AcDbEntity
  8
モデル
100
AcDbLine
 10
344.980130614812
 20
349.7459629885673
 30
0.0
 11
353.9971572316131
 21
349.7459629885673
 31
0.0
  0
LINE
  5
8335
330
A
100
AcDbEntity
  8
モデル
100
AcDbLine
 10
345.2343788293496
 20
347.2055479018463
 30
0.0
 11
345.2343788293496
 21
348.4120211366845
 31
0.0
  0
LINE
  5
8336
330
A
100
AcDbEntity
  8
モデル
100
AcDbLine
 10
353.7432535268513
 20
347.2055479018463
 30
0.0
 11
353.7432535268513
 21
348.4120211366845
 31
0.0
  0
LINE
  5
8337
330
A
100
AcDbEntity
  8
モデル
100
AcDbLine
 10
344.980130614812
 20
348.4120211366845
 30
0.0
 11
344.980130614812
 21
349.7459629885673
 31
0.0
  0
LINE
  5
8338
330
A
100
AcDbEntity
  8
モデル
100
AcDbLine
 10
353.9971572316131
 20
348.4120211366845
 30
0.0
 11
353.9971572316131
 21
349.7459629885673
 31
0.0
  0
LINE
  5
8339
330
A
100
AcDbEntity
  8
モデル
100
AcDbLine
 10
356.0292481441468
 20
317.5508354208638
 30
0.0
 11
349.4887300506566
 21
309.7407988035646
 31
0.0
  0
LINE
  5
833A
330
A
100
AcDbEntity
  8
モデル
100
AcDbLine
 10
349.4887300506566
 20
309.7407988035646
 30
0.0
 11
343.0116017559127
 21
317.5508354208638
 31
0.0
  0
LINE
  5
833B
330
A
100
AcDbEntity
  8
モデル
100
AcDbLine
 10
343.0116017559127
 20
336.2838989895562
 30
0.0
 11
343.0116017559127
 21
339.7124602782797
 31
0.0
  0
LINE
  5
833C
330
A
100
AcDbEntity
  8
モデル
100
AcDbLine
 10
343.0116017559127
 20
339.7124602782797
 30
0.0
 11
356.0292481441468
 21
339.7124602782797
 31
0.0
  0
LINE
  5
833D
330
A
100
AcDbEntity
  8
モデル
100
AcDbLine
 10
356.0292481441468
 20
339.7124602782797
 30
0.0
 11
356.0292481441468
 21
317.5508354208638
 31
0.0
  0
LINE
  5
833E
330
A
100
AcDbEntity
  8
モデル
100
AcDbLine
 10
343.0116017559127
 20
332.1559828559665
 30
0.0
 11
343.0116017559127
 21
317.5508354208638
 31
0.0
  0
LINE
  5
833F
330
A
100
AcDbEntity
  8
モデル
100
AcDbLine
 10
343.0116017559127
 20
317.5508354208638
 30
0.0
 11
324.5331309115336
 21
317.5508354208638
 31
0.0
  0
LINE
  5
8340
330
A
100
AcDbEntity
  8
モデル
100
AcDbLine
 10
324.5331309115336
 20
317.5508354208638
 30
0.0
 11
324.5331309115336
 21
309.7407988035646
 31
0.0
  0
LINE
  5
8341
102
{ACAD_REACTORS
330
83F9
102
}
330
A
100
AcDbEntity
  8
モデル
100
AcDbLine
 10
324.5331309115336
 20
309.7407988035646
 30
0.0
 11
349.4887300506566
 21
309.7407988035646
 31
0.0
  0
LINE
  5
8342
330
A
100
AcDbEntity
  8
モデル
100
AcDbLine
 10
349.4887300506566
 20
309.7407988035646
 30
0.0
 11
374.5077189885259
 21
309.7407988035646
 31
0.0
  0
LINE
  5
8343
102
{ACAD_REACTORS
330
83DA
102
}
330
A
100
AcDbEntity
  8
モデル
100
AcDbLine
 10
374.5077189885259
 20
309.7407988035646
 30
0.0
 11
374.5077189885259
 21
317.5508354208638
 31
0.0
  0
LINE
  5
8344
330
A
100
AcDbEntity
  8
モデル
100
AcDbLine
 10
374.5077189885259
 20
317.5508354208638
 30
0.0
 11
356.0292481441468
 21
317.5508354208638
 31
0.0
  0
LINE
  5
8345
330
A
100
AcDbEntity
  8
モデル
100
AcDbLine
 10
323.1361437706802
 20
340.9189335131178
 30
0.0
 11
323.3266576766954
 21
340.7287641168783
 31
0.0
  0
LINE
  5
8346
102
{ACAD_REACTORS
330
83E9
330
83F9
102
}
330
A
100
AcDbEntity
  8
モデル
100
AcDbLine
 10
323.3266576766954
 20
340.7287641168783
 30
0.0
 11
375.6508024246176
 21
340.7287641168783
 31
0.0
  0
LINE
  5
8347
330
A
100
AcDbEntity
  8
モデル
100
AcDbLine
 10
375.6508024246176
 20
340.7287641168783
 30
0.0
 11
375.8413163306329
 21
340.9189335131178
 31
0.0
  0
LINE
  5
8348
330
A
100
AcDbEntity
  8
モデル
100
AcDbLine
 10
323.1995335694267
 20
347.2055479018463
 30
0.0
 11
375.9682681830137
 21
347.2055479018463
 31
0.0
  0
LINE
  5
8349
330
A
100
AcDbEntity
  8
モデル
100
AcDbLine
 10
323.1361437706802
 20
340.9189335131178
 30
0.0
 11
323.0727539719337
 21
345.2370190429471
 31
0.0
  0
LINE
  5
834A
102
{ACAD_REACTORS
330
83DA
102
}
330
A
100
AcDbEntity
  8
モデル
100
AcDbLine
 10
375.8413163306329
 20
340.9189335131178
 30
0.0
 11
375.9682681830137
 21
347.2055479018463
 31
0.0
  0
LINE
  5
834B
102
{ACAD_REACTORS
330
83E9
102
}
330
A
100
AcDbEntity
  8
モデル
100
AcDbLine
 10
323.1995335694267
 20
347.2055479018463
 30
0.0
 11
323.263267877949
 21
345.2370190429471
 31
0.0
  0
LINE
  5
834C
330
A
100
AcDbEntity
  8
モデル
100
AcDbLine
 10
323.263267877949
 20
345.2370190429471
 30
0.0
 11
323.0727539719337
 21
345.2370190429471
 31
0.0
  0
LINE
  5
834D
330
A
100
AcDbEntity
  8
モデル
100
AcDbLine
 10
344.0279055945114
 20
339.7124602782797
 30
0.0
 11
344.0279055945114
 21
340.7287641168783
 31
0.0
  0
LINE
  5
834E
330
A
100
AcDbEntity
  8
モデル
100
AcDbLine
 10
355.0132888153239
 20
339.7124602782797
 30
0.0
 11
355.0132888153239
 21
340.7287641168783
 31
0.0
  0
LINE
  5
834F
330
A
100
AcDbEntity
  8
モデル
100
AcDbLine
 10
246.569370803226
 20
319.7102226955541
 30
0.0
 11
230.6943603345386
 21
319.7102226955541
 31
0.0
  0
LINE
  5
8350
330
A
100
AcDbEntity
  8
モデル
100
AcDbLine
 10
230.6943603345386
 20
321.7421413531999
 30
0.0
 11
246.569370803226
 21
321.7421413531999
 31
0.0
  0
SPLINE
  5
8351
330
A
100
AcDbEntity
  8
モデル
100
AcDbSpline
210
0.0
220
0.0
230
1.0
 70
     8
 71
     3
 72
     8
 73
     4
 74
     0
 42
0.000000001
 43
0.0000000001
 40
0.0
 40
0.0
 40
0.0
 40
0.0
 40
1.0
 40
1.0
 40
1.0
 40
1.0
 10
246.5066700240311
 20
321.7538546855769
 30
0.0
 10
246.005063790472
 20
325.7384547524355
 30
0.0
 10
242.6164656357408
 20
328.7270770574672
 30
0.0
 10
238.6005151792848
 20
328.7272493123551
 30
0.0
  0
SPLINE
  5
8352
330
A
100
AcDbEntity
  8
モデル
100
AcDbSpline
210
0.0
220
0.0
230
1.0
 70
     8
 71
     3
 72
     8
 73
     4
 74
     0
 42
0.000000001
 43
0.0000000001
 40
1.0
 40
1.0
 40
1.0
 40
1.0
 40
2.0
 40
2.0
 40
2.0
 40
2.0
 10
238.6005151792848
 20
328.7272493123551
 30
0.0
 10
234.5842202130531
 20
328.727421567243
 30
0.0
 10
231.195622058322
 20
325.7391437719871
 30
0.0
 10
230.6933268052112
 20
321.7547159600165
 30
0.0
  0
LINE
  5
8353
330
A
100
AcDbEntity
  8
モデル
100
AcDbLine
 10
241.6163537566045
 20
294.5007198516694
 30
0.0
 11
241.6163537566045
 21
294.4369855431471
 31
0.0
  0
LINE
  5
8354
330
A
100
AcDbEntity
  8
モデル
100
AcDbLine
 10
235.5836430726378
 20
294.4369855431471
 30
0.0
 11
235.5836430726378
 21
294.5007198516694
 31
0.0
  0
SPLINE
  5
8355
330
A
100
AcDbEntity
  8
モデル
100
AcDbSpline
210
0.0
220
0.0
230
1.0
 70
     8
 71
     3
 72
     8
 73
     4
 74
     0
 42
0.000000001
 43
0.0000000001
 40
0.0
 40
0.0
 40
0.0
 40
0.0
 40
1.0
 40
1.0
 40
1.0
 40
1.0
 10
241.5956831700568
 20
294.4803937748974
 30
0.0
 10
255.5280030130296
 20
296.0689283510936
 30
0.0
 10
265.7992174686166
 20
308.2549281405556
 30
0.0
 10
265.0054669451822
 20
322.2551164093604
 30
0.0
  0
SPLINE
  5
8356
330
A
100
AcDbEntity
  8
モデル
100
AcDbSpline
210
0.0
220
0.0
230
1.0
 70
     8
 71
     3
 72
     8
 73
     4
 74
     0
 42
0.000000001
 43
0.0000000001
 40
1.0
 40
1.0
 40
1.0
 40
1.0
 40
2.0
 40
2.0
 40
2.0
 40
2.0
 10
265.0054669451822
 20
322.2551164093604
 30
0.0
 10
264.211371911972
 20
336.2551324232772
 30
0.0
 10
252.6289532497049
 20
347.2022750589763
 30
0.0
 10
238.6063718454734
 20
347.2055479018463
 30
0.0
  0
SPLINE
  5
8357
330
A
100
AcDbEntity
  8
モデル
100
AcDbSpline
210
0.0
220
0.0
230
1.0
 70
     8
 71
     3
 72
     8
 73
     4
 74
     0
 42
0.000000001
 43
0.0000000001
 40
2.0
 40
2.0
 40
2.0
 40
2.0
 40
3.0
 40
3.0
 40
3.0
 40
3.0
 10
238.6063718454734
 20
347.2055479018463
 30
0.0
 10
224.583790441242
 20
347.2089929996043
 30
0.0
 10
212.995859622562
 20
336.267362520318
 30
0.0
 10
212.1955634133875
 20
322.267691016177
 30
0.0
  0
SPLINE
  5
8358
330
A
100
AcDbEntity
  8
モデル
100
AcDbSpline
210
0.0
220
0.0
230
1.0
 70
     8
 71
     3
 72
     8
 73
     4
 74
     0
 42
0.000000001
 43
0.0000000001
 40
3.0
 40
3.0
 40
3.0
 40
3.0
 40
4.0
 40
4.0
 40
4.0
 40
4.0
 10
212.1955634133875
 20
322.267691016177
 30
0.0
 10
211.3949226944372
 20
308.2680195120359
 30
0.0
 10
221.6599359740599
 20
296.0768520759369
 30
0.0
 10
235.5915667974811
 20
294.4817718140006
 30
0.0
  0
LINE
  5
8372
330
A
100
AcDbEntity
  8
モデル
100
AcDbLine
 10
341.5298009181093
 20
168.4191864678819
 30
0.0
 11
341.6572695351538
 21
168.4825762666284
 31
0.0
  0
LINE
  5
8373
330
A
100
AcDbEntity
  8
モデル
100
AcDbLine
 10
341.6572695351538
 20
168.4825762666284
 30
0.0
 11
342.1016871459308
 21
168.610044883673
 31
0.0
  0
LINE
  5
8374
330
A
100
AcDbEntity
  8
モデル
100
AcDbLine
 10
342.1016871459308
 20
168.610044883673
 30
0.0
 11
342.8003529712456
 21
168.6734346824195
 31
0.0
  0
LINE
  5
8375
330
A
100
AcDbEntity
  8
モデル
100
AcDbLine
 10
342.8003529712456
 20
168.6734346824195
 30
0.0
 11
343.5624085953066
 21
168.736824481166
 31
0.0
  0
LINE
  5
8376
330
A
100
AcDbEntity
  8
モデル
100
AcDbLine
 10
343.5624085953066
 20
168.736824481166
 30
0.0
 11
344.3878540181143
 21
168.6734346824195
 31
0.0
  0
LINE
  5
8377
330
A
100
AcDbEntity
  8
モデル
100
AcDbLine
 10
344.3878540181143
 20
168.6734346824195
 30
0.0
 11
345.0224410251308
 21
168.610044883673
 31
0.0
  0
LINE
  5
8378
330
A
100
AcDbEntity
  8
モデル
100
AcDbLine
 10
345.0224410251308
 20
168.610044883673
 30
0.0
 11
345.4668586359078
 21
168.4825762666284
 31
0.0
  0
LINE
  5
8379
330
A
100
AcDbEntity
  8
モデル
100
AcDbLine
 10
345.4668586359078
 20
168.4825762666284
 30
0.0
 11
345.657717051699
 21
168.4191864678819
 31
0.0
  0
LINE
  5
837A
330
A
100
AcDbEntity
  8
モデル
100
AcDbLine
 10
329.4016787709809
 20
170.3877153267812
 30
0.0
 11
329.4016787709809
 21
179.4047419435823
 31
0.0
  0
LINE
  5
837B
330
A
100
AcDbEntity
  8
モデル
100
AcDbLine
 10
328.0677369190982
 20
170.3877153267812
 30
0.0
 11
328.0677369190982
 21
179.4047419435823
 31
0.0
  0
LINE
  5
837C
330
A
100
AcDbEntity
  8
モデル
100
AcDbLine
 10
330.6081520058191
 20
170.6419635413188
 30
0.0
 11
329.4016787709809
 21
170.6419635413188
 31
0.0
  0
LINE
  5
837D
330
A
100
AcDbEntity
  8
モデル
100
AcDbLine
 10
330.6081520058191
 20
179.1508382388205
 30
0.0
 11
329.4016787709809
 21
179.1508382388205
 31
0.0
  0
LINE
  5
837E
330
A
100
AcDbEntity
  8
モデル
100
AcDbLine
 10
329.4016787709809
 20
170.3877153267812
 30
0.0
 11
328.0677369190982
 21
170.3877153267812
 31
0.0
  0
LINE
  5
837F
330
A
100
AcDbEntity
  8
モデル
100
AcDbLine
 10
329.4016787709809
 20
179.4047419435823
 30
0.0
 11
328.0677369190982
 21
179.4047419435823
 31
0.0
  0
LINE
  5
8380
330
A
100
AcDbEntity
  8
モデル
100
AcDbLine
 10
360.2628644868017
 20
181.436832856116
 30
0.0
 11
368.0729011041008
 21
174.8963147626257
 31
0.0
  0
LINE
  5
8381
330
A
100
AcDbEntity
  8
モデル
100
AcDbLine
 10
368.0729011041008
 20
174.8963147626257
 30
0.0
 11
360.2628644868017
 21
168.4191864678819
 31
0.0
  0
LINE
  5
8382
330
A
100
AcDbEntity
  8
モデル
100
AcDbLine
 10
341.5298009181093
 20
168.4191864678819
 30
0.0
 11
338.1012396293858
 21
168.4191864678819
 31
0.0
  0
LINE
  5
8383
330
A
100
AcDbEntity
  8
モデル
100
AcDbLine
 10
338.1012396293858
 20
168.4191864678819
 30
0.0
 11
338.1012396293858
 21
181.436832856116
 31
0.0
  0
LINE
  5
8384
330
A
100
AcDbEntity
  8
モデル
100
AcDbLine
 10
338.1012396293858
 20
181.436832856116
 30
0.0
 11
360.2628644868017
 21
181.436832856116
 31
0.0
  0
LINE
  5
8385
330
A
100
AcDbEntity
  8
モデル
100
AcDbLine
 10
345.657717051699
 20
168.4191864678819
 30
0.0
 11
360.2628644868017
 21
168.4191864678819
 31
0.0
  0
LINE
  5
8386
330
A
100
AcDbEntity
  8
モデル
100
AcDbLine
 10
360.2628644868017
 20
168.4191864678819
 30
0.0
 11
360.2628644868017
 21
149.9407156235028
 31
0.0
  0
LINE
  5
8387
102
{ACAD_REACTORS
330
8496
102
}
330
A
100
AcDbEntity
  8
モデル
100
AcDbLine
 10
360.2628644868017
 20
149.9407156235028
 30
0.0
 11
368.0729011041008
 21
149.9407156235028
 31
0.0
  0
LINE
  5
8388
102
{ACAD_REACTORS
330
8487
330
8496
102
}
330
A
100
AcDbEntity
  8
モデル
100
AcDbLine
 10
368.0729011041008
 20
149.9407156235028
 30
0.0
 11
368.0729011041008
 21
174.8963147626257
 31
0.0
  0
LINE
  5
8389
330
A
100
AcDbEntity
  8
モデル
100
AcDbLine
 10
368.0729011041008
 20
174.8963147626257
 30
0.0
 11
368.0729011041008
 21
199.915303700495
 31
0.0
  0
LINE
  5
838A
102
{ACAD_REACTORS
330
8487
102
}
330
A
100
AcDbEntity
  8
モデル
100
AcDbLine
 10
368.0729011041008
 20
199.915303700495
 30
0.0
 11
360.2628644868017
 21
199.915303700495
 31
0.0
  0
LINE
  5
838B
330
A
100
AcDbEntity
  8
モデル
100
AcDbLine
 10
360.2628644868017
 20
199.915303700495
 30
0.0
 11
360.2628644868017
 21
181.436832856116
 31
0.0
  0
LINE
  5
838C
330
A
100
AcDbEntity
  8
モデル
100
AcDbLine
 10
336.8947663945476
 20
148.5437284826493
 30
0.0
 11
337.0849357907871
 21
148.7342423886646
 31
0.0
  0
LINE
  5
838D
330
A
100
AcDbEntity
  8
モデル
100
AcDbLine
 10
337.0849357907871
 20
148.7342423886646
 30
0.0
 11
337.0849357907871
 21
201.0583871365868
 31
0.0
  0
LINE
  5
838E
330
A
100
AcDbEntity
  8
モデル
100
AcDbLine
 10
337.0849357907871
 20
201.0583871365868
 30
0.0
 11
336.8947663945476
 21
201.248901042602
 31
0.0
  0
LINE
  5
838F
330
A
100
AcDbEntity
  8
モデル
100
AcDbLine
 10
330.6081520058191
 20
148.6071182813959
 30
0.0
 11
330.6081520058191
 21
201.3758528949829
 31
0.0
  0
LINE
  5
8390
330
A
100
AcDbEntity
  8
モデル
100
AcDbLine
 10
336.8947663945476
 20
148.5437284826493
 30
0.0
 11
332.5766808647184
 21
148.4803386839029
 31
0.0
  0
LINE
  5
8391
330
A
100
AcDbEntity
  8
モデル
100
AcDbLine
 10
336.8947663945476
 20
201.248901042602
 30
0.0
 11
330.6081520058191
 21
201.3758528949829
 31
0.0
  0
LINE
  5
8392
330
A
100
AcDbEntity
  8
モデル
100
AcDbLine
 10
330.6081520058191
 20
148.6071182813959
 30
0.0
 11
332.5766808647184
 21
148.6708525899181
 31
0.0
  0
LINE
  5
8393
330
A
100
AcDbEntity
  8
モデル
100
AcDbLine
 10
332.5766808647184
 20
148.6708525899181
 30
0.0
 11
332.5766808647184
 21
148.4803386839029
 31
0.0
  0
LINE
  5
8394
330
A
100
AcDbEntity
  8
モデル
100
AcDbLine
 10
338.1012396293858
 20
169.4354903064806
 30
0.0
 11
337.0849357907871
 21
169.4354903064806
 31
0.0
  0
LINE
  5
8395
330
A
100
AcDbEntity
  8
モデル
100
AcDbLine
 10
338.1012396293858
 20
180.4208735272931
 30
0.0
 11
337.0849357907871
 21
180.4208735272931
 31
0.0
  0
LINE
  5
8396
330
A
100
AcDbEntity
  8
モデル
100
AcDbLine
 10
119.2579587034481
 20
182.9404686951666
 30
0.0
 11
118.2423438844009
 21
182.9404686951666
 31
0.0
  0
LINE
  5
8397
330
A
100
AcDbEntity
  8
モデル
100
AcDbLine
 10
118.2423438844009
 20
182.9404686951666
 30
0.0
 11
118.2423438844009
 21
166.9385063740983
 31
0.0
  0
LINE
  5
8398
330
A
100
AcDbEntity
  8
モデル
100
AcDbLine
 10
118.2423438844009
 20
166.9385063740983
 30
0.0
 11
119.2579587034481
 21
166.9385063740983
 31
0.0
  0
LINE
  5
8399
330
A
100
AcDbEntity
  8
モデル
100
AcDbLine
 10
128.2751575751369
 20
181.3533121580737
 30
0.0
 11
128.2751575751369
 21
168.526007420967
 31
0.0
  0
LINE
  5
839A
330
A
100
AcDbEntity
  8
モデル
100
AcDbLine
 10
111.7648710798814
 20
175.9555329908993
 30
0.0
 11
111.7648710798814
 21
182.9404686951666
 31
0.0
  0
LINE
  5
839B
330
A
100
AcDbEntity
  8
モデル
100
AcDbLine
 10
111.7648710798814
 20
173.9236143332535
 30
0.0
 11
111.7648710798814
 21
166.9385063740983
 31
0.0
  0
LINE
  5
839C
330
A
100
AcDbEntity
  8
モデル
100
AcDbLine
 10
118.2423438844009
 20
182.9404686951666
 30
0.0
 11
118.2423438844009
 21
166.9385063740983
 31
0.0
  0
LINE
  5
839D
330
A
100
AcDbEntity
  8
モデル
100
AcDbLine
 10
126.9419047428059
 20
181.3533121580737
 30
0.0
 11
126.9419047428059
 21
168.526007420967
 31
0.0
  0
LINE
  5
839E
330
A
100
AcDbEntity
  8
モデル
100
AcDbLine
 10
118.2423438844009
 20
166.9385063740983
 30
0.0
 11
111.7648710798814
 21
166.9385063740983
 31
0.0
  0
LINE
  5
839F
330
A
100
AcDbEntity
  8
モデル
100
AcDbLine
 10
118.2423438844009
 20
182.9404686951666
 30
0.0
 11
111.7648710798814
 21
182.9404686951666
 31
0.0
  0
LINE
  5
83A0
330
A
100
AcDbEntity
  8
モデル
100
AcDbLine
 10
128.2751575751369
 20
168.526007420967
 30
0.0
 11
126.9419047428059
 21
168.526007420967
 31
0.0
  0
LINE
  5
83A1
330
A
100
AcDbEntity
  8
モデル
100
AcDbLine
 10
128.2751575751369
 20
181.3533121580737
 30
0.0
 11
126.9419047428059
 21
181.3533121580737
 31
0.0
  0
LINE
  5
83A2
330
A
100
AcDbEntity
  8
モデル
100
AcDbLine
 10
126.9419047428059
 20
168.7800833806167
 30
0.0
 11
125.734742488416
 21
168.7800833806167
 31
0.0
  0
LINE
  5
83A3
330
A
100
AcDbEntity
  8
モデル
100
AcDbLine
 10
126.9419047428059
 20
181.0990639435361
 30
0.0
 11
125.734742488416
 21
181.0990639435361
 31
0.0
  0
LINE
  5
83A4
330
A
100
AcDbEntity
  8
モデル
100
AcDbLine
 10
111.7648710798814
 20
175.9555329908993
 30
0.0
 11
113.7333999387808
 21
175.9555329908993
 31
0.0
  0
LINE
  5
83A5
330
A
100
AcDbEntity
  8
モデル
100
AcDbLine
 10
113.7333999387808
 20
175.9555329908993
 30
0.0
 11
113.7333999387808
 21
173.9236143332535
 31
0.0
  0
LINE
  5
83A6
330
A
100
AcDbEntity
  8
モデル
100
AcDbLine
 10
113.7333999387808
 20
173.9236143332535
 30
0.0
 11
111.7648710798814
 21
173.9236143332535
 31
0.0
  0
LINE
  5
83A7
330
A
100
AcDbEntity
  8
モデル
100
AcDbLine
 10
119.4488171192393
 20
201.2921599420528
 30
0.0
 11
119.2579587034481
 21
201.1016460360375
 31
0.0
  0
LINE
  5
83A8
330
A
100
AcDbEntity
  8
モデル
100
AcDbLine
 10
119.2579587034481
 20
201.1016460360375
 30
0.0
 11
119.2579587034481
 21
148.7775012881153
 31
0.0
  0
LINE
  5
83A9
330
A
100
AcDbEntity
  8
モデル
100
AcDbLine
 10
119.2579587034481
 20
148.7775012881153
 30
0.0
 11
119.4488171192392
 21
148.5869873821001
 31
0.0
  0
LINE
  5
83AA
330
A
100
AcDbEntity
  8
モデル
100
AcDbLine
 10
125.734742488416
 20
201.2287701433062
 30
0.0
 11
125.734742488416
 21
148.4600355297192
 31
0.0
  0
LINE
  5
83AB
330
A
100
AcDbEntity
  8
モデル
100
AcDbLine
 10
119.4488171192393
 20
201.2921599420528
 30
0.0
 11
123.7669026490685
 21
201.3555497407992
 31
0.0
  0
LINE
  5
83AC
330
A
100
AcDbEntity
  8
モデル
100
AcDbLine
 10
119.4488171192392
 20
148.5869873821001
 30
0.0
 11
125.734742488416
 21
148.4600355297192
 31
0.0
  0
LINE
  5
83AD
330
A
100
AcDbEntity
  8
モデル
100
AcDbLine
 10
125.734742488416
 20
201.2287701433062
 30
0.0
 11
123.7669026490685
 21
201.165035834784
 31
0.0
  0
LINE
  5
83AE
330
A
100
AcDbEntity
  8
モデル
100
AcDbLine
 10
123.7669026490685
 20
201.165035834784
 30
0.0
 11
123.7669026490685
 21
201.3555497407992
 31
0.0
  0
LINE
  5
83AF
330
A
100
AcDbEntity
  8
モデル
100
AcDbLine
 10
109.994435195571
 20
340.7287641168785
 30
0.0
 11
109.994435195571
 21
339.7131492978313
 31
0.0
  0
LINE
  5
83B0
330
A
100
AcDbEntity
  8
モデル
100
AcDbLine
 10
109.994435195571
 20
339.7131492978313
 30
0.0
 11
125.9963975166394
 21
339.7131492978313
 31
0.0
  0
LINE
  5
83B1
330
A
100
AcDbEntity
  8
モデル
100
AcDbLine
 10
125.9963975166394
 20
339.7131492978313
 30
0.0
 11
125.9963975166394
 21
340.7287641168785
 31
0.0
  0
LINE
  5
83B2
330
A
100
AcDbEntity
  8
モデル
100
AcDbLine
 10
111.581591732664
 20
349.7459629885673
 30
0.0
 11
124.4088964697707
 21
349.7459629885673
 31
0.0
  0
LINE
  5
83B3
330
A
100
AcDbEntity
  8
モデル
100
AcDbLine
 10
116.9793708998384
 20
333.2356764933118
 30
0.0
 11
109.9944351955711
 21
333.2356764933118
 31
0.0
  0
LINE
  5
83B4
330
A
100
AcDbEntity
  8
モデル
100
AcDbLine
 10
119.0112895574842
 20
333.2356764933118
 30
0.0
 11
125.9963975166395
 21
333.2356764933118
 31
0.0
  0
LINE
  5
83B5
330
A
100
AcDbEntity
  8
モデル
100
AcDbLine
 10
109.994435195571
 20
339.7131492978313
 30
0.0
 11
125.9963975166394
 21
339.7131492978313
 31
0.0
  0
LINE
  5
83B6
330
A
100
AcDbEntity
  8
モデル
100
AcDbLine
 10
111.581591732664
 20
348.4127101562363
 30
0.0
 11
124.4088964697707
 21
348.4127101562363
 31
0.0
  0
LINE
  5
83B7
330
A
100
AcDbEntity
  8
モデル
100
AcDbLine
 10
125.9963975166394
 20
339.7131492978313
 30
0.0
 11
125.9963975166395
 21
333.2356764933118
 31
0.0
  0
LINE
  5
83B8
102
{ACAD_REACTORS
330
8477
102
}
330
A
100
AcDbEntity
  8
モデル
100
AcDbLine
 10
109.994435195571
 20
339.7131492978313
 30
0.0
 11
109.9944351955711
 21
333.2356764933118
 31
0.0
  0
LINE
  5
83B9
330
A
100
AcDbEntity
  8
モデル
100
AcDbLine
 10
124.4088964697707
 20
349.7459629885673
 30
0.0
 11
124.4088964697707
 21
348.4127101562363
 31
0.0
  0
LINE
  5
83BA
330
A
100
AcDbEntity
  8
モデル
100
AcDbLine
 10
111.581591732664
 20
349.7459629885673
 30
0.0
 11
111.581591732664
 21
348.4127101562363
 31
0.0
  0
LINE
  5
83BB
330
A
100
AcDbEntity
  8
モデル
100
AcDbLine
 10
124.154820510121
 20
348.4127101562363
 30
0.0
 11
124.154820510121
 21
347.2055479018464
 31
0.0
  0
LINE
  5
83BC
330
A
100
AcDbEntity
  8
モデル
100
AcDbLine
 10
111.8358399472015
 20
348.4127101562363
 30
0.0
 11
111.8358399472015
 21
347.2055479018464
 31
0.0
  0
LINE
  5
83BD
330
A
100
AcDbEntity
  8
モデル
100
AcDbLine
 10
116.9793708998384
 20
333.2356764933118
 30
0.0
 11
116.9793708998384
 21
335.2042053522112
 31
0.0
  0
LINE
  5
83BE
330
A
100
AcDbEntity
  8
モデル
100
AcDbLine
 10
116.9793708998384
 20
335.2042053522112
 30
0.0
 11
119.0112895574842
 21
335.2042053522112
 31
0.0
  0
LINE
  5
83BF
330
A
100
AcDbEntity
  8
モデル
100
AcDbLine
 10
119.0112895574842
 20
335.2042053522112
 30
0.0
 11
119.0112895574842
 21
333.2356764933118
 31
0.0
  0
LINE
  5
83C0
330
A
100
AcDbEntity
  8
モデル
100
AcDbLine
 10
91.64274394868491
 20
340.9196225326696
 30
0.0
 11
91.83325785470018
 21
340.7287641168784
 31
0.0
  0
LINE
  5
83C1
102
{ACAD_REACTORS
330
8467
330
8477
102
}
330
A
100
AcDbEntity
  8
モデル
100
AcDbLine
 10
91.83325785470018
 20
340.7287641168784
 30
0.0
 11
144.1574026026223
 21
340.7287641168786
 31
0.0
  0
LINE
  5
83C2
330
A
100
AcDbEntity
  8
モデル
100
AcDbLine
 10
144.1574026026223
 20
340.7287641168786
 30
0.0
 11
144.3479165086376
 21
340.9196225326697
 31
0.0
  0
LINE
  5
83C3
330
A
100
AcDbEntity
  8
モデル
100
AcDbLine
 10
91.70613374743144
 20
347.2055479018463
 30
0.0
 11
144.4748683610185
 21
347.2055479018464
 31
0.0
  0
LINE
  5
83C4
330
A
100
AcDbEntity
  8
モデル
100
AcDbLine
 10
91.64274394868491
 20
340.9196225326696
 30
0.0
 11
91.57935414993844
 21
345.2377080624988
 31
0.0
  0
LINE
  5
83C5
102
{ACAD_REACTORS
330
8455
102
}
330
A
100
AcDbEntity
  8
モデル
100
AcDbLine
 10
144.3479165086376
 20
340.9196225326697
 30
0.0
 11
144.4748683610185
 21
347.2055479018464
 31
0.0
  0
LINE
  5
83C6
102
{ACAD_REACTORS
330
8467
102
}
330
A
100
AcDbEntity
  8
モデル
100
AcDbLine
 10
91.70613374743144
 20
347.2055479018463
 30
0.0
 11
91.76986805595371
 21
345.2377080624988
 31
0.0
  0
LINE
  5
83C7
330
A
100
AcDbEntity
  8
モデル
100
AcDbLine
 10
91.76986805595371
 20
345.2377080624988
 30
0.0
 11
91.57935414993844
 21
345.2377080624988
 31
0.0
  0
SPLINE
  5
83C8
330
A
100
AcDbEntity
  8
CutoutUnderlay
100
AcDbSpline
210
0.0
220
0.0
230
1.0
 70
     8
 71
     3
 72
     8
 73
     4
 74
     0
 42
0.000000001
 43
0.0000000001
 40
0.0
 40
0.0
 40
0.0
 40
0.0
 40
1.0
 40
1.0
 40
1.0
 40
1.0
 10
460.1696468592756
 20
148.5882563711709
 30
0.0
 10
462.1645307160234
 20
148.3601908995939
 30
0.0
 10
464.1788793751036
 20
148.3598463898181
 30
0.0
 10
466.1737632318514
 20
148.5875673516193
 30
0.0
  0
LINE
  5
83C9
330
A
100
AcDbEntity
  8
CutoutUnderlay
100
AcDbLine
 10
469.6843178472143
 20
174.8330110913231
 30
0.0
 11
469.6843178472143
 21
149.8774119522002
 31
0.0
  0
LINE
  5
83CA
330
A
100
AcDbEntity
  8
CutoutUnderlay
100
AcDbLine
 10
456.6666714589802
 20
149.8774119522002
 30
0.0
 11
456.6666714589802
 21
174.8330110913231
 31
0.0
  0
LINE
  5
83CB
330
A
100
AcDbEntity
  8
CutoutUnderlay
100
AcDbLine
 10
456.6666714589802
 20
174.8330110913231
 30
0.0
 11
456.6666714589802
 21
199.8520000291925
 31
0.0
  0
LINE
  5
83CC
330
A
100
AcDbEntity
  8
CutoutUnderlay
100
AcDbLine
 10
456.6666714589802
 20
199.8520000291925
 30
0.0
 11
469.6843178472143
 21
199.8520000291925
 31
0.0
  0
LINE
  5
83CD
330
A
100
AcDbEntity
  8
CutoutUnderlay
100
AcDbLine
 10
469.6843178472143
 20
199.8520000291925
 30
0.0
 11
469.6843178472143
 21
174.8330110913231
 31
0.0
  0
LINE
  5
83CE
330
A
100
AcDbEntity
  8
CutoutUnderlay
100
AcDbLine
 10
469.6843178472143
 20
149.8774119522002
 30
0.0
 11
456.6666714589802
 21
149.8774119522002
 31
0.0
  0
LINE
  5
83CF
330
A
100
AcDbEntity
  8
CutoutUnderlay
100
AcDbLine
 10
466.1916777401927
 20
148.6075489186155
 30
0.0
 11
466.1916777401927
 21
148.5438146100932
 31
0.0
  0
LINE
  5
83D0
330
A
100
AcDbEntity
  8
CutoutUnderlay
100
AcDbLine
 10
460.2227013647483
 20
148.5438146100932
 30
0.0
 11
460.2227013647483
 21
148.6075489186155
 31
0.0
  0
SPLINE
  5
83D1
330
A
100
AcDbEntity
  8
CutoutUnderlay
100
AcDbSpline
210
0.0
220
0.0
230
1.0
 70
     8
 71
     3
 72
     8
 73
     4
 74
     0
 42
0.000000001
 43
0.0000000001
 40
0.0
 40
0.0
 40
0.0
 40
0.0
 40
1.0
 40
1.0
 40
1.0
 40
1.0
 10
466.1711794085328
 20
148.5872228418435
 30
0.0
 10
480.1036715063937
 20
150.1757574180397
 30
0.0
 10
490.3745414522048
 20
162.3617572075018
 30
0.0
 10
489.5807909287704
 20
176.3619454763064
 30
0.0
  0
SPLINE
  5
83D2
330
A
100
AcDbEntity
  8
CutoutUnderlay
100
AcDbSpline
210
0.0
220
0.0
230
1.0
 70
     8
 71
     3
 72
     8
 73
     4
 74
     0
 42
0.000000001
 43
0.0000000001
 40
1.0
 40
1.0
 40
1.0
 40
1.0
 40
2.0
 40
2.0
 40
2.0
 40
2.0
 10
489.5807909287704
 20
176.3619454763064
 30
0.0
 10
488.787040405336
 20
190.3619614902233
 30
0.0
 10
477.2044494881809
 20
201.3091041259224
 30
0.0
 10
463.1818680839496
 20
201.3123769687924
 30
0.0
  0
SPLINE
  5
83D3
330
A
100
AcDbEntity
  8
CutoutUnderlay
100
AcDbSpline
210
0.0
220
0.0
230
1.0
 70
     8
 71
     3
 72
     8
 73
     4
 74
     0
 42
0.000000001
 43
0.0000000001
 40
2.0
 40
2.0
 40
2.0
 40
2.0
 40
3.0
 40
3.0
 40
3.0
 40
3.0
 10
463.1818680839496
 20
201.3123769687924
 30
0.0
 10
449.1592866797181
 20
201.3158220665503
 30
0.0
 10
437.571528115926
 20
190.3741915872641
 30
0.0
 10
436.7708873969757
 20
176.3745200831231
 30
0.0
  0
SPLINE
  5
83D4
330
A
100
AcDbEntity
  8
CutoutUnderlay
100
AcDbSpline
210
0.0
220
0.0
230
1.0
 70
     8
 71
     3
 72
     8
 73
     4
 74
     0
 42
0.000000001
 43
0.0000000001
 40
3.0
 40
3.0
 40
3.0
 40
3.0
 40
4.0
 40
4.0
 40
4.0
 40
4.0
 10
436.7708873969757
 20
176.3745200831231
 30
0.0
 10
435.9704189329133
 20
162.374848578982
 30
0.0
 10
446.2356044674239
 20
150.183681142883
 30
0.0
 10
460.1670630359572
 20
148.5886008809467
 30
0.0
  0
DIMENSION
  5
83D8
102
{ACAD_REACTORS
330
83DA
102
}
102
{ACAD_XDICTIONARY
360
83D9
102
}
330
A
100
AcDbEntity
  8
寸法
  6
Continuous
100
AcDbDimension
  2
*D20
 10
400.1085260201901
 20
309.7407988035646
 30
0.0
 11
395.6075881684957
 21
328.4731733527054
 31
0.0
 70
    32
  1
37.5
 71
     5
 42
37.46474909828169
 73
     0
 74
     0
 75
     0
  3
tfrom線あり
100
AcDbAlignedDimension
 13
375.9682681830137
 23
347.2055479018463
 33
0.0
 14
374.5077189885259
 24
309.7407988035646
 34
0.0
 50
90.0
100
AcDbRotatedDimension
  0
DIMENSION
  5
83E7
102
{ACAD_REACTORS
330
83E9
102
}
102
{ACAD_XDICTIONARY
360
83E8
102
}
330
A
100
AcDbEntity
  8
寸法
  6
Continuous
100
AcDbDimension
  2
*D21
 10
300.9993723627479
 20
340.7287641168783
 30
0.0
 11
300.9993723627479
 21
343.9671560093624
 31
0.0
 70
   160
  1
6.5
 71
     5
 42
6.476783784967949
 73
     0
 74
     0
 75
     0
  3
tfrom線あり
100
AcDbAlignedDimension
 13
323.1995335694267
 23
347.2055479018463
 33
0.0
 14
323.3266576766954
 24
340.7287641168783
 34
0.0
 50
90.0
100
AcDbRotatedDimension
  0
DIMENSION
  5
83F7
102
{ACAD_REACTORS
330
83F9
102
}
102
{ACAD_XDICTIONARY
360
83F8
102
}
330
A
100
AcDbEntity
  8
寸法
  6
Continuous
100
AcDbDimension
  2
*D22
 10
300.9993723627479
 20
309.7407988035646
 30
0.0
 11
300.9993723627479
 21
325.2347814602215
 31
0.0
 70
   160
 71
     5
 42
30.98796531331368
 73
     0
 74
     0
 75
     0
  3
tfrom線あり
100
AcDbAlignedDimension
 13
323.3266576766954
 23
340.7287641168783
 33
0.0
 14
324.5331309115336
 24
309.7407988035646
 34
0.0
 50
90.0
100
AcDbRotatedDimension
  0
DIMENSION
  5
8416
102
{ACAD_REACTORS
330
8418
102
}
102
{ACAD_XDICTIONARY
360
8417
102
}
330
A
100
AcDbEntity
  8
寸法
  6
Continuous
100
AcDbDimension
  2
*D24
 10
470.3720816245874
 20
276.2481094356226
 30
0.0
 11
463.8632584304704
 21
280.749047287317
 31
0.0
 70
    32
 71
     5
 42
13.01764638823408
 73
     0
 74
     0
 75
     0
  3
tfrom線あり
100
AcDbAlignedDimension
 13
457.3544352363533
 23
295.770582885254
 33
0.0
 14
470.3720816245874
 24
295.770582885254
 34
0.0
100
AcDbRotatedDimension
  0
DIMENSION
  5
8444
330
A
100
AcDbEntity
  8
寸法
  6
Continuous
100
AcDbDimension
  2
*D26
 10
246.5692416120601
 20
276.2481094356226
 30
0.0
 11
238.5999984146212
 21
280.749047287317
 31
0.0
 70
    32
 71
     5
 42
15.93848639487786
 73
     0
 74
     0
 75
     0
  3
tfrom線あり
100
AcDbAlignedDimension
 13
230.6307552171823
 23
295.5349994494929
 33
0.0
 14
246.5692416120601
 24
295.5351323885078
 34
0.0
100
AcDbRotatedDimension
  0
DIMENSION
  5
8453
102
{ACAD_REACTORS
330
8455
102
}
102
{ACAD_XDICTIONARY
360
8454
102
}
330
A
100
AcDbEntity
  8
寸法
  6
Continuous
100
AcDbDimension
  2
*D27
 10
158.6810852051131
 20
333.2356764933118
 30
0.0
 11
154.1801473534187
 21
340.2206121975791
 31
0.0
 70
    32
  1
14
 71
     5
 42
13.96987140853457
 73
     0
 74
     0
 75
     0
  3
tfrom線あり
100
AcDbAlignedDimension
 13
144.4748683610185
 23
347.2055479018464
 33
0.0
 14
125.9963975166395
 24
333.2356764933118
 34
0.0
 50
90.0
100
AcDbRotatedDimension
1001
ACAD
1000
DSTYLE
1002
{
1070
   172
1070
     1
1002
}
  0
DIMENSION
  5
8465
102
{ACAD_REACTORS
330
8467
102
}
102
{ACAD_XDICTIONARY
360
8466
102
}
330
A
100
AcDbEntity
  8
寸法
  6
Continuous
100
AcDbDimension
  2
*D28
 10
69.82408597795191
 20
340.7287641168784
 30
0.0
 11
65.32314812625751
 21
343.9671560093623
 31
0.0
 70
    32
  1
6.5
 71
     5
 42
6.476783784967893
 73
     0
 74
     1
 75
     1
  3
tfrom線あり
100
AcDbAlignedDimension
 13
91.70613374743144
 23
347.2055479018463
 33
0.0
 14
92.26602167551512
 24
340.7287641168784
 34
0.0
 50
90.0
100
AcDbRotatedDimension
1001
ACAD
1000
DSTYLE
1002
{
1070
   172
1070
     1
1002
}
  0
DIMENSION
  5
8475
102
{ACAD_REACTORS
330
8477
102
}
102
{ACAD_XDICTIONARY
360
8476
102
}
330
A
100
AcDbEntity
  8
寸法
  6
Continuous
100
AcDbDimension
  2
*D29
 10
69.82408597795191
 20
340.7287641168784
 30
0.0
 11
69.82408597795191
 21
323.7539958630755
 31
0.0
 70
   160
  1
7.5
 71
     5
 42
7.493087623566566
 73
     0
 74
     1
 75
     1
  3
tfrom線あり
100
AcDbAlignedDimension
 13
109.9944351955711
 23
333.2356764933118
 33
0.0
 14
91.83325785470018
 24
340.7287641168784
 34
0.0
 50
90.0
100
AcDbRotatedDimension
1001
ACAD
1000
DSTYLE
1002
{
1070
   172
1070
     1
1002
}
  0
DIMENSION
  5
8485
102
{ACAD_REACTORS
330
8487
102
}
102
{ACAD_XDICTIONARY
360
8486
102
}
330
A
100
AcDbEntity
  8
寸法
  6
Continuous
100
AcDbDimension
  2
*D30
 10
386.4283944278043
 20
149.9407156235028
 30
0.0
 11
381.92745657611
 21
174.9280096619989
 31
0.0
 70
    32
 71
     5
 42
49.97458807699223
 73
     0
 74
     0
 75
     0
  3
tfrom線あり
100
AcDbAlignedDimension
 13
368.0729011041008
 23
199.915303700495
 33
0.0
 14
368.0729011041008
 24
149.9407156235028
 34
0.0
 50
90.0
100
AcDbRotatedDimension
  0
DIMENSION
  5
8494
102
{ACAD_REACTORS
330
8496
102
}
102
{ACAD_XDICTIONARY
360
8495
102
}
330
A
100
AcDbEntity
  8
寸法
  6
Continuous
100
AcDbDimension
  2
*D31
 10
368.0729011041008
 20
131.8985009882012
 30
0.0
 11
377.5809197360878
 21
131.8985009882012
 31
0.0
 70
   160
  1
7.8
 71
     5
 42
7.810036617299147
 73
     0
 74
     1
 75
     1
  3
tfrom線あり
100
AcDbAlignedDimension
 13
360.2628644868017
 23
149.9407156235028
 33
0.0
 14
368.0729011041008
 24
149.9407156235028
 34
0.0
100
AcDbRotatedDimension
1001
ACAD
1000
DSTYLE
1002
{
1070
   172
1070
     1
1002
}
  0
CIRCLE
  5
84B5
102
{ACAD_REACTORS
330
7F58
102
}
330
A
100
AcDbEntity
  8
モデル
  6
HIDDEN
 48
0.2
100
AcDbCircle
 10
257.6318655688823
 20
320.7586305388848
 30
0.0
 40
4.0
  0
CIRCLE
  5
84B6
102
{ACAD_REACTORS
330
7F58
102
}
330
A
100
AcDbEntity
  8
モデル
  6
HIDDEN
 48
0.2
100
AcDbCircle
 10
219.6318655688821
 20
320.7586305388848
 30
0.0
 40
4.0
  0
DIMENSION
  5
84BD
330
A
100
AcDbEntity
  8
寸法
  6
Continuous
100
AcDbDimension
  2
*D32
 10
257.6335583005908
 20
369.8390605432099
 30
0.0
 11
238.6335858919323
 21
369.8390605432099
 31
0.0
 70
   160
 71
     5
 42
37.99994481731687
 73
     0
 74
     0
 75
     0
  3
tfrom線あり
100
AcDbAlignedDimension
 13
219.6336134832739
 23
345.5773495126454
 33
0.0
 14
257.6335583005908
 24
345.5213176874475
 34
0.0
100
AcDbRotatedDimension
  0
DIMENSION
  5
84CE
330
A
100
AcDbEntity
  8
寸法
  6
Continuous
100
AcDbDimension
  2
*D33
 10
197.4761410269052
 20
294.3075001782274
 30
0.0
 11
192.9752031752108
 21
320.7510839826519
 31
0.0
 70
    32
 71
     5
 42
52.88716760884904
 73
     0
 74
     0
 75
     0
  3
tfrom線あり
100
AcDbAlignedDimension
 13
219.6336134832739
 23
347.1946677870764
 33
0.0
 14
219.6336134832739
 24
294.3075001782274
 34
0.0
 50
90.0
100
AcDbRotatedDimension
  0
CIRCLE
  5
84E4
102
{ACAD_REACTORS
330
7F58
102
}
330
A
100
AcDbEntity
  8
モデル
  6
HIDDEN
 48
0.2
100
AcDbCircle
 10
444.8632584304701
 20
320.7586305388848
 30
0.0
 40
4.0
  0
CIRCLE
  5
84E5
102
{ACAD_REACTORS
330
7F58
102
}
330
A
100
AcDbEntity
  8
モデル
  6
HIDDEN
 48
0.2
100
AcDbCircle
 10
482.8632584304703
 20
320.7586305388848
 30
0.0
 40
4.0
  0
DIMENSION
  5
84E6
330
A
100
AcDbEntity
  8
寸法
  6
Continuous
100
AcDbDimension
  2
*D34
 10
482.8632584304703
 20
369.8390605432099
 30
0.0
 11
463.8632860218119
 21
369.8390605432099
 31
0.0
 70
   160
 71
     5
 42
37.99994481731687
 73
     0
 74
     0
 75
     0
  3
tfrom線あり
100
AcDbAlignedDimension
 13
444.8633136131534
 23
345.6771864952223
 33
0.0
 14
482.8632584304703
 24
345.5785944604569
 34
0.0
100
AcDbRotatedDimension
  0
DIMENSION
  5
84F4
330
A
100
AcDbEntity
  8
寸法
  6
Continuous
100
AcDbDimension
  2
*D35
 10
424.6359523244711
 20
294.3075001782274
 30
0.0
 11
420.1350144727767
 21
320.7510839826519
 31
0.0
 70
    32
 71
     5
 42
52.88716760884904
 73
     0
 74
     0
 75
     0
  3
tfrom線あり
100
AcDbAlignedDimension
 13
444.8633136131534
 23
347.1946677870764
 33
0.0
 14
444.8633136131534
 24
294.3075001782274
 34
0.0
 50
90.0
100
AcDbRotatedDimension
  0
VIEWPORT
  5
349
330
B
100
AcDbEntity
 67
     1
  8
0
100
AcDbViewport
 10
202.5
 20
128.5
 30
0.0
 40
486.0
 41
308.4
 68
     1
 69
     1
 12
202.5
 22
128.5
 13
0.0
 23
0.0
 14
0.5
 24
0.5
 15
0.0
 25
0.0
 16
0.0
 26
0.0
 36
1.0
 17
0.0
 27
0.0
 37
0.0
 42
50.0
 43
0.0
 44
0.0
 45
308.4
 50
0.0
 51
0.0
 72
   100
 90
   557152
  1

281
     0
 71
     1
 74
     0
110
0.0
120
0.0
130
0.0
111
1.0
121
0.0
131
0.0
112
0.0
122
1.0
132
0.0
 79
     0
146
0.0
170
     0
 61
     5
348
26C
292
     1
282
     1
141
0.0
142
0.0
 63
   256
361
44F1
  0
VIEWPORT
  5
34A
330
B
100
AcDbEntity
 67
     1
  8
0
100
AcDbViewport
 10
202.5
 20
128.5
 30
0.0
 40
324.0
 41
205.6
 68
     2
 69
     2
 12
986.6781359294573
 22
1427.077061889956
 13
0.0
 23
0.0
 14
0.5
 24
0.5
 15
0.0
 25
0.0
 16
0.0
 26
0.0
 36
1.0
 17
0.0
 27
0.0
 37
0.0
 42
50.0
 43
0.0
 44
0.0
 45
2890.021615685494
 50
0.0
 51
0.0
 72
   100
 90
   557152
  1

281
     0
 71
     1
 74
     0
110
0.0
120
0.0
130
0.0
111
1.0
121
0.0
131
0.0
112
0.0
122
1.0
132
0.0
 79
     0
146
0.0
170
     0
 61
     5
348
26C
292
     1
282
     1
141
0.0
142
0.0
 63
   256
  0
ENDSEC
  0
SECTION
  2
OBJECTS
  0
DICTIONARY
  5
19
330
0
100
AcDbDictionary
281
     1
  3
ACAD_COLOR
350
674
  3
ACAD_DETAILVIEWSTYLE
350
13B5
  3
ACAD_FIELDLIST
350
59E4
  3
ACAD_GROUP
350
1A
  3
ACAD_IMAGE_VARS
350
27B
  3
ACAD_LAYOUT
350
1E
  3
ACAD_MATERIAL
350
263
  3
ACAD_MLEADERSTYLE
350
336
  3
ACAD_MLINESTYLE
350
1B
  3
ACAD_PLOTSETTINGS
350
22
  3
ACAD_PLOTSTYLENAME
350
1F
  3
ACAD_SCALELIST
350
241
  3
ACAD_SECTIONVIEWSTYLE
350
13B6
  3
ACAD_TABLESTYLE
350
278
  3
ACAD_VISUALSTYLE
350
267
  3
ACDB_RECOMPOSE_DATA
350
8511
  3
AcDbVariableDictionary
350
330
  3
APPDATA
350
27A
  0
SUN
  5
F1A
330
15
100
AcDbSun
 90
        1
290
     0
 63
     7
421
 16777215
 40
1.0
291
     1
 91
  2455826
 92
 54000000
292
     0
 70
     2
 71
   256
280
     1
  0
DICTIONARY
  5
2E1
330
2
100
AcDbDictionary
280
     1
281
     1
  3
ACAD_LAYERSTATES
360
2E2
  3
ACLYDICTIONARY
360
5173
  0
DICTIONARY
  5
59FD
330
A
100
AcDbDictionary
280
     1
281
     1
  3
ACAD_SORTENTS
360
59FE
  0
DICTIONARY
  5
59F8
330
59F7
100
AcDbDictionary
280
     1
281
     1
  0
DICTIONARY
  5
7F5D
330
7F5C
100
AcDbDictionary
280
     1
281
     1
  0
DICTIONARY
  5
7F61
330
7F60
100
AcDbDictionary
280
     1
281
     1
  0
DICTIONARY
  5
7F64
330
7F63
100
AcDbDictionary
280
     1
281
     1
  0
DICTIONARY
  5
7F66
330
7F65
100
AcDbDictionary
280
     1
281
     1
  0
DICTIONARY
  5
83D9
330
83D8
100
AcDbDictionary
280
     1
281
     1
  3
ACAD_DIMASSOC
360
83DA
  0
DICTIONARY
  5
83E8
330
83E7
100
AcDbDictionary
280
     1
281
     1
  3
ACAD_DIMASSOC
360
83E9
  0
DICTIONARY
  5
83F8
330
83F7
100
AcDbDictionary
280
     1
281
     1
  3
ACAD_DIMASSOC
360
83F9
  0
DICTIONARY
  5
8417
330
8416
100
AcDbDictionary
280
     1
281
     1
  3
ACAD_DIMASSOC
360
8418
  0
DICTIONARY
  5
8454
330
8453
100
AcDbDictionary
280
     1
281
     1
  3
ACAD_DIMASSOC
360
8455
  0
DICTIONARY
  5
8466
330
8465
100
AcDbDictionary
280
     1
281
     1
  3
ACAD_DIMASSOC
360
8467
  0
DICTIONARY
  5
8476
330
8475
100
AcDbDictionary
280
     1
281
     1
  3
ACAD_DIMASSOC
360
8477
  0
DICTIONARY
  5
8486
330
8485
100
AcDbDictionary
280
     1
281
     1
  3
ACAD_DIMASSOC
360
8487
  0
DICTIONARY
  5
8495
330
8494
100
AcDbDictionary
280
     1
281
     1
  3
ACAD_DIMASSOC
360
8496
  0
SUN
  5
44F1
330
349
100
AcDbSun
 90
        1
290
     0
 63
     7
421
 16777215
 40
1.0
291
     1
 91
  2455826
 92
 54000000
292
     0
 70
     2
 71
   256
280
     1
  0
DICTIONARY
  5
674
102
{ACAD_REACTORS
330
19
102
}
330
19
100
AcDbDictionary
281
     1
  0
DICTIONARY
  5
13B5
102
{ACAD_REACTORS
330
19
102
}
330
19
100
AcDbDictionary
281
     1
  0
FIELDLIST
  5
59E4
102
{ACAD_REACTORS
330
19
102
}
330
19
100
AcDbIdSet
 90
        0
100
AcDbFieldList
  0
DICTIONARY
  5
1A
102
{ACAD_REACTORS
330
19
102
}
330
19
100
AcDbDictionary
281
     1
  0
RASTERVARIABLES
  5
27B
102
{ACAD_REACTORS
330
19
102
}
330
19
100
AcDbRasterVariables
 90
        0
 70
     1
 71
     1
 72
     1
  0
DICTIONARY
  5
1E
102
{ACAD_REACTORS
330
19
102
}
330
19
100
AcDbDictionary
281
     1
  3
Layout1
350
21
  3
Model
350
20
  0
DICTIONARY
  5
263
102
{ACAD_REACTORS
330
19
102
}
330
19
100
AcDbDictionary
281
     1
  3
ByBlock
350
518C
  3
ByLayer
350
264
  3
Global
350
266
  0
DICTIONARY
  5
336
102
{ACAD_REACTORS
330
19
102
}
330
19
100
AcDbDictionary
281
     1
  3
Standard
350
5908
  0
DICTIONARY
  5
1B
102
{ACAD_REACTORS
330
19
102
}
330
19
100
AcDbDictionary
281
     1
  3
Standard
350
1C
  0
DICTIONARY
  5
22
102
{ACAD_REACTORS
330
19
102
}
330
19
100
AcDbDictionary
281
     1
  0
ACDBDICTIONARYWDFLT
  5
1F
102
{ACAD_REACTORS
330
19
102
}
330
19
100
AcDbDictionary
281
     1
  3
Normal
350
1D
100
AcDbDictionaryWithDefault
340
1D
  0
DICTIONARY
  5
241
102
{ACAD_REACTORS
330
19
102
}
330
19
100
AcDbDictionary
281
     1
  3
A0
350
242
  3
A1
350
243
  3
A2
350
244
  3
A3
350
245
  3
A4
350
246
  3
A5
350
247
  3
A6
350
248
  3
A7
350
249
  3
A8
350
24A
  3
A9
350
24B
  3
B0
350
24C
  3
B1
350
24D
  3
B2
350
24E
  3
B3
350
24F
  3
B4
350
250
  3
B5
350
251
  3
B6
350
252
  3
B7
350
253
  3
B8
350
254
  3
B9
350
255
  3
C0
350
256
  3
C1
350
257
  3
C2
350
258
  3
C3
350
259
  3
C4
350
25A
  3
C5
350
25B
  3
C6
350
25C
  3
C7
350
25D
  3
C8
350
25E
  3
C9
350
25F
  3
D0
350
260
  3
D1
350
261
  3
D2
350
262
  0
DICTIONARY
  5
13B6
102
{ACAD_REACTORS
330
19
102
}
330
19
100
AcDbDictionary
281
     1
  0
DICTIONARY
  5
278
102
{ACAD_REACTORS
330
19
102
}
330
19
100
AcDbDictionary
281
     1
  3
Standard
350
279
  0
DICTIONARY
  5
267
102
{ACAD_REACTORS
330
19
102
}
330
19
100
AcDbDictionary
281
     1
  3
2dWireframe
350
26C
  3
3D Hidden
350
26E
  3
3dWireframe
350
26D
  3
Basic
350
26F
  3
Brighten
350
273
  3
ColorChange
350
277
  3
Conceptual
350
271
  3
Dim
350
272
  3
EdgeColorOff
350
F14
  3
Facepattern
350
276
  3
Flat
350
268
  3
FlatWithEdges
350
269
  3
Gouraud
350
26A
  3
GouraudWithEdges
350
26B
  3
Hidden
350
F11
  3
JitterOff
350
F12
  3
Linepattern
350
275
  3
OverhangOff
350
F13
  3
Realistic
350
270
  3
Shaded
350
F19
  3
Shaded with edges
350
F18
  3
Shades of Gray
350
F15
  3
Sketchy
350
F16
  3
Thicken
350
274
  3
Wireframe
350
F10
  3
X-Ray
350
F17
  0
XRECORD
  5
8511
102
{ACAD_REACTORS
330
19
102
}
330
19
100
AcDbXrecord
280
     1
 90
        1
330
279
  0
DICTIONARY
  5
330
102
{ACAD_REACTORS
330
19
102
}
330
19
100
AcDbDictionary
281
     1
  3
CANNOSCALE
350
331
  3
CMLEADERSTYLE
350
598D
  3
CTABLESTYLE
350
335
  3
HPTRANSPARENCY
350
528A
  3
XCLIPFRAME
350
13B4
  0
DICTIONARY
  5
27A
102
{ACAD_REACTORS
330
19
102
}
330
19
100
AcDbDictionary
281
     1
  0
DICTIONARY
  5
2E2
102
{ACAD_REACTORS
330
2E1
102
}
330
2E1
100
AcDbDictionary
281
     1
  0
DICTIONARY
  5
5173
102
{ACAD_REACTORS
330
2E1
102
}
330
2E1
100
AcDbDictionary
281
     1
1001
ACAD
1000
<All
  0
SORTENTSTABLE
  5
59FE
102
{ACAD_REACTORS
330
59FD
102
}
330
59FD
100
AcDbSortentsTable
330
A
331
54A0
  5
55C8
331
54A1
  5
55CA
331
54A2
  5
55CB
331
54A3
  5
55CE
331
54A4
  5
55D1
331
54A5
  5
55D2
331
54A6
  5
55D3
331
54A7
  5
55D4
331
54A8
  5
55D7
331
54A9
  5
55FC
331
54AA
  5
55FD
331
54AB
  5
55FE
331
54AC
  5
55FF
331
54AD
  5
5600
331
54AE
  5
5601
331
54AF
  5
5602
331
54B0
  5
5603
331
54B1
  5
5604
331
54B2
  5
5605
331
54B3
  5
5606
331
54B5
  5
5607
331
54B6
  5
5608
331
54B7
  5
5609
331
54B8
  5
560A
331
54B9
  5
560B
331
54BA
  5
560C
331
54BB
  5
58AA
331
54BC
  5
58FC
331
54BD
  5
58FD
331
54BE
  5
5963
331
54BF
  5
5966
331
5528
  5
5970
331
5529
  5
5971
331
552A
  5
59F5
331
552B
  5
59F7
331
552C
  5
5A3E
331
552D
  5
5A3F
331
59F5
  5
5C6B
331
59F7
  5
5C6C
331
5A9F
  5
5C73
331
5AA7
  5
5C7B
331
5AA8
  5
5C7C
331
5AA9
  5
5C7D
331
7F55
  5
8485
331
7F56
  5
7F55
331
7F57
  5
7F56
331
7F58
  5
8494
331
7F59
  5
8453
331
7F5A
  5
7F57
331
7F5B
  5
8465
331
7F5C
  5
8444
331
7F5E
  5
7F58
331
7F5F
  5
7F59
331
7F60
  5
8416
331
7F62
  5
7F5A
331
7F63
  5
8425
331
7F65
  5
8475
331
7F67
  5
7F5B
331
7FF1
  5
7F5C
331
7FF2
  5
7F5E
331
7FF3
  5
7F5F
331
8015
  5
7F60
331
8016
  5
7F62
331
8017
  5
7F63
331
8124
  5
7F65
331
8130
  5
7F67
331
825E
  5
7FF1
331
82BE
  5
7FF2
331
82BF
  5
7FF3
331
82C4
  5
8015
331
82CE
  5
8016
331
831F
  5
8017
331
8320
  5
8124
331
8321
  5
8130
331
8322
  5
825E
331
8323
  5
82BE
331
8324
  5
82BF
331
8325
  5
82C4
331
8326
  5
82CE
331
8327
  5
831F
331
8328
  5
8320
331
8329
  5
8321
331
832A
  5
8322
331
832B
  5
8323
331
832C
  5
8324
331
832D
  5
8325
331
832E
  5
8326
331
832F
  5
8327
331
8330
  5
8328
331
8331
  5
8329
331
8332
  5
832A
331
8333
  5
832B
331
8334
  5
832C
331
8335
  5
832D
331
8336
  5
832E
331
8337
  5
832F
331
8338
  5
8330
331
8339
  5
8331
331
833A
  5
8332
331
833B
  5
8333
331
833C
  5
8334
331
833D
  5
8335
331
833E
  5
8336
331
833F
  5
8337
331
8340
  5
8338
331
8341
  5
8339
331
8342
  5
833A
331
8343
  5
833B
331
8344
  5
833C
331
8345
  5
833D
331
8346
  5
833E
331
8347
  5
833F
331
8348
  5
8340
331
8349
  5
8341
331
834A
  5
8342
331
834B
  5
8343
331
834C
  5
8344
331
834D
  5
8345
331
834E
  5
8346
331
834F
  5
8347
331
8350
  5
8348
331
8351
  5
8349
331
8352
  5
834A
331
8353
  5
834B
331
8354
  5
834C
331
8355
  5
834D
331
8356
  5
834E
331
8357
  5
834F
331
8358
  5
8350
331
8372
  5
8351
331
8373
  5
8352
331
8374
  5
8353
331
8375
  5
8354
331
8376
  5
8355
331
8377
  5
8356
331
8378
  5
8357
331
8379
  5
8358
331
837A
  5
8372
331
837B
  5
8373
331
837C
  5
8374
331
837D
  5
8375
331
837E
  5
8376
331
837F
  5
8377
331
8380
  5
8378
331
8381
  5
8379
331
8382
  5
837A
331
8383
  5
837B
331
8384
  5
837C
331
8385
  5
837D
331
8386
  5
837E
331
8387
  5
837F
331
8388
  5
8380
331
8389
  5
8381
331
838A
  5
8382
331
838B
  5
8383
331
838C
  5
8384
331
838D
  5
8385
331
838E
  5
8386
331
838F
  5
8387
331
8390
  5
8388
331
8391
  5
8389
331
8392
  5
838A
331
8393
  5
838B
331
8394
  5
838C
331
8395
  5
838D
331
8396
  5
838E
331
8397
  5
838F
331
8398
  5
8390
331
8399
  5
8391
331
839A
  5
8392
331
839B
  5
8393
331
839C
  5
8394
331
839D
  5
8395
331
839E
  5
8396
331
839F
  5
8397
331
83A0
  5
8398
331
83A1
  5
8399
331
83A2
  5
839A
331
83A3
  5
839B
331
83A4
  5
839C
331
83A5
  5
839D
331
83A6
  5
839E
331
83A7
  5
839F
331
83A8
  5
83A0
331
83A9
  5
83A1
331
83AA
  5
83A2
331
83AB
  5
83A3
331
83AC
  5
83A4
331
83AD
  5
83A5
331
83AE
  5
83A6
331
83AF
  5
83A7
331
83B0
  5
83A8
331
83B1
  5
83A9
331
83B2
  5
83AA
331
83B3
  5
83AB
331
83B4
  5
83AC
331
83B5
  5
83AD
331
83B6
  5
83AE
331
83B7
  5
83AF
331
83B8
  5
83B0
331
83B9
  5
83B1
331
83BA
  5
83B2
331
83BB
  5
83B3
331
83BC
  5
83B4
331
83BD
  5
83B5
331
83BE
  5
83B6
331
83BF
  5
83B7
331
83C0
  5
83B8
331
83C1
  5
83B9
331
83C2
  5
83BA
331
83C3
  5
83BB
331
83C4
  5
83BC
331
83C5
  5
83BD
331
83C6
  5
83BE
331
83C7
  5
83BF
331
83C8
  5
83C0
331
83C9
  5
83C1
331
83CA
  5
83C2
331
83CB
  5
83C3
331
83CC
  5
83C4
331
83CD
  5
83C5
331
83CE
  5
83C6
331
83CF
  5
83C7
331
83D0
  5
83C8
331
83D1
  5
83C9
331
83D2
  5
83CA
331
83D3
  5
83CB
331
83D4
  5
83CC
331
83D8
  5
83CD
331
83E7
  5
83CE
331
83F7
  5
83CF
331
8416
  5
83D1
331
8444
  5
83D3
331
8453
  5
83D4
331
8465
  5
83D8
331
8475
  5
83E7
331
8485
  5
83F7
331
8494
  5
8406
  0
DIMASSOC
  5
83DA
102
{ACAD_REACTORS
330
83D9
102
}
330
83D9
100
AcDbDimAssoc
330
83D8
 90
        3
 70
     0
 71
     1
  1
AcDbOsnapPointRef
 72
     1
331
834A
 73
     0
 91
        0
 40
0.0
 10
0.0
 20
0.0
 30
0.0
 75
     0
  1
AcDbOsnapPointRef
 72
    13
331
8343
 73
     0
 91
        0
 40
0.0
 10
0.0
 20
0.0
 30
0.0
 75
     0
  0
DIMASSOC
  5
83E9
102
{ACAD_REACTORS
330
83E8
102
}
330
83E8
100
AcDbDimAssoc
330
83E7
 90
        3
 70
     0
 71
     1
  1
AcDbOsnapPointRef
 72
    13
331
834B
 73
     0
 91
        0
 40
0.0
 10
0.0
 20
0.0
 30
0.0
 75
     0
  1
AcDbOsnapPointRef
 72
    13
331
8346
 73
     0
 91
        0
 40
0.0
 10
0.0
 20
0.0
 30
0.0
 75
     0
  0
DIMASSOC
  5
83F9
102
{ACAD_REACTORS
330
83F8
102
}
330
83F8
100
AcDbDimAssoc
330
83F7
 90
        3
 70
     0
 71
     1
  1
AcDbOsnapPointRef
 72
    13
331
8346
 73
     0
 91
        0
 40
0.0
 10
0.0
 20
0.0
 30
0.0
 75
     0
  1
AcDbOsnapPointRef
 72
    13
331
8341
 73
     0
 91
        0
 40
0.0
 10
0.0
 20
0.0
 30
0.0
 75
     0
  0
DIMASSOC
  5
8418
102
{ACAD_REACTORS
330
8417
102
}
330
8417
100
AcDbDimAssoc
330
8416
 90
        3
 70
     0
 71
     1
  1
AcDbOsnapPointRef
 72
     1
331
8324
 73
     0
 91
        0
 40
0.0
 10
0.0
 20
0.0
 30
0.0
 75
     0
  1
AcDbOsnapPointRef
 72
    13
331
8324
 73
     0
 91
        0
 40
0.0
 10
0.0
 20
0.0
 30
0.0
 75
     0
  0
DIMASSOC
  5
8455
102
{ACAD_REACTORS
330
8454
102
}
330
8454
100
AcDbDimAssoc
330
8453
 90
        1
 70
     0
 71
     1
  1
AcDbOsnapPointRef
 72
     1
331
83C5
 73
     0
 91
        0
 40
0.0
 10
0.0
 20
0.0
 30
0.0
 75
     0
  0
DIMASSOC
  5
8467
102
{ACAD_REACTORS
330
8466
102
}
330
8466
100
AcDbDimAssoc
330
8465
 90
        3
 70
     0
 71
     1
  1
AcDbOsnapPointRef
 72
    13
331
83C6
 73
     0
 91
        0
 40
0.0
 10
0.0
 20
0.0
 30
0.0
 75
     0
  1
AcDbOsnapPointRef
 72
    10
331
83C1
 73
     0
 91
        0
 40
0.0082708245476315
 10
0.0
 20
0.0
 30
0.0
 75
     0
  0
DIMASSOC
  5
8477
102
{ACAD_REACTORS
330
8476
102
}
330
8476
100
AcDbDimAssoc
330
8475
 90
        3
 70
     0
 71
     1
  1
AcDbOsnapPointRef
 72
     1
331
83B8
 73
     0
 91
        0
 40
0.0
 10
0.0
 20
0.0
 30
0.0
 75
     0
  1
AcDbOsnapPointRef
 72
    13
331
83C1
 73
     0
 91
        0
 40
0.0
 10
0.0
 20
0.0
 30
0.0
 75
     0
  0
DIMASSOC
  5
8487
102
{ACAD_REACTORS
330
8486
102
}
330
8486
100
AcDbDimAssoc
330
8485
 90
        3
 70
     0
 71
     1
  1
AcDbOsnapPointRef
 72
    13
331
838A
 73
     0
 91
        0
 40
0.0
 10
0.0
 20
0.0
 30
0.0
 75
     0
  1
AcDbOsnapPointRef
 72
    13
331
8388
 73
     0
 91
        0
 40
0.0
 10
0.0
 20
0.0
 30
0.0
 75
     0
  0
DIMASSOC
  5
8496
102
{ACAD_REACTORS
330
8495
102
}
330
8495
100
AcDbDimAssoc
330
8494
 90
        3
 70
     0
 71
     1
  1
AcDbOsnapPointRef
 72
    13
331
8387
 73
     0
 91
        0
 40
0.0
 10
0.0
 20
0.0
 30
0.0
 75
     0
  1
AcDbOsnapPointRef
 72
    13
331
8388
 73
     0
 91
        0
 40
0.0
 10
0.0
 20
0.0
 30
0.0
 75
     0
  0
LAYOUT
  5
21
102
{ACAD_REACTORS
330
1E
102
}
330
1E
100
AcDbPlotSettings
  1

  2
none_device
  4
ISO_A3_(420.00_x_297.00_MM)
  6

 40
7.5
 41
20.0
 42
7.5
 43
20.0
 44
420.0
 45
297.0
 46
0.0
 47
0.0
 48
0.0
 49
0.0
140
0.0
141
0.0
142
1.0
143
1.0
 70
     0
 72
     1
 73
     0
 74
     0
  7

 75
     0
 76
     0
 77
     2
 78
   300
147
1.0
148
0.0
149
0.0
100
AcDbLayout
  1
Layout1
 70
     1
 71
     0
 10
-7.5
 20
-20.0
 11
412.5
 21
277.0
 12
0.0
 22
0.0
 32
0.0
 14
0.0
 24
0.0
 34
0.0
 15
0.0
 25
0.0
 35
0.0
146
0.0
 13
0.0
 23
0.0
 33
0.0
 16
0.0
 26
0.0
 36
0.0
 17
0.0
 27
0.0
 37
0.0
 76
     0
330
B
331
349
  0
LAYOUT
  5
20
102
{ACAD_REACTORS
330
1E
102
}
330
1E
100
AcDbPlotSettings
  1

  2
none_device
  4
ISO_A3_(420.00_x_297.00_MM)
  6

 40
7.5
 41
20.0
 42
7.5
 43
20.0
 44
420.0
 45
297.0
 46
0.0
 47
0.0
 48
0.0
 49
0.0
140
0.0
141
0.0
142
1.0
143
1.0
 70
  1024
 72
     1
 73
     0
 74
     0
  7

 75
     0
 76
     0
 77
     2
 78
   300
147
1.0
148
0.0
149
0.0
100
AcDbLayout
  1
Model
 70
     0
 71
     1
 10
0.0
 20
0.0
 11
594.0
 21
419.9999999999996
 12
0.0
 22
0.0
 32
0.0
 14
0.0
 24
0.0
 34
0.0
 15
593.9999999999999
 25
420.0
 35
0.0
146
0.0
 13
0.0
 23
0.0
 33
0.0
 16
0.0
 26
0.0
 36
0.0
 17
0.0
 27
0.0
 37
0.0
 76
     0
330
A
331
15
  0
MATERIAL
  5
518C
102
{ACAD_REACTORS
330
263
102
}
330
263
100
AcDbMaterial
  1
ByBlock
 72
     1
 94
      127
  0
MATERIAL
  5
264
102
{ACAD_REACTORS
330
263
102
}
330
263
100
AcDbMaterial
  1
ByLayer
 72
     1
 94
      127
  0
MATERIAL
  5
266
102
{ACAD_REACTORS
330
263
102
}
330
263
100
AcDbMaterial
  1
Global
 72
     1
 94
      127
  0
MLEADERSTYLE
  5
5908
102
{ACAD_REACTORS
330
336
102
}
330
336
100
AcDbMLeaderStyle
170
     2
171
     1
172
     0
 90
        2
 40
0.0
 41
0.0
173
     1
 91
-1056964608
340
11
 92
       -2
290
     1
 42
2.0
291
     1
 43
8.0
  3
Standard
341
0
 44
4.0
300

342
17
174
     1
178
     6
175
     1
176
     0
 93
-1056964608
 45
4.0
292
     0
297
     0
 46
4.0
343
0
 94
-1056964608
 47
1.0
 49
1.0
140
1.0
293
     1
141
0.0
294
     1
177
     0
142
1.0
295
     0
296
     0
143
3.75
1001
ACAD_MLEADERVER
1070
     2
  0
MLINESTYLE
  5
1C
102
{ACAD_REACTORS
330
1B
102
}
330
1B
100
AcDbMlineStyle
  2
Standard
 70
     0
  3

 62
     0
 51
90.0
 52
90.0
 71
     2
 49
0.5
 62
   256
  6
BYLAYER
 49
-0.5
 62
   256
  6
BYLAYER
  0
ACDBPLACEHOLDER
  5
1D
102
{ACAD_REACTORS
330
1F
102
}
330
1F
  0
SCALE
  5
242
102
{ACAD_REACTORS
330
241
102
}
330
241
100
AcDbScale
 70
     0
300
1:1
140
1.0
141
1.0
290
     1
  0
SCALE
  5
243
102
{ACAD_REACTORS
330
241
102
}
330
241
100
AcDbScale
 70
     0
300
1:2
140
1.0
141
2.0
290
     0
  0
SCALE
  5
244
102
{ACAD_REACTORS
330
241
102
}
330
241
100
AcDbScale
 70
     0
300
1:4
140
1.0
141
4.0
290
     0
  0
SCALE
  5
245
102
{ACAD_REACTORS
330
241
102
}
330
241
100
AcDbScale
 70
     0
300
1:5
140
1.0
141
5.0
290
     0
  0
SCALE
  5
246
102
{ACAD_REACTORS
330
241
102
}
330
241
100
AcDbScale
 70
     0
300
1:8
140
1.0
141
8.0
290
     0
  0
SCALE
  5
247
102
{ACAD_REACTORS
330
241
102
}
330
241
100
AcDbScale
 70
     0
300
1:10
140
1.0
141
10.0
290
     0
  0
SCALE
  5
248
102
{ACAD_REACTORS
330
241
102
}
330
241
100
AcDbScale
 70
     0
300
1:16
140
1.0
141
16.0
290
     0
  0
SCALE
  5
249
102
{ACAD_REACTORS
330
241
102
}
330
241
100
AcDbScale
 70
     0
300
1:20
140
1.0
141
20.0
290
     0
  0
SCALE
  5
24A
102
{ACAD_REACTORS
330
241
102
}
330
241
100
AcDbScale
 70
     0
300
1:30
140
1.0
141
30.0
290
     0
  0
SCALE
  5
24B
102
{ACAD_REACTORS
330
241
102
}
330
241
100
AcDbScale
 70
     0
300
1:40
140
1.0
141
40.0
290
     0
  0
SCALE
  5
24C
102
{ACAD_REACTORS
330
241
102
}
330
241
100
AcDbScale
 70
     0
300
1:50
140
1.0
141
50.0
290
     0
  0
SCALE
  5
24D
102
{ACAD_REACTORS
330
241
102
}
330
241
100
AcDbScale
 70
     0
300
1:100
140
1.0
141
100.0
290
     0
  0
SCALE
  5
24E
102
{ACAD_REACTORS
330
241
102
}
330
241
100
AcDbScale
 70
     0
300
2:1
140
2.0
141
1.0
290
     0
  0
SCALE
  5
24F
102
{ACAD_REACTORS
330
241
102
}
330
241
100
AcDbScale
 70
     0
300
4:1
140
4.0
141
1.0
290
     0
  0
SCALE
  5
250
102
{ACAD_REACTORS
330
241
102
}
330
241
100
AcDbScale
 70
     0
300
8:1
140
8.0
141
1.0
290
     0
  0
SCALE
  5
251
102
{ACAD_REACTORS
330
241
102
}
330
241
100
AcDbScale
 70
     0
300
10:1
140
10.0
141
1.0
290
     0
  0
SCALE
  5
252
102
{ACAD_REACTORS
330
241
102
}
330
241
100
AcDbScale
 70
     0
300
100:1
140
100.0
141
1.0
290
     0
  0
SCALE
  5
253
102
{ACAD_REACTORS
330
241
102
}
330
241
100
AcDbScale
 70
     0
300
1/128" = 1'-0"
140
0.0078125
141
12.0
290
     0
  0
SCALE
  5
254
102
{ACAD_REACTORS
330
241
102
}
330
241
100
AcDbScale
 70
     0
300
1/64" = 1'-0"
140
0.015625
141
12.0
290
     0
  0
SCALE
  5
255
102
{ACAD_REACTORS
330
241
102
}
330
241
100
AcDbScale
 70
     0
300
1/32" = 1'-0"
140
0.03125
141
12.0
290
     0
  0
SCALE
  5
256
102
{ACAD_REACTORS
330
241
102
}
330
241
100
AcDbScale
 70
     0
300
1/16" = 1'-0"
140
0.0625
141
12.0
290
     0
  0
SCALE
  5
257
102
{ACAD_REACTORS
330
241
102
}
330
241
100
AcDbScale
 70
     0
300
3/32" = 1'-0"
140
0.09375
141
12.0
290
     0
  0
SCALE
  5
258
102
{ACAD_REACTORS
330
241
102
}
330
241
100
AcDbScale
 70
     0
300
1/8" = 1'-0"
140
0.125
141
12.0
290
     0
  0
SCALE
  5
259
102
{ACAD_REACTORS
330
241
102
}
330
241
100
AcDbScale
 70
     0
300
3/16" = 1'-0"
140
0.1875
141
12.0
290
     0
  0
SCALE
  5
25A
102
{ACAD_REACTORS
330
241
102
}
330
241
100
AcDbScale
 70
     0
300
1/4" = 1'-0"
140
0.25
141
12.0
290
     0
  0
SCALE
  5
25B
102
{ACAD_REACTORS
330
241
102
}
330
241
100
AcDbScale
 70
     0
300
3/8" = 1'-0"
140
0.375
141
12.0
290
     0
  0
SCALE
  5
25C
102
{ACAD_REACTORS
330
241
102
}
330
241
100
AcDbScale
 70
     0
300
1/2" = 1'-0"
140
0.5
141
12.0
290
     0
  0
SCALE
  5
25D
102
{ACAD_REACTORS
330
241
102
}
330
241
100
AcDbScale
 70
     0
300
3/4" = 1'-0"
140
0.75
141
12.0
290
     0
  0
SCALE
  5
25E
102
{ACAD_REACTORS
330
241
102
}
330
241
100
AcDbScale
 70
     0
300
1" = 1'-0"
140
1.0
141
12.0
290
     0
  0
SCALE
  5
25F
102
{ACAD_REACTORS
330
241
102
}
330
241
100
AcDbScale
 70
     0
300
1-1/2" = 1'-0"
140
1.5
141
12.0
290
     0
  0
SCALE
  5
260
102
{ACAD_REACTORS
330
241
102
}
330
241
100
AcDbScale
 70
     0
300
3" = 1'-0"
140
3.0
141
12.0
290
     0
  0
SCALE
  5
261
102
{ACAD_REACTORS
330
241
102
}
330
241
100
AcDbScale
 70
     0
300
6" = 1'-0"
140
6.0
141
12.0
290
     0
  0
SCALE
  5
262
102
{ACAD_REACTORS
330
241
102
}
330
241
100
AcDbScale
 70
     0
300
1'-0" = 1'-0"
140
12.0
141
12.0
290
     0
  0
TABLESTYLE
  5
279
102
{ACAD_REACTORS
330
278
102
}
102
{ACAD_XDICTIONARY
360
850F
102
}
330
278
100
AcDbTableStyle
  3
Standard
 70
     0
 71
     0
 40
0.06
 41
0.06
280
     0
281
     0
  7
Standard
140
4.5
170
     2
 62
     0
 63
   257
283
     0
 90
        4
 91
        0
  1

274
    -2
284
     1
 64
     0
275
    -2
285
     1
 65
     0
276
    -2
286
     1
 66
     0
277
    -2
287
     1
 67
     0
278
    -2
288
     1
 68
     0
279
    -2
289
     1
 69
     0
  7
Standard
140
6.0
170
     5
 62
     0
 63
   257
283
     0
 90
        4
 91
        0
  1

274
    -2
284
     1
 64
     0
275
    -2
285
     1
 65
     0
276
    -2
286
     1
 66
     0
277
    -2
287
     1
 67
     0
278
    -2
288
     1
 68
     0
279
    -2
289
     1
 69
     0
  7
Standard
140
4.5
170
     5
 62
     0
 63
   257
283
     0
 90
        4
 91
        0
  1

274
    -2
284
     1
 64
     0
275
    -2
285
     1
 65
     0
276
    -2
286
     1
 66
     0
277
    -2
287
     1
 67
     0
278
    -2
288
     1
 68
     0
279
    -2
289
     1
 69
     0
  0
VISUALSTYLE
  5
26C
102
{ACAD_REACTORS
330
267
102
}
330
267
100
AcDbVisualStyle
  2
2dWireframe
 70
     4
 71
     0
 72
     2
 73
     0
 90
        0
 40
-0.6
 41
-30.0
 62
     5
 63
     7
421
 16777215
 74
     1
 91
        4
 64
     7
 65
   257
 75
     1
175
     1
 42
1.0
 92
        0
 66
   257
 43
1.0
 76
     1
 77
     6
 78
     2
 67
     7
 79
     5
170
     0
171
     0
290
     0
174
     0
 93
        1
 44
0.0
173
     0
291
     0
 45
0.0
  0
VISUALSTYLE
  5
26E
102
{ACAD_REACTORS
330
267
102
}
330
267
100
AcDbVisualStyle
  2
3D Hidden
 70
     6
 71
     1
 72
     2
 73
     2
 90
        0
 40
-0.6
 41
-30.0
 62
     5
 63
     7
421
 16777215
 74
     2
 91
        2
 64
     7
 65
   257
 75
     2
175
     1
 42
40.0
 92
        0
 66
   257
 43
1.0
 76
     1
 77
     6
 78
     2
 67
     7
 79
     3
170
     0
171
     0
290
     0
174
     0
 93
        1
 44
0.0
173
     0
291
     0
 45
0.0
  0
VISUALSTYLE
  5
26D
102
{ACAD_REACTORS
330
267
102
}
330
267
100
AcDbVisualStyle
  2
3dWireframe
 70
     5
 71
     0
 72
     2
 73
     0
 90
        0
 40
-0.6
 41
-30.0
 62
     5
 63
     7
421
 16777215
 74
     1
 91
        4
 64
     7
 65
   257
 75
     1
175
     1
 42
1.0
 92
        0
 66
   257
 43
1.0
 76
     1
 77
     6
 78
     2
 67
     7
 79
     5
170
     0
171
     0
290
     0
174
     0
 93
        1
 44
0.0
173
     0
291
     0
 45
0.0
  0
VISUALSTYLE
  5
26F
102
{ACAD_REACTORS
330
267
102
}
330
267
100
AcDbVisualStyle
  2
Basic
 70
     7
 71
     1
 72
     0
 73
     1
 90
        0
 40
-0.6
 41
-30.0
 62
     5
 63
     7
421
 16777215
 74
     0
 91
        4
 64
     7
 65
   257
 75
     1
175
     1
 42
1.0
 92
        8
 66
     7
 43
1.0
 76
     1
 77
     6
 78
     2
 67
     7
 79
     5
170
     0
171
     0
290
     0
174
     0
 93
        1
 44
0.0
173
     0
291
     1
 45
0.0
  0
VISUALSTYLE
  5
273
102
{ACAD_REACTORS
330
267
102
}
330
267
100
AcDbVisualStyle
  2
Brighten
 70
    12
 71
     2
 72
     2
 73
     0
 90
        0
 40
-0.6
 41
-30.0
 62
     5
 63
     7
421
 16777215
 74
     1
 91
        4
 64
     7
 65
   257
 75
     1
175
     1
 42
1.0
 92
        8
 66
     7
 43
1.0
 76
     1
 77
     6
 78
     2
 67
     7
 79
     5
170
     0
171
     0
290
     0
174
     0
 93
        1
 44
50.0
173
     0
291
     1
 45
0.0
  0
VISUALSTYLE
  5
277
102
{ACAD_REACTORS
330
267
102
}
330
267
100
AcDbVisualStyle
  2
ColorChange
 70
    16
 71
     2
 72
     2
 73
     3
 90
        0
 40
-0.6
 41
-30.0
 62
     5
 63
     8
421
  8421504
 74
     1
 91
        4
 64
     7
 65
   257
 75
     1
175
     1
 42
1.0
 92
        8
 66
     8
424
  8421504
 43
1.0
 76
     1
 77
     6
 78
     2
 67
     7
 79
     5
170
     0
171
     0
290
     0
174
     0
 93
        1
 44
0.0
173
     0
291
     1
 45
0.0
  0
VISUALSTYLE
  5
271
102
{ACAD_REACTORS
330
267
102
}
330
267
100
AcDbVisualStyle
  2
Conceptual
 70
     9
 71
     3
 72
     2
 73
     0
 90
        0
 40
-0.6
 41
-30.0
 62
     5
 63
     7
421
 16777215
 74
     2
 91
        2
 64
     7
 65
   257
 75
     1
175
     1
 42
40.0
 92
        8
 66
     7
 43
1.0
 76
     1
 77
     6
 78
     2
 67
     7
 79
     3
170
     0
171
     0
290
     0
174
     0
 93
        1
 44
0.0
173
     0
291
     0
 45
0.0
  0
VISUALSTYLE
  5
272
102
{ACAD_REACTORS
330
267
102
}
330
267
100
AcDbVisualStyle
  2
Dim
 70
    11
 71
     2
 72
     2
 73
     0
 90
        0
 40
-0.6
 41
-30.0
 62
     5
 63
     7
421
 16777215
 74
     1
 91
        4
 64
     7
 65
   257
 75
     1
175
     1
 42
1.0
 92
        8
 66
     7
 43
1.0
 76
     1
 77
     6
 78
     2
 67
     7
 79
     5
170
     0
171
     0
290
     0
174
     0
 93
        1
 44
-50.0
173
     0
291
     1
 45
0.0
  0
VISUALSTYLE
  5
F14
102
{ACAD_REACTORS
330
267
102
}
330
267
100
AcDbVisualStyle
  2
EdgeColorOff
 70
    22
 71
     2
 72
     2
 73
     0
 90
        0
 40
0.6
 41
30.0
 62
     5
 63
     7
421
 16777215
 74
     1
 91
        4
 64
     7
 65
   257
 75
     1
175
     1
 42
1.0
 92
        8
 66
     7
 43
1.0
 76
     1
 77
     6
 78
     2
 67
     7
 79
     5
170
     0
171
     0
290
     0
174
     0
 93
        1
 44
0.0
173
     0
291
     1
 45
0.0
  0
VISUALSTYLE
  5
276
102
{ACAD_REACTORS
330
267
102
}
330
267
100
AcDbVisualStyle
  2
Facepattern
 70
    15
 71
     2
 72
     2
 73
     0
 90
        0
 40
-0.6
 41
-30.0
 62
     5
 63
     7
421
 16777215
 74
     1
 91
        4
 64
     7
 65
   257
 75
     1
175
     1
 42
1.0
 92
        8
 66
     7
 43
1.0
 76
     1
 77
     6
 78
     2
 67
     7
 79
     5
170
     0
171
     0
290
     0
174
     0
 93
        1
 44
0.0
173
     0
291
     1
 45
0.0
  0
VISUALSTYLE
  5
268
102
{ACAD_REACTORS
330
267
102
}
330
267
100
AcDbVisualStyle
  2
Flat
 70
     0
 71
     2
 72
     1
 73
     1
 90
        2
 40
-0.6
 41
30.0
 62
     5
 63
     7
421
 16777215
 74
     0
 91
        4
 64
     7
 65
   257
 75
     1
175
     1
 42
1.0
 92
        8
 66
     7
 43
1.0
 76
     1
 77
     6
 78
     2
 67
     7
 79
     5
170
     0
171
     0
290
     0
174
     0
 93
       13
 44
0.0
173
     0
291
     1
 45
0.0
  0
VISUALSTYLE
  5
269
102
{ACAD_REACTORS
330
267
102
}
330
267
100
AcDbVisualStyle
  2
FlatWithEdges
 70
     1
 71
     2
 72
     1
 73
     1
 90
        2
 40
-0.6
 41
30.0
 62
     5
 63
     7
421
 16777215
 74
     1
 91
        4
 64
     7
 65
   257
 75
     1
175
     1
 42
1.0
 92
        0
 66
   257
 43
1.0
 76
     1
 77
     6
 78
     2
 67
     7
 79
     5
170
     0
171
     0
290
     0
174
     0
 93
       13
 44
0.0
173
     0
291
     1
 45
0.0
  0
VISUALSTYLE
  5
26A
102
{ACAD_REACTORS
330
267
102
}
330
267
100
AcDbVisualStyle
  2
Gouraud
 70
     2
 71
     2
 72
     2
 73
     1
 90
        2
 40
-0.6
 41
30.0
 62
     5
 63
     7
421
 16777215
 74
     0
 91
        4
 64
     7
 65
   257
 75
     1
175
     1
 42
1.0
 92
        0
 66
     7
 43
1.0
 76
     1
 77
     6
 78
     2
 67
     7
 79
     5
170
     0
171
     0
290
     0
174
     0
 93
       13
 44
0.0
173
     0
291
     1
 45
0.0
  0
VISUALSTYLE
  5
26B
102
{ACAD_REACTORS
330
267
102
}
330
267
100
AcDbVisualStyle
  2
GouraudWithEdges
 70
     3
 71
     2
 72
     2
 73
     1
 90
        2
 40
-0.6
 41
30.0
 62
     5
 63
     7
421
 16777215
 74
     1
 91
        4
 64
     7
 65
   257
 75
     1
175
     1
 42
1.0
 92
        0
 66
   257
 43
1.0
 76
     1
 77
     6
 78
     2
 67
     7
 79
     5
170
     0
171
     0
290
     0
174
     0
 93
       13
 44
0.0
173
     0
291
     1
 45
0.0
  0
VISUALSTYLE
  5
F11
102
{ACAD_REACTORS
330
267
102
}
330
267
100
AcDbVisualStyle
  2
Hidden
 70
     6
 71
     1
 72
     2
 73
     2
 90
        0
 40
0.6
 41
30.0
 62
     5
 63
     7
421
 16777215
 74
     2
 91
        2
 64
     7
 65
   257
 75
     2
175
     1
 42
40.0
 92
        0
 66
   257
 43
1.0
 76
     1
 77
     6
 78
     2
 67
     7
 79
     3
170
     0
171
     0
290
     0
174
     0
 93
        1
 44
0.0
173
     0
291
     0
 45
0.0
  0
VISUALSTYLE
  5
F12
102
{ACAD_REACTORS
330
267
102
}
330
267
100
AcDbVisualStyle
  2
JitterOff
 70
    20
 71
     2
 72
     2
 73
     0
 90
        0
 40
0.6
 41
30.0
 62
     5
 63
     7
421
 16777215
 74
     1
 91
        4
 64
     7
 65
   257
 75
     1
175
     1
 42
1.0
 92
       10
 66
     7
 43
1.0
 76
     1
 77
     6
 78
     2
 67
     7
 79
     5
170
     0
171
     0
290
     0
174
     0
 93
        1
 44
0.0
173
     0
291
     1
 45
0.0
  0
VISUALSTYLE
  5
275
102
{ACAD_REACTORS
330
267
102
}
330
267
100
AcDbVisualStyle
  2
Linepattern
 70
    14
 71
     2
 72
     2
 73
     0
 90
        0
 40
-0.6
 41
-30.0
 62
     5
 63
     7
421
 16777215
 74
     1
 91
        4
 64
     7
 65
   257
 75
     7
175
     7
 42
1.0
 92
        8
 66
     7
 43
1.0
 76
     1
 77
     6
 78
     2
 67
     7
 79
     5
170
     0
171
     0
290
     0
174
     0
 93
        1
 44
0.0
173
     0
291
     1
 45
0.0
  0
VISUALSTYLE
  5
F13
102
{ACAD_REACTORS
330
267
102
}
330
267
100
AcDbVisualStyle
  2
OverhangOff
 70
    21
 71
     2
 72
     2
 73
     0
 90
        0
 40
0.6
 41
30.0
 62
     5
 63
     7
421
 16777215
 74
     1
 91
        4
 64
     7
 65
   257
 75
     1
175
     1
 42
1.0
 92
        9
 66
     7
 43
1.0
 76
     1
 77
     6
 78
     2
 67
     7
 79
     5
170
     0
171
     0
290
     0
174
     0
 93
        1
 44
0.0
173
     0
291
     1
 45
0.0
  0
VISUALSTYLE
  5
270
102
{ACAD_REACTORS
330
267
102
}
330
267
100
AcDbVisualStyle
  2
Realistic
 70
     8
 71
     2
 72
     2
 73
     0
 90
        0
 40
-0.6
 41
-30.0
 62
     5
 63
     7
421
 16777215
 74
     1
 91
        0
 64
     7
 65
   257
 75
     1
175
     1
 42
1.0
 92
        8
 66
     8
424
  7895160
 43
1.0
 76
     1
 77
     6
 78
     2
 67
     7
 79
     5
170
     0
171
     0
290
     0
174
     0
 93
       13
 44
0.0
173
     0
291
     0
 45
0.0
  0
VISUALSTYLE
  5
F19
102
{ACAD_REACTORS
330
267
102
}
330
267
100
AcDbVisualStyle
  2
Shaded
 70
    27
 71
     2
 72
     2
 73
     1
 90
        2
 40
0.6
 41
30.0
 62
     5
 63
     7
421
 16777215
 74
     0
 91
        4
 64
     7
 65
   257
 75
     1
175
     1
 42
1.0
 92
        8
 66
   257
 43
1.0
 76
     1
 77
     6
 78
     2
 67
     8
425
  7895160
 79
     3
170
     0
171
     0
290
     0
174
     0
 93
        5
 44
0.0
173
     0
291
     0
 45
0.0
  0
VISUALSTYLE
  5
F18
102
{ACAD_REACTORS
330
267
102
}
330
267
100
AcDbVisualStyle
  2
Shaded with edges
 70
    26
 71
     2
 72
     2
 73
     1
 90
        2
 40
0.6
 41
30.0
 62
     5
 63
     7
421
 16777215
 74
     1
 91
       10
 64
     7
 65
   257
 75
     2
175
     1
 42
1.0
 92
        8
 66
   257
 43
1.0
 76
     1
 77
     6
 78
     2
 67
     7
 79
     3
170
     0
171
     0
290
     0
174
     0
 93
        5
 44
0.0
173
     0
291
     0
 45
0.0
  0
VISUALSTYLE
  5
F15
102
{ACAD_REACTORS
330
267
102
}
330
267
100
AcDbVisualStyle
  2
Shades of Gray
 70
    23
 71
     2
 72
     2
 73
     3
 90
        0
 40
0.6
 41
30.0
 62
     5
 63
     7
421
 16777215
 74
     2
 91
        2
 64
     7
 65
     7
 75
     1
175
     1
 42
40.0
 92
        8
 66
     7
 43
1.0
 76
     1
 77
     6
 78
     2
 67
     7
 79
     3
170
     0
171
     0
290
     0
174
     0
 93
        1
 44
0.0
173
     0
291
     0
 45
0.0
  0
VISUALSTYLE
  5
F16
102
{ACAD_REACTORS
330
267
102
}
330
267
100
AcDbVisualStyle
  2
Sketchy
 70
    24
 71
     1
 72
     2
 73
     2
 90
        0
 40
0.6
 41
30.0
 62
     5
 63
     7
421
 16777215
 74
     2
 91
        2
 64
     7
 65
     7
 75
     1
175
     1
 42
40.0
 92
       11
 66
     7
 43
1.0
 76
     1
 77
     6
 78
     2
 67
     7
 79
     6
170
     0
171
     0
290
     0
174
     0
 93
        1
 44
0.0
173
     0
291
     0
 45
0.0
  0
VISUALSTYLE
  5
274
102
{ACAD_REACTORS
330
267
102
}
330
267
100
AcDbVisualStyle
  2
Thicken
 70
    13
 71
     2
 72
     2
 73
     0
 90
        0
 40
-0.6
 41
-30.0
 62
     5
 63
     7
421
 16777215
 74
     1
 91
        4
 64
     7
 65
   257
 75
     1
175
     1
 42
1.0
 92
       12
 66
     7
 43
1.0
 76
     1
 77
     6
 78
     2
 67
     7
 79
     5
170
     0
171
     0
290
     0
174
     0
 93
        1
 44
0.0
173
     0
291
     1
 45
0.0
  0
VISUALSTYLE
  5
F10
102
{ACAD_REACTORS
330
267
102
}
330
267
100
AcDbVisualStyle
  2
Wireframe
 70
     5
 71
     0
 72
     2
 73
     0
 90
        0
 40
0.6
 41
30.0
 62
     5
 63
     7
421
 16777215
 74
     1
 91
        4
 64
     7
 65
   257
 75
     1
175
     1
 42
1.0
 92
        0
 66
   257
 43
1.0
 76
     1
 77
     6
 78
     2
 67
     7
 79
     3
170
     0
171
     0
290
     0
174
     0
 93
        1
 44
0.0
173
     0
291
     0
 45
0.0
  0
VISUALSTYLE
  5
F17
102
{ACAD_REACTORS
330
267
102
}
330
267
100
AcDbVisualStyle
  2
X-Ray
 70
    25
 71
     2
 72
     2
 73
     1
 90
        1
 40
0.5
 41
30.0
 62
     5
 63
     7
421
 16777215
 74
     1
 91
        0
 64
     7
 65
   257
 75
     1
175
     1
 42
1.0
 92
        8
 66
     7
 43
1.0
 76
     1
 77
     6
 78
     2
 67
     7
 79
     3
170
     0
171
     0
290
     0
174
     0
 93
       13
 44
0.0
173
     0
291
     0
 45
0.0
  0
DICTIONARYVAR
  5
331
102
{ACAD_REACTORS
330
330
102
}
330
330
100
DictionaryVariables
280
     0
  1
1:1
  0
DICTIONARYVAR
  5
598D
102
{ACAD_REACTORS
330
330
102
}
330
330
100
DictionaryVariables
280
     0
  1
Standard
  0
DICTIONARYVAR
  5
335
102
{ACAD_REACTORS
330
330
102
}
330
330
100
DictionaryVariables
280
     0
  1
Standard
  0
DICTIONARYVAR
  5
528A
102
{ACAD_REACTORS
330
330
102
}
330
330
100
DictionaryVariables
280
     0
  1
ByLayer
  0
DICTIONARYVAR
  5
13B4
102
{ACAD_REACTORS
330
330
102
}
330
330
100
DictionaryVariables
280
     0
  1
0
  0
DICTIONARY
  5
850F
330
279
100
AcDbDictionary
280
     1
281
     1
  3
ACAD_ROUNDTRIP_2008_TABLESTYLE_CELLSTYLEMAP
360
8510
  0
CELLSTYLEMAP
  5
8510
102
{ACAD_REACTORS
330
850F
102
}
330
850F
100
AcDbCellStyleMap
 90
        3
300
CELLSTYLE
  1
TABLEFORMAT_BEGIN
 90
        5
170
     1
 91
        0
 92
    32768
 62
   257
 93
        1
300
CONTENTFORMAT
  1
CONTENTFORMAT_BEGIN
 90
        0
 91
        0
 92
        4
 93
        0
300

 40
0.0
140
1.0
 94
        5
 62
     0
340
17
144
6.0
309
CONTENTFORMAT_END
171
     1
301
MARGIN
  1
CELLMARGIN_BEGIN
 40
0.06
 40
0.06
 40
0.06
 40
0.06
 40
0.18
 40
0.18
309
CELLMARGIN_END
 94
        6
 95
        1
302
GRIDFORMAT
  1
GRIDFORMAT_BEGIN
 90
        0
 91
        1
 62
     0
 92
       -2
340
0
 93
        0
 40
0.045
309
GRIDFORMAT_END
 95
        2
302
GRIDFORMAT
  1
GRIDFORMAT_BEGIN
 90
        0
 91
        1
 62
     0
 92
       -2
340
0
 93
        0
 40
0.045
309
GRIDFORMAT_END
 95
        4
302
GRIDFORMAT
  1
GRIDFORMAT_BEGIN
 90
        0
 91
        1
 62
     0
 92
       -2
340
0
 93
        0
 40
0.045
309
GRIDFORMAT_END
 95
        8
302
GRIDFORMAT
  1
GRIDFORMAT_BEGIN
 90
        0
 91
        1
 62
     0
 92
       -2
340
0
 93
        0
 40
0.045
309
GRIDFORMAT_END
 95
       16
302
GRIDFORMAT
  1
GRIDFORMAT_BEGIN
 90
        0
 91
        1
 62
     0
 92
       -2
340
0
 93
        0
 40
0.045
309
GRIDFORMAT_END
 95
       32
302
GRIDFORMAT
  1
GRIDFORMAT_BEGIN
 90
        0
 91
        1
 62
     0
 92
       -2
340
0
 93
        0
 40
0.045
309
GRIDFORMAT_END
309
TABLEFORMAT_END
  1
CELLSTYLE_BEGIN
 90
        1
 91
        1
300
_TITLE
309
CELLSTYLE_END
300
CELLSTYLE
  1
TABLEFORMAT_BEGIN
 90
        5
170
     1
 91
        0
 92
        0
 62
   257
 93
        1
300
CONTENTFORMAT
  1
CONTENTFORMAT_BEGIN
 90
        0
 91
        0
 92
        4
 93
        0
300

 40
0.0
140
1.0
 94
        5
 62
     0
340
17
144
4.5
309
CONTENTFORMAT_END
171
     1
301
MARGIN
  1
CELLMARGIN_BEGIN
 40
0.06
 40
0.06
 40
0.06
 40
0.06
 40
0.18
 40
0.18
309
CELLMARGIN_END
 94
        6
 95
        1
302
GRIDFORMAT
  1
GRIDFORMAT_BEGIN
 90
        0
 91
        1
 62
     0
 92
       -2
340
0
 93
        0
 40
0.045
309
GRIDFORMAT_END
 95
        2
302
GRIDFORMAT
  1
GRIDFORMAT_BEGIN
 90
        0
 91
        1
 62
     0
 92
       -2
340
0
 93
        0
 40
0.045
309
GRIDFORMAT_END
 95
        4
302
GRIDFORMAT
  1
GRIDFORMAT_BEGIN
 90
        0
 91
        1
 62
     0
 92
       -2
340
0
 93
        0
 40
0.045
309
GRIDFORMAT_END
 95
        8
302
GRIDFORMAT
  1
GRIDFORMAT_BEGIN
 90
        0
 91
        1
 62
     0
 92
       -2
340
0
 93
        0
 40
0.045
309
GRIDFORMAT_END
 95
       16
302
GRIDFORMAT
  1
GRIDFORMAT_BEGIN
 90
        0
 91
        1
 62
     0
 92
       -2
340
0
 93
        0
 40
0.045
309
GRIDFORMAT_END
 95
       32
302
GRIDFORMAT
  1
GRIDFORMAT_BEGIN
 90
        0
 91
        1
 62
     0
 92
       -2
340
0
 93
        0
 40
0.045
309
GRIDFORMAT_END
309
TABLEFORMAT_END
  1
CELLSTYLE_BEGIN
 90
        2
 91
        1
300
_HEADER
309
CELLSTYLE_END
300
CELLSTYLE
  1
TABLEFORMAT_BEGIN
 90
        5
170
     1
 91
        0
 92
        0
 62
   257
 93
        1
300
CONTENTFORMAT
  1
CONTENTFORMAT_BEGIN
 90
        0
 91
        0
 92
        4
 93
        0
300

 40
0.0
140
1.0
 94
        2
 62
     0
340
17
144
4.5
309
CONTENTFORMAT_END
171
     1
301
MARGIN
  1
CELLMARGIN_BEGIN
 40
0.06
 40
0.06
 40
0.06
 40
0.06
 40
0.18
 40
0.18
309
CELLMARGIN_END
 94
        6
 95
        1
302
GRIDFORMAT
  1
GRIDFORMAT_BEGIN
 90
        0
 91
        1
 62
     0
 92
       -2
340
0
 93
        0
 40
0.045
309
GRIDFORMAT_END
 95
        2
302
GRIDFORMAT
  1
GRIDFORMAT_BEGIN
 90
        0
 91
        1
 62
     0
 92
       -2
340
0
 93
        0
 40
0.045
309
GRIDFORMAT_END
 95
        4
302
GRIDFORMAT
  1
GRIDFORMAT_BEGIN
 90
        0
 91
        1
 62
     0
 92
       -2
340
0
 93
        0
 40
0.045
309
GRIDFORMAT_END
 95
        8
302
GRIDFORMAT
  1
GRIDFORMAT_BEGIN
 90
        0
 91
        1
 62
     0
 92
       -2
340
0
 93
        0
 40
0.045
309
GRIDFORMAT_END
 95
       16
302
GRIDFORMAT
  1
GRIDFORMAT_BEGIN
 90
        0
 91
        1
 62
     0
 92
       -2
340
0
 93
        0
 40
0.045
309
GRIDFORMAT_END
 95
       32
302
GRIDFORMAT
  1
GRIDFORMAT_BEGIN
 90
        0
 91
        1
 62
     0
 92
       -2
340
0
 93
        0
 40
0.045
309
GRIDFORMAT_END
309
TABLEFORMAT_END
  1
CELLSTYLE_BEGIN
 90
        3
 91
        2
300
_DATA
309
CELLSTYLE_END
  0
ENDSEC
  0
EOF
