  0
SECTION
  2
HEADER
  9
$ACADVER
  1
AC1021
  9
$ACADMAINTVER
 70
    25
  9
$DWGCODEPAGE
  3
ANSI_932
  9
$LASTSAVEDBY
  1
tform
  9
$INSBASE
 10
0.0
 20
0.0
 30
0.0
  9
$EXTMIN
 10
0.0
 20
0.0
 30
0.0
  9
$EXTMAX
 10
593.9999999999999
 20
420.0
 30
0.0
  9
$LIMMIN
 10
0.0
 20
0.0
  9
$LIMMAX
 10
594.0
 20
419.9999999999996
  9
$ORTHOMODE
 70
     1
  9
$REGENMODE
 70
     1
  9
$FILLMODE
 70
     1
  9
$QTEXTMODE
 70
     0
  9
$MIRRTEXT
 70
     1
  9
$LTSCALE
 40
2.0
  9
$ATTMODE
 70
     1
  9
$TEXTSIZE
 40
2.5
  9
$TRACEWID
 40
1.0
  9
$TEXTSTYLE
  7
ＭＳ ゴシック
  9
$CLAYER
  8
寸法
  9
$CELTYPE
  6
Continuous
  9
$CECOLOR
 62
   256
  9
$CELTSCALE
 40
1.0
  9
$DISPSILH
 70
     0
  9
$DIMSCALE
 40
1.0
  9
$DIMASZ
 40
1.5
  9
$DIMEXO
 40
5.0
  9
$DIMDLI
 40
0.9999999999999999
  9
$DIMRND
 40
0.0
  9
$DIMDLE
 40
0.0
  9
$DIMEXE
 40
0.0
  9
$DIMTP
 40
0.0
  9
$DIMTM
 40
0.0
  9
$DIMTXT
 40
5.0
  9
$DIMCEN
 40
0.0
  9
$DIMTSZ
 40
0.0
  9
$DIMTOL
 70
     0
  9
$DIMLIM
 70
     0
  9
$DIMTIH
 70
     0
  9
$DIMTOH
 70
     0
  9
$DIMSE1
 70
     0
  9
$DIMSE2
 70
     0
  9
$DIMTAD
 70
     1
  9
$DIMZIN
 70
    11
  9
$DIMBLK
  1
DOT
  9
$DIMASO
 70
     1
  9
$DIMSHO
 70
     1
  9
$DIMPOST
  1
<>
  9
$DIMAPOST
  1
[]
  9
$DIMALT
 70
     0
  9
$DIMALTD
 70
     1
  9
$DIMALTF
 40
1.0
  9
$DIMLFAC
 40
1.0
  9
$DIMTOFL
 70
     0
  9
$DIMTVP
 40
0.0
  9
$DIMTIX
 70
     1
  9
$DIMSOXD
 70
     0
  9
$DIMSAH
 70
     0
  9
$DIMBLK1
  1

  9
$DIMBLK2
  1

  9
$DIMSTYLE
  2
tfrom線あり
  9
$DIMCLRD
 70
     0
  9
$DIMCLRE
 70
     0
  9
$DIMCLRT
 70
     0
  9
$DIMTFAC
 40
1.0
  9
$DIMGAP
 40
2.0
  9
$DIMJUST
 70
     0
  9
$DIMSD1
 70
     0
  9
$DIMSD2
 70
     0
  9
$DIMTOLJ
 70
     1
  9
$DIMTZIN
 70
    11
  9
$DIMALTZ
 70
    11
  9
$DIMALTTZ
 70
    11
  9
$DIMUPT
 70
     0
  9
$DIMDEC
 70
     0
  9
$DIMTDEC
 70
     1
  9
$DIMALTU
 70
     2
  9
$DIMALTTD
 70
     2
  9
$DIMTXSTY
  7
ＭＳ ゴシック
  9
$DIMAUNIT
 70
     0
  9
$DIMADEC
 70
     2
  9
$DIMALTRND
 40
0.0
  9
$DIMAZIN
 70
     0
  9
$DIMDSEP
 70
    46
  9
$DIMATFIT
 70
     0
  9
$DIMFRAC
 70
     2
  9
$DIMLDRBLK
  1
DOT
  9
$DIMLUNIT
 70
     2
  9
$DIMLWD
 70
    -2
  9
$DIMLWE
 70
    -2
  9
$DIMTMOVE
 70
     0
  9
$DIMFXL
 40
1.0
  9
$DIMFXLON
 70
     0
  9
$DIMJOGANG
 40
0.7853981633974483
  9
$DIMTFILL
 70
     0
  9
$DIMTFILLCLR
 70
     0
  9
$DIMARCSYM
 70
     0
  9
$DIMLTYPE
  6

  9
$DIMLTEX1
  6

  9
$DIMLTEX2
  6

  9
$LUNITS
 70
     2
  9
$LUPREC
 70
     0
  9
$SKETCHINC
 40
0.1
  9
$FILLETRAD
 40
0.0
  9
$AUNITS
 70
     0
  9
$AUPREC
 70
     0
  9
$MENU
  1
acad
  9
$ELEVATION
 40
0.0
  9
$PELEVATION
 40
0.0
  9
$THICKNESS
 40
0.0
  9
$LIMCHECK
 70
     0
  9
$CHAMFERA
 40
0.0
  9
$CHAMFERB
 40
0.0
  9
$CHAMFERC
 40
0.0
  9
$CHAMFERD
 40
0.0
  9
$SKPOLY
 70
     0
  9
$TDCREATE
 40
2447893.375
  9
$TDUCREATE
 40
0.0
  9
$TDUPDATE
 40
2459877.576228669
  9
$TDUUPDATE
 40
2459877.201228669
  9
$TDINDWG
 40
0.0388756134
  9
$TDUSRTIMER
 40
0.005483206
  9
$USRTIMER
 70
     1
  9
$ANGBASE
 50
0.0
  9
$ANGDIR
 70
     0
  9
$PDMODE
 70
     1
  9
$PDSIZE
 40
-2.0
  9
$PLINEWID
 40
0.0
  9
$SPLFRAME
 70
     0
  9
$SPLINETYPE
 70
     6
  9
$SPLINESEGS
 70
     8
  9
$HANDSEED
  5
81C3
  9
$SURFTAB1
 70
     6
  9
$SURFTAB2
 70
     6
  9
$SURFTYPE
 70
     6
  9
$SURFU
 70
     6
  9
$SURFV
 70
     6
  9
$UCSBASE
  2

  9
$UCSNAME
  2

  9
$UCSORG
 10
0.0
 20
0.0
 30
0.0
  9
$UCSXDIR
 10
1.0
 20
0.0
 30
0.0
  9
$UCSYDIR
 10
0.0
 20
1.0
 30
0.0
  9
$UCSORTHOREF
  2

  9
$UCSORTHOVIEW
 70
     1
  9
$UCSORGTOP
 10
0.0
 20
0.0
 30
0.0
  9
$UCSORGBOTTOM
 10
0.0
 20
0.0
 30
0.0
  9
$UCSORGLEFT
 10
0.0
 20
0.0
 30
0.0
  9
$UCSORGRIGHT
 10
0.0
 20
0.0
 30
0.0
  9
$UCSORGFRONT
 10
0.0
 20
0.0
 30
0.0
  9
$UCSORGBACK
 10
0.0
 20
0.0
 30
0.0
  9
$PUCSBASE
  2

  9
$PUCSNAME
  2

  9
$PUCSORG
 10
0.0
 20
0.0
 30
0.0
  9
$PUCSXDIR
 10
1.0
 20
0.0
 30
0.0
  9
$PUCSYDIR
 10
0.0
 20
1.0
 30
0.0
  9
$PUCSORTHOREF
  2

  9
$PUCSORTHOVIEW
 70
     0
  9
$PUCSORGTOP
 10
0.0
 20
0.0
 30
0.0
  9
$PUCSORGBOTTOM
 10
0.0
 20
0.0
 30
0.0
  9
$PUCSORGLEFT
 10
0.0
 20
0.0
 30
0.0
  9
$PUCSORGRIGHT
 10
0.0
 20
0.0
 30
0.0
  9
$PUCSORGFRONT
 10
0.0
 20
0.0
 30
0.0
  9
$PUCSORGBACK
 10
0.0
 20
0.0
 30
0.0
  9
$USERI1
 70
     0
  9
$USERI2
 70
     0
  9
$USERI3
 70
     0
  9
$USERI4
 70
     0
  9
$USERI5
 70
     0
  9
$USERR1
 40
0.0
  9
$USERR2
 40
0.0
  9
$USERR3
 40
0.0
  9
$USERR4
 40
0.0
  9
$USERR5
 40
0.0
  9
$WORLDVIEW
 70
     1
  9
$SHADEDGE
 70
     3
  9
$SHADEDIF
 70
    70
  9
$TILEMODE
 70
     1
  9
$MAXACTVP
 70
    64
  9
$PINSBASE
 10
0.0
 20
0.0
 30
0.0
  9
$PLIMCHECK
 70
     0
  9
$PEXTMIN
 10
0.0
 20
0.0
 30
0.0
  9
$PEXTMAX
 10
0.0
 20
0.0
 30
0.0
  9
$PLIMMIN
 10
-7.5
 20
-20.0
  9
$PLIMMAX
 10
412.5
 20
277.0
  9
$UNITMODE
 70
     0
  9
$VISRETAIN
 70
     0
  9
$PLINEGEN
 70
     1
  9
$PSLTSCALE
 70
     1
  9
$TREEDEPTH
 70
  3020
  9
$CMLSTYLE
  2
Standard
  9
$CMLJUST
 70
     0
  9
$CMLSCALE
 40
1.0
  9
$PROXYGRAPHICS
 70
     0
  9
$MEASUREMENT
 70
     1
  9
$CELWEIGHT
370
    -1
  9
$ENDCAPS
280
     0
  9
$JOINSTYLE
280
     0
  9
$LWDISPLAY
290
     1
  9
$INSUNITS
 70
     4
  9
$HYPERLINKBASE
  1

  9
$STYLESHEET
  1

  9
$XEDIT
290
     1
  9
$CEPSNTYPE
380
     0
  9
$PSTYLEMODE
290
     1
  9
$FINGERPRINTGUID
  2

  9
$VERSIONGUID
  2

  9
$EXTNAMES
290
     1
  9
$PSVPSCALE
 40
0.0
  9
$OLESTARTUP
290
     0
  9
$SORTENTS
280
   127
  9
$INDEXCTL
280
     0
  9
$HIDETEXT
280
     1
  9
$XCLIPFRAME
290
     0
  9
$HALOGAP
280
     0
  9
$OBSCOLOR
 70
   257
  9
$OBSLTYPE
280
     0
  9
$INTERSECTIONDISPLAY
280
     0
  9
$INTERSECTIONCOLOR
 70
   257
  9
$DIMASSOC
280
     2
  9
$PROJECTNAME
  1

  9
$CAMERADISPLAY
290
     0
  9
$LENSLENGTH
 40
50.0
  9
$CAMERAHEIGHT
 40
0.0
  9
$STEPSPERSEC
 40
2.0
  9
$STEPSIZE
 40
6.0
  9
$3DDWFPREC
 40
2.0
  9
$PSOLWIDTH
 40
0.25
  9
$PSOLHEIGHT
 40
4.0
  9
$LOFTANG1
 40
1.570796326794897
  9
$LOFTANG2
 40
1.570796326794897
  9
$LOFTMAG1
 40
0.0
  9
$LOFTMAG2
 40
0.0
  9
$LOFTPARAM
 70
     7
  9
$LOFTNORMALS
280
     1
  9
$LATITUDE
 40
37.795
  9
$LONGITUDE
 40
-122.394
  9
$NORTHDIRECTION
 40
0.0
  9
$TIMEZONE
 70
 -8000
  9
$LIGHTGLYPHDISPLAY
280
     1
  9
$TILEMODELIGHTSYNCH
280
     1
  9
$SOLIDHIST
280
     1
  9
$SHOWHIST
280
     1
  9
$DWFFRAME
280
     2
  9
$DGNFRAME
280
     2
  9
$REALWORLDSCALE
290
     1
  9
$INTERFERECOLOR
 62
   256
  9
$CSHADOW
280
     0
  9
$SHADOWPLANELOCATION
 40
0.0
  0
ENDSEC
  0
SECTION
  2
CLASSES
  0
CLASS
  1
LWPOLYLINE
  2
AcDbPolyline
  3
ObjectDBX Classes
 90
        0
 91
        1
280
     0
281
     1
  0
CLASS
  1
IMAGE
  2
AcDbRasterImage
  3
ISM
 90
      127
 91
        4
280
     0
281
     1
  0
CLASS
  1
OLE2FRAME
  2
AcDbOle2Frame
  3
ObjectDBX Classes
 90
        0
 91
        1
280
     0
281
     1
  0
CLASS
  1
HATCH
  2
AcDbHatch
  3
ObjectDBX Classes
 90
        0
 91
        1
280
     0
281
     1
  0
CLASS
  1
DICTIONARYVAR
  2
AcDbDictionaryVar
  3
ObjectDBX Classes
 90
        0
 91
        3
280
     0
281
     0
  0
CLASS
  1
RASTERVARIABLES
  2
AcDbRasterVariables
  3
ISM
 90
        0
 91
        3
280
     0
281
     0
  0
CLASS
  1
IMAGEDEF
  2
AcDbRasterImageDef
  3
ISM
 90
        0
 91
        3
280
     0
281
     0
  0
CLASS
  1
IMAGEDEF_REACTOR
  2
AcDbRasterImageDefReactor
  3
ISM
 90
        1
 91
        3
280
     0
281
     0
  0
CLASS
  1
IDBUFFER
  2
AcDbIdBuffer
  3
ObjectDBX Classes
 90
        0
 91
        3
280
     0
281
     0
  0
CLASS
  1
SPATIAL_FILTER
  2
AcDbSpatialFilter
  3
ObjectDBX Classes
 90
        0
 91
        3
280
     0
281
     0
  0
CLASS
  1
XRECORD
  2
AcDbXrecord
  3
ObjectDBX Classes
 90
        0
 91
        1
280
     0
281
     0
  0
CLASS
  1
SORTENTSTABLE
  2
AcDbSortentsTable
  3
ObjectDBX Classes
 90
        0
 91
        3
280
     0
281
     0
  0
CLASS
  1
LAYER_INDEX
  2
AcDbLayerIndex
  3
ObjectDBX Classes
 90
        0
 91
        3
280
     0
281
     0
  0
CLASS
  1
SPATIAL_INDEX
  2
AcDbSpatialIndex
  3
AutoCAD 2000
 90
        0
 91
        3
280
     0
281
     0
  0
CLASS
  1
OBJECT_PTR
  2
CAseDLPNTableRecord
  3
ASE-LPNTableRecord
 90
        1
 91
        3
280
     0
281
     0
  0
CLASS
  1
LAYOUT
  2
AcDbLayout
  3
ObjectDBX Classes
 90
        0
 91
        1
280
     0
281
     0
  0
CLASS
  1
PLOTSETTINGS
  2
AcDbPlotSettings
  3
ObjectDBX Classes
 90
        0
 91
        3
280
     0
281
     0
  0
CLASS
  1
ACDBDICTIONARYWDFLT
  2
AcDbDictionaryWithDefault
  3
ObjectDBX Classes
 90
        0
 91
        3
280
     0
281
     0
  0
CLASS
  1
ACDBPLACEHOLDER
  2
AcDbPlaceHolder
  3
ObjectDBX Classes
 90
        0
 91
        1
280
     0
281
     0
  0
CLASS
  1
SCALE
  2
AcDbScale
  3
ObjectDBX Classes
 90
     1153
 91
        3
280
     0
281
     0
  0
CLASS
  1
MATERIAL
  2
AcDbMaterial
  3
ObjectDBX Classes
 90
     1153
 91
        3
280
     0
281
     0
  0
CLASS
  1
VISUALSTYLE
  2
AcDbVisualStyle
  3
ObjectDBX Classes
 90
     4095
 91
        3
280
     0
281
     0
  0
CLASS
  1
TABLESTYLE
  2
AcDbTableStyle
  3
ObjectDBX Classes
 90
     4095
 91
        3
280
     0
281
     0
  0
CLASS
  1
DIMASSOC
  2
AcDbDimAssoc
  3
"AcDbDimAssoc|Product Desc:     AcDim ARX App For Dimension|Company:          Autodesk, Inc.|WEB Address:      www.autodesk.com"
 90
        0
 91
        3
280
     0
281
     0
  0
CLASS
  1
CELLSTYLEMAP
  2
AcDbCellStyleMap
  3
ObjectDBX Classes
 90
     1152
 91
        3
280
     0
281
     0
  0
CLASS
  1
SUN
  2
AcDbSun
  3
SCENEOE
 90
     1153
 91
        3
280
     0
281
     0
  0
CLASS
  1
MLEADERSTYLE
  2
AcDbMLeaderStyle
  3
ACDB_MLEADERSTYLE_CLASS
 90
     4095
 91
        3
280
     0
281
     0
  0
CLASS
  1
FIELD
  2
AcDbField
  3
ObjectDBX Classes
 90
     1152
 91
        3
280
     0
281
     0
  0
CLASS
  1
FIELDLIST
  2
AcDbFieldList
  3
ObjectDBX Classes
 90
     1152
 91
        3
280
     0
281
     0
  0
ENDSEC
  0
SECTION
  2
TABLES
  0
TABLE
  2
VPORT
  5
7
330
0
100
AcDbSymbolTable
 70
     1
  0
VPORT
  5
15
330
7
100
AcDbSymbolTableRecord
100
AcDbViewportTableRecord
  2
*ACTIVE
 70
     0
 10
0.0
 20
0.0
 11
1.0
 21
1.0
 12
296.9999999999999
 22
0.0000000000001137
 13
0.0
 23
0.0
 14
1.0
 24
1.0
 15
0.0
 25
0.0
 16
0.0
 26
0.0
 36
1.0
 17
0.0
 27
209.9999999999999
 37
0.0
 40
428.4
 41
2.120713305898491
 42
50.0
 43
0.0
 44
0.0
 50
0.0
 51
0.0
 71
    16
 72
  2000
 73
     1
 74
     1
 75
     0
 76
     0
 77
     0
 78
     0
281
     0
 65
     1
110
0.0
120
0.0
130
0.0
111
1.0
121
0.0
131
0.0
112
0.0
122
1.0
132
0.0
 79
     1
146
0.0
348
26C
 60
     3
 61
     5
292
     1
282
     1
141
0.0
142
0.0
 63
   256
361
F1A
  0
ENDTAB
  0
TABLE
  2
LTYPE
  5
4
330
0
100
AcDbSymbolTable
 70
     3
  0
LTYPE
  5
11
330
4
100
AcDbSymbolTableRecord
100
AcDbLinetypeTableRecord
  2
ByBlock
 70
     0
  3

 72
    65
 73
     0
 40
0.0
  0
LTYPE
  5
12
330
4
100
AcDbSymbolTableRecord
100
AcDbLinetypeTableRecord
  2
ByLayer
 70
     0
  3
Solid line
 72
    65
 73
     0
 40
0.0
  0
LTYPE
  5
13
330
4
100
AcDbSymbolTableRecord
100
AcDbLinetypeTableRecord
  2
Continuous
 70
     0
  3
Solid line
 72
    65
 73
     0
 40
0.0
  0
LTYPE
  5
529A
330
4
100
AcDbSymbolTableRecord
100
AcDbLinetypeTableRecord
  2
CENTER
 70
     0
  3
----------  --  ----------  --  
 72
    65
 73
     4
 40
20.0
 49
12.5
 74
     0
 49
-2.5
 74
     0
 49
2.5
 74
     0
 49
-2.5
 74
     0
  0
LTYPE
  5
529B
330
4
100
AcDbSymbolTableRecord
100
AcDbLinetypeTableRecord
  2
HIDDEN
 70
     0
  3
Hidden _ _ _ _ _ _ _ _ _ _ _ _ _ _ _ _ _ _ _ _ 
 72
    65
 73
     2
 40
9.524999999999999
 49
6.35
 74
     0
 49
-3.175
 74
     0
  0
ENDTAB
  0
TABLE
  2
LAYER
  5
2
102
{ACAD_XDICTIONARY
360
2E1
102
}
330
0
100
AcDbSymbolTable
 70
    10
  0
LAYER
  5
14
330
2
100
AcDbSymbolTableRecord
100
AcDbLayerTableRecord
  2
0
 70
     0
 62
     7
  6
Continuous
370
    -3
390
1D
347
266
  0
LAYER
  5
4A
330
2
100
AcDbSymbolTableRecord
100
AcDbLayerTableRecord
  2
Defpoints
 70
     0
 62
    -7
  6
Continuous
290
     0
370
    -3
390
1D
347
266
  0
LAYER
  5
667
330
2
100
AcDbSymbolTableRecord
100
AcDbLayerTableRecord
  2
レイヤー 1
 70
     0
 62
     7
  6
Continuous
370
    -3
390
1D
347
266
  0
LAYER
  5
528F
330
2
100
AcDbSymbolTableRecord
100
AcDbLayerTableRecord
  2
寸法
 70
     0
 62
     7
  6
Continuous
370
    13
390
1D
347
266
1001
AcAecLayerStandard
1000

1000

  0
LAYER
  5
5293
330
2
100
AcDbSymbolTableRecord
100
AcDbLayerTableRecord
  2
テンプレート
 70
     0
 62
     7
  6
Continuous
370
    20
390
1D
347
266
1001
AcAecLayerStandard
1000

1000

  0
LAYER
  5
5294
330
2
100
AcDbSymbolTableRecord
100
AcDbLayerTableRecord
  2
TFORMLOGO
 70
     0
 62
     7
  6
Continuous
370
    20
390
1D
347
266
  0
LAYER
  5
5295
330
2
100
AcDbSymbolTableRecord
100
AcDbLayerTableRecord
  2
PRINT BORDER
 70
     0
 62
     4
  6
Continuous
290
     0
370
    -3
390
1D
347
266
1001
AcAecLayerStandard
1000

1000

  0
LAYER
  5
5298
330
2
100
AcDbSymbolTableRecord
100
AcDbLayerTableRecord
  2
CutoutUnderlay
 70
     0
 62
   254
  6
Continuous
370
    20
390
1D
347
266
1001
AcAecLayerStandard
1000

1000

  0
LAYER
  5
5299
330
2
100
AcDbSymbolTableRecord
100
AcDbLayerTableRecord
  2
CutoutOverlay
 70
     0
 62
     7
  6
Continuous
370
    20
390
1D
347
266
1001
AcAecLayerStandard
1000

1000

  0
LAYER
  5
7445
330
2
100
AcDbSymbolTableRecord
100
AcDbLayerTableRecord
  2
モデル
 70
     0
 62
     7
  6
Continuous
370
    20
390
1D
347
266
1001
AcAecLayerStandard
1000

1000

  0
ENDTAB
  0
TABLE
  2
STYLE
  5
3
330
0
100
AcDbSymbolTable
 70
     2
  0
STYLE
  5
17
330
3
100
AcDbSymbolTableRecord
100
AcDbTextStyleTableRecord
  2
Standard
 70
     0
 40
0.0
 41
1.0
 50
0.0
 71
     0
 42
2.5
  3
txt
  4
BIGFONT.SHX
  0
STYLE
  5
39
330
3
100
AcDbSymbolTableRecord
100
AcDbTextStyleTableRecord
  2
ＭＳ ゴシック
 70
     0
 40
0.0
 41
1.0
 50
0.0
 71
     0
 42
2.5
  3
msgothic.ttc
  4
ＭＳ ゴシック
1001
ACAD
1000
ＭＳ ゴシック
1071
        0
  0
ENDTAB
  0
TABLE
  2
VIEW
  5
5
330
0
100
AcDbSymbolTable
 70
     0
  0
ENDTAB
  0
TABLE
  2
UCS
  5
6
330
0
100
AcDbSymbolTable
 70
     0
  0
ENDTAB
  0
TABLE
  2
APPID
  5
8
330
0
100
AcDbSymbolTable
 70
     6
  0
APPID
  5
16
330
8
100
AcDbSymbolTableRecord
100
AcDbRegAppTableRecord
  2
ACAD
 70
     0
  0
APPID
  5
7AC
330
8
100
AcDbSymbolTableRecord
100
AcDbRegAppTableRecord
  2
AcAecLayerStandard
 70
     0
  0
APPID
  5
5992
330
8
100
AcDbSymbolTableRecord
100
AcDbRegAppTableRecord
  2
ACAD_MLEADERVER
 70
     0
  0
APPID
  5
6C9A
330
8
100
AcDbSymbolTableRecord
100
AcDbRegAppTableRecord
  2
PLOTTRANSPARENCY
 70
     0
  0
APPID
  5
6D11
330
8
100
AcDbSymbolTableRecord
100
AcDbRegAppTableRecord
  2
IDW_INSPOINT
 70
     0
  0
APPID
  5
7025
330
8
100
AcDbSymbolTableRecord
100
AcDbRegAppTableRecord
  2
PE_DIMMEASUREMENT
 70
     0
  0
ENDTAB
  0
TABLE
  2
DIMSTYLE
  5
9
330
0
100
AcDbSymbolTable
 70
     1
100
AcDbDimStyleTable
  0
DIMSTYLE
105
57
102
{ACAD_REACTORS
330
7F53
330
7F54
330
7F5C
330
7F60
330
7F63
330
7F65
330
801D
330
802C
330
803D
330
804D
330
805C
330
806D
330
807C
330
809A
330
80B2
330
815C
330
817C
330
818B
330
8199
330
81A7
102
}
330
9
100
AcDbSymbolTableRecord
100
AcDbDimStyleTableRecord
  2
tfrom線あり
 70
     0
  3
<>
  4
[]
 41
1.5
 42
5.0
 43
0.9999999999999999
 44
0.0
 73
     0
 74
     0
 77
     1
 78
    11
140
5.0
141
0.0
143
1.0
147
2.0
171
     1
174
     1
178
     0
179
     2
271
     0
272
     1
276
     2
284
    11
285
    11
286
    11
289
     0
340
39
341
4E
342
4E
  0
ENDTAB
  0
TABLE
  2
BLOCK_RECORD
  5
1
330
0
100
AcDbSymbolTable
 70
    25
  0
BLOCK_RECORD
  5
A
102
{ACAD_XDICTIONARY
360
59FD
102
}
330
1
100
AcDbSymbolTableRecord
100
AcDbBlockTableRecord
  2
*MODEL_SPACE
340
20
 70
     0
280
     1
281
     0
  0
BLOCK_RECORD
  5
B
330
1
100
AcDbSymbolTableRecord
100
AcDbBlockTableRecord
  2
*PAPER_SPACE
340
21
 70
     0
280
     1
281
     0
  0
BLOCK_RECORD
  5
4E
330
1
100
AcDbSymbolTableRecord
100
AcDbBlockTableRecord
  2
_DOT
340
0
102
{BLKREFS
331
7F39
331
7F3A
331
7F6E
331
7F6F
331
7F7A
331
7F7B
331
8026
331
8027
331
8035
331
8036
331
8049
331
804A
331
8056
331
8057
331
8065
331
8066
331
8076
331
8077
331
8085
331
8086
331
8094
331
8095
331
80A3
331
80A4
331
80BB
331
80BC
331
8165
331
8166
331
8185
331
8186
331
8192
331
8193
331
81A0
331
81A1
331
81AF
331
81B0
102
}
 70
     0
280
     1
281
     0
  0
BLOCK_RECORD
  5
690
330
1
100
AcDbSymbolTableRecord
100
AcDbBlockTableRecord
  2
block 3
340
0
102
{BLKREFS
331
52DC
102
}
 70
     0
280
     1
281
     0
  0
BLOCK_RECORD
  5
693
330
1
100
AcDbSymbolTableRecord
100
AcDbBlockTableRecord
  2
block 4
340
0
102
{BLKREFS
331
692
102
}
 70
     0
280
     1
281
     0
  0
BLOCK_RECORD
  5
6A2
330
1
100
AcDbSymbolTableRecord
100
AcDbBlockTableRecord
  2
block 5
340
0
102
{BLKREFS
331
6A1
102
}
 70
     0
280
     1
281
     0
  0
BLOCK_RECORD
  5
52D7
330
1
100
AcDbSymbolTableRecord
100
AcDbBlockTableRecord
  2
名称未設定-1
340
0
102
{BLKREFS
331
54B3
102
}
 70
     1
280
     1
281
     0
  0
BLOCK_RECORD
  5
52DA
330
1
100
AcDbSymbolTableRecord
100
AcDbBlockTableRecord
  2
block 2
340
0
102
{BLKREFS
331
52D9
102
}
 70
     0
280
     1
281
     0
  0
BLOCK_RECORD
  5
74B6
330
1
100
AcDbSymbolTableRecord
100
AcDbBlockTableRecord
  2
_NONE
340
0
 70
     0
280
     1
281
     0
  0
BLOCK_RECORD
  5
7F33
330
1
100
AcDbSymbolTableRecord
100
AcDbBlockTableRecord
  2
*D7
340
0
 70
     0
280
     1
281
     0
  0
BLOCK_RECORD
  5
7F68
330
1
100
AcDbSymbolTableRecord
100
AcDbBlockTableRecord
  2
*D8
340
0
 70
     0
280
     1
281
     0
  0
BLOCK_RECORD
  5
7F74
330
1
100
AcDbSymbolTableRecord
100
AcDbBlockTableRecord
  2
*D9
340
0
 70
     0
280
     1
281
     0
  0
BLOCK_RECORD
  5
8020
330
1
100
AcDbSymbolTableRecord
100
AcDbBlockTableRecord
  2
*D10
340
0
 70
     0
280
     1
281
     0
  0
BLOCK_RECORD
  5
802F
330
1
100
AcDbSymbolTableRecord
100
AcDbBlockTableRecord
  2
*D11
340
0
 70
     0
280
     1
281
     0
  0
BLOCK_RECORD
  5
8040
330
1
100
AcDbSymbolTableRecord
100
AcDbBlockTableRecord
  2
*D12
340
0
 70
     0
280
     1
281
     0
  0
BLOCK_RECORD
  5
8050
330
1
100
AcDbSymbolTableRecord
100
AcDbBlockTableRecord
  2
*D13
340
0
 70
     0
280
     1
281
     0
  0
BLOCK_RECORD
  5
805F
330
1
100
AcDbSymbolTableRecord
100
AcDbBlockTableRecord
  2
*D14
340
0
 70
     0
280
     1
281
     0
  0
BLOCK_RECORD
  5
8070
330
1
100
AcDbSymbolTableRecord
100
AcDbBlockTableRecord
  2
*D15
340
0
 70
     0
280
     1
281
     0
  0
BLOCK_RECORD
  5
807F
330
1
100
AcDbSymbolTableRecord
100
AcDbBlockTableRecord
  2
*D16
340
0
 70
     0
280
     1
281
     0
  0
BLOCK_RECORD
  5
808E
330
1
100
AcDbSymbolTableRecord
100
AcDbBlockTableRecord
  2
*D17
340
0
 70
     0
280
     1
281
     0
  0
BLOCK_RECORD
  5
809D
330
1
100
AcDbSymbolTableRecord
100
AcDbBlockTableRecord
  2
*D18
340
0
 70
     0
280
     1
281
     0
  0
BLOCK_RECORD
  5
80B5
330
1
100
AcDbSymbolTableRecord
100
AcDbBlockTableRecord
  2
*D19
340
0
 70
     0
280
     1
281
     0
  0
BLOCK_RECORD
  5
815F
330
1
100
AcDbSymbolTableRecord
100
AcDbBlockTableRecord
  2
*D20
340
0
 70
     0
280
     1
281
     0
  0
BLOCK_RECORD
  5
817F
330
1
100
AcDbSymbolTableRecord
100
AcDbBlockTableRecord
  2
*D21
340
0
 70
     0
280
     1
281
     0
  0
BLOCK_RECORD
  5
818C
330
1
100
AcDbSymbolTableRecord
100
AcDbBlockTableRecord
  2
*D22
340
0
 70
     0
280
     1
281
     0
  0
BLOCK_RECORD
  5
819A
330
1
100
AcDbSymbolTableRecord
100
AcDbBlockTableRecord
  2
*D23
340
0
 70
     0
280
     1
281
     0
  0
BLOCK_RECORD
  5
81A9
330
1
100
AcDbSymbolTableRecord
100
AcDbBlockTableRecord
  2
*D24
340
0
 70
     0
280
     1
281
     0
  0
ENDTAB
  0
ENDSEC
  0
SECTION
  2
BLOCKS
  0
BLOCK
  5
D
330
A
100
AcDbEntity
  8
0
390
1D
100
AcDbBlockBegin
  2
*MODEL_SPACE
 70
     0
 10
0.0
 20
0.0
 30
0.0
  3
*MODEL_SPACE
  1
*MODEL_SPACE
  0
ENDBLK
  5
E
330
A
100
AcDbEntity
  8
0
390
1D
100
AcDbBlockEnd
  0
BLOCK
  5
F
330
B
100
AcDbEntity
 67
     1
  8
0
390
1D
100
AcDbBlockBegin
  2
*PAPER_SPACE
 70
     0
 10
0.0
 20
0.0
 30
0.0
  3
*PAPER_SPACE
  1
*PAPER_SPACE
  0
ENDBLK
  5
10
330
B
100
AcDbEntity
 67
     1
  8
0
390
1D
100
AcDbBlockEnd
  0
BLOCK
  5
5282
330
4E
100
AcDbEntity
  8
0
390
1D
100
AcDbBlockBegin
  2
_DOT
 70
     0
 10
0.0
 20
0.0
 30
0.0
  3
_DOT
  1
_DOT
  0
POLYLINE
  5
5284
330
4E
100
AcDbEntity
  8
0
  6
ByBlock
 62
     0
370
    -2
390
1D
100
AcDb2dPolyline
 66
     1
 10
0.0
 20
0.0
 30
0.0
 70
     1
 40
0.5
 41
0.5
  0
VERTEX
  5
5285
330
5284
100
AcDbEntity
  8
0
  6
ByBlock
 62
     0
370
    -2
390
1D
100
AcDbVertex
100
AcDb2dVertex
 10
-0.25
 20
0.0
 30
0.0
 42
1.0
  0
VERTEX
  5
5286
330
5284
100
AcDbEntity
  8
0
  6
ByBlock
 62
     0
370
    -2
390
1D
100
AcDbVertex
100
AcDb2dVertex
 10
0.25
 20
0.0
 30
0.0
 42
1.0
  0
SEQEND
  5
5287
330
5284
100
AcDbEntity
  8
0
390
1D
  0
LINE
  5
5288
330
4E
100
AcDbEntity
  8
0
  6
ByBlock
 62
     0
370
    -2
390
1D
100
AcDbLine
 10
-0.5
 20
0.0
 30
0.0
 11
-1.0
 21
0.0
 31
0.0
  0
ENDBLK
  5
5289
330
4E
100
AcDbEntity
  8
0
390
1D
100
AcDbBlockEnd
  0
BLOCK
  5
691
330
690
100
AcDbEntity
  8
0
100
AcDbBlockBegin
  2
block 3
 70
     0
 10
0.0
 20
0.0
 30
0.0
  3
block 3
  1
block 3
  0
INSERT
  5
692
330
690
100
AcDbEntity
  8
レイヤー 1
100
AcDbBlockReference
  2
block 4
 10
0.0
 20
0.0
 30
0.0
  0
ENDBLK
  5
6AF
330
690
100
AcDbEntity
  8
0
100
AcDbBlockEnd
  0
BLOCK
  5
694
330
693
100
AcDbEntity
  8
0
100
AcDbBlockBegin
  2
block 4
 70
     0
 10
0.0
 20
0.0
 30
0.0
  3
block 4
  1
block 4
  0
POLYLINE
  5
695
330
693
100
AcDbEntity
  8
レイヤー 1
370
     0
100
AcDb2dPolyline
 66
     1
 10
0.0
 20
0.0
 30
0.0
  0
VERTEX
  5
696
330
695
100
AcDbEntity
  8
レイヤー 1
370
     0
100
AcDbVertex
100
AcDb2dVertex
 10
83.79545727667795
 20
167.6444858234922
 30
0.0
  0
VERTEX
  5
697
330
695
100
AcDbEntity
  8
レイヤー 1
370
     0
100
AcDbVertex
100
AcDb2dVertex
 10
83.79545727667795
 20
159.7968976406313
 30
0.0
  0
VERTEX
  5
698
330
695
100
AcDbEntity
  8
レイヤー 1
370
     0
100
AcDbVertex
100
AcDb2dVertex
 10
71.3631329975216
 20
159.7968976406313
 30
0.0
  0
VERTEX
  5
699
330
695
100
AcDbEntity
  8
レイヤー 1
370
     0
100
AcDbVertex
100
AcDb2dVertex
 10
71.3631329975216
 20
127.8027915271048
 30
0.0
  0
VERTEX
  5
69A
330
695
100
AcDbEntity
  8
レイヤー 1
370
     0
100
AcDbVertex
100
AcDb2dVertex
 10
60.43011526263018
 20
127.8027915271048
 30
0.0
  0
VERTEX
  5
69B
330
695
100
AcDbEntity
  8
レイヤー 1
370
     0
100
AcDbVertex
100
AcDb2dVertex
 10
60.43011526263018
 20
159.7968976406313
 30
0.0
  0
VERTEX
  5
69C
330
695
100
AcDbEntity
  8
レイヤー 1
370
     0
100
AcDbVertex
100
AcDb2dVertex
 10
48.21793273020759
 20
159.7968976406313
 30
0.0
  0
VERTEX
  5
69D
330
695
100
AcDbEntity
  8
レイヤー 1
370
     0
100
AcDbVertex
100
AcDb2dVertex
 10
48.21793273020759
 20
167.6444858234922
 30
0.0
  0
VERTEX
  5
69E
330
695
100
AcDbEntity
  8
レイヤー 1
370
     0
100
AcDbVertex
100
AcDb2dVertex
 10
83.79545727667795
 20
167.6444858234922
 30
0.0
  0
SEQEND
  5
69F
330
695
100
AcDbEntity
  8
レイヤー 1
370
     0
  0
HATCH
  5
6A0
330
693
100
AcDbEntity
  8
レイヤー 1
 62
   250
420
  2234388
100
AcDbHatch
 10
0.0
 20
0.0
 30
0.0
210
0.0
220
0.0
230
1.0
  2
SOLID
 70
     1
 71
     0
 91
        1
 92
        1
 93
        8
 72
     1
 10
83.79545727667795
 20
167.6444858234922
 11
83.79545727667795
 21
159.7968976406313
 72
     1
 10
83.79545727667795
 20
159.7968976406313
 11
71.3631329975216
 21
159.7968976406313
 72
     1
 10
71.3631329975216
 20
159.7968976406313
 11
71.3631329975216
 21
127.8027915271048
 72
     1
 10
71.3631329975216
 20
127.8027915271048
 11
60.43011526263018
 21
127.8027915271048
 72
     1
 10
60.43011526263018
 20
127.8027915271048
 11
60.43011526263018
 21
159.7968976406313
 72
     1
 10
60.43011526263018
 20
159.7968976406313
 11
48.21793273020759
 21
159.7968976406313
 72
     1
 10
48.21793273020759
 20
159.7968976406313
 11
48.21793273020759
 21
167.6444858234922
 72
     1
 10
48.21793273020759
 20
167.6444858234922
 11
83.79545727667795
 21
167.6444858234922
 97
        0
 75
     2
 76
     1
 98
        0
  0
INSERT
  5
6A1
330
693
100
AcDbEntity
  8
レイヤー 1
100
AcDbBlockReference
  2
block 5
 10
0.0
 20
0.0
 30
0.0
  0
ENDBLK
  5
6AE
330
693
100
AcDbEntity
  8
0
100
AcDbBlockEnd
  0
BLOCK
  5
6A3
330
6A2
100
AcDbEntity
  8
0
100
AcDbBlockBegin
  2
block 5
 70
     0
 10
0.0
 20
0.0
 30
0.0
  3
block 5
  1
block 5
  0
SPLINE
  5
6A4
330
6A2
100
AcDbEntity
  8
レイヤー 1
370
     0
100
AcDbSpline
210
0.0
220
0.0
230
1.0
 70
    11
 71
     3
 72
    56
 73
    52
 74
     0
 42
0.000000001
 43
0.0000000001
 40
0.0
 40
0.0
 40
0.0
 40
0.0
 40
1.0
 40
1.0
 40
1.0
 40
2.0
 40
2.0
 40
2.0
 40
3.0
 40
3.0
 40
3.0
 40
4.0
 40
4.0
 40
4.0
 40
5.0
 40
5.0
 40
5.0
 40
6.0
 40
6.0
 40
6.0
 40
7.0
 40
7.0
 40
7.0
 40
8.0
 40
8.0
 40
8.0
 40
9.0
 40
9.0
 40
9.0
 40
10.0
 40
10.0
 40
10.0
 40
11.0
 40
11.0
 40
11.0
 40
12.0
 40
12.0
 40
12.0
 40
13.0
 40
13.0
 40
13.0
 40
14.0
 40
14.0
 40
14.0
 40
15.0
 40
15.0
 40
15.0
 40
16.0
 40
16.0
 40
16.0
 40
17.0
 40
17.0
 40
17.0
 40
17.0
 10
100.4504378777679
 20
166.69157178364
 30
0.0
 10
101.9848844191641
 20
167.1313385124438
 30
0.0
 10
103.9637485713373
 20
166.7649523658846
 30
0.0
 10
103.9637485713373
 20
166.7649523658846
 30
0.0
 10
103.9637485713373
 20
166.7649523658846
 30
0.0
 10
103.0132460999156
 20
163.911205638077
 30
0.0
 10
103.0132460999156
 20
163.911205638077
 30
0.0
 10
103.0132460999156
 20
163.911205638077
 30
0.0
 10
101.0674548862189
 20
164.3601018759394
 30
0.0
 10
99.57090442016032
 20
163.1805004036133
 30
0.0
 10
98.40508333886608
 20
162.258247733807
 30
0.0
 10
97.65301849830304
 20
159.804132345923
 30
0.0
 10
97.3598406791005
 20
158.8699940888517
 30
0.0
 10
97.3598406791005
 20
158.8699940888517
 30
0.0
 10
96.07137411762282
 20
154.9119212747295
 30
0.0
 10
96.07137411762282
 20
154.9119212747295
 30
0.0
 10
96.07137411762282
 20
154.9119212747295
 30
0.0
 10
100.3012651448482
 20
154.9119212747295
 30
0.0
 10
100.3012651448482
 20
154.9119212747295
 30
0.0
 10
100.3012651448482
 20
154.9119212747295
 30
0.0
 10
99.64152892419852
 20
152.4199098115079
 30
0.0
 10
99.64152892419852
 20
152.4199098115079
 30
0.0
 10
99.64152892419852
 20
152.4199098115079
 30
0.0
 10
95.38097652692731
 20
152.4199098115079
 30
0.0
 10
95.38097652692731
 20
152.4199098115079
 30
0.0
 10
95.38097652692731
 20
152.4199098115079
 30
0.0
 10
87.75353009080013
 20
127.8027915271048
 30
0.0
 10
87.75353009080013
 20
127.8027915271048
 30
0.0
 10
87.75353009080013
 20
127.8027915271048
 30
0.0
 10
85.36538832498108
 20
127.8027915271048
 30
0.0
 10
85.36538832498108
 20
127.8027915271048
 30
0.0
 10
85.36538832498108
 20
127.8027915271048
 30
0.0
 10
93.00006946639998
 20
152.4199098115079
 30
0.0
 10
93.00006946639998
 20
152.4199098115079
 30
0.0
 10
93.00006946639998
 20
152.4199098115079
 30
0.0
 10
89.85297266450198
 20
152.4199098115079
 30
0.0
 10
89.85297266450198
 20
152.4199098115079
 30
0.0
 10
89.85297266450198
 20
152.4199098115079
 30
0.0
 10
90.51270888515164
 20
154.9119212747295
 30
0.0
 10
90.51270888515164
 20
154.9119212747295
 30
0.0
 10
90.51270888515164
 20
154.9119212747295
 30
0.0
 10
93.6904670570955
 20
154.9119212747295
 30
0.0
 10
93.6904670570955
 20
154.9119212747295
 30
0.0
 10
93.6904670570955
 20
154.9119212747295
 30
0.0
 10
94.81598049462158
 20
158.3616699146644
 30
0.0
 10
94.81598049462158
 20
158.3616699146644
 30
0.0
 10
95.7237637538445
 20
161.2605474231013
 30
0.0
 10
96.4968436907311
 20
162.8139420021662
 30
0.0
 10
97.15657991138076
 20
163.9844139654337
 30
0.0
 10
97.81183750494507
 20
165.1523021053827
 30
0.0
 10
99.1047826935081
 20
166.3084769129547
 30
0.0
 10
100.4504378777679
 20
166.69157178364
 30
0.0
  0
HATCH
  5
6A5
330
6A2
100
AcDbEntity
  8
レイヤー 1
 62
   250
420
  2234388
100
AcDbHatch
 10
0.0
 20
0.0
 30
0.0
210
0.0
220
0.0
230
1.0
  2
SOLID
 70
     1
 71
     0
 91
        1
 92
        1
 93
        1
 72
     4
 94
        3
 73
     0
 74
     1
 95
       56
 96
       52
 40
0.0
 40
0.0
 40
0.0
 40
0.0
 40
1.0
 40
1.0
 40
1.0
 40
2.0
 40
2.0
 40
2.0
 40
3.0
 40
3.0
 40
3.0
 40
4.0
 40
4.0
 40
4.0
 40
5.0
 40
5.0
 40
5.0
 40
6.0
 40
6.0
 40
6.0
 40
7.0
 40
7.0
 40
7.0
 40
8.0
 40
8.0
 40
8.0
 40
9.0
 40
9.0
 40
9.0
 40
10.0
 40
10.0
 40
10.0
 40
11.0
 40
11.0
 40
11.0
 40
12.0
 40
12.0
 40
12.0
 40
13.0
 40
13.0
 40
13.0
 40
14.0
 40
14.0
 40
14.0
 40
15.0
 40
15.0
 40
15.0
 40
16.0
 40
16.0
 40
16.0
 40
17.0
 40
17.0
 40
17.0
 40
17.0
 10
100.4504378777679
 20
166.69157178364
 10
101.9848844191641
 20
167.1313385124438
 10
103.9637485713373
 20
166.7649523658846
 10
103.9637485713373
 20
166.7649523658846
 10
103.9637485713373
 20
166.7649523658846
 10
103.0132460999156
 20
163.911205638077
 10
103.0132460999156
 20
163.911205638077
 10
103.0132460999156
 20
163.911205638077
 10
101.0674548862189
 20
164.3601018759394
 10
99.57090442016032
 20
163.1805004036133
 10
98.40508333886608
 20
162.258247733807
 10
97.65301849830304
 20
159.804132345923
 10
97.3598406791005
 20
158.8699940888517
 10
97.3598406791005
 20
158.8699940888517
 10
96.07137411762282
 20
154.9119212747295
 10
96.07137411762282
 20
154.9119212747295
 10
96.07137411762282
 20
154.9119212747295
 10
100.3012651448482
 20
154.9119212747295
 10
100.3012651448482
 20
154.9119212747295
 10
100.3012651448482
 20
154.9119212747295
 10
99.64152892419852
 20
152.4199098115079
 10
99.64152892419852
 20
152.4199098115079
 10
99.64152892419852
 20
152.4199098115079
 10
95.38097652692731
 20
152.4199098115079
 10
95.38097652692731
 20
152.4199098115079
 10
95.38097652692731
 20
152.4199098115079
 10
87.75353009080013
 20
127.8027915271048
 10
87.75353009080013
 20
127.8027915271048
 10
87.75353009080013
 20
127.8027915271048
 10
85.36538832498108
 20
127.8027915271048
 10
85.36538832498108
 20
127.8027915271048
 10
85.36538832498108
 20
127.8027915271048
 10
93.00006946639998
 20
152.4199098115079
 10
93.00006946639998
 20
152.4199098115079
 10
93.00006946639998
 20
152.4199098115079
 10
89.85297266450198
 20
152.4199098115079
 10
89.85297266450198
 20
152.4199098115079
 10
89.85297266450198
 20
152.4199098115079
 10
90.51270888515164
 20
154.9119212747295
 10
90.51270888515164
 20
154.9119212747295
 10
90.51270888515164
 20
154.9119212747295
 10
93.6904670570955
 20
154.9119212747295
 10
93.6904670570955
 20
154.9119212747295
 10
93.6904670570955
 20
154.9119212747295
 10
94.81598049462158
 20
158.3616699146644
 10
94.81598049462158
 20
158.3616699146644
 10
95.7237637538445
 20
161.2605474231013
 10
96.4968436907311
 20
162.8139420021662
 10
97.15657991138076
 20
163.9844139654337
 10
97.81183750494507
 20
165.1523021053827
 10
99.1047826935081
 20
166.3084769129547
 10
100.4504378777679
 20
166.69157178364
 97
        0
 75
     2
 76
     1
 98
        0
  0
SPLINE
  5
6A6
330
6A2
100
AcDbEntity
  8
レイヤー 1
370
     0
100
AcDbSpline
210
0.0
220
0.0
230
1.0
 70
    11
 71
     3
 72
    38
 73
    34
 74
     0
 42
0.000000001
 43
0.0000000001
 40
0.0
 40
0.0
 40
0.0
 40
0.0
 40
1.0
 40
1.0
 40
1.0
 40
2.0
 40
2.0
 40
2.0
 40
3.0
 40
3.0
 40
3.0
 40
4.0
 40
4.0
 40
4.0
 40
5.0
 40
5.0
 40
5.0
 40
6.0
 40
6.0
 40
6.0
 40
7.0
 40
7.0
 40
7.0
 40
8.0
 40
8.0
 40
8.0
 40
9.0
 40
9.0
 40
9.0
 40
10.0
 40
10.0
 40
10.0
 40
11.0
 40
11.0
 40
11.0
 40
11.0
 10
126.377554584636
 20
154.8151140277308
 30
0.0
 10
126.377554584636
 20
154.8151140277308
 30
0.0
 10
128.8311532078563
 20
154.8151140277308
 30
0.0
 10
128.8311532078563
 20
154.8151140277308
 30
0.0
 10
128.8311532078563
 20
154.8151140277308
 30
0.0
 10
127.7345785914971
 20
151.3062819612468
 30
0.0
 10
127.7345785914971
 20
151.3062819612468
 30
0.0
 10
128.571392836906
 20
152.2922689395754
 30
0.0
 10
129.8860421413442
 20
153.604506675583
 30
0.0
 10
131.0163787157314
 20
154.2664822097754
 30
0.0
 10
132.7044766171327
 20
155.2500576196734
 30
0.0
 10
133.6642808525008
 20
155.3847609420097
 30
0.0
 10
134.7284715499351
 20
155.3565111403944
 30
0.0
 10
134.7284715499351
 20
155.3565111403944
 30
0.0
 10
133.6877075172549
 20
152.0345756272799
 30
0.0
 10
133.6877075172549
 20
152.0345756272799
 30
0.0
 10
133.011434827367
 20
152.3184516825359
 30
0.0
 10
130.930940291334
 20
151.7768823149844
 30
0.0
 10
129.739280976855
 20
150.9162968950455
 30
0.0
 10
128.66613302525
 20
150.1454562717016
 30
0.0
 10
127.9192358313239
 20
149.4857200510519
 30
0.0
 10
127.0393578639405
 20
147.8282835196966
 30
0.0
 10
126.164647543194
 20
146.1699857139017
 30
0.0
 10
125.4742499524985
 20
143.5262176944419
 30
0.0
 10
124.2822461282437
 20
139.6959580071401
 30
0.0
 10
124.2822461282437
 20
139.6959580071401
 30
0.0
 10
120.5753209406769
 20
127.8027915271048
 30
0.0
 10
120.5753209406769
 20
127.8027915271048
 30
0.0
 10
120.5753209406769
 20
127.8027915271048
 30
0.0
 10
118.1964809388044
 20
127.8027915271048
 30
0.0
 10
118.1964809388044
 20
127.8027915271048
 30
0.0
 10
118.1964809388044
 20
127.8027915271048
 30
0.0
 10
126.377554584636
 20
154.8151140277308
 30
0.0
 10
126.377554584636
 20
154.8151140277308
 30
0.0
  0
HATCH
  5
6A7
330
6A2
100
AcDbEntity
  8
レイヤー 1
 62
   250
420
  2234388
100
AcDbHatch
 10
0.0
 20
0.0
 30
0.0
210
0.0
220
0.0
230
1.0
  2
SOLID
 70
     1
 71
     0
 91
        1
 92
        1
 93
        1
 72
     4
 94
        3
 73
     0
 74
     1
 95
       38
 96
       34
 40
0.0
 40
0.0
 40
0.0
 40
0.0
 40
1.0
 40
1.0
 40
1.0
 40
2.0
 40
2.0
 40
2.0
 40
3.0
 40
3.0
 40
3.0
 40
4.0
 40
4.0
 40
4.0
 40
5.0
 40
5.0
 40
5.0
 40
6.0
 40
6.0
 40
6.0
 40
7.0
 40
7.0
 40
7.0
 40
8.0
 40
8.0
 40
8.0
 40
9.0
 40
9.0
 40
9.0
 40
10.0
 40
10.0
 40
10.0
 40
11.0
 40
11.0
 40
11.0
 40
11.0
 10
126.377554584636
 20
154.8151140277308
 10
126.377554584636
 20
154.8151140277308
 10
128.8311532078563
 20
154.8151140277308
 10
128.8311532078563
 20
154.8151140277308
 10
128.8311532078563
 20
154.8151140277308
 10
127.7345785914971
 20
151.3062819612468
 10
127.7345785914971
 20
151.3062819612468
 10
128.571392836906
 20
152.2922689395754
 10
129.8860421413442
 20
153.604506675583
 10
131.0163787157314
 20
154.2664822097754
 10
132.7044766171327
 20
155.2500576196734
 10
133.6642808525008
 20
155.3847609420097
 10
134.7284715499351
 20
155.3565111403944
 10
134.7284715499351
 20
155.3565111403944
 10
133.6877075172549
 20
152.0345756272799
 10
133.6877075172549
 20
152.0345756272799
 10
133.011434827367
 20
152.3184516825359
 10
130.930940291334
 20
151.7768823149844
 10
129.739280976855
 20
150.9162968950455
 10
128.66613302525
 20
150.1454562717016
 10
127.9192358313239
 20
149.4857200510519
 10
127.0393578639405
 20
147.8282835196966
 10
126.164647543194
 20
146.1699857139017
 10
125.4742499524985
 20
143.5262176944419
 10
124.2822461282437
 20
139.6959580071401
 10
124.2822461282437
 20
139.6959580071401
 10
120.5753209406769
 20
127.8027915271048
 10
120.5753209406769
 20
127.8027915271048
 10
120.5753209406769
 20
127.8027915271048
 10
118.1964809388044
 20
127.8027915271048
 10
118.1964809388044
 20
127.8027915271048
 10
118.1964809388044
 20
127.8027915271048
 10
126.377554584636
 20
154.8151140277308
 10
126.377554584636
 20
154.8151140277308
 97
        0
 75
     2
 76
     1
 98
        0
  0
SPLINE
  5
6A8
330
6A2
100
AcDbEntity
  8
レイヤー 1
370
     0
100
AcDbSpline
210
0.0
220
0.0
230
1.0
 70
    11
 71
     3
 72
   104
 73
   100
 74
     0
 42
0.000000001
 43
0.0000000001
 40
0.0
 40
0.0
 40
0.0
 40
0.0
 40
1.0
 40
1.0
 40
1.0
 40
2.0
 40
2.0
 40
2.0
 40
3.0
 40
3.0
 40
3.0
 40
4.0
 40
4.0
 40
4.0
 40
5.0
 40
5.0
 40
5.0
 40
6.0
 40
6.0
 40
6.0
 40
7.0
 40
7.0
 40
7.0
 40
8.0
 40
8.0
 40
8.0
 40
9.0
 40
9.0
 40
9.0
 40
10.0
 40
10.0
 40
10.0
 40
11.0
 40
11.0
 40
11.0
 40
12.0
 40
12.0
 40
12.0
 40
13.0
 40
13.0
 40
13.0
 40
14.0
 40
14.0
 40
14.0
 40
15.0
 40
15.0
 40
15.0
 40
16.0
 40
16.0
 40
16.0
 40
17.0
 40
17.0
 40
17.0
 40
18.0
 40
18.0
 40
18.0
 40
19.0
 40
19.0
 40
19.0
 40
20.0
 40
20.0
 40
20.0
 40
21.0
 40
21.0
 40
21.0
 40
22.0
 40
22.0
 40
22.0
 40
23.0
 40
23.0
 40
23.0
 40
24.0
 40
24.0
 40
24.0
 40
25.0
 40
25.0
 40
25.0
 40
26.0
 40
26.0
 40
26.0
 40
27.0
 40
27.0
 40
27.0
 40
28.0
 40
28.0
 40
28.0
 40
29.0
 40
29.0
 40
29.0
 40
30.0
 40
30.0
 40
30.0
 40
31.0
 40
31.0
 40
31.0
 40
32.0
 40
32.0
 40
32.0
 40
33.0
 40
33.0
 40
33.0
 40
33.0
 10
139.8926730891197
 20
154.8294111834263
 30
0.0
 10
139.8926730891197
 20
154.8294111834263
 30
0.0
 10
142.0344903652445
 20
154.8294111834263
 30
0.0
 10
142.0344903652445
 20
154.8294111834263
 30
0.0
 10
142.0344903652445
 20
154.8294111834263
 30
0.0
 10
140.9516961399171
 20
151.3157559800812
 30
0.0
 10
140.9516961399171
 20
151.3157559800812
 30
0.0
 10
141.8928968473923
 20
152.7887075264977
 30
0.0
 10
142.7341897198865
 20
153.4484437471474
 30
0.0
 10
143.8552245303272
 20
154.2926649527359
 30
0.0
 10
144.9803934580775
 20
155.1296514530327
 30
0.0
 10
146.3139908001845
 20
155.3044901642492
 30
0.0
 10
147.241066606852
 20
155.3044901642492
 30
0.0
 10
148.3855280820469
 20
155.3044901642492
 30
0.0
 10
149.4969166187653
 20
155.0752189084569
 30
0.0
 10
150.0784491203092
 20
153.8172414621372
 30
0.0
 10
150.5228667310863
 20
152.833838307127
 30
0.0
 10
150.5414702589793
 20
152.7201500811143
 30
0.0
 10
150.4140016419347
 20
150.7765981809602
 30
0.0
 10
151.5818897818837
 20
152.7699317437168
 30
0.0
 10
152.4424752018226
 20
153.6256940267945
 30
0.0
 10
153.9038856707499
 20
154.4507949398263
 30
0.0
 10
155.4455669174378
 20
155.3044901642492
 30
0.0
 10
156.339225275853
 20
155.3659851592288
 30
0.0
 10
157.3748216618963
 20
155.2147453676543
 30
0.0
 10
158.911679771723
 20
154.9877134254046
 30
0.0
 10
159.8859534176746
 20
154.4390816074493
 30
0.0
 10
160.3965169054045
 20
152.7816450760939
 30
0.0
 10
160.9070803931344
 20
151.1219692311958
 30
0.0
 10
160.6328506116007
 20
150.2303779314354
 30
0.0
 10
159.9992971339115
 20
147.597634224801
 30
0.0
 10
159.7105979417943
 20
146.4014962832367
 30
0.0
 10
159.2947746424084
 20
144.9400858143094
 30
0.0
 10
158.7463150793409
 20
143.2092687007094
 30
0.0
 10
158.7463150793409
 20
143.2092687007094
 30
0.0
 10
153.9038856707499
 20
127.8027915271048
 30
0.0
 10
153.9038856707499
 20
127.8027915271048
 30
0.0
 10
153.9038856707499
 20
127.8027915271048
 30
0.0
 10
151.3882752878863
 20
127.8027915271048
 30
0.0
 10
151.3882752878863
 20
127.8027915271048
 30
0.0
 10
151.3882752878863
 20
127.8027915271048
 30
0.0
 10
155.6250565106276
 20
141.2751908193897
 30
0.0
 10
155.6250565106276
 20
141.2751908193897
 30
0.0
 10
156.5094131050963
 20
144.0936252951782
 30
0.0
 10
157.109893644309
 20
146.1506931664571
 30
0.0
 10
157.4220195011804
 20
147.4415712963654
 30
0.0
 10
157.8095929989511
 20
149.0530157726519
 30
0.0
 10
157.9656559273867
 20
149.5826995529385
 30
0.0
 10
157.7816877071116
 20
150.7529992613181
 30
0.0
 10
157.6111553680925
 20
151.8430281919372
 30
0.0
 10
157.0582171779396
 20
152.5547853887321
 30
0.0
 10
156.1170164704645
 20
152.5547853887321
 30
0.0
 10
155.1096698860365
 20
152.5547853887321
 30
0.0
 10
154.2962823053817
 20
152.4412694176073
 30
0.0
 10
153.156643967048
 20
151.2945686288697
 30
0.0
 10
152.0170056287143
 20
150.1476955852443
 30
0.0
 10
151.076149431015
 20
148.7930831468137
 30
0.0
 10
150.3337308641742
 20
147.2290087646991
 30
0.0
 10
149.5957909244188
 20
145.6683794803425
 30
0.0
 10
148.8530278478023
 20
143.6822806228776
 30
0.0
 10
148.0964843801539
 20
141.2751908193897
 30
0.0
 10
148.0964843801539
 20
141.2751908193897
 30
0.0
 10
143.8552245303272
 20
127.8027915271048
 30
0.0
 10
143.8552245303272
 20
127.8027915271048
 30
0.0
 10
143.8552245303272
 20
127.8027915271048
 30
0.0
 10
141.486030802177
 20
127.8027915271048
 30
0.0
 10
141.486030802177
 20
127.8027915271048
 30
0.0
 10
141.486030802177
 20
127.8027915271048
 30
0.0
 10
146.3329388378533
 20
143.2092687007094
 30
0.0
 10
146.3329388378533
 20
143.2092687007094
 30
0.0
 10
146.8483254624444
 20
144.8408669988801
 30
0.0
 10
147.2314203331297
 20
146.1837661049335
 30
0.0
 10
147.4867020769946
 20
147.224185627838
 30
0.0
 10
147.9169947869641
 20
149.0197705792876
 30
0.0
 10
148.0306830129768
 20
150.2400242051577
 30
0.0
 10
147.709255392159
 20
151.3157559800812
 30
0.0
 10
147.3874832615654
 20
152.3916600098926
 30
0.0
 10
146.8245542879144
 20
152.6683013598569
 30
0.0
 10
145.8840425999909
 20
152.6683013598569
 30
0.0
 10
145.0989048209514
 20
152.6683013598569
 30
0.0
 10
144.3282364524954
 20
152.3275811915945
 30
0.0
 10
143.4531816219731
 20
151.6538923250251
 30
0.0
 10
142.34627171234
 20
150.8074318058939
 30
0.0
 10
141.901854101563
 20
150.1097995099067
 30
0.0
 10
141.3578731655808
 20
149.289521733736
 30
0.0
 10
140.6299240093235
 20
148.192602607601
 30
0.0
 10
140.2850697237515
 20
147.455696197173
 30
0.0
 10
139.6652966370942
 20
145.8385673095858
 30
0.0
 10
139.0506911970739
 20
144.2214384219986
 30
0.0
 10
138.463991048893
 20
142.3252566160164
 30
0.0
 10
138.0571250036777
 20
141.0154304484394
 30
0.0
 10
138.0571250036777
 20
141.0154304484394
 30
0.0
 10
133.9009590684727
 20
127.8027915271048
 30
0.0
 10
133.9009590684727
 20
127.8027915271048
 30
0.0
 10
133.9009590684727
 20
127.8027915271048
 30
0.0
 10
131.4180771143097
 20
127.8027915271048
 30
0.0
 10
131.4180771143097
 20
127.8027915271048
 30
0.0
 10
131.4180771143097
 20
127.8027915271048
 30
0.0
 10
139.8926730891197
 20
154.8294111834263
 30
0.0
 10
139.8926730891197
 20
154.8294111834263
 30
0.0
  0
HATCH
  5
6A9
330
6A2
100
AcDbEntity
  8
レイヤー 1
 62
   250
420
  2234388
100
AcDbHatch
 10
0.0
 20
0.0
 30
0.0
210
0.0
220
0.0
230
1.0
  2
SOLID
 70
     1
 71
     0
 91
        1
 92
        1
 93
        1
 72
     4
 94
        3
 73
     0
 74
     1
 95
      104
 96
      100
 40
0.0
 40
0.0
 40
0.0
 40
0.0
 40
1.0
 40
1.0
 40
1.0
 40
2.0
 40
2.0
 40
2.0
 40
3.0
 40
3.0
 40
3.0
 40
4.0
 40
4.0
 40
4.0
 40
5.0
 40
5.0
 40
5.0
 40
6.0
 40
6.0
 40
6.0
 40
7.0
 40
7.0
 40
7.0
 40
8.0
 40
8.0
 40
8.0
 40
9.0
 40
9.0
 40
9.0
 40
10.0
 40
10.0
 40
10.0
 40
11.0
 40
11.0
 40
11.0
 40
12.0
 40
12.0
 40
12.0
 40
13.0
 40
13.0
 40
13.0
 40
14.0
 40
14.0
 40
14.0
 40
15.0
 40
15.0
 40
15.0
 40
16.0
 40
16.0
 40
16.0
 40
17.0
 40
17.0
 40
17.0
 40
18.0
 40
18.0
 40
18.0
 40
19.0
 40
19.0
 40
19.0
 40
20.0
 40
20.0
 40
20.0
 40
21.0
 40
21.0
 40
21.0
 40
22.0
 40
22.0
 40
22.0
 40
23.0
 40
23.0
 40
23.0
 40
24.0
 40
24.0
 40
24.0
 40
25.0
 40
25.0
 40
25.0
 40
26.0
 40
26.0
 40
26.0
 40
27.0
 40
27.0
 40
27.0
 40
28.0
 40
28.0
 40
28.0
 40
29.0
 40
29.0
 40
29.0
 40
30.0
 40
30.0
 40
30.0
 40
31.0
 40
31.0
 40
31.0
 40
32.0
 40
32.0
 40
32.0
 40
33.0
 40
33.0
 40
33.0
 40
33.0
 10
139.8926730891197
 20
154.8294111834263
 10
139.8926730891197
 20
154.8294111834263
 10
142.0344903652445
 20
154.8294111834263
 10
142.0344903652445
 20
154.8294111834263
 10
142.0344903652445
 20
154.8294111834263
 10
140.9516961399171
 20
151.3157559800812
 10
140.9516961399171
 20
151.3157559800812
 10
141.8928968473923
 20
152.7887075264977
 10
142.7341897198865
 20
153.4484437471474
 10
143.8552245303272
 20
154.2926649527359
 10
144.9803934580775
 20
155.1296514530327
 10
146.3139908001845
 20
155.3044901642492
 10
147.241066606852
 20
155.3044901642492
 10
148.3855280820469
 20
155.3044901642492
 10
149.4969166187653
 20
155.0752189084569
 10
150.0784491203092
 20
153.8172414621372
 10
150.5228667310863
 20
152.833838307127
 10
150.5414702589793
 20
152.7201500811143
 10
150.4140016419347
 20
150.7765981809602
 10
151.5818897818837
 20
152.7699317437168
 10
152.4424752018226
 20
153.6256940267945
 10
153.9038856707499
 20
154.4507949398263
 10
155.4455669174378
 20
155.3044901642492
 10
156.339225275853
 20
155.3659851592288
 10
157.3748216618963
 20
155.2147453676543
 10
158.911679771723
 20
154.9877134254046
 10
159.8859534176746
 20
154.4390816074493
 10
160.3965169054045
 20
152.7816450760939
 10
160.9070803931344
 20
151.1219692311958
 10
160.6328506116007
 20
150.2303779314354
 10
159.9992971339115
 20
147.597634224801
 10
159.7105979417943
 20
146.4014962832367
 10
159.2947746424084
 20
144.9400858143094
 10
158.7463150793409
 20
143.2092687007094
 10
158.7463150793409
 20
143.2092687007094
 10
153.9038856707499
 20
127.8027915271048
 10
153.9038856707499
 20
127.8027915271048
 10
153.9038856707499
 20
127.8027915271048
 10
151.3882752878863
 20
127.8027915271048
 10
151.3882752878863
 20
127.8027915271048
 10
151.3882752878863
 20
127.8027915271048
 10
155.6250565106276
 20
141.2751908193897
 10
155.6250565106276
 20
141.2751908193897
 10
156.5094131050963
 20
144.0936252951782
 10
157.109893644309
 20
146.1506931664571
 10
157.4220195011804
 20
147.4415712963654
 10
157.8095929989511
 20
149.0530157726519
 10
157.9656559273867
 20
149.5826995529385
 10
157.7816877071116
 20
150.7529992613181
 10
157.6111553680925
 20
151.8430281919372
 10
157.0582171779396
 20
152.5547853887321
 10
156.1170164704645
 20
152.5547853887321
 10
155.1096698860365
 20
152.5547853887321
 10
154.2962823053817
 20
152.4412694176073
 10
153.156643967048
 20
151.2945686288697
 10
152.0170056287143
 20
150.1476955852443
 10
151.076149431015
 20
148.7930831468137
 10
150.3337308641742
 20
147.2290087646991
 10
149.5957909244188
 20
145.6683794803425
 10
148.8530278478023
 20
143.6822806228776
 10
148.0964843801539
 20
141.2751908193897
 10
148.0964843801539
 20
141.2751908193897
 10
143.8552245303272
 20
127.8027915271048
 10
143.8552245303272
 20
127.8027915271048
 10
143.8552245303272
 20
127.8027915271048
 10
141.486030802177
 20
127.8027915271048
 10
141.486030802177
 20
127.8027915271048
 10
141.486030802177
 20
127.8027915271048
 10
146.3329388378533
 20
143.2092687007094
 10
146.3329388378533
 20
143.2092687007094
 10
146.8483254624444
 20
144.8408669988801
 10
147.2314203331297
 20
146.1837661049335
 10
147.4867020769946
 20
147.224185627838
 10
147.9169947869641
 20
149.0197705792876
 10
148.0306830129768
 20
150.2400242051577
 10
147.709255392159
 20
151.3157559800812
 10
147.3874832615654
 20
152.3916600098926
 10
146.8245542879144
 20
152.6683013598569
 10
145.8840425999909
 20
152.6683013598569
 10
145.0989048209514
 20
152.6683013598569
 10
144.3282364524954
 20
152.3275811915945
 10
143.4531816219731
 20
151.6538923250251
 10
142.34627171234
 20
150.8074318058939
 10
141.901854101563
 20
150.1097995099067
 10
141.3578731655808
 20
149.289521733736
 10
140.6299240093235
 20
148.192602607601
 10
140.2850697237515
 20
147.455696197173
 10
139.6652966370942
 20
145.8385673095858
 10
139.0506911970739
 20
144.2214384219986
 10
138.463991048893
 20
142.3252566160164
 10
138.0571250036777
 20
141.0154304484394
 10
138.0571250036777
 20
141.0154304484394
 10
133.9009590684727
 20
127.8027915271048
 10
133.9009590684727
 20
127.8027915271048
 10
133.9009590684727
 20
127.8027915271048
 10
131.4180771143097
 20
127.8027915271048
 10
131.4180771143097
 20
127.8027915271048
 10
131.4180771143097
 20
127.8027915271048
 10
139.8926730891197
 20
154.8294111834263
 10
139.8926730891197
 20
154.8294111834263
 97
        0
 75
     2
 76
     1
 98
        0
  0
SPLINE
  5
6AA
330
6A2
100
AcDbEntity
  8
レイヤー 1
370
     0
100
AcDbSpline
210
0.0
220
0.0
230
1.0
 70
    11
 71
     3
 72
    29
 73
    25
 74
     0
 42
0.000000001
 43
0.0000000001
 40
0.0
 40
0.0
 40
0.0
 40
0.0
 40
1.0
 40
1.0
 40
1.0
 40
2.0
 40
2.0
 40
2.0
 40
3.0
 40
3.0
 40
3.0
 40
4.0
 40
4.0
 40
4.0
 40
5.0
 40
5.0
 40
5.0
 40
6.0
 40
6.0
 40
6.0
 40
7.0
 40
7.0
 40
7.0
 40
8.0
 40
8.0
 40
8.0
 40
8.0
 10
101.6420971922469
 20
132.8388354296931
 30
0.0
 10
101.630039350094
 20
134.7164137077823
 30
0.0
 10
102.2236296937908
 20
138.0598810818841
 30
0.0
 10
103.7487744712405
 20
142.5378191476827
 30
0.0
 10
105.819967243327
 20
148.5896501242061
 30
0.0
 10
107.0602024361932
 20
150.8074318058939
 30
0.0
 10
108.1522984254671
 20
151.8833358357054
 30
0.0
 10
109.741177511439
 20
153.4532668840085
 30
0.0
 10
111.8740375333931
 20
153.5290590346837
 30
0.0
 10
112.5075910110823
 20
153.4532668840085
 30
0.0
 10
113.4012493694975
 20
153.3490526768302
 30
0.0
 10
114.6683563248758
 20
152.7580461564518
 30
0.0
 10
114.7493161221879
 20
150.7838328862519
 30
0.0
 10
114.8106388622796
 20
149.0909118479895
 30
0.0
 10
114.3186789024427
 20
145.9191825971221
 30
0.0
 10
112.6164561002338
 20
140.9489400617108
 30
0.0
 10
110.6444821435766
 20
135.1746117095912
 30
0.0
 10
109.4669477299053
 20
132.8960240524753
 30
0.0
 10
108.5212683953448
 20
131.9072809959403
 30
0.0
 10
106.7346406980658
 20
130.0538184021569
 30
0.0
 10
104.8222669326213
 20
130.2336525051225
 30
0.0
 10
104.5408024457958
 20
130.2336525051225
 30
0.0
 10
104.1721769856939
 20
130.2336525051225
 30
0.0
 10
101.6465758193322
 20
130.6305277668397
 30
0.0
 10
101.6420971922469
 20
132.8388354296931
 30
0.0
  0
SPLINE
  5
6AB
330
6A2
100
AcDbEntity
  8
レイヤー 1
370
     0
100
AcDbSpline
210
0.0
220
0.0
230
1.0
 70
    11
 71
     3
 72
    32
 73
    28
 74
     0
 42
0.000000001
 43
0.0000000001
 40
0.0
 40
0.0
 40
0.0
 40
0.0
 40
1.0
 40
1.0
 40
1.0
 40
2.0
 40
2.0
 40
2.0
 40
3.0
 40
3.0
 40
3.0
 40
4.0
 40
4.0
 40
4.0
 40
5.0
 40
5.0
 40
5.0
 40
6.0
 40
6.0
 40
6.0
 40
7.0
 40
7.0
 40
7.0
 40
8.0
 40
8.0
 40
8.0
 40
9.0
 40
9.0
 40
9.0
 40
9.0
 10
106.2595617172429
 20
153.4105476718098
 30
0.0
 10
104.8222669326213
 20
151.5474388043041
 30
0.0
 10
103.7177685914188
 20
149.8758773721411
 30
0.0
 10
101.9232171692965
 20
144.6141795664062
 30
0.0
 10
100.2754269116635
 20
139.7999999594306
 30
0.0
 10
99.22777268346732
 20
136.3052927937542
 30
0.0
 10
99.06964269637689
 20
132.039572749846
 30
0.0
 10
98.94665270641765
 20
128.8673267343149
 30
0.0
 10
100.8807305877373
 20
127.8027915271048
 30
0.0
 10
103.7129454545577
 20
127.8027915271048
 30
0.0
 10
104.9352661390825
 20
127.8027915271048
 30
0.0
 10
108.0151835347002
 20
127.8827177950895
 30
0.0
 10
110.2045431598849
 20
130.5926316915021
 30
0.0
 10
111.7417457794874
 20
132.4984597712065
 30
0.0
 10
113.155269389579
 20
134.475256864725
 30
0.0
 10
115.0562743324223
 20
140.9489400617108
 30
0.0
 10
116.6361961642235
 20
146.3680788349845
 30
0.0
 10
117.7282921534974
 20
149.8639917848761
 30
0.0
 10
117.6480213757369
 20
151.8595646611754
 30
0.0
 10
117.6480213757369
 20
151.8595646611754
 30
0.0
 10
117.6480213757369
 20
151.8595646611754
 30
0.0
 10
117.6480213757369
 20
151.8595646611754
 30
0.0
 10
117.13229024137
 20
155.18150017429
 30
0.0
 10
114.7162431837115
 20
155.886194920681
 30
0.0
 10
113.3351034925446
 20
155.886194920681
 30
0.0
 10
111.9829026225447
 20
155.886194920681
 30
0.0
 10
108.3414342923792
 20
156.1251124501957
 30
0.0
 10
106.2595617172429
 20
153.4105476718098
 30
0.0
  0
HATCH
  5
6AC
330
6A2
100
AcDbEntity
  8
レイヤー 1
 62
   250
420
  2234388
100
AcDbHatch
 10
0.0
 20
0.0
 30
0.0
210
0.0
220
0.0
230
1.0
  2
SOLID
 70
     1
 71
     0
 91
        2
 92
        1
 93
        1
 72
     4
 94
        3
 73
     0
 74
     1
 95
       29
 96
       25
 40
0.0
 40
0.0
 40
0.0
 40
0.0
 40
1.0
 40
1.0
 40
1.0
 40
2.0
 40
2.0
 40
2.0
 40
3.0
 40
3.0
 40
3.0
 40
4.0
 40
4.0
 40
4.0
 40
5.0
 40
5.0
 40
5.0
 40
6.0
 40
6.0
 40
6.0
 40
7.0
 40
7.0
 40
7.0
 40
8.0
 40
8.0
 40
8.0
 40
8.0
 10
101.6420971922469
 20
132.8388354296931
 10
101.630039350094
 20
134.7164137077823
 10
102.2236296937908
 20
138.0598810818841
 10
103.7487744712405
 20
142.5378191476827
 10
105.819967243327
 20
148.5896501242061
 10
107.0602024361932
 20
150.8074318058939
 10
108.1522984254671
 20
151.8833358357054
 10
109.741177511439
 20
153.4532668840085
 10
111.8740375333931
 20
153.5290590346837
 10
112.5075910110823
 20
153.4532668840085
 10
113.4012493694975
 20
153.3490526768302
 10
114.6683563248758
 20
152.7580461564518
 10
114.7493161221879
 20
150.7838328862519
 10
114.8106388622796
 20
149.0909118479895
 10
114.3186789024427
 20
145.9191825971221
 10
112.6164561002338
 20
140.9489400617108
 10
110.6444821435766
 20
135.1746117095912
 10
109.4669477299053
 20
132.8960240524753
 10
108.5212683953448
 20
131.9072809959403
 10
106.7346406980658
 20
130.0538184021569
 10
104.8222669326213
 20
130.2336525051225
 10
104.5408024457958
 20
130.2336525051225
 10
104.1721769856939
 20
130.2336525051225
 10
101.6465758193322
 20
130.6305277668397
 10
101.6420971922469
 20
132.8388354296931
 97
        0
 92
        1
 93
        1
 72
     4
 94
        3
 73
     0
 74
     1
 95
       32
 96
       28
 40
0.0
 40
0.0
 40
0.0
 40
0.0
 40
1.0
 40
1.0
 40
1.0
 40
2.0
 40
2.0
 40
2.0
 40
3.0
 40
3.0
 40
3.0
 40
4.0
 40
4.0
 40
4.0
 40
5.0
 40
5.0
 40
5.0
 40
6.0
 40
6.0
 40
6.0
 40
7.0
 40
7.0
 40
7.0
 40
8.0
 40
8.0
 40
8.0
 40
9.0
 40
9.0
 40
9.0
 40
9.0
 10
106.2595617172429
 20
153.4105476718098
 10
104.8222669326213
 20
151.5474388043041
 10
103.7177685914188
 20
149.8758773721411
 10
101.9232171692965
 20
144.6141795664062
 10
100.2754269116635
 20
139.7999999594306
 10
99.22777268346732
 20
136.3052927937542
 10
99.06964269637689
 20
132.039572749846
 10
98.94665270641765
 20
128.8673267343149
 10
100.8807305877373
 20
127.8027915271048
 10
103.7129454545577
 20
127.8027915271048
 10
104.9352661390825
 20
127.8027915271048
 10
108.0151835347002
 20
127.8827177950895
 10
110.2045431598849
 20
130.5926316915021
 10
111.7417457794874
 20
132.4984597712065
 10
113.155269389579
 20
134.475256864725
 10
115.0562743324223
 20
140.9489400617108
 10
116.6361961642235
 20
146.3680788349845
 10
117.7282921534974
 20
149.8639917848761
 10
117.6480213757369
 20
151.8595646611754
 10
117.6480213757369
 20
151.8595646611754
 10
117.6480213757369
 20
151.8595646611754
 10
117.6480213757369
 20
151.8595646611754
 10
117.13229024137
 20
155.18150017429
 10
114.7162431837115
 20
155.886194920681
 10
113.3351034925446
 20
155.886194920681
 10
111.9829026225447
 20
155.886194920681
 10
108.3414342923792
 20
156.1251124501957
 10
106.2595617172429
 20
153.4105476718098
 97
        0
 75
     2
 76
     1
 98
        0
  0
ENDBLK
  5
6AD
330
6A2
100
AcDbEntity
  8
0
100
AcDbBlockEnd
  0
BLOCK
  5
52D8
330
52D7
100
AcDbEntity
  8
0
100
AcDbBlockBegin
  2
名称未設定-1
 70
     0
 10
0.0
 20
0.0
 30
0.0
  3
名称未設定-1
  1
名称未設定-1
  0
INSERT
  5
52D9
330
52D7
100
AcDbEntity
  8
TFORMLOGO
100
AcDbBlockReference
  2
block 2
 10
0.0
 20
0.0
 30
0.0
  0
ENDBLK
  5
52FE
330
52D7
100
AcDbEntity
  8
0
100
AcDbBlockEnd
  0
BLOCK
  5
52DB
330
52DA
100
AcDbEntity
  8
0
100
AcDbBlockBegin
  2
block 2
 70
     0
 10
0.0
 20
0.0
 30
0.0
  3
block 2
  1
block 2
  0
INSERT
  5
52DC
330
52DA
100
AcDbEntity
  8
TFORMLOGO
100
AcDbBlockReference
  2
block 3
 10
0.0
 20
0.0
 30
0.0
  0
ENDBLK
  5
52FD
330
52DA
100
AcDbEntity
  8
0
100
AcDbBlockEnd
  0
BLOCK
  5
74B7
330
74B6
100
AcDbEntity
  8
0
100
AcDbBlockBegin
  2
_NONE
 70
     0
 10
0.0
 20
0.0
 30
0.0
  3
_NONE
  1
_NONE
  0
ENDBLK
  5
74B8
330
74B6
100
AcDbEntity
  8
0
100
AcDbBlockEnd
  0
BLOCK
  5
7F34
330
7F33
100
AcDbEntity
  8
0
100
AcDbBlockBegin
  2
*D7
 70
     1
 10
0.0
 20
0.0
 30
0.0
  3
*D7
  1

  0
LINE
  5
7F36
330
7F33
100
AcDbEntity
  8
寸法
  6
Continuous
 62
     0
370
    -2
100
AcDbLine
 10
436.1767865647565
 20
315.4808807976541
 30
0.0
 11
436.1767865647565
 21
339.2778914719676
 31
0.0
  0
LINE
  5
7F37
330
7F33
100
AcDbEntity
  8
寸法
  6
Continuous
 62
     0
370
    -2
100
AcDbLine
 10
490.1767865647565
 20
314.6575487624634
 30
0.0
 11
490.1767865647565
 21
339.2778914719676
 31
0.0
  0
LINE
  5
7F38
330
7F33
100
AcDbEntity
  8
寸法
  6
Continuous
 62
     0
370
    -2
100
AcDbLine
 10
437.6767865647565
 20
339.2778914719676
 30
0.0
 11
488.6767865647565
 21
339.2778914719676
 31
0.0
  0
INSERT
  5
7F39
330
7F33
100
AcDbEntity
  8
寸法
 62
     0
370
    -2
100
AcDbBlockReference
  2
_DOT
 10
436.1767865647565
 20
339.2778914719676
 30
0.0
 41
1.5
 42
1.5
 43
1.5
 50
180.0
  0
INSERT
  5
7F3A
330
7F33
100
AcDbEntity
  8
寸法
 62
     0
370
    -2
100
AcDbBlockReference
  2
_DOT
 10
490.1767865647565
 20
339.2778914719676
 30
0.0
 41
1.5
 42
1.5
 43
1.5
  0
MTEXT
  5
7F3B
330
7F33
100
AcDbEntity
  8
寸法
  6
Continuous
 62
     0
100
AcDbMText
 10
463.1767865647565
 20
343.778829323662
 30
0.0
 40
5.0
 41
0.0
 46
0.0
 71
     5
 72
     1
  1
\A1;54
  7
ＭＳ ゴシック
 73
     1
 44
1.0
  0
POINT
  5
7F3C
330
7F33
100
AcDbEntity
  8
Defpoints
 62
     0
100
AcDbPoint
 10
436.1767865647565
 20
310.4808807976541
 30
0.0
  0
POINT
  5
7F3D
330
7F33
100
AcDbEntity
  8
Defpoints
 62
     0
100
AcDbPoint
 10
490.1767865647565
 20
309.6575487624634
 30
0.0
  0
POINT
  5
7F3E
330
7F33
100
AcDbEntity
  8
Defpoints
 62
     0
100
AcDbPoint
 10
490.1767865647565
 20
339.2778914719676
 30
0.0
  0
ENDBLK
  5
7F35
330
7F33
100
AcDbEntity
  8
0
100
AcDbBlockEnd
  0
BLOCK
  5
7F69
330
7F68
100
AcDbEntity
  8
0
100
AcDbBlockBegin
  2
*D8
 70
     1
 10
0.0
 20
0.0
 30
0.0
  3
*D8
  1

  0
LINE
  5
7F6B
330
7F68
100
AcDbEntity
  8
寸法
 62
     0
370
    -2
100
AcDbLine
 10
463.1767865647565
 20
206.8976396168313
 30
0.0
 11
463.1767865647565
 21
209.2508625328144
 31
0.0
  0
LINE
  5
7F6C
330
7F68
100
AcDbEntity
  8
寸法
 62
     0
370
    -2
100
AcDbLine
 10
482.1767865647565
 20
198.9204030921152
 30
0.0
 11
482.1767865647565
 21
209.2508625328144
 31
0.0
  0
LINE
  5
7F6D
330
7F68
100
AcDbEntity
  8
寸法
 62
     0
370
    -2
100
AcDbLine
 10
464.6767865647565
 20
209.2508625328144
 30
0.0
 11
480.6767865647565
 21
209.2508625328144
 31
0.0
  0
INSERT
  5
7F6E
330
7F68
100
AcDbEntity
  8
寸法
 62
     0
370
    -2
100
AcDbBlockReference
  2
_DOT
 10
463.1767865647565
 20
209.2508625328144
 30
0.0
 41
1.5
 42
1.5
 43
1.5
 50
180.0
  0
INSERT
  5
7F6F
330
7F68
100
AcDbEntity
  8
寸法
 62
     0
370
    -2
100
AcDbBlockReference
  2
_DOT
 10
482.1767865647565
 20
209.2508625328144
 30
0.0
 41
1.5
 42
1.5
 43
1.5
  0
MTEXT
  5
7F70
330
7F68
100
AcDbEntity
  8
寸法
  6
Continuous
 62
     0
100
AcDbMText
 10
472.6767865647565
 20
213.7518003845087
 30
0.0
 40
5.0
 41
0.0
 46
0.0
 71
     5
 72
     1
  1
\A1;19
  7
ＭＳ ゴシック
 73
     1
 44
1.0
  0
POINT
  5
7F71
330
7F68
100
AcDbEntity
  8
Defpoints
 62
     0
100
AcDbPoint
 10
463.1767865647565
 20
201.8976396168313
 30
0.0
  0
POINT
  5
7F72
330
7F68
100
AcDbEntity
  8
Defpoints
 62
     0
100
AcDbPoint
 10
482.1767865647565
 20
193.9204030921152
 30
0.0
  0
POINT
  5
7F73
330
7F68
100
AcDbEntity
  8
Defpoints
 62
     0
100
AcDbPoint
 10
482.1767865647565
 20
209.2508625328144
 30
0.0
  0
ENDBLK
  5
7F6A
330
7F68
100
AcDbEntity
  8
0
100
AcDbBlockEnd
  0
BLOCK
  5
7F75
330
7F74
100
AcDbEntity
  8
0
100
AcDbBlockBegin
  2
*D9
 70
     1
 10
0.0
 20
0.0
 30
0.0
  3
*D9
  1

  0
LINE
  5
7F77
330
7F74
100
AcDbEntity
  8
寸法
 62
     0
370
    -2
100
AcDbLine
 10
444.1767865647563
 20
198.9204030921152
 30
0.0
 11
444.1767865647563
 21
209.2508625328144
 31
0.0
  0
LINE
  5
7F78
330
7F74
100
AcDbEntity
  8
寸法
 62
     0
370
    -2
100
AcDbLine
 10
463.1767865647565
 20
206.8976396168313
 30
0.0
 11
463.1767865647565
 21
209.2508625328144
 31
0.0
  0
LINE
  5
7F79
330
7F74
100
AcDbEntity
  8
寸法
 62
     0
370
    -2
100
AcDbLine
 10
445.6767865647563
 20
209.2508625328144
 30
0.0
 11
461.6767865647565
 21
209.2508625328144
 31
0.0
  0
INSERT
  5
7F7A
330
7F74
100
AcDbEntity
  8
寸法
 62
     0
370
    -2
100
AcDbBlockReference
  2
_DOT
 10
444.1767865647563
 20
209.2508625328144
 30
0.0
 41
1.5
 42
1.5
 43
1.5
 50
180.0
  0
INSERT
  5
7F7B
330
7F74
100
AcDbEntity
  8
寸法
 62
     0
370
    -2
100
AcDbBlockReference
  2
_DOT
 10
463.1767865647565
 20
209.2508625328144
 30
0.0
 41
1.5
 42
1.5
 43
1.5
  0
MTEXT
  5
7F7C
330
7F74
100
AcDbEntity
  8
寸法
  6
Continuous
 62
     0
100
AcDbMText
 10
453.6767865647564
 20
213.7518003845087
 30
0.0
 40
5.0
 41
0.0
 46
0.0
 71
     5
 72
     1
  1
\A1;19
  7
ＭＳ ゴシック
 73
     1
 44
1.0
  0
POINT
  5
7F7D
330
7F74
100
AcDbEntity
  8
Defpoints
 62
     0
100
AcDbPoint
 10
444.1767865647563
 20
193.9204030921152
 30
0.0
  0
POINT
  5
7F7E
330
7F74
100
AcDbEntity
  8
Defpoints
 62
     0
100
AcDbPoint
 10
463.1767865647565
 20
201.8976396168313
 30
0.0
  0
POINT
  5
7F7F
330
7F74
100
AcDbEntity
  8
Defpoints
 62
     0
100
AcDbPoint
 10
463.1767865647565
 20
209.2508625328144
 30
0.0
  0
ENDBLK
  5
7F76
330
7F74
100
AcDbEntity
  8
0
100
AcDbBlockEnd
  0
BLOCK
  5
8021
330
8020
100
AcDbEntity
  8
0
100
AcDbBlockBegin
  2
*D10
 70
     1
 10
0.0
 20
0.0
 30
0.0
  3
*D10
  1

  0
LINE
  5
8023
330
8020
100
AcDbEntity
  8
寸法
  6
Continuous
 62
     0
370
    -2
100
AcDbLine
 10
160.8654442520857
 20
326.6509331123968
 30
0.0
 11
172.5208572345564
 21
326.6509331123968
 31
0.0
  0
LINE
  5
8024
330
8020
100
AcDbEntity
  8
寸法
  6
Continuous
 62
     0
370
    -2
100
AcDbLine
 10
143.8654442520857
 20
312.2509331123969
 30
0.0
 11
172.5208572345564
 21
312.2509331123969
 31
0.0
  0
LINE
  5
8025
330
8020
100
AcDbEntity
  8
寸法
  6
Continuous
 62
     0
370
    -2
100
AcDbLine
 10
172.5208572345564
 20
325.1509331123968
 30
0.0
 11
172.5208572345564
 21
313.7509331123969
 31
0.0
  0
INSERT
  5
8026
330
8020
100
AcDbEntity
  8
寸法
 62
     0
370
    -2
100
AcDbBlockReference
  2
_DOT
 10
172.5208572345564
 20
326.6509331123968
 30
0.0
 41
1.5
 42
1.5
 43
1.5
 50
90.0
  0
INSERT
  5
8027
330
8020
100
AcDbEntity
  8
寸法
 62
     0
370
    -2
100
AcDbBlockReference
  2
_DOT
 10
172.5208572345564
 20
312.2509331123969
 30
0.0
 41
1.5
 42
1.5
 43
1.5
 50
270.0
  0
MTEXT
  5
8028
330
8020
100
AcDbEntity
  8
寸法
  6
Continuous
 62
     0
100
AcDbMText
 10
168.019919382862
 20
319.4509331123969
 30
0.0
 40
5.0
 41
0.0
 46
0.0
 71
     5
 72
     1
  1
\A1;14.5
  7
ＭＳ ゴシック
 11
0.0
 21
1.0
 31
0.0
 73
     1
 44
1.0
  0
POINT
  5
8029
330
8020
100
AcDbEntity
  8
Defpoints
 62
     0
100
AcDbPoint
 10
155.8654442520857
 20
326.6509331123968
 30
0.0
  0
POINT
  5
802A
330
8020
100
AcDbEntity
  8
Defpoints
 62
     0
100
AcDbPoint
 10
138.8654442520857
 20
312.2509331123969
 30
0.0
  0
POINT
  5
802B
330
8020
100
AcDbEntity
  8
Defpoints
 62
     0
100
AcDbPoint
 10
172.5208572345564
 20
312.2509331123969
 30
0.0
  0
ENDBLK
  5
8022
330
8020
100
AcDbEntity
  8
0
100
AcDbBlockEnd
  0
BLOCK
  5
8030
330
802F
100
AcDbEntity
  8
0
100
AcDbBlockBegin
  2
*D11
 70
     1
 10
0.0
 20
0.0
 30
0.0
  3
*D11
  1

  0
LINE
  5
8032
330
802F
100
AcDbEntity
  8
寸法
  6
Continuous
 62
     0
370
    -2
100
AcDbLine
 10
97.0326285220883
 20
326.6509331123979
 30
0.0
 11
88.28772192727851
 21
326.6509331123979
 31
0.0
  0
LINE
  5
8033
330
802F
100
AcDbEntity
  8
寸法
  6
Continuous
 62
     0
370
    -2
100
AcDbLine
 10
98.3654442520858
 20
319.8509331123969
 30
0.0
 11
88.28772192727851
 21
319.8509331123969
 31
0.0
  0
LINE
  5
8034
330
802F
100
AcDbEntity
  8
寸法
  6
Continuous
 62
     0
370
    -2
100
AcDbLine
 10
88.28772192727851
 20
325.1509331123979
 30
0.0
 11
88.28772192727851
 21
321.3509331123969
 31
0.0
  0
INSERT
  5
8035
330
802F
100
AcDbEntity
  8
寸法
 62
     0
370
    -2
100
AcDbBlockReference
  2
_DOT
 10
88.28772192727851
 20
326.6509331123979
 30
0.0
 41
1.5
 42
1.5
 43
1.5
 50
90.0
  0
INSERT
  5
8036
330
802F
100
AcDbEntity
  8
寸法
 62
     0
370
    -2
100
AcDbBlockReference
  2
_DOT
 10
88.28772192727851
 20
319.8509331123969
 30
0.0
 41
1.5
 42
1.5
 43
1.5
 50
270.0
  0
MTEXT
  5
8037
330
802F
100
AcDbEntity
  8
寸法
  6
Continuous
 62
     0
100
AcDbMText
 10
83.78772192727851
 20
323.2509331123974
 30
0.0
 40
5.0
 41
0.0
 46
0.0
 71
     5
 72
     1
  1
\A1;6.8
  7
ＭＳ ゴシック
 11
0.0
 21
1.0
 31
0.0
 73
     1
 44
1.0
  0
POINT
  5
8038
330
802F
100
AcDbEntity
  8
Defpoints
 62
     0
100
AcDbPoint
 10
102.0326285220883
 20
326.6509331123979
 30
0.0
  0
POINT
  5
8039
330
802F
100
AcDbEntity
  8
Defpoints
 62
     0
100
AcDbPoint
 10
103.3654442520858
 20
319.8509331123969
 30
0.0
  0
POINT
  5
803A
330
802F
100
AcDbEntity
  8
Defpoints
 62
     0
100
AcDbPoint
 10
88.28772192727851
 20
319.8509331123969
 30
0.0
  0
ENDBLK
  5
8031
330
802F
100
AcDbEntity
  8
0
100
AcDbBlockEnd
  0
BLOCK
  5
8041
330
8040
100
AcDbEntity
  8
0
100
AcDbBlockBegin
  2
*D12
 70
     1
 10
0.0
 20
0.0
 30
0.0
  3
*D12
  1

  0
LINE
  5
8043
330
8040
100
AcDbEntity
  8
寸法
  6
Continuous
 62
     0
370
    -2
100
AcDbLine
 10
98.3654442520858
 20
319.8509331123969
 30
0.0
 11
88.28772192727851
 21
319.8509331123969
 31
0.0
  0
LINE
  5
8044
330
8040
100
AcDbEntity
  8
寸法
  6
Continuous
 62
     0
370
    -2
100
AcDbLine
 10
113.8654442520857
 20
312.2509331123969
 30
0.0
 11
88.28772192727851
 21
312.2509331123969
 31
0.0
  0
LINE
  5
8045
330
8040
100
AcDbEntity
  8
寸法
  6
Continuous
 62
     0
370
    -2
100
AcDbLine
 10
88.28772192727851
 20
312.2509331123969
 30
0.0
 11
88.28772192727851
 21
296.3375906089581
 31
0.0
  0
LINE
  5
8046
330
8040
100
AcDbEntity
  8
寸法
  6
Continuous
 62
     0
370
    -2
100
AcDbLine
 10
88.28772192727851
 20
319.8509331123969
 30
0.0
 11
88.28772192727851
 21
312.2509331123969
 31
0.0
  0
LINE
  5
8047
330
8040
100
AcDbEntity
  8
寸法
  6
Continuous
 62
     0
370
    -2
100
AcDbLine
 10
88.28772192727851
 20
321.3509331123969
 30
0.0
 11
88.28772192727851
 21
322.8509331123969
 31
0.0
  0
LINE
  5
8048
330
8040
100
AcDbEntity
  8
寸法
  6
Continuous
 62
     0
370
    -2
100
AcDbLine
 10
88.28772192727851
 20
310.7509331123969
 30
0.0
 11
88.28772192727851
 21
309.2509331123969
 31
0.0
  0
INSERT
  5
8049
330
8040
100
AcDbEntity
  8
寸法
 62
     0
370
    -2
100
AcDbBlockReference
  2
_DOT
 10
88.28772192727851
 20
319.8509331123969
 30
0.0
 41
1.5
 42
1.5
 43
1.5
 50
270.0
  0
INSERT
  5
804A
330
8040
100
AcDbEntity
  8
寸法
 62
     0
370
    -2
100
AcDbBlockReference
  2
_DOT
 10
88.28772192727851
 20
312.2509331123969
 30
0.0
 41
1.5
 42
1.5
 43
1.5
 50
90.0
  0
MTEXT
  5
804B
330
8040
100
AcDbEntity
  8
寸法
  6
Continuous
 62
     0
100
AcDbMText
 10
83.78678407558411
 20
302.7942618606775
 30
0.0
 40
5.0
 41
0.0
 46
0.0
 71
     5
 72
     1
  1
\A1;7.7
  7
ＭＳ ゴシック
 11
0.0
 21
1.0
 31
0.0
 73
     1
 44
1.0
  0
POINT
  5
8171
330
8040
100
AcDbEntity
  8
Defpoints
 62
     0
100
AcDbPoint
 10
103.3654442520858
 20
319.8509331123969
 30
0.0
  0
POINT
  5
8172
330
8040
100
AcDbEntity
  8
Defpoints
 62
     0
100
AcDbPoint
 10
118.8654442520857
 20
312.2509331123969
 30
0.0
  0
POINT
  5
8173
330
8040
100
AcDbEntity
  8
Defpoints
 62
     0
100
AcDbPoint
 10
88.28772192727851
 20
312.2509331123969
 30
0.0
  0
ENDBLK
  5
8042
330
8040
100
AcDbEntity
  8
0
100
AcDbBlockEnd
  0
BLOCK
  5
8051
330
8050
100
AcDbEntity
  8
0
100
AcDbBlockBegin
  2
*D13
 70
     1
 10
0.0
 20
0.0
 30
0.0
  3
*D13
  1

  0
LINE
  5
8053
330
8050
100
AcDbEntity
  8
寸法
  6
Continuous
 62
     0
370
    -2
100
AcDbLine
 10
374.4217857486187
 20
324.4509331123967
 30
0.0
 11
394.8745512938556
 21
324.4509331123967
 31
0.0
  0
LINE
  5
8054
330
8050
100
AcDbEntity
  8
寸法
  6
Continuous
 62
     0
370
    -2
100
AcDbLine
 10
354.760978206292
 20
284.6540750663313
 30
0.0
 11
394.8745512938556
 21
284.6540750663313
 31
0.0
  0
LINE
  5
8055
330
8050
100
AcDbEntity
  8
寸法
  6
Continuous
 62
     0
370
    -2
100
AcDbLine
 10
394.8745512938556
 20
322.9509331123967
 30
0.0
 11
394.8745512938556
 21
286.1540750663313
 31
0.0
  0
INSERT
  5
8056
330
8050
100
AcDbEntity
  8
寸法
 62
     0
370
    -2
100
AcDbBlockReference
  2
_DOT
 10
394.8745512938556
 20
324.4509331123967
 30
0.0
 41
1.5
 42
1.5
 43
1.5
 50
90.0
  0
INSERT
  5
8057
330
8050
100
AcDbEntity
  8
寸法
 62
     0
370
    -2
100
AcDbBlockReference
  2
_DOT
 10
394.8745512938556
 20
284.6540750663313
 30
0.0
 41
1.5
 42
1.5
 43
1.5
 50
270.0
  0
MTEXT
  5
8058
330
8050
100
AcDbEntity
  8
寸法
  6
Continuous
 62
     0
100
AcDbMText
 10
390.3745512938556
 20
304.552504089364
 30
0.0
 40
5.0
 41
0.0
 46
0.0
 71
     5
 72
     1
  1
\A1;40
  7
ＭＳ ゴシック
 11
0.0
 21
1.0
 31
0.0
 73
     1
 44
1.0
  0
POINT
  5
8059
330
8050
100
AcDbEntity
  8
Defpoints
 62
     0
100
AcDbPoint
 10
369.4217857486187
 20
324.4509331123967
 30
0.0
  0
POINT
  5
805A
330
8050
100
AcDbEntity
  8
Defpoints
 62
     0
100
AcDbPoint
 10
349.760978206292
 20
284.6540750663313
 30
0.0
  0
POINT
  5
805B
330
8050
100
AcDbEntity
  8
Defpoints
 62
     0
100
AcDbPoint
 10
394.8745512938556
 20
284.6540750663313
 30
0.0
  0
ENDBLK
  5
8052
330
8050
100
AcDbEntity
  8
0
100
AcDbBlockEnd
  0
BLOCK
  5
8060
330
805F
100
AcDbEntity
  8
0
100
AcDbBlockBegin
  2
*D14
 70
     1
 10
0.0
 20
0.0
 30
0.0
  3
*D14
  1

  0
LINE
  5
8062
330
805F
100
AcDbEntity
  8
寸法
  6
Continuous
 62
     0
370
    -2
100
AcDbLine
 10
310.5889700186212
 20
324.4509331123976
 30
0.0
 11
300.2110775518255
 21
324.4509331123976
 31
0.0
  0
LINE
  5
8063
330
805F
100
AcDbEntity
  8
寸法
  6
Continuous
 62
     0
370
    -2
100
AcDbLine
 10
311.921785748619
 20
317.6509331123968
 30
0.0
 11
300.2110775518255
 21
317.6509331123968
 31
0.0
  0
LINE
  5
8064
330
805F
100
AcDbEntity
  8
寸法
  6
Continuous
 62
     0
370
    -2
100
AcDbLine
 10
300.2110775518255
 20
322.9509331123976
 30
0.0
 11
300.2110775518255
 21
319.1509331123968
 31
0.0
  0
INSERT
  5
8065
330
805F
100
AcDbEntity
  8
寸法
 62
     0
370
    -2
100
AcDbBlockReference
  2
_DOT
 10
300.2110775518255
 20
324.4509331123976
 30
0.0
 41
1.5
 42
1.5
 43
1.5
 50
90.0
  0
INSERT
  5
8066
330
805F
100
AcDbEntity
  8
寸法
 62
     0
370
    -2
100
AcDbBlockReference
  2
_DOT
 10
300.2110775518255
 20
317.6509331123968
 30
0.0
 41
1.5
 42
1.5
 43
1.5
 50
270.0
  0
MTEXT
  5
8067
330
805F
100
AcDbEntity
  8
寸法
  6
Continuous
 62
     0
100
AcDbMText
 10
295.7110775518255
 20
321.0509331123972
 30
0.0
 40
5.0
 41
0.0
 46
0.0
 71
     5
 72
     1
  1
\A1;6.8
  7
ＭＳ ゴシック
 11
0.0
 21
1.0
 31
0.0
 73
     1
 44
1.0
  0
POINT
  5
8068
330
805F
100
AcDbEntity
  8
Defpoints
 62
     0
100
AcDbPoint
 10
315.5889700186212
 20
324.4509331123976
 30
0.0
  0
POINT
  5
8069
330
805F
100
AcDbEntity
  8
Defpoints
 62
     0
100
AcDbPoint
 10
316.921785748619
 20
317.6509331123968
 30
0.0
  0
POINT
  5
806A
330
805F
100
AcDbEntity
  8
Defpoints
 62
     0
100
AcDbPoint
 10
300.2110775518255
 20
317.6509331123968
 30
0.0
  0
ENDBLK
  5
8061
330
805F
100
AcDbEntity
  8
0
100
AcDbBlockEnd
  0
BLOCK
  5
8071
330
8070
100
AcDbEntity
  8
0
100
AcDbBlockBegin
  2
*D15
 70
     1
 10
0.0
 20
0.0
 30
0.0
  3
*D15
  1

  0
LINE
  5
8073
330
8070
100
AcDbEntity
  8
寸法
  6
Continuous
 62
     0
370
    -2
100
AcDbLine
 10
311.921785748619
 20
317.6509331123968
 30
0.0
 11
300.2110775518255
 21
317.6509331123968
 31
0.0
  0
LINE
  5
8074
330
8070
100
AcDbEntity
  8
寸法
  6
Continuous
 62
     0
370
    -2
100
AcDbLine
 10
330.084716812558
 20
284.6509331123968
 30
0.0
 11
300.2110775518255
 21
284.6509331123968
 31
0.0
  0
LINE
  5
8075
330
8070
100
AcDbEntity
  8
寸法
  6
Continuous
 62
     0
370
    -2
100
AcDbLine
 10
300.2110775518255
 20
316.1509331123968
 30
0.0
 11
300.2110775518255
 21
286.1509331123968
 31
0.0
  0
INSERT
  5
8076
330
8070
100
AcDbEntity
  8
寸法
 62
     0
370
    -2
100
AcDbBlockReference
  2
_DOT
 10
300.2110775518255
 20
317.6509331123968
 30
0.0
 41
1.5
 42
1.5
 43
1.5
 50
90.0
  0
INSERT
  5
8077
330
8070
100
AcDbEntity
  8
寸法
 62
     0
370
    -2
100
AcDbBlockReference
  2
_DOT
 10
300.2110775518255
 20
284.6509331123968
 30
0.0
 41
1.5
 42
1.5
 43
1.5
 50
270.0
  0
MTEXT
  5
8078
330
8070
100
AcDbEntity
  8
寸法
  6
Continuous
 62
     0
100
AcDbMText
 10
295.7101397001311
 20
301.1509331123968
 30
0.0
 40
5.0
 41
0.0
 46
0.0
 71
     5
 72
     1
  1
\A1;33.2
  7
ＭＳ ゴシック
 11
0.0
 21
1.0
 31
0.0
 73
     1
 44
1.0
  0
POINT
  5
8079
330
8070
100
AcDbEntity
  8
Defpoints
 62
     0
100
AcDbPoint
 10
316.921785748619
 20
317.6509331123968
 30
0.0
  0
POINT
  5
807A
330
8070
100
AcDbEntity
  8
Defpoints
 62
     0
100
AcDbPoint
 10
335.084716812558
 20
284.6509331123968
 30
0.0
  0
POINT
  5
807B
330
8070
100
AcDbEntity
  8
Defpoints
 62
     0
100
AcDbPoint
 10
300.2110775518255
 20
284.6509331123968
 30
0.0
  0
ENDBLK
  5
8072
330
8070
100
AcDbEntity
  8
0
100
AcDbBlockEnd
  0
BLOCK
  5
8080
330
807F
100
AcDbEntity
  8
0
100
AcDbBlockBegin
  2
*D16
 70
     1
 10
0.0
 20
0.0
 30
0.0
  3
*D16
  1

  0
LINE
  5
8082
330
807F
100
AcDbEntity
  8
寸法
  6
Continuous
 62
     0
370
    -2
100
AcDbLine
 10
220.9639778307298
 20
270.0399390035485
 30
0.0
 11
220.9639778307298
 21
252.5395719262855
 31
0.0
  0
LINE
  5
8083
330
807F
100
AcDbEntity
  8
寸法
  6
Continuous
 62
     0
370
    -2
100
AcDbLine
 10
240.9639778307299
 20
270.0399390035485
 30
0.0
 11
240.9639778307299
 21
252.5395719262855
 31
0.0
  0
LINE
  5
8084
330
807F
100
AcDbEntity
  8
寸法
  6
Continuous
 62
     0
370
    -2
100
AcDbLine
 10
222.4639778307298
 20
252.5395719262855
 30
0.0
 11
239.4639778307299
 21
252.5395719262855
 31
0.0
  0
INSERT
  5
8085
330
807F
100
AcDbEntity
  8
寸法
 62
     0
370
    -2
100
AcDbBlockReference
  2
_DOT
 10
220.9639778307298
 20
252.5395719262855
 30
0.0
 41
1.5
 42
1.5
 43
1.5
 50
180.0
  0
INSERT
  5
8086
330
807F
100
AcDbEntity
  8
寸法
 62
     0
370
    -2
100
AcDbBlockReference
  2
_DOT
 10
240.9639778307299
 20
252.5395719262855
 30
0.0
 41
1.5
 42
1.5
 43
1.5
  0
MTEXT
  5
8087
330
807F
100
AcDbEntity
  8
寸法
  6
Continuous
 62
     0
100
AcDbMText
 10
230.9639778307298
 20
257.0405097779799
 30
0.0
 40
5.0
 41
0.0
 46
0.0
 71
     5
 72
     1
  1
\A1;20
  7
ＭＳ ゴシック
 73
     1
 44
1.0
  0
POINT
  5
8088
330
807F
100
AcDbEntity
  8
Defpoints
 62
     0
100
AcDbPoint
 10
220.9639778307298
 20
275.0399390035485
 30
0.0
  0
POINT
  5
8089
330
807F
100
AcDbEntity
  8
Defpoints
 62
     0
100
AcDbPoint
 10
240.9639778307299
 20
275.0399390035485
 30
0.0
  0
POINT
  5
808A
330
807F
100
AcDbEntity
  8
Defpoints
 62
     0
100
AcDbPoint
 10
240.9639778307299
 20
252.5395719262855
 30
0.0
  0
ENDBLK
  5
8081
330
807F
100
AcDbEntity
  8
0
100
AcDbBlockEnd
  0
BLOCK
  5
808F
330
808E
100
AcDbEntity
  8
0
100
AcDbBlockBegin
  2
*D17
 70
     1
 10
0.0
 20
0.0
 30
0.0
  3
*D17
  1

  0
LINE
  5
8091
330
808E
100
AcDbEntity
  8
寸法
  6
Continuous
 62
     0
370
    -2
100
AcDbLine
 10
203.9639778307299
 20
305.1198114115173
 30
0.0
 11
203.9639778307299
 21
339.2778914719676
 31
0.0
  0
LINE
  5
8092
330
808E
100
AcDbEntity
  8
寸法
  6
Continuous
 62
     0
370
    -2
100
AcDbLine
 10
257.9639778307298
 20
305.1198114115173
 30
0.0
 11
257.9639778307298
 21
339.2778914719676
 31
0.0
  0
LINE
  5
8093
330
808E
100
AcDbEntity
  8
寸法
  6
Continuous
 62
     0
370
    -2
100
AcDbLine
 10
205.4639778307299
 20
339.2778914719676
 30
0.0
 11
256.4639778307298
 21
339.2778914719676
 31
0.0
  0
INSERT
  5
8094
330
808E
100
AcDbEntity
  8
寸法
 62
     0
370
    -2
100
AcDbBlockReference
  2
_DOT
 10
203.9639778307299
 20
339.2778914719676
 30
0.0
 41
1.5
 42
1.5
 43
1.5
 50
180.0
  0
INSERT
  5
8095
330
808E
100
AcDbEntity
  8
寸法
 62
     0
370
    -2
100
AcDbBlockReference
  2
_DOT
 10
257.9639778307298
 20
339.2778914719676
 30
0.0
 41
1.5
 42
1.5
 43
1.5
  0
MTEXT
  5
8096
330
808E
100
AcDbEntity
  8
寸法
  6
Continuous
 62
     0
100
AcDbMText
 10
230.9639778307298
 20
343.778829323662
 30
0.0
 40
5.0
 41
0.0
 46
0.0
 71
     5
 72
     1
  1
\A1;54
  7
ＭＳ ゴシック
 73
     1
 44
1.0
  0
POINT
  5
8097
330
808E
100
AcDbEntity
  8
Defpoints
 62
     0
100
AcDbPoint
 10
203.9639778307299
 20
300.1198114115173
 30
0.0
  0
POINT
  5
8098
330
808E
100
AcDbEntity
  8
Defpoints
 62
     0
100
AcDbPoint
 10
257.9639778307298
 20
300.1198114115173
 30
0.0
  0
POINT
  5
8099
330
808E
100
AcDbEntity
  8
Defpoints
 62
     0
100
AcDbPoint
 10
257.9639778307298
 20
339.2778914719676
 30
0.0
  0
ENDBLK
  5
8090
330
808E
100
AcDbEntity
  8
0
100
AcDbBlockEnd
  0
BLOCK
  5
809E
330
809D
100
AcDbEntity
  8
0
100
AcDbBlockBegin
  2
*D18
 70
     1
 10
0.0
 20
0.0
 30
0.0
  3
*D18
  1

  0
LINE
  5
80A0
330
809D
100
AcDbEntity
  8
寸法
  6
Continuous
 62
     0
370
    -2
100
AcDbLine
 10
455.1767865647565
 20
268.8633391959418
 30
0.0
 11
455.1767865647565
 21
252.5395719262855
 31
0.0
  0
LINE
  5
80A1
330
809D
100
AcDbEntity
  8
寸法
  6
Continuous
 62
     0
370
    -2
100
AcDbLine
 10
471.1767865647565
 20
268.8633391959418
 30
0.0
 11
471.1767865647565
 21
252.5395719262855
 31
0.0
  0
LINE
  5
80A2
330
809D
100
AcDbEntity
  8
寸法
  6
Continuous
 62
     0
370
    -2
100
AcDbLine
 10
456.6767865647565
 20
252.5395719262855
 30
0.0
 11
469.6767865647565
 21
252.5395719262855
 31
0.0
  0
INSERT
  5
80A3
330
809D
100
AcDbEntity
  8
寸法
 62
     0
370
    -2
100
AcDbBlockReference
  2
_DOT
 10
455.1767865647565
 20
252.5395719262855
 30
0.0
 41
1.5
 42
1.5
 43
1.5
 50
180.0
  0
INSERT
  5
80A4
330
809D
100
AcDbEntity
  8
寸法
 62
     0
370
    -2
100
AcDbBlockReference
  2
_DOT
 10
471.1767865647565
 20
252.5395719262855
 30
0.0
 41
1.5
 42
1.5
 43
1.5
  0
MTEXT
  5
80A5
330
809D
100
AcDbEntity
  8
寸法
  6
Continuous
 62
     0
100
AcDbMText
 10
463.1767865647565
 20
257.0405097779799
 30
0.0
 40
5.0
 41
0.0
 46
0.0
 71
     5
 72
     1
  1
\A1;16
  7
ＭＳ ゴシック
 73
     1
 44
1.0
  0
POINT
  5
80A6
330
809D
100
AcDbEntity
  8
Defpoints
 62
     0
100
AcDbPoint
 10
455.1767865647565
 20
273.8633391959418
 30
0.0
  0
POINT
  5
80A7
330
809D
100
AcDbEntity
  8
Defpoints
 62
     0
100
AcDbPoint
 10
471.1767865647565
 20
273.8633391959418
 30
0.0
  0
POINT
  5
80A8
330
809D
100
AcDbEntity
  8
Defpoints
 62
     0
100
AcDbPoint
 10
471.1767865647565
 20
252.5395719262855
 30
0.0
  0
ENDBLK
  5
809F
330
809D
100
AcDbEntity
  8
0
100
AcDbBlockEnd
  0
BLOCK
  5
80B6
330
80B5
100
AcDbEntity
  8
0
100
AcDbBlockBegin
  2
*D19
 70
     1
 10
0.0
 20
0.0
 30
0.0
  3
*D19
  1

  0
LINE
  5
80B8
330
80B5
100
AcDbEntity
  8
寸法
  6
Continuous
 62
     0
370
    -2
100
AcDbLine
 10
351.6449084462188
 20
204.8938505415327
 30
0.0
 11
351.6449084462188
 21
211.061767294613
 31
0.0
  0
LINE
  5
80B9
330
80B5
100
AcDbEntity
  8
寸法
  6
Continuous
 62
     0
370
    -2
100
AcDbLine
 10
361.6449084462188
 20
202.1476867842136
 30
0.0
 11
361.6449084462188
 21
211.061767294613
 31
0.0
  0
LINE
  5
80BA
330
80B5
100
AcDbEntity
  8
寸法
  6
Continuous
 62
     0
370
    -2
100
AcDbLine
 10
353.1449084462188
 20
211.061767294613
 30
0.0
 11
360.1449084462188
 21
211.061767294613
 31
0.0
  0
INSERT
  5
80BB
330
80B5
100
AcDbEntity
  8
寸法
 62
     0
370
    -2
100
AcDbBlockReference
  2
_DOT
 10
351.6449084462188
 20
211.061767294613
 30
0.0
 41
1.5
 42
1.5
 43
1.5
 50
180.0
  0
INSERT
  5
80BC
330
80B5
100
AcDbEntity
  8
寸法
 62
     0
370
    -2
100
AcDbBlockReference
  2
_DOT
 10
361.6449084462188
 20
211.061767294613
 30
0.0
 41
1.5
 42
1.5
 43
1.5
  0
MTEXT
  5
80BD
330
80B5
100
AcDbEntity
  8
寸法
  6
Continuous
 62
     0
100
AcDbMText
 10
356.6449084462188
 20
215.561767294613
 30
0.0
 40
5.0
 41
0.0
 46
0.0
 71
     5
 72
     1
  1
\A1;9
  7
ＭＳ ゴシック
 73
     1
 44
1.0
  0
POINT
  5
80BE
330
80B5
100
AcDbEntity
  8
Defpoints
 62
     0
100
AcDbPoint
 10
351.6449084462188
 20
199.8938505415327
 30
0.0
  0
POINT
  5
80BF
330
80B5
100
AcDbEntity
  8
Defpoints
 62
     0
100
AcDbPoint
 10
361.6449084462188
 20
197.1476867842136
 30
0.0
  0
POINT
  5
80C0
330
80B5
100
AcDbEntity
  8
Defpoints
 62
     0
100
AcDbPoint
 10
361.6449084462188
 20
211.061767294613
 30
0.0
  0
ENDBLK
  5
80B7
330
80B5
100
AcDbEntity
  8
0
100
AcDbBlockEnd
  0
BLOCK
  5
8160
330
815F
100
AcDbEntity
  8
0
100
AcDbBlockBegin
  2
*D20
 70
     1
 10
0.0
 20
0.0
 30
0.0
  3
*D20
  1

  0
LINE
  5
8162
330
815F
100
AcDbEntity
  8
寸法
  6
Continuous
 62
     0
370
    -2
100
AcDbLine
 10
361.6449084462201
 20
199.8938505415323
 30
0.0
 11
384.4179502057481
 21
199.8938505415323
 31
0.0
  0
LINE
  5
8163
330
815F
100
AcDbEntity
  8
寸法
  6
Continuous
 62
     0
370
    -2
100
AcDbLine
 10
361.6449084462188
 20
149.9014286921301
 30
0.0
 11
384.4179502057481
 21
149.9014286921301
 31
0.0
  0
LINE
  5
8164
330
815F
100
AcDbEntity
  8
寸法
  6
Continuous
 62
     0
370
    -2
100
AcDbLine
 10
384.4179502057481
 20
198.3938505415323
 30
0.0
 11
384.4179502057481
 21
151.4014286921301
 31
0.0
  0
INSERT
  5
8165
330
815F
100
AcDbEntity
  8
寸法
 62
     0
370
    -2
100
AcDbBlockReference
  2
_DOT
 10
384.4179502057481
 20
199.8938505415323
 30
0.0
 41
1.5
 42
1.5
 43
1.5
 50
90.0
  0
INSERT
  5
8166
330
815F
100
AcDbEntity
  8
寸法
 62
     0
370
    -2
100
AcDbBlockReference
  2
_DOT
 10
384.4179502057481
 20
149.9014286921301
 30
0.0
 41
1.5
 42
1.5
 43
1.5
 50
270.0
  0
MTEXT
  5
8167
330
815F
100
AcDbEntity
  8
寸法
  6
Continuous
 62
     0
100
AcDbMText
 10
379.9170123540537
 20
174.8976396168312
 30
0.0
 40
5.0
 41
0.0
 46
0.0
 71
     5
 72
     1
  1
\A1;50
  7
ＭＳ ゴシック
 11
0.0
 21
1.0
 31
0.0
 73
     1
 44
1.0
  0
POINT
  5
8168
330
815F
100
AcDbEntity
  8
Defpoints
 62
     0
100
AcDbPoint
 10
356.6449084462201
 20
199.8938505415323
 30
0.0
  0
POINT
  5
8169
330
815F
100
AcDbEntity
  8
Defpoints
 62
     0
100
AcDbPoint
 10
356.6449084462188
 20
149.9014286921301
 30
0.0
  0
POINT
  5
816A
330
815F
100
AcDbEntity
  8
Defpoints
 62
     0
100
AcDbPoint
 10
384.4179502057481
 20
149.9014286921301
 30
0.0
  0
ENDBLK
  5
8161
330
815F
100
AcDbEntity
  8
0
100
AcDbBlockEnd
  0
BLOCK
  5
8180
330
817F
100
AcDbEntity
  8
0
100
AcDbBlockBegin
  2
*D21
 70
     1
 10
0.0
 20
0.0
 30
0.0
  3
*D21
  1

  0
LINE
  5
8182
330
817F
100
AcDbEntity
  8
寸法
  6
Continuous
 62
     0
370
    -2
100
AcDbLine
 10
211.9639778307296
 20
329.008644676846
 30
0.0
 11
211.9639778307296
 21
348.4631111111111
 31
0.0
  0
LINE
  5
8183
330
817F
100
AcDbEntity
  8
寸法
  6
Continuous
 62
     0
370
    -2
100
AcDbLine
 10
249.9639778307298
 20
329.0833222276588
 30
0.0
 11
249.9639778307298
 21
348.4631111111111
 31
0.0
  0
LINE
  5
8184
330
817F
100
AcDbEntity
  8
寸法
  6
Continuous
 62
     0
370
    -2
100
AcDbLine
 10
213.4639778307296
 20
348.4631111111111
 30
0.0
 11
248.4639778307298
 21
348.4631111111111
 31
0.0
  0
INSERT
  5
8185
330
817F
100
AcDbEntity
  8
寸法
 62
     0
370
    -2
100
AcDbBlockReference
  2
_DOT
 10
211.9639778307296
 20
348.4631111111111
 30
0.0
 41
1.5
 42
1.5
 43
1.5
 50
180.0
  0
INSERT
  5
8186
330
817F
100
AcDbEntity
  8
寸法
 62
     0
370
    -2
100
AcDbBlockReference
  2
_DOT
 10
249.9639778307298
 20
348.4631111111111
 30
0.0
 41
1.5
 42
1.5
 43
1.5
  0
MTEXT
  5
8187
330
817F
100
AcDbEntity
  8
寸法
  6
Continuous
 62
     0
100
AcDbMText
 10
230.9639778307297
 20
352.9640489628055
 30
0.0
 40
5.0
 41
0.0
 46
0.0
 71
     5
 72
     1
  1
\A1;38
  7
ＭＳ ゴシック
 73
     1
 44
1.0
  0
POINT
  5
8188
330
817F
100
AcDbEntity
  8
Defpoints
 62
     0
100
AcDbPoint
 10
211.9639778307296
 20
324.008644676846
 30
0.0
  0
POINT
  5
8189
330
817F
100
AcDbEntity
  8
Defpoints
 62
     0
100
AcDbPoint
 10
249.9639778307298
 20
324.0833222276588
 30
0.0
  0
POINT
  5
818A
330
817F
100
AcDbEntity
  8
Defpoints
 62
     0
100
AcDbPoint
 10
249.9639778307298
 20
348.4631111111111
 30
0.0
  0
ENDBLK
  5
8181
330
817F
100
AcDbEntity
  8
0
100
AcDbBlockEnd
  0
BLOCK
  5
818D
330
818C
100
AcDbEntity
  8
0
100
AcDbBlockBegin
  2
*D22
 70
     1
 10
0.0
 20
0.0
 30
0.0
  3
*D22
  1

  0
LINE
  5
818F
330
818C
100
AcDbEntity
  8
寸法
  6
Continuous
 62
     0
370
    -2
100
AcDbLine
 10
209.8849965975774
 20
327.1198114115172
 30
0.0
 11
192.9391330046103
 21
327.1198114115172
 31
0.0
  0
LINE
  5
8190
330
818C
100
AcDbEntity
  8
寸法
  6
Continuous
 62
     0
370
    -2
100
AcDbLine
 10
209.6242091118688
 20
272.9306694509352
 30
0.0
 11
192.9391330046103
 21
272.9306694509352
 31
0.0
  0
LINE
  5
8191
330
818C
100
AcDbEntity
  8
寸法
  6
Continuous
 62
     0
370
    -2
100
AcDbLine
 10
192.9391330046103
 20
325.6198114115172
 30
0.0
 11
192.9391330046103
 21
274.4306694509352
 31
0.0
  0
INSERT
  5
8192
330
818C
100
AcDbEntity
  8
寸法
 62
     0
370
    -2
100
AcDbBlockReference
  2
_DOT
 10
192.9391330046103
 20
327.1198114115172
 30
0.0
 41
1.5
 42
1.5
 43
1.5
 50
90.0
  0
INSERT
  5
8193
330
818C
100
AcDbEntity
  8
寸法
 62
     0
370
    -2
100
AcDbBlockReference
  2
_DOT
 10
192.9391330046103
 20
272.9306694509352
 30
0.0
 41
1.5
 42
1.5
 43
1.5
 50
270.0
  0
MTEXT
  5
8194
330
818C
100
AcDbEntity
  8
寸法
  6
Continuous
 62
     0
100
AcDbMText
 10
188.4381951529159
 20
300.0252404312262
 30
0.0
 40
5.0
 41
0.0
 46
0.0
 71
     5
 72
     1
  1
\A1;54
  7
ＭＳ ゴシック
 11
0.0
 21
1.0
 31
0.0
 73
     1
 44
1.0
  0
POINT
  5
8195
330
818C
100
AcDbEntity
  8
Defpoints
 62
     0
100
AcDbPoint
 10
214.8849965975774
 20
327.1198114115172
 30
0.0
  0
POINT
  5
8196
330
818C
100
AcDbEntity
  8
Defpoints
 62
     0
100
AcDbPoint
 10
214.6242091118688
 20
272.9306694509352
 30
0.0
  0
POINT
  5
8197
330
818C
100
AcDbEntity
  8
Defpoints
 62
     0
100
AcDbPoint
 10
192.9391330046103
 20
272.9306694509352
 30
0.0
  0
ENDBLK
  5
818E
330
818C
100
AcDbEntity
  8
0
100
AcDbBlockEnd
  0
BLOCK
  5
819B
330
819A
100
AcDbEntity
  8
0
100
AcDbBlockBegin
  2
*D23
 70
     1
 10
0.0
 20
0.0
 30
0.0
  3
*D23
  1

  0
LINE
  5
819D
330
819A
100
AcDbEntity
  8
寸法
  6
Continuous
 62
     0
370
    -2
100
AcDbLine
 10
439.1767865647563
 20
327.1198114115173
 30
0.0
 11
423.0947282243636
 21
327.1198114115173
 31
0.0
  0
LINE
  5
819E
330
819A
100
AcDbEntity
  8
寸法
  6
Continuous
 62
     0
370
    -2
100
AcDbLine
 10
441.392554887517
 20
272.9306694509352
 30
0.0
 11
423.0947282243636
 21
272.9306694509352
 31
0.0
  0
LINE
  5
819F
330
819A
100
AcDbEntity
  8
寸法
  6
Continuous
 62
     0
370
    -2
100
AcDbLine
 10
423.0947282243636
 20
325.6198114115173
 30
0.0
 11
423.0947282243636
 21
274.4306694509352
 31
0.0
  0
INSERT
  5
81A0
330
819A
100
AcDbEntity
  8
寸法
 62
     0
370
    -2
100
AcDbBlockReference
  2
_DOT
 10
423.0947282243636
 20
327.1198114115173
 30
0.0
 41
1.5
 42
1.5
 43
1.5
 50
90.0
  0
INSERT
  5
81A1
330
819A
100
AcDbEntity
  8
寸法
 62
     0
370
    -2
100
AcDbBlockReference
  2
_DOT
 10
423.0947282243636
 20
272.9306694509352
 30
0.0
 41
1.5
 42
1.5
 43
1.5
 50
270.0
  0
MTEXT
  5
81A2
330
819A
100
AcDbEntity
  8
寸法
  6
Continuous
 62
     0
100
AcDbMText
 10
418.5937903726692
 20
300.0252404312263
 30
0.0
 40
5.0
 41
0.0
 46
0.0
 71
     5
 72
     1
  1
\A1;54
  7
ＭＳ ゴシック
 11
0.0
 21
1.0
 31
0.0
 73
     1
 44
1.0
  0
POINT
  5
81A3
330
819A
100
AcDbEntity
  8
Defpoints
 62
     0
100
AcDbPoint
 10
444.1767865647563
 20
327.1198114115173
 30
0.0
  0
POINT
  5
81A4
330
819A
100
AcDbEntity
  8
Defpoints
 62
     0
100
AcDbPoint
 10
446.392554887517
 20
272.9306694509352
 30
0.0
  0
POINT
  5
81A5
330
819A
100
AcDbEntity
  8
Defpoints
 62
     0
100
AcDbPoint
 10
423.0947282243636
 20
272.9306694509352
 30
0.0
  0
ENDBLK
  5
819C
330
819A
100
AcDbEntity
  8
0
100
AcDbBlockEnd
  0
BLOCK
  5
81AA
330
81A9
100
AcDbEntity
  8
0
100
AcDbBlockBegin
  2
*D24
 70
     1
 10
0.0
 20
0.0
 30
0.0
  3
*D24
  1

  0
LINE
  5
81AC
330
81A9
100
AcDbEntity
  8
寸法
  6
Continuous
 62
     0
370
    -2
100
AcDbLine
 10
444.1767865647563
 20
328.5545730302761
 30
0.0
 11
444.1767865647563
 21
348.4631111111111
 31
0.0
  0
LINE
  5
81AD
330
81A9
100
AcDbEntity
  8
寸法
  6
Continuous
 62
     0
370
    -2
100
AcDbLine
 10
482.1767865647565
 20
328.4769810989158
 30
0.0
 11
482.1767865647565
 21
348.4631111111111
 31
0.0
  0
LINE
  5
81AE
330
81A9
100
AcDbEntity
  8
寸法
  6
Continuous
 62
     0
370
    -2
100
AcDbLine
 10
445.6767865647563
 20
348.4631111111111
 30
0.0
 11
480.6767865647565
 21
348.4631111111111
 31
0.0
  0
INSERT
  5
81AF
330
81A9
100
AcDbEntity
  8
寸法
 62
     0
370
    -2
100
AcDbBlockReference
  2
_DOT
 10
444.1767865647563
 20
348.4631111111111
 30
0.0
 41
1.5
 42
1.5
 43
1.5
 50
180.0
  0
INSERT
  5
81B0
330
81A9
100
AcDbEntity
  8
寸法
 62
     0
370
    -2
100
AcDbBlockReference
  2
_DOT
 10
482.1767865647565
 20
348.4631111111111
 30
0.0
 41
1.5
 42
1.5
 43
1.5
  0
MTEXT
  5
81B1
330
81A9
100
AcDbEntity
  8
寸法
  6
Continuous
 62
     0
100
AcDbMText
 10
463.1767865647564
 20
352.9640489628055
 30
0.0
 40
5.0
 41
0.0
 46
0.0
 71
     5
 72
     1
  1
\A1;38
  7
ＭＳ ゴシック
 73
     1
 44
1.0
  0
POINT
  5
81B2
330
81A9
100
AcDbEntity
  8
Defpoints
 62
     0
100
AcDbPoint
 10
444.1767865647563
 20
323.5545730302761
 30
0.0
  0
POINT
  5
81B3
330
81A9
100
AcDbEntity
  8
Defpoints
 62
     0
100
AcDbPoint
 10
482.1767865647565
 20
323.4769810989158
 30
0.0
  0
POINT
  5
81B4
330
81A9
100
AcDbEntity
  8
Defpoints
 62
     0
100
AcDbPoint
 10
482.1767865647565
 20
348.4631111111111
 30
0.0
  0
ENDBLK
  5
81AB
330
81A9
100
AcDbEntity
  8
0
100
AcDbBlockEnd
  0
ENDSEC
  0
SECTION
  2
ENTITIES
  0
LINE
  5
54A0
330
A
100
AcDbEntity
  8
PRINT BORDER
100
AcDbLine
 10
296.9999999999999
 20
0.0
 30
0.0
 11
296.9999999999999
 21
15.30952622855898
 31
0.0
  0
LINE
  5
54A1
330
A
100
AcDbEntity
  8
テンプレート
100
AcDbLine
 10
437.9999999999999
 20
38.27810890422097
 30
0.0
 11
15.30952622855898
 21
38.27810890422097
 31
0.0
  0
LINE
  5
54A2
330
A
100
AcDbEntity
  8
テンプレート
100
AcDbLine
 10
15.30952622855898
 20
26.22153683920783
 30
0.0
 11
578.6904737714407
 21
26.22153683920783
 31
0.0
  0
TEXT
  5
54A3
330
A
100
AcDbEntity
  8
テンプレート
100
AcDbText
 10
18.06121699514119
 20
32.16825981613692
 30
0.0
 40
3.5
  1
材質
  7
ＭＳ ゴシック
100
AcDbText
  0
TEXT
  5
54A4
330
A
100
AcDbEntity
  8
テンプレート
100
AcDbText
 10
18.06121699514119
 20
56.50959028673083
 30
0.0
 40
3.5
  1
品名
  7
ＭＳ ゴシック
100
AcDbText
  0
TEXT
  5
54A5
330
A
100
AcDbEntity
  8
テンプレート
100
AcDbText
 10
18.06121699514119
 20
44.65099339080098
 30
0.0
 40
3.5
  1
仕上げ
  7
ＭＳ ゴシック
100
AcDbText
  0
TEXT
  5
54A6
330
A
100
AcDbEntity
  8
テンプレート
100
AcDbText
 10
326.5323022261666
 20
56.58523052309899
 30
0.0
 40
3.5
  1
品番
  7
ＭＳ ゴシック
100
AcDbText
  0
TEXT
  5
54A7
330
A
100
AcDbEntity
  8
テンプレート
100
AcDbText
 10
36.7528253083583
 20
53.09440584367189
 30
0.0
 40
5.5
  1
間仕切装置 - FORMANI,Cone -
  7
ＭＳ ゴシック
100
AcDbText
  0
TEXT
  5
54A8
330
A
100
AcDbEntity
  8
テンプレート
100
AcDbText
 10
340.7260742506825
 20
52.97708052455302
 30
0.0
 40
5.5
  1
FOR16-CO01
  7
ＭＳ ゴシック
100
AcDbText
  0
LINE
  5
54A9
330
A
100
AcDbEntity
  8
テンプレート
100
AcDbLine
 10
437.9999999999999
 20
50.16496477419605
 30
0.0
 11
15.30952622855898
 21
50.16496477419605
 31
0.0
  0
LINE
  5
54AA
330
A
100
AcDbEntity
  8
テンプレート
100
AcDbLine
 10
578.6904737714411
 20
62.22153683920783
 30
0.0
 11
15.30952622855898
 21
62.22153683920783
 31
0.0
  0
LINE
  5
54AB
330
A
100
AcDbEntity
  8
PRINT BORDER
100
AcDbLine
 10
593.9999999999999
 20
210.0
 30
0.0
 11
578.6904737714411
 21
210.0
 31
0.0
  0
LINE
  5
54AC
330
A
100
AcDbEntity
  8
PRINT BORDER
100
AcDbLine
 10
0.0
 20
210.0
 30
0.0
 11
15.30952622855898
 21
210.0
 31
0.0
  0
LINE
  5
54AD
330
A
100
AcDbEntity
  8
PRINT BORDER
100
AcDbLine
 10
296.9999999999999
 20
420.0
 30
0.0
 11
296.9999999999999
 21
404.690473771441
 31
0.0
  0
LINE
  5
54AE
330
A
100
AcDbEntity
  8
テンプレート
100
AcDbLine
 10
578.6904737714411
 20
62.22153683920783
 30
0.0
 11
578.6904737714411
 21
26.22153683920783
 31
0.0
  0
LINE
  5
54AF
330
A
100
AcDbEntity
  8
テンプレート
100
AcDbLine
 10
15.30952622855898
 20
62.22153683920783
 30
0.0
 11
15.30952622855898
 21
26.22153683920783
 31
0.0
  0
TEXT
  5
54B0
330
A
100
AcDbEntity
  8
テンプレート
100
AcDbText
 10
494.9733384955217
 20
16.51938390313694
 30
0.0
 40
5.5
  1
大洋金物株式会社  
  7
ＭＳ ゴシック
100
AcDbText
  0
LINE
  5
54B1
330
A
100
AcDbEntity
  8
テンプレート
100
AcDbLine
 10
437.9999999999999
 20
62.22153683920783
 30
0.0
 11
437.9999999999999
 21
26.22153683920783
 31
0.0
  0
LINE
  5
54B2
330
A
100
AcDbEntity
  8
テンプレート
100
AcDbLine
 10
323.7181790590112
 20
62.22153683920784
 30
0.0
 11
323.7181790590112
 21
26.22153683920784
 31
0.0
  0
INSERT
  5
54B3
330
A
100
AcDbEntity
  8
テンプレート
100
AcDbBlockReference
  2
名称未設定-1
 10
548.3945198859805
 20
-7.642344203993161
 30
0.0
 41
0.180975
 42
0.180975
 43
0.180975
  0
LINE
  5
54B5
330
A
100
AcDbEntity
  8
テンプレート
100
AcDbLine
 10
15.30952622855898
 20
210.0
 30
0.0
 11
15.30952622855898
 21
26.22153683920783
 31
0.0
  0
LINE
  5
54B6
330
A
100
AcDbEntity
  8
テンプレート
100
AcDbLine
 10
15.30952622855898
 20
210.0
 30
0.0
 11
15.30952622855898
 21
404.690473771441
 31
0.0
  0
LINE
  5
54B7
330
A
100
AcDbEntity
  8
テンプレート
100
AcDbLine
 10
296.9999999999999
 20
404.690473771441
 30
0.0
 11
15.30952622855887
 21
404.690473771441
 31
0.0
  0
LINE
  5
54B8
330
A
100
AcDbEntity
  8
テンプレート
100
AcDbLine
 10
296.9999999999999
 20
404.690473771441
 30
0.0
 11
578.6904737714411
 21
404.690473771441
 31
0.0
  0
LINE
  5
54B9
330
A
100
AcDbEntity
  8
テンプレート
100
AcDbLine
 10
578.6904737714411
 20
210.0
 30
0.0
 11
578.6904737714411
 21
404.690473771441
 31
0.0
  0
LINE
  5
54BA
330
A
100
AcDbEntity
  8
テンプレート
100
AcDbLine
 10
578.6904737714411
 20
210.0
 30
0.0
 11
578.6904737714411
 21
26.22153683920783
 31
0.0
  0
LWPOLYLINE
  5
54BB
330
A
100
AcDbEntity
  8
PRINT BORDER
  6
HIDDEN
 48
3.0
100
AcDbPolyline
 90
        4
 70
     1
 43
0.0
 10
0.0
 20
0.0
 10
0.0
 20
420.0
 10
593.9999999999999
 20
420.0
 10
593.9999999999999
 20
0.0
  0
TEXT
  5
54BC
330
A
100
AcDbEntity
  8
テンプレート
100
AcDbText
 10
326.5078693304582
 20
32.62405342819489
 30
0.0
 40
3.5
  1
縮尺
  7
ＭＳ ゴシック
100
AcDbText
  0
TEXT
  5
54BD
330
A
100
AcDbEntity
  8
テンプレート
100
AcDbText
 10
340.7260742506825
 20
28.29362070227196
 30
0.0
 40
5.5
  1
1/2
  7
ＭＳ ゴシック
100
AcDbText
  0
TEXT
  5
54BE
330
A
100
AcDbEntity
  8
テンプレート
100
AcDbText
 10
326.5323022261666
 20
44.52865845808584
 30
0.0
 40
3.5
  1
扉厚
  7
ＭＳ ゴシック
100
AcDbText
  0
TEXT
  5
54BF
330
A
100
AcDbEntity
  8
テンプレート
100
AcDbText
 10
440.0887524673468
 20
56.58523052309897
 30
0.0
 40
3.5
  1
備考
  7
ＭＳ ゴシック
100
AcDbText
  0
LWPOLYLINE
  5
5528
330
A
100
AcDbEntity
  8
Defpoints
100
AcDbPolyline
 90
        4
 70
     1
 43
0.0
 10
161.5928474918056
 20
97.1045060433407
 10
161.5928474918056
 20
69.6571102646527
 10
432.4071525081941
 20
69.6571102646527
 10
432.4071525081941
 20
97.1045060433407
  0
LINE
  5
5529
330
A
100
AcDbEntity
  8
Defpoints
  6
CENTER
 48
3.0
100
AcDbLine
 10
296.9999999999999
 20
404.690473771441
 30
0.0
 11
297.0
 21
106.25363796957
 31
0.0
  0
LINE
  5
552A
330
A
100
AcDbEntity
  8
Defpoints
  6
CENTER
 48
3.0
100
AcDbLine
 10
15.30952622855898
 20
255.4720558705055
 30
0.0
 11
578.690473771441
 21
255.4720558705055
 31
0.0
  0
LINE
  5
552B
330
A
100
AcDbEntity
  8
Defpoints
  6
CENTER
 48
3.0
100
AcDbLine
 10
15.30952622855898
 20
106.25363796957
 30
0.0
 11
578.690473771441
 21
106.25363796957
 31
0.0
  0
LINE
  5
552C
330
A
100
AcDbEntity
  8
Defpoints
  6
CENTER
 48
3.0
100
AcDbLine
 10
408.8721245115548
 20
224.6771809568476
 30
0.0
 11
408.8721245115548
 21
137.0485128832279
 31
0.0
  0
LINE
  5
552D
330
A
100
AcDbEntity
  8
Defpoints
  6
CENTER
 48
3.0
100
AcDbLine
 10
365.057790474745
 20
180.8628469200378
 30
0.0
 11
452.6864585483647
 21
180.8628469200378
 31
0.0
  0
LINE
  5
59F5
330
A
100
AcDbEntity
  8
テンプレート
  6
Continuous
100
AcDbLine
 10
33.63100153769659
 20
26.22153683920783
 30
0.0
 11
33.63100153769659
 21
50.16496477419605
 31
0.0
  0
MTEXT
  5
59F7
102
{ACAD_XDICTIONARY
360
59F8
102
}
330
A
100
AcDbEntity
  8
寸法
  6
Continuous
370
     0
100
AcDbMText
 10
16.03746315898582
 20
23.37395828580276
 30
0.0
 40
4.0
 41
0.0
 46
4.0
 71
     1
 72
     1
  1
{20221024M}
  7
ＭＳ ゴシック
 73
     1
 44
1.0
1001
ACAD
1000
ACAD_MTEXT_DEFINED_HEIGHT_BEGIN
1070
    46
1040
4.0
1000
ACAD_MTEXT_DEFINED_HEIGHT_END
  0
MTEXT
  5
5A9F
330
A
100
AcDbEntity
  8
テンプレート
390
1D
100
AcDbMText
 10
40.82496584043753
 20
34.57354675141926
 30
0.0
 40
5.0
 41
0.0
 46
5.075
 71
     1
 72
     1
  1
{ステンレス}
  7
ＭＳ ゴシック
 73
     1
 44
0.7828267384257843
1001
ACAD
1000
ACAD_MTEXT_DEFINED_HEIGHT_BEGIN
1070
    46
1040
5.075
1000
ACAD_MTEXT_DEFINED_HEIGHT_END
  0
LINE
  5
5AA7
330
A
100
AcDbEntity
  8
テンプレート
  6
Continuous
100
AcDbLine
 10
224.2453682111437
 20
50.16496477419606
 30
0.0
 11
224.2453682111437
 21
38.27810890422099
 31
0.0
  0
LINE
  5
5AA8
330
A
100
AcDbEntity
  8
テンプレート
  6
Continuous
100
AcDbLine
 10
147.2638229208211
 20
50.16496477419603
 30
0.0
 11
147.2638229208211
 21
38.27810890422096
 31
0.0
  0
LINE
  5
5AA9
330
A
100
AcDbEntity
  8
テンプレート
  6
Continuous
100
AcDbLine
 10
86.44498978318508
 20
50.16496477419605
 30
0.0
 11
86.44498978318518
 21
38.27810890422097
 31
0.0
  0
LINE
  5
6CFF
330
A
100
AcDbEntity
  8
寸法
  6
Continuous
100
AcDbLine
 10
224.2453682111437
 20
38.27810890422099
 30
0.0
 11
224.2453682111437
 21
26.22153683920781
 31
0.0
  0
MTEXT
  5
718F
330
A
100
AcDbEntity
  8
テンプレート
390
1D
100
AcDbMText
 10
40.82496584043753
 20
46.67269218827177
 30
0.0
 40
5.0
 41
0.0
 46
5.190383893960235
 71
     1
 72
     1
  1
{サテン}
  7
ＭＳ ゴシック
 73
     1
 44
0.7828267384257843
1001
ACAD
1000
ACAD_MTEXT_DEFINED_HEIGHT_BEGIN
1070
    46
1040
5.190383893960235
1000
ACAD_MTEXT_DEFINED_HEIGHT_END
  0
MTEXT
  5
7190
330
A
100
AcDbEntity
  8
テンプレート
390
1D
100
AcDbMText
 10
89.3679633832603
 20
46.67269218827177
 30
0.0
 40
5.0
 41
0.0
 46
5.480180067525322
 71
     1
 72
     1
  1
{PVDブラック}
  7
ＭＳ ゴシック
 73
     1
 44
0.7828267384257843
1001
ACAD
1000
ACAD_MTEXT_DEFINED_HEIGHT_BEGIN
1070
    46
1040
5.480180067525322
1000
ACAD_MTEXT_DEFINED_HEIGHT_END
  0
SPLINE
  5
7666
330
A
100
AcDbEntity
  8
モデル
100
AcDbSpline
210
0.0
220
0.0
230
1.0
 70
    28
 71
     2
 72
     6
 73
     3
 74
     0
 42
0.000000001
 43
0.0000000001
 40
0.0
 40
0.0
 40
0.0
 40
0.2048685082590119
 40
0.2048685082590119
 40
0.2048685082590119
 10
460.1767865647565
 20
272.8181173823997
 30
0.0
 41
1.0
 10
460.1767865647568
 20
273.0419316005532
 30
0.0
 41
1.000034357565835
 10
460.1767865647565
 20
273.2620887408368
 30
0.0
 41
1.0
  0
ARC
  5
7667
330
A
100
AcDbEntity
  8
モデル
100
AcDbCircle
 10
463.1767865647565
 20
299.650933112397
 30
0.0
 40
16.00000000000001
100
AcDbArc
 50
284.5304736029689
 51
75.46952639703082
  0
SPLINE
  5
7668
330
A
100
AcDbEntity
  8
モデル
100
AcDbSpline
210
0.0
220
0.0
230
1.0
 70
    28
 71
     2
 72
     6
 73
     3
 74
     0
 42
0.000000001
 43
0.0000000001
 40
0.0
 40
0.0
 40
0.0
 40
0.2048685082590115
 40
0.2048685082590115
 40
0.2048685082590115
 10
466.1767865647565
 20
273.2620887408368
 30
0.0
 41
1.0
 10
466.1767865647564
 20
273.0419316005494
 30
0.0
 41
1.000034358675037
 10
466.1767865647565
 20
272.8181173823997
 30
0.0
 41
1.0
  0
ARC
  5
7669
330
A
100
AcDbEntity
  8
モデル
100
AcDbCircle
 10
463.1767865647565
 20
299.650933112397
 30
0.0
 40
16.00000000000001
100
AcDbArc
 50
104.5304736029692
 51
255.4695263970308
  0
CIRCLE
  5
766A
330
A
100
AcDbEntity
  8
モデル
100
AcDbCircle
 10
463.1767865647565
 20
299.650933112397
 30
0.0
 40
25.49999999999995
  0
ELLIPSE
  5
766B
330
A
100
AcDbEntity
  8
モデル
100
AcDbEllipse
 10
463.3095417867696
 20
321.0210054999993
 30
0.0
 11
0.3850605117751928
 21
3.610905334540742
 31
0.0
210
0.0
220
0.0
230
1.0
 40
0.9638213467566717
 41
0.148115735457137
 42
1.570796326794916
  0
LINE
  5
766C
330
A
100
AcDbEntity
  8
モデル
100
AcDbLine
 10
463.3100668424344
 20
321.9009802797792
 30
0.0
 11
463.0435062870787
 21
321.9009802797792
 31
0.0
  0
ELLIPSE
  5
766D
330
A
100
AcDbEntity
  8
モデル
100
AcDbEllipse
 10
463.0440313427433
 20
321.0210054999993
 30
0.0
 11
-0.3850605117751887
 21
3.610905334540745
 31
0.0
210
0.0
220
0.0
230
1.0
 40
0.9638213467566717
 41
4.712388980384672
 42
6.135069571722385
  0
ELLIPSE
  5
766E
330
A
100
AcDbEntity
  8
モデル
100
AcDbEllipse
 10
463.0162917159477
 20
318.2710526673812
 30
0.0
 11
0.3850605117751928
 21
3.610905334540742
 31
0.0
210
0.0
220
0.0
230
-1.0
 40
0.9638213467566717
 41
4.712388980384701
 42
6.180764754491689
  0
LINE
  5
766F
330
A
100
AcDbEntity
  8
モデル
100
AcDbLine
 10
458.1767865647565
 20
305.8959311107954
 30
0.0
 11
459.5360240733999
 21
318.6421822084232
 31
0.0
  0
ELLIPSE
  5
7670
330
A
100
AcDbEntity
  8
モデル
100
AcDbEllipse
 10
463.3372814135654
 20
318.2710526673812
 30
0.0
 11
-0.3850605117751887
 21
3.610905334540745
 31
0.0
210
0.0
220
0.0
230
-1.0
 40
0.9638213467566717
 41
0.1024205526878953
 42
1.570796326794884
  0
ELLIPSE
  5
7671
330
A
100
AcDbEntity
  8
モデル
100
AcDbEllipse
 10
463.3095417867696
 20
278.2808607247949
 30
0.0
 11
0.3850605117751912
 21
-3.610905334540743
 31
0.0
210
0.0
220
0.0
230
1.0
 40
0.9638213467566716
 41
4.712388980384655
 42
6.13506957172245
  0
ELLIPSE
  5
7672
330
A
100
AcDbEntity
  8
モデル
100
AcDbEllipse
 10
463.0162917159477
 20
281.0308135574128
 30
0.0
 11
0.3850605117751912
 21
-3.610905334540743
 31
0.0
210
0.0
220
0.0
230
-1.0
 40
0.9638213467566716
 41
0.1024205526878961
 42
1.570796326794915
  0
LINE
  5
7673
330
A
100
AcDbEntity
  8
モデル
100
AcDbLine
 10
466.8175490561134
 20
318.6421822084232
 30
0.0
 11
468.1767865647565
 21
305.8959311107954
 31
0.0
  0
ELLIPSE
  5
7674
330
A
100
AcDbEntity
  8
モデル
100
AcDbEllipse
 10
463.3372814135654
 20
281.0308135574128
 30
0.0
 11
-0.3850605117751903
 21
-3.610905334540744
 31
0.0
210
0.0
220
0.0
230
-1.0
 40
0.9638213467566716
 41
4.71238898038467
 42
6.18076475449169
  0
ELLIPSE
  5
7675
330
A
100
AcDbEntity
  8
モデル
100
AcDbEllipse
 10
463.0440313427433
 20
278.2808607247949
 30
0.0
 11
-0.3850605117751903
 21
-3.610905334540744
 31
0.0
210
0.0
220
0.0
230
1.0
 40
0.9638213467566716
 41
0.1481157354572005
 42
1.570796326794915
  0
LINE
  5
7676
330
A
100
AcDbEntity
  8
モデル
100
AcDbLine
 10
458.1767865647565
 20
293.4059351139986
 30
0.0
 11
459.5360240733999
 21
280.6596840163708
 31
0.0
  0
LINE
  5
7677
330
A
100
AcDbEntity
  8
モデル
100
AcDbLine
 10
466.8175490561134
 20
280.6596840163708
 30
0.0
 11
468.1767865647565
 21
293.4059351139986
 31
0.0
  0
LINE
  5
7678
330
A
100
AcDbEntity
  8
モデル
100
AcDbLine
 10
463.0435062870787
 20
277.4008859450149
 30
0.0
 11
463.3100668424344
 21
277.4008859450149
 31
0.0
  0
LINE
  5
7679
330
A
100
AcDbEntity
  8
モデル
100
AcDbLine
 10
459.8292741442216
 20
321.3921350410411
 30
0.0
 11
459.5360240733999
 21
318.6421822084232
 31
0.0
  0
ARC
  5
767A
330
A
100
AcDbEntity
  8
モデル
100
AcDbCircle
 10
463.1767865647565
 20
299.650933112397
 30
0.0
 40
8.000000000000004
100
AcDbArc
 50
128.6821874534895
 51
231.3178125465105
  0
ARC
  5
767B
330
A
100
AcDbEntity
  8
モデル
100
AcDbCircle
 10
463.1767865647565
 20
299.650933112397
 30
0.0
 40
8.000000000000005
100
AcDbArc
 50
308.6821874534892
 51
51.31781254651052
  0
ARC
  5
767C
330
A
100
AcDbEntity
  8
モデル
100
AcDbCircle
 10
463.1767865647565
 20
299.650933112397
 30
0.0
 40
26.99999999999995
100
AcDbArc
 50
276.3793702084428
 51
263.6206297915572
  0
ARC
  5
767D
330
A
100
AcDbEntity
  8
モデル
100
AcDbCircle
 10
463.1767865647565
 20
299.6509331123968
 30
0.0
 40
26.55882352941148
100
AcDbArc
 50
263.5142089979752
 51
276.4857910020248
  0
LINE
  5
767E
330
A
100
AcDbEntity
  8
モデル
100
AcDbLine
 10
466.8175490561134
 20
318.6421822084232
 30
0.0
 11
466.5242989852914
 21
321.3921350410411
 31
0.0
  0
LINE
  5
767F
330
A
100
AcDbEntity
  8
モデル
100
AcDbLine
 10
459.5360240733999
 20
280.6596840163708
 30
0.0
 11
459.8292741442216
 21
277.909731183753
 31
0.0
  0
LINE
  5
7680
330
A
100
AcDbEntity
  8
モデル
100
AcDbLine
 10
466.5242989852914
 20
277.909731183753
 30
0.0
 11
466.8175490561134
 21
280.6596840163708
 31
0.0
  0
SPLINE
  5
7681
330
A
100
AcDbEntity
  8
モデル
100
AcDbSpline
210
0.0
220
0.0
230
1.0
 70
    28
 71
     2
 72
     6
 73
     3
 74
     0
 42
0.000000001
 43
0.0000000001
 40
0.0
 40
0.0
 40
0.0
 40
0.2048685082590119
 40
0.2048685082590119
 40
0.2048685082590119
 10
227.9639778307298
 20
273.2869956815199
 30
0.0
 41
1.0
 10
227.9639778307298
 20
273.5108098996733
 30
0.0
 41
1.000034357565835
 10
227.9639778307298
 20
273.7309670399569
 30
0.0
 41
1.0
  0
ARC
  5
7682
330
A
100
AcDbEntity
  8
モデル
100
AcDbCircle
 10
230.9639778307298
 20
300.1198114115173
 30
0.0
 40
10.00000000000001
100
AcDbArc
 50
5.739170477266777
 51
174.2608295227332
  0
SPLINE
  5
7683
330
A
100
AcDbEntity
  8
モデル
100
AcDbSpline
210
0.0
220
0.0
230
1.0
 70
    28
 71
     2
 72
     6
 73
     3
 74
     0
 42
0.000000001
 43
0.0000000001
 40
0.0
 40
0.0
 40
0.0
 40
0.2048685082590115
 40
0.2048685082590115
 40
0.2048685082590115
 10
233.9639778307298
 20
273.7309670399569
 30
0.0
 41
1.0
 10
233.9639778307298
 20
273.5108098996696
 30
0.0
 41
1.000034358675037
 10
233.9639778307298
 20
273.2869956815199
 30
0.0
 41
1.0
  0
ARC
  5
7684
330
A
100
AcDbEntity
  8
モデル
100
AcDbCircle
 10
230.9639778307298
 20
300.1198114115173
 30
0.0
 40
10.0
100
AcDbArc
 50
185.7391704772668
 51
354.2608295227332
  0
CIRCLE
  5
7685
330
A
100
AcDbEntity
  8
モデル
100
AcDbCircle
 10
230.9639778307298
 20
300.1198114115173
 30
0.0
 40
25.49999999999995
  0
ARC
  5
7686
330
A
100
AcDbEntity
  8
モデル
100
AcDbCircle
 10
-230.9639778307298
 20
300.1198114115173
 30
0.0
 40
10.00000000000001
210
0.0
220
0.0
230
-1.0
100
AcDbArc
 50
354.2608295227332
 51
5.739170477266777
  0
ARC
  5
7687
330
A
100
AcDbEntity
  8
モデル
100
AcDbCircle
 10
-230.9639778307298
 20
300.1198114115173
 30
0.0
 40
10.00000000000002
210
0.0
220
0.0
230
-1.0
100
AcDbArc
 50
174.2608295227332
 51
185.7391704772668
  0
LINE
  5
7688
330
A
100
AcDbEntity
  8
モデル
100
AcDbLine
 10
221.0141034596637
 20
301.1198114115173
 30
0.0
 11
240.9138522017961
 21
301.1198114115173
 31
0.0
  0
LINE
  5
7689
330
A
100
AcDbEntity
  8
モデル
100
AcDbLine
 10
240.9138522017961
 20
299.1198114115173
 30
0.0
 11
221.0141034596637
 21
299.1198114115173
 31
0.0
  0
ARC
  5
768A
102
{ACAD_REACTORS
102
}
330
A
100
AcDbEntity
  8
モデル
100
AcDbCircle
 10
230.9639778307298
 20
300.1198114115173
 30
0.0
 40
26.99999999999995
100
AcDbArc
 50
276.3793702084428
 51
263.6206297915572
  0
ARC
  5
768B
330
A
100
AcDbEntity
  8
モデル
100
AcDbCircle
 10
230.9639778307298
 20
300.119811411517
 30
0.0
 40
26.55882352941148
100
AcDbArc
 50
263.5142089979751
 51
276.4857910020248
  0
LINE
  5
768C
330
A
100
AcDbEntity
  8
モデル
100
AcDbLine
 10
351.644908446218
 20
153.1564376881873
 30
0.0
 11
351.6449084462175
 21
165.4897105544934
 31
0.0
  0
LINE
  5
768D
330
A
100
AcDbEntity
  8
モデル
100
AcDbLine
 10
361.6449084462175
 20
168.6526416184329
 30
0.0
 11
361.6449084462176
 21
155.9063905208051
 31
0.0
  0
LINE
  5
768E
330
A
100
AcDbEntity
  8
モデル
100
AcDbLine
 10
351.6449084462188
 20
185.3976396168314
 30
0.0
 11
329.6449084462188
 21
190.8976396168314
 31
0.0
  0
LINE
  5
768F
330
A
100
AcDbEntity
  8
モデル
100
AcDbLine
 10
332.1449084462188
 20
159.5226396168314
 30
0.0
 11
329.6449084462188
 21
158.8976396168314
 31
0.0
  0
LINE
  5
7690
330
A
100
AcDbEntity
  8
モデル
100
AcDbLine
 10
351.6449084462188
 20
164.3976396168314
 30
0.0
 11
337.1449084462188
 21
160.7726396168314
 31
0.0
  0
SPLINE
  5
7691
330
A
100
AcDbEntity
  8
モデル
100
AcDbSpline
210
0.0
220
0.0
230
1.0
 70
    12
 71
     2
 72
     6
 73
     3
 74
     0
 42
0.000000001
 43
0.0000000001
 40
0.0
 40
0.0
 40
0.0
 40
1.04944933699471
 40
1.04944933699471
 40
1.04944933699471
 10
351.6449084462175
 20
165.4897105544934
 30
0.0
 41
1.0
 10
357.7387351499829
 20
167.2848876448375
 30
0.0
 41
1.015117467079602
 10
361.6449084462175
 20
168.6526416184329
 30
0.0
 41
1.0
  0
LINE
  5
7692
330
A
100
AcDbEntity
  8
モデル
100
AcDbLine
 10
329.6449084462188
 20
158.8976396168314
 30
0.0
 11
329.6449084462188
 21
190.8976396168314
 31
0.0
  0
LINE
  5
7693
330
A
100
AcDbEntity
  8
モデル
100
AcDbLine
 10
361.6449084462192
 20
168.6526416184329
 30
0.0
 11
361.6449084462175
 21
181.1426376152299
 31
0.0
  0
SPLINE
  5
7694
330
A
100
AcDbEntity
  8
モデル
100
AcDbSpline
210
0.0
220
0.0
230
1.0
 70
    12
 71
     2
 72
     6
 73
     3
 74
     0
 42
0.000000001
 43
0.0000000001
 40
0.0
 40
0.0
 40
0.0
 40
1.04944933699471
 40
1.04944933699471
 40
1.04944933699471
 10
361.6449084462175
 20
181.1426376152299
 30
0.0
 41
1.0
 10
357.7387351499829
 20
182.5103915888253
 30
0.0
 41
1.015117467079602
 10
351.6449084462175
 20
184.3055686791692
 30
0.0
 41
1.0
  0
SPLINE
  5
7695
330
A
100
AcDbEntity
  8
モデル
100
AcDbSpline
210
0.0
220
0.0
230
1.0
 70
     8
 71
     3
 72
    14
 73
    10
 74
     0
 42
0.000000001
 43
0.0000000001
 40
1.135678626690557
 40
1.135678626690557
 40
1.13567862669243
 40
1.13567862669243
 40
1.234061432419798
 40
1.234061432419798
 40
1.332444238149039
 40
1.332444238149039
 40
1.432882364885587
 40
1.432882364885587
 40
1.533320491622135
 40
1.533320491622135
 40
1.533320491622135
 40
1.533320491622135
 10
332.1449084462188
 20
159.5226396168314
 30
0.0
 10
332.1449084462213
 20
159.5226396168324
 30
0.0
 10
332.2133755038258
 20
159.5512912830778
 30
0.0
 10
332.4840689507549
 20
159.6597518827286
 30
0.0
 10
332.6861247050471
 20
159.7389277287797
 30
0.0
 10
333.1486558582425
 20
159.9084640096801
 30
0.0
 10
333.441593520731
 20
160.0104951234072
 30
0.0
 10
334.0801844785586
 20
160.2103034250927
 30
0.0
 10
334.4260429983343
 20
160.3075112631044
 30
0.0
 10
334.7508406496079
 20
160.3875337252916
 30
0.0
  0
LINE
  5
7696
330
A
100
AcDbEntity
  8
モデル
100
AcDbLine
 10
351.644908446218
 20
196.6388415454755
 30
0.0
 11
351.6449084462175
 21
184.3055686791692
 31
0.0
  0
LINE
  5
7697
330
A
100
AcDbEntity
  8
モデル
100
AcDbLine
 10
361.6449084462175
 20
181.1426376152299
 30
0.0
 11
361.644908446218
 21
193.8888887128576
 31
0.0
  0
LINE
  5
7698
330
A
100
AcDbEntity
  8
モデル
100
AcDbLine
 10
361.6449084462188
 20
197.1476867842136
 30
0.0
 11
357.09997253864
 21
198.3975227215247
 31
0.0
  0
LINE
  5
7699
102
{ACAD_REACTORS
330
80B4
102
}
330
A
100
AcDbEntity
  8
モデル
100
AcDbLine
 10
351.6449084462188
 20
196.6388415454755
 30
0.0
 11
351.6449084462188
 21
199.8938505415327
 31
0.0
  0
LINE
  5
769A
102
{ACAD_REACTORS
330
80B4
102
}
330
A
100
AcDbEntity
  8
モデル
100
AcDbLine
 10
361.6449084462188
 20
197.1476867842136
 30
0.0
 11
361.6449084462188
 21
193.8888887128576
 31
0.0
  0
LINE
  5
769B
330
A
100
AcDbEntity
  8
モデル
100
AcDbLine
 10
351.6449084462188
 20
149.9014286921301
 30
0.0
 11
351.6449084462188
 21
153.1564376881873
 31
0.0
  0
ELLIPSE
  5
769C
330
A
100
AcDbEntity
  8
モデル
100
AcDbEllipse
 10
356.1719396466207
 20
195.0227997771441
 30
0.0
 11
-119.3997610647907
 21
32.8343711154017
 31
0.0
210
0.0
220
0.0
230
-1.0
 40
0.0282640678196112
 41
1.525101144025637
 42
1.570796326794904
  0
LINE
  5
769D
330
A
100
AcDbEntity
  8
モデル
100
AcDbLine
 10
361.6449084462188
 20
155.9063905208051
 30
0.0
 11
361.6449084462188
 21
152.6475924494492
 31
0.0
  0
LINE
  5
769E
330
A
100
AcDbEntity
  8
モデル
100
AcDbLine
 10
357.09997253864
 20
151.3977565121379
 30
0.0
 11
361.6449084462188
 21
152.6475924494492
 31
0.0
  0
LINE
  5
769F
330
A
100
AcDbEntity
  8
モデル
100
AcDbLine
 10
320.9449084462187
 20
182.7726396168314
 30
0.0
 11
319.6449084462188
 21
182.7726396168314
 31
0.0
  0
LINE
  5
76A0
330
A
100
AcDbEntity
  8
モデル
100
AcDbLine
 10
320.9449084462187
 20
167.0226396168314
 30
0.0
 11
319.6449084462188
 21
167.0226396168314
 31
0.0
  0
ELLIPSE
  5
76A1
330
A
100
AcDbEntity
  8
モデル
100
AcDbEllipse
 10
356.1719396466203
 20
154.7724794565186
 30
0.0
 11
-119.3997610647902
 21
-32.83437111540147
 31
0.0
210
0.0
220
0.0
230
-1.0
 40
0.0282640678196114
 41
4.712388980384683
 42
4.758084163153953
  0
LINE
  5
76A2
330
A
100
AcDbEntity
  8
モデル
100
AcDbLine
 10
321.8449084462189
 20
182.0976396168315
 30
0.0
 11
320.9449084462187
 21
182.0976396168315
 31
0.0
  0
LINE
  5
76A3
330
A
100
AcDbEntity
  8
モデル
100
AcDbLine
 10
321.8449084462189
 20
167.6976396168313
 30
0.0
 11
320.9449084462187
 21
167.6976396168313
 31
0.0
  0
LINE
  5
76A4
330
A
100
AcDbEntity
  8
モデル
100
AcDbLine
 10
319.6449084462188
 20
182.7726396168314
 30
0.0
 11
319.6449084462188
 21
167.0226396168314
 31
0.0
  0
LINE
  5
76A5
330
A
100
AcDbEntity
  8
モデル
100
AcDbLine
 10
320.9449084462187
 20
182.7726396168314
 30
0.0
 11
320.9449084462187
 21
167.0226396168314
 31
0.0
  0
SPLINE
  5
76A6
330
A
100
AcDbEntity
  8
モデル
100
AcDbSpline
210
0.0
220
0.0
230
1.0
 70
     8
 71
     3
 72
    14
 73
    10
 74
     0
 42
0.000000001
 43
0.0000000001
 40
0.0
 40
0.0
 40
0.0
 40
0.0
 40
0.093084229257787
 40
0.093084229257787
 40
0.186168458515574
 40
0.186168458515574
 40
0.2775934196975319
 40
0.2775934196975319
 40
0.3690183808794899
 40
0.3690183808794899
 40
0.3690183808799868
 40
0.3690183808799868
 10
334.7508406496079
 20
160.3875337252916
 30
0.0
 10
335.0518572059287
 20
160.4616970879312
 30
0.0
 10
335.3741192671675
 20
160.5307038045155
 30
0.0
 10
335.9677618573378
 20
160.6384299382624
 30
0.0
 10
336.2389934457661
 20
160.6776430724238
 30
0.0
 10
336.6622888730345
 20
160.7303375935135
 30
0.0
 10
336.8444205220088
 20
160.7478707519585
 30
0.0
 10
337.0857309068484
 20
160.7687316343724
 30
0.0
 10
337.1449084462188
 20
160.7726396168314
 30
0.0
 10
337.1449084462188
 20
160.7726396168314
 30
0.0
  0
LINE
  5
76A7
330
A
100
AcDbEntity
  8
モデル
100
AcDbLine
 10
329.6449084462188
 20
184.8976396168314
 30
0.0
 11
328.6449084462188
 21
184.8976396168314
 31
0.0
  0
LINE
  5
76A8
330
A
100
AcDbEntity
  8
モデル
100
AcDbLine
 10
329.6449084462188
 20
164.8976396168314
 30
0.0
 11
328.6449084462188
 21
164.8976396168314
 31
0.0
  0
LINE
  5
76A9
330
A
100
AcDbEntity
  8
モデル
100
AcDbLine
 10
323.844908446218
 20
148.3388160874197
 30
0.0
 11
323.844908446218
 21
148.508795245271
 31
0.0
  0
LINE
  5
76AA
330
A
100
AcDbEntity
  8
モデル
100
AcDbLine
 10
328.6449084462188
 20
200.3976396168314
 30
0.0
 11
321.8449084462189
 21
201.8976396168314
 31
0.0
  0
LINE
  5
76AB
330
A
100
AcDbEntity
  8
モデル
100
AcDbLine
 10
328.6449084462188
 20
149.3976396168314
 30
0.0
 11
323.8449084462189
 21
148.3388160874197
 31
0.0
  0
LINE
  5
76AC
330
A
100
AcDbEntity
  8
モデル
100
AcDbLine
 10
328.6449084462188
 20
149.3976396168314
 30
0.0
 11
328.6449084462188
 21
200.3976396168314
 31
0.0
  0
SPLINE
  5
76AD
330
A
100
AcDbEntity
  8
モデル
100
AcDbSpline
210
0.0
220
0.0
230
1.0
 70
    12
 71
     2
 72
     6
 73
     3
 74
     0
 42
0.000000001
 43
0.0000000001
 40
0.0
 40
0.0
 40
0.0
 40
0.2048685082590119
 40
0.2048685082590119
 40
0.2048685082590119
 10
321.844908446218
 20
148.0648238868339
 30
0.0
 41
1.0
 10
322.8532503370757
 20
148.2886381049874
 30
0.0
 41
1.000034357565835
 10
323.844908446218
 20
148.508795245271
 30
0.0
 41
1.0
  0
LINE
  5
76AE
330
A
100
AcDbEntity
  8
モデル
100
AcDbLine
 10
321.8449084462189
 20
148.0648238868339
 30
0.0
 11
321.8449084462189
 21
201.8976396168314
 31
0.0
  0
LINE
  5
76AF
330
A
100
AcDbEntity
  8
モデル
100
AcDbLine
 10
120.9654442520857
 20
326.6509331123968
 30
0.0
 11
120.9654442520857
 21
330.2509331123969
 31
0.0
  0
LINE
  5
76B0
330
A
100
AcDbEntity
  8
モデル
100
AcDbLine
 10
136.7654442520857
 20
326.6509331123968
 30
0.0
 11
136.7654442520857
 21
330.2509331123969
 31
0.0
  0
LINE
  5
76B1
330
A
100
AcDbEntity
  8
モデル
100
AcDbLine
 10
129.8654442520857
 20
314.7509331123998
 30
0.0
 11
129.8654442520857
 21
312.2509331123998
 31
0.0
  0
LINE
  5
76B2
330
A
100
AcDbEntity
  8
モデル
100
AcDbLine
 10
127.8654442520857
 20
312.2509331123998
 30
0.0
 11
127.8654442520857
 21
314.7509331123998
 31
0.0
  0
LINE
  5
76B3
330
A
100
AcDbEntity
  8
モデル
100
AcDbLine
 10
129.8654442520857
 20
314.7509331123998
 30
0.0
 11
127.8654442520857
 21
314.7509331123998
 31
0.0
  0
SPLINE
  5
76B4
330
A
100
AcDbEntity
  8
モデル
100
AcDbSpline
210
0.0
220
0.0
230
1.0
 70
    12
 71
     2
 72
     6
 73
     3
 74
     0
 42
0.000000001
 43
0.0000000001
 40
0.0
 40
0.0
 40
0.0
 40
0.1029742705290776
 40
0.1029742705290776
 40
0.1029742705290776
 10
124.1657102170577
 20
330.2509331123989
 30
0.0
 41
1.0
 10
124.6304486270849
 20
330.5274074064483
 30
0.0
 41
1.001734850153545
 10
125.0657732136931
 20
330.7509331123989
 30
0.0
 41
1.0
  0
LINE
  5
76B5
330
A
100
AcDbEntity
  8
モデル
100
AcDbLine
 10
138.8654442520857
 20
312.2509331123969
 30
0.0
 11
138.8654442520857
 21
318.8509331123969
 31
0.0
  0
LINE
  5
76B6
102
{ACAD_REACTORS
330
803F
102
}
330
A
100
AcDbEntity
  8
モデル
100
AcDbLine
 10
118.8654442520857
 20
312.2509331123969
 30
0.0
 11
118.8654442520857
 21
318.8509331123969
 31
0.0
  0
LINE
  5
76B7
102
{ACAD_REACTORS
330
801F
102
}
330
A
100
AcDbEntity
  8
モデル
100
AcDbLine
 10
129.8654442520857
 20
312.2509331123969
 30
0.0
 11
138.8654442520857
 21
312.2509331123969
 31
0.0
  0
SPLINE
  5
76B8
330
A
100
AcDbEntity
  8
モデル
100
AcDbSpline
210
0.0
220
0.0
230
1.0
 70
    12
 71
     2
 72
     6
 73
     3
 74
     0
 42
0.000000001
 43
0.0000000001
 40
0.0
 40
0.0
 40
0.0
 40
0.1029742705290776
 40
0.1029742705290776
 40
0.1029742705290776
 10
132.6651152904784
 20
330.7509331123989
 30
0.0
 41
1.0
 10
133.1004398770863
 20
330.5274074064483
 30
0.0
 41
1.001734850153545
 10
133.5651782871137
 20
330.2509331123989
 30
0.0
 41
1.0
  0
LINE
  5
76B9
330
A
100
AcDbEntity
  8
モデル
100
AcDbLine
 10
118.8654442520857
 20
312.2509331123973
 30
0.0
 11
127.8654442520857
 21
312.2509331123998
 31
0.0
  0
SPLINE
  5
76BA
102
{ACAD_REACTORS
330
802E
102
}
330
A
100
AcDbEntity
  8
モデル
100
AcDbSpline
210
0.0
220
0.0
230
1.0
 70
    12
 71
     2
 72
     6
 73
     3
 74
     0
 42
0.000000001
 43
0.0000000001
 40
0.0
 40
0.0
 40
0.0
 40
0.2048685082590119
 40
0.2048685082590119
 40
0.2048685082590119
 10
102.0326285220883
 20
326.6509331123979
 30
0.0
 41
1.0
 10
102.2564427402418
 20
325.6425912215402
 30
0.0
 41
1.000034357565835
 10
102.4765998805253
 20
324.6509331123979
 30
0.0
 41
1.0
  0
LINE
  5
76BB
330
A
100
AcDbEntity
  8
モデル
100
AcDbLine
 10
118.8654442520857
 20
318.8509331123969
 30
0.0
 11
138.8654442520857
 21
318.8509331123969
 31
0.0
  0
LINE
  5
76BC
330
A
100
AcDbEntity
  8
モデル
100
AcDbLine
 10
121.4654442520857
 20
330.7509331123969
 30
0.0
 11
120.9654442520857
 21
330.2509331123969
 31
0.0
  0
LINE
  5
76BD
330
A
100
AcDbEntity
  8
モデル
100
AcDbLine
 10
136.2654442520857
 20
330.7509331123969
 30
0.0
 11
136.7654442520857
 21
330.2509331123969
 31
0.0
  0
LINE
  5
76BE
330
A
100
AcDbEntity
  8
モデル
100
AcDbLine
 10
124.1657102170577
 20
330.2509331123969
 30
0.0
 11
120.9654442520857
 21
330.2509331123969
 31
0.0
  0
LINE
  5
76BF
330
A
100
AcDbEntity
  8
モデル
100
AcDbLine
 10
136.7654442520857
 20
330.2509331123981
 30
0.0
 11
133.5651782871137
 21
330.2509331123989
 31
0.0
  0
LINE
  5
76C0
330
A
100
AcDbEntity
  8
モデル
100
AcDbLine
 10
121.4654442520857
 20
330.7509331123978
 30
0.0
 11
125.0657732136931
 21
330.7509331123989
 31
0.0
  0
LINE
  5
76C1
330
A
100
AcDbEntity
  8
モデル
100
AcDbLine
 10
132.6651152904784
 20
330.7509331123969
 30
0.0
 11
136.2654442520857
 21
330.7509331123969
 31
0.0
  0
LINE
  5
76C2
330
A
100
AcDbEntity
  8
モデル
100
AcDbLine
 10
124.1657102170577
 20
326.6509331123988
 30
0.0
 11
124.1657102170577
 21
330.2509331123989
 31
0.0
  0
LINE
  5
76C3
330
A
100
AcDbEntity
  8
モデル
100
AcDbLine
 10
125.0657732136931
 20
330.7509331123989
 30
0.0
 11
132.6651152904784
 21
330.7509331123989
 31
0.0
  0
LINE
  5
76C4
330
A
100
AcDbEntity
  8
モデル
100
AcDbLine
 10
133.5651782871137
 20
330.2509331123989
 30
0.0
 11
133.5651782871137
 21
326.6509331123988
 31
0.0
  0
LINE
  5
76C5
330
A
100
AcDbEntity
  8
モデル
100
AcDbLine
 10
137.8654442520857
 20
318.8509331123969
 30
0.0
 11
137.8654442520857
 21
319.8509331123969
 31
0.0
  0
LINE
  5
76C6
330
A
100
AcDbEntity
  8
モデル
100
AcDbLine
 10
119.8654442520857
 20
318.8509331123969
 30
0.0
 11
119.8654442520857
 21
319.8509331123969
 31
0.0
  0
LINE
  5
76C7
330
A
100
AcDbEntity
  8
モデル
100
AcDbLine
 10
102.306620722674
 20
324.6509331123979
 30
0.0
 11
102.4765998805253
 21
324.6509331123979
 31
0.0
  0
LINE
  5
76C8
330
A
100
AcDbEntity
  8
モデル
100
AcDbLine
 10
154.3654442520857
 20
319.8509331123969
 30
0.0
 11
155.8654442520857
 21
326.6509331123968
 31
0.0
  0
LINE
  5
76C9
330
A
100
AcDbEntity
  8
モデル
100
AcDbLine
 10
103.3654442520858
 20
319.8509331123969
 30
0.0
 11
102.306620722674
 21
324.6509331123968
 31
0.0
  0
LINE
  5
76CA
102
{ACAD_REACTORS
330
802E
330
803F
102
}
330
A
100
AcDbEntity
  8
モデル
100
AcDbLine
 10
103.3654442520858
 20
319.8509331123969
 30
0.0
 11
154.3654442520857
 21
319.8509331123969
 31
0.0
  0
LINE
  5
76CB
102
{ACAD_REACTORS
330
801F
102
}
330
A
100
AcDbEntity
  8
モデル
100
AcDbLine
 10
102.0326285220883
 20
326.6509331123968
 30
0.0
 11
155.8654442520857
 21
326.6509331123968
 31
0.0
  0
LINE
  5
7F13
330
A
100
AcDbEntity
  8
モデル
100
AcDbLine
 10
125.8113601590784
 20
182.964823886834
 30
0.0
 11
129.4113601590784
 21
182.964823886834
 31
0.0
  0
LINE
  5
7F14
330
A
100
AcDbEntity
  8
モデル
100
AcDbLine
 10
125.8113601590785
 20
167.164823886834
 30
0.0
 11
129.4113601590785
 21
167.164823886834
 31
0.0
  0
SPLINE
  5
7F18
330
A
100
AcDbEntity
  8
モデル
100
AcDbSpline
210
0.0
220
0.0
230
1.0
 70
    12
 71
     2
 72
     6
 73
     3
 74
     0
 42
0.000000001
 43
0.0000000001
 40
0.0
 40
0.0
 40
0.0
 40
0.1029742705290776
 40
0.1029742705290776
 40
0.1029742705290776
 10
129.4113601590803
 20
179.764557921862
 30
0.0
 41
1.0
 10
129.6878344531297
 20
179.2998195118347
 30
0.0
 41
1.001734850153545
 10
129.9113601590803
 20
178.8644949252266
 30
0.0
 41
1.0
  0
LINE
  5
7F19
330
A
100
AcDbEntity
  8
モデル
100
AcDbLine
 10
111.4113601590785
 20
165.0648238868339
 30
0.0
 11
118.0113601590785
 21
165.0648238868339
 31
0.0
  0
LINE
  5
7F1A
330
A
100
AcDbEntity
  8
モデル
100
AcDbLine
 10
111.4113601590784
 20
185.0648238868339
 30
0.0
 11
118.0113601590784
 21
185.0648238868339
 31
0.0
  0
LINE
  5
7F1B
330
A
100
AcDbEntity
  8
モデル
100
AcDbLine
 10
111.4113601590784
 20
185.0648238868339
 30
0.0
 11
111.4113601590785
 21
165.0648238868339
 31
0.0
  0
SPLINE
  5
7F1C
330
A
100
AcDbEntity
  8
モデル
100
AcDbSpline
210
0.0
220
0.0
230
1.0
 70
    12
 71
     2
 72
     6
 73
     3
 74
     0
 42
0.000000001
 43
0.0000000001
 40
0.0
 40
0.0
 40
0.0
 40
0.1029742705290776
 40
0.1029742705290776
 40
0.1029742705290776
 10
129.9113601590805
 20
171.2651528484413
 30
0.0
 41
1.0
 10
129.6878344531299
 20
170.8298282618335
 30
0.0
 41
1.001734850153545
 10
129.4113601590805
 20
170.365089851806
 30
0.0
 41
1.0
  0
SPLINE
  5
7F1E
330
A
100
AcDbEntity
  8
モデル
100
AcDbSpline
210
0.0
220
0.0
230
1.0
 70
    12
 71
     2
 72
     6
 73
     3
 74
     0
 42
0.000000001
 43
0.0000000001
 40
0.0
 40
0.0
 40
0.0
 40
0.2048685082590119
 40
0.2048685082590119
 40
0.2048685082590119
 10
125.8113601590793
 20
201.8976396168314
 30
0.0
 41
1.0
 10
124.8030182682217
 20
201.673825398678
 30
0.0
 41
1.000034357565835
 10
123.8113601590793
 20
201.4536682583944
 30
0.0
 41
1.0
  0
LINE
  5
7F1F
330
A
100
AcDbEntity
  8
モデル
100
AcDbLine
 10
118.0113601590784
 20
185.0648238868339
 30
0.0
 11
118.0113601590785
 21
165.0648238868339
 31
0.0
  0
LINE
  5
7F20
330
A
100
AcDbEntity
  8
モデル
100
AcDbLine
 10
129.9113601590784
 20
182.464823886834
 30
0.0
 11
129.4113601590784
 21
182.964823886834
 31
0.0
  0
LINE
  5
7F21
330
A
100
AcDbEntity
  8
モデル
100
AcDbLine
 10
129.9113601590785
 20
167.664823886834
 30
0.0
 11
129.4113601590785
 21
167.164823886834
 31
0.0
  0
LINE
  5
7F22
330
A
100
AcDbEntity
  8
モデル
100
AcDbLine
 10
129.4113601590784
 20
179.764557921862
 30
0.0
 11
129.4113601590784
 21
182.964823886834
 31
0.0
  0
LINE
  5
7F23
330
A
100
AcDbEntity
  8
モデル
100
AcDbLine
 10
129.4113601590797
 20
167.164823886834
 30
0.0
 11
129.4113601590805
 21
170.365089851806
 31
0.0
  0
LINE
  5
7F24
330
A
100
AcDbEntity
  8
モデル
100
AcDbLine
 10
129.9113601590793
 20
182.464823886834
 30
0.0
 11
129.9113601590803
 21
178.8644949252266
 31
0.0
  0
LINE
  5
7F25
330
A
100
AcDbEntity
  8
モデル
100
AcDbLine
 10
129.9113601590785
 20
171.2651528484413
 30
0.0
 11
129.9113601590785
 21
167.664823886834
 31
0.0
  0
LINE
  5
7F26
330
A
100
AcDbEntity
  8
モデル
100
AcDbLine
 10
125.8113601590803
 20
179.764557921862
 30
0.0
 11
129.4113601590803
 21
179.764557921862
 31
0.0
  0
LINE
  5
7F27
330
A
100
AcDbEntity
  8
モデル
100
AcDbLine
 10
129.9113601590803
 20
178.8644949252266
 30
0.0
 11
129.9113601590805
 21
171.2651528484413
 31
0.0
  0
LINE
  5
7F28
330
A
100
AcDbEntity
  8
モデル
100
AcDbLine
 10
129.4113601590805
 20
170.365089851806
 30
0.0
 11
125.8113601590804
 21
170.365089851806
 31
0.0
  0
LINE
  5
7F29
330
A
100
AcDbEntity
  8
モデル
100
AcDbLine
 10
118.0113601590785
 20
166.0648238868339
 30
0.0
 11
119.0113601590785
 21
166.0648238868339
 31
0.0
  0
LINE
  5
7F2A
330
A
100
AcDbEntity
  8
モデル
100
AcDbLine
 10
118.0113601590784
 20
184.0648238868339
 30
0.0
 11
119.0113601590784
 21
184.0648238868339
 31
0.0
  0
LINE
  5
7F2B
330
A
100
AcDbEntity
  8
モデル
100
AcDbLine
 10
123.8113601590793
 20
201.6236474162457
 30
0.0
 11
123.8113601590793
 21
201.4536682583944
 31
0.0
  0
LINE
  5
7F2C
330
A
100
AcDbEntity
  8
モデル
100
AcDbLine
 10
119.0113601590785
 20
149.5648238868339
 30
0.0
 11
125.8113601590785
 21
148.064823886834
 31
0.0
  0
LINE
  5
7F2D
330
A
100
AcDbEntity
  8
モデル
100
AcDbLine
 10
119.0113601590784
 20
200.5648238868338
 30
0.0
 11
123.8113601590784
 21
201.6236474162457
 31
0.0
  0
LINE
  5
7F2E
330
A
100
AcDbEntity
  8
モデル
100
AcDbLine
 10
119.0113601590784
 20
200.5648238868338
 30
0.0
 11
119.0113601590785
 21
149.5648238868339
 31
0.0
  0
LINE
  5
7F2F
330
A
100
AcDbEntity
  8
モデル
100
AcDbLine
 10
125.8113601590784
 20
201.8976396168314
 30
0.0
 11
125.8113601590785
 21
148.064823886834
 31
0.0
  0
TEXT
  5
7F3F
330
A
100
AcDbEntity
  8
寸法
100
AcDbText
 10
411.4782508872128
 20
213.218441988149
 30
0.0
 40
5.0
  1
<切欠図>
  7
ＭＳ ゴシック
100
AcDbText
  0
DIMENSION
  5
7F53
330
A
100
AcDbEntity
  8
寸法
100
AcDbDimension
  2
*D8
 10
482.1767865647565
 20
209.2508625328144
 30
0.0
 11
472.6767865647565
 21
213.7518003845087
 31
0.0
 70
    32
 71
     5
 42
19.0
 73
     0
 74
     0
 75
     0
  3
tfrom線あり
100
AcDbAlignedDimension
 13
463.1767865647565
 23
201.8976396168313
 33
0.0
 14
482.1767865647565
 24
193.9204030921152
 34
0.0
100
AcDbRotatedDimension
  0
DIMENSION
  5
7F54
330
A
100
AcDbEntity
  8
寸法
100
AcDbDimension
  2
*D9
 10
463.1767865647565
 20
209.2508625328144
 30
0.0
 11
453.6767865647564
 21
213.7518003845087
 31
0.0
 70
    32
 71
     5
 42
19.00000000000023
 73
     0
 74
     0
 75
     0
  3
tfrom線あり
100
AcDbAlignedDimension
 13
444.1767865647563
 23
193.9204030921152
 33
0.0
 14
463.1767865647565
 24
201.8976396168313
 34
0.0
100
AcDbRotatedDimension
  0
CIRCLE
  5
7F55
102
{ACAD_REACTORS
330
7F58
102
}
330
A
100
AcDbEntity
  8
CutoutOverlay
100
AcDbCircle
 10
463.1767865647565
 20
174.8646844588354
 30
0.0
 40
14.0
  0
CIRCLE
  5
7F56
102
{ACAD_REACTORS
330
7F58
102
}
330
A
100
AcDbEntity
  8
CutoutOverlay
100
AcDbCircle
 10
444.1767865647563
 20
174.8646844588354
 30
0.0
 40
4.0
  0
CIRCLE
  5
7F57
102
{ACAD_REACTORS
330
7F58
102
}
330
A
100
AcDbEntity
  8
CutoutOverlay
100
AcDbCircle
 10
482.1767865647565
 20
174.8646844588354
 30
0.0
 40
4.0
  0
HATCH
  5
7F58
330
A
100
AcDbEntity
  8
CutoutOverlay
100
AcDbHatch
 10
0.0
 20
0.0
 30
0.0
210
0.0
220
0.0
230
1.0
  2
ANSI31
 70
     0
 71
     1
 91
        3
 92
        1
 93
        1
 72
     2
 10
444.1767865647563
 20
174.8646844588354
 40
4.0
 50
0.0
 51
360.0
 73
     1
 97
        1
330
7F56
 92
        1
 93
        1
 72
     2
 10
463.1767865647565
 20
174.8646844588354
 40
14.0
 50
0.0
 51
360.0
 73
     1
 97
        1
330
7F55
 92
        1
 93
        1
 72
     2
 10
482.1767865647565
 20
174.8646844588354
 40
4.0
 50
0.0
 51
360.0
 73
     1
 97
        1
330
7F57
 75
     0
 76
     1
 52
0.0
 41
1.0
 77
     0
 78
     1
 53
45.0
 43
54.3046620532017
 44
-5.998162461202497
 45
-2.245064030267288
 46
2.245064030267288
 79
     0
 98
        1
 10
54.3046620532017
 20
-5.998162461202497
1001
ACAD
1010
0.0
1020
0.0
1030
0.0
  0
LINE
  5
7F59
330
A
100
AcDbEntity
  8
CutoutOverlay
  6
CENTER
100
AcDbLine
 10
463.1767865647565
 20
203.3279842805866
 30
0.0
 11
463.1767865647565
 21
144.5040383088837
 31
0.0
  0
LINE
  5
7F5A
330
A
100
AcDbEntity
  8
CutoutOverlay
  6
CENTER
100
AcDbLine
 10
430.5867555227065
 20
174.8612210880299
 30
0.0
 11
495.1779113509273
 21
174.8612210880299
 31
0.0
  0
LINE
  5
7F5B
330
A
100
AcDbEntity
  8
CutoutOverlay
  6
CENTER
100
AcDbLine
 10
430.5867555227065
 20
174.8646844588354
 30
0.0
 11
495.1779113509273
 21
174.8646844588354
 31
0.0
  0
LEADER
  5
7F5C
102
{ACAD_XDICTIONARY
360
7F5D
102
}
330
A
100
AcDbEntity
  8
寸法
100
AcDbLeader
  3
tfrom線あり
 76
     3
 10
463.1767865647565
 20
174.8646844588354
 30
0.0
 10
496.4576734663098
 20
150.5687869876178
 30
0.0
 10
542.8392120862294
 20
150.5687869876178
 30
0.0
  0
TEXT
  5
7F5E
330
A
100
AcDbEntity
  8
寸法
100
AcDbText
 10
498.0386105359329
 20
153.2042399373133
 30
0.0
 40
5.0
  1
角芯 センター
  7
ＭＳ ゴシック
100
AcDbText
  0
TEXT
  5
7F5F
330
A
100
AcDbEntity
  8
寸法
100
AcDbText
 10
496.6320172667655
 20
194.7673383148817
 30
0.0
 40
5.0
  1
ø28
  7
ＭＳ ゴシック
100
AcDbText
  0
LEADER
  5
7F60
102
{ACAD_XDICTIONARY
360
7F61
102
}
330
A
100
AcDbEntity
  8
寸法
100
AcDbLeader
  3
tfrom線あり
 76
     3
 10
473.7431852648677
 20
184.0489764027083
 30
0.0
 10
494.368786480588
 20
193.1856635380239
 30
0.0
 10
508.2074932477316
 20
193.1856635380239
 30
0.0
1001
ACAD
1000
DSTYLE
1002
{
1070
   341
1005
74B6
1002
}
  0
TEXT
  5
7F62
330
A
100
AcDbEntity
  8
寸法
100
AcDbText
 10
497.6310214729091
 20
181.6730608285484
 30
0.0
 40
5.0
  1
ø8
  7
ＭＳ ゴシック
100
AcDbText
  0
LEADER
  5
7F63
102
{ACAD_XDICTIONARY
360
7F64
102
}
330
A
100
AcDbEntity
  8
寸法
100
AcDbLeader
  3
tfrom線あり
 76
     3
 10
485.8842055778886
 20
176.9672132023243
 30
0.0
 10
494.4095179566096
 20
180.0258625704779
 30
0.0
 10
504.9663886775448
 20
180.0258625704779
 30
0.0
1001
ACAD
1000
DSTYLE
1002
{
1070
   341
1005
74B6
1002
}
  0
LEADER
  5
7F65
102
{ACAD_XDICTIONARY
360
7F66
102
}
330
A
100
AcDbEntity
  8
寸法
100
AcDbLeader
  3
tfrom線あり
 76
     3
 10
440.4693675516247
 20
176.9672132023243
 30
0.0
 10
434.0086282427077
 20
180.6798152200225
 30
0.0
 10
423.4517575217723
 20
180.6798152200225
 30
0.0
211
-1.0
221
0.0
231
0.0
1001
ACAD
1000
DSTYLE
1002
{
1070
   341
1005
74B6
1002
}
  0
TEXT
  5
7F67
330
A
100
AcDbEntity
  8
寸法
100
AcDbText
 10
425.5202928532118
 20
182.7555349312766
 30
0.0
 40
5.0
  1
ø8
  7
ＭＳ ゴシック
100
AcDbText
  0
LINE
  5
7FD0
330
A
100
AcDbEntity
  8
モデル
100
AcDbLine
 10
352.9217857486187
 20
294.6509331123968
 30
0.0
 11
358.4217857486187
 21
316.6509331123968
 31
0.0
  0
LINE
  5
7FD1
330
A
100
AcDbEntity
  8
モデル
100
AcDbLine
 10
328.296785748619
 20
309.1509331123968
 30
0.0
 11
326.421785748619
 21
316.6509331123968
 31
0.0
  0
LINE
  5
7FD2
330
A
100
AcDbEntity
  8
モデル
100
AcDbLine
 10
331.9217857486187
 20
294.6509331123968
 30
0.0
 11
328.296785748619
 21
309.1509331123968
 31
0.0
  0
SPLINE
  5
7FD3
330
A
100
AcDbEntity
  8
モデル
100
AcDbSpline
210
0.0
220
0.0
230
1.0
 70
    12
 71
     2
 72
     6
 73
     3
 74
     0
 42
0.000000001
 43
0.0000000001
 40
0.0
 40
0.0
 40
0.0
 40
1.04944933699471
 40
1.04944933699471
 40
1.04944933699471
 10
331.9217857486187
 20
294.6509331123968
 30
0.0
 41
1.0
 10
333.7169628389624
 20
288.5571064086315
 30
0.0
 41
1.015117467079602
 10
335.084716812558
 20
284.6509331123968
 30
0.0
 41
1.0
  0
LINE
  5
7FD4
330
A
100
AcDbEntity
  8
モデル
100
AcDbLine
 10
326.421785748619
 20
316.6509331123968
 30
0.0
 11
358.4217857486187
 21
316.6509331123968
 31
0.0
  0
LINE
  5
7FD5
330
A
100
AcDbEntity
  8
モデル
100
AcDbLine
 10
335.084716812558
 20
284.6509331123968
 30
0.0
 11
349.760978206292
 21
284.6540750663313
 31
0.0
  0
SPLINE
  5
7FD6
330
A
100
AcDbEntity
  8
モデル
100
AcDbSpline
210
0.0
220
0.0
230
1.0
 70
    12
 71
     2
 72
     6
 73
     3
 74
     0
 42
0.000000001
 43
0.0000000001
 40
0.0
 40
0.0
 40
0.0
 40
1.04944933699471
 40
1.04944933699471
 40
1.04944933699471
 10
349.760978206292
 20
284.6540750663313
 30
0.0
 41
1.0
 10
351.1287321798875
 20
288.5602483625659
 30
0.0
 41
1.015117467079602
 10
352.9239092702314
 20
294.6540750663313
 30
0.0
 41
1.0
  0
LINE
  5
7FE1
330
A
100
AcDbEntity
  8
モデル
100
AcDbLine
 10
350.2967857486187
 20
325.3509331123968
 30
0.0
 11
350.2967857486187
 21
326.6509331123968
 31
0.0
  0
LINE
  5
7FE2
330
A
100
AcDbEntity
  8
モデル
100
AcDbLine
 10
334.5467857486187
 20
325.3509331123968
 30
0.0
 11
334.5467857486187
 21
326.6509331123968
 31
0.0
  0
LINE
  5
7FE4
330
A
100
AcDbEntity
  8
モデル
100
AcDbLine
 10
349.621785748619
 20
324.4509331123967
 30
0.0
 11
349.621785748619
 21
325.3509331123968
 31
0.0
  0
LINE
  5
7FE5
330
A
100
AcDbEntity
  8
モデル
100
AcDbLine
 10
335.2217857486187
 20
324.4509331123967
 30
0.0
 11
335.2217857486187
 21
325.3509331123968
 31
0.0
  0
LINE
  5
7FE6
330
A
100
AcDbEntity
  8
モデル
100
AcDbLine
 10
350.2967857486187
 20
326.6509331123968
 30
0.0
 11
334.5467857486187
 21
326.6509331123968
 31
0.0
  0
LINE
  5
7FE7
330
A
100
AcDbEntity
  8
モデル
100
AcDbLine
 10
350.2967857486187
 20
325.3509331123968
 30
0.0
 11
334.5467857486187
 21
325.3509331123968
 31
0.0
  0
LINE
  5
7FE9
330
A
100
AcDbEntity
  8
モデル
100
AcDbLine
 10
352.4217857486187
 20
316.6509331123968
 30
0.0
 11
352.4217857486187
 21
317.6509331123968
 31
0.0
  0
LINE
  5
7FEA
330
A
100
AcDbEntity
  8
モデル
100
AcDbLine
 10
332.4217857486187
 20
316.6509331123968
 30
0.0
 11
332.4217857486187
 21
317.6509331123968
 31
0.0
  0
LINE
  5
7FEB
330
A
100
AcDbEntity
  8
モデル
100
AcDbLine
 10
315.8629622192072
 20
322.4509331123976
 30
0.0
 11
316.0329413770585
 21
322.4509331123976
 31
0.0
  0
LINE
  5
7FEC
330
A
100
AcDbEntity
  8
モデル
100
AcDbLine
 10
367.9217857486187
 20
317.6509331123968
 30
0.0
 11
369.4217857486187
 21
324.4509331123967
 31
0.0
  0
LINE
  5
7FED
330
A
100
AcDbEntity
  8
モデル
100
AcDbLine
 10
316.921785748619
 20
317.6509331123968
 30
0.0
 11
315.8629622192072
 21
322.4509331123967
 31
0.0
  0
LINE
  5
7FEE
102
{ACAD_REACTORS
330
805E
330
806F
102
}
330
A
100
AcDbEntity
  8
モデル
100
AcDbLine
 10
316.921785748619
 20
317.6509331123968
 30
0.0
 11
367.9217857486187
 21
317.6509331123968
 31
0.0
  0
SPLINE
  5
7FEF
102
{ACAD_REACTORS
330
805E
102
}
330
A
100
AcDbEntity
  8
モデル
100
AcDbSpline
210
0.0
220
0.0
230
1.0
 70
    12
 71
     2
 72
     6
 73
     3
 74
     0
 42
0.000000001
 43
0.0000000001
 40
0.0
 40
0.0
 40
0.0
 40
0.2048685082590119
 40
0.2048685082590119
 40
0.2048685082590119
 10
315.5889700186212
 20
324.4509331123976
 30
0.0
 41
1.0
 10
315.812784236775
 20
323.4425912215401
 30
0.0
 41
1.000034357565835
 10
316.0329413770585
 20
322.4509331123976
 30
0.0
 41
1.0
  0
LINE
  5
7FF0
102
{ACAD_REACTORS
330
804F
102
}
330
A
100
AcDbEntity
  8
モデル
100
AcDbLine
 10
315.5889700186212
 20
324.4509331123967
 30
0.0
 11
369.4217857486187
 21
324.4509331123967
 31
0.0
  0
TEXT
  5
7FF1
330
A
100
AcDbEntity
  8
テンプレート
100
AcDbText
 10
197.4800228716895
 20
72.60802090269735
 30
0.0
 40
5.0
  1
※ ご注文の際は正確な扉厚の指示をしてください。
  7
ＭＳ ゴシック
100
AcDbText
  0
TEXT
  5
7FF2
330
A
100
AcDbEntity
  8
テンプレート
100
AcDbText
 10
197.6522659538973
 20
90.08343630331825
 30
0.0
 40
5.0
  1
※ 輸入製品の為、国内製品と比べ製品寸法の個体差に幅が有ります。
  7
ＭＳ ゴシック
100
AcDbText
  0
TEXT
  5
7FF3
330
A
100
AcDbEntity
  8
テンプレート
100
AcDbText
 10
197.4800228716895
 20
81.97965220717845
 30
0.0
 40
5.0
  1
　 加工は現物合わせの上行って下さい。
  7
ＭＳ ゴシック
100
AcDbText
  0
TEXT
  5
8015
330
A
100
AcDbEntity
  8
テンプレート
100
AcDbText
 10
339.1565091947365
 20
40.86032982095322
 30
0.0
 40
5.0
  1
ユーロケース(DIN規格)：36～55
  7
ＭＳ ゴシック
100
AcDbText
  0
TEXT
  5
8016
330
A
100
AcDbEntity
  8
テンプレート
100
AcDbText
 10
454.7154516830578
 20
46.39543212083046
 30
0.0
 40
5.0
  1
取付方＝呼込み(ビス・ナット付)
  7
ＭＳ ゴシック
100
AcDbText
  0
TEXT
  5
8017
330
A
100
AcDbEntity
  8
テンプレート
100
AcDbText
 10
454.7154516830578
 20
36.96512336991022
 30
0.0
 40
5.0
  1
ユーロケース(DIN規格)専用
  7
ＭＳ ゴシック
100
AcDbText
  0
CIRCLE
  5
8018
330
A
100
AcDbEntity
  8
CutoutUnderlay
  6
Continuous
100
AcDbCircle
 10
463.1767865647565
 20
174.8646844588354
 30
0.0
 40
27.0
  0
DIMENSION
  5
801D
102
{ACAD_REACTORS
330
801F
102
}
102
{ACAD_XDICTIONARY
360
801E
102
}
330
A
100
AcDbEntity
  8
寸法
  6
Continuous
100
AcDbDimension
  2
*D10
 10
172.5208572345564
 20
312.2509331123969
 30
0.0
 11
168.019919382862
 21
319.4509331123969
 31
0.0
 70
    32
  1
14.5
 71
     5
 42
14.39999999999987
 73
     0
 74
     1
 75
     1
  3
tfrom線あり
100
AcDbAlignedDimension
 13
155.8654442520857
 23
326.6509331123968
 33
0.0
 14
138.8654442520857
 24
312.2509331123969
 34
0.0
 50
90.0
100
AcDbRotatedDimension
1001
ACAD
1000
DSTYLE
1002
{
1070
   172
1070
     1
1002
}
  0
DIMENSION
  5
802C
102
{ACAD_REACTORS
330
802E
102
}
102
{ACAD_XDICTIONARY
360
802D
102
}
330
A
100
AcDbEntity
  8
寸法
  6
Continuous
100
AcDbDimension
  2
*D11
 10
88.28772192727851
 20
319.8509331123969
 30
0.0
 11
83.78772192727851
 21
323.2509331123974
 31
0.0
 70
    32
  1
6.8
 71
     5
 42
6.800000000001035
 73
     0
 74
     1
 75
     1
  3
tfrom線あり
100
AcDbAlignedDimension
 13
102.0326285220883
 23
326.6509331123979
 33
0.0
 14
103.3654442520858
 24
319.8509331123969
 34
0.0
 50
90.0
100
AcDbRotatedDimension
1001
ACAD
1000
DSTYLE
1002
{
1070
   172
1070
     1
1002
}
  0
DIMENSION
  5
803D
102
{ACAD_REACTORS
330
803F
102
}
102
{ACAD_XDICTIONARY
360
803E
102
}
330
A
100
AcDbEntity
  8
寸法
  6
Continuous
100
AcDbDimension
  2
*D12
 10
88.28772192727851
 20
312.2509331123969
 30
0.0
 11
88.28772192727851
 21
302.7942618606775
 31
0.0
 70
   160
  1
7.7
 71
     5
 42
7.599999999999965
 73
     0
 74
     0
 75
     0
  3
tfrom線あり
100
AcDbAlignedDimension
 13
103.3654442520858
 23
319.8509331123969
 33
0.0
 14
118.8654442520857
 24
312.2509331123969
 34
0.0
 50
90.0
100
AcDbRotatedDimension
1001
ACAD
1000
DSTYLE
1002
{
1070
   172
1070
     1
1002
}
  0
DIMENSION
  5
804D
102
{ACAD_REACTORS
330
804F
102
}
102
{ACAD_XDICTIONARY
360
804E
102
}
330
A
100
AcDbEntity
  8
寸法
  6
Continuous
100
AcDbDimension
  2
*D13
 10
394.8745512938556
 20
284.6540750663313
 30
0.0
 11
390.3745512938556
 21
304.552504089364
 31
0.0
 70
    32
 71
     5
 42
39.79685804606544
 73
     0
 74
     0
 75
     0
  3
tfrom線あり
100
AcDbAlignedDimension
 13
369.4217857486187
 23
324.4509331123967
 33
0.0
 14
349.760978206292
 24
284.6540750663313
 34
0.0
 50
90.0
100
AcDbRotatedDimension
  0
DIMENSION
  5
805C
102
{ACAD_REACTORS
330
805E
102
}
102
{ACAD_XDICTIONARY
360
805D
102
}
330
A
100
AcDbEntity
  8
寸法
  6
Continuous
100
AcDbDimension
  2
*D14
 10
300.2110775518255
 20
317.6509331123968
 30
0.0
 11
295.7110775518255
 21
321.0509331123972
 31
0.0
 70
    32
  1
6.8
 71
     5
 42
6.800000000000807
 73
     0
 74
     1
 75
     1
  3
tfrom線あり
100
AcDbAlignedDimension
 13
315.5889700186212
 23
324.4509331123976
 33
0.0
 14
316.921785748619
 24
317.6509331123968
 34
0.0
 50
90.0
100
AcDbRotatedDimension
1001
ACAD
1000
DSTYLE
1002
{
1070
   172
1070
     1
1002
}
  0
DIMENSION
  5
806D
102
{ACAD_REACTORS
330
806F
102
}
102
{ACAD_XDICTIONARY
360
806E
102
}
330
A
100
AcDbEntity
  8
寸法
  6
Continuous
100
AcDbDimension
  2
*D15
 10
300.2110775518255
 20
284.6509331123968
 30
0.0
 11
295.7101397001311
 21
301.1509331123968
 31
0.0
 70
    32
  1
33.2
 71
     5
 42
33.0
 73
     0
 74
     0
 75
     0
  3
tfrom線あり
100
AcDbAlignedDimension
 13
316.921785748619
 23
317.6509331123968
 33
0.0
 14
335.084716812558
 24
284.6509331123968
 34
0.0
 50
90.0
100
AcDbRotatedDimension
  0
DIMENSION
  5
807C
330
A
100
AcDbEntity
  8
寸法
  6
Continuous
100
AcDbDimension
  2
*D16
 10
240.9639778307299
 20
252.5395719262855
 30
0.0
 11
230.9639778307298
 21
257.0405097779799
 31
0.0
 70
    32
 71
     5
 42
20.00000000000003
 73
     0
 74
     0
 75
     0
  3
tfrom線あり
100
AcDbAlignedDimension
 13
220.9639778307298
 23
275.0399390035485
 33
0.0
 14
240.9639778307299
 24
275.0399390035485
 34
0.0
100
AcDbRotatedDimension
  0
DIMENSION
  5
809A
330
A
100
AcDbEntity
  8
寸法
  6
Continuous
100
AcDbDimension
  2
*D18
 10
471.1767865647565
 20
252.5395719262855
 30
0.0
 11
463.1767865647565
 21
257.0405097779799
 31
0.0
 70
    32
 71
     5
 42
16.0
 73
     0
 74
     0
 75
     0
  3
tfrom線あり
100
AcDbAlignedDimension
 13
455.1767865647565
 23
273.8633391959418
 33
0.0
 14
471.1767865647565
 24
273.8633391959418
 34
0.0
100
AcDbRotatedDimension
  0
LINE
  5
80AE
330
A
100
AcDbEntity
  8
寸法
  6
Continuous
100
AcDbLine
 10
338.920811124461
 20
294.6527105330927
 30
0.0
 11
338.9208111244625
 21
284.6509331123967
 31
0.0
  0
LINE
  5
80B0
330
A
100
AcDbEntity
  8
寸法
  6
Continuous
100
AcDbLine
 10
345.9208110579922
 20
294.6533926487559
 30
0.0
 11
345.9208110579937
 21
284.6509331123978
 31
0.0
  0
LINE
  5
80B1
330
A
100
AcDbEntity
  8
寸法
  6
Continuous
100
AcDbLine
 10
338.920811124461
 20
294.6527105330927
 30
0.0
 11
345.9208110579922
 21
294.6533926487559
 31
0.0
  0
DIMENSION
  5
80B2
102
{ACAD_REACTORS
330
80B4
102
}
102
{ACAD_XDICTIONARY
360
80B3
102
}
330
A
100
AcDbEntity
  8
寸法
  6
Continuous
100
AcDbDimension
  2
*D19
 10
361.6449084462188
 20
211.061767294613
 30
0.0
 11
356.6449084462188
 21
215.561767294613
 31
0.0
 70
    32
  1
9
 71
     5
 42
10.0
 73
     0
 74
     0
 75
     0
  3
tfrom線あり
100
AcDbAlignedDimension
 13
351.6449084462188
 23
199.8938505415327
 33
0.0
 14
361.6449084462188
 24
197.1476867842136
 34
0.0
100
AcDbRotatedDimension
  0
ELLIPSE
  5
8123
330
A
100
AcDbEntity
  8
CutoutUnderlay
100
AcDbEllipse
 10
463.3095417867696
 20
196.2347568464377
 30
0.0
 11
0.3850605117751928
 21
3.610905334540742
 31
0.0
210
0.0
220
0.0
230
1.0
 40
0.9638213467566717
 41
0.1481157354571694
 42
1.570796326794924
  0
LINE
  5
8124
330
A
100
AcDbEntity
  8
CutoutUnderlay
100
AcDbLine
 10
463.3100668424345
 20
197.1147316262176
 30
0.0
 11
463.0435062870788
 21
197.1147316262176
 31
0.0
  0
ELLIPSE
  5
8125
330
A
100
AcDbEntity
  8
CutoutUnderlay
100
AcDbEllipse
 10
463.0440313427433
 20
196.2347568464377
 30
0.0
 11
-0.3850605117751887
 21
3.610905334540745
 31
0.0
210
0.0
220
0.0
230
1.0
 40
0.9638213467566717
 41
4.712388980384664
 42
6.135069571722402
  0
ELLIPSE
  5
8126
330
A
100
AcDbEntity
  8
CutoutUnderlay
100
AcDbEllipse
 10
463.0162917159478
 20
193.4848040138197
 30
0.0
 11
0.3850605117751928
 21
3.610905334540742
 31
0.0
210
0.0
220
0.0
230
-1.0
 40
0.9638213467566717
 41
4.712388980384686
 42
6.180764754491657
  0
LINE
  5
8127
330
A
100
AcDbEntity
  8
CutoutUnderlay
100
AcDbLine
 10
458.1767865647565
 20
181.1096824572339
 30
0.0
 11
459.5360240733999
 21
193.8559335548616
 31
0.0
  0
ELLIPSE
  5
8128
330
A
100
AcDbEntity
  8
CutoutUnderlay
100
AcDbEllipse
 10
463.3372814135655
 20
193.4848040138197
 30
0.0
 11
-0.3850605117751887
 21
3.610905334540745
 31
0.0
210
0.0
220
0.0
230
-1.0
 40
0.9638213467566717
 41
0.1024205526878953
 42
1.570796326794884
  0
ELLIPSE
  5
8129
330
A
100
AcDbEntity
  8
CutoutUnderlay
100
AcDbEllipse
 10
463.3095417867696
 20
153.4946120712333
 30
0.0
 11
0.3850605117751912
 21
-3.610905334540743
 31
0.0
210
0.0
220
0.0
230
1.0
 40
0.9638213467566716
 41
4.712388980384647
 42
6.135069571722418
  0
ELLIPSE
  5
812A
330
A
100
AcDbEntity
  8
CutoutUnderlay
100
AcDbEllipse
 10
463.0162917159478
 20
156.2445649038513
 30
0.0
 11
0.3850605117751912
 21
-3.610905334540743
 31
0.0
210
0.0
220
0.0
230
-1.0
 40
0.9638213467566716
 41
0.1024205526878961
 42
1.570796326794915
  0
LINE
  5
812B
330
A
100
AcDbEntity
  8
CutoutUnderlay
100
AcDbLine
 10
466.8175490561134
 20
193.8559335548616
 30
0.0
 11
468.1767865647565
 21
181.1096824572339
 31
0.0
  0
ELLIPSE
  5
812C
330
A
100
AcDbEntity
  8
CutoutUnderlay
100
AcDbEllipse
 10
463.3372814135655
 20
156.2445649038513
 30
0.0
 11
-0.3850605117751903
 21
-3.610905334540744
 31
0.0
210
0.0
220
0.0
230
-1.0
 40
0.9638213467566716
 41
4.712388980384663
 42
6.18076475449169
  0
ELLIPSE
  5
812D
330
A
100
AcDbEntity
  8
CutoutUnderlay
100
AcDbEllipse
 10
463.0440313427433
 20
153.4946120712333
 30
0.0
 11
-0.3850605117751903
 21
-3.610905334540744
 31
0.0
210
0.0
220
0.0
230
1.0
 40
0.9638213467566716
 41
0.1481157354572008
 42
1.570796326794915
  0
LINE
  5
812E
330
A
100
AcDbEntity
  8
CutoutUnderlay
100
AcDbLine
 10
458.1767865647565
 20
168.619686460437
 30
0.0
 11
459.5360240733999
 21
155.8734353628092
 31
0.0
  0
LINE
  5
812F
330
A
100
AcDbEntity
  8
CutoutUnderlay
100
AcDbLine
 10
466.8175490561134
 20
155.8734353628092
 30
0.0
 11
468.1767865647565
 21
168.619686460437
 31
0.0
  0
LINE
  5
8130
330
A
100
AcDbEntity
  8
CutoutUnderlay
100
AcDbLine
 10
463.0435062870788
 20
152.6146372914533
 30
0.0
 11
463.3100668424345
 21
152.6146372914533
 31
0.0
  0
LINE
  5
8131
330
A
100
AcDbEntity
  8
CutoutUnderlay
100
AcDbLine
 10
459.8292741442217
 20
196.6058863874795
 30
0.0
 11
459.5360240733999
 21
193.8559335548616
 31
0.0
  0
ARC
  5
8132
330
A
100
AcDbEntity
  8
CutoutUnderlay
100
AcDbCircle
 10
463.1767865647565
 20
174.8646844588354
 30
0.0
 40
8.000000000000004
100
AcDbArc
 50
128.6821874534895
 51
231.3178125465105
  0
ARC
  5
8133
330
A
100
AcDbEntity
  8
CutoutUnderlay
100
AcDbCircle
 10
463.1767865647565
 20
174.8646844588354
 30
0.0
 40
8.000000000000005
100
AcDbArc
 50
308.6821874534893
 51
51.31781254651052
  0
LINE
  5
8136
330
A
100
AcDbEntity
  8
CutoutUnderlay
100
AcDbLine
 10
466.8175490561134
 20
193.8559335548616
 30
0.0
 11
466.5242989852914
 21
196.6058863874795
 31
0.0
  0
LINE
  5
8137
330
A
100
AcDbEntity
  8
CutoutUnderlay
100
AcDbLine
 10
459.5360240733999
 20
155.8734353628092
 30
0.0
 11
459.8292741442217
 21
153.1234825301914
 31
0.0
  0
LINE
  5
8138
330
A
100
AcDbEntity
  8
CutoutUnderlay
100
AcDbLine
 10
466.5242989852914
 20
153.1234825301914
 30
0.0
 11
466.8175490561134
 21
155.8734353628092
 31
0.0
  0
DIMENSION
  5
815C
330
A
100
AcDbEntity
  8
寸法
  6
Continuous
100
AcDbDimension
  2
*D20
 10
384.4179502057481
 20
149.9014286921301
 30
0.0
 11
379.9170123540537
 21
174.8976396168312
 31
0.0
 70
    32
 71
     5
 42
49.99242184940221
 73
     0
 74
     0
 75
     0
  3
tfrom線あり
100
AcDbAlignedDimension
 13
356.6449084462201
 23
199.8938505415323
 33
0.0
 14
356.6449084462188
 24
149.9014286921301
 34
0.0
 50
90.0
100
AcDbRotatedDimension
  0
CIRCLE
  5
8177
102
{ACAD_REACTORS
330
7F58
102
}
330
A
100
AcDbEntity
  8
モデル
  6
HIDDEN
 48
0.2
100
AcDbCircle
 10
482.1767865647565
 20
299.650933112397
 30
0.0
 40
4.0
  0
CIRCLE
  5
8178
102
{ACAD_REACTORS
330
7F58
102
}
330
A
100
AcDbEntity
  8
モデル
  6
HIDDEN
 48
0.2
100
AcDbCircle
 10
444.1767865647563
 20
299.650933112397
 30
0.0
 40
4.0
  0
CIRCLE
  5
8179
102
{ACAD_REACTORS
330
7F58
102
}
330
A
100
AcDbEntity
  8
モデル
  6
HIDDEN
 48
0.2
100
AcDbCircle
 10
249.9639778307298
 20
300.1198114115173
 30
0.0
 40
4.0
  0
CIRCLE
  5
817A
102
{ACAD_REACTORS
330
7F58
102
}
330
A
100
AcDbEntity
  8
モデル
  6
HIDDEN
 48
0.2
100
AcDbCircle
 10
211.9639778307296
 20
300.1198114115173
 30
0.0
 40
4.0
  0
DIMENSION
  5
817C
330
A
100
AcDbEntity
  8
寸法
  6
Continuous
100
AcDbDimension
  2
*D21
 10
249.9639778307298
 20
348.4631111111111
 30
0.0
 11
230.9639778307297
 21
348.4631111111111
 31
0.0
 70
   160
 71
     5
 42
38.00000000000023
 73
     0
 74
     0
 75
     0
  3
tfrom線あり
100
AcDbAlignedDimension
 13
211.9639778307296
 23
324.008644676846
 33
0.0
 14
249.9639778307298
 24
324.0833222276588
 34
0.0
100
AcDbRotatedDimension
  0
DIMENSION
  5
818B
330
A
100
AcDbEntity
  8
寸法
  6
Continuous
100
AcDbDimension
  2
*D22
 10
192.9391330046103
 20
272.9306694509352
 30
0.0
 11
188.4381951529159
 21
300.0252404312262
 31
0.0
 70
    32
 71
     5
 42
54.18914196058199
 73
     0
 74
     0
 75
     0
  3
tfrom線あり
100
AcDbAlignedDimension
 13
214.8849965975774
 23
327.1198114115172
 33
0.0
 14
214.6242091118688
 24
272.9306694509352
 34
0.0
 50
90.0
100
AcDbRotatedDimension
  0
DIMENSION
  5
8199
330
A
100
AcDbEntity
  8
寸法
  6
Continuous
100
AcDbDimension
  2
*D23
 10
423.0947282243636
 20
272.9306694509352
 30
0.0
 11
418.5937903726692
 21
300.0252404312263
 31
0.0
 70
    32
 71
     5
 42
54.18914196058205
 73
     0
 74
     0
 75
     0
  3
tfrom線あり
100
AcDbAlignedDimension
 13
444.1767865647563
 23
327.1198114115173
 33
0.0
 14
446.392554887517
 24
272.9306694509352
 34
0.0
 50
90.0
100
AcDbRotatedDimension
  0
DIMENSION
  5
81A7
330
A
100
AcDbEntity
  8
寸法
  6
Continuous
100
AcDbDimension
  2
*D24
 10
482.1767865647565
 20
348.4631111111111
 30
0.0
 11
463.1767865647564
 21
348.4631111111111
 31
0.0
 70
   160
 71
     5
 42
38.00000000000023
 73
     0
 74
     0
 75
     0
  3
tfrom線あり
100
AcDbAlignedDimension
 13
444.1767865647563
 23
323.5545730302761
 33
0.0
 14
482.1767865647565
 24
323.4769810989158
 34
0.0
100
AcDbRotatedDimension
  0
VIEWPORT
  5
349
330
B
100
AcDbEntity
 67
     1
  8
0
100
AcDbViewport
 10
202.5
 20
128.5
 30
0.0
 40
486.0
 41
308.4
 68
     1
 69
     1
 12
202.5
 22
128.5
 13
0.0
 23
0.0
 14
0.5
 24
0.5
 15
0.0
 25
0.0
 16
0.0
 26
0.0
 36
1.0
 17
0.0
 27
0.0
 37
0.0
 42
50.0
 43
0.0
 44
0.0
 45
308.4
 50
0.0
 51
0.0
 72
   100
 90
   557152
  1

281
     0
 71
     1
 74
     0
110
0.0
120
0.0
130
0.0
111
1.0
121
0.0
131
0.0
112
0.0
122
1.0
132
0.0
 79
     0
146
0.0
170
     0
 61
     5
348
26C
292
     1
282
     1
141
0.0
142
0.0
 63
   256
361
44F1
  0
VIEWPORT
  5
34A
330
B
100
AcDbEntity
 67
     1
  8
0
100
AcDbViewport
 10
202.5
 20
128.5
 30
0.0
 40
324.0
 41
205.6
 68
     2
 69
     2
 12
986.6781359294573
 22
1427.077061889956
 13
0.0
 23
0.0
 14
0.5
 24
0.5
 15
0.0
 25
0.0
 16
0.0
 26
0.0
 36
1.0
 17
0.0
 27
0.0
 37
0.0
 42
50.0
 43
0.0
 44
0.0
 45
2890.021615685494
 50
0.0
 51
0.0
 72
   100
 90
   557152
  1

281
     0
 71
     1
 74
     0
110
0.0
120
0.0
130
0.0
111
1.0
121
0.0
131
0.0
112
0.0
122
1.0
132
0.0
 79
     0
146
0.0
170
     0
 61
     5
348
26C
292
     1
282
     1
141
0.0
142
0.0
 63
   256
  0
ENDSEC
  0
SECTION
  2
OBJECTS
  0
DICTIONARY
  5
19
330
0
100
AcDbDictionary
281
     1
  3
ACAD_COLOR
350
674
  3
ACAD_DETAILVIEWSTYLE
350
13B5
  3
ACAD_FIELDLIST
350
59E4
  3
ACAD_GROUP
350
1A
  3
ACAD_IMAGE_VARS
350
27B
  3
ACAD_LAYOUT
350
1E
  3
ACAD_MATERIAL
350
263
  3
ACAD_MLEADERSTYLE
350
336
  3
ACAD_MLINESTYLE
350
1B
  3
ACAD_PLOTSETTINGS
350
22
  3
ACAD_PLOTSTYLENAME
350
1F
  3
ACAD_SCALELIST
350
241
  3
ACAD_SECTIONVIEWSTYLE
350
13B6
  3
ACAD_TABLESTYLE
350
278
  3
ACAD_VISUALSTYLE
350
267
  3
ACDB_RECOMPOSE_DATA
350
81C2
  3
AcDbVariableDictionary
350
330
  3
APPDATA
350
27A
  0
SUN
  5
F1A
330
15
100
AcDbSun
 90
        1
290
     0
 63
     7
421
 16777215
 40
1.0
291
     1
 91
  2455826
 92
 54000000
292
     0
 70
     2
 71
   256
280
     1
  0
DICTIONARY
  5
2E1
330
2
100
AcDbDictionary
280
     1
281
     1
  3
ACAD_LAYERSTATES
360
2E2
  3
ACLYDICTIONARY
360
5173
  0
DICTIONARY
  5
59FD
330
A
100
AcDbDictionary
280
     1
281
     1
  3
ACAD_SORTENTS
360
59FE
  0
DICTIONARY
  5
59F8
330
59F7
100
AcDbDictionary
280
     1
281
     1
  0
DICTIONARY
  5
7F5D
330
7F5C
100
AcDbDictionary
280
     1
281
     1
  0
DICTIONARY
  5
7F61
330
7F60
100
AcDbDictionary
280
     1
281
     1
  0
DICTIONARY
  5
7F64
330
7F63
100
AcDbDictionary
280
     1
281
     1
  0
DICTIONARY
  5
7F66
330
7F65
100
AcDbDictionary
280
     1
281
     1
  0
DICTIONARY
  5
801E
330
801D
100
AcDbDictionary
280
     1
281
     1
  3
ACAD_DIMASSOC
360
801F
  0
DICTIONARY
  5
802D
330
802C
100
AcDbDictionary
280
     1
281
     1
  3
ACAD_DIMASSOC
360
802E
  0
DICTIONARY
  5
803E
330
803D
100
AcDbDictionary
280
     1
281
     1
  3
ACAD_DIMASSOC
360
803F
  0
DICTIONARY
  5
804E
330
804D
100
AcDbDictionary
280
     1
281
     1
  3
ACAD_DIMASSOC
360
804F
  0
DICTIONARY
  5
805D
330
805C
100
AcDbDictionary
280
     1
281
     1
  3
ACAD_DIMASSOC
360
805E
  0
DICTIONARY
  5
806E
330
806D
100
AcDbDictionary
280
     1
281
     1
  3
ACAD_DIMASSOC
360
806F
  0
DICTIONARY
  5
80B3
330
80B2
100
AcDbDictionary
280
     1
281
     1
  3
ACAD_DIMASSOC
360
80B4
  0
SUN
  5
44F1
330
349
100
AcDbSun
 90
        1
290
     0
 63
     7
421
 16777215
 40
1.0
291
     1
 91
  2455826
 92
 54000000
292
     0
 70
     2
 71
   256
280
     1
  0
DICTIONARY
  5
674
102
{ACAD_REACTORS
330
19
102
}
330
19
100
AcDbDictionary
281
     1
  0
DICTIONARY
  5
13B5
102
{ACAD_REACTORS
330
19
102
}
330
19
100
AcDbDictionary
281
     1
  0
FIELDLIST
  5
59E4
102
{ACAD_REACTORS
330
19
102
}
330
19
100
AcDbIdSet
 90
        0
100
AcDbFieldList
  0
DICTIONARY
  5
1A
102
{ACAD_REACTORS
330
19
102
}
330
19
100
AcDbDictionary
281
     1
  0
RASTERVARIABLES
  5
27B
102
{ACAD_REACTORS
330
19
102
}
330
19
100
AcDbRasterVariables
 90
        0
 70
     1
 71
     1
 72
     1
  0
DICTIONARY
  5
1E
102
{ACAD_REACTORS
330
19
102
}
330
19
100
AcDbDictionary
281
     1
  3
Layout1
350
21
  3
Model
350
20
  0
DICTIONARY
  5
263
102
{ACAD_REACTORS
330
19
102
}
330
19
100
AcDbDictionary
281
     1
  3
ByBlock
350
518C
  3
ByLayer
350
264
  3
Global
350
266
  0
DICTIONARY
  5
336
102
{ACAD_REACTORS
330
19
102
}
330
19
100
AcDbDictionary
281
     1
  3
Standard
350
5908
  0
DICTIONARY
  5
1B
102
{ACAD_REACTORS
330
19
102
}
330
19
100
AcDbDictionary
281
     1
  3
Standard
350
1C
  0
DICTIONARY
  5
22
102
{ACAD_REACTORS
330
19
102
}
330
19
100
AcDbDictionary
281
     1
  0
ACDBDICTIONARYWDFLT
  5
1F
102
{ACAD_REACTORS
330
19
102
}
330
19
100
AcDbDictionary
281
     1
  3
Normal
350
1D
100
AcDbDictionaryWithDefault
340
1D
  0
DICTIONARY
  5
241
102
{ACAD_REACTORS
330
19
102
}
330
19
100
AcDbDictionary
281
     1
  3
A0
350
242
  3
A1
350
243
  3
A2
350
244
  3
A3
350
245
  3
A4
350
246
  3
A5
350
247
  3
A6
350
248
  3
A7
350
249
  3
A8
350
24A
  3
A9
350
24B
  3
B0
350
24C
  3
B1
350
24D
  3
B2
350
24E
  3
B3
350
24F
  3
B4
350
250
  3
B5
350
251
  3
B6
350
252
  3
B7
350
253
  3
B8
350
254
  3
B9
350
255
  3
C0
350
256
  3
C1
350
257
  3
C2
350
258
  3
C3
350
259
  3
C4
350
25A
  3
C5
350
25B
  3
C6
350
25C
  3
C7
350
25D
  3
C8
350
25E
  3
C9
350
25F
  3
D0
350
260
  3
D1
350
261
  3
D2
350
262
  0
DICTIONARY
  5
13B6
102
{ACAD_REACTORS
330
19
102
}
330
19
100
AcDbDictionary
281
     1
  0
DICTIONARY
  5
278
102
{ACAD_REACTORS
330
19
102
}
330
19
100
AcDbDictionary
281
     1
  3
Standard
350
279
  0
DICTIONARY
  5
267
102
{ACAD_REACTORS
330
19
102
}
330
19
100
AcDbDictionary
281
     1
  3
2dWireframe
350
26C
  3
3D Hidden
350
26E
  3
3dWireframe
350
26D
  3
Basic
350
26F
  3
Brighten
350
273
  3
ColorChange
350
277
  3
Conceptual
350
271
  3
Dim
350
272
  3
EdgeColorOff
350
F14
  3
Facepattern
350
276
  3
Flat
350
268
  3
FlatWithEdges
350
269
  3
Gouraud
350
26A
  3
GouraudWithEdges
350
26B
  3
Hidden
350
F11
  3
JitterOff
350
F12
  3
Linepattern
350
275
  3
OverhangOff
350
F13
  3
Realistic
350
270
  3
Shaded
350
F19
  3
Shaded with edges
350
F18
  3
Shades of Gray
350
F15
  3
Sketchy
350
F16
  3
Thicken
350
274
  3
Wireframe
350
F10
  3
X-Ray
350
F17
  0
XRECORD
  5
81C2
102
{ACAD_REACTORS
330
19
102
}
330
19
100
AcDbXrecord
280
     1
 90
        1
330
279
  0
DICTIONARY
  5
330
102
{ACAD_REACTORS
330
19
102
}
330
19
100
AcDbDictionary
281
     1
  3
CANNOSCALE
350
331
  3
CMLEADERSTYLE
350
598D
  3
CTABLESTYLE
350
335
  3
HPTRANSPARENCY
350
528A
  3
XCLIPFRAME
350
13B4
  0
DICTIONARY
  5
27A
102
{ACAD_REACTORS
330
19
102
}
330
19
100
AcDbDictionary
281
     1
  0
DICTIONARY
  5
2E2
102
{ACAD_REACTORS
330
2E1
102
}
330
2E1
100
AcDbDictionary
281
     1
  0
DICTIONARY
  5
5173
102
{ACAD_REACTORS
330
2E1
102
}
330
2E1
100
AcDbDictionary
281
     1
1001
ACAD
1000
<All
  0
SORTENTSTABLE
  5
59FE
102
{ACAD_REACTORS
330
59FD
102
}
330
59FD
100
AcDbSortentsTable
330
A
331
54A0
  5
55C8
331
54A1
  5
55CA
331
54A2
  5
55CB
331
54A3
  5
55CE
331
54A4
  5
55D1
331
54A5
  5
55D2
331
54A6
  5
55D3
331
54A7
  5
55D4
331
54A8
  5
55D7
331
54A9
  5
55FC
331
54AA
  5
55FD
331
54AB
  5
55FE
331
54AC
  5
55FF
331
54AD
  5
5600
331
54AE
  5
5601
331
54AF
  5
5602
331
54B0
  5
5603
331
54B1
  5
5604
331
54B2
  5
5605
331
54B3
  5
5606
331
54B5
  5
5607
331
54B6
  5
5608
331
54B7
  5
5609
331
54B8
  5
560A
331
54B9
  5
560B
331
54BA
  5
560C
331
54BB
  5
58AA
331
54BC
  5
58FC
331
54BD
  5
58FD
331
54BE
  5
5963
331
54BF
  5
5966
331
5528
  5
5970
331
5529
  5
5971
331
552A
  5
59F5
331
552B
  5
59F7
331
552C
  5
5A3E
331
552D
  5
5A3F
331
59F5
  5
5C6B
331
59F7
  5
5C6C
331
5A9F
  5
5C73
331
5AA7
  5
5C7B
331
5AA8
  5
5C7C
331
5AA9
  5
5C7D
331
7F55
  5
8138
331
7F56
  5
7F55
331
7F57
  5
7F56
331
7F58
  5
815C
331
7F59
  5
8133
331
7F5A
  5
7F57
331
7F5B
  5
8137
331
7F5C
  5
8130
331
7F5E
  5
7F58
331
7F5F
  5
7F59
331
7F60
  5
8132
331
7F62
  5
7F5A
331
7F63
  5
8131
331
7F65
  5
8136
331
7F67
  5
7F5B
331
7FD0
  5
7F5C
331
7FD1
  5
7F5E
331
7FD2
  5
7F5F
331
7FD3
  5
7F60
331
7FD4
  5
7F62
331
7FD5
  5
7F63
331
7FD6
  5
7F65
331
7FE1
  5
7F67
331
7FE2
  5
7FD0
331
7FE4
  5
7FD1
331
7FE5
  5
7FD2
331
7FE6
  5
7FD3
331
7FE7
  5
7FD4
331
7FE9
  5
7FD5
331
7FEA
  5
7FD6
331
7FEB
  5
7FE1
331
7FEC
  5
7FE2
331
7FED
  5
7FE4
331
7FEE
  5
7FE5
331
7FEF
  5
7FE6
331
7FF0
  5
7FE7
331
7FF1
  5
7FE9
331
7FF2
  5
7FEA
331
7FF3
  5
7FEB
331
8015
  5
7FEC
331
8016
  5
7FED
331
8017
  5
7FEE
331
8018
  5
7FEF
331
801D
  5
7FF0
331
802C
  5
7FF1
331
803D
  5
7FF2
331
804D
  5
7FF3
331
805C
  5
8015
331
806D
  5
8016
331
807C
  5
8017
331
809A
  5
801D
331
80AE
  5
802C
331
80B0
  5
803D
331
80B1
  5
804D
331
80B2
  5
805C
331
8123
  5
806D
331
8124
  5
807C
331
8125
  5
808B
331
8126
  5
809A
331
8127
  5
80AE
331
8128
  5
80B0
331
8129
  5
80B1
331
812A
  5
80B2
331
812B
  5
8123
331
812C
  5
8124
331
812D
  5
8125
331
812E
  5
8126
331
812F
  5
8127
331
8130
  5
8128
331
8131
  5
8129
331
8132
  5
812A
331
8133
  5
812B
331
8136
  5
812C
331
8137
  5
812D
331
8138
  5
812E
331
815C
  5
812F
  0
DIMASSOC
  5
801F
102
{ACAD_REACTORS
330
801E
102
}
330
801E
100
AcDbDimAssoc
330
801D
 90
        3
 70
     0
 71
     1
  1
AcDbOsnapPointRef
 72
     1
331
76CB
 73
     0
 91
        0
 40
0.0
 10
0.0
 20
0.0
 30
0.0
 75
     0
  1
AcDbOsnapPointRef
 72
     1
331
76B7
 73
     0
 91
        0
 40
0.0
 10
0.0
 20
0.0
 30
0.0
 75
     0
  0
DIMASSOC
  5
802E
102
{ACAD_REACTORS
330
802D
102
}
330
802D
100
AcDbDimAssoc
330
802C
 90
        3
 70
     0
 71
     1
  1
AcDbOsnapPointRef
 72
    13
331
76BA
 73
     0
 91
        0
 40
0.0
 10
0.0
 20
0.0
 30
0.0
 75
     0
  1
AcDbOsnapPointRef
 72
    13
331
76CA
 73
     0
 91
        0
 40
0.0
 10
0.0
 20
0.0
 30
0.0
 75
     0
  0
DIMASSOC
  5
803F
102
{ACAD_REACTORS
330
803E
102
}
330
803E
100
AcDbDimAssoc
330
803D
 90
        3
 70
     0
 71
     1
  1
AcDbOsnapPointRef
 72
    13
331
76CA
 73
     0
 91
        0
 40
0.0
 10
0.0
 20
0.0
 30
0.0
 75
     0
  1
AcDbOsnapPointRef
 72
    13
331
76B6
 73
     0
 91
        0
 40
0.0
 10
0.0
 20
0.0
 30
0.0
 75
     0
  0
DIMASSOC
  5
804F
102
{ACAD_REACTORS
330
804E
102
}
330
804E
100
AcDbDimAssoc
330
804D
 90
        1
 70
     0
 71
     1
  1
AcDbOsnapPointRef
 72
     1
331
7FF0
 73
     0
 91
        0
 40
0.0
 10
0.0
 20
0.0
 30
0.0
 75
     0
  0
DIMASSOC
  5
805E
102
{ACAD_REACTORS
330
805D
102
}
330
805D
100
AcDbDimAssoc
330
805C
 90
        3
 70
     0
 71
     1
  1
AcDbOsnapPointRef
 72
    13
331
7FEF
 73
     0
 91
        0
 40
0.0
 10
0.0
 20
0.0
 30
0.0
 75
     0
  1
AcDbOsnapPointRef
 72
    13
331
7FEE
 73
     0
 91
        0
 40
0.0
 10
0.0
 20
0.0
 30
0.0
 75
     0
  0
DIMASSOC
  5
806F
102
{ACAD_REACTORS
330
806E
102
}
330
806E
100
AcDbDimAssoc
330
806D
 90
        1
 70
     0
 71
     1
  1
AcDbOsnapPointRef
 72
    13
331
7FEE
 73
     0
 91
        0
 40
0.0
 10
0.0
 20
0.0
 30
0.0
 75
     0
  0
DIMASSOC
  5
80B4
102
{ACAD_REACTORS
330
80B3
102
}
330
80B3
100
AcDbDimAssoc
330
80B2
 90
        3
 70
     0
 71
     1
  1
AcDbOsnapPointRef
 72
     1
331
7699
 73
     0
 91
        0
 40
0.0
 10
0.0
 20
0.0
 30
0.0
 75
     0
  1
AcDbOsnapPointRef
 72
    13
331
769A
 73
     0
 91
        0
 40
0.0
 10
0.0
 20
0.0
 30
0.0
 75
     0
  0
LAYOUT
  5
21
102
{ACAD_REACTORS
330
1E
102
}
330
1E
100
AcDbPlotSettings
  1

  2
none_device
  4
ISO_A3_(420.00_x_297.00_MM)
  6

 40
7.5
 41
20.0
 42
7.5
 43
20.0
 44
420.0
 45
297.0
 46
0.0
 47
0.0
 48
0.0
 49
0.0
140
0.0
141
0.0
142
1.0
143
1.0
 70
     0
 72
     1
 73
     0
 74
     0
  7

 75
     0
 76
     0
 77
     2
 78
   300
147
1.0
148
0.0
149
0.0
100
AcDbLayout
  1
Layout1
 70
     1
 71
     0
 10
-7.5
 20
-20.0
 11
412.5
 21
277.0
 12
0.0
 22
0.0
 32
0.0
 14
0.0
 24
0.0
 34
0.0
 15
0.0
 25
0.0
 35
0.0
146
0.0
 13
0.0
 23
0.0
 33
0.0
 16
0.0
 26
0.0
 36
0.0
 17
0.0
 27
0.0
 37
0.0
 76
     0
330
B
331
349
  0
LAYOUT
  5
20
102
{ACAD_REACTORS
330
1E
102
}
330
1E
100
AcDbPlotSettings
  1

  2
none_device
  4
ISO_A3_(420.00_x_297.00_MM)
  6

 40
7.5
 41
20.0
 42
7.5
 43
20.0
 44
420.0
 45
297.0
 46
0.0
 47
0.0
 48
0.0
 49
0.0
140
0.0
141
0.0
142
1.0
143
1.0
 70
  1024
 72
     1
 73
     0
 74
     0
  7

 75
     0
 76
     0
 77
     2
 78
   300
147
1.0
148
0.0
149
0.0
100
AcDbLayout
  1
Model
 70
     0
 71
     1
 10
0.0
 20
0.0
 11
594.0
 21
419.9999999999996
 12
0.0
 22
0.0
 32
0.0
 14
0.0
 24
0.0
 34
0.0
 15
593.9999999999999
 25
420.0
 35
0.0
146
0.0
 13
0.0
 23
0.0
 33
0.0
 16
0.0
 26
0.0
 36
0.0
 17
0.0
 27
0.0
 37
0.0
 76
     0
330
A
331
15
  0
MATERIAL
  5
518C
102
{ACAD_REACTORS
330
263
102
}
330
263
100
AcDbMaterial
  1
ByBlock
 72
     1
 94
      127
  0
MATERIAL
  5
264
102
{ACAD_REACTORS
330
263
102
}
330
263
100
AcDbMaterial
  1
ByLayer
 72
     1
 94
      127
  0
MATERIAL
  5
266
102
{ACAD_REACTORS
330
263
102
}
330
263
100
AcDbMaterial
  1
Global
 72
     1
 94
      127
  0
MLEADERSTYLE
  5
5908
102
{ACAD_REACTORS
330
336
102
}
330
336
100
AcDbMLeaderStyle
170
     2
171
     1
172
     0
 90
        2
 40
0.0
 41
0.0
173
     1
 91
-1056964608
340
11
 92
       -2
290
     1
 42
2.0
291
     1
 43
8.0
  3
Standard
341
0
 44
4.0
300

342
17
174
     1
178
     6
175
     1
176
     0
 93
-1056964608
 45
4.0
292
     0
297
     0
 46
4.0
343
0
 94
-1056964608
 47
1.0
 49
1.0
140
1.0
293
     1
141
0.0
294
     1
177
     0
142
1.0
295
     0
296
     0
143
3.75
1001
ACAD_MLEADERVER
1070
     2
  0
MLINESTYLE
  5
1C
102
{ACAD_REACTORS
330
1B
102
}
330
1B
100
AcDbMlineStyle
  2
Standard
 70
     0
  3

 62
     0
 51
90.0
 52
90.0
 71
     2
 49
0.5
 62
   256
  6
BYLAYER
 49
-0.5
 62
   256
  6
BYLAYER
  0
ACDBPLACEHOLDER
  5
1D
102
{ACAD_REACTORS
330
1F
102
}
330
1F
  0
SCALE
  5
242
102
{ACAD_REACTORS
330
241
102
}
330
241
100
AcDbScale
 70
     0
300
1:1
140
1.0
141
1.0
290
     1
  0
SCALE
  5
243
102
{ACAD_REACTORS
330
241
102
}
330
241
100
AcDbScale
 70
     0
300
1:2
140
1.0
141
2.0
290
     0
  0
SCALE
  5
244
102
{ACAD_REACTORS
330
241
102
}
330
241
100
AcDbScale
 70
     0
300
1:4
140
1.0
141
4.0
290
     0
  0
SCALE
  5
245
102
{ACAD_REACTORS
330
241
102
}
330
241
100
AcDbScale
 70
     0
300
1:5
140
1.0
141
5.0
290
     0
  0
SCALE
  5
246
102
{ACAD_REACTORS
330
241
102
}
330
241
100
AcDbScale
 70
     0
300
1:8
140
1.0
141
8.0
290
     0
  0
SCALE
  5
247
102
{ACAD_REACTORS
330
241
102
}
330
241
100
AcDbScale
 70
     0
300
1:10
140
1.0
141
10.0
290
     0
  0
SCALE
  5
248
102
{ACAD_REACTORS
330
241
102
}
330
241
100
AcDbScale
 70
     0
300
1:16
140
1.0
141
16.0
290
     0
  0
SCALE
  5
249
102
{ACAD_REACTORS
330
241
102
}
330
241
100
AcDbScale
 70
     0
300
1:20
140
1.0
141
20.0
290
     0
  0
SCALE
  5
24A
102
{ACAD_REACTORS
330
241
102
}
330
241
100
AcDbScale
 70
     0
300
1:30
140
1.0
141
30.0
290
     0
  0
SCALE
  5
24B
102
{ACAD_REACTORS
330
241
102
}
330
241
100
AcDbScale
 70
     0
300
1:40
140
1.0
141
40.0
290
     0
  0
SCALE
  5
24C
102
{ACAD_REACTORS
330
241
102
}
330
241
100
AcDbScale
 70
     0
300
1:50
140
1.0
141
50.0
290
     0
  0
SCALE
  5
24D
102
{ACAD_REACTORS
330
241
102
}
330
241
100
AcDbScale
 70
     0
300
1:100
140
1.0
141
100.0
290
     0
  0
SCALE
  5
24E
102
{ACAD_REACTORS
330
241
102
}
330
241
100
AcDbScale
 70
     0
300
2:1
140
2.0
141
1.0
290
     0
  0
SCALE
  5
24F
102
{ACAD_REACTORS
330
241
102
}
330
241
100
AcDbScale
 70
     0
300
4:1
140
4.0
141
1.0
290
     0
  0
SCALE
  5
250
102
{ACAD_REACTORS
330
241
102
}
330
241
100
AcDbScale
 70
     0
300
8:1
140
8.0
141
1.0
290
     0
  0
SCALE
  5
251
102
{ACAD_REACTORS
330
241
102
}
330
241
100
AcDbScale
 70
     0
300
10:1
140
10.0
141
1.0
290
     0
  0
SCALE
  5
252
102
{ACAD_REACTORS
330
241
102
}
330
241
100
AcDbScale
 70
     0
300
100:1
140
100.0
141
1.0
290
     0
  0
SCALE
  5
253
102
{ACAD_REACTORS
330
241
102
}
330
241
100
AcDbScale
 70
     0
300
1/128" = 1'-0"
140
0.0078125
141
12.0
290
     0
  0
SCALE
  5
254
102
{ACAD_REACTORS
330
241
102
}
330
241
100
AcDbScale
 70
     0
300
1/64" = 1'-0"
140
0.015625
141
12.0
290
     0
  0
SCALE
  5
255
102
{ACAD_REACTORS
330
241
102
}
330
241
100
AcDbScale
 70
     0
300
1/32" = 1'-0"
140
0.03125
141
12.0
290
     0
  0
SCALE
  5
256
102
{ACAD_REACTORS
330
241
102
}
330
241
100
AcDbScale
 70
     0
300
1/16" = 1'-0"
140
0.0625
141
12.0
290
     0
  0
SCALE
  5
257
102
{ACAD_REACTORS
330
241
102
}
330
241
100
AcDbScale
 70
     0
300
3/32" = 1'-0"
140
0.09375
141
12.0
290
     0
  0
SCALE
  5
258
102
{ACAD_REACTORS
330
241
102
}
330
241
100
AcDbScale
 70
     0
300
1/8" = 1'-0"
140
0.125
141
12.0
290
     0
  0
SCALE
  5
259
102
{ACAD_REACTORS
330
241
102
}
330
241
100
AcDbScale
 70
     0
300
3/16" = 1'-0"
140
0.1875
141
12.0
290
     0
  0
SCALE
  5
25A
102
{ACAD_REACTORS
330
241
102
}
330
241
100
AcDbScale
 70
     0
300
1/4" = 1'-0"
140
0.25
141
12.0
290
     0
  0
SCALE
  5
25B
102
{ACAD_REACTORS
330
241
102
}
330
241
100
AcDbScale
 70
     0
300
3/8" = 1'-0"
140
0.375
141
12.0
290
     0
  0
SCALE
  5
25C
102
{ACAD_REACTORS
330
241
102
}
330
241
100
AcDbScale
 70
     0
300
1/2" = 1'-0"
140
0.5
141
12.0
290
     0
  0
SCALE
  5
25D
102
{ACAD_REACTORS
330
241
102
}
330
241
100
AcDbScale
 70
     0
300
3/4" = 1'-0"
140
0.75
141
12.0
290
     0
  0
SCALE
  5
25E
102
{ACAD_REACTORS
330
241
102
}
330
241
100
AcDbScale
 70
     0
300
1" = 1'-0"
140
1.0
141
12.0
290
     0
  0
SCALE
  5
25F
102
{ACAD_REACTORS
330
241
102
}
330
241
100
AcDbScale
 70
     0
300
1-1/2" = 1'-0"
140
1.5
141
12.0
290
     0
  0
SCALE
  5
260
102
{ACAD_REACTORS
330
241
102
}
330
241
100
AcDbScale
 70
     0
300
3" = 1'-0"
140
3.0
141
12.0
290
     0
  0
SCALE
  5
261
102
{ACAD_REACTORS
330
241
102
}
330
241
100
AcDbScale
 70
     0
300
6" = 1'-0"
140
6.0
141
12.0
290
     0
  0
SCALE
  5
262
102
{ACAD_REACTORS
330
241
102
}
330
241
100
AcDbScale
 70
     0
300
1'-0" = 1'-0"
140
12.0
141
12.0
290
     0
  0
TABLESTYLE
  5
279
102
{ACAD_REACTORS
330
278
102
}
102
{ACAD_XDICTIONARY
360
81C0
102
}
330
278
100
AcDbTableStyle
  3
Standard
 70
     0
 71
     0
 40
0.06
 41
0.06
280
     0
281
     0
  7
Standard
140
4.5
170
     2
 62
     0
 63
   257
283
     0
 90
        4
 91
        0
  1

274
    -2
284
     1
 64
     0
275
    -2
285
     1
 65
     0
276
    -2
286
     1
 66
     0
277
    -2
287
     1
 67
     0
278
    -2
288
     1
 68
     0
279
    -2
289
     1
 69
     0
  7
Standard
140
6.0
170
     5
 62
     0
 63
   257
283
     0
 90
        4
 91
        0
  1

274
    -2
284
     1
 64
     0
275
    -2
285
     1
 65
     0
276
    -2
286
     1
 66
     0
277
    -2
287
     1
 67
     0
278
    -2
288
     1
 68
     0
279
    -2
289
     1
 69
     0
  7
Standard
140
4.5
170
     5
 62
     0
 63
   257
283
     0
 90
        4
 91
        0
  1

274
    -2
284
     1
 64
     0
275
    -2
285
     1
 65
     0
276
    -2
286
     1
 66
     0
277
    -2
287
     1
 67
     0
278
    -2
288
     1
 68
     0
279
    -2
289
     1
 69
     0
  0
VISUALSTYLE
  5
26C
102
{ACAD_REACTORS
330
267
102
}
330
267
100
AcDbVisualStyle
  2
2dWireframe
 70
     4
 71
     0
 72
     2
 73
     0
 90
        0
 40
-0.6
 41
-30.0
 62
     5
 63
     7
421
 16777215
 74
     1
 91
        4
 64
     7
 65
   257
 75
     1
175
     1
 42
1.0
 92
        0
 66
   257
 43
1.0
 76
     1
 77
     6
 78
     2
 67
     7
 79
     5
170
     0
171
     0
290
     0
174
     0
 93
        1
 44
0.0
173
     0
291
     0
 45
0.0
  0
VISUALSTYLE
  5
26E
102
{ACAD_REACTORS
330
267
102
}
330
267
100
AcDbVisualStyle
  2
3D Hidden
 70
     6
 71
     1
 72
     2
 73
     2
 90
        0
 40
-0.6
 41
-30.0
 62
     5
 63
     7
421
 16777215
 74
     2
 91
        2
 64
     7
 65
   257
 75
     2
175
     1
 42
40.0
 92
        0
 66
   257
 43
1.0
 76
     1
 77
     6
 78
     2
 67
     7
 79
     3
170
     0
171
     0
290
     0
174
     0
 93
        1
 44
0.0
173
     0
291
     0
 45
0.0
  0
VISUALSTYLE
  5
26D
102
{ACAD_REACTORS
330
267
102
}
330
267
100
AcDbVisualStyle
  2
3dWireframe
 70
     5
 71
     0
 72
     2
 73
     0
 90
        0
 40
-0.6
 41
-30.0
 62
     5
 63
     7
421
 16777215
 74
     1
 91
        4
 64
     7
 65
   257
 75
     1
175
     1
 42
1.0
 92
        0
 66
   257
 43
1.0
 76
     1
 77
     6
 78
     2
 67
     7
 79
     5
170
     0
171
     0
290
     0
174
     0
 93
        1
 44
0.0
173
     0
291
     0
 45
0.0
  0
VISUALSTYLE
  5
26F
102
{ACAD_REACTORS
330
267
102
}
330
267
100
AcDbVisualStyle
  2
Basic
 70
     7
 71
     1
 72
     0
 73
     1
 90
        0
 40
-0.6
 41
-30.0
 62
     5
 63
     7
421
 16777215
 74
     0
 91
        4
 64
     7
 65
   257
 75
     1
175
     1
 42
1.0
 92
        8
 66
     7
 43
1.0
 76
     1
 77
     6
 78
     2
 67
     7
 79
     5
170
     0
171
     0
290
     0
174
     0
 93
        1
 44
0.0
173
     0
291
     1
 45
0.0
  0
VISUALSTYLE
  5
273
102
{ACAD_REACTORS
330
267
102
}
330
267
100
AcDbVisualStyle
  2
Brighten
 70
    12
 71
     2
 72
     2
 73
     0
 90
        0
 40
-0.6
 41
-30.0
 62
     5
 63
     7
421
 16777215
 74
     1
 91
        4
 64
     7
 65
   257
 75
     1
175
     1
 42
1.0
 92
        8
 66
     7
 43
1.0
 76
     1
 77
     6
 78
     2
 67
     7
 79
     5
170
     0
171
     0
290
     0
174
     0
 93
        1
 44
50.0
173
     0
291
     1
 45
0.0
  0
VISUALSTYLE
  5
277
102
{ACAD_REACTORS
330
267
102
}
330
267
100
AcDbVisualStyle
  2
ColorChange
 70
    16
 71
     2
 72
     2
 73
     3
 90
        0
 40
-0.6
 41
-30.0
 62
     5
 63
     8
421
  8421504
 74
     1
 91
        4
 64
     7
 65
   257
 75
     1
175
     1
 42
1.0
 92
        8
 66
     8
424
  8421504
 43
1.0
 76
     1
 77
     6
 78
     2
 67
     7
 79
     5
170
     0
171
     0
290
     0
174
     0
 93
        1
 44
0.0
173
     0
291
     1
 45
0.0
  0
VISUALSTYLE
  5
271
102
{ACAD_REACTORS
330
267
102
}
330
267
100
AcDbVisualStyle
  2
Conceptual
 70
     9
 71
     3
 72
     2
 73
     0
 90
        0
 40
-0.6
 41
-30.0
 62
     5
 63
     7
421
 16777215
 74
     2
 91
        2
 64
     7
 65
   257
 75
     1
175
     1
 42
40.0
 92
        8
 66
     7
 43
1.0
 76
     1
 77
     6
 78
     2
 67
     7
 79
     3
170
     0
171
     0
290
     0
174
     0
 93
        1
 44
0.0
173
     0
291
     0
 45
0.0
  0
VISUALSTYLE
  5
272
102
{ACAD_REACTORS
330
267
102
}
330
267
100
AcDbVisualStyle
  2
Dim
 70
    11
 71
     2
 72
     2
 73
     0
 90
        0
 40
-0.6
 41
-30.0
 62
     5
 63
     7
421
 16777215
 74
     1
 91
        4
 64
     7
 65
   257
 75
     1
175
     1
 42
1.0
 92
        8
 66
     7
 43
1.0
 76
     1
 77
     6
 78
     2
 67
     7
 79
     5
170
     0
171
     0
290
     0
174
     0
 93
        1
 44
-50.0
173
     0
291
     1
 45
0.0
  0
VISUALSTYLE
  5
F14
102
{ACAD_REACTORS
330
267
102
}
330
267
100
AcDbVisualStyle
  2
EdgeColorOff
 70
    22
 71
     2
 72
     2
 73
     0
 90
        0
 40
0.6
 41
30.0
 62
     5
 63
     7
421
 16777215
 74
     1
 91
        4
 64
     7
 65
   257
 75
     1
175
     1
 42
1.0
 92
        8
 66
     7
 43
1.0
 76
     1
 77
     6
 78
     2
 67
     7
 79
     5
170
     0
171
     0
290
     0
174
     0
 93
        1
 44
0.0
173
     0
291
     1
 45
0.0
  0
VISUALSTYLE
  5
276
102
{ACAD_REACTORS
330
267
102
}
330
267
100
AcDbVisualStyle
  2
Facepattern
 70
    15
 71
     2
 72
     2
 73
     0
 90
        0
 40
-0.6
 41
-30.0
 62
     5
 63
     7
421
 16777215
 74
     1
 91
        4
 64
     7
 65
   257
 75
     1
175
     1
 42
1.0
 92
        8
 66
     7
 43
1.0
 76
     1
 77
     6
 78
     2
 67
     7
 79
     5
170
     0
171
     0
290
     0
174
     0
 93
        1
 44
0.0
173
     0
291
     1
 45
0.0
  0
VISUALSTYLE
  5
268
102
{ACAD_REACTORS
330
267
102
}
330
267
100
AcDbVisualStyle
  2
Flat
 70
     0
 71
     2
 72
     1
 73
     1
 90
        2
 40
-0.6
 41
30.0
 62
     5
 63
     7
421
 16777215
 74
     0
 91
        4
 64
     7
 65
   257
 75
     1
175
     1
 42
1.0
 92
        8
 66
     7
 43
1.0
 76
     1
 77
     6
 78
     2
 67
     7
 79
     5
170
     0
171
     0
290
     0
174
     0
 93
       13
 44
0.0
173
     0
291
     1
 45
0.0
  0
VISUALSTYLE
  5
269
102
{ACAD_REACTORS
330
267
102
}
330
267
100
AcDbVisualStyle
  2
FlatWithEdges
 70
     1
 71
     2
 72
     1
 73
     1
 90
        2
 40
-0.6
 41
30.0
 62
     5
 63
     7
421
 16777215
 74
     1
 91
        4
 64
     7
 65
   257
 75
     1
175
     1
 42
1.0
 92
        0
 66
   257
 43
1.0
 76
     1
 77
     6
 78
     2
 67
     7
 79
     5
170
     0
171
     0
290
     0
174
     0
 93
       13
 44
0.0
173
     0
291
     1
 45
0.0
  0
VISUALSTYLE
  5
26A
102
{ACAD_REACTORS
330
267
102
}
330
267
100
AcDbVisualStyle
  2
Gouraud
 70
     2
 71
     2
 72
     2
 73
     1
 90
        2
 40
-0.6
 41
30.0
 62
     5
 63
     7
421
 16777215
 74
     0
 91
        4
 64
     7
 65
   257
 75
     1
175
     1
 42
1.0
 92
        0
 66
     7
 43
1.0
 76
     1
 77
     6
 78
     2
 67
     7
 79
     5
170
     0
171
     0
290
     0
174
     0
 93
       13
 44
0.0
173
     0
291
     1
 45
0.0
  0
VISUALSTYLE
  5
26B
102
{ACAD_REACTORS
330
267
102
}
330
267
100
AcDbVisualStyle
  2
GouraudWithEdges
 70
     3
 71
     2
 72
     2
 73
     1
 90
        2
 40
-0.6
 41
30.0
 62
     5
 63
     7
421
 16777215
 74
     1
 91
        4
 64
     7
 65
   257
 75
     1
175
     1
 42
1.0
 92
        0
 66
   257
 43
1.0
 76
     1
 77
     6
 78
     2
 67
     7
 79
     5
170
     0
171
     0
290
     0
174
     0
 93
       13
 44
0.0
173
     0
291
     1
 45
0.0
  0
VISUALSTYLE
  5
F11
102
{ACAD_REACTORS
330
267
102
}
330
267
100
AcDbVisualStyle
  2
Hidden
 70
     6
 71
     1
 72
     2
 73
     2
 90
        0
 40
0.6
 41
30.0
 62
     5
 63
     7
421
 16777215
 74
     2
 91
        2
 64
     7
 65
   257
 75
     2
175
     1
 42
40.0
 92
        0
 66
   257
 43
1.0
 76
     1
 77
     6
 78
     2
 67
     7
 79
     3
170
     0
171
     0
290
     0
174
     0
 93
        1
 44
0.0
173
     0
291
     0
 45
0.0
  0
VISUALSTYLE
  5
F12
102
{ACAD_REACTORS
330
267
102
}
330
267
100
AcDbVisualStyle
  2
JitterOff
 70
    20
 71
     2
 72
     2
 73
     0
 90
        0
 40
0.6
 41
30.0
 62
     5
 63
     7
421
 16777215
 74
     1
 91
        4
 64
     7
 65
   257
 75
     1
175
     1
 42
1.0
 92
       10
 66
     7
 43
1.0
 76
     1
 77
     6
 78
     2
 67
     7
 79
     5
170
     0
171
     0
290
     0
174
     0
 93
        1
 44
0.0
173
     0
291
     1
 45
0.0
  0
VISUALSTYLE
  5
275
102
{ACAD_REACTORS
330
267
102
}
330
267
100
AcDbVisualStyle
  2
Linepattern
 70
    14
 71
     2
 72
     2
 73
     0
 90
        0
 40
-0.6
 41
-30.0
 62
     5
 63
     7
421
 16777215
 74
     1
 91
        4
 64
     7
 65
   257
 75
     7
175
     7
 42
1.0
 92
        8
 66
     7
 43
1.0
 76
     1
 77
     6
 78
     2
 67
     7
 79
     5
170
     0
171
     0
290
     0
174
     0
 93
        1
 44
0.0
173
     0
291
     1
 45
0.0
  0
VISUALSTYLE
  5
F13
102
{ACAD_REACTORS
330
267
102
}
330
267
100
AcDbVisualStyle
  2
OverhangOff
 70
    21
 71
     2
 72
     2
 73
     0
 90
        0
 40
0.6
 41
30.0
 62
     5
 63
     7
421
 16777215
 74
     1
 91
        4
 64
     7
 65
   257
 75
     1
175
     1
 42
1.0
 92
        9
 66
     7
 43
1.0
 76
     1
 77
     6
 78
     2
 67
     7
 79
     5
170
     0
171
     0
290
     0
174
     0
 93
        1
 44
0.0
173
     0
291
     1
 45
0.0
  0
VISUALSTYLE
  5
270
102
{ACAD_REACTORS
330
267
102
}
330
267
100
AcDbVisualStyle
  2
Realistic
 70
     8
 71
     2
 72
     2
 73
     0
 90
        0
 40
-0.6
 41
-30.0
 62
     5
 63
     7
421
 16777215
 74
     1
 91
        0
 64
     7
 65
   257
 75
     1
175
     1
 42
1.0
 92
        8
 66
     8
424
  7895160
 43
1.0
 76
     1
 77
     6
 78
     2
 67
     7
 79
     5
170
     0
171
     0
290
     0
174
     0
 93
       13
 44
0.0
173
     0
291
     0
 45
0.0
  0
VISUALSTYLE
  5
F19
102
{ACAD_REACTORS
330
267
102
}
330
267
100
AcDbVisualStyle
  2
Shaded
 70
    27
 71
     2
 72
     2
 73
     1
 90
        2
 40
0.6
 41
30.0
 62
     5
 63
     7
421
 16777215
 74
     0
 91
        4
 64
     7
 65
   257
 75
     1
175
     1
 42
1.0
 92
        8
 66
   257
 43
1.0
 76
     1
 77
     6
 78
     2
 67
     8
425
  7895160
 79
     3
170
     0
171
     0
290
     0
174
     0
 93
        5
 44
0.0
173
     0
291
     0
 45
0.0
  0
VISUALSTYLE
  5
F18
102
{ACAD_REACTORS
330
267
102
}
330
267
100
AcDbVisualStyle
  2
Shaded with edges
 70
    26
 71
     2
 72
     2
 73
     1
 90
        2
 40
0.6
 41
30.0
 62
     5
 63
     7
421
 16777215
 74
     1
 91
       10
 64
     7
 65
   257
 75
     2
175
     1
 42
1.0
 92
        8
 66
   257
 43
1.0
 76
     1
 77
     6
 78
     2
 67
     7
 79
     3
170
     0
171
     0
290
     0
174
     0
 93
        5
 44
0.0
173
     0
291
     0
 45
0.0
  0
VISUALSTYLE
  5
F15
102
{ACAD_REACTORS
330
267
102
}
330
267
100
AcDbVisualStyle
  2
Shades of Gray
 70
    23
 71
     2
 72
     2
 73
     3
 90
        0
 40
0.6
 41
30.0
 62
     5
 63
     7
421
 16777215
 74
     2
 91
        2
 64
     7
 65
     7
 75
     1
175
     1
 42
40.0
 92
        8
 66
     7
 43
1.0
 76
     1
 77
     6
 78
     2
 67
     7
 79
     3
170
     0
171
     0
290
     0
174
     0
 93
        1
 44
0.0
173
     0
291
     0
 45
0.0
  0
VISUALSTYLE
  5
F16
102
{ACAD_REACTORS
330
267
102
}
330
267
100
AcDbVisualStyle
  2
Sketchy
 70
    24
 71
     1
 72
     2
 73
     2
 90
        0
 40
0.6
 41
30.0
 62
     5
 63
     7
421
 16777215
 74
     2
 91
        2
 64
     7
 65
     7
 75
     1
175
     1
 42
40.0
 92
       11
 66
     7
 43
1.0
 76
     1
 77
     6
 78
     2
 67
     7
 79
     6
170
     0
171
     0
290
     0
174
     0
 93
        1
 44
0.0
173
     0
291
     0
 45
0.0
  0
VISUALSTYLE
  5
274
102
{ACAD_REACTORS
330
267
102
}
330
267
100
AcDbVisualStyle
  2
Thicken
 70
    13
 71
     2
 72
     2
 73
     0
 90
        0
 40
-0.6
 41
-30.0
 62
     5
 63
     7
421
 16777215
 74
     1
 91
        4
 64
     7
 65
   257
 75
     1
175
     1
 42
1.0
 92
       12
 66
     7
 43
1.0
 76
     1
 77
     6
 78
     2
 67
     7
 79
     5
170
     0
171
     0
290
     0
174
     0
 93
        1
 44
0.0
173
     0
291
     1
 45
0.0
  0
VISUALSTYLE
  5
F10
102
{ACAD_REACTORS
330
267
102
}
330
267
100
AcDbVisualStyle
  2
Wireframe
 70
     5
 71
     0
 72
     2
 73
     0
 90
        0
 40
0.6
 41
30.0
 62
     5
 63
     7
421
 16777215
 74
     1
 91
        4
 64
     7
 65
   257
 75
     1
175
     1
 42
1.0
 92
        0
 66
   257
 43
1.0
 76
     1
 77
     6
 78
     2
 67
     7
 79
     3
170
     0
171
     0
290
     0
174
     0
 93
        1
 44
0.0
173
     0
291
     0
 45
0.0
  0
VISUALSTYLE
  5
F17
102
{ACAD_REACTORS
330
267
102
}
330
267
100
AcDbVisualStyle
  2
X-Ray
 70
    25
 71
     2
 72
     2
 73
     1
 90
        1
 40
0.5
 41
30.0
 62
     5
 63
     7
421
 16777215
 74
     1
 91
        0
 64
     7
 65
   257
 75
     1
175
     1
 42
1.0
 92
        8
 66
     7
 43
1.0
 76
     1
 77
     6
 78
     2
 67
     7
 79
     3
170
     0
171
     0
290
     0
174
     0
 93
       13
 44
0.0
173
     0
291
     0
 45
0.0
  0
DICTIONARYVAR
  5
331
102
{ACAD_REACTORS
330
330
102
}
330
330
100
DictionaryVariables
280
     0
  1
1:1
  0
DICTIONARYVAR
  5
598D
102
{ACAD_REACTORS
330
330
102
}
330
330
100
DictionaryVariables
280
     0
  1
Standard
  0
DICTIONARYVAR
  5
335
102
{ACAD_REACTORS
330
330
102
}
330
330
100
DictionaryVariables
280
     0
  1
Standard
  0
DICTIONARYVAR
  5
528A
102
{ACAD_REACTORS
330
330
102
}
330
330
100
DictionaryVariables
280
     0
  1
ByLayer
  0
DICTIONARYVAR
  5
13B4
102
{ACAD_REACTORS
330
330
102
}
330
330
100
DictionaryVariables
280
     0
  1
0
  0
DICTIONARY
  5
81C0
330
279
100
AcDbDictionary
280
     1
281
     1
  3
ACAD_ROUNDTRIP_2008_TABLESTYLE_CELLSTYLEMAP
360
81C1
  0
CELLSTYLEMAP
  5
81C1
102
{ACAD_REACTORS
330
81C0
102
}
330
81C0
100
AcDbCellStyleMap
 90
        3
300
CELLSTYLE
  1
TABLEFORMAT_BEGIN
 90
        5
170
     1
 91
        0
 92
    32768
 62
   257
 93
        1
300
CONTENTFORMAT
  1
CONTENTFORMAT_BEGIN
 90
        0
 91
        0
 92
        4
 93
        0
300

 40
0.0
140
1.0
 94
        5
 62
     0
340
17
144
6.0
309
CONTENTFORMAT_END
171
     1
301
MARGIN
  1
CELLMARGIN_BEGIN
 40
0.06
 40
0.06
 40
0.06
 40
0.06
 40
0.18
 40
0.18
309
CELLMARGIN_END
 94
        6
 95
        1
302
GRIDFORMAT
  1
GRIDFORMAT_BEGIN
 90
        0
 91
        1
 62
     0
 92
       -2
340
0
 93
        0
 40
0.045
309
GRIDFORMAT_END
 95
        2
302
GRIDFORMAT
  1
GRIDFORMAT_BEGIN
 90
        0
 91
        1
 62
     0
 92
       -2
340
0
 93
        0
 40
0.045
309
GRIDFORMAT_END
 95
        4
302
GRIDFORMAT
  1
GRIDFORMAT_BEGIN
 90
        0
 91
        1
 62
     0
 92
       -2
340
0
 93
        0
 40
0.045
309
GRIDFORMAT_END
 95
        8
302
GRIDFORMAT
  1
GRIDFORMAT_BEGIN
 90
        0
 91
        1
 62
     0
 92
       -2
340
0
 93
        0
 40
0.045
309
GRIDFORMAT_END
 95
       16
302
GRIDFORMAT
  1
GRIDFORMAT_BEGIN
 90
        0
 91
        1
 62
     0
 92
       -2
340
0
 93
        0
 40
0.045
309
GRIDFORMAT_END
 95
       32
302
GRIDFORMAT
  1
GRIDFORMAT_BEGIN
 90
        0
 91
        1
 62
     0
 92
       -2
340
0
 93
        0
 40
0.045
309
GRIDFORMAT_END
309
TABLEFORMAT_END
  1
CELLSTYLE_BEGIN
 90
        1
 91
        1
300
_TITLE
309
CELLSTYLE_END
300
CELLSTYLE
  1
TABLEFORMAT_BEGIN
 90
        5
170
     1
 91
        0
 92
        0
 62
   257
 93
        1
300
CONTENTFORMAT
  1
CONTENTFORMAT_BEGIN
 90
        0
 91
        0
 92
        4
 93
        0
300

 40
0.0
140
1.0
 94
        5
 62
     0
340
17
144
4.5
309
CONTENTFORMAT_END
171
     1
301
MARGIN
  1
CELLMARGIN_BEGIN
 40
0.06
 40
0.06
 40
0.06
 40
0.06
 40
0.18
 40
0.18
309
CELLMARGIN_END
 94
        6
 95
        1
302
GRIDFORMAT
  1
GRIDFORMAT_BEGIN
 90
        0
 91
        1
 62
     0
 92
       -2
340
0
 93
        0
 40
0.045
309
GRIDFORMAT_END
 95
        2
302
GRIDFORMAT
  1
GRIDFORMAT_BEGIN
 90
        0
 91
        1
 62
     0
 92
       -2
340
0
 93
        0
 40
0.045
309
GRIDFORMAT_END
 95
        4
302
GRIDFORMAT
  1
GRIDFORMAT_BEGIN
 90
        0
 91
        1
 62
     0
 92
       -2
340
0
 93
        0
 40
0.045
309
GRIDFORMAT_END
 95
        8
302
GRIDFORMAT
  1
GRIDFORMAT_BEGIN
 90
        0
 91
        1
 62
     0
 92
       -2
340
0
 93
        0
 40
0.045
309
GRIDFORMAT_END
 95
       16
302
GRIDFORMAT
  1
GRIDFORMAT_BEGIN
 90
        0
 91
        1
 62
     0
 92
       -2
340
0
 93
        0
 40
0.045
309
GRIDFORMAT_END
 95
       32
302
GRIDFORMAT
  1
GRIDFORMAT_BEGIN
 90
        0
 91
        1
 62
     0
 92
       -2
340
0
 93
        0
 40
0.045
309
GRIDFORMAT_END
309
TABLEFORMAT_END
  1
CELLSTYLE_BEGIN
 90
        2
 91
        1
300
_HEADER
309
CELLSTYLE_END
300
CELLSTYLE
  1
TABLEFORMAT_BEGIN
 90
        5
170
     1
 91
        0
 92
        0
 62
   257
 93
        1
300
CONTENTFORMAT
  1
CONTENTFORMAT_BEGIN
 90
        0
 91
        0
 92
        4
 93
        0
300

 40
0.0
140
1.0
 94
        2
 62
     0
340
17
144
4.5
309
CONTENTFORMAT_END
171
     1
301
MARGIN
  1
CELLMARGIN_BEGIN
 40
0.06
 40
0.06
 40
0.06
 40
0.06
 40
0.18
 40
0.18
309
CELLMARGIN_END
 94
        6
 95
        1
302
GRIDFORMAT
  1
GRIDFORMAT_BEGIN
 90
        0
 91
        1
 62
     0
 92
       -2
340
0
 93
        0
 40
0.045
309
GRIDFORMAT_END
 95
        2
302
GRIDFORMAT
  1
GRIDFORMAT_BEGIN
 90
        0
 91
        1
 62
     0
 92
       -2
340
0
 93
        0
 40
0.045
309
GRIDFORMAT_END
 95
        4
302
GRIDFORMAT
  1
GRIDFORMAT_BEGIN
 90
        0
 91
        1
 62
     0
 92
       -2
340
0
 93
        0
 40
0.045
309
GRIDFORMAT_END
 95
        8
302
GRIDFORMAT
  1
GRIDFORMAT_BEGIN
 90
        0
 91
        1
 62
     0
 92
       -2
340
0
 93
        0
 40
0.045
309
GRIDFORMAT_END
 95
       16
302
GRIDFORMAT
  1
GRIDFORMAT_BEGIN
 90
        0
 91
        1
 62
     0
 92
       -2
340
0
 93
        0
 40
0.045
309
GRIDFORMAT_END
 95
       32
302
GRIDFORMAT
  1
GRIDFORMAT_BEGIN
 90
        0
 91
        1
 62
     0
 92
       -2
340
0
 93
        0
 40
0.045
309
GRIDFORMAT_END
309
TABLEFORMAT_END
  1
CELLSTYLE_BEGIN
 90
        3
 91
        2
300
_DATA
309
CELLSTYLE_END
  0
ENDSEC
  0
EOF
