  0
SECTION
  2
HEADER
  9
$ACADVER
  1
AC1021
  9
$ACADMAINTVER
 70
    25
  9
$DWGCODEPAGE
  3
ANSI_932
  9
$LASTSAVEDBY
  1
tform
  9
$INSBASE
 10
0.0
 20
0.0
 30
0.0
  9
$EXTMIN
 10
0.0
 20
0.0
 30
0.0
  9
$EXTMAX
 10
593.9999999999999
 20
420.0
 30
0.0
  9
$LIMMIN
 10
0.0
 20
0.0
  9
$LIMMAX
 10
594.0
 20
419.9999999999996
  9
$ORTHOMODE
 70
     1
  9
$REGENMODE
 70
     1
  9
$FILLMODE
 70
     1
  9
$QTEXTMODE
 70
     0
  9
$MIRRTEXT
 70
     1
  9
$LTSCALE
 40
2.0
  9
$ATTMODE
 70
     1
  9
$TEXTSIZE
 40
2.5
  9
$TRACEWID
 40
1.0
  9
$TEXTSTYLE
  7
ＭＳ ゴシック
  9
$CLAYER
  8
寸法
  9
$CELTYPE
  6
Continuous
  9
$CECOLOR
 62
   256
  9
$CELTSCALE
 40
1.0
  9
$DISPSILH
 70
     0
  9
$DIMSCALE
 40
1.0
  9
$DIMASZ
 40
1.5
  9
$DIMEXO
 40
5.0
  9
$DIMDLI
 40
0.9999999999999999
  9
$DIMRND
 40
0.0
  9
$DIMDLE
 40
0.0
  9
$DIMEXE
 40
0.0
  9
$DIMTP
 40
0.0
  9
$DIMTM
 40
0.0
  9
$DIMTXT
 40
5.0
  9
$DIMCEN
 40
0.0
  9
$DIMTSZ
 40
0.0
  9
$DIMTOL
 70
     0
  9
$DIMLIM
 70
     0
  9
$DIMTIH
 70
     0
  9
$DIMTOH
 70
     0
  9
$DIMSE1
 70
     0
  9
$DIMSE2
 70
     0
  9
$DIMTAD
 70
     1
  9
$DIMZIN
 70
    11
  9
$DIMBLK
  1
DOT
  9
$DIMASO
 70
     1
  9
$DIMSHO
 70
     1
  9
$DIMPOST
  1
<>
  9
$DIMAPOST
  1
[]
  9
$DIMALT
 70
     0
  9
$DIMALTD
 70
     1
  9
$DIMALTF
 40
1.0
  9
$DIMLFAC
 40
1.0
  9
$DIMTOFL
 70
     0
  9
$DIMTVP
 40
0.0
  9
$DIMTIX
 70
     1
  9
$DIMSOXD
 70
     0
  9
$DIMSAH
 70
     0
  9
$DIMBLK1
  1

  9
$DIMBLK2
  1

  9
$DIMSTYLE
  2
tfrom線あり
  9
$DIMCLRD
 70
     0
  9
$DIMCLRE
 70
     0
  9
$DIMCLRT
 70
     0
  9
$DIMTFAC
 40
1.0
  9
$DIMGAP
 40
2.0
  9
$DIMJUST
 70
     0
  9
$DIMSD1
 70
     0
  9
$DIMSD2
 70
     0
  9
$DIMTOLJ
 70
     1
  9
$DIMTZIN
 70
    11
  9
$DIMALTZ
 70
    11
  9
$DIMALTTZ
 70
    11
  9
$DIMUPT
 70
     0
  9
$DIMDEC
 70
     0
  9
$DIMTDEC
 70
     1
  9
$DIMALTU
 70
     2
  9
$DIMALTTD
 70
     2
  9
$DIMTXSTY
  7
ＭＳ ゴシック
  9
$DIMAUNIT
 70
     0
  9
$DIMADEC
 70
     2
  9
$DIMALTRND
 40
0.0
  9
$DIMAZIN
 70
     0
  9
$DIMDSEP
 70
    46
  9
$DIMATFIT
 70
     0
  9
$DIMFRAC
 70
     2
  9
$DIMLDRBLK
  1
DOT
  9
$DIMLUNIT
 70
     2
  9
$DIMLWD
 70
    -2
  9
$DIMLWE
 70
    -2
  9
$DIMTMOVE
 70
     0
  9
$DIMFXL
 40
1.0
  9
$DIMFXLON
 70
     0
  9
$DIMJOGANG
 40
0.7853981633974483
  9
$DIMTFILL
 70
     0
  9
$DIMTFILLCLR
 70
     0
  9
$DIMARCSYM
 70
     0
  9
$DIMLTYPE
  6

  9
$DIMLTEX1
  6

  9
$DIMLTEX2
  6

  9
$LUNITS
 70
     2
  9
$LUPREC
 70
     0
  9
$SKETCHINC
 40
0.1
  9
$FILLETRAD
 40
0.0
  9
$AUNITS
 70
     0
  9
$AUPREC
 70
     0
  9
$MENU
  1
acad
  9
$ELEVATION
 40
0.0
  9
$PELEVATION
 40
0.0
  9
$THICKNESS
 40
0.0
  9
$LIMCHECK
 70
     0
  9
$CHAMFERA
 40
0.0
  9
$CHAMFERB
 40
0.0
  9
$CHAMFERC
 40
0.0
  9
$CHAMFERD
 40
0.0
  9
$SKPOLY
 70
     0
  9
$TDCREATE
 40
2447893.375
  9
$TDUCREATE
 40
0.0
  9
$TDUPDATE
 40
2459877.562401736
  9
$TDUUPDATE
 40
2459877.187401736
  9
$TDINDWG
 40
0.0402056134
  9
$TDUSRTIMER
 40
0.0000428588
  9
$USRTIMER
 70
     1
  9
$ANGBASE
 50
0.0
  9
$ANGDIR
 70
     0
  9
$PDMODE
 70
     1
  9
$PDSIZE
 40
-2.0
  9
$PLINEWID
 40
0.0
  9
$SPLFRAME
 70
     0
  9
$SPLINETYPE
 70
     6
  9
$SPLINESEGS
 70
     8
  9
$HANDSEED
  5
84D1
  9
$SURFTAB1
 70
     6
  9
$SURFTAB2
 70
     6
  9
$SURFTYPE
 70
     6
  9
$SURFU
 70
     6
  9
$SURFV
 70
     6
  9
$UCSBASE
  2

  9
$UCSNAME
  2

  9
$UCSORG
 10
0.0
 20
0.0
 30
0.0
  9
$UCSXDIR
 10
1.0
 20
0.0
 30
0.0
  9
$UCSYDIR
 10
0.0
 20
1.0
 30
0.0
  9
$UCSORTHOREF
  2

  9
$UCSORTHOVIEW
 70
     1
  9
$UCSORGTOP
 10
0.0
 20
0.0
 30
0.0
  9
$UCSORGBOTTOM
 10
0.0
 20
0.0
 30
0.0
  9
$UCSORGLEFT
 10
0.0
 20
0.0
 30
0.0
  9
$UCSORGRIGHT
 10
0.0
 20
0.0
 30
0.0
  9
$UCSORGFRONT
 10
0.0
 20
0.0
 30
0.0
  9
$UCSORGBACK
 10
0.0
 20
0.0
 30
0.0
  9
$PUCSBASE
  2

  9
$PUCSNAME
  2

  9
$PUCSORG
 10
0.0
 20
0.0
 30
0.0
  9
$PUCSXDIR
 10
1.0
 20
0.0
 30
0.0
  9
$PUCSYDIR
 10
0.0
 20
1.0
 30
0.0
  9
$PUCSORTHOREF
  2

  9
$PUCSORTHOVIEW
 70
     0
  9
$PUCSORGTOP
 10
0.0
 20
0.0
 30
0.0
  9
$PUCSORGBOTTOM
 10
0.0
 20
0.0
 30
0.0
  9
$PUCSORGLEFT
 10
0.0
 20
0.0
 30
0.0
  9
$PUCSORGRIGHT
 10
0.0
 20
0.0
 30
0.0
  9
$PUCSORGFRONT
 10
0.0
 20
0.0
 30
0.0
  9
$PUCSORGBACK
 10
0.0
 20
0.0
 30
0.0
  9
$USERI1
 70
     0
  9
$USERI2
 70
     0
  9
$USERI3
 70
     0
  9
$USERI4
 70
     0
  9
$USERI5
 70
     0
  9
$USERR1
 40
0.0
  9
$USERR2
 40
0.0
  9
$USERR3
 40
0.0
  9
$USERR4
 40
0.0
  9
$USERR5
 40
0.0
  9
$WORLDVIEW
 70
     1
  9
$SHADEDGE
 70
     3
  9
$SHADEDIF
 70
    70
  9
$TILEMODE
 70
     1
  9
$MAXACTVP
 70
    64
  9
$PINSBASE
 10
0.0
 20
0.0
 30
0.0
  9
$PLIMCHECK
 70
     0
  9
$PEXTMIN
 10
0.0
 20
0.0
 30
0.0
  9
$PEXTMAX
 10
0.0
 20
0.0
 30
0.0
  9
$PLIMMIN
 10
-7.5
 20
-20.0
  9
$PLIMMAX
 10
412.5
 20
277.0
  9
$UNITMODE
 70
     0
  9
$VISRETAIN
 70
     0
  9
$PLINEGEN
 70
     1
  9
$PSLTSCALE
 70
     1
  9
$TREEDEPTH
 70
  3020
  9
$CMLSTYLE
  2
Standard
  9
$CMLJUST
 70
     0
  9
$CMLSCALE
 40
1.0
  9
$PROXYGRAPHICS
 70
     0
  9
$MEASUREMENT
 70
     1
  9
$CELWEIGHT
370
    -1
  9
$ENDCAPS
280
     0
  9
$JOINSTYLE
280
     0
  9
$LWDISPLAY
290
     1
  9
$INSUNITS
 70
     4
  9
$HYPERLINKBASE
  1

  9
$STYLESHEET
  1

  9
$XEDIT
290
     1
  9
$CEPSNTYPE
380
     0
  9
$PSTYLEMODE
290
     1
  9
$FINGERPRINTGUID
  2

  9
$VERSIONGUID
  2

  9
$EXTNAMES
290
     1
  9
$PSVPSCALE
 40
0.0
  9
$OLESTARTUP
290
     0
  9
$SORTENTS
280
   127
  9
$INDEXCTL
280
     0
  9
$HIDETEXT
280
     1
  9
$XCLIPFRAME
290
     0
  9
$HALOGAP
280
     0
  9
$OBSCOLOR
 70
   257
  9
$OBSLTYPE
280
     0
  9
$INTERSECTIONDISPLAY
280
     0
  9
$INTERSECTIONCOLOR
 70
   257
  9
$DIMASSOC
280
     2
  9
$PROJECTNAME
  1

  9
$CAMERADISPLAY
290
     0
  9
$LENSLENGTH
 40
50.0
  9
$CAMERAHEIGHT
 40
0.0
  9
$STEPSPERSEC
 40
2.0
  9
$STEPSIZE
 40
6.0
  9
$3DDWFPREC
 40
2.0
  9
$PSOLWIDTH
 40
0.25
  9
$PSOLHEIGHT
 40
4.0
  9
$LOFTANG1
 40
1.570796326794897
  9
$LOFTANG2
 40
1.570796326794897
  9
$LOFTMAG1
 40
0.0
  9
$LOFTMAG2
 40
0.0
  9
$LOFTPARAM
 70
     7
  9
$LOFTNORMALS
280
     1
  9
$LATITUDE
 40
37.795
  9
$LONGITUDE
 40
-122.394
  9
$NORTHDIRECTION
 40
0.0
  9
$TIMEZONE
 70
 -8000
  9
$LIGHTGLYPHDISPLAY
280
     1
  9
$TILEMODELIGHTSYNCH
280
     1
  9
$SOLIDHIST
280
     1
  9
$SHOWHIST
280
     1
  9
$DWFFRAME
280
     2
  9
$DGNFRAME
280
     2
  9
$REALWORLDSCALE
290
     1
  9
$INTERFERECOLOR
 62
   256
  9
$CSHADOW
280
     0
  9
$SHADOWPLANELOCATION
 40
0.0
  0
ENDSEC
  0
SECTION
  2
CLASSES
  0
CLASS
  1
LWPOLYLINE
  2
AcDbPolyline
  3
ObjectDBX Classes
 90
        0
 91
        1
280
     0
281
     1
  0
CLASS
  1
IMAGE
  2
AcDbRasterImage
  3
ISM
 90
      127
 91
        4
280
     0
281
     1
  0
CLASS
  1
OLE2FRAME
  2
AcDbOle2Frame
  3
ObjectDBX Classes
 90
        0
 91
        1
280
     0
281
     1
  0
CLASS
  1
HATCH
  2
AcDbHatch
  3
ObjectDBX Classes
 90
        0
 91
        1
280
     0
281
     1
  0
CLASS
  1
DICTIONARYVAR
  2
AcDbDictionaryVar
  3
ObjectDBX Classes
 90
        0
 91
        3
280
     0
281
     0
  0
CLASS
  1
RASTERVARIABLES
  2
AcDbRasterVariables
  3
ISM
 90
        0
 91
        3
280
     0
281
     0
  0
CLASS
  1
IMAGEDEF
  2
AcDbRasterImageDef
  3
ISM
 90
        0
 91
        3
280
     0
281
     0
  0
CLASS
  1
IMAGEDEF_REACTOR
  2
AcDbRasterImageDefReactor
  3
ISM
 90
        1
 91
        3
280
     0
281
     0
  0
CLASS
  1
IDBUFFER
  2
AcDbIdBuffer
  3
ObjectDBX Classes
 90
        0
 91
        3
280
     0
281
     0
  0
CLASS
  1
SPATIAL_FILTER
  2
AcDbSpatialFilter
  3
ObjectDBX Classes
 90
        0
 91
        3
280
     0
281
     0
  0
CLASS
  1
XRECORD
  2
AcDbXrecord
  3
ObjectDBX Classes
 90
        0
 91
        1
280
     0
281
     0
  0
CLASS
  1
SORTENTSTABLE
  2
AcDbSortentsTable
  3
ObjectDBX Classes
 90
        0
 91
        3
280
     0
281
     0
  0
CLASS
  1
LAYER_INDEX
  2
AcDbLayerIndex
  3
ObjectDBX Classes
 90
        0
 91
        3
280
     0
281
     0
  0
CLASS
  1
SPATIAL_INDEX
  2
AcDbSpatialIndex
  3
AutoCAD 2000
 90
        0
 91
        3
280
     0
281
     0
  0
CLASS
  1
OBJECT_PTR
  2
CAseDLPNTableRecord
  3
ASE-LPNTableRecord
 90
        1
 91
        3
280
     0
281
     0
  0
CLASS
  1
LAYOUT
  2
AcDbLayout
  3
ObjectDBX Classes
 90
        0
 91
        1
280
     0
281
     0
  0
CLASS
  1
PLOTSETTINGS
  2
AcDbPlotSettings
  3
ObjectDBX Classes
 90
        0
 91
        3
280
     0
281
     0
  0
CLASS
  1
ACDBDICTIONARYWDFLT
  2
AcDbDictionaryWithDefault
  3
ObjectDBX Classes
 90
        0
 91
        3
280
     0
281
     0
  0
CLASS
  1
ACDBPLACEHOLDER
  2
AcDbPlaceHolder
  3
ObjectDBX Classes
 90
        0
 91
        1
280
     0
281
     0
  0
CLASS
  1
SCALE
  2
AcDbScale
  3
ObjectDBX Classes
 90
     1153
 91
        3
280
     0
281
     0
  0
CLASS
  1
MATERIAL
  2
AcDbMaterial
  3
ObjectDBX Classes
 90
     1153
 91
        3
280
     0
281
     0
  0
CLASS
  1
VISUALSTYLE
  2
AcDbVisualStyle
  3
ObjectDBX Classes
 90
     4095
 91
        3
280
     0
281
     0
  0
CLASS
  1
TABLESTYLE
  2
AcDbTableStyle
  3
ObjectDBX Classes
 90
     4095
 91
        3
280
     0
281
     0
  0
CLASS
  1
DIMASSOC
  2
AcDbDimAssoc
  3
"AcDbDimAssoc|Product Desc:     AcDim ARX App For Dimension|Company:          Autodesk, Inc.|WEB Address:      www.autodesk.com"
 90
        0
 91
        3
280
     0
281
     0
  0
CLASS
  1
CELLSTYLEMAP
  2
AcDbCellStyleMap
  3
ObjectDBX Classes
 90
     1152
 91
        3
280
     0
281
     0
  0
CLASS
  1
SUN
  2
AcDbSun
  3
SCENEOE
 90
     1153
 91
        3
280
     0
281
     0
  0
CLASS
  1
MLEADERSTYLE
  2
AcDbMLeaderStyle
  3
ACDB_MLEADERSTYLE_CLASS
 90
     4095
 91
        3
280
     0
281
     0
  0
CLASS
  1
FIELD
  2
AcDbField
  3
ObjectDBX Classes
 90
     1152
 91
        3
280
     0
281
     0
  0
CLASS
  1
FIELDLIST
  2
AcDbFieldList
  3
ObjectDBX Classes
 90
     1152
 91
        3
280
     0
281
     0
  0
ENDSEC
  0
SECTION
  2
TABLES
  0
TABLE
  2
VPORT
  5
7
330
0
100
AcDbSymbolTable
 70
     1
  0
VPORT
  5
15
330
7
100
AcDbSymbolTableRecord
100
AcDbViewportTableRecord
  2
*ACTIVE
 70
     0
 10
0.0
 20
0.0
 11
1.0
 21
1.0
 12
296.9999999999999
 22
0.0000000000001137
 13
0.0
 23
0.0
 14
1.0
 24
1.0
 15
0.0
 25
0.0
 16
0.0
 26
0.0
 36
1.0
 17
0.0
 27
209.9999999999999
 37
0.0
 40
428.4
 41
2.120713305898491
 42
50.0
 43
0.0
 44
0.0
 50
0.0
 51
0.0
 71
    16
 72
  2000
 73
     1
 74
     1
 75
     1
 76
     0
 77
     0
 78
     0
281
     0
 65
     1
110
0.0
120
0.0
130
0.0
111
1.0
121
0.0
131
0.0
112
0.0
122
1.0
132
0.0
 79
     1
146
0.0
348
26C
 60
     3
 61
     5
292
     1
282
     1
141
0.0
142
0.0
 63
   256
361
F1A
  0
ENDTAB
  0
TABLE
  2
LTYPE
  5
4
330
0
100
AcDbSymbolTable
 70
     3
  0
LTYPE
  5
11
330
4
100
AcDbSymbolTableRecord
100
AcDbLinetypeTableRecord
  2
ByBlock
 70
     0
  3

 72
    65
 73
     0
 40
0.0
  0
LTYPE
  5
12
330
4
100
AcDbSymbolTableRecord
100
AcDbLinetypeTableRecord
  2
ByLayer
 70
     0
  3
Solid line
 72
    65
 73
     0
 40
0.0
  0
LTYPE
  5
13
330
4
100
AcDbSymbolTableRecord
100
AcDbLinetypeTableRecord
  2
Continuous
 70
     0
  3
Solid line
 72
    65
 73
     0
 40
0.0
  0
LTYPE
  5
529A
330
4
100
AcDbSymbolTableRecord
100
AcDbLinetypeTableRecord
  2
CENTER
 70
     0
  3
----------  --  ----------  --  
 72
    65
 73
     4
 40
20.0
 49
12.5
 74
     0
 49
-2.5
 74
     0
 49
2.5
 74
     0
 49
-2.5
 74
     0
  0
LTYPE
  5
529B
330
4
100
AcDbSymbolTableRecord
100
AcDbLinetypeTableRecord
  2
HIDDEN
 70
     0
  3
Hidden _ _ _ _ _ _ _ _ _ _ _ _ _ _ _ _ _ _ _ _ 
 72
    65
 73
     2
 40
9.524999999999999
 49
6.35
 74
     0
 49
-3.175
 74
     0
  0
ENDTAB
  0
TABLE
  2
LAYER
  5
2
102
{ACAD_XDICTIONARY
360
2E1
102
}
330
0
100
AcDbSymbolTable
 70
    11
  0
LAYER
  5
14
330
2
100
AcDbSymbolTableRecord
100
AcDbLayerTableRecord
  2
0
 70
     0
 62
     7
  6
Continuous
370
    -3
390
1D
347
266
  0
LAYER
  5
4A
330
2
100
AcDbSymbolTableRecord
100
AcDbLayerTableRecord
  2
Defpoints
 70
     0
 62
    -7
  6
Continuous
290
     0
370
    -3
390
1D
347
266
  0
LAYER
  5
667
330
2
100
AcDbSymbolTableRecord
100
AcDbLayerTableRecord
  2
レイヤー 1
 70
     0
 62
     7
  6
Continuous
370
    -3
390
1D
347
266
  0
LAYER
  5
528F
330
2
100
AcDbSymbolTableRecord
100
AcDbLayerTableRecord
  2
寸法
 70
     0
 62
     7
  6
Continuous
370
    13
390
1D
347
266
1001
AcAecLayerStandard
1000

1000

  0
LAYER
  5
5293
330
2
100
AcDbSymbolTableRecord
100
AcDbLayerTableRecord
  2
テンプレート
 70
     0
 62
     7
  6
Continuous
370
    20
390
1D
347
266
1001
AcAecLayerStandard
1000

1000

  0
LAYER
  5
5294
330
2
100
AcDbSymbolTableRecord
100
AcDbLayerTableRecord
  2
TFORMLOGO
 70
     0
 62
     7
  6
Continuous
370
    20
390
1D
347
266
  0
LAYER
  5
5295
330
2
100
AcDbSymbolTableRecord
100
AcDbLayerTableRecord
  2
PRINT BORDER
 70
     0
 62
     4
  6
Continuous
290
     0
370
    -3
390
1D
347
266
1001
AcAecLayerStandard
1000

1000

  0
LAYER
  5
5298
330
2
100
AcDbSymbolTableRecord
100
AcDbLayerTableRecord
  2
CutoutUnderlay
 70
     0
 62
   254
  6
Continuous
370
    20
390
1D
347
266
1001
AcAecLayerStandard
1000

1000

  0
LAYER
  5
5299
330
2
100
AcDbSymbolTableRecord
100
AcDbLayerTableRecord
  2
CutoutOverlay
 70
     0
 62
     7
  6
Continuous
370
    20
390
1D
347
266
1001
AcAecLayerStandard
1000

1000

  0
LAYER
  5
7445
330
2
100
AcDbSymbolTableRecord
100
AcDbLayerTableRecord
  2
モデル
 70
     0
 62
     7
  6
Continuous
370
    20
390
1D
347
266
1001
AcAecLayerStandard
1000

1000

  0
LAYER
  5
815E
330
2
100
AcDbSymbolTableRecord
100
AcDbLayerTableRecord
  2
Visible
 70
     0
 62
     7
  6
Continuous
370
    35
390
1D
347
266
  0
ENDTAB
  0
TABLE
  2
STYLE
  5
3
330
0
100
AcDbSymbolTable
 70
     5
  0
STYLE
  5
17
330
3
100
AcDbSymbolTableRecord
100
AcDbTextStyleTableRecord
  2
Standard
 70
     0
 40
0.0
 41
1.0
 50
0.0
 71
     0
 42
2.5
  3
txt
  4
BIGFONT.SHX
  0
STYLE
  5
39
330
3
100
AcDbSymbolTableRecord
100
AcDbTextStyleTableRecord
  2
ＭＳ ゴシック
 70
     0
 40
0.0
 41
1.0
 50
0.0
 71
     0
 42
2.5
  3
msgothic.ttc
  4
ＭＳ ゴシック
1001
ACAD
1000
ＭＳ ゴシック
1071
        0
  0
STYLE
  5
8161
330
3
100
AcDbSymbolTableRecord
100
AcDbTextStyleTableRecord
  2
Dimensions
 70
     0
 40
0.0
 41
1.0
 50
0.0
 71
     0
 42
2.5
  3
arial.ttf
  4

1001
ACAD
1000
Arial
1071
      256
  0
STYLE
  5
816B
330
3
100
AcDbSymbolTableRecord
100
AcDbTextStyleTableRecord
  2
Standard 35
 70
     0
 40
0.0
 41
1.0
 50
0.0
 71
     0
 42
2.5
  3
txt
  4

  0
STYLE
  5
816C
330
3
100
AcDbSymbolTableRecord
100
AcDbTextStyleTableRecord
  2
Standard 70
 70
     0
 40
0.0
 41
1.0
 50
0.0
 71
     0
 42
2.5
  3
arial.ttf
  4

1001
ACAD
1000
Arial
1071
      256
  0
ENDTAB
  0
TABLE
  2
VIEW
  5
5
330
0
100
AcDbSymbolTable
 70
     0
  0
ENDTAB
  0
TABLE
  2
UCS
  5
6
330
0
100
AcDbSymbolTable
 70
     0
  0
ENDTAB
  0
TABLE
  2
APPID
  5
8
330
0
100
AcDbSymbolTable
 70
     6
  0
APPID
  5
16
330
8
100
AcDbSymbolTableRecord
100
AcDbRegAppTableRecord
  2
ACAD
 70
     0
  0
APPID
  5
7AC
330
8
100
AcDbSymbolTableRecord
100
AcDbRegAppTableRecord
  2
AcAecLayerStandard
 70
     0
  0
APPID
  5
5992
330
8
100
AcDbSymbolTableRecord
100
AcDbRegAppTableRecord
  2
ACAD_MLEADERVER
 70
     0
  0
APPID
  5
6C9A
330
8
100
AcDbSymbolTableRecord
100
AcDbRegAppTableRecord
  2
PLOTTRANSPARENCY
 70
     0
  0
APPID
  5
6D11
330
8
100
AcDbSymbolTableRecord
100
AcDbRegAppTableRecord
  2
IDW_INSPOINT
 70
     0
  0
APPID
  5
7025
330
8
100
AcDbSymbolTableRecord
100
AcDbRegAppTableRecord
  2
PE_DIMMEASUREMENT
 70
     0
  0
ENDTAB
  0
TABLE
  2
DIMSTYLE
  5
9
330
0
100
AcDbSymbolTable
 70
     2
100
AcDbDimStyleTable
  0
DIMSTYLE
105
57
102
{ACAD_REACTORS
330
7F53
330
7F54
330
7F5C
330
7F60
330
7F63
330
7F65
330
836E
330
837D
330
838E
330
839F
330
83BD
330
83CC
330
83DC
330
83FA
330
8478
330
848E
330
849E
330
84AD
102
}
330
9
100
AcDbSymbolTableRecord
100
AcDbDimStyleTableRecord
  2
tfrom線あり
 70
     0
  3
<>
  4
[]
 41
1.5
 42
5.0
 43
0.9999999999999999
 44
0.0
 73
     0
 74
     0
 77
     1
 78
    11
140
5.0
141
0.0
143
1.0
147
2.0
171
     1
174
     1
178
     0
179
     2
271
     0
272
     1
276
     2
284
    11
285
    11
286
    11
289
     0
340
39
341
4E
342
4E
  0
DIMSTYLE
105
8160
330
9
100
AcDbSymbolTableRecord
100
AcDbDimStyleTableRecord
  2
Dimension style
 70
     0
 41
2.5
 42
2.0
 43
6.0
 44
1.0
 78
     8
 79
     2
140
3.5
143
0.03937
147
0.7500000000000001
171
     3
176
   256
177
   256
271
     1
178
   256
179
     1
271
     1
272
     3
274
     3
278
    44
340
8161
342
8162
371
    -1
372
    -1
345
13
346
13
347
13
  0
ENDTAB
  0
TABLE
  2
BLOCK_RECORD
  5
1
330
0
100
AcDbSymbolTable
 70
    53
  0
BLOCK_RECORD
  5
A
102
{ACAD_XDICTIONARY
360
59FD
102
}
330
1
100
AcDbSymbolTableRecord
100
AcDbBlockTableRecord
  2
*MODEL_SPACE
340
20
 70
     0
280
     1
281
     0
  0
BLOCK_RECORD
  5
B
330
1
100
AcDbSymbolTableRecord
100
AcDbBlockTableRecord
  2
*PAPER_SPACE
340
21
 70
     0
280
     1
281
     0
  0
BLOCK_RECORD
  5
4E
330
1
100
AcDbSymbolTableRecord
100
AcDbBlockTableRecord
  2
_DOT
340
0
102
{BLKREFS
331
7F39
331
7F3A
331
7F6E
331
7F6F
331
7F7A
331
7F7B
331
8026
331
8027
331
8035
331
8036
331
8046
331
8047
331
8056
331
8057
331
8065
331
8066
331
8076
331
8077
331
8085
331
8086
331
8094
331
8095
331
80A3
331
80A4
331
80BB
331
80BC
331
82F7
331
82F8
331
8303
331
8304
331
830F
331
8310
331
831B
331
831C
331
8327
331
8328
331
8333
331
8334
331
833F
331
8340
331
834B
331
834C
331
8357
331
8358
331
8363
331
8364
331
8377
331
8378
331
8386
331
8387
331
8399
331
839A
331
83A8
331
83A9
331
83B7
331
83B8
331
83C6
331
83C7
331
83D5
331
83D6
331
83E5
331
83E6
331
83F4
331
83F5
331
8403
331
8404
331
843D
331
843E
331
8449
331
844A
331
8455
331
8456
331
846C
331
846D
331
8481
331
8482
331
8497
331
8498
331
84A7
331
84A8
331
84B6
331
84B7
102
}
 70
     0
280
     1
281
     0
  0
BLOCK_RECORD
  5
690
330
1
100
AcDbSymbolTableRecord
100
AcDbBlockTableRecord
  2
block 3
340
0
102
{BLKREFS
331
52DC
102
}
 70
     0
280
     1
281
     0
  0
BLOCK_RECORD
  5
693
330
1
100
AcDbSymbolTableRecord
100
AcDbBlockTableRecord
  2
block 4
340
0
102
{BLKREFS
331
692
102
}
 70
     0
280
     1
281
     0
  0
BLOCK_RECORD
  5
6A2
330
1
100
AcDbSymbolTableRecord
100
AcDbBlockTableRecord
  2
block 5
340
0
102
{BLKREFS
331
6A1
102
}
 70
     0
280
     1
281
     0
  0
BLOCK_RECORD
  5
52D7
330
1
100
AcDbSymbolTableRecord
100
AcDbBlockTableRecord
  2
名称未設定-1
340
0
102
{BLKREFS
331
54B3
102
}
 70
     1
280
     1
281
     0
  0
BLOCK_RECORD
  5
52DA
330
1
100
AcDbSymbolTableRecord
100
AcDbBlockTableRecord
  2
block 2
340
0
102
{BLKREFS
331
52D9
102
}
 70
     0
280
     1
281
     0
  0
BLOCK_RECORD
  5
74B6
330
1
100
AcDbSymbolTableRecord
100
AcDbBlockTableRecord
  2
_NONE
340
0
 70
     0
280
     1
281
     0
  0
BLOCK_RECORD
  5
7F33
330
1
100
AcDbSymbolTableRecord
100
AcDbBlockTableRecord
  2
*D7
340
0
 70
     0
280
     1
281
     0
  0
BLOCK_RECORD
  5
7F68
330
1
100
AcDbSymbolTableRecord
100
AcDbBlockTableRecord
  2
*D8
340
0
 70
     0
280
     1
281
     0
  0
BLOCK_RECORD
  5
7F74
330
1
100
AcDbSymbolTableRecord
100
AcDbBlockTableRecord
  2
*D9
340
0
 70
     0
280
     1
281
     0
  0
BLOCK_RECORD
  5
8020
330
1
100
AcDbSymbolTableRecord
100
AcDbBlockTableRecord
  2
*D10
340
0
 70
     0
280
     1
281
     0
  0
BLOCK_RECORD
  5
802F
330
1
100
AcDbSymbolTableRecord
100
AcDbBlockTableRecord
  2
*D11
340
0
 70
     0
280
     1
281
     0
  0
BLOCK_RECORD
  5
8040
330
1
100
AcDbSymbolTableRecord
100
AcDbBlockTableRecord
  2
*D12
340
0
 70
     0
280
     1
281
     0
  0
BLOCK_RECORD
  5
8050
330
1
100
AcDbSymbolTableRecord
100
AcDbBlockTableRecord
  2
*D13
340
0
 70
     0
280
     1
281
     0
  0
BLOCK_RECORD
  5
805F
330
1
100
AcDbSymbolTableRecord
100
AcDbBlockTableRecord
  2
*D14
340
0
 70
     0
280
     1
281
     0
  0
BLOCK_RECORD
  5
8070
330
1
100
AcDbSymbolTableRecord
100
AcDbBlockTableRecord
  2
*D15
340
0
 70
     0
280
     1
281
     0
  0
BLOCK_RECORD
  5
807F
330
1
100
AcDbSymbolTableRecord
100
AcDbBlockTableRecord
  2
*D16
340
0
 70
     0
280
     1
281
     0
  0
BLOCK_RECORD
  5
808E
330
1
100
AcDbSymbolTableRecord
100
AcDbBlockTableRecord
  2
*D17
340
0
 70
     0
280
     1
281
     0
  0
BLOCK_RECORD
  5
809D
330
1
100
AcDbSymbolTableRecord
100
AcDbBlockTableRecord
  2
*D18
340
0
 70
     0
280
     1
281
     0
  0
BLOCK_RECORD
  5
80B5
330
1
100
AcDbSymbolTableRecord
100
AcDbBlockTableRecord
  2
*D19
340
0
 70
     0
280
     1
281
     0
  0
BLOCK_RECORD
  5
8162
330
1
100
AcDbSymbolTableRecord
100
AcDbBlockTableRecord
  2
Filled-2
340
0
 70
     0
280
     1
281
     0
  0
BLOCK_RECORD
  5
8173
330
1
100
AcDbSymbolTableRecord
100
AcDbBlockTableRecord
  2
Eclipse_privacy_KNOB_200709_Landscape A3_VIEW3
340
0
 70
     4
280
     1
281
     0
1001
IDW_INSPOINT
1070
     0
  0
BLOCK_RECORD
  5
817E
330
1
100
AcDbSymbolTableRecord
100
AcDbBlockTableRecord
  2
3901T001_DRWC53_IND_ZP_V01_Landscape A3_VIEW1
340
0
 70
     4
280
     1
281
     0
1001
IDW_INSPOINT
1070
     0
  0
BLOCK_RECORD
  5
818C
330
1
100
AcDbSymbolTableRecord
100
AcDbBlockTableRecord
  2
Eclipse_privacy_KNOB_200709_Landscape A3_VIEW4
340
0
 70
     4
280
     1
281
     0
1001
IDW_INSPOINT
1070
     0
  0
BLOCK_RECORD
  5
81AB
330
1
100
AcDbSymbolTableRecord
100
AcDbBlockTableRecord
  2
3901T001_DRWC53_IND_ZP_V01_Landscape A3_VIEW2
340
0
 70
     4
280
     1
281
     0
1001
IDW_INSPOINT
1070
     0
  0
BLOCK_RECORD
  5
82F1
330
1
100
AcDbSymbolTableRecord
100
AcDbBlockTableRecord
  2
*D25
340
0
 70
     0
280
     1
281
     0
  0
BLOCK_RECORD
  5
82FD
330
1
100
AcDbSymbolTableRecord
100
AcDbBlockTableRecord
  2
*D26
340
0
 70
     0
280
     1
281
     0
  0
BLOCK_RECORD
  5
8309
330
1
100
AcDbSymbolTableRecord
100
AcDbBlockTableRecord
  2
*D27
340
0
 70
     0
280
     1
281
     0
  0
BLOCK_RECORD
  5
8315
330
1
100
AcDbSymbolTableRecord
100
AcDbBlockTableRecord
  2
*D28
340
0
 70
     0
280
     1
281
     0
  0
BLOCK_RECORD
  5
8321
330
1
100
AcDbSymbolTableRecord
100
AcDbBlockTableRecord
  2
*D29
340
0
 70
     0
280
     1
281
     0
  0
BLOCK_RECORD
  5
832D
330
1
100
AcDbSymbolTableRecord
100
AcDbBlockTableRecord
  2
*D30
340
0
 70
     0
280
     1
281
     0
  0
BLOCK_RECORD
  5
8339
330
1
100
AcDbSymbolTableRecord
100
AcDbBlockTableRecord
  2
*D31
340
0
 70
     0
280
     1
281
     0
  0
BLOCK_RECORD
  5
8345
330
1
100
AcDbSymbolTableRecord
100
AcDbBlockTableRecord
  2
*D32
340
0
 70
     0
280
     1
281
     0
  0
BLOCK_RECORD
  5
8351
330
1
100
AcDbSymbolTableRecord
100
AcDbBlockTableRecord
  2
*D33
340
0
 70
     0
280
     1
281
     0
  0
BLOCK_RECORD
  5
835D
330
1
100
AcDbSymbolTableRecord
100
AcDbBlockTableRecord
  2
*D34
340
0
 70
     0
280
     1
281
     0
  0
BLOCK_RECORD
  5
8371
330
1
100
AcDbSymbolTableRecord
100
AcDbBlockTableRecord
  2
*D35
340
0
 70
     0
280
     1
281
     0
  0
BLOCK_RECORD
  5
8380
330
1
100
AcDbSymbolTableRecord
100
AcDbBlockTableRecord
  2
*D36
340
0
 70
     0
280
     1
281
     0
  0
BLOCK_RECORD
  5
8391
330
1
100
AcDbSymbolTableRecord
100
AcDbBlockTableRecord
  2
*D37
340
0
 70
     0
280
     1
281
     0
  0
BLOCK_RECORD
  5
83A2
330
1
100
AcDbSymbolTableRecord
100
AcDbBlockTableRecord
  2
*D38
340
0
 70
     0
280
     1
281
     0
  0
BLOCK_RECORD
  5
83B1
330
1
100
AcDbSymbolTableRecord
100
AcDbBlockTableRecord
  2
*D39
340
0
 70
     0
280
     1
281
     0
  0
BLOCK_RECORD
  5
83C0
330
1
100
AcDbSymbolTableRecord
100
AcDbBlockTableRecord
  2
*D40
340
0
 70
     0
280
     1
281
     0
  0
BLOCK_RECORD
  5
83CF
330
1
100
AcDbSymbolTableRecord
100
AcDbBlockTableRecord
  2
*D41
340
0
 70
     0
280
     1
281
     0
  0
BLOCK_RECORD
  5
83DF
330
1
100
AcDbSymbolTableRecord
100
AcDbBlockTableRecord
  2
*D42
340
0
 70
     0
280
     1
281
     0
  0
BLOCK_RECORD
  5
83EE
330
1
100
AcDbSymbolTableRecord
100
AcDbBlockTableRecord
  2
*D43
340
0
 70
     0
280
     1
281
     0
  0
BLOCK_RECORD
  5
83FD
330
1
100
AcDbSymbolTableRecord
100
AcDbBlockTableRecord
  2
*D44
340
0
 70
     0
280
     1
281
     0
  0
BLOCK_RECORD
  5
8437
330
1
100
AcDbSymbolTableRecord
100
AcDbBlockTableRecord
  2
*D45
340
0
 70
     0
280
     1
281
     0
  0
BLOCK_RECORD
  5
8443
330
1
100
AcDbSymbolTableRecord
100
AcDbBlockTableRecord
  2
*D46
340
0
 70
     0
280
     1
281
     0
  0
BLOCK_RECORD
  5
844F
330
1
100
AcDbSymbolTableRecord
100
AcDbBlockTableRecord
  2
*D47
340
0
 70
     0
280
     1
281
     0
  0
BLOCK_RECORD
  5
8466
330
1
100
AcDbSymbolTableRecord
100
AcDbBlockTableRecord
  2
*D48
340
0
 70
     0
280
     1
281
     0
  0
BLOCK_RECORD
  5
847B
330
1
100
AcDbSymbolTableRecord
100
AcDbBlockTableRecord
  2
*D49
340
0
 70
     0
280
     1
281
     0
  0
BLOCK_RECORD
  5
8491
330
1
100
AcDbSymbolTableRecord
100
AcDbBlockTableRecord
  2
*D50
340
0
 70
     0
280
     1
281
     0
  0
BLOCK_RECORD
  5
84A1
330
1
100
AcDbSymbolTableRecord
100
AcDbBlockTableRecord
  2
*D51
340
0
 70
     0
280
     1
281
     0
  0
BLOCK_RECORD
  5
84B0
330
1
100
AcDbSymbolTableRecord
100
AcDbBlockTableRecord
  2
*D52
340
0
 70
     0
280
     1
281
     0
  0
ENDTAB
  0
ENDSEC
  0
SECTION
  2
BLOCKS
  0
BLOCK
  5
D
330
A
100
AcDbEntity
  8
0
390
1D
100
AcDbBlockBegin
  2
*MODEL_SPACE
 70
     0
 10
0.0
 20
0.0
 30
0.0
  3
*MODEL_SPACE
  1
*MODEL_SPACE
  0
ENDBLK
  5
E
330
A
100
AcDbEntity
  8
0
390
1D
100
AcDbBlockEnd
  0
BLOCK
  5
F
330
B
100
AcDbEntity
 67
     1
  8
0
390
1D
100
AcDbBlockBegin
  2
*PAPER_SPACE
 70
     0
 10
0.0
 20
0.0
 30
0.0
  3
*PAPER_SPACE
  1
*PAPER_SPACE
  0
ENDBLK
  5
10
330
B
100
AcDbEntity
 67
     1
  8
0
390
1D
100
AcDbBlockEnd
  0
BLOCK
  5
5282
330
4E
100
AcDbEntity
  8
0
390
1D
100
AcDbBlockBegin
  2
_DOT
 70
     0
 10
0.0
 20
0.0
 30
0.0
  3
_DOT
  1
_DOT
  0
POLYLINE
  5
5284
330
4E
100
AcDbEntity
  8
0
  6
ByBlock
 62
     0
370
    -2
390
1D
100
AcDb2dPolyline
 66
     1
 10
0.0
 20
0.0
 30
0.0
 70
     1
 40
0.5
 41
0.5
  0
VERTEX
  5
5285
330
5284
100
AcDbEntity
  8
0
  6
ByBlock
 62
     0
370
    -2
390
1D
100
AcDbVertex
100
AcDb2dVertex
 10
-0.25
 20
0.0
 30
0.0
 42
1.0
  0
VERTEX
  5
5286
330
5284
100
AcDbEntity
  8
0
  6
ByBlock
 62
     0
370
    -2
390
1D
100
AcDbVertex
100
AcDb2dVertex
 10
0.25
 20
0.0
 30
0.0
 42
1.0
  0
SEQEND
  5
5287
330
5284
100
AcDbEntity
  8
0
390
1D
  0
LINE
  5
5288
330
4E
100
AcDbEntity
  8
0
  6
ByBlock
 62
     0
370
    -2
390
1D
100
AcDbLine
 10
-0.5
 20
0.0
 30
0.0
 11
-1.0
 21
0.0
 31
0.0
  0
ENDBLK
  5
5289
330
4E
100
AcDbEntity
  8
0
390
1D
100
AcDbBlockEnd
  0
BLOCK
  5
691
330
690
100
AcDbEntity
  8
0
100
AcDbBlockBegin
  2
block 3
 70
     0
 10
0.0
 20
0.0
 30
0.0
  3
block 3
  1
block 3
  0
INSERT
  5
692
330
690
100
AcDbEntity
  8
レイヤー 1
100
AcDbBlockReference
  2
block 4
 10
0.0
 20
0.0
 30
0.0
  0
ENDBLK
  5
6AF
330
690
100
AcDbEntity
  8
0
100
AcDbBlockEnd
  0
BLOCK
  5
694
330
693
100
AcDbEntity
  8
0
100
AcDbBlockBegin
  2
block 4
 70
     0
 10
0.0
 20
0.0
 30
0.0
  3
block 4
  1
block 4
  0
POLYLINE
  5
695
330
693
100
AcDbEntity
  8
レイヤー 1
370
     0
100
AcDb2dPolyline
 66
     1
 10
0.0
 20
0.0
 30
0.0
  0
VERTEX
  5
696
330
695
100
AcDbEntity
  8
レイヤー 1
370
     0
100
AcDbVertex
100
AcDb2dVertex
 10
83.79545727667795
 20
167.6444858234922
 30
0.0
  0
VERTEX
  5
697
330
695
100
AcDbEntity
  8
レイヤー 1
370
     0
100
AcDbVertex
100
AcDb2dVertex
 10
83.79545727667795
 20
159.7968976406313
 30
0.0
  0
VERTEX
  5
698
330
695
100
AcDbEntity
  8
レイヤー 1
370
     0
100
AcDbVertex
100
AcDb2dVertex
 10
71.3631329975216
 20
159.7968976406313
 30
0.0
  0
VERTEX
  5
699
330
695
100
AcDbEntity
  8
レイヤー 1
370
     0
100
AcDbVertex
100
AcDb2dVertex
 10
71.3631329975216
 20
127.8027915271048
 30
0.0
  0
VERTEX
  5
69A
330
695
100
AcDbEntity
  8
レイヤー 1
370
     0
100
AcDbVertex
100
AcDb2dVertex
 10
60.43011526263018
 20
127.8027915271048
 30
0.0
  0
VERTEX
  5
69B
330
695
100
AcDbEntity
  8
レイヤー 1
370
     0
100
AcDbVertex
100
AcDb2dVertex
 10
60.43011526263018
 20
159.7968976406313
 30
0.0
  0
VERTEX
  5
69C
330
695
100
AcDbEntity
  8
レイヤー 1
370
     0
100
AcDbVertex
100
AcDb2dVertex
 10
48.21793273020759
 20
159.7968976406313
 30
0.0
  0
VERTEX
  5
69D
330
695
100
AcDbEntity
  8
レイヤー 1
370
     0
100
AcDbVertex
100
AcDb2dVertex
 10
48.21793273020759
 20
167.6444858234922
 30
0.0
  0
VERTEX
  5
69E
330
695
100
AcDbEntity
  8
レイヤー 1
370
     0
100
AcDbVertex
100
AcDb2dVertex
 10
83.79545727667795
 20
167.6444858234922
 30
0.0
  0
SEQEND
  5
69F
330
695
100
AcDbEntity
  8
レイヤー 1
370
     0
  0
HATCH
  5
6A0
330
693
100
AcDbEntity
  8
レイヤー 1
 62
   250
420
  2234388
100
AcDbHatch
 10
0.0
 20
0.0
 30
0.0
210
0.0
220
0.0
230
1.0
  2
SOLID
 70
     1
 71
     0
 91
        1
 92
        1
 93
        8
 72
     1
 10
83.79545727667795
 20
167.6444858234922
 11
83.79545727667795
 21
159.7968976406313
 72
     1
 10
83.79545727667795
 20
159.7968976406313
 11
71.3631329975216
 21
159.7968976406313
 72
     1
 10
71.3631329975216
 20
159.7968976406313
 11
71.3631329975216
 21
127.8027915271048
 72
     1
 10
71.3631329975216
 20
127.8027915271048
 11
60.43011526263018
 21
127.8027915271048
 72
     1
 10
60.43011526263018
 20
127.8027915271048
 11
60.43011526263018
 21
159.7968976406313
 72
     1
 10
60.43011526263018
 20
159.7968976406313
 11
48.21793273020759
 21
159.7968976406313
 72
     1
 10
48.21793273020759
 20
159.7968976406313
 11
48.21793273020759
 21
167.6444858234922
 72
     1
 10
48.21793273020759
 20
167.6444858234922
 11
83.79545727667795
 21
167.6444858234922
 97
        0
 75
     2
 76
     1
 98
        0
  0
INSERT
  5
6A1
330
693
100
AcDbEntity
  8
レイヤー 1
100
AcDbBlockReference
  2
block 5
 10
0.0
 20
0.0
 30
0.0
  0
ENDBLK
  5
6AE
330
693
100
AcDbEntity
  8
0
100
AcDbBlockEnd
  0
BLOCK
  5
6A3
330
6A2
100
AcDbEntity
  8
0
100
AcDbBlockBegin
  2
block 5
 70
     0
 10
0.0
 20
0.0
 30
0.0
  3
block 5
  1
block 5
  0
SPLINE
  5
6A4
330
6A2
100
AcDbEntity
  8
レイヤー 1
370
     0
100
AcDbSpline
210
0.0
220
0.0
230
1.0
 70
    11
 71
     3
 72
    56
 73
    52
 74
     0
 42
0.000000001
 43
0.0000000001
 40
0.0
 40
0.0
 40
0.0
 40
0.0
 40
1.0
 40
1.0
 40
1.0
 40
2.0
 40
2.0
 40
2.0
 40
3.0
 40
3.0
 40
3.0
 40
4.0
 40
4.0
 40
4.0
 40
5.0
 40
5.0
 40
5.0
 40
6.0
 40
6.0
 40
6.0
 40
7.0
 40
7.0
 40
7.0
 40
8.0
 40
8.0
 40
8.0
 40
9.0
 40
9.0
 40
9.0
 40
10.0
 40
10.0
 40
10.0
 40
11.0
 40
11.0
 40
11.0
 40
12.0
 40
12.0
 40
12.0
 40
13.0
 40
13.0
 40
13.0
 40
14.0
 40
14.0
 40
14.0
 40
15.0
 40
15.0
 40
15.0
 40
16.0
 40
16.0
 40
16.0
 40
17.0
 40
17.0
 40
17.0
 40
17.0
 10
100.4504378777679
 20
166.69157178364
 30
0.0
 10
101.9848844191641
 20
167.1313385124438
 30
0.0
 10
103.9637485713373
 20
166.7649523658846
 30
0.0
 10
103.9637485713373
 20
166.7649523658846
 30
0.0
 10
103.9637485713373
 20
166.7649523658846
 30
0.0
 10
103.0132460999156
 20
163.911205638077
 30
0.0
 10
103.0132460999156
 20
163.911205638077
 30
0.0
 10
103.0132460999156
 20
163.911205638077
 30
0.0
 10
101.0674548862189
 20
164.3601018759394
 30
0.0
 10
99.57090442016032
 20
163.1805004036133
 30
0.0
 10
98.40508333886608
 20
162.258247733807
 30
0.0
 10
97.65301849830304
 20
159.804132345923
 30
0.0
 10
97.3598406791005
 20
158.8699940888517
 30
0.0
 10
97.3598406791005
 20
158.8699940888517
 30
0.0
 10
96.07137411762282
 20
154.9119212747295
 30
0.0
 10
96.07137411762282
 20
154.9119212747295
 30
0.0
 10
96.07137411762282
 20
154.9119212747295
 30
0.0
 10
100.3012651448482
 20
154.9119212747295
 30
0.0
 10
100.3012651448482
 20
154.9119212747295
 30
0.0
 10
100.3012651448482
 20
154.9119212747295
 30
0.0
 10
99.64152892419852
 20
152.4199098115079
 30
0.0
 10
99.64152892419852
 20
152.4199098115079
 30
0.0
 10
99.64152892419852
 20
152.4199098115079
 30
0.0
 10
95.38097652692731
 20
152.4199098115079
 30
0.0
 10
95.38097652692731
 20
152.4199098115079
 30
0.0
 10
95.38097652692731
 20
152.4199098115079
 30
0.0
 10
87.75353009080013
 20
127.8027915271048
 30
0.0
 10
87.75353009080013
 20
127.8027915271048
 30
0.0
 10
87.75353009080013
 20
127.8027915271048
 30
0.0
 10
85.36538832498108
 20
127.8027915271048
 30
0.0
 10
85.36538832498108
 20
127.8027915271048
 30
0.0
 10
85.36538832498108
 20
127.8027915271048
 30
0.0
 10
93.00006946639998
 20
152.4199098115079
 30
0.0
 10
93.00006946639998
 20
152.4199098115079
 30
0.0
 10
93.00006946639998
 20
152.4199098115079
 30
0.0
 10
89.85297266450198
 20
152.4199098115079
 30
0.0
 10
89.85297266450198
 20
152.4199098115079
 30
0.0
 10
89.85297266450198
 20
152.4199098115079
 30
0.0
 10
90.51270888515164
 20
154.9119212747295
 30
0.0
 10
90.51270888515164
 20
154.9119212747295
 30
0.0
 10
90.51270888515164
 20
154.9119212747295
 30
0.0
 10
93.6904670570955
 20
154.9119212747295
 30
0.0
 10
93.6904670570955
 20
154.9119212747295
 30
0.0
 10
93.6904670570955
 20
154.9119212747295
 30
0.0
 10
94.81598049462158
 20
158.3616699146644
 30
0.0
 10
94.81598049462158
 20
158.3616699146644
 30
0.0
 10
95.7237637538445
 20
161.2605474231013
 30
0.0
 10
96.4968436907311
 20
162.8139420021662
 30
0.0
 10
97.15657991138076
 20
163.9844139654337
 30
0.0
 10
97.81183750494507
 20
165.1523021053827
 30
0.0
 10
99.1047826935081
 20
166.3084769129547
 30
0.0
 10
100.4504378777679
 20
166.69157178364
 30
0.0
  0
HATCH
  5
6A5
330
6A2
100
AcDbEntity
  8
レイヤー 1
 62
   250
420
  2234388
100
AcDbHatch
 10
0.0
 20
0.0
 30
0.0
210
0.0
220
0.0
230
1.0
  2
SOLID
 70
     1
 71
     0
 91
        1
 92
        1
 93
        1
 72
     4
 94
        3
 73
     0
 74
     1
 95
       56
 96
       52
 40
0.0
 40
0.0
 40
0.0
 40
0.0
 40
1.0
 40
1.0
 40
1.0
 40
2.0
 40
2.0
 40
2.0
 40
3.0
 40
3.0
 40
3.0
 40
4.0
 40
4.0
 40
4.0
 40
5.0
 40
5.0
 40
5.0
 40
6.0
 40
6.0
 40
6.0
 40
7.0
 40
7.0
 40
7.0
 40
8.0
 40
8.0
 40
8.0
 40
9.0
 40
9.0
 40
9.0
 40
10.0
 40
10.0
 40
10.0
 40
11.0
 40
11.0
 40
11.0
 40
12.0
 40
12.0
 40
12.0
 40
13.0
 40
13.0
 40
13.0
 40
14.0
 40
14.0
 40
14.0
 40
15.0
 40
15.0
 40
15.0
 40
16.0
 40
16.0
 40
16.0
 40
17.0
 40
17.0
 40
17.0
 40
17.0
 10
100.4504378777679
 20
166.69157178364
 10
101.9848844191641
 20
167.1313385124438
 10
103.9637485713373
 20
166.7649523658846
 10
103.9637485713373
 20
166.7649523658846
 10
103.9637485713373
 20
166.7649523658846
 10
103.0132460999156
 20
163.911205638077
 10
103.0132460999156
 20
163.911205638077
 10
103.0132460999156
 20
163.911205638077
 10
101.0674548862189
 20
164.3601018759394
 10
99.57090442016032
 20
163.1805004036133
 10
98.40508333886608
 20
162.258247733807
 10
97.65301849830304
 20
159.804132345923
 10
97.3598406791005
 20
158.8699940888517
 10
97.3598406791005
 20
158.8699940888517
 10
96.07137411762282
 20
154.9119212747295
 10
96.07137411762282
 20
154.9119212747295
 10
96.07137411762282
 20
154.9119212747295
 10
100.3012651448482
 20
154.9119212747295
 10
100.3012651448482
 20
154.9119212747295
 10
100.3012651448482
 20
154.9119212747295
 10
99.64152892419852
 20
152.4199098115079
 10
99.64152892419852
 20
152.4199098115079
 10
99.64152892419852
 20
152.4199098115079
 10
95.38097652692731
 20
152.4199098115079
 10
95.38097652692731
 20
152.4199098115079
 10
95.38097652692731
 20
152.4199098115079
 10
87.75353009080013
 20
127.8027915271048
 10
87.75353009080013
 20
127.8027915271048
 10
87.75353009080013
 20
127.8027915271048
 10
85.36538832498108
 20
127.8027915271048
 10
85.36538832498108
 20
127.8027915271048
 10
85.36538832498108
 20
127.8027915271048
 10
93.00006946639998
 20
152.4199098115079
 10
93.00006946639998
 20
152.4199098115079
 10
93.00006946639998
 20
152.4199098115079
 10
89.85297266450198
 20
152.4199098115079
 10
89.85297266450198
 20
152.4199098115079
 10
89.85297266450198
 20
152.4199098115079
 10
90.51270888515164
 20
154.9119212747295
 10
90.51270888515164
 20
154.9119212747295
 10
90.51270888515164
 20
154.9119212747295
 10
93.6904670570955
 20
154.9119212747295
 10
93.6904670570955
 20
154.9119212747295
 10
93.6904670570955
 20
154.9119212747295
 10
94.81598049462158
 20
158.3616699146644
 10
94.81598049462158
 20
158.3616699146644
 10
95.7237637538445
 20
161.2605474231013
 10
96.4968436907311
 20
162.8139420021662
 10
97.15657991138076
 20
163.9844139654337
 10
97.81183750494507
 20
165.1523021053827
 10
99.1047826935081
 20
166.3084769129547
 10
100.4504378777679
 20
166.69157178364
 97
        0
 75
     2
 76
     1
 98
        0
  0
SPLINE
  5
6A6
330
6A2
100
AcDbEntity
  8
レイヤー 1
370
     0
100
AcDbSpline
210
0.0
220
0.0
230
1.0
 70
    11
 71
     3
 72
    38
 73
    34
 74
     0
 42
0.000000001
 43
0.0000000001
 40
0.0
 40
0.0
 40
0.0
 40
0.0
 40
1.0
 40
1.0
 40
1.0
 40
2.0
 40
2.0
 40
2.0
 40
3.0
 40
3.0
 40
3.0
 40
4.0
 40
4.0
 40
4.0
 40
5.0
 40
5.0
 40
5.0
 40
6.0
 40
6.0
 40
6.0
 40
7.0
 40
7.0
 40
7.0
 40
8.0
 40
8.0
 40
8.0
 40
9.0
 40
9.0
 40
9.0
 40
10.0
 40
10.0
 40
10.0
 40
11.0
 40
11.0
 40
11.0
 40
11.0
 10
126.377554584636
 20
154.8151140277308
 30
0.0
 10
126.377554584636
 20
154.8151140277308
 30
0.0
 10
128.8311532078563
 20
154.8151140277308
 30
0.0
 10
128.8311532078563
 20
154.8151140277308
 30
0.0
 10
128.8311532078563
 20
154.8151140277308
 30
0.0
 10
127.7345785914971
 20
151.3062819612468
 30
0.0
 10
127.7345785914971
 20
151.3062819612468
 30
0.0
 10
128.571392836906
 20
152.2922689395754
 30
0.0
 10
129.8860421413442
 20
153.604506675583
 30
0.0
 10
131.0163787157314
 20
154.2664822097754
 30
0.0
 10
132.7044766171327
 20
155.2500576196734
 30
0.0
 10
133.6642808525008
 20
155.3847609420097
 30
0.0
 10
134.7284715499351
 20
155.3565111403944
 30
0.0
 10
134.7284715499351
 20
155.3565111403944
 30
0.0
 10
133.6877075172549
 20
152.0345756272799
 30
0.0
 10
133.6877075172549
 20
152.0345756272799
 30
0.0
 10
133.011434827367
 20
152.3184516825359
 30
0.0
 10
130.930940291334
 20
151.7768823149844
 30
0.0
 10
129.739280976855
 20
150.9162968950455
 30
0.0
 10
128.66613302525
 20
150.1454562717016
 30
0.0
 10
127.9192358313239
 20
149.4857200510519
 30
0.0
 10
127.0393578639405
 20
147.8282835196966
 30
0.0
 10
126.164647543194
 20
146.1699857139017
 30
0.0
 10
125.4742499524985
 20
143.5262176944419
 30
0.0
 10
124.2822461282437
 20
139.6959580071401
 30
0.0
 10
124.2822461282437
 20
139.6959580071401
 30
0.0
 10
120.5753209406769
 20
127.8027915271048
 30
0.0
 10
120.5753209406769
 20
127.8027915271048
 30
0.0
 10
120.5753209406769
 20
127.8027915271048
 30
0.0
 10
118.1964809388044
 20
127.8027915271048
 30
0.0
 10
118.1964809388044
 20
127.8027915271048
 30
0.0
 10
118.1964809388044
 20
127.8027915271048
 30
0.0
 10
126.377554584636
 20
154.8151140277308
 30
0.0
 10
126.377554584636
 20
154.8151140277308
 30
0.0
  0
HATCH
  5
6A7
330
6A2
100
AcDbEntity
  8
レイヤー 1
 62
   250
420
  2234388
100
AcDbHatch
 10
0.0
 20
0.0
 30
0.0
210
0.0
220
0.0
230
1.0
  2
SOLID
 70
     1
 71
     0
 91
        1
 92
        1
 93
        1
 72
     4
 94
        3
 73
     0
 74
     1
 95
       38
 96
       34
 40
0.0
 40
0.0
 40
0.0
 40
0.0
 40
1.0
 40
1.0
 40
1.0
 40
2.0
 40
2.0
 40
2.0
 40
3.0
 40
3.0
 40
3.0
 40
4.0
 40
4.0
 40
4.0
 40
5.0
 40
5.0
 40
5.0
 40
6.0
 40
6.0
 40
6.0
 40
7.0
 40
7.0
 40
7.0
 40
8.0
 40
8.0
 40
8.0
 40
9.0
 40
9.0
 40
9.0
 40
10.0
 40
10.0
 40
10.0
 40
11.0
 40
11.0
 40
11.0
 40
11.0
 10
126.377554584636
 20
154.8151140277308
 10
126.377554584636
 20
154.8151140277308
 10
128.8311532078563
 20
154.8151140277308
 10
128.8311532078563
 20
154.8151140277308
 10
128.8311532078563
 20
154.8151140277308
 10
127.7345785914971
 20
151.3062819612468
 10
127.7345785914971
 20
151.3062819612468
 10
128.571392836906
 20
152.2922689395754
 10
129.8860421413442
 20
153.604506675583
 10
131.0163787157314
 20
154.2664822097754
 10
132.7044766171327
 20
155.2500576196734
 10
133.6642808525008
 20
155.3847609420097
 10
134.7284715499351
 20
155.3565111403944
 10
134.7284715499351
 20
155.3565111403944
 10
133.6877075172549
 20
152.0345756272799
 10
133.6877075172549
 20
152.0345756272799
 10
133.011434827367
 20
152.3184516825359
 10
130.930940291334
 20
151.7768823149844
 10
129.739280976855
 20
150.9162968950455
 10
128.66613302525
 20
150.1454562717016
 10
127.9192358313239
 20
149.4857200510519
 10
127.0393578639405
 20
147.8282835196966
 10
126.164647543194
 20
146.1699857139017
 10
125.4742499524985
 20
143.5262176944419
 10
124.2822461282437
 20
139.6959580071401
 10
124.2822461282437
 20
139.6959580071401
 10
120.5753209406769
 20
127.8027915271048
 10
120.5753209406769
 20
127.8027915271048
 10
120.5753209406769
 20
127.8027915271048
 10
118.1964809388044
 20
127.8027915271048
 10
118.1964809388044
 20
127.8027915271048
 10
118.1964809388044
 20
127.8027915271048
 10
126.377554584636
 20
154.8151140277308
 10
126.377554584636
 20
154.8151140277308
 97
        0
 75
     2
 76
     1
 98
        0
  0
SPLINE
  5
6A8
330
6A2
100
AcDbEntity
  8
レイヤー 1
370
     0
100
AcDbSpline
210
0.0
220
0.0
230
1.0
 70
    11
 71
     3
 72
   104
 73
   100
 74
     0
 42
0.000000001
 43
0.0000000001
 40
0.0
 40
0.0
 40
0.0
 40
0.0
 40
1.0
 40
1.0
 40
1.0
 40
2.0
 40
2.0
 40
2.0
 40
3.0
 40
3.0
 40
3.0
 40
4.0
 40
4.0
 40
4.0
 40
5.0
 40
5.0
 40
5.0
 40
6.0
 40
6.0
 40
6.0
 40
7.0
 40
7.0
 40
7.0
 40
8.0
 40
8.0
 40
8.0
 40
9.0
 40
9.0
 40
9.0
 40
10.0
 40
10.0
 40
10.0
 40
11.0
 40
11.0
 40
11.0
 40
12.0
 40
12.0
 40
12.0
 40
13.0
 40
13.0
 40
13.0
 40
14.0
 40
14.0
 40
14.0
 40
15.0
 40
15.0
 40
15.0
 40
16.0
 40
16.0
 40
16.0
 40
17.0
 40
17.0
 40
17.0
 40
18.0
 40
18.0
 40
18.0
 40
19.0
 40
19.0
 40
19.0
 40
20.0
 40
20.0
 40
20.0
 40
21.0
 40
21.0
 40
21.0
 40
22.0
 40
22.0
 40
22.0
 40
23.0
 40
23.0
 40
23.0
 40
24.0
 40
24.0
 40
24.0
 40
25.0
 40
25.0
 40
25.0
 40
26.0
 40
26.0
 40
26.0
 40
27.0
 40
27.0
 40
27.0
 40
28.0
 40
28.0
 40
28.0
 40
29.0
 40
29.0
 40
29.0
 40
30.0
 40
30.0
 40
30.0
 40
31.0
 40
31.0
 40
31.0
 40
32.0
 40
32.0
 40
32.0
 40
33.0
 40
33.0
 40
33.0
 40
33.0
 10
139.8926730891197
 20
154.8294111834263
 30
0.0
 10
139.8926730891197
 20
154.8294111834263
 30
0.0
 10
142.0344903652445
 20
154.8294111834263
 30
0.0
 10
142.0344903652445
 20
154.8294111834263
 30
0.0
 10
142.0344903652445
 20
154.8294111834263
 30
0.0
 10
140.9516961399171
 20
151.3157559800812
 30
0.0
 10
140.9516961399171
 20
151.3157559800812
 30
0.0
 10
141.8928968473923
 20
152.7887075264977
 30
0.0
 10
142.7341897198865
 20
153.4484437471474
 30
0.0
 10
143.8552245303272
 20
154.2926649527359
 30
0.0
 10
144.9803934580775
 20
155.1296514530327
 30
0.0
 10
146.3139908001845
 20
155.3044901642492
 30
0.0
 10
147.241066606852
 20
155.3044901642492
 30
0.0
 10
148.3855280820469
 20
155.3044901642492
 30
0.0
 10
149.4969166187653
 20
155.0752189084569
 30
0.0
 10
150.0784491203092
 20
153.8172414621372
 30
0.0
 10
150.5228667310863
 20
152.833838307127
 30
0.0
 10
150.5414702589793
 20
152.7201500811143
 30
0.0
 10
150.4140016419347
 20
150.7765981809602
 30
0.0
 10
151.5818897818837
 20
152.7699317437168
 30
0.0
 10
152.4424752018226
 20
153.6256940267945
 30
0.0
 10
153.9038856707499
 20
154.4507949398263
 30
0.0
 10
155.4455669174378
 20
155.3044901642492
 30
0.0
 10
156.339225275853
 20
155.3659851592288
 30
0.0
 10
157.3748216618963
 20
155.2147453676543
 30
0.0
 10
158.911679771723
 20
154.9877134254046
 30
0.0
 10
159.8859534176746
 20
154.4390816074493
 30
0.0
 10
160.3965169054045
 20
152.7816450760939
 30
0.0
 10
160.9070803931344
 20
151.1219692311958
 30
0.0
 10
160.6328506116007
 20
150.2303779314354
 30
0.0
 10
159.9992971339115
 20
147.597634224801
 30
0.0
 10
159.7105979417943
 20
146.4014962832367
 30
0.0
 10
159.2947746424084
 20
144.9400858143094
 30
0.0
 10
158.7463150793409
 20
143.2092687007094
 30
0.0
 10
158.7463150793409
 20
143.2092687007094
 30
0.0
 10
153.9038856707499
 20
127.8027915271048
 30
0.0
 10
153.9038856707499
 20
127.8027915271048
 30
0.0
 10
153.9038856707499
 20
127.8027915271048
 30
0.0
 10
151.3882752878863
 20
127.8027915271048
 30
0.0
 10
151.3882752878863
 20
127.8027915271048
 30
0.0
 10
151.3882752878863
 20
127.8027915271048
 30
0.0
 10
155.6250565106276
 20
141.2751908193897
 30
0.0
 10
155.6250565106276
 20
141.2751908193897
 30
0.0
 10
156.5094131050963
 20
144.0936252951782
 30
0.0
 10
157.109893644309
 20
146.1506931664571
 30
0.0
 10
157.4220195011804
 20
147.4415712963654
 30
0.0
 10
157.8095929989511
 20
149.0530157726519
 30
0.0
 10
157.9656559273867
 20
149.5826995529385
 30
0.0
 10
157.7816877071116
 20
150.7529992613181
 30
0.0
 10
157.6111553680925
 20
151.8430281919372
 30
0.0
 10
157.0582171779396
 20
152.5547853887321
 30
0.0
 10
156.1170164704645
 20
152.5547853887321
 30
0.0
 10
155.1096698860365
 20
152.5547853887321
 30
0.0
 10
154.2962823053817
 20
152.4412694176073
 30
0.0
 10
153.156643967048
 20
151.2945686288697
 30
0.0
 10
152.0170056287143
 20
150.1476955852443
 30
0.0
 10
151.076149431015
 20
148.7930831468137
 30
0.0
 10
150.3337308641742
 20
147.2290087646991
 30
0.0
 10
149.5957909244188
 20
145.6683794803425
 30
0.0
 10
148.8530278478023
 20
143.6822806228776
 30
0.0
 10
148.0964843801539
 20
141.2751908193897
 30
0.0
 10
148.0964843801539
 20
141.2751908193897
 30
0.0
 10
143.8552245303272
 20
127.8027915271048
 30
0.0
 10
143.8552245303272
 20
127.8027915271048
 30
0.0
 10
143.8552245303272
 20
127.8027915271048
 30
0.0
 10
141.486030802177
 20
127.8027915271048
 30
0.0
 10
141.486030802177
 20
127.8027915271048
 30
0.0
 10
141.486030802177
 20
127.8027915271048
 30
0.0
 10
146.3329388378533
 20
143.2092687007094
 30
0.0
 10
146.3329388378533
 20
143.2092687007094
 30
0.0
 10
146.8483254624444
 20
144.8408669988801
 30
0.0
 10
147.2314203331297
 20
146.1837661049335
 30
0.0
 10
147.4867020769946
 20
147.224185627838
 30
0.0
 10
147.9169947869641
 20
149.0197705792876
 30
0.0
 10
148.0306830129768
 20
150.2400242051577
 30
0.0
 10
147.709255392159
 20
151.3157559800812
 30
0.0
 10
147.3874832615654
 20
152.3916600098926
 30
0.0
 10
146.8245542879144
 20
152.6683013598569
 30
0.0
 10
145.8840425999909
 20
152.6683013598569
 30
0.0
 10
145.0989048209514
 20
152.6683013598569
 30
0.0
 10
144.3282364524954
 20
152.3275811915945
 30
0.0
 10
143.4531816219731
 20
151.6538923250251
 30
0.0
 10
142.34627171234
 20
150.8074318058939
 30
0.0
 10
141.901854101563
 20
150.1097995099067
 30
0.0
 10
141.3578731655808
 20
149.289521733736
 30
0.0
 10
140.6299240093235
 20
148.192602607601
 30
0.0
 10
140.2850697237515
 20
147.455696197173
 30
0.0
 10
139.6652966370942
 20
145.8385673095858
 30
0.0
 10
139.0506911970739
 20
144.2214384219986
 30
0.0
 10
138.463991048893
 20
142.3252566160164
 30
0.0
 10
138.0571250036777
 20
141.0154304484394
 30
0.0
 10
138.0571250036777
 20
141.0154304484394
 30
0.0
 10
133.9009590684727
 20
127.8027915271048
 30
0.0
 10
133.9009590684727
 20
127.8027915271048
 30
0.0
 10
133.9009590684727
 20
127.8027915271048
 30
0.0
 10
131.4180771143097
 20
127.8027915271048
 30
0.0
 10
131.4180771143097
 20
127.8027915271048
 30
0.0
 10
131.4180771143097
 20
127.8027915271048
 30
0.0
 10
139.8926730891197
 20
154.8294111834263
 30
0.0
 10
139.8926730891197
 20
154.8294111834263
 30
0.0
  0
HATCH
  5
6A9
330
6A2
100
AcDbEntity
  8
レイヤー 1
 62
   250
420
  2234388
100
AcDbHatch
 10
0.0
 20
0.0
 30
0.0
210
0.0
220
0.0
230
1.0
  2
SOLID
 70
     1
 71
     0
 91
        1
 92
        1
 93
        1
 72
     4
 94
        3
 73
     0
 74
     1
 95
      104
 96
      100
 40
0.0
 40
0.0
 40
0.0
 40
0.0
 40
1.0
 40
1.0
 40
1.0
 40
2.0
 40
2.0
 40
2.0
 40
3.0
 40
3.0
 40
3.0
 40
4.0
 40
4.0
 40
4.0
 40
5.0
 40
5.0
 40
5.0
 40
6.0
 40
6.0
 40
6.0
 40
7.0
 40
7.0
 40
7.0
 40
8.0
 40
8.0
 40
8.0
 40
9.0
 40
9.0
 40
9.0
 40
10.0
 40
10.0
 40
10.0
 40
11.0
 40
11.0
 40
11.0
 40
12.0
 40
12.0
 40
12.0
 40
13.0
 40
13.0
 40
13.0
 40
14.0
 40
14.0
 40
14.0
 40
15.0
 40
15.0
 40
15.0
 40
16.0
 40
16.0
 40
16.0
 40
17.0
 40
17.0
 40
17.0
 40
18.0
 40
18.0
 40
18.0
 40
19.0
 40
19.0
 40
19.0
 40
20.0
 40
20.0
 40
20.0
 40
21.0
 40
21.0
 40
21.0
 40
22.0
 40
22.0
 40
22.0
 40
23.0
 40
23.0
 40
23.0
 40
24.0
 40
24.0
 40
24.0
 40
25.0
 40
25.0
 40
25.0
 40
26.0
 40
26.0
 40
26.0
 40
27.0
 40
27.0
 40
27.0
 40
28.0
 40
28.0
 40
28.0
 40
29.0
 40
29.0
 40
29.0
 40
30.0
 40
30.0
 40
30.0
 40
31.0
 40
31.0
 40
31.0
 40
32.0
 40
32.0
 40
32.0
 40
33.0
 40
33.0
 40
33.0
 40
33.0
 10
139.8926730891197
 20
154.8294111834263
 10
139.8926730891197
 20
154.8294111834263
 10
142.0344903652445
 20
154.8294111834263
 10
142.0344903652445
 20
154.8294111834263
 10
142.0344903652445
 20
154.8294111834263
 10
140.9516961399171
 20
151.3157559800812
 10
140.9516961399171
 20
151.3157559800812
 10
141.8928968473923
 20
152.7887075264977
 10
142.7341897198865
 20
153.4484437471474
 10
143.8552245303272
 20
154.2926649527359
 10
144.9803934580775
 20
155.1296514530327
 10
146.3139908001845
 20
155.3044901642492
 10
147.241066606852
 20
155.3044901642492
 10
148.3855280820469
 20
155.3044901642492
 10
149.4969166187653
 20
155.0752189084569
 10
150.0784491203092
 20
153.8172414621372
 10
150.5228667310863
 20
152.833838307127
 10
150.5414702589793
 20
152.7201500811143
 10
150.4140016419347
 20
150.7765981809602
 10
151.5818897818837
 20
152.7699317437168
 10
152.4424752018226
 20
153.6256940267945
 10
153.9038856707499
 20
154.4507949398263
 10
155.4455669174378
 20
155.3044901642492
 10
156.339225275853
 20
155.3659851592288
 10
157.3748216618963
 20
155.2147453676543
 10
158.911679771723
 20
154.9877134254046
 10
159.8859534176746
 20
154.4390816074493
 10
160.3965169054045
 20
152.7816450760939
 10
160.9070803931344
 20
151.1219692311958
 10
160.6328506116007
 20
150.2303779314354
 10
159.9992971339115
 20
147.597634224801
 10
159.7105979417943
 20
146.4014962832367
 10
159.2947746424084
 20
144.9400858143094
 10
158.7463150793409
 20
143.2092687007094
 10
158.7463150793409
 20
143.2092687007094
 10
153.9038856707499
 20
127.8027915271048
 10
153.9038856707499
 20
127.8027915271048
 10
153.9038856707499
 20
127.8027915271048
 10
151.3882752878863
 20
127.8027915271048
 10
151.3882752878863
 20
127.8027915271048
 10
151.3882752878863
 20
127.8027915271048
 10
155.6250565106276
 20
141.2751908193897
 10
155.6250565106276
 20
141.2751908193897
 10
156.5094131050963
 20
144.0936252951782
 10
157.109893644309
 20
146.1506931664571
 10
157.4220195011804
 20
147.4415712963654
 10
157.8095929989511
 20
149.0530157726519
 10
157.9656559273867
 20
149.5826995529385
 10
157.7816877071116
 20
150.7529992613181
 10
157.6111553680925
 20
151.8430281919372
 10
157.0582171779396
 20
152.5547853887321
 10
156.1170164704645
 20
152.5547853887321
 10
155.1096698860365
 20
152.5547853887321
 10
154.2962823053817
 20
152.4412694176073
 10
153.156643967048
 20
151.2945686288697
 10
152.0170056287143
 20
150.1476955852443
 10
151.076149431015
 20
148.7930831468137
 10
150.3337308641742
 20
147.2290087646991
 10
149.5957909244188
 20
145.6683794803425
 10
148.8530278478023
 20
143.6822806228776
 10
148.0964843801539
 20
141.2751908193897
 10
148.0964843801539
 20
141.2751908193897
 10
143.8552245303272
 20
127.8027915271048
 10
143.8552245303272
 20
127.8027915271048
 10
143.8552245303272
 20
127.8027915271048
 10
141.486030802177
 20
127.8027915271048
 10
141.486030802177
 20
127.8027915271048
 10
141.486030802177
 20
127.8027915271048
 10
146.3329388378533
 20
143.2092687007094
 10
146.3329388378533
 20
143.2092687007094
 10
146.8483254624444
 20
144.8408669988801
 10
147.2314203331297
 20
146.1837661049335
 10
147.4867020769946
 20
147.224185627838
 10
147.9169947869641
 20
149.0197705792876
 10
148.0306830129768
 20
150.2400242051577
 10
147.709255392159
 20
151.3157559800812
 10
147.3874832615654
 20
152.3916600098926
 10
146.8245542879144
 20
152.6683013598569
 10
145.8840425999909
 20
152.6683013598569
 10
145.0989048209514
 20
152.6683013598569
 10
144.3282364524954
 20
152.3275811915945
 10
143.4531816219731
 20
151.6538923250251
 10
142.34627171234
 20
150.8074318058939
 10
141.901854101563
 20
150.1097995099067
 10
141.3578731655808
 20
149.289521733736
 10
140.6299240093235
 20
148.192602607601
 10
140.2850697237515
 20
147.455696197173
 10
139.6652966370942
 20
145.8385673095858
 10
139.0506911970739
 20
144.2214384219986
 10
138.463991048893
 20
142.3252566160164
 10
138.0571250036777
 20
141.0154304484394
 10
138.0571250036777
 20
141.0154304484394
 10
133.9009590684727
 20
127.8027915271048
 10
133.9009590684727
 20
127.8027915271048
 10
133.9009590684727
 20
127.8027915271048
 10
131.4180771143097
 20
127.8027915271048
 10
131.4180771143097
 20
127.8027915271048
 10
131.4180771143097
 20
127.8027915271048
 10
139.8926730891197
 20
154.8294111834263
 10
139.8926730891197
 20
154.8294111834263
 97
        0
 75
     2
 76
     1
 98
        0
  0
SPLINE
  5
6AA
330
6A2
100
AcDbEntity
  8
レイヤー 1
370
     0
100
AcDbSpline
210
0.0
220
0.0
230
1.0
 70
    11
 71
     3
 72
    29
 73
    25
 74
     0
 42
0.000000001
 43
0.0000000001
 40
0.0
 40
0.0
 40
0.0
 40
0.0
 40
1.0
 40
1.0
 40
1.0
 40
2.0
 40
2.0
 40
2.0
 40
3.0
 40
3.0
 40
3.0
 40
4.0
 40
4.0
 40
4.0
 40
5.0
 40
5.0
 40
5.0
 40
6.0
 40
6.0
 40
6.0
 40
7.0
 40
7.0
 40
7.0
 40
8.0
 40
8.0
 40
8.0
 40
8.0
 10
101.6420971922469
 20
132.8388354296931
 30
0.0
 10
101.630039350094
 20
134.7164137077823
 30
0.0
 10
102.2236296937908
 20
138.0598810818841
 30
0.0
 10
103.7487744712405
 20
142.5378191476827
 30
0.0
 10
105.819967243327
 20
148.5896501242061
 30
0.0
 10
107.0602024361932
 20
150.8074318058939
 30
0.0
 10
108.1522984254671
 20
151.8833358357054
 30
0.0
 10
109.741177511439
 20
153.4532668840085
 30
0.0
 10
111.8740375333931
 20
153.5290590346837
 30
0.0
 10
112.5075910110823
 20
153.4532668840085
 30
0.0
 10
113.4012493694975
 20
153.3490526768302
 30
0.0
 10
114.6683563248758
 20
152.7580461564518
 30
0.0
 10
114.7493161221879
 20
150.7838328862519
 30
0.0
 10
114.8106388622796
 20
149.0909118479895
 30
0.0
 10
114.3186789024427
 20
145.9191825971221
 30
0.0
 10
112.6164561002338
 20
140.9489400617108
 30
0.0
 10
110.6444821435766
 20
135.1746117095912
 30
0.0
 10
109.4669477299053
 20
132.8960240524753
 30
0.0
 10
108.5212683953448
 20
131.9072809959403
 30
0.0
 10
106.7346406980658
 20
130.0538184021569
 30
0.0
 10
104.8222669326213
 20
130.2336525051225
 30
0.0
 10
104.5408024457958
 20
130.2336525051225
 30
0.0
 10
104.1721769856939
 20
130.2336525051225
 30
0.0
 10
101.6465758193322
 20
130.6305277668397
 30
0.0
 10
101.6420971922469
 20
132.8388354296931
 30
0.0
  0
SPLINE
  5
6AB
330
6A2
100
AcDbEntity
  8
レイヤー 1
370
     0
100
AcDbSpline
210
0.0
220
0.0
230
1.0
 70
    11
 71
     3
 72
    32
 73
    28
 74
     0
 42
0.000000001
 43
0.0000000001
 40
0.0
 40
0.0
 40
0.0
 40
0.0
 40
1.0
 40
1.0
 40
1.0
 40
2.0
 40
2.0
 40
2.0
 40
3.0
 40
3.0
 40
3.0
 40
4.0
 40
4.0
 40
4.0
 40
5.0
 40
5.0
 40
5.0
 40
6.0
 40
6.0
 40
6.0
 40
7.0
 40
7.0
 40
7.0
 40
8.0
 40
8.0
 40
8.0
 40
9.0
 40
9.0
 40
9.0
 40
9.0
 10
106.2595617172429
 20
153.4105476718098
 30
0.0
 10
104.8222669326213
 20
151.5474388043041
 30
0.0
 10
103.7177685914188
 20
149.8758773721411
 30
0.0
 10
101.9232171692965
 20
144.6141795664062
 30
0.0
 10
100.2754269116635
 20
139.7999999594306
 30
0.0
 10
99.22777268346732
 20
136.3052927937542
 30
0.0
 10
99.06964269637689
 20
132.039572749846
 30
0.0
 10
98.94665270641765
 20
128.8673267343149
 30
0.0
 10
100.8807305877373
 20
127.8027915271048
 30
0.0
 10
103.7129454545577
 20
127.8027915271048
 30
0.0
 10
104.9352661390825
 20
127.8027915271048
 30
0.0
 10
108.0151835347002
 20
127.8827177950895
 30
0.0
 10
110.2045431598849
 20
130.5926316915021
 30
0.0
 10
111.7417457794874
 20
132.4984597712065
 30
0.0
 10
113.155269389579
 20
134.475256864725
 30
0.0
 10
115.0562743324223
 20
140.9489400617108
 30
0.0
 10
116.6361961642235
 20
146.3680788349845
 30
0.0
 10
117.7282921534974
 20
149.8639917848761
 30
0.0
 10
117.6480213757369
 20
151.8595646611754
 30
0.0
 10
117.6480213757369
 20
151.8595646611754
 30
0.0
 10
117.6480213757369
 20
151.8595646611754
 30
0.0
 10
117.6480213757369
 20
151.8595646611754
 30
0.0
 10
117.13229024137
 20
155.18150017429
 30
0.0
 10
114.7162431837115
 20
155.886194920681
 30
0.0
 10
113.3351034925446
 20
155.886194920681
 30
0.0
 10
111.9829026225447
 20
155.886194920681
 30
0.0
 10
108.3414342923792
 20
156.1251124501957
 30
0.0
 10
106.2595617172429
 20
153.4105476718098
 30
0.0
  0
HATCH
  5
6AC
330
6A2
100
AcDbEntity
  8
レイヤー 1
 62
   250
420
  2234388
100
AcDbHatch
 10
0.0
 20
0.0
 30
0.0
210
0.0
220
0.0
230
1.0
  2
SOLID
 70
     1
 71
     0
 91
        2
 92
        1
 93
        1
 72
     4
 94
        3
 73
     0
 74
     1
 95
       29
 96
       25
 40
0.0
 40
0.0
 40
0.0
 40
0.0
 40
1.0
 40
1.0
 40
1.0
 40
2.0
 40
2.0
 40
2.0
 40
3.0
 40
3.0
 40
3.0
 40
4.0
 40
4.0
 40
4.0
 40
5.0
 40
5.0
 40
5.0
 40
6.0
 40
6.0
 40
6.0
 40
7.0
 40
7.0
 40
7.0
 40
8.0
 40
8.0
 40
8.0
 40
8.0
 10
101.6420971922469
 20
132.8388354296931
 10
101.630039350094
 20
134.7164137077823
 10
102.2236296937908
 20
138.0598810818841
 10
103.7487744712405
 20
142.5378191476827
 10
105.819967243327
 20
148.5896501242061
 10
107.0602024361932
 20
150.8074318058939
 10
108.1522984254671
 20
151.8833358357054
 10
109.741177511439
 20
153.4532668840085
 10
111.8740375333931
 20
153.5290590346837
 10
112.5075910110823
 20
153.4532668840085
 10
113.4012493694975
 20
153.3490526768302
 10
114.6683563248758
 20
152.7580461564518
 10
114.7493161221879
 20
150.7838328862519
 10
114.8106388622796
 20
149.0909118479895
 10
114.3186789024427
 20
145.9191825971221
 10
112.6164561002338
 20
140.9489400617108
 10
110.6444821435766
 20
135.1746117095912
 10
109.4669477299053
 20
132.8960240524753
 10
108.5212683953448
 20
131.9072809959403
 10
106.7346406980658
 20
130.0538184021569
 10
104.8222669326213
 20
130.2336525051225
 10
104.5408024457958
 20
130.2336525051225
 10
104.1721769856939
 20
130.2336525051225
 10
101.6465758193322
 20
130.6305277668397
 10
101.6420971922469
 20
132.8388354296931
 97
        0
 92
        1
 93
        1
 72
     4
 94
        3
 73
     0
 74
     1
 95
       32
 96
       28
 40
0.0
 40
0.0
 40
0.0
 40
0.0
 40
1.0
 40
1.0
 40
1.0
 40
2.0
 40
2.0
 40
2.0
 40
3.0
 40
3.0
 40
3.0
 40
4.0
 40
4.0
 40
4.0
 40
5.0
 40
5.0
 40
5.0
 40
6.0
 40
6.0
 40
6.0
 40
7.0
 40
7.0
 40
7.0
 40
8.0
 40
8.0
 40
8.0
 40
9.0
 40
9.0
 40
9.0
 40
9.0
 10
106.2595617172429
 20
153.4105476718098
 10
104.8222669326213
 20
151.5474388043041
 10
103.7177685914188
 20
149.8758773721411
 10
101.9232171692965
 20
144.6141795664062
 10
100.2754269116635
 20
139.7999999594306
 10
99.22777268346732
 20
136.3052927937542
 10
99.06964269637689
 20
132.039572749846
 10
98.94665270641765
 20
128.8673267343149
 10
100.8807305877373
 20
127.8027915271048
 10
103.7129454545577
 20
127.8027915271048
 10
104.9352661390825
 20
127.8027915271048
 10
108.0151835347002
 20
127.8827177950895
 10
110.2045431598849
 20
130.5926316915021
 10
111.7417457794874
 20
132.4984597712065
 10
113.155269389579
 20
134.475256864725
 10
115.0562743324223
 20
140.9489400617108
 10
116.6361961642235
 20
146.3680788349845
 10
117.7282921534974
 20
149.8639917848761
 10
117.6480213757369
 20
151.8595646611754
 10
117.6480213757369
 20
151.8595646611754
 10
117.6480213757369
 20
151.8595646611754
 10
117.6480213757369
 20
151.8595646611754
 10
117.13229024137
 20
155.18150017429
 10
114.7162431837115
 20
155.886194920681
 10
113.3351034925446
 20
155.886194920681
 10
111.9829026225447
 20
155.886194920681
 10
108.3414342923792
 20
156.1251124501957
 10
106.2595617172429
 20
153.4105476718098
 97
        0
 75
     2
 76
     1
 98
        0
  0
ENDBLK
  5
6AD
330
6A2
100
AcDbEntity
  8
0
100
AcDbBlockEnd
  0
BLOCK
  5
52D8
330
52D7
100
AcDbEntity
  8
0
100
AcDbBlockBegin
  2
名称未設定-1
 70
     0
 10
0.0
 20
0.0
 30
0.0
  3
名称未設定-1
  1
名称未設定-1
  0
INSERT
  5
52D9
330
52D7
100
AcDbEntity
  8
TFORMLOGO
100
AcDbBlockReference
  2
block 2
 10
0.0
 20
0.0
 30
0.0
  0
ENDBLK
  5
52FE
330
52D7
100
AcDbEntity
  8
0
100
AcDbBlockEnd
  0
BLOCK
  5
52DB
330
52DA
100
AcDbEntity
  8
0
100
AcDbBlockBegin
  2
block 2
 70
     0
 10
0.0
 20
0.0
 30
0.0
  3
block 2
  1
block 2
  0
INSERT
  5
52DC
330
52DA
100
AcDbEntity
  8
TFORMLOGO
100
AcDbBlockReference
  2
block 3
 10
0.0
 20
0.0
 30
0.0
  0
ENDBLK
  5
52FD
330
52DA
100
AcDbEntity
  8
0
100
AcDbBlockEnd
  0
BLOCK
  5
74B7
330
74B6
100
AcDbEntity
  8
0
100
AcDbBlockBegin
  2
_NONE
 70
     0
 10
0.0
 20
0.0
 30
0.0
  3
_NONE
  1
_NONE
  0
ENDBLK
  5
74B8
330
74B6
100
AcDbEntity
  8
0
100
AcDbBlockEnd
  0
BLOCK
  5
7F34
330
7F33
100
AcDbEntity
  8
0
100
AcDbBlockBegin
  2
*D7
 70
     1
 10
0.0
 20
0.0
 30
0.0
  3
*D7
  1

  0
LINE
  5
7F36
330
7F33
100
AcDbEntity
  8
寸法
  6
Continuous
 62
     0
370
    -2
100
AcDbLine
 10
436.1767865647565
 20
315.4808807976541
 30
0.0
 11
436.1767865647565
 21
339.2778914719676
 31
0.0
  0
LINE
  5
7F37
330
7F33
100
AcDbEntity
  8
寸法
  6
Continuous
 62
     0
370
    -2
100
AcDbLine
 10
490.1767865647565
 20
314.6575487624634
 30
0.0
 11
490.1767865647565
 21
339.2778914719676
 31
0.0
  0
LINE
  5
7F38
330
7F33
100
AcDbEntity
  8
寸法
  6
Continuous
 62
     0
370
    -2
100
AcDbLine
 10
437.6767865647565
 20
339.2778914719676
 30
0.0
 11
488.6767865647565
 21
339.2778914719676
 31
0.0
  0
INSERT
  5
7F39
330
7F33
100
AcDbEntity
  8
寸法
 62
     0
370
    -2
100
AcDbBlockReference
  2
_DOT
 10
436.1767865647565
 20
339.2778914719676
 30
0.0
 41
1.5
 42
1.5
 43
1.5
 50
180.0
  0
INSERT
  5
7F3A
330
7F33
100
AcDbEntity
  8
寸法
 62
     0
370
    -2
100
AcDbBlockReference
  2
_DOT
 10
490.1767865647565
 20
339.2778914719676
 30
0.0
 41
1.5
 42
1.5
 43
1.5
  0
MTEXT
  5
7F3B
330
7F33
100
AcDbEntity
  8
寸法
  6
Continuous
 62
     0
100
AcDbMText
 10
463.1767865647565
 20
343.778829323662
 30
0.0
 40
5.0
 41
0.0
 46
0.0
 71
     5
 72
     1
  1
\A1;54
  7
ＭＳ ゴシック
 73
     1
 44
1.0
  0
POINT
  5
7F3C
330
7F33
100
AcDbEntity
  8
Defpoints
 62
     0
100
AcDbPoint
 10
436.1767865647565
 20
310.4808807976541
 30
0.0
  0
POINT
  5
7F3D
330
7F33
100
AcDbEntity
  8
Defpoints
 62
     0
100
AcDbPoint
 10
490.1767865647565
 20
309.6575487624634
 30
0.0
  0
POINT
  5
7F3E
330
7F33
100
AcDbEntity
  8
Defpoints
 62
     0
100
AcDbPoint
 10
490.1767865647565
 20
339.2778914719676
 30
0.0
  0
ENDBLK
  5
7F35
330
7F33
100
AcDbEntity
  8
0
100
AcDbBlockEnd
  0
BLOCK
  5
7F69
330
7F68
100
AcDbEntity
  8
0
100
AcDbBlockBegin
  2
*D8
 70
     1
 10
0.0
 20
0.0
 30
0.0
  3
*D8
  1

  0
LINE
  5
7F6B
330
7F68
100
AcDbEntity
  8
寸法
 62
     0
370
    -2
100
AcDbLine
 10
467.3638750888351
 20
212.0000000000001
 30
0.0
 11
467.3638750888351
 21
214.3532229159832
 31
0.0
  0
LINE
  5
7F6C
330
7F68
100
AcDbEntity
  8
寸法
 62
     0
370
    -2
100
AcDbLine
 10
486.3638750888351
 20
204.022763475284
 30
0.0
 11
486.3638750888351
 21
214.3532229159832
 31
0.0
  0
LINE
  5
7F6D
330
7F68
100
AcDbEntity
  8
寸法
 62
     0
370
    -2
100
AcDbLine
 10
468.8638750888351
 20
214.3532229159832
 30
0.0
 11
484.8638750888351
 21
214.3532229159832
 31
0.0
  0
INSERT
  5
7F6E
330
7F68
100
AcDbEntity
  8
寸法
 62
     0
370
    -2
100
AcDbBlockReference
  2
_DOT
 10
467.3638750888351
 20
214.3532229159832
 30
0.0
 41
1.5
 42
1.5
 43
1.5
 50
180.0
  0
INSERT
  5
7F6F
330
7F68
100
AcDbEntity
  8
寸法
 62
     0
370
    -2
100
AcDbBlockReference
  2
_DOT
 10
486.3638750888351
 20
214.3532229159832
 30
0.0
 41
1.5
 42
1.5
 43
1.5
  0
MTEXT
  5
7F70
330
7F68
100
AcDbEntity
  8
寸法
  6
Continuous
 62
     0
100
AcDbMText
 10
476.8638750888351
 20
218.8541607676775
 30
0.0
 40
5.0
 41
0.0
 46
0.0
 71
     5
 72
     1
  1
\A1;19
  7
ＭＳ ゴシック
 73
     1
 44
1.0
  0
POINT
  5
7F71
330
7F68
100
AcDbEntity
  8
Defpoints
 62
     0
100
AcDbPoint
 10
467.3638750888351
 20
207.0000000000001
 30
0.0
  0
POINT
  5
7F72
330
7F68
100
AcDbEntity
  8
Defpoints
 62
     0
100
AcDbPoint
 10
486.3638750888351
 20
199.022763475284
 30
0.0
  0
POINT
  5
7F73
330
7F68
100
AcDbEntity
  8
Defpoints
 62
     0
100
AcDbPoint
 10
486.3638750888351
 20
214.3532229159832
 30
0.0
  0
ENDBLK
  5
7F6A
330
7F68
100
AcDbEntity
  8
0
100
AcDbBlockEnd
  0
BLOCK
  5
7F75
330
7F74
100
AcDbEntity
  8
0
100
AcDbBlockBegin
  2
*D9
 70
     1
 10
0.0
 20
0.0
 30
0.0
  3
*D9
  1

  0
LINE
  5
7F77
330
7F74
100
AcDbEntity
  8
寸法
 62
     0
370
    -2
100
AcDbLine
 10
448.3638750888348
 20
204.022763475284
 30
0.0
 11
448.3638750888348
 21
214.3532229159832
 31
0.0
  0
LINE
  5
7F78
330
7F74
100
AcDbEntity
  8
寸法
 62
     0
370
    -2
100
AcDbLine
 10
467.3638750888351
 20
212.0000000000001
 30
0.0
 11
467.3638750888351
 21
214.3532229159832
 31
0.0
  0
LINE
  5
7F79
330
7F74
100
AcDbEntity
  8
寸法
 62
     0
370
    -2
100
AcDbLine
 10
449.8638750888348
 20
214.3532229159832
 30
0.0
 11
465.8638750888351
 21
214.3532229159832
 31
0.0
  0
INSERT
  5
7F7A
330
7F74
100
AcDbEntity
  8
寸法
 62
     0
370
    -2
100
AcDbBlockReference
  2
_DOT
 10
448.3638750888348
 20
214.3532229159832
 30
0.0
 41
1.5
 42
1.5
 43
1.5
 50
180.0
  0
INSERT
  5
7F7B
330
7F74
100
AcDbEntity
  8
寸法
 62
     0
370
    -2
100
AcDbBlockReference
  2
_DOT
 10
467.3638750888351
 20
214.3532229159832
 30
0.0
 41
1.5
 42
1.5
 43
1.5
  0
MTEXT
  5
7F7C
330
7F74
100
AcDbEntity
  8
寸法
  6
Continuous
 62
     0
100
AcDbMText
 10
457.863875088835
 20
218.8541607676775
 30
0.0
 40
5.0
 41
0.0
 46
0.0
 71
     5
 72
     1
  1
\A1;19
  7
ＭＳ ゴシック
 73
     1
 44
1.0
  0
POINT
  5
7F7D
330
7F74
100
AcDbEntity
  8
Defpoints
 62
     0
100
AcDbPoint
 10
448.3638750888348
 20
199.022763475284
 30
0.0
  0
POINT
  5
7F7E
330
7F74
100
AcDbEntity
  8
Defpoints
 62
     0
100
AcDbPoint
 10
467.3638750888351
 20
207.0000000000001
 30
0.0
  0
POINT
  5
7F7F
330
7F74
100
AcDbEntity
  8
Defpoints
 62
     0
100
AcDbPoint
 10
467.3638750888351
 20
214.3532229159832
 30
0.0
  0
ENDBLK
  5
7F76
330
7F74
100
AcDbEntity
  8
0
100
AcDbBlockEnd
  0
BLOCK
  5
8021
330
8020
100
AcDbEntity
  8
0
100
AcDbBlockBegin
  2
*D10
 70
     1
 10
0.0
 20
0.0
 30
0.0
  3
*D10
  1

  0
LINE
  5
8023
330
8020
100
AcDbEntity
  8
寸法
  6
Continuous
 62
     0
370
    -2
100
AcDbLine
 10
160.8654442520857
 20
326.6509331123968
 30
0.0
 11
172.5208572345564
 21
326.6509331123968
 31
0.0
  0
LINE
  5
8024
330
8020
100
AcDbEntity
  8
寸法
  6
Continuous
 62
     0
370
    -2
100
AcDbLine
 10
143.8654442520857
 20
312.2509331123969
 30
0.0
 11
172.5208572345564
 21
312.2509331123969
 31
0.0
  0
LINE
  5
8025
330
8020
100
AcDbEntity
  8
寸法
  6
Continuous
 62
     0
370
    -2
100
AcDbLine
 10
172.5208572345564
 20
325.1509331123968
 30
0.0
 11
172.5208572345564
 21
313.7509331123969
 31
0.0
  0
INSERT
  5
8026
330
8020
100
AcDbEntity
  8
寸法
 62
     0
370
    -2
100
AcDbBlockReference
  2
_DOT
 10
172.5208572345564
 20
326.6509331123968
 30
0.0
 41
1.5
 42
1.5
 43
1.5
 50
90.0
  0
INSERT
  5
8027
330
8020
100
AcDbEntity
  8
寸法
 62
     0
370
    -2
100
AcDbBlockReference
  2
_DOT
 10
172.5208572345564
 20
312.2509331123969
 30
0.0
 41
1.5
 42
1.5
 43
1.5
 50
270.0
  0
MTEXT
  5
8028
330
8020
100
AcDbEntity
  8
寸法
  6
Continuous
 62
     0
100
AcDbMText
 10
168.019919382862
 20
319.4509331123969
 30
0.0
 40
5.0
 41
0.0
 46
0.0
 71
     5
 72
     1
  1
\A1;15
  7
ＭＳ ゴシック
 11
0.0
 21
1.0
 31
0.0
 73
     1
 44
1.0
  0
POINT
  5
8029
330
8020
100
AcDbEntity
  8
Defpoints
 62
     0
100
AcDbPoint
 10
155.8654442520857
 20
326.6509331123968
 30
0.0
  0
POINT
  5
802A
330
8020
100
AcDbEntity
  8
Defpoints
 62
     0
100
AcDbPoint
 10
138.8654442520857
 20
312.2509331123969
 30
0.0
  0
POINT
  5
802B
330
8020
100
AcDbEntity
  8
Defpoints
 62
     0
100
AcDbPoint
 10
172.5208572345564
 20
312.2509331123969
 30
0.0
  0
ENDBLK
  5
8022
330
8020
100
AcDbEntity
  8
0
100
AcDbBlockEnd
  0
BLOCK
  5
8030
330
802F
100
AcDbEntity
  8
0
100
AcDbBlockBegin
  2
*D11
 70
     1
 10
0.0
 20
0.0
 30
0.0
  3
*D11
  1

  0
LINE
  5
8032
330
802F
100
AcDbEntity
  8
寸法
  6
Continuous
 62
     0
370
    -2
100
AcDbLine
 10
97.0326285220883
 20
326.6509331123979
 30
0.0
 11
88.28772192727851
 21
326.6509331123979
 31
0.0
  0
LINE
  5
8033
330
802F
100
AcDbEntity
  8
寸法
  6
Continuous
 62
     0
370
    -2
100
AcDbLine
 10
98.3654442520858
 20
319.8509331123969
 30
0.0
 11
88.28772192727851
 21
319.8509331123969
 31
0.0
  0
LINE
  5
8034
330
802F
100
AcDbEntity
  8
寸法
  6
Continuous
 62
     0
370
    -2
100
AcDbLine
 10
88.28772192727851
 20
325.1509331123979
 30
0.0
 11
88.28772192727851
 21
321.3509331123969
 31
0.0
  0
INSERT
  5
8035
330
802F
100
AcDbEntity
  8
寸法
 62
     0
370
    -2
100
AcDbBlockReference
  2
_DOT
 10
88.28772192727851
 20
326.6509331123979
 30
0.0
 41
1.5
 42
1.5
 43
1.5
 50
90.0
  0
INSERT
  5
8036
330
802F
100
AcDbEntity
  8
寸法
 62
     0
370
    -2
100
AcDbBlockReference
  2
_DOT
 10
88.28772192727851
 20
319.8509331123969
 30
0.0
 41
1.5
 42
1.5
 43
1.5
 50
270.0
  0
MTEXT
  5
8037
330
802F
100
AcDbEntity
  8
寸法
  6
Continuous
 62
     0
100
AcDbMText
 10
83.78678407558411
 20
323.2509331123974
 30
0.0
 40
5.0
 41
0.0
 46
0.0
 71
     5
 72
     1
  1
\A1;7
  7
ＭＳ ゴシック
 11
0.0
 21
1.0
 31
0.0
 73
     1
 44
1.0
  0
POINT
  5
8038
330
802F
100
AcDbEntity
  8
Defpoints
 62
     0
100
AcDbPoint
 10
102.0326285220883
 20
326.6509331123979
 30
0.0
  0
POINT
  5
8039
330
802F
100
AcDbEntity
  8
Defpoints
 62
     0
100
AcDbPoint
 10
103.3654442520858
 20
319.8509331123969
 30
0.0
  0
POINT
  5
803A
330
802F
100
AcDbEntity
  8
Defpoints
 62
     0
100
AcDbPoint
 10
88.28772192727851
 20
319.8509331123969
 30
0.0
  0
ENDBLK
  5
8031
330
802F
100
AcDbEntity
  8
0
100
AcDbBlockEnd
  0
BLOCK
  5
8041
330
8040
100
AcDbEntity
  8
0
100
AcDbBlockBegin
  2
*D12
 70
     1
 10
0.0
 20
0.0
 30
0.0
  3
*D12
  1

  0
LINE
  5
8043
330
8040
100
AcDbEntity
  8
寸法
  6
Continuous
 62
     0
370
    -2
100
AcDbLine
 10
98.3654442520858
 20
319.8509331123969
 30
0.0
 11
88.28772192727851
 21
319.8509331123969
 31
0.0
  0
LINE
  5
8044
330
8040
100
AcDbEntity
  8
寸法
  6
Continuous
 62
     0
370
    -2
100
AcDbLine
 10
113.8654442520857
 20
312.2509331123969
 30
0.0
 11
88.28772192727851
 21
312.2509331123969
 31
0.0
  0
LINE
  5
8045
330
8040
100
AcDbEntity
  8
寸法
  6
Continuous
 62
     0
370
    -2
100
AcDbLine
 10
88.28772192727851
 20
318.3509331123969
 30
0.0
 11
88.28772192727851
 21
313.7509331123969
 31
0.0
  0
INSERT
  5
8046
330
8040
100
AcDbEntity
  8
寸法
 62
     0
370
    -2
100
AcDbBlockReference
  2
_DOT
 10
88.28772192727851
 20
319.8509331123969
 30
0.0
 41
1.5
 42
1.5
 43
1.5
 50
90.0
  0
INSERT
  5
8047
330
8040
100
AcDbEntity
  8
寸法
 62
     0
370
    -2
100
AcDbBlockReference
  2
_DOT
 10
88.28772192727851
 20
312.2509331123969
 30
0.0
 41
1.5
 42
1.5
 43
1.5
 50
270.0
  0
MTEXT
  5
8048
330
8040
100
AcDbEntity
  8
寸法
  6
Continuous
 62
     0
100
AcDbMText
 10
83.78772192727851
 20
316.0509331123969
 30
0.0
 40
5.0
 41
0.0
 46
0.0
 71
     5
 72
     1
  1
\A1;8
  7
ＭＳ ゴシック
 11
0.0
 21
1.0
 31
0.0
 73
     1
 44
1.0
  0
POINT
  5
8049
330
8040
100
AcDbEntity
  8
Defpoints
 62
     0
100
AcDbPoint
 10
103.3654442520858
 20
319.8509331123969
 30
0.0
  0
POINT
  5
804A
330
8040
100
AcDbEntity
  8
Defpoints
 62
     0
100
AcDbPoint
 10
118.8654442520857
 20
312.2509331123969
 30
0.0
  0
POINT
  5
804B
330
8040
100
AcDbEntity
  8
Defpoints
 62
     0
100
AcDbPoint
 10
88.28772192727851
 20
312.2509331123969
 30
0.0
  0
ENDBLK
  5
8042
330
8040
100
AcDbEntity
  8
0
100
AcDbBlockEnd
  0
BLOCK
  5
8051
330
8050
100
AcDbEntity
  8
0
100
AcDbBlockBegin
  2
*D13
 70
     1
 10
0.0
 20
0.0
 30
0.0
  3
*D13
  1

  0
LINE
  5
8053
330
8050
100
AcDbEntity
  8
寸法
  6
Continuous
 62
     0
370
    -2
100
AcDbLine
 10
374.4217857486187
 20
324.4509331123967
 30
0.0
 11
394.8745512938556
 21
324.4509331123967
 31
0.0
  0
LINE
  5
8054
330
8050
100
AcDbEntity
  8
寸法
  6
Continuous
 62
     0
370
    -2
100
AcDbLine
 10
354.760978206292
 20
284.6540750663313
 30
0.0
 11
394.8745512938556
 21
284.6540750663313
 31
0.0
  0
LINE
  5
8055
330
8050
100
AcDbEntity
  8
寸法
  6
Continuous
 62
     0
370
    -2
100
AcDbLine
 10
394.8745512938556
 20
322.9509331123967
 30
0.0
 11
394.8745512938556
 21
286.1540750663313
 31
0.0
  0
INSERT
  5
8056
330
8050
100
AcDbEntity
  8
寸法
 62
     0
370
    -2
100
AcDbBlockReference
  2
_DOT
 10
394.8745512938556
 20
324.4509331123967
 30
0.0
 41
1.5
 42
1.5
 43
1.5
 50
90.0
  0
INSERT
  5
8057
330
8050
100
AcDbEntity
  8
寸法
 62
     0
370
    -2
100
AcDbBlockReference
  2
_DOT
 10
394.8745512938556
 20
284.6540750663313
 30
0.0
 41
1.5
 42
1.5
 43
1.5
 50
270.0
  0
MTEXT
  5
8058
330
8050
100
AcDbEntity
  8
寸法
  6
Continuous
 62
     0
100
AcDbMText
 10
390.3745512938556
 20
304.552504089364
 30
0.0
 40
5.0
 41
0.0
 46
0.0
 71
     5
 72
     1
  1
\A1;40
  7
ＭＳ ゴシック
 11
0.0
 21
1.0
 31
0.0
 73
     1
 44
1.0
  0
POINT
  5
8059
330
8050
100
AcDbEntity
  8
Defpoints
 62
     0
100
AcDbPoint
 10
369.4217857486187
 20
324.4509331123967
 30
0.0
  0
POINT
  5
805A
330
8050
100
AcDbEntity
  8
Defpoints
 62
     0
100
AcDbPoint
 10
349.760978206292
 20
284.6540750663313
 30
0.0
  0
POINT
  5
805B
330
8050
100
AcDbEntity
  8
Defpoints
 62
     0
100
AcDbPoint
 10
394.8745512938556
 20
284.6540750663313
 30
0.0
  0
ENDBLK
  5
8052
330
8050
100
AcDbEntity
  8
0
100
AcDbBlockEnd
  0
BLOCK
  5
8060
330
805F
100
AcDbEntity
  8
0
100
AcDbBlockBegin
  2
*D14
 70
     1
 10
0.0
 20
0.0
 30
0.0
  3
*D14
  1

  0
LINE
  5
8062
330
805F
100
AcDbEntity
  8
寸法
  6
Continuous
 62
     0
370
    -2
100
AcDbLine
 10
310.5889700186212
 20
324.4509331123976
 30
0.0
 11
300.2110775518255
 21
324.4509331123976
 31
0.0
  0
LINE
  5
8063
330
805F
100
AcDbEntity
  8
寸法
  6
Continuous
 62
     0
370
    -2
100
AcDbLine
 10
311.921785748619
 20
317.6509331123968
 30
0.0
 11
300.2110775518255
 21
317.6509331123968
 31
0.0
  0
LINE
  5
8064
330
805F
100
AcDbEntity
  8
寸法
  6
Continuous
 62
     0
370
    -2
100
AcDbLine
 10
300.2110775518255
 20
322.9509331123976
 30
0.0
 11
300.2110775518255
 21
319.1509331123968
 31
0.0
  0
INSERT
  5
8065
330
805F
100
AcDbEntity
  8
寸法
 62
     0
370
    -2
100
AcDbBlockReference
  2
_DOT
 10
300.2110775518255
 20
324.4509331123976
 30
0.0
 41
1.5
 42
1.5
 43
1.5
 50
90.0
  0
INSERT
  5
8066
330
805F
100
AcDbEntity
  8
寸法
 62
     0
370
    -2
100
AcDbBlockReference
  2
_DOT
 10
300.2110775518255
 20
317.6509331123968
 30
0.0
 41
1.5
 42
1.5
 43
1.5
 50
270.0
  0
MTEXT
  5
8067
330
805F
100
AcDbEntity
  8
寸法
  6
Continuous
 62
     0
100
AcDbMText
 10
295.7101397001311
 20
321.0509331123972
 30
0.0
 40
5.0
 41
0.0
 46
0.0
 71
     5
 72
     1
  1
\A1;7
  7
ＭＳ ゴシック
 11
0.0
 21
1.0
 31
0.0
 73
     1
 44
1.0
  0
POINT
  5
8068
330
805F
100
AcDbEntity
  8
Defpoints
 62
     0
100
AcDbPoint
 10
315.5889700186212
 20
324.4509331123976
 30
0.0
  0
POINT
  5
8069
330
805F
100
AcDbEntity
  8
Defpoints
 62
     0
100
AcDbPoint
 10
316.921785748619
 20
317.6509331123968
 30
0.0
  0
POINT
  5
806A
330
805F
100
AcDbEntity
  8
Defpoints
 62
     0
100
AcDbPoint
 10
300.2110775518255
 20
317.6509331123968
 30
0.0
  0
ENDBLK
  5
8061
330
805F
100
AcDbEntity
  8
0
100
AcDbBlockEnd
  0
BLOCK
  5
8071
330
8070
100
AcDbEntity
  8
0
100
AcDbBlockBegin
  2
*D15
 70
     1
 10
0.0
 20
0.0
 30
0.0
  3
*D15
  1

  0
LINE
  5
8073
330
8070
100
AcDbEntity
  8
寸法
  6
Continuous
 62
     0
370
    -2
100
AcDbLine
 10
311.921785748619
 20
317.6509331123968
 30
0.0
 11
300.2110775518255
 21
317.6509331123968
 31
0.0
  0
LINE
  5
8074
330
8070
100
AcDbEntity
  8
寸法
  6
Continuous
 62
     0
370
    -2
100
AcDbLine
 10
330.084716812558
 20
284.6509331123968
 30
0.0
 11
300.2110775518255
 21
284.6509331123968
 31
0.0
  0
LINE
  5
8075
330
8070
100
AcDbEntity
  8
寸法
  6
Continuous
 62
     0
370
    -2
100
AcDbLine
 10
300.2110775518255
 20
316.1509331123968
 30
0.0
 11
300.2110775518255
 21
286.1509331123968
 31
0.0
  0
INSERT
  5
8076
330
8070
100
AcDbEntity
  8
寸法
 62
     0
370
    -2
100
AcDbBlockReference
  2
_DOT
 10
300.2110775518255
 20
317.6509331123968
 30
0.0
 41
1.5
 42
1.5
 43
1.5
 50
90.0
  0
INSERT
  5
8077
330
8070
100
AcDbEntity
  8
寸法
 62
     0
370
    -2
100
AcDbBlockReference
  2
_DOT
 10
300.2110775518255
 20
284.6509331123968
 30
0.0
 41
1.5
 42
1.5
 43
1.5
 50
270.0
  0
MTEXT
  5
8078
330
8070
100
AcDbEntity
  8
寸法
  6
Continuous
 62
     0
100
AcDbMText
 10
295.7101397001311
 20
301.1509331123968
 30
0.0
 40
5.0
 41
0.0
 46
0.0
 71
     5
 72
     1
  1
\A1;33
  7
ＭＳ ゴシック
 11
0.0
 21
1.0
 31
0.0
 73
     1
 44
1.0
  0
POINT
  5
8079
330
8070
100
AcDbEntity
  8
Defpoints
 62
     0
100
AcDbPoint
 10
316.921785748619
 20
317.6509331123968
 30
0.0
  0
POINT
  5
807A
330
8070
100
AcDbEntity
  8
Defpoints
 62
     0
100
AcDbPoint
 10
335.084716812558
 20
284.6509331123968
 30
0.0
  0
POINT
  5
807B
330
8070
100
AcDbEntity
  8
Defpoints
 62
     0
100
AcDbPoint
 10
300.2110775518255
 20
284.6509331123968
 30
0.0
  0
ENDBLK
  5
8072
330
8070
100
AcDbEntity
  8
0
100
AcDbBlockEnd
  0
BLOCK
  5
8080
330
807F
100
AcDbEntity
  8
0
100
AcDbBlockBegin
  2
*D16
 70
     1
 10
0.0
 20
0.0
 30
0.0
  3
*D16
  1

  0
LINE
  5
8082
330
807F
100
AcDbEntity
  8
寸法
  6
Continuous
 62
     0
370
    -2
100
AcDbLine
 10
220.9639778307298
 20
270.0399390035485
 30
0.0
 11
220.9639778307298
 21
252.5395719262855
 31
0.0
  0
LINE
  5
8083
330
807F
100
AcDbEntity
  8
寸法
  6
Continuous
 62
     0
370
    -2
100
AcDbLine
 10
240.9639778307299
 20
270.0399390035485
 30
0.0
 11
240.9639778307299
 21
252.5395719262855
 31
0.0
  0
LINE
  5
8084
330
807F
100
AcDbEntity
  8
寸法
  6
Continuous
 62
     0
370
    -2
100
AcDbLine
 10
222.4639778307298
 20
252.5395719262855
 30
0.0
 11
239.4639778307299
 21
252.5395719262855
 31
0.0
  0
INSERT
  5
8085
330
807F
100
AcDbEntity
  8
寸法
 62
     0
370
    -2
100
AcDbBlockReference
  2
_DOT
 10
220.9639778307298
 20
252.5395719262855
 30
0.0
 41
1.5
 42
1.5
 43
1.5
 50
180.0
  0
INSERT
  5
8086
330
807F
100
AcDbEntity
  8
寸法
 62
     0
370
    -2
100
AcDbBlockReference
  2
_DOT
 10
240.9639778307299
 20
252.5395719262855
 30
0.0
 41
1.5
 42
1.5
 43
1.5
  0
MTEXT
  5
8087
330
807F
100
AcDbEntity
  8
寸法
  6
Continuous
 62
     0
100
AcDbMText
 10
230.9639778307298
 20
257.0405097779799
 30
0.0
 40
5.0
 41
0.0
 46
0.0
 71
     5
 72
     1
  1
\A1;20
  7
ＭＳ ゴシック
 73
     1
 44
1.0
  0
POINT
  5
8088
330
807F
100
AcDbEntity
  8
Defpoints
 62
     0
100
AcDbPoint
 10
220.9639778307298
 20
275.0399390035485
 30
0.0
  0
POINT
  5
8089
330
807F
100
AcDbEntity
  8
Defpoints
 62
     0
100
AcDbPoint
 10
240.9639778307299
 20
275.0399390035485
 30
0.0
  0
POINT
  5
808A
330
807F
100
AcDbEntity
  8
Defpoints
 62
     0
100
AcDbPoint
 10
240.9639778307299
 20
252.5395719262855
 30
0.0
  0
ENDBLK
  5
8081
330
807F
100
AcDbEntity
  8
0
100
AcDbBlockEnd
  0
BLOCK
  5
808F
330
808E
100
AcDbEntity
  8
0
100
AcDbBlockBegin
  2
*D17
 70
     1
 10
0.0
 20
0.0
 30
0.0
  3
*D17
  1

  0
LINE
  5
8091
330
808E
100
AcDbEntity
  8
寸法
  6
Continuous
 62
     0
370
    -2
100
AcDbLine
 10
203.9639778307299
 20
305.1198114115173
 30
0.0
 11
203.9639778307299
 21
339.2778914719676
 31
0.0
  0
LINE
  5
8092
330
808E
100
AcDbEntity
  8
寸法
  6
Continuous
 62
     0
370
    -2
100
AcDbLine
 10
257.9639778307298
 20
305.1198114115173
 30
0.0
 11
257.9639778307298
 21
339.2778914719676
 31
0.0
  0
LINE
  5
8093
330
808E
100
AcDbEntity
  8
寸法
  6
Continuous
 62
     0
370
    -2
100
AcDbLine
 10
205.4639778307299
 20
339.2778914719676
 30
0.0
 11
256.4639778307298
 21
339.2778914719676
 31
0.0
  0
INSERT
  5
8094
330
808E
100
AcDbEntity
  8
寸法
 62
     0
370
    -2
100
AcDbBlockReference
  2
_DOT
 10
203.9639778307299
 20
339.2778914719676
 30
0.0
 41
1.5
 42
1.5
 43
1.5
 50
180.0
  0
INSERT
  5
8095
330
808E
100
AcDbEntity
  8
寸法
 62
     0
370
    -2
100
AcDbBlockReference
  2
_DOT
 10
257.9639778307298
 20
339.2778914719676
 30
0.0
 41
1.5
 42
1.5
 43
1.5
  0
MTEXT
  5
8096
330
808E
100
AcDbEntity
  8
寸法
  6
Continuous
 62
     0
100
AcDbMText
 10
230.9639778307298
 20
343.778829323662
 30
0.0
 40
5.0
 41
0.0
 46
0.0
 71
     5
 72
     1
  1
\A1;54
  7
ＭＳ ゴシック
 73
     1
 44
1.0
  0
POINT
  5
8097
330
808E
100
AcDbEntity
  8
Defpoints
 62
     0
100
AcDbPoint
 10
203.9639778307299
 20
300.1198114115173
 30
0.0
  0
POINT
  5
8098
330
808E
100
AcDbEntity
  8
Defpoints
 62
     0
100
AcDbPoint
 10
257.9639778307298
 20
300.1198114115173
 30
0.0
  0
POINT
  5
8099
330
808E
100
AcDbEntity
  8
Defpoints
 62
     0
100
AcDbPoint
 10
257.9639778307298
 20
339.2778914719676
 30
0.0
  0
ENDBLK
  5
8090
330
808E
100
AcDbEntity
  8
0
100
AcDbBlockEnd
  0
BLOCK
  5
809E
330
809D
100
AcDbEntity
  8
0
100
AcDbBlockBegin
  2
*D18
 70
     1
 10
0.0
 20
0.0
 30
0.0
  3
*D18
  1

  0
LINE
  5
80A0
330
809D
100
AcDbEntity
  8
寸法
  6
Continuous
 62
     0
370
    -2
100
AcDbLine
 10
455.1767865647565
 20
268.8633391959418
 30
0.0
 11
455.1767865647565
 21
252.5395719262855
 31
0.0
  0
LINE
  5
80A1
330
809D
100
AcDbEntity
  8
寸法
  6
Continuous
 62
     0
370
    -2
100
AcDbLine
 10
471.1767865647565
 20
268.8633391959418
 30
0.0
 11
471.1767865647565
 21
252.5395719262855
 31
0.0
  0
LINE
  5
80A2
330
809D
100
AcDbEntity
  8
寸法
  6
Continuous
 62
     0
370
    -2
100
AcDbLine
 10
456.6767865647565
 20
252.5395719262855
 30
0.0
 11
469.6767865647565
 21
252.5395719262855
 31
0.0
  0
INSERT
  5
80A3
330
809D
100
AcDbEntity
  8
寸法
 62
     0
370
    -2
100
AcDbBlockReference
  2
_DOT
 10
455.1767865647565
 20
252.5395719262855
 30
0.0
 41
1.5
 42
1.5
 43
1.5
 50
180.0
  0
INSERT
  5
80A4
330
809D
100
AcDbEntity
  8
寸法
 62
     0
370
    -2
100
AcDbBlockReference
  2
_DOT
 10
471.1767865647565
 20
252.5395719262855
 30
0.0
 41
1.5
 42
1.5
 43
1.5
  0
MTEXT
  5
80A5
330
809D
100
AcDbEntity
  8
寸法
  6
Continuous
 62
     0
100
AcDbMText
 10
463.1767865647565
 20
257.0405097779799
 30
0.0
 40
5.0
 41
0.0
 46
0.0
 71
     5
 72
     1
  1
\A1;16
  7
ＭＳ ゴシック
 73
     1
 44
1.0
  0
POINT
  5
80A6
330
809D
100
AcDbEntity
  8
Defpoints
 62
     0
100
AcDbPoint
 10
455.1767865647565
 20
273.8633391959418
 30
0.0
  0
POINT
  5
80A7
330
809D
100
AcDbEntity
  8
Defpoints
 62
     0
100
AcDbPoint
 10
471.1767865647565
 20
273.8633391959418
 30
0.0
  0
POINT
  5
80A8
330
809D
100
AcDbEntity
  8
Defpoints
 62
     0
100
AcDbPoint
 10
471.1767865647565
 20
252.5395719262855
 30
0.0
  0
ENDBLK
  5
809F
330
809D
100
AcDbEntity
  8
0
100
AcDbBlockEnd
  0
BLOCK
  5
80B6
330
80B5
100
AcDbEntity
  8
0
100
AcDbBlockBegin
  2
*D19
 70
     1
 10
0.0
 20
0.0
 30
0.0
  3
*D19
  1

  0
LINE
  5
80B8
330
80B5
100
AcDbEntity
  8
寸法
  6
Continuous
 62
     0
370
    -2
100
AcDbLine
 10
351.6449084462188
 20
204.8938505415327
 30
0.0
 11
351.6449084462188
 21
211.061767294613
 31
0.0
  0
LINE
  5
80B9
330
80B5
100
AcDbEntity
  8
寸法
  6
Continuous
 62
     0
370
    -2
100
AcDbLine
 10
361.6449084462188
 20
202.1476867842136
 30
0.0
 11
361.6449084462188
 21
211.061767294613
 31
0.0
  0
LINE
  5
80BA
330
80B5
100
AcDbEntity
  8
寸法
  6
Continuous
 62
     0
370
    -2
100
AcDbLine
 10
353.1449084462188
 20
211.061767294613
 30
0.0
 11
360.1449084462188
 21
211.061767294613
 31
0.0
  0
INSERT
  5
80BB
330
80B5
100
AcDbEntity
  8
寸法
 62
     0
370
    -2
100
AcDbBlockReference
  2
_DOT
 10
351.6449084462188
 20
211.061767294613
 30
0.0
 41
1.5
 42
1.5
 43
1.5
 50
180.0
  0
INSERT
  5
80BC
330
80B5
100
AcDbEntity
  8
寸法
 62
     0
370
    -2
100
AcDbBlockReference
  2
_DOT
 10
361.6449084462188
 20
211.061767294613
 30
0.0
 41
1.5
 42
1.5
 43
1.5
  0
MTEXT
  5
80BD
330
80B5
100
AcDbEntity
  8
寸法
  6
Continuous
 62
     0
100
AcDbMText
 10
356.6449084462188
 20
215.561767294613
 30
0.0
 40
5.0
 41
0.0
 46
0.0
 71
     5
 72
     1
  1
\A1;9
  7
ＭＳ ゴシック
 73
     1
 44
1.0
  0
POINT
  5
80BE
330
80B5
100
AcDbEntity
  8
Defpoints
 62
     0
100
AcDbPoint
 10
351.6449084462188
 20
199.8938505415327
 30
0.0
  0
POINT
  5
80BF
330
80B5
100
AcDbEntity
  8
Defpoints
 62
     0
100
AcDbPoint
 10
361.6449084462188
 20
197.1476867842136
 30
0.0
  0
POINT
  5
80C0
330
80B5
100
AcDbEntity
  8
Defpoints
 62
     0
100
AcDbPoint
 10
361.6449084462188
 20
211.061767294613
 30
0.0
  0
ENDBLK
  5
80B7
330
80B5
100
AcDbEntity
  8
0
100
AcDbBlockEnd
  0
BLOCK
  5
8163
330
8162
100
AcDbEntity
  8
0
100
AcDbBlockBegin
  2
Filled-2
 70
     0
 10
0.0
 20
0.0
 30
0.0
  3
Filled-2
  1

  0
LINE
  5
8164
330
8162
100
AcDbEntity
  8
0
 62
     0
100
AcDbLine
 10
-1.0
 20
0.0
 30
0.0
 11
0.0
 21
0.0
 31
0.0
  0
SOLID
  5
8165
330
8162
100
AcDbEntity
  8
0
 62
     0
100
AcDbTrace
 10
-1.0
 20
-0.2
 30
0.0
 11
0.0
 21
0.0
 31
0.0
 12
-1.0
 22
0.2
 32
0.0
 13
-1.0
 23
0.2
 33
0.0
  0
LINE
  5
8166
330
8162
100
AcDbEntity
  8
0
 62
     0
100
AcDbLine
 10
-1.0
 20
-0.2
 30
0.0
 11
0.0
 21
0.0
 31
0.0
  0
LINE
  5
8167
330
8162
100
AcDbEntity
  8
0
 62
     0
100
AcDbLine
 10
0.0
 20
0.0
 30
0.0
 11
-1.0
 21
0.2
 31
0.0
  0
LINE
  5
8168
330
8162
100
AcDbEntity
  8
0
 62
     0
100
AcDbLine
 10
-1.0
 20
0.2
 30
0.0
 11
-1.0
 21
-0.2
 31
0.0
  0
ENDBLK
  5
8169
330
8162
100
AcDbEntity
  8
0
100
AcDbBlockEnd
  0
BLOCK
  5
8174
330
8173
100
AcDbEntity
  8
0
100
AcDbBlockBegin
  2
Eclipse_privacy_KNOB_200709_Landscape A3_VIEW3
 70
     0
 10
0.0
 20
0.0
 30
0.0
  3
Eclipse_privacy_KNOB_200709_Landscape A3_VIEW3
  1

  0
LINE
  5
8175
330
8173
100
AcDbEntity
  8
Visible
100
AcDbLine
 10
-3.000000000000007
 20
-26.27960673230354
 30
0.0
 11
-3.000000000000006
 21
-26.24863742167283
 31
0.0
  0
LINE
  5
8176
330
8173
100
AcDbEntity
  8
Visible
100
AcDbLine
 10
2.999999999999995
 20
-26.24863742167283
 30
0.0
 11
2.999999999999994
 21
-26.27960673230354
 31
0.0
  0
ARC
  5
8177
330
8173
100
AcDbEntity
  8
Visible
100
AcDbCircle
 10
24.50000000000001
 20
-14.50028977009922
 30
0.0
 40
22.0
210
0.0
220
0.0
230
-1.0
100
AcDbArc
 50
127.4810765244424
 51
171.2817126577387
  0
ARC
  5
8178
330
8173
100
AcDbEntity
  8
Visible
100
AcDbCircle
 10
-0.000000000000021
 20
-0.0002897700992133
 30
0.0
 40
11.50000000000001
100
AcDbArc
 50
256.143236399567
 51
165.0939744182519
  0
SPLINE
  5
8179
330
8173
100
AcDbEntity
  8
Visible
100
AcDbSpline
210
0.0
220
0.0
230
1.0
 70
     8
 71
     3
 72
    30
 73
    26
 74
     0
 42
0.000000001
 43
0.0000000001
 40
0.0
 40
0.0
 40
0.0
 40
0.0
 40
0.3422796120759176
 40
0.3422796120759176
 40
0.6845592241518352
 40
0.6845592241518352
 40
1.026838836227753
 40
1.026838836227753
 40
1.36911844830367
 40
1.36911844830367
 40
1.576101966592648
 40
1.576101966592648
 40
1.783085484881626
 40
1.783085484881626
 40
1.990069003170603
 40
1.990069003170603
 40
2.197052521459581
 40
2.197052521459581
 40
2.539332133535499
 40
2.539332133535499
 40
2.881611745611417
 40
2.881611745611417
 40
3.223891357687334
 40
3.223891357687334
 40
3.566170969763252
 40
3.566170969763252
 40
3.566170969763252
 40
3.566170969763252
 10
-2.754197726466092
 20
-11.16561085296688
 30
0.0
 10
-2.754197726466092
 20
-11.16561085296688
 30
0.0
 10
-2.849240630215894
 20
-11.14366112560144
 30
0.0
 10
-3.248651101172622
 20
-11.03383696592564
 30
0.0
 10
-3.552814214108399
 20
-10.945988795273
 30
0.0
 10
-4.351717936502395
 20
-10.65362710196276
 30
0.0
 10
-4.845226107067441
 20
-10.44957986962375
 30
0.0
 10
-5.98046522493379
 20
-9.84396414559147
 30
0.0
 10
-6.620450237298365
 20
-9.446733881672927
 30
0.0
 10
-7.738522009982015
 20
-8.524581889510843
 30
0.0
 10
-8.211157625968113
 20
-8.08109022834783
 30
0.0
 10
-9.11523992784176
 20
-7.04549168549914
 30
0.0
 10
-9.545228417273098
 20
-6.45123068203059
 30
0.0
 10
-10.24803528767891
 20
-5.263729418241464
 30
0.0
 10
-10.56207221807519
 20
-4.600844022690942
 30
0.0
 10
-11.03486761223098
 20
-3.309994044662298
 30
0.0
 10
-11.19621608233801
 20
-2.682271215530035
 30
0.0
 10
-11.46659362593399
 20
-1.258422638805858
 30
0.0
 10
-11.50686253116772
 20
-0.5062583522996678
 30
0.0
 10
-11.49149759095434
 20
0.7803271203920397
 30
0.0
 10
-11.43290088775446
 20
1.311130298428654
 30
0.0
 10
-11.30477075988681
 20
2.152144678628439
 30
0.0
 10
-11.23542160652931
 20
2.461051129332205
 30
0.0
 10
-11.13950548287296
 20
2.864027763370844
 30
0.0
 10
-11.1130138713131
 20
2.957906081429765
 30
0.0
 10
-11.1130138713131
 20
2.957906081429765
 30
0.0
  0
ARC
  5
817A
330
8173
100
AcDbEntity
  8
Visible
100
AcDbCircle
 10
0.0000000000000161
 20
-0.0002897700992142
 30
0.0
 40
26.45
100
AcDbArc
 50
276.5125908424912
 51
263.4874091575087
  0
ARC
  5
817B
330
8173
100
AcDbEntity
  8
Visible
100
AcDbCircle
 10
-0.0000000000000189
 20
-0.0002897700987603
 30
0.0
 40
26.41923076923123
100
AcDbArc
 50
263.4797913572383
 51
276.5202086427618
  0
ENDBLK
  5
817C
330
8173
100
AcDbEntity
  8
0
100
AcDbBlockEnd
  0
BLOCK
  5
817F
330
817E
100
AcDbEntity
  8
0
100
AcDbBlockBegin
  2
3901T001_DRWC53_IND_ZP_V01_Landscape A3_VIEW1
 70
     0
 10
0.0
 20
0.0
 30
0.0
  3
3901T001_DRWC53_IND_ZP_V01_Landscape A3_VIEW1
  1

  0
LINE
  5
8180
330
817E
100
AcDbEntity
  8
Visible
100
AcDbLine
 10
-3.000000000000004
 20
-26.27960673230354
 30
0.0
 11
-3.000000000000004
 21
-26.24863742167283
 31
0.0
  0
LINE
  5
8181
330
817E
100
AcDbEntity
  8
Visible
100
AcDbLine
 10
2.999999999999997
 20
-26.24863742167283
 30
0.0
 11
2.999999999999996
 21
-26.27960673230354
 31
0.0
  0
ARC
  5
8182
330
817E
100
AcDbEntity
  8
Visible
100
AcDbCircle
 10
0.0000000000000183
 20
-0.0002897700992142
 30
0.0
 40
26.45
100
AcDbArc
 50
276.5125908424912
 51
263.4874091575087
  0
ARC
  5
8183
330
817E
100
AcDbEntity
  8
Visible
100
AcDbCircle
 10
-0.0000000000000167
 20
-0.0002897700987603
 30
0.0
 40
26.41923076923123
100
AcDbArc
 50
263.4797913572383
 51
276.5202086427618
  0
ARC
  5
8184
330
817E
100
AcDbEntity
  8
Visible
100
AcDbCircle
 10
-0.0000000000000155
 20
-0.0002897700992144
 30
0.0
 40
10.50000000000004
100
AcDbArc
 50
6.83714116813618
 51
173.162858831864
  0
ARC
  5
8185
330
817E
100
AcDbEntity
  8
Visible
100
AcDbCircle
 10
-0.0000000000000189
 20
-0.0002897700992133
 30
0.0
 40
10.50000000000004
100
AcDbArc
 50
186.8371411681362
 51
353.162858831864
  0
LINE
  5
8186
330
817E
100
AcDbEntity
  8
Visible
100
AcDbLine
 10
-10.42532973099657
 20
1.249710229900783
 30
0.0
 11
10.42532973099654
 21
1.249710229900799
 31
0.0
  0
LINE
  5
8187
330
817E
100
AcDbEntity
  8
Visible
100
AcDbLine
 10
10.42532973099654
 20
-1.250289770099209
 30
0.0
 11
-10.42532973099657
 21
-1.250289770099222
 31
0.0
  0
ARC
  5
8188
330
817E
100
AcDbEntity
  8
Visible
100
AcDbCircle
 10
0.0000000000000022
 20
-0.000289770099215
 30
0.0
 40
10.50000000000005
210
0.0
220
0.0
230
-1.0
100
AcDbArc
 50
353.1628588318639
 51
6.837141168136041
  0
ARC
  5
8189
330
817E
100
AcDbEntity
  8
Visible
100
AcDbCircle
 10
0.0000000000000511
 20
-0.0002897700992092
 30
0.0
 40
10.50000000000007
210
0.0
220
0.0
230
-1.0
100
AcDbArc
 50
173.1628588318639
 51
186.8371411681361
  0
ENDBLK
  5
818A
330
817E
100
AcDbEntity
  8
0
100
AcDbBlockEnd
  0
BLOCK
  5
818D
330
818C
100
AcDbEntity
  8
0
100
AcDbBlockBegin
  2
Eclipse_privacy_KNOB_200709_Landscape A3_VIEW4
 70
     0
 10
0.0
 20
0.0
 30
0.0
  3
Eclipse_privacy_KNOB_200709_Landscape A3_VIEW4
  1

  0
LINE
  5
818E
330
818C
100
AcDbEntity
  8
Visible
100
AcDbLine
 10
-3.933
 20
-11.50028977009921
 30
0.0
 11
20.0
 21
-11.50028977009921
 31
0.0
  0
LINE
  5
818F
330
818C
100
AcDbEntity
  8
Visible
100
AcDbLine
 10
-10.0
 20
-11.50028977009921
 30
0.0
 11
-8.067
 21
-11.50028977009921
 31
0.0
  0
LINE
  5
8190
330
818C
100
AcDbEntity
  8
Visible
100
AcDbLine
 10
-10.0
 20
11.49971022990079
 30
0.0
 11
20.0
 21
11.49971022990079
 31
0.0
  0
LINE
  5
8191
330
818C
100
AcDbEntity
  8
Visible
100
AcDbLine
 10
-10.0
 20
-11.50028977009921
 30
0.0
 11
-10.0
 21
11.49971022990079
 31
0.0
  0
LINE
  5
8192
330
818C
100
AcDbEntity
  8
Visible
100
AcDbLine
 10
20.0
 20
2.957906081429763
 30
0.0
 11
20.0
 21
11.49971022990078
 31
0.0
  0
LINE
  5
8193
330
818C
100
AcDbEntity
  8
Visible
100
AcDbLine
 10
19.99999999999921
 20
-11.50028977009922
 30
0.0
 11
19.99999999999918
 21
-11.16561085296688
 31
0.0
  0
LINE
  5
8194
330
818C
100
AcDbEntity
  8
Visible
100
AcDbLine
 10
19.9999999999967
 20
2.957906081429774
 30
0.0
 11
19.9999999999956
 21
-11.16561085296688
 31
0.0
  0
LINE
  5
8195
330
818C
100
AcDbEntity
  8
Visible
100
AcDbLine
 10
19.99999999999918
 20
-11.16561085296688
 30
0.0
 11
11.99999999999918
 21
-11.16561085296688
 31
0.0
  0
LINE
  5
8196
330
818C
100
AcDbEntity
  8
Visible
100
AcDbLine
 10
11.9999999999967
 20
2.957906081429765
 30
0.0
 11
19.9999999999967
 21
2.957906081429765
 31
0.0
  0
LINE
  5
8197
330
818C
100
AcDbEntity
  8
Visible
100
AcDbLine
 10
-18.7
 20
-7.200289770099212
 30
0.0
 11
-17.5
 21
-7.200289770099212
 31
0.0
  0
SPLINE
  5
8198
330
818C
100
AcDbEntity
  8
Visible
100
AcDbSpline
210
0.0
220
0.0
230
1.0
 70
     8
 71
     3
 72
    30
 73
    26
 74
     0
 42
0.000000001
 43
0.0000000001
 40
0.0
 40
0.0
 40
0.0
 40
0.0
 40
0.3422796120759176
 40
0.3422796120759176
 40
0.6845592241518352
 40
0.6845592241518352
 40
1.026838836227753
 40
1.026838836227753
 40
1.36911844830367
 40
1.36911844830367
 40
1.576101966592648
 40
1.576101966592648
 40
1.783085484881626
 40
1.783085484881626
 40
1.990069003170603
 40
1.990069003170603
 40
2.197052521459581
 40
2.197052521459581
 40
2.539332133535499
 40
2.539332133535499
 40
2.881611745611417
 40
2.881611745611417
 40
3.223891357687334
 40
3.223891357687334
 40
3.566170969763252
 40
3.566170969763252
 40
3.566170969763252
 40
3.566170969763252
 10
11.99999999999918
 20
-11.16561085296688
 30
0.0
 10
10.85906795974612
 20
-11.16561085296688
 30
0.0
 10
9.677377730012594
 20
-11.14366112560144
 30
0.0
 10
7.333011003746709
 20
-11.03383696592564
 30
0.0
 10
6.17029844869483
 20
-10.945988795273
 30
0.0
 10
3.959292061459131
 20
-10.65362710196276
 30
0.0
 10
2.911848755089085
 20
-10.44957986962375
 30
0.0
 10
1.01554079964936
 20
-9.84396414559147
 30
0.0
 10
0.164249111858183
 20
-9.446733881672927
 30
0.0
 10
-0.9545279768590227
 20
-8.524581889510843
 30
0.0
 10
-1.341989862436369
 20
-8.08109022834783
 30
0.0
 10
-1.866374622525219
 20
-7.04549168549914
 30
0.0
 10
-2.001552731481964
 20
-6.45123068203059
 30
0.0
 10
-2.001552731482173
 20
-5.263729418241464
 30
0.0
 10
-1.866374622525649
 20
-4.600844022690942
 30
0.0
 10
-1.341989862437206
 20
-3.309994044662298
 30
0.0
 10
-0.9545279768600547
 20
-2.682271215530035
 30
0.0
 10
0.1642491118567424
 20
-1.258422638805858
 30
0.0
 10
1.015540799647722
 20
-0.5062583522996678
 30
0.0
 10
2.911848755087119
 20
0.7803271203920397
 30
0.0
 10
3.959292061457036
 20
1.311130298428654
 30
0.0
 10
6.170298448692535
 20
2.152144678628439
 30
0.0
 10
7.333011003744339
 20
2.461051129332205
 30
0.0
 10
9.677377730010136
 20
2.864027763370844
 30
0.0
 10
10.85906795974364
 20
2.957906081429765
 30
0.0
 10
11.9999999999967
 20
2.957906081429765
 30
0.0
  0
LINE
  5
8199
330
818C
100
AcDbEntity
  8
Visible
100
AcDbLine
 10
-18.7
 20
7.199710229900788
 30
0.0
 11
-17.5
 21
7.199710229900788
 31
0.0
  0
LINE
  5
819A
330
818C
100
AcDbEntity
  8
Visible
100
AcDbLine
 10
-20.0
 20
-7.875289770099211
 30
0.0
 11
-18.7
 21
-7.875289770099211
 31
0.0
  0
LINE
  5
819B
330
818C
100
AcDbEntity
  8
Visible
100
AcDbLine
 10
-20.0
 20
7.874710229900788
 30
0.0
 11
-18.7
 21
7.874710229900788
 31
0.0
  0
LINE
  5
819C
330
818C
100
AcDbEntity
  8
Visible
100
AcDbLine
 10
-18.7
 20
-7.87528977009921
 30
0.0
 11
-18.7
 21
7.874710229900787
 31
0.0
  0
LINE
  5
819D
330
818C
100
AcDbEntity
  8
Visible
100
AcDbLine
 10
-20.0
 20
-7.87528977009921
 30
0.0
 11
-20.0
 21
7.874710229900787
 31
0.0
  0
LINE
  5
819E
330
818C
100
AcDbEntity
  8
Visible
100
AcDbLine
 10
-10.0
 20
9.999710229900787
 30
0.0
 11
-11.0
 21
9.999710229900787
 31
0.0
  0
SPLINE
  5
819F
330
818C
100
AcDbEntity
  8
Visible
100
AcDbSpline
210
0.0
220
0.0
230
1.0
 70
     8
 71
     3
 72
    23
 73
    19
 74
     0
 42
0.000000001
 43
0.0000000001
 40
0.9365248918984324
 40
0.9365248918984324
 40
0.9365248918984324
 40
0.9365248918984324
 40
1.014567217022322
 40
1.014567217022322
 40
1.092609542146212
 40
1.092609542146212
 40
1.170654699005394
 40
1.170654699005394
 40
1.248699855864577
 40
1.248699855864577
 40
1.248699855864577
 40
1.326745012723759
 40
1.326745012723759
 40
1.404790169582941
 40
1.404790169582941
 40
1.482832494706831
 40
1.482832494706831
 40
1.560874819830721
 40
1.560874819830721
 40
1.560874819830721
 40
1.560874819830721
 10
-8.067
 20
-11.50028977009921
 30
0.0
 10
-8.067000000000078
 20
-11.50028977009921
 30
0.0
 10
-8.01489519818163
 20
-11.49056736215202
 30
0.0
 10
-7.803773138764581
 20
-11.45543158732266
 30
0.0
 10
-7.644786832463293
 20
-11.43050519055557
 30
0.0
 10
-7.278385953726955
 20
-11.38355683561756
 30
0.0
 10
-7.046337889937059
 20
-11.35845228875552
 30
0.0
 10
-6.537245101109484
 20
-11.32290720032316
 30
0.0
 10
-6.260150522864555
 20
-11.31300434264987
 30
0.0
 10
-6.000000000000613
 20
-11.31300434264987
 30
0.0
 10
-5.739849477136671
 20
-11.31300434264987
 30
0.0
 10
-5.462754898891712
 20
-11.32290720032316
 30
0.0
 10
-4.953662110064012
 20
-11.35845228875552
 30
0.0
 10
-4.721614046274023
 20
-11.38355683561756
 30
0.0
 10
-4.355213167537468
 20
-11.43050519055557
 30
0.0
 10
-4.19622686123604
 20
-11.45543158732266
 30
0.0
 10
-3.985104801818688
 20
-11.49056736215202
 30
0.0
 10
-3.933000000000076
 20
-11.50028977009921
 30
0.0
 10
-3.932999999999999
 20
-11.50028977009921
 30
0.0
  0
LINE
  5
81A0
330
818C
100
AcDbEntity
  8
Visible
100
AcDbLine
 10
-10.0
 20
-10.00028977009921
 30
0.0
 11
-11.0
 21
-10.00028977009921
 31
0.0
  0
LINE
  5
81A1
330
818C
100
AcDbEntity
  8
Visible
100
AcDbLine
 10
-15.50000000000088
 20
-26.41952053932999
 30
0.0
 11
-15.50000000000089
 21
-26.24863742167283
 31
0.0
  0
LINE
  5
81A2
330
818C
100
AcDbEntity
  8
Visible
100
AcDbLine
 10
-17.50000000000089
 20
-26.27960673230354
 30
0.0
 11
-15.50000000000089
 21
-26.24863742167283
 31
0.0
  0
LINE
  5
81A3
330
818C
100
AcDbEntity
  8
Visible
100
AcDbLine
 10
-11.19997633556165
 20
26.35278678890943
 30
0.0
 11
-17.5
 21
26.44971022990079
 31
0.0
  0
LINE
  5
81A4
330
818C
100
AcDbEntity
  8
Visible
100
AcDbLine
 10
-11.19997633556165
 20
-26.35336632910786
 30
0.0
 11
-15.5
 21
-26.41952053932999
 31
0.0
  0
LINE
  5
81A5
330
818C
100
AcDbEntity
  8
Visible
100
AcDbLine
 10
-17.5
 20
-26.27960673230354
 30
0.0
 11
-17.5
 21
26.44971022990079
 31
0.0
  0
LINE
  5
81A6
330
818C
100
AcDbEntity
  8
Visible
100
AcDbLine
 10
-11.00000000000011
 20
26.14971022990068
 30
0.0
 11
-11.19997633556176
 21
26.35278678890932
 31
0.0
  0
LINE
  5
81A7
330
818C
100
AcDbEntity
  8
Visible
100
AcDbLine
 10
-10.99999999999989
 20
-26.15028977009932
 30
0.0
 11
-11.19997633556154
 21
-26.35336632910796
 31
0.0
  0
LINE
  5
81A8
330
818C
100
AcDbEntity
  8
Visible
100
AcDbLine
 10
-11.0
 20
26.14971022990079
 30
0.0
 11
-11.0
 21
-26.15028977009921
 31
0.0
  0
ENDBLK
  5
81A9
330
818C
100
AcDbEntity
  8
0
100
AcDbBlockEnd
  0
BLOCK
  5
81AC
330
81AB
100
AcDbEntity
  8
0
100
AcDbBlockBegin
  2
3901T001_DRWC53_IND_ZP_V01_Landscape A3_VIEW2
 70
     0
 10
0.0
 20
0.0
 30
0.0
  3
3901T001_DRWC53_IND_ZP_V01_Landscape A3_VIEW2
  1

  0
LINE
  5
81AD
330
81AB
100
AcDbEntity
  8
Visible
100
AcDbLine
 10
-1.800000000000882
 20
-26.41952053932999
 30
0.0
 11
-1.800000000000888
 21
-26.24863742167283
 31
0.0
  0
LINE
  5
81AE
330
81AB
100
AcDbEntity
  8
Visible
100
AcDbLine
 10
-3.800000000000892
 20
-26.27960673230354
 30
0.0
 11
-1.800000000000888
 21
-26.24863742167283
 31
0.0
  0
LINE
  5
81AF
330
81AB
100
AcDbEntity
  8
Visible
100
AcDbLine
 10
2.50002366443835
 20
26.35278678890943
 30
0.0
 11
-3.8
 21
26.44971022990079
 31
0.0
  0
LINE
  5
81B0
330
81AB
100
AcDbEntity
  8
Visible
100
AcDbLine
 10
2.50002366443835
 20
-26.35336632910786
 30
0.0
 11
-1.799999999999998
 21
-26.41952053932999
 31
0.0
  0
LINE
  5
81B1
330
81AB
100
AcDbEntity
  8
Visible
100
AcDbLine
 10
-3.8
 20
-26.27960673230354
 30
0.0
 11
-3.8
 21
26.44971022990079
 31
0.0
  0
LINE
  5
81B2
330
81AB
100
AcDbEntity
  8
Visible
100
AcDbLine
 10
2.699999999999894
 20
26.14971022990068
 30
0.0
 11
2.500023664438241
 21
26.35278678890932
 31
0.0
  0
LINE
  5
81B3
330
81AB
100
AcDbEntity
  8
Visible
100
AcDbLine
 10
2.700000000000107
 20
-26.15028977009932
 30
0.0
 11
2.500023664438458
 21
-26.35336632910796
 31
0.0
  0
LINE
  5
81B4
330
81AB
100
AcDbEntity
  8
Visible
100
AcDbLine
 10
2.7
 20
26.14971022990079
 30
0.0
 11
2.7
 21
-26.15028977009921
 31
0.0
  0
LINE
  5
81B5
330
81AB
100
AcDbEntity
  8
Visible
100
AcDbLine
 10
-3.800000000000001
 20
-7.875289770099241
 30
0.0
 11
-8.500000000000002
 21
-7.875289770099241
 31
0.0
  0
LINE
  5
81B6
330
81AB
100
AcDbEntity
  8
Visible
100
AcDbLine
 10
-3.800000000000001
 20
7.874710229900814
 30
0.0
 11
-8.500000000000002
 21
7.874710229900814
 31
0.0
  0
LINE
  5
81B7
330
81AB
100
AcDbEntity
  8
Visible
100
AcDbLine
 10
6.999999999996909
 20
1.249710229900783
 30
0.0
 11
8.99999999999691
 21
1.249710229900783
 31
0.0
  0
LINE
  5
81B8
330
81AB
100
AcDbEntity
  8
Visible
100
AcDbLine
 10
8.99999999999691
 20
-1.250289770099222
 30
0.0
 11
6.999999999996909
 21
-1.250289770099222
 31
0.0
  0
SPLINE
  5
81B9
330
81AB
100
AcDbEntity
  8
Visible
100
AcDbSpline
210
0.0
220
0.0
230
1.0
 70
    12
 71
     2
 72
     6
 73
     3
 74
     0
 42
0.000000001
 43
0.0000000001
 40
0.0
 40
0.0
 40
0.0
 40
0.1083926564314288
 40
0.1083926564314288
 40
0.1083926564314288
 10
-8.500000000001931
 20
-4.446144581043911
 30
0.0
 41
1.0
 10
-8.780311829401294
 20
-3.949624620228787
 30
0.0
 41
1.001993606838385
 10
-9.000000000001931
 20
-3.484629736290811
 30
0.0
 41
1.0
  0
SPLINE
  5
81BA
330
81AB
100
AcDbEntity
  8
Visible
100
AcDbSpline
210
0.0
220
0.0
230
1.0
 70
    12
 71
     2
 72
     6
 73
     3
 74
     0
 42
0.000000001
 43
0.0000000001
 40
0.0
 40
0.0
 40
0.0
 40
0.1083926564314288
 40
0.1083926564314288
 40
0.1083926564314288
 10
-9.000000000001931
 20
3.484050196092393
 30
0.0
 41
1.0
 10
-8.780311829401297
 20
3.949045080030365
 30
0.0
 41
1.001993606838501
 10
-8.500000000001931
 20
4.445565040845493
 30
0.0
 41
1.0
  0
LINE
  5
81BB
330
81AB
100
AcDbEntity
  8
Visible
100
AcDbLine
 10
6.999999999996997
 20
1.249710229900775
 30
0.0
 11
6.999999999996909
 21
-1.250289770099223
 31
0.0
  0
LINE
  5
81BC
330
81AB
100
AcDbEntity
  8
Visible
100
AcDbLine
 10
9.000000000000002
 20
10.49971022990082
 30
0.0
 11
3.000000000000001
 21
10.49971022990082
 31
0.0
  0
LINE
  5
81BD
330
81AB
100
AcDbEntity
  8
Visible
100
AcDbLine
 10
9.000000000000002
 20
-10.50028977009925
 30
0.0
 11
3.000000000000001
 21
-10.50028977009925
 31
0.0
  0
LINE
  5
81BE
330
81AB
100
AcDbEntity
  8
Visible
100
AcDbLine
 10
9.000000000000002
 20
1.249710229900785
 30
0.0
 11
9.000000000000002
 21
10.49971022990082
 31
0.0
  0
LINE
  5
81BF
330
81AB
100
AcDbEntity
  8
Visible
100
AcDbLine
 10
8.999999999999634
 20
-10.50028977009925
 30
0.0
 11
8.99999999999691
 21
-1.250289770099226
 31
0.0
  0
LINE
  5
81C0
330
81AB
100
AcDbEntity
  8
Visible
100
AcDbLine
 10
3.000000000000001
 20
-10.50028977009925
 30
0.0
 11
3.000000000000001
 21
10.49971022990082
 31
0.0
  0
LINE
  5
81C1
330
81AB
100
AcDbEntity
  8
Visible
100
AcDbLine
 10
-9.000000000000002
 20
-7.37528977009924
 30
0.0
 11
-8.500000000000002
 21
-7.875289770099241
 31
0.0
  0
LINE
  5
81C2
330
81AB
100
AcDbEntity
  8
Visible
100
AcDbLine
 10
-9.000000000000002
 20
7.374710229900813
 30
0.0
 11
-8.500000000000002
 21
7.874710229900814
 31
0.0
  0
LINE
  5
81C3
330
81AB
100
AcDbEntity
  8
Visible
100
AcDbLine
 10
-8.500000000000002
 20
-4.446144581043908
 30
0.0
 11
-8.500000000000002
 21
-7.87528977009924
 31
0.0
  0
LINE
  5
81C4
330
81AB
100
AcDbEntity
  8
Visible
100
AcDbLine
 10
-8.50000000000109
 20
7.874710229900814
 30
0.0
 11
-8.50000000000193
 21
4.44556504084549
 31
0.0
  0
LINE
  5
81C5
330
81AB
100
AcDbEntity
  8
Visible
100
AcDbLine
 10
-9.000000000000913
 20
-7.375289770099238
 30
0.0
 11
-9.00000000000193
 21
-3.484629736290813
 31
0.0
  0
LINE
  5
81C6
330
81AB
100
AcDbEntity
  8
Visible
100
AcDbLine
 10
-9.000000000000002
 20
3.48405019609239
 30
0.0
 11
-9.000000000000002
 21
7.374710229900812
 31
0.0
  0
LINE
  5
81C7
330
81AB
100
AcDbEntity
  8
Visible
100
AcDbLine
 10
-3.800000000001928
 20
-4.44614458104391
 30
0.0
 11
-8.500000000001931
 21
-4.44614458104391
 31
0.0
  0
LINE
  5
81C8
330
81AB
100
AcDbEntity
  8
Visible
100
AcDbLine
 10
-8.500000000001931
 20
4.445565040845492
 30
0.0
 11
-3.800000000001928
 21
4.445565040845492
 31
0.0
  0
LINE
  5
81C9
330
81AB
100
AcDbEntity
  8
Visible
100
AcDbLine
 10
-9.000000000001931
 20
-3.484629736290808
 30
0.0
 11
-9.000000000001931
 21
3.484050196092389
 31
0.0
  0
LINE
  5
81CA
330
81AB
100
AcDbEntity
  8
Visible
100
AcDbLine
 10
3.0
 20
9.499710229900787
 30
0.0
 11
2.700000000000001
 21
9.499710229900787
 31
0.0
  0
LINE
  5
81CB
330
81AB
100
AcDbEntity
  8
Visible
100
AcDbLine
 10
3.0
 20
-9.500289770099213
 30
0.0
 11
2.700000000000001
 21
-9.500289770099213
 31
0.0
  0
ENDBLK
  5
81CC
330
81AB
100
AcDbEntity
  8
0
100
AcDbBlockEnd
  0
BLOCK
  5
82F2
330
82F1
100
AcDbEntity
  8
0
100
AcDbBlockBegin
  2
*D25
 70
     1
 10
0.0
 20
0.0
 30
0.0
  3
*D25
  1

  0
LINE
  5
82F4
330
82F1
100
AcDbEntity
  8
寸法
  6
Continuous
 62
     0
370
    -2
100
AcDbLine
 10
1099.0
 20
363.8299476852571
 30
0.0
 11
1099.0
 21
387.6269583595707
 31
0.0
  0
LINE
  5
82F5
330
82F1
100
AcDbEntity
  8
寸法
  6
Continuous
 62
     0
370
    -2
100
AcDbLine
 10
1153.0
 20
363.0066156500665
 30
0.0
 11
1153.0
 21
387.6269583595707
 31
0.0
  0
LINE
  5
82F6
330
82F1
100
AcDbEntity
  8
寸法
  6
Continuous
 62
     0
370
    -2
100
AcDbLine
 10
1100.5
 20
387.6269583595707
 30
0.0
 11
1151.5
 21
387.6269583595707
 31
0.0
  0
INSERT
  5
82F7
330
82F1
100
AcDbEntity
  8
寸法
 62
     0
370
    -2
100
AcDbBlockReference
  2
_DOT
 10
1099.0
 20
387.6269583595707
 30
0.0
 41
1.5
 42
1.5
 43
1.5
 50
180.0
  0
INSERT
  5
82F8
330
82F1
100
AcDbEntity
  8
寸法
 62
     0
370
    -2
100
AcDbBlockReference
  2
_DOT
 10
1153.0
 20
387.6269583595707
 30
0.0
 41
1.5
 42
1.5
 43
1.5
  0
MTEXT
  5
82F9
330
82F1
100
AcDbEntity
  8
寸法
  6
Continuous
 62
     0
100
AcDbMText
 10
1126.0
 20
392.1278962112651
 30
0.0
 40
5.0
 41
0.0
 46
0.0
 71
     5
 72
     1
  1
\A1;54
  7
ＭＳ ゴシック
 73
     1
 44
1.0
  0
POINT
  5
82FA
330
82F1
100
AcDbEntity
  8
Defpoints
 62
     0
100
AcDbPoint
 10
1099.0
 20
358.8299476852571
 30
0.0
  0
POINT
  5
82FB
330
82F1
100
AcDbEntity
  8
Defpoints
 62
     0
100
AcDbPoint
 10
1153.0
 20
358.0066156500665
 30
0.0
  0
POINT
  5
82FC
330
82F1
100
AcDbEntity
  8
Defpoints
 62
     0
100
AcDbPoint
 10
1153.0
 20
387.6269583595707
 30
0.0
  0
ENDBLK
  5
82F3
330
82F1
100
AcDbEntity
  8
0
100
AcDbBlockEnd
  0
BLOCK
  5
82FE
330
82FD
100
AcDbEntity
  8
0
100
AcDbBlockBegin
  2
*D26
 70
     1
 10
0.0
 20
0.0
 30
0.0
  3
*D26
  1

  0
LINE
  5
8300
330
82FD
100
AcDbEntity
  8
寸法
  6
Continuous
 62
     0
370
    -2
100
AcDbLine
 10
823.6886576873292
 20
374.9999999999998
 30
0.0
 11
835.3440706697999
 21
374.9999999999998
 31
0.0
  0
LINE
  5
8301
330
82FD
100
AcDbEntity
  8
寸法
  6
Continuous
 62
     0
370
    -2
100
AcDbLine
 10
806.6886576873292
 20
360.6
 30
0.0
 11
835.3440706697999
 21
360.6
 31
0.0
  0
LINE
  5
8302
330
82FD
100
AcDbEntity
  8
寸法
  6
Continuous
 62
     0
370
    -2
100
AcDbLine
 10
835.3440706697999
 20
373.4999999999998
 30
0.0
 11
835.3440706697999
 21
362.1
 31
0.0
  0
INSERT
  5
8303
330
82FD
100
AcDbEntity
  8
寸法
 62
     0
370
    -2
100
AcDbBlockReference
  2
_DOT
 10
835.3440706697999
 20
374.9999999999998
 30
0.0
 41
1.5
 42
1.5
 43
1.5
 50
90.0
  0
INSERT
  5
8304
330
82FD
100
AcDbEntity
  8
寸法
 62
     0
370
    -2
100
AcDbBlockReference
  2
_DOT
 10
835.3440706697999
 20
360.6
 30
0.0
 41
1.5
 42
1.5
 43
1.5
 50
270.0
  0
MTEXT
  5
8305
330
82FD
100
AcDbEntity
  8
寸法
  6
Continuous
 62
     0
100
AcDbMText
 10
830.8431328181055
 20
367.7999999999999
 30
0.0
 40
5.0
 41
0.0
 46
0.0
 71
     5
 72
     1
  1
\A1;15
  7
ＭＳ ゴシック
 11
0.0
 21
1.0
 31
0.0
 73
     1
 44
1.0
  0
POINT
  5
8306
330
82FD
100
AcDbEntity
  8
Defpoints
 62
     0
100
AcDbPoint
 10
818.6886576873292
 20
374.9999999999998
 30
0.0
  0
POINT
  5
8307
330
82FD
100
AcDbEntity
  8
Defpoints
 62
     0
100
AcDbPoint
 10
801.6886576873292
 20
360.6
 30
0.0
  0
POINT
  5
8308
330
82FD
100
AcDbEntity
  8
Defpoints
 62
     0
100
AcDbPoint
 10
835.3440706697999
 20
360.6
 30
0.0
  0
ENDBLK
  5
82FF
330
82FD
100
AcDbEntity
  8
0
100
AcDbBlockEnd
  0
BLOCK
  5
830A
330
8309
100
AcDbEntity
  8
0
100
AcDbBlockBegin
  2
*D27
 70
     1
 10
0.0
 20
0.0
 30
0.0
  3
*D27
  1

  0
LINE
  5
830C
330
8309
100
AcDbEntity
  8
寸法
  6
Continuous
 62
     0
370
    -2
100
AcDbLine
 10
759.8558419573318
 20
375.000000000001
 30
0.0
 11
751.110935362522
 21
375.000000000001
 31
0.0
  0
LINE
  5
830D
330
8309
100
AcDbEntity
  8
寸法
  6
Continuous
 62
     0
370
    -2
100
AcDbLine
 10
761.1886576873293
 20
368.1999999999999
 30
0.0
 11
751.110935362522
 21
368.1999999999999
 31
0.0
  0
LINE
  5
830E
330
8309
100
AcDbEntity
  8
寸法
  6
Continuous
 62
     0
370
    -2
100
AcDbLine
 10
751.110935362522
 20
373.500000000001
 30
0.0
 11
751.110935362522
 21
369.6999999999999
 31
0.0
  0
INSERT
  5
830F
330
8309
100
AcDbEntity
  8
寸法
 62
     0
370
    -2
100
AcDbBlockReference
  2
_DOT
 10
751.110935362522
 20
375.000000000001
 30
0.0
 41
1.5
 42
1.5
 43
1.5
 50
90.0
  0
INSERT
  5
8310
330
8309
100
AcDbEntity
  8
寸法
 62
     0
370
    -2
100
AcDbBlockReference
  2
_DOT
 10
751.110935362522
 20
368.1999999999999
 30
0.0
 41
1.5
 42
1.5
 43
1.5
 50
270.0
  0
MTEXT
  5
8311
330
8309
100
AcDbEntity
  8
寸法
  6
Continuous
 62
     0
100
AcDbMText
 10
746.6099975108276
 20
371.6000000000005
 30
0.0
 40
5.0
 41
0.0
 46
0.0
 71
     5
 72
     1
  1
\A1;7
  7
ＭＳ ゴシック
 11
0.0
 21
1.0
 31
0.0
 73
     1
 44
1.0
  0
POINT
  5
8312
330
8309
100
AcDbEntity
  8
Defpoints
 62
     0
100
AcDbPoint
 10
764.8558419573318
 20
375.000000000001
 30
0.0
  0
POINT
  5
8313
330
8309
100
AcDbEntity
  8
Defpoints
 62
     0
100
AcDbPoint
 10
766.1886576873293
 20
368.1999999999999
 30
0.0
  0
POINT
  5
8314
330
8309
100
AcDbEntity
  8
Defpoints
 62
     0
100
AcDbPoint
 10
751.110935362522
 20
368.1999999999999
 30
0.0
  0
ENDBLK
  5
830B
330
8309
100
AcDbEntity
  8
0
100
AcDbBlockEnd
  0
BLOCK
  5
8316
330
8315
100
AcDbEntity
  8
0
100
AcDbBlockBegin
  2
*D28
 70
     1
 10
0.0
 20
0.0
 30
0.0
  3
*D28
  1

  0
LINE
  5
8318
330
8315
100
AcDbEntity
  8
寸法
  6
Continuous
 62
     0
370
    -2
100
AcDbLine
 10
761.1886576873293
 20
368.1999999999999
 30
0.0
 11
751.110935362522
 21
368.1999999999999
 31
0.0
  0
LINE
  5
8319
330
8315
100
AcDbEntity
  8
寸法
  6
Continuous
 62
     0
370
    -2
100
AcDbLine
 10
776.6886576873292
 20
360.6
 30
0.0
 11
751.110935362522
 21
360.6
 31
0.0
  0
LINE
  5
831A
330
8315
100
AcDbEntity
  8
寸法
  6
Continuous
 62
     0
370
    -2
100
AcDbLine
 10
751.110935362522
 20
366.6999999999999
 30
0.0
 11
751.110935362522
 21
362.1
 31
0.0
  0
INSERT
  5
831B
330
8315
100
AcDbEntity
  8
寸法
 62
     0
370
    -2
100
AcDbBlockReference
  2
_DOT
 10
751.110935362522
 20
368.1999999999999
 30
0.0
 41
1.5
 42
1.5
 43
1.5
 50
90.0
  0
INSERT
  5
831C
330
8315
100
AcDbEntity
  8
寸法
 62
     0
370
    -2
100
AcDbBlockReference
  2
_DOT
 10
751.110935362522
 20
360.6
 30
0.0
 41
1.5
 42
1.5
 43
1.5
 50
270.0
  0
MTEXT
  5
831D
330
8315
100
AcDbEntity
  8
寸法
  6
Continuous
 62
     0
100
AcDbMText
 10
746.610935362522
 20
364.4
 30
0.0
 40
5.0
 41
0.0
 46
0.0
 71
     5
 72
     1
  1
\A1;8
  7
ＭＳ ゴシック
 11
0.0
 21
1.0
 31
0.0
 73
     1
 44
1.0
  0
POINT
  5
831E
330
8315
100
AcDbEntity
  8
Defpoints
 62
     0
100
AcDbPoint
 10
766.1886576873293
 20
368.1999999999999
 30
0.0
  0
POINT
  5
831F
330
8315
100
AcDbEntity
  8
Defpoints
 62
     0
100
AcDbPoint
 10
781.6886576873292
 20
360.6
 30
0.0
  0
POINT
  5
8320
330
8315
100
AcDbEntity
  8
Defpoints
 62
     0
100
AcDbPoint
 10
751.110935362522
 20
360.6
 30
0.0
  0
ENDBLK
  5
8317
330
8315
100
AcDbEntity
  8
0
100
AcDbBlockEnd
  0
BLOCK
  5
8322
330
8321
100
AcDbEntity
  8
0
100
AcDbBlockBegin
  2
*D29
 70
     1
 10
0.0
 20
0.0
 30
0.0
  3
*D29
  1

  0
LINE
  5
8324
330
8321
100
AcDbEntity
  8
寸法
  6
Continuous
 62
     0
370
    -2
100
AcDbLine
 10
1037.244999183862
 20
372.7999999999997
 30
0.0
 11
1057.697764729099
 21
372.7999999999997
 31
0.0
  0
LINE
  5
8325
330
8321
100
AcDbEntity
  8
寸法
  6
Continuous
 62
     0
370
    -2
100
AcDbLine
 10
1017.584191641535
 20
333.0031419539343
 30
0.0
 11
1057.697764729099
 21
333.0031419539343
 31
0.0
  0
LINE
  5
8326
330
8321
100
AcDbEntity
  8
寸法
  6
Continuous
 62
     0
370
    -2
100
AcDbLine
 10
1057.697764729099
 20
371.2999999999997
 30
0.0
 11
1057.697764729099
 21
334.5031419539343
 31
0.0
  0
INSERT
  5
8327
330
8321
100
AcDbEntity
  8
寸法
 62
     0
370
    -2
100
AcDbBlockReference
  2
_DOT
 10
1057.697764729099
 20
372.7999999999997
 30
0.0
 41
1.5
 42
1.5
 43
1.5
 50
90.0
  0
INSERT
  5
8328
330
8321
100
AcDbEntity
  8
寸法
 62
     0
370
    -2
100
AcDbBlockReference
  2
_DOT
 10
1057.697764729099
 20
333.0031419539343
 30
0.0
 41
1.5
 42
1.5
 43
1.5
 50
270.0
  0
MTEXT
  5
8329
330
8321
100
AcDbEntity
  8
寸法
  6
Continuous
 62
     0
100
AcDbMText
 10
1053.197764729099
 20
352.901570976967
 30
0.0
 40
5.0
 41
0.0
 46
0.0
 71
     5
 72
     1
  1
\A1;40
  7
ＭＳ ゴシック
 11
0.0
 21
1.0
 31
0.0
 73
     1
 44
1.0
  0
POINT
  5
832A
330
8321
100
AcDbEntity
  8
Defpoints
 62
     0
100
AcDbPoint
 10
1032.244999183862
 20
372.7999999999997
 30
0.0
  0
POINT
  5
832B
330
8321
100
AcDbEntity
  8
Defpoints
 62
     0
100
AcDbPoint
 10
1012.584191641535
 20
333.0031419539343
 30
0.0
  0
POINT
  5
832C
330
8321
100
AcDbEntity
  8
Defpoints
 62
     0
100
AcDbPoint
 10
1057.697764729099
 20
333.0031419539343
 30
0.0
  0
ENDBLK
  5
8323
330
8321
100
AcDbEntity
  8
0
100
AcDbBlockEnd
  0
BLOCK
  5
832E
330
832D
100
AcDbEntity
  8
0
100
AcDbBlockBegin
  2
*D30
 70
     1
 10
0.0
 20
0.0
 30
0.0
  3
*D30
  1

  0
LINE
  5
8330
330
832D
100
AcDbEntity
  8
寸法
  6
Continuous
 62
     0
370
    -2
100
AcDbLine
 10
973.4121834538646
 20
372.8000000000006
 30
0.0
 11
963.034290987069
 21
372.8000000000006
 31
0.0
  0
LINE
  5
8331
330
832D
100
AcDbEntity
  8
寸法
  6
Continuous
 62
     0
370
    -2
100
AcDbLine
 10
974.7449991838625
 20
365.9999999999998
 30
0.0
 11
963.034290987069
 21
365.9999999999998
 31
0.0
  0
LINE
  5
8332
330
832D
100
AcDbEntity
  8
寸法
  6
Continuous
 62
     0
370
    -2
100
AcDbLine
 10
963.034290987069
 20
371.3000000000006
 30
0.0
 11
963.034290987069
 21
367.4999999999998
 31
0.0
  0
INSERT
  5
8333
330
832D
100
AcDbEntity
  8
寸法
 62
     0
370
    -2
100
AcDbBlockReference
  2
_DOT
 10
963.034290987069
 20
372.8000000000006
 30
0.0
 41
1.5
 42
1.5
 43
1.5
 50
90.0
  0
INSERT
  5
8334
330
832D
100
AcDbEntity
  8
寸法
 62
     0
370
    -2
100
AcDbBlockReference
  2
_DOT
 10
963.034290987069
 20
365.9999999999998
 30
0.0
 41
1.5
 42
1.5
 43
1.5
 50
270.0
  0
MTEXT
  5
8335
330
832D
100
AcDbEntity
  8
寸法
  6
Continuous
 62
     0
100
AcDbMText
 10
958.5333531353746
 20
369.4000000000002
 30
0.0
 40
5.0
 41
0.0
 46
0.0
 71
     5
 72
     1
  1
\A1;7
  7
ＭＳ ゴシック
 11
0.0
 21
1.0
 31
0.0
 73
     1
 44
1.0
  0
POINT
  5
8336
330
832D
100
AcDbEntity
  8
Defpoints
 62
     0
100
AcDbPoint
 10
978.4121834538646
 20
372.8000000000006
 30
0.0
  0
POINT
  5
8337
330
832D
100
AcDbEntity
  8
Defpoints
 62
     0
100
AcDbPoint
 10
979.7449991838625
 20
365.9999999999998
 30
0.0
  0
POINT
  5
8338
330
832D
100
AcDbEntity
  8
Defpoints
 62
     0
100
AcDbPoint
 10
963.034290987069
 20
365.9999999999998
 30
0.0
  0
ENDBLK
  5
832F
330
832D
100
AcDbEntity
  8
0
100
AcDbBlockEnd
  0
BLOCK
  5
833A
330
8339
100
AcDbEntity
  8
0
100
AcDbBlockBegin
  2
*D31
 70
     1
 10
0.0
 20
0.0
 30
0.0
  3
*D31
  1

  0
LINE
  5
833C
330
8339
100
AcDbEntity
  8
寸法
  6
Continuous
 62
     0
370
    -2
100
AcDbLine
 10
974.7449991838625
 20
365.9999999999998
 30
0.0
 11
963.034290987069
 21
365.9999999999998
 31
0.0
  0
LINE
  5
833D
330
8339
100
AcDbEntity
  8
寸法
  6
Continuous
 62
     0
370
    -2
100
AcDbLine
 10
992.9079302478015
 20
332.9999999999998
 30
0.0
 11
963.034290987069
 21
332.9999999999998
 31
0.0
  0
LINE
  5
833E
330
8339
100
AcDbEntity
  8
寸法
  6
Continuous
 62
     0
370
    -2
100
AcDbLine
 10
963.034290987069
 20
364.4999999999998
 30
0.0
 11
963.034290987069
 21
334.4999999999998
 31
0.0
  0
INSERT
  5
833F
330
8339
100
AcDbEntity
  8
寸法
 62
     0
370
    -2
100
AcDbBlockReference
  2
_DOT
 10
963.034290987069
 20
365.9999999999998
 30
0.0
 41
1.5
 42
1.5
 43
1.5
 50
90.0
  0
INSERT
  5
8340
330
8339
100
AcDbEntity
  8
寸法
 62
     0
370
    -2
100
AcDbBlockReference
  2
_DOT
 10
963.034290987069
 20
332.9999999999998
 30
0.0
 41
1.5
 42
1.5
 43
1.5
 50
270.0
  0
MTEXT
  5
8341
330
8339
100
AcDbEntity
  8
寸法
  6
Continuous
 62
     0
100
AcDbMText
 10
958.5333531353746
 20
349.4999999999998
 30
0.0
 40
5.0
 41
0.0
 46
0.0
 71
     5
 72
     1
  1
\A1;33
  7
ＭＳ ゴシック
 11
0.0
 21
1.0
 31
0.0
 73
     1
 44
1.0
  0
POINT
  5
8342
330
8339
100
AcDbEntity
  8
Defpoints
 62
     0
100
AcDbPoint
 10
979.7449991838625
 20
365.9999999999998
 30
0.0
  0
POINT
  5
8343
330
8339
100
AcDbEntity
  8
Defpoints
 62
     0
100
AcDbPoint
 10
997.9079302478015
 20
332.9999999999998
 30
0.0
  0
POINT
  5
8344
330
8339
100
AcDbEntity
  8
Defpoints
 62
     0
100
AcDbPoint
 10
963.034290987069
 20
332.9999999999998
 30
0.0
  0
ENDBLK
  5
833B
330
8339
100
AcDbEntity
  8
0
100
AcDbBlockEnd
  0
BLOCK
  5
8346
330
8345
100
AcDbEntity
  8
0
100
AcDbBlockBegin
  2
*D32
 70
     1
 10
0.0
 20
0.0
 30
0.0
  3
*D32
  1

  0
LINE
  5
8348
330
8345
100
AcDbEntity
  8
寸法
  6
Continuous
 62
     0
370
    -2
100
AcDbLine
 10
883.7871912659732
 20
318.3890058911516
 30
0.0
 11
883.7871912659732
 21
300.8886388138885
 31
0.0
  0
LINE
  5
8349
330
8345
100
AcDbEntity
  8
寸法
  6
Continuous
 62
     0
370
    -2
100
AcDbLine
 10
903.7871912659734
 20
318.3890058911516
 30
0.0
 11
903.7871912659734
 21
300.8886388138885
 31
0.0
  0
LINE
  5
834A
330
8345
100
AcDbEntity
  8
寸法
  6
Continuous
 62
     0
370
    -2
100
AcDbLine
 10
885.2871912659732
 20
300.8886388138885
 30
0.0
 11
902.2871912659734
 21
300.8886388138885
 31
0.0
  0
INSERT
  5
834B
330
8345
100
AcDbEntity
  8
寸法
 62
     0
370
    -2
100
AcDbBlockReference
  2
_DOT
 10
883.7871912659732
 20
300.8886388138885
 30
0.0
 41
1.5
 42
1.5
 43
1.5
 50
180.0
  0
INSERT
  5
834C
330
8345
100
AcDbEntity
  8
寸法
 62
     0
370
    -2
100
AcDbBlockReference
  2
_DOT
 10
903.7871912659734
 20
300.8886388138885
 30
0.0
 41
1.5
 42
1.5
 43
1.5
  0
MTEXT
  5
834D
330
8345
100
AcDbEntity
  8
寸法
  6
Continuous
 62
     0
100
AcDbMText
 10
893.7871912659733
 20
305.3895766655829
 30
0.0
 40
5.0
 41
0.0
 46
0.0
 71
     5
 72
     1
  1
\A1;20
  7
ＭＳ ゴシック
 73
     1
 44
1.0
  0
POINT
  5
834E
330
8345
100
AcDbEntity
  8
Defpoints
 62
     0
100
AcDbPoint
 10
883.7871912659732
 20
323.3890058911516
 30
0.0
  0
POINT
  5
834F
330
8345
100
AcDbEntity
  8
Defpoints
 62
     0
100
AcDbPoint
 10
903.7871912659734
 20
323.3890058911516
 30
0.0
  0
POINT
  5
8350
330
8345
100
AcDbEntity
  8
Defpoints
 62
     0
100
AcDbPoint
 10
903.7871912659734
 20
300.8886388138885
 30
0.0
  0
ENDBLK
  5
8347
330
8345
100
AcDbEntity
  8
0
100
AcDbBlockEnd
  0
BLOCK
  5
8352
330
8351
100
AcDbEntity
  8
0
100
AcDbBlockBegin
  2
*D33
 70
     1
 10
0.0
 20
0.0
 30
0.0
  3
*D33
  1

  0
LINE
  5
8354
330
8351
100
AcDbEntity
  8
寸法
  6
Continuous
 62
     0
370
    -2
100
AcDbLine
 10
866.7871912659734
 20
353.4688782991203
 30
0.0
 11
866.7871912659734
 21
387.6269583595707
 31
0.0
  0
LINE
  5
8355
330
8351
100
AcDbEntity
  8
寸法
  6
Continuous
 62
     0
370
    -2
100
AcDbLine
 10
920.7871912659732
 20
353.4688782991203
 30
0.0
 11
920.7871912659732
 21
387.6269583595707
 31
0.0
  0
LINE
  5
8356
330
8351
100
AcDbEntity
  8
寸法
  6
Continuous
 62
     0
370
    -2
100
AcDbLine
 10
868.2871912659734
 20
387.6269583595707
 30
0.0
 11
919.2871912659732
 21
387.6269583595707
 31
0.0
  0
INSERT
  5
8357
330
8351
100
AcDbEntity
  8
寸法
 62
     0
370
    -2
100
AcDbBlockReference
  2
_DOT
 10
866.7871912659734
 20
387.6269583595707
 30
0.0
 41
1.5
 42
1.5
 43
1.5
 50
180.0
  0
INSERT
  5
8358
330
8351
100
AcDbEntity
  8
寸法
 62
     0
370
    -2
100
AcDbBlockReference
  2
_DOT
 10
920.7871912659732
 20
387.6269583595707
 30
0.0
 41
1.5
 42
1.5
 43
1.5
  0
MTEXT
  5
8359
330
8351
100
AcDbEntity
  8
寸法
  6
Continuous
 62
     0
100
AcDbMText
 10
893.7871912659733
 20
392.1278962112651
 30
0.0
 40
5.0
 41
0.0
 46
0.0
 71
     5
 72
     1
  1
\A1;54
  7
ＭＳ ゴシック
 73
     1
 44
1.0
  0
POINT
  5
835A
330
8351
100
AcDbEntity
  8
Defpoints
 62
     0
100
AcDbPoint
 10
866.7871912659734
 20
348.4688782991203
 30
0.0
  0
POINT
  5
835B
330
8351
100
AcDbEntity
  8
Defpoints
 62
     0
100
AcDbPoint
 10
920.7871912659732
 20
348.4688782991203
 30
0.0
  0
POINT
  5
835C
330
8351
100
AcDbEntity
  8
Defpoints
 62
     0
100
AcDbPoint
 10
920.7871912659732
 20
387.6269583595707
 30
0.0
  0
ENDBLK
  5
8353
330
8351
100
AcDbEntity
  8
0
100
AcDbBlockEnd
  0
BLOCK
  5
835E
330
835D
100
AcDbEntity
  8
0
100
AcDbBlockBegin
  2
*D34
 70
     1
 10
0.0
 20
0.0
 30
0.0
  3
*D34
  1

  0
LINE
  5
8360
330
835D
100
AcDbEntity
  8
寸法
  6
Continuous
 62
     0
370
    -2
100
AcDbLine
 10
1118.0
 20
317.2124060835449
 30
0.0
 11
1118.0
 21
300.8886388138885
 31
0.0
  0
LINE
  5
8361
330
835D
100
AcDbEntity
  8
寸法
  6
Continuous
 62
     0
370
    -2
100
AcDbLine
 10
1134.0
 20
317.2124060835449
 30
0.0
 11
1134.0
 21
300.8886388138885
 31
0.0
  0
LINE
  5
8362
330
835D
100
AcDbEntity
  8
寸法
  6
Continuous
 62
     0
370
    -2
100
AcDbLine
 10
1119.5
 20
300.8886388138885
 30
0.0
 11
1132.5
 21
300.8886388138885
 31
0.0
  0
INSERT
  5
8363
330
835D
100
AcDbEntity
  8
寸法
 62
     0
370
    -2
100
AcDbBlockReference
  2
_DOT
 10
1118.0
 20
300.8886388138885
 30
0.0
 41
1.5
 42
1.5
 43
1.5
 50
180.0
  0
INSERT
  5
8364
330
835D
100
AcDbEntity
  8
寸法
 62
     0
370
    -2
100
AcDbBlockReference
  2
_DOT
 10
1134.0
 20
300.8886388138885
 30
0.0
 41
1.5
 42
1.5
 43
1.5
  0
MTEXT
  5
8365
330
835D
100
AcDbEntity
  8
寸法
  6
Continuous
 62
     0
100
AcDbMText
 10
1126.0
 20
305.3895766655829
 30
0.0
 40
5.0
 41
0.0
 46
0.0
 71
     5
 72
     1
  1
\A1;16
  7
ＭＳ ゴシック
 73
     1
 44
1.0
  0
POINT
  5
8366
330
835D
100
AcDbEntity
  8
Defpoints
 62
     0
100
AcDbPoint
 10
1118.0
 20
322.2124060835449
 30
0.0
  0
POINT
  5
8367
330
835D
100
AcDbEntity
  8
Defpoints
 62
     0
100
AcDbPoint
 10
1134.0
 20
322.2124060835449
 30
0.0
  0
POINT
  5
8368
330
835D
100
AcDbEntity
  8
Defpoints
 62
     0
100
AcDbPoint
 10
1134.0
 20
300.8886388138885
 30
0.0
  0
ENDBLK
  5
835F
330
835D
100
AcDbEntity
  8
0
100
AcDbBlockEnd
  0
BLOCK
  5
8372
330
8371
100
AcDbEntity
  8
0
100
AcDbBlockBegin
  2
*D35
 70
     1
 10
0.0
 20
0.0
 30
0.0
  3
*D35
  1

  0
LINE
  5
8374
330
8371
100
AcDbEntity
  8
寸法
  6
Continuous
 62
     0
370
    -2
100
AcDbLine
 10
164.5861249111653
 20
336.8
 30
0.0
 11
178.3638750888349
 21
336.8
 31
0.0
  0
LINE
  5
8375
330
8371
100
AcDbEntity
  8
寸法
  6
Continuous
 62
     0
370
    -2
100
AcDbLine
 10
147.6756225006043
 20
324.0
 30
0.0
 11
178.3638750888349
 21
324.0
 31
0.0
  0
LINE
  5
8376
330
8371
100
AcDbEntity
  8
寸法
  6
Continuous
 62
     0
370
    -2
100
AcDbLine
 10
178.3638750888349
 20
335.3
 30
0.0
 11
178.3638750888349
 21
325.5
 31
0.0
  0
INSERT
  5
8377
330
8371
100
AcDbEntity
  8
寸法
 62
     0
370
    -2
100
AcDbBlockReference
  2
_DOT
 10
178.3638750888349
 20
336.8
 30
0.0
 41
1.5
 42
1.5
 43
1.5
 50
90.0
  0
INSERT
  5
8378
330
8371
100
AcDbEntity
  8
寸法
 62
     0
370
    -2
100
AcDbBlockReference
  2
_DOT
 10
178.3638750888349
 20
324.0
 30
0.0
 41
1.5
 42
1.5
 43
1.5
 50
270.0
  0
MTEXT
  5
8379
330
8371
100
AcDbEntity
  8
寸法
  6
Continuous
 62
     0
100
AcDbMText
 10
173.8629372371405
 20
330.4
 30
0.0
 40
5.0
 41
0.0
 46
0.0
 71
     5
 72
     1
  1
\A1;12.5
  7
ＭＳ ゴシック
 11
0.0
 21
1.0
 31
0.0
 73
     1
 44
1.0
  0
POINT
  5
837A
330
8371
100
AcDbEntity
  8
Defpoints
 62
     0
100
AcDbPoint
 10
159.5861249111653
 20
336.8
 30
0.0
  0
POINT
  5
837B
330
8371
100
AcDbEntity
  8
Defpoints
 62
     0
100
AcDbPoint
 10
142.6756225006043
 20
324.0
 30
0.0
  0
POINT
  5
837C
330
8371
100
AcDbEntity
  8
Defpoints
 62
     0
100
AcDbPoint
 10
178.3638750888349
 20
324.0
 30
0.0
  0
ENDBLK
  5
8373
330
8371
100
AcDbEntity
  8
0
100
AcDbBlockEnd
  0
BLOCK
  5
8381
330
8380
100
AcDbEntity
  8
0
100
AcDbBlockBegin
  2
*D36
 70
     1
 10
0.0
 20
0.0
 30
0.0
  3
*D36
  1

  0
LINE
  5
8383
330
8380
100
AcDbEntity
  8
寸法
  6
Continuous
 62
     0
370
    -2
100
AcDbLine
 10
101.8568079489609
 20
336.8000000000009
 30
0.0
 11
85.8638750888349
 21
336.8000000000009
 31
0.0
  0
LINE
  5
8384
330
8380
100
AcDbEntity
  8
寸法
  6
Continuous
 62
     0
370
    -2
100
AcDbLine
 10
101.9861249111653
 20
330.3
 30
0.0
 11
85.8638750888349
 21
330.3
 31
0.0
  0
LINE
  5
8385
330
8380
100
AcDbEntity
  8
寸法
  6
Continuous
 62
     0
370
    -2
100
AcDbLine
 10
85.8638750888349
 20
335.3000000000009
 30
0.0
 11
85.8638750888349
 21
331.8
 31
0.0
  0
INSERT
  5
8386
330
8380
100
AcDbEntity
  8
寸法
 62
     0
370
    -2
100
AcDbBlockReference
  2
_DOT
 10
85.8638750888349
 20
336.8000000000009
 30
0.0
 41
1.5
 42
1.5
 43
1.5
 50
90.0
  0
INSERT
  5
8387
330
8380
100
AcDbEntity
  8
寸法
 62
     0
370
    -2
100
AcDbBlockReference
  2
_DOT
 10
85.8638750888349
 20
330.3
 30
0.0
 41
1.5
 42
1.5
 43
1.5
 50
270.0
  0
MTEXT
  5
8388
330
8380
100
AcDbEntity
  8
寸法
  6
Continuous
 62
     0
100
AcDbMText
 10
81.3629372371405
 20
333.5500000000005
 30
0.0
 40
5.0
 41
0.0
 46
0.0
 71
     5
 72
     1
  1
\A1;6.5
  7
ＭＳ ゴシック
 11
0.0
 21
1.0
 31
0.0
 73
     1
 44
1.0
  0
POINT
  5
8389
330
8380
100
AcDbEntity
  8
Defpoints
 62
     0
100
AcDbPoint
 10
106.8568079489609
 20
336.8000000000009
 30
0.0
  0
POINT
  5
838A
330
8380
100
AcDbEntity
  8
Defpoints
 62
     0
100
AcDbPoint
 10
106.9861249111653
 20
330.3
 30
0.0
  0
POINT
  5
838B
330
8380
100
AcDbEntity
  8
Defpoints
 62
     0
100
AcDbPoint
 10
85.8638750888349
 20
330.3
 30
0.0
  0
ENDBLK
  5
8382
330
8380
100
AcDbEntity
  8
0
100
AcDbBlockEnd
  0
BLOCK
  5
8392
330
8391
100
AcDbEntity
  8
0
100
AcDbBlockBegin
  2
*D37
 70
     1
 10
0.0
 20
0.0
 30
0.0
  3
*D37
  1

  0
LINE
  5
8394
330
8391
100
AcDbEntity
  8
寸法
  6
Continuous
 62
     0
370
    -2
100
AcDbLine
 10
117.6361249111652
 20
324.0
 30
0.0
 11
85.8638750888349
 21
324.0
 31
0.0
  0
LINE
  5
8395
330
8391
100
AcDbEntity
  8
寸法
  6
Continuous
 62
     0
370
    -2
100
AcDbLine
 10
101.9861249111653
 20
330.3
 30
0.0
 11
85.8638750888349
 21
330.3
 31
0.0
  0
LINE
  5
8396
330
8391
100
AcDbEntity
  8
寸法
  6
Continuous
 62
     0
370
    -2
100
AcDbLine
 10
85.8638750888349
 20
324.0
 30
0.0
 11
85.8638750888349
 21
314.4619388520696
 31
0.0
  0
LINE
  5
8397
330
8391
100
AcDbEntity
  8
寸法
  6
Continuous
 62
     0
370
    -2
100
AcDbLine
 10
85.8638750888349
 20
325.5
 30
0.0
 11
85.8638750888349
 21
328.8
 31
0.0
  0
LINE
  5
8398
330
8391
100
AcDbEntity
  8
寸法
  6
Continuous
 62
     0
370
    -2
100
AcDbLine
 10
85.8638750888349
 20
325.5
 30
0.0
 11
85.8638750888349
 21
327.0
 31
0.0
  0
INSERT
  5
8399
330
8391
100
AcDbEntity
  8
寸法
 62
     0
370
    -2
100
AcDbBlockReference
  2
_DOT
 10
85.8638750888349
 20
324.0
 30
0.0
 41
1.5
 42
1.5
 43
1.5
 50
270.0
  0
INSERT
  5
839A
330
8391
100
AcDbEntity
  8
寸法
 62
     0
370
    -2
100
AcDbBlockReference
  2
_DOT
 10
85.8638750888349
 20
330.3
 30
0.0
 41
1.5
 42
1.5
 43
1.5
 50
90.0
  0
MTEXT
  5
839B
330
8391
100
AcDbEntity
  8
寸法
  6
Continuous
 62
     0
100
AcDbMText
 10
81.3638750888349
 20
317.7309694260348
 30
0.0
 40
5.0
 41
0.0
 46
0.0
 71
     5
 72
     1
  1
\A1;6
  7
ＭＳ ゴシック
 11
0.0
 21
1.0
 31
0.0
 73
     1
 44
1.0
  0
POINT
  5
839C
330
8391
100
AcDbEntity
  8
Defpoints
 62
     0
100
AcDbPoint
 10
122.6361249111652
 20
324.0
 30
0.0
  0
POINT
  5
84BD
330
8391
100
AcDbEntity
  8
Defpoints
 62
     0
100
AcDbPoint
 10
106.9861249111653
 20
330.3
 30
0.0
  0
POINT
  5
84BE
330
8391
100
AcDbEntity
  8
Defpoints
 62
     0
100
AcDbPoint
 10
85.8638750888349
 20
330.3
 30
0.0
  0
ENDBLK
  5
8393
330
8391
100
AcDbEntity
  8
0
100
AcDbBlockEnd
  0
BLOCK
  5
83A3
330
83A2
100
AcDbEntity
  8
0
100
AcDbBlockBegin
  2
*D38
 70
     1
 10
0.0
 20
0.0
 30
0.0
  3
*D38
  1

  0
LINE
  5
83A5
330
83A2
100
AcDbEntity
  8
寸法
  6
Continuous
 62
     0
370
    -2
100
AcDbLine
 10
224.6510663548081
 20
281.073416632483
 30
0.0
 11
224.6510663548081
 21
261.5000000000004
 31
0.0
  0
LINE
  5
83A6
330
83A2
100
AcDbEntity
  8
寸法
  6
Continuous
 62
     0
370
    -2
100
AcDbLine
 10
245.6510663548082
 20
281.0734166324831
 30
0.0
 11
245.6510663548082
 21
261.5000000000004
 31
0.0
  0
LINE
  5
83A7
330
83A2
100
AcDbEntity
  8
寸法
  6
Continuous
 62
     0
370
    -2
100
AcDbLine
 10
226.1510663548081
 20
261.5000000000004
 30
0.0
 11
244.1510663548082
 21
261.5000000000004
 31
0.0
  0
INSERT
  5
83A8
330
83A2
100
AcDbEntity
  8
寸法
 62
     0
370
    -2
100
AcDbBlockReference
  2
_DOT
 10
224.6510663548081
 20
261.5000000000004
 30
0.0
 41
1.5
 42
1.5
 43
1.5
 50
180.0
  0
INSERT
  5
83A9
330
83A2
100
AcDbEntity
  8
寸法
 62
     0
370
    -2
100
AcDbBlockReference
  2
_DOT
 10
245.6510663548082
 20
261.5000000000004
 30
0.0
 41
1.5
 42
1.5
 43
1.5
  0
MTEXT
  5
83AA
330
83A2
100
AcDbEntity
  8
寸法
  6
Continuous
 62
     0
100
AcDbMText
 10
235.1510663548082
 20
266.0009378516948
 30
0.0
 40
5.0
 41
0.0
 46
0.0
 71
     5
 72
     1
  1
\A1;21
  7
ＭＳ ゴシック
 73
     1
 44
1.0
  0
POINT
  5
83AB
330
83A2
100
AcDbEntity
  8
Defpoints
 62
     0
100
AcDbPoint
 10
224.6510663548081
 20
286.073416632483
 30
0.0
  0
POINT
  5
83AC
330
83A2
100
AcDbEntity
  8
Defpoints
 62
     0
100
AcDbPoint
 10
245.6510663548082
 20
286.0734166324831
 30
0.0
  0
POINT
  5
83AD
330
83A2
100
AcDbEntity
  8
Defpoints
 62
     0
100
AcDbPoint
 10
245.6510663548082
 20
261.5000000000004
 30
0.0
  0
ENDBLK
  5
83A4
330
83A2
100
AcDbEntity
  8
0
100
AcDbBlockEnd
  0
BLOCK
  5
83B2
330
83B1
100
AcDbEntity
  8
0
100
AcDbBlockBegin
  2
*D39
 70
     1
 10
0.0
 20
0.0
 30
0.0
  3
*D39
  1

  0
LINE
  5
83B4
330
83B1
100
AcDbEntity
  8
寸法
  6
Continuous
 62
     0
370
    -2
100
AcDbLine
 10
208.7010663548081
 20
327.7974831167401
 30
0.0
 11
208.7010663548081
 21
354.5000000000004
 31
0.0
  0
LINE
  5
83B5
330
83B1
100
AcDbEntity
  8
寸法
  6
Continuous
 62
     0
370
    -2
100
AcDbLine
 10
261.6010663548083
 20
326.8304059606273
 30
0.0
 11
261.6010663548083
 21
354.5000000000004
 31
0.0
  0
LINE
  5
83B6
330
83B1
100
AcDbEntity
  8
寸法
  6
Continuous
 62
     0
370
    -2
100
AcDbLine
 10
210.2010663548081
 20
354.5000000000004
 30
0.0
 11
260.1010663548083
 21
354.5000000000004
 31
0.0
  0
INSERT
  5
83B7
330
83B1
100
AcDbEntity
  8
寸法
 62
     0
370
    -2
100
AcDbBlockReference
  2
_DOT
 10
208.7010663548081
 20
354.5000000000004
 30
0.0
 41
1.5
 42
1.5
 43
1.5
 50
180.0
  0
INSERT
  5
83B8
330
83B1
100
AcDbEntity
  8
寸法
 62
     0
370
    -2
100
AcDbBlockReference
  2
_DOT
 10
261.6010663548083
 20
354.5000000000004
 30
0.0
 41
1.5
 42
1.5
 43
1.5
  0
MTEXT
  5
83B9
330
83B1
100
AcDbEntity
  8
寸法
  6
Continuous
 62
     0
100
AcDbMText
 10
235.1510663548082
 20
359.0009378516948
 30
0.0
 40
5.0
 41
0.0
 46
0.0
 71
     5
 72
     1
  1
\A1;53
  7
ＭＳ ゴシック
 73
     1
 44
1.0
  0
POINT
  5
83BA
330
83B1
100
AcDbEntity
  8
Defpoints
 62
     0
100
AcDbPoint
 10
208.7010663548081
 20
322.7974831167401
 30
0.0
  0
POINT
  5
83BB
330
83B1
100
AcDbEntity
  8
Defpoints
 62
     0
100
AcDbPoint
 10
261.6010663548083
 20
321.8304059606273
 30
0.0
  0
POINT
  5
83BC
330
83B1
100
AcDbEntity
  8
Defpoints
 62
     0
100
AcDbPoint
 10
261.6010663548083
 20
354.5000000000004
 30
0.0
  0
ENDBLK
  5
83B3
330
83B1
100
AcDbEntity
  8
0
100
AcDbBlockEnd
  0
BLOCK
  5
83C1
330
83C0
100
AcDbEntity
  8
0
100
AcDbBlockBegin
  2
*D40
 70
     1
 10
0.0
 20
0.0
 30
0.0
  3
*D40
  1

  0
LINE
  5
83C3
330
83C0
100
AcDbEntity
  8
寸法
  6
Continuous
 62
     0
370
    -2
100
AcDbLine
 10
378.0588742726973
 20
334.3
 30
0.0
 11
401.3638750888349
 21
334.3
 31
0.0
  0
LINE
  5
83C4
330
83C0
100
AcDbEntity
  8
寸法
  6
Continuous
 62
     0
370
    -2
100
AcDbLine
 10
363.1088742726972
 20
296.8
 30
0.0
 11
401.3638750888349
 21
296.8
 31
0.0
  0
LINE
  5
83C5
330
83C0
100
AcDbEntity
  8
寸法
  6
Continuous
 62
     0
370
    -2
100
AcDbLine
 10
401.3638750888349
 20
332.8
 30
0.0
 11
401.3638750888349
 21
298.3
 31
0.0
  0
INSERT
  5
83C6
330
83C0
100
AcDbEntity
  8
寸法
 62
     0
370
    -2
100
AcDbBlockReference
  2
_DOT
 10
401.3638750888349
 20
334.3
 30
0.0
 41
1.5
 42
1.5
 43
1.5
 50
90.0
  0
INSERT
  5
83C7
330
83C0
100
AcDbEntity
  8
寸法
 62
     0
370
    -2
100
AcDbBlockReference
  2
_DOT
 10
401.3638750888349
 20
296.8
 30
0.0
 41
1.5
 42
1.5
 43
1.5
 50
270.0
  0
MTEXT
  5
83C8
330
83C0
100
AcDbEntity
  8
寸法
  6
Continuous
 62
     0
100
AcDbMText
 10
396.8629372371405
 20
315.55
 30
0.0
 40
5.0
 41
0.0
 46
0.0
 71
     5
 72
     1
  1
\A1;37.5
  7
ＭＳ ゴシック
 11
0.0
 21
1.0
 31
0.0
 73
     1
 44
1.0
  0
POINT
  5
83C9
330
83C0
100
AcDbEntity
  8
Defpoints
 62
     0
100
AcDbPoint
 10
373.0588742726973
 20
334.3
 30
0.0
  0
POINT
  5
83CA
330
83C0
100
AcDbEntity
  8
Defpoints
 62
     0
100
AcDbPoint
 10
358.1088742726972
 20
296.8
 30
0.0
  0
POINT
  5
83CB
330
83C0
100
AcDbEntity
  8
Defpoints
 62
     0
100
AcDbPoint
 10
401.3638750888349
 20
296.8
 30
0.0
  0
ENDBLK
  5
83C2
330
83C0
100
AcDbEntity
  8
0
100
AcDbBlockEnd
  0
BLOCK
  5
83D0
330
83CF
100
AcDbEntity
  8
0
100
AcDbBlockBegin
  2
*D41
 70
     1
 10
0.0
 20
0.0
 30
0.0
  3
*D41
  1

  0
LINE
  5
83D2
330
83CF
100
AcDbEntity
  8
寸法
  6
Continuous
 62
     0
370
    -2
100
AcDbLine
 10
315.1916790102164
 20
334.2999999999999
 30
0.0
 11
302.3981928671769
 21
334.2999999999999
 31
0.0
  0
LINE
  5
83D3
330
83CF
100
AcDbEntity
  8
寸法
  6
Continuous
 62
     0
370
    -2
100
AcDbLine
 10
315.4588742726974
 20
327.8
 30
0.0
 11
302.3981928671769
 21
327.8
 31
0.0
  0
LINE
  5
83D4
330
83CF
100
AcDbEntity
  8
寸法
  6
Continuous
 62
     0
370
    -2
100
AcDbLine
 10
302.3981928671769
 20
332.7999999999999
 30
0.0
 11
302.3981928671769
 21
329.3
 31
0.0
  0
INSERT
  5
83D5
330
83CF
100
AcDbEntity
  8
寸法
 62
     0
370
    -2
100
AcDbBlockReference
  2
_DOT
 10
302.3981928671769
 20
334.2999999999999
 30
0.0
 41
1.5
 42
1.5
 43
1.5
 50
90.0
  0
INSERT
  5
83D6
330
83CF
100
AcDbEntity
  8
寸法
 62
     0
370
    -2
100
AcDbBlockReference
  2
_DOT
 10
302.3981928671769
 20
327.8
 30
0.0
 41
1.5
 42
1.5
 43
1.5
 50
270.0
  0
MTEXT
  5
83D7
330
83CF
100
AcDbEntity
  8
寸法
  6
Continuous
 62
     0
100
AcDbMText
 10
297.8972550154825
 20
331.05
 30
0.0
 40
5.0
 41
0.0
 46
0.0
 71
     5
 72
     1
  1
\A1;6.5
  7
ＭＳ ゴシック
 11
0.0
 21
1.0
 31
0.0
 73
     1
 44
1.0
  0
POINT
  5
83D8
330
83CF
100
AcDbEntity
  8
Defpoints
 62
     0
100
AcDbPoint
 10
320.1916790102164
 20
334.2999999999999
 30
0.0
  0
POINT
  5
83D9
330
83CF
100
AcDbEntity
  8
Defpoints
 62
     0
100
AcDbPoint
 10
320.4588742726974
 20
327.8
 30
0.0
  0
POINT
  5
83DA
330
83CF
100
AcDbEntity
  8
Defpoints
 62
     0
100
AcDbPoint
 10
302.3981928671769
 20
327.8
 30
0.0
  0
ENDBLK
  5
83D1
330
83CF
100
AcDbEntity
  8
0
100
AcDbBlockEnd
  0
BLOCK
  5
83E0
330
83DF
100
AcDbEntity
  8
0
100
AcDbBlockBegin
  2
*D42
 70
     1
 10
0.0
 20
0.0
 30
0.0
  3
*D42
  1

  0
LINE
  5
83E2
330
83DF
100
AcDbEntity
  8
寸法
  6
Continuous
 62
     0
370
    -2
100
AcDbLine
 10
315.4588742726971
 20
327.8
 30
0.0
 11
302.3981928671769
 21
327.8
 31
0.0
  0
LINE
  5
83E3
330
83DF
100
AcDbEntity
  8
寸法
  6
Continuous
 62
     0
370
    -2
100
AcDbLine
 10
330.5201900124066
 20
296.8000000000031
 30
0.0
 11
302.3981928671769
 21
296.8000000000031
 31
0.0
  0
LINE
  5
83E4
330
83DF
100
AcDbEntity
  8
寸法
  6
Continuous
 62
     0
370
    -2
100
AcDbLine
 10
302.3981928671769
 20
326.3
 30
0.0
 11
302.3981928671769
 21
298.3000000000031
 31
0.0
  0
INSERT
  5
83E5
330
83DF
100
AcDbEntity
  8
寸法
 62
     0
370
    -2
100
AcDbBlockReference
  2
_DOT
 10
302.3981928671769
 20
327.8
 30
0.0
 41
1.5
 42
1.5
 43
1.5
 50
90.0
  0
INSERT
  5
83E6
330
83DF
100
AcDbEntity
  8
寸法
 62
     0
370
    -2
100
AcDbBlockReference
  2
_DOT
 10
302.3981928671769
 20
296.8000000000031
 30
0.0
 41
1.5
 42
1.5
 43
1.5
 50
270.0
  0
MTEXT
  5
83E7
330
83DF
100
AcDbEntity
  8
寸法
  6
Continuous
 62
     0
100
AcDbMText
 10
297.8972550154825
 20
312.3000000000015
 30
0.0
 40
5.0
 41
0.0
 46
0.0
 71
     5
 72
     1
  1
\A1;31
  7
ＭＳ ゴシック
 11
0.0
 21
1.0
 31
0.0
 73
     1
 44
1.0
  0
POINT
  5
83E8
330
83DF
100
AcDbEntity
  8
Defpoints
 62
     0
100
AcDbPoint
 10
320.4588742726971
 20
327.8
 30
0.0
  0
POINT
  5
83E9
330
83DF
100
AcDbEntity
  8
Defpoints
 62
     0
100
AcDbPoint
 10
335.5201900124066
 20
296.8000000000031
 30
0.0
  0
POINT
  5
83EA
330
83DF
100
AcDbEntity
  8
Defpoints
 62
     0
100
AcDbPoint
 10
302.3981928671769
 20
296.8000000000031
 30
0.0
  0
ENDBLK
  5
83E1
330
83DF
100
AcDbEntity
  8
0
100
AcDbBlockEnd
  0
BLOCK
  5
83EF
330
83EE
100
AcDbEntity
  8
0
100
AcDbBlockBegin
  2
*D43
 70
     1
 10
0.0
 20
0.0
 30
0.0
  3
*D43
  1

  0
LINE
  5
83F1
330
83EE
100
AcDbEntity
  8
寸法
  6
Continuous
 62
     0
370
    -2
100
AcDbLine
 10
440.9138750888349
 20
329.6407405205795
 30
0.0
 11
440.9138750888349
 21
354.1250000000004
 31
0.0
  0
LINE
  5
83F2
330
83EE
100
AcDbEntity
  8
寸法
  6
Continuous
 62
     0
370
    -2
100
AcDbLine
 10
493.8138750888349
 20
329.5000000000003
 30
0.0
 11
493.8138750888349
 21
354.1250000000004
 31
0.0
  0
LINE
  5
83F3
330
83EE
100
AcDbEntity
  8
寸法
  6
Continuous
 62
     0
370
    -2
100
AcDbLine
 10
442.4138750888349
 20
354.1250000000004
 30
0.0
 11
492.3138750888349
 21
354.1250000000004
 31
0.0
  0
INSERT
  5
83F4
330
83EE
100
AcDbEntity
  8
寸法
 62
     0
370
    -2
100
AcDbBlockReference
  2
_DOT
 10
440.9138750888349
 20
354.1250000000004
 30
0.0
 41
1.5
 42
1.5
 43
1.5
 50
180.0
  0
INSERT
  5
83F5
330
83EE
100
AcDbEntity
  8
寸法
 62
     0
370
    -2
100
AcDbBlockReference
  2
_DOT
 10
493.8138750888349
 20
354.1250000000004
 30
0.0
 41
1.5
 42
1.5
 43
1.5
  0
MTEXT
  5
83F6
330
83EE
100
AcDbEntity
  8
寸法
  6
Continuous
 62
     0
100
AcDbMText
 10
467.3638750888349
 20
358.6259378516948
 30
0.0
 40
5.0
 41
0.0
 46
0.0
 71
     5
 72
     1
  1
\A1;53
  7
ＭＳ ゴシック
 73
     1
 44
1.0
  0
POINT
  5
83F7
330
83EE
100
AcDbEntity
  8
Defpoints
 62
     0
100
AcDbPoint
 10
440.9138750888349
 20
324.6407405205795
 30
0.0
  0
POINT
  5
83F8
330
83EE
100
AcDbEntity
  8
Defpoints
 62
     0
100
AcDbPoint
 10
493.8138750888349
 20
324.5000000000003
 30
0.0
  0
POINT
  5
83F9
330
83EE
100
AcDbEntity
  8
Defpoints
 62
     0
100
AcDbPoint
 10
493.8138750888349
 20
354.1250000000004
 30
0.0
  0
ENDBLK
  5
83F0
330
83EE
100
AcDbEntity
  8
0
100
AcDbBlockEnd
  0
BLOCK
  5
83FE
330
83FD
100
AcDbEntity
  8
0
100
AcDbBlockBegin
  2
*D44
 70
     1
 10
0.0
 20
0.0
 30
0.0
  3
*D44
  1

  0
LINE
  5
8400
330
83FD
100
AcDbEntity
  8
寸法
  6
Continuous
 62
     0
370
    -2
100
AcDbLine
 10
454.3748207956473
 20
282.3246508231091
 30
0.0
 11
454.3748207956473
 21
261.5000000000004
 31
0.0
  0
LINE
  5
8401
330
83FD
100
AcDbEntity
  8
寸法
  6
Continuous
 62
     0
370
    -2
100
AcDbLine
 10
478.8638750888349
 20
281.5464729092354
 30
0.0
 11
478.8638750888349
 21
261.5000000000004
 31
0.0
  0
LINE
  5
8402
330
83FD
100
AcDbEntity
  8
寸法
  6
Continuous
 62
     0
370
    -2
100
AcDbLine
 10
455.8748207956473
 20
261.5000000000004
 30
0.0
 11
477.3638750888349
 21
261.5000000000004
 31
0.0
  0
INSERT
  5
8403
330
83FD
100
AcDbEntity
  8
寸法
 62
     0
370
    -2
100
AcDbBlockReference
  2
_DOT
 10
454.3748207956473
 20
261.5000000000004
 30
0.0
 41
1.5
 42
1.5
 43
1.5
 50
180.0
  0
INSERT
  5
8404
330
83FD
100
AcDbEntity
  8
寸法
 62
     0
370
    -2
100
AcDbBlockReference
  2
_DOT
 10
478.8638750888349
 20
261.5000000000004
 30
0.0
 41
1.5
 42
1.5
 43
1.5
  0
MTEXT
  5
8405
330
83FD
100
AcDbEntity
  8
寸法
  6
Continuous
 62
     0
100
AcDbMText
 10
466.6193479422411
 20
266.0009378516948
 30
0.0
 40
5.0
 41
0.0
 46
0.0
 71
     5
 72
     1
  1
\A1;23
  7
ＭＳ ゴシック
 73
     1
 44
1.0
  0
POINT
  5
8406
330
83FD
100
AcDbEntity
  8
Defpoints
 62
     0
100
AcDbPoint
 10
454.3748207956473
 20
287.3246508231091
 30
0.0
  0
POINT
  5
8407
330
83FD
100
AcDbEntity
  8
Defpoints
 62
     0
100
AcDbPoint
 10
478.8638750888349
 20
286.5464729092354
 30
0.0
  0
POINT
  5
8408
330
83FD
100
AcDbEntity
  8
Defpoints
 62
     0
100
AcDbPoint
 10
478.8638750888349
 20
261.5000000000004
 30
0.0
  0
ENDBLK
  5
83FF
330
83FD
100
AcDbEntity
  8
0
100
AcDbBlockEnd
  0
BLOCK
  5
8438
330
8437
100
AcDbEntity
  8
0
100
AcDbBlockBegin
  2
*D45
 70
     1
 10
0.0
 20
0.0
 30
0.0
  3
*D45
  1

  0
LINE
  5
843A
330
8437
100
AcDbEntity
  8
寸法
  6
Continuous
 62
     0
370
    -2
100
AcDbLine
 10
164.5861249111652
 20
196.7999999999969
 30
0.0
 11
178.3638750888348
 21
196.7999999999969
 31
0.0
  0
LINE
  5
843B
330
8437
100
AcDbEntity
  8
寸法
  6
Continuous
 62
     0
370
    -2
100
AcDbLine
 10
147.6756225006042
 20
183.999999999997
 30
0.0
 11
178.3638750888348
 21
183.999999999997
 31
0.0
  0
LINE
  5
843C
330
8437
100
AcDbEntity
  8
寸法
  6
Continuous
 62
     0
370
    -2
100
AcDbLine
 10
178.3638750888348
 20
195.2999999999969
 30
0.0
 11
178.3638750888348
 21
185.499999999997
 31
0.0
  0
INSERT
  5
843D
330
8437
100
AcDbEntity
  8
寸法
 62
     0
370
    -2
100
AcDbBlockReference
  2
_DOT
 10
178.3638750888348
 20
196.7999999999969
 30
0.0
 41
1.5
 42
1.5
 43
1.5
 50
90.0
  0
INSERT
  5
843E
330
8437
100
AcDbEntity
  8
寸法
 62
     0
370
    -2
100
AcDbBlockReference
  2
_DOT
 10
178.3638750888348
 20
183.999999999997
 30
0.0
 41
1.5
 42
1.5
 43
1.5
 50
270.0
  0
MTEXT
  5
843F
330
8437
100
AcDbEntity
  8
寸法
  6
Continuous
 62
     0
100
AcDbMText
 10
173.8629372371405
 20
190.399999999997
 30
0.0
 40
5.0
 41
0.0
 46
0.0
 71
     5
 72
     1
  1
\A1;13
  7
ＭＳ ゴシック
 11
0.0
 21
1.0
 31
0.0
 73
     1
 44
1.0
  0
POINT
  5
8440
330
8437
100
AcDbEntity
  8
Defpoints
 62
     0
100
AcDbPoint
 10
159.5861249111652
 20
196.7999999999969
 30
0.0
  0
POINT
  5
8441
330
8437
100
AcDbEntity
  8
Defpoints
 62
     0
100
AcDbPoint
 10
142.6756225006042
 20
183.999999999997
 30
0.0
  0
POINT
  5
8442
330
8437
100
AcDbEntity
  8
Defpoints
 62
     0
100
AcDbPoint
 10
178.3638750888348
 20
183.999999999997
 30
0.0
  0
ENDBLK
  5
8439
330
8437
100
AcDbEntity
  8
0
100
AcDbBlockEnd
  0
BLOCK
  5
8444
330
8443
100
AcDbEntity
  8
0
100
AcDbBlockBegin
  2
*D46
 70
     1
 10
0.0
 20
0.0
 30
0.0
  3
*D46
  1

  0
LINE
  5
8446
330
8443
100
AcDbEntity
  8
寸法
  6
Continuous
 62
     0
370
    -2
100
AcDbLine
 10
101.8568079489608
 20
196.7999999999979
 30
0.0
 11
90.36387508883485
 21
196.7999999999979
 31
0.0
  0
LINE
  5
8447
330
8443
100
AcDbEntity
  8
寸法
  6
Continuous
 62
     0
370
    -2
100
AcDbLine
 10
101.9861249111653
 20
190.2999999999969
 30
0.0
 11
90.36387508883485
 21
190.2999999999969
 31
0.0
  0
LINE
  5
8448
330
8443
100
AcDbEntity
  8
寸法
  6
Continuous
 62
     0
370
    -2
100
AcDbLine
 10
90.36387508883485
 20
195.2999999999979
 30
0.0
 11
90.36387508883485
 21
191.7999999999969
 31
0.0
  0
INSERT
  5
8449
330
8443
100
AcDbEntity
  8
寸法
 62
     0
370
    -2
100
AcDbBlockReference
  2
_DOT
 10
90.36387508883485
 20
196.7999999999979
 30
0.0
 41
1.5
 42
1.5
 43
1.5
 50
90.0
  0
INSERT
  5
844A
330
8443
100
AcDbEntity
  8
寸法
 62
     0
370
    -2
100
AcDbBlockReference
  2
_DOT
 10
90.36387508883485
 20
190.2999999999969
 30
0.0
 41
1.5
 42
1.5
 43
1.5
 50
270.0
  0
MTEXT
  5
844B
330
8443
100
AcDbEntity
  8
寸法
  6
Continuous
 62
     0
100
AcDbMText
 10
85.86293723714047
 20
193.5499999999974
 30
0.0
 40
5.0
 41
0.0
 46
0.0
 71
     5
 72
     1
  1
\A1;7
  7
ＭＳ ゴシック
 11
0.0
 21
1.0
 31
0.0
 73
     1
 44
1.0
  0
POINT
  5
844C
330
8443
100
AcDbEntity
  8
Defpoints
 62
     0
100
AcDbPoint
 10
106.8568079489608
 20
196.7999999999979
 30
0.0
  0
POINT
  5
844D
330
8443
100
AcDbEntity
  8
Defpoints
 62
     0
100
AcDbPoint
 10
106.9861249111653
 20
190.2999999999969
 30
0.0
  0
POINT
  5
844E
330
8443
100
AcDbEntity
  8
Defpoints
 62
     0
100
AcDbPoint
 10
90.36387508883485
 20
190.2999999999969
 30
0.0
  0
ENDBLK
  5
8445
330
8443
100
AcDbEntity
  8
0
100
AcDbBlockEnd
  0
BLOCK
  5
8450
330
844F
100
AcDbEntity
  8
0
100
AcDbBlockBegin
  2
*D47
 70
     1
 10
0.0
 20
0.0
 30
0.0
  3
*D47
  1

  0
LINE
  5
8452
330
844F
100
AcDbEntity
  8
寸法
  6
Continuous
 62
     0
370
    -2
100
AcDbLine
 10
117.6361249111652
 20
183.999999999997
 30
0.0
 11
90.36387508883485
 21
183.999999999997
 31
0.0
  0
LINE
  5
8453
330
844F
100
AcDbEntity
  8
寸法
  6
Continuous
 62
     0
370
    -2
100
AcDbLine
 10
101.9861249111653
 20
190.2999999999969
 30
0.0
 11
90.36387508883485
 21
190.2999999999969
 31
0.0
  0
LINE
  5
8454
330
844F
100
AcDbEntity
  8
寸法
  6
Continuous
 62
     0
370
    -2
100
AcDbLine
 10
90.36387508883485
 20
185.499999999997
 30
0.0
 11
90.36387508883485
 21
188.7999999999969
 31
0.0
  0
INSERT
  5
8455
330
844F
100
AcDbEntity
  8
寸法
 62
     0
370
    -2
100
AcDbBlockReference
  2
_DOT
 10
90.36387508883485
 20
183.999999999997
 30
0.0
 41
1.5
 42
1.5
 43
1.5
 50
270.0
  0
INSERT
  5
8456
330
844F
100
AcDbEntity
  8
寸法
 62
     0
370
    -2
100
AcDbBlockReference
  2
_DOT
 10
90.36387508883485
 20
190.2999999999969
 30
0.0
 41
1.5
 42
1.5
 43
1.5
 50
90.0
  0
MTEXT
  5
8457
330
844F
100
AcDbEntity
  8
寸法
  6
Continuous
 62
     0
100
AcDbMText
 10
85.86387508883485
 20
187.149999999997
 30
0.0
 40
5.0
 41
0.0
 46
0.0
 71
     5
 72
     1
  1
\A1;6
  7
ＭＳ ゴシック
 11
0.0
 21
1.0
 31
0.0
 73
     1
 44
1.0
  0
POINT
  5
8458
330
844F
100
AcDbEntity
  8
Defpoints
 62
     0
100
AcDbPoint
 10
122.6361249111652
 20
183.999999999997
 30
0.0
  0
POINT
  5
8459
330
844F
100
AcDbEntity
  8
Defpoints
 62
     0
100
AcDbPoint
 10
106.9861249111653
 20
190.2999999999969
 30
0.0
  0
POINT
  5
845A
330
844F
100
AcDbEntity
  8
Defpoints
 62
     0
100
AcDbPoint
 10
90.36387508883485
 20
190.2999999999969
 30
0.0
  0
ENDBLK
  5
8451
330
844F
100
AcDbEntity
  8
0
100
AcDbBlockEnd
  0
BLOCK
  5
8467
330
8466
100
AcDbEntity
  8
0
100
AcDbBlockBegin
  2
*D48
 70
     1
 10
0.0
 20
0.0
 30
0.0
  3
*D48
  1

  0
LINE
  5
8469
330
8466
100
AcDbEntity
  8
寸法
  6
Continuous
 62
     0
370
    -2
100
AcDbLine
 10
382.6088742726974
 20
192.0984617204956
 30
0.0
 11
401.0
 21
192.0984617204956
 31
0.0
  0
LINE
  5
846A
330
8466
100
AcDbEntity
  8
寸法
  6
Continuous
 62
     0
370
    -2
100
AcDbLine
 10
382.6088742726967
 20
169.0984617204956
 30
0.0
 11
401.0
 21
169.0984617204956
 31
0.0
  0
LINE
  5
846B
330
8466
100
AcDbEntity
  8
寸法
  6
Continuous
 62
     0
370
    -2
100
AcDbLine
 10
401.0
 20
190.5984617204956
 30
0.0
 11
401.0
 21
170.5984617204956
 31
0.0
  0
INSERT
  5
846C
330
8466
100
AcDbEntity
  8
寸法
 62
     0
370
    -2
100
AcDbBlockReference
  2
_DOT
 10
401.0
 20
192.0984617204956
 30
0.0
 41
1.5
 42
1.5
 43
1.5
 50
90.0
  0
INSERT
  5
846D
330
8466
100
AcDbEntity
  8
寸法
 62
     0
370
    -2
100
AcDbBlockReference
  2
_DOT
 10
401.0
 20
169.0984617204956
 30
0.0
 41
1.5
 42
1.5
 43
1.5
 50
270.0
  0
MTEXT
  5
846E
330
8466
100
AcDbEntity
  8
寸法
  6
Continuous
 62
     0
100
AcDbMText
 10
396.4990621483056
 20
180.5984617204956
 30
0.0
 40
5.0
 41
0.0
 46
0.0
 71
     5
 72
     1
  1
\A1;23
  7
ＭＳ ゴシック
 11
0.0
 21
1.0
 31
0.0
 73
     1
 44
1.0
  0
POINT
  5
846F
330
8466
100
AcDbEntity
  8
Defpoints
 62
     0
100
AcDbPoint
 10
377.6088742726974
 20
192.0984617204956
 30
0.0
  0
POINT
  5
8470
330
8466
100
AcDbEntity
  8
Defpoints
 62
     0
100
AcDbPoint
 10
377.6088742726967
 20
169.0984617204956
 30
0.0
  0
POINT
  5
8471
330
8466
100
AcDbEntity
  8
Defpoints
 62
     0
100
AcDbPoint
 10
401.0
 20
169.0984617204956
 30
0.0
  0
ENDBLK
  5
8468
330
8466
100
AcDbEntity
  8
0
100
AcDbBlockEnd
  0
BLOCK
  5
847C
330
847B
100
AcDbEntity
  8
0
100
AcDbBlockBegin
  2
*D49
 70
     1
 10
0.0
 20
0.0
 30
0.0
  3
*D49
  1

  0
LINE
  5
847E
330
847B
100
AcDbEntity
  8
寸法
  6
Continuous
 62
     0
370
    -2
100
AcDbLine
 10
211.1510663548081
 20
336.8
 30
0.0
 11
191.0
 21
336.8
 31
0.0
  0
LINE
  5
847F
330
847B
100
AcDbEntity
  8
寸法
  6
Continuous
 62
     0
370
    -2
100
AcDbLine
 10
211.0
 20
283.9307692307692
 30
0.0
 11
191.0
 21
283.9307692307692
 31
0.0
  0
LINE
  5
8480
330
847B
100
AcDbEntity
  8
寸法
  6
Continuous
 62
     0
370
    -2
100
AcDbLine
 10
191.0
 20
335.3
 30
0.0
 11
191.0
 21
285.4307692307692
 31
0.0
  0
INSERT
  5
8481
330
847B
100
AcDbEntity
  8
寸法
 62
     0
370
    -2
100
AcDbBlockReference
  2
_DOT
 10
191.0
 20
336.8
 30
0.0
 41
1.5
 42
1.5
 43
1.5
 50
90.0
  0
INSERT
  5
8482
330
847B
100
AcDbEntity
  8
寸法
 62
     0
370
    -2
100
AcDbBlockReference
  2
_DOT
 10
191.0
 20
283.9307692307692
 30
0.0
 41
1.5
 42
1.5
 43
1.5
 50
270.0
  0
MTEXT
  5
8483
330
847B
100
AcDbEntity
  8
寸法
  6
Continuous
 62
     0
100
AcDbMText
 10
186.4990621483056
 20
310.3653846153846
 30
0.0
 40
5.0
 41
0.0
 46
0.0
 71
     5
 72
     1
  1
\A1;53
  7
ＭＳ ゴシック
 11
0.0
 21
1.0
 31
0.0
 73
     1
 44
1.0
  0
POINT
  5
8484
330
847B
100
AcDbEntity
  8
Defpoints
 62
     0
100
AcDbPoint
 10
216.1510663548081
 20
336.8
 30
0.0
  0
POINT
  5
8485
330
847B
100
AcDbEntity
  8
Defpoints
 62
     0
100
AcDbPoint
 10
216.0
 20
283.9307692307692
 30
0.0
  0
POINT
  5
8486
330
847B
100
AcDbEntity
  8
Defpoints
 62
     0
100
AcDbPoint
 10
191.0
 20
283.9307692307692
 30
0.0
  0
ENDBLK
  5
847D
330
847B
100
AcDbEntity
  8
0
100
AcDbBlockEnd
  0
BLOCK
  5
8492
330
8491
100
AcDbEntity
  8
0
100
AcDbBlockBegin
  2
*D50
 70
     1
 10
0.0
 20
0.0
 30
0.0
  3
*D50
  1

  0
LINE
  5
8494
330
8491
100
AcDbEntity
  8
寸法
  6
Continuous
 62
     0
370
    -2
100
AcDbLine
 10
443.0
 20
336.8156353630246
 30
0.0
 11
419.0
 21
336.8156353630246
 31
0.0
  0
LINE
  5
8495
330
8491
100
AcDbEntity
  8
寸法
  6
Continuous
 62
     0
370
    -2
100
AcDbLine
 10
442.9999999999999
 20
283.9464045937938
 30
0.0
 11
419.0
 21
283.9464045937938
 31
0.0
  0
LINE
  5
8496
330
8491
100
AcDbEntity
  8
寸法
  6
Continuous
 62
     0
370
    -2
100
AcDbLine
 10
419.0
 20
335.3156353630246
 30
0.0
 11
419.0
 21
285.4464045937938
 31
0.0
  0
INSERT
  5
8497
330
8491
100
AcDbEntity
  8
寸法
 62
     0
370
    -2
100
AcDbBlockReference
  2
_DOT
 10
419.0
 20
336.8156353630246
 30
0.0
 41
1.5
 42
1.5
 43
1.5
 50
90.0
  0
INSERT
  5
8498
330
8491
100
AcDbEntity
  8
寸法
 62
     0
370
    -2
100
AcDbBlockReference
  2
_DOT
 10
419.0
 20
283.9464045937938
 30
0.0
 41
1.5
 42
1.5
 43
1.5
 50
270.0
  0
MTEXT
  5
8499
330
8491
100
AcDbEntity
  8
寸法
  6
Continuous
 62
     0
100
AcDbMText
 10
414.4990621483056
 20
310.3810199784092
 30
0.0
 40
5.0
 41
0.0
 46
0.0
 71
     5
 72
     1
  1
\A1;53
  7
ＭＳ ゴシック
 11
0.0
 21
1.0
 31
0.0
 73
     1
 44
1.0
  0
POINT
  5
849A
330
8491
100
AcDbEntity
  8
Defpoints
 62
     0
100
AcDbPoint
 10
448.0
 20
336.8156353630246
 30
0.0
  0
POINT
  5
849B
330
8491
100
AcDbEntity
  8
Defpoints
 62
     0
100
AcDbPoint
 10
447.9999999999999
 20
283.9464045937938
 30
0.0
  0
POINT
  5
849C
330
8491
100
AcDbEntity
  8
Defpoints
 62
     0
100
AcDbPoint
 10
419.0
 20
283.9464045937938
 30
0.0
  0
ENDBLK
  5
8493
330
8491
100
AcDbEntity
  8
0
100
AcDbBlockEnd
  0
BLOCK
  5
84A2
330
84A1
100
AcDbEntity
  8
0
100
AcDbBlockBegin
  2
*D51
 70
     1
 10
0.0
 20
0.0
 30
0.0
  3
*D51
  1

  0
LINE
  5
84A4
330
84A1
100
AcDbEntity
  8
寸法
  6
Continuous
 62
     0
370
    -2
100
AcDbLine
 10
448.3638750888346
 20
342.0
 30
0.0
 11
448.3638750888346
 21
353.0
 31
0.0
  0
LINE
  5
84A5
330
84A1
100
AcDbEntity
  8
寸法
  6
Continuous
 62
     0
370
    -2
100
AcDbLine
 10
486.3638750888348
 20
342.0
 30
0.0
 11
486.3638750888348
 21
353.0
 31
0.0
  0
LINE
  5
84A6
330
84A1
100
AcDbEntity
  8
寸法
  6
Continuous
 62
     0
370
    -2
100
AcDbLine
 10
449.8638750888346
 20
353.0
 30
0.0
 11
484.8638750888348
 21
353.0
 31
0.0
  0
INSERT
  5
84A7
330
84A1
100
AcDbEntity
  8
寸法
 62
     0
370
    -2
100
AcDbBlockReference
  2
_DOT
 10
448.3638750888346
 20
353.0
 30
0.0
 41
1.5
 42
1.5
 43
1.5
 50
180.0
  0
INSERT
  5
84A8
330
84A1
100
AcDbEntity
  8
寸法
 62
     0
370
    -2
100
AcDbBlockReference
  2
_DOT
 10
486.3638750888348
 20
353.0
 30
0.0
 41
1.5
 42
1.5
 43
1.5
  0
MTEXT
  5
84A9
330
84A1
100
AcDbEntity
  8
寸法
  6
Continuous
 62
     0
100
AcDbMText
 10
467.3638750888347
 20
357.5009378516944
 30
0.0
 40
5.0
 41
0.0
 46
0.0
 71
     5
 72
     1
  1
\A1;38
  7
ＭＳ ゴシック
 73
     1
 44
1.0
  0
POINT
  5
84AA
330
84A1
100
AcDbEntity
  8
Defpoints
 62
     0
100
AcDbPoint
 10
448.3638750888346
 20
337.0
 30
0.0
  0
POINT
  5
84AB
330
84A1
100
AcDbEntity
  8
Defpoints
 62
     0
100
AcDbPoint
 10
486.3638750888348
 20
337.0
 30
0.0
  0
POINT
  5
84AC
330
84A1
100
AcDbEntity
  8
Defpoints
 62
     0
100
AcDbPoint
 10
486.3638750888348
 20
353.0
 30
0.0
  0
ENDBLK
  5
84A3
330
84A1
100
AcDbEntity
  8
0
100
AcDbBlockEnd
  0
BLOCK
  5
84B1
330
84B0
100
AcDbEntity
  8
0
100
AcDbBlockBegin
  2
*D52
 70
     1
 10
0.0
 20
0.0
 30
0.0
  3
*D52
  1

  0
LINE
  5
84B3
330
84B0
100
AcDbEntity
  8
寸法
  6
Continuous
 62
     0
370
    -2
100
AcDbLine
 10
216.1510663548081
 20
341.8
 30
0.0
 11
216.1510663548081
 21
352.9843646369754
 31
0.0
  0
LINE
  5
84B4
330
84B0
100
AcDbEntity
  8
寸法
  6
Continuous
 62
     0
370
    -2
100
AcDbLine
 10
254.1510663548084
 20
342.0
 30
0.0
 11
254.1510663548084
 21
352.9843646369754
 31
0.0
  0
LINE
  5
84B5
330
84B0
100
AcDbEntity
  8
寸法
  6
Continuous
 62
     0
370
    -2
100
AcDbLine
 10
217.6510663548081
 20
352.9843646369754
 30
0.0
 11
252.6510663548084
 21
352.9843646369754
 31
0.0
  0
INSERT
  5
84B6
330
84B0
100
AcDbEntity
  8
寸法
 62
     0
370
    -2
100
AcDbBlockReference
  2
_DOT
 10
216.1510663548081
 20
352.9843646369754
 30
0.0
 41
1.5
 42
1.5
 43
1.5
 50
180.0
  0
INSERT
  5
84B7
330
84B0
100
AcDbEntity
  8
寸法
 62
     0
370
    -2
100
AcDbBlockReference
  2
_DOT
 10
254.1510663548084
 20
352.9843646369754
 30
0.0
 41
1.5
 42
1.5
 43
1.5
  0
MTEXT
  5
84B8
330
84B0
100
AcDbEntity
  8
寸法
  6
Continuous
 62
     0
100
AcDbMText
 10
235.1510663548083
 20
357.4853024886698
 30
0.0
 40
5.0
 41
0.0
 46
0.0
 71
     5
 72
     1
  1
\A1;38
  7
ＭＳ ゴシック
 73
     1
 44
1.0
  0
POINT
  5
84B9
330
84B0
100
AcDbEntity
  8
Defpoints
 62
     0
100
AcDbPoint
 10
216.1510663548081
 20
336.8
 30
0.0
  0
POINT
  5
84BA
330
84B0
100
AcDbEntity
  8
Defpoints
 62
     0
100
AcDbPoint
 10
254.1510663548084
 20
337.0
 30
0.0
  0
POINT
  5
84BB
330
84B0
100
AcDbEntity
  8
Defpoints
 62
     0
100
AcDbPoint
 10
254.1510663548084
 20
352.9843646369754
 30
0.0
  0
ENDBLK
  5
84B2
330
84B0
100
AcDbEntity
  8
0
100
AcDbBlockEnd
  0
ENDSEC
  0
SECTION
  2
ENTITIES
  0
LINE
  5
54A0
330
A
100
AcDbEntity
  8
PRINT BORDER
100
AcDbLine
 10
296.9999999999999
 20
0.0
 30
0.0
 11
296.9999999999999
 21
15.30952622855898
 31
0.0
  0
LINE
  5
54A1
330
A
100
AcDbEntity
  8
テンプレート
100
AcDbLine
 10
437.9999999999999
 20
38.27810890422097
 30
0.0
 11
15.30952622855898
 21
38.27810890422097
 31
0.0
  0
LINE
  5
54A2
330
A
100
AcDbEntity
  8
テンプレート
100
AcDbLine
 10
15.30952622855898
 20
26.22153683920783
 30
0.0
 11
578.6904737714407
 21
26.22153683920783
 31
0.0
  0
TEXT
  5
54A3
330
A
100
AcDbEntity
  8
テンプレート
100
AcDbText
 10
18.06121699514119
 20
32.16825981613692
 30
0.0
 40
3.5
  1
材質
  7
ＭＳ ゴシック
100
AcDbText
  0
TEXT
  5
54A4
330
A
100
AcDbEntity
  8
テンプレート
100
AcDbText
 10
18.06121699514119
 20
56.50959028673083
 30
0.0
 40
3.5
  1
品名
  7
ＭＳ ゴシック
100
AcDbText
  0
TEXT
  5
54A5
330
A
100
AcDbEntity
  8
テンプレート
100
AcDbText
 10
18.06121699514119
 20
44.65099339080098
 30
0.0
 40
3.5
  1
仕上げ
  7
ＭＳ ゴシック
100
AcDbText
  0
TEXT
  5
54A6
330
A
100
AcDbEntity
  8
テンプレート
100
AcDbText
 10
326.5323022261666
 20
56.58523052309899
 30
0.0
 40
3.5
  1
品番
  7
ＭＳ ゴシック
100
AcDbText
  0
TEXT
  5
54A7
330
A
100
AcDbEntity
  8
テンプレート
100
AcDbText
 10
36.7528253083583
 20
53.09440584367189
 30
0.0
 40
5.5
  1
間仕切装置 - FORMANI,Eclipse -
  7
ＭＳ ゴシック
100
AcDbText
  0
TEXT
  5
54A8
330
A
100
AcDbEntity
  8
テンプレート
100
AcDbText
 10
340.7260742506825
 20
52.97708052455302
 30
0.0
 40
5.5
  1
FOR16-EC01
  7
ＭＳ ゴシック
100
AcDbText
  0
LINE
  5
54A9
330
A
100
AcDbEntity
  8
テンプレート
100
AcDbLine
 10
437.9999999999999
 20
50.16496477419605
 30
0.0
 11
15.30952622855898
 21
50.16496477419605
 31
0.0
  0
LINE
  5
54AA
330
A
100
AcDbEntity
  8
テンプレート
100
AcDbLine
 10
578.6904737714411
 20
62.22153683920783
 30
0.0
 11
15.30952622855898
 21
62.22153683920783
 31
0.0
  0
LINE
  5
54AB
330
A
100
AcDbEntity
  8
PRINT BORDER
100
AcDbLine
 10
593.9999999999999
 20
210.0
 30
0.0
 11
578.6904737714411
 21
210.0
 31
0.0
  0
LINE
  5
54AC
330
A
100
AcDbEntity
  8
PRINT BORDER
100
AcDbLine
 10
0.0
 20
210.0
 30
0.0
 11
15.30952622855898
 21
210.0
 31
0.0
  0
LINE
  5
54AD
330
A
100
AcDbEntity
  8
PRINT BORDER
100
AcDbLine
 10
296.9999999999999
 20
420.0
 30
0.0
 11
296.9999999999999
 21
404.690473771441
 31
0.0
  0
LINE
  5
54AE
330
A
100
AcDbEntity
  8
テンプレート
100
AcDbLine
 10
578.6904737714411
 20
62.22153683920783
 30
0.0
 11
578.6904737714411
 21
26.22153683920783
 31
0.0
  0
LINE
  5
54AF
330
A
100
AcDbEntity
  8
テンプレート
100
AcDbLine
 10
15.30952622855898
 20
62.22153683920783
 30
0.0
 11
15.30952622855898
 21
26.22153683920783
 31
0.0
  0
TEXT
  5
54B0
330
A
100
AcDbEntity
  8
テンプレート
100
AcDbText
 10
494.9733384955217
 20
16.51938390313694
 30
0.0
 40
5.5
  1
大洋金物株式会社  
  7
ＭＳ ゴシック
100
AcDbText
  0
LINE
  5
54B1
330
A
100
AcDbEntity
  8
テンプレート
100
AcDbLine
 10
437.9999999999999
 20
62.22153683920783
 30
0.0
 11
437.9999999999999
 21
26.22153683920783
 31
0.0
  0
LINE
  5
54B2
330
A
100
AcDbEntity
  8
テンプレート
100
AcDbLine
 10
323.7181790590112
 20
62.22153683920784
 30
0.0
 11
323.7181790590112
 21
26.22153683920784
 31
0.0
  0
INSERT
  5
54B3
330
A
100
AcDbEntity
  8
テンプレート
100
AcDbBlockReference
  2
名称未設定-1
 10
548.3945198859805
 20
-7.642344203993161
 30
0.0
 41
0.180975
 42
0.180975
 43
0.180975
  0
LINE
  5
54B5
330
A
100
AcDbEntity
  8
テンプレート
100
AcDbLine
 10
15.30952622855898
 20
210.0
 30
0.0
 11
15.30952622855898
 21
26.22153683920783
 31
0.0
  0
LINE
  5
54B6
330
A
100
AcDbEntity
  8
テンプレート
100
AcDbLine
 10
15.30952622855898
 20
210.0
 30
0.0
 11
15.30952622855898
 21
404.690473771441
 31
0.0
  0
LINE
  5
54B7
330
A
100
AcDbEntity
  8
テンプレート
100
AcDbLine
 10
296.9999999999999
 20
404.690473771441
 30
0.0
 11
15.30952622855887
 21
404.690473771441
 31
0.0
  0
LINE
  5
54B8
330
A
100
AcDbEntity
  8
テンプレート
100
AcDbLine
 10
296.9999999999999
 20
404.690473771441
 30
0.0
 11
578.6904737714411
 21
404.690473771441
 31
0.0
  0
LINE
  5
54B9
330
A
100
AcDbEntity
  8
テンプレート
100
AcDbLine
 10
578.6904737714411
 20
210.0
 30
0.0
 11
578.6904737714411
 21
404.690473771441
 31
0.0
  0
LINE
  5
54BA
330
A
100
AcDbEntity
  8
テンプレート
100
AcDbLine
 10
578.6904737714411
 20
210.0
 30
0.0
 11
578.6904737714411
 21
26.22153683920783
 31
0.0
  0
LWPOLYLINE
  5
54BB
330
A
100
AcDbEntity
  8
PRINT BORDER
  6
HIDDEN
 48
3.0
100
AcDbPolyline
 90
        4
 70
     1
 43
0.0
 10
0.0
 20
0.0
 10
0.0
 20
420.0
 10
593.9999999999999
 20
420.0
 10
593.9999999999999
 20
0.0
  0
TEXT
  5
54BC
330
A
100
AcDbEntity
  8
テンプレート
100
AcDbText
 10
326.5078693304582
 20
32.62405342819489
 30
0.0
 40
3.5
  1
縮尺
  7
ＭＳ ゴシック
100
AcDbText
  0
TEXT
  5
54BD
330
A
100
AcDbEntity
  8
テンプレート
100
AcDbText
 10
340.7260742506825
 20
28.29362070227196
 30
0.0
 40
5.5
  1
1/2
  7
ＭＳ ゴシック
100
AcDbText
  0
TEXT
  5
54BE
330
A
100
AcDbEntity
  8
テンプレート
100
AcDbText
 10
326.5323022261666
 20
44.52865845808584
 30
0.0
 40
3.5
  1
扉厚
  7
ＭＳ ゴシック
100
AcDbText
  0
TEXT
  5
54BF
330
A
100
AcDbEntity
  8
テンプレート
100
AcDbText
 10
440.0887524673468
 20
56.58523052309897
 30
0.0
 40
3.5
  1
備考
  7
ＭＳ ゴシック
100
AcDbText
  0
LWPOLYLINE
  5
5528
330
A
100
AcDbEntity
  8
Defpoints
100
AcDbPolyline
 90
        4
 70
     1
 43
0.0
 10
161.5928474918056
 20
97.1045060433407
 10
161.5928474918056
 20
69.6571102646527
 10
432.4071525081941
 20
69.6571102646527
 10
432.4071525081941
 20
97.1045060433407
  0
LINE
  5
5529
330
A
100
AcDbEntity
  8
Defpoints
  6
CENTER
 48
3.0
100
AcDbLine
 10
296.9999999999999
 20
404.690473771441
 30
0.0
 11
297.0
 21
106.25363796957
 31
0.0
  0
LINE
  5
552A
330
A
100
AcDbEntity
  8
Defpoints
  6
CENTER
 48
3.0
100
AcDbLine
 10
15.30952622855898
 20
255.4720558705055
 30
0.0
 11
578.690473771441
 21
255.4720558705055
 31
0.0
  0
LINE
  5
552B
330
A
100
AcDbEntity
  8
Defpoints
  6
CENTER
 48
3.0
100
AcDbLine
 10
15.30952622855898
 20
106.25363796957
 30
0.0
 11
578.690473771441
 21
106.25363796957
 31
0.0
  0
LINE
  5
552C
330
A
100
AcDbEntity
  8
Defpoints
  6
CENTER
 48
3.0
100
AcDbLine
 10
408.8721245115548
 20
224.6771809568476
 30
0.0
 11
408.8721245115548
 21
137.0485128832279
 31
0.0
  0
LINE
  5
552D
330
A
100
AcDbEntity
  8
Defpoints
  6
CENTER
 48
3.0
100
AcDbLine
 10
365.057790474745
 20
180.8628469200378
 30
0.0
 11
452.6864585483647
 21
180.8628469200378
 31
0.0
  0
LINE
  5
59F5
330
A
100
AcDbEntity
  8
テンプレート
  6
Continuous
100
AcDbLine
 10
33.63100153769659
 20
26.22153683920783
 30
0.0
 11
33.63100153769659
 21
50.16496477419605
 31
0.0
  0
MTEXT
  5
59F7
102
{ACAD_XDICTIONARY
360
59F8
102
}
330
A
100
AcDbEntity
  8
寸法
  6
Continuous
370
     0
100
AcDbMText
 10
16.03746315898582
 20
23.37395828580276
 30
0.0
 40
4.0
 41
0.0
 46
4.0
 71
     1
 72
     1
  1
{20221024M}
  7
ＭＳ ゴシック
 73
     1
 44
1.0
1001
ACAD
1000
ACAD_MTEXT_DEFINED_HEIGHT_BEGIN
1070
    46
1040
4.0
1000
ACAD_MTEXT_DEFINED_HEIGHT_END
  0
MTEXT
  5
5A9F
330
A
100
AcDbEntity
  8
テンプレート
390
1D
100
AcDbMText
 10
40.82496584043753
 20
34.57354675141926
 30
0.0
 40
5.0
 41
0.0
 46
5.075
 71
     1
 72
     1
  1
{ステンレス}
  7
ＭＳ ゴシック
 73
     1
 44
0.7828267384257843
1001
ACAD
1000
ACAD_MTEXT_DEFINED_HEIGHT_BEGIN
1070
    46
1040
5.075
1000
ACAD_MTEXT_DEFINED_HEIGHT_END
  0
LINE
  5
5AA7
330
A
100
AcDbEntity
  8
テンプレート
  6
Continuous
100
AcDbLine
 10
224.2453682111437
 20
50.16496477419606
 30
0.0
 11
224.2453682111437
 21
38.27810890422099
 31
0.0
  0
LINE
  5
5AA8
330
A
100
AcDbEntity
  8
テンプレート
  6
Continuous
100
AcDbLine
 10
147.2638229208211
 20
50.16496477419603
 30
0.0
 11
147.2638229208211
 21
38.27810890422096
 31
0.0
  0
LINE
  5
5AA9
330
A
100
AcDbEntity
  8
テンプレート
  6
Continuous
100
AcDbLine
 10
86.44498978318508
 20
50.16496477419605
 30
0.0
 11
86.44498978318518
 21
38.27810890422097
 31
0.0
  0
LINE
  5
6CFF
330
A
100
AcDbEntity
  8
寸法
  6
Continuous
100
AcDbLine
 10
224.2453682111437
 20
38.27810890422099
 30
0.0
 11
224.2453682111437
 21
26.22153683920781
 31
0.0
  0
MTEXT
  5
718F
330
A
100
AcDbEntity
  8
テンプレート
390
1D
100
AcDbMText
 10
40.82496584043753
 20
46.67269218827177
 30
0.0
 40
5.0
 41
0.0
 46
5.190383893960235
 71
     1
 72
     1
  1
{サテン}
  7
ＭＳ ゴシック
 73
     1
 44
0.7828267384257843
1001
ACAD
1000
ACAD_MTEXT_DEFINED_HEIGHT_BEGIN
1070
    46
1040
5.190383893960235
1000
ACAD_MTEXT_DEFINED_HEIGHT_END
  0
MTEXT
  5
7190
330
A
100
AcDbEntity
  8
テンプレート
390
1D
100
AcDbMText
 10
151.2511464985339
 20
46.67269218827175
 30
0.0
 40
5.0
 41
0.0
 46
5.480180067525322
 71
     1
 72
     1
  1
{PVDブラック}
  7
ＭＳ ゴシック
 73
     1
 44
0.7828267384257843
1001
ACAD
1000
ACAD_MTEXT_DEFINED_HEIGHT_BEGIN
1070
    46
1040
5.480180067525322
1000
ACAD_MTEXT_DEFINED_HEIGHT_END
  0
TEXT
  5
7F3F
330
A
100
AcDbEntity
  8
寸法
100
AcDbText
 10
415.6653394112914
 20
218.3208023713178
 30
0.0
 40
5.0
  1
<切欠図>
  7
ＭＳ ゴシック
100
AcDbText
  0
DIMENSION
  5
7F53
330
A
100
AcDbEntity
  8
寸法
100
AcDbDimension
  2
*D8
 10
486.3638750888351
 20
214.3532229159832
 30
0.0
 11
476.8638750888351
 21
218.8541607676775
 31
0.0
 70
    32
 71
     5
 42
19.0
 73
     0
 74
     0
 75
     0
  3
tfrom線あり
100
AcDbAlignedDimension
 13
467.3638750888351
 23
207.0000000000001
 33
0.0
 14
486.3638750888351
 24
199.022763475284
 34
0.0
100
AcDbRotatedDimension
  0
DIMENSION
  5
7F54
330
A
100
AcDbEntity
  8
寸法
100
AcDbDimension
  2
*D9
 10
467.3638750888351
 20
214.3532229159832
 30
0.0
 11
457.863875088835
 21
218.8541607676775
 31
0.0
 70
    32
 71
     5
 42
19.00000000000023
 73
     0
 74
     0
 75
     0
  3
tfrom線あり
100
AcDbAlignedDimension
 13
448.3638750888348
 23
199.022763475284
 33
0.0
 14
467.3638750888351
 24
207.0000000000001
 34
0.0
100
AcDbRotatedDimension
  0
CIRCLE
  5
7F55
102
{ACAD_REACTORS
330
7F58
102
}
330
A
100
AcDbEntity
  8
CutoutOverlay
100
AcDbCircle
 10
467.3638750888351
 20
179.9670448420042
 30
0.0
 40
14.0
  0
CIRCLE
  5
7F56
102
{ACAD_REACTORS
330
7F58
102
}
330
A
100
AcDbEntity
  8
CutoutOverlay
100
AcDbCircle
 10
448.3638750888348
 20
179.9670448420042
 30
0.0
 40
4.0
  0
CIRCLE
  5
7F57
102
{ACAD_REACTORS
330
7F58
102
}
330
A
100
AcDbEntity
  8
CutoutOverlay
100
AcDbCircle
 10
486.3638750888351
 20
179.9670448420042
 30
0.0
 40
4.0
  0
HATCH
  5
7F58
330
A
100
AcDbEntity
  8
CutoutOverlay
100
AcDbHatch
 10
0.0
 20
0.0
 30
0.0
210
0.0
220
0.0
230
1.0
  2
ANSI31
 70
     0
 71
     1
 91
        3
 92
        1
 93
        1
 72
     2
 10
448.3638750888348
 20
179.9670448420042
 40
4.0
 50
0.0
 51
360.0
 73
     1
 97
        1
330
7F56
 92
        1
 93
        1
 72
     2
 10
467.3638750888351
 20
179.9670448420042
 40
14.0
 50
0.0
 51
360.0
 73
     1
 97
        1
330
7F55
 92
        1
 93
        1
 72
     2
 10
486.3638750888351
 20
179.9670448420042
 40
4.0
 50
0.0
 51
360.0
 73
     1
 97
        1
330
7F57
 75
     0
 76
     1
 52
0.0
 41
1.0
 77
     0
 78
     1
 53
45.0
 43
58.49175057728025
 44
-0.8958020780337392
 45
-2.245064030267288
 46
2.245064030267288
 79
     0
 98
        1
 10
58.49175057728025
 20
-0.8958020780337392
1001
ACAD
1010
0.0
1020
0.0
1030
0.0
  0
LINE
  5
7F59
330
A
100
AcDbEntity
  8
CutoutOverlay
  6
CENTER
100
AcDbLine
 10
467.3638750888351
 20
208.4303446637554
 30
0.0
 11
467.3638750888351
 21
149.6063986920525
 31
0.0
  0
LINE
  5
7F5A
330
A
100
AcDbEntity
  8
CutoutOverlay
  6
CENTER
100
AcDbLine
 10
434.773844046785
 20
179.9635814711987
 30
0.0
 11
499.3649998750058
 21
179.9635814711987
 31
0.0
  0
LINE
  5
7F5B
330
A
100
AcDbEntity
  8
CutoutOverlay
  6
CENTER
100
AcDbLine
 10
434.773844046785
 20
179.9670448420042
 30
0.0
 11
499.3649998750058
 21
179.9670448420042
 31
0.0
  0
LEADER
  5
7F5C
102
{ACAD_XDICTIONARY
360
7F5D
102
}
330
A
100
AcDbEntity
  8
寸法
100
AcDbLeader
  3
tfrom線あり
 76
     3
 10
467.3638750888351
 20
179.9670448420042
 30
0.0
 10
500.6447619903884
 20
155.6711473707866
 30
0.0
 10
547.026300610308
 20
155.6711473707866
 30
0.0
  0
TEXT
  5
7F5E
330
A
100
AcDbEntity
  8
寸法
100
AcDbText
 10
502.2256990600114
 20
158.3066003204821
 30
0.0
 40
5.0
  1
角芯 センター
  7
ＭＳ ゴシック
100
AcDbText
  0
TEXT
  5
7F5F
330
A
100
AcDbEntity
  8
寸法
100
AcDbText
 10
500.819105790844
 20
199.8696986980505
 30
0.0
 40
5.0
  1
ø28
  7
ＭＳ ゴシック
100
AcDbText
  0
LEADER
  5
7F60
102
{ACAD_XDICTIONARY
360
7F61
102
}
330
A
100
AcDbEntity
  8
寸法
100
AcDbLeader
  3
tfrom線あり
 76
     3
 10
477.9302737889462
 20
189.151336785877
 30
0.0
 10
498.5558750046666
 20
198.2880239211927
 30
0.0
 10
512.3945817718102
 20
198.2880239211927
 30
0.0
1001
ACAD
1000
DSTYLE
1002
{
1070
   341
1005
74B6
1002
}
  0
TEXT
  5
7F62
330
A
100
AcDbEntity
  8
寸法
100
AcDbText
 10
501.8181099969876
 20
186.7754212117171
 30
0.0
 40
5.0
  1
ø8
  7
ＭＳ ゴシック
100
AcDbText
  0
LEADER
  5
7F63
102
{ACAD_XDICTIONARY
360
7F64
102
}
330
A
100
AcDbEntity
  8
寸法
100
AcDbLeader
  3
tfrom線あり
 76
     3
 10
490.0712941019672
 20
182.0695735854931
 30
0.0
 10
498.5966064806881
 20
185.1282229536467
 30
0.0
 10
509.1534772016233
 20
185.1282229536467
 30
0.0
1001
ACAD
1000
DSTYLE
1002
{
1070
   341
1005
74B6
1002
}
  0
LEADER
  5
7F65
102
{ACAD_XDICTIONARY
360
7F66
102
}
330
A
100
AcDbEntity
  8
寸法
100
AcDbLeader
  3
tfrom線あり
 76
     3
 10
444.6564560757033
 20
182.0695735854931
 30
0.0
 10
438.1957167667862
 20
185.7821756031913
 30
0.0
 10
427.6388460458509
 20
185.7821756031913
 30
0.0
211
-1.0
221
0.0
231
0.0
1001
ACAD
1000
DSTYLE
1002
{
1070
   341
1005
74B6
1002
}
  0
TEXT
  5
7F67
330
A
100
AcDbEntity
  8
寸法
100
AcDbText
 10
429.7073813772903
 20
187.8578953144454
 30
0.0
 40
5.0
  1
ø8
  7
ＭＳ ゴシック
100
AcDbText
  0
TEXT
  5
7FF1
330
A
100
AcDbEntity
  8
テンプレート
100
AcDbText
 10
197.4800228716895
 20
72.60802090269735
 30
0.0
 40
5.0
  1
※ ご注文の際は正確な扉厚の指示をしてください。
  7
ＭＳ ゴシック
100
AcDbText
  0
TEXT
  5
7FF2
330
A
100
AcDbEntity
  8
テンプレート
100
AcDbText
 10
197.6522659538973
 20
90.08343630331825
 30
0.0
 40
5.0
  1
※ 輸入製品の為、国内製品と比べ製品寸法の個体差に幅が有ります。
  7
ＭＳ ゴシック
100
AcDbText
  0
TEXT
  5
7FF3
330
A
100
AcDbEntity
  8
テンプレート
100
AcDbText
 10
197.4800228716895
 20
81.97965220717845
 30
0.0
 40
5.0
  1
　 加工は現物合わせの上行って下さい。
  7
ＭＳ ゴシック
100
AcDbText
  0
TEXT
  5
8015
330
A
100
AcDbEntity
  8
テンプレート
100
AcDbText
 10
339.1565091947365
 20
40.86032982095322
 30
0.0
 40
5.0
  1
ユーロケース(DIN規格)：36～55
  7
ＭＳ ゴシック
100
AcDbText
  0
TEXT
  5
8016
330
A
100
AcDbEntity
  8
テンプレート
100
AcDbText
 10
454.7154516830578
 20
46.39543212083046
 30
0.0
 40
5.0
  1
取付方＝呼込み(ビス・ナット付)
  7
ＭＳ ゴシック
100
AcDbText
  0
TEXT
  5
8017
330
A
100
AcDbEntity
  8
テンプレート
100
AcDbText
 10
454.7154516830578
 20
36.96512336991022
 30
0.0
 40
5.0
  1
ユーロケース(DIN規格)専用
  7
ＭＳ ゴシック
100
AcDbText
  0
CIRCLE
  5
8018
330
A
100
AcDbEntity
  8
CutoutUnderlay
  6
Continuous
100
AcDbCircle
 10
467.3638750888351
 20
179.9670448420042
 30
0.0
 40
27.0
  0
MTEXT
  5
815C
330
A
100
AcDbEntity
  8
テンプレート
390
1D
100
AcDbMText
 10
93.00040500879784
 20
46.67269218827172
 30
0.0
 40
5.0
 41
0.0
 46
5.228445041890709
 71
     1
 72
     1
  1
{サテンゴールド}
  7
ＭＳ ゴシック
 73
     1
 44
0.7828267384257843
1001
ACAD
1000
ACAD_MTEXT_DEFINED_HEIGHT_BEGIN
1070
    46
1040
5.228445041890709
1000
ACAD_MTEXT_DEFINED_HEIGHT_END
  0
LINE
  5
81D4
330
A
100
AcDbEntity
  8
モデル
100
AcDbLine
 10
464.3638750888349
 20
284.0863184008202
 30
0.0
 11
464.3638750888349
 21
284.117287711451
 31
0.0
  0
LINE
  5
81D5
330
A
100
AcDbEntity
  8
モデル
100
AcDbLine
 10
470.3638750888349
 20
284.117287711451
 30
0.0
 11
470.3638750888349
 21
284.0863184008202
 31
0.0
  0
ARC
  5
81D6
330
A
100
AcDbEntity
  8
モデル
100
AcDbCircle
 10
-442.8638750888349
 20
295.8656353630246
 30
0.0
 40
22.0
210
0.0
220
0.0
230
-1.0
100
AcDbArc
 50
127.4810765244423
 51
171.2817126577387
  0
ARC
  5
81D7
330
A
100
AcDbEntity
  8
モデル
100
AcDbCircle
 10
467.3638750888349
 20
310.3656353630246
 30
0.0
 40
11.50000000000001
100
AcDbArc
 50
256.1432363995666
 51
165.093974418252
  0
SPLINE
  5
81D8
330
A
100
AcDbEntity
  8
モデル
100
AcDbSpline
210
0.0
220
0.0
230
1.0
 70
     8
 71
     3
 72
    30
 73
    26
 74
     0
 42
0.000000001
 43
0.0000000001
 40
0.0
 40
0.0
 40
0.0
 40
0.0
 40
0.3422796120759176
 40
0.3422796120759176
 40
0.6845592241518352
 40
0.6845592241518352
 40
1.026838836227753
 40
1.026838836227753
 40
1.36911844830367
 40
1.36911844830367
 40
1.576101966592648
 40
1.576101966592648
 40
1.783085484881626
 40
1.783085484881626
 40
1.990069003170603
 40
1.990069003170603
 40
2.197052521459581
 40
2.197052521459581
 40
2.539332133535499
 40
2.539332133535499
 40
2.881611745611417
 40
2.881611745611417
 40
3.223891357687334
 40
3.223891357687334
 40
3.566170969763252
 40
3.566170969763252
 40
3.566170969763252
 40
3.566170969763252
 10
464.6096773623688
 20
299.2003142801569
 30
0.0
 10
464.6096773623688
 20
299.2003142801569
 30
0.0
 10
464.514634458619
 20
299.2222640075224
 30
0.0
 10
464.1152239876624
 20
299.3320881671982
 30
0.0
 10
463.8110608747265
 20
299.4199363378508
 30
0.0
 10
463.0121571523325
 20
299.712298031161
 30
0.0
 10
462.5186489817675
 20
299.9163452635
 30
0.0
 10
461.3834098639011
 20
300.5219609875323
 30
0.0
 10
460.7434248515365
 20
300.9191912514509
 30
0.0
 10
459.6253530788529
 20
301.841343243613
 30
0.0
 10
459.1527174628668
 20
302.2848349047759
 30
0.0
 10
458.2486351609932
 20
303.3204334476246
 30
0.0
 10
457.818646671562
 20
303.9146944510932
 30
0.0
 10
457.115839801156
 20
305.1021957148823
 30
0.0
 10
456.8018028707597
 20
305.7650811104328
 30
0.0
 10
456.3290074766039
 20
307.0559310884615
 30
0.0
 10
456.1676590064969
 20
307.6836539175938
 30
0.0
 10
455.897281462901
 20
309.1075024943179
 30
0.0
 10
455.8570125576671
 20
309.8596667808241
 30
0.0
 10
455.8723774978807
 20
311.1462522535159
 30
0.0
 10
455.9309742010805
 20
311.6770554315524
 30
0.0
 10
456.0591043289483
 20
312.5180698117522
 30
0.0
 10
456.1284534823058
 20
312.826976262456
 30
0.0
 10
456.2243696059618
 20
313.2299528964946
 30
0.0
 10
456.2508612175218
 20
313.3238312145536
 30
0.0
 10
456.2508612175218
 20
313.3238312145536
 30
0.0
  0
ARC
  5
81D9
330
A
100
AcDbEntity
  8
モデル
100
AcDbCircle
 10
467.3638750888349
 20
310.3656353630246
 30
0.0
 40
26.45
100
AcDbArc
 50
276.5125908424912
 51
263.4874091575088
  0
ARC
  5
81DA
330
A
100
AcDbEntity
  8
モデル
100
AcDbCircle
 10
467.3638750888349
 20
310.365635363025
 30
0.0
 40
26.41923076923123
100
AcDbArc
 50
263.4797913572382
 51
276.5202086427618
  0
LINE
  5
81DB
330
A
100
AcDbEntity
  8
モデル
100
AcDbLine
 10
232.1510663548081
 20
284.0706830377957
 30
0.0
 11
232.1510663548081
 21
284.1016523484263
 31
0.0
  0
LINE
  5
81DC
330
A
100
AcDbEntity
  8
モデル
100
AcDbLine
 10
238.1510663548081
 20
284.1016523484263
 30
0.0
 11
238.1510663548081
 21
284.0706830377957
 31
0.0
  0
ARC
  5
81DD
330
A
100
AcDbEntity
  8
モデル
100
AcDbCircle
 10
235.1510663548081
 20
310.35
 30
0.0
 40
26.45
100
AcDbArc
 50
276.5125908424912
 51
263.4874091575088
  0
ARC
  5
81DE
330
A
100
AcDbEntity
  8
モデル
100
AcDbCircle
 10
235.1510663548081
 20
310.3500000000004
 30
0.0
 40
26.41923076923123
100
AcDbArc
 50
263.4797913572382
 51
276.5202086427618
  0
ARC
  5
81DF
330
A
100
AcDbEntity
  8
モデル
100
AcDbCircle
 10
235.1510663548081
 20
310.35
 30
0.0
 40
10.50000000000004
100
AcDbArc
 50
6.837141168136441
 51
173.1628588318639
  0
ARC
  5
81E0
330
A
100
AcDbEntity
  8
モデル
100
AcDbCircle
 10
235.1510663548081
 20
310.35
 30
0.0
 40
10.50000000000004
100
AcDbArc
 50
186.8371411681361
 51
353.1628588318639
  0
LINE
  5
81E1
330
A
100
AcDbEntity
  8
モデル
100
AcDbLine
 10
224.7257366238115
 20
311.6
 30
0.0
 11
245.5763960858046
 21
311.6
 31
0.0
  0
LINE
  5
81E2
330
A
100
AcDbEntity
  8
モデル
100
AcDbLine
 10
245.5763960858046
 20
309.1
 30
0.0
 11
224.7257366238115
 21
309.1
 31
0.0
  0
ARC
  5
81E3
330
A
100
AcDbEntity
  8
モデル
100
AcDbCircle
 10
-235.1510663548081
 20
310.35
 30
0.0
 40
10.50000000000005
210
0.0
220
0.0
230
-1.0
100
AcDbArc
 50
353.1628588318639
 51
6.83714116813606
  0
ARC
  5
81E4
330
A
100
AcDbEntity
  8
モデル
100
AcDbCircle
 10
-235.1510663548081
 20
310.35
 30
0.0
 40
10.50000000000007
210
0.0
220
0.0
230
-1.0
100
AcDbArc
 50
173.1628588318636
 51
186.837141168136
  0
LINE
  5
81E5
330
A
100
AcDbEntity
  8
モデル
100
AcDbLine
 10
353.6758742726974
 20
169.0984617204956
 30
0.0
 11
377.6088742726974
 21
169.0984617204956
 31
0.0
  0
LINE
  5
81E6
330
A
100
AcDbEntity
  8
モデル
100
AcDbLine
 10
347.6088742726974
 20
169.0984617204956
 30
0.0
 11
349.5418742726974
 21
169.0984617204956
 31
0.0
  0
LINE
  5
81E7
330
A
100
AcDbEntity
  8
モデル
100
AcDbLine
 10
347.6088742726974
 20
192.0984617204956
 30
0.0
 11
377.6088742726974
 21
192.0984617204956
 31
0.0
  0
LINE
  5
81E8
330
A
100
AcDbEntity
  8
モデル
100
AcDbLine
 10
347.6088742726974
 20
169.0984617204956
 30
0.0
 11
347.6088742726974
 21
192.0984617204956
 31
0.0
  0
LINE
  5
81E9
330
A
100
AcDbEntity
  8
モデル
100
AcDbLine
 10
377.6088742726974
 20
183.5566575720245
 30
0.0
 11
377.6088742726974
 21
192.0984617204956
 31
0.0
  0
LINE
  5
81EA
330
A
100
AcDbEntity
  8
モデル
100
AcDbLine
 10
377.6088742726967
 20
169.0984617204956
 30
0.0
 11
377.6088742726965
 21
169.433140637628
 31
0.0
  0
LINE
  5
81EB
330
A
100
AcDbEntity
  8
モデル
100
AcDbLine
 10
377.6088742726942
 20
183.5566575720245
 30
0.0
 11
377.6088742726931
 21
169.433140637628
 31
0.0
  0
LINE
  5
81EC
330
A
100
AcDbEntity
  8
モデル
100
AcDbLine
 10
377.6088742726965
 20
169.433140637628
 30
0.0
 11
369.6088742726965
 21
169.433140637628
 31
0.0
  0
LINE
  5
81ED
330
A
100
AcDbEntity
  8
モデル
100
AcDbLine
 10
369.6088742726942
 20
183.5566575720245
 30
0.0
 11
377.6088742726942
 21
183.5566575720245
 31
0.0
  0
LINE
  5
81EE
330
A
100
AcDbEntity
  8
モデル
100
AcDbLine
 10
338.9088742726973
 20
173.3984617204956
 30
0.0
 11
340.1088742726974
 21
173.3984617204956
 31
0.0
  0
SPLINE
  5
81EF
330
A
100
AcDbEntity
  8
モデル
100
AcDbSpline
210
0.0
220
0.0
230
1.0
 70
     8
 71
     3
 72
    30
 73
    26
 74
     0
 42
0.000000001
 43
0.0000000001
 40
0.0
 40
0.0
 40
0.0
 40
0.0
 40
0.3422796120759176
 40
0.3422796120759176
 40
0.6845592241518352
 40
0.6845592241518352
 40
1.026838836227753
 40
1.026838836227753
 40
1.36911844830367
 40
1.36911844830367
 40
1.576101966592648
 40
1.576101966592648
 40
1.783085484881626
 40
1.783085484881626
 40
1.990069003170603
 40
1.990069003170603
 40
2.197052521459581
 40
2.197052521459581
 40
2.539332133535499
 40
2.539332133535499
 40
2.881611745611417
 40
2.881611745611417
 40
3.223891357687334
 40
3.223891357687334
 40
3.566170969763252
 40
3.566170969763252
 40
3.566170969763252
 40
3.566170969763252
 10
369.6088742726965
 20
169.433140637628
 30
0.0
 10
368.4679422324436
 20
169.433140637628
 30
0.0
 10
367.2862520027099
 20
169.4550903649934
 30
0.0
 10
364.941885276444
 20
169.5649145246691
 30
0.0
 10
363.7791727213923
 20
169.6527626953219
 30
0.0
 10
361.5681663341565
 20
169.945124388632
 30
0.0
 10
360.5207230277865
 20
170.1491716209712
 30
0.0
 10
358.6244150723468
 20
170.7547873450035
 30
0.0
 10
357.7731233845556
 20
171.1520176089219
 30
0.0
 10
356.6543462958384
 20
172.0741696010839
 30
0.0
 10
356.2668844102611
 20
172.517661262247
 30
0.0
 10
355.7424996501722
 20
173.5532598050957
 30
0.0
 10
355.6073215412154
 20
174.1475208085642
 30
0.0
 10
355.6073215412152
 20
175.3350220723533
 30
0.0
 10
355.7424996501717
 20
175.9979074679038
 30
0.0
 10
356.2668844102602
 20
177.2887574459326
 30
0.0
 10
356.6543462958372
 20
177.9164802750647
 30
0.0
 10
357.773123384554
 20
179.3403288517889
 30
0.0
 10
358.624415072345
 20
180.0924931382952
 30
0.0
 10
360.5207230277844
 20
181.3790786109869
 30
0.0
 10
361.5681663341545
 20
181.9098817890236
 30
0.0
 10
363.77917272139
 20
182.7508961692234
 30
0.0
 10
364.9418852764417
 20
183.0598026199271
 30
0.0
 10
367.2862520027076
 20
183.4627792539657
 30
0.0
 10
368.4679422324411
 20
183.5566575720245
 30
0.0
 10
369.6088742726942
 20
183.5566575720245
 30
0.0
  0
LINE
  5
81F0
330
A
100
AcDbEntity
  8
モデル
100
AcDbLine
 10
338.9088742726973
 20
187.7984617204957
 30
0.0
 11
340.1088742726974
 21
187.7984617204957
 31
0.0
  0
LINE
  5
81F1
330
A
100
AcDbEntity
  8
モデル
100
AcDbLine
 10
337.6088742726974
 20
172.7234617204956
 30
0.0
 11
338.9088742726973
 21
172.7234617204956
 31
0.0
  0
LINE
  5
81F2
330
A
100
AcDbEntity
  8
モデル
100
AcDbLine
 10
337.6088742726974
 20
188.4734617204956
 30
0.0
 11
338.9088742726973
 21
188.4734617204956
 31
0.0
  0
LINE
  5
81F3
330
A
100
AcDbEntity
  8
モデル
100
AcDbLine
 10
338.9088742726973
 20
172.7234617204956
 30
0.0
 11
338.9088742726973
 21
188.4734617204956
 31
0.0
  0
LINE
  5
81F4
330
A
100
AcDbEntity
  8
モデル
100
AcDbLine
 10
337.6088742726974
 20
172.7234617204956
 30
0.0
 11
337.6088742726974
 21
188.4734617204956
 31
0.0
  0
LINE
  5
81F5
330
A
100
AcDbEntity
  8
モデル
100
AcDbLine
 10
347.6088742726974
 20
190.5984617204956
 30
0.0
 11
346.6088742726974
 21
190.5984617204956
 31
0.0
  0
SPLINE
  5
81F6
330
A
100
AcDbEntity
  8
モデル
100
AcDbSpline
210
0.0
220
0.0
230
1.0
 70
     8
 71
     3
 72
    23
 73
    19
 74
     0
 42
0.000000001
 43
0.0000000001
 40
0.9365248918984324
 40
0.9365248918984324
 40
0.9365248918984324
 40
0.9365248918984324
 40
1.014567217022322
 40
1.014567217022322
 40
1.092609542146212
 40
1.092609542146212
 40
1.170654699005394
 40
1.170654699005394
 40
1.248699855864577
 40
1.248699855864577
 40
1.248699855864577
 40
1.326745012723759
 40
1.326745012723759
 40
1.404790169582941
 40
1.404790169582941
 40
1.482832494706831
 40
1.482832494706831
 40
1.560874819830721
 40
1.560874819830721
 40
1.560874819830721
 40
1.560874819830721
 10
349.5418742726974
 20
169.0984617204956
 30
0.0
 10
349.5418742726974
 20
169.0984617204956
 30
0.0
 10
349.5939790745157
 20
169.1081841284429
 30
0.0
 10
349.8051011339327
 20
169.1433199032722
 30
0.0
 10
349.9640874402341
 20
169.1682463000393
 30
0.0
 10
350.3304883189705
 20
169.2151946549773
 30
0.0
 10
350.5625363827602
 20
169.2402992018392
 30
0.0
 10
351.071629171588
 20
169.2758442902716
 30
0.0
 10
351.3487237498329
 20
169.2857471479449
 30
0.0
 10
351.6088742726967
 20
169.2857471479449
 30
0.0
 10
351.8690247955607
 20
169.2857471479449
 30
0.0
 10
352.1461193738057
 20
169.2758442902716
 30
0.0
 10
352.6552121626334
 20
169.2402992018392
 30
0.0
 10
352.8872602264234
 20
169.2151946549773
 30
0.0
 10
353.25366110516
 20
169.1682463000393
 30
0.0
 10
353.4126474114614
 20
169.1433199032722
 30
0.0
 10
353.6237694708788
 20
169.1081841284429
 30
0.0
 10
353.6758742726974
 20
169.0984617204956
 30
0.0
 10
353.6758742726974
 20
169.0984617204956
 30
0.0
  0
LINE
  5
81F7
330
A
100
AcDbEntity
  8
モデル
100
AcDbLine
 10
347.6088742726974
 20
170.5984617204956
 30
0.0
 11
346.6088742726974
 21
170.5984617204956
 31
0.0
  0
LINE
  5
81F8
330
A
100
AcDbEntity
  8
モデル
100
AcDbLine
 10
342.1088742726965
 20
154.1792309512648
 30
0.0
 11
342.1088742726965
 21
154.3501140689221
 31
0.0
  0
LINE
  5
81F9
330
A
100
AcDbEntity
  8
モデル
100
AcDbLine
 10
340.1088742726965
 20
154.3191447582913
 30
0.0
 11
342.1088742726965
 21
154.3501140689221
 31
0.0
  0
LINE
  5
81FA
330
A
100
AcDbEntity
  8
モデル
100
AcDbLine
 10
346.4088979371358
 20
206.9515382795044
 30
0.0
 11
340.1088742726974
 21
207.0484617204957
 31
0.0
  0
LINE
  5
81FB
330
A
100
AcDbEntity
  8
モデル
100
AcDbLine
 10
346.4088979371358
 20
154.245385161487
 30
0.0
 11
342.1088742726974
 21
154.1792309512648
 31
0.0
  0
LINE
  5
81FC
330
A
100
AcDbEntity
  8
モデル
100
AcDbLine
 10
340.1088742726974
 20
154.3191447582913
 30
0.0
 11
340.1088742726974
 21
207.0484617204957
 31
0.0
  0
LINE
  5
81FD
330
A
100
AcDbEntity
  8
モデル
100
AcDbLine
 10
346.6088742726974
 20
206.7484617204955
 30
0.0
 11
346.4088979371356
 21
206.9515382795041
 31
0.0
  0
LINE
  5
81FE
330
A
100
AcDbEntity
  8
モデル
100
AcDbLine
 10
346.6088742726974
 20
154.4484617204955
 30
0.0
 11
346.4088979371358
 21
154.2453851614869
 31
0.0
  0
LINE
  5
81FF
330
A
100
AcDbEntity
  8
モデル
100
AcDbLine
 10
346.6088742726974
 20
206.7484617204957
 30
0.0
 11
346.6088742726974
 21
154.4484617204957
 31
0.0
  0
LINE
  5
8200
330
A
100
AcDbEntity
  8
モデル
100
AcDbLine
 10
106.7168941419344
 20
334.8000000000009
 30
0.0
 11
106.8877772595916
 21
334.8000000000009
 31
0.0
  0
LINE
  5
8201
102
{ACAD_REACTORS
330
837F
102
}
330
A
100
AcDbEntity
  8
モデル
100
AcDbLine
 10
106.8568079489609
 20
336.8000000000009
 30
0.0
 11
106.8877772595916
 21
334.8000000000009
 31
0.0
  0
LINE
  5
8202
330
A
100
AcDbEntity
  8
モデル
100
AcDbLine
 10
159.489201470174
 20
330.4999763355615
 30
0.0
 11
159.5861249111653
 21
336.8
 31
0.0
  0
LINE
  5
8203
330
A
100
AcDbEntity
  8
モデル
100
AcDbLine
 10
106.7830483521567
 20
330.4999763355615
 30
0.0
 11
106.7168941419344
 21
334.8
 31
0.0
  0
LINE
  5
8204
102
{ACAD_REACTORS
330
8370
102
}
330
A
100
AcDbEntity
  8
モデル
100
AcDbLine
 10
106.8568079489609
 20
336.8
 30
0.0
 11
159.5861249111653
 21
336.8
 31
0.0
  0
LINE
  5
8205
330
A
100
AcDbEntity
  8
モデル
100
AcDbLine
 10
159.2861249111651
 20
330.3000000000002
 30
0.0
 11
159.4892014701737
 21
330.4999763355618
 31
0.0
  0
LINE
  5
8206
330
A
100
AcDbEntity
  8
モデル
100
AcDbLine
 10
106.9861249111651
 20
330.3
 30
0.0
 11
106.7830483521565
 21
330.4999763355615
 31
0.0
  0
LINE
  5
8207
102
{ACAD_REACTORS
330
837F
102
}
330
A
100
AcDbEntity
  8
モデル
100
AcDbLine
 10
159.2861249111653
 20
330.3
 30
0.0
 11
106.9861249111653
 21
330.3
 31
0.0
  0
LINE
  5
8208
330
A
100
AcDbEntity
  8
モデル
100
AcDbLine
 10
125.2611249111652
 20
336.8
 30
0.0
 11
125.2611249111652
 21
341.5
 31
0.0
  0
LINE
  5
8209
330
A
100
AcDbEntity
  8
モデル
100
AcDbLine
 10
141.0111249111652
 20
336.8
 30
0.0
 11
141.0111249111652
 21
341.5
 31
0.0
  0
LINE
  5
820A
330
A
100
AcDbEntity
  8
モデル
100
AcDbLine
 10
134.3861249111652
 20
326.0000000000032
 30
0.0
 11
134.3861249111652
 21
324.0000000000032
 31
0.0
  0
LINE
  5
820B
330
A
100
AcDbEntity
  8
モデル
100
AcDbLine
 10
131.8861249111652
 20
324.0000000000032
 30
0.0
 11
131.8861249111652
 21
326.0000000000032
 31
0.0
  0
SPLINE
  5
820C
330
A
100
AcDbEntity
  8
モデル
100
AcDbSpline
210
0.0
220
0.0
230
1.0
 70
    12
 71
     2
 72
     6
 73
     3
 74
     0
 42
0.000000001
 43
0.0000000001
 40
0.0
 40
0.0
 40
0.0
 40
0.1083926564314288
 40
0.1083926564314288
 40
0.1083926564314288
 10
128.6902701002206
 20
341.5000000000018
 30
0.0
 41
1.0
 10
129.1867900610358
 20
341.7803118294013
 30
0.0
 41
1.001993606838385
 10
129.6517849449737
 20
342.0000000000018
 30
0.0
 41
1.0
  0
SPLINE
  5
820D
330
A
100
AcDbEntity
  8
モデル
100
AcDbSpline
210
0.0
220
0.0
230
1.0
 70
    12
 71
     2
 72
     6
 73
     3
 74
     0
 42
0.000000001
 43
0.0000000001
 40
0.0
 40
0.0
 40
0.0
 40
0.1083926564314288
 40
0.1083926564314288
 40
0.1083926564314288
 10
136.620464877357
 20
342.0000000000018
 30
0.0
 41
1.0
 10
137.0854597612948
 20
341.7803118294012
 30
0.0
 41
1.001993606838501
 10
137.5819797221098
 20
341.5000000000018
 30
0.0
 41
1.0
  0
LINE
  5
820E
330
A
100
AcDbEntity
  8
モデル
100
AcDbLine
 10
134.3861249111652
 20
326.000000000003
 30
0.0
 11
131.8861249111652
 21
326.0000000000032
 31
0.0
  0
LINE
  5
820F
330
A
100
AcDbEntity
  8
モデル
100
AcDbLine
 10
143.6361249111652
 20
324.0
 30
0.0
 11
143.6361249111652
 21
330.0
 31
0.0
  0
LINE
  5
8210
102
{ACAD_REACTORS
330
8390
102
}
330
A
100
AcDbEntity
  8
モデル
100
AcDbLine
 10
122.6361249111652
 20
324.0
 30
0.0
 11
122.6361249111652
 21
330.0
 31
0.0
  0
LINE
  5
8211
102
{ACAD_REACTORS
330
8370
102
}
330
A
100
AcDbEntity
  8
モデル
100
AcDbLine
 10
134.3861249111652
 20
324.0
 30
0.0
 11
143.6361249111652
 21
324.0
 31
0.0
  0
LINE
  5
8212
330
A
100
AcDbEntity
  8
モデル
100
AcDbLine
 10
122.6361249111652
 20
324.0000000000005
 30
0.0
 11
131.8861249111652
 21
324.0000000000032
 31
0.0
  0
LINE
  5
8213
330
A
100
AcDbEntity
  8
モデル
100
AcDbLine
 10
122.6361249111652
 20
330.0
 30
0.0
 11
143.6361249111652
 21
330.0
 31
0.0
  0
LINE
  5
8214
330
A
100
AcDbEntity
  8
モデル
100
AcDbLine
 10
125.7611249111652
 20
342.0
 30
0.0
 11
125.2611249111652
 21
341.5
 31
0.0
  0
LINE
  5
8215
330
A
100
AcDbEntity
  8
モデル
100
AcDbLine
 10
140.5111249111652
 20
342.0
 30
0.0
 11
141.0111249111652
 21
341.5
 31
0.0
  0
LINE
  5
8216
330
A
100
AcDbEntity
  8
モデル
100
AcDbLine
 10
128.6902701002206
 20
341.5
 30
0.0
 11
125.2611249111652
 21
341.5
 31
0.0
  0
LINE
  5
8217
330
A
100
AcDbEntity
  8
モデル
100
AcDbLine
 10
141.0111249111652
 20
341.5000000000011
 30
0.0
 11
137.5819797221098
 21
341.5000000000018
 31
0.0
  0
LINE
  5
8218
330
A
100
AcDbEntity
  8
モデル
100
AcDbLine
 10
125.7611249111652
 20
342.0000000000009
 30
0.0
 11
129.6517849449737
 21
342.0000000000018
 31
0.0
  0
LINE
  5
8219
330
A
100
AcDbEntity
  8
モデル
100
AcDbLine
 10
136.620464877357
 20
342.0
 30
0.0
 11
140.5111249111652
 21
342.0
 31
0.0
  0
LINE
  5
821A
330
A
100
AcDbEntity
  8
モデル
100
AcDbLine
 10
128.6902701002206
 20
336.800000000002
 30
0.0
 11
128.6902701002206
 21
341.5000000000018
 31
0.0
  0
LINE
  5
821B
330
A
100
AcDbEntity
  8
モデル
100
AcDbLine
 10
137.5819797221098
 20
341.5000000000018
 30
0.0
 11
137.5819797221098
 21
336.800000000002
 31
0.0
  0
LINE
  5
821C
330
A
100
AcDbEntity
  8
モデル
100
AcDbLine
 10
129.6517849449737
 20
342.0000000000018
 30
0.0
 11
136.620464877357
 21
342.0000000000018
 31
0.0
  0
LINE
  5
821D
330
A
100
AcDbEntity
  8
モデル
100
AcDbLine
 10
142.6361249111652
 20
330.0
 30
0.0
 11
142.6361249111652
 21
330.3
 31
0.0
  0
LINE
  5
821E
330
A
100
AcDbEntity
  8
モデル
100
AcDbLine
 10
123.6361249111652
 20
330.0
 30
0.0
 11
123.6361249111652
 21
330.3
 31
0.0
  0
LINE
  5
825E
330
A
100
AcDbEntity
  8
モデル
100
AcDbLine
 10
335.1088742726972
 20
324.867
 30
0.0
 11
335.1088742726972
 21
308.9104239841033
 31
0.0
  0
LINE
  5
825F
330
A
100
AcDbEntity
  8
モデル
100
AcDbLine
 10
335.1088742726972
 20
326.8
 30
0.0
 11
335.1088742726972
 21
324.867
 31
0.0
  0
LINE
  5
8260
330
A
100
AcDbEntity
  8
モデル
100
AcDbLine
 10
358.1088742726972
 20
326.8
 30
0.0
 11
358.1088742726972
 21
296.8
 31
0.0
  0
LINE
  5
8261
330
A
100
AcDbEntity
  8
モデル
100
AcDbLine
 10
335.1088742726972
 20
326.8
 30
0.0
 11
358.1088742726972
 21
326.8
 31
0.0
  0
LINE
  5
8262
102
{ACAD_REACTORS
330
83BF
102
}
330
A
100
AcDbEntity
  8
モデル
100
AcDbLine
 10
349.5670701242261
 20
296.8
 30
0.0
 11
358.1088742726972
 21
296.8
 31
0.0
  0
LINE
  5
8264
330
A
100
AcDbEntity
  8
モデル
100
AcDbLine
 10
349.5670701242261
 20
296.8000000000031
 30
0.0
 11
335.5201900124066
 21
296.8000000000043
 31
0.0
  0
LINE
  5
8266
102
{ACAD_REACTORS
330
83DE
102
}
330
A
100
AcDbEntity
  8
モデル
100
AcDbLine
 10
335.5201900124066
 20
304.8000000000031
 30
0.0
 11
335.5201900124066
 21
296.8000000000031
 31
0.0
  0
LINE
  5
8267
330
A
100
AcDbEntity
  8
モデル
100
AcDbLine
 10
339.4088742726972
 20
335.5
 30
0.0
 11
339.4088742726972
 21
334.3
 31
0.0
  0
SPLINE
  5
8268
330
A
100
AcDbEntity
  8
モデル
100
AcDbSpline
210
0.0
220
0.0
230
1.0
 70
     8
 71
     3
 72
    10
 73
     6
 74
     0
 42
0.000000001
 43
0.0000000001
 40
3.163860675488243
 40
3.163860675488243
 40
3.163860675488243
 40
3.163860675488243
 40
3.223891357687334
 40
3.223891357687334
 40
3.566170969763252
 40
3.566170969763252
 40
3.566170969763252
 40
3.566170969763252
 10
335.1088742726972
 20
308.9104239841033
 30
0.0
 10
335.1508431849954
 20
308.7056808817845
 30
0.0
 10
335.1894853650745
 20
308.5003889178662
 30
0.0
 10
335.4263116943478
 20
307.1226222699897
 30
0.0
 10
335.5201900124066
 20
305.9409320402563
 30
0.0
 10
335.5201900124066
 20
304.8000000000031
 30
0.0
  0
LINE
  5
8269
330
A
100
AcDbEntity
  8
モデル
100
AcDbLine
 10
353.8088742726973
 20
335.5
 30
0.0
 11
353.8088742726973
 21
334.3
 31
0.0
  0
LINE
  5
826A
330
A
100
AcDbEntity
  8
モデル
100
AcDbLine
 10
338.7338742726972
 20
336.8
 30
0.0
 11
338.7338742726972
 21
335.5
 31
0.0
  0
LINE
  5
826B
330
A
100
AcDbEntity
  8
モデル
100
AcDbLine
 10
354.4838742726972
 20
336.8
 30
0.0
 11
354.4838742726972
 21
335.5
 31
0.0
  0
LINE
  5
826C
330
A
100
AcDbEntity
  8
モデル
100
AcDbLine
 10
338.7338742726972
 20
335.5
 30
0.0
 11
354.4838742726972
 21
335.5
 31
0.0
  0
LINE
  5
826D
330
A
100
AcDbEntity
  8
モデル
100
AcDbLine
 10
338.7338742726972
 20
336.8
 30
0.0
 11
354.4838742726972
 21
336.8
 31
0.0
  0
LINE
  5
826E
330
A
100
AcDbEntity
  8
モデル
100
AcDbLine
 10
356.6088742726972
 20
326.8
 30
0.0
 11
356.6088742726972
 21
327.8
 31
0.0
  0
LINE
  5
8270
330
A
100
AcDbEntity
  8
モデル
100
AcDbLine
 10
336.6088742726972
 20
326.8
 30
0.0
 11
336.6088742726972
 21
327.8
 31
0.0
  0
LINE
  5
8273
330
A
100
AcDbEntity
  8
モデル
100
AcDbLine
 10
372.961950831706
 20
327.9999763355615
 30
0.0
 11
373.0588742726973
 21
334.3
 31
0.0
  0
LINE
  5
8274
330
A
100
AcDbEntity
  8
モデル
100
AcDbLine
 10
320.2557977136885
 20
327.9999763355615
 30
0.0
 11
320.1916790102164
 21
334.2999999999999
 31
0.0
  0
LINE
  5
8275
102
{ACAD_REACTORS
330
83BF
330
83CE
102
}
330
A
100
AcDbEntity
  8
モデル
100
AcDbLine
 10
320.1916790102164
 20
334.2999999999999
 30
0.0
 11
373.0588742726973
 21
334.3
 31
0.0
  0
LINE
  5
8276
330
A
100
AcDbEntity
  8
モデル
100
AcDbLine
 10
372.7588742726971
 20
327.8
 30
0.0
 11
372.9619508317057
 21
327.9999763355618
 31
0.0
  0
LINE
  5
8277
102
{ACAD_REACTORS
330
83DE
102
}
330
A
100
AcDbEntity
  8
モデル
100
AcDbLine
 10
320.4588742726971
 20
327.8
 30
0.0
 11
320.2557977136885
 21
327.9999763355615
 31
0.0
  0
LINE
  5
8278
102
{ACAD_REACTORS
330
83CE
102
}
330
A
100
AcDbEntity
  8
モデル
100
AcDbLine
 10
372.7588742726973
 20
327.8
 30
0.0
 11
320.4588742726974
 21
327.8
 31
0.0
  0
DIMENSION
  5
836E
102
{ACAD_REACTORS
330
8370
102
}
102
{ACAD_XDICTIONARY
360
836F
102
}
330
A
100
AcDbEntity
  8
寸法
  6
Continuous
100
AcDbDimension
  2
*D35
 10
178.3638750888349
 20
324.0
 30
0.0
 11
173.8629372371405
 21
330.4
 31
0.0
 70
    32
  1
12.5
 71
     5
 42
12.80000000000001
 73
     0
 74
     1
 75
     1
  3
tfrom線あり
100
AcDbAlignedDimension
 13
159.5861249111653
 23
336.8
 33
0.0
 14
142.6756225006043
 24
324.0
 34
0.0
 50
90.0
100
AcDbRotatedDimension
1001
ACAD
1000
DSTYLE
1002
{
1070
   172
1070
     1
1002
}
  0
DIMENSION
  5
837D
102
{ACAD_REACTORS
330
837F
102
}
102
{ACAD_XDICTIONARY
360
837E
102
}
330
A
100
AcDbEntity
  8
寸法
  6
Continuous
100
AcDbDimension
  2
*D36
 10
85.8638750888349
 20
330.3
 30
0.0
 11
81.3629372371405
 21
333.5500000000005
 31
0.0
 70
    32
  1
6.5
 71
     5
 42
6.500000000000909
 73
     0
 74
     1
 75
     1
  3
tfrom線あり
100
AcDbAlignedDimension
 13
106.8568079489609
 23
336.8000000000009
 33
0.0
 14
106.9861249111653
 24
330.3
 34
0.0
 50
90.0
100
AcDbRotatedDimension
1001
ACAD
1000
DSTYLE
1002
{
1070
   172
1070
     1
1002
}
  0
DIMENSION
  5
838E
102
{ACAD_REACTORS
330
8390
102
}
102
{ACAD_XDICTIONARY
360
838F
102
}
330
A
100
AcDbEntity
  8
寸法
  6
Continuous
100
AcDbDimension
  2
*D37
 10
85.8638750888349
 20
330.3
 30
0.0
 11
85.8638750888349
 21
317.7309694260348
 31
0.0
 70
   160
 71
     5
 42
6.30000000000001
 73
     0
 74
     1
 75
     1
  3
tfrom線あり
100
AcDbAlignedDimension
 13
122.6361249111652
 23
324.0
 33
0.0
 14
106.9861249111653
 24
330.3
 34
0.0
 50
90.0
100
AcDbRotatedDimension
1001
ACAD
1000
DSTYLE
1002
{
1070
   172
1070
     1
1002
}
  0
DIMENSION
  5
839F
330
A
100
AcDbEntity
  8
寸法
  6
Continuous
100
AcDbDimension
  2
*D38
 10
245.6510663548082
 20
261.5000000000004
 30
0.0
 11
235.1510663548082
 21
266.0009378516948
 31
0.0
 70
    32
 71
     5
 42
21.00000000000011
 73
     0
 74
     0
 75
     0
  3
tfrom線あり
100
AcDbAlignedDimension
 13
224.6510663548081
 23
286.073416632483
 33
0.0
 14
245.6510663548082
 24
286.0734166324831
 34
0.0
100
AcDbRotatedDimension
  0
DIMENSION
  5
83BD
102
{ACAD_REACTORS
330
83BF
102
}
102
{ACAD_XDICTIONARY
360
83BE
102
}
330
A
100
AcDbEntity
  8
寸法
  6
Continuous
100
AcDbDimension
  2
*D40
 10
401.3638750888349
 20
296.8
 30
0.0
 11
396.8629372371405
 21
315.55
 31
0.0
 70
    32
  1
37.5
 71
     5
 42
37.5
 73
     0
 74
     0
 75
     0
  3
tfrom線あり
100
AcDbAlignedDimension
 13
373.0588742726973
 23
334.3
 33
0.0
 14
358.1088742726972
 24
296.8
 34
0.0
 50
90.0
100
AcDbRotatedDimension
  0
DIMENSION
  5
83CC
102
{ACAD_REACTORS
330
83CE
102
}
102
{ACAD_XDICTIONARY
360
83CD
102
}
330
A
100
AcDbEntity
  8
寸法
  6
Continuous
100
AcDbDimension
  2
*D41
 10
302.3981928671769
 20
327.8
 30
0.0
 11
297.8972550154825
 21
331.05
 31
0.0
 70
    32
  1
6.5
 71
     5
 42
6.499999999999886
 73
     0
 74
     1
 75
     1
  3
tfrom線あり
100
AcDbAlignedDimension
 13
320.1916790102164
 23
334.2999999999999
 33
0.0
 14
320.4588742726974
 24
327.8
 34
0.0
 50
90.0
100
AcDbRotatedDimension
1001
ACAD
1000
DSTYLE
1002
{
1070
   172
1070
     1
1002
}
  0
DIMENSION
  5
83DC
102
{ACAD_REACTORS
330
83DE
102
}
102
{ACAD_XDICTIONARY
360
83DD
102
}
330
A
100
AcDbEntity
  8
寸法
  6
Continuous
100
AcDbDimension
  2
*D42
 10
302.3981928671769
 20
296.8000000000031
 30
0.0
 11
297.8972550154825
 21
312.3000000000015
 31
0.0
 70
    32
 71
     5
 42
30.99999999999682
 73
     0
 74
     0
 75
     0
  3
tfrom線あり
100
AcDbAlignedDimension
 13
320.4588742726971
 23
327.8
 33
0.0
 14
335.5201900124066
 24
296.8000000000031
 34
0.0
 50
90.0
100
AcDbRotatedDimension
  0
DIMENSION
  5
83FA
330
A
100
AcDbEntity
  8
寸法
  6
Continuous
100
AcDbDimension
  2
*D44
 10
478.8638750888349
 20
261.5000000000004
 30
0.0
 11
466.6193479422411
 21
266.0009378516948
 31
0.0
 70
    32
  1
23
 71
     5
 42
24.48905429318762
 73
     0
 74
     0
 75
     0
  3
tfrom線あり
100
AcDbAlignedDimension
 13
454.3748207956473
 23
287.3246508231091
 33
0.0
 14
478.8638750888349
 24
286.5464729092354
 34
0.0
100
AcDbRotatedDimension
  0
ARC
  5
840A
330
A
100
AcDbEntity
  8
CutoutUnderlay
100
AcDbCircle
 10
-442.8638750888351
 20
165.4670448420042
 30
0.0
 40
22.0
210
0.0
220
0.0
230
-1.0
100
AcDbArc
 50
127.4810765244423
 51
171.2817126577387
  0
ARC
  5
840B
330
A
100
AcDbEntity
  8
CutoutUnderlay
100
AcDbCircle
 10
467.3638750888351
 20
179.9670448420042
 30
0.0
 40
11.50000000000001
100
AcDbArc
 50
256.1432363995666
 51
165.0939744182519
  0
SPLINE
  5
840C
330
A
100
AcDbEntity
  8
CutoutUnderlay
100
AcDbSpline
210
0.0
220
0.0
230
1.0
 70
     8
 71
     3
 72
    30
 73
    26
 74
     0
 42
0.000000001
 43
0.0000000001
 40
0.0
 40
0.0
 40
0.0
 40
0.0
 40
0.3422796120759176
 40
0.3422796120759176
 40
0.6845592241518352
 40
0.6845592241518352
 40
1.026838836227753
 40
1.026838836227753
 40
1.36911844830367
 40
1.36911844830367
 40
1.576101966592648
 40
1.576101966592648
 40
1.783085484881626
 40
1.783085484881626
 40
1.990069003170603
 40
1.990069003170603
 40
2.197052521459581
 40
2.197052521459581
 40
2.539332133535499
 40
2.539332133535499
 40
2.881611745611417
 40
2.881611745611417
 40
3.223891357687334
 40
3.223891357687334
 40
3.566170969763252
 40
3.566170969763252
 40
3.566170969763252
 40
3.566170969763252
 10
464.6096773623689
 20
168.8017237591365
 30
0.0
 10
464.6096773623689
 20
168.8017237591365
 30
0.0
 10
464.5146344586191
 20
168.8236734865019
 30
0.0
 10
464.1152239876625
 20
168.9334976461777
 30
0.0
 10
463.8110608747267
 20
169.0213458168304
 30
0.0
 10
463.0121571523327
 20
169.3137075101406
 30
0.0
 10
462.5186489817676
 20
169.5177547424796
 30
0.0
 10
461.3834098639012
 20
170.1233704665119
 30
0.0
 10
460.7434248515366
 20
170.5206007304305
 30
0.0
 10
459.625353078853
 20
171.4427527225926
 30
0.0
 10
459.152717462867
 20
171.8862443837555
 30
0.0
 10
458.2486351609934
 20
172.9218429266042
 30
0.0
 10
457.8186466715621
 20
173.5161039300727
 30
0.0
 10
457.1158398011561
 20
174.7036051938619
 30
0.0
 10
456.8018028707599
 20
175.3664905894124
 30
0.0
 10
456.3290074766041
 20
176.6573405674411
 30
0.0
 10
456.1676590064971
 20
177.2850633965734
 30
0.0
 10
455.8972814629012
 20
178.7089119732975
 30
0.0
 10
455.8570125576672
 20
179.4610762598037
 30
0.0
 10
455.8723774978809
 20
180.7476617324954
 30
0.0
 10
455.9309742010807
 20
181.278464910532
 30
0.0
 10
456.0591043289484
 20
182.1194792907318
 30
0.0
 10
456.1284534823059
 20
182.4283857414356
 30
0.0
 10
456.224369605962
 20
182.8313623754742
 30
0.0
 10
456.250861217522
 20
182.9252406935332
 30
0.0
 10
456.250861217522
 20
182.9252406935332
 30
0.0
  0
LINE
  5
8411
330
A
100
AcDbEntity
  8
モデル
100
AcDbLine
 10
130.1999763355618
 20
154.2966309391496
 30
0.0
 11
136.5000000000002
 21
154.1997074981583
 31
0.0
  0
LINE
  5
8412
330
A
100
AcDbEntity
  8
モデル
100
AcDbLine
 10
130.1999763355618
 20
207.0027840571668
 30
0.0
 11
136.5000000000002
 21
207.059988074673
 31
0.0
  0
LINE
  5
8413
330
A
100
AcDbEntity
  8
モデル
100
AcDbLine
 10
136.5000000000002
 20
207.059988074673
 30
0.0
 11
136.5000000000002
 21
154.1997074981583
 31
0.0
  0
LINE
  5
8414
330
A
100
AcDbEntity
  8
モデル
100
AcDbLine
 10
130.0000000000004
 20
154.4997074981585
 30
0.0
 11
130.199976335562
 21
154.2966309391498
 31
0.0
  0
LINE
  5
8415
330
A
100
AcDbEntity
  8
モデル
100
AcDbLine
 10
130.0000000000002
 20
206.7997074981584
 30
0.0
 11
130.1999763355618
 21
207.0027840571671
 31
0.0
  0
LINE
  5
8416
330
A
100
AcDbEntity
  8
モデル
100
AcDbLine
 10
130.0000000000002
 20
154.4997074981582
 30
0.0
 11
130.0000000000002
 21
206.7997074981582
 31
0.0
  0
LINE
  5
8417
330
A
100
AcDbEntity
  8
モデル
100
AcDbLine
 10
136.5000000000002
 20
188.5247074981583
 30
0.0
 11
141.2000000000002
 21
188.5247074981583
 31
0.0
  0
LINE
  5
8418
330
A
100
AcDbEntity
  8
モデル
100
AcDbLine
 10
136.5000000000002
 20
172.7747074981583
 30
0.0
 11
141.2000000000002
 21
172.7747074981583
 31
0.0
  0
LINE
  5
8419
330
A
100
AcDbEntity
  8
モデル
100
AcDbLine
 10
125.7000000000034
 20
179.3997074981583
 30
0.0
 11
123.7000000000034
 21
179.3997074981583
 31
0.0
  0
LINE
  5
841A
330
A
100
AcDbEntity
  8
モデル
100
AcDbLine
 10
123.7000000000034
 20
181.8997074981583
 30
0.0
 11
125.7000000000034
 21
181.8997074981583
 31
0.0
  0
SPLINE
  5
841B
330
A
100
AcDbEntity
  8
モデル
100
AcDbSpline
210
0.0
220
0.0
230
1.0
 70
    12
 71
     2
 72
     6
 73
     3
 74
     0
 42
0.000000001
 43
0.0000000001
 40
0.0
 40
0.0
 40
0.0
 40
0.1083926564314288
 40
0.1083926564314288
 40
0.1083926564314288
 10
141.200000000002
 20
185.095562309103
 30
0.0
 41
1.0
 10
141.4803118294015
 20
184.5990423482877
 30
0.0
 41
1.001993606838385
 10
141.700000000002
 20
184.1340474643499
 30
0.0
 41
1.0
  0
SPLINE
  5
841C
330
A
100
AcDbEntity
  8
モデル
100
AcDbSpline
210
0.0
220
0.0
230
1.0
 70
    12
 71
     2
 72
     6
 73
     3
 74
     0
 42
0.000000001
 43
0.0000000001
 40
0.0
 40
0.0
 40
0.0
 40
0.1083926564314288
 40
0.1083926564314288
 40
0.1083926564314288
 10
141.700000000002
 20
177.1653675319666
 30
0.0
 41
1.0
 10
141.4803118294015
 20
176.7003726480287
 30
0.0
 41
1.001993606838501
 10
141.200000000002
 20
176.2038526872137
 30
0.0
 41
1.0
  0
LINE
  5
841D
330
A
100
AcDbEntity
  8
モデル
100
AcDbLine
 10
125.7000000000032
 20
179.3997074981583
 30
0.0
 11
125.7000000000034
 21
181.8997074981583
 31
0.0
  0
LINE
  5
841E
330
A
100
AcDbEntity
  8
モデル
100
AcDbLine
 10
123.7000000000002
 20
170.1497074981583
 30
0.0
 11
129.7000000000002
 21
170.1497074981583
 31
0.0
  0
LINE
  5
841F
330
A
100
AcDbEntity
  8
モデル
100
AcDbLine
 10
123.7000000000002
 20
191.1497074981583
 30
0.0
 11
129.7000000000002
 21
191.1497074981583
 31
0.0
  0
LINE
  5
8420
330
A
100
AcDbEntity
  8
モデル
100
AcDbLine
 10
123.7000000000002
 20
179.3997074981583
 30
0.0
 11
123.7000000000002
 21
170.1497074981583
 31
0.0
  0
LINE
  5
8421
330
A
100
AcDbEntity
  8
モデル
100
AcDbLine
 10
123.7000000000007
 20
191.1497074981583
 30
0.0
 11
123.7000000000034
 21
181.8997074981583
 31
0.0
  0
LINE
  5
8422
330
A
100
AcDbEntity
  8
モデル
100
AcDbLine
 10
129.7000000000002
 20
191.1497074981583
 30
0.0
 11
129.7000000000002
 21
170.1497074981583
 31
0.0
  0
LINE
  5
8423
330
A
100
AcDbEntity
  8
モデル
100
AcDbLine
 10
141.7000000000002
 20
188.0247074981583
 30
0.0
 11
141.2000000000002
 21
188.5247074981583
 31
0.0
  0
LINE
  5
8424
330
A
100
AcDbEntity
  8
モデル
100
AcDbLine
 10
141.7000000000002
 20
173.2747074981583
 30
0.0
 11
141.2000000000002
 21
172.7747074981583
 31
0.0
  0
LINE
  5
8425
330
A
100
AcDbEntity
  8
モデル
100
AcDbLine
 10
141.2000000000002
 20
185.095562309103
 30
0.0
 11
141.2000000000002
 21
188.5247074981583
 31
0.0
  0
LINE
  5
8426
330
A
100
AcDbEntity
  8
モデル
100
AcDbLine
 10
141.2000000000014
 20
172.7747074981583
 30
0.0
 11
141.200000000002
 21
176.2038526872137
 31
0.0
  0
LINE
  5
8427
330
A
100
AcDbEntity
  8
モデル
100
AcDbLine
 10
141.7000000000011
 20
188.0247074981583
 30
0.0
 11
141.700000000002
 21
184.1340474643499
 31
0.0
  0
LINE
  5
8428
330
A
100
AcDbEntity
  8
モデル
100
AcDbLine
 10
141.7000000000002
 20
177.1653675319666
 30
0.0
 11
141.7000000000002
 21
173.2747074981583
 31
0.0
  0
LINE
  5
8429
330
A
100
AcDbEntity
  8
モデル
100
AcDbLine
 10
136.5000000000022
 20
185.095562309103
 30
0.0
 11
141.200000000002
 21
185.095562309103
 31
0.0
  0
LINE
  5
842A
330
A
100
AcDbEntity
  8
モデル
100
AcDbLine
 10
141.200000000002
 20
176.2038526872137
 30
0.0
 11
136.5000000000022
 21
176.2038526872137
 31
0.0
  0
LINE
  5
842B
330
A
100
AcDbEntity
  8
モデル
100
AcDbLine
 10
141.700000000002
 20
184.1340474643499
 30
0.0
 11
141.700000000002
 21
177.1653675319666
 31
0.0
  0
LINE
  5
842C
330
A
100
AcDbEntity
  8
モデル
100
AcDbLine
 10
129.7000000000002
 20
171.1497074981583
 30
0.0
 11
130.0000000000002
 21
171.1497074981583
 31
0.0
  0
LINE
  5
842D
330
A
100
AcDbEntity
  8
モデル
100
AcDbLine
 10
129.7000000000002
 20
190.1497074981583
 30
0.0
 11
130.0000000000002
 21
190.1497074981583
 31
0.0
  0
DIMENSION
  5
8478
330
A
100
AcDbEntity
  8
寸法
  6
Continuous
100
AcDbDimension
  2
*D49
 10
191.0
 20
283.9307692307692
 30
0.0
 11
186.4990621483056
 21
310.3653846153846
 31
0.0
 70
    32
 71
     5
 42
52.8692307692308
 73
     0
 74
     0
 75
     0
  3
tfrom線あり
100
AcDbAlignedDimension
 13
216.1510663548081
 23
336.8
 33
0.0
 14
216.0
 24
283.9307692307692
 34
0.0
 50
90.0
100
AcDbRotatedDimension
  0
CIRCLE
  5
8488
102
{ACAD_REACTORS
330
7F58
102
}
330
A
100
AcDbEntity
  8
モデル
  6
HIDDEN
 48
0.2
100
AcDbCircle
 10
216.1510663548081
 20
310.35
 30
0.0
 40
4.0
  0
CIRCLE
  5
8489
102
{ACAD_REACTORS
330
7F58
102
}
330
A
100
AcDbEntity
  8
モデル
  6
HIDDEN
 48
0.2
100
AcDbCircle
 10
254.1510663548084
 20
310.35
 30
0.0
 40
4.0
  0
CIRCLE
  5
848C
102
{ACAD_REACTORS
330
7F58
102
}
330
A
100
AcDbEntity
  8
モデル
  6
HIDDEN
 48
0.2
100
AcDbCircle
 10
486.3638750888349
 20
310.3656353630246
 30
0.0
 40
4.0
  0
CIRCLE
  5
848D
102
{ACAD_REACTORS
330
7F58
102
}
330
A
100
AcDbEntity
  8
モデル
  6
HIDDEN
 48
0.2
100
AcDbCircle
 10
448.3638750888346
 20
310.3656353630246
 30
0.0
 40
4.0
  0
DIMENSION
  5
848E
330
A
100
AcDbEntity
  8
寸法
  6
Continuous
100
AcDbDimension
  2
*D50
 10
419.0
 20
283.9464045937938
 30
0.0
 11
414.4990621483056
 21
310.3810199784092
 31
0.0
 70
    32
 71
     5
 42
52.8692307692308
 73
     0
 74
     0
 75
     0
  3
tfrom線あり
100
AcDbAlignedDimension
 13
448.0
 23
336.8156353630246
 33
0.0
 14
447.9999999999999
 24
283.9464045937938
 34
0.0
 50
90.0
100
AcDbRotatedDimension
  0
DIMENSION
  5
849E
330
A
100
AcDbEntity
  8
寸法
  6
Continuous
100
AcDbDimension
  2
*D51
 10
486.3638750888348
 20
353.0
 30
0.0
 11
467.3638750888347
 21
357.5009378516944
 31
0.0
 70
    32
 71
     5
 42
38.00000000000023
 73
     0
 74
     0
 75
     0
  3
tfrom線あり
100
AcDbAlignedDimension
 13
448.3638750888346
 23
337.0
 33
0.0
 14
486.3638750888348
 24
337.0
 34
0.0
100
AcDbRotatedDimension
  0
DIMENSION
  5
84AD
102
{ACAD_XDICTIONARY
360
84AE
102
}
330
A
100
AcDbEntity
  8
寸法
  6
Continuous
100
AcDbDimension
  2
*D52
 10
254.1510663548084
 20
352.9843646369754
 30
0.0
 11
235.1510663548083
 21
357.4853024886698
 31
0.0
 70
    32
 71
     5
 42
38.00000000000028
 73
     0
 74
     0
 75
     0
  3
tfrom線あり
100
AcDbAlignedDimension
 13
216.1510663548081
 23
336.8
 33
0.0
 14
254.1510663548084
 24
337.0
 34
0.0
100
AcDbRotatedDimension
  0
VIEWPORT
  5
349
330
B
100
AcDbEntity
 67
     1
  8
0
100
AcDbViewport
 10
202.5
 20
128.5
 30
0.0
 40
486.0
 41
308.4
 68
     1
 69
     1
 12
202.5
 22
128.5
 13
0.0
 23
0.0
 14
0.5
 24
0.5
 15
0.0
 25
0.0
 16
0.0
 26
0.0
 36
1.0
 17
0.0
 27
0.0
 37
0.0
 42
50.0
 43
0.0
 44
0.0
 45
308.4
 50
0.0
 51
0.0
 72
   100
 90
   557152
  1

281
     0
 71
     1
 74
     0
110
0.0
120
0.0
130
0.0
111
1.0
121
0.0
131
0.0
112
0.0
122
1.0
132
0.0
 79
     0
146
0.0
170
     0
 61
     5
348
26C
292
     1
282
     1
141
0.0
142
0.0
 63
   256
361
44F1
  0
VIEWPORT
  5
34A
330
B
100
AcDbEntity
 67
     1
  8
0
100
AcDbViewport
 10
202.5
 20
128.5
 30
0.0
 40
324.0
 41
205.6
 68
     2
 69
     2
 12
986.6781359294573
 22
1427.077061889956
 13
0.0
 23
0.0
 14
0.5
 24
0.5
 15
0.0
 25
0.0
 16
0.0
 26
0.0
 36
1.0
 17
0.0
 27
0.0
 37
0.0
 42
50.0
 43
0.0
 44
0.0
 45
2890.021615685494
 50
0.0
 51
0.0
 72
   100
 90
   557152
  1

281
     0
 71
     1
 74
     0
110
0.0
120
0.0
130
0.0
111
1.0
121
0.0
131
0.0
112
0.0
122
1.0
132
0.0
 79
     0
146
0.0
170
     0
 61
     5
348
26C
292
     1
282
     1
141
0.0
142
0.0
 63
   256
  0
ENDSEC
  0
SECTION
  2
OBJECTS
  0
DICTIONARY
  5
19
330
0
100
AcDbDictionary
281
     1
  3
ACAD_COLOR
350
674
  3
ACAD_DETAILVIEWSTYLE
350
13B5
  3
ACAD_FIELDLIST
350
59E4
  3
ACAD_GROUP
350
1A
  3
ACAD_IMAGE_VARS
350
27B
  3
ACAD_LAYOUT
350
1E
  3
ACAD_MATERIAL
350
263
  3
ACAD_MLEADERSTYLE
350
336
  3
ACAD_MLINESTYLE
350
1B
  3
ACAD_PLOTSETTINGS
350
22
  3
ACAD_PLOTSTYLENAME
350
1F
  3
ACAD_SCALELIST
350
241
  3
ACAD_SECTIONVIEWSTYLE
350
13B6
  3
ACAD_TABLESTYLE
350
278
  3
ACAD_VISUALSTYLE
350
267
  3
ACDB_RECOMPOSE_DATA
350
84D0
  3
AcDbVariableDictionary
350
330
  3
APPDATA
350
27A
  0
SUN
  5
F1A
330
15
100
AcDbSun
 90
        1
290
     0
 63
     7
421
 16777215
 40
1.0
291
     1
 91
  2455826
 92
 54000000
292
     0
 70
     2
 71
   256
280
     1
  0
DICTIONARY
  5
2E1
330
2
100
AcDbDictionary
280
     1
281
     1
  3
ACAD_LAYERSTATES
360
2E2
  3
ACLYDICTIONARY
360
5173
  0
DICTIONARY
  5
59FD
330
A
100
AcDbDictionary
280
     1
281
     1
  3
ACAD_SORTENTS
360
59FE
  0
DICTIONARY
  5
59F8
330
59F7
100
AcDbDictionary
280
     1
281
     1
  0
DICTIONARY
  5
7F5D
330
7F5C
100
AcDbDictionary
280
     1
281
     1
  0
DICTIONARY
  5
7F61
330
7F60
100
AcDbDictionary
280
     1
281
     1
  0
DICTIONARY
  5
7F64
330
7F63
100
AcDbDictionary
280
     1
281
     1
  0
DICTIONARY
  5
7F66
330
7F65
100
AcDbDictionary
280
     1
281
     1
  0
DICTIONARY
  5
836F
330
836E
100
AcDbDictionary
280
     1
281
     1
  3
ACAD_DIMASSOC
360
8370
  0
DICTIONARY
  5
837E
330
837D
100
AcDbDictionary
280
     1
281
     1
  3
ACAD_DIMASSOC
360
837F
  0
DICTIONARY
  5
838F
330
838E
100
AcDbDictionary
280
     1
281
     1
  3
ACAD_DIMASSOC
360
8390
  0
DICTIONARY
  5
83BE
330
83BD
100
AcDbDictionary
280
     1
281
     1
  3
ACAD_DIMASSOC
360
83BF
  0
DICTIONARY
  5
83CD
330
83CC
100
AcDbDictionary
280
     1
281
     1
  3
ACAD_DIMASSOC
360
83CE
  0
DICTIONARY
  5
83DD
330
83DC
100
AcDbDictionary
280
     1
281
     1
  3
ACAD_DIMASSOC
360
83DE
  0
DICTIONARY
  5
84AE
330
84AD
100
AcDbDictionary
280
     1
281
     1
  3
ACAD_DIMASSOC
360
84AF
  0
SUN
  5
44F1
330
349
100
AcDbSun
 90
        1
290
     0
 63
     7
421
 16777215
 40
1.0
291
     1
 91
  2455826
 92
 54000000
292
     0
 70
     2
 71
   256
280
     1
  0
DICTIONARY
  5
674
102
{ACAD_REACTORS
330
19
102
}
330
19
100
AcDbDictionary
281
     1
  0
DICTIONARY
  5
13B5
102
{ACAD_REACTORS
330
19
102
}
330
19
100
AcDbDictionary
281
     1
  0
FIELDLIST
  5
59E4
102
{ACAD_REACTORS
330
19
102
}
330
19
100
AcDbIdSet
 90
        0
100
AcDbFieldList
  0
DICTIONARY
  5
1A
102
{ACAD_REACTORS
330
19
102
}
330
19
100
AcDbDictionary
281
     1
  0
RASTERVARIABLES
  5
27B
102
{ACAD_REACTORS
330
19
102
}
330
19
100
AcDbRasterVariables
 90
        0
 70
     1
 71
     1
 72
     1
  0
DICTIONARY
  5
1E
102
{ACAD_REACTORS
330
19
102
}
330
19
100
AcDbDictionary
281
     1
  3
Layout1
350
21
  3
Model
350
20
  0
DICTIONARY
  5
263
102
{ACAD_REACTORS
330
19
102
}
330
19
100
AcDbDictionary
281
     1
  3
ByBlock
350
518C
  3
ByLayer
350
264
  3
Global
350
266
  0
DICTIONARY
  5
336
102
{ACAD_REACTORS
330
19
102
}
330
19
100
AcDbDictionary
281
     1
  3
Standard
350
5908
  0
DICTIONARY
  5
1B
102
{ACAD_REACTORS
330
19
102
}
330
19
100
AcDbDictionary
281
     1
  3
Standard
350
1C
  0
DICTIONARY
  5
22
102
{ACAD_REACTORS
330
19
102
}
330
19
100
AcDbDictionary
281
     1
  0
ACDBDICTIONARYWDFLT
  5
1F
102
{ACAD_REACTORS
330
19
102
}
330
19
100
AcDbDictionary
281
     1
  3
Normal
350
1D
100
AcDbDictionaryWithDefault
340
1D
  0
DICTIONARY
  5
241
102
{ACAD_REACTORS
330
19
102
}
330
19
100
AcDbDictionary
281
     1
  3
A0
350
242
  3
A1
350
243
  3
A2
350
244
  3
A3
350
245
  3
A4
350
246
  3
A5
350
247
  3
A6
350
248
  3
A7
350
249
  3
A8
350
24A
  3
A9
350
24B
  3
B0
350
24C
  3
B1
350
24D
  3
B2
350
24E
  3
B3
350
24F
  3
B4
350
250
  3
B5
350
251
  3
B6
350
252
  3
B7
350
253
  3
B8
350
254
  3
B9
350
255
  3
C0
350
256
  3
C1
350
257
  3
C2
350
258
  3
C3
350
259
  3
C4
350
25A
  3
C5
350
25B
  3
C6
350
25C
  3
C7
350
25D
  3
C8
350
25E
  3
C9
350
25F
  3
D0
350
260
  3
D1
350
261
  3
D2
350
262
  0
DICTIONARY
  5
13B6
102
{ACAD_REACTORS
330
19
102
}
330
19
100
AcDbDictionary
281
     1
  0
DICTIONARY
  5
278
102
{ACAD_REACTORS
330
19
102
}
330
19
100
AcDbDictionary
281
     1
  3
Standard
350
279
  0
DICTIONARY
  5
267
102
{ACAD_REACTORS
330
19
102
}
330
19
100
AcDbDictionary
281
     1
  3
2dWireframe
350
26C
  3
3D Hidden
350
26E
  3
3dWireframe
350
26D
  3
Basic
350
26F
  3
Brighten
350
273
  3
ColorChange
350
277
  3
Conceptual
350
271
  3
Dim
350
272
  3
EdgeColorOff
350
F14
  3
Facepattern
350
276
  3
Flat
350
268
  3
FlatWithEdges
350
269
  3
Gouraud
350
26A
  3
GouraudWithEdges
350
26B
  3
Hidden
350
F11
  3
JitterOff
350
F12
  3
Linepattern
350
275
  3
OverhangOff
350
F13
  3
Realistic
350
270
  3
Shaded
350
F19
  3
Shaded with edges
350
F18
  3
Shades of Gray
350
F15
  3
Sketchy
350
F16
  3
Thicken
350
274
  3
Wireframe
350
F10
  3
X-Ray
350
F17
  0
XRECORD
  5
84D0
102
{ACAD_REACTORS
330
19
102
}
330
19
100
AcDbXrecord
280
     1
 90
        1
330
279
  0
DICTIONARY
  5
330
102
{ACAD_REACTORS
330
19
102
}
330
19
100
AcDbDictionary
281
     1
  3
CANNOSCALE
350
331
  3
CMLEADERSTYLE
350
598D
  3
CTABLESTYLE
350
335
  3
HPTRANSPARENCY
350
528A
  3
XCLIPFRAME
350
13B4
  0
DICTIONARY
  5
27A
102
{ACAD_REACTORS
330
19
102
}
330
19
100
AcDbDictionary
281
     1
  0
DICTIONARY
  5
2E2
102
{ACAD_REACTORS
330
2E1
102
}
330
2E1
100
AcDbDictionary
281
     1
  0
DICTIONARY
  5
5173
102
{ACAD_REACTORS
330
2E1
102
}
330
2E1
100
AcDbDictionary
281
     1
1001
ACAD
1000
<All
  0
SORTENTSTABLE
  5
59FE
102
{ACAD_REACTORS
330
59FD
102
}
330
59FD
100
AcDbSortentsTable
330
A
331
54A0
  5
55C8
331
54A1
  5
55CA
331
54A2
  5
55CB
331
54A3
  5
55CE
331
54A4
  5
55D1
331
54A5
  5
55D2
331
54A6
  5
55D3
331
54A7
  5
55D4
331
54A8
  5
55D7
331
54A9
  5
55FC
331
54AA
  5
55FD
331
54AB
  5
55FE
331
54AC
  5
55FF
331
54AD
  5
5600
331
54AE
  5
5601
331
54AF
  5
5602
331
54B0
  5
5603
331
54B1
  5
5604
331
54B2
  5
5605
331
54B3
  5
5606
331
54B5
  5
5607
331
54B6
  5
5608
331
54B7
  5
5609
331
54B8
  5
560A
331
54B9
  5
560B
331
54BA
  5
560C
331
54BB
  5
58AA
331
54BC
  5
58FC
331
54BD
  5
58FD
331
54BE
  5
5963
331
54BF
  5
5966
331
5528
  5
5970
331
5529
  5
5971
331
552A
  5
59F5
331
552B
  5
59F7
331
552C
  5
5A3E
331
552D
  5
5A3F
331
59F5
  5
5C6B
331
59F7
  5
5C6C
331
5A9F
  5
5C73
331
5AA7
  5
5C7B
331
5AA8
  5
5C7C
331
5AA9
  5
5C7D
331
7F55
  5
8426
331
7F56
  5
7F55
331
7F57
  5
7F56
331
7F58
  5
8427
331
7F59
  5
842B
331
7F5A
  5
7F57
331
7F5B
  5
842C
331
7F5C
  5
8425
331
7F5E
  5
7F58
331
7F5F
  5
7F59
331
7F60
  5
8428
331
7F62
  5
7F5A
331
7F63
  5
8429
331
7F65
  5
842D
331
7F67
  5
7F5B
331
7FF1
  5
7F5C
331
7FF2
  5
7F5E
331
7FF3
  5
7F5F
331
8015
  5
7F60
331
8016
  5
7F62
331
8017
  5
7F63
331
8018
  5
7F65
331
815C
  5
7FF1
331
81D4
  5
7FF2
331
81D5
  5
7FF3
331
81D6
  5
8015
331
81D7
  5
8016
331
81D8
  5
8017
331
81D9
  5
8018
331
81DA
  5
8124
331
81DB
  5
8130
331
81DC
  5
815C
331
81DD
  5
81D4
331
81DE
  5
81D5
331
81DF
  5
81D6
331
81E0
  5
81D7
331
81E1
  5
81D8
331
81E2
  5
81D9
331
81E3
  5
81DA
331
81E4
  5
81DB
331
81E5
  5
81DC
331
81E6
  5
81DD
331
81E7
  5
81DE
331
81E8
  5
81DF
331
81E9
  5
81E0
331
81EA
  5
81E1
331
81EB
  5
81E2
331
81EC
  5
81E3
331
81ED
  5
81E4
331
81EE
  5
81E5
331
81EF
  5
81E6
331
81F0
  5
81E7
331
81F1
  5
81E8
331
81F2
  5
81E9
331
81F3
  5
81EA
331
81F4
  5
81EB
331
81F5
  5
81EC
331
81F6
  5
81ED
331
81F7
  5
81EE
331
81F8
  5
81EF
331
81F9
  5
81F0
331
81FA
  5
81F1
331
81FB
  5
81F2
331
81FC
  5
81F3
331
81FD
  5
81F4
331
81FE
  5
81F5
331
81FF
  5
81F6
331
8200
  5
81F7
331
8201
  5
81F8
331
8202
  5
81F9
331
8203
  5
81FA
331
8204
  5
81FB
331
8205
  5
81FC
331
8206
  5
81FD
331
8207
  5
81FE
331
8208
  5
81FF
331
8209
  5
8200
331
820A
  5
8201
331
820B
  5
8202
331
820C
  5
8203
331
820D
  5
8204
331
820E
  5
8205
331
820F
  5
8206
331
8210
  5
8207
331
8211
  5
8208
331
8212
  5
8209
331
8213
  5
820A
331
8214
  5
820B
331
8215
  5
820C
331
8216
  5
820D
331
8217
  5
820E
331
8218
  5
820F
331
8219
  5
8210
331
821A
  5
8211
331
821B
  5
8212
331
821C
  5
8213
331
821D
  5
8214
331
821E
  5
8215
331
825E
  5
8216
331
825F
  5
8217
331
8260
  5
8218
331
8261
  5
8219
331
8262
  5
821A
331
8264
  5
821B
331
8266
  5
821C
331
8267
  5
821D
331
8268
  5
821E
331
8269
  5
825E
331
826A
  5
825F
331
826B
  5
8260
331
826C
  5
8261
331
826D
  5
8262
331
826E
  5
8264
331
8270
  5
8266
331
8273
  5
8267
331
8274
  5
8268
331
8275
  5
8269
331
8276
  5
826A
331
8277
  5
826B
331
8278
  5
826C
331
836E
  5
826D
331
837D
  5
826E
331
838E
  5
8270
331
839F
  5
8273
331
83BD
  5
8275
331
83CC
  5
8276
331
83DC
  5
8277
331
83FA
  5
836E
331
840A
  5
837D
331
840B
  5
838E
331
840C
  5
839F
331
8411
  5
83AE
331
8412
  5
83BD
331
8413
  5
83CC
331
8414
  5
83DC
331
8415
  5
83EB
331
8416
  5
83FA
331
8417
  5
840A
331
8418
  5
840B
331
8419
  5
840C
331
841A
  5
8411
331
841B
  5
8412
331
841C
  5
8413
331
841D
  5
8414
331
841E
  5
8415
331
841F
  5
8416
331
8420
  5
8417
331
8421
  5
8418
331
8422
  5
8419
331
8423
  5
841A
331
8424
  5
841B
331
8425
  5
841C
331
8426
  5
841D
331
8427
  5
841E
331
8428
  5
841F
331
8429
  5
8420
331
842A
  5
8421
331
842B
  5
8422
331
842C
  5
8423
331
842D
  5
8424
  0
DIMASSOC
  5
8370
102
{ACAD_REACTORS
330
836F
102
}
330
836F
100
AcDbDimAssoc
330
836E
 90
        3
 70
     0
 71
     1
  1
AcDbOsnapPointRef
 72
     1
331
8204
 73
     0
 91
        0
 40
0.0
 10
0.0
 20
0.0
 30
0.0
 75
     0
  1
AcDbOsnapPointRef
 72
    10
331
8211
 73
     0
 91
        0
 40
0.8961619015609801
 10
0.0
 20
0.0
 30
0.0
 75
     0
  0
DIMASSOC
  5
837F
102
{ACAD_REACTORS
330
837E
102
}
330
837E
100
AcDbDimAssoc
330
837D
 90
        3
 70
     0
 71
     1
  1
AcDbOsnapPointRef
 72
    13
331
8201
 73
     0
 91
        0
 40
0.0
 10
0.0
 20
0.0
 30
0.0
 75
     0
  1
AcDbOsnapPointRef
 72
     1
331
8207
 73
     0
 91
        0
 40
0.0
 10
0.0
 20
0.0
 30
0.0
 75
     0
  0
DIMASSOC
  5
8390
102
{ACAD_REACTORS
330
838F
102
}
330
838F
100
AcDbDimAssoc
330
838E
 90
        1
 70
     0
 71
     1
  1
AcDbOsnapPointRef
 72
    13
331
8210
 73
     0
 91
        0
 40
0.0
 10
0.0
 20
0.0
 30
0.0
 75
     0
  0
DIMASSOC
  5
83BF
102
{ACAD_REACTORS
330
83BE
102
}
330
83BE
100
AcDbDimAssoc
330
83BD
 90
        3
 70
     0
 71
     1
  1
AcDbOsnapPointRef
 72
     1
331
8275
 73
     0
 91
        0
 40
0.0
 10
0.0
 20
0.0
 30
0.0
 75
     0
  1
AcDbOsnapPointRef
 72
     1
331
8262
 73
     0
 91
        0
 40
0.0
 10
0.0
 20
0.0
 30
0.0
 75
     0
  0
DIMASSOC
  5
83CE
102
{ACAD_REACTORS
330
83CD
102
}
330
83CD
100
AcDbDimAssoc
330
83CC
 90
        3
 70
     0
 71
     1
  1
AcDbOsnapPointRef
 72
    13
331
8275
 73
     0
 91
        0
 40
0.0
 10
0.0
 20
0.0
 30
0.0
 75
     0
  1
AcDbOsnapPointRef
 72
     1
331
8278
 73
     0
 91
        0
 40
0.0
 10
0.0
 20
0.0
 30
0.0
 75
     0
  0
DIMASSOC
  5
83DE
102
{ACAD_REACTORS
330
83DD
102
}
330
83DD
100
AcDbDimAssoc
330
83DC
 90
        3
 70
     0
 71
     1
  1
AcDbOsnapPointRef
 72
    13
331
8277
 73
     0
 91
        0
 40
0.0
 10
0.0
 20
0.0
 30
0.0
 75
     0
  1
AcDbOsnapPointRef
 72
     1
331
8266
 73
     0
 91
        0
 40
0.0
 10
0.0
 20
0.0
 30
0.0
 75
     0
  0
DIMASSOC
  5
84AF
102
{ACAD_REACTORS
330
84AE
102
}
330
84AE
100
AcDbDimAssoc
330
84AD
 90
        0
 70
     0
 71
     1
  0
LAYOUT
  5
21
102
{ACAD_REACTORS
330
1E
102
}
330
1E
100
AcDbPlotSettings
  1

  2
none_device
  4
ISO_A3_(420.00_x_297.00_MM)
  6

 40
7.5
 41
20.0
 42
7.5
 43
20.0
 44
420.0
 45
297.0
 46
0.0
 47
0.0
 48
0.0
 49
0.0
140
0.0
141
0.0
142
1.0
143
1.0
 70
     0
 72
     1
 73
     0
 74
     0
  7

 75
     0
 76
     0
 77
     2
 78
   300
147
1.0
148
0.0
149
0.0
100
AcDbLayout
  1
Layout1
 70
     1
 71
     0
 10
-7.5
 20
-20.0
 11
412.5
 21
277.0
 12
0.0
 22
0.0
 32
0.0
 14
0.0
 24
0.0
 34
0.0
 15
0.0
 25
0.0
 35
0.0
146
0.0
 13
0.0
 23
0.0
 33
0.0
 16
0.0
 26
0.0
 36
0.0
 17
0.0
 27
0.0
 37
0.0
 76
     0
330
B
331
349
  0
LAYOUT
  5
20
102
{ACAD_REACTORS
330
1E
102
}
330
1E
100
AcDbPlotSettings
  1

  2
none_device
  4
ISO_A3_(420.00_x_297.00_MM)
  6

 40
7.5
 41
20.0
 42
7.5
 43
20.0
 44
420.0
 45
297.0
 46
0.0
 47
0.0
 48
0.0
 49
0.0
140
0.0
141
0.0
142
1.0
143
1.0
 70
  1024
 72
     1
 73
     0
 74
     0
  7

 75
     0
 76
     0
 77
     2
 78
   300
147
1.0
148
0.0
149
0.0
100
AcDbLayout
  1
Model
 70
     0
 71
     1
 10
0.0
 20
0.0
 11
594.0
 21
419.9999999999996
 12
0.0
 22
0.0
 32
0.0
 14
0.0
 24
0.0
 34
0.0
 15
593.9999999999999
 25
420.0
 35
0.0
146
0.0
 13
0.0
 23
0.0
 33
0.0
 16
0.0
 26
0.0
 36
0.0
 17
0.0
 27
0.0
 37
0.0
 76
     0
330
A
331
15
  0
MATERIAL
  5
518C
102
{ACAD_REACTORS
330
263
102
}
330
263
100
AcDbMaterial
  1
ByBlock
 72
     1
 94
      127
  0
MATERIAL
  5
264
102
{ACAD_REACTORS
330
263
102
}
330
263
100
AcDbMaterial
  1
ByLayer
 72
     1
 94
      127
  0
MATERIAL
  5
266
102
{ACAD_REACTORS
330
263
102
}
330
263
100
AcDbMaterial
  1
Global
 72
     1
 94
      127
  0
MLEADERSTYLE
  5
5908
102
{ACAD_REACTORS
330
336
102
}
330
336
100
AcDbMLeaderStyle
170
     2
171
     1
172
     0
 90
        2
 40
0.0
 41
0.0
173
     1
 91
-1056964608
340
11
 92
       -2
290
     1
 42
2.0
291
     1
 43
8.0
  3
Standard
341
0
 44
4.0
300

342
17
174
     1
178
     6
175
     1
176
     0
 93
-1056964608
 45
4.0
292
     0
297
     0
 46
4.0
343
0
 94
-1056964608
 47
1.0
 49
1.0
140
1.0
293
     1
141
0.0
294
     1
177
     0
142
1.0
295
     0
296
     0
143
3.75
1001
ACAD_MLEADERVER
1070
     2
  0
MLINESTYLE
  5
1C
102
{ACAD_REACTORS
330
1B
102
}
330
1B
100
AcDbMlineStyle
  2
Standard
 70
     0
  3

 62
     0
 51
90.0
 52
90.0
 71
     2
 49
0.5
 62
   256
  6
BYLAYER
 49
-0.5
 62
   256
  6
BYLAYER
  0
ACDBPLACEHOLDER
  5
1D
102
{ACAD_REACTORS
330
1F
102
}
330
1F
  0
SCALE
  5
242
102
{ACAD_REACTORS
330
241
102
}
330
241
100
AcDbScale
 70
     0
300
1:1
140
1.0
141
1.0
290
     1
  0
SCALE
  5
243
102
{ACAD_REACTORS
330
241
102
}
330
241
100
AcDbScale
 70
     0
300
1:2
140
1.0
141
2.0
290
     0
  0
SCALE
  5
244
102
{ACAD_REACTORS
330
241
102
}
330
241
100
AcDbScale
 70
     0
300
1:4
140
1.0
141
4.0
290
     0
  0
SCALE
  5
245
102
{ACAD_REACTORS
330
241
102
}
330
241
100
AcDbScale
 70
     0
300
1:5
140
1.0
141
5.0
290
     0
  0
SCALE
  5
246
102
{ACAD_REACTORS
330
241
102
}
330
241
100
AcDbScale
 70
     0
300
1:8
140
1.0
141
8.0
290
     0
  0
SCALE
  5
247
102
{ACAD_REACTORS
330
241
102
}
330
241
100
AcDbScale
 70
     0
300
1:10
140
1.0
141
10.0
290
     0
  0
SCALE
  5
248
102
{ACAD_REACTORS
330
241
102
}
330
241
100
AcDbScale
 70
     0
300
1:16
140
1.0
141
16.0
290
     0
  0
SCALE
  5
249
102
{ACAD_REACTORS
330
241
102
}
330
241
100
AcDbScale
 70
     0
300
1:20
140
1.0
141
20.0
290
     0
  0
SCALE
  5
24A
102
{ACAD_REACTORS
330
241
102
}
330
241
100
AcDbScale
 70
     0
300
1:30
140
1.0
141
30.0
290
     0
  0
SCALE
  5
24B
102
{ACAD_REACTORS
330
241
102
}
330
241
100
AcDbScale
 70
     0
300
1:40
140
1.0
141
40.0
290
     0
  0
SCALE
  5
24C
102
{ACAD_REACTORS
330
241
102
}
330
241
100
AcDbScale
 70
     0
300
1:50
140
1.0
141
50.0
290
     0
  0
SCALE
  5
24D
102
{ACAD_REACTORS
330
241
102
}
330
241
100
AcDbScale
 70
     0
300
1:100
140
1.0
141
100.0
290
     0
  0
SCALE
  5
24E
102
{ACAD_REACTORS
330
241
102
}
330
241
100
AcDbScale
 70
     0
300
2:1
140
2.0
141
1.0
290
     0
  0
SCALE
  5
24F
102
{ACAD_REACTORS
330
241
102
}
330
241
100
AcDbScale
 70
     0
300
4:1
140
4.0
141
1.0
290
     0
  0
SCALE
  5
250
102
{ACAD_REACTORS
330
241
102
}
330
241
100
AcDbScale
 70
     0
300
8:1
140
8.0
141
1.0
290
     0
  0
SCALE
  5
251
102
{ACAD_REACTORS
330
241
102
}
330
241
100
AcDbScale
 70
     0
300
10:1
140
10.0
141
1.0
290
     0
  0
SCALE
  5
252
102
{ACAD_REACTORS
330
241
102
}
330
241
100
AcDbScale
 70
     0
300
100:1
140
100.0
141
1.0
290
     0
  0
SCALE
  5
253
102
{ACAD_REACTORS
330
241
102
}
330
241
100
AcDbScale
 70
     0
300
1/128" = 1'-0"
140
0.0078125
141
12.0
290
     0
  0
SCALE
  5
254
102
{ACAD_REACTORS
330
241
102
}
330
241
100
AcDbScale
 70
     0
300
1/64" = 1'-0"
140
0.015625
141
12.0
290
     0
  0
SCALE
  5
255
102
{ACAD_REACTORS
330
241
102
}
330
241
100
AcDbScale
 70
     0
300
1/32" = 1'-0"
140
0.03125
141
12.0
290
     0
  0
SCALE
  5
256
102
{ACAD_REACTORS
330
241
102
}
330
241
100
AcDbScale
 70
     0
300
1/16" = 1'-0"
140
0.0625
141
12.0
290
     0
  0
SCALE
  5
257
102
{ACAD_REACTORS
330
241
102
}
330
241
100
AcDbScale
 70
     0
300
3/32" = 1'-0"
140
0.09375
141
12.0
290
     0
  0
SCALE
  5
258
102
{ACAD_REACTORS
330
241
102
}
330
241
100
AcDbScale
 70
     0
300
1/8" = 1'-0"
140
0.125
141
12.0
290
     0
  0
SCALE
  5
259
102
{ACAD_REACTORS
330
241
102
}
330
241
100
AcDbScale
 70
     0
300
3/16" = 1'-0"
140
0.1875
141
12.0
290
     0
  0
SCALE
  5
25A
102
{ACAD_REACTORS
330
241
102
}
330
241
100
AcDbScale
 70
     0
300
1/4" = 1'-0"
140
0.25
141
12.0
290
     0
  0
SCALE
  5
25B
102
{ACAD_REACTORS
330
241
102
}
330
241
100
AcDbScale
 70
     0
300
3/8" = 1'-0"
140
0.375
141
12.0
290
     0
  0
SCALE
  5
25C
102
{ACAD_REACTORS
330
241
102
}
330
241
100
AcDbScale
 70
     0
300
1/2" = 1'-0"
140
0.5
141
12.0
290
     0
  0
SCALE
  5
25D
102
{ACAD_REACTORS
330
241
102
}
330
241
100
AcDbScale
 70
     0
300
3/4" = 1'-0"
140
0.75
141
12.0
290
     0
  0
SCALE
  5
25E
102
{ACAD_REACTORS
330
241
102
}
330
241
100
AcDbScale
 70
     0
300
1" = 1'-0"
140
1.0
141
12.0
290
     0
  0
SCALE
  5
25F
102
{ACAD_REACTORS
330
241
102
}
330
241
100
AcDbScale
 70
     0
300
1-1/2" = 1'-0"
140
1.5
141
12.0
290
     0
  0
SCALE
  5
260
102
{ACAD_REACTORS
330
241
102
}
330
241
100
AcDbScale
 70
     0
300
3" = 1'-0"
140
3.0
141
12.0
290
     0
  0
SCALE
  5
261
102
{ACAD_REACTORS
330
241
102
}
330
241
100
AcDbScale
 70
     0
300
6" = 1'-0"
140
6.0
141
12.0
290
     0
  0
SCALE
  5
262
102
{ACAD_REACTORS
330
241
102
}
330
241
100
AcDbScale
 70
     0
300
1'-0" = 1'-0"
140
12.0
141
12.0
290
     0
  0
TABLESTYLE
  5
279
102
{ACAD_REACTORS
330
278
102
}
102
{ACAD_XDICTIONARY
360
84CE
102
}
330
278
100
AcDbTableStyle
  3
Standard
 70
     0
 71
     0
 40
0.06
 41
0.06
280
     0
281
     0
  7
Standard
140
4.5
170
     2
 62
     0
 63
   257
283
     0
 90
        4
 91
        0
  1

274
    -2
284
     1
 64
     0
275
    -2
285
     1
 65
     0
276
    -2
286
     1
 66
     0
277
    -2
287
     1
 67
     0
278
    -2
288
     1
 68
     0
279
    -2
289
     1
 69
     0
  7
Standard
140
6.0
170
     5
 62
     0
 63
   257
283
     0
 90
        4
 91
        0
  1

274
    -2
284
     1
 64
     0
275
    -2
285
     1
 65
     0
276
    -2
286
     1
 66
     0
277
    -2
287
     1
 67
     0
278
    -2
288
     1
 68
     0
279
    -2
289
     1
 69
     0
  7
Standard
140
4.5
170
     5
 62
     0
 63
   257
283
     0
 90
        4
 91
        0
  1

274
    -2
284
     1
 64
     0
275
    -2
285
     1
 65
     0
276
    -2
286
     1
 66
     0
277
    -2
287
     1
 67
     0
278
    -2
288
     1
 68
     0
279
    -2
289
     1
 69
     0
  0
VISUALSTYLE
  5
26C
102
{ACAD_REACTORS
330
267
102
}
330
267
100
AcDbVisualStyle
  2
2dWireframe
 70
     4
 71
     0
 72
     2
 73
     0
 90
        0
 40
-0.6
 41
-30.0
 62
     5
 63
     7
421
 16777215
 74
     1
 91
        4
 64
     7
 65
   257
 75
     1
175
     1
 42
1.0
 92
        0
 66
   257
 43
1.0
 76
     1
 77
     6
 78
     2
 67
     7
 79
     5
170
     0
171
     0
290
     0
174
     0
 93
        1
 44
0.0
173
     0
291
     0
 45
0.0
  0
VISUALSTYLE
  5
26E
102
{ACAD_REACTORS
330
267
102
}
330
267
100
AcDbVisualStyle
  2
3D Hidden
 70
     6
 71
     1
 72
     2
 73
     2
 90
        0
 40
-0.6
 41
-30.0
 62
     5
 63
     7
421
 16777215
 74
     2
 91
        2
 64
     7
 65
   257
 75
     2
175
     1
 42
40.0
 92
        0
 66
   257
 43
1.0
 76
     1
 77
     6
 78
     2
 67
     7
 79
     3
170
     0
171
     0
290
     0
174
     0
 93
        1
 44
0.0
173
     0
291
     0
 45
0.0
  0
VISUALSTYLE
  5
26D
102
{ACAD_REACTORS
330
267
102
}
330
267
100
AcDbVisualStyle
  2
3dWireframe
 70
     5
 71
     0
 72
     2
 73
     0
 90
        0
 40
-0.6
 41
-30.0
 62
     5
 63
     7
421
 16777215
 74
     1
 91
        4
 64
     7
 65
   257
 75
     1
175
     1
 42
1.0
 92
        0
 66
   257
 43
1.0
 76
     1
 77
     6
 78
     2
 67
     7
 79
     5
170
     0
171
     0
290
     0
174
     0
 93
        1
 44
0.0
173
     0
291
     0
 45
0.0
  0
VISUALSTYLE
  5
26F
102
{ACAD_REACTORS
330
267
102
}
330
267
100
AcDbVisualStyle
  2
Basic
 70
     7
 71
     1
 72
     0
 73
     1
 90
        0
 40
-0.6
 41
-30.0
 62
     5
 63
     7
421
 16777215
 74
     0
 91
        4
 64
     7
 65
   257
 75
     1
175
     1
 42
1.0
 92
        8
 66
     7
 43
1.0
 76
     1
 77
     6
 78
     2
 67
     7
 79
     5
170
     0
171
     0
290
     0
174
     0
 93
        1
 44
0.0
173
     0
291
     1
 45
0.0
  0
VISUALSTYLE
  5
273
102
{ACAD_REACTORS
330
267
102
}
330
267
100
AcDbVisualStyle
  2
Brighten
 70
    12
 71
     2
 72
     2
 73
     0
 90
        0
 40
-0.6
 41
-30.0
 62
     5
 63
     7
421
 16777215
 74
     1
 91
        4
 64
     7
 65
   257
 75
     1
175
     1
 42
1.0
 92
        8
 66
     7
 43
1.0
 76
     1
 77
     6
 78
     2
 67
     7
 79
     5
170
     0
171
     0
290
     0
174
     0
 93
        1
 44
50.0
173
     0
291
     1
 45
0.0
  0
VISUALSTYLE
  5
277
102
{ACAD_REACTORS
330
267
102
}
330
267
100
AcDbVisualStyle
  2
ColorChange
 70
    16
 71
     2
 72
     2
 73
     3
 90
        0
 40
-0.6
 41
-30.0
 62
     5
 63
     8
421
  8421504
 74
     1
 91
        4
 64
     7
 65
   257
 75
     1
175
     1
 42
1.0
 92
        8
 66
     8
424
  8421504
 43
1.0
 76
     1
 77
     6
 78
     2
 67
     7
 79
     5
170
     0
171
     0
290
     0
174
     0
 93
        1
 44
0.0
173
     0
291
     1
 45
0.0
  0
VISUALSTYLE
  5
271
102
{ACAD_REACTORS
330
267
102
}
330
267
100
AcDbVisualStyle
  2
Conceptual
 70
     9
 71
     3
 72
     2
 73
     0
 90
        0
 40
-0.6
 41
-30.0
 62
     5
 63
     7
421
 16777215
 74
     2
 91
        2
 64
     7
 65
   257
 75
     1
175
     1
 42
40.0
 92
        8
 66
     7
 43
1.0
 76
     1
 77
     6
 78
     2
 67
     7
 79
     3
170
     0
171
     0
290
     0
174
     0
 93
        1
 44
0.0
173
     0
291
     0
 45
0.0
  0
VISUALSTYLE
  5
272
102
{ACAD_REACTORS
330
267
102
}
330
267
100
AcDbVisualStyle
  2
Dim
 70
    11
 71
     2
 72
     2
 73
     0
 90
        0
 40
-0.6
 41
-30.0
 62
     5
 63
     7
421
 16777215
 74
     1
 91
        4
 64
     7
 65
   257
 75
     1
175
     1
 42
1.0
 92
        8
 66
     7
 43
1.0
 76
     1
 77
     6
 78
     2
 67
     7
 79
     5
170
     0
171
     0
290
     0
174
     0
 93
        1
 44
-50.0
173
     0
291
     1
 45
0.0
  0
VISUALSTYLE
  5
F14
102
{ACAD_REACTORS
330
267
102
}
330
267
100
AcDbVisualStyle
  2
EdgeColorOff
 70
    22
 71
     2
 72
     2
 73
     0
 90
        0
 40
0.6
 41
30.0
 62
     5
 63
     7
421
 16777215
 74
     1
 91
        4
 64
     7
 65
   257
 75
     1
175
     1
 42
1.0
 92
        8
 66
     7
 43
1.0
 76
     1
 77
     6
 78
     2
 67
     7
 79
     5
170
     0
171
     0
290
     0
174
     0
 93
        1
 44
0.0
173
     0
291
     1
 45
0.0
  0
VISUALSTYLE
  5
276
102
{ACAD_REACTORS
330
267
102
}
330
267
100
AcDbVisualStyle
  2
Facepattern
 70
    15
 71
     2
 72
     2
 73
     0
 90
        0
 40
-0.6
 41
-30.0
 62
     5
 63
     7
421
 16777215
 74
     1
 91
        4
 64
     7
 65
   257
 75
     1
175
     1
 42
1.0
 92
        8
 66
     7
 43
1.0
 76
     1
 77
     6
 78
     2
 67
     7
 79
     5
170
     0
171
     0
290
     0
174
     0
 93
        1
 44
0.0
173
     0
291
     1
 45
0.0
  0
VISUALSTYLE
  5
268
102
{ACAD_REACTORS
330
267
102
}
330
267
100
AcDbVisualStyle
  2
Flat
 70
     0
 71
     2
 72
     1
 73
     1
 90
        2
 40
-0.6
 41
30.0
 62
     5
 63
     7
421
 16777215
 74
     0
 91
        4
 64
     7
 65
   257
 75
     1
175
     1
 42
1.0
 92
        8
 66
     7
 43
1.0
 76
     1
 77
     6
 78
     2
 67
     7
 79
     5
170
     0
171
     0
290
     0
174
     0
 93
       13
 44
0.0
173
     0
291
     1
 45
0.0
  0
VISUALSTYLE
  5
269
102
{ACAD_REACTORS
330
267
102
}
330
267
100
AcDbVisualStyle
  2
FlatWithEdges
 70
     1
 71
     2
 72
     1
 73
     1
 90
        2
 40
-0.6
 41
30.0
 62
     5
 63
     7
421
 16777215
 74
     1
 91
        4
 64
     7
 65
   257
 75
     1
175
     1
 42
1.0
 92
        0
 66
   257
 43
1.0
 76
     1
 77
     6
 78
     2
 67
     7
 79
     5
170
     0
171
     0
290
     0
174
     0
 93
       13
 44
0.0
173
     0
291
     1
 45
0.0
  0
VISUALSTYLE
  5
26A
102
{ACAD_REACTORS
330
267
102
}
330
267
100
AcDbVisualStyle
  2
Gouraud
 70
     2
 71
     2
 72
     2
 73
     1
 90
        2
 40
-0.6
 41
30.0
 62
     5
 63
     7
421
 16777215
 74
     0
 91
        4
 64
     7
 65
   257
 75
     1
175
     1
 42
1.0
 92
        0
 66
     7
 43
1.0
 76
     1
 77
     6
 78
     2
 67
     7
 79
     5
170
     0
171
     0
290
     0
174
     0
 93
       13
 44
0.0
173
     0
291
     1
 45
0.0
  0
VISUALSTYLE
  5
26B
102
{ACAD_REACTORS
330
267
102
}
330
267
100
AcDbVisualStyle
  2
GouraudWithEdges
 70
     3
 71
     2
 72
     2
 73
     1
 90
        2
 40
-0.6
 41
30.0
 62
     5
 63
     7
421
 16777215
 74
     1
 91
        4
 64
     7
 65
   257
 75
     1
175
     1
 42
1.0
 92
        0
 66
   257
 43
1.0
 76
     1
 77
     6
 78
     2
 67
     7
 79
     5
170
     0
171
     0
290
     0
174
     0
 93
       13
 44
0.0
173
     0
291
     1
 45
0.0
  0
VISUALSTYLE
  5
F11
102
{ACAD_REACTORS
330
267
102
}
330
267
100
AcDbVisualStyle
  2
Hidden
 70
     6
 71
     1
 72
     2
 73
     2
 90
        0
 40
0.6
 41
30.0
 62
     5
 63
     7
421
 16777215
 74
     2
 91
        2
 64
     7
 65
   257
 75
     2
175
     1
 42
40.0
 92
        0
 66
   257
 43
1.0
 76
     1
 77
     6
 78
     2
 67
     7
 79
     3
170
     0
171
     0
290
     0
174
     0
 93
        1
 44
0.0
173
     0
291
     0
 45
0.0
  0
VISUALSTYLE
  5
F12
102
{ACAD_REACTORS
330
267
102
}
330
267
100
AcDbVisualStyle
  2
JitterOff
 70
    20
 71
     2
 72
     2
 73
     0
 90
        0
 40
0.6
 41
30.0
 62
     5
 63
     7
421
 16777215
 74
     1
 91
        4
 64
     7
 65
   257
 75
     1
175
     1
 42
1.0
 92
       10
 66
     7
 43
1.0
 76
     1
 77
     6
 78
     2
 67
     7
 79
     5
170
     0
171
     0
290
     0
174
     0
 93
        1
 44
0.0
173
     0
291
     1
 45
0.0
  0
VISUALSTYLE
  5
275
102
{ACAD_REACTORS
330
267
102
}
330
267
100
AcDbVisualStyle
  2
Linepattern
 70
    14
 71
     2
 72
     2
 73
     0
 90
        0
 40
-0.6
 41
-30.0
 62
     5
 63
     7
421
 16777215
 74
     1
 91
        4
 64
     7
 65
   257
 75
     7
175
     7
 42
1.0
 92
        8
 66
     7
 43
1.0
 76
     1
 77
     6
 78
     2
 67
     7
 79
     5
170
     0
171
     0
290
     0
174
     0
 93
        1
 44
0.0
173
     0
291
     1
 45
0.0
  0
VISUALSTYLE
  5
F13
102
{ACAD_REACTORS
330
267
102
}
330
267
100
AcDbVisualStyle
  2
OverhangOff
 70
    21
 71
     2
 72
     2
 73
     0
 90
        0
 40
0.6
 41
30.0
 62
     5
 63
     7
421
 16777215
 74
     1
 91
        4
 64
     7
 65
   257
 75
     1
175
     1
 42
1.0
 92
        9
 66
     7
 43
1.0
 76
     1
 77
     6
 78
     2
 67
     7
 79
     5
170
     0
171
     0
290
     0
174
     0
 93
        1
 44
0.0
173
     0
291
     1
 45
0.0
  0
VISUALSTYLE
  5
270
102
{ACAD_REACTORS
330
267
102
}
330
267
100
AcDbVisualStyle
  2
Realistic
 70
     8
 71
     2
 72
     2
 73
     0
 90
        0
 40
-0.6
 41
-30.0
 62
     5
 63
     7
421
 16777215
 74
     1
 91
        0
 64
     7
 65
   257
 75
     1
175
     1
 42
1.0
 92
        8
 66
     8
424
  7895160
 43
1.0
 76
     1
 77
     6
 78
     2
 67
     7
 79
     5
170
     0
171
     0
290
     0
174
     0
 93
       13
 44
0.0
173
     0
291
     0
 45
0.0
  0
VISUALSTYLE
  5
F19
102
{ACAD_REACTORS
330
267
102
}
330
267
100
AcDbVisualStyle
  2
Shaded
 70
    27
 71
     2
 72
     2
 73
     1
 90
        2
 40
0.6
 41
30.0
 62
     5
 63
     7
421
 16777215
 74
     0
 91
        4
 64
     7
 65
   257
 75
     1
175
     1
 42
1.0
 92
        8
 66
   257
 43
1.0
 76
     1
 77
     6
 78
     2
 67
     8
425
  7895160
 79
     3
170
     0
171
     0
290
     0
174
     0
 93
        5
 44
0.0
173
     0
291
     0
 45
0.0
  0
VISUALSTYLE
  5
F18
102
{ACAD_REACTORS
330
267
102
}
330
267
100
AcDbVisualStyle
  2
Shaded with edges
 70
    26
 71
     2
 72
     2
 73
     1
 90
        2
 40
0.6
 41
30.0
 62
     5
 63
     7
421
 16777215
 74
     1
 91
       10
 64
     7
 65
   257
 75
     2
175
     1
 42
1.0
 92
        8
 66
   257
 43
1.0
 76
     1
 77
     6
 78
     2
 67
     7
 79
     3
170
     0
171
     0
290
     0
174
     0
 93
        5
 44
0.0
173
     0
291
     0
 45
0.0
  0
VISUALSTYLE
  5
F15
102
{ACAD_REACTORS
330
267
102
}
330
267
100
AcDbVisualStyle
  2
Shades of Gray
 70
    23
 71
     2
 72
     2
 73
     3
 90
        0
 40
0.6
 41
30.0
 62
     5
 63
     7
421
 16777215
 74
     2
 91
        2
 64
     7
 65
     7
 75
     1
175
     1
 42
40.0
 92
        8
 66
     7
 43
1.0
 76
     1
 77
     6
 78
     2
 67
     7
 79
     3
170
     0
171
     0
290
     0
174
     0
 93
        1
 44
0.0
173
     0
291
     0
 45
0.0
  0
VISUALSTYLE
  5
F16
102
{ACAD_REACTORS
330
267
102
}
330
267
100
AcDbVisualStyle
  2
Sketchy
 70
    24
 71
     1
 72
     2
 73
     2
 90
        0
 40
0.6
 41
30.0
 62
     5
 63
     7
421
 16777215
 74
     2
 91
        2
 64
     7
 65
     7
 75
     1
175
     1
 42
40.0
 92
       11
 66
     7
 43
1.0
 76
     1
 77
     6
 78
     2
 67
     7
 79
     6
170
     0
171
     0
290
     0
174
     0
 93
        1
 44
0.0
173
     0
291
     0
 45
0.0
  0
VISUALSTYLE
  5
274
102
{ACAD_REACTORS
330
267
102
}
330
267
100
AcDbVisualStyle
  2
Thicken
 70
    13
 71
     2
 72
     2
 73
     0
 90
        0
 40
-0.6
 41
-30.0
 62
     5
 63
     7
421
 16777215
 74
     1
 91
        4
 64
     7
 65
   257
 75
     1
175
     1
 42
1.0
 92
       12
 66
     7
 43
1.0
 76
     1
 77
     6
 78
     2
 67
     7
 79
     5
170
     0
171
     0
290
     0
174
     0
 93
        1
 44
0.0
173
     0
291
     1
 45
0.0
  0
VISUALSTYLE
  5
F10
102
{ACAD_REACTORS
330
267
102
}
330
267
100
AcDbVisualStyle
  2
Wireframe
 70
     5
 71
     0
 72
     2
 73
     0
 90
        0
 40
0.6
 41
30.0
 62
     5
 63
     7
421
 16777215
 74
     1
 91
        4
 64
     7
 65
   257
 75
     1
175
     1
 42
1.0
 92
        0
 66
   257
 43
1.0
 76
     1
 77
     6
 78
     2
 67
     7
 79
     3
170
     0
171
     0
290
     0
174
     0
 93
        1
 44
0.0
173
     0
291
     0
 45
0.0
  0
VISUALSTYLE
  5
F17
102
{ACAD_REACTORS
330
267
102
}
330
267
100
AcDbVisualStyle
  2
X-Ray
 70
    25
 71
     2
 72
     2
 73
     1
 90
        1
 40
0.5
 41
30.0
 62
     5
 63
     7
421
 16777215
 74
     1
 91
        0
 64
     7
 65
   257
 75
     1
175
     1
 42
1.0
 92
        8
 66
     7
 43
1.0
 76
     1
 77
     6
 78
     2
 67
     7
 79
     3
170
     0
171
     0
290
     0
174
     0
 93
       13
 44
0.0
173
     0
291
     0
 45
0.0
  0
DICTIONARYVAR
  5
331
102
{ACAD_REACTORS
330
330
102
}
330
330
100
DictionaryVariables
280
     0
  1
1:1
  0
DICTIONARYVAR
  5
598D
102
{ACAD_REACTORS
330
330
102
}
330
330
100
DictionaryVariables
280
     0
  1
Standard
  0
DICTIONARYVAR
  5
335
102
{ACAD_REACTORS
330
330
102
}
330
330
100
DictionaryVariables
280
     0
  1
Standard
  0
DICTIONARYVAR
  5
528A
102
{ACAD_REACTORS
330
330
102
}
330
330
100
DictionaryVariables
280
     0
  1
ByLayer
  0
DICTIONARYVAR
  5
13B4
102
{ACAD_REACTORS
330
330
102
}
330
330
100
DictionaryVariables
280
     0
  1
0
  0
DICTIONARY
  5
84CE
330
279
100
AcDbDictionary
280
     1
281
     1
  3
ACAD_ROUNDTRIP_2008_TABLESTYLE_CELLSTYLEMAP
360
84CF
  0
CELLSTYLEMAP
  5
84CF
102
{ACAD_REACTORS
330
84CE
102
}
330
84CE
100
AcDbCellStyleMap
 90
        3
300
CELLSTYLE
  1
TABLEFORMAT_BEGIN
 90
        5
170
     1
 91
        0
 92
    32768
 62
   257
 93
        1
300
CONTENTFORMAT
  1
CONTENTFORMAT_BEGIN
 90
        0
 91
        0
 92
        4
 93
        0
300

 40
0.0
140
1.0
 94
        5
 62
     0
340
17
144
6.0
309
CONTENTFORMAT_END
171
     1
301
MARGIN
  1
CELLMARGIN_BEGIN
 40
0.06
 40
0.06
 40
0.06
 40
0.06
 40
0.18
 40
0.18
309
CELLMARGIN_END
 94
        6
 95
        1
302
GRIDFORMAT
  1
GRIDFORMAT_BEGIN
 90
        0
 91
        1
 62
     0
 92
       -2
340
0
 93
        0
 40
0.045
309
GRIDFORMAT_END
 95
        2
302
GRIDFORMAT
  1
GRIDFORMAT_BEGIN
 90
        0
 91
        1
 62
     0
 92
       -2
340
0
 93
        0
 40
0.045
309
GRIDFORMAT_END
 95
        4
302
GRIDFORMAT
  1
GRIDFORMAT_BEGIN
 90
        0
 91
        1
 62
     0
 92
       -2
340
0
 93
        0
 40
0.045
309
GRIDFORMAT_END
 95
        8
302
GRIDFORMAT
  1
GRIDFORMAT_BEGIN
 90
        0
 91
        1
 62
     0
 92
       -2
340
0
 93
        0
 40
0.045
309
GRIDFORMAT_END
 95
       16
302
GRIDFORMAT
  1
GRIDFORMAT_BEGIN
 90
        0
 91
        1
 62
     0
 92
       -2
340
0
 93
        0
 40
0.045
309
GRIDFORMAT_END
 95
       32
302
GRIDFORMAT
  1
GRIDFORMAT_BEGIN
 90
        0
 91
        1
 62
     0
 92
       -2
340
0
 93
        0
 40
0.045
309
GRIDFORMAT_END
309
TABLEFORMAT_END
  1
CELLSTYLE_BEGIN
 90
        1
 91
        1
300
_TITLE
309
CELLSTYLE_END
300
CELLSTYLE
  1
TABLEFORMAT_BEGIN
 90
        5
170
     1
 91
        0
 92
        0
 62
   257
 93
        1
300
CONTENTFORMAT
  1
CONTENTFORMAT_BEGIN
 90
        0
 91
        0
 92
        4
 93
        0
300

 40
0.0
140
1.0
 94
        5
 62
     0
340
17
144
4.5
309
CONTENTFORMAT_END
171
     1
301
MARGIN
  1
CELLMARGIN_BEGIN
 40
0.06
 40
0.06
 40
0.06
 40
0.06
 40
0.18
 40
0.18
309
CELLMARGIN_END
 94
        6
 95
        1
302
GRIDFORMAT
  1
GRIDFORMAT_BEGIN
 90
        0
 91
        1
 62
     0
 92
       -2
340
0
 93
        0
 40
0.045
309
GRIDFORMAT_END
 95
        2
302
GRIDFORMAT
  1
GRIDFORMAT_BEGIN
 90
        0
 91
        1
 62
     0
 92
       -2
340
0
 93
        0
 40
0.045
309
GRIDFORMAT_END
 95
        4
302
GRIDFORMAT
  1
GRIDFORMAT_BEGIN
 90
        0
 91
        1
 62
     0
 92
       -2
340
0
 93
        0
 40
0.045
309
GRIDFORMAT_END
 95
        8
302
GRIDFORMAT
  1
GRIDFORMAT_BEGIN
 90
        0
 91
        1
 62
     0
 92
       -2
340
0
 93
        0
 40
0.045
309
GRIDFORMAT_END
 95
       16
302
GRIDFORMAT
  1
GRIDFORMAT_BEGIN
 90
        0
 91
        1
 62
     0
 92
       -2
340
0
 93
        0
 40
0.045
309
GRIDFORMAT_END
 95
       32
302
GRIDFORMAT
  1
GRIDFORMAT_BEGIN
 90
        0
 91
        1
 62
     0
 92
       -2
340
0
 93
        0
 40
0.045
309
GRIDFORMAT_END
309
TABLEFORMAT_END
  1
CELLSTYLE_BEGIN
 90
        2
 91
        1
300
_HEADER
309
CELLSTYLE_END
300
CELLSTYLE
  1
TABLEFORMAT_BEGIN
 90
        5
170
     1
 91
        0
 92
        0
 62
   257
 93
        1
300
CONTENTFORMAT
  1
CONTENTFORMAT_BEGIN
 90
        0
 91
        0
 92
        4
 93
        0
300

 40
0.0
140
1.0
 94
        2
 62
     0
340
17
144
4.5
309
CONTENTFORMAT_END
171
     1
301
MARGIN
  1
CELLMARGIN_BEGIN
 40
0.06
 40
0.06
 40
0.06
 40
0.06
 40
0.18
 40
0.18
309
CELLMARGIN_END
 94
        6
 95
        1
302
GRIDFORMAT
  1
GRIDFORMAT_BEGIN
 90
        0
 91
        1
 62
     0
 92
       -2
340
0
 93
        0
 40
0.045
309
GRIDFORMAT_END
 95
        2
302
GRIDFORMAT
  1
GRIDFORMAT_BEGIN
 90
        0
 91
        1
 62
     0
 92
       -2
340
0
 93
        0
 40
0.045
309
GRIDFORMAT_END
 95
        4
302
GRIDFORMAT
  1
GRIDFORMAT_BEGIN
 90
        0
 91
        1
 62
     0
 92
       -2
340
0
 93
        0
 40
0.045
309
GRIDFORMAT_END
 95
        8
302
GRIDFORMAT
  1
GRIDFORMAT_BEGIN
 90
        0
 91
        1
 62
     0
 92
       -2
340
0
 93
        0
 40
0.045
309
GRIDFORMAT_END
 95
       16
302
GRIDFORMAT
  1
GRIDFORMAT_BEGIN
 90
        0
 91
        1
 62
     0
 92
       -2
340
0
 93
        0
 40
0.045
309
GRIDFORMAT_END
 95
       32
302
GRIDFORMAT
  1
GRIDFORMAT_BEGIN
 90
        0
 91
        1
 62
     0
 92
       -2
340
0
 93
        0
 40
0.045
309
GRIDFORMAT_END
309
TABLEFORMAT_END
  1
CELLSTYLE_BEGIN
 90
        3
 91
        2
300
_DATA
309
CELLSTYLE_END
  0
ENDSEC
  0
EOF
