  0
SECTION
  2
HEADER
  9
$ACADVER
  1
AC1021
  9
$ACADMAINTVER
 70
    25
  9
$DWGCODEPAGE
  3
ANSI_932
  9
$LASTSAVEDBY
  1
howeNelson
  9
$INSBASE
 10
0.0
 20
0.0
 30
0.0
  9
$EXTMIN
 10
0.0
 20
0.0
 30
0.0
  9
$EXTMAX
 10
1477.497274134256
 20
420.0
 30
0.0
  9
$LIMMIN
 10
0.0
 20
0.0
  9
$LIMMAX
 10
593.9999999999999
 20
420.0
  9
$ORTHOMODE
 70
     0
  9
$REGENMODE
 70
     1
  9
$FILLMODE
 70
     1
  9
$QTEXTMODE
 70
     0
  9
$MIRRTEXT
 70
     1
  9
$LTSCALE
 40
0.5
  9
$ATTMODE
 70
     1
  9
$TEXTSIZE
 40
136.139079520063
  9
$TRACEWID
 40
1.0
  9
$TEXTSTYLE
  7
ＭＳ ゴシック
  9
$CLAYER
  8
寸法
  9
$CELTYPE
  6
ByLayer
  9
$CECOLOR
 62
   256
  9
$CELTSCALE
 40
1.0
  9
$DISPSILH
 70
     0
  9
$DIMSCALE
 40
1.0
  9
$DIMASZ
 40
2.0
  9
$DIMEXO
 40
5.0
  9
$DIMDLI
 40
0.9999999999999999
  9
$DIMRND
 40
0.0
  9
$DIMDLE
 40
0.0
  9
$DIMEXE
 40
0.0
  9
$DIMTP
 40
0.0
  9
$DIMTM
 40
0.0
  9
$DIMTXT
 40
5.0
  9
$DIMCEN
 40
0.0
  9
$DIMTSZ
 40
0.0
  9
$DIMTOL
 70
     0
  9
$DIMLIM
 70
     0
  9
$DIMTIH
 70
     0
  9
$DIMTOH
 70
     0
  9
$DIMSE1
 70
     0
  9
$DIMSE2
 70
     0
  9
$DIMTAD
 70
     1
  9
$DIMZIN
 70
    11
  9
$DIMBLK
  1
DOT
  9
$DIMASO
 70
     1
  9
$DIMSHO
 70
     1
  9
$DIMPOST
  1
<>
  9
$DIMAPOST
  1
[]
  9
$DIMALT
 70
     0
  9
$DIMALTD
 70
     1
  9
$DIMALTF
 40
1.0
  9
$DIMLFAC
 40
1.0
  9
$DIMTOFL
 70
     0
  9
$DIMTVP
 40
0.0
  9
$DIMTIX
 70
     1
  9
$DIMSOXD
 70
     0
  9
$DIMSAH
 70
     0
  9
$DIMBLK1
  1

  9
$DIMBLK2
  1

  9
$DIMSTYLE
  2
tfrom線あり
  9
$DIMCLRD
 70
     0
  9
$DIMCLRE
 70
     0
  9
$DIMCLRT
 70
     0
  9
$DIMTFAC
 40
1.0
  9
$DIMGAP
 40
5.0
  9
$DIMJUST
 70
     0
  9
$DIMSD1
 70
     0
  9
$DIMSD2
 70
     0
  9
$DIMTOLJ
 70
     1
  9
$DIMTZIN
 70
    11
  9
$DIMALTZ
 70
    11
  9
$DIMALTTZ
 70
    11
  9
$DIMUPT
 70
     0
  9
$DIMDEC
 70
     0
  9
$DIMTDEC
 70
     1
  9
$DIMALTU
 70
     2
  9
$DIMALTTD
 70
     2
  9
$DIMTXSTY
  7
ＭＳ ゴシック
  9
$DIMAUNIT
 70
     0
  9
$DIMADEC
 70
     2
  9
$DIMALTRND
 40
0.0
  9
$DIMAZIN
 70
     0
  9
$DIMDSEP
 70
    46
  9
$DIMATFIT
 70
     0
  9
$DIMFRAC
 70
     2
  9
$DIMLDRBLK
  1
DOT
  9
$DIMLUNIT
 70
     2
  9
$DIMLWD
 70
    -2
  9
$DIMLWE
 70
    -2
  9
$DIMTMOVE
 70
     0
  9
$DIMFXL
 40
1.0
  9
$DIMFXLON
 70
     0
  9
$DIMJOGANG
 40
0.7853981633974483
  9
$DIMTFILL
 70
     0
  9
$DIMTFILLCLR
 70
     0
  9
$DIMARCSYM
 70
     0
  9
$DIMLTYPE
  6

  9
$DIMLTEX1
  6

  9
$DIMLTEX2
  6

  9
$LUNITS
 70
     2
  9
$LUPREC
 70
     0
  9
$SKETCHINC
 40
0.1
  9
$FILLETRAD
 40
0.0
  9
$AUNITS
 70
     0
  9
$AUPREC
 70
     0
  9
$MENU
  1
acad
  9
$ELEVATION
 40
0.0
  9
$PELEVATION
 40
0.0
  9
$THICKNESS
 40
0.0
  9
$LIMCHECK
 70
     0
  9
$CHAMFERA
 40
0.0
  9
$CHAMFERB
 40
0.0
  9
$CHAMFERC
 40
0.0
  9
$CHAMFERD
 40
0.0
  9
$SKPOLY
 70
     0
  9
$TDCREATE
 40
2447893.375
  9
$TDUCREATE
 40
0.0
  9
$TDUPDATE
 40
2458004.499237986
  9
$TDUUPDATE
 40
2458004.124237986
  9
$TDINDWG
 40
0.0386190046
  9
$TDUSRTIMER
 40
2458004.12417022
  9
$USRTIMER
 70
     1
  9
$ANGBASE
 50
0.0
  9
$ANGDIR
 70
     0
  9
$PDMODE
 70
     1
  9
$PDSIZE
 40
-2.0
  9
$PLINEWID
 40
0.0
  9
$SPLFRAME
 70
     0
  9
$SPLINETYPE
 70
     6
  9
$SPLINESEGS
 70
     8
  9
$HANDSEED
  5
684D
  9
$SURFTAB1
 70
     6
  9
$SURFTAB2
 70
     6
  9
$SURFTYPE
 70
     6
  9
$SURFU
 70
     6
  9
$SURFV
 70
     6
  9
$UCSBASE
  2

  9
$UCSNAME
  2

  9
$UCSORG
 10
0.0
 20
0.0
 30
0.0
  9
$UCSXDIR
 10
1.0
 20
0.0
 30
0.0
  9
$UCSYDIR
 10
0.0
 20
1.0
 30
0.0
  9
$UCSORTHOREF
  2

  9
$UCSORTHOVIEW
 70
     1
  9
$UCSORGTOP
 10
0.0
 20
0.0
 30
0.0
  9
$UCSORGBOTTOM
 10
0.0
 20
0.0
 30
0.0
  9
$UCSORGLEFT
 10
0.0
 20
0.0
 30
0.0
  9
$UCSORGRIGHT
 10
0.0
 20
0.0
 30
0.0
  9
$UCSORGFRONT
 10
0.0
 20
0.0
 30
0.0
  9
$UCSORGBACK
 10
0.0
 20
0.0
 30
0.0
  9
$PUCSBASE
  2

  9
$PUCSNAME
  2

  9
$PUCSORG
 10
0.0
 20
0.0
 30
0.0
  9
$PUCSXDIR
 10
1.0
 20
0.0
 30
0.0
  9
$PUCSYDIR
 10
0.0
 20
1.0
 30
0.0
  9
$PUCSORTHOREF
  2

  9
$PUCSORTHOVIEW
 70
     0
  9
$PUCSORGTOP
 10
0.0
 20
0.0
 30
0.0
  9
$PUCSORGBOTTOM
 10
0.0
 20
0.0
 30
0.0
  9
$PUCSORGLEFT
 10
0.0
 20
0.0
 30
0.0
  9
$PUCSORGRIGHT
 10
0.0
 20
0.0
 30
0.0
  9
$PUCSORGFRONT
 10
0.0
 20
0.0
 30
0.0
  9
$PUCSORGBACK
 10
0.0
 20
0.0
 30
0.0
  9
$USERI1
 70
     0
  9
$USERI2
 70
     0
  9
$USERI3
 70
     0
  9
$USERI4
 70
     0
  9
$USERI5
 70
     0
  9
$USERR1
 40
0.0
  9
$USERR2
 40
0.0
  9
$USERR3
 40
0.0
  9
$USERR4
 40
0.0
  9
$USERR5
 40
0.0
  9
$WORLDVIEW
 70
     1
  9
$SHADEDGE
 70
     3
  9
$SHADEDIF
 70
    70
  9
$TILEMODE
 70
     1
  9
$MAXACTVP
 70
    64
  9
$PINSBASE
 10
0.0
 20
0.0
 30
0.0
  9
$PLIMCHECK
 70
     0
  9
$PEXTMIN
 10
0.0
 20
0.0
 30
0.0
  9
$PEXTMAX
 10
0.0
 20
0.0
 30
0.0
  9
$PLIMMIN
 10
-7.5
 20
-20.0
  9
$PLIMMAX
 10
412.5
 20
277.0
  9
$UNITMODE
 70
     0
  9
$VISRETAIN
 70
     0
  9
$PLINEGEN
 70
     1
  9
$PSLTSCALE
 70
     0
  9
$TREEDEPTH
 70
  3020
  9
$CMLSTYLE
  2
Standard
  9
$CMLJUST
 70
     0
  9
$CMLSCALE
 40
1.0
  9
$PROXYGRAPHICS
 70
     0
  9
$MEASUREMENT
 70
     1
  9
$CELWEIGHT
370
    -1
  9
$ENDCAPS
280
     0
  9
$JOINSTYLE
280
     0
  9
$LWDISPLAY
290
     1
  9
$INSUNITS
 70
     4
  9
$HYPERLINKBASE
  1

  9
$STYLESHEET
  1

  9
$XEDIT
290
     1
  9
$CEPSNTYPE
380
     0
  9
$PSTYLEMODE
290
     1
  9
$FINGERPRINTGUID
  2

  9
$VERSIONGUID
  2

  9
$EXTNAMES
290
     1
  9
$PSVPSCALE
 40
0.0
  9
$OLESTARTUP
290
     0
  9
$SORTENTS
280
   127
  9
$INDEXCTL
280
     0
  9
$HIDETEXT
280
     1
  9
$XCLIPFRAME
290
     0
  9
$HALOGAP
280
     0
  9
$OBSCOLOR
 70
   257
  9
$OBSLTYPE
280
     0
  9
$INTERSECTIONDISPLAY
280
     0
  9
$INTERSECTIONCOLOR
 70
   257
  9
$DIMASSOC
280
     2
  9
$PROJECTNAME
  1

  9
$CAMERADISPLAY
290
     0
  9
$LENSLENGTH
 40
50.0
  9
$CAMERAHEIGHT
 40
0.0
  9
$STEPSPERSEC
 40
2.0
  9
$STEPSIZE
 40
6.0
  9
$3DDWFPREC
 40
2.0
  9
$PSOLWIDTH
 40
0.25
  9
$PSOLHEIGHT
 40
4.0
  9
$LOFTANG1
 40
1.570796326794897
  9
$LOFTANG2
 40
1.570796326794897
  9
$LOFTMAG1
 40
0.0
  9
$LOFTMAG2
 40
0.0
  9
$LOFTPARAM
 70
     7
  9
$LOFTNORMALS
280
     1
  9
$LATITUDE
 40
37.795
  9
$LONGITUDE
 40
-122.394
  9
$NORTHDIRECTION
 40
0.0
  9
$TIMEZONE
 70
 -8000
  9
$LIGHTGLYPHDISPLAY
280
     1
  9
$TILEMODELIGHTSYNCH
280
     1
  9
$SOLIDHIST
280
     1
  9
$SHOWHIST
280
     1
  9
$DWFFRAME
280
     2
  9
$DGNFRAME
280
     2
  9
$REALWORLDSCALE
290
     1
  9
$INTERFERECOLOR
 62
   256
  9
$CSHADOW
280
     0
  9
$SHADOWPLANELOCATION
 40
0.0
  0
ENDSEC
  0
SECTION
  2
CLASSES
  0
CLASS
  1
LWPOLYLINE
  2
AcDbPolyline
  3
ObjectDBX Classes
 90
        0
 91
        1
280
     0
281
     1
  0
CLASS
  1
IMAGE
  2
AcDbRasterImage
  3
ISM
 90
      127
 91
        5
280
     0
281
     1
  0
CLASS
  1
OLE2FRAME
  2
AcDbOle2Frame
  3
ObjectDBX Classes
 90
        0
 91
        1
280
     0
281
     1
  0
CLASS
  1
HATCH
  2
AcDbHatch
  3
ObjectDBX Classes
 90
        0
 91
        1
280
     0
281
     1
  0
CLASS
  1
DICTIONARYVAR
  2
AcDbDictionaryVar
  3
ObjectDBX Classes
 90
        0
 91
        4
280
     0
281
     0
  0
CLASS
  1
RASTERVARIABLES
  2
AcDbRasterVariables
  3
ISM
 90
        0
 91
        4
280
     0
281
     0
  0
CLASS
  1
IMAGEDEF
  2
AcDbRasterImageDef
  3
ISM
 90
        0
 91
        4
280
     0
281
     0
  0
CLASS
  1
IMAGEDEF_REACTOR
  2
AcDbRasterImageDefReactor
  3
ISM
 90
        1
 91
        4
280
     0
281
     0
  0
CLASS
  1
IDBUFFER
  2
AcDbIdBuffer
  3
ObjectDBX Classes
 90
        0
 91
        4
280
     0
281
     0
  0
CLASS
  1
SPATIAL_FILTER
  2
AcDbSpatialFilter
  3
ObjectDBX Classes
 90
        0
 91
        4
280
     0
281
     0
  0
CLASS
  1
XRECORD
  2
AcDbXrecord
  3
ObjectDBX Classes
 90
        0
 91
        1
280
     0
281
     0
  0
CLASS
  1
SORTENTSTABLE
  2
AcDbSortentsTable
  3
ObjectDBX Classes
 90
        0
 91
        4
280
     0
281
     0
  0
CLASS
  1
LAYER_INDEX
  2
AcDbLayerIndex
  3
ObjectDBX Classes
 90
        0
 91
        4
280
     0
281
     0
  0
CLASS
  1
SPATIAL_INDEX
  2
AcDbSpatialIndex
  3
AutoCAD 2000
 90
        0
 91
        4
280
     0
281
     0
  0
CLASS
  1
OBJECT_PTR
  2
CAseDLPNTableRecord
  3
ASE-LPNTableRecord
 90
        1
 91
        4
280
     0
281
     0
  0
CLASS
  1
LAYOUT
  2
AcDbLayout
  3
ObjectDBX Classes
 90
        0
 91
        1
280
     0
281
     0
  0
CLASS
  1
PLOTSETTINGS
  2
AcDbPlotSettings
  3
ObjectDBX Classes
 90
        0
 91
        4
280
     0
281
     0
  0
CLASS
  1
ACDBDICTIONARYWDFLT
  2
AcDbDictionaryWithDefault
  3
ObjectDBX Classes
 90
        0
 91
        4
280
     0
281
     0
  0
CLASS
  1
ACDBPLACEHOLDER
  2
AcDbPlaceHolder
  3
ObjectDBX Classes
 90
        0
 91
        1
280
     0
281
     0
  0
CLASS
  1
SCALE
  2
AcDbScale
  3
ObjectDBX Classes
 90
     1153
 91
        4
280
     0
281
     0
  0
CLASS
  1
MATERIAL
  2
AcDbMaterial
  3
ObjectDBX Classes
 90
     1153
 91
        4
280
     0
281
     0
  0
CLASS
  1
VISUALSTYLE
  2
AcDbVisualStyle
  3
ObjectDBX Classes
 90
     4095
 91
        4
280
     0
281
     0
  0
CLASS
  1
TABLESTYLE
  2
AcDbTableStyle
  3
ObjectDBX Classes
 90
     4095
 91
        4
280
     0
281
     0
  0
CLASS
  1
DIMASSOC
  2
AcDbDimAssoc
  3
"AcDbDimAssoc|Product Desc:     AcDim ARX App For Dimension|Company:          Autodesk, Inc.|WEB Address:      www.autodesk.com"
 90
        0
 91
        4
280
     0
281
     0
  0
CLASS
  1
CELLSTYLEMAP
  2
AcDbCellStyleMap
  3
ObjectDBX Classes
 90
     1152
 91
        4
280
     0
281
     0
  0
CLASS
  1
SUN
  2
AcDbSun
  3
SCENEOE
 90
     1153
 91
        4
280
     0
281
     0
  0
CLASS
  1
MLEADERSTYLE
  2
AcDbMLeaderStyle
  3
ACDB_MLEADERSTYLE_CLASS
 90
     4095
 91
        4
280
     0
281
     0
  0
CLASS
  1
FIELD
  2
AcDbField
  3
ObjectDBX Classes
 90
     1152
 91
        4
280
     0
281
     0
  0
CLASS
  1
FIELDLIST
  2
AcDbFieldList
  3
ObjectDBX Classes
 90
     1152
 91
        4
280
     0
281
     0
  0
ENDSEC
  0
SECTION
  2
TABLES
  0
TABLE
  2
VPORT
  5
7
330
0
100
AcDbSymbolTable
 70
     1
  0
VPORT
  5
15
330
7
100
AcDbSymbolTableRecord
100
AcDbViewportTableRecord
  2
*ACTIVE
 70
     0
 10
0.0
 20
0.0
 11
1.0
 21
1.0
 12
296.9999999999999
 22
210.0
 13
0.0
 23
0.0
 14
1.0
 24
1.0
 15
0.0
 25
0.0
 16
0.0
 26
0.0
 36
1.0
 17
0.0
 27
0.0
 37
0.0
 40
428.4
 41
2.064935064935065
 42
50.0
 43
0.0
 44
0.0
 50
0.0
 51
0.0
 71
    16
 72
  2000
 73
     1
 74
     1
 75
     0
 76
     0
 77
     0
 78
     1
281
     0
 65
     0
110
0.0
120
0.0
130
0.0
111
1.0
121
0.0
131
0.0
112
0.0
122
1.0
132
0.0
 79
     0
146
0.0
348
26C
 60
     3
 61
     5
292
     1
282
     1
141
0.0
142
0.0
 63
   256
361
10E8
  0
ENDTAB
  0
TABLE
  2
LTYPE
  5
4
330
0
100
AcDbSymbolTable
 70
     3
  0
LTYPE
  5
11
330
4
100
AcDbSymbolTableRecord
100
AcDbLinetypeTableRecord
  2
ByBlock
 70
     0
  3

 72
    65
 73
     0
 40
0.0
  0
LTYPE
  5
12
330
4
100
AcDbSymbolTableRecord
100
AcDbLinetypeTableRecord
  2
ByLayer
 70
     0
  3
Solid line
 72
    65
 73
     0
 40
0.0
  0
LTYPE
  5
13
330
4
100
AcDbSymbolTableRecord
100
AcDbLinetypeTableRecord
  2
Continuous
 70
     0
  3
Solid line
 72
    65
 73
     0
 40
0.0
  0
LTYPE
  5
88D
330
4
100
AcDbSymbolTableRecord
100
AcDbLinetypeTableRecord
  2
CENTER
 70
     0
  3
----------  --  ----------  --  
 72
    65
 73
     4
 40
20.0
 49
12.5
 74
     0
 49
-2.5
 74
     0
 49
2.5
 74
     0
 49
-2.5
 74
     0
  0
LTYPE
  5
12C7
330
4
100
AcDbSymbolTableRecord
100
AcDbLinetypeTableRecord
  2
HIDDEN
 70
     0
  3
Hidden _ _ _ _ _ _ _ _ _ _ _ _ _ _ _ _ _ _ _ _ 
 72
    65
 73
     2
 40
9.524999999999999
 49
6.35
 74
     0
 49
-3.175
 74
     0
  0
ENDTAB
  0
TABLE
  2
LAYER
  5
2
102
{ACAD_XDICTIONARY
360
2E1
102
}
330
0
100
AcDbSymbolTable
 70
    11
  0
LAYER
  5
14
330
2
100
AcDbSymbolTableRecord
100
AcDbLayerTableRecord
  2
0
 70
     0
 62
     7
  6
Continuous
370
    -3
390
1D
347
266
  0
LAYER
  5
4A
330
2
100
AcDbSymbolTableRecord
100
AcDbLayerTableRecord
  2
Defpoints
 70
     0
 62
     7
  6
Continuous
290
     0
370
    -3
390
1D
347
266
  0
LAYER
  5
12CE
330
2
100
AcDbSymbolTableRecord
100
AcDbLayerTableRecord
  2
寸法
 70
     0
 62
     7
  6
Continuous
370
    13
390
1D
347
266
1001
AcAecLayerStandard
1000

1000

  0
LAYER
  5
12CF
330
2
100
AcDbSymbolTableRecord
100
AcDbLayerTableRecord
  2
モデル
 70
     0
 62
     7
  6
Continuous
370
    20
390
1D
347
266
1001
AcAecLayerStandard
1000

1000

  0
LAYER
  5
142A
330
2
100
AcDbSymbolTableRecord
100
AcDbLayerTableRecord
  2
テンプレート
 70
     0
 62
     7
  6
Continuous
370
    20
390
1D
347
266
1001
AcAecLayerStandard
1000

1000

  0
LAYER
  5
1D5C
330
2
100
AcDbSymbolTableRecord
100
AcDbLayerTableRecord
  2
TFORMLOGO
 70
     0
 62
     7
  6
Continuous
370
    20
390
1D
347
266
  0
LAYER
  5
3848
330
2
100
AcDbSymbolTableRecord
100
AcDbLayerTableRecord
  2
PRINT BORDER
 70
     0
 62
     4
  6
Continuous
290
     0
370
    -3
390
1D
347
266
1001
AcAecLayerStandard
1000

1000

  0
LAYER
  5
43A6
330
2
100
AcDbSymbolTableRecord
100
AcDbLayerTableRecord
  2
CutoutOverlay
 70
     0
 62
     7
  6
Continuous
370
    20
390
1D
347
266
1001
AcAecLayerStandard
1000

1000

  0
LAYER
  5
43A7
330
2
100
AcDbSymbolTableRecord
100
AcDbLayerTableRecord
  2
CutoutUnderlay
 70
     0
 62
   254
  6
Continuous
370
    20
390
1D
347
266
1001
AcAecLayerStandard
1000

1000

  0
LAYER
  5
53DC
330
2
100
AcDbSymbolTableRecord
100
AcDbLayerTableRecord
  2
レイヤー 1
 70
     0
 62
     7
  6
Continuous
370
    -3
390
1D
347
266
  0
LAYER
  5
5A20
330
2
100
AcDbSymbolTableRecord
100
AcDbLayerTableRecord
  2
HIDDEN
 70
     0
 62
     7
  6
HIDDEN
370
    20
390
1D
347
266
1001
AcAecLayerStandard
1000

1000

  0
ENDTAB
  0
TABLE
  2
STYLE
  5
3
330
0
100
AcDbSymbolTable
 70
     2
  0
STYLE
  5
17
330
3
100
AcDbSymbolTableRecord
100
AcDbTextStyleTableRecord
  2
Standard
 70
     0
 40
0.0
 41
1.0
 50
0.0
 71
     0
 42
2.5
  3
txt
  4
BIGFONT.SHX
  0
STYLE
  5
39
330
3
100
AcDbSymbolTableRecord
100
AcDbTextStyleTableRecord
  2
ＭＳ ゴシック
 70
     0
 40
0.0
 41
1.0
 50
0.0
 71
     0
 42
136.139079520063
  3
msgothic.ttc
  4
ＭＳ ゴシック
1001
ACAD
1000
ＭＳ ゴシック
1071
        0
  0
ENDTAB
  0
TABLE
  2
VIEW
  5
5
330
0
100
AcDbSymbolTable
 70
     0
  0
ENDTAB
  0
TABLE
  2
UCS
  5
6
330
0
100
AcDbSymbolTable
 70
     0
  0
ENDTAB
  0
TABLE
  2
APPID
  5
8
330
0
100
AcDbSymbolTable
 70
     3
  0
APPID
  5
16
330
8
100
AcDbSymbolTableRecord
100
AcDbRegAppTableRecord
  2
ACAD
 70
     0
  0
APPID
  5
7AC
330
8
100
AcDbSymbolTableRecord
100
AcDbRegAppTableRecord
  2
AcAecLayerStandard
 70
     0
  0
APPID
  5
479E
330
8
100
AcDbSymbolTableRecord
100
AcDbRegAppTableRecord
  2
ACAD_MLEADERVER
 70
     0
  0
ENDTAB
  0
TABLE
  2
DIMSTYLE
  5
9
330
0
100
AcDbSymbolTable
 70
     2
100
AcDbDimStyleTable
  0
DIMSTYLE
105
18
330
9
100
AcDbSymbolTableRecord
100
AcDbDimStyleTableRecord
  2
Standard
 70
     0
178
     0
340
17
  0
DIMSTYLE
105
57
102
{ACAD_REACTORS
330
6586
330
6595
330
65A5
330
65B4
330
65C7
330
65D6
330
65E5
330
65F2
330
6600
330
66B6
330
66B7
330
66BC
330
66C4
330
66C7
330
66C9
330
67A1
330
67B5
102
}
330
9
100
AcDbSymbolTableRecord
100
AcDbDimStyleTableRecord
  2
tfrom線あり
 70
     0
  3
<>
  4
[]
 41
2.0
 42
5.0
 43
0.9999999999999999
 44
0.0
 73
     0
 74
     0
 77
     1
 78
    11
140
5.0
141
0.0
143
1.0
147
5.0
171
     1
174
     1
178
     0
179
     2
271
     0
272
     1
276
     2
284
    11
285
    11
286
    11
289
     0
340
39
341
4E
342
4E
  0
ENDTAB
  0
TABLE
  2
BLOCK_RECORD
  5
1
330
0
100
AcDbSymbolTable
 70
    47
  0
BLOCK_RECORD
  5
A
102
{ACAD_XDICTIONARY
360
45FB
102
}
330
1
100
AcDbSymbolTableRecord
100
AcDbBlockTableRecord
  2
*MODEL_SPACE
340
20
 70
     0
280
     1
281
     0
  0
BLOCK_RECORD
  5
B
330
1
100
AcDbSymbolTableRecord
100
AcDbBlockTableRecord
  2
*PAPER_SPACE
340
21
 70
     0
280
     1
281
     0
  0
BLOCK_RECORD
  5
4E
330
1
100
AcDbSymbolTableRecord
100
AcDbBlockTableRecord
  2
_DOT
340
0
102
{BLKREFS
331
5A68
331
5A69
331
5AC3
331
5AC4
331
5ACF
331
5AD0
331
5B11
331
5B12
331
5B2F
331
5B30
331
5B3E
331
5B3F
331
5B4F
331
5B50
331
5B5C
331
5B5D
331
5B6C
331
5B6D
331
5B8B
331
5B8C
331
5BA3
331
5BA4
331
6452
331
6453
331
645E
331
645F
331
646A
331
646B
331
6476
331
6477
331
6482
331
6483
331
648E
331
648F
331
649A
331
649B
331
64A6
331
64A7
331
64B2
331
64B3
331
64BE
331
64BF
331
64CA
331
64CB
331
658F
331
6590
331
659E
331
659F
331
65AE
331
65AF
331
65BD
331
65BE
331
65D0
331
65D1
331
65DF
331
65E0
331
65EC
331
65ED
331
65F9
331
65FA
331
6609
331
660A
331
66D2
331
66D3
331
66DE
331
66DF
331
67DC
331
67DD
331
67E8
331
67E9
102
}
 70
     0
280
     1
281
     0
  0
BLOCK_RECORD
  5
12C3
330
1
100
AcDbSymbolTableRecord
100
AcDbBlockTableRecord
  2
*Paper_Space1
340
12C4
 70
     0
280
     1
281
     0
  0
BLOCK_RECORD
  5
1D88
330
1
100
AcDbSymbolTableRecord
100
AcDbBlockTableRecord
  2
名称未設定-1
340
0
102
{BLKREFS
331
36E3
102
}
 70
     1
280
     1
281
     0
  0
BLOCK_RECORD
  5
1D8B
330
1
100
AcDbSymbolTableRecord
100
AcDbBlockTableRecord
  2
block 2
340
0
102
{BLKREFS
331
1D8A
102
}
 70
     0
280
     1
281
     0
  0
BLOCK_RECORD
  5
1D8E
330
1
100
AcDbSymbolTableRecord
100
AcDbBlockTableRecord
  2
block 3
340
0
102
{BLKREFS
331
1D8D
102
}
 70
     0
280
     1
281
     0
  0
BLOCK_RECORD
  5
1D91
330
1
100
AcDbSymbolTableRecord
100
AcDbBlockTableRecord
  2
block 4
340
0
102
{BLKREFS
331
1D90
102
}
 70
     0
280
     1
281
     0
  0
BLOCK_RECORD
  5
1DA0
330
1
100
AcDbSymbolTableRecord
100
AcDbBlockTableRecord
  2
block 5
340
0
102
{BLKREFS
331
1D9F
102
}
 70
     0
280
     1
281
     0
  0
BLOCK_RECORD
  5
473A
330
1
100
AcDbSymbolTableRecord
100
AcDbBlockTableRecord
  2
_NONE
340
0
 70
     0
280
     1
281
     0
  0
BLOCK_RECORD
  5
5A62
330
1
100
AcDbSymbolTableRecord
100
AcDbBlockTableRecord
  2
*D8
340
0
 70
     0
280
     1
281
     0
  0
BLOCK_RECORD
  5
5ABD
330
1
100
AcDbSymbolTableRecord
100
AcDbBlockTableRecord
  2
*D9
340
0
 70
     0
280
     1
281
     0
  0
BLOCK_RECORD
  5
5AC9
330
1
100
AcDbSymbolTableRecord
100
AcDbBlockTableRecord
  2
*D10
340
0
 70
     0
280
     1
281
     0
  0
BLOCK_RECORD
  5
5B0B
330
1
100
AcDbSymbolTableRecord
100
AcDbBlockTableRecord
  2
*D11
340
0
 70
     0
280
     1
281
     0
  0
BLOCK_RECORD
  5
5B29
330
1
100
AcDbSymbolTableRecord
100
AcDbBlockTableRecord
  2
*D12
340
0
 70
     0
280
     1
281
     0
  0
BLOCK_RECORD
  5
5B38
330
1
100
AcDbSymbolTableRecord
100
AcDbBlockTableRecord
  2
*D13
340
0
 70
     0
280
     1
281
     0
  0
BLOCK_RECORD
  5
5B49
330
1
100
AcDbSymbolTableRecord
100
AcDbBlockTableRecord
  2
*D14
340
0
 70
     0
280
     1
281
     0
  0
BLOCK_RECORD
  5
5B56
330
1
100
AcDbSymbolTableRecord
100
AcDbBlockTableRecord
  2
*D15
340
0
 70
     0
280
     1
281
     0
  0
BLOCK_RECORD
  5
5B66
330
1
100
AcDbSymbolTableRecord
100
AcDbBlockTableRecord
  2
*D16
340
0
 70
     0
280
     1
281
     0
  0
BLOCK_RECORD
  5
5B85
330
1
100
AcDbSymbolTableRecord
100
AcDbBlockTableRecord
  2
*D17
340
0
 70
     0
280
     1
281
     0
  0
BLOCK_RECORD
  5
5B9D
330
1
100
AcDbSymbolTableRecord
100
AcDbBlockTableRecord
  2
*D18
340
0
 70
     0
280
     1
281
     0
  0
BLOCK_RECORD
  5
644C
330
1
100
AcDbSymbolTableRecord
100
AcDbBlockTableRecord
  2
*D19
340
0
 70
     0
280
     1
281
     0
  0
BLOCK_RECORD
  5
6458
330
1
100
AcDbSymbolTableRecord
100
AcDbBlockTableRecord
  2
*D20
340
0
 70
     0
280
     1
281
     0
  0
BLOCK_RECORD
  5
6464
330
1
100
AcDbSymbolTableRecord
100
AcDbBlockTableRecord
  2
*D21
340
0
 70
     0
280
     1
281
     0
  0
BLOCK_RECORD
  5
6470
330
1
100
AcDbSymbolTableRecord
100
AcDbBlockTableRecord
  2
*D22
340
0
 70
     0
280
     1
281
     0
  0
BLOCK_RECORD
  5
647C
330
1
100
AcDbSymbolTableRecord
100
AcDbBlockTableRecord
  2
*D23
340
0
 70
     0
280
     1
281
     0
  0
BLOCK_RECORD
  5
6488
330
1
100
AcDbSymbolTableRecord
100
AcDbBlockTableRecord
  2
*D24
340
0
 70
     0
280
     1
281
     0
  0
BLOCK_RECORD
  5
6494
330
1
100
AcDbSymbolTableRecord
100
AcDbBlockTableRecord
  2
*D25
340
0
 70
     0
280
     1
281
     0
  0
BLOCK_RECORD
  5
64A0
330
1
100
AcDbSymbolTableRecord
100
AcDbBlockTableRecord
  2
*D26
340
0
 70
     0
280
     1
281
     0
  0
BLOCK_RECORD
  5
64AC
330
1
100
AcDbSymbolTableRecord
100
AcDbBlockTableRecord
  2
*D27
340
0
 70
     0
280
     1
281
     0
  0
BLOCK_RECORD
  5
64B8
330
1
100
AcDbSymbolTableRecord
100
AcDbBlockTableRecord
  2
*D28
340
0
 70
     0
280
     1
281
     0
  0
BLOCK_RECORD
  5
64C4
330
1
100
AcDbSymbolTableRecord
100
AcDbBlockTableRecord
  2
*D29
340
0
 70
     0
280
     1
281
     0
  0
BLOCK_RECORD
  5
6589
330
1
100
AcDbSymbolTableRecord
100
AcDbBlockTableRecord
  2
*D30
340
0
 70
     0
280
     1
281
     0
  0
BLOCK_RECORD
  5
6598
330
1
100
AcDbSymbolTableRecord
100
AcDbBlockTableRecord
  2
*D31
340
0
 70
     0
280
     1
281
     0
  0
BLOCK_RECORD
  5
65A8
330
1
100
AcDbSymbolTableRecord
100
AcDbBlockTableRecord
  2
*D32
340
0
 70
     0
280
     1
281
     0
  0
BLOCK_RECORD
  5
65B7
330
1
100
AcDbSymbolTableRecord
100
AcDbBlockTableRecord
  2
*D33
340
0
 70
     0
280
     1
281
     0
  0
BLOCK_RECORD
  5
65CA
330
1
100
AcDbSymbolTableRecord
100
AcDbBlockTableRecord
  2
*D34
340
0
 70
     0
280
     1
281
     0
  0
BLOCK_RECORD
  5
65D9
330
1
100
AcDbSymbolTableRecord
100
AcDbBlockTableRecord
  2
*D35
340
0
 70
     0
280
     1
281
     0
  0
BLOCK_RECORD
  5
65E6
330
1
100
AcDbSymbolTableRecord
100
AcDbBlockTableRecord
  2
*D36
340
0
 70
     0
280
     1
281
     0
  0
BLOCK_RECORD
  5
65F3
330
1
100
AcDbSymbolTableRecord
100
AcDbBlockTableRecord
  2
*D37
340
0
 70
     0
280
     1
281
     0
  0
BLOCK_RECORD
  5
6603
330
1
100
AcDbSymbolTableRecord
100
AcDbBlockTableRecord
  2
*D38
340
0
 70
     0
280
     1
281
     0
  0
BLOCK_RECORD
  5
66CC
330
1
100
AcDbSymbolTableRecord
100
AcDbBlockTableRecord
  2
*D39
340
0
 70
     0
280
     1
281
     0
  0
BLOCK_RECORD
  5
66D8
330
1
100
AcDbSymbolTableRecord
100
AcDbBlockTableRecord
  2
*D40
340
0
 70
     0
280
     1
281
     0
  0
BLOCK_RECORD
  5
67A4
330
1
100
AcDbSymbolTableRecord
100
AcDbBlockTableRecord
  2
*D42
340
0
 70
     0
280
     1
281
     0
  0
BLOCK_RECORD
  5
67B8
330
1
100
AcDbSymbolTableRecord
100
AcDbBlockTableRecord
  2
*D43
340
0
 70
     0
280
     1
281
     0
  0
BLOCK_RECORD
  5
67D6
330
1
100
AcDbSymbolTableRecord
100
AcDbBlockTableRecord
  2
*D44
340
0
 70
     0
280
     1
281
     0
  0
BLOCK_RECORD
  5
67E2
330
1
100
AcDbSymbolTableRecord
100
AcDbBlockTableRecord
  2
*D45
340
0
 70
     0
280
     1
281
     0
  0
ENDTAB
  0
ENDSEC
  0
SECTION
  2
BLOCKS
  0
BLOCK
  5
D
330
A
100
AcDbEntity
  8
0
390
1D
100
AcDbBlockBegin
  2
*MODEL_SPACE
 70
     0
 10
0.0
 20
0.0
 30
0.0
  3
*MODEL_SPACE
  1
*MODEL_SPACE
  0
ENDBLK
  5
E
330
A
100
AcDbEntity
  8
0
390
1D
100
AcDbBlockEnd
  0
BLOCK
  5
F
330
B
100
AcDbEntity
 67
     1
  8
0
390
1D
100
AcDbBlockBegin
  2
*PAPER_SPACE
 70
     0
 10
0.0
 20
0.0
 30
0.0
  3
*PAPER_SPACE
  1
*PAPER_SPACE
  0
ENDBLK
  5
10
330
B
100
AcDbEntity
 67
     1
  8
0
390
1D
100
AcDbBlockEnd
  0
BLOCK
  5
1066
330
4E
100
AcDbEntity
  8
0
390
1D
100
AcDbBlockBegin
  2
_DOT
 70
     0
 10
0.0
 20
0.0
 30
0.0
  3
_DOT
  1
_DOT
  0
POLYLINE
  5
1068
330
4E
100
AcDbEntity
  8
0
  6
ByBlock
 62
     0
370
    -2
390
1D
100
AcDb2dPolyline
 66
     1
 10
0.0
 20
0.0
 30
0.0
 70
     1
 40
0.5
 41
0.5
  0
VERTEX
  5
1069
330
1068
100
AcDbEntity
  8
0
  6
ByBlock
 62
     0
370
    -2
390
1D
100
AcDbVertex
100
AcDb2dVertex
 10
-0.25
 20
0.0
 30
0.0
 42
1.0
  0
VERTEX
  5
106A
330
1068
100
AcDbEntity
  8
0
  6
ByBlock
 62
     0
370
    -2
390
1D
100
AcDbVertex
100
AcDb2dVertex
 10
0.25
 20
0.0
 30
0.0
 42
1.0
  0
SEQEND
  5
106B
330
1068
100
AcDbEntity
  8
0
390
1D
  0
LINE
  5
106C
330
4E
100
AcDbEntity
  8
0
  6
ByBlock
 62
     0
370
    -2
390
1D
100
AcDbLine
 10
-0.5
 20
0.0
 30
0.0
 11
-1.0
 21
0.0
 31
0.0
  0
ENDBLK
  5
106D
330
4E
100
AcDbEntity
  8
0
390
1D
100
AcDbBlockEnd
  0
BLOCK
  5
12C5
330
12C3
100
AcDbEntity
  8
0
100
AcDbBlockBegin
  2
*Paper_Space1
 70
     0
 10
0.0
 20
0.0
 30
0.0
  3
*Paper_Space1
  1
*Paper_Space83
  0
ENDBLK
  5
12C6
330
12C3
100
AcDbEntity
  8
0
100
AcDbBlockEnd
  0
BLOCK
  5
1D89
330
1D88
100
AcDbEntity
  8
0
100
AcDbBlockBegin
  2
名称未設定-1
 70
     0
 10
0.0
 20
0.0
 30
0.0
  3
名称未設定-1
  1
名称未設定-1
  0
INSERT
  5
1D8A
330
1D88
100
AcDbEntity
  8
TFORMLOGO
100
AcDbBlockReference
  2
block 2
 10
0.0
 20
0.0
 30
0.0
  0
ENDBLK
  5
1DAF
330
1D88
100
AcDbEntity
  8
0
100
AcDbBlockEnd
  0
BLOCK
  5
1D8C
330
1D8B
100
AcDbEntity
  8
0
100
AcDbBlockBegin
  2
block 2
 70
     0
 10
0.0
 20
0.0
 30
0.0
  3
block 2
  1
block 2
  0
INSERT
  5
1D8D
330
1D8B
100
AcDbEntity
  8
TFORMLOGO
100
AcDbBlockReference
  2
block 3
 10
0.0
 20
0.0
 30
0.0
  0
ENDBLK
  5
1DAE
330
1D8B
100
AcDbEntity
  8
0
100
AcDbBlockEnd
  0
BLOCK
  5
1D8F
330
1D8E
100
AcDbEntity
  8
0
100
AcDbBlockBegin
  2
block 3
 70
     0
 10
0.0
 20
0.0
 30
0.0
  3
block 3
  1
block 3
  0
INSERT
  5
1D90
330
1D8E
100
AcDbEntity
  8
TFORMLOGO
100
AcDbBlockReference
  2
block 4
 10
0.0
 20
0.0
 30
0.0
  0
ENDBLK
  5
1DAD
330
1D8E
100
AcDbEntity
  8
0
100
AcDbBlockEnd
  0
BLOCK
  5
1D92
330
1D91
100
AcDbEntity
  8
0
100
AcDbBlockBegin
  2
block 4
 70
     0
 10
0.0
 20
0.0
 30
0.0
  3
block 4
  1
block 4
  0
POLYLINE
  5
1D93
330
1D91
100
AcDbEntity
  8
TFORMLOGO
370
     0
100
AcDb2dPolyline
 66
     1
 10
0.0
 20
0.0
 30
0.0
  0
VERTEX
  5
1D94
330
1D93
100
AcDbEntity
  8
TFORMLOGO
370
     0
100
AcDbVertex
100
AcDb2dVertex
 10
83.79545727667795
 20
167.6444858234922
 30
0.0
  0
VERTEX
  5
1D95
330
1D93
100
AcDbEntity
  8
TFORMLOGO
370
     0
100
AcDbVertex
100
AcDb2dVertex
 10
83.79545727667795
 20
159.7968976406313
 30
0.0
  0
VERTEX
  5
1D96
330
1D93
100
AcDbEntity
  8
TFORMLOGO
370
     0
100
AcDbVertex
100
AcDb2dVertex
 10
71.3631329975216
 20
159.7968976406313
 30
0.0
  0
VERTEX
  5
1D97
330
1D93
100
AcDbEntity
  8
TFORMLOGO
370
     0
100
AcDbVertex
100
AcDb2dVertex
 10
71.3631329975216
 20
127.8027915271048
 30
0.0
  0
VERTEX
  5
1D98
330
1D93
100
AcDbEntity
  8
TFORMLOGO
370
     0
100
AcDbVertex
100
AcDb2dVertex
 10
60.43011526263018
 20
127.8027915271048
 30
0.0
  0
VERTEX
  5
1D99
330
1D93
100
AcDbEntity
  8
TFORMLOGO
370
     0
100
AcDbVertex
100
AcDb2dVertex
 10
60.43011526263018
 20
159.7968976406313
 30
0.0
  0
VERTEX
  5
1D9A
330
1D93
100
AcDbEntity
  8
TFORMLOGO
370
     0
100
AcDbVertex
100
AcDb2dVertex
 10
48.21793273020759
 20
159.7968976406313
 30
0.0
  0
VERTEX
  5
1D9B
330
1D93
100
AcDbEntity
  8
TFORMLOGO
370
     0
100
AcDbVertex
100
AcDb2dVertex
 10
48.21793273020759
 20
167.6444858234922
 30
0.0
  0
VERTEX
  5
1D9C
330
1D93
100
AcDbEntity
  8
TFORMLOGO
370
     0
100
AcDbVertex
100
AcDb2dVertex
 10
83.79545727667795
 20
167.6444858234922
 30
0.0
  0
SEQEND
  5
1D9D
330
1D93
100
AcDbEntity
  8
TFORMLOGO
370
     0
  0
HATCH
  5
1D9E
330
1D91
100
AcDbEntity
  8
TFORMLOGO
 62
   250
420
  2234388
100
AcDbHatch
 10
0.0
 20
0.0
 30
0.0
210
0.0
220
0.0
230
1.0
  2
SOLID
 70
     1
 71
     0
 91
        1
 92
        1
 93
        8
 72
     1
 10
83.79545727667795
 20
167.6444858234922
 11
83.79545727667795
 21
159.7968976406313
 72
     1
 10
83.79545727667795
 20
159.7968976406313
 11
71.3631329975216
 21
159.7968976406313
 72
     1
 10
71.3631329975216
 20
159.7968976406313
 11
71.3631329975216
 21
127.8027915271048
 72
     1
 10
71.3631329975216
 20
127.8027915271048
 11
60.43011526263018
 21
127.8027915271048
 72
     1
 10
60.43011526263018
 20
127.8027915271048
 11
60.43011526263018
 21
159.7968976406313
 72
     1
 10
60.43011526263018
 20
159.7968976406313
 11
48.21793273020759
 21
159.7968976406313
 72
     1
 10
48.21793273020759
 20
159.7968976406313
 11
48.21793273020759
 21
167.6444858234922
 72
     1
 10
48.21793273020759
 20
167.6444858234922
 11
83.79545727667795
 21
167.6444858234922
 97
        0
 75
     2
 76
     1
 98
        0
  0
INSERT
  5
1D9F
330
1D91
100
AcDbEntity
  8
TFORMLOGO
100
AcDbBlockReference
  2
block 5
 10
0.0
 20
0.0
 30
0.0
  0
ENDBLK
  5
1DAC
330
1D91
100
AcDbEntity
  8
0
100
AcDbBlockEnd
  0
BLOCK
  5
1DA1
330
1DA0
100
AcDbEntity
  8
0
100
AcDbBlockBegin
  2
block 5
 70
     0
 10
0.0
 20
0.0
 30
0.0
  3
block 5
  1
block 5
  0
SPLINE
  5
1DA2
330
1DA0
100
AcDbEntity
  8
TFORMLOGO
370
     0
100
AcDbSpline
210
0.0
220
0.0
230
1.0
 70
    11
 71
     3
 72
    56
 73
    52
 74
     0
 42
0.000000001
 43
0.0000000001
 40
0.0
 40
0.0
 40
0.0
 40
0.0
 40
1.0
 40
1.0
 40
1.0
 40
2.0
 40
2.0
 40
2.0
 40
3.0
 40
3.0
 40
3.0
 40
4.0
 40
4.0
 40
4.0
 40
5.0
 40
5.0
 40
5.0
 40
6.0
 40
6.0
 40
6.0
 40
7.0
 40
7.0
 40
7.0
 40
8.0
 40
8.0
 40
8.0
 40
9.0
 40
9.0
 40
9.0
 40
10.0
 40
10.0
 40
10.0
 40
11.0
 40
11.0
 40
11.0
 40
12.0
 40
12.0
 40
12.0
 40
13.0
 40
13.0
 40
13.0
 40
14.0
 40
14.0
 40
14.0
 40
15.0
 40
15.0
 40
15.0
 40
16.0
 40
16.0
 40
16.0
 40
17.0
 40
17.0
 40
17.0
 40
17.0
 10
100.4504378777679
 20
166.69157178364
 30
0.0
 10
101.9848844191641
 20
167.1313385124438
 30
0.0
 10
103.9637485713373
 20
166.7649523658846
 30
0.0
 10
103.9637485713373
 20
166.7649523658846
 30
0.0
 10
103.9637485713373
 20
166.7649523658846
 30
0.0
 10
103.0132460999156
 20
163.911205638077
 30
0.0
 10
103.0132460999156
 20
163.911205638077
 30
0.0
 10
103.0132460999156
 20
163.911205638077
 30
0.0
 10
101.0674548862189
 20
164.3601018759394
 30
0.0
 10
99.57090442016032
 20
163.1805004036133
 30
0.0
 10
98.40508333886608
 20
162.258247733807
 30
0.0
 10
97.65301849830304
 20
159.804132345923
 30
0.0
 10
97.3598406791005
 20
158.8699940888517
 30
0.0
 10
97.3598406791005
 20
158.8699940888517
 30
0.0
 10
96.07137411762282
 20
154.9119212747295
 30
0.0
 10
96.07137411762282
 20
154.9119212747295
 30
0.0
 10
96.07137411762282
 20
154.9119212747295
 30
0.0
 10
100.3012651448482
 20
154.9119212747295
 30
0.0
 10
100.3012651448482
 20
154.9119212747295
 30
0.0
 10
100.3012651448482
 20
154.9119212747295
 30
0.0
 10
99.64152892419852
 20
152.4199098115079
 30
0.0
 10
99.64152892419852
 20
152.4199098115079
 30
0.0
 10
99.64152892419852
 20
152.4199098115079
 30
0.0
 10
95.38097652692731
 20
152.4199098115079
 30
0.0
 10
95.38097652692731
 20
152.4199098115079
 30
0.0
 10
95.38097652692731
 20
152.4199098115079
 30
0.0
 10
87.75353009080013
 20
127.8027915271048
 30
0.0
 10
87.75353009080013
 20
127.8027915271048
 30
0.0
 10
87.75353009080013
 20
127.8027915271048
 30
0.0
 10
85.36538832498108
 20
127.8027915271048
 30
0.0
 10
85.36538832498108
 20
127.8027915271048
 30
0.0
 10
85.36538832498108
 20
127.8027915271048
 30
0.0
 10
93.00006946639998
 20
152.4199098115079
 30
0.0
 10
93.00006946639998
 20
152.4199098115079
 30
0.0
 10
93.00006946639998
 20
152.4199098115079
 30
0.0
 10
89.85297266450198
 20
152.4199098115079
 30
0.0
 10
89.85297266450198
 20
152.4199098115079
 30
0.0
 10
89.85297266450198
 20
152.4199098115079
 30
0.0
 10
90.51270888515164
 20
154.9119212747295
 30
0.0
 10
90.51270888515164
 20
154.9119212747295
 30
0.0
 10
90.51270888515164
 20
154.9119212747295
 30
0.0
 10
93.6904670570955
 20
154.9119212747295
 30
0.0
 10
93.6904670570955
 20
154.9119212747295
 30
0.0
 10
93.6904670570955
 20
154.9119212747295
 30
0.0
 10
94.81598049462158
 20
158.3616699146644
 30
0.0
 10
94.81598049462158
 20
158.3616699146644
 30
0.0
 10
95.7237637538445
 20
161.2605474231013
 30
0.0
 10
96.4968436907311
 20
162.8139420021662
 30
0.0
 10
97.15657991138076
 20
163.9844139654337
 30
0.0
 10
97.81183750494507
 20
165.1523021053827
 30
0.0
 10
99.1047826935081
 20
166.3084769129547
 30
0.0
 10
100.4504378777679
 20
166.69157178364
 30
0.0
  0
HATCH
  5
1DA3
330
1DA0
100
AcDbEntity
  8
TFORMLOGO
 62
   250
420
  2234388
100
AcDbHatch
 10
0.0
 20
0.0
 30
0.0
210
0.0
220
0.0
230
1.0
  2
SOLID
 70
     1
 71
     0
 91
        1
 92
        1
 93
        1
 72
     4
 94
        3
 73
     0
 74
     1
 95
       56
 96
       52
 40
0.0
 40
0.0
 40
0.0
 40
0.0
 40
1.0
 40
1.0
 40
1.0
 40
2.0
 40
2.0
 40
2.0
 40
3.0
 40
3.0
 40
3.0
 40
4.0
 40
4.0
 40
4.0
 40
5.0
 40
5.0
 40
5.0
 40
6.0
 40
6.0
 40
6.0
 40
7.0
 40
7.0
 40
7.0
 40
8.0
 40
8.0
 40
8.0
 40
9.0
 40
9.0
 40
9.0
 40
10.0
 40
10.0
 40
10.0
 40
11.0
 40
11.0
 40
11.0
 40
12.0
 40
12.0
 40
12.0
 40
13.0
 40
13.0
 40
13.0
 40
14.0
 40
14.0
 40
14.0
 40
15.0
 40
15.0
 40
15.0
 40
16.0
 40
16.0
 40
16.0
 40
17.0
 40
17.0
 40
17.0
 40
17.0
 10
100.4504378777679
 20
166.69157178364
 10
101.9848844191641
 20
167.1313385124438
 10
103.9637485713373
 20
166.7649523658846
 10
103.9637485713373
 20
166.7649523658846
 10
103.9637485713373
 20
166.7649523658846
 10
103.0132460999156
 20
163.911205638077
 10
103.0132460999156
 20
163.911205638077
 10
103.0132460999156
 20
163.911205638077
 10
101.0674548862189
 20
164.3601018759394
 10
99.57090442016032
 20
163.1805004036133
 10
98.40508333886608
 20
162.258247733807
 10
97.65301849830304
 20
159.804132345923
 10
97.3598406791005
 20
158.8699940888517
 10
97.3598406791005
 20
158.8699940888517
 10
96.07137411762282
 20
154.9119212747295
 10
96.07137411762282
 20
154.9119212747295
 10
96.07137411762282
 20
154.9119212747295
 10
100.3012651448482
 20
154.9119212747295
 10
100.3012651448482
 20
154.9119212747295
 10
100.3012651448482
 20
154.9119212747295
 10
99.64152892419852
 20
152.4199098115079
 10
99.64152892419852
 20
152.4199098115079
 10
99.64152892419852
 20
152.4199098115079
 10
95.38097652692731
 20
152.4199098115079
 10
95.38097652692731
 20
152.4199098115079
 10
95.38097652692731
 20
152.4199098115079
 10
87.75353009080013
 20
127.8027915271048
 10
87.75353009080013
 20
127.8027915271048
 10
87.75353009080013
 20
127.8027915271048
 10
85.36538832498108
 20
127.8027915271048
 10
85.36538832498108
 20
127.8027915271048
 10
85.36538832498108
 20
127.8027915271048
 10
93.00006946639998
 20
152.4199098115079
 10
93.00006946639998
 20
152.4199098115079
 10
93.00006946639998
 20
152.4199098115079
 10
89.85297266450198
 20
152.4199098115079
 10
89.85297266450198
 20
152.4199098115079
 10
89.85297266450198
 20
152.4199098115079
 10
90.51270888515164
 20
154.9119212747295
 10
90.51270888515164
 20
154.9119212747295
 10
90.51270888515164
 20
154.9119212747295
 10
93.6904670570955
 20
154.9119212747295
 10
93.6904670570955
 20
154.9119212747295
 10
93.6904670570955
 20
154.9119212747295
 10
94.81598049462158
 20
158.3616699146644
 10
94.81598049462158
 20
158.3616699146644
 10
95.7237637538445
 20
161.2605474231013
 10
96.4968436907311
 20
162.8139420021662
 10
97.15657991138076
 20
163.9844139654337
 10
97.81183750494507
 20
165.1523021053827
 10
99.1047826935081
 20
166.3084769129547
 10
100.4504378777679
 20
166.69157178364
 97
        0
 75
     2
 76
     1
 98
        0
  0
SPLINE
  5
1DA4
330
1DA0
100
AcDbEntity
  8
TFORMLOGO
370
     0
100
AcDbSpline
210
0.0
220
0.0
230
1.0
 70
    11
 71
     3
 72
    38
 73
    34
 74
     0
 42
0.000000001
 43
0.0000000001
 40
0.0
 40
0.0
 40
0.0
 40
0.0
 40
1.0
 40
1.0
 40
1.0
 40
2.0
 40
2.0
 40
2.0
 40
3.0
 40
3.0
 40
3.0
 40
4.0
 40
4.0
 40
4.0
 40
5.0
 40
5.0
 40
5.0
 40
6.0
 40
6.0
 40
6.0
 40
7.0
 40
7.0
 40
7.0
 40
8.0
 40
8.0
 40
8.0
 40
9.0
 40
9.0
 40
9.0
 40
10.0
 40
10.0
 40
10.0
 40
11.0
 40
11.0
 40
11.0
 40
11.0
 10
126.377554584636
 20
154.8151140277308
 30
0.0
 10
126.377554584636
 20
154.8151140277308
 30
0.0
 10
128.8311532078563
 20
154.8151140277308
 30
0.0
 10
128.8311532078563
 20
154.8151140277308
 30
0.0
 10
128.8311532078563
 20
154.8151140277308
 30
0.0
 10
127.7345785914971
 20
151.3062819612468
 30
0.0
 10
127.7345785914971
 20
151.3062819612468
 30
0.0
 10
128.571392836906
 20
152.2922689395754
 30
0.0
 10
129.8860421413442
 20
153.604506675583
 30
0.0
 10
131.0163787157314
 20
154.2664822097754
 30
0.0
 10
132.7044766171327
 20
155.2500576196734
 30
0.0
 10
133.6642808525008
 20
155.3847609420097
 30
0.0
 10
134.7284715499351
 20
155.3565111403944
 30
0.0
 10
134.7284715499351
 20
155.3565111403944
 30
0.0
 10
133.6877075172549
 20
152.0345756272799
 30
0.0
 10
133.6877075172549
 20
152.0345756272799
 30
0.0
 10
133.011434827367
 20
152.3184516825359
 30
0.0
 10
130.930940291334
 20
151.7768823149844
 30
0.0
 10
129.739280976855
 20
150.9162968950455
 30
0.0
 10
128.66613302525
 20
150.1454562717016
 30
0.0
 10
127.9192358313239
 20
149.4857200510519
 30
0.0
 10
127.0393578639405
 20
147.8282835196966
 30
0.0
 10
126.164647543194
 20
146.1699857139017
 30
0.0
 10
125.4742499524985
 20
143.5262176944419
 30
0.0
 10
124.2822461282437
 20
139.6959580071401
 30
0.0
 10
124.2822461282437
 20
139.6959580071401
 30
0.0
 10
120.5753209406769
 20
127.8027915271048
 30
0.0
 10
120.5753209406769
 20
127.8027915271048
 30
0.0
 10
120.5753209406769
 20
127.8027915271048
 30
0.0
 10
118.1964809388044
 20
127.8027915271048
 30
0.0
 10
118.1964809388044
 20
127.8027915271048
 30
0.0
 10
118.1964809388044
 20
127.8027915271048
 30
0.0
 10
126.377554584636
 20
154.8151140277308
 30
0.0
 10
126.377554584636
 20
154.8151140277308
 30
0.0
  0
HATCH
  5
1DA5
330
1DA0
100
AcDbEntity
  8
TFORMLOGO
 62
   250
420
  2234388
100
AcDbHatch
 10
0.0
 20
0.0
 30
0.0
210
0.0
220
0.0
230
1.0
  2
SOLID
 70
     1
 71
     0
 91
        1
 92
        1
 93
        1
 72
     4
 94
        3
 73
     0
 74
     1
 95
       38
 96
       34
 40
0.0
 40
0.0
 40
0.0
 40
0.0
 40
1.0
 40
1.0
 40
1.0
 40
2.0
 40
2.0
 40
2.0
 40
3.0
 40
3.0
 40
3.0
 40
4.0
 40
4.0
 40
4.0
 40
5.0
 40
5.0
 40
5.0
 40
6.0
 40
6.0
 40
6.0
 40
7.0
 40
7.0
 40
7.0
 40
8.0
 40
8.0
 40
8.0
 40
9.0
 40
9.0
 40
9.0
 40
10.0
 40
10.0
 40
10.0
 40
11.0
 40
11.0
 40
11.0
 40
11.0
 10
126.377554584636
 20
154.8151140277308
 10
126.377554584636
 20
154.8151140277308
 10
128.8311532078563
 20
154.8151140277308
 10
128.8311532078563
 20
154.8151140277308
 10
128.8311532078563
 20
154.8151140277308
 10
127.7345785914971
 20
151.3062819612468
 10
127.7345785914971
 20
151.3062819612468
 10
128.571392836906
 20
152.2922689395754
 10
129.8860421413442
 20
153.604506675583
 10
131.0163787157314
 20
154.2664822097754
 10
132.7044766171327
 20
155.2500576196734
 10
133.6642808525008
 20
155.3847609420097
 10
134.7284715499351
 20
155.3565111403944
 10
134.7284715499351
 20
155.3565111403944
 10
133.6877075172549
 20
152.0345756272799
 10
133.6877075172549
 20
152.0345756272799
 10
133.011434827367
 20
152.3184516825359
 10
130.930940291334
 20
151.7768823149844
 10
129.739280976855
 20
150.9162968950455
 10
128.66613302525
 20
150.1454562717016
 10
127.9192358313239
 20
149.4857200510519
 10
127.0393578639405
 20
147.8282835196966
 10
126.164647543194
 20
146.1699857139017
 10
125.4742499524985
 20
143.5262176944419
 10
124.2822461282437
 20
139.6959580071401
 10
124.2822461282437
 20
139.6959580071401
 10
120.5753209406769
 20
127.8027915271048
 10
120.5753209406769
 20
127.8027915271048
 10
120.5753209406769
 20
127.8027915271048
 10
118.1964809388044
 20
127.8027915271048
 10
118.1964809388044
 20
127.8027915271048
 10
118.1964809388044
 20
127.8027915271048
 10
126.377554584636
 20
154.8151140277308
 10
126.377554584636
 20
154.8151140277308
 97
        0
 75
     2
 76
     1
 98
        0
  0
SPLINE
  5
1DA6
330
1DA0
100
AcDbEntity
  8
TFORMLOGO
370
     0
100
AcDbSpline
210
0.0
220
0.0
230
1.0
 70
    11
 71
     3
 72
   104
 73
   100
 74
     0
 42
0.000000001
 43
0.0000000001
 40
0.0
 40
0.0
 40
0.0
 40
0.0
 40
1.0
 40
1.0
 40
1.0
 40
2.0
 40
2.0
 40
2.0
 40
3.0
 40
3.0
 40
3.0
 40
4.0
 40
4.0
 40
4.0
 40
5.0
 40
5.0
 40
5.0
 40
6.0
 40
6.0
 40
6.0
 40
7.0
 40
7.0
 40
7.0
 40
8.0
 40
8.0
 40
8.0
 40
9.0
 40
9.0
 40
9.0
 40
10.0
 40
10.0
 40
10.0
 40
11.0
 40
11.0
 40
11.0
 40
12.0
 40
12.0
 40
12.0
 40
13.0
 40
13.0
 40
13.0
 40
14.0
 40
14.0
 40
14.0
 40
15.0
 40
15.0
 40
15.0
 40
16.0
 40
16.0
 40
16.0
 40
17.0
 40
17.0
 40
17.0
 40
18.0
 40
18.0
 40
18.0
 40
19.0
 40
19.0
 40
19.0
 40
20.0
 40
20.0
 40
20.0
 40
21.0
 40
21.0
 40
21.0
 40
22.0
 40
22.0
 40
22.0
 40
23.0
 40
23.0
 40
23.0
 40
24.0
 40
24.0
 40
24.0
 40
25.0
 40
25.0
 40
25.0
 40
26.0
 40
26.0
 40
26.0
 40
27.0
 40
27.0
 40
27.0
 40
28.0
 40
28.0
 40
28.0
 40
29.0
 40
29.0
 40
29.0
 40
30.0
 40
30.0
 40
30.0
 40
31.0
 40
31.0
 40
31.0
 40
32.0
 40
32.0
 40
32.0
 40
33.0
 40
33.0
 40
33.0
 40
33.0
 10
139.8926730891197
 20
154.8294111834263
 30
0.0
 10
139.8926730891197
 20
154.8294111834263
 30
0.0
 10
142.0344903652445
 20
154.8294111834263
 30
0.0
 10
142.0344903652445
 20
154.8294111834263
 30
0.0
 10
142.0344903652445
 20
154.8294111834263
 30
0.0
 10
140.9516961399171
 20
151.3157559800812
 30
0.0
 10
140.9516961399171
 20
151.3157559800812
 30
0.0
 10
141.8928968473923
 20
152.7887075264977
 30
0.0
 10
142.7341897198865
 20
153.4484437471474
 30
0.0
 10
143.8552245303272
 20
154.2926649527359
 30
0.0
 10
144.9803934580775
 20
155.1296514530327
 30
0.0
 10
146.3139908001845
 20
155.3044901642492
 30
0.0
 10
147.241066606852
 20
155.3044901642492
 30
0.0
 10
148.3855280820469
 20
155.3044901642492
 30
0.0
 10
149.4969166187653
 20
155.0752189084569
 30
0.0
 10
150.0784491203092
 20
153.8172414621372
 30
0.0
 10
150.5228667310863
 20
152.833838307127
 30
0.0
 10
150.5414702589793
 20
152.7201500811143
 30
0.0
 10
150.4140016419347
 20
150.7765981809602
 30
0.0
 10
151.5818897818837
 20
152.7699317437168
 30
0.0
 10
152.4424752018226
 20
153.6256940267945
 30
0.0
 10
153.9038856707499
 20
154.4507949398263
 30
0.0
 10
155.4455669174378
 20
155.3044901642492
 30
0.0
 10
156.339225275853
 20
155.3659851592288
 30
0.0
 10
157.3748216618963
 20
155.2147453676543
 30
0.0
 10
158.911679771723
 20
154.9877134254046
 30
0.0
 10
159.8859534176746
 20
154.4390816074493
 30
0.0
 10
160.3965169054045
 20
152.7816450760939
 30
0.0
 10
160.9070803931344
 20
151.1219692311958
 30
0.0
 10
160.6328506116007
 20
150.2303779314354
 30
0.0
 10
159.9992971339115
 20
147.597634224801
 30
0.0
 10
159.7105979417943
 20
146.4014962832367
 30
0.0
 10
159.2947746424084
 20
144.9400858143094
 30
0.0
 10
158.7463150793409
 20
143.2092687007094
 30
0.0
 10
158.7463150793409
 20
143.2092687007094
 30
0.0
 10
153.9038856707499
 20
127.8027915271048
 30
0.0
 10
153.9038856707499
 20
127.8027915271048
 30
0.0
 10
153.9038856707499
 20
127.8027915271048
 30
0.0
 10
151.3882752878863
 20
127.8027915271048
 30
0.0
 10
151.3882752878863
 20
127.8027915271048
 30
0.0
 10
151.3882752878863
 20
127.8027915271048
 30
0.0
 10
155.6250565106276
 20
141.2751908193897
 30
0.0
 10
155.6250565106276
 20
141.2751908193897
 30
0.0
 10
156.5094131050963
 20
144.0936252951782
 30
0.0
 10
157.109893644309
 20
146.1506931664571
 30
0.0
 10
157.4220195011804
 20
147.4415712963654
 30
0.0
 10
157.8095929989511
 20
149.0530157726519
 30
0.0
 10
157.9656559273867
 20
149.5826995529385
 30
0.0
 10
157.7816877071116
 20
150.7529992613181
 30
0.0
 10
157.6111553680925
 20
151.8430281919372
 30
0.0
 10
157.0582171779396
 20
152.5547853887321
 30
0.0
 10
156.1170164704645
 20
152.5547853887321
 30
0.0
 10
155.1096698860365
 20
152.5547853887321
 30
0.0
 10
154.2962823053817
 20
152.4412694176073
 30
0.0
 10
153.156643967048
 20
151.2945686288697
 30
0.0
 10
152.0170056287143
 20
150.1476955852443
 30
0.0
 10
151.076149431015
 20
148.7930831468137
 30
0.0
 10
150.3337308641742
 20
147.2290087646991
 30
0.0
 10
149.5957909244188
 20
145.6683794803425
 30
0.0
 10
148.8530278478023
 20
143.6822806228776
 30
0.0
 10
148.0964843801539
 20
141.2751908193897
 30
0.0
 10
148.0964843801539
 20
141.2751908193897
 30
0.0
 10
143.8552245303272
 20
127.8027915271048
 30
0.0
 10
143.8552245303272
 20
127.8027915271048
 30
0.0
 10
143.8552245303272
 20
127.8027915271048
 30
0.0
 10
141.486030802177
 20
127.8027915271048
 30
0.0
 10
141.486030802177
 20
127.8027915271048
 30
0.0
 10
141.486030802177
 20
127.8027915271048
 30
0.0
 10
146.3329388378533
 20
143.2092687007094
 30
0.0
 10
146.3329388378533
 20
143.2092687007094
 30
0.0
 10
146.8483254624444
 20
144.8408669988801
 30
0.0
 10
147.2314203331297
 20
146.1837661049335
 30
0.0
 10
147.4867020769946
 20
147.224185627838
 30
0.0
 10
147.9169947869641
 20
149.0197705792876
 30
0.0
 10
148.0306830129768
 20
150.2400242051577
 30
0.0
 10
147.709255392159
 20
151.3157559800812
 30
0.0
 10
147.3874832615654
 20
152.3916600098926
 30
0.0
 10
146.8245542879144
 20
152.6683013598569
 30
0.0
 10
145.8840425999909
 20
152.6683013598569
 30
0.0
 10
145.0989048209514
 20
152.6683013598569
 30
0.0
 10
144.3282364524954
 20
152.3275811915945
 30
0.0
 10
143.4531816219731
 20
151.6538923250251
 30
0.0
 10
142.34627171234
 20
150.8074318058939
 30
0.0
 10
141.901854101563
 20
150.1097995099067
 30
0.0
 10
141.3578731655808
 20
149.289521733736
 30
0.0
 10
140.6299240093235
 20
148.192602607601
 30
0.0
 10
140.2850697237515
 20
147.455696197173
 30
0.0
 10
139.6652966370942
 20
145.8385673095858
 30
0.0
 10
139.0506911970739
 20
144.2214384219986
 30
0.0
 10
138.463991048893
 20
142.3252566160164
 30
0.0
 10
138.0571250036777
 20
141.0154304484394
 30
0.0
 10
138.0571250036777
 20
141.0154304484394
 30
0.0
 10
133.9009590684727
 20
127.8027915271048
 30
0.0
 10
133.9009590684727
 20
127.8027915271048
 30
0.0
 10
133.9009590684727
 20
127.8027915271048
 30
0.0
 10
131.4180771143097
 20
127.8027915271048
 30
0.0
 10
131.4180771143097
 20
127.8027915271048
 30
0.0
 10
131.4180771143097
 20
127.8027915271048
 30
0.0
 10
139.8926730891197
 20
154.8294111834263
 30
0.0
 10
139.8926730891197
 20
154.8294111834263
 30
0.0
  0
HATCH
  5
1DA7
330
1DA0
100
AcDbEntity
  8
TFORMLOGO
 62
   250
420
  2234388
100
AcDbHatch
 10
0.0
 20
0.0
 30
0.0
210
0.0
220
0.0
230
1.0
  2
SOLID
 70
     1
 71
     0
 91
        1
 92
        1
 93
        1
 72
     4
 94
        3
 73
     0
 74
     1
 95
      104
 96
      100
 40
0.0
 40
0.0
 40
0.0
 40
0.0
 40
1.0
 40
1.0
 40
1.0
 40
2.0
 40
2.0
 40
2.0
 40
3.0
 40
3.0
 40
3.0
 40
4.0
 40
4.0
 40
4.0
 40
5.0
 40
5.0
 40
5.0
 40
6.0
 40
6.0
 40
6.0
 40
7.0
 40
7.0
 40
7.0
 40
8.0
 40
8.0
 40
8.0
 40
9.0
 40
9.0
 40
9.0
 40
10.0
 40
10.0
 40
10.0
 40
11.0
 40
11.0
 40
11.0
 40
12.0
 40
12.0
 40
12.0
 40
13.0
 40
13.0
 40
13.0
 40
14.0
 40
14.0
 40
14.0
 40
15.0
 40
15.0
 40
15.0
 40
16.0
 40
16.0
 40
16.0
 40
17.0
 40
17.0
 40
17.0
 40
18.0
 40
18.0
 40
18.0
 40
19.0
 40
19.0
 40
19.0
 40
20.0
 40
20.0
 40
20.0
 40
21.0
 40
21.0
 40
21.0
 40
22.0
 40
22.0
 40
22.0
 40
23.0
 40
23.0
 40
23.0
 40
24.0
 40
24.0
 40
24.0
 40
25.0
 40
25.0
 40
25.0
 40
26.0
 40
26.0
 40
26.0
 40
27.0
 40
27.0
 40
27.0
 40
28.0
 40
28.0
 40
28.0
 40
29.0
 40
29.0
 40
29.0
 40
30.0
 40
30.0
 40
30.0
 40
31.0
 40
31.0
 40
31.0
 40
32.0
 40
32.0
 40
32.0
 40
33.0
 40
33.0
 40
33.0
 40
33.0
 10
139.8926730891197
 20
154.8294111834263
 10
139.8926730891197
 20
154.8294111834263
 10
142.0344903652445
 20
154.8294111834263
 10
142.0344903652445
 20
154.8294111834263
 10
142.0344903652445
 20
154.8294111834263
 10
140.9516961399171
 20
151.3157559800812
 10
140.9516961399171
 20
151.3157559800812
 10
141.8928968473923
 20
152.7887075264977
 10
142.7341897198865
 20
153.4484437471474
 10
143.8552245303272
 20
154.2926649527359
 10
144.9803934580775
 20
155.1296514530327
 10
146.3139908001845
 20
155.3044901642492
 10
147.241066606852
 20
155.3044901642492
 10
148.3855280820469
 20
155.3044901642492
 10
149.4969166187653
 20
155.0752189084569
 10
150.0784491203092
 20
153.8172414621372
 10
150.5228667310863
 20
152.833838307127
 10
150.5414702589793
 20
152.7201500811143
 10
150.4140016419347
 20
150.7765981809602
 10
151.5818897818837
 20
152.7699317437168
 10
152.4424752018226
 20
153.6256940267945
 10
153.9038856707499
 20
154.4507949398263
 10
155.4455669174378
 20
155.3044901642492
 10
156.339225275853
 20
155.3659851592288
 10
157.3748216618963
 20
155.2147453676543
 10
158.911679771723
 20
154.9877134254046
 10
159.8859534176746
 20
154.4390816074493
 10
160.3965169054045
 20
152.7816450760939
 10
160.9070803931344
 20
151.1219692311958
 10
160.6328506116007
 20
150.2303779314354
 10
159.9992971339115
 20
147.597634224801
 10
159.7105979417943
 20
146.4014962832367
 10
159.2947746424084
 20
144.9400858143094
 10
158.7463150793409
 20
143.2092687007094
 10
158.7463150793409
 20
143.2092687007094
 10
153.9038856707499
 20
127.8027915271048
 10
153.9038856707499
 20
127.8027915271048
 10
153.9038856707499
 20
127.8027915271048
 10
151.3882752878863
 20
127.8027915271048
 10
151.3882752878863
 20
127.8027915271048
 10
151.3882752878863
 20
127.8027915271048
 10
155.6250565106276
 20
141.2751908193897
 10
155.6250565106276
 20
141.2751908193897
 10
156.5094131050963
 20
144.0936252951782
 10
157.109893644309
 20
146.1506931664571
 10
157.4220195011804
 20
147.4415712963654
 10
157.8095929989511
 20
149.0530157726519
 10
157.9656559273867
 20
149.5826995529385
 10
157.7816877071116
 20
150.7529992613181
 10
157.6111553680925
 20
151.8430281919372
 10
157.0582171779396
 20
152.5547853887321
 10
156.1170164704645
 20
152.5547853887321
 10
155.1096698860365
 20
152.5547853887321
 10
154.2962823053817
 20
152.4412694176073
 10
153.156643967048
 20
151.2945686288697
 10
152.0170056287143
 20
150.1476955852443
 10
151.076149431015
 20
148.7930831468137
 10
150.3337308641742
 20
147.2290087646991
 10
149.5957909244188
 20
145.6683794803425
 10
148.8530278478023
 20
143.6822806228776
 10
148.0964843801539
 20
141.2751908193897
 10
148.0964843801539
 20
141.2751908193897
 10
143.8552245303272
 20
127.8027915271048
 10
143.8552245303272
 20
127.8027915271048
 10
143.8552245303272
 20
127.8027915271048
 10
141.486030802177
 20
127.8027915271048
 10
141.486030802177
 20
127.8027915271048
 10
141.486030802177
 20
127.8027915271048
 10
146.3329388378533
 20
143.2092687007094
 10
146.3329388378533
 20
143.2092687007094
 10
146.8483254624444
 20
144.8408669988801
 10
147.2314203331297
 20
146.1837661049335
 10
147.4867020769946
 20
147.224185627838
 10
147.9169947869641
 20
149.0197705792876
 10
148.0306830129768
 20
150.2400242051577
 10
147.709255392159
 20
151.3157559800812
 10
147.3874832615654
 20
152.3916600098926
 10
146.8245542879144
 20
152.6683013598569
 10
145.8840425999909
 20
152.6683013598569
 10
145.0989048209514
 20
152.6683013598569
 10
144.3282364524954
 20
152.3275811915945
 10
143.4531816219731
 20
151.6538923250251
 10
142.34627171234
 20
150.8074318058939
 10
141.901854101563
 20
150.1097995099067
 10
141.3578731655808
 20
149.289521733736
 10
140.6299240093235
 20
148.192602607601
 10
140.2850697237515
 20
147.455696197173
 10
139.6652966370942
 20
145.8385673095858
 10
139.0506911970739
 20
144.2214384219986
 10
138.463991048893
 20
142.3252566160164
 10
138.0571250036777
 20
141.0154304484394
 10
138.0571250036777
 20
141.0154304484394
 10
133.9009590684727
 20
127.8027915271048
 10
133.9009590684727
 20
127.8027915271048
 10
133.9009590684727
 20
127.8027915271048
 10
131.4180771143097
 20
127.8027915271048
 10
131.4180771143097
 20
127.8027915271048
 10
131.4180771143097
 20
127.8027915271048
 10
139.8926730891197
 20
154.8294111834263
 10
139.8926730891197
 20
154.8294111834263
 97
        0
 75
     2
 76
     1
 98
        0
  0
SPLINE
  5
1DA8
330
1DA0
100
AcDbEntity
  8
TFORMLOGO
370
     0
100
AcDbSpline
210
0.0
220
0.0
230
1.0
 70
    11
 71
     3
 72
    29
 73
    25
 74
     0
 42
0.000000001
 43
0.0000000001
 40
0.0
 40
0.0
 40
0.0
 40
0.0
 40
1.0
 40
1.0
 40
1.0
 40
2.0
 40
2.0
 40
2.0
 40
3.0
 40
3.0
 40
3.0
 40
4.0
 40
4.0
 40
4.0
 40
5.0
 40
5.0
 40
5.0
 40
6.0
 40
6.0
 40
6.0
 40
7.0
 40
7.0
 40
7.0
 40
8.0
 40
8.0
 40
8.0
 40
8.0
 10
101.6420971922469
 20
132.8388354296931
 30
0.0
 10
101.630039350094
 20
134.7164137077823
 30
0.0
 10
102.2236296937908
 20
138.0598810818841
 30
0.0
 10
103.7487744712405
 20
142.5378191476827
 30
0.0
 10
105.819967243327
 20
148.5896501242061
 30
0.0
 10
107.0602024361932
 20
150.8074318058939
 30
0.0
 10
108.1522984254671
 20
151.8833358357054
 30
0.0
 10
109.741177511439
 20
153.4532668840085
 30
0.0
 10
111.8740375333931
 20
153.5290590346837
 30
0.0
 10
112.5075910110823
 20
153.4532668840085
 30
0.0
 10
113.4012493694975
 20
153.3490526768302
 30
0.0
 10
114.6683563248758
 20
152.7580461564518
 30
0.0
 10
114.7493161221879
 20
150.7838328862519
 30
0.0
 10
114.8106388622796
 20
149.0909118479895
 30
0.0
 10
114.3186789024427
 20
145.9191825971221
 30
0.0
 10
112.6164561002338
 20
140.9489400617108
 30
0.0
 10
110.6444821435766
 20
135.1746117095912
 30
0.0
 10
109.4669477299053
 20
132.8960240524753
 30
0.0
 10
108.5212683953448
 20
131.9072809959403
 30
0.0
 10
106.7346406980658
 20
130.0538184021569
 30
0.0
 10
104.8222669326213
 20
130.2336525051225
 30
0.0
 10
104.5408024457958
 20
130.2336525051225
 30
0.0
 10
104.1721769856939
 20
130.2336525051225
 30
0.0
 10
101.6465758193322
 20
130.6305277668397
 30
0.0
 10
101.6420971922469
 20
132.8388354296931
 30
0.0
  0
SPLINE
  5
1DA9
330
1DA0
100
AcDbEntity
  8
TFORMLOGO
370
     0
100
AcDbSpline
210
0.0
220
0.0
230
1.0
 70
    11
 71
     3
 72
    32
 73
    28
 74
     0
 42
0.000000001
 43
0.0000000001
 40
0.0
 40
0.0
 40
0.0
 40
0.0
 40
1.0
 40
1.0
 40
1.0
 40
2.0
 40
2.0
 40
2.0
 40
3.0
 40
3.0
 40
3.0
 40
4.0
 40
4.0
 40
4.0
 40
5.0
 40
5.0
 40
5.0
 40
6.0
 40
6.0
 40
6.0
 40
7.0
 40
7.0
 40
7.0
 40
8.0
 40
8.0
 40
8.0
 40
9.0
 40
9.0
 40
9.0
 40
9.0
 10
106.2595617172429
 20
153.4105476718098
 30
0.0
 10
104.8222669326213
 20
151.5474388043041
 30
0.0
 10
103.7177685914188
 20
149.8758773721411
 30
0.0
 10
101.9232171692965
 20
144.6141795664062
 30
0.0
 10
100.2754269116635
 20
139.7999999594306
 30
0.0
 10
99.22777268346732
 20
136.3052927937542
 30
0.0
 10
99.06964269637689
 20
132.039572749846
 30
0.0
 10
98.94665270641765
 20
128.8673267343149
 30
0.0
 10
100.8807305877373
 20
127.8027915271048
 30
0.0
 10
103.7129454545577
 20
127.8027915271048
 30
0.0
 10
104.9352661390825
 20
127.8027915271048
 30
0.0
 10
108.0151835347002
 20
127.8827177950895
 30
0.0
 10
110.2045431598849
 20
130.5926316915021
 30
0.0
 10
111.7417457794874
 20
132.4984597712065
 30
0.0
 10
113.155269389579
 20
134.475256864725
 30
0.0
 10
115.0562743324223
 20
140.9489400617108
 30
0.0
 10
116.6361961642235
 20
146.3680788349845
 30
0.0
 10
117.7282921534974
 20
149.8639917848761
 30
0.0
 10
117.6480213757369
 20
151.8595646611754
 30
0.0
 10
117.6480213757369
 20
151.8595646611754
 30
0.0
 10
117.6480213757369
 20
151.8595646611754
 30
0.0
 10
117.6480213757369
 20
151.8595646611754
 30
0.0
 10
117.13229024137
 20
155.18150017429
 30
0.0
 10
114.7162431837115
 20
155.886194920681
 30
0.0
 10
113.3351034925446
 20
155.886194920681
 30
0.0
 10
111.9829026225447
 20
155.886194920681
 30
0.0
 10
108.3414342923792
 20
156.1251124501957
 30
0.0
 10
106.2595617172429
 20
153.4105476718098
 30
0.0
  0
HATCH
  5
1DAA
330
1DA0
100
AcDbEntity
  8
TFORMLOGO
 62
   250
420
  2234388
100
AcDbHatch
 10
0.0
 20
0.0
 30
0.0
210
0.0
220
0.0
230
1.0
  2
SOLID
 70
     1
 71
     0
 91
        2
 92
        1
 93
        1
 72
     4
 94
        3
 73
     0
 74
     1
 95
       29
 96
       25
 40
0.0
 40
0.0
 40
0.0
 40
0.0
 40
1.0
 40
1.0
 40
1.0
 40
2.0
 40
2.0
 40
2.0
 40
3.0
 40
3.0
 40
3.0
 40
4.0
 40
4.0
 40
4.0
 40
5.0
 40
5.0
 40
5.0
 40
6.0
 40
6.0
 40
6.0
 40
7.0
 40
7.0
 40
7.0
 40
8.0
 40
8.0
 40
8.0
 40
8.0
 10
101.6420971922469
 20
132.8388354296931
 10
101.630039350094
 20
134.7164137077823
 10
102.2236296937908
 20
138.0598810818841
 10
103.7487744712405
 20
142.5378191476827
 10
105.819967243327
 20
148.5896501242061
 10
107.0602024361932
 20
150.8074318058939
 10
108.1522984254671
 20
151.8833358357054
 10
109.741177511439
 20
153.4532668840085
 10
111.8740375333931
 20
153.5290590346837
 10
112.5075910110823
 20
153.4532668840085
 10
113.4012493694975
 20
153.3490526768302
 10
114.6683563248758
 20
152.7580461564518
 10
114.7493161221879
 20
150.7838328862519
 10
114.8106388622796
 20
149.0909118479895
 10
114.3186789024427
 20
145.9191825971221
 10
112.6164561002338
 20
140.9489400617108
 10
110.6444821435766
 20
135.1746117095912
 10
109.4669477299053
 20
132.8960240524753
 10
108.5212683953448
 20
131.9072809959403
 10
106.7346406980658
 20
130.0538184021569
 10
104.8222669326213
 20
130.2336525051225
 10
104.5408024457958
 20
130.2336525051225
 10
104.1721769856939
 20
130.2336525051225
 10
101.6465758193322
 20
130.6305277668397
 10
101.6420971922469
 20
132.8388354296931
 97
        0
 92
        1
 93
        1
 72
     4
 94
        3
 73
     0
 74
     1
 95
       32
 96
       28
 40
0.0
 40
0.0
 40
0.0
 40
0.0
 40
1.0
 40
1.0
 40
1.0
 40
2.0
 40
2.0
 40
2.0
 40
3.0
 40
3.0
 40
3.0
 40
4.0
 40
4.0
 40
4.0
 40
5.0
 40
5.0
 40
5.0
 40
6.0
 40
6.0
 40
6.0
 40
7.0
 40
7.0
 40
7.0
 40
8.0
 40
8.0
 40
8.0
 40
9.0
 40
9.0
 40
9.0
 40
9.0
 10
106.2595617172429
 20
153.4105476718098
 10
104.8222669326213
 20
151.5474388043041
 10
103.7177685914188
 20
149.8758773721411
 10
101.9232171692965
 20
144.6141795664062
 10
100.2754269116635
 20
139.7999999594306
 10
99.22777268346732
 20
136.3052927937542
 10
99.06964269637689
 20
132.039572749846
 10
98.94665270641765
 20
128.8673267343149
 10
100.8807305877373
 20
127.8027915271048
 10
103.7129454545577
 20
127.8027915271048
 10
104.9352661390825
 20
127.8027915271048
 10
108.0151835347002
 20
127.8827177950895
 10
110.2045431598849
 20
130.5926316915021
 10
111.7417457794874
 20
132.4984597712065
 10
113.155269389579
 20
134.475256864725
 10
115.0562743324223
 20
140.9489400617108
 10
116.6361961642235
 20
146.3680788349845
 10
117.7282921534974
 20
149.8639917848761
 10
117.6480213757369
 20
151.8595646611754
 10
117.6480213757369
 20
151.8595646611754
 10
117.6480213757369
 20
151.8595646611754
 10
117.6480213757369
 20
151.8595646611754
 10
117.13229024137
 20
155.18150017429
 10
114.7162431837115
 20
155.886194920681
 10
113.3351034925446
 20
155.886194920681
 10
111.9829026225447
 20
155.886194920681
 10
108.3414342923792
 20
156.1251124501957
 10
106.2595617172429
 20
153.4105476718098
 97
        0
 75
     2
 76
     1
 98
        0
  0
ENDBLK
  5
1DAB
330
1DA0
100
AcDbEntity
  8
0
100
AcDbBlockEnd
  0
BLOCK
  5
473B
330
473A
100
AcDbEntity
  8
0
100
AcDbBlockBegin
  2
_NONE
 70
     0
 10
0.0
 20
0.0
 30
0.0
  3
_NONE
  1
_NONE
  0
ENDBLK
  5
473C
330
473A
100
AcDbEntity
  8
0
100
AcDbBlockEnd
  0
BLOCK
  5
5A63
330
5A62
100
AcDbEntity
  8
0
100
AcDbBlockBegin
  2
*D8
 70
     1
 10
0.0
 20
0.0
 30
0.0
  3
*D8
  1

  0
LINE
  5
5A65
330
5A62
100
AcDbEntity
  8
寸法
 62
     0
370
    -2
100
AcDbLine
 10
75.42363004278172
 20
315.0283743428685
 30
0.0
 11
75.42363004278172
 21
329.698320209188
 31
0.0
  0
LINE
  5
5A66
330
5A62
100
AcDbEntity
  8
寸法
 62
     0
370
    -2
100
AcDbLine
 10
113.4236300427817
 20
315.0283743428685
 30
0.0
 11
113.4236300427817
 21
329.698320209188
 31
0.0
  0
LINE
  5
5A67
330
5A62
100
AcDbEntity
  8
寸法
 62
     0
370
    -2
100
AcDbLine
 10
77.42363004278172
 20
329.698320209188
 30
0.0
 11
111.4236300427817
 21
329.698320209188
 31
0.0
  0
INSERT
  5
5A68
330
5A62
100
AcDbEntity
  8
寸法
 62
     0
370
    -2
100
AcDbBlockReference
  2
_DOT
 10
75.42363004278172
 20
329.698320209188
 30
0.0
 41
2.0
 42
2.0
 43
2.0
 50
180.0
  0
INSERT
  5
5A69
330
5A62
100
AcDbEntity
  8
寸法
 62
     0
370
    -2
100
AcDbBlockReference
  2
_DOT
 10
113.4236300427817
 20
329.698320209188
 30
0.0
 41
2.0
 42
2.0
 43
2.0
  0
MTEXT
  5
5A6A
330
5A62
100
AcDbEntity
  8
寸法
 62
     0
100
AcDbMText
 10
94.42363004278172
 20
337.198320209188
 30
0.0
 40
5.0
 41
0.0
 46
0.0
 71
     5
 72
     1
  1
\A1;38
  7
ＭＳ ゴシック
 73
     1
 44
1.0
  0
POINT
  5
5A6B
330
5A62
100
AcDbEntity
  8
Defpoints
 62
     0
100
AcDbPoint
 10
75.42363004278172
 20
310.0283743428685
 30
0.0
  0
POINT
  5
5A6C
330
5A62
100
AcDbEntity
  8
Defpoints
 62
     0
100
AcDbPoint
 10
113.4236300427817
 20
310.0283743428685
 30
0.0
  0
POINT
  5
5A6D
330
5A62
100
AcDbEntity
  8
Defpoints
 62
     0
100
AcDbPoint
 10
113.4236300427817
 20
329.698320209188
 30
0.0
  0
ENDBLK
  5
5A64
330
5A62
100
AcDbEntity
  8
0
100
AcDbBlockEnd
  0
BLOCK
  5
5ABE
330
5ABD
100
AcDbEntity
  8
0
100
AcDbBlockBegin
  2
*D9
 70
     1
 10
0.0
 20
0.0
 30
0.0
  3
*D9
  1

  0
LINE
  5
5AC0
330
5ABD
100
AcDbEntity
  8
寸法
 62
     0
370
    -2
100
AcDbLine
 10
469.9111912937688
 20
199.8447780359249
 30
0.0
 11
469.9111912937688
 21
204.4302411864766
 31
0.0
  0
LINE
  5
5AC1
330
5ABD
100
AcDbEntity
  8
寸法
 62
     0
370
    -2
100
AcDbLine
 10
488.8794803869403
 20
170.6397216858863
 30
0.0
 11
488.8794803869403
 21
204.4302411864766
 31
0.0
  0
LINE
  5
5AC2
330
5ABD
100
AcDbEntity
  8
寸法
 62
     0
370
    -2
100
AcDbLine
 10
471.9111912937688
 20
204.4302411864766
 30
0.0
 11
486.8794803869403
 21
204.4302411864766
 31
0.0
  0
INSERT
  5
5AC3
330
5ABD
100
AcDbEntity
  8
寸法
 62
     0
370
    -2
100
AcDbBlockReference
  2
_DOT
 10
469.9111912937688
 20
204.4302411864766
 30
0.0
 41
2.0
 42
2.0
 43
2.0
 50
180.0
  0
INSERT
  5
5AC4
330
5ABD
100
AcDbEntity
  8
寸法
 62
     0
370
    -2
100
AcDbBlockReference
  2
_DOT
 10
488.8794803869403
 20
204.4302411864766
 30
0.0
 41
2.0
 42
2.0
 43
2.0
  0
MTEXT
  5
5AC5
330
5ABD
100
AcDbEntity
  8
寸法
 62
     0
100
AcDbMText
 10
479.3953358403545
 20
211.9302411864766
 30
0.0
 40
5.0
 41
0.0
 46
0.0
 71
     5
 72
     1
  1
\A1;19
  7
ＭＳ ゴシック
 73
     1
 44
1.0
  0
POINT
  5
5AC6
330
5ABD
100
AcDbEntity
  8
Defpoints
 62
     0
100
AcDbPoint
 10
469.9111912937688
 20
194.8447780359249
 30
0.0
  0
POINT
  5
5AC7
330
5ABD
100
AcDbEntity
  8
Defpoints
 62
     0
100
AcDbPoint
 10
488.8794803869403
 20
165.6397216858863
 30
0.0
  0
POINT
  5
5AC8
330
5ABD
100
AcDbEntity
  8
Defpoints
 62
     0
100
AcDbPoint
 10
488.8794803869403
 20
204.4302411864766
 30
0.0
  0
ENDBLK
  5
5ABF
330
5ABD
100
AcDbEntity
  8
0
100
AcDbBlockEnd
  0
BLOCK
  5
5ACA
330
5AC9
100
AcDbEntity
  8
0
100
AcDbBlockBegin
  2
*D10
 70
     1
 10
0.0
 20
0.0
 30
0.0
  3
*D10
  1

  0
LINE
  5
5ACC
330
5AC9
100
AcDbEntity
  8
寸法
 62
     0
370
    -2
100
AcDbLine
 10
450.8794803869403
 20
170.6397216858863
 30
0.0
 11
450.8794803869403
 21
204.4302411864766
 31
0.0
  0
LINE
  5
5ACD
330
5AC9
100
AcDbEntity
  8
寸法
 62
     0
370
    -2
100
AcDbLine
 10
469.9111912937688
 20
199.8447780359249
 30
0.0
 11
469.9111912937688
 21
204.4302411864766
 31
0.0
  0
LINE
  5
5ACE
330
5AC9
100
AcDbEntity
  8
寸法
 62
     0
370
    -2
100
AcDbLine
 10
452.8794803869403
 20
204.4302411864766
 30
0.0
 11
467.9111912937688
 21
204.4302411864766
 31
0.0
  0
INSERT
  5
5ACF
330
5AC9
100
AcDbEntity
  8
寸法
 62
     0
370
    -2
100
AcDbBlockReference
  2
_DOT
 10
450.8794803869403
 20
204.4302411864766
 30
0.0
 41
2.0
 42
2.0
 43
2.0
 50
180.0
  0
INSERT
  5
5AD0
330
5AC9
100
AcDbEntity
  8
寸法
 62
     0
370
    -2
100
AcDbBlockReference
  2
_DOT
 10
469.9111912937688
 20
204.4302411864766
 30
0.0
 41
2.0
 42
2.0
 43
2.0
  0
MTEXT
  5
5AD1
330
5AC9
100
AcDbEntity
  8
寸法
 62
     0
100
AcDbMText
 10
460.3953358403545
 20
211.9302411864766
 30
0.0
 40
5.0
 41
0.0
 46
0.0
 71
     5
 72
     1
  1
\A1;19
  7
ＭＳ ゴシック
 73
     1
 44
1.0
  0
POINT
  5
5AD2
330
5AC9
100
AcDbEntity
  8
Defpoints
 62
     0
100
AcDbPoint
 10
450.8794803869403
 20
165.6397216858863
 30
0.0
  0
POINT
  5
5AD3
330
5AC9
100
AcDbEntity
  8
Defpoints
 62
     0
100
AcDbPoint
 10
469.9111912937688
 20
194.8447780359249
 30
0.0
  0
POINT
  5
5AD4
330
5AC9
100
AcDbEntity
  8
Defpoints
 62
     0
100
AcDbPoint
 10
469.9111912937688
 20
204.4302411864766
 30
0.0
  0
ENDBLK
  5
5ACB
330
5AC9
100
AcDbEntity
  8
0
100
AcDbBlockEnd
  0
BLOCK
  5
5B0C
330
5B0B
100
AcDbEntity
  8
0
100
AcDbBlockBegin
  2
*D11
 70
     1
 10
0.0
 20
0.0
 30
0.0
  3
*D11
  1

  0
LINE
  5
5B0E
330
5B0B
100
AcDbEntity
  8
寸法
 62
     0
370
    -2
100
AcDbLine
 10
439.8795665576619
 20
332.3273351076154
 30
0.0
 11
425.0468091647026
 21
332.3273351076154
 31
0.0
  0
LINE
  5
5B0F
330
5B0B
100
AcDbEntity
  8
寸法
 62
     0
370
    -2
100
AcDbLine
 10
439.8795665576619
 20
282.3273351071742
 30
0.0
 11
425.0468091647026
 21
282.3273351071742
 31
0.0
  0
LINE
  5
5B10
330
5B0B
100
AcDbEntity
  8
寸法
 62
     0
370
    -2
100
AcDbLine
 10
425.0468091647026
 20
330.3273351076154
 30
0.0
 11
425.0468091647026
 21
284.3273351071742
 31
0.0
  0
INSERT
  5
5B11
330
5B0B
100
AcDbEntity
  8
寸法
 62
     0
370
    -2
100
AcDbBlockReference
  2
_DOT
 10
425.0468091647026
 20
332.3273351076154
 30
0.0
 41
2.0
 42
2.0
 43
2.0
 50
90.0
  0
INSERT
  5
5B12
330
5B0B
100
AcDbEntity
  8
寸法
 62
     0
370
    -2
100
AcDbBlockReference
  2
_DOT
 10
425.0468091647026
 20
282.3273351071742
 30
0.0
 41
2.0
 42
2.0
 43
2.0
 50
270.0
  0
MTEXT
  5
5B13
330
5B0B
100
AcDbEntity
  8
寸法
 62
     0
100
AcDbMText
 10
417.5468091647026
 20
307.3273351073948
 30
0.0
 40
5.0
 41
0.0
 46
0.0
 71
     5
 72
     1
  1
\A1;50
  7
ＭＳ ゴシック
 11
0.0
 21
1.0
 31
0.0
 73
     1
 44
1.0
  0
POINT
  5
5B14
330
5B0B
100
AcDbEntity
  8
Defpoints
 62
     0
100
AcDbPoint
 10
444.8795665576619
 20
332.3273351076154
 30
0.0
  0
POINT
  5
5B15
330
5B0B
100
AcDbEntity
  8
Defpoints
 62
     0
100
AcDbPoint
 10
444.8795665576619
 20
282.3273351071742
 30
0.0
  0
POINT
  5
5B16
330
5B0B
100
AcDbEntity
  8
Defpoints
 62
     0
100
AcDbPoint
 10
425.0468091647026
 20
282.3273351071742
 30
0.0
  0
ENDBLK
  5
5B0D
330
5B0B
100
AcDbEntity
  8
0
100
AcDbBlockEnd
  0
BLOCK
  5
5B2A
330
5B29
100
AcDbEntity
  8
0
100
AcDbBlockBegin
  2
*D12
 70
     1
 10
0.0
 20
0.0
 30
0.0
  3
*D12
  1

  0
LINE
  5
5B2C
330
5B29
100
AcDbEntity
  8
寸法
 62
     0
370
    -2
100
AcDbLine
 10
333.5565063758053
 20
290.738224425475
 30
0.0
 11
311.3257701428161
 21
290.738224425475
 31
0.0
  0
LINE
  5
5B2D
330
5B29
100
AcDbEntity
  8
寸法
 62
     0
370
    -2
100
AcDbLine
 10
333.5565063758053
 20
313.738224425475
 30
0.0
 11
311.3257701428161
 21
313.738224425475
 31
0.0
  0
LINE
  5
5B2E
330
5B29
100
AcDbEntity
  8
寸法
 62
     0
370
    -2
100
AcDbLine
 10
311.3257701428161
 20
292.738224425475
 30
0.0
 11
311.3257701428161
 21
311.738224425475
 31
0.0
  0
INSERT
  5
5B2F
330
5B29
100
AcDbEntity
  8
寸法
 62
     0
370
    -2
100
AcDbBlockReference
  2
_DOT
 10
311.3257701428161
 20
290.738224425475
 30
0.0
 41
2.0
 42
2.0
 43
2.0
 50
270.0
  0
INSERT
  5
5B30
330
5B29
100
AcDbEntity
  8
寸法
 62
     0
370
    -2
100
AcDbBlockReference
  2
_DOT
 10
311.3257701428161
 20
313.738224425475
 30
0.0
 41
2.0
 42
2.0
 43
2.0
 50
90.0
  0
MTEXT
  5
5B31
330
5B29
100
AcDbEntity
  8
寸法
 62
     0
100
AcDbMText
 10
303.8257701428161
 20
302.238224425475
 30
0.0
 40
5.0
 41
0.0
 46
0.0
 71
     5
 72
     1
  1
\A1;23
  7
ＭＳ ゴシック
 11
0.0
 21
1.0
 31
0.0
 73
     1
 44
1.0
  0
POINT
  5
5B32
330
5B29
100
AcDbEntity
  8
Defpoints
 62
     0
100
AcDbPoint
 10
338.5565063758053
 20
290.738224425475
 30
0.0
  0
POINT
  5
5B33
330
5B29
100
AcDbEntity
  8
Defpoints
 62
     0
100
AcDbPoint
 10
338.5565063758053
 20
313.738224425475
 30
0.0
  0
POINT
  5
5B34
330
5B29
100
AcDbEntity
  8
Defpoints
 62
     0
100
AcDbPoint
 10
311.3257701428161
 20
313.738224425475
 30
0.0
  0
ENDBLK
  5
5B2B
330
5B29
100
AcDbEntity
  8
0
100
AcDbBlockEnd
  0
BLOCK
  5
5B39
330
5B38
100
AcDbEntity
  8
0
100
AcDbBlockBegin
  2
*D13
 70
     1
 10
0.0
 20
0.0
 30
0.0
  3
*D13
  1

  0
LINE
  5
5B3B
330
5B38
100
AcDbEntity
  8
寸法
 62
     0
370
    -2
100
AcDbLine
 10
321.0406940077518
 20
314.7533767242107
 30
0.0
 11
311.3257701428161
 21
314.7533767242107
 31
0.0
  0
LINE
  5
5B3C
330
5B38
100
AcDbEntity
  8
寸法
 62
     0
370
    -2
100
AcDbLine
 10
321.0406940077518
 20
320.7255400630083
 30
0.0
 11
311.3257701428161
 21
320.7255400630083
 31
0.0
  0
LINE
  5
5B3D
330
5B38
100
AcDbEntity
  8
寸法
 62
     0
370
    -2
100
AcDbLine
 10
311.3257701428161
 20
316.7533767242107
 30
0.0
 11
311.3257701428161
 21
318.7255400630083
 31
0.0
  0
INSERT
  5
5B3E
330
5B38
100
AcDbEntity
  8
寸法
 62
     0
370
    -2
100
AcDbBlockReference
  2
_DOT
 10
311.3257701428161
 20
314.7533767242107
 30
0.0
 41
2.0
 42
2.0
 43
2.0
 50
270.0
  0
INSERT
  5
5B3F
330
5B38
100
AcDbEntity
  8
寸法
 62
     0
370
    -2
100
AcDbBlockReference
  2
_DOT
 10
311.3257701428161
 20
320.7255400630083
 30
0.0
 41
2.0
 42
2.0
 43
2.0
 50
90.0
  0
MTEXT
  5
5B40
330
5B38
100
AcDbEntity
  8
寸法
 62
     0
100
AcDbMText
 10
303.8257701428161
 20
317.3479757308023
 30
0.0
 40
5.0
 41
0.0
 46
0.0
 71
     5
 72
     1
  1
\A1;6
  7
ＭＳ ゴシック
 11
0.0
 21
1.0
 31
0.0
 73
     1
 44
1.0
  0
POINT
  5
5B41
330
5B38
100
AcDbEntity
  8
Defpoints
 62
     0
100
AcDbPoint
 10
326.0406940077518
 20
314.7533767242107
 30
0.0
  0
POINT
  5
5B42
330
5B38
100
AcDbEntity
  8
Defpoints
 62
     0
100
AcDbPoint
 10
326.0406940077518
 20
320.7255400630083
 30
0.0
  0
POINT
  5
5B43
330
5B38
100
AcDbEntity
  8
Defpoints
 62
     0
100
AcDbPoint
 10
311.3257701428161
 20
320.7255400630083
 30
0.0
  0
ENDBLK
  5
5B3A
330
5B38
100
AcDbEntity
  8
0
100
AcDbBlockEnd
  0
BLOCK
  5
5B4A
330
5B49
100
AcDbEntity
  8
0
100
AcDbBlockBegin
  2
*D14
 70
     1
 10
0.0
 20
0.0
 30
0.0
  3
*D14
  1

  0
LINE
  5
5B4C
330
5B49
100
AcDbEntity
  8
寸法
 62
     0
370
    -2
100
AcDbLine
 10
84.3856631254414
 20
293.0198392693691
 30
0.0
 11
84.3856631254414
 21
275.556670425452
 31
0.0
  0
LINE
  5
5B4D
330
5B49
100
AcDbEntity
  8
寸法
 62
     0
370
    -2
100
AcDbLine
 10
104.3983474883494
 20
293.0198392693691
 30
0.0
 11
104.3983474883494
 21
275.556670425452
 31
0.0
  0
LINE
  5
5B4E
330
5B49
100
AcDbEntity
  8
寸法
 62
     0
370
    -2
100
AcDbLine
 10
86.3856631254414
 20
275.556670425452
 30
0.0
 11
102.3983474883494
 21
275.556670425452
 31
0.0
  0
INSERT
  5
5B4F
330
5B49
100
AcDbEntity
  8
寸法
 62
     0
370
    -2
100
AcDbBlockReference
  2
_DOT
 10
84.3856631254414
 20
275.556670425452
 30
0.0
 41
2.0
 42
2.0
 43
2.0
 50
180.0
  0
INSERT
  5
5B50
330
5B49
100
AcDbEntity
  8
寸法
 62
     0
370
    -2
100
AcDbBlockReference
  2
_DOT
 10
104.3983474883494
 20
275.556670425452
 30
0.0
 41
2.0
 42
2.0
 43
2.0
  0
MTEXT
  5
5B51
330
5B49
100
AcDbEntity
  8
寸法
 62
     0
100
AcDbMText
 10
94.39200530689538
 20
283.056670425452
 30
0.0
 40
5.0
 41
0.0
 46
0.0
 71
     5
 72
     1
  1
\A1;20
  7
ＭＳ ゴシック
 73
     1
 44
1.0
  0
POINT
  5
5B52
330
5B49
100
AcDbEntity
  8
Defpoints
 62
     0
100
AcDbPoint
 10
84.3856631254414
 20
298.0198392693691
 30
0.0
  0
POINT
  5
5B53
330
5B49
100
AcDbEntity
  8
Defpoints
 62
     0
100
AcDbPoint
 10
104.3983474883494
 20
298.0198392693691
 30
0.0
  0
POINT
  5
5B54
330
5B49
100
AcDbEntity
  8
Defpoints
 62
     0
100
AcDbPoint
 10
104.3983474883494
 20
275.556670425452
 30
0.0
  0
ENDBLK
  5
5B4B
330
5B49
100
AcDbEntity
  8
0
100
AcDbBlockEnd
  0
BLOCK
  5
5B57
330
5B56
100
AcDbEntity
  8
0
100
AcDbBlockBegin
  2
*D15
 70
     1
 10
0.0
 20
0.0
 30
0.0
  3
*D15
  1

  0
LINE
  5
5B59
330
5B56
100
AcDbEntity
  8
寸法
 62
     0
370
    -2
100
AcDbLine
 10
79.8940716860119
 20
297.5110860250288
 30
0.0
 11
63.20471462213902
 21
297.5110860250288
 31
0.0
  0
LINE
  5
5B5A
330
5B56
100
AcDbEntity
  8
寸法
 62
     0
370
    -2
100
AcDbLine
 10
79.8940716860119
 20
304.0110860250288
 30
0.0
 11
63.20471462213902
 21
304.0110860250288
 31
0.0
  0
LINE
  5
5B5B
330
5B56
100
AcDbEntity
  8
寸法
 62
     0
370
    -2
100
AcDbLine
 10
63.20471462213902
 20
299.5110860250288
 30
0.0
 11
63.20471462213902
 21
302.0110860250288
 31
0.0
  0
INSERT
  5
5B5C
330
5B56
100
AcDbEntity
  8
寸法
 62
     0
370
    -2
100
AcDbBlockReference
  2
_DOT
 10
63.20471462213902
 20
297.5110860250288
 30
0.0
 41
2.0
 42
2.0
 43
2.0
 50
270.0
  0
INSERT
  5
5B5D
330
5B56
100
AcDbEntity
  8
寸法
 62
     0
370
    -2
100
AcDbBlockReference
  2
_DOT
 10
63.20471462213902
 20
304.0110860250288
 30
0.0
 41
2.0
 42
2.0
 43
2.0
 50
90.0
  0
MTEXT
  5
5B5E
330
5B56
100
AcDbEntity
  8
寸法
 62
     0
100
AcDbMText
 10
55.70471462213902
 20
300.7610860250288
 30
0.0
 40
5.0
 41
0.0
 46
0.0
 71
     5
 72
     1
  1
\A1;6.5
  7
ＭＳ ゴシック
 11
0.0
 21
1.0
 31
0.0
 73
     1
 44
1.0
  0
POINT
  5
5B5F
330
5B56
100
AcDbEntity
  8
Defpoints
 62
     0
100
AcDbPoint
 10
84.8940716860119
 20
297.5110860250288
 30
0.0
  0
POINT
  5
5B60
330
5B56
100
AcDbEntity
  8
Defpoints
 62
     0
100
AcDbPoint
 10
84.8940716860119
 20
304.0110860250288
 30
0.0
  0
POINT
  5
5B61
330
5B56
100
AcDbEntity
  8
Defpoints
 62
     0
100
AcDbPoint
 10
63.20471462213902
 20
304.0110860250288
 30
0.0
  0
ENDBLK
  5
5B58
330
5B56
100
AcDbEntity
  8
0
100
AcDbBlockEnd
  0
BLOCK
  5
5B67
330
5B66
100
AcDbEntity
  8
0
100
AcDbBlockBegin
  2
*D16
 70
     1
 10
0.0
 20
0.0
 30
0.0
  3
*D16
  1

  0
LINE
  5
5B69
330
5B66
100
AcDbEntity
  8
寸法
 62
     0
370
    -2
100
AcDbLine
 10
124.4553409498311
 20
310.3450415126799
 30
0.0
 11
139.6101693542145
 21
310.3450415126799
 31
0.0
  0
LINE
  5
5B6A
330
5B66
100
AcDbEntity
  8
寸法
 62
     0
370
    -2
100
AcDbLine
 10
124.4553409498311
 20
304.3730505157673
 30
0.0
 11
139.6101693542145
 21
304.3730505157673
 31
0.0
  0
LINE
  5
5B6B
330
5B66
100
AcDbEntity
  8
寸法
 62
     0
370
    -2
100
AcDbLine
 10
139.6101693542145
 20
308.3450415126799
 30
0.0
 11
139.6101693542145
 21
306.3730505157673
 31
0.0
  0
INSERT
  5
5B6C
330
5B66
100
AcDbEntity
  8
寸法
 62
     0
370
    -2
100
AcDbBlockReference
  2
_DOT
 10
139.6101693542145
 20
310.3450415126799
 30
0.0
 41
2.0
 42
2.0
 43
2.0
 50
90.0
  0
INSERT
  5
5B6D
330
5B66
100
AcDbEntity
  8
寸法
 62
     0
370
    -2
100
AcDbBlockReference
  2
_DOT
 10
139.6101693542145
 20
304.3730505157673
 30
0.0
 41
2.0
 42
2.0
 43
2.0
 50
270.0
  0
MTEXT
  5
5B6E
330
5B66
100
AcDbEntity
  8
寸法
 62
     0
100
AcDbMText
 10
132.1101693542145
 20
307.3590460142236
 30
0.0
 40
5.0
 41
0.0
 46
0.0
 71
     5
 72
     1
  1
\A1;6
  7
ＭＳ ゴシック
 11
0.0
 21
1.0
 31
0.0
 73
     1
 44
1.0
  0
POINT
  5
5B6F
330
5B66
100
AcDbEntity
  8
Defpoints
 62
     0
100
AcDbPoint
 10
119.4553409498311
 20
310.3450415126799
 30
0.0
  0
POINT
  5
5B70
330
5B66
100
AcDbEntity
  8
Defpoints
 62
     0
100
AcDbPoint
 10
119.4553409498311
 20
304.3730505157673
 30
0.0
  0
POINT
  5
5B71
330
5B66
100
AcDbEntity
  8
Defpoints
 62
     0
100
AcDbPoint
 10
139.6101693542145
 20
304.3730505157673
 30
0.0
  0
ENDBLK
  5
5B68
330
5B66
100
AcDbEntity
  8
0
100
AcDbBlockEnd
  0
BLOCK
  5
5B86
330
5B85
100
AcDbEntity
  8
0
100
AcDbBlockBegin
  2
*D17
 70
     1
 10
0.0
 20
0.0
 30
0.0
  3
*D17
  1

  0
LINE
  5
5B88
330
5B85
100
AcDbEntity
  8
寸法
 62
     0
370
    -2
100
AcDbLine
 10
338.5565063758053
 20
285.738224425475
 30
0.0
 11
338.5565063758053
 21
270.0359108160501
 31
0.0
  0
LINE
  5
5B89
330
5B85
100
AcDbEntity
  8
寸法
 62
     0
370
    -2
100
AcDbLine
 10
363.5245369563696
 20
285.738224425475
 30
0.0
 11
363.5245369563696
 21
270.0359108160501
 31
0.0
  0
LINE
  5
5B8A
330
5B85
100
AcDbEntity
  8
寸法
 62
     0
370
    -2
100
AcDbLine
 10
340.5565063758053
 20
270.0359108160501
 30
0.0
 11
361.5245369563696
 21
270.0359108160501
 31
0.0
  0
INSERT
  5
5B8B
330
5B85
100
AcDbEntity
  8
寸法
 62
     0
370
    -2
100
AcDbBlockReference
  2
_DOT
 10
338.5565063758053
 20
270.0359108160501
 30
0.0
 41
2.0
 42
2.0
 43
2.0
 50
180.0
  0
INSERT
  5
5B8C
330
5B85
100
AcDbEntity
  8
寸法
 62
     0
370
    -2
100
AcDbBlockReference
  2
_DOT
 10
363.5245369563696
 20
270.0359108160501
 30
0.0
 41
2.0
 42
2.0
 43
2.0
  0
MTEXT
  5
5B8D
330
5B85
100
AcDbEntity
  8
寸法
 62
     0
100
AcDbMText
 10
351.0405216660874
 20
277.5359108160501
 30
0.0
 40
5.0
 41
0.0
 46
0.0
 71
     5
 72
     1
  1
\A1;25
  7
ＭＳ ゴシック
 73
     1
 44
1.0
  0
POINT
  5
5B8E
330
5B85
100
AcDbEntity
  8
Defpoints
 62
     0
100
AcDbPoint
 10
338.5565063758053
 20
290.738224425475
 30
0.0
  0
POINT
  5
5B8F
330
5B85
100
AcDbEntity
  8
Defpoints
 62
     0
100
AcDbPoint
 10
363.5245369563696
 20
290.738224425475
 30
0.0
  0
POINT
  5
5B90
330
5B85
100
AcDbEntity
  8
Defpoints
 62
     0
100
AcDbPoint
 10
363.5245369563696
 20
270.0359108160501
 30
0.0
  0
ENDBLK
  5
5B87
330
5B85
100
AcDbEntity
  8
0
100
AcDbBlockEnd
  0
BLOCK
  5
5B9E
330
5B9D
100
AcDbEntity
  8
0
100
AcDbBlockBegin
  2
*D18
 70
     1
 10
0.0
 20
0.0
 30
0.0
  3
*D18
  1

  0
LINE
  5
5BA0
330
5B9D
100
AcDbEntity
  8
寸法
 62
     0
370
    -2
100
AcDbLine
 10
187.3583943386569
 20
332.390756921273
 30
0.0
 11
174.1422279255171
 21
332.390756921273
 31
0.0
  0
LINE
  5
5BA1
330
5B9D
100
AcDbEntity
  8
寸法
 62
     0
370
    -2
100
AcDbLine
 10
187.3583943386569
 20
282.3273351071742
 30
0.0
 11
174.1422279255171
 21
282.3273351071742
 31
0.0
  0
LINE
  5
5BA2
330
5B9D
100
AcDbEntity
  8
寸法
 62
     0
370
    -2
100
AcDbLine
 10
174.1422279255171
 20
330.390756921273
 30
0.0
 11
174.1422279255171
 21
284.3273351071742
 31
0.0
  0
INSERT
  5
5BA3
330
5B9D
100
AcDbEntity
  8
寸法
 62
     0
370
    -2
100
AcDbBlockReference
  2
_DOT
 10
174.1422279255171
 20
332.390756921273
 30
0.0
 41
2.0
 42
2.0
 43
2.0
 50
90.0
  0
INSERT
  5
5BA4
330
5B9D
100
AcDbEntity
  8
寸法
 62
     0
370
    -2
100
AcDbBlockReference
  2
_DOT
 10
174.1422279255171
 20
282.3273351071742
 30
0.0
 41
2.0
 42
2.0
 43
2.0
 50
270.0
  0
MTEXT
  5
5BA5
330
5B9D
100
AcDbEntity
  8
寸法
 62
     0
100
AcDbMText
 10
166.6422279255171
 20
307.3590460142236
 30
0.0
 40
5.0
 41
0.0
 46
0.0
 71
     5
 72
     1
  1
\A1;50
  7
ＭＳ ゴシック
 11
0.0
 21
1.0
 31
0.0
 73
     1
 44
1.0
  0
POINT
  5
5BA6
330
5B9D
100
AcDbEntity
  8
Defpoints
 62
     0
100
AcDbPoint
 10
192.3583943386569
 20
332.390756921273
 30
0.0
  0
POINT
  5
5BA7
330
5B9D
100
AcDbEntity
  8
Defpoints
 62
     0
100
AcDbPoint
 10
192.3583943386569
 20
282.3273351071742
 30
0.0
  0
POINT
  5
5BA8
330
5B9D
100
AcDbEntity
  8
Defpoints
 62
     0
100
AcDbPoint
 10
174.1422279255171
 20
282.3273351071742
 30
0.0
  0
ENDBLK
  5
5B9F
330
5B9D
100
AcDbEntity
  8
0
100
AcDbBlockEnd
  0
BLOCK
  5
644D
330
644C
100
AcDbEntity
  8
0
100
AcDbBlockBegin
  2
*D19
 70
     1
 10
0.0
 20
0.0
 30
0.0
  3
*D19
  1

  0
LINE
  5
644F
330
644C
100
AcDbEntity
  8
寸法
 62
     0
370
    -2
100
AcDbLine
 10
1158.961098289808
 20
315.0283743428685
 30
0.0
 11
1158.961098289808
 21
329.698320209188
 31
0.0
  0
LINE
  5
6450
330
644C
100
AcDbEntity
  8
寸法
 62
     0
370
    -2
100
AcDbLine
 10
1196.961098289808
 20
315.0283743428685
 30
0.0
 11
1196.961098289808
 21
329.698320209188
 31
0.0
  0
LINE
  5
6451
330
644C
100
AcDbEntity
  8
寸法
 62
     0
370
    -2
100
AcDbLine
 10
1160.961098289808
 20
329.698320209188
 30
0.0
 11
1194.961098289808
 21
329.698320209188
 31
0.0
  0
INSERT
  5
6452
330
644C
100
AcDbEntity
  8
寸法
 62
     0
370
    -2
100
AcDbBlockReference
  2
_DOT
 10
1158.961098289808
 20
329.698320209188
 30
0.0
 41
2.0
 42
2.0
 43
2.0
 50
180.0
  0
INSERT
  5
6453
330
644C
100
AcDbEntity
  8
寸法
 62
     0
370
    -2
100
AcDbBlockReference
  2
_DOT
 10
1196.961098289808
 20
329.698320209188
 30
0.0
 41
2.0
 42
2.0
 43
2.0
  0
MTEXT
  5
6454
330
644C
100
AcDbEntity
  8
寸法
 62
     0
100
AcDbMText
 10
1177.961098289808
 20
337.198320209188
 30
0.0
 40
5.0
 41
0.0
 46
0.0
 71
     5
 72
     1
  1
\A1;38
  7
ＭＳ ゴシック
 73
     1
 44
1.0
  0
POINT
  5
6455
330
644C
100
AcDbEntity
  8
Defpoints
 62
     0
100
AcDbPoint
 10
1158.961098289808
 20
310.0283743428685
 30
0.0
  0
POINT
  5
6456
330
644C
100
AcDbEntity
  8
Defpoints
 62
     0
100
AcDbPoint
 10
1196.961098289808
 20
310.0283743428685
 30
0.0
  0
POINT
  5
6457
330
644C
100
AcDbEntity
  8
Defpoints
 62
     0
100
AcDbPoint
 10
1196.961098289808
 20
329.698320209188
 30
0.0
  0
ENDBLK
  5
644E
330
644C
100
AcDbEntity
  8
0
100
AcDbBlockEnd
  0
BLOCK
  5
6459
330
6458
100
AcDbEntity
  8
0
100
AcDbBlockBegin
  2
*D20
 70
     1
 10
0.0
 20
0.0
 30
0.0
  3
*D20
  1

  0
LINE
  5
645B
330
6458
100
AcDbEntity
  8
寸法
 62
     0
370
    -2
100
AcDbLine
 10
1553.448659540795
 20
199.8447780359249
 30
0.0
 11
1553.448659540795
 21
204.4302411864766
 31
0.0
  0
LINE
  5
645C
330
6458
100
AcDbEntity
  8
寸法
 62
     0
370
    -2
100
AcDbLine
 10
1572.416948633967
 20
170.6397216858863
 30
0.0
 11
1572.416948633967
 21
204.4302411864766
 31
0.0
  0
LINE
  5
645D
330
6458
100
AcDbEntity
  8
寸法
 62
     0
370
    -2
100
AcDbLine
 10
1555.448659540795
 20
204.4302411864766
 30
0.0
 11
1570.416948633967
 21
204.4302411864766
 31
0.0
  0
INSERT
  5
645E
330
6458
100
AcDbEntity
  8
寸法
 62
     0
370
    -2
100
AcDbBlockReference
  2
_DOT
 10
1553.448659540795
 20
204.4302411864766
 30
0.0
 41
2.0
 42
2.0
 43
2.0
 50
180.0
  0
INSERT
  5
645F
330
6458
100
AcDbEntity
  8
寸法
 62
     0
370
    -2
100
AcDbBlockReference
  2
_DOT
 10
1572.416948633967
 20
204.4302411864766
 30
0.0
 41
2.0
 42
2.0
 43
2.0
  0
MTEXT
  5
6460
330
6458
100
AcDbEntity
  8
寸法
 62
     0
100
AcDbMText
 10
1562.932804087381
 20
211.9302411864766
 30
0.0
 40
5.0
 41
0.0
 46
0.0
 71
     5
 72
     1
  1
\A1;19
  7
ＭＳ ゴシック
 73
     1
 44
1.0
  0
POINT
  5
6461
330
6458
100
AcDbEntity
  8
Defpoints
 62
     0
100
AcDbPoint
 10
1553.448659540795
 20
194.8447780359249
 30
0.0
  0
POINT
  5
6462
330
6458
100
AcDbEntity
  8
Defpoints
 62
     0
100
AcDbPoint
 10
1572.416948633967
 20
165.6397216858863
 30
0.0
  0
POINT
  5
6463
330
6458
100
AcDbEntity
  8
Defpoints
 62
     0
100
AcDbPoint
 10
1572.416948633967
 20
204.4302411864766
 30
0.0
  0
ENDBLK
  5
645A
330
6458
100
AcDbEntity
  8
0
100
AcDbBlockEnd
  0
BLOCK
  5
6465
330
6464
100
AcDbEntity
  8
0
100
AcDbBlockBegin
  2
*D21
 70
     1
 10
0.0
 20
0.0
 30
0.0
  3
*D21
  1

  0
LINE
  5
6467
330
6464
100
AcDbEntity
  8
寸法
 62
     0
370
    -2
100
AcDbLine
 10
1534.416948633967
 20
170.6397216858863
 30
0.0
 11
1534.416948633967
 21
204.4302411864766
 31
0.0
  0
LINE
  5
6468
330
6464
100
AcDbEntity
  8
寸法
 62
     0
370
    -2
100
AcDbLine
 10
1553.448659540795
 20
199.8447780359249
 30
0.0
 11
1553.448659540795
 21
204.4302411864766
 31
0.0
  0
LINE
  5
6469
330
6464
100
AcDbEntity
  8
寸法
 62
     0
370
    -2
100
AcDbLine
 10
1536.416948633967
 20
204.4302411864766
 30
0.0
 11
1551.448659540795
 21
204.4302411864766
 31
0.0
  0
INSERT
  5
646A
330
6464
100
AcDbEntity
  8
寸法
 62
     0
370
    -2
100
AcDbBlockReference
  2
_DOT
 10
1534.416948633967
 20
204.4302411864766
 30
0.0
 41
2.0
 42
2.0
 43
2.0
 50
180.0
  0
INSERT
  5
646B
330
6464
100
AcDbEntity
  8
寸法
 62
     0
370
    -2
100
AcDbBlockReference
  2
_DOT
 10
1553.448659540795
 20
204.4302411864766
 30
0.0
 41
2.0
 42
2.0
 43
2.0
  0
MTEXT
  5
646C
330
6464
100
AcDbEntity
  8
寸法
 62
     0
100
AcDbMText
 10
1543.932804087381
 20
211.9302411864766
 30
0.0
 40
5.0
 41
0.0
 46
0.0
 71
     5
 72
     1
  1
\A1;19
  7
ＭＳ ゴシック
 73
     1
 44
1.0
  0
POINT
  5
646D
330
6464
100
AcDbEntity
  8
Defpoints
 62
     0
100
AcDbPoint
 10
1534.416948633967
 20
165.6397216858863
 30
0.0
  0
POINT
  5
646E
330
6464
100
AcDbEntity
  8
Defpoints
 62
     0
100
AcDbPoint
 10
1553.448659540795
 20
194.8447780359249
 30
0.0
  0
POINT
  5
646F
330
6464
100
AcDbEntity
  8
Defpoints
 62
     0
100
AcDbPoint
 10
1553.448659540795
 20
204.4302411864766
 30
0.0
  0
ENDBLK
  5
6466
330
6464
100
AcDbEntity
  8
0
100
AcDbBlockEnd
  0
BLOCK
  5
6471
330
6470
100
AcDbEntity
  8
0
100
AcDbBlockBegin
  2
*D22
 70
     1
 10
0.0
 20
0.0
 30
0.0
  3
*D22
  1

  0
LINE
  5
6473
330
6470
100
AcDbEntity
  8
寸法
 62
     0
370
    -2
100
AcDbLine
 10
1523.417034804688
 20
332.3273351076154
 30
0.0
 11
1508.584277411729
 21
332.3273351076154
 31
0.0
  0
LINE
  5
6474
330
6470
100
AcDbEntity
  8
寸法
 62
     0
370
    -2
100
AcDbLine
 10
1523.417034804688
 20
282.3273351071742
 30
0.0
 11
1508.584277411729
 21
282.3273351071742
 31
0.0
  0
LINE
  5
6475
330
6470
100
AcDbEntity
  8
寸法
 62
     0
370
    -2
100
AcDbLine
 10
1508.584277411729
 20
330.3273351076154
 30
0.0
 11
1508.584277411729
 21
284.3273351071742
 31
0.0
  0
INSERT
  5
6476
330
6470
100
AcDbEntity
  8
寸法
 62
     0
370
    -2
100
AcDbBlockReference
  2
_DOT
 10
1508.584277411729
 20
332.3273351076154
 30
0.0
 41
2.0
 42
2.0
 43
2.0
 50
90.0
  0
INSERT
  5
6477
330
6470
100
AcDbEntity
  8
寸法
 62
     0
370
    -2
100
AcDbBlockReference
  2
_DOT
 10
1508.584277411729
 20
282.3273351071742
 30
0.0
 41
2.0
 42
2.0
 43
2.0
 50
270.0
  0
MTEXT
  5
6478
330
6470
100
AcDbEntity
  8
寸法
 62
     0
100
AcDbMText
 10
1501.084277411729
 20
307.3273351073948
 30
0.0
 40
5.0
 41
0.0
 46
0.0
 71
     5
 72
     1
  1
\A1;50
  7
ＭＳ ゴシック
 11
0.0
 21
1.0
 31
0.0
 73
     1
 44
1.0
  0
POINT
  5
6479
330
6470
100
AcDbEntity
  8
Defpoints
 62
     0
100
AcDbPoint
 10
1528.417034804688
 20
332.3273351076154
 30
0.0
  0
POINT
  5
647A
330
6470
100
AcDbEntity
  8
Defpoints
 62
     0
100
AcDbPoint
 10
1528.417034804688
 20
282.3273351071742
 30
0.0
  0
POINT
  5
647B
330
6470
100
AcDbEntity
  8
Defpoints
 62
     0
100
AcDbPoint
 10
1508.584277411729
 20
282.3273351071742
 30
0.0
  0
ENDBLK
  5
6472
330
6470
100
AcDbEntity
  8
0
100
AcDbBlockEnd
  0
BLOCK
  5
647D
330
647C
100
AcDbEntity
  8
0
100
AcDbBlockBegin
  2
*D23
 70
     1
 10
0.0
 20
0.0
 30
0.0
  3
*D23
  1

  0
LINE
  5
647F
330
647C
100
AcDbEntity
  8
寸法
 62
     0
370
    -2
100
AcDbLine
 10
1417.093974622832
 20
290.738224425475
 30
0.0
 11
1394.863238389843
 21
290.738224425475
 31
0.0
  0
LINE
  5
6480
330
647C
100
AcDbEntity
  8
寸法
 62
     0
370
    -2
100
AcDbLine
 10
1417.093974622832
 20
313.738224425475
 30
0.0
 11
1394.863238389843
 21
313.738224425475
 31
0.0
  0
LINE
  5
6481
330
647C
100
AcDbEntity
  8
寸法
 62
     0
370
    -2
100
AcDbLine
 10
1394.863238389843
 20
292.738224425475
 30
0.0
 11
1394.863238389843
 21
311.738224425475
 31
0.0
  0
INSERT
  5
6482
330
647C
100
AcDbEntity
  8
寸法
 62
     0
370
    -2
100
AcDbBlockReference
  2
_DOT
 10
1394.863238389843
 20
290.738224425475
 30
0.0
 41
2.0
 42
2.0
 43
2.0
 50
270.0
  0
INSERT
  5
6483
330
647C
100
AcDbEntity
  8
寸法
 62
     0
370
    -2
100
AcDbBlockReference
  2
_DOT
 10
1394.863238389843
 20
313.738224425475
 30
0.0
 41
2.0
 42
2.0
 43
2.0
 50
90.0
  0
MTEXT
  5
6484
330
647C
100
AcDbEntity
  8
寸法
 62
     0
100
AcDbMText
 10
1387.363238389843
 20
302.238224425475
 30
0.0
 40
5.0
 41
0.0
 46
0.0
 71
     5
 72
     1
  1
\A1;23
  7
ＭＳ ゴシック
 11
0.0
 21
1.0
 31
0.0
 73
     1
 44
1.0
  0
POINT
  5
6485
330
647C
100
AcDbEntity
  8
Defpoints
 62
     0
100
AcDbPoint
 10
1422.093974622832
 20
290.738224425475
 30
0.0
  0
POINT
  5
6486
330
647C
100
AcDbEntity
  8
Defpoints
 62
     0
100
AcDbPoint
 10
1422.093974622832
 20
313.738224425475
 30
0.0
  0
POINT
  5
6487
330
647C
100
AcDbEntity
  8
Defpoints
 62
     0
100
AcDbPoint
 10
1394.863238389843
 20
313.738224425475
 30
0.0
  0
ENDBLK
  5
647E
330
647C
100
AcDbEntity
  8
0
100
AcDbBlockEnd
  0
BLOCK
  5
6489
330
6488
100
AcDbEntity
  8
0
100
AcDbBlockBegin
  2
*D24
 70
     1
 10
0.0
 20
0.0
 30
0.0
  3
*D24
  1

  0
LINE
  5
648B
330
6488
100
AcDbEntity
  8
寸法
 62
     0
370
    -2
100
AcDbLine
 10
1404.578162254778
 20
314.7533767242107
 30
0.0
 11
1394.863238389843
 21
314.7533767242107
 31
0.0
  0
LINE
  5
648C
330
6488
100
AcDbEntity
  8
寸法
 62
     0
370
    -2
100
AcDbLine
 10
1404.578162254778
 20
320.7255400630083
 30
0.0
 11
1394.863238389843
 21
320.7255400630083
 31
0.0
  0
LINE
  5
648D
330
6488
100
AcDbEntity
  8
寸法
 62
     0
370
    -2
100
AcDbLine
 10
1394.863238389843
 20
316.7533767242107
 30
0.0
 11
1394.863238389843
 21
318.7255400630083
 31
0.0
  0
INSERT
  5
648E
330
6488
100
AcDbEntity
  8
寸法
 62
     0
370
    -2
100
AcDbBlockReference
  2
_DOT
 10
1394.863238389843
 20
314.7533767242107
 30
0.0
 41
2.0
 42
2.0
 43
2.0
 50
270.0
  0
INSERT
  5
648F
330
6488
100
AcDbEntity
  8
寸法
 62
     0
370
    -2
100
AcDbBlockReference
  2
_DOT
 10
1394.863238389843
 20
320.7255400630083
 30
0.0
 41
2.0
 42
2.0
 43
2.0
 50
90.0
  0
MTEXT
  5
6490
330
6488
100
AcDbEntity
  8
寸法
 62
     0
100
AcDbMText
 10
1387.363238389843
 20
317.3479757308023
 30
0.0
 40
5.0
 41
0.0
 46
0.0
 71
     5
 72
     1
  1
\A1;6
  7
ＭＳ ゴシック
 11
0.0
 21
1.0
 31
0.0
 73
     1
 44
1.0
  0
POINT
  5
6491
330
6488
100
AcDbEntity
  8
Defpoints
 62
     0
100
AcDbPoint
 10
1409.578162254778
 20
314.7533767242107
 30
0.0
  0
POINT
  5
6492
330
6488
100
AcDbEntity
  8
Defpoints
 62
     0
100
AcDbPoint
 10
1409.578162254778
 20
320.7255400630083
 30
0.0
  0
POINT
  5
6493
330
6488
100
AcDbEntity
  8
Defpoints
 62
     0
100
AcDbPoint
 10
1394.863238389843
 20
320.7255400630083
 30
0.0
  0
ENDBLK
  5
648A
330
6488
100
AcDbEntity
  8
0
100
AcDbBlockEnd
  0
BLOCK
  5
6495
330
6494
100
AcDbEntity
  8
0
100
AcDbBlockBegin
  2
*D25
 70
     1
 10
0.0
 20
0.0
 30
0.0
  3
*D25
  1

  0
LINE
  5
6497
330
6494
100
AcDbEntity
  8
寸法
 62
     0
370
    -2
100
AcDbLine
 10
1167.923131372468
 20
293.0198392693691
 30
0.0
 11
1167.923131372468
 21
275.556670425452
 31
0.0
  0
LINE
  5
6498
330
6494
100
AcDbEntity
  8
寸法
 62
     0
370
    -2
100
AcDbLine
 10
1187.935815735376
 20
293.0198392693691
 30
0.0
 11
1187.935815735376
 21
275.556670425452
 31
0.0
  0
LINE
  5
6499
330
6494
100
AcDbEntity
  8
寸法
 62
     0
370
    -2
100
AcDbLine
 10
1169.923131372468
 20
275.556670425452
 30
0.0
 11
1185.935815735376
 21
275.556670425452
 31
0.0
  0
INSERT
  5
649A
330
6494
100
AcDbEntity
  8
寸法
 62
     0
370
    -2
100
AcDbBlockReference
  2
_DOT
 10
1167.923131372468
 20
275.556670425452
 30
0.0
 41
2.0
 42
2.0
 43
2.0
 50
180.0
  0
INSERT
  5
649B
330
6494
100
AcDbEntity
  8
寸法
 62
     0
370
    -2
100
AcDbBlockReference
  2
_DOT
 10
1187.935815735376
 20
275.556670425452
 30
0.0
 41
2.0
 42
2.0
 43
2.0
  0
MTEXT
  5
649C
330
6494
100
AcDbEntity
  8
寸法
 62
     0
100
AcDbMText
 10
1177.929473553922
 20
283.056670425452
 30
0.0
 40
5.0
 41
0.0
 46
0.0
 71
     5
 72
     1
  1
\A1;20
  7
ＭＳ ゴシック
 73
     1
 44
1.0
  0
POINT
  5
649D
330
6494
100
AcDbEntity
  8
Defpoints
 62
     0
100
AcDbPoint
 10
1167.923131372468
 20
298.0198392693691
 30
0.0
  0
POINT
  5
649E
330
6494
100
AcDbEntity
  8
Defpoints
 62
     0
100
AcDbPoint
 10
1187.935815735376
 20
298.0198392693691
 30
0.0
  0
POINT
  5
649F
330
6494
100
AcDbEntity
  8
Defpoints
 62
     0
100
AcDbPoint
 10
1187.935815735376
 20
275.556670425452
 30
0.0
  0
ENDBLK
  5
6496
330
6494
100
AcDbEntity
  8
0
100
AcDbBlockEnd
  0
BLOCK
  5
64A1
330
64A0
100
AcDbEntity
  8
0
100
AcDbBlockBegin
  2
*D26
 70
     1
 10
0.0
 20
0.0
 30
0.0
  3
*D26
  1

  0
LINE
  5
64A3
330
64A0
100
AcDbEntity
  8
寸法
 62
     0
370
    -2
100
AcDbLine
 10
1163.431539933038
 20
297.5110860250288
 30
0.0
 11
1146.742182869165
 21
297.5110860250288
 31
0.0
  0
LINE
  5
64A4
330
64A0
100
AcDbEntity
  8
寸法
 62
     0
370
    -2
100
AcDbLine
 10
1163.431539933038
 20
304.0110860250288
 30
0.0
 11
1146.742182869165
 21
304.0110860250288
 31
0.0
  0
LINE
  5
64A5
330
64A0
100
AcDbEntity
  8
寸法
 62
     0
370
    -2
100
AcDbLine
 10
1146.742182869165
 20
299.5110860250288
 30
0.0
 11
1146.742182869165
 21
302.0110860250288
 31
0.0
  0
INSERT
  5
64A6
330
64A0
100
AcDbEntity
  8
寸法
 62
     0
370
    -2
100
AcDbBlockReference
  2
_DOT
 10
1146.742182869165
 20
297.5110860250288
 30
0.0
 41
2.0
 42
2.0
 43
2.0
 50
270.0
  0
INSERT
  5
64A7
330
64A0
100
AcDbEntity
  8
寸法
 62
     0
370
    -2
100
AcDbBlockReference
  2
_DOT
 10
1146.742182869165
 20
304.0110860250288
 30
0.0
 41
2.0
 42
2.0
 43
2.0
 50
90.0
  0
MTEXT
  5
64A8
330
64A0
100
AcDbEntity
  8
寸法
 62
     0
100
AcDbMText
 10
1139.242182869165
 20
300.7610860250288
 30
0.0
 40
5.0
 41
0.0
 46
0.0
 71
     5
 72
     1
  1
\A1;6.5
  7
ＭＳ ゴシック
 11
0.0
 21
1.0
 31
0.0
 73
     1
 44
1.0
  0
POINT
  5
64A9
330
64A0
100
AcDbEntity
  8
Defpoints
 62
     0
100
AcDbPoint
 10
1168.431539933038
 20
297.5110860250288
 30
0.0
  0
POINT
  5
64AA
330
64A0
100
AcDbEntity
  8
Defpoints
 62
     0
100
AcDbPoint
 10
1168.431539933038
 20
304.0110860250288
 30
0.0
  0
POINT
  5
64AB
330
64A0
100
AcDbEntity
  8
Defpoints
 62
     0
100
AcDbPoint
 10
1146.742182869165
 20
304.0110860250288
 30
0.0
  0
ENDBLK
  5
64A2
330
64A0
100
AcDbEntity
  8
0
100
AcDbBlockEnd
  0
BLOCK
  5
64AD
330
64AC
100
AcDbEntity
  8
0
100
AcDbBlockBegin
  2
*D27
 70
     1
 10
0.0
 20
0.0
 30
0.0
  3
*D27
  1

  0
LINE
  5
64AF
330
64AC
100
AcDbEntity
  8
寸法
 62
     0
370
    -2
100
AcDbLine
 10
1207.992809196857
 20
310.3450415126799
 30
0.0
 11
1223.147637601241
 21
310.3450415126799
 31
0.0
  0
LINE
  5
64B0
330
64AC
100
AcDbEntity
  8
寸法
 62
     0
370
    -2
100
AcDbLine
 10
1207.992809196857
 20
304.3730505157673
 30
0.0
 11
1223.147637601241
 21
304.3730505157673
 31
0.0
  0
LINE
  5
64B1
330
64AC
100
AcDbEntity
  8
寸法
 62
     0
370
    -2
100
AcDbLine
 10
1223.147637601241
 20
308.3450415126799
 30
0.0
 11
1223.147637601241
 21
306.3730505157673
 31
0.0
  0
INSERT
  5
64B2
330
64AC
100
AcDbEntity
  8
寸法
 62
     0
370
    -2
100
AcDbBlockReference
  2
_DOT
 10
1223.147637601241
 20
310.3450415126799
 30
0.0
 41
2.0
 42
2.0
 43
2.0
 50
90.0
  0
INSERT
  5
64B3
330
64AC
100
AcDbEntity
  8
寸法
 62
     0
370
    -2
100
AcDbBlockReference
  2
_DOT
 10
1223.147637601241
 20
304.3730505157673
 30
0.0
 41
2.0
 42
2.0
 43
2.0
 50
270.0
  0
MTEXT
  5
64B4
330
64AC
100
AcDbEntity
  8
寸法
 62
     0
100
AcDbMText
 10
1215.647637601241
 20
307.3590460142236
 30
0.0
 40
5.0
 41
0.0
 46
0.0
 71
     5
 72
     1
  1
\A1;6
  7
ＭＳ ゴシック
 11
0.0
 21
1.0
 31
0.0
 73
     1
 44
1.0
  0
POINT
  5
64B5
330
64AC
100
AcDbEntity
  8
Defpoints
 62
     0
100
AcDbPoint
 10
1202.992809196857
 20
310.3450415126799
 30
0.0
  0
POINT
  5
64B6
330
64AC
100
AcDbEntity
  8
Defpoints
 62
     0
100
AcDbPoint
 10
1202.992809196857
 20
304.3730505157673
 30
0.0
  0
POINT
  5
64B7
330
64AC
100
AcDbEntity
  8
Defpoints
 62
     0
100
AcDbPoint
 10
1223.147637601241
 20
304.3730505157673
 30
0.0
  0
ENDBLK
  5
64AE
330
64AC
100
AcDbEntity
  8
0
100
AcDbBlockEnd
  0
BLOCK
  5
64B9
330
64B8
100
AcDbEntity
  8
0
100
AcDbBlockBegin
  2
*D28
 70
     1
 10
0.0
 20
0.0
 30
0.0
  3
*D28
  1

  0
LINE
  5
64BB
330
64B8
100
AcDbEntity
  8
寸法
 62
     0
370
    -2
100
AcDbLine
 10
1422.093974622832
 20
285.738224425475
 30
0.0
 11
1422.093974622832
 21
270.0359108160501
 31
0.0
  0
LINE
  5
64BC
330
64B8
100
AcDbEntity
  8
寸法
 62
     0
370
    -2
100
AcDbLine
 10
1447.062005203396
 20
285.738224425475
 30
0.0
 11
1447.062005203396
 21
270.0359108160501
 31
0.0
  0
LINE
  5
64BD
330
64B8
100
AcDbEntity
  8
寸法
 62
     0
370
    -2
100
AcDbLine
 10
1424.093974622832
 20
270.0359108160501
 30
0.0
 11
1445.062005203396
 21
270.0359108160501
 31
0.0
  0
INSERT
  5
64BE
330
64B8
100
AcDbEntity
  8
寸法
 62
     0
370
    -2
100
AcDbBlockReference
  2
_DOT
 10
1422.093974622832
 20
270.0359108160501
 30
0.0
 41
2.0
 42
2.0
 43
2.0
 50
180.0
  0
INSERT
  5
64BF
330
64B8
100
AcDbEntity
  8
寸法
 62
     0
370
    -2
100
AcDbBlockReference
  2
_DOT
 10
1447.062005203396
 20
270.0359108160501
 30
0.0
 41
2.0
 42
2.0
 43
2.0
  0
MTEXT
  5
64C0
330
64B8
100
AcDbEntity
  8
寸法
 62
     0
100
AcDbMText
 10
1434.577989913114
 20
277.5359108160501
 30
0.0
 40
5.0
 41
0.0
 46
0.0
 71
     5
 72
     1
  1
\A1;25
  7
ＭＳ ゴシック
 73
     1
 44
1.0
  0
POINT
  5
64C1
330
64B8
100
AcDbEntity
  8
Defpoints
 62
     0
100
AcDbPoint
 10
1422.093974622832
 20
290.738224425475
 30
0.0
  0
POINT
  5
64C2
330
64B8
100
AcDbEntity
  8
Defpoints
 62
     0
100
AcDbPoint
 10
1447.062005203396
 20
290.738224425475
 30
0.0
  0
POINT
  5
64C3
330
64B8
100
AcDbEntity
  8
Defpoints
 62
     0
100
AcDbPoint
 10
1447.062005203396
 20
270.0359108160501
 30
0.0
  0
ENDBLK
  5
64BA
330
64B8
100
AcDbEntity
  8
0
100
AcDbBlockEnd
  0
BLOCK
  5
64C5
330
64C4
100
AcDbEntity
  8
0
100
AcDbBlockBegin
  2
*D29
 70
     1
 10
0.0
 20
0.0
 30
0.0
  3
*D29
  1

  0
LINE
  5
64C7
330
64C4
100
AcDbEntity
  8
寸法
 62
     0
370
    -2
100
AcDbLine
 10
1270.895862585683
 20
332.390756921273
 30
0.0
 11
1257.679696172544
 21
332.390756921273
 31
0.0
  0
LINE
  5
64C8
330
64C4
100
AcDbEntity
  8
寸法
 62
     0
370
    -2
100
AcDbLine
 10
1270.895862585683
 20
282.3273351071742
 30
0.0
 11
1257.679696172544
 21
282.3273351071742
 31
0.0
  0
LINE
  5
64C9
330
64C4
100
AcDbEntity
  8
寸法
 62
     0
370
    -2
100
AcDbLine
 10
1257.679696172544
 20
330.390756921273
 30
0.0
 11
1257.679696172544
 21
284.3273351071742
 31
0.0
  0
INSERT
  5
64CA
330
64C4
100
AcDbEntity
  8
寸法
 62
     0
370
    -2
100
AcDbBlockReference
  2
_DOT
 10
1257.679696172544
 20
332.390756921273
 30
0.0
 41
2.0
 42
2.0
 43
2.0
 50
90.0
  0
INSERT
  5
64CB
330
64C4
100
AcDbEntity
  8
寸法
 62
     0
370
    -2
100
AcDbBlockReference
  2
_DOT
 10
1257.679696172544
 20
282.3273351071742
 30
0.0
 41
2.0
 42
2.0
 43
2.0
 50
270.0
  0
MTEXT
  5
64CC
330
64C4
100
AcDbEntity
  8
寸法
 62
     0
100
AcDbMText
 10
1250.179696172544
 20
307.3590460142236
 30
0.0
 40
5.0
 41
0.0
 46
0.0
 71
     5
 72
     1
  1
\A1;50
  7
ＭＳ ゴシック
 11
0.0
 21
1.0
 31
0.0
 73
     1
 44
1.0
  0
POINT
  5
64CD
330
64C4
100
AcDbEntity
  8
Defpoints
 62
     0
100
AcDbPoint
 10
1275.895862585683
 20
332.390756921273
 30
0.0
  0
POINT
  5
64CE
330
64C4
100
AcDbEntity
  8
Defpoints
 62
     0
100
AcDbPoint
 10
1275.895862585683
 20
282.3273351071742
 30
0.0
  0
POINT
  5
64CF
330
64C4
100
AcDbEntity
  8
Defpoints
 62
     0
100
AcDbPoint
 10
1257.679696172544
 20
282.3273351071742
 30
0.0
  0
ENDBLK
  5
64C6
330
64C4
100
AcDbEntity
  8
0
100
AcDbBlockEnd
  0
BLOCK
  5
658A
330
6589
100
AcDbEntity
  8
0
100
AcDbBlockBegin
  2
*D30
 70
     1
 10
0.0
 20
0.0
 30
0.0
  3
*D30
  1

  0
LINE
  5
658C
330
6589
100
AcDbEntity
  8
寸法
 62
     0
370
    -2
100
AcDbLine
 10
75.42265108668028
 20
315.0320857698463
 30
0.0
 11
75.42265108668028
 21
329.7020316361658
 31
0.0
  0
LINE
  5
658D
330
6589
100
AcDbEntity
  8
寸法
 62
     0
370
    -2
100
AcDbLine
 10
113.4226510866803
 20
315.0320857698463
 30
0.0
 11
113.4226510866803
 21
329.7020316361658
 31
0.0
  0
LINE
  5
658E
330
6589
100
AcDbEntity
  8
寸法
 62
     0
370
    -2
100
AcDbLine
 10
77.42265108668028
 20
329.7020316361658
 30
0.0
 11
111.4226510866803
 21
329.7020316361658
 31
0.0
  0
INSERT
  5
658F
330
6589
100
AcDbEntity
  8
寸法
 62
     0
370
    -2
100
AcDbBlockReference
  2
_DOT
 10
75.42265108668028
 20
329.7020316361658
 30
0.0
 41
2.0
 42
2.0
 43
2.0
 50
180.0
  0
INSERT
  5
6590
330
6589
100
AcDbEntity
  8
寸法
 62
     0
370
    -2
100
AcDbBlockReference
  2
_DOT
 10
113.4226510866803
 20
329.7020316361658
 30
0.0
 41
2.0
 42
2.0
 43
2.0
  0
MTEXT
  5
6591
330
6589
100
AcDbEntity
  8
寸法
 62
     0
100
AcDbMText
 10
94.42265108668028
 20
337.2020316361658
 30
0.0
 40
5.0
 41
0.0
 46
0.0
 71
     5
 72
     1
  1
\A1;38
  7
ＭＳ ゴシック
 73
     1
 44
1.0
  0
POINT
  5
6592
330
6589
100
AcDbEntity
  8
Defpoints
 62
     0
100
AcDbPoint
 10
75.42265108668028
 20
310.0320857698463
 30
0.0
  0
POINT
  5
6593
330
6589
100
AcDbEntity
  8
Defpoints
 62
     0
100
AcDbPoint
 10
113.4226510866803
 20
310.0320857698463
 30
0.0
  0
POINT
  5
6594
330
6589
100
AcDbEntity
  8
Defpoints
 62
     0
100
AcDbPoint
 10
113.4226510866803
 20
329.7020316361658
 30
0.0
  0
ENDBLK
  5
658B
330
6589
100
AcDbEntity
  8
0
100
AcDbBlockEnd
  0
BLOCK
  5
6599
330
6598
100
AcDbEntity
  8
0
100
AcDbBlockBegin
  2
*D31
 70
     1
 10
0.0
 20
0.0
 30
0.0
  3
*D31
  1

  0
LINE
  5
659B
330
6598
100
AcDbEntity
  8
寸法
 62
     0
370
    -2
100
AcDbLine
 10
125.8186640010152
 20
310.3487529396576
 30
0.0
 11
142.7835617611878
 21
310.3487529396576
 31
0.0
  0
LINE
  5
659C
330
6598
100
AcDbEntity
  8
寸法
 62
     0
370
    -2
100
AcDbLine
 10
125.8186640010152
 20
303.3691186695429
 30
0.0
 11
142.7835617611878
 21
303.3691186695429
 31
0.0
  0
LINE
  5
659D
330
6598
100
AcDbEntity
  8
寸法
 62
     0
370
    -2
100
AcDbLine
 10
142.7835617611878
 20
308.3487529396576
 30
0.0
 11
142.7835617611878
 21
305.3691186695429
 31
0.0
  0
INSERT
  5
659E
330
6598
100
AcDbEntity
  8
寸法
 62
     0
370
    -2
100
AcDbBlockReference
  2
_DOT
 10
142.7835617611878
 20
310.3487529396576
 30
0.0
 41
2.0
 42
2.0
 43
2.0
 50
90.0
  0
INSERT
  5
659F
330
6598
100
AcDbEntity
  8
寸法
 62
     0
370
    -2
100
AcDbBlockReference
  2
_DOT
 10
142.7835617611878
 20
303.3691186695429
 30
0.0
 41
2.0
 42
2.0
 43
2.0
 50
270.0
  0
MTEXT
  5
65A0
330
6598
100
AcDbEntity
  8
寸法
 62
     0
100
AcDbMText
 10
135.2835617611878
 20
306.8589358046003
 30
0.0
 40
5.0
 41
0.0
 46
0.0
 71
     5
 72
     1
  1
\A1;7
  7
ＭＳ ゴシック
 11
0.0
 21
1.0
 31
0.0
 73
     1
 44
1.0
  0
POINT
  5
65A1
330
6598
100
AcDbEntity
  8
Defpoints
 62
     0
100
AcDbPoint
 10
120.8186640010152
 20
310.3487529396576
 30
0.0
  0
POINT
  5
65A2
330
6598
100
AcDbEntity
  8
Defpoints
 62
     0
100
AcDbPoint
 10
120.8186640010152
 20
303.3691186695429
 30
0.0
  0
POINT
  5
65A3
330
6598
100
AcDbEntity
  8
Defpoints
 62
     0
100
AcDbPoint
 10
142.7835617611878
 20
303.3691186695429
 30
0.0
  0
ENDBLK
  5
659A
330
6598
100
AcDbEntity
  8
0
100
AcDbBlockEnd
  0
BLOCK
  5
65A9
330
65A8
100
AcDbEntity
  8
0
100
AcDbBlockBegin
  2
*D32
 70
     1
 10
0.0
 20
0.0
 30
0.0
  3
*D32
  1

  0
LINE
  5
65AB
330
65A8
100
AcDbEntity
  8
寸法
 62
     0
370
    -2
100
AcDbLine
 10
84.33368011440791
 20
291.452826086516
 30
0.0
 11
84.33368011440791
 21
277.100044598888
 31
0.0
  0
LINE
  5
65AC
330
65A8
100
AcDbEntity
  8
寸法
 62
     0
370
    -2
100
AcDbLine
 10
104.3210806252401
 20
291.452826086516
 30
0.0
 11
104.3210806252401
 21
277.100044598888
 31
0.0
  0
LINE
  5
65AD
330
65A8
100
AcDbEntity
  8
寸法
 62
     0
370
    -2
100
AcDbLine
 10
86.33368011440791
 20
277.100044598888
 30
0.0
 11
102.3210806252401
 21
277.100044598888
 31
0.0
  0
INSERT
  5
65AE
330
65A8
100
AcDbEntity
  8
寸法
 62
     0
370
    -2
100
AcDbBlockReference
  2
_DOT
 10
84.33368011440791
 20
277.100044598888
 30
0.0
 41
2.0
 42
2.0
 43
2.0
 50
180.0
  0
INSERT
  5
65AF
330
65A8
100
AcDbEntity
  8
寸法
 62
     0
370
    -2
100
AcDbBlockReference
  2
_DOT
 10
104.3210806252401
 20
277.100044598888
 30
0.0
 41
2.0
 42
2.0
 43
2.0
  0
MTEXT
  5
65B0
330
65A8
100
AcDbEntity
  8
寸法
 62
     0
100
AcDbMText
 10
94.32738036982403
 20
284.600044598888
 30
0.0
 40
5.0
 41
0.0
 46
0.0
 71
     5
 72
     1
  1
\A1;20
  7
ＭＳ ゴシック
 73
     1
 44
1.0
  0
POINT
  5
65B1
330
65A8
100
AcDbEntity
  8
Defpoints
 62
     0
100
AcDbPoint
 10
84.33368011440791
 20
296.452826086516
 30
0.0
  0
POINT
  5
65B2
330
65A8
100
AcDbEntity
  8
Defpoints
 62
     0
100
AcDbPoint
 10
104.3210806252401
 20
296.452826086516
 30
0.0
  0
POINT
  5
65B3
330
65A8
100
AcDbEntity
  8
Defpoints
 62
     0
100
AcDbPoint
 10
104.3210806252401
 20
277.100044598888
 30
0.0
  0
ENDBLK
  5
65AA
330
65A8
100
AcDbEntity
  8
0
100
AcDbBlockEnd
  0
BLOCK
  5
65B8
330
65B7
100
AcDbEntity
  8
0
100
AcDbBlockBegin
  2
*D33
 70
     1
 10
0.0
 20
0.0
 30
0.0
  3
*D33
  1

  0
LINE
  5
65BA
330
65B7
100
AcDbEntity
  8
寸法
 62
     0
370
    -2
100
AcDbLine
 10
79.33368011440791
 20
296.452826086516
 30
0.0
 11
57.15788409992763
 21
296.452826086516
 31
0.0
  0
LINE
  5
65BB
330
65B7
100
AcDbEntity
  8
寸法
 62
     0
370
    -2
100
AcDbLine
 10
62.83626886278273
 20
303.3691186695429
 30
0.0
 11
57.15788409992763
 21
303.3691186695429
 31
0.0
  0
LINE
  5
65BC
330
65B7
100
AcDbEntity
  8
寸法
 62
     0
370
    -2
100
AcDbLine
 10
57.15788409992763
 20
298.452826086516
 30
0.0
 11
57.15788409992763
 21
301.3691186695429
 31
0.0
  0
INSERT
  5
65BD
330
65B7
100
AcDbEntity
  8
寸法
 62
     0
370
    -2
100
AcDbBlockReference
  2
_DOT
 10
57.15788409992763
 20
296.452826086516
 30
0.0
 41
2.0
 42
2.0
 43
2.0
 50
270.0
  0
INSERT
  5
65BE
330
65B7
100
AcDbEntity
  8
寸法
 62
     0
370
    -2
100
AcDbBlockReference
  2
_DOT
 10
57.15788409992763
 20
303.3691186695429
 30
0.0
 41
2.0
 42
2.0
 43
2.0
 50
90.0
  0
MTEXT
  5
65BF
330
65B7
100
AcDbEntity
  8
寸法
 62
     0
100
AcDbMText
 10
49.65788409992763
 20
299.7026253186895
 30
0.0
 40
5.0
 41
0.0
 46
0.0
 71
     5
 72
     1
  1
\A1;7
  7
ＭＳ ゴシック
 11
0.0
 21
1.0
 31
0.0
 73
     1
 44
1.0
  0
POINT
  5
65C0
330
65B7
100
AcDbEntity
  8
Defpoints
 62
     0
100
AcDbPoint
 10
84.33368011440791
 20
296.452826086516
 30
0.0
  0
POINT
  5
65C1
330
65B7
100
AcDbEntity
  8
Defpoints
 62
     0
100
AcDbPoint
 10
67.83626886278273
 20
303.3691186695429
 30
0.0
  0
POINT
  5
65C2
330
65B7
100
AcDbEntity
  8
Defpoints
 62
     0
100
AcDbPoint
 10
57.15788409992763
 20
303.3691186695429
 30
0.0
  0
ENDBLK
  5
65B9
330
65B7
100
AcDbEntity
  8
0
100
AcDbBlockEnd
  0
BLOCK
  5
65CB
330
65CA
100
AcDbEntity
  8
0
100
AcDbBlockBegin
  2
*D34
 70
     1
 10
0.0
 20
0.0
 30
0.0
  3
*D34
  1

  0
LINE
  5
65CD
330
65CA
100
AcDbEntity
  8
寸法
 62
     0
370
    -2
100
AcDbLine
 10
212.3636978053727
 20
333.8552459414403
 30
0.0
 11
183.0758765054894
 21
333.8552459414403
 31
0.0
  0
LINE
  5
65CE
330
65CA
100
AcDbEntity
  8
寸法
 62
     0
370
    -2
100
AcDbLine
 10
212.3485508801995
 20
280.8728508032077
 30
0.0
 11
183.0758765054894
 21
280.8728508032077
 31
0.0
  0
LINE
  5
65CF
330
65CA
100
AcDbEntity
  8
寸法
 62
     0
370
    -2
100
AcDbLine
 10
183.0758765054894
 20
331.8552459414403
 30
0.0
 11
183.0758765054894
 21
282.8728508032077
 31
0.0
  0
INSERT
  5
65D0
330
65CA
100
AcDbEntity
  8
寸法
 62
     0
370
    -2
100
AcDbBlockReference
  2
_DOT
 10
183.0758765054894
 20
333.8552459414403
 30
0.0
 41
2.0
 42
2.0
 43
2.0
 50
90.0
  0
INSERT
  5
65D1
330
65CA
100
AcDbEntity
  8
寸法
 62
     0
370
    -2
100
AcDbBlockReference
  2
_DOT
 10
183.0758765054894
 20
280.8728508032077
 30
0.0
 41
2.0
 42
2.0
 43
2.0
 50
270.0
  0
MTEXT
  5
65D2
330
65CA
100
AcDbEntity
  8
寸法
 62
     0
100
AcDbMText
 10
175.5758765054894
 20
307.364048372324
 30
0.0
 40
5.0
 41
0.0
 46
0.0
 71
     5
 72
     1
  1
\A1;53
  7
ＭＳ ゴシック
 11
0.0
 21
1.0
 31
0.0
 73
     1
 44
1.0
  0
POINT
  5
65D3
330
65CA
100
AcDbEntity
  8
Defpoints
 62
     0
100
AcDbPoint
 10
217.3636978053727
 20
333.8552459414403
 30
0.0
  0
POINT
  5
65D4
330
65CA
100
AcDbEntity
  8
Defpoints
 62
     0
100
AcDbPoint
 10
217.3485508801995
 20
280.8728508032077
 30
0.0
  0
POINT
  5
65D5
330
65CA
100
AcDbEntity
  8
Defpoints
 62
     0
100
AcDbPoint
 10
183.0758765054894
 20
280.8728508032077
 30
0.0
  0
ENDBLK
  5
65CC
330
65CA
100
AcDbEntity
  8
0
100
AcDbBlockEnd
  0
BLOCK
  5
65DA
330
65D9
100
AcDbEntity
  8
0
100
AcDbBlockBegin
  2
*D35
 70
     1
 10
0.0
 20
0.0
 30
0.0
  3
*D35
  1

  0
LINE
  5
65DC
330
65D9
100
AcDbEntity
  8
寸法
 62
     0
370
    -2
100
AcDbLine
 10
363.6664844872397
 20
285.4627688835441
 30
0.0
 11
363.6664844872397
 21
271.1017200617461
 31
0.0
  0
LINE
  5
65DD
330
65D9
100
AcDbEntity
  8
寸法
 62
     0
370
    -2
100
AcDbLine
 10
338.6664844890023
 20
285.4627688835441
 30
0.0
 11
338.6664844890023
 21
271.1017200617461
 31
0.0
  0
LINE
  5
65DE
330
65D9
100
AcDbEntity
  8
寸法
 62
     0
370
    -2
100
AcDbLine
 10
361.6664844872397
 20
271.1017200617461
 30
0.0
 11
340.6664844890023
 21
271.1017200617461
 31
0.0
  0
INSERT
  5
65DF
330
65D9
100
AcDbEntity
  8
寸法
 62
     0
370
    -2
100
AcDbBlockReference
  2
_DOT
 10
363.6664844872397
 20
271.1017200617461
 30
0.0
 41
2.0
 42
2.0
 43
2.0
  0
INSERT
  5
65E0
330
65D9
100
AcDbEntity
  8
寸法
 62
     0
370
    -2
100
AcDbBlockReference
  2
_DOT
 10
338.6664844890023
 20
271.1017200617461
 30
0.0
 41
2.0
 42
2.0
 43
2.0
 50
180.0
  0
MTEXT
  5
65E1
330
65D9
100
AcDbEntity
  8
寸法
 62
     0
100
AcDbMText
 10
351.166484488121
 20
278.6017200617461
 30
0.0
 40
5.0
 41
0.0
 46
0.0
 71
     5
 72
     1
  1
\A1;25
  7
ＭＳ ゴシック
 73
     1
 44
1.0
  0
POINT
  5
65E2
330
65D9
100
AcDbEntity
  8
Defpoints
 62
     0
100
AcDbPoint
 10
363.6664844872397
 20
290.4627688835441
 30
0.0
  0
POINT
  5
65E3
330
65D9
100
AcDbEntity
  8
Defpoints
 62
     0
100
AcDbPoint
 10
338.6664844890023
 20
290.4627688835441
 30
0.0
  0
POINT
  5
65E4
330
65D9
100
AcDbEntity
  8
Defpoints
 62
     0
100
AcDbPoint
 10
338.6664844890023
 20
271.1017200617461
 30
0.0
  0
ENDBLK
  5
65DB
330
65D9
100
AcDbEntity
  8
0
100
AcDbBlockEnd
  0
BLOCK
  5
65E7
330
65E6
100
AcDbEntity
  8
0
100
AcDbBlockBegin
  2
*D36
 70
     1
 10
0.0
 20
0.0
 30
0.0
  3
*D36
  1

  0
LINE
  5
65E9
330
65E6
100
AcDbEntity
  8
寸法
 62
     0
370
    -2
100
AcDbLine
 10
333.6664844890023
 20
290.4627688835441
 30
0.0
 11
309.3976905392057
 21
290.4627688835441
 31
0.0
  0
LINE
  5
65EA
330
65E6
100
AcDbEntity
  8
寸法
 62
     0
370
    -2
100
AcDbLine
 10
333.6664844890023
 20
313.4627688835441
 30
0.0
 11
309.3976905392057
 21
313.4627688835441
 31
0.0
  0
LINE
  5
65EB
330
65E6
100
AcDbEntity
  8
寸法
 62
     0
370
    -2
100
AcDbLine
 10
309.3976905392057
 20
292.4627688835441
 30
0.0
 11
309.3976905392057
 21
311.4627688835441
 31
0.0
  0
INSERT
  5
65EC
330
65E6
100
AcDbEntity
  8
寸法
 62
     0
370
    -2
100
AcDbBlockReference
  2
_DOT
 10
309.3976905392057
 20
290.4627688835441
 30
0.0
 41
2.0
 42
2.0
 43
2.0
 50
270.0
  0
INSERT
  5
65ED
330
65E6
100
AcDbEntity
  8
寸法
 62
     0
370
    -2
100
AcDbBlockReference
  2
_DOT
 10
309.3976905392057
 20
313.4627688835441
 30
0.0
 41
2.0
 42
2.0
 43
2.0
 50
90.0
  0
MTEXT
  5
65EE
330
65E6
100
AcDbEntity
  8
寸法
 62
     0
100
AcDbMText
 10
301.8976905392057
 20
301.9627688835441
 30
0.0
 40
5.0
 41
0.0
 46
0.0
 71
     5
 72
     1
  1
\A1;23
  7
ＭＳ ゴシック
 11
0.0
 21
1.0
 31
0.0
 73
     1
 44
1.0
  0
POINT
  5
65EF
330
65E6
100
AcDbEntity
  8
Defpoints
 62
     0
100
AcDbPoint
 10
338.6664844890023
 20
290.4627688835441
 30
0.0
  0
POINT
  5
65F0
330
65E6
100
AcDbEntity
  8
Defpoints
 62
     0
100
AcDbPoint
 10
338.6664844890023
 20
313.4627688835441
 30
0.0
  0
POINT
  5
65F1
330
65E6
100
AcDbEntity
  8
Defpoints
 62
     0
100
AcDbPoint
 10
309.3976905392057
 20
313.4627688835441
 30
0.0
  0
ENDBLK
  5
65E8
330
65E6
100
AcDbEntity
  8
0
100
AcDbBlockEnd
  0
BLOCK
  5
65F4
330
65F3
100
AcDbEntity
  8
0
100
AcDbBlockBegin
  2
*D37
 70
     1
 10
0.0
 20
0.0
 30
0.0
  3
*D37
  1

  0
LINE
  5
65F6
330
65F3
100
AcDbEntity
  8
寸法
 62
     0
370
    -2
100
AcDbLine
 10
319.6437021375358
 20
320.729251489986
 30
0.0
 11
309.3976905392057
 21
320.729251489986
 31
0.0
  0
LINE
  5
65F7
330
65F3
100
AcDbEntity
  8
寸法
 62
     0
370
    -2
100
AcDbLine
 10
319.6437021375358
 20
313.729251489986
 30
0.0
 11
309.3976905392057
 21
313.729251489986
 31
0.0
  0
LINE
  5
65F8
330
65F3
100
AcDbEntity
  8
寸法
 62
     0
370
    -2
100
AcDbLine
 10
309.3976905392057
 20
318.729251489986
 30
0.0
 11
309.3976905392057
 21
315.729251489986
 31
0.0
  0
INSERT
  5
65F9
330
65F3
100
AcDbEntity
  8
寸法
 62
     0
370
    -2
100
AcDbBlockReference
  2
_DOT
 10
309.3976905392057
 20
320.729251489986
 30
0.0
 41
2.0
 42
2.0
 43
2.0
 50
90.0
  0
INSERT
  5
65FA
330
65F3
100
AcDbEntity
  8
寸法
 62
     0
370
    -2
100
AcDbBlockReference
  2
_DOT
 10
309.3976905392057
 20
313.729251489986
 30
0.0
 41
2.0
 42
2.0
 43
2.0
 50
270.0
  0
MTEXT
  5
65FB
330
65F3
100
AcDbEntity
  8
寸法
 62
     0
100
AcDbMText
 10
301.8976905392057
 20
317.4627688835441
 30
0.0
 40
5.0
 41
0.0
 46
0.0
 71
     5
 72
     1
  1
\A1;7
  7
ＭＳ ゴシック
 11
0.0
 21
1.0
 31
0.0
 73
     1
 44
1.0
  0
POINT
  5
65FC
330
65F3
100
AcDbEntity
  8
Defpoints
 62
     0
100
AcDbPoint
 10
324.6437021375358
 20
320.729251489986
 30
0.0
  0
POINT
  5
65FD
330
65F3
100
AcDbEntity
  8
Defpoints
 62
     0
100
AcDbPoint
 10
324.6437021375358
 20
313.729251489986
 30
0.0
  0
POINT
  5
65FE
330
65F3
100
AcDbEntity
  8
Defpoints
 62
     0
100
AcDbPoint
 10
309.3976905392057
 20
313.729251489986
 30
0.0
  0
ENDBLK
  5
65F5
330
65F3
100
AcDbEntity
  8
0
100
AcDbBlockEnd
  0
BLOCK
  5
6604
330
6603
100
AcDbEntity
  8
0
100
AcDbBlockBegin
  2
*D38
 70
     1
 10
0.0
 20
0.0
 30
0.0
  3
*D38
  1

  0
LINE
  5
6606
330
6603
100
AcDbEntity
  8
寸法
 62
     0
370
    -2
100
AcDbLine
 10
464.9127081378379
 20
333.8222441034889
 30
0.0
 11
433.1489472096227
 21
333.8222441034889
 31
0.0
  0
LINE
  5
6607
330
6603
100
AcDbEntity
  8
寸法
 62
     0
370
    -2
100
AcDbLine
 10
464.907716537497
 20
280.8398489652562
 30
0.0
 11
433.1489472096227
 21
280.8398489652562
 31
0.0
  0
LINE
  5
6608
330
6603
100
AcDbEntity
  8
寸法
 62
     0
370
    -2
100
AcDbLine
 10
433.1489472096227
 20
331.8222441034889
 30
0.0
 11
433.1489472096227
 21
282.8398489652562
 31
0.0
  0
INSERT
  5
6609
330
6603
100
AcDbEntity
  8
寸法
 62
     0
370
    -2
100
AcDbBlockReference
  2
_DOT
 10
433.1489472096227
 20
333.8222441034889
 30
0.0
 41
2.0
 42
2.0
 43
2.0
 50
90.0
  0
INSERT
  5
660A
330
6603
100
AcDbEntity
  8
寸法
 62
     0
370
    -2
100
AcDbBlockReference
  2
_DOT
 10
433.1489472096227
 20
280.8398489652562
 30
0.0
 41
2.0
 42
2.0
 43
2.0
 50
270.0
  0
MTEXT
  5
660B
330
6603
100
AcDbEntity
  8
寸法
 62
     0
100
AcDbMText
 10
425.6489472096227
 20
307.3310465343725
 30
0.0
 40
5.0
 41
0.0
 46
0.0
 71
     5
 72
     1
  1
\A1;53
  7
ＭＳ ゴシック
 11
0.0
 21
1.0
 31
0.0
 73
     1
 44
1.0
  0
POINT
  5
660C
330
6603
100
AcDbEntity
  8
Defpoints
 62
     0
100
AcDbPoint
 10
469.9127081378379
 20
333.8222441034889
 30
0.0
  0
POINT
  5
660D
330
6603
100
AcDbEntity
  8
Defpoints
 62
     0
100
AcDbPoint
 10
469.907716537497
 20
280.8398489652562
 30
0.0
  0
POINT
  5
660E
330
6603
100
AcDbEntity
  8
Defpoints
 62
     0
100
AcDbPoint
 10
433.1489472096227
 20
280.8398489652562
 30
0.0
  0
ENDBLK
  5
6605
330
6603
100
AcDbEntity
  8
0
100
AcDbBlockEnd
  0
BLOCK
  5
66CD
330
66CC
100
AcDbEntity
  8
0
100
AcDbBlockBegin
  2
*D39
 70
     1
 10
0.0
 20
0.0
 30
0.0
  3
*D39
  1

  0
LINE
  5
66CF
330
66CC
100
AcDbEntity
  8
寸法
 62
     0
370
    -2
100
AcDbLine
 10
469.9111912937688
 20
199.8447780359249
 30
0.0
 11
469.9111912937688
 21
204.4302411864766
 31
0.0
  0
LINE
  5
66D0
330
66CC
100
AcDbEntity
  8
寸法
 62
     0
370
    -2
100
AcDbLine
 10
488.8794803869403
 20
170.6397216858863
 30
0.0
 11
488.8794803869403
 21
204.4302411864766
 31
0.0
  0
LINE
  5
66D1
330
66CC
100
AcDbEntity
  8
寸法
 62
     0
370
    -2
100
AcDbLine
 10
471.9111912937688
 20
204.4302411864766
 30
0.0
 11
486.8794803869403
 21
204.4302411864766
 31
0.0
  0
INSERT
  5
66D2
330
66CC
100
AcDbEntity
  8
寸法
 62
     0
370
    -2
100
AcDbBlockReference
  2
_DOT
 10
469.9111912937688
 20
204.4302411864766
 30
0.0
 41
2.0
 42
2.0
 43
2.0
 50
180.0
  0
INSERT
  5
66D3
330
66CC
100
AcDbEntity
  8
寸法
 62
     0
370
    -2
100
AcDbBlockReference
  2
_DOT
 10
488.8794803869403
 20
204.4302411864766
 30
0.0
 41
2.0
 42
2.0
 43
2.0
  0
MTEXT
  5
66D4
330
66CC
100
AcDbEntity
  8
寸法
 62
     0
100
AcDbMText
 10
479.3953358403545
 20
211.9302411864766
 30
0.0
 40
5.0
 41
0.0
 46
0.0
 71
     5
 72
     1
  1
\A1;19
  7
ＭＳ ゴシック
 73
     1
 44
1.0
  0
POINT
  5
66D5
330
66CC
100
AcDbEntity
  8
Defpoints
 62
     0
100
AcDbPoint
 10
469.9111912937688
 20
194.8447780359249
 30
0.0
  0
POINT
  5
66D6
330
66CC
100
AcDbEntity
  8
Defpoints
 62
     0
100
AcDbPoint
 10
488.8794803869403
 20
165.6397216858863
 30
0.0
  0
POINT
  5
66D7
330
66CC
100
AcDbEntity
  8
Defpoints
 62
     0
100
AcDbPoint
 10
488.8794803869403
 20
204.4302411864766
 30
0.0
  0
ENDBLK
  5
66CE
330
66CC
100
AcDbEntity
  8
0
100
AcDbBlockEnd
  0
BLOCK
  5
66D9
330
66D8
100
AcDbEntity
  8
0
100
AcDbBlockBegin
  2
*D40
 70
     1
 10
0.0
 20
0.0
 30
0.0
  3
*D40
  1

  0
LINE
  5
66DB
330
66D8
100
AcDbEntity
  8
寸法
 62
     0
370
    -2
100
AcDbLine
 10
450.8794803869403
 20
170.6397216858863
 30
0.0
 11
450.8794803869403
 21
204.4302411864766
 31
0.0
  0
LINE
  5
66DC
330
66D8
100
AcDbEntity
  8
寸法
 62
     0
370
    -2
100
AcDbLine
 10
469.9111912937688
 20
199.8447780359249
 30
0.0
 11
469.9111912937688
 21
204.4302411864766
 31
0.0
  0
LINE
  5
66DD
330
66D8
100
AcDbEntity
  8
寸法
 62
     0
370
    -2
100
AcDbLine
 10
452.8794803869403
 20
204.4302411864766
 30
0.0
 11
467.9111912937688
 21
204.4302411864766
 31
0.0
  0
INSERT
  5
66DE
330
66D8
100
AcDbEntity
  8
寸法
 62
     0
370
    -2
100
AcDbBlockReference
  2
_DOT
 10
450.8794803869403
 20
204.4302411864766
 30
0.0
 41
2.0
 42
2.0
 43
2.0
 50
180.0
  0
INSERT
  5
66DF
330
66D8
100
AcDbEntity
  8
寸法
 62
     0
370
    -2
100
AcDbBlockReference
  2
_DOT
 10
469.9111912937688
 20
204.4302411864766
 30
0.0
 41
2.0
 42
2.0
 43
2.0
  0
MTEXT
  5
66E0
330
66D8
100
AcDbEntity
  8
寸法
 62
     0
100
AcDbMText
 10
460.3953358403545
 20
211.9302411864766
 30
0.0
 40
5.0
 41
0.0
 46
0.0
 71
     5
 72
     1
  1
\A1;19
  7
ＭＳ ゴシック
 73
     1
 44
1.0
  0
POINT
  5
66E1
330
66D8
100
AcDbEntity
  8
Defpoints
 62
     0
100
AcDbPoint
 10
450.8794803869403
 20
165.6397216858863
 30
0.0
  0
POINT
  5
66E2
330
66D8
100
AcDbEntity
  8
Defpoints
 62
     0
100
AcDbPoint
 10
469.9111912937688
 20
194.8447780359249
 30
0.0
  0
POINT
  5
66E3
330
66D8
100
AcDbEntity
  8
Defpoints
 62
     0
100
AcDbPoint
 10
469.9111912937688
 20
204.4302411864766
 30
0.0
  0
ENDBLK
  5
66DA
330
66D8
100
AcDbEntity
  8
0
100
AcDbBlockEnd
  0
BLOCK
  5
67A5
330
67A4
100
AcDbEntity
  8
0
100
AcDbBlockBegin
  2
*D42
 70
     1
 10
0.0
 20
0.0
 30
0.0
  3
*D42
  1

  0
LINE
  5
67A6
330
67A4
100
AcDbEntity
  8
寸法
 62
     0
370
    -2
100
AcDbLine
 10
37.23073623298922
 20
16.65337012572002
 30
0.0
 11
37.23073623298922
 21
0.9510565162951252
 31
0.0
  0
LINE
  5
67A7
330
67A4
100
AcDbEntity
  8
寸法
 62
     0
370
    -2
100
AcDbLine
 10
62.1987668135535
 20
16.65337012572002
 30
0.0
 11
62.1987668135535
 21
0.9510565162951252
 31
0.0
  0
LINE
  5
67A8
330
67A4
100
AcDbEntity
  8
寸法
 62
     0
370
    -2
100
AcDbLine
 10
39.23073623298922
 20
0.9510565162951252
 30
0.0
 11
60.1987668135535
 21
0.9510565162951252
 31
0.0
  0
INSERT
  5
67A9
330
67A4
100
AcDbEntity
  8
寸法
 62
     0
370
    -2
100
AcDbBlockReference
  2
_DOT
 10
37.23073623298922
 20
0.9510565162951252
 30
0.0
 41
2.0
 42
2.0
 43
2.0
 50
180.0
  0
INSERT
  5
67AA
330
67A4
100
AcDbEntity
  8
寸法
 62
     0
370
    -2
100
AcDbBlockReference
  2
_DOT
 10
62.1987668135535
 20
0.9510565162951252
 30
0.0
 41
2.0
 42
2.0
 43
2.0
  0
MTEXT
  5
67AB
330
67A4
100
AcDbEntity
  8
寸法
 62
     0
100
AcDbMText
 10
49.71475152327136
 20
8.451056516295125
 30
0.0
 40
5.0
 41
0.0
 46
0.0
 71
     5
 72
     1
  1
\A1;25
  7
ＭＳ ゴシック
 73
     1
 44
1.0
  0
POINT
  5
67AC
330
67A4
100
AcDbEntity
  8
Defpoints
 62
     0
100
AcDbPoint
 10
37.23073623298922
 20
21.65337012572002
 30
0.0
  0
POINT
  5
67AD
330
67A4
100
AcDbEntity
  8
Defpoints
 62
     0
100
AcDbPoint
 10
62.1987668135535
 20
21.65337012572002
 30
0.0
  0
POINT
  5
67AE
330
67A4
100
AcDbEntity
  8
Defpoints
 62
     0
100
AcDbPoint
 10
62.1987668135535
 20
0.9510565162951252
 30
0.0
  0
ENDBLK
  5
67AF
330
67A4
100
AcDbEntity
  8
0
100
AcDbBlockEnd
  0
BLOCK
  5
67B9
330
67B8
100
AcDbEntity
  8
0
100
AcDbBlockBegin
  2
*D43
 70
     1
 10
0.0
 20
0.0
 30
0.0
  3
*D43
  1

  0
LINE
  5
67BA
330
67B8
100
AcDbEntity
  8
寸法
 62
     0
370
    -2
100
AcDbLine
 10
32.23073623298922
 20
21.65337012572002
 30
0.0
 11
9.999999999999998
 21
21.65337012572002
 31
0.0
  0
LINE
  5
67BB
330
67B8
100
AcDbEntity
  8
寸法
 62
     0
370
    -2
100
AcDbLine
 10
19.71492386493571
 20
45.66852242445572
 30
0.0
 11
10.0
 21
45.66852242445572
 31
0.0
  0
LINE
  5
67BC
330
67B8
100
AcDbEntity
  8
寸法
 62
     0
370
    -2
100
AcDbLine
 10
9.999999999999998
 20
23.65337012572002
 30
0.0
 11
10.0
 21
43.66852242445572
 31
0.0
  0
INSERT
  5
67BD
330
67B8
100
AcDbEntity
  8
寸法
 62
     0
370
    -2
100
AcDbBlockReference
  2
_DOT
 10
9.999999999999998
 20
21.65337012572002
 30
0.0
 41
2.0
 42
2.0
 43
2.0
 50
270.0
  0
INSERT
  5
67BE
330
67B8
100
AcDbEntity
  8
寸法
 62
     0
370
    -2
100
AcDbBlockReference
  2
_DOT
 10
10.0
 20
45.66852242445572
 30
0.0
 41
2.0
 42
2.0
 43
2.0
 50
90.0
  0
MTEXT
  5
67BF
330
67B8
100
AcDbEntity
  8
寸法
 62
     0
100
AcDbMText
 10
2.5
 20
33.66094627508787
 30
0.0
 40
5.0
 41
0.0
 46
0.0
 71
     5
 72
     1
  1
\A1;23
  7
ＭＳ ゴシック
 11
7.396816881705841E-17
 21
1.0
 31
0.0
 73
     1
 44
1.0
  0
POINT
  5
67C0
330
67B8
100
AcDbEntity
  8
Defpoints
 62
     0
100
AcDbPoint
 10
37.23073623298922
 20
21.65337012572002
 30
0.0
  0
POINT
  5
67C1
330
67B8
100
AcDbEntity
  8
Defpoints
 62
     0
100
AcDbPoint
 10
24.71492386493571
 20
45.66852242445572
 30
0.0
  0
POINT
  5
67C2
330
67B8
100
AcDbEntity
  8
Defpoints
 62
     0
100
AcDbPoint
 10
10.0
 20
45.66852242445572
 30
0.0
  0
ENDBLK
  5
67C3
330
67B8
100
AcDbEntity
  8
0
100
AcDbBlockEnd
  0
BLOCK
  5
67D7
330
67D6
100
AcDbEntity
  8
0
100
AcDbBlockBegin
  2
*D44
 70
     1
 10
0.0
 20
0.0
 30
0.0
  3
*D44
  1

  0
LINE
  5
67D9
330
67D6
100
AcDbEntity
  8
寸法
 62
     0
370
    -2
100
AcDbLine
 10
655.2857962672944
 20
233.2545022011917
 30
0.0
 11
655.2857962672944
 21
217.5521885917668
 31
0.0
  0
LINE
  5
67DA
330
67D6
100
AcDbEntity
  8
寸法
 62
     0
370
    -2
100
AcDbLine
 10
680.2538268478586
 20
233.2545022011917
 30
0.0
 11
680.2538268478586
 21
217.5521885917668
 31
0.0
  0
LINE
  5
67DB
330
67D6
100
AcDbEntity
  8
寸法
 62
     0
370
    -2
100
AcDbLine
 10
657.2857962672944
 20
217.5521885917668
 30
0.0
 11
678.2538268478586
 21
217.5521885917668
 31
0.0
  0
INSERT
  5
67DC
330
67D6
100
AcDbEntity
  8
寸法
 62
     0
370
    -2
100
AcDbBlockReference
  2
_DOT
 10
655.2857962672944
 20
217.5521885917668
 30
0.0
 41
2.0
 42
2.0
 43
2.0
 50
180.0
  0
INSERT
  5
67DD
330
67D6
100
AcDbEntity
  8
寸法
 62
     0
370
    -2
100
AcDbBlockReference
  2
_DOT
 10
680.2538268478586
 20
217.5521885917668
 30
0.0
 41
2.0
 42
2.0
 43
2.0
  0
MTEXT
  5
67DE
330
67D6
100
AcDbEntity
  8
寸法
 62
     0
100
AcDbMText
 10
667.7698115575765
 20
225.0521885917668
 30
0.0
 40
5.0
 41
0.0
 46
0.0
 71
     5
 72
     1
  1
\A1;25
  7
ＭＳ ゴシック
 73
     1
 44
1.0
  0
POINT
  5
67DF
330
67D6
100
AcDbEntity
  8
Defpoints
 62
     0
100
AcDbPoint
 10
655.2857962672944
 20
238.2545022011917
 30
0.0
  0
POINT
  5
67E0
330
67D6
100
AcDbEntity
  8
Defpoints
 62
     0
100
AcDbPoint
 10
680.2538268478586
 20
238.2545022011917
 30
0.0
  0
POINT
  5
67E1
330
67D6
100
AcDbEntity
  8
Defpoints
 62
     0
100
AcDbPoint
 10
680.2538268478586
 20
217.5521885917668
 30
0.0
  0
ENDBLK
  5
67D8
330
67D6
100
AcDbEntity
  8
0
100
AcDbBlockEnd
  0
BLOCK
  5
67E3
330
67E2
100
AcDbEntity
  8
0
100
AcDbBlockBegin
  2
*D45
 70
     1
 10
0.0
 20
0.0
 30
0.0
  3
*D45
  1

  0
LINE
  5
67E5
330
67E2
100
AcDbEntity
  8
寸法
 62
     0
370
    -2
100
AcDbLine
 10
650.2857962672944
 20
238.2545022011917
 30
0.0
 11
628.0550600343051
 21
238.2545022011917
 31
0.0
  0
LINE
  5
67E6
330
67E2
100
AcDbEntity
  8
寸法
 62
     0
370
    -2
100
AcDbLine
 10
637.7699838992409
 20
262.2696544999274
 30
0.0
 11
628.0550600343051
 21
262.2696544999274
 31
0.0
  0
LINE
  5
67E7
330
67E2
100
AcDbEntity
  8
寸法
 62
     0
370
    -2
100
AcDbLine
 10
628.0550600343051
 20
240.2545022011917
 30
0.0
 11
628.0550600343051
 21
260.2696544999274
 31
0.0
  0
INSERT
  5
67E8
330
67E2
100
AcDbEntity
  8
寸法
 62
     0
370
    -2
100
AcDbBlockReference
  2
_DOT
 10
628.0550600343051
 20
238.2545022011917
 30
0.0
 41
2.0
 42
2.0
 43
2.0
 50
270.0
  0
INSERT
  5
67E9
330
67E2
100
AcDbEntity
  8
寸法
 62
     0
370
    -2
100
AcDbBlockReference
  2
_DOT
 10
628.0550600343051
 20
262.2696544999274
 30
0.0
 41
2.0
 42
2.0
 43
2.0
 50
90.0
  0
MTEXT
  5
67EA
330
67E2
100
AcDbEntity
  8
寸法
 62
     0
100
AcDbMText
 10
620.5550600343051
 20
250.2620783505596
 30
0.0
 40
5.0
 41
0.0
 46
0.0
 71
     5
 72
     1
  1
\A1;23
  7
ＭＳ ゴシック
 11
0.0
 21
1.0
 31
0.0
 73
     1
 44
1.0
  0
POINT
  5
67EB
330
67E2
100
AcDbEntity
  8
Defpoints
 62
     0
100
AcDbPoint
 10
655.2857962672944
 20
238.2545022011917
 30
0.0
  0
POINT
  5
67EC
330
67E2
100
AcDbEntity
  8
Defpoints
 62
     0
100
AcDbPoint
 10
642.7699838992409
 20
262.2696544999274
 30
0.0
  0
POINT
  5
67ED
330
67E2
100
AcDbEntity
  8
Defpoints
 62
     0
100
AcDbPoint
 10
628.0550600343051
 20
262.2696544999274
 30
0.0
  0
ENDBLK
  5
67E4
330
67E2
100
AcDbEntity
  8
0
100
AcDbBlockEnd
  0
ENDSEC
  0
SECTION
  2
ENTITIES
  0
LINE
  5
36CD
330
A
100
AcDbEntity
  8
PRINT BORDER
100
AcDbLine
 10
296.9999999999999
 20
0.0
 30
0.0
 11
296.9999999999999
 21
15.30952622855898
 31
0.0
  0
LINE
  5
36CE
330
A
100
AcDbEntity
  8
テンプレート
100
AcDbLine
 10
437.9999999999999
 20
38.27810890422097
 30
0.0
 11
15.30952622855898
 21
38.27810890422097
 31
0.0
  0
LINE
  5
36CF
330
A
100
AcDbEntity
  8
テンプレート
100
AcDbLine
 10
15.30952622855898
 20
26.22153683920783
 30
0.0
 11
578.6904737714407
 21
26.22153683920783
 31
0.0
  0
TEXT
  5
36D0
330
A
100
AcDbEntity
  8
テンプレート
100
AcDbText
 10
18.06121699514119
 20
32.16825981613692
 30
0.0
 40
3.5
  1
材質
  7
ＭＳ ゴシック
100
AcDbText
  0
TEXT
  5
36D3
330
A
100
AcDbEntity
  8
テンプレート
100
AcDbText
 10
18.06121699514119
 20
56.50959028673083
 30
0.0
 40
3.5
  1
品名
  7
ＭＳ ゴシック
100
AcDbText
  0
TEXT
  5
36D4
330
A
100
AcDbEntity
  8
テンプレート
100
AcDbText
 10
18.06121699514119
 20
44.65099339080098
 30
0.0
 40
3.5
  1
仕上げ
  7
ＭＳ ゴシック
100
AcDbText
  0
TEXT
  5
36D5
330
A
100
AcDbEntity
  8
テンプレート
100
AcDbText
 10
298.8233485179306
 20
56.58523052309897
 30
0.0
 40
3.5
  1
品番
  7
ＭＳ ゴシック
100
AcDbText
  0
TEXT
  5
36D6
330
A
100
AcDbEntity
  8
テンプレート
100
AcDbText
 10
36.7528253083583
 20
53.09440584367189
 30
0.0
 40
5.5
  1
表示付間仕切装置 - FORMANI,Tense -
  7
ＭＳ ゴシック
100
AcDbText
  0
LINE
  5
36D8
330
A
100
AcDbEntity
  8
テンプレート
100
AcDbLine
 10
437.9999999999999
 20
50.16496477419605
 30
0.0
 11
15.30952622855898
 21
50.16496477419605
 31
0.0
  0
LINE
  5
36D9
330
A
100
AcDbEntity
  8
テンプレート
100
AcDbLine
 10
578.6904737714411
 20
62.22153683920783
 30
0.0
 11
15.30952622855898
 21
62.22153683920783
 31
0.0
  0
LINE
  5
36DA
330
A
100
AcDbEntity
  8
PRINT BORDER
100
AcDbLine
 10
593.9999999999999
 20
210.0
 30
0.0
 11
578.6904737714411
 21
210.0
 31
0.0
  0
LINE
  5
36DB
330
A
100
AcDbEntity
  8
PRINT BORDER
100
AcDbLine
 10
0.0
 20
210.0
 30
0.0
 11
15.30952622855898
 21
210.0
 31
0.0
  0
LINE
  5
36DC
330
A
100
AcDbEntity
  8
PRINT BORDER
100
AcDbLine
 10
296.9999999999999
 20
420.0
 30
0.0
 11
296.9999999999999
 21
404.690473771441
 31
0.0
  0
LINE
  5
36DD
330
A
100
AcDbEntity
  8
テンプレート
100
AcDbLine
 10
578.6904737714411
 20
62.22153683920783
 30
0.0
 11
578.6904737714411
 21
26.22153683920783
 31
0.0
  0
LINE
  5
36DE
330
A
100
AcDbEntity
  8
テンプレート
100
AcDbLine
 10
15.30952622855898
 20
62.22153683920783
 30
0.0
 11
15.30952622855898
 21
26.22153683920783
 31
0.0
  0
TEXT
  5
36E0
330
A
100
AcDbEntity
  8
テンプレート
100
AcDbText
 10
494.9733384955217
 20
16.51938390313694
 30
0.0
 40
5.5
  1
大洋金物株式会社  
  7
ＭＳ ゴシック
100
AcDbText
  0
LINE
  5
36E1
330
A
100
AcDbEntity
  8
テンプレート
100
AcDbLine
 10
437.9999999999999
 20
62.22153683920783
 30
0.0
 11
437.9999999999999
 21
26.22153683920783
 31
0.0
  0
LINE
  5
36E2
330
A
100
AcDbEntity
  8
テンプレート
100
AcDbLine
 10
296.9999999999999
 20
62.22153683920783
 30
0.0
 11
296.9999999999999
 21
26.22153683920783
 31
0.0
  0
INSERT
  5
36E3
330
A
100
AcDbEntity
  8
テンプレート
100
AcDbBlockReference
  2
名称未設定-1
 10
548.3945198859805
 20
-7.642344203993161
 30
0.0
 41
0.180975
 42
0.180975
 43
0.180975
  0
LINE
  5
36E5
330
A
100
AcDbEntity
  8
テンプレート
100
AcDbLine
 10
15.30952622855898
 20
210.0
 30
0.0
 11
15.30952622855898
 21
26.22153683920783
 31
0.0
  0
LINE
  5
36E6
330
A
100
AcDbEntity
  8
テンプレート
100
AcDbLine
 10
15.30952622855898
 20
210.0
 30
0.0
 11
15.30952622855898
 21
404.690473771441
 31
0.0
  0
LINE
  5
36E7
330
A
100
AcDbEntity
  8
テンプレート
100
AcDbLine
 10
296.9999999999999
 20
404.690473771441
 30
0.0
 11
15.30952622855887
 21
404.690473771441
 31
0.0
  0
LINE
  5
36E8
330
A
100
AcDbEntity
  8
テンプレート
100
AcDbLine
 10
296.9999999999999
 20
404.690473771441
 30
0.0
 11
578.6904737714411
 21
404.690473771441
 31
0.0
  0
LINE
  5
36E9
330
A
100
AcDbEntity
  8
テンプレート
100
AcDbLine
 10
578.6904737714411
 20
210.0
 30
0.0
 11
578.6904737714411
 21
404.690473771441
 31
0.0
  0
LINE
  5
36EA
330
A
100
AcDbEntity
  8
テンプレート
100
AcDbLine
 10
578.6904737714411
 20
210.0
 30
0.0
 11
578.6904737714411
 21
26.22153683920783
 31
0.0
  0
LWPOLYLINE
  5
36EB
330
A
100
AcDbEntity
  8
PRINT BORDER
  6
HIDDEN
 48
3.0
100
AcDbPolyline
 90
        4
 70
     1
 43
0.0
 10
0.0
 20
0.0
 10
0.0
 20
420.0
 10
593.9999999999999
 20
420.0
 10
593.9999999999999
 20
0.0
  0
TEXT
  5
36EC
330
A
100
AcDbEntity
  8
テンプレート
100
AcDbText
 10
298.7989156222221
 20
32.62405342819488
 30
0.0
 40
3.5
  1
縮尺
  7
ＭＳ ゴシック
100
AcDbText
  0
TEXT
  5
36ED
330
A
100
AcDbEntity
  8
テンプレート
100
AcDbText
 10
313.0171205424464
 20
29.43815249371804
 30
0.0
 40
5.5
  1
1/2
  7
ＭＳ ゴシック
100
AcDbText
  0
TEXT
  5
37DE
330
A
100
AcDbEntity
  8
テンプレート
100
AcDbText
 10
298.8233485179306
 20
44.52865845808583
 30
0.0
 40
3.5
  1
扉厚
  7
ＭＳ ゴシック
100
AcDbText
  0
TEXT
  5
41D7
330
A
100
AcDbEntity
  8
テンプレート
100
AcDbText
 10
36.7528253083583
 20
29.15097790868504
 30
0.0
 40
5.5
  1
ステンレス
  7
ＭＳ ゴシック
100
AcDbText
  0
TEXT
  5
41D8
330
A
100
AcDbEntity
  8
テンプレート
100
AcDbText
 10
36.7528253083583
 20
41.03783377866012
 30
0.0
 40
5.5
  1
サテン・ブラック
  7
ＭＳ ゴシック
100
AcDbText
  0
TEXT
  5
42C8
330
A
100
AcDbEntity
  8
テンプレート
100
AcDbText
 10
313.0171205424464
 20
53.38158042870626
 30
0.0
 40
5.5
  1
FOR16-TE01
  7
ＭＳ ゴシック
100
AcDbText
  0
TEXT
  5
4346
330
A
100
AcDbEntity
  8
テンプレート
100
AcDbText
 10
440.0887524673468
 20
56.58523052309891
 30
0.0
 40
3.5
  1
備考
  7
ＭＳ ゴシック
100
AcDbText
  0
TEXT
  5
438B
330
A
100
AcDbEntity
  8
テンプレート
100
AcDbText
 10
448.8597899700613
 20
37.77141304343548
 30
0.0
 40
5.0
  1
ユーロケース(DIN規格)専用
  7
ＭＳ ゴシック
100
AcDbText
  0
TEXT
  5
438C
330
A
100
AcDbEntity
  8
テンプレート
100
AcDbText
 10
448.8597899700613
 20
47.20172179435573
 30
0.0
 40
5.0
  1
取付方＝呼込み(ビス・ナット付)
  7
ＭＳ ゴシック
100
AcDbText
  0
TEXT
  5
45B0
330
A
100
AcDbEntity
  8
テンプレート
100
AcDbText
 10
192.6640855805966
 20
77.17630111113886
 30
0.0
 40
5.0
  1
　 加工は現物合わせの上行って下さい。
  7
ＭＳ ゴシック
100
AcDbText
  0
TEXT
  5
45B1
330
A
100
AcDbEntity
  8
テンプレート
100
AcDbText
 10
192.8363286628052
 20
85.28008520727872
 30
0.0
 40
5.0
  1
※ 輸入製品の為、国内製品と比べ製品寸法の個体差に幅が有ります。
  7
ＭＳ ゴシック
100
AcDbText
  0
TEXT
  5
45B2
330
A
100
AcDbEntity
  8
テンプレート
100
AcDbText
 10
192.6640855805966
 20
67.80466980665778
 30
0.0
 40
5.0
  1
※ ご注文の際は正確な扉厚の指示をしてください。
  7
ＭＳ ゴシック
100
AcDbText
  0
TEXT
  5
45B3
330
A
100
AcDbEntity
  8
テンプレート
100
AcDbText
 10
313.0505831322699
 20
41.51005322404905
 30
0.0
 40
5.0
  1
ユーロケース(DIN規格)：36～55
  7
ＭＳ ゴシック
100
AcDbText
  0
MTEXT
  5
52FC
102
{ACAD_XDICTIONARY
360
52FD
102
}
330
A
100
AcDbEntity
  8
TFORMLOGO
100
AcDbMText
 10
16.60399471718529
 20
23.26688997902569
 30
0.0
 40
4.0
 41
0.0
 46
4.0
 71
     1
 72
     1
  1
{20170907N}
  7
ＭＳ ゴシック
 73
     1
 44
1.0
1001
ACAD
1000
ACAD_MTEXT_DEFINED_HEIGHT_BEGIN
1070
    46
1040
4.0
1000
ACAD_MTEXT_DEFINED_HEIGHT_END
  0
HATCH
  5
5602
330
A
100
AcDbEntity
  8
レイヤー 1
 62
     7
420
 16777215
100
AcDbHatch
 10
0.0
 20
0.0
 30
0.0
210
0.0
220
0.0
230
1.0
  2
SOLID
 70
     1
 71
     0
 91
        1
 92
        1
 93
        1
 72
     4
 94
        3
 73
     0
 74
     1
 95
       14
 96
       10
 40
0.0
 40
0.0
 40
0.0
 40
0.0
 40
1.0
 40
1.0
 40
1.0
 40
2.0
 40
2.0
 40
2.0
 40
3.0
 40
3.0
 40
3.0
 40
3.0
 10
705.5071475367902
 20
261.7973260613207
 10
705.5071475367902
 20
261.7973260613207
 10
705.5071475367902
 20
261.7973260613207
 10
705.5071475367902
 20
261.7973260613207
 10
705.5071475367902
 20
261.7973260613207
 10
711.2669131617902
 20
261.7973260613207
 10
711.2669131617902
 20
261.7973260613207
 10
711.2669131617902
 20
261.7973260613207
 10
705.5071475367902
 20
261.7973260613207
 10
705.5071475367902
 20
261.7973260613207
 97
        0
 75
     2
 76
     1
 98
        0
  0
HATCH
  5
5605
330
A
100
AcDbEntity
  8
レイヤー 1
 62
     7
420
 16777215
100
AcDbHatch
 10
0.0
 20
0.0
 30
0.0
210
0.0
220
0.0
230
1.0
  2
SOLID
 70
     1
 71
     0
 91
        1
 92
        1
 93
        1
 72
     4
 94
        3
 73
     0
 74
     1
 95
       11
 96
        7
 40
0.0
 40
0.0
 40
0.0
 40
0.0
 40
1.0
 40
1.0
 40
1.0
 40
2.0
 40
2.0
 40
2.0
 40
2.0
 10
705.5071475367902
 20
261.7973260613207
 10
705.5071475367902
 20
261.7973260613207
 10
711.2669131617902
 20
261.0771112175707
 10
711.2669131617902
 20
261.0771112175707
 10
711.2669131617902
 20
261.0771112175707
 10
705.5071475367902
 20
261.7973260613207
 10
705.5071475367902
 20
261.7973260613207
 97
        0
 75
     2
 76
     1
 98
        0
  0
HATCH
  5
5608
330
A
100
AcDbEntity
  8
レイヤー 1
 62
     7
420
 16777215
100
AcDbHatch
 10
0.0
 20
0.0
 30
0.0
210
0.0
220
0.0
230
1.0
  2
SOLID
 70
     1
 71
     0
 91
        1
 92
        1
 93
        1
 72
     4
 94
        3
 73
     0
 74
     1
 95
       11
 96
        7
 40
0.0
 40
0.0
 40
0.0
 40
0.0
 40
1.0
 40
1.0
 40
1.0
 40
2.0
 40
2.0
 40
2.0
 40
2.0
 10
705.5071475367902
 20
261.7973260613207
 10
705.5071475367902
 20
261.7973260613207
 10
705.5071475367902
 20
261.0771112175707
 10
705.5071475367902
 20
261.0771112175707
 10
705.5071475367902
 20
261.0771112175707
 10
705.5071475367902
 20
261.7973260613207
 10
705.5071475367902
 20
261.7973260613207
 97
        0
 75
     2
 76
     1
 98
        0
  0
HATCH
  5
560C
330
A
100
AcDbEntity
  8
レイヤー 1
 62
     7
420
 16777215
100
AcDbHatch
 10
0.0
 20
0.0
 30
0.0
210
0.0
220
0.0
230
1.0
  2
SOLID
 70
     1
 71
     0
 91
        1
 92
        1
 93
        1
 72
     4
 94
        3
 73
     0
 74
     1
 95
       14
 96
       10
 40
0.0
 40
0.0
 40
0.0
 40
0.0
 40
1.0
 40
1.0
 40
1.0
 40
2.0
 40
2.0
 40
2.0
 40
3.0
 40
3.0
 40
3.0
 40
3.0
 10
711.2669131617902
 20
192.4975213738207
 10
711.2669131617902
 20
192.4975213738207
 10
711.2669131617902
 20
192.4975213738207
 10
711.2669131617902
 20
192.4975213738207
 10
711.2669131617902
 20
192.4975213738207
 10
705.5071475367902
 20
192.4975213738207
 10
705.5071475367902
 20
192.4975213738207
 10
705.5071475367902
 20
192.4975213738207
 10
711.2669131617902
 20
192.4975213738207
 10
711.2669131617902
 20
192.4975213738207
 97
        0
 75
     2
 76
     1
 98
        0
  0
HATCH
  5
560F
330
A
100
AcDbEntity
  8
レイヤー 1
 62
     7
420
 16777215
100
AcDbHatch
 10
0.0
 20
0.0
 30
0.0
210
0.0
220
0.0
230
1.0
  2
SOLID
 70
     1
 71
     0
 91
        1
 92
        1
 93
        1
 72
     4
 94
        3
 73
     0
 74
     1
 95
       11
 96
        7
 40
0.0
 40
0.0
 40
0.0
 40
0.0
 40
1.0
 40
1.0
 40
1.0
 40
2.0
 40
2.0
 40
2.0
 40
2.0
 10
711.2669131617902
 20
192.4975213738207
 10
711.2669131617902
 20
192.4975213738207
 10
705.5071475367902
 20
193.2172479363207
 10
705.5071475367902
 20
193.2172479363207
 10
705.5071475367902
 20
193.2172479363207
 10
711.2669131617902
 20
192.4975213738207
 10
711.2669131617902
 20
192.4975213738207
 97
        0
 75
     2
 76
     1
 98
        0
  0
HATCH
  5
5612
330
A
100
AcDbEntity
  8
レイヤー 1
 62
     7
420
 16777215
100
AcDbHatch
 10
0.0
 20
0.0
 30
0.0
210
0.0
220
0.0
230
1.0
  2
SOLID
 70
     1
 71
     0
 91
        1
 92
        1
 93
        1
 72
     4
 94
        3
 73
     0
 74
     1
 95
       11
 96
        7
 40
0.0
 40
0.0
 40
0.0
 40
0.0
 40
1.0
 40
1.0
 40
1.0
 40
2.0
 40
2.0
 40
2.0
 40
2.0
 10
711.2669131617902
 20
192.4975213738207
 10
711.2669131617902
 20
192.4975213738207
 10
711.2669131617902
 20
193.2172479363207
 10
711.2669131617902
 20
193.2172479363207
 10
711.2669131617902
 20
193.2172479363207
 10
711.2669131617902
 20
192.4975213738207
 10
711.2669131617902
 20
192.4975213738207
 97
        0
 75
     2
 76
     1
 98
        0
  0
HATCH
  5
5616
330
A
100
AcDbEntity
  8
レイヤー 1
 62
     7
420
 16777215
100
AcDbHatch
 10
0.0
 20
0.0
 30
0.0
210
0.0
220
0.0
230
1.0
  2
SOLID
 70
     1
 71
     0
 91
        1
 92
        1
 93
        1
 72
     4
 94
        3
 73
     0
 74
     1
 95
       14
 96
       10
 40
0.0
 40
0.0
 40
0.0
 40
0.0
 40
1.0
 40
1.0
 40
1.0
 40
2.0
 40
2.0
 40
2.0
 40
3.0
 40
3.0
 40
3.0
 40
3.0
 10
818.1873233180402
 20
132.1977166863207
 10
818.1873233180402
 20
132.1977166863207
 10
818.1873233180402
 20
132.1977166863207
 10
818.1873233180402
 20
132.1977166863207
 10
818.1873233180402
 20
132.1977166863207
 10
818.1873233180402
 20
126.4369744988207
 10
818.1873233180402
 20
126.4369744988207
 10
818.1873233180402
 20
126.4369744988207
 10
818.1873233180402
 20
132.1977166863207
 10
818.1873233180402
 20
132.1977166863207
 97
        0
 75
     2
 76
     1
 98
        0
  0
HATCH
  5
5619
330
A
100
AcDbEntity
  8
レイヤー 1
 62
     7
420
 16777215
100
AcDbHatch
 10
0.0
 20
0.0
 30
0.0
210
0.0
220
0.0
230
1.0
  2
SOLID
 70
     1
 71
     0
 91
        1
 92
        1
 93
        1
 72
     4
 94
        3
 73
     0
 74
     1
 95
       11
 96
        7
 40
0.0
 40
0.0
 40
0.0
 40
0.0
 40
1.0
 40
1.0
 40
1.0
 40
2.0
 40
2.0
 40
2.0
 40
2.0
 10
818.1873233180402
 20
132.1977166863207
 10
818.1873233180402
 20
132.1977166863207
 10
817.4671084742902
 20
126.4369744988207
 10
817.4671084742902
 20
126.4369744988207
 10
817.4671084742902
 20
126.4369744988207
 10
818.1873233180402
 20
132.1977166863207
 10
818.1873233180402
 20
132.1977166863207
 97
        0
 75
     2
 76
     1
 98
        0
  0
HATCH
  5
561C
330
A
100
AcDbEntity
  8
レイヤー 1
 62
     7
420
 16777215
100
AcDbHatch
 10
0.0
 20
0.0
 30
0.0
210
0.0
220
0.0
230
1.0
  2
SOLID
 70
     1
 71
     0
 91
        1
 92
        1
 93
        1
 72
     4
 94
        3
 73
     0
 74
     1
 95
       11
 96
        7
 40
0.0
 40
0.0
 40
0.0
 40
0.0
 40
1.0
 40
1.0
 40
1.0
 40
2.0
 40
2.0
 40
2.0
 40
2.0
 10
818.1873233180402
 20
132.1977166863207
 10
818.1873233180402
 20
132.1977166863207
 10
817.4671084742902
 20
132.1977166863207
 10
817.4671084742902
 20
132.1977166863207
 10
817.4671084742902
 20
132.1977166863207
 10
818.1873233180402
 20
132.1977166863207
 10
818.1873233180402
 20
132.1977166863207
 97
        0
 75
     2
 76
     1
 98
        0
  0
HATCH
  5
5620
330
A
100
AcDbEntity
  8
レイヤー 1
 62
     7
420
 16777215
100
AcDbHatch
 10
0.0
 20
0.0
 30
0.0
210
0.0
220
0.0
230
1.0
  2
SOLID
 70
     1
 71
     0
 91
        1
 92
        1
 93
        1
 72
     4
 94
        3
 73
     0
 74
     1
 95
       14
 96
       10
 40
0.0
 40
0.0
 40
0.0
 40
0.0
 40
1.0
 40
1.0
 40
1.0
 40
2.0
 40
2.0
 40
2.0
 40
3.0
 40
3.0
 40
3.0
 40
3.0
 10
754.4671084742902
 20
126.4369744988207
 10
754.4671084742902
 20
126.4369744988207
 10
754.4671084742902
 20
126.4369744988207
 10
754.4671084742902
 20
126.4369744988207
 10
754.4671084742902
 20
126.4369744988207
 10
754.4671084742902
 20
132.1977166863207
 10
754.4671084742902
 20
132.1977166863207
 10
754.4671084742902
 20
132.1977166863207
 10
754.4671084742902
 20
126.4369744988207
 10
754.4671084742902
 20
126.4369744988207
 97
        0
 75
     2
 76
     1
 98
        0
  0
HATCH
  5
5623
330
A
100
AcDbEntity
  8
レイヤー 1
 62
     7
420
 16777215
100
AcDbHatch
 10
0.0
 20
0.0
 30
0.0
210
0.0
220
0.0
230
1.0
  2
SOLID
 70
     1
 71
     0
 91
        1
 92
        1
 93
        1
 72
     4
 94
        3
 73
     0
 74
     1
 95
       11
 96
        7
 40
0.0
 40
0.0
 40
0.0
 40
0.0
 40
1.0
 40
1.0
 40
1.0
 40
2.0
 40
2.0
 40
2.0
 40
2.0
 10
754.4671084742902
 20
126.4369744988207
 10
754.4671084742902
 20
126.4369744988207
 10
755.1873233180402
 20
132.1977166863207
 10
755.1873233180402
 20
132.1977166863207
 10
755.1873233180402
 20
132.1977166863207
 10
754.4671084742902
 20
126.4369744988207
 10
754.4671084742902
 20
126.4369744988207
 97
        0
 75
     2
 76
     1
 98
        0
  0
HATCH
  5
5626
330
A
100
AcDbEntity
  8
レイヤー 1
 62
     7
420
 16777215
100
AcDbHatch
 10
0.0
 20
0.0
 30
0.0
210
0.0
220
0.0
230
1.0
  2
SOLID
 70
     1
 71
     0
 91
        1
 92
        1
 93
        1
 72
     4
 94
        3
 73
     0
 74
     1
 95
       11
 96
        7
 40
0.0
 40
0.0
 40
0.0
 40
0.0
 40
1.0
 40
1.0
 40
1.0
 40
2.0
 40
2.0
 40
2.0
 40
2.0
 10
754.4671084742902
 20
126.4369744988207
 10
754.4671084742902
 20
126.4369744988207
 10
755.1873233180402
 20
126.4369744988207
 10
755.1873233180402
 20
126.4369744988207
 10
755.1873233180402
 20
126.4369744988207
 10
754.4671084742902
 20
126.4369744988207
 10
754.4671084742902
 20
126.4369744988207
 97
        0
 75
     2
 76
     1
 98
        0
  0
HATCH
  5
562A
330
A
100
AcDbEntity
  8
レイヤー 1
 62
     7
420
 16777215
100
AcDbHatch
 10
0.0
 20
0.0
 30
0.0
210
0.0
220
0.0
230
1.0
  2
SOLID
 70
     1
 71
     0
 91
        1
 92
        1
 93
        1
 72
     4
 94
        3
 73
     0
 74
     1
 95
       14
 96
       10
 40
0.0
 40
0.0
 40
0.0
 40
0.0
 40
1.0
 40
1.0
 40
1.0
 40
2.0
 40
2.0
 40
2.0
 40
3.0
 40
3.0
 40
3.0
 40
3.0
 10
822.5071475367902
 20
91.15767762382072
 10
822.5071475367902
 20
91.15767762382072
 10
822.5071475367902
 20
91.15767762382072
 10
822.5071475367902
 20
91.15767762382072
 10
822.5071475367902
 20
91.15767762382072
 10
822.5071475367902
 20
96.73775574882072
 10
822.5071475367902
 20
96.73775574882072
 10
822.5071475367902
 20
96.73775574882072
 10
822.5071475367902
 20
91.15767762382072
 10
822.5071475367902
 20
91.15767762382072
 97
        0
 75
     2
 76
     1
 98
        0
  0
HATCH
  5
562D
330
A
100
AcDbEntity
  8
レイヤー 1
 62
     7
420
 16777215
100
AcDbHatch
 10
0.0
 20
0.0
 30
0.0
210
0.0
220
0.0
230
1.0
  2
SOLID
 70
     1
 71
     0
 91
        1
 92
        1
 93
        1
 72
     4
 94
        3
 73
     0
 74
     1
 95
       11
 96
        7
 40
0.0
 40
0.0
 40
0.0
 40
0.0
 40
1.0
 40
1.0
 40
1.0
 40
2.0
 40
2.0
 40
2.0
 40
2.0
 10
822.5071475367902
 20
91.15767762382072
 10
822.5071475367902
 20
91.15767762382072
 10
823.2268740992902
 20
96.73775574882072
 10
823.2268740992902
 20
96.73775574882072
 10
823.2268740992902
 20
96.73775574882072
 10
822.5071475367902
 20
91.15767762382072
 10
822.5071475367902
 20
91.15767762382072
 97
        0
 75
     2
 76
     1
 98
        0
  0
HATCH
  5
5630
330
A
100
AcDbEntity
  8
レイヤー 1
 62
     7
420
 16777215
100
AcDbHatch
 10
0.0
 20
0.0
 30
0.0
210
0.0
220
0.0
230
1.0
  2
SOLID
 70
     1
 71
     0
 91
        1
 92
        1
 93
        1
 72
     4
 94
        3
 73
     0
 74
     1
 95
       11
 96
        7
 40
0.0
 40
0.0
 40
0.0
 40
0.0
 40
1.0
 40
1.0
 40
1.0
 40
2.0
 40
2.0
 40
2.0
 40
2.0
 10
822.5071475367902
 20
91.15767762382072
 10
822.5071475367902
 20
91.15767762382072
 10
823.2268740992902
 20
91.15767762382072
 10
823.2268740992902
 20
91.15767762382072
 10
823.2268740992902
 20
91.15767762382072
 10
822.5071475367902
 20
91.15767762382072
 10
822.5071475367902
 20
91.15767762382072
 97
        0
 75
     2
 76
     1
 98
        0
  0
HATCH
  5
5634
330
A
100
AcDbEntity
  8
レイヤー 1
 62
     7
420
 16777215
100
AcDbHatch
 10
0.0
 20
0.0
 30
0.0
210
0.0
220
0.0
230
1.0
  2
SOLID
 70
     1
 71
     0
 91
        1
 92
        1
 93
        1
 72
     4
 94
        3
 73
     0
 74
     1
 95
       14
 96
       10
 40
0.0
 40
0.0
 40
0.0
 40
0.0
 40
1.0
 40
1.0
 40
1.0
 40
2.0
 40
2.0
 40
2.0
 40
3.0
 40
3.0
 40
3.0
 40
3.0
 10
837.9871280055402
 20
96.73775574882072
 10
837.9871280055402
 20
96.73775574882072
 10
837.9871280055402
 20
96.73775574882072
 10
837.9871280055402
 20
96.73775574882072
 10
837.9871280055402
 20
96.73775574882072
 10
837.9871280055402
 20
91.15767762382072
 10
837.9871280055402
 20
91.15767762382072
 10
837.9871280055402
 20
91.15767762382072
 10
837.9871280055402
 20
96.73775574882072
 10
837.9871280055402
 20
96.73775574882072
 97
        0
 75
     2
 76
     1
 98
        0
  0
HATCH
  5
5637
330
A
100
AcDbEntity
  8
レイヤー 1
 62
     7
420
 16777215
100
AcDbHatch
 10
0.0
 20
0.0
 30
0.0
210
0.0
220
0.0
230
1.0
  2
SOLID
 70
     1
 71
     0
 91
        1
 92
        1
 93
        1
 72
     4
 94
        3
 73
     0
 74
     1
 95
       11
 96
        7
 40
0.0
 40
0.0
 40
0.0
 40
0.0
 40
1.0
 40
1.0
 40
1.0
 40
2.0
 40
2.0
 40
2.0
 40
2.0
 10
837.9871280055402
 20
96.73775574882072
 10
837.9871280055402
 20
96.73775574882072
 10
837.2669131617902
 20
91.15767762382072
 10
837.2669131617902
 20
91.15767762382072
 10
837.2669131617902
 20
91.15767762382072
 10
837.9871280055402
 20
96.73775574882072
 10
837.9871280055402
 20
96.73775574882072
 97
        0
 75
     2
 76
     1
 98
        0
  0
HATCH
  5
563A
330
A
100
AcDbEntity
  8
レイヤー 1
 62
     7
420
 16777215
100
AcDbHatch
 10
0.0
 20
0.0
 30
0.0
210
0.0
220
0.0
230
1.0
  2
SOLID
 70
     1
 71
     0
 91
        1
 92
        1
 93
        1
 72
     4
 94
        3
 73
     0
 74
     1
 95
       11
 96
        7
 40
0.0
 40
0.0
 40
0.0
 40
0.0
 40
1.0
 40
1.0
 40
1.0
 40
2.0
 40
2.0
 40
2.0
 40
2.0
 10
837.9871280055402
 20
96.73775574882072
 10
837.9871280055402
 20
96.73775574882072
 10
837.2669131617902
 20
96.73775574882072
 10
837.2669131617902
 20
96.73775574882072
 10
837.2669131617902
 20
96.73775574882072
 10
837.9871280055402
 20
96.73775574882072
 10
837.9871280055402
 20
96.73775574882072
 97
        0
 75
     2
 76
     1
 98
        0
  0
HATCH
  5
563E
330
A
100
AcDbEntity
  8
レイヤー 1
 62
     7
420
 16777215
100
AcDbHatch
 10
0.0
 20
0.0
 30
0.0
210
0.0
220
0.0
230
1.0
  2
SOLID
 70
     1
 71
     0
 91
        1
 92
        1
 93
        1
 72
     4
 94
        3
 73
     0
 74
     1
 95
       14
 96
       10
 40
0.0
 40
0.0
 40
0.0
 40
0.0
 40
1.0
 40
1.0
 40
1.0
 40
2.0
 40
2.0
 40
2.0
 40
3.0
 40
3.0
 40
3.0
 40
3.0
 10
1102.58673738054
 20
297.4374627800707
 10
1102.58673738054
 20
297.4374627800707
 10
1102.58673738054
 20
297.4374627800707
 10
1102.58673738054
 20
297.4374627800707
 10
1102.58673738054
 20
297.4374627800707
 10
1108.16681550554
 20
297.4374627800707
 10
1108.16681550554
 20
297.4374627800707
 10
1108.16681550554
 20
297.4374627800707
 10
1102.58673738054
 20
297.4374627800707
 10
1102.58673738054
 20
297.4374627800707
 97
        0
 75
     2
 76
     1
 98
        0
  0
HATCH
  5
5641
330
A
100
AcDbEntity
  8
レイヤー 1
 62
     7
420
 16777215
100
AcDbHatch
 10
0.0
 20
0.0
 30
0.0
210
0.0
220
0.0
230
1.0
  2
SOLID
 70
     1
 71
     0
 91
        1
 92
        1
 93
        1
 72
     4
 94
        3
 73
     0
 74
     1
 95
       11
 96
        7
 40
0.0
 40
0.0
 40
0.0
 40
0.0
 40
1.0
 40
1.0
 40
1.0
 40
2.0
 40
2.0
 40
2.0
 40
2.0
 10
1102.58673738054
 20
297.4374627800707
 10
1102.58673738054
 20
297.4374627800707
 10
1108.16681550554
 20
296.7172479363207
 10
1108.16681550554
 20
296.7172479363207
 10
1108.16681550554
 20
296.7172479363207
 10
1102.58673738054
 20
297.4374627800707
 10
1102.58673738054
 20
297.4374627800707
 97
        0
 75
     2
 76
     1
 98
        0
  0
HATCH
  5
5644
330
A
100
AcDbEntity
  8
レイヤー 1
 62
     7
420
 16777215
100
AcDbHatch
 10
0.0
 20
0.0
 30
0.0
210
0.0
220
0.0
230
1.0
  2
SOLID
 70
     1
 71
     0
 91
        1
 92
        1
 93
        1
 72
     4
 94
        3
 73
     0
 74
     1
 95
       11
 96
        7
 40
0.0
 40
0.0
 40
0.0
 40
0.0
 40
1.0
 40
1.0
 40
1.0
 40
2.0
 40
2.0
 40
2.0
 40
2.0
 10
1102.58673738054
 20
297.4374627800707
 10
1102.58673738054
 20
297.4374627800707
 10
1102.58673738054
 20
296.7172479363207
 10
1102.58673738054
 20
296.7172479363207
 10
1102.58673738054
 20
296.7172479363207
 10
1102.58673738054
 20
297.4374627800707
 10
1102.58673738054
 20
297.4374627800707
 97
        0
 75
     2
 76
     1
 98
        0
  0
HATCH
  5
5648
330
A
100
AcDbEntity
  8
レイヤー 1
 62
     7
420
 16777215
100
AcDbHatch
 10
0.0
 20
0.0
 30
0.0
210
0.0
220
0.0
230
1.0
  2
SOLID
 70
     1
 71
     0
 91
        1
 92
        1
 93
        1
 72
     4
 94
        3
 73
     0
 74
     1
 95
       14
 96
       10
 40
0.0
 40
0.0
 40
0.0
 40
0.0
 40
1.0
 40
1.0
 40
1.0
 40
2.0
 40
2.0
 40
2.0
 40
3.0
 40
3.0
 40
3.0
 40
3.0
 10
1108.16681550554
 20
157.0375604363207
 10
1108.16681550554
 20
157.0375604363207
 10
1108.16681550554
 20
157.0375604363207
 10
1108.16681550554
 20
157.0375604363207
 10
1108.16681550554
 20
157.0375604363207
 10
1102.58673738054
 20
157.0375604363207
 10
1102.58673738054
 20
157.0375604363207
 10
1102.58673738054
 20
157.0375604363207
 10
1108.16681550554
 20
157.0375604363207
 10
1108.16681550554
 20
157.0375604363207
 97
        0
 75
     2
 76
     1
 98
        0
  0
HATCH
  5
564B
330
A
100
AcDbEntity
  8
レイヤー 1
 62
     7
420
 16777215
100
AcDbHatch
 10
0.0
 20
0.0
 30
0.0
210
0.0
220
0.0
230
1.0
  2
SOLID
 70
     1
 71
     0
 91
        1
 92
        1
 93
        1
 72
     4
 94
        3
 73
     0
 74
     1
 95
       11
 96
        7
 40
0.0
 40
0.0
 40
0.0
 40
0.0
 40
1.0
 40
1.0
 40
1.0
 40
2.0
 40
2.0
 40
2.0
 40
2.0
 10
1108.16681550554
 20
157.0375604363207
 10
1108.16681550554
 20
157.0375604363207
 10
1102.58673738054
 20
157.7572869988207
 10
1102.58673738054
 20
157.7572869988207
 10
1102.58673738054
 20
157.7572869988207
 10
1108.16681550554
 20
157.0375604363207
 10
1108.16681550554
 20
157.0375604363207
 97
        0
 75
     2
 76
     1
 98
        0
  0
HATCH
  5
564E
330
A
100
AcDbEntity
  8
レイヤー 1
 62
     7
420
 16777215
100
AcDbHatch
 10
0.0
 20
0.0
 30
0.0
210
0.0
220
0.0
230
1.0
  2
SOLID
 70
     1
 71
     0
 91
        1
 92
        1
 93
        1
 72
     4
 94
        3
 73
     0
 74
     1
 95
       11
 96
        7
 40
0.0
 40
0.0
 40
0.0
 40
0.0
 40
1.0
 40
1.0
 40
1.0
 40
2.0
 40
2.0
 40
2.0
 40
2.0
 10
1108.16681550554
 20
157.0375604363207
 10
1108.16681550554
 20
157.0375604363207
 10
1108.16681550554
 20
157.7572869988207
 10
1108.16681550554
 20
157.7572869988207
 10
1108.16681550554
 20
157.7572869988207
 10
1108.16681550554
 20
157.0375604363207
 10
1108.16681550554
 20
157.0375604363207
 97
        0
 75
     2
 76
     1
 98
        0
  0
HATCH
  5
5652
330
A
100
AcDbEntity
  8
レイヤー 1
 62
     7
420
 16777215
100
AcDbHatch
 10
0.0
 20
0.0
 30
0.0
210
0.0
220
0.0
230
1.0
  2
SOLID
 70
     1
 71
     0
 91
        1
 92
        1
 93
        1
 72
     4
 94
        3
 73
     0
 74
     1
 95
       14
 96
       10
 40
0.0
 40
0.0
 40
0.0
 40
0.0
 40
1.0
 40
1.0
 40
1.0
 40
2.0
 40
2.0
 40
2.0
 40
3.0
 40
3.0
 40
3.0
 40
3.0
 10
1459.70783113054
 20
254.7773065300707
 10
1459.70783113054
 20
254.7773065300707
 10
1459.70783113054
 20
254.7773065300707
 10
1459.70783113054
 20
254.7773065300707
 10
1459.70783113054
 20
254.7773065300707
 10
1465.28790925554
 20
254.7773065300707
 10
1465.28790925554
 20
254.7773065300707
 10
1465.28790925554
 20
254.7773065300707
 10
1459.70783113054
 20
254.7773065300707
 10
1459.70783113054
 20
254.7773065300707
 97
        0
 75
     2
 76
     1
 98
        0
  0
HATCH
  5
5655
330
A
100
AcDbEntity
  8
レイヤー 1
 62
     7
420
 16777215
100
AcDbHatch
 10
0.0
 20
0.0
 30
0.0
210
0.0
220
0.0
230
1.0
  2
SOLID
 70
     1
 71
     0
 91
        1
 92
        1
 93
        1
 72
     4
 94
        3
 73
     0
 74
     1
 95
       11
 96
        7
 40
0.0
 40
0.0
 40
0.0
 40
0.0
 40
1.0
 40
1.0
 40
1.0
 40
2.0
 40
2.0
 40
2.0
 40
2.0
 10
1459.70783113054
 20
254.7773065300707
 10
1459.70783113054
 20
254.7773065300707
 10
1465.28790925554
 20
254.0570916863207
 10
1465.28790925554
 20
254.0570916863207
 10
1465.28790925554
 20
254.0570916863207
 10
1459.70783113054
 20
254.7773065300707
 10
1459.70783113054
 20
254.7773065300707
 97
        0
 75
     2
 76
     1
 98
        0
  0
HATCH
  5
5658
330
A
100
AcDbEntity
  8
レイヤー 1
 62
     7
420
 16777215
100
AcDbHatch
 10
0.0
 20
0.0
 30
0.0
210
0.0
220
0.0
230
1.0
  2
SOLID
 70
     1
 71
     0
 91
        1
 92
        1
 93
        1
 72
     4
 94
        3
 73
     0
 74
     1
 95
       11
 96
        7
 40
0.0
 40
0.0
 40
0.0
 40
0.0
 40
1.0
 40
1.0
 40
1.0
 40
2.0
 40
2.0
 40
2.0
 40
2.0
 10
1459.70783113054
 20
254.7773065300707
 10
1459.70783113054
 20
254.7773065300707
 10
1459.70783113054
 20
254.0570916863207
 10
1459.70783113054
 20
254.0570916863207
 10
1459.70783113054
 20
254.0570916863207
 10
1459.70783113054
 20
254.7773065300707
 10
1459.70783113054
 20
254.7773065300707
 97
        0
 75
     2
 76
     1
 98
        0
  0
HATCH
  5
565C
330
A
100
AcDbEntity
  8
レイヤー 1
 62
     7
420
 16777215
100
AcDbHatch
 10
0.0
 20
0.0
 30
0.0
210
0.0
220
0.0
230
1.0
  2
SOLID
 70
     1
 71
     0
 91
        1
 92
        1
 93
        1
 72
     4
 94
        3
 73
     0
 74
     1
 95
       14
 96
       10
 40
0.0
 40
0.0
 40
0.0
 40
0.0
 40
1.0
 40
1.0
 40
1.0
 40
2.0
 40
2.0
 40
2.0
 40
3.0
 40
3.0
 40
3.0
 40
3.0
 10
1465.28790925554
 20
199.5170526238207
 10
1465.28790925554
 20
199.5170526238207
 10
1465.28790925554
 20
199.5170526238207
 10
1465.28790925554
 20
199.5170526238207
 10
1465.28790925554
 20
199.5170526238207
 10
1459.70783113054
 20
199.5170526238207
 10
1459.70783113054
 20
199.5170526238207
 10
1459.70783113054
 20
199.5170526238207
 10
1465.28790925554
 20
199.5170526238207
 10
1465.28790925554
 20
199.5170526238207
 97
        0
 75
     2
 76
     1
 98
        0
  0
HATCH
  5
565F
330
A
100
AcDbEntity
  8
レイヤー 1
 62
     7
420
 16777215
100
AcDbHatch
 10
0.0
 20
0.0
 30
0.0
210
0.0
220
0.0
230
1.0
  2
SOLID
 70
     1
 71
     0
 91
        1
 92
        1
 93
        1
 72
     4
 94
        3
 73
     0
 74
     1
 95
       11
 96
        7
 40
0.0
 40
0.0
 40
0.0
 40
0.0
 40
1.0
 40
1.0
 40
1.0
 40
2.0
 40
2.0
 40
2.0
 40
2.0
 10
1465.28790925554
 20
199.5170526238207
 10
1465.28790925554
 20
199.5170526238207
 10
1459.70783113054
 20
200.2377557488207
 10
1459.70783113054
 20
200.2377557488207
 10
1459.70783113054
 20
200.2377557488207
 10
1465.28790925554
 20
199.5170526238207
 10
1465.28790925554
 20
199.5170526238207
 97
        0
 75
     2
 76
     1
 98
        0
  0
HATCH
  5
5662
330
A
100
AcDbEntity
  8
レイヤー 1
 62
     7
420
 16777215
100
AcDbHatch
 10
0.0
 20
0.0
 30
0.0
210
0.0
220
0.0
230
1.0
  2
SOLID
 70
     1
 71
     0
 91
        1
 92
        1
 93
        1
 72
     4
 94
        3
 73
     0
 74
     1
 95
       11
 96
        7
 40
0.0
 40
0.0
 40
0.0
 40
0.0
 40
1.0
 40
1.0
 40
1.0
 40
2.0
 40
2.0
 40
2.0
 40
2.0
 10
1465.28790925554
 20
199.5170526238207
 10
1465.28790925554
 20
199.5170526238207
 10
1465.28790925554
 20
200.2377557488207
 10
1465.28790925554
 20
200.2377557488207
 10
1465.28790925554
 20
200.2377557488207
 10
1465.28790925554
 20
199.5170526238207
 10
1465.28790925554
 20
199.5170526238207
 97
        0
 75
     2
 76
     1
 98
        0
  0
HATCH
  5
5666
330
A
100
AcDbEntity
  8
レイヤー 1
 62
     7
420
 16777215
100
AcDbHatch
 10
0.0
 20
0.0
 30
0.0
210
0.0
220
0.0
230
1.0
  2
SOLID
 70
     1
 71
     0
 91
        1
 92
        1
 93
        1
 72
     4
 94
        3
 73
     0
 74
     1
 95
       14
 96
       10
 40
0.0
 40
0.0
 40
0.0
 40
0.0
 40
1.0
 40
1.0
 40
1.0
 40
2.0
 40
2.0
 40
2.0
 40
3.0
 40
3.0
 40
3.0
 40
3.0
 10
1409.30744050554
 20
118.1576776238207
 10
1409.30744050554
 20
118.1576776238207
 10
1409.30744050554
 20
118.1576776238207
 10
1409.30744050554
 20
118.1576776238207
 10
1409.30744050554
 20
118.1576776238207
 10
1409.30744050554
 20
123.7377557488207
 10
1409.30744050554
 20
123.7377557488207
 10
1409.30744050554
 20
123.7377557488207
 10
1409.30744050554
 20
118.1576776238207
 10
1409.30744050554
 20
118.1576776238207
 97
        0
 75
     2
 76
     1
 98
        0
  0
HATCH
  5
5669
330
A
100
AcDbEntity
  8
レイヤー 1
 62
     7
420
 16777215
100
AcDbHatch
 10
0.0
 20
0.0
 30
0.0
210
0.0
220
0.0
230
1.0
  2
SOLID
 70
     1
 71
     0
 91
        1
 92
        1
 93
        1
 72
     4
 94
        3
 73
     0
 74
     1
 95
       11
 96
        7
 40
0.0
 40
0.0
 40
0.0
 40
0.0
 40
1.0
 40
1.0
 40
1.0
 40
2.0
 40
2.0
 40
2.0
 40
2.0
 10
1409.30744050554
 20
118.1576776238207
 10
1409.30744050554
 20
118.1576776238207
 10
1410.02619050554
 20
123.7377557488207
 10
1410.02619050554
 20
123.7377557488207
 10
1410.02619050554
 20
123.7377557488207
 10
1409.30744050554
 20
118.1576776238207
 10
1409.30744050554
 20
118.1576776238207
 97
        0
 75
     2
 76
     1
 98
        0
  0
HATCH
  5
566C
330
A
100
AcDbEntity
  8
レイヤー 1
 62
     7
420
 16777215
100
AcDbHatch
 10
0.0
 20
0.0
 30
0.0
210
0.0
220
0.0
230
1.0
  2
SOLID
 70
     1
 71
     0
 91
        1
 92
        1
 93
        1
 72
     4
 94
        3
 73
     0
 74
     1
 95
       11
 96
        7
 40
0.0
 40
0.0
 40
0.0
 40
0.0
 40
1.0
 40
1.0
 40
1.0
 40
2.0
 40
2.0
 40
2.0
 40
2.0
 10
1409.30744050554
 20
118.1576776238207
 10
1409.30744050554
 20
118.1576776238207
 10
1410.02619050554
 20
118.1576776238207
 10
1410.02619050554
 20
118.1576776238207
 10
1410.02619050554
 20
118.1576776238207
 10
1409.30744050554
 20
118.1576776238207
 10
1409.30744050554
 20
118.1576776238207
 97
        0
 75
     2
 76
     1
 98
        0
  0
HATCH
  5
5670
330
A
100
AcDbEntity
  8
レイヤー 1
 62
     7
420
 16777215
100
AcDbHatch
 10
0.0
 20
0.0
 30
0.0
210
0.0
220
0.0
230
1.0
  2
SOLID
 70
     1
 71
     0
 91
        1
 92
        1
 93
        1
 72
     4
 94
        3
 73
     0
 74
     1
 95
       14
 96
       10
 40
0.0
 40
0.0
 40
0.0
 40
0.0
 40
1.0
 40
1.0
 40
1.0
 40
2.0
 40
2.0
 40
2.0
 40
3.0
 40
3.0
 40
3.0
 40
3.0
 10
1426.40704988054
 20
123.7377557488207
 10
1426.40704988054
 20
123.7377557488207
 10
1426.40704988054
 20
123.7377557488207
 10
1426.40704988054
 20
123.7377557488207
 10
1426.40704988054
 20
123.7377557488207
 10
1426.40704988054
 20
118.1576776238207
 10
1426.40704988054
 20
118.1576776238207
 10
1426.40704988054
 20
118.1576776238207
 10
1426.40704988054
 20
123.7377557488207
 10
1426.40704988054
 20
123.7377557488207
 97
        0
 75
     2
 76
     1
 98
        0
  0
HATCH
  5
5673
330
A
100
AcDbEntity
  8
レイヤー 1
 62
     7
420
 16777215
100
AcDbHatch
 10
0.0
 20
0.0
 30
0.0
210
0.0
220
0.0
230
1.0
  2
SOLID
 70
     1
 71
     0
 91
        1
 92
        1
 93
        1
 72
     4
 94
        3
 73
     0
 74
     1
 95
       11
 96
        7
 40
0.0
 40
0.0
 40
0.0
 40
0.0
 40
1.0
 40
1.0
 40
1.0
 40
2.0
 40
2.0
 40
2.0
 40
2.0
 10
1426.40704988054
 20
123.7377557488207
 10
1426.40704988054
 20
123.7377557488207
 10
1425.68634675554
 20
118.1576776238207
 10
1425.68634675554
 20
118.1576776238207
 10
1425.68634675554
 20
118.1576776238207
 10
1426.40704988054
 20
123.7377557488207
 10
1426.40704988054
 20
123.7377557488207
 97
        0
 75
     2
 76
     1
 98
        0
  0
HATCH
  5
5676
330
A
100
AcDbEntity
  8
レイヤー 1
 62
     7
420
 16777215
100
AcDbHatch
 10
0.0
 20
0.0
 30
0.0
210
0.0
220
0.0
230
1.0
  2
SOLID
 70
     1
 71
     0
 91
        1
 92
        1
 93
        1
 72
     4
 94
        3
 73
     0
 74
     1
 95
       11
 96
        7
 40
0.0
 40
0.0
 40
0.0
 40
0.0
 40
1.0
 40
1.0
 40
1.0
 40
2.0
 40
2.0
 40
2.0
 40
2.0
 10
1426.40704988054
 20
123.7377557488207
 10
1426.40704988054
 20
123.7377557488207
 10
1425.68634675554
 20
123.7377557488207
 10
1425.68634675554
 20
123.7377557488207
 10
1425.68634675554
 20
123.7377557488207
 10
1426.40704988054
 20
123.7377557488207
 10
1426.40704988054
 20
123.7377557488207
 97
        0
 75
     2
 76
     1
 98
        0
  0
HATCH
  5
567A
330
A
100
AcDbEntity
  8
レイヤー 1
 62
     7
420
 16777215
100
AcDbHatch
 10
0.0
 20
0.0
 30
0.0
210
0.0
220
0.0
230
1.0
  2
SOLID
 70
     1
 71
     0
 91
        1
 92
        1
 93
        1
 72
     4
 94
        3
 73
     0
 74
     1
 95
       14
 96
       10
 40
0.0
 40
0.0
 40
0.0
 40
0.0
 40
1.0
 40
1.0
 40
1.0
 40
2.0
 40
2.0
 40
2.0
 40
3.0
 40
3.0
 40
3.0
 40
3.0
 10
1391.48712800554
 20
91.15767762382072
 10
1391.48712800554
 20
91.15767762382072
 10
1391.48712800554
 20
91.15767762382072
 10
1391.48712800554
 20
91.15767762382072
 10
1391.48712800554
 20
91.15767762382072
 10
1391.48712800554
 20
96.73775574882072
 10
1391.48712800554
 20
96.73775574882072
 10
1391.48712800554
 20
96.73775574882072
 10
1391.48712800554
 20
91.15767762382072
 10
1391.48712800554
 20
91.15767762382072
 97
        0
 75
     2
 76
     1
 98
        0
  0
HATCH
  5
567D
330
A
100
AcDbEntity
  8
レイヤー 1
 62
     7
420
 16777215
100
AcDbHatch
 10
0.0
 20
0.0
 30
0.0
210
0.0
220
0.0
230
1.0
  2
SOLID
 70
     1
 71
     0
 91
        1
 92
        1
 93
        1
 72
     4
 94
        3
 73
     0
 74
     1
 95
       11
 96
        7
 40
0.0
 40
0.0
 40
0.0
 40
0.0
 40
1.0
 40
1.0
 40
1.0
 40
2.0
 40
2.0
 40
2.0
 40
2.0
 10
1391.48712800554
 20
91.15767762382072
 10
1391.48712800554
 20
91.15767762382072
 10
1392.20783113054
 20
96.73775574882072
 10
1392.20783113054
 20
96.73775574882072
 10
1392.20783113054
 20
96.73775574882072
 10
1391.48712800554
 20
91.15767762382072
 10
1391.48712800554
 20
91.15767762382072
 97
        0
 75
     2
 76
     1
 98
        0
  0
HATCH
  5
5680
330
A
100
AcDbEntity
  8
レイヤー 1
 62
     7
420
 16777215
100
AcDbHatch
 10
0.0
 20
0.0
 30
0.0
210
0.0
220
0.0
230
1.0
  2
SOLID
 70
     1
 71
     0
 91
        1
 92
        1
 93
        1
 72
     4
 94
        3
 73
     0
 74
     1
 95
       11
 96
        7
 40
0.0
 40
0.0
 40
0.0
 40
0.0
 40
1.0
 40
1.0
 40
1.0
 40
2.0
 40
2.0
 40
2.0
 40
2.0
 10
1391.48712800554
 20
91.15767762382072
 10
1391.48712800554
 20
91.15767762382072
 10
1392.20783113054
 20
91.15767762382072
 10
1392.20783113054
 20
91.15767762382072
 10
1392.20783113054
 20
91.15767762382072
 10
1391.48712800554
 20
91.15767762382072
 10
1391.48712800554
 20
91.15767762382072
 97
        0
 75
     2
 76
     1
 98
        0
  0
HATCH
  5
5684
330
A
100
AcDbEntity
  8
レイヤー 1
 62
     7
420
 16777215
100
AcDbHatch
 10
0.0
 20
0.0
 30
0.0
210
0.0
220
0.0
230
1.0
  2
SOLID
 70
     1
 71
     0
 91
        1
 92
        1
 93
        1
 72
     4
 94
        3
 73
     0
 74
     1
 95
       14
 96
       10
 40
0.0
 40
0.0
 40
0.0
 40
0.0
 40
1.0
 40
1.0
 40
1.0
 40
2.0
 40
2.0
 40
2.0
 40
3.0
 40
3.0
 40
3.0
 40
3.0
 10
1407.14728425554
 20
96.73775574882072
 10
1407.14728425554
 20
96.73775574882072
 10
1407.14728425554
 20
96.73775574882072
 10
1407.14728425554
 20
96.73775574882072
 10
1407.14728425554
 20
96.73775574882072
 10
1407.14728425554
 20
91.15767762382072
 10
1407.14728425554
 20
91.15767762382072
 10
1407.14728425554
 20
91.15767762382072
 10
1407.14728425554
 20
96.73775574882072
 10
1407.14728425554
 20
96.73775574882072
 97
        0
 75
     2
 76
     1
 98
        0
  0
HATCH
  5
5687
330
A
100
AcDbEntity
  8
レイヤー 1
 62
     7
420
 16777215
100
AcDbHatch
 10
0.0
 20
0.0
 30
0.0
210
0.0
220
0.0
230
1.0
  2
SOLID
 70
     1
 71
     0
 91
        1
 92
        1
 93
        1
 72
     4
 94
        3
 73
     0
 74
     1
 95
       11
 96
        7
 40
0.0
 40
0.0
 40
0.0
 40
0.0
 40
1.0
 40
1.0
 40
1.0
 40
2.0
 40
2.0
 40
2.0
 40
2.0
 10
1407.14728425554
 20
96.73775574882072
 10
1407.14728425554
 20
96.73775574882072
 10
1406.42658113054
 20
91.15767762382072
 10
1406.42658113054
 20
91.15767762382072
 10
1406.42658113054
 20
91.15767762382072
 10
1407.14728425554
 20
96.73775574882072
 10
1407.14728425554
 20
96.73775574882072
 97
        0
 75
     2
 76
     1
 98
        0
  0
HATCH
  5
568A
330
A
100
AcDbEntity
  8
レイヤー 1
 62
     7
420
 16777215
100
AcDbHatch
 10
0.0
 20
0.0
 30
0.0
210
0.0
220
0.0
230
1.0
  2
SOLID
 70
     1
 71
     0
 91
        1
 92
        1
 93
        1
 72
     4
 94
        3
 73
     0
 74
     1
 95
       11
 96
        7
 40
0.0
 40
0.0
 40
0.0
 40
0.0
 40
1.0
 40
1.0
 40
1.0
 40
2.0
 40
2.0
 40
2.0
 40
2.0
 10
1407.14728425554
 20
96.73775574882072
 10
1407.14728425554
 20
96.73775574882072
 10
1406.42658113054
 20
96.73775574882072
 10
1406.42658113054
 20
96.73775574882072
 10
1406.42658113054
 20
96.73775574882072
 10
1407.14728425554
 20
96.73775574882072
 10
1407.14728425554
 20
96.73775574882072
 97
        0
 75
     2
 76
     1
 98
        0
  0
HATCH
  5
568E
330
A
100
AcDbEntity
  8
レイヤー 1
 62
     7
420
 16777215
100
AcDbHatch
 10
0.0
 20
0.0
 30
0.0
210
0.0
220
0.0
230
1.0
  2
SOLID
 70
     1
 71
     0
 91
        1
 92
        1
 93
        1
 72
     4
 94
        3
 73
     0
 74
     1
 95
       14
 96
       10
 40
0.0
 40
0.0
 40
0.0
 40
0.0
 40
1.0
 40
1.0
 40
1.0
 40
2.0
 40
2.0
 40
2.0
 40
3.0
 40
3.0
 40
3.0
 40
3.0
 10
910.5271670680402
 20
89.71724793632072
 10
910.5271670680402
 20
89.71724793632072
 10
910.5271670680402
 20
89.71724793632072
 10
910.5271670680402
 20
89.71724793632072
 10
910.5271670680402
 20
89.71724793632072
 10
910.5271670680402
 20
95.29732606132072
 10
910.5271670680402
 20
95.29732606132072
 10
910.5271670680402
 20
95.29732606132072
 10
910.5271670680402
 20
89.71724793632072
 10
910.5271670680402
 20
89.71724793632072
 97
        0
 75
     2
 76
     1
 98
        0
  0
HATCH
  5
5691
330
A
100
AcDbEntity
  8
レイヤー 1
 62
     7
420
 16777215
100
AcDbHatch
 10
0.0
 20
0.0
 30
0.0
210
0.0
220
0.0
230
1.0
  2
SOLID
 70
     1
 71
     0
 91
        1
 92
        1
 93
        1
 72
     4
 94
        3
 73
     0
 74
     1
 95
       11
 96
        7
 40
0.0
 40
0.0
 40
0.0
 40
0.0
 40
1.0
 40
1.0
 40
1.0
 40
2.0
 40
2.0
 40
2.0
 40
2.0
 10
910.5271670680402
 20
89.71724793632072
 10
910.5271670680402
 20
89.71724793632072
 10
911.2468936305402
 20
95.29732606132072
 10
911.2468936305402
 20
95.29732606132072
 10
911.2468936305402
 20
95.29732606132072
 10
910.5271670680402
 20
89.71724793632072
 10
910.5271670680402
 20
89.71724793632072
 97
        0
 75
     2
 76
     1
 98
        0
  0
HATCH
  5
5694
330
A
100
AcDbEntity
  8
レイヤー 1
 62
     7
420
 16777215
100
AcDbHatch
 10
0.0
 20
0.0
 30
0.0
210
0.0
220
0.0
230
1.0
  2
SOLID
 70
     1
 71
     0
 91
        1
 92
        1
 93
        1
 72
     4
 94
        3
 73
     0
 74
     1
 95
       11
 96
        7
 40
0.0
 40
0.0
 40
0.0
 40
0.0
 40
1.0
 40
1.0
 40
1.0
 40
2.0
 40
2.0
 40
2.0
 40
2.0
 10
910.5271670680402
 20
89.71724793632072
 10
910.5271670680402
 20
89.71724793632072
 10
911.2468936305402
 20
89.71724793632072
 10
911.2468936305402
 20
89.71724793632072
 10
911.2468936305402
 20
89.71724793632072
 10
910.5271670680402
 20
89.71724793632072
 10
910.5271670680402
 20
89.71724793632072
 97
        0
 75
     2
 76
     1
 98
        0
  0
HATCH
  5
5698
330
A
100
AcDbEntity
  8
レイヤー 1
 62
     7
420
 16777215
100
AcDbHatch
 10
0.0
 20
0.0
 30
0.0
210
0.0
220
0.0
230
1.0
  2
SOLID
 70
     1
 71
     0
 91
        1
 92
        1
 93
        1
 72
     4
 94
        3
 73
     0
 74
     1
 95
       14
 96
       10
 40
0.0
 40
0.0
 40
0.0
 40
0.0
 40
1.0
 40
1.0
 40
1.0
 40
2.0
 40
2.0
 40
2.0
 40
3.0
 40
3.0
 40
3.0
 40
3.0
 10
1016.72687409929
 20
95.29732606132072
 10
1016.72687409929
 20
95.29732606132072
 10
1016.72687409929
 20
95.29732606132072
 10
1016.72687409929
 20
95.29732606132072
 10
1016.72687409929
 20
95.29732606132072
 10
1016.72687409929
 20
89.71724793632072
 10
1016.72687409929
 20
89.71724793632072
 10
1016.72687409929
 20
89.71724793632072
 10
1016.72687409929
 20
95.29732606132072
 10
1016.72687409929
 20
95.29732606132072
 97
        0
 75
     2
 76
     1
 98
        0
  0
HATCH
  5
569B
330
A
100
AcDbEntity
  8
レイヤー 1
 62
     7
420
 16777215
100
AcDbHatch
 10
0.0
 20
0.0
 30
0.0
210
0.0
220
0.0
230
1.0
  2
SOLID
 70
     1
 71
     0
 91
        1
 92
        1
 93
        1
 72
     4
 94
        3
 73
     0
 74
     1
 95
       11
 96
        7
 40
0.0
 40
0.0
 40
0.0
 40
0.0
 40
1.0
 40
1.0
 40
1.0
 40
2.0
 40
2.0
 40
2.0
 40
2.0
 10
1016.72687409929
 20
95.29732606132072
 10
1016.72687409929
 20
95.29732606132072
 10
1016.00714753679
 20
89.71724793632072
 10
1016.00714753679
 20
89.71724793632072
 10
1016.00714753679
 20
89.71724793632072
 10
1016.72687409929
 20
95.29732606132072
 10
1016.72687409929
 20
95.29732606132072
 97
        0
 75
     2
 76
     1
 98
        0
  0
HATCH
  5
569E
330
A
100
AcDbEntity
  8
レイヤー 1
 62
     7
420
 16777215
100
AcDbHatch
 10
0.0
 20
0.0
 30
0.0
210
0.0
220
0.0
230
1.0
  2
SOLID
 70
     1
 71
     0
 91
        1
 92
        1
 93
        1
 72
     4
 94
        3
 73
     0
 74
     1
 95
       11
 96
        7
 40
0.0
 40
0.0
 40
0.0
 40
0.0
 40
1.0
 40
1.0
 40
1.0
 40
2.0
 40
2.0
 40
2.0
 40
2.0
 10
1016.72687409929
 20
95.29732606132072
 10
1016.72687409929
 20
95.29732606132072
 10
1016.00714753679
 20
95.29732606132072
 10
1016.00714753679
 20
95.29732606132072
 10
1016.00714753679
 20
95.29732606132072
 10
1016.72687409929
 20
95.29732606132072
 10
1016.72687409929
 20
95.29732606132072
 97
        0
 75
     2
 76
     1
 98
        0
  0
SPLINE
  5
6154
102
{ACAD_REACTORS
330
6543
102
}
330
A
100
AcDbEntity
  8
モデル
100
AcDbSpline
210
0.0
220
0.0
230
1.0
 70
     8
 71
     3
 72
     8
 73
     4
 74
     0
 42
0.000000001
 43
0.0000000001
 40
0.0
 40
0.0
 40
0.0
 40
0.0
 40
1.0
 40
1.0
 40
1.0
 40
1.0
 10
207.4138892081286
 20
308.3645199924237
 30
0.0
 10
207.3471050380471
 20
307.7001207746027
 30
0.0
 10
207.3467607897477
 20
307.0309020805902
 30
0.0
 10
207.4135449598292
 20
306.3665028627692
 30
0.0
  0
SPLINE
  5
6155
102
{ACAD_REACTORS
330
6543
102
}
330
A
100
AcDbEntity
  8
モデル
100
AcDbSpline
210
0.0
220
0.0
230
1.0
 70
     8
 71
     3
 72
     8
 73
     4
 74
     0
 42
0.000000001
 43
0.0000000001
 40
0.0
 40
0.0
 40
0.0
 40
0.0
 40
1.0
 40
1.0
 40
1.0
 40
1.0
 10
227.3007692155394
 20
306.3634046280747
 30
0.0
 10
227.3675533856207
 20
307.0278038458957
 30
0.0
 10
227.3678976339203
 20
307.6973667882075
 30
0.0
 10
227.3011134638388
 20
308.3617660060286
 30
0.0
  0
SPLINE
  5
6156
102
{ACAD_REACTORS
330
6543
102
}
330
A
100
AcDbEntity
  8
モデル
100
AcDbSpline
210
0.0
220
0.0
230
1.0
 70
     8
 71
     3
 72
    11
 73
     7
 74
     0
 42
0.000000001
 43
0.0000000001
 40
0.0
 40
0.0
 40
0.0
 40
0.0
 40
1.0
 40
1.0
 40
1.0
 40
2.0
 40
2.0
 40
2.0
 40
2.0
 10
227.3007692155394
 20
308.3627987509268
 30
0.0
 10
226.7881834977489
 20
313.4690337757658
 30
0.0
 10
222.490587728175
 20
317.3569740690666
 30
0.0
 10
217.3585340808819
 20
317.3576625656654
 30
0.0
 10
212.2264804335886
 20
317.3583510622641
 30
0.0
 10
207.9281961674159
 20
313.4717877621608
 30
0.0
 10
207.4138892081286
 20
308.3655527373219
 30
0.0
  0
HATCH
  5
6158
330
A
100
AcDbEntity
  8
レイヤー 1
 62
     7
420
 16777215
100
AcDbHatch
 10
0.0
 20
0.0
 30
0.0
210
0.0
220
0.0
230
1.0
  2
SOLID
 70
     1
 71
     0
 91
        1
 92
        1
 93
        1
 72
     4
 94
        3
 73
     0
 74
     1
 95
       14
 96
       10
 40
0.0
 40
0.0
 40
0.0
 40
0.0
 40
1.0
 40
1.0
 40
1.0
 40
2.0
 40
2.0
 40
2.0
 40
3.0
 40
3.0
 40
3.0
 40
3.0
 10
890.6964928842563
 20
97.77209302325576
 10
890.6964928842563
 20
97.77209302325576
 10
890.6964928842563
 20
97.77209302325576
 10
890.6964928842563
 20
97.77209302325576
 10
890.6964928842563
 20
97.77209302325576
 10
890.6964928842563
 20
103.5328352107558
 10
890.6964928842563
 20
103.5328352107558
 10
890.6964928842563
 20
103.5328352107558
 10
890.6964928842563
 20
97.77209302325576
 10
890.6964928842563
 20
97.77209302325576
 97
        0
 75
     2
 76
     1
 98
        0
  0
HATCH
  5
615B
330
A
100
AcDbEntity
  8
レイヤー 1
 62
     7
420
 16777215
100
AcDbHatch
 10
0.0
 20
0.0
 30
0.0
210
0.0
220
0.0
230
1.0
  2
SOLID
 70
     1
 71
     0
 91
        1
 92
        1
 93
        1
 72
     4
 94
        3
 73
     0
 74
     1
 95
       11
 96
        7
 40
0.0
 40
0.0
 40
0.0
 40
0.0
 40
1.0
 40
1.0
 40
1.0
 40
2.0
 40
2.0
 40
2.0
 40
2.0
 10
890.6964928842563
 20
97.77209302325576
 10
890.6964928842563
 20
97.77209302325576
 10
891.4167077280063
 20
103.5328352107558
 10
891.4167077280063
 20
103.5328352107558
 10
891.4167077280063
 20
103.5328352107558
 10
890.6964928842563
 20
97.77209302325576
 10
890.6964928842563
 20
97.77209302325576
 97
        0
 75
     2
 76
     1
 98
        0
  0
HATCH
  5
615E
330
A
100
AcDbEntity
  8
レイヤー 1
 62
     7
420
 16777215
100
AcDbHatch
 10
0.0
 20
0.0
 30
0.0
210
0.0
220
0.0
230
1.0
  2
SOLID
 70
     1
 71
     0
 91
        1
 92
        1
 93
        1
 72
     4
 94
        3
 73
     0
 74
     1
 95
       11
 96
        7
 40
0.0
 40
0.0
 40
0.0
 40
0.0
 40
1.0
 40
1.0
 40
1.0
 40
2.0
 40
2.0
 40
2.0
 40
2.0
 10
890.6964928842563
 20
97.77209302325576
 10
890.6964928842563
 20
97.77209302325576
 10
891.4167077280063
 20
97.77209302325576
 10
891.4167077280063
 20
97.77209302325576
 10
891.4167077280063
 20
97.77209302325576
 10
890.6964928842563
 20
97.77209302325576
 10
890.6964928842563
 20
97.77209302325576
 97
        0
 75
     2
 76
     1
 98
        0
  0
HATCH
  5
6162
330
A
100
AcDbEntity
  8
レイヤー 1
 62
     7
420
 16777215
100
AcDbHatch
 10
0.0
 20
0.0
 30
0.0
210
0.0
220
0.0
230
1.0
  2
SOLID
 70
     1
 71
     0
 91
        1
 92
        1
 93
        1
 72
     4
 94
        3
 73
     0
 74
     1
 95
       14
 96
       10
 40
0.0
 40
0.0
 40
0.0
 40
0.0
 40
1.0
 40
1.0
 40
1.0
 40
2.0
 40
2.0
 40
2.0
 40
3.0
 40
3.0
 40
3.0
 40
3.0
 10
997.0763756967563
 20
103.5328352107558
 10
997.0763756967563
 20
103.5328352107558
 10
997.0763756967563
 20
103.5328352107558
 10
997.0763756967563
 20
103.5328352107558
 10
997.0763756967563
 20
103.5328352107558
 10
997.0763756967563
 20
97.77209302325576
 10
997.0763756967563
 20
97.77209302325576
 10
997.0763756967563
 20
97.77209302325576
 10
997.0763756967563
 20
103.5328352107558
 10
997.0763756967563
 20
103.5328352107558
 97
        0
 75
     2
 76
     1
 98
        0
  0
HATCH
  5
6165
330
A
100
AcDbEntity
  8
レイヤー 1
 62
     7
420
 16777215
100
AcDbHatch
 10
0.0
 20
0.0
 30
0.0
210
0.0
220
0.0
230
1.0
  2
SOLID
 70
     1
 71
     0
 91
        1
 92
        1
 93
        1
 72
     4
 94
        3
 73
     0
 74
     1
 95
       11
 96
        7
 40
0.0
 40
0.0
 40
0.0
 40
0.0
 40
1.0
 40
1.0
 40
1.0
 40
2.0
 40
2.0
 40
2.0
 40
2.0
 10
997.0763756967563
 20
103.5328352107558
 10
997.0763756967563
 20
103.5328352107558
 10
996.3566491342563
 20
97.77209302325576
 10
996.3566491342563
 20
97.77209302325576
 10
996.3566491342563
 20
97.77209302325576
 10
997.0763756967563
 20
103.5328352107558
 10
997.0763756967563
 20
103.5328352107558
 97
        0
 75
     2
 76
     1
 98
        0
  0
HATCH
  5
6168
330
A
100
AcDbEntity
  8
レイヤー 1
 62
     7
420
 16777215
100
AcDbHatch
 10
0.0
 20
0.0
 30
0.0
210
0.0
220
0.0
230
1.0
  2
SOLID
 70
     1
 71
     0
 91
        1
 92
        1
 93
        1
 72
     4
 94
        3
 73
     0
 74
     1
 95
       11
 96
        7
 40
0.0
 40
0.0
 40
0.0
 40
0.0
 40
1.0
 40
1.0
 40
1.0
 40
2.0
 40
2.0
 40
2.0
 40
2.0
 10
997.0763756967563
 20
103.5328352107558
 10
997.0763756967563
 20
103.5328352107558
 10
996.3566491342563
 20
103.5328352107558
 10
996.3566491342563
 20
103.5328352107558
 10
996.3566491342563
 20
103.5328352107558
 10
997.0763756967563
 20
103.5328352107558
 10
997.0763756967563
 20
103.5328352107558
 97
        0
 75
     2
 76
     1
 98
        0
  0
HATCH
  5
616C
330
A
100
AcDbEntity
  8
レイヤー 1
 62
     7
420
 16777215
100
AcDbHatch
 10
0.0
 20
0.0
 30
0.0
210
0.0
220
0.0
230
1.0
  2
SOLID
 70
     1
 71
     0
 91
        1
 92
        1
 93
        1
 72
     4
 94
        3
 73
     0
 74
     1
 95
       14
 96
       10
 40
0.0
 40
0.0
 40
0.0
 40
0.0
 40
1.0
 40
1.0
 40
1.0
 40
2.0
 40
2.0
 40
2.0
 40
3.0
 40
3.0
 40
3.0
 40
3.0
 10
669.1169030405063
 20
267.1524641170058
 10
669.1169030405063
 20
267.1524641170058
 10
669.1169030405063
 20
267.1524641170058
 10
669.1169030405063
 20
267.1524641170058
 10
669.1169030405063
 20
267.1524641170058
 10
674.8766686655063
 20
267.1524641170058
 10
674.8766686655063
 20
267.1524641170058
 10
674.8766686655063
 20
267.1524641170058
 10
669.1169030405063
 20
267.1524641170058
 10
669.1169030405063
 20
267.1524641170058
 97
        0
 75
     2
 76
     1
 98
        0
  0
HATCH
  5
616F
330
A
100
AcDbEntity
  8
レイヤー 1
 62
     7
420
 16777215
100
AcDbHatch
 10
0.0
 20
0.0
 30
0.0
210
0.0
220
0.0
230
1.0
  2
SOLID
 70
     1
 71
     0
 91
        1
 92
        1
 93
        1
 72
     4
 94
        3
 73
     0
 74
     1
 95
       11
 96
        7
 40
0.0
 40
0.0
 40
0.0
 40
0.0
 40
1.0
 40
1.0
 40
1.0
 40
2.0
 40
2.0
 40
2.0
 40
2.0
 10
669.1169030405063
 20
267.1524641170058
 10
669.1169030405063
 20
267.1524641170058
 10
674.8766686655063
 20
266.4327375545058
 10
674.8766686655063
 20
266.4327375545058
 10
674.8766686655063
 20
266.4327375545058
 10
669.1169030405063
 20
267.1524641170058
 10
669.1169030405063
 20
267.1524641170058
 97
        0
 75
     2
 76
     1
 98
        0
  0
HATCH
  5
6172
330
A
100
AcDbEntity
  8
レイヤー 1
 62
     7
420
 16777215
100
AcDbHatch
 10
0.0
 20
0.0
 30
0.0
210
0.0
220
0.0
230
1.0
  2
SOLID
 70
     1
 71
     0
 91
        1
 92
        1
 93
        1
 72
     4
 94
        3
 73
     0
 74
     1
 95
       11
 96
        7
 40
0.0
 40
0.0
 40
0.0
 40
0.0
 40
1.0
 40
1.0
 40
1.0
 40
2.0
 40
2.0
 40
2.0
 40
2.0
 10
669.1169030405063
 20
267.1524641170058
 10
669.1169030405063
 20
267.1524641170058
 10
669.1169030405063
 20
266.4327375545058
 10
669.1169030405063
 20
266.4327375545058
 10
669.1169030405063
 20
266.4327375545058
 10
669.1169030405063
 20
267.1524641170058
 10
669.1169030405063
 20
267.1524641170058
 97
        0
 75
     2
 76
     1
 98
        0
  0
HATCH
  5
6176
330
A
100
AcDbEntity
  8
レイヤー 1
 62
     7
420
 16777215
100
AcDbHatch
 10
0.0
 20
0.0
 30
0.0
210
0.0
220
0.0
230
1.0
  2
SOLID
 70
     1
 71
     0
 91
        1
 92
        1
 93
        1
 72
     4
 94
        3
 73
     0
 74
     1
 95
       14
 96
       10
 40
0.0
 40
0.0
 40
0.0
 40
0.0
 40
1.0
 40
1.0
 40
1.0
 40
2.0
 40
2.0
 40
2.0
 40
3.0
 40
3.0
 40
3.0
 40
3.0
 10
674.8766686655063
 20
197.6724836482558
 10
674.8766686655063
 20
197.6724836482558
 10
674.8766686655063
 20
197.6724836482558
 10
674.8766686655063
 20
197.6724836482558
 10
674.8766686655063
 20
197.6724836482558
 10
669.1169030405063
 20
197.6724836482558
 10
669.1169030405063
 20
197.6724836482558
 10
669.1169030405063
 20
197.6724836482558
 10
674.8766686655063
 20
197.6724836482558
 10
674.8766686655063
 20
197.6724836482558
 97
        0
 75
     2
 76
     1
 98
        0
  0
HATCH
  5
6179
330
A
100
AcDbEntity
  8
レイヤー 1
 62
     7
420
 16777215
100
AcDbHatch
 10
0.0
 20
0.0
 30
0.0
210
0.0
220
0.0
230
1.0
  2
SOLID
 70
     1
 71
     0
 91
        1
 92
        1
 93
        1
 72
     4
 94
        3
 73
     0
 74
     1
 95
       11
 96
        7
 40
0.0
 40
0.0
 40
0.0
 40
0.0
 40
1.0
 40
1.0
 40
1.0
 40
2.0
 40
2.0
 40
2.0
 40
2.0
 10
674.8766686655063
 20
197.6724836482558
 10
674.8766686655063
 20
197.6724836482558
 10
669.1169030405063
 20
198.3922102107558
 10
669.1169030405063
 20
198.3922102107558
 10
669.1169030405063
 20
198.3922102107558
 10
674.8766686655063
 20
197.6724836482558
 10
674.8766686655063
 20
197.6724836482558
 97
        0
 75
     2
 76
     1
 98
        0
  0
HATCH
  5
617C
330
A
100
AcDbEntity
  8
レイヤー 1
 62
     7
420
 16777215
100
AcDbHatch
 10
0.0
 20
0.0
 30
0.0
210
0.0
220
0.0
230
1.0
  2
SOLID
 70
     1
 71
     0
 91
        1
 92
        1
 93
        1
 72
     4
 94
        3
 73
     0
 74
     1
 95
       11
 96
        7
 40
0.0
 40
0.0
 40
0.0
 40
0.0
 40
1.0
 40
1.0
 40
1.0
 40
2.0
 40
2.0
 40
2.0
 40
2.0
 10
674.8766686655063
 20
197.6724836482558
 10
674.8766686655063
 20
197.6724836482558
 10
674.8766686655063
 20
198.3922102107558
 10
674.8766686655063
 20
198.3922102107558
 10
674.8766686655063
 20
198.3922102107558
 10
674.8766686655063
 20
197.6724836482558
 10
674.8766686655063
 20
197.6724836482558
 97
        0
 75
     2
 76
     1
 98
        0
  0
HATCH
  5
6180
330
A
100
AcDbEntity
  8
レイヤー 1
 62
     7
420
 16777215
100
AcDbHatch
 10
0.0
 20
0.0
 30
0.0
210
0.0
220
0.0
230
1.0
  2
SOLID
 70
     1
 71
     0
 91
        1
 92
        1
 93
        1
 72
     4
 94
        3
 73
     0
 74
     1
 95
       14
 96
       10
 40
0.0
 40
0.0
 40
0.0
 40
0.0
 40
1.0
 40
1.0
 40
1.0
 40
2.0
 40
2.0
 40
2.0
 40
3.0
 40
3.0
 40
3.0
 40
3.0
 10
781.7965905405063
 20
137.5523664607558
 10
781.7965905405063
 20
137.5523664607558
 10
781.7965905405063
 20
137.5523664607558
 10
781.7965905405063
 20
137.5523664607558
 10
781.7965905405063
 20
137.5523664607558
 10
781.7965905405063
 20
131.7926008357558
 10
781.7965905405063
 20
131.7926008357558
 10
781.7965905405063
 20
131.7926008357558
 10
781.7965905405063
 20
137.5523664607558
 10
781.7965905405063
 20
137.5523664607558
 97
        0
 75
     2
 76
     1
 98
        0
  0
HATCH
  5
6183
330
A
100
AcDbEntity
  8
レイヤー 1
 62
     7
420
 16777215
100
AcDbHatch
 10
0.0
 20
0.0
 30
0.0
210
0.0
220
0.0
230
1.0
  2
SOLID
 70
     1
 71
     0
 91
        1
 92
        1
 93
        1
 72
     4
 94
        3
 73
     0
 74
     1
 95
       11
 96
        7
 40
0.0
 40
0.0
 40
0.0
 40
0.0
 40
1.0
 40
1.0
 40
1.0
 40
2.0
 40
2.0
 40
2.0
 40
2.0
 10
781.7965905405063
 20
137.5523664607558
 10
781.7965905405063
 20
137.5523664607558
 10
781.0768639780063
 20
131.7926008357558
 10
781.0768639780063
 20
131.7926008357558
 10
781.0768639780063
 20
131.7926008357558
 10
781.7965905405063
 20
137.5523664607558
 10
781.7965905405063
 20
137.5523664607558
 97
        0
 75
     2
 76
     1
 98
        0
  0
HATCH
  5
6186
330
A
100
AcDbEntity
  8
レイヤー 1
 62
     7
420
 16777215
100
AcDbHatch
 10
0.0
 20
0.0
 30
0.0
210
0.0
220
0.0
230
1.0
  2
SOLID
 70
     1
 71
     0
 91
        1
 92
        1
 93
        1
 72
     4
 94
        3
 73
     0
 74
     1
 95
       11
 96
        7
 40
0.0
 40
0.0
 40
0.0
 40
0.0
 40
1.0
 40
1.0
 40
1.0
 40
2.0
 40
2.0
 40
2.0
 40
2.0
 10
781.7965905405063
 20
137.5523664607558
 10
781.7965905405063
 20
137.5523664607558
 10
781.0768639780063
 20
137.5523664607558
 10
781.0768639780063
 20
137.5523664607558
 10
781.0768639780063
 20
137.5523664607558
 10
781.7965905405063
 20
137.5523664607558
 10
781.7965905405063
 20
137.5523664607558
 97
        0
 75
     2
 76
     1
 98
        0
  0
HATCH
  5
618A
330
A
100
AcDbEntity
  8
レイヤー 1
 62
     7
420
 16777215
100
AcDbHatch
 10
0.0
 20
0.0
 30
0.0
210
0.0
220
0.0
230
1.0
  2
SOLID
 70
     1
 71
     0
 91
        1
 92
        1
 93
        1
 72
     4
 94
        3
 73
     0
 74
     1
 95
       14
 96
       10
 40
0.0
 40
0.0
 40
0.0
 40
0.0
 40
1.0
 40
1.0
 40
1.0
 40
2.0
 40
2.0
 40
2.0
 40
3.0
 40
3.0
 40
3.0
 40
3.0
 10
718.0768639780063
 20
131.7926008357558
 10
718.0768639780063
 20
131.7926008357558
 10
718.0768639780063
 20
131.7926008357558
 10
718.0768639780063
 20
131.7926008357558
 10
718.0768639780063
 20
131.7926008357558
 10
718.0768639780063
 20
137.5523664607558
 10
718.0768639780063
 20
137.5523664607558
 10
718.0768639780063
 20
137.5523664607558
 10
718.0768639780063
 20
131.7926008357558
 10
718.0768639780063
 20
131.7926008357558
 97
        0
 75
     2
 76
     1
 98
        0
  0
HATCH
  5
618D
330
A
100
AcDbEntity
  8
レイヤー 1
 62
     7
420
 16777215
100
AcDbHatch
 10
0.0
 20
0.0
 30
0.0
210
0.0
220
0.0
230
1.0
  2
SOLID
 70
     1
 71
     0
 91
        1
 92
        1
 93
        1
 72
     4
 94
        3
 73
     0
 74
     1
 95
       11
 96
        7
 40
0.0
 40
0.0
 40
0.0
 40
0.0
 40
1.0
 40
1.0
 40
1.0
 40
2.0
 40
2.0
 40
2.0
 40
2.0
 10
718.0768639780063
 20
131.7926008357558
 10
718.0768639780063
 20
131.7926008357558
 10
718.7965905405063
 20
137.5523664607558
 10
718.7965905405063
 20
137.5523664607558
 10
718.7965905405063
 20
137.5523664607558
 10
718.0768639780063
 20
131.7926008357558
 10
718.0768639780063
 20
131.7926008357558
 97
        0
 75
     2
 76
     1
 98
        0
  0
HATCH
  5
6190
330
A
100
AcDbEntity
  8
レイヤー 1
 62
     7
420
 16777215
100
AcDbHatch
 10
0.0
 20
0.0
 30
0.0
210
0.0
220
0.0
230
1.0
  2
SOLID
 70
     1
 71
     0
 91
        1
 92
        1
 93
        1
 72
     4
 94
        3
 73
     0
 74
     1
 95
       11
 96
        7
 40
0.0
 40
0.0
 40
0.0
 40
0.0
 40
1.0
 40
1.0
 40
1.0
 40
2.0
 40
2.0
 40
2.0
 40
2.0
 10
718.0768639780063
 20
131.7926008357558
 10
718.0768639780063
 20
131.7926008357558
 10
718.7965905405063
 20
131.7926008357558
 10
718.7965905405063
 20
131.7926008357558
 10
718.7965905405063
 20
131.7926008357558
 10
718.0768639780063
 20
131.7926008357558
 10
718.0768639780063
 20
131.7926008357558
 97
        0
 75
     2
 76
     1
 98
        0
  0
HATCH
  5
6194
330
A
100
AcDbEntity
  8
レイヤー 1
 62
     7
420
 16777215
100
AcDbHatch
 10
0.0
 20
0.0
 30
0.0
210
0.0
220
0.0
230
1.0
  2
SOLID
 70
     1
 71
     0
 91
        1
 92
        1
 93
        1
 72
     4
 94
        3
 73
     0
 74
     1
 95
       14
 96
       10
 40
0.0
 40
0.0
 40
0.0
 40
0.0
 40
1.0
 40
1.0
 40
1.0
 40
2.0
 40
2.0
 40
2.0
 40
3.0
 40
3.0
 40
3.0
 40
3.0
 10
1325.396688196756
 20
304.5924055232558
 10
1325.396688196756
 20
304.5924055232558
 10
1325.396688196756
 20
304.5924055232558
 10
1325.396688196756
 20
304.5924055232558
 10
1325.396688196756
 20
304.5924055232558
 10
1330.976766321756
 20
304.5924055232558
 10
1330.976766321756
 20
304.5924055232558
 10
1330.976766321756
 20
304.5924055232558
 10
1325.396688196756
 20
304.5924055232558
 10
1325.396688196756
 20
304.5924055232558
 97
        0
 75
     2
 76
     1
 98
        0
  0
HATCH
  5
6197
330
A
100
AcDbEntity
  8
レイヤー 1
 62
     7
420
 16777215
100
AcDbHatch
 10
0.0
 20
0.0
 30
0.0
210
0.0
220
0.0
230
1.0
  2
SOLID
 70
     1
 71
     0
 91
        1
 92
        1
 93
        1
 72
     4
 94
        3
 73
     0
 74
     1
 95
       11
 96
        7
 40
0.0
 40
0.0
 40
0.0
 40
0.0
 40
1.0
 40
1.0
 40
1.0
 40
2.0
 40
2.0
 40
2.0
 40
2.0
 10
1325.396688196756
 20
304.5924055232558
 10
1325.396688196756
 20
304.5924055232558
 10
1330.976766321756
 20
303.8726789607558
 10
1330.976766321756
 20
303.8726789607558
 10
1330.976766321756
 20
303.8726789607558
 10
1325.396688196756
 20
304.5924055232558
 10
1325.396688196756
 20
304.5924055232558
 97
        0
 75
     2
 76
     1
 98
        0
  0
HATCH
  5
619A
330
A
100
AcDbEntity
  8
レイヤー 1
 62
     7
420
 16777215
100
AcDbHatch
 10
0.0
 20
0.0
 30
0.0
210
0.0
220
0.0
230
1.0
  2
SOLID
 70
     1
 71
     0
 91
        1
 92
        1
 93
        1
 72
     4
 94
        3
 73
     0
 74
     1
 95
       11
 96
        7
 40
0.0
 40
0.0
 40
0.0
 40
0.0
 40
1.0
 40
1.0
 40
1.0
 40
2.0
 40
2.0
 40
2.0
 40
2.0
 10
1325.396688196756
 20
304.5924055232558
 10
1325.396688196756
 20
304.5924055232558
 10
1325.396688196756
 20
303.8726789607558
 10
1325.396688196756
 20
303.8726789607558
 10
1325.396688196756
 20
303.8726789607558
 10
1325.396688196756
 20
304.5924055232558
 10
1325.396688196756
 20
304.5924055232558
 97
        0
 75
     2
 76
     1
 98
        0
  0
HATCH
  5
619E
330
A
100
AcDbEntity
  8
レイヤー 1
 62
     7
420
 16777215
100
AcDbHatch
 10
0.0
 20
0.0
 30
0.0
210
0.0
220
0.0
230
1.0
  2
SOLID
 70
     1
 71
     0
 91
        1
 92
        1
 93
        1
 72
     4
 94
        3
 73
     0
 74
     1
 95
       14
 96
       10
 40
0.0
 40
0.0
 40
0.0
 40
0.0
 40
1.0
 40
1.0
 40
1.0
 40
2.0
 40
2.0
 40
2.0
 40
3.0
 40
3.0
 40
3.0
 40
3.0
 10
1330.976766321756
 20
155.7320539607558
 10
1330.976766321756
 20
155.7320539607558
 10
1330.976766321756
 20
155.7320539607558
 10
1330.976766321756
 20
155.7320539607558
 10
1330.976766321756
 20
155.7320539607558
 10
1325.396688196756
 20
155.7320539607558
 10
1325.396688196756
 20
155.7320539607558
 10
1325.396688196756
 20
155.7320539607558
 10
1330.976766321756
 20
155.7320539607558
 10
1330.976766321756
 20
155.7320539607558
 97
        0
 75
     2
 76
     1
 98
        0
  0
HATCH
  5
61A1
330
A
100
AcDbEntity
  8
レイヤー 1
 62
     7
420
 16777215
100
AcDbHatch
 10
0.0
 20
0.0
 30
0.0
210
0.0
220
0.0
230
1.0
  2
SOLID
 70
     1
 71
     0
 91
        1
 92
        1
 93
        1
 72
     4
 94
        3
 73
     0
 74
     1
 95
       11
 96
        7
 40
0.0
 40
0.0
 40
0.0
 40
0.0
 40
1.0
 40
1.0
 40
1.0
 40
2.0
 40
2.0
 40
2.0
 40
2.0
 10
1330.976766321756
 20
155.7320539607558
 10
1330.976766321756
 20
155.7320539607558
 10
1325.396688196756
 20
156.4527570857558
 10
1325.396688196756
 20
156.4527570857558
 10
1325.396688196756
 20
156.4527570857558
 10
1330.976766321756
 20
155.7320539607558
 10
1330.976766321756
 20
155.7320539607558
 97
        0
 75
     2
 76
     1
 98
        0
  0
HATCH
  5
61A4
330
A
100
AcDbEntity
  8
レイヤー 1
 62
     7
420
 16777215
100
AcDbHatch
 10
0.0
 20
0.0
 30
0.0
210
0.0
220
0.0
230
1.0
  2
SOLID
 70
     1
 71
     0
 91
        1
 92
        1
 93
        1
 72
     4
 94
        3
 73
     0
 74
     1
 95
       11
 96
        7
 40
0.0
 40
0.0
 40
0.0
 40
0.0
 40
1.0
 40
1.0
 40
1.0
 40
2.0
 40
2.0
 40
2.0
 40
2.0
 10
1330.976766321756
 20
155.7320539607558
 10
1330.976766321756
 20
155.7320539607558
 10
1330.976766321756
 20
156.4527570857558
 10
1330.976766321756
 20
156.4527570857558
 10
1330.976766321756
 20
156.4527570857558
 10
1330.976766321756
 20
155.7320539607558
 10
1330.976766321756
 20
155.7320539607558
 97
        0
 75
     2
 76
     1
 98
        0
  0
HATCH
  5
61A8
330
A
100
AcDbEntity
  8
レイヤー 1
 62
     7
420
 16777215
100
AcDbHatch
 10
0.0
 20
0.0
 30
0.0
210
0.0
220
0.0
230
1.0
  2
SOLID
 70
     1
 71
     0
 91
        1
 92
        1
 93
        1
 72
     4
 94
        3
 73
     0
 74
     1
 95
       14
 96
       10
 40
0.0
 40
0.0
 40
0.0
 40
0.0
 40
1.0
 40
1.0
 40
1.0
 40
2.0
 40
2.0
 40
2.0
 40
3.0
 40
3.0
 40
3.0
 40
3.0
 10
1471.736531946756
 20
257.7926008357558
 10
1471.736531946756
 20
257.7926008357558
 10
1471.736531946756
 20
257.7926008357558
 10
1471.736531946756
 20
257.7926008357558
 10
1471.736531946756
 20
257.7926008357558
 10
1477.497274134256
 20
257.7926008357558
 10
1477.497274134256
 20
257.7926008357558
 10
1477.497274134256
 20
257.7926008357558
 10
1471.736531946756
 20
257.7926008357558
 10
1471.736531946756
 20
257.7926008357558
 97
        0
 75
     2
 76
     1
 98
        0
  0
HATCH
  5
61AB
330
A
100
AcDbEntity
  8
レイヤー 1
 62
     7
420
 16777215
100
AcDbHatch
 10
0.0
 20
0.0
 30
0.0
210
0.0
220
0.0
230
1.0
  2
SOLID
 70
     1
 71
     0
 91
        1
 92
        1
 93
        1
 72
     4
 94
        3
 73
     0
 74
     1
 95
       11
 96
        7
 40
0.0
 40
0.0
 40
0.0
 40
0.0
 40
1.0
 40
1.0
 40
1.0
 40
2.0
 40
2.0
 40
2.0
 40
2.0
 10
1471.736531946756
 20
257.7926008357558
 10
1471.736531946756
 20
257.7926008357558
 10
1477.497274134256
 20
257.0723859920058
 10
1477.497274134256
 20
257.0723859920058
 10
1477.497274134256
 20
257.0723859920058
 10
1471.736531946756
 20
257.7926008357558
 10
1471.736531946756
 20
257.7926008357558
 97
        0
 75
     2
 76
     1
 98
        0
  0
HATCH
  5
61AE
330
A
100
AcDbEntity
  8
レイヤー 1
 62
     7
420
 16777215
100
AcDbHatch
 10
0.0
 20
0.0
 30
0.0
210
0.0
220
0.0
230
1.0
  2
SOLID
 70
     1
 71
     0
 91
        1
 92
        1
 93
        1
 72
     4
 94
        3
 73
     0
 74
     1
 95
       11
 96
        7
 40
0.0
 40
0.0
 40
0.0
 40
0.0
 40
1.0
 40
1.0
 40
1.0
 40
2.0
 40
2.0
 40
2.0
 40
2.0
 10
1471.736531946756
 20
257.7926008357558
 10
1471.736531946756
 20
257.7926008357558
 10
1471.736531946756
 20
257.0723859920058
 10
1471.736531946756
 20
257.0723859920058
 10
1471.736531946756
 20
257.0723859920058
 10
1471.736531946756
 20
257.7926008357558
 10
1471.736531946756
 20
257.7926008357558
 97
        0
 75
     2
 76
     1
 98
        0
  0
HATCH
  5
61B2
330
A
100
AcDbEntity
  8
レイヤー 1
 62
     7
420
 16777215
100
AcDbHatch
 10
0.0
 20
0.0
 30
0.0
210
0.0
220
0.0
230
1.0
  2
SOLID
 70
     1
 71
     0
 91
        1
 92
        1
 93
        1
 72
     4
 94
        3
 73
     0
 74
     1
 95
       14
 96
       10
 40
0.0
 40
0.0
 40
0.0
 40
0.0
 40
1.0
 40
1.0
 40
1.0
 40
2.0
 40
2.0
 40
2.0
 40
3.0
 40
3.0
 40
3.0
 40
3.0
 10
1477.497274134256
 20
202.5328352107558
 10
1477.497274134256
 20
202.5328352107558
 10
1477.497274134256
 20
202.5328352107558
 10
1477.497274134256
 20
202.5328352107558
 10
1477.497274134256
 20
202.5328352107558
 10
1471.736531946756
 20
202.5328352107558
 10
1471.736531946756
 20
202.5328352107558
 10
1471.736531946756
 20
202.5328352107558
 10
1477.497274134256
 20
202.5328352107558
 10
1477.497274134256
 20
202.5328352107558
 97
        0
 75
     2
 76
     1
 98
        0
  0
HATCH
  5
61B5
330
A
100
AcDbEntity
  8
レイヤー 1
 62
     7
420
 16777215
100
AcDbHatch
 10
0.0
 20
0.0
 30
0.0
210
0.0
220
0.0
230
1.0
  2
SOLID
 70
     1
 71
     0
 91
        1
 92
        1
 93
        1
 72
     4
 94
        3
 73
     0
 74
     1
 95
       11
 96
        7
 40
0.0
 40
0.0
 40
0.0
 40
0.0
 40
1.0
 40
1.0
 40
1.0
 40
2.0
 40
2.0
 40
2.0
 40
2.0
 10
1477.497274134256
 20
202.5328352107558
 10
1477.497274134256
 20
202.5328352107558
 10
1471.736531946756
 20
203.2525617732558
 10
1471.736531946756
 20
203.2525617732558
 10
1471.736531946756
 20
203.2525617732558
 10
1477.497274134256
 20
202.5328352107558
 10
1477.497274134256
 20
202.5328352107558
 97
        0
 75
     2
 76
     1
 98
        0
  0
HATCH
  5
61B8
330
A
100
AcDbEntity
  8
レイヤー 1
 62
     7
420
 16777215
100
AcDbHatch
 10
0.0
 20
0.0
 30
0.0
210
0.0
220
0.0
230
1.0
  2
SOLID
 70
     1
 71
     0
 91
        1
 92
        1
 93
        1
 72
     4
 94
        3
 73
     0
 74
     1
 95
       11
 96
        7
 40
0.0
 40
0.0
 40
0.0
 40
0.0
 40
1.0
 40
1.0
 40
1.0
 40
2.0
 40
2.0
 40
2.0
 40
2.0
 10
1477.497274134256
 20
202.5328352107558
 10
1477.497274134256
 20
202.5328352107558
 10
1477.497274134256
 20
203.2525617732558
 10
1477.497274134256
 20
203.2525617732558
 10
1477.497274134256
 20
203.2525617732558
 10
1477.497274134256
 20
202.5328352107558
 10
1477.497274134256
 20
202.5328352107558
 97
        0
 75
     2
 76
     1
 98
        0
  0
HATCH
  5
61BC
330
A
100
AcDbEntity
  8
レイヤー 1
 62
     7
420
 16777215
100
AcDbHatch
 10
0.0
 20
0.0
 30
0.0
210
0.0
220
0.0
230
1.0
  2
SOLID
 70
     1
 71
     0
 91
        1
 92
        1
 93
        1
 72
     4
 94
        3
 73
     0
 74
     1
 95
       14
 96
       10
 40
0.0
 40
0.0
 40
0.0
 40
0.0
 40
1.0
 40
1.0
 40
1.0
 40
2.0
 40
2.0
 40
2.0
 40
3.0
 40
3.0
 40
3.0
 40
3.0
 10
1390.556844446756
 20
97.77209302325576
 10
1390.556844446756
 20
97.77209302325576
 10
1390.556844446756
 20
97.77209302325576
 10
1390.556844446756
 20
97.77209302325576
 10
1390.556844446756
 20
97.77209302325576
 10
1390.556844446756
 20
103.5328352107558
 10
1390.556844446756
 20
103.5328352107558
 10
1390.556844446756
 20
103.5328352107558
 10
1390.556844446756
 20
97.77209302325576
 10
1390.556844446756
 20
97.77209302325576
 97
        0
 75
     2
 76
     1
 98
        0
  0
HATCH
  5
61BF
330
A
100
AcDbEntity
  8
レイヤー 1
 62
     7
420
 16777215
100
AcDbHatch
 10
0.0
 20
0.0
 30
0.0
210
0.0
220
0.0
230
1.0
  2
SOLID
 70
     1
 71
     0
 91
        1
 92
        1
 93
        1
 72
     4
 94
        3
 73
     0
 74
     1
 95
       11
 96
        7
 40
0.0
 40
0.0
 40
0.0
 40
0.0
 40
1.0
 40
1.0
 40
1.0
 40
2.0
 40
2.0
 40
2.0
 40
2.0
 10
1390.556844446756
 20
97.77209302325576
 10
1390.556844446756
 20
97.77209302325576
 10
1391.276571009256
 20
103.5328352107558
 10
1391.276571009256
 20
103.5328352107558
 10
1391.276571009256
 20
103.5328352107558
 10
1390.556844446756
 20
97.77209302325576
 10
1390.556844446756
 20
97.77209302325576
 97
        0
 75
     2
 76
     1
 98
        0
  0
HATCH
  5
61C2
330
A
100
AcDbEntity
  8
レイヤー 1
 62
     7
420
 16777215
100
AcDbHatch
 10
0.0
 20
0.0
 30
0.0
210
0.0
220
0.0
230
1.0
  2
SOLID
 70
     1
 71
     0
 91
        1
 92
        1
 93
        1
 72
     4
 94
        3
 73
     0
 74
     1
 95
       11
 96
        7
 40
0.0
 40
0.0
 40
0.0
 40
0.0
 40
1.0
 40
1.0
 40
1.0
 40
2.0
 40
2.0
 40
2.0
 40
2.0
 10
1390.556844446756
 20
97.77209302325576
 10
1390.556844446756
 20
97.77209302325576
 10
1391.276571009256
 20
97.77209302325576
 10
1391.276571009256
 20
97.77209302325576
 10
1391.276571009256
 20
97.77209302325576
 10
1390.556844446756
 20
97.77209302325576
 10
1390.556844446756
 20
97.77209302325576
 97
        0
 75
     2
 76
     1
 98
        0
  0
HATCH
  5
61C6
330
A
100
AcDbEntity
  8
レイヤー 1
 62
     7
420
 16777215
100
AcDbHatch
 10
0.0
 20
0.0
 30
0.0
210
0.0
220
0.0
230
1.0
  2
SOLID
 70
     1
 71
     0
 91
        1
 92
        1
 93
        1
 72
     4
 94
        3
 73
     0
 74
     1
 95
       14
 96
       10
 40
0.0
 40
0.0
 40
0.0
 40
0.0
 40
1.0
 40
1.0
 40
1.0
 40
2.0
 40
2.0
 40
2.0
 40
3.0
 40
3.0
 40
3.0
 40
3.0
 10
1408.917196009256
 20
103.5328352107558
 10
1408.917196009256
 20
103.5328352107558
 10
1408.917196009256
 20
103.5328352107558
 10
1408.917196009256
 20
103.5328352107558
 10
1408.917196009256
 20
103.5328352107558
 10
1408.917196009256
 20
97.77209302325576
 10
1408.917196009256
 20
97.77209302325576
 10
1408.917196009256
 20
97.77209302325576
 10
1408.917196009256
 20
103.5328352107558
 10
1408.917196009256
 20
103.5328352107558
 97
        0
 75
     2
 76
     1
 98
        0
  0
HATCH
  5
61C9
330
A
100
AcDbEntity
  8
レイヤー 1
 62
     7
420
 16777215
100
AcDbHatch
 10
0.0
 20
0.0
 30
0.0
210
0.0
220
0.0
230
1.0
  2
SOLID
 70
     1
 71
     0
 91
        1
 92
        1
 93
        1
 72
     4
 94
        3
 73
     0
 74
     1
 95
       11
 96
        7
 40
0.0
 40
0.0
 40
0.0
 40
0.0
 40
1.0
 40
1.0
 40
1.0
 40
2.0
 40
2.0
 40
2.0
 40
2.0
 10
1408.917196009256
 20
103.5328352107558
 10
1408.917196009256
 20
103.5328352107558
 10
1408.196492884256
 20
97.77209302325576
 10
1408.196492884256
 20
97.77209302325576
 10
1408.196492884256
 20
97.77209302325576
 10
1408.917196009256
 20
103.5328352107558
 10
1408.917196009256
 20
103.5328352107558
 97
        0
 75
     2
 76
     1
 98
        0
  0
HATCH
  5
61CC
330
A
100
AcDbEntity
  8
レイヤー 1
 62
     7
420
 16777215
100
AcDbHatch
 10
0.0
 20
0.0
 30
0.0
210
0.0
220
0.0
230
1.0
  2
SOLID
 70
     1
 71
     0
 91
        1
 92
        1
 93
        1
 72
     4
 94
        3
 73
     0
 74
     1
 95
       11
 96
        7
 40
0.0
 40
0.0
 40
0.0
 40
0.0
 40
1.0
 40
1.0
 40
1.0
 40
2.0
 40
2.0
 40
2.0
 40
2.0
 10
1408.917196009256
 20
103.5328352107558
 10
1408.917196009256
 20
103.5328352107558
 10
1408.196492884256
 20
103.5328352107558
 10
1408.196492884256
 20
103.5328352107558
 10
1408.196492884256
 20
103.5328352107558
 10
1408.917196009256
 20
103.5328352107558
 10
1408.917196009256
 20
103.5328352107558
 97
        0
 75
     2
 76
     1
 98
        0
  0
HATCH
  5
61D0
330
A
100
AcDbEntity
  8
レイヤー 1
 62
     7
420
 16777215
100
AcDbHatch
 10
0.0
 20
0.0
 30
0.0
210
0.0
220
0.0
230
1.0
  2
SOLID
 70
     1
 71
     0
 91
        1
 92
        1
 93
        1
 72
     4
 94
        3
 73
     0
 74
     1
 95
       14
 96
       10
 40
0.0
 40
0.0
 40
0.0
 40
0.0
 40
1.0
 40
1.0
 40
1.0
 40
2.0
 40
2.0
 40
2.0
 40
3.0
 40
3.0
 40
3.0
 40
3.0
 10
784.1369225717563
 20
97.77209302325576
 10
784.1369225717563
 20
97.77209302325576
 10
784.1369225717563
 20
97.77209302325576
 10
784.1369225717563
 20
97.77209302325576
 10
784.1369225717563
 20
97.77209302325576
 10
784.1369225717563
 20
103.5328352107558
 10
784.1369225717563
 20
103.5328352107558
 10
784.1369225717563
 20
103.5328352107558
 10
784.1369225717563
 20
97.77209302325576
 10
784.1369225717563
 20
97.77209302325576
 97
        0
 75
     2
 76
     1
 98
        0
  0
HATCH
  5
61D3
330
A
100
AcDbEntity
  8
レイヤー 1
 62
     7
420
 16777215
100
AcDbHatch
 10
0.0
 20
0.0
 30
0.0
210
0.0
220
0.0
230
1.0
  2
SOLID
 70
     1
 71
     0
 91
        1
 92
        1
 93
        1
 72
     4
 94
        3
 73
     0
 74
     1
 95
       11
 96
        7
 40
0.0
 40
0.0
 40
0.0
 40
0.0
 40
1.0
 40
1.0
 40
1.0
 40
2.0
 40
2.0
 40
2.0
 40
2.0
 10
784.1369225717563
 20
97.77209302325576
 10
784.1369225717563
 20
97.77209302325576
 10
784.8566491342563
 20
103.5328352107558
 10
784.8566491342563
 20
103.5328352107558
 10
784.8566491342563
 20
103.5328352107558
 10
784.1369225717563
 20
97.77209302325576
 10
784.1369225717563
 20
97.77209302325576
 97
        0
 75
     2
 76
     1
 98
        0
  0
HATCH
  5
61D6
330
A
100
AcDbEntity
  8
レイヤー 1
 62
     7
420
 16777215
100
AcDbHatch
 10
0.0
 20
0.0
 30
0.0
210
0.0
220
0.0
230
1.0
  2
SOLID
 70
     1
 71
     0
 91
        1
 92
        1
 93
        1
 72
     4
 94
        3
 73
     0
 74
     1
 95
       11
 96
        7
 40
0.0
 40
0.0
 40
0.0
 40
0.0
 40
1.0
 40
1.0
 40
1.0
 40
2.0
 40
2.0
 40
2.0
 40
2.0
 10
784.1369225717563
 20
97.77209302325576
 10
784.1369225717563
 20
97.77209302325576
 10
784.8566491342563
 20
97.77209302325576
 10
784.8566491342563
 20
97.77209302325576
 10
784.8566491342563
 20
97.77209302325576
 10
784.1369225717563
 20
97.77209302325576
 10
784.1369225717563
 20
97.77209302325576
 97
        0
 75
     2
 76
     1
 98
        0
  0
HATCH
  5
61DA
330
A
100
AcDbEntity
  8
レイヤー 1
 62
     7
420
 16777215
100
AcDbHatch
 10
0.0
 20
0.0
 30
0.0
210
0.0
220
0.0
230
1.0
  2
SOLID
 70
     1
 71
     0
 91
        1
 92
        1
 93
        1
 72
     4
 94
        3
 73
     0
 74
     1
 95
       14
 96
       10
 40
0.0
 40
0.0
 40
0.0
 40
0.0
 40
1.0
 40
1.0
 40
1.0
 40
2.0
 40
2.0
 40
2.0
 40
3.0
 40
3.0
 40
3.0
 40
3.0
 10
802.4967858530063
 20
103.5328352107558
 10
802.4967858530063
 20
103.5328352107558
 10
802.4967858530063
 20
103.5328352107558
 10
802.4967858530063
 20
103.5328352107558
 10
802.4967858530063
 20
103.5328352107558
 10
802.4967858530063
 20
97.77209302325576
 10
802.4967858530063
 20
97.77209302325576
 10
802.4967858530063
 20
97.77209302325576
 10
802.4967858530063
 20
103.5328352107558
 10
802.4967858530063
 20
103.5328352107558
 97
        0
 75
     2
 76
     1
 98
        0
  0
HATCH
  5
61DD
330
A
100
AcDbEntity
  8
レイヤー 1
 62
     7
420
 16777215
100
AcDbHatch
 10
0.0
 20
0.0
 30
0.0
210
0.0
220
0.0
230
1.0
  2
SOLID
 70
     1
 71
     0
 91
        1
 92
        1
 93
        1
 72
     4
 94
        3
 73
     0
 74
     1
 95
       11
 96
        7
 40
0.0
 40
0.0
 40
0.0
 40
0.0
 40
1.0
 40
1.0
 40
1.0
 40
2.0
 40
2.0
 40
2.0
 40
2.0
 10
802.4967858530063
 20
103.5328352107558
 10
802.4967858530063
 20
103.5328352107558
 10
801.7765710092563
 20
97.77209302325576
 10
801.7765710092563
 20
97.77209302325576
 10
801.7765710092563
 20
97.77209302325576
 10
802.4967858530063
 20
103.5328352107558
 10
802.4967858530063
 20
103.5328352107558
 97
        0
 75
     2
 76
     1
 98
        0
  0
HATCH
  5
61E0
330
A
100
AcDbEntity
  8
レイヤー 1
 62
     7
420
 16777215
100
AcDbHatch
 10
0.0
 20
0.0
 30
0.0
210
0.0
220
0.0
230
1.0
  2
SOLID
 70
     1
 71
     0
 91
        1
 92
        1
 93
        1
 72
     4
 94
        3
 73
     0
 74
     1
 95
       11
 96
        7
 40
0.0
 40
0.0
 40
0.0
 40
0.0
 40
1.0
 40
1.0
 40
1.0
 40
2.0
 40
2.0
 40
2.0
 40
2.0
 10
802.4967858530063
 20
103.5328352107558
 10
802.4967858530063
 20
103.5328352107558
 10
801.7765710092563
 20
103.5328352107558
 10
801.7765710092563
 20
103.5328352107558
 10
801.7765710092563
 20
103.5328352107558
 10
802.4967858530063
 20
103.5328352107558
 10
802.4967858530063
 20
103.5328352107558
 97
        0
 75
     2
 76
     1
 98
        0
  0
HATCH
  5
61E4
330
A
100
AcDbEntity
  8
レイヤー 1
 62
     7
420
 16777215
100
AcDbHatch
 10
0.0
 20
0.0
 30
0.0
210
0.0
220
0.0
230
1.0
  2
SOLID
 70
     1
 71
     0
 91
        1
 92
        1
 93
        1
 72
     4
 94
        3
 73
     0
 74
     1
 95
       14
 96
       10
 40
0.0
 40
0.0
 40
0.0
 40
0.0
 40
1.0
 40
1.0
 40
1.0
 40
2.0
 40
2.0
 40
2.0
 40
3.0
 40
3.0
 40
3.0
 40
3.0
 10
1411.257039759256
 20
131.7926008357558
 10
1411.257039759256
 20
131.7926008357558
 10
1411.257039759256
 20
131.7926008357558
 10
1411.257039759256
 20
131.7926008357558
 10
1411.257039759256
 20
131.7926008357558
 10
1411.257039759256
 20
137.5523664607558
 10
1411.257039759256
 20
137.5523664607558
 10
1411.257039759256
 20
137.5523664607558
 10
1411.257039759256
 20
131.7926008357558
 10
1411.257039759256
 20
131.7926008357558
 97
        0
 75
     2
 76
     1
 98
        0
  0
HATCH
  5
61E7
330
A
100
AcDbEntity
  8
レイヤー 1
 62
     7
420
 16777215
100
AcDbHatch
 10
0.0
 20
0.0
 30
0.0
210
0.0
220
0.0
230
1.0
  2
SOLID
 70
     1
 71
     0
 91
        1
 92
        1
 93
        1
 72
     4
 94
        3
 73
     0
 74
     1
 95
       11
 96
        7
 40
0.0
 40
0.0
 40
0.0
 40
0.0
 40
1.0
 40
1.0
 40
1.0
 40
2.0
 40
2.0
 40
2.0
 40
2.0
 10
1411.257039759256
 20
131.7926008357558
 10
1411.257039759256
 20
131.7926008357558
 10
1411.976766321756
 20
137.5523664607558
 10
1411.976766321756
 20
137.5523664607558
 10
1411.976766321756
 20
137.5523664607558
 10
1411.257039759256
 20
131.7926008357558
 10
1411.257039759256
 20
131.7926008357558
 97
        0
 75
     2
 76
     1
 98
        0
  0
HATCH
  5
61EA
330
A
100
AcDbEntity
  8
レイヤー 1
 62
     7
420
 16777215
100
AcDbHatch
 10
0.0
 20
0.0
 30
0.0
210
0.0
220
0.0
230
1.0
  2
SOLID
 70
     1
 71
     0
 91
        1
 92
        1
 93
        1
 72
     4
 94
        3
 73
     0
 74
     1
 95
       11
 96
        7
 40
0.0
 40
0.0
 40
0.0
 40
0.0
 40
1.0
 40
1.0
 40
1.0
 40
2.0
 40
2.0
 40
2.0
 40
2.0
 10
1411.257039759256
 20
131.7926008357558
 10
1411.257039759256
 20
131.7926008357558
 10
1411.976766321756
 20
131.7926008357558
 10
1411.976766321756
 20
131.7926008357558
 10
1411.976766321756
 20
131.7926008357558
 10
1411.257039759256
 20
131.7926008357558
 10
1411.257039759256
 20
131.7926008357558
 97
        0
 75
     2
 76
     1
 98
        0
  0
HATCH
  5
61EE
330
A
100
AcDbEntity
  8
レイヤー 1
 62
     7
420
 16777215
100
AcDbHatch
 10
0.0
 20
0.0
 30
0.0
210
0.0
220
0.0
230
1.0
  2
SOLID
 70
     1
 71
     0
 91
        1
 92
        1
 93
        1
 72
     4
 94
        3
 73
     0
 74
     1
 95
       14
 96
       10
 40
0.0
 40
0.0
 40
0.0
 40
0.0
 40
1.0
 40
1.0
 40
1.0
 40
2.0
 40
2.0
 40
2.0
 40
3.0
 40
3.0
 40
3.0
 40
3.0
 10
1428.536336634256
 20
137.5523664607558
 10
1428.536336634256
 20
137.5523664607558
 10
1428.536336634256
 20
137.5523664607558
 10
1428.536336634256
 20
137.5523664607558
 10
1428.536336634256
 20
137.5523664607558
 10
1428.536336634256
 20
131.7926008357558
 10
1428.536336634256
 20
131.7926008357558
 10
1428.536336634256
 20
131.7926008357558
 10
1428.536336634256
 20
137.5523664607558
 10
1428.536336634256
 20
137.5523664607558
 97
        0
 75
     2
 76
     1
 98
        0
  0
HATCH
  5
61F1
330
A
100
AcDbEntity
  8
レイヤー 1
 62
     7
420
 16777215
100
AcDbHatch
 10
0.0
 20
0.0
 30
0.0
210
0.0
220
0.0
230
1.0
  2
SOLID
 70
     1
 71
     0
 91
        1
 92
        1
 93
        1
 72
     4
 94
        3
 73
     0
 74
     1
 95
       11
 96
        7
 40
0.0
 40
0.0
 40
0.0
 40
0.0
 40
1.0
 40
1.0
 40
1.0
 40
2.0
 40
2.0
 40
2.0
 40
2.0
 10
1428.536336634256
 20
137.5523664607558
 10
1428.536336634256
 20
137.5523664607558
 10
1427.816610071756
 20
131.7926008357558
 10
1427.816610071756
 20
131.7926008357558
 10
1427.816610071756
 20
131.7926008357558
 10
1428.536336634256
 20
137.5523664607558
 10
1428.536336634256
 20
137.5523664607558
 97
        0
 75
     2
 76
     1
 98
        0
  0
HATCH
  5
61F4
330
A
100
AcDbEntity
  8
レイヤー 1
 62
     7
420
 16777215
100
AcDbHatch
 10
0.0
 20
0.0
 30
0.0
210
0.0
220
0.0
230
1.0
  2
SOLID
 70
     1
 71
     0
 91
        1
 92
        1
 93
        1
 72
     4
 94
        3
 73
     0
 74
     1
 95
       11
 96
        7
 40
0.0
 40
0.0
 40
0.0
 40
0.0
 40
1.0
 40
1.0
 40
1.0
 40
2.0
 40
2.0
 40
2.0
 40
2.0
 10
1428.536336634256
 20
137.5523664607558
 10
1428.536336634256
 20
137.5523664607558
 10
1427.816610071756
 20
137.5523664607558
 10
1427.816610071756
 20
137.5523664607558
 10
1427.816610071756
 20
137.5523664607558
 10
1428.536336634256
 20
137.5523664607558
 10
1428.536336634256
 20
137.5523664607558
 97
        0
 75
     2
 76
     1
 98
        0
  0
SPLINE
  5
61F7
102
{ACAD_REACTORS
330
654D
102
}
330
A
100
AcDbEntity
  8
モデル
100
AcDbSpline
210
0.0
220
0.0
230
1.0
 70
     8
 71
     3
 72
    11
 73
     7
 74
     0
 42
0.000000001
 43
0.0000000001
 40
0.0
 40
0.0
 40
0.0
 40
0.0
 40
1.0
 40
1.0
 40
1.0
 40
2.0
 40
2.0
 40
2.0
 40
2.0
 10
496.4024426516817
 20
307.3311325964473
 30
0.0
 10
496.4024426516817
 20
321.9613410721861
 30
0.0
 10
484.5429166135768
 20
333.8215556068901
 30
0.0
 10
469.9127081378379
 20
333.8222441034889
 30
0.0
 10
455.2824996620993
 20
333.8229326000876
 30
0.0
 10
443.4217687549462
 20
321.9637508102818
 30
0.0
 10
443.4202196375991
 20
307.3335423345432
 30
0.0
  0
SPLINE
  5
61F8
102
{ACAD_REACTORS
330
654D
330
6602
102
}
330
A
100
AcDbEntity
  8
モデル
100
AcDbSpline
210
0.0
220
0.0
230
1.0
 70
     8
 71
     3
 72
     8
 73
     4
 74
     0
 42
0.000000001
 43
0.0000000001
 40
2.0
 40
2.0
 40
2.0
 40
2.0
 40
3.0
 40
3.0
 40
3.0
 40
3.0
 10
443.4202196375991
 20
307.3335423345432
 30
0.0
 10
443.4188426444016
 20
292.7033338588044
 30
0.0
 10
455.277508061758
 20
280.8419144550526
 30
0.0
 10
469.907716537497
 20
280.8398489652562
 30
0.0
  0
SPLINE
  5
61F9
102
{ACAD_REACTORS
330
654D
102
}
330
A
100
AcDbEntity
  8
モデル
100
AcDbSpline
210
0.0
220
0.0
230
1.0
 70
     8
 71
     3
 72
     8
 73
     4
 74
     0
 42
0.000000001
 43
0.0000000001
 40
3.0
 40
3.0
 40
3.0
 40
3.0
 40
4.0
 40
4.0
 40
4.0
 40
4.0
 10
469.907716537497
 20
280.8398489652562
 30
0.0
 10
484.5377528890858
 20
280.8377834754599
 30
0.0
 10
496.3996886652867
 20
292.6957603962179
 30
0.0
 10
496.4024426516817
 20
307.3259688719565
 30
0.0
  0
SPLINE
  5
61FA
102
{ACAD_REACTORS
330
654D
102
}
330
A
100
AcDbEntity
  8
モデル
100
AcDbSpline
210
0.0
220
0.0
230
1.0
 70
     8
 71
     3
 72
    11
 73
     7
 74
     0
 42
0.000000001
 43
0.0000000001
 40
0.0
 40
0.0
 40
0.0
 40
0.0
 40
1.0
 40
1.0
 40
1.0
 40
2.0
 40
2.0
 40
2.0
 40
2.0
 10
457.4431741132153
 20
307.3325095896449
 30
0.0
 10
457.4424856166165
 20
300.4465108569641
 30
0.0
 10
463.0237832946123
 20
294.8638361857707
 30
0.0
 10
469.9096099031435
 20
294.8628034408724
 30
0.0
 10
476.7954365116748
 20
294.8617706959743
 30
0.0
 10
482.3784554311674
 20
300.4427241256709
 30
0.0
 10
482.3796603002152
 20
307.3287228583516
 30
0.0
  0
SPLINE
  5
61FB
102
{ACAD_REACTORS
330
654D
102
}
330
A
100
AcDbEntity
  8
モデル
100
AcDbSpline
210
0.0
220
0.0
230
1.0
 70
     8
 71
     3
 72
     8
 73
     4
 74
     0
 42
0.000000001
 43
0.0000000001
 40
2.0
 40
2.0
 40
2.0
 40
2.0
 40
3.0
 40
3.0
 40
3.0
 40
3.0
 10
482.3796603002152
 20
307.3287228583516
 30
0.0
 10
482.3810372934131
 20
314.2145494668828
 30
0.0
 10
476.800255987866
 20
319.7977405105254
 30
0.0
 10
469.9144293793352
 20
319.7994617520224
 30
0.0
  0
SPLINE
  5
61FC
102
{ACAD_REACTORS
330
654D
102
}
330
A
100
AcDbEntity
  8
モデル
100
AcDbSpline
210
0.0
220
0.0
230
1.0
 70
     8
 71
     3
 72
     8
 73
     4
 74
     0
 42
0.000000001
 43
0.0000000001
 40
3.0
 40
3.0
 40
3.0
 40
3.0
 40
4.0
 40
4.0
 40
4.0
 40
4.0
 10
469.9144293793352
 20
319.7994617520224
 30
0.0
 10
463.0286027708039
 20
319.8010108693695
 30
0.0
 10
457.4452396030115
 20
314.2205738121221
 30
0.0
 10
457.4431741132153
 20
307.3349193277406
 30
0.0
  0
LINE
  5
61FD
330
A
100
AcDbEntity
  8
モデル
100
AcDbLine
 10
339.4820156364252
 20
189.9250938526096
 30
0.0
 11
339.4820156364252
 21
189.7347245430474
 31
0.0
  0
LINE
  5
61FE
330
A
100
AcDbEntity
  8
モデル
100
AcDbLine
 10
339.4820156364252
 20
189.7347245430474
 30
0.0
 11
336.5633064300545
 21
189.7347245430474
 31
0.0
  0
LINE
  5
61FF
330
A
100
AcDbEntity
  8
モデル
100
AcDbLine
 10
336.5633064300545
 20
189.7347245430474
 30
0.0
 11
336.5633064300545
 21
136.9426987143769
 31
0.0
  0
LINE
  5
6200
330
A
100
AcDbEntity
  8
モデル
100
AcDbLine
 10
339.4820156364252
 20
189.9250938526096
 30
0.0
 11
343.542940700169
 21
189.9250938526096
 31
0.0
  0
LINE
  5
6201
330
A
100
AcDbEntity
  8
モデル
100
AcDbLine
 10
343.542940700169
 20
189.9250938526096
 30
0.0
 11
343.542940700169
 21
136.9426987143769
 31
0.0
  0
LINE
  5
6202
330
A
100
AcDbEntity
  8
モデル
100
AcDbLine
 10
343.542940700169
 20
136.9426987143769
 30
0.0
 11
336.5633064300545
 21
136.9426987143769
 31
0.0
  0
LINE
  5
6203
330
A
100
AcDbEntity
  8
モデル
100
AcDbLine
 10
343.542940700169
 20
173.4273383526849
 30
0.0
 11
343.860165508056
 21
173.4273383526849
 31
0.0
  0
LINE
  5
6204
330
A
100
AcDbEntity
  8
モデル
100
AcDbLine
 10
343.542940700169
 20
153.4401099660023
 30
0.0
 11
343.860165508056
 21
153.4401099660023
 31
0.0
  0
LINE
  5
620C
330
A
100
AcDbEntity
  8
モデル
100
AcDbLine
 10
343.860165508056
 20
150.9654810658435
 30
0.0
 11
343.860165508056
 21
175.9654810640809
 31
0.0
  0
LINE
  5
620E
330
A
100
AcDbEntity
  8
モデル
100
AcDbLine
 10
366.8297890364964
 20
150.9654810658435
 30
0.0
 11
366.8297890364964
 21
175.9654810640809
 31
0.0
  0
LINE
  5
6210
330
A
100
AcDbEntity
  8
モデル
100
AcDbLine
 10
333.8347944090962
 20
171.0162232637634
 30
0.0
 11
333.8347944090962
 21
155.8513971790734
 31
0.0
  0
LINE
  5
6211
330
A
100
AcDbEntity
  8
モデル
100
AcDbLine
 10
333.8347944090962
 20
155.8513971790734
 30
0.0
 11
334.1520192169831
 21
155.597514058274
 31
0.0
  0
LINE
  5
6212
330
A
100
AcDbEntity
  8
モデル
100
AcDbLine
 10
334.1520192169831
 20
155.597514058274
 30
0.0
 11
334.1520192169831
 21
171.3336201958002
 31
0.0
  0
LINE
  5
6213
330
A
100
AcDbEntity
  8
モデル
100
AcDbLine
 10
334.1520192169831
 20
171.3336201958002
 30
0.0
 11
333.8347944090962
 21
171.0162232637634
 31
0.0
  0
LINE
  5
6214
330
A
100
AcDbEntity
  8
モデル
100
AcDbLine
 10
335.1672074518818
 20
171.3336201958002
 30
0.0
 11
335.1672074518818
 21
155.597514058274
 31
0.0
  0
LINE
  5
6215
330
A
100
AcDbEntity
  8
モデル
100
AcDbLine
 10
336.4362788075799
 20
171.3336201958002
 30
0.0
 11
336.4362788075799
 21
155.597514058274
 31
0.0
  0
LINE
  5
6216
330
A
100
AcDbEntity
  8
モデル
100
AcDbLine
 10
334.1520192169831
 20
171.3336201958002
 30
0.0
 11
335.1672074518818
 21
171.3336201958002
 31
0.0
  0
LINE
  5
6217
330
A
100
AcDbEntity
  8
モデル
100
AcDbLine
 10
334.1520192169831
 20
155.597514058274
 30
0.0
 11
335.1672074518818
 21
155.597514058274
 31
0.0
  0
LINE
  5
6218
330
A
100
AcDbEntity
  8
モデル
100
AcDbLine
 10
335.1672074518818
 20
170.635484644639
 30
0.0
 11
336.4362788075799
 21
170.635484644639
 31
0.0
  0
LINE
  5
6219
330
A
100
AcDbEntity
  8
モデル
100
AcDbLine
 10
335.1672074518818
 20
156.2319636740481
 30
0.0
 11
336.4362788075799
 21
156.2319636740481
 31
0.0
  0
LINE
  5
621A
330
A
100
AcDbEntity
  8
モデル
100
AcDbLine
 10
336.4362788075799
 20
171.3336201958002
 30
0.0
 11
336.5633064300545
 21
171.3336201958002
 31
0.0
  0
LINE
  5
621B
330
A
100
AcDbEntity
  8
モデル
100
AcDbLine
 10
336.4362788075799
 20
155.597514058274
 30
0.0
 11
336.5633064300545
 21
155.597514058274
 31
0.0
  0
SPLINE
  5
6222
102
{ACAD_REACTORS
330
6543
102
}
330
A
100
AcDbEntity
  8
モデル
100
AcDbSpline
210
0.0
220
0.0
230
1.0
 70
     8
 71
     3
 72
     8
 73
     4
 74
     0
 42
0.000000001
 43
0.0000000001
 40
0.0
 40
0.0
 40
0.0
 40
0.0
 40
1.0
 40
1.0
 40
1.0
 40
1.0
 10
214.8510294681313
 20
323.3541236927247
 30
0.0
 10
214.8506852198319
 20
321.9700734050306
 30
0.0
 10
215.9725904275411
 20
320.8478239490221
 30
0.0
 10
217.3568128393848
 20
320.8476518248724
 30
0.0
  0
SPLINE
  5
6223
102
{ACAD_REACTORS
330
6543
102
}
330
A
100
AcDbEntity
  8
モデル
100
AcDbSpline
210
0.0
220
0.0
230
1.0
 70
     8
 71
     3
 72
    14
 73
    10
 74
     0
 42
0.000000001
 43
0.0000000001
 40
1.0
 40
1.0
 40
1.0
 40
1.0
 40
2.0
 40
2.0
 40
2.0
 40
3.0
 40
3.0
 40
3.0
 40
4.0
 40
4.0
 40
4.0
 40
4.0
 10
217.3568128393848
 20
320.8476518248724
 30
0.0
 10
218.7410352512287
 20
320.847307576573
 30
0.0
 10
219.8632847072371
 20
321.9692127842821
 30
0.0
 10
219.8636289555365
 20
323.3534351961258
 30
0.0
 10
219.8639732038358
 20
324.7376576079696
 30
0.0
 10
218.7420679961268
 20
325.8599070639781
 30
0.0
 10
217.3578455842829
 20
325.8602513122775
 30
0.0
 10
215.9736231724395
 20
325.8605955605768
 30
0.0
 10
214.8513737164307
 20
324.7388624770174
 30
0.0
 10
214.8510294681313
 20
323.3546400651737
 30
0.0
  0
SPLINE
  5
6224
102
{ACAD_REACTORS
330
6543
102
}
330
A
100
AcDbEntity
  8
モデル
100
AcDbSpline
210
0.0
220
0.0
230
1.0
 70
     8
 71
     3
 72
    11
 73
     7
 74
     0
 42
0.000000001
 43
0.0000000001
 40
0.0
 40
0.0
 40
0.0
 40
0.0
 40
1.0
 40
1.0
 40
1.0
 40
2.0
 40
2.0
 40
2.0
 40
2.0
 10
243.8484407188754
 20
307.358970709908
 30
0.0
 10
243.8511947052706
 20
321.9891791856468
 30
0.0
 10
231.9939062811112
 20
333.8518034584465
 30
0.0
 10
217.3636978053727
 20
333.8552459414403
 30
0.0
 10
202.7334893296339
 20
333.8586884244343
 30
0.0
 10
190.8703486843852
 20
322.0017442485745
 30
0.0
 10
190.8662177047926
 20
307.3717078969854
 30
0.0
  0
SPLINE
  5
6225
102
{ACAD_REACTORS
330
6543
102
}
330
A
100
AcDbEntity
  8
モデル
100
AcDbSpline
210
0.0
220
0.0
230
1.0
 70
     8
 71
     3
 72
    11
 73
     7
 74
     0
 42
0.000000001
 43
0.0000000001
 40
2.0
 40
2.0
 40
2.0
 40
2.0
 40
3.0
 40
3.0
 40
3.0
 40
4.0
 40
4.0
 40
4.0
 40
4.0
 10
190.8662177047926
 20
307.3717078969854
 30
0.0
 10
190.8620867251999
 20
292.7414994212468
 30
0.0
 10
202.7183424044609
 20
280.8776702793992
 30
0.0
 10
217.3485508801995
 20
280.8728508032077
 30
0.0
 10
231.9787593559382
 20
280.8680313270163
 30
0.0
 10
243.8429327460852
 20
292.723942757978
 30
0.0
 10
243.8484407188754
 20
307.3538069854172
 30
0.0
  0
LINE
  5
6226
102
{ACAD_REACTORS
330
6543
102
}
330
A
100
AcDbEntity
  8
モデル
100
AcDbLine
 10
207.4269706435053
 20
308.4109935128413
 30
0.0
 11
227.35102946725
 21
308.4109935128413
 31
0.0
  0
LINE
  5
6227
102
{ACAD_REACTORS
330
6543
102
}
330
A
100
AcDbEntity
  8
モデル
100
AcDbLine
 10
227.35102946725
 20
306.3806170430441
 30
0.0
 11
207.4269706435053
 21
306.3806170430441
 31
0.0
  0
SPLINE
  5
6228
102
{ACAD_REACTORS
330
6543
102
}
330
A
100
AcDbEntity
  8
モデル
100
AcDbSpline
210
0.0
220
0.0
230
1.0
 70
     8
 71
     3
 72
     8
 73
     4
 74
     0
 42
0.000000001
 43
0.0000000001
 40
0.0
 40
0.0
 40
0.0
 40
0.0
 40
1.0
 40
1.0
 40
1.0
 40
1.0
 10
207.4135449598292
 20
306.365470117871
 30
0.0
 10
207.926474925919
 20
301.2588908447326
 30
0.0
 10
212.2237264471936
 20
297.3712947997312
 30
0.0
 10
217.3557800944867
 20
297.3706063031324
 30
0.0
  0
SPLINE
  5
6229
102
{ACAD_REACTORS
330
6543
102
}
330
A
100
AcDbEntity
  8
モデル
100
AcDbSpline
210
0.0
220
0.0
230
1.0
 70
     8
 71
     3
 72
     8
 73
     4
 74
     0
 42
0.000000001
 43
0.0000000001
 40
1.0
 40
1.0
 40
1.0
 40
1.0
 40
2.0
 40
2.0
 40
2.0
 40
2.0
 10
217.3557800944867
 20
297.3706063031324
 30
0.0
 10
222.4878337417798
 20
297.3695735582343
 30
0.0
 10
226.7864622562519
 20
301.2564811066369
 30
0.0
 10
227.3004249672398
 20
306.362716131476
 30
0.0
  0
LINE
  5
622A
102
{ACAD_REACTORS
330
64D1
102
}
330
A
100
AcDbEntity
  8
モデル
100
AcDbLine
 10
96.28794940620662
 20
136.9744096212057
 30
0.0
 11
96.28794940620662
 21
189.7664354498762
 31
0.0
  0
LINE
  5
622B
102
{ACAD_REACTORS
330
64D1
102
}
330
A
100
AcDbEntity
  8
モデル
100
AcDbLine
 10
96.28794940620662
 20
189.7664354498762
 30
0.0
 11
93.3057263885986
 21
189.7664354498762
 31
0.0
  0
LINE
  5
622C
102
{ACAD_REACTORS
330
64D1
102
}
330
A
100
AcDbEntity
  8
モデル
100
AcDbLine
 10
93.3057263885986
 20
189.7664354498762
 30
0.0
 11
93.3057263885986
 21
189.9568047594384
 31
0.0
  0
LINE
  5
622D
102
{ACAD_REACTORS
330
64D1
102
}
330
A
100
AcDbEntity
  8
モデル
100
AcDbLine
 10
96.28794940620662
 20
136.9744096212057
 30
0.0
 11
89.30831513609189
 21
136.9744096212058
 31
0.0
  0
LINE
  5
622E
102
{ACAD_REACTORS
330
64D1
102
}
330
A
100
AcDbEntity
  8
モデル
100
AcDbLine
 10
89.30831513609189
 20
136.9744096212058
 30
0.0
 11
89.30831513609189
 21
189.9568047594384
 31
0.0
  0
LINE
  5
622F
102
{ACAD_REACTORS
330
64D1
102
}
330
A
100
AcDbEntity
  8
モデル
100
AcDbLine
 10
89.30831513609189
 20
189.9568047594384
 30
0.0
 11
93.3057263885986
 21
189.9568047594384
 31
0.0
  0
LINE
  5
6230
102
{ACAD_REACTORS
330
64D1
102
}
330
A
100
AcDbEntity
  8
モデル
100
AcDbLine
 10
89.30831513609189
 20
173.4593935078131
 30
0.0
 11
88.99126245235459
 21
173.4593935078131
 31
0.0
  0
LINE
  5
6231
102
{ACAD_REACTORS
330
64D1
102
}
330
A
100
AcDbEntity
  8
モデル
100
AcDbLine
 10
88.99126245235459
 20
173.4593935078131
 30
0.0
 11
88.99126245235459
 21
153.4719929969808
 31
0.0
  0
LINE
  5
6232
102
{ACAD_REACTORS
330
64D1
102
}
330
A
100
AcDbEntity
  8
モデル
100
AcDbLine
 10
88.99126245235459
 20
153.4719929969808
 30
0.0
 11
89.30831513609189
 21
153.4719929969808
 31
0.0
  0
LINE
  5
6233
102
{ACAD_REACTORS
330
64D1
102
}
330
A
100
AcDbEntity
  8
モデル
100
AcDbLine
 10
100.4123882811876
 20
158.7383034810356
 30
0.0
 11
96.28794940620662
 21
158.7383034810356
 31
0.0
  0
LINE
  5
6234
102
{ACAD_REACTORS
330
64D1
102
}
330
A
100
AcDbEntity
  8
モデル
100
AcDbLine
 10
100.8564685873997
 20
159.626808341759
 30
0.0
 11
100.4123882811876
 21
158.7383034810356
 31
0.0
  0
LINE
  5
6235
102
{ACAD_REACTORS
330
64D1
102
}
330
A
100
AcDbEntity
  8
モデル
100
AcDbLine
 10
100.8564685873997
 20
167.2408922276478
 30
0.0
 11
100.8564685873997
 21
159.626808341759
 31
0.0
  0
LINE
  5
6236
102
{ACAD_REACTORS
330
64D1
102
}
330
A
100
AcDbEntity
  8
モデル
100
AcDbLine
 10
100.4123882811876
 20
168.1293970883711
 30
0.0
 11
100.8564685873997
 21
167.2408922276478
 31
0.0
  0
LINE
  5
6237
102
{ACAD_REACTORS
330
64D1
102
}
330
A
100
AcDbEntity
  8
モデル
100
AcDbLine
 10
96.28794940620662
 20
168.1293970883711
 30
0.0
 11
100.4123882811876
 21
168.1293970883711
 31
0.0
  0
LINE
  5
6238
102
{ACAD_REACTORS
330
64D1
102
}
330
A
100
AcDbEntity
  8
モデル
100
AcDbLine
 10
100.8564685873997
 20
167.2408922276478
 30
0.0
 11
100.8564685873997
 21
170.85756486103
 31
0.0
  0
LINE
  5
6239
102
{ACAD_REACTORS
330
64D1
102
}
330
A
100
AcDbEntity
  8
モデル
100
AcDbLine
 10
100.8564685873997
 20
156.0734773954644
 30
0.0
 11
100.8564685873997
 21
159.626808341759
 31
0.0
  0
LINE
  5
623A
102
{ACAD_REACTORS
330
64D1
102
}
330
A
100
AcDbEntity
  8
モデル
100
AcDbLine
 10
100.4123882811876
 20
171.365331102629
 30
0.0
 11
100.4123882811876
 21
168.1293970883711
 31
0.0
  0
LINE
  5
623B
102
{ACAD_REACTORS
330
64D1
102
}
330
A
100
AcDbEntity
  8
モデル
100
AcDbLine
 10
100.4123882811876
 20
158.7383034810356
 30
0.0
 11
100.4123882811876
 21
155.5658832780151
 31
0.0
  0
LINE
  5
623C
102
{ACAD_REACTORS
330
64D1
102
}
330
A
100
AcDbEntity
  8
モデル
100
AcDbLine
 10
100.8564685873997
 20
170.85756486103
 30
0.0
 11
100.4123882811876
 21
171.365331102629
 31
0.0
  0
LINE
  5
623D
102
{ACAD_REACTORS
330
64D1
102
}
330
A
100
AcDbEntity
  8
モデル
100
AcDbLine
 10
100.8564685873997
 20
156.0734773954644
 30
0.0
 11
100.4123882811876
 21
155.5658832780151
 31
0.0
  0
LINE
  5
623E
102
{ACAD_REACTORS
330
64D1
102
}
330
A
100
AcDbEntity
  8
モデル
100
AcDbLine
 10
88.99126245235459
 20
153.4719929969808
 30
0.0
 11
88.99126245235459
 21
173.4593935078131
 31
0.0
  0
LINE
  5
623F
102
{ACAD_REACTORS
330
64D1
102
}
330
A
100
AcDbEntity
  8
モデル
100
AcDbLine
 10
82.39202255306498
 20
153.4719929969808
 30
0.0
 11
82.39202255306498
 21
162.4186620498049
 31
0.0
  0
LINE
  5
6240
102
{ACAD_REACTORS
330
64D1
102
}
330
A
100
AcDbEntity
  8
モデル
100
AcDbLine
 10
82.39202255306498
 20
164.449038519602
 30
0.0
 11
82.39202255306498
 21
173.4593935078131
 31
0.0
  0
LINE
  5
6241
102
{ACAD_REACTORS
330
64D1
102
}
330
A
100
AcDbEntity
  8
モデル
100
AcDbLine
 10
82.39202255306498
 20
173.4593935078131
 30
0.0
 11
88.99126245235459
 21
173.4593935078131
 31
0.0
  0
LINE
  5
6242
102
{ACAD_REACTORS
330
64D1
102
}
330
A
100
AcDbEntity
  8
モデル
100
AcDbLine
 10
82.39202255306498
 20
153.4719929969808
 30
0.0
 11
88.99126245235459
 21
153.4719929969808
 31
0.0
  0
LINE
  5
6243
102
{ACAD_REACTORS
330
64D1
102
}
330
A
100
AcDbEntity
  8
モデル
100
AcDbLine
 10
82.39202255306498
 20
164.449038519602
 30
0.0
 11
84.93016526446115
 21
164.449038519602
 31
0.0
  0
LINE
  5
6244
102
{ACAD_REACTORS
330
64D1
102
}
330
A
100
AcDbEntity
  8
モデル
100
AcDbLine
 10
84.93016526446115
 20
164.449038519602
 30
0.0
 11
84.93016526446115
 21
162.4186620498049
 31
0.0
  0
LINE
  5
6245
102
{ACAD_REACTORS
330
64D1
102
}
330
A
100
AcDbEntity
  8
モデル
100
AcDbLine
 10
84.93016526446115
 20
162.4186620498049
 30
0.0
 11
82.39202255306498
 21
162.4186620498049
 31
0.0
  0
LINE
  5
6246
102
{ACAD_REACTORS
330
64D1
102
}
330
A
100
AcDbEntity
  8
モデル
100
AcDbLine
 10
96.28794940620662
 20
171.365331102629
 30
0.0
 11
100.4123882811876
 21
171.365331102629
 31
0.0
  0
LINE
  5
6247
102
{ACAD_REACTORS
330
64D1
102
}
330
A
100
AcDbEntity
  8
モデル
100
AcDbLine
 10
96.28794940620662
 20
155.5658832780151
 30
0.0
 11
100.4123882811876
 21
155.5658832780151
 31
0.0
  0
LINE
  5
6523
102
{ACAD_REACTORS
330
6542
330
6597
102
}
330
A
100
AcDbEntity
  8
モデル
100
AcDbLine
 10
120.8186640010152
 20
310.3487529396576
 30
0.0
 11
68.02663817234486
 21
310.3487529396576
 31
0.0
  0
LINE
  5
6524
102
{ACAD_REACTORS
330
6542
102
}
330
A
100
AcDbEntity
  8
モデル
100
AcDbLine
 10
68.02663817234486
 20
310.3487529396576
 30
0.0
 11
68.02663817234486
 21
307.3665299220496
 31
0.0
  0
LINE
  5
6525
102
{ACAD_REACTORS
330
6542
102
}
330
A
100
AcDbEntity
  8
モデル
100
AcDbLine
 10
68.02663817234486
 20
307.3665299220496
 30
0.0
 11
67.83626886278273
 21
307.3665299220496
 31
0.0
  0
LINE
  5
6526
102
{ACAD_REACTORS
330
6542
102
}
330
A
100
AcDbEntity
  8
モデル
100
AcDbLine
 10
120.8186640010152
 20
310.3487529396576
 30
0.0
 11
120.8186640010152
 21
303.3691186695429
 31
0.0
  0
LINE
  5
6527
102
{ACAD_REACTORS
330
6542
330
6597
102
}
330
A
100
AcDbEntity
  8
モデル
100
AcDbLine
 10
120.8186640010152
 20
303.3691186695429
 30
0.0
 11
67.83626886278273
 21
303.3691186695429
 31
0.0
  0
LINE
  5
6528
102
{ACAD_REACTORS
330
6542
102
}
330
A
100
AcDbEntity
  8
モデル
100
AcDbLine
 10
67.83626886278273
 20
303.3691186695429
 30
0.0
 11
67.83626886278273
 21
307.3665299220496
 31
0.0
  0
LINE
  5
6529
102
{ACAD_REACTORS
330
6542
102
}
330
A
100
AcDbEntity
  8
モデル
100
AcDbLine
 10
84.33368011440791
 20
303.3691186695429
 30
0.0
 11
84.33368011440791
 21
303.0520659858056
 31
0.0
  0
LINE
  5
652A
102
{ACAD_REACTORS
330
6542
102
}
330
A
100
AcDbEntity
  8
モデル
100
AcDbLine
 10
84.33368011440791
 20
303.0520659858056
 30
0.0
 11
104.3210806252401
 21
303.0520659858056
 31
0.0
  0
LINE
  5
652B
102
{ACAD_REACTORS
330
6542
102
}
330
A
100
AcDbEntity
  8
モデル
100
AcDbLine
 10
104.3210806252401
 20
303.0520659858056
 30
0.0
 11
104.3210806252401
 21
303.3691186695429
 31
0.0
  0
LINE
  5
652C
102
{ACAD_REACTORS
330
6542
102
}
330
A
100
AcDbEntity
  8
モデル
100
AcDbLine
 10
99.05477014118526
 20
314.4731918146387
 30
0.0
 11
99.05477014118526
 21
310.3487529396576
 31
0.0
  0
LINE
  5
652D
102
{ACAD_REACTORS
330
6542
102
}
330
A
100
AcDbEntity
  8
モデル
100
AcDbLine
 10
98.16626528046197
 20
314.9172721208507
 30
0.0
 11
99.05477014118526
 21
314.4731918146387
 31
0.0
  0
LINE
  5
652E
102
{ACAD_REACTORS
330
6542
102
}
330
A
100
AcDbEntity
  8
モデル
100
AcDbLine
 10
90.55218139457327
 20
314.9172721208507
 30
0.0
 11
98.16626528046197
 21
314.9172721208507
 31
0.0
  0
LINE
  5
652F
102
{ACAD_REACTORS
330
6542
102
}
330
A
100
AcDbEntity
  8
モデル
100
AcDbLine
 10
89.66367653384998
 20
314.4731918146387
 30
0.0
 11
90.55218139457327
 21
314.9172721208507
 31
0.0
  0
LINE
  5
6530
102
{ACAD_REACTORS
330
6542
102
}
330
A
100
AcDbEntity
  8
モデル
100
AcDbLine
 10
89.66367653384998
 20
310.3487529396576
 30
0.0
 11
89.66367653384998
 21
314.4731918146387
 31
0.0
  0
LINE
  5
6531
102
{ACAD_REACTORS
330
6542
102
}
330
A
100
AcDbEntity
  8
モデル
100
AcDbLine
 10
90.55218139457327
 20
314.9172721208507
 30
0.0
 11
86.93550876119104
 21
314.9172721208507
 31
0.0
  0
LINE
  5
6532
102
{ACAD_REACTORS
330
6542
102
}
330
A
100
AcDbEntity
  8
モデル
100
AcDbLine
 10
101.7195962267566
 20
314.9172721208507
 30
0.0
 11
98.16626528046197
 21
314.9172721208507
 31
0.0
  0
LINE
  5
6533
102
{ACAD_REACTORS
330
6542
102
}
330
A
100
AcDbEntity
  8
モデル
100
AcDbLine
 10
86.42774251959202
 20
314.4731918146387
 30
0.0
 11
89.66367653384998
 21
314.4731918146387
 31
0.0
  0
LINE
  5
6534
102
{ACAD_REACTORS
330
6542
102
}
330
A
100
AcDbEntity
  8
モデル
100
AcDbLine
 10
99.05477014118526
 20
314.4731918146387
 30
0.0
 11
102.227190344206
 21
314.4731918146387
 31
0.0
  0
LINE
  5
6535
102
{ACAD_REACTORS
330
6542
102
}
330
A
100
AcDbEntity
  8
モデル
100
AcDbLine
 10
86.93550876119104
 20
314.9172721208507
 30
0.0
 11
86.42774251959202
 21
314.4731918146387
 31
0.0
  0
LINE
  5
6536
102
{ACAD_REACTORS
330
6542
102
}
330
A
100
AcDbEntity
  8
モデル
100
AcDbLine
 10
101.7195962267566
 20
314.9172721208507
 30
0.0
 11
102.227190344206
 21
314.4731918146387
 31
0.0
  0
LINE
  5
6537
102
{ACAD_REACTORS
330
6542
102
}
330
A
100
AcDbEntity
  8
モデル
100
AcDbLine
 10
104.3210806252401
 20
303.0520659858056
 30
0.0
 11
84.33368011440791
 21
303.0520659858056
 31
0.0
  0
LINE
  5
6539
102
{ACAD_REACTORS
330
6542
330
65A7
330
65B6
102
}
330
A
100
AcDbEntity
  8
モデル
100
AcDbLine
 10
104.3210806252401
 20
296.452826086516
 30
0.0
 11
84.33368011440791
 21
296.452826086516
 31
0.0
  0
LINE
  5
653A
102
{ACAD_REACTORS
330
6542
102
}
330
A
100
AcDbEntity
  8
モデル
100
AcDbLine
 10
84.33368011440791
 20
296.452826086516
 30
0.0
 11
84.33368011440791
 21
303.0520659858056
 31
0.0
  0
LINE
  5
653B
102
{ACAD_REACTORS
330
6542
102
}
330
A
100
AcDbEntity
  8
モデル
100
AcDbLine
 10
104.3210806252401
 20
296.452826086516
 30
0.0
 11
104.3210806252401
 21
303.0520659858056
 31
0.0
  0
LINE
  5
653F
102
{ACAD_REACTORS
330
6542
102
}
330
A
100
AcDbEntity
  8
モデル
100
AcDbLine
 10
86.42774251959202
 20
310.3487529396576
 30
0.0
 11
86.42774251959202
 21
314.4731918146387
 31
0.0
  0
LINE
  5
6540
102
{ACAD_REACTORS
330
6542
102
}
330
A
100
AcDbEntity
  8
モデル
100
AcDbLine
 10
102.227190344206
 20
310.3487529396576
 30
0.0
 11
102.227190344206
 21
314.4731918146387
 31
0.0
  0
LINE
  5
6556
330
A
100
AcDbEntity
  8
モデル
100
AcDbLine
 10
377.6260972757683
 20
317.8105422836153
 30
0.0
 11
377.4357279662062
 21
317.8105422836153
 31
0.0
  0
LINE
  5
6557
330
A
100
AcDbEntity
  8
モデル
100
AcDbLine
 10
377.4357279662062
 20
317.8105422836153
 30
0.0
 11
377.4357279662062
 21
320.729251489986
 31
0.0
  0
LINE
  5
6558
330
A
100
AcDbEntity
  8
モデル
100
AcDbLine
 10
377.4357279662062
 20
320.729251489986
 30
0.0
 11
324.6437021375358
 21
320.729251489986
 31
0.0
  0
LINE
  5
6559
330
A
100
AcDbEntity
  8
モデル
100
AcDbLine
 10
377.6260972757683
 20
317.8105422836153
 30
0.0
 11
377.6260972757683
 21
313.7496172198715
 31
0.0
  0
LINE
  5
655A
330
A
100
AcDbEntity
  8
モデル
100
AcDbLine
 10
377.6260972757683
 20
313.7496172198715
 30
0.0
 11
324.6437021375358
 21
313.7496172198715
 31
0.0
  0
LINE
  5
655B
330
A
100
AcDbEntity
  8
モデル
100
AcDbLine
 10
324.6437021375358
 20
313.7496172198715
 30
0.0
 11
324.6437021375358
 21
320.729251489986
 31
0.0
  0
LINE
  5
655C
330
A
100
AcDbEntity
  8
モデル
100
AcDbLine
 10
361.1283417758438
 20
313.7496172198715
 30
0.0
 11
361.1283417758438
 21
313.4323924119846
 31
0.0
  0
LINE
  5
655D
330
A
100
AcDbEntity
  8
モデル
100
AcDbLine
 10
341.1411133891612
 20
313.7496172198715
 30
0.0
 11
341.1411133891612
 21
313.4323924119846
 31
0.0
  0
LINE
  5
6565
330
A
100
AcDbEntity
  8
モデル
100
AcDbLine
 10
338.6664844890023
 20
313.4323924119846
 30
0.0
 11
363.6664844872397
 21
313.4323924119846
 31
0.0
  0
LINE
  5
6569
330
A
100
AcDbEntity
  8
モデル
100
AcDbLine
 10
358.7172266869221
 20
323.4577635109443
 30
0.0
 11
343.5524006022323
 21
323.4577635109443
 31
0.0
  0
LINE
  5
656A
330
A
100
AcDbEntity
  8
モデル
100
AcDbLine
 10
343.5524006022323
 20
323.4577635109443
 30
0.0
 11
343.2985174814327
 21
323.1405387030574
 31
0.0
  0
LINE
  5
656B
330
A
100
AcDbEntity
  8
モデル
100
AcDbLine
 10
343.2985174814327
 20
323.1405387030574
 30
0.0
 11
359.034623618959
 21
323.1405387030574
 31
0.0
  0
LINE
  5
656C
330
A
100
AcDbEntity
  8
モデル
100
AcDbLine
 10
359.034623618959
 20
323.1405387030574
 30
0.0
 11
358.7172266869221
 21
323.4577635109443
 31
0.0
  0
LINE
  5
656D
330
A
100
AcDbEntity
  8
モデル
100
AcDbLine
 10
359.034623618959
 20
322.1253504681587
 30
0.0
 11
343.2985174814327
 21
322.1253504681587
 31
0.0
  0
LINE
  5
656E
330
A
100
AcDbEntity
  8
モデル
100
AcDbLine
 10
359.034623618959
 20
320.8562791124606
 30
0.0
 11
343.2985174814327
 21
320.8562791124606
 31
0.0
  0
LINE
  5
656F
330
A
100
AcDbEntity
  8
モデル
100
AcDbLine
 10
359.034623618959
 20
323.1405387030574
 30
0.0
 11
359.034623618959
 21
322.1253504681587
 31
0.0
  0
LINE
  5
6570
330
A
100
AcDbEntity
  8
モデル
100
AcDbLine
 10
343.2985174814327
 20
323.1405387030574
 30
0.0
 11
343.2985174814327
 21
322.1253504681587
 31
0.0
  0
LINE
  5
6571
330
A
100
AcDbEntity
  8
モデル
100
AcDbLine
 10
358.3364880677979
 20
322.1253504681587
 30
0.0
 11
358.3364880677979
 21
320.8562791124606
 31
0.0
  0
LINE
  5
6572
330
A
100
AcDbEntity
  8
モデル
100
AcDbLine
 10
343.9329670972069
 20
322.1253504681587
 30
0.0
 11
343.9329670972069
 21
320.8562791124606
 31
0.0
  0
LINE
  5
6573
330
A
100
AcDbEntity
  8
モデル
100
AcDbLine
 10
359.034623618959
 20
320.8562791124606
 30
0.0
 11
359.034623618959
 21
320.729251489986
 31
0.0
  0
LINE
  5
6574
330
A
100
AcDbEntity
  8
モデル
100
AcDbLine
 10
343.2985174814327
 20
320.8562791124606
 30
0.0
 11
343.2985174814327
 21
320.729251489986
 31
0.0
  0
SPLINE
  5
657F
102
{ACAD_REACTORS
330
6585
102
}
330
A
100
AcDbEntity
  8
CutoutUnderlay
100
AcDbSpline
210
0.0
220
0.0
230
1.0
 70
     8
 71
     3
 72
    11
 73
     7
 74
     0
 42
0.000000001
 43
0.0000000001
 40
0.0
 40
0.0
 40
0.0
 40
0.0
 40
1.0
 40
1.0
 40
1.0
 40
2.0
 40
2.0
 40
2.0
 40
2.0
 10
496.4013238447087
 20
163.3375067596642
 30
0.0
 10
496.4013238447087
 20
177.967715235403
 30
0.0
 10
484.5417978066039
 20
189.827929770107
 30
0.0
 10
469.9115893308649
 20
189.8286182667057
 30
0.0
 10
455.2813808551264
 20
189.8293067633045
 30
0.0
 10
443.4206499479733
 20
177.9701249734987
 30
0.0
 10
443.4191008306261
 20
163.33991649776
 30
0.0
  0
SPLINE
  5
6580
102
{ACAD_REACTORS
330
6585
102
}
330
A
100
AcDbEntity
  8
CutoutUnderlay
100
AcDbSpline
210
0.0
220
0.0
230
1.0
 70
     8
 71
     3
 72
     8
 73
     4
 74
     0
 42
0.000000001
 43
0.0000000001
 40
2.0
 40
2.0
 40
2.0
 40
2.0
 40
3.0
 40
3.0
 40
3.0
 40
3.0
 10
443.4191008306261
 20
163.33991649776
 30
0.0
 10
443.4177238374286
 20
148.7097080220213
 30
0.0
 10
455.276389254785
 20
136.8482886182695
 30
0.0
 10
469.906597730524
 20
136.8462231284731
 30
0.0
  0
SPLINE
  5
6581
102
{ACAD_REACTORS
330
6585
102
}
330
A
100
AcDbEntity
  8
CutoutUnderlay
100
AcDbSpline
210
0.0
220
0.0
230
1.0
 70
     8
 71
     3
 72
     8
 73
     4
 74
     0
 42
0.000000001
 43
0.0000000001
 40
3.0
 40
3.0
 40
3.0
 40
3.0
 40
4.0
 40
4.0
 40
4.0
 40
4.0
 10
469.906597730524
 20
136.8462231284731
 30
0.0
 10
484.5366340821129
 20
136.8441576386768
 30
0.0
 10
496.3985698583137
 20
148.7021345594348
 30
0.0
 10
496.4013238447087
 20
163.3323430351734
 30
0.0
  0
SPLINE
  5
6582
102
{ACAD_REACTORS
330
6585
102
}
330
A
100
AcDbEntity
  8
CutoutUnderlay
100
AcDbSpline
210
0.0
220
0.0
230
1.0
 70
     8
 71
     3
 72
    11
 73
     7
 74
     0
 42
0.000000001
 43
0.0000000001
 40
0.0
 40
0.0
 40
0.0
 40
0.0
 40
1.0
 40
1.0
 40
1.0
 40
2.0
 40
2.0
 40
2.0
 40
2.0
 10
457.4420553062423
 20
163.3388837528618
 30
0.0
 10
457.4413668096436
 20
156.452885020181
 30
0.0
 10
463.0226644876393
 20
150.8702103489875
 30
0.0
 10
469.9084910961706
 20
150.8691776040893
 30
0.0
 10
476.7943177047018
 20
150.8681448591912
 30
0.0
 10
482.3773366241944
 20
156.4490982888878
 30
0.0
 10
482.3785414932422
 20
163.3350970215685
 30
0.0
  0
SPLINE
  5
6583
102
{ACAD_REACTORS
330
6585
102
}
330
A
100
AcDbEntity
  8
CutoutUnderlay
100
AcDbSpline
210
0.0
220
0.0
230
1.0
 70
     8
 71
     3
 72
     8
 73
     4
 74
     0
 42
0.000000001
 43
0.0000000001
 40
2.0
 40
2.0
 40
2.0
 40
2.0
 40
3.0
 40
3.0
 40
3.0
 40
3.0
 10
482.3785414932422
 20
163.3350970215685
 30
0.0
 10
482.3799184864401
 20
170.2209236300997
 30
0.0
 10
476.799137180893
 20
175.8041146737423
 30
0.0
 10
469.9133105723622
 20
175.8058359152392
 30
0.0
  0
SPLINE
  5
6584
102
{ACAD_REACTORS
330
6585
102
}
330
A
100
AcDbEntity
  8
CutoutUnderlay
100
AcDbSpline
210
0.0
220
0.0
230
1.0
 70
     8
 71
     3
 72
     8
 73
     4
 74
     0
 42
0.000000001
 43
0.0000000001
 40
3.0
 40
3.0
 40
3.0
 40
3.0
 40
4.0
 40
4.0
 40
4.0
 40
4.0
 10
469.9133105723622
 20
175.8058359152392
 30
0.0
 10
463.0274839638309
 20
175.8073850325864
 30
0.0
 10
457.4441207960385
 20
170.226947975339
 30
0.0
 10
457.4420553062423
 20
163.3412934909575
 30
0.0
  0
DIMENSION
  5
6586
102
{ACAD_REACTORS
330
6588
102
}
102
{ACAD_XDICTIONARY
360
6587
102
}
330
A
100
AcDbEntity
  8
寸法
100
AcDbDimension
  2
*D30
 10
113.4226510866803
 20
329.7020316361658
 30
0.0
 11
94.42265108668028
 21
337.2020316361658
 31
0.0
 70
    32
 71
     5
 42
38.0
 73
     0
 74
     0
 75
     0
  3
tfrom線あり
100
AcDbAlignedDimension
 13
75.42265108668028
 23
310.0320857698463
 33
0.0
 14
113.4226510866803
 24
310.0320857698463
 34
0.0
100
AcDbRotatedDimension
1001
ACAD
1000
DSTYLE
1002
{
1070
   144
1040
1.0
1002
}
  0
DIMENSION
  5
6595
102
{ACAD_REACTORS
330
6597
102
}
102
{ACAD_XDICTIONARY
360
6596
102
}
330
A
100
AcDbEntity
  8
寸法
100
AcDbDimension
  2
*D31
 10
142.7835617611878
 20
303.3691186695429
 30
0.0
 11
142.7835617611878
 21
306.8589358046003
 31
0.0
 70
   160
 71
     5
 42
6.97963427011473
 73
     0
 74
     0
 75
     0
  3
tfrom線あり
100
AcDbAlignedDimension
 13
120.8186640010152
 23
310.3487529396576
 33
0.0
 14
120.8186640010152
 24
303.3691186695429
 34
0.0
 50
90.0
100
AcDbRotatedDimension
1001
ACAD
1000
DSTYLE
1002
{
1070
   144
1040
1.0
1002
}
  0
DIMENSION
  5
65A5
102
{ACAD_REACTORS
330
65A7
102
}
102
{ACAD_XDICTIONARY
360
65A6
102
}
330
A
100
AcDbEntity
  8
寸法
100
AcDbDimension
  2
*D32
 10
104.3210806252401
 20
277.100044598888
 30
0.0
 11
94.32738036982403
 21
284.600044598888
 31
0.0
 70
    32
 71
     5
 42
19.98740051083223
 73
     0
 74
     0
 75
     0
  3
tfrom線あり
100
AcDbAlignedDimension
 13
84.33368011440791
 23
296.452826086516
 33
0.0
 14
104.3210806252401
 24
296.452826086516
 34
0.0
100
AcDbRotatedDimension
1001
ACAD
1000
DSTYLE
1002
{
1070
   144
1040
1.0
1002
}
  0
DIMENSION
  5
65B4
102
{ACAD_REACTORS
330
65B6
102
}
102
{ACAD_XDICTIONARY
360
65B5
102
}
330
A
100
AcDbEntity
  8
寸法
100
AcDbDimension
  2
*D33
 10
57.15788409992763
 20
303.3691186695429
 30
0.0
 11
57.15788409992763
 21
299.7026253186895
 31
0.0
 70
   160
  1
7
 71
     5
 42
6.916292583026915
 73
     0
 74
     0
 75
     0
  3
tfrom線あり
100
AcDbAlignedDimension
 13
84.33368011440791
 23
296.452826086516
 33
0.0
 14
67.83626886278273
 24
303.3691186695429
 34
0.0
 50
90.0
100
AcDbRotatedDimension
1001
ACAD
1000
DSTYLE
1002
{
1070
   271
1070
     1
1070
   144
1040
1.0
1002
}
  0
DIMENSION
  5
65C7
330
A
100
AcDbEntity
  8
寸法
100
AcDbDimension
  2
*D34
 10
183.0758765054894
 20
280.8728508032077
 30
0.0
 11
175.5758765054894
 21
307.364048372324
 31
0.0
 70
    32
 71
     5
 42
52.98239513823262
 73
     0
 74
     0
 75
     0
  3
tfrom線あり
100
AcDbAlignedDimension
 13
217.3636978053727
 23
333.8552459414403
 33
0.0
 14
217.3485508801995
 24
280.8728508032077
 34
0.0
 50
90.0
100
AcDbRotatedDimension
1001
ACAD
1000
DSTYLE
1002
{
1070
   144
1040
1.0
1002
}
  0
DIMENSION
  5
65D6
102
{ACAD_XDICTIONARY
360
65D7
102
}
330
A
100
AcDbEntity
  8
寸法
100
AcDbDimension
  2
*D35
 10
338.6664844890023
 20
271.1017200617461
 30
0.0
 11
351.166484488121
 21
278.6017200617461
 31
0.0
 70
    32
 71
     5
 42
24.9999999982374
 73
     0
 74
     0
 75
     0
  3
tfrom線あり
100
AcDbAlignedDimension
 13
363.6664844872397
 23
290.4627688835441
 33
0.0
 14
338.6664844890023
 24
290.4627688835441
 34
0.0
100
AcDbRotatedDimension
1001
ACAD
1000
DSTYLE
1002
{
1070
   144
1040
1.0
1002
}
  0
DIMENSION
  5
65E5
330
A
100
AcDbEntity
  8
寸法
100
AcDbDimension
  2
*D36
 10
309.3976905392057
 20
313.4627688835441
 30
0.0
 11
301.8976905392057
 21
301.9627688835441
 31
0.0
 70
    32
 71
     5
 42
23.0
 73
     0
 74
     0
 75
     0
  3
tfrom線あり
100
AcDbAlignedDimension
 13
338.6664844890023
 23
290.4627688835441
 33
0.0
 14
338.6664844890023
 24
313.4627688835441
 34
0.0
 50
90.0
100
AcDbRotatedDimension
1001
ACAD
1000
DSTYLE
1002
{
1070
   144
1040
1.0
1002
}
  0
DIMENSION
  5
65F2
330
A
100
AcDbEntity
  8
寸法
100
AcDbDimension
  2
*D37
 10
309.3976905392057
 20
313.729251489986
 30
0.0
 11
309.3976905392057
 21
317.4627688835441
 31
0.0
 70
   160
 71
     5
 42
7.0
 73
     0
 74
     0
 75
     0
  3
tfrom線あり
100
AcDbAlignedDimension
 13
324.6437021375358
 23
320.729251489986
 33
0.0
 14
324.6437021375358
 24
313.729251489986
 34
0.0
 50
90.0
100
AcDbRotatedDimension
1001
ACAD
1000
DSTYLE
1002
{
1070
   144
1040
1.0
1002
}
  0
DIMENSION
  5
6600
102
{ACAD_REACTORS
330
6602
102
}
102
{ACAD_XDICTIONARY
360
6601
102
}
330
A
100
AcDbEntity
  8
寸法
100
AcDbDimension
  2
*D38
 10
433.1489472096227
 20
280.8398489652562
 30
0.0
 11
425.6489472096227
 21
307.3310465343725
 31
0.0
 70
    32
 71
     5
 42
52.98239513823262
 73
     0
 74
     0
 75
     0
  3
tfrom線あり
100
AcDbAlignedDimension
 13
469.9127081378379
 23
333.8222441034889
 33
0.0
 14
469.907716537497
 24
280.8398489652562
 34
0.0
 50
90.0
100
AcDbRotatedDimension
1001
ACAD
1000
DSTYLE
1002
{
1070
   144
1040
1.0
1002
}
  0
LINE
  5
6618
330
A
100
AcDbEntity
  8
HIDDEN
100
AcDbLine
 10
460.7379978546126
 20
298.8477235510558
 30
0.0
 11
479.0545483241855
 21
298.8477235510558
 31
0.0
  0
CIRCLE
  5
6619
330
A
100
AcDbEntity
  8
HIDDEN
 48
0.75
100
AcDbCircle
 10
488.9115459176469
 20
307.3314732975015
 30
0.0
 40
3.307614334019174
  0
CIRCLE
  5
661A
330
A
100
AcDbEntity
  8
HIDDEN
 48
0.75
100
AcDbCircle
 10
450.9115459176469
 20
307.3314732975015
 30
0.0
 40
3.307614334019174
  0
CIRCLE
  5
661B
330
A
100
AcDbEntity
  8
モデル
  6
HIDDEN
 48
0.75
100
AcDbCircle
 10
198.3625355851815
 20
307.3644751354529
 30
0.0
 40
3.307614334019174
  0
CIRCLE
  5
661C
330
A
100
AcDbEntity
  8
モデル
  6
HIDDEN
 48
0.75
100
AcDbCircle
 10
236.3625355851817
 20
307.3644751354529
 30
0.0
 40
3.307614334019174
  0
TEXT
  5
66B5
330
A
100
AcDbEntity
  8
寸法
100
AcDbText
 10
413.5289937891507
 20
203.4336943606158
 30
0.0
 40
5.0
  1
<切欠図>
  7
ＭＳ ゴシック
100
AcDbText
  0
DIMENSION
  5
66B6
330
A
100
AcDbEntity
  8
寸法
100
AcDbDimension
  2
*D39
 10
488.8794803869403
 20
204.4302411864766
 30
0.0
 11
479.3953358403545
 21
211.9302411864766
 31
0.0
 70
    32
 71
     5
 42
18.96828909317151
 73
     0
 74
     0
 75
     0
  3
tfrom線あり
100
AcDbAlignedDimension
 13
469.9111912937688
 23
194.8447780359249
 33
0.0
 14
488.8794803869403
 24
165.6397216858863
 34
0.0
100
AcDbRotatedDimension
  0
DIMENSION
  5
66B7
330
A
100
AcDbEntity
  8
寸法
100
AcDbDimension
  2
*D40
 10
469.9111912937688
 20
204.4302411864766
 30
0.0
 11
460.3953358403545
 21
211.9302411864766
 31
0.0
 70
    32
 71
     5
 42
19.03171090682849
 73
     0
 74
     0
 75
     0
  3
tfrom線あり
100
AcDbAlignedDimension
 13
450.8794803869403
 23
165.6397216858863
 33
0.0
 14
469.9111912937688
 24
194.8447780359249
 34
0.0
100
AcDbRotatedDimension
  0
CIRCLE
  5
66B8
102
{ACAD_REACTORS
330
66BB
102
}
330
A
100
AcDbEntity
  8
CutoutOverlay
100
AcDbCircle
 10
469.9111912937688
 20
163.3350002017344
 30
0.0
 40
14.0
  0
CIRCLE
  5
66B9
102
{ACAD_REACTORS
330
66BB
102
}
330
A
100
AcDbEntity
  8
CutoutOverlay
100
AcDbCircle
 10
450.9111912937688
 20
163.3350002017344
 30
0.0
 40
4.0
  0
CIRCLE
  5
66BA
102
{ACAD_REACTORS
330
66BB
102
}
330
A
100
AcDbEntity
  8
CutoutOverlay
100
AcDbCircle
 10
488.9111912937688
 20
163.3350002017344
 30
0.0
 40
4.0
  0
HATCH
  5
66BB
330
A
100
AcDbEntity
  8
CutoutOverlay
100
AcDbHatch
 10
0.0
 20
0.0
 30
0.0
210
0.0
220
0.0
230
1.0
  2
ANSI31
 70
     0
 71
     1
 91
        3
 92
        1
 93
        1
 72
     2
 10
450.9111912937688
 20
163.3350002017344
 40
4.0
 50
0.0
 51
360.0
 73
     1
 97
        1
330
66B9
 92
        1
 93
        1
 72
     2
 10
469.9111912937688
 20
163.3350002017344
 40
14.0
 50
0.0
 51
360.0
 73
     1
 97
        1
330
66B8
 92
        1
 93
        1
 72
     2
 10
488.9111912937688
 20
163.3350002017344
 40
4.0
 50
0.0
 51
360.0
 73
     1
 97
        1
330
66BA
 75
     0
 76
     1
 52
0.0
 41
1.0
 77
     0
 78
     1
 53
45.0
 43
61.03906678221404
 44
-17.52784671830346
 45
-2.245064030267288
 46
2.245064030267288
 79
     0
 98
        1
 10
61.03906678221404
 20
-17.52784671830346
1001
ACAD
1010
0.0
1020
0.0
1030
0.0
  0
LEADER
  5
66BC
102
{ACAD_XDICTIONARY
360
66BD
102
}
330
A
100
AcDbEntity
  8
寸法
100
AcDbLeader
  3
tfrom線あり
 76
     3
 10
469.9111912937688
 20
163.3350002017344
 30
0.0
 10
503.1920781953218
 20
139.0391027305169
 30
0.0
 10
549.5736168152412
 20
139.0391027305169
 30
0.0
  0
TEXT
  5
66BE
330
A
100
AcDbEntity
  8
寸法
100
AcDbText
 10
504.7730152649449
 20
141.6745556802124
 30
0.0
 40
5.0
  1
角芯 センター
  7
ＭＳ ゴシック
100
AcDbText
  0
LINE
  5
66BF
330
A
100
AcDbEntity
  8
CutoutOverlay
  6
CENTER
100
AcDbLine
 10
437.3211602517185
 20
163.3315368309287
 30
0.0
 11
501.9123160799395
 21
163.3315368309287
 31
0.0
  0
LINE
  5
66C0
330
A
100
AcDbEntity
  8
CutoutOverlay
  6
CENTER
100
AcDbLine
 10
437.3211602517185
 20
163.3350002017344
 30
0.0
 11
501.9123160799395
 21
163.3350002017344
 31
0.0
  0
LINE
  5
66C1
330
A
100
AcDbEntity
  8
CutoutOverlay
  6
CENTER
100
AcDbLine
 10
469.9111912937688
 20
194.8413146651193
 30
0.0
 11
469.9111912937688
 21
129.083760434849
 31
0.0
  0
LINE
  5
66C2
330
A
100
AcDbEntity
  8
CutoutOverlay
  6
CENTER
100
AcDbLine
 10
469.9111912937688
 20
194.8447780359249
 30
0.0
 11
469.9111912937688
 21
129.0872238056547
 31
0.0
  0
TEXT
  5
66C3
330
A
100
AcDbEntity
  8
寸法
100
AcDbText
 10
505.9146554086315
 20
178.8666634828576
 30
0.0
 40
5.0
  1
ø28
  7
ＭＳ ゴシック
100
AcDbText
  0
LEADER
  5
66C4
102
{ACAD_XDICTIONARY
360
66C5
102
}
330
A
100
AcDbEntity
  8
寸法
100
AcDbLeader
  3
tfrom線あり
 76
     3
 10
481.991326017047
 20
170.6868606871926
 30
0.0
 10
502.7360040376504
 20
176.5577890553814
 30
0.0
 10
518.023253930844
 20
176.5577890553814
 30
0.0
1001
ACAD
1000
DSTYLE
1002
{
1070
   341
1005
473A
1002
}
  0
TEXT
  5
66C6
330
A
100
AcDbEntity
  8
寸法
100
AcDbText
 10
504.3454973550442
 20
169.3349425892579
 30
0.0
 40
5.0
  1
ø8
  7
ＭＳ ゴシック
100
AcDbText
  0
LEADER
  5
66C7
102
{ACAD_XDICTIONARY
360
66C8
102
}
330
A
100
AcDbEntity
  8
寸法
100
AcDbLeader
  3
tfrom線あり
 76
     3
 10
492.5986814600235
 20
164.6290949630337
 30
0.0
 10
501.1239938387448
 20
167.6877443311874
 30
0.0
 10
511.6808645596798
 20
167.6877443311874
 30
0.0
1001
ACAD
1000
DSTYLE
1002
{
1070
   341
1005
473A
1002
}
  0
LEADER
  5
66C9
102
{ACAD_XDICTIONARY
360
66CA
102
}
330
A
100
AcDbEntity
  8
寸法
100
AcDbLeader
  3
tfrom線あり
 76
     3
 10
447.1838434337596
 20
164.6290949630337
 30
0.0
 10
440.7231041248428
 20
168.3416969807321
 30
0.0
 10
430.1662334039074
 20
168.3416969807321
 30
0.0
211
-1.0
221
0.0
231
0.0
1001
ACAD
1000
DSTYLE
1002
{
1070
   341
1005
473A
1002
}
  0
TEXT
  5
66CB
330
A
100
AcDbEntity
  8
寸法
100
AcDbText
 10
432.2347687353467
 20
170.417416691986
 30
0.0
 40
5.0
  1
ø8
  7
ＭＳ ゴシック
100
AcDbText
  0
LINE
  5
67C7
102
{ACAD_REACTORS
102
}
330
A
100
AcDbEntity
  8
モデル
100
AcDbLine
 10
338.6824691978388
 20
313.4614487449084
 30
0.0
 11
338.6824691978388
 21
290.4627688835441
 31
0.0
  0
LINE
  5
67C8
102
{ACAD_REACTORS
102
}
330
A
100
AcDbEntity
  8
モデル
100
AcDbLine
 10
338.6824691978388
 20
290.4627688835441
 30
0.0
 11
363.6504997784031
 21
290.4627688835441
 31
0.0
  0
LINE
  5
67C9
330
A
100
AcDbEntity
  8
モデル
100
AcDbLine
 10
363.6504997784031
 20
290.4627688835441
 30
0.0
 11
363.6504997784031
 21
294.4654091612566
 31
0.0
  0
LINE
  5
67CA
330
A
100
AcDbEntity
  8
モデル
100
AcDbLine
 10
363.6504997784031
 20
309.4589808090806
 30
0.0
 11
363.6504997784031
 21
313.4614487449084
 31
0.0
  0
LINE
  5
67CE
102
{ACAD_REACTORS
102
}
330
A
100
AcDbEntity
  8
モデル
100
AcDbLine
 10
363.6504997784031
 20
313.4614487449084
 30
0.0
 11
363.6504997784031
 21
290.4627688835441
 31
0.0
  0
LINE
  5
67CF
330
A
100
AcDbEntity
  8
HIDDEN
100
AcDbLine
 10
360.3470505278889
 20
309.4589808090806
 30
0.0
 11
360.3470505278889
 21
294.4654091612567
 31
0.0
  0
LINE
  5
67D0
330
A
100
AcDbEntity
  8
HIDDEN
100
AcDbLine
 10
360.3470505278889
 20
294.4654091612567
 30
0.0
 11
341.9862631321229
 21
294.4654091612567
 31
0.0
  0
LINE
  5
67D1
330
A
100
AcDbEntity
  8
HIDDEN
100
AcDbLine
 10
341.9862631321229
 20
309.4589808090806
 30
0.0
 11
360.3470505278889
 21
309.4589808090806
 31
0.0
  0
LINE
  5
67D2
330
A
100
AcDbEntity
  8
HIDDEN
100
AcDbLine
 10
341.9862631321229
 20
294.4654091612567
 30
0.0
 11
341.9862631321229
 21
309.4589808090806
 31
0.0
  0
LINE
  5
6833
330
A
100
AcDbEntity
  8
モデル
100
AcDbLine
 10
343.8311091751321
 20
150.9974504835165
 30
0.0
 11
343.8311091751321
 21
175.9654810640809
 31
0.0
  0
LINE
  5
6834
330
A
100
AcDbEntity
  8
モデル
100
AcDbLine
 10
343.8311091751321
 20
150.9974504835165
 30
0.0
 11
347.8335771109598
 21
150.9974504835165
 31
0.0
  0
LINE
  5
6836
330
A
100
AcDbEntity
  8
モデル
100
AcDbLine
 10
366.8297890364964
 20
175.9654810640809
 30
0.0
 11
343.8311091751321
 21
175.9654810640809
 31
0.0
  0
LINE
  5
6837
330
A
100
AcDbEntity
  8
モデル
100
AcDbLine
 10
355.3304491058142
 20
132.9579419559966
 30
0.0
 11
353.8657761701285
 21
131.5344063801735
 31
0.0
  0
LINE
  5
6838
330
A
100
AcDbEntity
  8
モデル
100
AcDbLine
 10
353.8657761701285
 20
131.5344063801735
 30
0.0
 11
353.8657761701285
 21
127.0564911073609
 31
0.0
  0
LINE
  5
6839
330
A
100
AcDbEntity
  8
モデル
100
AcDbLine
 10
355.3304491058142
 20
132.9579419559966
 30
0.0
 11
356.7951220414997
 21
131.5344063801735
 31
0.0
  0
LINE
  5
683A
330
A
100
AcDbEntity
  8
モデル
100
AcDbLine
 10
356.7951220414997
 20
131.5344063801735
 30
0.0
 11
356.7951220414997
 21
127.0564911073609
 31
0.0
  0
LINE
  5
683B
330
A
100
AcDbEntity
  8
モデル
100
AcDbLine
 10
353.8657761701285
 20
127.0564911073609
 30
0.0
 11
356.7951220414997
 21
127.0564911073609
 31
0.0
  0
LINE
  5
683C
330
A
100
AcDbEntity
  8
モデル
100
AcDbLine
 10
353.8657761701285
 20
131.5344063801735
 30
0.0
 11
356.7951220414997
 21
131.5344063801735
 31
0.0
  0
HATCH
  5
683D
330
A
100
AcDbEntity
  8
モデル
100
AcDbHatch
 10
0.0
 20
0.0
 30
0.0
210
0.0
220
0.0
230
1.0
  2
ANSI31
 70
     0
 71
     0
 91
        1
 92
        1
 93
        4
 72
     1
 10
353.8657761701285
 20
131.5344063801735
 11
353.8657761701285
 21
127.0564911073607
 72
     1
 10
353.8657761701285
 20
127.0564911073609
 11
356.7951220414997
 21
127.0564911073609
 72
     1
 10
353.8657761701285
 20
131.5344063801735
 11
356.7951220414997
 21
131.5344063801735
 72
     1
 10
356.7951220414997
 20
131.5344063801735
 11
356.7951220414997
 21
127.0564911073607
 97
        0
 75
     0
 76
     1
 52
330.0000000000002
 41
0.4999999999999986
 77
     0
 78
     1
 53
14.99999999999987
 43
75.12421280495806
 44
1.434722821885245
 45
-0.41087523410025
 46
1.533407249233896
 79
     0
 98
        1
 10
75.12421280495806
 20
1.434722821885245
1001
ACAD
1010
0.0
1020
0.0
1030
0.0
  0
LINE
  5
683E
330
A
100
AcDbEntity
  8
モデル
  6
CENTER
100
AcDbLine
 10
355.3304491058142
 20
134.429153610145
 30
0.0
 11
355.3304491058142
 21
149.8827838762507
 31
0.0
  0
LINE
  5
683F
330
A
100
AcDbEntity
  8
モデル
100
AcDbLine
 10
347.8335771109598
 20
155.0290752194028
 30
0.0
 11
362.8271487587837
 21
155.0290752194028
 31
0.0
  0
LINE
  5
6840
330
A
100
AcDbEntity
  8
寸法
100
AcDbLine
 10
362.8271487587837
 20
155.0290752194028
 30
0.0
 11
362.8271487587837
 21
150.9974504835165
 31
0.0
  0
LINE
  5
6841
330
A
100
AcDbEntity
  8
寸法
100
AcDbLine
 10
347.8335771109598
 20
155.0290752194028
 30
0.0
 11
347.8335771109598
 21
150.9974504835165
 31
0.0
  0
LINE
  5
6842
330
A
100
AcDbEntity
  8
モデル
100
AcDbLine
 10
362.8271487587837
 20
150.9974504835165
 30
0.0
 11
366.8297890364964
 21
150.9974504835165
 31
0.0
  0
VIEWPORT
  5
349
330
B
100
AcDbEntity
 67
     1
  8
0
100
AcDbViewport
 10
202.5
 20
128.5
 30
0.0
 40
486.0
 41
308.4
 68
     1
 69
     1
 12
202.5
 22
128.5
 13
0.0
 23
0.0
 14
0.5
 24
0.5
 15
0.0
 25
0.0
 16
0.0
 26
0.0
 36
1.0
 17
0.0
 27
0.0
 37
0.0
 42
50.0
 43
0.0
 44
0.0
 45
308.4
 50
0.0
 51
0.0
 72
   100
 90
   557152
  1

281
     0
 71
     1
 74
     0
110
0.0
120
0.0
130
0.0
111
1.0
121
0.0
131
0.0
112
0.0
122
1.0
132
0.0
 79
     0
146
0.0
170
     0
 61
     5
348
26C
292
     1
282
     1
141
0.0
142
0.0
 63
   256
  0
VIEWPORT
  5
34A
330
B
100
AcDbEntity
 67
     1
  8
0
100
AcDbViewport
 10
202.5
 20
128.5
 30
0.0
 40
324.0
 41
205.6
 68
     2
 69
     2
 12
986.6781359294573
 22
1427.077061889956
 13
0.0
 23
0.0
 14
0.5
 24
0.5
 15
0.0
 25
0.0
 16
0.0
 26
0.0
 36
1.0
 17
0.0
 27
0.0
 37
0.0
 42
50.0
 43
0.0
 44
0.0
 45
2890.021615685494
 50
0.0
 51
0.0
 72
   100
 90
   557152
  1

281
     0
 71
     1
 74
     0
110
0.0
120
0.0
130
0.0
111
1.0
121
0.0
131
0.0
112
0.0
122
1.0
132
0.0
 79
     0
146
0.0
170
     0
 61
     5
348
26C
292
     1
282
     1
141
0.0
142
0.0
 63
   256
  0
ENDSEC
  0
SECTION
  2
OBJECTS
  0
DICTIONARY
  5
19
330
0
100
AcDbDictionary
281
     1
  3
ACAD_COLOR
350
674
  3
ACAD_DETAILVIEWSTYLE
350
12F4
  3
ACAD_FIELDLIST
350
52FA
  3
ACAD_GROUP
350
1A
  3
ACAD_IMAGE_VARS
350
27B
  3
ACAD_LAYOUT
350
1E
  3
ACAD_MATERIAL
350
263
  3
ACAD_MLEADERSTYLE
350
336
  3
ACAD_MLINESTYLE
350
1B
  3
ACAD_PLOTSETTINGS
350
22
  3
ACAD_PLOTSTYLENAME
350
1F
  3
ACAD_SCALELIST
350
241
  3
ACAD_SECTIONVIEWSTYLE
350
12F5
  3
ACAD_TABLESTYLE
350
278
  3
ACAD_VISUALSTYLE
350
267
  3
ACDB_RECOMPOSE_DATA
350
684C
  3
AcDbVariableDictionary
350
330
  3
AcStStandard
350
12B9
  3
APPDATA
350
27A
  0
SUN
  5
10E8
330
15
100
AcDbSun
 90
        1
290
     0
 63
     7
421
 16777215
 40
1.0
291
     1
 91
  2455826
 92
 54000000
292
     0
 70
     2
 71
   256
280
     1
  0
DICTIONARY
  5
2E1
330
2
100
AcDbDictionary
280
     1
281
     1
  3
ACAD_LAYERSTATES
360
2E2
  3
ACLYDICTIONARY
360
66FE
  0
DICTIONARY
  5
45FB
330
A
100
AcDbDictionary
280
     1
281
     1
  3
ACAD_SORTENTS
360
45FC
  0
DICTIONARY
  5
52FD
330
52FC
100
AcDbDictionary
280
     1
281
     1
  3
ACAD_FIELD
360
52FE
  0
DICTIONARY
  5
6587
330
6586
100
AcDbDictionary
280
     1
281
     1
  3
ACAD_DIMASSOC
360
6588
  0
DICTIONARY
  5
6596
330
6595
100
AcDbDictionary
280
     1
281
     1
  3
ACAD_DIMASSOC
360
6597
  0
DICTIONARY
  5
65A6
330
65A5
100
AcDbDictionary
280
     1
281
     1
  3
ACAD_DIMASSOC
360
65A7
  0
DICTIONARY
  5
65B5
330
65B4
100
AcDbDictionary
280
     1
281
     1
  3
ACAD_DIMASSOC
360
65B6
  0
DICTIONARY
  5
65D7
330
65D6
100
AcDbDictionary
280
     1
281
     1
  0
DICTIONARY
  5
6601
330
6600
100
AcDbDictionary
280
     1
281
     1
  3
ACAD_DIMASSOC
360
6602
  0
DICTIONARY
  5
66BD
330
66BC
100
AcDbDictionary
280
     1
281
     1
  0
DICTIONARY
  5
66C5
330
66C4
100
AcDbDictionary
280
     1
281
     1
  0
DICTIONARY
  5
66C8
330
66C7
100
AcDbDictionary
280
     1
281
     1
  0
DICTIONARY
  5
66CA
330
66C9
100
AcDbDictionary
280
     1
281
     1
  0
DICTIONARY
  5
674
102
{ACAD_REACTORS
330
19
102
}
330
19
100
AcDbDictionary
281
     1
  0
DICTIONARY
  5
12F4
102
{ACAD_REACTORS
330
19
102
}
330
19
100
AcDbDictionary
281
     1
  0
FIELDLIST
  5
52FA
102
{ACAD_REACTORS
330
19
102
}
330
19
100
AcDbIdSet
 90
        1
330
52FF
100
AcDbFieldList
  0
DICTIONARY
  5
1A
102
{ACAD_REACTORS
330
19
102
}
330
19
100
AcDbDictionary
281
     1
  3
*A1
350
6585
  3
*A2
350
64D1
  3
*A3
350
6542
  3
*A4
350
6543
  3
*A5
350
654D
  0
RASTERVARIABLES
  5
27B
102
{ACAD_REACTORS
330
19
102
}
330
19
100
AcDbRasterVariables
 90
        0
 70
     1
 71
     1
 72
     1
  0
DICTIONARY
  5
1E
102
{ACAD_REACTORS
330
19
102
}
330
19
100
AcDbDictionary
281
     1
  3
Layout1
350
21
  3
Layout2
350
12C4
  3
Model
350
20
  0
DICTIONARY
  5
263
102
{ACAD_REACTORS
330
19
102
}
330
19
100
AcDbDictionary
281
     1
  3
ByBlock
350
385B
  3
ByLayer
350
264
  3
Global
350
266
  0
DICTIONARY
  5
336
102
{ACAD_REACTORS
330
19
102
}
330
19
100
AcDbDictionary
281
     1
  3
Standard
350
4739
  0
DICTIONARY
  5
1B
102
{ACAD_REACTORS
330
19
102
}
330
19
100
AcDbDictionary
281
     1
  3
Standard
350
1C
  0
DICTIONARY
  5
22
102
{ACAD_REACTORS
330
19
102
}
330
19
100
AcDbDictionary
281
     1
  0
ACDBDICTIONARYWDFLT
  5
1F
102
{ACAD_REACTORS
330
19
102
}
330
19
100
AcDbDictionary
281
     1
  3
Normal
350
1D
100
AcDbDictionaryWithDefault
340
1D
  0
DICTIONARY
  5
241
102
{ACAD_REACTORS
330
19
102
}
330
19
100
AcDbDictionary
281
     1
  3
A0
350
242
  3
A1
350
243
  3
A2
350
244
  3
A3
350
245
  3
A4
350
246
  3
A5
350
247
  3
A6
350
248
  3
A7
350
249
  3
A8
350
24A
  3
A9
350
24B
  3
B0
350
24C
  3
B1
350
24D
  3
B2
350
24E
  3
B3
350
24F
  3
B4
350
250
  3
B5
350
251
  3
B6
350
252
  3
B7
350
253
  3
B8
350
254
  3
B9
350
255
  3
C0
350
256
  3
C1
350
257
  3
C2
350
258
  3
C3
350
259
  3
C4
350
25A
  3
C5
350
25B
  3
C6
350
25C
  3
C7
350
25D
  3
C8
350
25E
  3
C9
350
25F
  3
D0
350
260
  3
D1
350
261
  3
D2
350
262
  0
DICTIONARY
  5
12F5
102
{ACAD_REACTORS
330
19
102
}
330
19
100
AcDbDictionary
281
     1
  0
DICTIONARY
  5
278
102
{ACAD_REACTORS
330
19
102
}
330
19
100
AcDbDictionary
281
     1
  3
Standard
350
279
  0
DICTIONARY
  5
267
102
{ACAD_REACTORS
330
19
102
}
330
19
100
AcDbDictionary
281
     1
  3
2dWireframe
350
26C
  3
3D Hidden
350
26E
  3
3dWireframe
350
26D
  3
Basic
350
26F
  3
Brighten
350
273
  3
ColorChange
350
277
  3
Conceptual
350
271
  3
Dim
350
272
  3
EdgeColorOff
350
10E2
  3
Facepattern
350
276
  3
Flat
350
268
  3
FlatWithEdges
350
269
  3
Gouraud
350
26A
  3
GouraudWithEdges
350
26B
  3
Hidden
350
10DF
  3
JitterOff
350
10E0
  3
Linepattern
350
275
  3
OverhangOff
350
10E1
  3
Realistic
350
270
  3
Shaded
350
10E7
  3
Shaded with edges
350
10E6
  3
Shades of Gray
350
10E3
  3
Sketchy
350
10E4
  3
Thicken
350
274
  3
Wireframe
350
10DE
  3
X-Ray
350
10E5
  0
XRECORD
  5
684C
102
{ACAD_REACTORS
330
19
102
}
330
19
100
AcDbXrecord
280
     1
 90
        1
330
279
  0
DICTIONARY
  5
330
102
{ACAD_REACTORS
330
19
102
}
330
19
100
AcDbDictionary
281
     1
  3
CANNOSCALE
350
331
  3
CMLEADERSTYLE
350
4741
  3
CTABLESTYLE
350
335
  3
XCLIPFRAME
350
109E
  0
DICTIONARY
  5
12B9
102
{ACAD_REACTORS
330
19
102
}
330
19
100
AcDbDictionary
281
     1
  0
DICTIONARY
  5
27A
102
{ACAD_REACTORS
330
19
102
}
330
19
100
AcDbDictionary
281
     1
  0
DICTIONARY
  5
2E2
102
{ACAD_REACTORS
330
2E1
102
}
330
2E1
100
AcDbDictionary
281
     1
  0
DICTIONARY
  5
66FE
102
{ACAD_REACTORS
330
2E1
102
}
330
2E1
100
AcDbDictionary
281
     1
1001
ACAD
1000
<All
  0
SORTENTSTABLE
  5
45FC
102
{ACAD_REACTORS
330
45FB
102
}
330
45FB
100
AcDbSortentsTable
330
A
331
0
  5
36ED
331
36CD
  5
5617
331
36CE
  5
5614
331
36CF
  5
5610
331
36D0
  5
560D
331
36D3
  5
560A
331
36D4
  5
5600
331
36D5
  5
4AB4
331
36D6
  5
4AB0
331
36D8
  5
4AAC
331
36D9
  5
4AA8
331
36DA
  5
4AA3
331
36DB
  5
4A9F
331
36DC
  5
4A9B
331
36DD
  5
4A97
331
36DE
  5
4784
331
36E0
  5
471F
331
36E1
  5
471E
331
36E2
  5
4673
331
36E3
  5
4672
331
36E5
  5
4671
331
36E6
  5
4670
331
36E7
  5
4639
331
36E8
  5
4637
331
36E9
  5
45C4
331
36EA
  5
45C3
331
36EB
  5
45B3
331
36EC
  5
45B2
331
36ED
  5
45B1
331
37DE
  5
45B0
331
41D7
  5
45AF
331
41D8
  5
45AE
331
42C8
  5
457E
331
4346
  5
457D
331
438B
  5
454D
331
438C
  5
454C
331
45B0
  5
454B
331
45B1
  5
454A
331
45B2
  5
4549
331
45B3
  5
442F
331
52FC
  5
561A
331
5602
  5
561E
331
5605
  5
5621
331
5608
  5
5624
331
560C
  5
5628
331
560F
  5
562B
331
5612
  5
562E
331
5616
  5
5632
331
5619
  5
5635
331
561C
  5
5638
331
5620
  5
563C
331
5623
  5
563F
331
5626
  5
5642
331
562A
  5
5646
331
562D
  5
5649
331
5630
  5
564C
331
5634
  5
5650
331
5637
  5
5653
331
563A
  5
5656
331
563E
  5
565A
331
5641
  5
565D
331
5644
  5
5660
331
5648
  5
5664
331
564B
  5
5667
331
564E
  5
566A
331
5652
  5
566E
331
5655
  5
5671
331
5658
  5
5674
331
565C
  5
5678
331
565F
  5
567B
331
5662
  5
567E
331
5666
  5
5682
331
5669
  5
5685
331
566C
  5
5688
331
5670
  5
568C
331
5673
  5
568F
331
5676
  5
5692
331
567A
  5
5696
331
567D
  5
5699
331
5680
  5
569C
331
5684
  5
56A0
331
5687
  5
56A3
331
568A
  5
56A6
331
568E
  5
56A9
331
5691
  5
56AA
331
5694
  5
56AB
331
5698
  5
56AC
331
569B
  5
56AD
331
569E
  5
56AE
331
6154
  5
615A
331
6155
  5
615B
331
6156
  5
615C
331
6158
  5
615E
331
615B
  5
6161
331
615E
  5
6164
331
6162
  5
6168
331
6165
  5
616B
331
6168
  5
616E
331
616C
  5
6172
331
616F
  5
6175
331
6172
  5
6178
331
6176
  5
617C
331
6179
  5
617F
331
617C
  5
6182
331
6180
  5
6186
331
6183
  5
6189
331
6186
  5
618C
331
618A
  5
6190
331
618D
  5
6193
331
6190
  5
6196
331
6194
  5
619A
331
6197
  5
619D
331
619A
  5
61A0
331
619E
  5
61A4
331
61A1
  5
61A7
331
61A4
  5
61AA
331
61A8
  5
61AE
331
61AB
  5
61B1
331
61AE
  5
61B4
331
61B2
  5
61B8
331
61B5
  5
61BB
331
61B8
  5
61BE
331
61BC
  5
61C2
331
61BF
  5
61C5
331
61C2
  5
61C8
331
61C6
  5
61CC
331
61C9
  5
61CF
331
61CC
  5
61D2
331
61D0
  5
61D6
331
61D3
  5
61D9
331
61D6
  5
61DC
331
61DA
  5
61E0
331
61DD
  5
61E3
331
61E0
  5
61E6
331
61E4
  5
61EA
331
61E7
  5
61ED
331
61EA
  5
61F0
331
61EE
  5
61F4
331
61F1
  5
61F7
331
61F4
  5
61FA
331
61F7
  5
61FD
331
61F8
  5
61FE
331
61F9
  5
61FF
331
61FA
  5
6200
331
61FB
  5
6201
331
61FC
  5
6202
331
61FD
  5
6203
331
61FE
  5
6204
331
61FF
  5
6205
331
6200
  5
6206
331
6201
  5
6207
331
6202
  5
6208
331
6203
  5
6209
331
6204
  5
620A
331
0
  5
620B
331
0
  5
620C
331
0
  5
620D
331
0
  5
620E
331
0
  5
620F
331
0
  5
6210
331
0
  5
6211
331
620C
  5
6212
331
0
  5
6213
331
620E
  5
6214
331
0
  5
6215
331
6210
  5
6216
331
6211
  5
6217
331
6212
  5
6218
331
6213
  5
6219
331
6214
  5
621A
331
6215
  5
621B
331
6216
  5
621C
331
6217
  5
621D
331
6218
  5
621E
331
6219
  5
621F
331
621A
  5
6220
331
621B
  5
6221
331
0
  5
6222
331
0
  5
6223
331
0
  5
6224
331
0
  5
6225
331
0
  5
6226
331
0
  5
6227
331
6222
  5
6228
331
6223
  5
6229
331
6224
  5
622A
331
6225
  5
622B
331
6226
  5
622C
331
6227
  5
622D
331
6228
  5
622E
331
6229
  5
622F
331
622A
  5
6230
331
622B
  5
6231
331
622C
  5
6232
331
622D
  5
6233
331
622E
  5
6234
331
622F
  5
6235
331
6230
  5
6236
331
6231
  5
6237
331
6232
  5
6238
331
6233
  5
6239
331
6234
  5
623A
331
6235
  5
623B
331
6236
  5
623C
331
6237
  5
623D
331
6238
  5
623E
331
6239
  5
623F
331
623A
  5
6240
331
623B
  5
6241
331
623C
  5
6242
331
623D
  5
6243
331
623E
  5
6244
331
623F
  5
6245
331
6240
  5
6246
331
6241
  5
6247
331
6242
  5
6248
331
6243
  5
6249
331
6244
  5
624A
331
6245
  5
624B
331
6246
  5
624C
331
6247
  5
624D
331
6523
  5
6529
331
6524
  5
652A
331
6525
  5
652B
331
6526
  5
652C
331
6527
  5
652D
331
6528
  5
652E
331
6529
  5
652F
331
652A
  5
6530
331
652B
  5
6531
331
652C
  5
6532
331
652D
  5
6533
331
652E
  5
6534
331
652F
  5
6535
331
6530
  5
6536
331
6531
  5
6537
331
6532
  5
6538
331
6533
  5
6539
331
6534
  5
653A
331
6535
  5
653B
331
6536
  5
653C
331
6537
  5
653D
331
6539
  5
653F
331
653A
  5
6540
331
653B
  5
6544
331
653F
  5
6548
331
6540
  5
654E
331
6556
  5
655C
331
6557
  5
655D
331
6558
  5
655E
331
6559
  5
655F
331
655A
  5
6560
331
655B
  5
6561
331
655C
  5
6562
331
655D
  5
6563
331
6565
  5
656B
331
0
  5
656C
331
0
  5
656D
331
6569
  5
656F
331
656A
  5
6570
331
656B
  5
6571
331
656C
  5
6572
331
656D
  5
6573
331
656E
  5
6574
331
656F
  5
6575
331
6570
  5
6576
331
6571
  5
6577
331
6572
  5
6578
331
6573
  5
6579
331
6574
  5
657A
331
657F
  5
36E7
331
6580
  5
36E8
331
6581
  5
36E9
331
6582
  5
36EA
331
6583
  5
36EB
331
6584
  5
36EC
  0
DICTIONARY
  5
52FE
102
{ACAD_REACTORS
330
52FD
102
}
330
52FD
100
AcDbDictionary
280
     1
281
     1
  3
TEXT
360
52FF
  0
DIMASSOC
  5
6588
102
{ACAD_REACTORS
330
6587
102
}
330
6587
100
AcDbDimAssoc
330
6586
 90
        0
 70
     0
 71
     1
  0
DIMASSOC
  5
6597
102
{ACAD_REACTORS
330
6596
102
}
330
6596
100
AcDbDimAssoc
330
6595
 90
        3
 70
     0
 71
     1
  1
AcDbOsnapPointRef
 72
    13
331
6523
 73
     0
 91
        0
 40
0.0
 10
0.0
 20
0.0
 30
0.0
 75
     0
  1
AcDbOsnapPointRef
 72
    13
331
6527
 73
     0
 91
        0
 40
0.0
 10
0.0
 20
0.0
 30
0.0
 75
     0
  0
DIMASSOC
  5
65A7
102
{ACAD_REACTORS
330
65A6
102
}
330
65A6
100
AcDbDimAssoc
330
65A5
 90
        3
 70
     0
 71
     1
  1
AcDbOsnapPointRef
 72
     1
331
6539
 73
     0
 91
        0
 40
0.0
 10
0.0
 20
0.0
 30
0.0
 75
     0
  1
AcDbOsnapPointRef
 72
    13
331
6539
 73
     0
 91
        0
 40
0.0
 10
0.0
 20
0.0
 30
0.0
 75
     0
  0
DIMASSOC
  5
65B6
102
{ACAD_REACTORS
330
65B5
102
}
330
65B5
100
AcDbDimAssoc
330
65B4
 90
        1
 70
     0
 71
     1
  1
AcDbOsnapPointRef
 72
     1
331
6539
 73
     0
 91
        0
 40
0.0
 10
0.0
 20
0.0
 30
0.0
 75
     0
  0
DIMASSOC
  5
6602
102
{ACAD_REACTORS
330
6601
102
}
330
6601
100
AcDbDimAssoc
330
6600
 90
        2
 70
     0
 71
     1
  1
AcDbOsnapPointRef
 72
     1
331
61F8
 73
     0
 91
        0
 40
0.0
 10
0.0
 20
0.0
 30
0.0
 75
     0
  0
GROUP
  5
6585
102
{ACAD_REACTORS
330
1A
102
}
330
1A
100
AcDbGroup
300

 70
     1
 71
     1
340
657F
340
6580
340
6581
340
6582
340
6583
340
6584
  0
GROUP
  5
64D1
102
{ACAD_REACTORS
330
1A
102
}
330
1A
100
AcDbGroup
300

 70
     1
 71
     1
340
622A
340
622B
340
622C
340
622D
340
622E
340
622F
340
6230
340
6231
340
6232
340
6233
340
6234
340
6235
340
6236
340
6237
340
6238
340
6239
340
623A
340
623B
340
623C
340
623D
340
623E
340
623F
340
6240
340
6241
340
6242
340
6243
340
6244
340
6245
340
6246
340
6247
  0
GROUP
  5
6542
102
{ACAD_REACTORS
330
1A
102
}
330
1A
100
AcDbGroup
300

 70
     1
 71
     1
340
6523
340
6524
340
6525
340
6526
340
6527
340
6528
340
6529
340
652A
340
652B
340
652C
340
652D
340
652E
340
652F
340
6530
340
6531
340
6532
340
6533
340
6534
340
6535
340
6536
340
6537
340
6539
340
653A
340
653B
340
653F
340
6540
  0
GROUP
  5
6543
102
{ACAD_REACTORS
330
1A
102
}
330
1A
100
AcDbGroup
300

 70
     1
 71
     1
340
6154
340
6155
340
6156
340
6222
340
6223
340
6224
340
6225
340
6226
340
6227
340
6228
340
6229
  0
GROUP
  5
654D
102
{ACAD_REACTORS
330
1A
102
}
330
1A
100
AcDbGroup
300

 70
     1
 71
     1
340
61F7
340
61F8
340
61F9
340
61FA
340
61FB
340
61FC
  0
LAYOUT
  5
21
102
{ACAD_REACTORS
330
1E
102
}
330
1E
100
AcDbPlotSettings
  1

  2
none_device
  4
ISO_A3_(420.00_x_297.00_MM)
  6

 40
7.5
 41
20.0
 42
7.5
 43
20.0
 44
420.0
 45
297.0
 46
0.0
 47
0.0
 48
0.0
 49
0.0
140
0.0
141
0.0
142
1.0
143
1.0
 70
     0
 72
     1
 73
     0
 74
     0
  7

 75
     0
 76
     0
 77
     2
 78
   300
147
1.0
148
0.0
149
0.0
100
AcDbLayout
  1
Layout1
 70
     0
 71
     0
 10
-7.5
 20
-20.0
 11
412.5
 21
277.0
 12
0.0
 22
0.0
 32
0.0
 14
0.0
 24
0.0
 34
0.0
 15
0.0
 25
0.0
 35
0.0
146
0.0
 13
0.0
 23
0.0
 33
0.0
 16
0.0
 26
0.0
 36
0.0
 17
0.0
 27
0.0
 37
0.0
 76
     0
330
B
331
349
  0
LAYOUT
  5
12C4
102
{ACAD_REACTORS
330
1E
102
}
330
1E
100
AcDbPlotSettings
  1

  2
none_device
  4

  6

 40
0.0
 41
0.0
 42
0.0
 43
0.0
 44
0.0
 45
0.0
 46
0.0
 47
0.0
 48
0.0
 49
0.0
140
0.0
141
0.0
142
1.0
143
1.0
 70
   688
 72
     1
 73
     0
 74
     5
  7

 75
    16
 76
     0
 77
     2
 78
   300
147
1.0
148
0.0
149
0.0
100
AcDbLayout
  1
Layout2
 70
     1
 71
     2
 10
0.0
 20
0.0
 11
0.0
 21
0.0
 12
0.0
 22
0.0
 32
0.0
 14
0.0
 24
0.0
 34
0.0
 15
0.0
 25
0.0
 35
0.0
146
0.0
 13
0.0
 23
0.0
 33
0.0
 16
1.0
 26
0.0
 36
0.0
 17
0.0
 27
1.0
 37
0.0
 76
     0
330
12C3
  0
LAYOUT
  5
20
102
{ACAD_REACTORS
330
1E
102
}
330
1E
100
AcDbPlotSettings
  1

  2
none_device
  4
ISO_A3_(420.00_x_297.00_MM)
  6

 40
7.5
 41
20.0
 42
7.5
 43
20.0
 44
420.0
 45
297.0
 46
0.0
 47
0.0
 48
0.0
 49
0.0
140
0.0
141
0.0
142
1.0
143
1.0
 70
  1024
 72
     1
 73
     0
 74
     0
  7

 75
     0
 76
     0
 77
     2
 78
   300
147
1.0
148
0.0
149
0.0
100
AcDbLayout
  1
Model
 70
     0
 71
     1
 10
0.0
 20
0.0
 11
593.9999999999999
 21
420.0
 12
0.0
 22
0.0
 32
0.0
 14
0.0
 24
0.0
 34
0.0
 15
1477.497274134256
 25
420.0
 35
0.0
146
0.0
 13
0.0
 23
0.0
 33
0.0
 16
0.0
 26
0.0
 36
0.0
 17
0.0
 27
0.0
 37
0.0
 76
     0
330
A
331
15
  0
MATERIAL
  5
385B
102
{ACAD_REACTORS
330
263
102
}
330
263
100
AcDbMaterial
  1
ByBlock
 72
     1
 94
      127
  0
MATERIAL
  5
264
102
{ACAD_REACTORS
330
263
102
}
330
263
100
AcDbMaterial
  1
ByLayer
 72
     1
 94
      127
  0
MATERIAL
  5
266
102
{ACAD_REACTORS
330
263
102
}
330
263
100
AcDbMaterial
  1
Global
 72
     1
 94
      127
  0
MLEADERSTYLE
  5
4739
102
{ACAD_REACTORS
330
336
102
}
330
336
100
AcDbMLeaderStyle
170
     2
171
     1
172
     0
 90
        2
 40
0.0
 41
0.0
173
     1
 91
-1056964608
340
11
 92
       -2
290
     1
 42
2.0
291
     1
 43
8.0
  3
Standard
341
0
 44
4.0
300

342
17
174
     1
178
     6
175
     1
176
     0
 93
-1056964608
 45
4.0
292
     0
297
     0
 46
4.0
343
0
 94
-1056964608
 47
1.0
 49
1.0
140
1.0
293
     1
141
0.0
294
     1
177
     0
142
1.0
295
     0
296
     0
143
3.75
1001
ACAD_MLEADERVER
1070
     2
  0
MLINESTYLE
  5
1C
102
{ACAD_REACTORS
330
1B
102
}
330
1B
100
AcDbMlineStyle
  2
Standard
 70
     0
  3

 62
     0
 51
90.0
 52
90.0
 71
     2
 49
0.5
 62
   256
  6
BYLAYER
 49
-0.5
 62
   256
  6
BYLAYER
  0
ACDBPLACEHOLDER
  5
1D
102
{ACAD_REACTORS
330
1F
102
}
330
1F
  0
SCALE
  5
242
102
{ACAD_REACTORS
330
241
102
}
330
241
100
AcDbScale
 70
     0
300
1:1
140
1.0
141
1.0
290
     1
  0
SCALE
  5
243
102
{ACAD_REACTORS
330
241
102
}
330
241
100
AcDbScale
 70
     0
300
1:2
140
1.0
141
2.0
290
     0
  0
SCALE
  5
244
102
{ACAD_REACTORS
330
241
102
}
330
241
100
AcDbScale
 70
     0
300
1:4
140
1.0
141
4.0
290
     0
  0
SCALE
  5
245
102
{ACAD_REACTORS
330
241
102
}
330
241
100
AcDbScale
 70
     0
300
1:5
140
1.0
141
5.0
290
     0
  0
SCALE
  5
246
102
{ACAD_REACTORS
330
241
102
}
330
241
100
AcDbScale
 70
     0
300
1:8
140
1.0
141
8.0
290
     0
  0
SCALE
  5
247
102
{ACAD_REACTORS
330
241
102
}
330
241
100
AcDbScale
 70
     0
300
1:10
140
1.0
141
10.0
290
     0
  0
SCALE
  5
248
102
{ACAD_REACTORS
330
241
102
}
330
241
100
AcDbScale
 70
     0
300
1:16
140
1.0
141
16.0
290
     0
  0
SCALE
  5
249
102
{ACAD_REACTORS
330
241
102
}
330
241
100
AcDbScale
 70
     0
300
1:20
140
1.0
141
20.0
290
     0
  0
SCALE
  5
24A
102
{ACAD_REACTORS
330
241
102
}
330
241
100
AcDbScale
 70
     0
300
1:30
140
1.0
141
30.0
290
     0
  0
SCALE
  5
24B
102
{ACAD_REACTORS
330
241
102
}
330
241
100
AcDbScale
 70
     0
300
1:40
140
1.0
141
40.0
290
     0
  0
SCALE
  5
24C
102
{ACAD_REACTORS
330
241
102
}
330
241
100
AcDbScale
 70
     0
300
1:50
140
1.0
141
50.0
290
     0
  0
SCALE
  5
24D
102
{ACAD_REACTORS
330
241
102
}
330
241
100
AcDbScale
 70
     0
300
1:100
140
1.0
141
100.0
290
     0
  0
SCALE
  5
24E
102
{ACAD_REACTORS
330
241
102
}
330
241
100
AcDbScale
 70
     0
300
2:1
140
2.0
141
1.0
290
     0
  0
SCALE
  5
24F
102
{ACAD_REACTORS
330
241
102
}
330
241
100
AcDbScale
 70
     0
300
4:1
140
4.0
141
1.0
290
     0
  0
SCALE
  5
250
102
{ACAD_REACTORS
330
241
102
}
330
241
100
AcDbScale
 70
     0
300
8:1
140
8.0
141
1.0
290
     0
  0
SCALE
  5
251
102
{ACAD_REACTORS
330
241
102
}
330
241
100
AcDbScale
 70
     0
300
10:1
140
10.0
141
1.0
290
     0
  0
SCALE
  5
252
102
{ACAD_REACTORS
330
241
102
}
330
241
100
AcDbScale
 70
     0
300
100:1
140
100.0
141
1.0
290
     0
  0
SCALE
  5
253
102
{ACAD_REACTORS
330
241
102
}
330
241
100
AcDbScale
 70
     0
300
1/128" = 1'-0"
140
0.0078125
141
12.0
290
     0
  0
SCALE
  5
254
102
{ACAD_REACTORS
330
241
102
}
330
241
100
AcDbScale
 70
     0
300
1/64" = 1'-0"
140
0.015625
141
12.0
290
     0
  0
SCALE
  5
255
102
{ACAD_REACTORS
330
241
102
}
330
241
100
AcDbScale
 70
     0
300
1/32" = 1'-0"
140
0.03125
141
12.0
290
     0
  0
SCALE
  5
256
102
{ACAD_REACTORS
330
241
102
}
330
241
100
AcDbScale
 70
     0
300
1/16" = 1'-0"
140
0.0625
141
12.0
290
     0
  0
SCALE
  5
257
102
{ACAD_REACTORS
330
241
102
}
330
241
100
AcDbScale
 70
     0
300
3/32" = 1'-0"
140
0.09375
141
12.0
290
     0
  0
SCALE
  5
258
102
{ACAD_REACTORS
330
241
102
}
330
241
100
AcDbScale
 70
     0
300
1/8" = 1'-0"
140
0.125
141
12.0
290
     0
  0
SCALE
  5
259
102
{ACAD_REACTORS
330
241
102
}
330
241
100
AcDbScale
 70
     0
300
3/16" = 1'-0"
140
0.1875
141
12.0
290
     0
  0
SCALE
  5
25A
102
{ACAD_REACTORS
330
241
102
}
330
241
100
AcDbScale
 70
     0
300
1/4" = 1'-0"
140
0.25
141
12.0
290
     0
  0
SCALE
  5
25B
102
{ACAD_REACTORS
330
241
102
}
330
241
100
AcDbScale
 70
     0
300
3/8" = 1'-0"
140
0.375
141
12.0
290
     0
  0
SCALE
  5
25C
102
{ACAD_REACTORS
330
241
102
}
330
241
100
AcDbScale
 70
     0
300
1/2" = 1'-0"
140
0.5
141
12.0
290
     0
  0
SCALE
  5
25D
102
{ACAD_REACTORS
330
241
102
}
330
241
100
AcDbScale
 70
     0
300
3/4" = 1'-0"
140
0.75
141
12.0
290
     0
  0
SCALE
  5
25E
102
{ACAD_REACTORS
330
241
102
}
330
241
100
AcDbScale
 70
     0
300
1" = 1'-0"
140
1.0
141
12.0
290
     0
  0
SCALE
  5
25F
102
{ACAD_REACTORS
330
241
102
}
330
241
100
AcDbScale
 70
     0
300
1-1/2" = 1'-0"
140
1.5
141
12.0
290
     0
  0
SCALE
  5
260
102
{ACAD_REACTORS
330
241
102
}
330
241
100
AcDbScale
 70
     0
300
3" = 1'-0"
140
3.0
141
12.0
290
     0
  0
SCALE
  5
261
102
{ACAD_REACTORS
330
241
102
}
330
241
100
AcDbScale
 70
     0
300
6" = 1'-0"
140
6.0
141
12.0
290
     0
  0
SCALE
  5
262
102
{ACAD_REACTORS
330
241
102
}
330
241
100
AcDbScale
 70
     0
300
1'-0" = 1'-0"
140
12.0
141
12.0
290
     0
  0
TABLESTYLE
  5
279
102
{ACAD_REACTORS
330
278
102
}
102
{ACAD_XDICTIONARY
360
684A
102
}
330
278
100
AcDbTableStyle
  3
Standard
 70
     0
 71
     0
 40
0.06
 41
0.06
280
     0
281
     0
  7
Standard
140
4.5
170
     2
 62
     0
 63
   257
283
     0
 90
        4
 91
        0
  1

274
    -2
284
     1
 64
     0
275
    -2
285
     1
 65
     0
276
    -2
286
     1
 66
     0
277
    -2
287
     1
 67
     0
278
    -2
288
     1
 68
     0
279
    -2
289
     1
 69
     0
  7
Standard
140
6.0
170
     5
 62
     0
 63
   257
283
     0
 90
        4
 91
        0
  1

274
    -2
284
     1
 64
     0
275
    -2
285
     1
 65
     0
276
    -2
286
     1
 66
     0
277
    -2
287
     1
 67
     0
278
    -2
288
     1
 68
     0
279
    -2
289
     1
 69
     0
  7
Standard
140
4.5
170
     5
 62
     0
 63
   257
283
     0
 90
        4
 91
        0
  1

274
    -2
284
     1
 64
     0
275
    -2
285
     1
 65
     0
276
    -2
286
     1
 66
     0
277
    -2
287
     1
 67
     0
278
    -2
288
     1
 68
     0
279
    -2
289
     1
 69
     0
  0
VISUALSTYLE
  5
26C
102
{ACAD_REACTORS
330
267
102
}
330
267
100
AcDbVisualStyle
  2
2dWireframe
 70
     4
 71
     0
 72
     2
 73
     0
 90
        0
 40
-0.6
 41
-30.0
 62
     5
 63
     7
421
 16777215
 74
     1
 91
        4
 64
     7
 65
   257
 75
     1
175
     1
 42
1.0
 92
        0
 66
   257
 43
1.0
 76
     1
 77
     6
 78
     2
 67
     7
 79
     5
170
     0
171
     0
290
     0
174
     0
 93
        1
 44
0.0
173
     0
291
     0
 45
0.0
  0
VISUALSTYLE
  5
26E
102
{ACAD_REACTORS
330
267
102
}
330
267
100
AcDbVisualStyle
  2
3D Hidden
 70
     6
 71
     1
 72
     2
 73
     2
 90
        0
 40
-0.6
 41
-30.0
 62
     5
 63
     7
421
 16777215
 74
     2
 91
        2
 64
     7
 65
   257
 75
     2
175
     1
 42
40.0
 92
        0
 66
   257
 43
1.0
 76
     1
 77
     6
 78
     2
 67
     7
 79
     3
170
     0
171
     0
290
     0
174
     0
 93
        1
 44
0.0
173
     0
291
     0
 45
0.0
  0
VISUALSTYLE
  5
26D
102
{ACAD_REACTORS
330
267
102
}
330
267
100
AcDbVisualStyle
  2
3dWireframe
 70
     5
 71
     0
 72
     2
 73
     0
 90
        0
 40
-0.6
 41
-30.0
 62
     5
 63
     7
421
 16777215
 74
     1
 91
        4
 64
     7
 65
   257
 75
     1
175
     1
 42
1.0
 92
        0
 66
   257
 43
1.0
 76
     1
 77
     6
 78
     2
 67
     7
 79
     5
170
     0
171
     0
290
     0
174
     0
 93
        1
 44
0.0
173
     0
291
     0
 45
0.0
  0
VISUALSTYLE
  5
26F
102
{ACAD_REACTORS
330
267
102
}
330
267
100
AcDbVisualStyle
  2
Basic
 70
     7
 71
     1
 72
     0
 73
     1
 90
        0
 40
-0.6
 41
-30.0
 62
     5
 63
     7
421
 16777215
 74
     0
 91
        4
 64
     7
 65
   257
 75
     1
175
     1
 42
1.0
 92
        8
 66
     7
 43
1.0
 76
     1
 77
     6
 78
     2
 67
     7
 79
     5
170
     0
171
     0
290
     0
174
     0
 93
        1
 44
0.0
173
     0
291
     1
 45
0.0
  0
VISUALSTYLE
  5
273
102
{ACAD_REACTORS
330
267
102
}
330
267
100
AcDbVisualStyle
  2
Brighten
 70
    12
 71
     2
 72
     2
 73
     0
 90
        0
 40
-0.6
 41
-30.0
 62
     5
 63
     7
421
 16777215
 74
     1
 91
        4
 64
     7
 65
   257
 75
     1
175
     1
 42
1.0
 92
        8
 66
     7
 43
1.0
 76
     1
 77
     6
 78
     2
 67
     7
 79
     5
170
     0
171
     0
290
     0
174
     0
 93
        1
 44
50.0
173
     0
291
     1
 45
0.0
  0
VISUALSTYLE
  5
277
102
{ACAD_REACTORS
330
267
102
}
330
267
100
AcDbVisualStyle
  2
ColorChange
 70
    16
 71
     2
 72
     2
 73
     3
 90
        0
 40
-0.6
 41
-30.0
 62
     5
 63
     8
421
  8421504
 74
     1
 91
        4
 64
     7
 65
   257
 75
     1
175
     1
 42
1.0
 92
        8
 66
     8
424
  8421504
 43
1.0
 76
     1
 77
     6
 78
     2
 67
     7
 79
     5
170
     0
171
     0
290
     0
174
     0
 93
        1
 44
0.0
173
     0
291
     1
 45
0.0
  0
VISUALSTYLE
  5
271
102
{ACAD_REACTORS
330
267
102
}
330
267
100
AcDbVisualStyle
  2
Conceptual
 70
     9
 71
     3
 72
     2
 73
     0
 90
        0
 40
-0.6
 41
-30.0
 62
     5
 63
     7
421
 16777215
 74
     2
 91
        2
 64
     7
 65
   257
 75
     1
175
     1
 42
40.0
 92
        8
 66
     7
 43
1.0
 76
     1
 77
     6
 78
     2
 67
     7
 79
     3
170
     0
171
     0
290
     0
174
     0
 93
        1
 44
0.0
173
     0
291
     0
 45
0.0
  0
VISUALSTYLE
  5
272
102
{ACAD_REACTORS
330
267
102
}
330
267
100
AcDbVisualStyle
  2
Dim
 70
    11
 71
     2
 72
     2
 73
     0
 90
        0
 40
-0.6
 41
-30.0
 62
     5
 63
     7
421
 16777215
 74
     1
 91
        4
 64
     7
 65
   257
 75
     1
175
     1
 42
1.0
 92
        8
 66
     7
 43
1.0
 76
     1
 77
     6
 78
     2
 67
     7
 79
     5
170
     0
171
     0
290
     0
174
     0
 93
        1
 44
-50.0
173
     0
291
     1
 45
0.0
  0
VISUALSTYLE
  5
10E2
102
{ACAD_REACTORS
330
267
102
}
330
267
100
AcDbVisualStyle
  2
EdgeColorOff
 70
    22
 71
     2
 72
     2
 73
     0
 90
        0
 40
0.6
 41
30.0
 62
     5
 63
     7
421
 16777215
 74
     1
 91
        4
 64
     7
 65
   257
 75
     1
175
     1
 42
1.0
 92
        8
 66
     7
 43
1.0
 76
     1
 77
     6
 78
     2
 67
     7
 79
     5
170
     0
171
     0
290
     0
174
     0
 93
        1
 44
0.0
173
     0
291
     1
 45
0.0
  0
VISUALSTYLE
  5
276
102
{ACAD_REACTORS
330
267
102
}
330
267
100
AcDbVisualStyle
  2
Facepattern
 70
    15
 71
     2
 72
     2
 73
     0
 90
        0
 40
-0.6
 41
-30.0
 62
     5
 63
     7
421
 16777215
 74
     1
 91
        4
 64
     7
 65
   257
 75
     1
175
     1
 42
1.0
 92
        8
 66
     7
 43
1.0
 76
     1
 77
     6
 78
     2
 67
     7
 79
     5
170
     0
171
     0
290
     0
174
     0
 93
        1
 44
0.0
173
     0
291
     1
 45
0.0
  0
VISUALSTYLE
  5
268
102
{ACAD_REACTORS
330
267
102
}
330
267
100
AcDbVisualStyle
  2
Flat
 70
     0
 71
     2
 72
     1
 73
     1
 90
        2
 40
-0.6
 41
30.0
 62
     5
 63
     7
421
 16777215
 74
     0
 91
        4
 64
     7
 65
   257
 75
     1
175
     1
 42
1.0
 92
        8
 66
     7
 43
1.0
 76
     1
 77
     6
 78
     2
 67
     7
 79
     5
170
     0
171
     0
290
     0
174
     0
 93
       13
 44
0.0
173
     0
291
     1
 45
0.0
  0
VISUALSTYLE
  5
269
102
{ACAD_REACTORS
330
267
102
}
330
267
100
AcDbVisualStyle
  2
FlatWithEdges
 70
     1
 71
     2
 72
     1
 73
     1
 90
        2
 40
-0.6
 41
30.0
 62
     5
 63
     7
421
 16777215
 74
     1
 91
        4
 64
     7
 65
   257
 75
     1
175
     1
 42
1.0
 92
        0
 66
   257
 43
1.0
 76
     1
 77
     6
 78
     2
 67
     7
 79
     5
170
     0
171
     0
290
     0
174
     0
 93
       13
 44
0.0
173
     0
291
     1
 45
0.0
  0
VISUALSTYLE
  5
26A
102
{ACAD_REACTORS
330
267
102
}
330
267
100
AcDbVisualStyle
  2
Gouraud
 70
     2
 71
     2
 72
     2
 73
     1
 90
        2
 40
-0.6
 41
30.0
 62
     5
 63
     7
421
 16777215
 74
     0
 91
        4
 64
     7
 65
   257
 75
     1
175
     1
 42
1.0
 92
        0
 66
     7
 43
1.0
 76
     1
 77
     6
 78
     2
 67
     7
 79
     5
170
     0
171
     0
290
     0
174
     0
 93
       13
 44
0.0
173
     0
291
     1
 45
0.0
  0
VISUALSTYLE
  5
26B
102
{ACAD_REACTORS
330
267
102
}
330
267
100
AcDbVisualStyle
  2
GouraudWithEdges
 70
     3
 71
     2
 72
     2
 73
     1
 90
        2
 40
-0.6
 41
30.0
 62
     5
 63
     7
421
 16777215
 74
     1
 91
        4
 64
     7
 65
   257
 75
     1
175
     1
 42
1.0
 92
        0
 66
   257
 43
1.0
 76
     1
 77
     6
 78
     2
 67
     7
 79
     5
170
     0
171
     0
290
     0
174
     0
 93
       13
 44
0.0
173
     0
291
     1
 45
0.0
  0
VISUALSTYLE
  5
10DF
102
{ACAD_REACTORS
330
267
102
}
330
267
100
AcDbVisualStyle
  2
Hidden
 70
     6
 71
     1
 72
     2
 73
     2
 90
        0
 40
0.6
 41
30.0
 62
     5
 63
     7
421
 16777215
 74
     2
 91
        2
 64
     7
 65
   257
 75
     2
175
     1
 42
40.0
 92
        0
 66
   257
 43
1.0
 76
     1
 77
     6
 78
     2
 67
     7
 79
     3
170
     0
171
     0
290
     0
174
     0
 93
        1
 44
0.0
173
     0
291
     0
 45
0.0
  0
VISUALSTYLE
  5
10E0
102
{ACAD_REACTORS
330
267
102
}
330
267
100
AcDbVisualStyle
  2
JitterOff
 70
    20
 71
     2
 72
     2
 73
     0
 90
        0
 40
0.6
 41
30.0
 62
     5
 63
     7
421
 16777215
 74
     1
 91
        4
 64
     7
 65
   257
 75
     1
175
     1
 42
1.0
 92
       10
 66
     7
 43
1.0
 76
     1
 77
     6
 78
     2
 67
     7
 79
     5
170
     0
171
     0
290
     0
174
     0
 93
        1
 44
0.0
173
     0
291
     1
 45
0.0
  0
VISUALSTYLE
  5
275
102
{ACAD_REACTORS
330
267
102
}
330
267
100
AcDbVisualStyle
  2
Linepattern
 70
    14
 71
     2
 72
     2
 73
     0
 90
        0
 40
-0.6
 41
-30.0
 62
     5
 63
     7
421
 16777215
 74
     1
 91
        4
 64
     7
 65
   257
 75
     7
175
     7
 42
1.0
 92
        8
 66
     7
 43
1.0
 76
     1
 77
     6
 78
     2
 67
     7
 79
     5
170
     0
171
     0
290
     0
174
     0
 93
        1
 44
0.0
173
     0
291
     1
 45
0.0
  0
VISUALSTYLE
  5
10E1
102
{ACAD_REACTORS
330
267
102
}
330
267
100
AcDbVisualStyle
  2
OverhangOff
 70
    21
 71
     2
 72
     2
 73
     0
 90
        0
 40
0.6
 41
30.0
 62
     5
 63
     7
421
 16777215
 74
     1
 91
        4
 64
     7
 65
   257
 75
     1
175
     1
 42
1.0
 92
        9
 66
     7
 43
1.0
 76
     1
 77
     6
 78
     2
 67
     7
 79
     5
170
     0
171
     0
290
     0
174
     0
 93
        1
 44
0.0
173
     0
291
     1
 45
0.0
  0
VISUALSTYLE
  5
270
102
{ACAD_REACTORS
330
267
102
}
330
267
100
AcDbVisualStyle
  2
Realistic
 70
     8
 71
     2
 72
     2
 73
     0
 90
        0
 40
-0.6
 41
-30.0
 62
     5
 63
     7
421
 16777215
 74
     1
 91
        0
 64
     7
 65
   257
 75
     1
175
     1
 42
1.0
 92
        8
 66
     8
424
  7895160
 43
1.0
 76
     1
 77
     6
 78
     2
 67
     7
 79
     5
170
     0
171
     0
290
     0
174
     0
 93
       13
 44
0.0
173
     0
291
     0
 45
0.0
  0
VISUALSTYLE
  5
10E7
102
{ACAD_REACTORS
330
267
102
}
330
267
100
AcDbVisualStyle
  2
Shaded
 70
    27
 71
     2
 72
     2
 73
     1
 90
        2
 40
0.6
 41
30.0
 62
     5
 63
     7
421
 16777215
 74
     0
 91
        4
 64
     7
 65
   257
 75
     1
175
     1
 42
1.0
 92
        8
 66
   257
 43
1.0
 76
     1
 77
     6
 78
     2
 67
     8
425
  7895160
 79
     3
170
     0
171
     0
290
     0
174
     0
 93
        5
 44
0.0
173
     0
291
     0
 45
0.0
  0
VISUALSTYLE
  5
10E6
102
{ACAD_REACTORS
330
267
102
}
330
267
100
AcDbVisualStyle
  2
Shaded with edges
 70
    26
 71
     2
 72
     2
 73
     1
 90
        2
 40
0.6
 41
30.0
 62
     5
 63
     7
421
 16777215
 74
     1
 91
       10
 64
     7
 65
   257
 75
     2
175
     1
 42
1.0
 92
        8
 66
   257
 43
1.0
 76
     1
 77
     6
 78
     2
 67
     7
 79
     3
170
     0
171
     0
290
     0
174
     0
 93
        5
 44
0.0
173
     0
291
     0
 45
0.0
  0
VISUALSTYLE
  5
10E3
102
{ACAD_REACTORS
330
267
102
}
330
267
100
AcDbVisualStyle
  2
Shades of Gray
 70
    23
 71
     2
 72
     2
 73
     3
 90
        0
 40
0.6
 41
30.0
 62
     5
 63
     7
421
 16777215
 74
     2
 91
        2
 64
     7
 65
     7
 75
     1
175
     1
 42
40.0
 92
        8
 66
     7
 43
1.0
 76
     1
 77
     6
 78
     2
 67
     7
 79
     3
170
     0
171
     0
290
     0
174
     0
 93
        1
 44
0.0
173
     0
291
     0
 45
0.0
  0
VISUALSTYLE
  5
10E4
102
{ACAD_REACTORS
330
267
102
}
330
267
100
AcDbVisualStyle
  2
Sketchy
 70
    24
 71
     1
 72
     2
 73
     2
 90
        0
 40
0.6
 41
30.0
 62
     5
 63
     7
421
 16777215
 74
     2
 91
        2
 64
     7
 65
     7
 75
     1
175
     1
 42
40.0
 92
       11
 66
     7
 43
1.0
 76
     1
 77
     6
 78
     2
 67
     7
 79
     6
170
     0
171
     0
290
     0
174
     0
 93
        1
 44
0.0
173
     0
291
     0
 45
0.0
  0
VISUALSTYLE
  5
274
102
{ACAD_REACTORS
330
267
102
}
330
267
100
AcDbVisualStyle
  2
Thicken
 70
    13
 71
     2
 72
     2
 73
     0
 90
        0
 40
-0.6
 41
-30.0
 62
     5
 63
     7
421
 16777215
 74
     1
 91
        4
 64
     7
 65
   257
 75
     1
175
     1
 42
1.0
 92
       12
 66
     7
 43
1.0
 76
     1
 77
     6
 78
     2
 67
     7
 79
     5
170
     0
171
     0
290
     0
174
     0
 93
        1
 44
0.0
173
     0
291
     1
 45
0.0
  0
VISUALSTYLE
  5
10DE
102
{ACAD_REACTORS
330
267
102
}
330
267
100
AcDbVisualStyle
  2
Wireframe
 70
     5
 71
     0
 72
     2
 73
     0
 90
        0
 40
0.6
 41
30.0
 62
     5
 63
     7
421
 16777215
 74
     1
 91
        4
 64
     7
 65
   257
 75
     1
175
     1
 42
1.0
 92
        0
 66
   257
 43
1.0
 76
     1
 77
     6
 78
     2
 67
     7
 79
     3
170
     0
171
     0
290
     0
174
     0
 93
        1
 44
0.0
173
     0
291
     0
 45
0.0
  0
VISUALSTYLE
  5
10E5
102
{ACAD_REACTORS
330
267
102
}
330
267
100
AcDbVisualStyle
  2
X-Ray
 70
    25
 71
     2
 72
     2
 73
     1
 90
        1
 40
0.5
 41
30.0
 62
     5
 63
     7
421
 16777215
 74
     1
 91
        0
 64
     7
 65
   257
 75
     1
175
     1
 42
1.0
 92
        8
 66
     7
 43
1.0
 76
     1
 77
     6
 78
     2
 67
     7
 79
     3
170
     0
171
     0
290
     0
174
     0
 93
       13
 44
0.0
173
     0
291
     0
 45
0.0
  0
DICTIONARYVAR
  5
331
102
{ACAD_REACTORS
330
330
102
}
330
330
100
DictionaryVariables
280
     0
  1
1:1
  0
DICTIONARYVAR
  5
4741
102
{ACAD_REACTORS
330
330
102
}
330
330
100
DictionaryVariables
280
     0
  1
Standard
  0
DICTIONARYVAR
  5
335
102
{ACAD_REACTORS
330
330
102
}
330
330
100
DictionaryVariables
280
     0
  1
Standard
  0
DICTIONARYVAR
  5
109E
102
{ACAD_REACTORS
330
330
102
}
330
330
100
DictionaryVariables
280
     0
  1
0
  0
FIELD
  5
52FF
102
{ACAD_REACTORS
330
52FE
102
}
330
52FE
100
AcDbField
  1
_text
  2
{%<\_FldIdx 0>%N}
 90
        1
360
5300
 97
        0
 91
       63
 92
        0
 94
        8
 95
        2
 96
        0
300

 93
        1
  6
ACFD_FIELDTEXT_CHECKSUM
 93
        2
 90
        2
140
4559.0
 94
        0
300

302

304
ACVALUE_END
  7
ACFD_FIELD_VALUE
 93
        6
 90
        4
  1
{20170907N}
 94
        0
300

302

304
ACVALUE_END
301
{20170907N}
 98
       11
  0
DICTIONARY
  5
684A
330
279
100
AcDbDictionary
280
     1
281
     1
  3
ACAD_ROUNDTRIP_2008_TABLESTYLE_CELLSTYLEMAP
360
684B
  0
FIELD
  5
5300
330
52FF
100
AcDbField
  1
AcVar
  2
\AcVar Date \f "yyyyMMdd"
 90
        0
 97
        0
 91
       63
 92
        0
 94
        8
 95
        2
 96
        0
300

 93
        1
  6
Variable
 93
        2
 90
        4
  1
Date
 94
        0
300

302

304
ACVALUE_END
  7
ACFD_FIELD_VALUE
 93
        6
 90
        8
 92
       16
310
E1070900000007000B003A0036000000
 94
        0
300
yyyyMMdd
302

304
ACVALUE_END
301
20170907
 98
        8
  0
CELLSTYLEMAP
  5
684B
102
{ACAD_REACTORS
330
684A
102
}
330
684A
100
AcDbCellStyleMap
 90
        3
300
CELLSTYLE
  1
TABLEFORMAT_BEGIN
 90
        5
170
     1
 91
        0
 92
    32768
 62
   257
 93
        1
300
CONTENTFORMAT
  1
CONTENTFORMAT_BEGIN
 90
        0
 91
        0
 92
        4
 93
        0
300

 40
0.0
140
1.0
 94
        5
 62
     0
340
17
144
6.0
309
CONTENTFORMAT_END
171
     1
301
MARGIN
  1
CELLMARGIN_BEGIN
 40
0.06
 40
0.06
 40
0.06
 40
0.06
 40
0.18
 40
0.18
309
CELLMARGIN_END
 94
        6
 95
        1
302
GRIDFORMAT
  1
GRIDFORMAT_BEGIN
 90
        0
 91
        1
 62
     0
 92
       -2
340
0
 93
        0
 40
0.045
309
GRIDFORMAT_END
 95
        2
302
GRIDFORMAT
  1
GRIDFORMAT_BEGIN
 90
        0
 91
        1
 62
     0
 92
       -2
340
0
 93
        0
 40
0.045
309
GRIDFORMAT_END
 95
        4
302
GRIDFORMAT
  1
GRIDFORMAT_BEGIN
 90
        0
 91
        1
 62
     0
 92
       -2
340
0
 93
        0
 40
0.045
309
GRIDFORMAT_END
 95
        8
302
GRIDFORMAT
  1
GRIDFORMAT_BEGIN
 90
        0
 91
        1
 62
     0
 92
       -2
340
0
 93
        0
 40
0.045
309
GRIDFORMAT_END
 95
       16
302
GRIDFORMAT
  1
GRIDFORMAT_BEGIN
 90
        0
 91
        1
 62
     0
 92
       -2
340
0
 93
        0
 40
0.045
309
GRIDFORMAT_END
 95
       32
302
GRIDFORMAT
  1
GRIDFORMAT_BEGIN
 90
        0
 91
        1
 62
     0
 92
       -2
340
0
 93
        0
 40
0.045
309
GRIDFORMAT_END
309
TABLEFORMAT_END
  1
CELLSTYLE_BEGIN
 90
        1
 91
        1
300
_TITLE
309
CELLSTYLE_END
300
CELLSTYLE
  1
TABLEFORMAT_BEGIN
 90
        5
170
     1
 91
        0
 92
        0
 62
   257
 93
        1
300
CONTENTFORMAT
  1
CONTENTFORMAT_BEGIN
 90
        0
 91
        0
 92
        4
 93
        0
300

 40
0.0
140
1.0
 94
        5
 62
     0
340
17
144
4.5
309
CONTENTFORMAT_END
171
     1
301
MARGIN
  1
CELLMARGIN_BEGIN
 40
0.06
 40
0.06
 40
0.06
 40
0.06
 40
0.18
 40
0.18
309
CELLMARGIN_END
 94
        6
 95
        1
302
GRIDFORMAT
  1
GRIDFORMAT_BEGIN
 90
        0
 91
        1
 62
     0
 92
       -2
340
0
 93
        0
 40
0.045
309
GRIDFORMAT_END
 95
        2
302
GRIDFORMAT
  1
GRIDFORMAT_BEGIN
 90
        0
 91
        1
 62
     0
 92
       -2
340
0
 93
        0
 40
0.045
309
GRIDFORMAT_END
 95
        4
302
GRIDFORMAT
  1
GRIDFORMAT_BEGIN
 90
        0
 91
        1
 62
     0
 92
       -2
340
0
 93
        0
 40
0.045
309
GRIDFORMAT_END
 95
        8
302
GRIDFORMAT
  1
GRIDFORMAT_BEGIN
 90
        0
 91
        1
 62
     0
 92
       -2
340
0
 93
        0
 40
0.045
309
GRIDFORMAT_END
 95
       16
302
GRIDFORMAT
  1
GRIDFORMAT_BEGIN
 90
        0
 91
        1
 62
     0
 92
       -2
340
0
 93
        0
 40
0.045
309
GRIDFORMAT_END
 95
       32
302
GRIDFORMAT
  1
GRIDFORMAT_BEGIN
 90
        0
 91
        1
 62
     0
 92
       -2
340
0
 93
        0
 40
0.045
309
GRIDFORMAT_END
309
TABLEFORMAT_END
  1
CELLSTYLE_BEGIN
 90
        2
 91
        1
300
_HEADER
309
CELLSTYLE_END
300
CELLSTYLE
  1
TABLEFORMAT_BEGIN
 90
        5
170
     1
 91
        0
 92
        0
 62
   257
 93
        1
300
CONTENTFORMAT
  1
CONTENTFORMAT_BEGIN
 90
        0
 91
        0
 92
        4
 93
        0
300

 40
0.0
140
1.0
 94
        2
 62
     0
340
17
144
4.5
309
CONTENTFORMAT_END
171
     1
301
MARGIN
  1
CELLMARGIN_BEGIN
 40
0.06
 40
0.06
 40
0.06
 40
0.06
 40
0.18
 40
0.18
309
CELLMARGIN_END
 94
        6
 95
        1
302
GRIDFORMAT
  1
GRIDFORMAT_BEGIN
 90
        0
 91
        1
 62
     0
 92
       -2
340
0
 93
        0
 40
0.045
309
GRIDFORMAT_END
 95
        2
302
GRIDFORMAT
  1
GRIDFORMAT_BEGIN
 90
        0
 91
        1
 62
     0
 92
       -2
340
0
 93
        0
 40
0.045
309
GRIDFORMAT_END
 95
        4
302
GRIDFORMAT
  1
GRIDFORMAT_BEGIN
 90
        0
 91
        1
 62
     0
 92
       -2
340
0
 93
        0
 40
0.045
309
GRIDFORMAT_END
 95
        8
302
GRIDFORMAT
  1
GRIDFORMAT_BEGIN
 90
        0
 91
        1
 62
     0
 92
       -2
340
0
 93
        0
 40
0.045
309
GRIDFORMAT_END
 95
       16
302
GRIDFORMAT
  1
GRIDFORMAT_BEGIN
 90
        0
 91
        1
 62
     0
 92
       -2
340
0
 93
        0
 40
0.045
309
GRIDFORMAT_END
 95
       32
302
GRIDFORMAT
  1
GRIDFORMAT_BEGIN
 90
        0
 91
        1
 62
     0
 92
       -2
340
0
 93
        0
 40
0.045
309
GRIDFORMAT_END
309
TABLEFORMAT_END
  1
CELLSTYLE_BEGIN
 90
        3
 91
        2
300
_DATA
309
CELLSTYLE_END
  0
ENDSEC
  0
EOF
