  0
SECTION
  2
HEADER
  9
$ACADVER
  1
AC1021
  9
$ACADMAINTVER
 70
    25
  9
$DWGCODEPAGE
  3
ANSI_932
  9
$LASTSAVEDBY
  1
howeNelson
  9
$INSBASE
 10
0.0
 20
0.0
 30
0.0
  9
$EXTMIN
 10
0.0
 20
0.0
 30
0.0
  9
$EXTMAX
 10
1465.28790925554
 20
420.0
 30
0.0
  9
$LIMMIN
 10
0.0
 20
0.0
  9
$LIMMAX
 10
593.9999999999999
 20
420.0
  9
$ORTHOMODE
 70
     0
  9
$REGENMODE
 70
     1
  9
$FILLMODE
 70
     1
  9
$QTEXTMODE
 70
     0
  9
$MIRRTEXT
 70
     1
  9
$LTSCALE
 40
0.5
  9
$ATTMODE
 70
     1
  9
$TEXTSIZE
 40
136.139079520063
  9
$TRACEWID
 40
1.0
  9
$TEXTSTYLE
  7
ＭＳ ゴシック
  9
$CLAYER
  8
寸法
  9
$CELTYPE
  6
ByLayer
  9
$CECOLOR
 62
   256
  9
$CELTSCALE
 40
1.0
  9
$DISPSILH
 70
     0
  9
$DIMSCALE
 40
1.0
  9
$DIMASZ
 40
2.0
  9
$DIMEXO
 40
5.0
  9
$DIMDLI
 40
0.9999999999999999
  9
$DIMRND
 40
0.0
  9
$DIMDLE
 40
0.0
  9
$DIMEXE
 40
0.0
  9
$DIMTP
 40
0.0
  9
$DIMTM
 40
0.0
  9
$DIMTXT
 40
5.0
  9
$DIMCEN
 40
0.0
  9
$DIMTSZ
 40
0.0
  9
$DIMTOL
 70
     0
  9
$DIMLIM
 70
     0
  9
$DIMTIH
 70
     0
  9
$DIMTOH
 70
     0
  9
$DIMSE1
 70
     0
  9
$DIMSE2
 70
     0
  9
$DIMTAD
 70
     1
  9
$DIMZIN
 70
    11
  9
$DIMBLK
  1
DOT
  9
$DIMASO
 70
     1
  9
$DIMSHO
 70
     1
  9
$DIMPOST
  1
<>
  9
$DIMAPOST
  1
[]
  9
$DIMALT
 70
     0
  9
$DIMALTD
 70
     1
  9
$DIMALTF
 40
1.0
  9
$DIMLFAC
 40
1.0
  9
$DIMTOFL
 70
     0
  9
$DIMTVP
 40
0.0
  9
$DIMTIX
 70
     1
  9
$DIMSOXD
 70
     0
  9
$DIMSAH
 70
     0
  9
$DIMBLK1
  1

  9
$DIMBLK2
  1

  9
$DIMSTYLE
  2
tfrom線あり
  9
$DIMCLRD
 70
     0
  9
$DIMCLRE
 70
     0
  9
$DIMCLRT
 70
     0
  9
$DIMTFAC
 40
1.0
  9
$DIMGAP
 40
5.0
  9
$DIMJUST
 70
     0
  9
$DIMSD1
 70
     0
  9
$DIMSD2
 70
     0
  9
$DIMTOLJ
 70
     1
  9
$DIMTZIN
 70
    11
  9
$DIMALTZ
 70
    11
  9
$DIMALTTZ
 70
    11
  9
$DIMUPT
 70
     0
  9
$DIMDEC
 70
     0
  9
$DIMTDEC
 70
     1
  9
$DIMALTU
 70
     2
  9
$DIMALTTD
 70
     2
  9
$DIMTXSTY
  7
ＭＳ ゴシック
  9
$DIMAUNIT
 70
     0
  9
$DIMADEC
 70
     2
  9
$DIMALTRND
 40
0.0
  9
$DIMAZIN
 70
     0
  9
$DIMDSEP
 70
    46
  9
$DIMATFIT
 70
     0
  9
$DIMFRAC
 70
     2
  9
$DIMLDRBLK
  1
DOT
  9
$DIMLUNIT
 70
     2
  9
$DIMLWD
 70
    -2
  9
$DIMLWE
 70
    -2
  9
$DIMTMOVE
 70
     0
  9
$DIMFXL
 40
1.0
  9
$DIMFXLON
 70
     0
  9
$DIMJOGANG
 40
0.7853981633974483
  9
$DIMTFILL
 70
     0
  9
$DIMTFILLCLR
 70
     0
  9
$DIMARCSYM
 70
     0
  9
$DIMLTYPE
  6

  9
$DIMLTEX1
  6

  9
$DIMLTEX2
  6

  9
$LUNITS
 70
     2
  9
$LUPREC
 70
     0
  9
$SKETCHINC
 40
0.1
  9
$FILLETRAD
 40
0.0
  9
$AUNITS
 70
     0
  9
$AUPREC
 70
     0
  9
$MENU
  1
acad
  9
$ELEVATION
 40
0.0
  9
$PELEVATION
 40
0.0
  9
$THICKNESS
 40
0.0
  9
$LIMCHECK
 70
     0
  9
$CHAMFERA
 40
0.0
  9
$CHAMFERB
 40
0.0
  9
$CHAMFERC
 40
0.0
  9
$CHAMFERD
 40
0.0
  9
$SKPOLY
 70
     0
  9
$TDCREATE
 40
2447893.375
  9
$TDUCREATE
 40
0.0
  9
$TDUPDATE
 40
2457996.726648055
  9
$TDUUPDATE
 40
2457996.351648055
  9
$TDINDWG
 40
0.027663125
  9
$TDUSRTIMER
 40
2457996.341925069
  9
$USRTIMER
 70
     1
  9
$ANGBASE
 50
0.0
  9
$ANGDIR
 70
     0
  9
$PDMODE
 70
     1
  9
$PDSIZE
 40
-2.0
  9
$PLINEWID
 40
0.0
  9
$SPLFRAME
 70
     0
  9
$SPLINETYPE
 70
     6
  9
$SPLINESEGS
 70
     8
  9
$HANDSEED
  5
5EC6
  9
$SURFTAB1
 70
     6
  9
$SURFTAB2
 70
     6
  9
$SURFTYPE
 70
     6
  9
$SURFU
 70
     6
  9
$SURFV
 70
     6
  9
$UCSBASE
  2

  9
$UCSNAME
  2

  9
$UCSORG
 10
0.0
 20
0.0
 30
0.0
  9
$UCSXDIR
 10
1.0
 20
0.0
 30
0.0
  9
$UCSYDIR
 10
0.0
 20
1.0
 30
0.0
  9
$UCSORTHOREF
  2

  9
$UCSORTHOVIEW
 70
     1
  9
$UCSORGTOP
 10
0.0
 20
0.0
 30
0.0
  9
$UCSORGBOTTOM
 10
0.0
 20
0.0
 30
0.0
  9
$UCSORGLEFT
 10
0.0
 20
0.0
 30
0.0
  9
$UCSORGRIGHT
 10
0.0
 20
0.0
 30
0.0
  9
$UCSORGFRONT
 10
0.0
 20
0.0
 30
0.0
  9
$UCSORGBACK
 10
0.0
 20
0.0
 30
0.0
  9
$PUCSBASE
  2

  9
$PUCSNAME
  2

  9
$PUCSORG
 10
0.0
 20
0.0
 30
0.0
  9
$PUCSXDIR
 10
1.0
 20
0.0
 30
0.0
  9
$PUCSYDIR
 10
0.0
 20
1.0
 30
0.0
  9
$PUCSORTHOREF
  2

  9
$PUCSORTHOVIEW
 70
     0
  9
$PUCSORGTOP
 10
0.0
 20
0.0
 30
0.0
  9
$PUCSORGBOTTOM
 10
0.0
 20
0.0
 30
0.0
  9
$PUCSORGLEFT
 10
0.0
 20
0.0
 30
0.0
  9
$PUCSORGRIGHT
 10
0.0
 20
0.0
 30
0.0
  9
$PUCSORGFRONT
 10
0.0
 20
0.0
 30
0.0
  9
$PUCSORGBACK
 10
0.0
 20
0.0
 30
0.0
  9
$USERI1
 70
     0
  9
$USERI2
 70
     0
  9
$USERI3
 70
     0
  9
$USERI4
 70
     0
  9
$USERI5
 70
     0
  9
$USERR1
 40
0.0
  9
$USERR2
 40
0.0
  9
$USERR3
 40
0.0
  9
$USERR4
 40
0.0
  9
$USERR5
 40
0.0
  9
$WORLDVIEW
 70
     1
  9
$SHADEDGE
 70
     3
  9
$SHADEDIF
 70
    70
  9
$TILEMODE
 70
     1
  9
$MAXACTVP
 70
    64
  9
$PINSBASE
 10
0.0
 20
0.0
 30
0.0
  9
$PLIMCHECK
 70
     0
  9
$PEXTMIN
 10
0.0
 20
0.0
 30
0.0
  9
$PEXTMAX
 10
0.0
 20
0.0
 30
0.0
  9
$PLIMMIN
 10
-7.5
 20
-20.0
  9
$PLIMMAX
 10
412.5
 20
277.0
  9
$UNITMODE
 70
     0
  9
$VISRETAIN
 70
     0
  9
$PLINEGEN
 70
     1
  9
$PSLTSCALE
 70
     0
  9
$TREEDEPTH
 70
  3020
  9
$CMLSTYLE
  2
Standard
  9
$CMLJUST
 70
     0
  9
$CMLSCALE
 40
1.0
  9
$PROXYGRAPHICS
 70
     0
  9
$MEASUREMENT
 70
     1
  9
$CELWEIGHT
370
    -1
  9
$ENDCAPS
280
     0
  9
$JOINSTYLE
280
     0
  9
$LWDISPLAY
290
     1
  9
$INSUNITS
 70
     4
  9
$HYPERLINKBASE
  1

  9
$STYLESHEET
  1

  9
$XEDIT
290
     1
  9
$CEPSNTYPE
380
     0
  9
$PSTYLEMODE
290
     1
  9
$FINGERPRINTGUID
  2

  9
$VERSIONGUID
  2

  9
$EXTNAMES
290
     1
  9
$PSVPSCALE
 40
0.0
  9
$OLESTARTUP
290
     0
  9
$SORTENTS
280
   127
  9
$INDEXCTL
280
     0
  9
$HIDETEXT
280
     1
  9
$XCLIPFRAME
290
     0
  9
$HALOGAP
280
     0
  9
$OBSCOLOR
 70
   257
  9
$OBSLTYPE
280
     0
  9
$INTERSECTIONDISPLAY
280
     0
  9
$INTERSECTIONCOLOR
 70
   257
  9
$DIMASSOC
280
     2
  9
$PROJECTNAME
  1

  9
$CAMERADISPLAY
290
     0
  9
$LENSLENGTH
 40
50.0
  9
$CAMERAHEIGHT
 40
0.0
  9
$STEPSPERSEC
 40
2.0
  9
$STEPSIZE
 40
6.0
  9
$3DDWFPREC
 40
2.0
  9
$PSOLWIDTH
 40
0.25
  9
$PSOLHEIGHT
 40
4.0
  9
$LOFTANG1
 40
1.570796326794897
  9
$LOFTANG2
 40
1.570796326794897
  9
$LOFTMAG1
 40
0.0
  9
$LOFTMAG2
 40
0.0
  9
$LOFTPARAM
 70
     7
  9
$LOFTNORMALS
280
     1
  9
$LATITUDE
 40
37.795
  9
$LONGITUDE
 40
-122.394
  9
$NORTHDIRECTION
 40
0.0
  9
$TIMEZONE
 70
 -8000
  9
$LIGHTGLYPHDISPLAY
280
     1
  9
$TILEMODELIGHTSYNCH
280
     1
  9
$SOLIDHIST
280
     1
  9
$SHOWHIST
280
     1
  9
$DWFFRAME
280
     2
  9
$DGNFRAME
280
     2
  9
$REALWORLDSCALE
290
     1
  9
$INTERFERECOLOR
 62
   256
  9
$CSHADOW
280
     0
  9
$SHADOWPLANELOCATION
 40
0.0
  0
ENDSEC
  0
SECTION
  2
CLASSES
  0
CLASS
  1
LWPOLYLINE
  2
AcDbPolyline
  3
ObjectDBX Classes
 90
        0
 91
        1
280
     0
281
     1
  0
CLASS
  1
IMAGE
  2
AcDbRasterImage
  3
ISM
 90
      127
 91
        5
280
     0
281
     1
  0
CLASS
  1
OLE2FRAME
  2
AcDbOle2Frame
  3
ObjectDBX Classes
 90
        0
 91
        1
280
     0
281
     1
  0
CLASS
  1
HATCH
  2
AcDbHatch
  3
ObjectDBX Classes
 90
        0
 91
        1
280
     0
281
     1
  0
CLASS
  1
DICTIONARYVAR
  2
AcDbDictionaryVar
  3
ObjectDBX Classes
 90
        0
 91
        4
280
     0
281
     0
  0
CLASS
  1
RASTERVARIABLES
  2
AcDbRasterVariables
  3
ISM
 90
        0
 91
        4
280
     0
281
     0
  0
CLASS
  1
IMAGEDEF
  2
AcDbRasterImageDef
  3
ISM
 90
        0
 91
        4
280
     0
281
     0
  0
CLASS
  1
IMAGEDEF_REACTOR
  2
AcDbRasterImageDefReactor
  3
ISM
 90
        1
 91
        4
280
     0
281
     0
  0
CLASS
  1
IDBUFFER
  2
AcDbIdBuffer
  3
ObjectDBX Classes
 90
        0
 91
        4
280
     0
281
     0
  0
CLASS
  1
SPATIAL_FILTER
  2
AcDbSpatialFilter
  3
ObjectDBX Classes
 90
        0
 91
        4
280
     0
281
     0
  0
CLASS
  1
XRECORD
  2
AcDbXrecord
  3
ObjectDBX Classes
 90
        0
 91
        1
280
     0
281
     0
  0
CLASS
  1
SORTENTSTABLE
  2
AcDbSortentsTable
  3
ObjectDBX Classes
 90
        0
 91
        4
280
     0
281
     0
  0
CLASS
  1
LAYER_INDEX
  2
AcDbLayerIndex
  3
ObjectDBX Classes
 90
        0
 91
        4
280
     0
281
     0
  0
CLASS
  1
SPATIAL_INDEX
  2
AcDbSpatialIndex
  3
AutoCAD 2000
 90
        0
 91
        4
280
     0
281
     0
  0
CLASS
  1
OBJECT_PTR
  2
CAseDLPNTableRecord
  3
ASE-LPNTableRecord
 90
        1
 91
        4
280
     0
281
     0
  0
CLASS
  1
LAYOUT
  2
AcDbLayout
  3
ObjectDBX Classes
 90
        0
 91
        1
280
     0
281
     0
  0
CLASS
  1
PLOTSETTINGS
  2
AcDbPlotSettings
  3
ObjectDBX Classes
 90
        0
 91
        4
280
     0
281
     0
  0
CLASS
  1
ACDBDICTIONARYWDFLT
  2
AcDbDictionaryWithDefault
  3
ObjectDBX Classes
 90
        0
 91
        4
280
     0
281
     0
  0
CLASS
  1
ACDBPLACEHOLDER
  2
AcDbPlaceHolder
  3
ObjectDBX Classes
 90
        0
 91
        1
280
     0
281
     0
  0
CLASS
  1
SCALE
  2
AcDbScale
  3
ObjectDBX Classes
 90
     1153
 91
        4
280
     0
281
     0
  0
CLASS
  1
MATERIAL
  2
AcDbMaterial
  3
ObjectDBX Classes
 90
     1153
 91
        4
280
     0
281
     0
  0
CLASS
  1
VISUALSTYLE
  2
AcDbVisualStyle
  3
ObjectDBX Classes
 90
     4095
 91
        4
280
     0
281
     0
  0
CLASS
  1
TABLESTYLE
  2
AcDbTableStyle
  3
ObjectDBX Classes
 90
     4095
 91
        4
280
     0
281
     0
  0
CLASS
  1
DIMASSOC
  2
AcDbDimAssoc
  3
"AcDbDimAssoc|Product Desc:     AcDim ARX App For Dimension|Company:          Autodesk, Inc.|WEB Address:      www.autodesk.com"
 90
        0
 91
        4
280
     0
281
     0
  0
CLASS
  1
CELLSTYLEMAP
  2
AcDbCellStyleMap
  3
ObjectDBX Classes
 90
     1152
 91
        4
280
     0
281
     0
  0
CLASS
  1
SUN
  2
AcDbSun
  3
SCENEOE
 90
     1153
 91
        4
280
     0
281
     0
  0
CLASS
  1
MLEADERSTYLE
  2
AcDbMLeaderStyle
  3
ACDB_MLEADERSTYLE_CLASS
 90
     4095
 91
        4
280
     0
281
     0
  0
CLASS
  1
FIELD
  2
AcDbField
  3
ObjectDBX Classes
 90
     1152
 91
        4
280
     0
281
     0
  0
CLASS
  1
FIELDLIST
  2
AcDbFieldList
  3
ObjectDBX Classes
 90
     1152
 91
        4
280
     0
281
     0
  0
ENDSEC
  0
SECTION
  2
TABLES
  0
TABLE
  2
VPORT
  5
7
330
0
100
AcDbSymbolTable
 70
     1
  0
VPORT
  5
15
330
7
100
AcDbSymbolTableRecord
100
AcDbViewportTableRecord
  2
*ACTIVE
 70
     0
 10
0.0
 20
0.0
 11
1.0
 21
1.0
 12
296.9999999999999
 22
210.0
 13
0.0
 23
0.0
 14
1.0
 24
1.0
 15
0.0
 25
0.0
 16
0.0
 26
0.0
 36
1.0
 17
0.0
 27
0.0
 37
0.0
 40
428.4
 41
2.149315068493151
 42
50.0
 43
0.0
 44
0.0
 50
0.0
 51
0.0
 71
    16
 72
  2000
 73
     1
 74
     1
 75
     0
 76
     0
 77
     0
 78
     1
281
     0
 65
     0
110
0.0
120
0.0
130
0.0
111
1.0
121
0.0
131
0.0
112
0.0
122
1.0
132
0.0
 79
     0
146
0.0
348
26C
 60
     3
 61
     5
292
     1
282
     1
141
0.0
142
0.0
 63
   256
361
10E8
  0
ENDTAB
  0
TABLE
  2
LTYPE
  5
4
330
0
100
AcDbSymbolTable
 70
     3
  0
LTYPE
  5
11
330
4
100
AcDbSymbolTableRecord
100
AcDbLinetypeTableRecord
  2
ByBlock
 70
     0
  3

 72
    65
 73
     0
 40
0.0
  0
LTYPE
  5
12
330
4
100
AcDbSymbolTableRecord
100
AcDbLinetypeTableRecord
  2
ByLayer
 70
     0
  3
Solid line
 72
    65
 73
     0
 40
0.0
  0
LTYPE
  5
13
330
4
100
AcDbSymbolTableRecord
100
AcDbLinetypeTableRecord
  2
Continuous
 70
     0
  3
Solid line
 72
    65
 73
     0
 40
0.0
  0
LTYPE
  5
88D
330
4
100
AcDbSymbolTableRecord
100
AcDbLinetypeTableRecord
  2
CENTER
 70
     0
  3
----------  --  ----------  --  
 72
    65
 73
     4
 40
20.0
 49
12.5
 74
     0
 49
-2.5
 74
     0
 49
2.5
 74
     0
 49
-2.5
 74
     0
  0
LTYPE
  5
12C7
330
4
100
AcDbSymbolTableRecord
100
AcDbLinetypeTableRecord
  2
HIDDEN
 70
     0
  3
Hidden _ _ _ _ _ _ _ _ _ _ _ _ _ _ _ _ _ _ _ _ 
 72
    65
 73
     2
 40
9.524999999999999
 49
6.35
 74
     0
 49
-3.175
 74
     0
  0
ENDTAB
  0
TABLE
  2
LAYER
  5
2
102
{ACAD_XDICTIONARY
360
2E1
102
}
330
0
100
AcDbSymbolTable
 70
    11
  0
LAYER
  5
14
330
2
100
AcDbSymbolTableRecord
100
AcDbLayerTableRecord
  2
0
 70
     0
 62
     7
  6
Continuous
370
    -3
390
1D
347
266
  0
LAYER
  5
4A
330
2
100
AcDbSymbolTableRecord
100
AcDbLayerTableRecord
  2
Defpoints
 70
     0
 62
     7
  6
Continuous
290
     0
370
    -3
390
1D
347
266
  0
LAYER
  5
12CE
330
2
100
AcDbSymbolTableRecord
100
AcDbLayerTableRecord
  2
寸法
 70
     0
 62
     7
  6
Continuous
370
    13
390
1D
347
266
1001
AcAecLayerStandard
1000

1000

  0
LAYER
  5
12CF
330
2
100
AcDbSymbolTableRecord
100
AcDbLayerTableRecord
  2
モデル
 70
     0
 62
     7
  6
Continuous
370
    20
390
1D
347
266
1001
AcAecLayerStandard
1000

1000

  0
LAYER
  5
142A
330
2
100
AcDbSymbolTableRecord
100
AcDbLayerTableRecord
  2
テンプレート
 70
     0
 62
     7
  6
Continuous
370
    20
390
1D
347
266
1001
AcAecLayerStandard
1000

1000

  0
LAYER
  5
1D5C
330
2
100
AcDbSymbolTableRecord
100
AcDbLayerTableRecord
  2
TFORMLOGO
 70
     0
 62
     7
  6
Continuous
370
    20
390
1D
347
266
  0
LAYER
  5
3848
330
2
100
AcDbSymbolTableRecord
100
AcDbLayerTableRecord
  2
PRINT BORDER
 70
     0
 62
     4
  6
Continuous
290
     0
370
    -3
390
1D
347
266
1001
AcAecLayerStandard
1000

1000

  0
LAYER
  5
43A6
330
2
100
AcDbSymbolTableRecord
100
AcDbLayerTableRecord
  2
CutoutOverlay
 70
     0
 62
     7
  6
Continuous
370
    20
390
1D
347
266
1001
AcAecLayerStandard
1000

1000

  0
LAYER
  5
43A7
330
2
100
AcDbSymbolTableRecord
100
AcDbLayerTableRecord
  2
CutoutUnderlay
 70
     0
 62
   254
  6
Continuous
370
    20
390
1D
347
266
1001
AcAecLayerStandard
1000

1000

  0
LAYER
  5
53DC
330
2
100
AcDbSymbolTableRecord
100
AcDbLayerTableRecord
  2
レイヤー 1
 70
     0
 62
     7
  6
Continuous
370
    -3
390
1D
347
266
  0
LAYER
  5
5A20
330
2
100
AcDbSymbolTableRecord
100
AcDbLayerTableRecord
  2
HIDDEN
 70
     0
 62
     7
  6
HIDDEN
370
    20
390
1D
347
266
1001
AcAecLayerStandard
1000

1000

  0
ENDTAB
  0
TABLE
  2
STYLE
  5
3
330
0
100
AcDbSymbolTable
 70
     2
  0
STYLE
  5
17
330
3
100
AcDbSymbolTableRecord
100
AcDbTextStyleTableRecord
  2
Standard
 70
     0
 40
0.0
 41
1.0
 50
0.0
 71
     0
 42
2.5
  3
txt
  4
BIGFONT.SHX
  0
STYLE
  5
39
330
3
100
AcDbSymbolTableRecord
100
AcDbTextStyleTableRecord
  2
ＭＳ ゴシック
 70
     0
 40
0.0
 41
1.0
 50
0.0
 71
     0
 42
136.139079520063
  3
msgothic.ttc
  4
ＭＳ ゴシック
1001
ACAD
1000
ＭＳ ゴシック
1071
        0
  0
ENDTAB
  0
TABLE
  2
VIEW
  5
5
330
0
100
AcDbSymbolTable
 70
     0
  0
ENDTAB
  0
TABLE
  2
UCS
  5
6
330
0
100
AcDbSymbolTable
 70
     0
  0
ENDTAB
  0
TABLE
  2
APPID
  5
8
330
0
100
AcDbSymbolTable
 70
     3
  0
APPID
  5
16
330
8
100
AcDbSymbolTableRecord
100
AcDbRegAppTableRecord
  2
ACAD
 70
     0
  0
APPID
  5
7AC
330
8
100
AcDbSymbolTableRecord
100
AcDbRegAppTableRecord
  2
AcAecLayerStandard
 70
     0
  0
APPID
  5
479E
330
8
100
AcDbSymbolTableRecord
100
AcDbRegAppTableRecord
  2
ACAD_MLEADERVER
 70
     0
  0
ENDTAB
  0
TABLE
  2
DIMSTYLE
  5
9
330
0
100
AcDbSymbolTable
 70
     2
100
AcDbDimStyleTable
  0
DIMSTYLE
105
18
330
9
100
AcDbSymbolTableRecord
100
AcDbDimStyleTableRecord
  2
Standard
 70
     0
178
     0
340
17
  0
DIMSTYLE
105
57
102
{ACAD_REACTORS
330
5A5F
330
5ABB
330
5ABC
330
5AE2
330
5AEA
330
5AED
330
5AEF
330
5B08
330
5B35
330
5B46
330
5B55
330
5B63
330
5B82
330
5B9A
330
5DA5
330
5E2E
330
5E3D
330
5E51
102
}
330
9
100
AcDbSymbolTableRecord
100
AcDbDimStyleTableRecord
  2
tfrom線あり
 70
     0
  3
<>
  4
[]
 41
2.0
 42
5.0
 43
0.9999999999999999
 44
0.0
 73
     0
 74
     0
 77
     1
 78
    11
140
5.0
141
0.0
143
1.0
147
5.0
171
     1
174
     1
178
     0
179
     2
271
     0
272
     1
276
     2
284
    11
285
    11
286
    11
289
     0
340
39
341
4E
342
4E
  0
ENDTAB
  0
TABLE
  2
BLOCK_RECORD
  5
1
330
0
100
AcDbSymbolTable
 70
    55
  0
BLOCK_RECORD
  5
A
102
{ACAD_XDICTIONARY
360
45FB
102
}
330
1
100
AcDbSymbolTableRecord
100
AcDbBlockTableRecord
  2
*MODEL_SPACE
340
20
 70
     0
280
     1
281
     0
  0
BLOCK_RECORD
  5
B
330
1
100
AcDbSymbolTableRecord
100
AcDbBlockTableRecord
  2
*PAPER_SPACE
340
21
 70
     0
280
     1
281
     0
  0
BLOCK_RECORD
  5
4E
330
1
100
AcDbSymbolTableRecord
100
AcDbBlockTableRecord
  2
_DOT
340
0
102
{BLKREFS
331
509C
331
509D
331
50A8
331
50A9
331
510E
331
510F
331
511A
331
511B
331
5139
331
513A
331
5155
331
5156
331
517E
331
517F
331
518E
331
518F
331
519F
331
51A0
331
51B8
331
51B9
331
51CF
331
51D0
331
51DD
331
51DE
331
51F6
331
51F7
331
5248
331
5249
331
528A
331
528B
331
5804
331
5805
331
581A
331
581B
331
5A37
331
5A38
331
5A68
331
5A69
331
5AC3
331
5AC4
331
5ACF
331
5AD0
331
5B02
331
5B03
331
5B11
331
5B12
331
5B20
331
5B21
331
0
331
0
331
5B3E
331
5B3F
331
5B4F
331
5B50
331
5B5C
331
5B5D
331
5B6C
331
5B6D
331
5B8B
331
5B8C
331
5BA3
331
5BA4
331
5BEC
331
5BED
331
5B31
331
5D9E
331
5D9D
331
5DAF
331
5DAE
331
5E86
331
5E87
331
5E92
331
5E93
331
5E9E
331
5E9F
331
5EB4
331
5EB3
102
}
 70
     0
280
     1
281
     0
  0
BLOCK_RECORD
  5
12C3
330
1
100
AcDbSymbolTableRecord
100
AcDbBlockTableRecord
  2
*Paper_Space1
340
12C4
 70
     0
280
     1
281
     0
  0
BLOCK_RECORD
  5
1D88
330
1
100
AcDbSymbolTableRecord
100
AcDbBlockTableRecord
  2
名称未設定-1
340
0
102
{BLKREFS
331
36E3
102
}
 70
     1
280
     1
281
     0
  0
BLOCK_RECORD
  5
1D8B
330
1
100
AcDbSymbolTableRecord
100
AcDbBlockTableRecord
  2
block 2
340
0
102
{BLKREFS
331
1D8A
102
}
 70
     0
280
     1
281
     0
  0
BLOCK_RECORD
  5
1D8E
330
1
100
AcDbSymbolTableRecord
100
AcDbBlockTableRecord
  2
block 3
340
0
102
{BLKREFS
331
1D8D
102
}
 70
     0
280
     1
281
     0
  0
BLOCK_RECORD
  5
1D91
330
1
100
AcDbSymbolTableRecord
100
AcDbBlockTableRecord
  2
block 4
340
0
102
{BLKREFS
331
1D90
102
}
 70
     0
280
     1
281
     0
  0
BLOCK_RECORD
  5
1DA0
330
1
100
AcDbSymbolTableRecord
100
AcDbBlockTableRecord
  2
block 5
340
0
102
{BLKREFS
331
1D9F
102
}
 70
     0
280
     1
281
     0
  0
BLOCK_RECORD
  5
473A
330
1
100
AcDbSymbolTableRecord
100
AcDbBlockTableRecord
  2
_NONE
340
0
 70
     0
280
     1
281
     0
  0
BLOCK_RECORD
  5
5096
330
1
100
AcDbSymbolTableRecord
100
AcDbBlockTableRecord
  2
*D8
340
0
 70
     0
280
     1
281
     0
  0
BLOCK_RECORD
  5
50A2
330
1
100
AcDbSymbolTableRecord
100
AcDbBlockTableRecord
  2
*D9
340
0
 70
     0
280
     1
281
     0
  0
BLOCK_RECORD
  5
5108
330
1
100
AcDbSymbolTableRecord
100
AcDbBlockTableRecord
  2
*D10
340
0
 70
     0
280
     1
281
     0
  0
BLOCK_RECORD
  5
5114
330
1
100
AcDbSymbolTableRecord
100
AcDbBlockTableRecord
  2
*D11
340
0
 70
     0
280
     1
281
     0
  0
BLOCK_RECORD
  5
5133
330
1
100
AcDbSymbolTableRecord
100
AcDbBlockTableRecord
  2
*D12
340
0
 70
     0
280
     1
281
     0
  0
BLOCK_RECORD
  5
514F
330
1
100
AcDbSymbolTableRecord
100
AcDbBlockTableRecord
  2
*D13
340
0
 70
     0
280
     1
281
     0
  0
BLOCK_RECORD
  5
5178
330
1
100
AcDbSymbolTableRecord
100
AcDbBlockTableRecord
  2
*D14
340
0
 70
     0
280
     1
281
     0
  0
BLOCK_RECORD
  5
5188
330
1
100
AcDbSymbolTableRecord
100
AcDbBlockTableRecord
  2
*D15
340
0
 70
     0
280
     1
281
     0
  0
BLOCK_RECORD
  5
5199
330
1
100
AcDbSymbolTableRecord
100
AcDbBlockTableRecord
  2
*D16
340
0
 70
     0
280
     1
281
     0
  0
BLOCK_RECORD
  5
51B2
330
1
100
AcDbSymbolTableRecord
100
AcDbBlockTableRecord
  2
*D17
340
0
 70
     0
280
     1
281
     0
  0
BLOCK_RECORD
  5
51C9
330
1
100
AcDbSymbolTableRecord
100
AcDbBlockTableRecord
  2
*D18
340
0
 70
     0
280
     1
281
     0
  0
BLOCK_RECORD
  5
51D7
330
1
100
AcDbSymbolTableRecord
100
AcDbBlockTableRecord
  2
*D19
340
0
 70
     0
280
     1
281
     0
  0
BLOCK_RECORD
  5
51F0
330
1
100
AcDbSymbolTableRecord
100
AcDbBlockTableRecord
  2
*D20
340
0
 70
     0
280
     1
281
     0
  0
BLOCK_RECORD
  5
5242
330
1
100
AcDbSymbolTableRecord
100
AcDbBlockTableRecord
  2
*D21
340
0
 70
     0
280
     1
281
     0
  0
BLOCK_RECORD
  5
5284
330
1
100
AcDbSymbolTableRecord
100
AcDbBlockTableRecord
  2
*D22
340
0
 70
     0
280
     1
281
     0
  0
BLOCK_RECORD
  5
57FE
330
1
100
AcDbSymbolTableRecord
100
AcDbBlockTableRecord
  2
*D23
340
0
 70
     0
280
     1
281
     0
  0
BLOCK_RECORD
  5
5814
330
1
100
AcDbSymbolTableRecord
100
AcDbBlockTableRecord
  2
*D24
340
0
 70
     0
280
     1
281
     0
  0
BLOCK_RECORD
  5
5A30
330
1
100
AcDbSymbolTableRecord
100
AcDbBlockTableRecord
  2
*D25
340
0
 70
     0
280
     1
281
     0
  0
BLOCK_RECORD
  5
5A62
330
1
100
AcDbSymbolTableRecord
100
AcDbBlockTableRecord
  2
*D26
340
0
 70
     0
280
     1
281
     0
  0
BLOCK_RECORD
  5
5ABD
330
1
100
AcDbSymbolTableRecord
100
AcDbBlockTableRecord
  2
*D27
340
0
 70
     0
280
     1
281
     0
  0
BLOCK_RECORD
  5
5AC9
330
1
100
AcDbSymbolTableRecord
100
AcDbBlockTableRecord
  2
*D28
340
0
 70
     0
280
     1
281
     0
  0
BLOCK_RECORD
  5
5AFC
330
1
100
AcDbSymbolTableRecord
100
AcDbBlockTableRecord
  2
*D29
340
0
 70
     0
280
     1
281
     0
  0
BLOCK_RECORD
  5
5B0B
330
1
100
AcDbSymbolTableRecord
100
AcDbBlockTableRecord
  2
*D30
340
0
 70
     0
280
     1
281
     0
  0
BLOCK_RECORD
  5
5B1A
330
1
100
AcDbSymbolTableRecord
100
AcDbBlockTableRecord
  2
*D31
340
0
 70
     0
280
     1
281
     0
  0
BLOCK_RECORD
  5
5B29
330
1
100
AcDbSymbolTableRecord
100
AcDbBlockTableRecord
  2
*D32
340
0
 70
     0
280
     1
281
     0
  0
BLOCK_RECORD
  5
5B38
330
1
100
AcDbSymbolTableRecord
100
AcDbBlockTableRecord
  2
*D33
340
0
 70
     0
280
     1
281
     0
  0
BLOCK_RECORD
  5
5B49
330
1
100
AcDbSymbolTableRecord
100
AcDbBlockTableRecord
  2
*D34
340
0
 70
     0
280
     1
281
     0
  0
BLOCK_RECORD
  5
5B56
330
1
100
AcDbSymbolTableRecord
100
AcDbBlockTableRecord
  2
*D35
340
0
 70
     0
280
     1
281
     0
  0
BLOCK_RECORD
  5
5B66
330
1
100
AcDbSymbolTableRecord
100
AcDbBlockTableRecord
  2
*D36
340
0
 70
     0
280
     1
281
     0
  0
BLOCK_RECORD
  5
5B85
330
1
100
AcDbSymbolTableRecord
100
AcDbBlockTableRecord
  2
*D37
340
0
 70
     0
280
     1
281
     0
  0
BLOCK_RECORD
  5
5B9D
330
1
100
AcDbSymbolTableRecord
100
AcDbBlockTableRecord
  2
*D38
340
0
 70
     0
280
     1
281
     0
  0
BLOCK_RECORD
  5
5BE6
330
1
100
AcDbSymbolTableRecord
100
AcDbBlockTableRecord
  2
*D39
340
0
 70
     0
280
     1
281
     0
  0
BLOCK_RECORD
  5
5D97
330
1
100
AcDbSymbolTableRecord
100
AcDbBlockTableRecord
  2
*D44
340
0
 70
     0
280
     1
281
     0
  0
BLOCK_RECORD
  5
5DA8
330
1
100
AcDbSymbolTableRecord
100
AcDbBlockTableRecord
  2
*D45
340
0
 70
     0
280
     1
281
     0
  0
BLOCK_RECORD
  5
5E31
330
1
100
AcDbSymbolTableRecord
100
AcDbBlockTableRecord
  2
*D48
340
0
 70
     0
280
     1
281
     0
  0
BLOCK_RECORD
  5
5E40
330
1
100
AcDbSymbolTableRecord
100
AcDbBlockTableRecord
  2
*D49
340
0
 70
     0
280
     1
281
     0
  0
BLOCK_RECORD
  5
5E54
330
1
100
AcDbSymbolTableRecord
100
AcDbBlockTableRecord
  2
*D50
340
0
 70
     0
280
     1
281
     0
  0
BLOCK_RECORD
  5
5E80
330
1
100
AcDbSymbolTableRecord
100
AcDbBlockTableRecord
  2
*D51
340
0
 70
     0
280
     1
281
     0
  0
BLOCK_RECORD
  5
5E8C
330
1
100
AcDbSymbolTableRecord
100
AcDbBlockTableRecord
  2
*D52
340
0
 70
     0
280
     1
281
     0
  0
BLOCK_RECORD
  5
5E98
330
1
100
AcDbSymbolTableRecord
100
AcDbBlockTableRecord
  2
*D53
340
0
 70
     0
280
     1
281
     0
  0
BLOCK_RECORD
  5
5EAD
330
1
100
AcDbSymbolTableRecord
100
AcDbBlockTableRecord
  2
*D54
340
0
 70
     0
280
     1
281
     0
  0
ENDTAB
  0
ENDSEC
  0
SECTION
  2
BLOCKS
  0
BLOCK
  5
D
330
A
100
AcDbEntity
  8
0
390
1D
100
AcDbBlockBegin
  2
*MODEL_SPACE
 70
     0
 10
0.0
 20
0.0
 30
0.0
  3
*MODEL_SPACE
  1
*MODEL_SPACE
  0
ENDBLK
  5
E
330
A
100
AcDbEntity
  8
0
390
1D
100
AcDbBlockEnd
  0
BLOCK
  5
F
330
B
100
AcDbEntity
 67
     1
  8
0
390
1D
100
AcDbBlockBegin
  2
*PAPER_SPACE
 70
     0
 10
0.0
 20
0.0
 30
0.0
  3
*PAPER_SPACE
  1
*PAPER_SPACE
  0
ENDBLK
  5
10
330
B
100
AcDbEntity
 67
     1
  8
0
390
1D
100
AcDbBlockEnd
  0
BLOCK
  5
1066
330
4E
100
AcDbEntity
  8
0
390
1D
100
AcDbBlockBegin
  2
_DOT
 70
     0
 10
0.0
 20
0.0
 30
0.0
  3
_DOT
  1
_DOT
  0
POLYLINE
  5
1068
330
4E
100
AcDbEntity
  8
0
  6
ByBlock
 62
     0
370
    -2
390
1D
100
AcDb2dPolyline
 66
     1
 10
0.0
 20
0.0
 30
0.0
 70
     1
 40
0.5
 41
0.5
  0
VERTEX
  5
1069
330
1068
100
AcDbEntity
  8
0
  6
ByBlock
 62
     0
370
    -2
390
1D
100
AcDbVertex
100
AcDb2dVertex
 10
-0.25
 20
0.0
 30
0.0
 42
1.0
  0
VERTEX
  5
106A
330
1068
100
AcDbEntity
  8
0
  6
ByBlock
 62
     0
370
    -2
390
1D
100
AcDbVertex
100
AcDb2dVertex
 10
0.25
 20
0.0
 30
0.0
 42
1.0
  0
SEQEND
  5
106B
330
1068
100
AcDbEntity
  8
0
390
1D
  0
LINE
  5
106C
330
4E
100
AcDbEntity
  8
0
  6
ByBlock
 62
     0
370
    -2
390
1D
100
AcDbLine
 10
-0.5
 20
0.0
 30
0.0
 11
-1.0
 21
0.0
 31
0.0
  0
ENDBLK
  5
106D
330
4E
100
AcDbEntity
  8
0
390
1D
100
AcDbBlockEnd
  0
BLOCK
  5
12C5
330
12C3
100
AcDbEntity
  8
0
100
AcDbBlockBegin
  2
*Paper_Space1
 70
     0
 10
0.0
 20
0.0
 30
0.0
  3
*Paper_Space1
  1
*Paper_Space83
  0
ENDBLK
  5
12C6
330
12C3
100
AcDbEntity
  8
0
100
AcDbBlockEnd
  0
BLOCK
  5
1D89
330
1D88
100
AcDbEntity
  8
0
100
AcDbBlockBegin
  2
名称未設定-1
 70
     0
 10
0.0
 20
0.0
 30
0.0
  3
名称未設定-1
  1
名称未設定-1
  0
INSERT
  5
1D8A
330
1D88
100
AcDbEntity
  8
TFORMLOGO
100
AcDbBlockReference
  2
block 2
 10
0.0
 20
0.0
 30
0.0
  0
ENDBLK
  5
1DAF
330
1D88
100
AcDbEntity
  8
0
100
AcDbBlockEnd
  0
BLOCK
  5
1D8C
330
1D8B
100
AcDbEntity
  8
0
100
AcDbBlockBegin
  2
block 2
 70
     0
 10
0.0
 20
0.0
 30
0.0
  3
block 2
  1
block 2
  0
INSERT
  5
1D8D
330
1D8B
100
AcDbEntity
  8
TFORMLOGO
100
AcDbBlockReference
  2
block 3
 10
0.0
 20
0.0
 30
0.0
  0
ENDBLK
  5
1DAE
330
1D8B
100
AcDbEntity
  8
0
100
AcDbBlockEnd
  0
BLOCK
  5
1D8F
330
1D8E
100
AcDbEntity
  8
0
100
AcDbBlockBegin
  2
block 3
 70
     0
 10
0.0
 20
0.0
 30
0.0
  3
block 3
  1
block 3
  0
INSERT
  5
1D90
330
1D8E
100
AcDbEntity
  8
TFORMLOGO
100
AcDbBlockReference
  2
block 4
 10
0.0
 20
0.0
 30
0.0
  0
ENDBLK
  5
1DAD
330
1D8E
100
AcDbEntity
  8
0
100
AcDbBlockEnd
  0
BLOCK
  5
1D92
330
1D91
100
AcDbEntity
  8
0
100
AcDbBlockBegin
  2
block 4
 70
     0
 10
0.0
 20
0.0
 30
0.0
  3
block 4
  1
block 4
  0
POLYLINE
  5
1D93
330
1D91
100
AcDbEntity
  8
TFORMLOGO
370
     0
100
AcDb2dPolyline
 66
     1
 10
0.0
 20
0.0
 30
0.0
  0
VERTEX
  5
1D94
330
1D93
100
AcDbEntity
  8
TFORMLOGO
370
     0
100
AcDbVertex
100
AcDb2dVertex
 10
83.79545727667795
 20
167.6444858234922
 30
0.0
  0
VERTEX
  5
1D95
330
1D93
100
AcDbEntity
  8
TFORMLOGO
370
     0
100
AcDbVertex
100
AcDb2dVertex
 10
83.79545727667795
 20
159.7968976406313
 30
0.0
  0
VERTEX
  5
1D96
330
1D93
100
AcDbEntity
  8
TFORMLOGO
370
     0
100
AcDbVertex
100
AcDb2dVertex
 10
71.3631329975216
 20
159.7968976406313
 30
0.0
  0
VERTEX
  5
1D97
330
1D93
100
AcDbEntity
  8
TFORMLOGO
370
     0
100
AcDbVertex
100
AcDb2dVertex
 10
71.3631329975216
 20
127.8027915271048
 30
0.0
  0
VERTEX
  5
1D98
330
1D93
100
AcDbEntity
  8
TFORMLOGO
370
     0
100
AcDbVertex
100
AcDb2dVertex
 10
60.43011526263018
 20
127.8027915271048
 30
0.0
  0
VERTEX
  5
1D99
330
1D93
100
AcDbEntity
  8
TFORMLOGO
370
     0
100
AcDbVertex
100
AcDb2dVertex
 10
60.43011526263018
 20
159.7968976406313
 30
0.0
  0
VERTEX
  5
1D9A
330
1D93
100
AcDbEntity
  8
TFORMLOGO
370
     0
100
AcDbVertex
100
AcDb2dVertex
 10
48.21793273020759
 20
159.7968976406313
 30
0.0
  0
VERTEX
  5
1D9B
330
1D93
100
AcDbEntity
  8
TFORMLOGO
370
     0
100
AcDbVertex
100
AcDb2dVertex
 10
48.21793273020759
 20
167.6444858234922
 30
0.0
  0
VERTEX
  5
1D9C
330
1D93
100
AcDbEntity
  8
TFORMLOGO
370
     0
100
AcDbVertex
100
AcDb2dVertex
 10
83.79545727667795
 20
167.6444858234922
 30
0.0
  0
SEQEND
  5
1D9D
330
1D93
100
AcDbEntity
  8
TFORMLOGO
370
     0
  0
HATCH
  5
1D9E
330
1D91
100
AcDbEntity
  8
TFORMLOGO
 62
   250
420
  2234388
100
AcDbHatch
 10
0.0
 20
0.0
 30
0.0
210
0.0
220
0.0
230
1.0
  2
SOLID
 70
     1
 71
     0
 91
        1
 92
        1
 93
        8
 72
     1
 10
83.79545727667795
 20
167.6444858234922
 11
83.79545727667795
 21
159.7968976406313
 72
     1
 10
83.79545727667795
 20
159.7968976406313
 11
71.3631329975216
 21
159.7968976406313
 72
     1
 10
71.3631329975216
 20
159.7968976406313
 11
71.3631329975216
 21
127.8027915271048
 72
     1
 10
71.3631329975216
 20
127.8027915271048
 11
60.43011526263018
 21
127.8027915271048
 72
     1
 10
60.43011526263018
 20
127.8027915271048
 11
60.43011526263018
 21
159.7968976406313
 72
     1
 10
60.43011526263018
 20
159.7968976406313
 11
48.21793273020759
 21
159.7968976406313
 72
     1
 10
48.21793273020759
 20
159.7968976406313
 11
48.21793273020759
 21
167.6444858234922
 72
     1
 10
48.21793273020759
 20
167.6444858234922
 11
83.79545727667795
 21
167.6444858234922
 97
        0
 75
     2
 76
     1
 98
        0
  0
INSERT
  5
1D9F
330
1D91
100
AcDbEntity
  8
TFORMLOGO
100
AcDbBlockReference
  2
block 5
 10
0.0
 20
0.0
 30
0.0
  0
ENDBLK
  5
1DAC
330
1D91
100
AcDbEntity
  8
0
100
AcDbBlockEnd
  0
BLOCK
  5
1DA1
330
1DA0
100
AcDbEntity
  8
0
100
AcDbBlockBegin
  2
block 5
 70
     0
 10
0.0
 20
0.0
 30
0.0
  3
block 5
  1
block 5
  0
SPLINE
  5
1DA2
330
1DA0
100
AcDbEntity
  8
TFORMLOGO
370
     0
100
AcDbSpline
210
0.0
220
0.0
230
1.0
 70
    11
 71
     3
 72
    56
 73
    52
 74
     0
 42
0.000000001
 43
0.0000000001
 40
0.0
 40
0.0
 40
0.0
 40
0.0
 40
1.0
 40
1.0
 40
1.0
 40
2.0
 40
2.0
 40
2.0
 40
3.0
 40
3.0
 40
3.0
 40
4.0
 40
4.0
 40
4.0
 40
5.0
 40
5.0
 40
5.0
 40
6.0
 40
6.0
 40
6.0
 40
7.0
 40
7.0
 40
7.0
 40
8.0
 40
8.0
 40
8.0
 40
9.0
 40
9.0
 40
9.0
 40
10.0
 40
10.0
 40
10.0
 40
11.0
 40
11.0
 40
11.0
 40
12.0
 40
12.0
 40
12.0
 40
13.0
 40
13.0
 40
13.0
 40
14.0
 40
14.0
 40
14.0
 40
15.0
 40
15.0
 40
15.0
 40
16.0
 40
16.0
 40
16.0
 40
17.0
 40
17.0
 40
17.0
 40
17.0
 10
100.4504378777679
 20
166.69157178364
 30
0.0
 10
101.9848844191641
 20
167.1313385124438
 30
0.0
 10
103.9637485713373
 20
166.7649523658846
 30
0.0
 10
103.9637485713373
 20
166.7649523658846
 30
0.0
 10
103.9637485713373
 20
166.7649523658846
 30
0.0
 10
103.0132460999156
 20
163.911205638077
 30
0.0
 10
103.0132460999156
 20
163.911205638077
 30
0.0
 10
103.0132460999156
 20
163.911205638077
 30
0.0
 10
101.0674548862189
 20
164.3601018759394
 30
0.0
 10
99.57090442016032
 20
163.1805004036133
 30
0.0
 10
98.40508333886608
 20
162.258247733807
 30
0.0
 10
97.65301849830304
 20
159.804132345923
 30
0.0
 10
97.3598406791005
 20
158.8699940888517
 30
0.0
 10
97.3598406791005
 20
158.8699940888517
 30
0.0
 10
96.07137411762282
 20
154.9119212747295
 30
0.0
 10
96.07137411762282
 20
154.9119212747295
 30
0.0
 10
96.07137411762282
 20
154.9119212747295
 30
0.0
 10
100.3012651448482
 20
154.9119212747295
 30
0.0
 10
100.3012651448482
 20
154.9119212747295
 30
0.0
 10
100.3012651448482
 20
154.9119212747295
 30
0.0
 10
99.64152892419852
 20
152.4199098115079
 30
0.0
 10
99.64152892419852
 20
152.4199098115079
 30
0.0
 10
99.64152892419852
 20
152.4199098115079
 30
0.0
 10
95.38097652692731
 20
152.4199098115079
 30
0.0
 10
95.38097652692731
 20
152.4199098115079
 30
0.0
 10
95.38097652692731
 20
152.4199098115079
 30
0.0
 10
87.75353009080013
 20
127.8027915271048
 30
0.0
 10
87.75353009080013
 20
127.8027915271048
 30
0.0
 10
87.75353009080013
 20
127.8027915271048
 30
0.0
 10
85.36538832498108
 20
127.8027915271048
 30
0.0
 10
85.36538832498108
 20
127.8027915271048
 30
0.0
 10
85.36538832498108
 20
127.8027915271048
 30
0.0
 10
93.00006946639998
 20
152.4199098115079
 30
0.0
 10
93.00006946639998
 20
152.4199098115079
 30
0.0
 10
93.00006946639998
 20
152.4199098115079
 30
0.0
 10
89.85297266450198
 20
152.4199098115079
 30
0.0
 10
89.85297266450198
 20
152.4199098115079
 30
0.0
 10
89.85297266450198
 20
152.4199098115079
 30
0.0
 10
90.51270888515164
 20
154.9119212747295
 30
0.0
 10
90.51270888515164
 20
154.9119212747295
 30
0.0
 10
90.51270888515164
 20
154.9119212747295
 30
0.0
 10
93.6904670570955
 20
154.9119212747295
 30
0.0
 10
93.6904670570955
 20
154.9119212747295
 30
0.0
 10
93.6904670570955
 20
154.9119212747295
 30
0.0
 10
94.81598049462158
 20
158.3616699146644
 30
0.0
 10
94.81598049462158
 20
158.3616699146644
 30
0.0
 10
95.7237637538445
 20
161.2605474231013
 30
0.0
 10
96.4968436907311
 20
162.8139420021662
 30
0.0
 10
97.15657991138076
 20
163.9844139654337
 30
0.0
 10
97.81183750494507
 20
165.1523021053827
 30
0.0
 10
99.1047826935081
 20
166.3084769129547
 30
0.0
 10
100.4504378777679
 20
166.69157178364
 30
0.0
  0
HATCH
  5
1DA3
330
1DA0
100
AcDbEntity
  8
TFORMLOGO
 62
   250
420
  2234388
100
AcDbHatch
 10
0.0
 20
0.0
 30
0.0
210
0.0
220
0.0
230
1.0
  2
SOLID
 70
     1
 71
     0
 91
        1
 92
        1
 93
        1
 72
     4
 94
        3
 73
     0
 74
     1
 95
       56
 96
       52
 40
0.0
 40
0.0
 40
0.0
 40
0.0
 40
1.0
 40
1.0
 40
1.0
 40
2.0
 40
2.0
 40
2.0
 40
3.0
 40
3.0
 40
3.0
 40
4.0
 40
4.0
 40
4.0
 40
5.0
 40
5.0
 40
5.0
 40
6.0
 40
6.0
 40
6.0
 40
7.0
 40
7.0
 40
7.0
 40
8.0
 40
8.0
 40
8.0
 40
9.0
 40
9.0
 40
9.0
 40
10.0
 40
10.0
 40
10.0
 40
11.0
 40
11.0
 40
11.0
 40
12.0
 40
12.0
 40
12.0
 40
13.0
 40
13.0
 40
13.0
 40
14.0
 40
14.0
 40
14.0
 40
15.0
 40
15.0
 40
15.0
 40
16.0
 40
16.0
 40
16.0
 40
17.0
 40
17.0
 40
17.0
 40
17.0
 10
100.4504378777679
 20
166.69157178364
 10
101.9848844191641
 20
167.1313385124438
 10
103.9637485713373
 20
166.7649523658846
 10
103.9637485713373
 20
166.7649523658846
 10
103.9637485713373
 20
166.7649523658846
 10
103.0132460999156
 20
163.911205638077
 10
103.0132460999156
 20
163.911205638077
 10
103.0132460999156
 20
163.911205638077
 10
101.0674548862189
 20
164.3601018759394
 10
99.57090442016032
 20
163.1805004036133
 10
98.40508333886608
 20
162.258247733807
 10
97.65301849830304
 20
159.804132345923
 10
97.3598406791005
 20
158.8699940888517
 10
97.3598406791005
 20
158.8699940888517
 10
96.07137411762282
 20
154.9119212747295
 10
96.07137411762282
 20
154.9119212747295
 10
96.07137411762282
 20
154.9119212747295
 10
100.3012651448482
 20
154.9119212747295
 10
100.3012651448482
 20
154.9119212747295
 10
100.3012651448482
 20
154.9119212747295
 10
99.64152892419852
 20
152.4199098115079
 10
99.64152892419852
 20
152.4199098115079
 10
99.64152892419852
 20
152.4199098115079
 10
95.38097652692731
 20
152.4199098115079
 10
95.38097652692731
 20
152.4199098115079
 10
95.38097652692731
 20
152.4199098115079
 10
87.75353009080013
 20
127.8027915271048
 10
87.75353009080013
 20
127.8027915271048
 10
87.75353009080013
 20
127.8027915271048
 10
85.36538832498108
 20
127.8027915271048
 10
85.36538832498108
 20
127.8027915271048
 10
85.36538832498108
 20
127.8027915271048
 10
93.00006946639998
 20
152.4199098115079
 10
93.00006946639998
 20
152.4199098115079
 10
93.00006946639998
 20
152.4199098115079
 10
89.85297266450198
 20
152.4199098115079
 10
89.85297266450198
 20
152.4199098115079
 10
89.85297266450198
 20
152.4199098115079
 10
90.51270888515164
 20
154.9119212747295
 10
90.51270888515164
 20
154.9119212747295
 10
90.51270888515164
 20
154.9119212747295
 10
93.6904670570955
 20
154.9119212747295
 10
93.6904670570955
 20
154.9119212747295
 10
93.6904670570955
 20
154.9119212747295
 10
94.81598049462158
 20
158.3616699146644
 10
94.81598049462158
 20
158.3616699146644
 10
95.7237637538445
 20
161.2605474231013
 10
96.4968436907311
 20
162.8139420021662
 10
97.15657991138076
 20
163.9844139654337
 10
97.81183750494507
 20
165.1523021053827
 10
99.1047826935081
 20
166.3084769129547
 10
100.4504378777679
 20
166.69157178364
 97
        0
 75
     2
 76
     1
 98
        0
  0
SPLINE
  5
1DA4
330
1DA0
100
AcDbEntity
  8
TFORMLOGO
370
     0
100
AcDbSpline
210
0.0
220
0.0
230
1.0
 70
    11
 71
     3
 72
    38
 73
    34
 74
     0
 42
0.000000001
 43
0.0000000001
 40
0.0
 40
0.0
 40
0.0
 40
0.0
 40
1.0
 40
1.0
 40
1.0
 40
2.0
 40
2.0
 40
2.0
 40
3.0
 40
3.0
 40
3.0
 40
4.0
 40
4.0
 40
4.0
 40
5.0
 40
5.0
 40
5.0
 40
6.0
 40
6.0
 40
6.0
 40
7.0
 40
7.0
 40
7.0
 40
8.0
 40
8.0
 40
8.0
 40
9.0
 40
9.0
 40
9.0
 40
10.0
 40
10.0
 40
10.0
 40
11.0
 40
11.0
 40
11.0
 40
11.0
 10
126.377554584636
 20
154.8151140277308
 30
0.0
 10
126.377554584636
 20
154.8151140277308
 30
0.0
 10
128.8311532078563
 20
154.8151140277308
 30
0.0
 10
128.8311532078563
 20
154.8151140277308
 30
0.0
 10
128.8311532078563
 20
154.8151140277308
 30
0.0
 10
127.7345785914971
 20
151.3062819612468
 30
0.0
 10
127.7345785914971
 20
151.3062819612468
 30
0.0
 10
128.571392836906
 20
152.2922689395754
 30
0.0
 10
129.8860421413442
 20
153.604506675583
 30
0.0
 10
131.0163787157314
 20
154.2664822097754
 30
0.0
 10
132.7044766171327
 20
155.2500576196734
 30
0.0
 10
133.6642808525008
 20
155.3847609420097
 30
0.0
 10
134.7284715499351
 20
155.3565111403944
 30
0.0
 10
134.7284715499351
 20
155.3565111403944
 30
0.0
 10
133.6877075172549
 20
152.0345756272799
 30
0.0
 10
133.6877075172549
 20
152.0345756272799
 30
0.0
 10
133.011434827367
 20
152.3184516825359
 30
0.0
 10
130.930940291334
 20
151.7768823149844
 30
0.0
 10
129.739280976855
 20
150.9162968950455
 30
0.0
 10
128.66613302525
 20
150.1454562717016
 30
0.0
 10
127.9192358313239
 20
149.4857200510519
 30
0.0
 10
127.0393578639405
 20
147.8282835196966
 30
0.0
 10
126.164647543194
 20
146.1699857139017
 30
0.0
 10
125.4742499524985
 20
143.5262176944419
 30
0.0
 10
124.2822461282437
 20
139.6959580071401
 30
0.0
 10
124.2822461282437
 20
139.6959580071401
 30
0.0
 10
120.5753209406769
 20
127.8027915271048
 30
0.0
 10
120.5753209406769
 20
127.8027915271048
 30
0.0
 10
120.5753209406769
 20
127.8027915271048
 30
0.0
 10
118.1964809388044
 20
127.8027915271048
 30
0.0
 10
118.1964809388044
 20
127.8027915271048
 30
0.0
 10
118.1964809388044
 20
127.8027915271048
 30
0.0
 10
126.377554584636
 20
154.8151140277308
 30
0.0
 10
126.377554584636
 20
154.8151140277308
 30
0.0
  0
HATCH
  5
1DA5
330
1DA0
100
AcDbEntity
  8
TFORMLOGO
 62
   250
420
  2234388
100
AcDbHatch
 10
0.0
 20
0.0
 30
0.0
210
0.0
220
0.0
230
1.0
  2
SOLID
 70
     1
 71
     0
 91
        1
 92
        1
 93
        1
 72
     4
 94
        3
 73
     0
 74
     1
 95
       38
 96
       34
 40
0.0
 40
0.0
 40
0.0
 40
0.0
 40
1.0
 40
1.0
 40
1.0
 40
2.0
 40
2.0
 40
2.0
 40
3.0
 40
3.0
 40
3.0
 40
4.0
 40
4.0
 40
4.0
 40
5.0
 40
5.0
 40
5.0
 40
6.0
 40
6.0
 40
6.0
 40
7.0
 40
7.0
 40
7.0
 40
8.0
 40
8.0
 40
8.0
 40
9.0
 40
9.0
 40
9.0
 40
10.0
 40
10.0
 40
10.0
 40
11.0
 40
11.0
 40
11.0
 40
11.0
 10
126.377554584636
 20
154.8151140277308
 10
126.377554584636
 20
154.8151140277308
 10
128.8311532078563
 20
154.8151140277308
 10
128.8311532078563
 20
154.8151140277308
 10
128.8311532078563
 20
154.8151140277308
 10
127.7345785914971
 20
151.3062819612468
 10
127.7345785914971
 20
151.3062819612468
 10
128.571392836906
 20
152.2922689395754
 10
129.8860421413442
 20
153.604506675583
 10
131.0163787157314
 20
154.2664822097754
 10
132.7044766171327
 20
155.2500576196734
 10
133.6642808525008
 20
155.3847609420097
 10
134.7284715499351
 20
155.3565111403944
 10
134.7284715499351
 20
155.3565111403944
 10
133.6877075172549
 20
152.0345756272799
 10
133.6877075172549
 20
152.0345756272799
 10
133.011434827367
 20
152.3184516825359
 10
130.930940291334
 20
151.7768823149844
 10
129.739280976855
 20
150.9162968950455
 10
128.66613302525
 20
150.1454562717016
 10
127.9192358313239
 20
149.4857200510519
 10
127.0393578639405
 20
147.8282835196966
 10
126.164647543194
 20
146.1699857139017
 10
125.4742499524985
 20
143.5262176944419
 10
124.2822461282437
 20
139.6959580071401
 10
124.2822461282437
 20
139.6959580071401
 10
120.5753209406769
 20
127.8027915271048
 10
120.5753209406769
 20
127.8027915271048
 10
120.5753209406769
 20
127.8027915271048
 10
118.1964809388044
 20
127.8027915271048
 10
118.1964809388044
 20
127.8027915271048
 10
118.1964809388044
 20
127.8027915271048
 10
126.377554584636
 20
154.8151140277308
 10
126.377554584636
 20
154.8151140277308
 97
        0
 75
     2
 76
     1
 98
        0
  0
SPLINE
  5
1DA6
330
1DA0
100
AcDbEntity
  8
TFORMLOGO
370
     0
100
AcDbSpline
210
0.0
220
0.0
230
1.0
 70
    11
 71
     3
 72
   104
 73
   100
 74
     0
 42
0.000000001
 43
0.0000000001
 40
0.0
 40
0.0
 40
0.0
 40
0.0
 40
1.0
 40
1.0
 40
1.0
 40
2.0
 40
2.0
 40
2.0
 40
3.0
 40
3.0
 40
3.0
 40
4.0
 40
4.0
 40
4.0
 40
5.0
 40
5.0
 40
5.0
 40
6.0
 40
6.0
 40
6.0
 40
7.0
 40
7.0
 40
7.0
 40
8.0
 40
8.0
 40
8.0
 40
9.0
 40
9.0
 40
9.0
 40
10.0
 40
10.0
 40
10.0
 40
11.0
 40
11.0
 40
11.0
 40
12.0
 40
12.0
 40
12.0
 40
13.0
 40
13.0
 40
13.0
 40
14.0
 40
14.0
 40
14.0
 40
15.0
 40
15.0
 40
15.0
 40
16.0
 40
16.0
 40
16.0
 40
17.0
 40
17.0
 40
17.0
 40
18.0
 40
18.0
 40
18.0
 40
19.0
 40
19.0
 40
19.0
 40
20.0
 40
20.0
 40
20.0
 40
21.0
 40
21.0
 40
21.0
 40
22.0
 40
22.0
 40
22.0
 40
23.0
 40
23.0
 40
23.0
 40
24.0
 40
24.0
 40
24.0
 40
25.0
 40
25.0
 40
25.0
 40
26.0
 40
26.0
 40
26.0
 40
27.0
 40
27.0
 40
27.0
 40
28.0
 40
28.0
 40
28.0
 40
29.0
 40
29.0
 40
29.0
 40
30.0
 40
30.0
 40
30.0
 40
31.0
 40
31.0
 40
31.0
 40
32.0
 40
32.0
 40
32.0
 40
33.0
 40
33.0
 40
33.0
 40
33.0
 10
139.8926730891197
 20
154.8294111834263
 30
0.0
 10
139.8926730891197
 20
154.8294111834263
 30
0.0
 10
142.0344903652445
 20
154.8294111834263
 30
0.0
 10
142.0344903652445
 20
154.8294111834263
 30
0.0
 10
142.0344903652445
 20
154.8294111834263
 30
0.0
 10
140.9516961399171
 20
151.3157559800812
 30
0.0
 10
140.9516961399171
 20
151.3157559800812
 30
0.0
 10
141.8928968473923
 20
152.7887075264977
 30
0.0
 10
142.7341897198865
 20
153.4484437471474
 30
0.0
 10
143.8552245303272
 20
154.2926649527359
 30
0.0
 10
144.9803934580775
 20
155.1296514530327
 30
0.0
 10
146.3139908001845
 20
155.3044901642492
 30
0.0
 10
147.241066606852
 20
155.3044901642492
 30
0.0
 10
148.3855280820469
 20
155.3044901642492
 30
0.0
 10
149.4969166187653
 20
155.0752189084569
 30
0.0
 10
150.0784491203092
 20
153.8172414621372
 30
0.0
 10
150.5228667310863
 20
152.833838307127
 30
0.0
 10
150.5414702589793
 20
152.7201500811143
 30
0.0
 10
150.4140016419347
 20
150.7765981809602
 30
0.0
 10
151.5818897818837
 20
152.7699317437168
 30
0.0
 10
152.4424752018226
 20
153.6256940267945
 30
0.0
 10
153.9038856707499
 20
154.4507949398263
 30
0.0
 10
155.4455669174378
 20
155.3044901642492
 30
0.0
 10
156.339225275853
 20
155.3659851592288
 30
0.0
 10
157.3748216618963
 20
155.2147453676543
 30
0.0
 10
158.911679771723
 20
154.9877134254046
 30
0.0
 10
159.8859534176746
 20
154.4390816074493
 30
0.0
 10
160.3965169054045
 20
152.7816450760939
 30
0.0
 10
160.9070803931344
 20
151.1219692311958
 30
0.0
 10
160.6328506116007
 20
150.2303779314354
 30
0.0
 10
159.9992971339115
 20
147.597634224801
 30
0.0
 10
159.7105979417943
 20
146.4014962832367
 30
0.0
 10
159.2947746424084
 20
144.9400858143094
 30
0.0
 10
158.7463150793409
 20
143.2092687007094
 30
0.0
 10
158.7463150793409
 20
143.2092687007094
 30
0.0
 10
153.9038856707499
 20
127.8027915271048
 30
0.0
 10
153.9038856707499
 20
127.8027915271048
 30
0.0
 10
153.9038856707499
 20
127.8027915271048
 30
0.0
 10
151.3882752878863
 20
127.8027915271048
 30
0.0
 10
151.3882752878863
 20
127.8027915271048
 30
0.0
 10
151.3882752878863
 20
127.8027915271048
 30
0.0
 10
155.6250565106276
 20
141.2751908193897
 30
0.0
 10
155.6250565106276
 20
141.2751908193897
 30
0.0
 10
156.5094131050963
 20
144.0936252951782
 30
0.0
 10
157.109893644309
 20
146.1506931664571
 30
0.0
 10
157.4220195011804
 20
147.4415712963654
 30
0.0
 10
157.8095929989511
 20
149.0530157726519
 30
0.0
 10
157.9656559273867
 20
149.5826995529385
 30
0.0
 10
157.7816877071116
 20
150.7529992613181
 30
0.0
 10
157.6111553680925
 20
151.8430281919372
 30
0.0
 10
157.0582171779396
 20
152.5547853887321
 30
0.0
 10
156.1170164704645
 20
152.5547853887321
 30
0.0
 10
155.1096698860365
 20
152.5547853887321
 30
0.0
 10
154.2962823053817
 20
152.4412694176073
 30
0.0
 10
153.156643967048
 20
151.2945686288697
 30
0.0
 10
152.0170056287143
 20
150.1476955852443
 30
0.0
 10
151.076149431015
 20
148.7930831468137
 30
0.0
 10
150.3337308641742
 20
147.2290087646991
 30
0.0
 10
149.5957909244188
 20
145.6683794803425
 30
0.0
 10
148.8530278478023
 20
143.6822806228776
 30
0.0
 10
148.0964843801539
 20
141.2751908193897
 30
0.0
 10
148.0964843801539
 20
141.2751908193897
 30
0.0
 10
143.8552245303272
 20
127.8027915271048
 30
0.0
 10
143.8552245303272
 20
127.8027915271048
 30
0.0
 10
143.8552245303272
 20
127.8027915271048
 30
0.0
 10
141.486030802177
 20
127.8027915271048
 30
0.0
 10
141.486030802177
 20
127.8027915271048
 30
0.0
 10
141.486030802177
 20
127.8027915271048
 30
0.0
 10
146.3329388378533
 20
143.2092687007094
 30
0.0
 10
146.3329388378533
 20
143.2092687007094
 30
0.0
 10
146.8483254624444
 20
144.8408669988801
 30
0.0
 10
147.2314203331297
 20
146.1837661049335
 30
0.0
 10
147.4867020769946
 20
147.224185627838
 30
0.0
 10
147.9169947869641
 20
149.0197705792876
 30
0.0
 10
148.0306830129768
 20
150.2400242051577
 30
0.0
 10
147.709255392159
 20
151.3157559800812
 30
0.0
 10
147.3874832615654
 20
152.3916600098926
 30
0.0
 10
146.8245542879144
 20
152.6683013598569
 30
0.0
 10
145.8840425999909
 20
152.6683013598569
 30
0.0
 10
145.0989048209514
 20
152.6683013598569
 30
0.0
 10
144.3282364524954
 20
152.3275811915945
 30
0.0
 10
143.4531816219731
 20
151.6538923250251
 30
0.0
 10
142.34627171234
 20
150.8074318058939
 30
0.0
 10
141.901854101563
 20
150.1097995099067
 30
0.0
 10
141.3578731655808
 20
149.289521733736
 30
0.0
 10
140.6299240093235
 20
148.192602607601
 30
0.0
 10
140.2850697237515
 20
147.455696197173
 30
0.0
 10
139.6652966370942
 20
145.8385673095858
 30
0.0
 10
139.0506911970739
 20
144.2214384219986
 30
0.0
 10
138.463991048893
 20
142.3252566160164
 30
0.0
 10
138.0571250036777
 20
141.0154304484394
 30
0.0
 10
138.0571250036777
 20
141.0154304484394
 30
0.0
 10
133.9009590684727
 20
127.8027915271048
 30
0.0
 10
133.9009590684727
 20
127.8027915271048
 30
0.0
 10
133.9009590684727
 20
127.8027915271048
 30
0.0
 10
131.4180771143097
 20
127.8027915271048
 30
0.0
 10
131.4180771143097
 20
127.8027915271048
 30
0.0
 10
131.4180771143097
 20
127.8027915271048
 30
0.0
 10
139.8926730891197
 20
154.8294111834263
 30
0.0
 10
139.8926730891197
 20
154.8294111834263
 30
0.0
  0
HATCH
  5
1DA7
330
1DA0
100
AcDbEntity
  8
TFORMLOGO
 62
   250
420
  2234388
100
AcDbHatch
 10
0.0
 20
0.0
 30
0.0
210
0.0
220
0.0
230
1.0
  2
SOLID
 70
     1
 71
     0
 91
        1
 92
        1
 93
        1
 72
     4
 94
        3
 73
     0
 74
     1
 95
      104
 96
      100
 40
0.0
 40
0.0
 40
0.0
 40
0.0
 40
1.0
 40
1.0
 40
1.0
 40
2.0
 40
2.0
 40
2.0
 40
3.0
 40
3.0
 40
3.0
 40
4.0
 40
4.0
 40
4.0
 40
5.0
 40
5.0
 40
5.0
 40
6.0
 40
6.0
 40
6.0
 40
7.0
 40
7.0
 40
7.0
 40
8.0
 40
8.0
 40
8.0
 40
9.0
 40
9.0
 40
9.0
 40
10.0
 40
10.0
 40
10.0
 40
11.0
 40
11.0
 40
11.0
 40
12.0
 40
12.0
 40
12.0
 40
13.0
 40
13.0
 40
13.0
 40
14.0
 40
14.0
 40
14.0
 40
15.0
 40
15.0
 40
15.0
 40
16.0
 40
16.0
 40
16.0
 40
17.0
 40
17.0
 40
17.0
 40
18.0
 40
18.0
 40
18.0
 40
19.0
 40
19.0
 40
19.0
 40
20.0
 40
20.0
 40
20.0
 40
21.0
 40
21.0
 40
21.0
 40
22.0
 40
22.0
 40
22.0
 40
23.0
 40
23.0
 40
23.0
 40
24.0
 40
24.0
 40
24.0
 40
25.0
 40
25.0
 40
25.0
 40
26.0
 40
26.0
 40
26.0
 40
27.0
 40
27.0
 40
27.0
 40
28.0
 40
28.0
 40
28.0
 40
29.0
 40
29.0
 40
29.0
 40
30.0
 40
30.0
 40
30.0
 40
31.0
 40
31.0
 40
31.0
 40
32.0
 40
32.0
 40
32.0
 40
33.0
 40
33.0
 40
33.0
 40
33.0
 10
139.8926730891197
 20
154.8294111834263
 10
139.8926730891197
 20
154.8294111834263
 10
142.0344903652445
 20
154.8294111834263
 10
142.0344903652445
 20
154.8294111834263
 10
142.0344903652445
 20
154.8294111834263
 10
140.9516961399171
 20
151.3157559800812
 10
140.9516961399171
 20
151.3157559800812
 10
141.8928968473923
 20
152.7887075264977
 10
142.7341897198865
 20
153.4484437471474
 10
143.8552245303272
 20
154.2926649527359
 10
144.9803934580775
 20
155.1296514530327
 10
146.3139908001845
 20
155.3044901642492
 10
147.241066606852
 20
155.3044901642492
 10
148.3855280820469
 20
155.3044901642492
 10
149.4969166187653
 20
155.0752189084569
 10
150.0784491203092
 20
153.8172414621372
 10
150.5228667310863
 20
152.833838307127
 10
150.5414702589793
 20
152.7201500811143
 10
150.4140016419347
 20
150.7765981809602
 10
151.5818897818837
 20
152.7699317437168
 10
152.4424752018226
 20
153.6256940267945
 10
153.9038856707499
 20
154.4507949398263
 10
155.4455669174378
 20
155.3044901642492
 10
156.339225275853
 20
155.3659851592288
 10
157.3748216618963
 20
155.2147453676543
 10
158.911679771723
 20
154.9877134254046
 10
159.8859534176746
 20
154.4390816074493
 10
160.3965169054045
 20
152.7816450760939
 10
160.9070803931344
 20
151.1219692311958
 10
160.6328506116007
 20
150.2303779314354
 10
159.9992971339115
 20
147.597634224801
 10
159.7105979417943
 20
146.4014962832367
 10
159.2947746424084
 20
144.9400858143094
 10
158.7463150793409
 20
143.2092687007094
 10
158.7463150793409
 20
143.2092687007094
 10
153.9038856707499
 20
127.8027915271048
 10
153.9038856707499
 20
127.8027915271048
 10
153.9038856707499
 20
127.8027915271048
 10
151.3882752878863
 20
127.8027915271048
 10
151.3882752878863
 20
127.8027915271048
 10
151.3882752878863
 20
127.8027915271048
 10
155.6250565106276
 20
141.2751908193897
 10
155.6250565106276
 20
141.2751908193897
 10
156.5094131050963
 20
144.0936252951782
 10
157.109893644309
 20
146.1506931664571
 10
157.4220195011804
 20
147.4415712963654
 10
157.8095929989511
 20
149.0530157726519
 10
157.9656559273867
 20
149.5826995529385
 10
157.7816877071116
 20
150.7529992613181
 10
157.6111553680925
 20
151.8430281919372
 10
157.0582171779396
 20
152.5547853887321
 10
156.1170164704645
 20
152.5547853887321
 10
155.1096698860365
 20
152.5547853887321
 10
154.2962823053817
 20
152.4412694176073
 10
153.156643967048
 20
151.2945686288697
 10
152.0170056287143
 20
150.1476955852443
 10
151.076149431015
 20
148.7930831468137
 10
150.3337308641742
 20
147.2290087646991
 10
149.5957909244188
 20
145.6683794803425
 10
148.8530278478023
 20
143.6822806228776
 10
148.0964843801539
 20
141.2751908193897
 10
148.0964843801539
 20
141.2751908193897
 10
143.8552245303272
 20
127.8027915271048
 10
143.8552245303272
 20
127.8027915271048
 10
143.8552245303272
 20
127.8027915271048
 10
141.486030802177
 20
127.8027915271048
 10
141.486030802177
 20
127.8027915271048
 10
141.486030802177
 20
127.8027915271048
 10
146.3329388378533
 20
143.2092687007094
 10
146.3329388378533
 20
143.2092687007094
 10
146.8483254624444
 20
144.8408669988801
 10
147.2314203331297
 20
146.1837661049335
 10
147.4867020769946
 20
147.224185627838
 10
147.9169947869641
 20
149.0197705792876
 10
148.0306830129768
 20
150.2400242051577
 10
147.709255392159
 20
151.3157559800812
 10
147.3874832615654
 20
152.3916600098926
 10
146.8245542879144
 20
152.6683013598569
 10
145.8840425999909
 20
152.6683013598569
 10
145.0989048209514
 20
152.6683013598569
 10
144.3282364524954
 20
152.3275811915945
 10
143.4531816219731
 20
151.6538923250251
 10
142.34627171234
 20
150.8074318058939
 10
141.901854101563
 20
150.1097995099067
 10
141.3578731655808
 20
149.289521733736
 10
140.6299240093235
 20
148.192602607601
 10
140.2850697237515
 20
147.455696197173
 10
139.6652966370942
 20
145.8385673095858
 10
139.0506911970739
 20
144.2214384219986
 10
138.463991048893
 20
142.3252566160164
 10
138.0571250036777
 20
141.0154304484394
 10
138.0571250036777
 20
141.0154304484394
 10
133.9009590684727
 20
127.8027915271048
 10
133.9009590684727
 20
127.8027915271048
 10
133.9009590684727
 20
127.8027915271048
 10
131.4180771143097
 20
127.8027915271048
 10
131.4180771143097
 20
127.8027915271048
 10
131.4180771143097
 20
127.8027915271048
 10
139.8926730891197
 20
154.8294111834263
 10
139.8926730891197
 20
154.8294111834263
 97
        0
 75
     2
 76
     1
 98
        0
  0
SPLINE
  5
1DA8
330
1DA0
100
AcDbEntity
  8
TFORMLOGO
370
     0
100
AcDbSpline
210
0.0
220
0.0
230
1.0
 70
    11
 71
     3
 72
    29
 73
    25
 74
     0
 42
0.000000001
 43
0.0000000001
 40
0.0
 40
0.0
 40
0.0
 40
0.0
 40
1.0
 40
1.0
 40
1.0
 40
2.0
 40
2.0
 40
2.0
 40
3.0
 40
3.0
 40
3.0
 40
4.0
 40
4.0
 40
4.0
 40
5.0
 40
5.0
 40
5.0
 40
6.0
 40
6.0
 40
6.0
 40
7.0
 40
7.0
 40
7.0
 40
8.0
 40
8.0
 40
8.0
 40
8.0
 10
101.6420971922469
 20
132.8388354296931
 30
0.0
 10
101.630039350094
 20
134.7164137077823
 30
0.0
 10
102.2236296937908
 20
138.0598810818841
 30
0.0
 10
103.7487744712405
 20
142.5378191476827
 30
0.0
 10
105.819967243327
 20
148.5896501242061
 30
0.0
 10
107.0602024361932
 20
150.8074318058939
 30
0.0
 10
108.1522984254671
 20
151.8833358357054
 30
0.0
 10
109.741177511439
 20
153.4532668840085
 30
0.0
 10
111.8740375333931
 20
153.5290590346837
 30
0.0
 10
112.5075910110823
 20
153.4532668840085
 30
0.0
 10
113.4012493694975
 20
153.3490526768302
 30
0.0
 10
114.6683563248758
 20
152.7580461564518
 30
0.0
 10
114.7493161221879
 20
150.7838328862519
 30
0.0
 10
114.8106388622796
 20
149.0909118479895
 30
0.0
 10
114.3186789024427
 20
145.9191825971221
 30
0.0
 10
112.6164561002338
 20
140.9489400617108
 30
0.0
 10
110.6444821435766
 20
135.1746117095912
 30
0.0
 10
109.4669477299053
 20
132.8960240524753
 30
0.0
 10
108.5212683953448
 20
131.9072809959403
 30
0.0
 10
106.7346406980658
 20
130.0538184021569
 30
0.0
 10
104.8222669326213
 20
130.2336525051225
 30
0.0
 10
104.5408024457958
 20
130.2336525051225
 30
0.0
 10
104.1721769856939
 20
130.2336525051225
 30
0.0
 10
101.6465758193322
 20
130.6305277668397
 30
0.0
 10
101.6420971922469
 20
132.8388354296931
 30
0.0
  0
SPLINE
  5
1DA9
330
1DA0
100
AcDbEntity
  8
TFORMLOGO
370
     0
100
AcDbSpline
210
0.0
220
0.0
230
1.0
 70
    11
 71
     3
 72
    32
 73
    28
 74
     0
 42
0.000000001
 43
0.0000000001
 40
0.0
 40
0.0
 40
0.0
 40
0.0
 40
1.0
 40
1.0
 40
1.0
 40
2.0
 40
2.0
 40
2.0
 40
3.0
 40
3.0
 40
3.0
 40
4.0
 40
4.0
 40
4.0
 40
5.0
 40
5.0
 40
5.0
 40
6.0
 40
6.0
 40
6.0
 40
7.0
 40
7.0
 40
7.0
 40
8.0
 40
8.0
 40
8.0
 40
9.0
 40
9.0
 40
9.0
 40
9.0
 10
106.2595617172429
 20
153.4105476718098
 30
0.0
 10
104.8222669326213
 20
151.5474388043041
 30
0.0
 10
103.7177685914188
 20
149.8758773721411
 30
0.0
 10
101.9232171692965
 20
144.6141795664062
 30
0.0
 10
100.2754269116635
 20
139.7999999594306
 30
0.0
 10
99.22777268346732
 20
136.3052927937542
 30
0.0
 10
99.06964269637689
 20
132.039572749846
 30
0.0
 10
98.94665270641765
 20
128.8673267343149
 30
0.0
 10
100.8807305877373
 20
127.8027915271048
 30
0.0
 10
103.7129454545577
 20
127.8027915271048
 30
0.0
 10
104.9352661390825
 20
127.8027915271048
 30
0.0
 10
108.0151835347002
 20
127.8827177950895
 30
0.0
 10
110.2045431598849
 20
130.5926316915021
 30
0.0
 10
111.7417457794874
 20
132.4984597712065
 30
0.0
 10
113.155269389579
 20
134.475256864725
 30
0.0
 10
115.0562743324223
 20
140.9489400617108
 30
0.0
 10
116.6361961642235
 20
146.3680788349845
 30
0.0
 10
117.7282921534974
 20
149.8639917848761
 30
0.0
 10
117.6480213757369
 20
151.8595646611754
 30
0.0
 10
117.6480213757369
 20
151.8595646611754
 30
0.0
 10
117.6480213757369
 20
151.8595646611754
 30
0.0
 10
117.6480213757369
 20
151.8595646611754
 30
0.0
 10
117.13229024137
 20
155.18150017429
 30
0.0
 10
114.7162431837115
 20
155.886194920681
 30
0.0
 10
113.3351034925446
 20
155.886194920681
 30
0.0
 10
111.9829026225447
 20
155.886194920681
 30
0.0
 10
108.3414342923792
 20
156.1251124501957
 30
0.0
 10
106.2595617172429
 20
153.4105476718098
 30
0.0
  0
HATCH
  5
1DAA
330
1DA0
100
AcDbEntity
  8
TFORMLOGO
 62
   250
420
  2234388
100
AcDbHatch
 10
0.0
 20
0.0
 30
0.0
210
0.0
220
0.0
230
1.0
  2
SOLID
 70
     1
 71
     0
 91
        2
 92
        1
 93
        1
 72
     4
 94
        3
 73
     0
 74
     1
 95
       29
 96
       25
 40
0.0
 40
0.0
 40
0.0
 40
0.0
 40
1.0
 40
1.0
 40
1.0
 40
2.0
 40
2.0
 40
2.0
 40
3.0
 40
3.0
 40
3.0
 40
4.0
 40
4.0
 40
4.0
 40
5.0
 40
5.0
 40
5.0
 40
6.0
 40
6.0
 40
6.0
 40
7.0
 40
7.0
 40
7.0
 40
8.0
 40
8.0
 40
8.0
 40
8.0
 10
101.6420971922469
 20
132.8388354296931
 10
101.630039350094
 20
134.7164137077823
 10
102.2236296937908
 20
138.0598810818841
 10
103.7487744712405
 20
142.5378191476827
 10
105.819967243327
 20
148.5896501242061
 10
107.0602024361932
 20
150.8074318058939
 10
108.1522984254671
 20
151.8833358357054
 10
109.741177511439
 20
153.4532668840085
 10
111.8740375333931
 20
153.5290590346837
 10
112.5075910110823
 20
153.4532668840085
 10
113.4012493694975
 20
153.3490526768302
 10
114.6683563248758
 20
152.7580461564518
 10
114.7493161221879
 20
150.7838328862519
 10
114.8106388622796
 20
149.0909118479895
 10
114.3186789024427
 20
145.9191825971221
 10
112.6164561002338
 20
140.9489400617108
 10
110.6444821435766
 20
135.1746117095912
 10
109.4669477299053
 20
132.8960240524753
 10
108.5212683953448
 20
131.9072809959403
 10
106.7346406980658
 20
130.0538184021569
 10
104.8222669326213
 20
130.2336525051225
 10
104.5408024457958
 20
130.2336525051225
 10
104.1721769856939
 20
130.2336525051225
 10
101.6465758193322
 20
130.6305277668397
 10
101.6420971922469
 20
132.8388354296931
 97
        0
 92
        1
 93
        1
 72
     4
 94
        3
 73
     0
 74
     1
 95
       32
 96
       28
 40
0.0
 40
0.0
 40
0.0
 40
0.0
 40
1.0
 40
1.0
 40
1.0
 40
2.0
 40
2.0
 40
2.0
 40
3.0
 40
3.0
 40
3.0
 40
4.0
 40
4.0
 40
4.0
 40
5.0
 40
5.0
 40
5.0
 40
6.0
 40
6.0
 40
6.0
 40
7.0
 40
7.0
 40
7.0
 40
8.0
 40
8.0
 40
8.0
 40
9.0
 40
9.0
 40
9.0
 40
9.0
 10
106.2595617172429
 20
153.4105476718098
 10
104.8222669326213
 20
151.5474388043041
 10
103.7177685914188
 20
149.8758773721411
 10
101.9232171692965
 20
144.6141795664062
 10
100.2754269116635
 20
139.7999999594306
 10
99.22777268346732
 20
136.3052927937542
 10
99.06964269637689
 20
132.039572749846
 10
98.94665270641765
 20
128.8673267343149
 10
100.8807305877373
 20
127.8027915271048
 10
103.7129454545577
 20
127.8027915271048
 10
104.9352661390825
 20
127.8027915271048
 10
108.0151835347002
 20
127.8827177950895
 10
110.2045431598849
 20
130.5926316915021
 10
111.7417457794874
 20
132.4984597712065
 10
113.155269389579
 20
134.475256864725
 10
115.0562743324223
 20
140.9489400617108
 10
116.6361961642235
 20
146.3680788349845
 10
117.7282921534974
 20
149.8639917848761
 10
117.6480213757369
 20
151.8595646611754
 10
117.6480213757369
 20
151.8595646611754
 10
117.6480213757369
 20
151.8595646611754
 10
117.6480213757369
 20
151.8595646611754
 10
117.13229024137
 20
155.18150017429
 10
114.7162431837115
 20
155.886194920681
 10
113.3351034925446
 20
155.886194920681
 10
111.9829026225447
 20
155.886194920681
 10
108.3414342923792
 20
156.1251124501957
 10
106.2595617172429
 20
153.4105476718098
 97
        0
 75
     2
 76
     1
 98
        0
  0
ENDBLK
  5
1DAB
330
1DA0
100
AcDbEntity
  8
0
100
AcDbBlockEnd
  0
BLOCK
  5
473B
330
473A
100
AcDbEntity
  8
0
100
AcDbBlockBegin
  2
_NONE
 70
     0
 10
0.0
 20
0.0
 30
0.0
  3
_NONE
  1
_NONE
  0
ENDBLK
  5
473C
330
473A
100
AcDbEntity
  8
0
100
AcDbBlockEnd
  0
BLOCK
  5
5097
330
5096
100
AcDbEntity
  8
0
100
AcDbBlockBegin
  2
*D8
 70
     1
 10
0.0
 20
0.0
 30
0.0
  3
*D8
  1
*D93
  0
LINE
  5
5099
330
5096
100
AcDbEntity
  8
寸法
 62
     0
370
    -2
100
AcDbLine
 10
85.64975234779172
 20
672.4879216873769
 30
0.0
 11
85.64975234779172
 21
688.5574382513945
 31
0.0
  0
LINE
  5
509A
330
5096
100
AcDbEntity
  8
寸法
 62
     0
370
    -2
100
AcDbLine
 10
123.6497523477916
 20
672.4879216873769
 30
0.0
 11
123.6497523477916
 21
688.5574382513945
 31
0.0
  0
LINE
  5
509B
330
5096
100
AcDbEntity
  8
寸法
 62
     0
370
    -2
100
AcDbLine
 10
87.64975234779172
 20
688.5574382513945
 30
0.0
 11
121.6497523477916
 21
688.5574382513945
 31
0.0
  0
INSERT
  5
509C
330
5096
100
AcDbEntity
  8
寸法
 62
     0
370
    -2
100
AcDbBlockReference
  2
_DOT
 10
85.64975234779172
 20
688.5574382513945
 30
0.0
 41
2.0
 42
2.0
 43
2.0
 50
180.0
  0
INSERT
  5
509D
330
5096
100
AcDbEntity
  8
寸法
 62
     0
370
    -2
100
AcDbBlockReference
  2
_DOT
 10
123.6497523477916
 20
688.5574382513945
 30
0.0
 41
2.0
 42
2.0
 43
2.0
  0
MTEXT
  5
509E
330
5096
100
AcDbEntity
  8
寸法
 62
     0
100
AcDbMText
 10
104.6497523477917
 20
696.0574382513945
 30
0.0
 40
5.0
 41
0.0
 46
0.0
 71
     5
 72
     1
  1
\A1;38
  7
ＭＳ ゴシック
 73
     1
 44
1.0
  0
POINT
  5
509F
330
5096
100
AcDbEntity
  8
Defpoints
 62
     0
100
AcDbPoint
 10
85.64975234779172
 20
667.4879216873769
 30
0.0
  0
POINT
  5
50A0
330
5096
100
AcDbEntity
  8
Defpoints
 62
     0
100
AcDbPoint
 10
123.6497523477916
 20
667.4879216873769
 30
0.0
  0
POINT
  5
50A1
330
5096
100
AcDbEntity
  8
Defpoints
 62
     0
100
AcDbPoint
 10
123.6497523477916
 20
688.5574382513945
 30
0.0
  0
ENDBLK
  5
5098
330
5096
100
AcDbEntity
  8
0
100
AcDbBlockEnd
  0
BLOCK
  5
50A3
330
50A2
100
AcDbEntity
  8
0
100
AcDbBlockBegin
  2
*D9
 70
     1
 10
0.0
 20
0.0
 30
0.0
  3
*D9
  1
*D94
  0
LINE
  5
50A5
330
50A2
100
AcDbEntity
  8
寸法
 62
     0
370
    -2
100
AcDbLine
 10
459.1796649376738
 20
680.5339018900834
 30
0.0
 11
439.8340429243382
 21
680.5339018900834
 31
0.0
  0
LINE
  5
50A6
330
50A2
100
AcDbEntity
  8
寸法
 62
     0
370
    -2
100
AcDbLine
 10
459.1796649376738
 20
628.4646943762502
 30
0.0
 11
439.8340429243382
 21
628.4646943762502
 31
0.0
  0
LINE
  5
50A7
330
50A2
100
AcDbEntity
  8
寸法
 62
     0
370
    -2
100
AcDbLine
 10
439.8340429243382
 20
678.5339018900834
 30
0.0
 11
439.8340429243382
 21
630.4646943762502
 31
0.0
  0
INSERT
  5
50A8
330
50A2
100
AcDbEntity
  8
寸法
 62
     0
370
    -2
100
AcDbBlockReference
  2
_DOT
 10
439.8340429243382
 20
680.5339018900834
 30
0.0
 41
2.0
 42
2.0
 43
2.0
 50
90.0
  0
INSERT
  5
50A9
330
50A2
100
AcDbEntity
  8
寸法
 62
     0
370
    -2
100
AcDbBlockReference
  2
_DOT
 10
439.8340429243382
 20
628.4646943762502
 30
0.0
 41
2.0
 42
2.0
 43
2.0
 50
270.0
  0
MTEXT
  5
50AA
330
50A2
100
AcDbEntity
  8
寸法
 62
     0
100
AcDbMText
 10
432.3340429243382
 20
654.4992981331668
 30
0.0
 40
5.0
 41
0.0
 46
0.0
 71
     5
 72
     1
  1
\A1;52
  7
ＭＳ ゴシック
 11
0.0
 21
1.0
 31
0.0
 73
     1
 44
1.0
  0
POINT
  5
50AB
330
50A2
100
AcDbEntity
  8
Defpoints
 62
     0
100
AcDbPoint
 10
464.1796649376738
 20
680.5339018900834
 30
0.0
  0
POINT
  5
50AC
330
50A2
100
AcDbEntity
  8
Defpoints
 62
     0
100
AcDbPoint
 10
464.1796649376738
 20
628.4646943762502
 30
0.0
  0
POINT
  5
50AD
330
50A2
100
AcDbEntity
  8
Defpoints
 62
     0
100
AcDbPoint
 10
439.8340429243382
 20
628.4646943762502
 30
0.0
  0
ENDBLK
  5
50A4
330
50A2
100
AcDbEntity
  8
0
100
AcDbBlockEnd
  0
BLOCK
  5
5109
330
5108
100
AcDbEntity
  8
0
100
AcDbBlockBegin
  2
*D10
 70
     1
 10
0.0
 20
0.0
 30
0.0
  3
*D10
  1
*D95
  0
LINE
  5
510B
330
5108
100
AcDbEntity
  8
寸法
 62
     0
370
    -2
100
AcDbLine
 10
481.3029453228037
 20
558.4479683527701
 30
0.0
 11
481.3029453228037
 21
562.8783582208508
 31
0.0
  0
LINE
  5
510C
330
5108
100
AcDbEntity
  8
寸法
 62
     0
370
    -2
100
AcDbLine
 10
500.3029453228037
 20
544.2724558325606
 30
0.0
 11
500.3029453228037
 21
562.8783582208508
 31
0.0
  0
LINE
  5
510D
330
5108
100
AcDbEntity
  8
寸法
 62
     0
370
    -2
100
AcDbLine
 10
483.3029453228037
 20
562.8783582208508
 30
0.0
 11
498.3029453228037
 21
562.8783582208508
 31
0.0
  0
INSERT
  5
510E
330
5108
100
AcDbEntity
  8
寸法
 62
     0
370
    -2
100
AcDbBlockReference
  2
_DOT
 10
481.3029453228037
 20
562.8783582208508
 30
0.0
 41
2.0
 42
2.0
 43
2.0
 50
180.0
  0
INSERT
  5
510F
330
5108
100
AcDbEntity
  8
寸法
 62
     0
370
    -2
100
AcDbBlockReference
  2
_DOT
 10
500.3029453228037
 20
562.8783582208508
 30
0.0
 41
2.0
 42
2.0
 43
2.0
  0
MTEXT
  5
5110
330
5108
100
AcDbEntity
  8
寸法
 62
     0
100
AcDbMText
 10
490.8029453228037
 20
570.3783582208508
 30
0.0
 40
5.0
 41
0.0
 46
0.0
 71
     5
 72
     1
  1
\A1;19
  7
ＭＳ ゴシック
 73
     1
 44
1.0
  0
POINT
  5
5111
330
5108
100
AcDbEntity
  8
Defpoints
 62
     0
100
AcDbPoint
 10
481.3029453228037
 20
553.4479683527701
 30
0.0
  0
POINT
  5
5112
330
5108
100
AcDbEntity
  8
Defpoints
 62
     0
100
AcDbPoint
 10
500.3029453228037
 20
539.2724558325606
 30
0.0
  0
POINT
  5
5113
330
5108
100
AcDbEntity
  8
Defpoints
 62
     0
100
AcDbPoint
 10
500.3029453228037
 20
562.8783582208508
 30
0.0
  0
ENDBLK
  5
510A
330
5108
100
AcDbEntity
  8
0
100
AcDbBlockEnd
  0
BLOCK
  5
5115
330
5114
100
AcDbEntity
  8
0
100
AcDbBlockBegin
  2
*D11
 70
     1
 10
0.0
 20
0.0
 30
0.0
  3
*D11
  1
*D96
  0
LINE
  5
5117
330
5114
100
AcDbEntity
  8
寸法
 62
     0
370
    -2
100
AcDbLine
 10
462.3029453228037
 20
544.2724558325606
 30
0.0
 11
462.3029453228037
 21
562.8783582208508
 31
0.0
  0
LINE
  5
5118
330
5114
100
AcDbEntity
  8
寸法
 62
     0
370
    -2
100
AcDbLine
 10
481.3029453228037
 20
558.4479683527701
 30
0.0
 11
481.3029453228037
 21
562.8783582208508
 31
0.0
  0
LINE
  5
5119
330
5114
100
AcDbEntity
  8
寸法
 62
     0
370
    -2
100
AcDbLine
 10
464.3029453228037
 20
562.8783582208508
 30
0.0
 11
479.3029453228037
 21
562.8783582208508
 31
0.0
  0
INSERT
  5
511A
330
5114
100
AcDbEntity
  8
寸法
 62
     0
370
    -2
100
AcDbBlockReference
  2
_DOT
 10
462.3029453228037
 20
562.8783582208508
 30
0.0
 41
2.0
 42
2.0
 43
2.0
 50
180.0
  0
INSERT
  5
511B
330
5114
100
AcDbEntity
  8
寸法
 62
     0
370
    -2
100
AcDbBlockReference
  2
_DOT
 10
481.3029453228037
 20
562.8783582208508
 30
0.0
 41
2.0
 42
2.0
 43
2.0
  0
MTEXT
  5
511C
330
5114
100
AcDbEntity
  8
寸法
 62
     0
100
AcDbMText
 10
471.8029453228037
 20
570.3783582208508
 30
0.0
 40
5.0
 41
0.0
 46
0.0
 71
     5
 72
     1
  1
\A1;19
  7
ＭＳ ゴシック
 73
     1
 44
1.0
  0
POINT
  5
511D
330
5114
100
AcDbEntity
  8
Defpoints
 62
     0
100
AcDbPoint
 10
462.3029453228037
 20
539.2724558325606
 30
0.0
  0
POINT
  5
511E
330
5114
100
AcDbEntity
  8
Defpoints
 62
     0
100
AcDbPoint
 10
481.3029453228037
 20
553.4479683527701
 30
0.0
  0
POINT
  5
511F
330
5114
100
AcDbEntity
  8
Defpoints
 62
     0
100
AcDbPoint
 10
481.3029453228037
 20
562.8783582208508
 30
0.0
  0
ENDBLK
  5
5116
330
5114
100
AcDbEntity
  8
0
100
AcDbBlockEnd
  0
BLOCK
  5
5134
330
5133
100
AcDbEntity
  8
0
100
AcDbBlockBegin
  2
*D12
 70
     1
 10
0.0
 20
0.0
 30
0.0
  3
*D12
  1
*D97
  0
LINE
  5
5136
330
5133
100
AcDbEntity
  8
寸法
 62
     0
370
    -2
100
AcDbLine
 10
204.6694389781456
 20
680.7502148374385
 30
0.0
 11
187.1512631744646
 21
680.7502148374385
 31
0.0
  0
LINE
  5
5137
330
5133
100
AcDbEntity
  8
寸法
 62
     0
370
    -2
100
AcDbLine
 10
204.6694389781456
 20
628.6810073236052
 30
0.0
 11
187.1512631744646
 21
628.6810073236052
 31
0.0
  0
LINE
  5
5138
330
5133
100
AcDbEntity
  8
寸法
 62
     0
370
    -2
100
AcDbLine
 10
187.1512631744646
 20
678.7502148374385
 30
0.0
 11
187.1512631744646
 21
630.6810073236052
 31
0.0
  0
INSERT
  5
5139
330
5133
100
AcDbEntity
  8
寸法
 62
     0
370
    -2
100
AcDbBlockReference
  2
_DOT
 10
187.1512631744646
 20
680.7502148374385
 30
0.0
 41
2.0
 42
2.0
 43
2.0
 50
90.0
  0
INSERT
  5
513A
330
5133
100
AcDbEntity
  8
寸法
 62
     0
370
    -2
100
AcDbBlockReference
  2
_DOT
 10
187.1512631744646
 20
628.6810073236052
 30
0.0
 41
2.0
 42
2.0
 43
2.0
 50
270.0
  0
MTEXT
  5
513B
330
5133
100
AcDbEntity
  8
寸法
 62
     0
100
AcDbMText
 10
179.6512631744646
 20
654.7156110805219
 30
0.0
 40
5.0
 41
0.0
 46
0.0
 71
     5
 72
     1
  1
\A1;52
  7
ＭＳ ゴシック
 11
0.0
 21
1.0
 31
0.0
 73
     1
 44
1.0
  0
POINT
  5
513C
330
5133
100
AcDbEntity
  8
Defpoints
 62
     0
100
AcDbPoint
 10
209.6694389781456
 20
680.7502148374385
 30
0.0
  0
POINT
  5
513D
330
5133
100
AcDbEntity
  8
Defpoints
 62
     0
100
AcDbPoint
 10
209.6694389781456
 20
628.6810073236052
 30
0.0
  0
POINT
  5
513E
330
5133
100
AcDbEntity
  8
Defpoints
 62
     0
100
AcDbPoint
 10
187.1512631744646
 20
628.6810073236052
 30
0.0
  0
ENDBLK
  5
5135
330
5133
100
AcDbEntity
  8
0
100
AcDbBlockEnd
  0
BLOCK
  5
5150
330
514F
100
AcDbEntity
  8
0
100
AcDbBlockBegin
  2
*D13
 70
     1
 10
0.0
 20
0.0
 30
0.0
  3
*D13
  1
*D99
  0
LINE
  5
5152
330
514F
100
AcDbEntity
  8
寸法
 62
     0
370
    -2
100
AcDbLine
 10
474.9374027069584
 20
626.834421201166
 30
0.0
 11
474.9374027069584
 21
612.8465194391619
 31
0.0
  0
LINE
  5
5153
330
514F
100
AcDbEntity
  8
寸法
 62
     0
370
    -2
100
AcDbLine
 10
487.9374027069584
 20
626.834421201166
 30
0.0
 11
487.9374027069584
 21
612.8465194391619
 31
0.0
  0
LINE
  5
5154
330
514F
100
AcDbEntity
  8
寸法
 62
     0
370
    -2
100
AcDbLine
 10
476.9374027069584
 20
612.8465194391619
 30
0.0
 11
485.9374027069584
 21
612.8465194391619
 31
0.0
  0
INSERT
  5
5155
330
514F
100
AcDbEntity
  8
寸法
 62
     0
370
    -2
100
AcDbBlockReference
  2
_DOT
 10
474.9374027069584
 20
612.8465194391619
 30
0.0
 41
2.0
 42
2.0
 43
2.0
 50
180.0
  0
INSERT
  5
5156
330
514F
100
AcDbEntity
  8
寸法
 62
     0
370
    -2
100
AcDbBlockReference
  2
_DOT
 10
487.9374027069584
 20
612.8465194391619
 30
0.0
 41
2.0
 42
2.0
 43
2.0
  0
MTEXT
  5
5157
330
514F
100
AcDbEntity
  8
寸法
 62
     0
100
AcDbMText
 10
481.4374027069584
 20
620.3465194391619
 30
0.0
 40
5.0
 41
0.0
 46
0.0
 71
     5
 72
     1
  1
\A1;13
  7
ＭＳ ゴシック
 73
     1
 44
1.0
  0
POINT
  5
5158
330
514F
100
AcDbEntity
  8
Defpoints
 62
     0
100
AcDbPoint
 10
474.9374027069584
 20
631.834421201166
 30
0.0
  0
POINT
  5
5159
330
514F
100
AcDbEntity
  8
Defpoints
 62
     0
100
AcDbPoint
 10
487.9374027069584
 20
631.834421201166
 30
0.0
  0
POINT
  5
515A
330
514F
100
AcDbEntity
  8
Defpoints
 62
     0
100
AcDbPoint
 10
487.9374027069584
 20
612.8465194391619
 30
0.0
  0
ENDBLK
  5
5151
330
514F
100
AcDbEntity
  8
0
100
AcDbBlockEnd
  0
BLOCK
  5
5179
330
5178
100
AcDbEntity
  8
0
100
AcDbBlockBegin
  2
*D14
 70
     1
 10
0.0
 20
0.0
 30
0.0
  3
*D14
  1
*D101
  0
LINE
  5
517B
330
5178
100
AcDbEntity
  8
寸法
 62
     0
370
    -2
100
AcDbLine
 10
400.8520166780457
 20
669.3878704907354
 30
0.0
 11
409.1289749247652
 21
669.3878704907354
 31
0.0
  0
LINE
  5
517C
330
5178
100
AcDbEntity
  8
寸法
 62
     0
370
    -2
100
AcDbLine
 10
383.7695655217468
 20
631.3878704907354
 30
0.0
 11
409.1289749247652
 21
631.3878704907354
 31
0.0
  0
LINE
  5
517D
330
5178
100
AcDbEntity
  8
寸法
 62
     0
370
    -2
100
AcDbLine
 10
409.1289749247652
 20
667.3878704907354
 30
0.0
 11
409.1289749247652
 21
633.3878704907354
 31
0.0
  0
INSERT
  5
517E
330
5178
100
AcDbEntity
  8
寸法
 62
     0
370
    -2
100
AcDbBlockReference
  2
_DOT
 10
409.1289749247652
 20
669.3878704907354
 30
0.0
 41
2.0
 42
2.0
 43
2.0
 50
90.0
  0
INSERT
  5
517F
330
5178
100
AcDbEntity
  8
寸法
 62
     0
370
    -2
100
AcDbBlockReference
  2
_DOT
 10
409.1289749247652
 20
631.3878704907354
 30
0.0
 41
2.0
 42
2.0
 43
2.0
 50
270.0
  0
MTEXT
  5
5180
330
5178
100
AcDbEntity
  8
寸法
 62
     0
100
AcDbMText
 10
401.6289749247652
 20
650.3878704907354
 30
0.0
 40
5.0
 41
0.0
 46
0.0
 71
     5
 72
     1
  1
\A1;38
  7
ＭＳ ゴシック
 11
0.0
 21
1.0
 31
0.0
 73
     1
 44
1.0
  0
POINT
  5
5181
330
5178
100
AcDbEntity
  8
Defpoints
 62
     0
100
AcDbPoint
 10
395.8520166780457
 20
669.3878704907354
 30
0.0
  0
POINT
  5
5182
330
5178
100
AcDbEntity
  8
Defpoints
 62
     0
100
AcDbPoint
 10
378.7695655217468
 20
631.3878704907354
 30
0.0
  0
POINT
  5
5183
330
5178
100
AcDbEntity
  8
Defpoints
 62
     0
100
AcDbPoint
 10
409.1289749247652
 20
631.3878704907354
 30
0.0
  0
ENDBLK
  5
517A
330
5178
100
AcDbEntity
  8
0
100
AcDbBlockEnd
  0
BLOCK
  5
5189
330
5188
100
AcDbEntity
  8
0
100
AcDbBlockBegin
  2
*D15
 70
     1
 10
0.0
 20
0.0
 30
0.0
  3
*D15
  1
*D102
  0
LINE
  5
518B
330
5188
100
AcDbEntity
  8
寸法
 62
     0
370
    -2
100
AcDbLine
 10
338.1573664270419
 20
669.3878704907354
 30
0.0
 11
324.6394605687735
 21
669.3878704907354
 31
0.0
  0
LINE
  5
518C
330
5188
100
AcDbEntity
  8
寸法
 62
     0
370
    -2
100
AcDbLine
 10
338.1573664270419
 20
663.3878704907354
 30
0.0
 11
324.6394605687735
 21
663.3878704907354
 31
0.0
  0
LINE
  5
518D
330
5188
100
AcDbEntity
  8
寸法
 62
     0
370
    -2
100
AcDbLine
 10
324.6394605687735
 20
667.3878704907354
 30
0.0
 11
324.6394605687735
 21
665.3878704907354
 31
0.0
  0
INSERT
  5
518E
330
5188
100
AcDbEntity
  8
寸法
 62
     0
370
    -2
100
AcDbBlockReference
  2
_DOT
 10
324.6394605687735
 20
669.3878704907354
 30
0.0
 41
2.0
 42
2.0
 43
2.0
 50
90.0
  0
INSERT
  5
518F
330
5188
100
AcDbEntity
  8
寸法
 62
     0
370
    -2
100
AcDbBlockReference
  2
_DOT
 10
324.6394605687735
 20
663.3878704907354
 30
0.0
 41
2.0
 42
2.0
 43
2.0
 50
270.0
  0
MTEXT
  5
5190
330
5188
100
AcDbEntity
  8
寸法
 62
     0
100
AcDbMText
 10
317.1394605687735
 20
666.3878704907354
 30
0.0
 40
5.0
 41
0.0
 46
0.0
 71
     5
 72
     1
  1
\A1;6
  7
ＭＳ ゴシック
 11
0.0
 21
1.0
 31
0.0
 73
     1
 44
1.0
  0
POINT
  5
5191
330
5188
100
AcDbEntity
  8
Defpoints
 62
     0
100
AcDbPoint
 10
343.1573664270419
 20
669.3878704907354
 30
0.0
  0
POINT
  5
5192
330
5188
100
AcDbEntity
  8
Defpoints
 62
     0
100
AcDbPoint
 10
343.1573664270419
 20
663.3878704907354
 30
0.0
  0
POINT
  5
5193
330
5188
100
AcDbEntity
  8
Defpoints
 62
     0
100
AcDbPoint
 10
324.6394605687735
 20
663.3878704907354
 30
0.0
  0
ENDBLK
  5
518A
330
5188
100
AcDbEntity
  8
0
100
AcDbBlockEnd
  0
BLOCK
  5
519A
330
5199
100
AcDbEntity
  8
0
100
AcDbBlockBegin
  2
*D16
 70
     1
 10
0.0
 20
0.0
 30
0.0
  3
*D16
  1
*D103
  0
LINE
  5
519C
330
5199
100
AcDbEntity
  8
寸法
 62
     0
370
    -2
100
AcDbLine
 10
338.1573664270419
 20
663.3878704907354
 30
0.0
 11
324.6394605687735
 21
663.3878704907354
 31
0.0
  0
LINE
  5
519D
330
5199
100
AcDbEntity
  8
寸法
 62
     0
370
    -2
100
AcDbLine
 10
355.724355106928
 20
631.3878704907354
 30
0.0
 11
324.6394605687735
 21
631.3878704907354
 31
0.0
  0
LINE
  5
519E
330
5199
100
AcDbEntity
  8
寸法
 62
     0
370
    -2
100
AcDbLine
 10
324.6394605687735
 20
661.3878704907354
 30
0.0
 11
324.6394605687735
 21
633.3878704907354
 31
0.0
  0
INSERT
  5
519F
330
5199
100
AcDbEntity
  8
寸法
 62
     0
370
    -2
100
AcDbBlockReference
  2
_DOT
 10
324.6394605687735
 20
663.3878704907354
 30
0.0
 41
2.0
 42
2.0
 43
2.0
 50
90.0
  0
INSERT
  5
51A0
330
5199
100
AcDbEntity
  8
寸法
 62
     0
370
    -2
100
AcDbBlockReference
  2
_DOT
 10
324.6394605687735
 20
631.3878704907354
 30
0.0
 41
2.0
 42
2.0
 43
2.0
 50
270.0
  0
MTEXT
  5
51A1
330
5199
100
AcDbEntity
  8
寸法
 62
     0
100
AcDbMText
 10
317.1394605687735
 20
647.3878704907354
 30
0.0
 40
5.0
 41
0.0
 46
0.0
 71
     5
 72
     1
  1
\A1;32
  7
ＭＳ ゴシック
 11
0.0
 21
1.0
 31
0.0
 73
     1
 44
1.0
  0
POINT
  5
51A2
330
5199
100
AcDbEntity
  8
Defpoints
 62
     0
100
AcDbPoint
 10
343.1573664270419
 20
663.3878704907354
 30
0.0
  0
POINT
  5
51A3
330
5199
100
AcDbEntity
  8
Defpoints
 62
     0
100
AcDbPoint
 10
360.724355106928
 20
631.3878704907354
 30
0.0
  0
POINT
  5
51A4
330
5199
100
AcDbEntity
  8
Defpoints
 62
     0
100
AcDbPoint
 10
324.6394605687735
 20
631.3878704907354
 30
0.0
  0
ENDBLK
  5
519B
330
5199
100
AcDbEntity
  8
0
100
AcDbBlockEnd
  0
BLOCK
  5
51B3
330
51B2
100
AcDbEntity
  8
0
100
AcDbBlockBegin
  2
*D17
 70
     1
 10
0.0
 20
0.0
 30
0.0
  3
*D17
  1
*D104
  0
LINE
  5
51B5
330
51B2
100
AcDbEntity
  8
寸法
 62
     0
370
    -2
100
AcDbLine
 10
135.9970774732936
 20
658.4879216873769
 30
0.0
 11
150.9407582841361
 21
658.4879216873769
 31
0.0
  0
LINE
  5
51B6
330
51B2
100
AcDbEntity
  8
寸法
 62
     0
370
    -2
100
AcDbLine
 10
122.7351542495846
 20
645.4879216873769
 30
0.0
 11
150.9407582841361
 21
645.4879216873769
 31
0.0
  0
LINE
  5
51B7
330
51B2
100
AcDbEntity
  8
寸法
 62
     0
370
    -2
100
AcDbLine
 10
150.9407582841361
 20
656.4879216873769
 30
0.0
 11
150.9407582841361
 21
647.4879216873769
 31
0.0
  0
INSERT
  5
51B8
330
51B2
100
AcDbEntity
  8
寸法
 62
     0
370
    -2
100
AcDbBlockReference
  2
_DOT
 10
150.9407582841361
 20
658.4879216873769
 30
0.0
 41
2.0
 42
2.0
 43
2.0
 50
90.0
  0
INSERT
  5
51B9
330
51B2
100
AcDbEntity
  8
寸法
 62
     0
370
    -2
100
AcDbBlockReference
  2
_DOT
 10
150.9407582841361
 20
645.4879216873769
 30
0.0
 41
2.0
 42
2.0
 43
2.0
 50
270.0
  0
MTEXT
  5
51BA
330
51B2
100
AcDbEntity
  8
寸法
 62
     0
100
AcDbMText
 10
143.4407582841361
 20
651.9879216873769
 30
0.0
 40
5.0
 41
0.0
 46
0.0
 71
     5
 72
     1
  1
\A1;13
  7
ＭＳ ゴシック
 11
0.0
 21
1.0
 31
0.0
 73
     1
 44
1.0
  0
POINT
  5
51BB
330
51B2
100
AcDbEntity
  8
Defpoints
 62
     0
100
AcDbPoint
 10
130.9970774732936
 20
658.4879216873769
 30
0.0
  0
POINT
  5
51BC
330
51B2
100
AcDbEntity
  8
Defpoints
 62
     0
100
AcDbPoint
 10
117.7351542495846
 20
645.4879216873769
 30
0.0
  0
POINT
  5
51BD
330
51B2
100
AcDbEntity
  8
Defpoints
 62
     0
100
AcDbPoint
 10
150.9407582841361
 20
645.4879216873769
 30
0.0
  0
ENDBLK
  5
51B4
330
51B2
100
AcDbEntity
  8
0
100
AcDbBlockEnd
  0
BLOCK
  5
51CA
330
51C9
100
AcDbEntity
  8
0
100
AcDbBlockBegin
  2
*D18
 70
     1
 10
0.0
 20
0.0
 30
0.0
  3
*D18
  1
*D105
  0
LINE
  5
51CC
330
51C9
100
AcDbEntity
  8
寸法
 62
     0
370
    -2
100
AcDbLine
 10
73.30242722228965
 20
658.4879216873769
 30
0.0
 11
61.7123936967424
 21
658.4879216873769
 31
0.0
  0
LINE
  5
51CD
330
51C9
100
AcDbEntity
  8
寸法
 62
     0
370
    -2
100
AcDbLine
 10
73.30242722228965
 20
652.4879216873769
 30
0.0
 11
61.7123936967424
 21
652.4879216873769
 31
0.0
  0
LINE
  5
51CE
330
51C9
100
AcDbEntity
  8
寸法
 62
     0
370
    -2
100
AcDbLine
 10
61.7123936967424
 20
656.4879216873769
 30
0.0
 11
61.7123936967424
 21
654.4879216873769
 31
0.0
  0
INSERT
  5
51CF
330
51C9
100
AcDbEntity
  8
寸法
 62
     0
370
    -2
100
AcDbBlockReference
  2
_DOT
 10
61.7123936967424
 20
658.4879216873769
 30
0.0
 41
2.0
 42
2.0
 43
2.0
 50
90.0
  0
INSERT
  5
51D0
330
51C9
100
AcDbEntity
  8
寸法
 62
     0
370
    -2
100
AcDbBlockReference
  2
_DOT
 10
61.7123936967424
 20
652.4879216873769
 30
0.0
 41
2.0
 42
2.0
 43
2.0
 50
270.0
  0
MTEXT
  5
51D1
330
51C9
100
AcDbEntity
  8
寸法
 62
     0
100
AcDbMText
 10
54.2123936967424
 20
655.4879216873769
 30
0.0
 40
5.0
 41
0.0
 46
0.0
 71
     5
 72
     1
  1
\A1;6
  7
ＭＳ ゴシック
 11
0.0
 21
1.0
 31
0.0
 73
     1
 44
1.0
  0
POINT
  5
51D2
330
51C9
100
AcDbEntity
  8
Defpoints
 62
     0
100
AcDbPoint
 10
78.30242722228965
 20
658.4879216873769
 30
0.0
  0
POINT
  5
51D3
330
51C9
100
AcDbEntity
  8
Defpoints
 62
     0
100
AcDbPoint
 10
78.30242722228965
 20
652.4879216873769
 30
0.0
  0
POINT
  5
51D4
330
51C9
100
AcDbEntity
  8
Defpoints
 62
     0
100
AcDbPoint
 10
61.7123936967424
 20
652.4879216873769
 30
0.0
  0
ENDBLK
  5
51CB
330
51C9
100
AcDbEntity
  8
0
100
AcDbBlockEnd
  0
BLOCK
  5
51D8
330
51D7
100
AcDbEntity
  8
0
100
AcDbBlockBegin
  2
*D19
 70
     1
 10
0.0
 20
0.0
 30
0.0
  3
*D19
  1
*D106
  0
LINE
  5
51DA
330
51D7
100
AcDbEntity
  8
寸法
 62
     0
370
    -2
100
AcDbLine
 10
73.30242722228965
 20
652.4879216873769
 30
0.0
 11
61.7123936967424
 21
652.4879216873769
 31
0.0
  0
LINE
  5
51DB
330
51D7
100
AcDbEntity
  8
寸法
 62
     0
370
    -2
100
AcDbLine
 10
87.91150864689608
 20
645.4879216873769
 30
0.0
 11
61.7123936967424
 21
645.4879216873769
 31
0.0
  0
LINE
  5
51DC
330
51D7
100
AcDbEntity
  8
寸法
 62
     0
370
    -2
100
AcDbLine
 10
61.7123936967424
 20
650.4879216873769
 30
0.0
 11
61.7123936967424
 21
647.4879216873769
 31
0.0
  0
INSERT
  5
51DD
330
51D7
100
AcDbEntity
  8
寸法
 62
     0
370
    -2
100
AcDbBlockReference
  2
_DOT
 10
61.7123936967424
 20
652.4879216873769
 30
0.0
 41
2.0
 42
2.0
 43
2.0
 50
90.0
  0
INSERT
  5
51DE
330
51D7
100
AcDbEntity
  8
寸法
 62
     0
370
    -2
100
AcDbBlockReference
  2
_DOT
 10
61.7123936967424
 20
645.4879216873769
 30
0.0
 41
2.0
 42
2.0
 43
2.0
 50
270.0
  0
MTEXT
  5
51DF
330
51D7
100
AcDbEntity
  8
寸法
 62
     0
100
AcDbMText
 10
54.2123936967424
 20
648.9879216873769
 30
0.0
 40
5.0
 41
0.0
 46
0.0
 71
     5
 72
     1
  1
\A1;7
  7
ＭＳ ゴシック
 11
0.0
 21
1.0
 31
0.0
 73
     1
 44
1.0
  0
POINT
  5
51E0
330
51D7
100
AcDbEntity
  8
Defpoints
 62
     0
100
AcDbPoint
 10
78.30242722228965
 20
652.4879216873769
 30
0.0
  0
POINT
  5
51E1
330
51D7
100
AcDbEntity
  8
Defpoints
 62
     0
100
AcDbPoint
 10
92.91150864689608
 20
645.4879216873769
 30
0.0
  0
POINT
  5
51E2
330
51D7
100
AcDbEntity
  8
Defpoints
 62
     0
100
AcDbPoint
 10
61.7123936967424
 20
645.4879216873769
 30
0.0
  0
ENDBLK
  5
51D9
330
51D7
100
AcDbEntity
  8
0
100
AcDbBlockEnd
  0
BLOCK
  5
51F1
330
51F0
100
AcDbEntity
  8
0
100
AcDbBlockBegin
  2
*D20
 70
     1
 10
0.0
 20
0.0
 30
0.0
  3
*D20
  1
*D107
  0
LINE
  5
51F3
330
51F0
100
AcDbEntity
  8
寸法
 62
     0
370
    -2
100
AcDbLine
 10
94.57977244195146
 20
637.7435537066038
 30
0.0
 11
94.57977244195146
 21
625.4511267922846
 31
0.0
  0
LINE
  5
51F4
330
51F0
100
AcDbEntity
  8
寸法
 62
     0
370
    -2
100
AcDbLine
 10
114.4444584699707
 20
640.0661059682803
 30
0.0
 11
114.4444584699707
 21
625.4511267922846
 31
0.0
  0
LINE
  5
51F5
330
51F0
100
AcDbEntity
  8
寸法
 62
     0
370
    -2
100
AcDbLine
 10
96.57977244195146
 20
625.4511267922846
 30
0.0
 11
112.4444584699707
 21
625.4511267922846
 31
0.0
  0
INSERT
  5
51F6
330
51F0
100
AcDbEntity
  8
寸法
 62
     0
370
    -2
100
AcDbBlockReference
  2
_DOT
 10
94.57977244195146
 20
625.4511267922846
 30
0.0
 41
2.0
 42
2.0
 43
2.0
 50
180.0
  0
INSERT
  5
51F7
330
51F0
100
AcDbEntity
  8
寸法
 62
     0
370
    -2
100
AcDbBlockReference
  2
_DOT
 10
114.4444584699707
 20
625.4511267922846
 30
0.0
 41
2.0
 42
2.0
 43
2.0
  0
MTEXT
  5
51F8
330
51F0
100
AcDbEntity
  8
寸法
 62
     0
100
AcDbMText
 10
104.5121154559611
 20
632.9511267922846
 30
0.0
 40
5.0
 41
0.0
 46
0.0
 71
     5
 72
     1
  1
\A1;20
  7
ＭＳ ゴシック
 73
     1
 44
1.0
  0
POINT
  5
51F9
330
51F0
100
AcDbEntity
  8
Defpoints
 62
     0
100
AcDbPoint
 10
94.57977244195146
 20
642.7435537066038
 30
0.0
  0
POINT
  5
51FA
330
51F0
100
AcDbEntity
  8
Defpoints
 62
     0
100
AcDbPoint
 10
114.4444584699707
 20
645.0661059682803
 30
0.0
  0
POINT
  5
51FB
330
51F0
100
AcDbEntity
  8
Defpoints
 62
     0
100
AcDbPoint
 10
114.4444584699707
 20
625.4511267922846
 30
0.0
  0
ENDBLK
  5
51F2
330
51F0
100
AcDbEntity
  8
0
100
AcDbBlockEnd
  0
BLOCK
  5
5243
330
5242
100
AcDbEntity
  8
0
100
AcDbBlockBegin
  2
*D21
 70
     1
 10
0.0
 20
0.0
 30
0.0
  3
*D21
  1
*D109
  0
LINE
  5
5245
330
5242
100
AcDbEntity
  8
寸法
 62
     0
370
    -2
100
AcDbLine
 10
132.1497523477916
 20
667.4879216873769
 30
0.0
 11
150.9407582841361
 21
667.4879216873769
 31
0.0
  0
LINE
  5
5246
330
5242
100
AcDbEntity
  8
寸法
 62
     0
370
    -2
100
AcDbLine
 10
135.9970774732936
 20
658.4879216873769
 30
0.0
 11
150.9407582841361
 21
658.4879216873769
 31
0.0
  0
LINE
  5
5247
330
5242
100
AcDbEntity
  8
寸法
 62
     0
370
    -2
100
AcDbLine
 10
150.9407582841361
 20
665.4879216873769
 30
0.0
 11
150.9407582841361
 21
660.4879216873769
 31
0.0
  0
INSERT
  5
5248
330
5242
100
AcDbEntity
  8
寸法
 62
     0
370
    -2
100
AcDbBlockReference
  2
_DOT
 10
150.9407582841361
 20
667.4879216873769
 30
0.0
 41
2.0
 42
2.0
 43
2.0
 50
90.0
  0
INSERT
  5
5249
330
5242
100
AcDbEntity
  8
寸法
 62
     0
370
    -2
100
AcDbBlockReference
  2
_DOT
 10
150.9407582841361
 20
658.4879216873769
 30
0.0
 41
2.0
 42
2.0
 43
2.0
 50
270.0
  0
MTEXT
  5
524A
330
5242
100
AcDbEntity
  8
寸法
 62
     0
100
AcDbMText
 10
143.4407582841361
 20
662.9879216873769
 30
0.0
 40
5.0
 41
0.0
 46
0.0
 71
     5
 72
     1
  1
\A1;9
  7
ＭＳ ゴシック
 11
0.0
 21
1.0
 31
0.0
 73
     1
 44
1.0
  0
POINT
  5
524B
330
5242
100
AcDbEntity
  8
Defpoints
 62
     0
100
AcDbPoint
 10
127.1497523477916
 20
667.4879216873769
 30
0.0
  0
POINT
  5
524C
330
5242
100
AcDbEntity
  8
Defpoints
 62
     0
100
AcDbPoint
 10
130.9970774732936
 20
658.4879216873769
 30
0.0
  0
POINT
  5
524D
330
5242
100
AcDbEntity
  8
Defpoints
 62
     0
100
AcDbPoint
 10
150.9407582841361
 20
658.4879216873769
 30
0.0
  0
ENDBLK
  5
5244
330
5242
100
AcDbEntity
  8
0
100
AcDbBlockEnd
  0
BLOCK
  5
5285
330
5284
100
AcDbEntity
  8
0
100
AcDbBlockBegin
  2
*D22
 70
     1
 10
0.0
 20
0.0
 30
0.0
  3
*D22
  1
*D111
  0
LINE
  5
5287
330
5284
100
AcDbEntity
  8
寸法
 62
     0
370
    -2
100
AcDbLine
 10
473.4516016090824
 20
626.7451288205689
 30
0.0
 11
473.4516016090824
 21
599.1801431444658
 31
0.0
  0
LINE
  5
5288
330
5284
100
AcDbEntity
  8
寸法
 62
     0
370
    -2
100
AcDbLine
 10
489.4516016090824
 20
626.7180792579862
 30
0.0
 11
489.4516016090824
 21
599.1801431444658
 31
0.0
  0
LINE
  5
5289
330
5284
100
AcDbEntity
  8
寸法
 62
     0
370
    -2
100
AcDbLine
 10
475.4516016090824
 20
599.1801431444658
 30
0.0
 11
487.4516016090824
 21
599.1801431444658
 31
0.0
  0
INSERT
  5
528A
330
5284
100
AcDbEntity
  8
寸法
 62
     0
370
    -2
100
AcDbBlockReference
  2
_DOT
 10
473.4516016090824
 20
599.1801431444658
 30
0.0
 41
2.0
 42
2.0
 43
2.0
 50
180.0
  0
INSERT
  5
528B
330
5284
100
AcDbEntity
  8
寸法
 62
     0
370
    -2
100
AcDbBlockReference
  2
_DOT
 10
489.4516016090824
 20
599.1801431444658
 30
0.0
 41
2.0
 42
2.0
 43
2.0
  0
MTEXT
  5
528C
330
5284
100
AcDbEntity
  8
寸法
 62
     0
100
AcDbMText
 10
481.3516016090824
 20
606.6801431444658
 30
0.0
 40
5.0
 41
0.0
 46
0.0
 71
     5
 72
     1
  1
\A1;16
  7
ＭＳ ゴシック
 73
     1
 44
1.0
  0
POINT
  5
528D
330
5284
100
AcDbEntity
  8
Defpoints
 62
     0
100
AcDbPoint
 10
473.4516016090824
 20
631.7451288205689
 30
0.0
  0
POINT
  5
528E
330
5284
100
AcDbEntity
  8
Defpoints
 62
     0
100
AcDbPoint
 10
489.4516016090824
 20
631.7180792579862
 30
0.0
  0
POINT
  5
528F
330
5284
100
AcDbEntity
  8
Defpoints
 62
     0
100
AcDbPoint
 10
489.4516016090824
 20
599.1801431444658
 30
0.0
  0
ENDBLK
  5
5286
330
5284
100
AcDbEntity
  8
0
100
AcDbBlockEnd
  0
BLOCK
  5
57FF
330
57FE
100
AcDbEntity
  8
0
100
AcDbBlockBegin
  2
*D23
 70
     1
 10
0.0
 20
0.0
 30
0.0
  3
*D23
  1

  0
LINE
  5
5801
330
57FE
100
AcDbEntity
  8
モデル
 62
     0
370
    -2
100
AcDbLine
 10
764.4415435770458
 20
239.9851473717662
 30
0.0
 11
769.4431410215531
 21
239.9851473717662
 31
0.0
  0
LINE
  5
5802
330
57FE
100
AcDbEntity
  8
モデル
 62
     0
370
    -2
100
AcDbLine
 10
764.4415435770458
 20
189.985147371325
 30
0.0
 11
769.4431410215531
 21
189.985147371325
 31
0.0
  0
LINE
  5
5803
330
57FE
100
AcDbEntity
  8
モデル
 62
     0
370
    -2
100
AcDbLine
 10
769.4431410215531
 20
237.9851473717662
 30
0.0
 11
769.4431410215531
 21
191.985147371325
 31
0.0
  0
INSERT
  5
5804
330
57FE
100
AcDbEntity
  8
モデル
 62
     0
370
    -2
100
AcDbBlockReference
  2
_DOT
 10
769.4431410215531
 20
239.9851473717662
 30
0.0
 41
2.0
 42
2.0
 43
2.0
 50
90.0
  0
INSERT
  5
5805
330
57FE
100
AcDbEntity
  8
モデル
 62
     0
370
    -2
100
AcDbBlockReference
  2
_DOT
 10
769.4431410215531
 20
189.985147371325
 30
0.0
 41
2.0
 42
2.0
 43
2.0
 50
270.0
  0
MTEXT
  5
5806
330
57FE
100
AcDbEntity
  8
モデル
 62
     0
100
AcDbMText
 10
761.9431410215531
 20
214.9851473715456
 30
0.0
 40
5.0
 41
0.0
 46
0.0
 71
     5
 72
     1
  1
\A1;50
  7
ＭＳ ゴシック
 11
0.0
 21
1.0
 31
0.0
 73
     1
 44
1.0
  0
POINT
  5
5807
330
57FE
100
AcDbEntity
  8
Defpoints
 62
     0
100
AcDbPoint
 10
759.4415435770458
 20
239.9851473717662
 30
0.0
  0
POINT
  5
5808
330
57FE
100
AcDbEntity
  8
Defpoints
 62
     0
100
AcDbPoint
 10
759.4415435770458
 20
189.985147371325
 30
0.0
  0
POINT
  5
5809
330
57FE
100
AcDbEntity
  8
Defpoints
 62
     0
100
AcDbPoint
 10
769.4431410215531
 20
189.985147371325
 30
0.0
  0
ENDBLK
  5
5800
330
57FE
100
AcDbEntity
  8
0
100
AcDbBlockEnd
  0
BLOCK
  5
5815
330
5814
100
AcDbEntity
  8
0
100
AcDbBlockBegin
  2
*D24
 70
     1
 10
0.0
 20
0.0
 30
0.0
  3
*D24
  1

  0
LINE
  5
5817
330
5814
100
AcDbEntity
  8
モデル
 62
     0
370
    -2
100
AcDbLine
 10
1086.291665269283
 20
440.6240062218566
 30
0.0
 11
1179.863599231547
 21
440.6240062218566
 31
0.0
  0
LINE
  5
5818
330
5814
100
AcDbEntity
  8
モデル
 62
     0
370
    -2
100
AcDbLine
 10
1086.291665269283
 20
352.6823788633662
 30
0.0
 11
1179.863599231547
 21
352.6823788633662
 31
0.0
  0
LINE
  5
5819
330
5814
100
AcDbEntity
  8
モデル
 62
     0
370
    -2
100
AcDbLine
 10
1179.863599231547
 20
438.6240062218566
 30
0.0
 11
1179.863599231547
 21
354.6823788633662
 31
0.0
  0
INSERT
  5
581A
330
5814
100
AcDbEntity
  8
モデル
 62
     0
370
    -2
100
AcDbBlockReference
  2
_DOT
 10
1179.863599231547
 20
440.6240062218566
 30
0.0
 41
2.0
 42
2.0
 43
2.0
 50
90.0
  0
INSERT
  5
581B
330
5814
100
AcDbEntity
  8
モデル
 62
     0
370
    -2
100
AcDbBlockReference
  2
_DOT
 10
1179.863599231547
 20
352.6823788633662
 30
0.0
 41
2.0
 42
2.0
 43
2.0
 50
270.0
  0
MTEXT
  5
581C
330
5814
100
AcDbEntity
  8
モデル
 62
     0
100
AcDbMText
 10
1172.363599231547
 20
396.6531925426114
 30
0.0
 40
5.0
 41
0.0
 46
0.0
 71
     5
 72
     1
  1
\A1;88
  7
ＭＳ ゴシック
 11
0.0
 21
1.0
 31
0.0
 73
     1
 44
1.0
  0
POINT
  5
581D
330
5814
100
AcDbEntity
  8
Defpoints
 62
     0
100
AcDbPoint
 10
1081.291665269283
 20
440.6240062218566
 30
0.0
  0
POINT
  5
581E
330
5814
100
AcDbEntity
  8
Defpoints
 62
     0
100
AcDbPoint
 10
1081.291665269283
 20
352.6823788633662
 30
0.0
  0
POINT
  5
581F
330
5814
100
AcDbEntity
  8
Defpoints
 62
     0
100
AcDbPoint
 10
1179.863599231547
 20
352.6823788633662
 30
0.0
  0
ENDBLK
  5
5816
330
5814
100
AcDbEntity
  8
0
100
AcDbBlockEnd
  0
BLOCK
  5
5A31
330
5A30
100
AcDbEntity
  8
0
100
AcDbBlockBegin
  2
*D25
 70
     1
 10
0.0
 20
0.0
 30
0.0
  3
*D25
  1

  0
LINE
  5
5A33
330
5A30
100
AcDbEntity
  8
モデル
 62
     0
370
    -2
100
AcDbLine
 10
932.3248612907606
 20
289.3603661528591
 30
0.0
 11
932.3248612907606
 21
286.7884610562997
 31
0.0
  0
LINE
  5
5A34
330
5A30
100
AcDbEntity
  8
モデル
 62
     0
370
    -2
100
AcDbLine
 10
935.628310541275
 20
289.3603661528591
 30
0.0
 11
935.628310541275
 21
286.7884610562997
 31
0.0
  0
LINE
  5
5A35
330
5A30
100
AcDbEntity
  8
モデル
 62
     0
370
    -2
100
AcDbLine
 10
930.3248612907606
 20
286.7884610562997
 30
0.0
 11
928.3248612907606
 21
286.7884610562997
 31
0.0
  0
LINE
  5
5A36
330
5A30
100
AcDbEntity
  8
モデル
 62
     0
370
    -2
100
AcDbLine
 10
937.628310541275
 20
286.7884610562997
 30
0.0
 11
939.628310541275
 21
286.7884610562997
 31
0.0
  0
INSERT
  5
5A37
330
5A30
100
AcDbEntity
  8
モデル
 62
     0
370
    -2
100
AcDbBlockReference
  2
_DOT
 10
932.3248612907606
 20
286.7884610562997
 30
0.0
 41
2.0
 42
2.0
 43
2.0
  0
INSERT
  5
5A38
330
5A30
100
AcDbEntity
  8
モデル
 62
     0
370
    -2
100
AcDbBlockReference
  2
_DOT
 10
935.628310541275
 20
286.7884610562997
 30
0.0
 41
2.0
 42
2.0
 43
2.0
 50
180.0
  0
MTEXT
  5
5A39
330
5A30
100
AcDbEntity
  8
モデル
 62
     0
100
AcDbMText
 10
933.9765859160178
 20
294.2884610562997
 30
0.0
 40
5.0
 41
0.0
 46
0.0
 71
     5
 72
     1
  1
\A1;3
  7
ＭＳ ゴシック
 73
     1
 44
1.0
  0
POINT
  5
5A3A
330
5A30
100
AcDbEntity
  8
Defpoints
 62
     0
100
AcDbPoint
 10
932.3248612907606
 20
284.3603661528591
 30
0.0
  0
POINT
  5
5A3B
330
5A30
100
AcDbEntity
  8
Defpoints
 62
     0
100
AcDbPoint
 10
935.628310541275
 20
284.3603661528591
 30
0.0
  0
POINT
  5
5A3C
330
5A30
100
AcDbEntity
  8
Defpoints
 62
     0
100
AcDbPoint
 10
935.628310541275
 20
286.7884610562997
 30
0.0
  0
ENDBLK
  5
5A32
330
5A30
100
AcDbEntity
  8
0
100
AcDbBlockEnd
  0
BLOCK
  5
5A63
330
5A62
100
AcDbEntity
  8
0
100
AcDbBlockBegin
  2
*D26
 70
     1
 10
0.0
 20
0.0
 30
0.0
  3
*D26
  1

  0
LINE
  5
5A65
330
5A62
100
AcDbEntity
  8
寸法
 62
     0
370
    -2
100
AcDbLine
 10
75.42363004278172
 20
315.0283743428685
 30
0.0
 11
75.42363004278172
 21
329.698320209188
 31
0.0
  0
LINE
  5
5A66
330
5A62
100
AcDbEntity
  8
寸法
 62
     0
370
    -2
100
AcDbLine
 10
113.4236300427817
 20
315.0283743428685
 30
0.0
 11
113.4236300427817
 21
329.698320209188
 31
0.0
  0
LINE
  5
5A67
330
5A62
100
AcDbEntity
  8
寸法
 62
     0
370
    -2
100
AcDbLine
 10
77.42363004278172
 20
329.698320209188
 30
0.0
 11
111.4236300427817
 21
329.698320209188
 31
0.0
  0
INSERT
  5
5A68
330
5A62
100
AcDbEntity
  8
寸法
 62
     0
370
    -2
100
AcDbBlockReference
  2
_DOT
 10
75.42363004278172
 20
329.698320209188
 30
0.0
 41
2.0
 42
2.0
 43
2.0
 50
180.0
  0
INSERT
  5
5A69
330
5A62
100
AcDbEntity
  8
寸法
 62
     0
370
    -2
100
AcDbBlockReference
  2
_DOT
 10
113.4236300427817
 20
329.698320209188
 30
0.0
 41
2.0
 42
2.0
 43
2.0
  0
MTEXT
  5
5A6A
330
5A62
100
AcDbEntity
  8
寸法
 62
     0
100
AcDbMText
 10
94.42363004278172
 20
337.198320209188
 30
0.0
 40
5.0
 41
0.0
 46
0.0
 71
     5
 72
     1
  1
\A1;38
  7
ＭＳ ゴシック
 73
     1
 44
1.0
  0
POINT
  5
5A6B
330
5A62
100
AcDbEntity
  8
Defpoints
 62
     0
100
AcDbPoint
 10
75.42363004278172
 20
310.0283743428685
 30
0.0
  0
POINT
  5
5A6C
330
5A62
100
AcDbEntity
  8
Defpoints
 62
     0
100
AcDbPoint
 10
113.4236300427817
 20
310.0283743428685
 30
0.0
  0
POINT
  5
5A6D
330
5A62
100
AcDbEntity
  8
Defpoints
 62
     0
100
AcDbPoint
 10
113.4236300427817
 20
329.698320209188
 30
0.0
  0
ENDBLK
  5
5A64
330
5A62
100
AcDbEntity
  8
0
100
AcDbBlockEnd
  0
BLOCK
  5
5ABE
330
5ABD
100
AcDbEntity
  8
0
100
AcDbBlockBegin
  2
*D27
 70
     1
 10
0.0
 20
0.0
 30
0.0
  3
*D27
  1

  0
LINE
  5
5AC0
330
5ABD
100
AcDbEntity
  8
寸法
 62
     0
370
    -2
100
AcDbLine
 10
469.9111912937688
 20
199.8447780359249
 30
0.0
 11
469.9111912937688
 21
204.4302411864766
 31
0.0
  0
LINE
  5
5AC1
330
5ABD
100
AcDbEntity
  8
寸法
 62
     0
370
    -2
100
AcDbLine
 10
488.8794803869403
 20
170.6397216858863
 30
0.0
 11
488.8794803869403
 21
204.4302411864766
 31
0.0
  0
LINE
  5
5AC2
330
5ABD
100
AcDbEntity
  8
寸法
 62
     0
370
    -2
100
AcDbLine
 10
471.9111912937688
 20
204.4302411864766
 30
0.0
 11
486.8794803869403
 21
204.4302411864766
 31
0.0
  0
INSERT
  5
5AC3
330
5ABD
100
AcDbEntity
  8
寸法
 62
     0
370
    -2
100
AcDbBlockReference
  2
_DOT
 10
469.9111912937688
 20
204.4302411864766
 30
0.0
 41
2.0
 42
2.0
 43
2.0
 50
180.0
  0
INSERT
  5
5AC4
330
5ABD
100
AcDbEntity
  8
寸法
 62
     0
370
    -2
100
AcDbBlockReference
  2
_DOT
 10
488.8794803869403
 20
204.4302411864766
 30
0.0
 41
2.0
 42
2.0
 43
2.0
  0
MTEXT
  5
5AC5
330
5ABD
100
AcDbEntity
  8
寸法
 62
     0
100
AcDbMText
 10
479.3953358403545
 20
211.9302411864766
 30
0.0
 40
5.0
 41
0.0
 46
0.0
 71
     5
 72
     1
  1
\A1;19
  7
ＭＳ ゴシック
 73
     1
 44
1.0
  0
POINT
  5
5AC6
330
5ABD
100
AcDbEntity
  8
Defpoints
 62
     0
100
AcDbPoint
 10
469.9111912937688
 20
194.8447780359249
 30
0.0
  0
POINT
  5
5AC7
330
5ABD
100
AcDbEntity
  8
Defpoints
 62
     0
100
AcDbPoint
 10
488.8794803869403
 20
165.6397216858863
 30
0.0
  0
POINT
  5
5AC8
330
5ABD
100
AcDbEntity
  8
Defpoints
 62
     0
100
AcDbPoint
 10
488.8794803869403
 20
204.4302411864766
 30
0.0
  0
ENDBLK
  5
5ABF
330
5ABD
100
AcDbEntity
  8
0
100
AcDbBlockEnd
  0
BLOCK
  5
5ACA
330
5AC9
100
AcDbEntity
  8
0
100
AcDbBlockBegin
  2
*D28
 70
     1
 10
0.0
 20
0.0
 30
0.0
  3
*D28
  1

  0
LINE
  5
5ACC
330
5AC9
100
AcDbEntity
  8
寸法
 62
     0
370
    -2
100
AcDbLine
 10
450.8794803869403
 20
170.6397216858863
 30
0.0
 11
450.8794803869403
 21
204.4302411864766
 31
0.0
  0
LINE
  5
5ACD
330
5AC9
100
AcDbEntity
  8
寸法
 62
     0
370
    -2
100
AcDbLine
 10
469.9111912937688
 20
199.8447780359249
 30
0.0
 11
469.9111912937688
 21
204.4302411864766
 31
0.0
  0
LINE
  5
5ACE
330
5AC9
100
AcDbEntity
  8
寸法
 62
     0
370
    -2
100
AcDbLine
 10
452.8794803869403
 20
204.4302411864766
 30
0.0
 11
467.9111912937688
 21
204.4302411864766
 31
0.0
  0
INSERT
  5
5ACF
330
5AC9
100
AcDbEntity
  8
寸法
 62
     0
370
    -2
100
AcDbBlockReference
  2
_DOT
 10
450.8794803869403
 20
204.4302411864766
 30
0.0
 41
2.0
 42
2.0
 43
2.0
 50
180.0
  0
INSERT
  5
5AD0
330
5AC9
100
AcDbEntity
  8
寸法
 62
     0
370
    -2
100
AcDbBlockReference
  2
_DOT
 10
469.9111912937688
 20
204.4302411864766
 30
0.0
 41
2.0
 42
2.0
 43
2.0
  0
MTEXT
  5
5AD1
330
5AC9
100
AcDbEntity
  8
寸法
 62
     0
100
AcDbMText
 10
460.3953358403545
 20
211.9302411864766
 30
0.0
 40
5.0
 41
0.0
 46
0.0
 71
     5
 72
     1
  1
\A1;19
  7
ＭＳ ゴシック
 73
     1
 44
1.0
  0
POINT
  5
5AD2
330
5AC9
100
AcDbEntity
  8
Defpoints
 62
     0
100
AcDbPoint
 10
450.8794803869403
 20
165.6397216858863
 30
0.0
  0
POINT
  5
5AD3
330
5AC9
100
AcDbEntity
  8
Defpoints
 62
     0
100
AcDbPoint
 10
469.9111912937688
 20
194.8447780359249
 30
0.0
  0
POINT
  5
5AD4
330
5AC9
100
AcDbEntity
  8
Defpoints
 62
     0
100
AcDbPoint
 10
469.9111912937688
 20
204.4302411864766
 30
0.0
  0
ENDBLK
  5
5ACB
330
5AC9
100
AcDbEntity
  8
0
100
AcDbBlockEnd
  0
BLOCK
  5
5AFD
330
5AFC
100
AcDbEntity
  8
0
100
AcDbBlockBegin
  2
*D29
 70
     1
 10
0.0
 20
0.0
 30
0.0
  3
*D29
  1

  0
LINE
  5
5AFF
330
5AFC
100
AcDbEntity
  8
寸法
 62
     0
370
    -2
100
AcDbLine
 10
1029.499152510621
 20
302.331040457921
 30
0.0
 11
1029.499152510621
 21
259.6554122657217
 31
0.0
  0
LINE
  5
5B00
330
5AFC
100
AcDbEntity
  8
寸法
 62
     0
370
    -2
100
AcDbLine
 10
1054.467183091185
 20
302.3248361500631
 30
0.0
 11
1054.467183091185
 21
259.6554122657217
 31
0.0
  0
LINE
  5
5B01
330
5AFC
100
AcDbEntity
  8
寸法
 62
     0
370
    -2
100
AcDbLine
 10
1031.499152510621
 20
259.6554122657217
 30
0.0
 11
1052.467183091185
 21
259.6554122657217
 31
0.0
  0
INSERT
  5
5B02
330
5AFC
100
AcDbEntity
  8
寸法
 62
     0
370
    -2
100
AcDbBlockReference
  2
_DOT
 10
1029.499152510621
 20
259.6554122657217
 30
0.0
 41
2.0
 42
2.0
 43
2.0
 50
180.0
  0
INSERT
  5
5B03
330
5AFC
100
AcDbEntity
  8
寸法
 62
     0
370
    -2
100
AcDbBlockReference
  2
_DOT
 10
1054.467183091185
 20
259.6554122657217
 30
0.0
 41
2.0
 42
2.0
 43
2.0
  0
MTEXT
  5
5B04
330
5AFC
100
AcDbEntity
  8
寸法
 62
     0
100
AcDbMText
 10
1041.983167800903
 20
267.1554122657217
 30
0.0
 40
5.0
 41
0.0
 46
0.0
 71
     5
 72
     1
  1
\A1;25
  7
ＭＳ ゴシック
 73
     1
 44
1.0
  0
POINT
  5
5B05
330
5AFC
100
AcDbEntity
  8
Defpoints
 62
     0
100
AcDbPoint
 10
1029.499152510621
 20
307.331040457921
 30
0.0
  0
POINT
  5
5B06
330
5AFC
100
AcDbEntity
  8
Defpoints
 62
     0
100
AcDbPoint
 10
1054.467183091185
 20
307.3248361500631
 30
0.0
  0
POINT
  5
5B07
330
5AFC
100
AcDbEntity
  8
Defpoints
 62
     0
100
AcDbPoint
 10
1054.467183091185
 20
259.6554122657217
 30
0.0
  0
ENDBLK
  5
5AFE
330
5AFC
100
AcDbEntity
  8
0
100
AcDbBlockEnd
  0
BLOCK
  5
5B0C
330
5B0B
100
AcDbEntity
  8
0
100
AcDbBlockBegin
  2
*D30
 70
     1
 10
0.0
 20
0.0
 30
0.0
  3
*D30
  1

  0
LINE
  5
5B0E
330
5B0B
100
AcDbEntity
  8
寸法
 62
     0
370
    -2
100
AcDbLine
 10
439.8795665576619
 20
332.3273351076154
 30
0.0
 11
425.0468091647026
 21
332.3273351076154
 31
0.0
  0
LINE
  5
5B0F
330
5B0B
100
AcDbEntity
  8
寸法
 62
     0
370
    -2
100
AcDbLine
 10
439.8795665576619
 20
282.3273351071742
 30
0.0
 11
425.0468091647026
 21
282.3273351071742
 31
0.0
  0
LINE
  5
5B10
330
5B0B
100
AcDbEntity
  8
寸法
 62
     0
370
    -2
100
AcDbLine
 10
425.0468091647026
 20
330.3273351076154
 30
0.0
 11
425.0468091647026
 21
284.3273351071742
 31
0.0
  0
INSERT
  5
5B11
330
5B0B
100
AcDbEntity
  8
寸法
 62
     0
370
    -2
100
AcDbBlockReference
  2
_DOT
 10
425.0468091647026
 20
332.3273351076154
 30
0.0
 41
2.0
 42
2.0
 43
2.0
 50
90.0
  0
INSERT
  5
5B12
330
5B0B
100
AcDbEntity
  8
寸法
 62
     0
370
    -2
100
AcDbBlockReference
  2
_DOT
 10
425.0468091647026
 20
282.3273351071742
 30
0.0
 41
2.0
 42
2.0
 43
2.0
 50
270.0
  0
MTEXT
  5
5B13
330
5B0B
100
AcDbEntity
  8
寸法
 62
     0
100
AcDbMText
 10
417.5468091647026
 20
307.3273351073948
 30
0.0
 40
5.0
 41
0.0
 46
0.0
 71
     5
 72
     1
  1
\A1;50
  7
ＭＳ ゴシック
 11
0.0
 21
1.0
 31
0.0
 73
     1
 44
1.0
  0
POINT
  5
5B14
330
5B0B
100
AcDbEntity
  8
Defpoints
 62
     0
100
AcDbPoint
 10
444.8795665576619
 20
332.3273351076154
 30
0.0
  0
POINT
  5
5B15
330
5B0B
100
AcDbEntity
  8
Defpoints
 62
     0
100
AcDbPoint
 10
444.8795665576619
 20
282.3273351071742
 30
0.0
  0
POINT
  5
5B16
330
5B0B
100
AcDbEntity
  8
Defpoints
 62
     0
100
AcDbPoint
 10
425.0468091647026
 20
282.3273351071742
 30
0.0
  0
ENDBLK
  5
5B0D
330
5B0B
100
AcDbEntity
  8
0
100
AcDbBlockEnd
  0
BLOCK
  5
5B1B
330
5B1A
100
AcDbEntity
  8
0
100
AcDbBlockBegin
  2
*D31
 70
     1
 10
0.0
 20
0.0
 30
0.0
  3
*D31
  1

  0
LINE
  5
5B1D
330
5B1A
100
AcDbEntity
  8
寸法
 62
     0
370
    -2
100
AcDbLine
 10
953.1444675930983
 20
310.3450415126799
 30
0.0
 11
968.4526204854571
 21
310.3450415126799
 31
0.0
  0
LINE
  5
5B1E
330
5B1A
100
AcDbEntity
  8
寸法
 62
     0
370
    -2
100
AcDbLine
 10
940.628310541275
 20
280.3577258751465
 30
0.0
 11
968.4526204854571
 21
280.3577258751465
 31
0.0
  0
LINE
  5
5B1F
330
5B1A
100
AcDbEntity
  8
寸法
 62
     0
370
    -2
100
AcDbLine
 10
968.4526204854571
 20
308.3450415126799
 30
0.0
 11
968.4526204854571
 21
282.3577258751465
 31
0.0
  0
INSERT
  5
5B20
330
5B1A
100
AcDbEntity
  8
寸法
 62
     0
370
    -2
100
AcDbBlockReference
  2
_DOT
 10
968.4526204854571
 20
310.3450415126799
 30
0.0
 41
2.0
 42
2.0
 43
2.0
 50
90.0
  0
INSERT
  5
5B21
330
5B1A
100
AcDbEntity
  8
寸法
 62
     0
370
    -2
100
AcDbBlockReference
  2
_DOT
 10
968.4526204854571
 20
280.3577258751465
 30
0.0
 41
2.0
 42
2.0
 43
2.0
 50
270.0
  0
MTEXT
  5
5B22
330
5B1A
100
AcDbEntity
  8
寸法
 62
     0
100
AcDbMText
 10
960.9526204854571
 20
295.3513836939132
 30
0.0
 40
5.0
 41
0.0
 46
0.0
 71
     5
 72
     1
  1
\A1;30
  7
ＭＳ ゴシック
 11
0.0
 21
1.0
 31
0.0
 73
     1
 44
1.0
  0
POINT
  5
5B23
330
5B1A
100
AcDbEntity
  8
Defpoints
 62
     0
100
AcDbPoint
 10
948.1444675930983
 20
310.3450415126799
 30
0.0
  0
POINT
  5
5B24
330
5B1A
100
AcDbEntity
  8
Defpoints
 62
     0
100
AcDbPoint
 10
935.628310541275
 20
280.3577258751465
 30
0.0
  0
POINT
  5
5B25
330
5B1A
100
AcDbEntity
  8
Defpoints
 62
     0
100
AcDbPoint
 10
968.4526204854571
 20
280.3577258751465
 30
0.0
  0
ENDBLK
  5
5B1C
330
5B1A
100
AcDbEntity
  8
0
100
AcDbBlockEnd
  0
BLOCK
  5
5B2A
330
5B29
100
AcDbEntity
  8
0
100
AcDbBlockBegin
  2
*D32
 70
     1
 10
0.0
 20
0.0
 30
0.0
  3
*D32
  1

  0
LINE
  5
5B2C
330
5B29
100
AcDbEntity
  8
寸法
 62
     0
370
    -2
100
AcDbLine
 10
333.5565063758053
 20
290.738224425475
 30
0.0
 11
303.8257701428161
 21
290.738224425475
 31
0.0
  0
LINE
  5
5B2D
330
5B29
100
AcDbEntity
  8
寸法
 62
     0
370
    -2
100
AcDbLine
 10
333.5565063758053
 20
290.738224425475
 30
0.0
 11
303.8257701428161
 21
290.738224425475
 31
0.0
  0
LINE
  5
5B2E
330
5B29
100
AcDbEntity
  8
寸法
 62
     0
370
    -2
100
AcDbLine
 10
303.8257701428161
 20
290.738224425475
 30
0.0
 11
303.8257701428161
 21
307.5282244254749
 31
0.0
  0
LINE
  5
5B2F
330
5B29
100
AcDbEntity
  8
寸法
 62
     0
370
    -2
100
AcDbLine
 10
303.8257701428161
 20
290.738224425475
 30
0.0
 11
303.8257701428161
 21
288.738224425475
 31
0.0
  0
LINE
  5
5B30
330
5B29
100
AcDbEntity
  8
寸法
 62
     0
370
    -2
100
AcDbLine
 10
303.8257701428161
 20
288.738224425475
 30
0.0
 11
303.8257701428161
 21
286.738224425475
 31
0.0
  0
INSERT
  5
5B31
330
5B29
100
AcDbEntity
  8
寸法
 62
     0
370
    -2
100
AcDbBlockReference
  2
_DOT
 10
303.8257701428161
 20
290.738224425475
 30
0.0
 41
2.0
 42
2.0
 43
2.0
 50
270.0
  0
INSERT
  5
5B32
330
5B29
100
AcDbEntity
  8
寸法
 62
     0
370
    -2
100
AcDbBlockReference
  2
_DOT
 10
303.8257701428161
 20
290.738224425475
 30
0.0
 41
2.0
 42
2.0
 43
2.0
 50
90.0
  0
MTEXT
  5
5B33
330
5B29
100
AcDbEntity
  8
寸法
 62
     0
100
AcDbMText
 10
296.3257701428161
 20
301.133224425475
 30
0.0
 40
5.0
 41
0.0
 46
0.0
 71
     5
 72
     1
  1
\A1;0
  7
ＭＳ ゴシック
 11
6.123233995736766E-17
 21
1.0
 31
0.0
 73
     1
 44
1.0
  0
POINT
  5
5B34
330
5B29
100
AcDbEntity
  8
Defpoints
 62
     0
100
AcDbPoint
 10
338.5565063758053
 20
290.738224425475
 30
0.0
  0
POINT
  5
5CA0
330
5B29
100
AcDbEntity
  8
Defpoints
 62
     0
100
AcDbPoint
 10
338.5565063758053
 20
290.738224425475
 30
0.0
  0
POINT
  5
5DA4
330
5B29
100
AcDbEntity
  8
Defpoints
 62
     0
100
AcDbPoint
 10
303.8257701428161
 20
290.738224425475
 30
0.0
  0
ENDBLK
  5
5B2B
330
5B29
100
AcDbEntity
  8
0
100
AcDbBlockEnd
  0
BLOCK
  5
5B39
330
5B38
100
AcDbEntity
  8
0
100
AcDbBlockBegin
  2
*D33
 70
     1
 10
0.0
 20
0.0
 30
0.0
  3
*D33
  1

  0
LINE
  5
5B3B
330
5B38
100
AcDbEntity
  8
寸法
 62
     0
370
    -2
100
AcDbLine
 10
321.0406940077518
 20
314.7533767242107
 30
0.0
 11
311.3257701428161
 21
314.7533767242107
 31
0.0
  0
LINE
  5
5B3C
330
5B38
100
AcDbEntity
  8
寸法
 62
     0
370
    -2
100
AcDbLine
 10
321.0406940077518
 20
320.7255400630083
 30
0.0
 11
311.3257701428161
 21
320.7255400630083
 31
0.0
  0
LINE
  5
5B3D
330
5B38
100
AcDbEntity
  8
寸法
 62
     0
370
    -2
100
AcDbLine
 10
311.3257701428161
 20
316.7533767242107
 30
0.0
 11
311.3257701428161
 21
318.7255400630083
 31
0.0
  0
INSERT
  5
5B3E
330
5B38
100
AcDbEntity
  8
寸法
 62
     0
370
    -2
100
AcDbBlockReference
  2
_DOT
 10
311.3257701428161
 20
314.7533767242107
 30
0.0
 41
2.0
 42
2.0
 43
2.0
 50
270.0
  0
INSERT
  5
5B3F
330
5B38
100
AcDbEntity
  8
寸法
 62
     0
370
    -2
100
AcDbBlockReference
  2
_DOT
 10
311.3257701428161
 20
320.7255400630083
 30
0.0
 41
2.0
 42
2.0
 43
2.0
 50
90.0
  0
MTEXT
  5
5B40
330
5B38
100
AcDbEntity
  8
寸法
 62
     0
100
AcDbMText
 10
303.8257701428161
 20
317.3479757308023
 30
0.0
 40
5.0
 41
0.0
 46
0.0
 71
     5
 72
     1
  1
\A1;6
  7
ＭＳ ゴシック
 11
0.0
 21
1.0
 31
0.0
 73
     1
 44
1.0
  0
POINT
  5
5B41
330
5B38
100
AcDbEntity
  8
Defpoints
 62
     0
100
AcDbPoint
 10
326.0406940077518
 20
314.7533767242107
 30
0.0
  0
POINT
  5
5B42
330
5B38
100
AcDbEntity
  8
Defpoints
 62
     0
100
AcDbPoint
 10
326.0406940077518
 20
320.7255400630083
 30
0.0
  0
POINT
  5
5B43
330
5B38
100
AcDbEntity
  8
Defpoints
 62
     0
100
AcDbPoint
 10
311.3257701428161
 20
320.7255400630083
 30
0.0
  0
ENDBLK
  5
5B3A
330
5B38
100
AcDbEntity
  8
0
100
AcDbBlockEnd
  0
BLOCK
  5
5B4A
330
5B49
100
AcDbEntity
  8
0
100
AcDbBlockBegin
  2
*D34
 70
     1
 10
0.0
 20
0.0
 30
0.0
  3
*D34
  1

  0
LINE
  5
5B4C
330
5B49
100
AcDbEntity
  8
寸法
 62
     0
370
    -2
100
AcDbLine
 10
84.3856631254414
 20
293.0198392693691
 30
0.0
 11
84.3856631254414
 21
275.556670425452
 31
0.0
  0
LINE
  5
5B4D
330
5B49
100
AcDbEntity
  8
寸法
 62
     0
370
    -2
100
AcDbLine
 10
104.3983474883494
 20
293.0198392693691
 30
0.0
 11
104.3983474883494
 21
275.556670425452
 31
0.0
  0
LINE
  5
5B4E
330
5B49
100
AcDbEntity
  8
寸法
 62
     0
370
    -2
100
AcDbLine
 10
86.3856631254414
 20
275.556670425452
 30
0.0
 11
102.3983474883494
 21
275.556670425452
 31
0.0
  0
INSERT
  5
5B4F
330
5B49
100
AcDbEntity
  8
寸法
 62
     0
370
    -2
100
AcDbBlockReference
  2
_DOT
 10
84.3856631254414
 20
275.556670425452
 30
0.0
 41
2.0
 42
2.0
 43
2.0
 50
180.0
  0
INSERT
  5
5B50
330
5B49
100
AcDbEntity
  8
寸法
 62
     0
370
    -2
100
AcDbBlockReference
  2
_DOT
 10
104.3983474883494
 20
275.556670425452
 30
0.0
 41
2.0
 42
2.0
 43
2.0
  0
MTEXT
  5
5B51
330
5B49
100
AcDbEntity
  8
寸法
 62
     0
100
AcDbMText
 10
94.39200530689538
 20
283.056670425452
 30
0.0
 40
5.0
 41
0.0
 46
0.0
 71
     5
 72
     1
  1
\A1;20
  7
ＭＳ ゴシック
 73
     1
 44
1.0
  0
POINT
  5
5B52
330
5B49
100
AcDbEntity
  8
Defpoints
 62
     0
100
AcDbPoint
 10
84.3856631254414
 20
298.0198392693691
 30
0.0
  0
POINT
  5
5B53
330
5B49
100
AcDbEntity
  8
Defpoints
 62
     0
100
AcDbPoint
 10
104.3983474883494
 20
298.0198392693691
 30
0.0
  0
POINT
  5
5B54
330
5B49
100
AcDbEntity
  8
Defpoints
 62
     0
100
AcDbPoint
 10
104.3983474883494
 20
275.556670425452
 30
0.0
  0
ENDBLK
  5
5B4B
330
5B49
100
AcDbEntity
  8
0
100
AcDbBlockEnd
  0
BLOCK
  5
5B57
330
5B56
100
AcDbEntity
  8
0
100
AcDbBlockBegin
  2
*D35
 70
     1
 10
0.0
 20
0.0
 30
0.0
  3
*D35
  1

  0
LINE
  5
5B59
330
5B56
100
AcDbEntity
  8
寸法
 62
     0
370
    -2
100
AcDbLine
 10
79.8940716860119
 20
297.5110860250288
 30
0.0
 11
63.20471462213902
 21
297.5110860250288
 31
0.0
  0
LINE
  5
5B5A
330
5B56
100
AcDbEntity
  8
寸法
 62
     0
370
    -2
100
AcDbLine
 10
79.8940716860119
 20
304.0110860250288
 30
0.0
 11
63.20471462213902
 21
304.0110860250288
 31
0.0
  0
LINE
  5
5B5B
330
5B56
100
AcDbEntity
  8
寸法
 62
     0
370
    -2
100
AcDbLine
 10
63.20471462213902
 20
299.5110860250288
 30
0.0
 11
63.20471462213902
 21
302.0110860250288
 31
0.0
  0
INSERT
  5
5B5C
330
5B56
100
AcDbEntity
  8
寸法
 62
     0
370
    -2
100
AcDbBlockReference
  2
_DOT
 10
63.20471462213902
 20
297.5110860250288
 30
0.0
 41
2.0
 42
2.0
 43
2.0
 50
270.0
  0
INSERT
  5
5B5D
330
5B56
100
AcDbEntity
  8
寸法
 62
     0
370
    -2
100
AcDbBlockReference
  2
_DOT
 10
63.20471462213902
 20
304.0110860250288
 30
0.0
 41
2.0
 42
2.0
 43
2.0
 50
90.0
  0
MTEXT
  5
5B5E
330
5B56
100
AcDbEntity
  8
寸法
 62
     0
100
AcDbMText
 10
55.70471462213902
 20
300.7610860250288
 30
0.0
 40
5.0
 41
0.0
 46
0.0
 71
     5
 72
     1
  1
\A1;6.5
  7
ＭＳ ゴシック
 11
0.0
 21
1.0
 31
0.0
 73
     1
 44
1.0
  0
POINT
  5
5B5F
330
5B56
100
AcDbEntity
  8
Defpoints
 62
     0
100
AcDbPoint
 10
84.8940716860119
 20
297.5110860250288
 30
0.0
  0
POINT
  5
5B60
330
5B56
100
AcDbEntity
  8
Defpoints
 62
     0
100
AcDbPoint
 10
84.8940716860119
 20
304.0110860250288
 30
0.0
  0
POINT
  5
5B61
330
5B56
100
AcDbEntity
  8
Defpoints
 62
     0
100
AcDbPoint
 10
63.20471462213902
 20
304.0110860250288
 30
0.0
  0
ENDBLK
  5
5B58
330
5B56
100
AcDbEntity
  8
0
100
AcDbBlockEnd
  0
BLOCK
  5
5B67
330
5B66
100
AcDbEntity
  8
0
100
AcDbBlockBegin
  2
*D36
 70
     1
 10
0.0
 20
0.0
 30
0.0
  3
*D36
  1

  0
LINE
  5
5B69
330
5B66
100
AcDbEntity
  8
寸法
 62
     0
370
    -2
100
AcDbLine
 10
124.4553409498311
 20
310.3450415126799
 30
0.0
 11
139.6101693542145
 21
310.3450415126799
 31
0.0
  0
LINE
  5
5B6A
330
5B66
100
AcDbEntity
  8
寸法
 62
     0
370
    -2
100
AcDbLine
 10
124.4553409498311
 20
304.3730505157673
 30
0.0
 11
139.6101693542145
 21
304.3730505157673
 31
0.0
  0
LINE
  5
5B6B
330
5B66
100
AcDbEntity
  8
寸法
 62
     0
370
    -2
100
AcDbLine
 10
139.6101693542145
 20
308.3450415126799
 30
0.0
 11
139.6101693542145
 21
306.3730505157673
 31
0.0
  0
INSERT
  5
5B6C
330
5B66
100
AcDbEntity
  8
寸法
 62
     0
370
    -2
100
AcDbBlockReference
  2
_DOT
 10
139.6101693542145
 20
310.3450415126799
 30
0.0
 41
2.0
 42
2.0
 43
2.0
 50
90.0
  0
INSERT
  5
5B6D
330
5B66
100
AcDbEntity
  8
寸法
 62
     0
370
    -2
100
AcDbBlockReference
  2
_DOT
 10
139.6101693542145
 20
304.3730505157673
 30
0.0
 41
2.0
 42
2.0
 43
2.0
 50
270.0
  0
MTEXT
  5
5B6E
330
5B66
100
AcDbEntity
  8
寸法
 62
     0
100
AcDbMText
 10
132.1101693542145
 20
307.3590460142236
 30
0.0
 40
5.0
 41
0.0
 46
0.0
 71
     5
 72
     1
  1
\A1;6
  7
ＭＳ ゴシック
 11
0.0
 21
1.0
 31
0.0
 73
     1
 44
1.0
  0
POINT
  5
5B6F
330
5B66
100
AcDbEntity
  8
Defpoints
 62
     0
100
AcDbPoint
 10
119.4553409498311
 20
310.3450415126799
 30
0.0
  0
POINT
  5
5B70
330
5B66
100
AcDbEntity
  8
Defpoints
 62
     0
100
AcDbPoint
 10
119.4553409498311
 20
304.3730505157673
 30
0.0
  0
POINT
  5
5B71
330
5B66
100
AcDbEntity
  8
Defpoints
 62
     0
100
AcDbPoint
 10
139.6101693542145
 20
304.3730505157673
 30
0.0
  0
ENDBLK
  5
5B68
330
5B66
100
AcDbEntity
  8
0
100
AcDbBlockEnd
  0
BLOCK
  5
5B86
330
5B85
100
AcDbEntity
  8
0
100
AcDbBlockBegin
  2
*D37
 70
     1
 10
0.0
 20
0.0
 30
0.0
  3
*D37
  1

  0
LINE
  5
5B88
330
5B85
100
AcDbEntity
  8
寸法
 62
     0
370
    -2
100
AcDbLine
 10
338.5565063758053
 20
285.738224425475
 30
0.0
 11
338.5565063758053
 21
270.0359108160501
 31
0.0
  0
LINE
  5
5B89
330
5B85
100
AcDbEntity
  8
寸法
 62
     0
370
    -2
100
AcDbLine
 10
363.5245369563696
 20
285.738224425475
 30
0.0
 11
363.5245369563696
 21
270.0359108160501
 31
0.0
  0
LINE
  5
5B8A
330
5B85
100
AcDbEntity
  8
寸法
 62
     0
370
    -2
100
AcDbLine
 10
340.5565063758053
 20
270.0359108160501
 30
0.0
 11
361.5245369563696
 21
270.0359108160501
 31
0.0
  0
INSERT
  5
5B8B
330
5B85
100
AcDbEntity
  8
寸法
 62
     0
370
    -2
100
AcDbBlockReference
  2
_DOT
 10
338.5565063758053
 20
270.0359108160501
 30
0.0
 41
2.0
 42
2.0
 43
2.0
 50
180.0
  0
INSERT
  5
5B8C
330
5B85
100
AcDbEntity
  8
寸法
 62
     0
370
    -2
100
AcDbBlockReference
  2
_DOT
 10
363.5245369563696
 20
270.0359108160501
 30
0.0
 41
2.0
 42
2.0
 43
2.0
  0
MTEXT
  5
5B8D
330
5B85
100
AcDbEntity
  8
寸法
 62
     0
100
AcDbMText
 10
351.0405216660874
 20
277.5359108160501
 30
0.0
 40
5.0
 41
0.0
 46
0.0
 71
     5
 72
     1
  1
\A1;25
  7
ＭＳ ゴシック
 73
     1
 44
1.0
  0
POINT
  5
5B8E
330
5B85
100
AcDbEntity
  8
Defpoints
 62
     0
100
AcDbPoint
 10
338.5565063758053
 20
290.738224425475
 30
0.0
  0
POINT
  5
5B8F
330
5B85
100
AcDbEntity
  8
Defpoints
 62
     0
100
AcDbPoint
 10
363.5245369563696
 20
290.738224425475
 30
0.0
  0
POINT
  5
5B90
330
5B85
100
AcDbEntity
  8
Defpoints
 62
     0
100
AcDbPoint
 10
363.5245369563696
 20
270.0359108160501
 30
0.0
  0
ENDBLK
  5
5B87
330
5B85
100
AcDbEntity
  8
0
100
AcDbBlockEnd
  0
BLOCK
  5
5B9E
330
5B9D
100
AcDbEntity
  8
0
100
AcDbBlockBegin
  2
*D38
 70
     1
 10
0.0
 20
0.0
 30
0.0
  3
*D38
  1

  0
LINE
  5
5BA0
330
5B9D
100
AcDbEntity
  8
寸法
 62
     0
370
    -2
100
AcDbLine
 10
187.3583943386569
 20
332.390756921273
 30
0.0
 11
174.1422279255171
 21
332.390756921273
 31
0.0
  0
LINE
  5
5BA1
330
5B9D
100
AcDbEntity
  8
寸法
 62
     0
370
    -2
100
AcDbLine
 10
187.3583943386569
 20
282.3273351071742
 30
0.0
 11
174.1422279255171
 21
282.3273351071742
 31
0.0
  0
LINE
  5
5BA2
330
5B9D
100
AcDbEntity
  8
寸法
 62
     0
370
    -2
100
AcDbLine
 10
174.1422279255171
 20
330.390756921273
 30
0.0
 11
174.1422279255171
 21
284.3273351071742
 31
0.0
  0
INSERT
  5
5BA3
330
5B9D
100
AcDbEntity
  8
寸法
 62
     0
370
    -2
100
AcDbBlockReference
  2
_DOT
 10
174.1422279255171
 20
332.390756921273
 30
0.0
 41
2.0
 42
2.0
 43
2.0
 50
90.0
  0
INSERT
  5
5BA4
330
5B9D
100
AcDbEntity
  8
寸法
 62
     0
370
    -2
100
AcDbBlockReference
  2
_DOT
 10
174.1422279255171
 20
282.3273351071742
 30
0.0
 41
2.0
 42
2.0
 43
2.0
 50
270.0
  0
MTEXT
  5
5BA5
330
5B9D
100
AcDbEntity
  8
寸法
 62
     0
100
AcDbMText
 10
166.6422279255171
 20
307.3590460142236
 30
0.0
 40
5.0
 41
0.0
 46
0.0
 71
     5
 72
     1
  1
\A1;50
  7
ＭＳ ゴシック
 11
0.0
 21
1.0
 31
0.0
 73
     1
 44
1.0
  0
POINT
  5
5BA6
330
5B9D
100
AcDbEntity
  8
Defpoints
 62
     0
100
AcDbPoint
 10
192.3583943386569
 20
332.390756921273
 30
0.0
  0
POINT
  5
5BA7
330
5B9D
100
AcDbEntity
  8
Defpoints
 62
     0
100
AcDbPoint
 10
192.3583943386569
 20
282.3273351071742
 30
0.0
  0
POINT
  5
5BA8
330
5B9D
100
AcDbEntity
  8
Defpoints
 62
     0
100
AcDbPoint
 10
174.1422279255171
 20
282.3273351071742
 30
0.0
  0
ENDBLK
  5
5B9F
330
5B9D
100
AcDbEntity
  8
0
100
AcDbBlockEnd
  0
BLOCK
  5
5BE7
330
5BE6
100
AcDbEntity
  8
0
100
AcDbBlockBegin
  2
*D39
 70
     1
 10
0.0
 20
0.0
 30
0.0
  3
*D39
  1

  0
LINE
  5
5BE9
330
5BE6
100
AcDbEntity
  8
寸法
 62
     0
370
    -2
100
AcDbLine
 10
439.8795665576619
 20
188.335000201955
 30
0.0
 11
421.1774666871069
 21
188.335000201955
 31
0.0
  0
LINE
  5
5BEA
330
5BE6
100
AcDbEntity
  8
寸法
 62
     0
370
    -2
100
AcDbLine
 10
439.8795665576619
 20
138.3350002015138
 30
0.0
 11
421.1774666871069
 21
138.3350002015138
 31
0.0
  0
LINE
  5
5BEB
330
5BE6
100
AcDbEntity
  8
寸法
 62
     0
370
    -2
100
AcDbLine
 10
421.1774666871069
 20
186.335000201955
 30
0.0
 11
421.1774666871069
 21
140.3350002015138
 31
0.0
  0
INSERT
  5
5BEC
330
5BE6
100
AcDbEntity
  8
寸法
 62
     0
370
    -2
100
AcDbBlockReference
  2
_DOT
 10
421.1774666871069
 20
188.335000201955
 30
0.0
 41
2.0
 42
2.0
 43
2.0
 50
90.0
  0
INSERT
  5
5BED
330
5BE6
100
AcDbEntity
  8
寸法
 62
     0
370
    -2
100
AcDbBlockReference
  2
_DOT
 10
421.1774666871069
 20
138.3350002015138
 30
0.0
 41
2.0
 42
2.0
 43
2.0
 50
270.0
  0
MTEXT
  5
5BEE
330
5BE6
100
AcDbEntity
  8
寸法
 62
     0
100
AcDbMText
 10
413.6774666871069
 20
163.3350002017344
 30
0.0
 40
5.0
 41
0.0
 46
0.0
 71
     5
 72
     1
  1
\A1;50
  7
ＭＳ ゴシック
 11
0.0
 21
1.0
 31
0.0
 73
     1
 44
1.0
  0
POINT
  5
5BEF
330
5BE6
100
AcDbEntity
  8
Defpoints
 62
     0
100
AcDbPoint
 10
444.8795665576619
 20
188.335000201955
 30
0.0
  0
POINT
  5
5BF0
330
5BE6
100
AcDbEntity
  8
Defpoints
 62
     0
100
AcDbPoint
 10
444.8795665576619
 20
138.3350002015138
 30
0.0
  0
POINT
  5
5BF1
330
5BE6
100
AcDbEntity
  8
Defpoints
 62
     0
100
AcDbPoint
 10
421.1774666871069
 20
138.3350002015138
 30
0.0
  0
ENDBLK
  5
5BE8
330
5BE6
100
AcDbEntity
  8
0
100
AcDbBlockEnd
  0
BLOCK
  5
5D98
330
5D97
100
AcDbEntity
  8
0
100
AcDbBlockBegin
  2
*D44
 70
     1
 10
0.0
 20
0.0
 30
0.0
  3
*D44
  1

  0
LINE
  5
5D9A
330
5D97
100
AcDbEntity
  8
寸法
 62
     0
370
    -2
100
AcDbLine
 10
450.87948038694
 20
299.0197207733756
 30
0.0
 11
450.87948038694
 21
264.7498087911708
 31
0.0
  0
LINE
  5
5D9B
330
5D97
100
AcDbEntity
  8
寸法
 62
     0
370
    -2
100
AcDbLine
 10
488.8794803869403
 20
299.0197207733756
 30
0.0
 11
488.8794803869403
 21
264.7498087911708
 31
0.0
  0
LINE
  5
5D9C
330
5D97
100
AcDbEntity
  8
寸法
 62
     0
370
    -2
100
AcDbLine
 10
452.87948038694
 20
264.7498087911708
 30
0.0
 11
486.8794803869403
 21
264.7498087911708
 31
0.0
  0
INSERT
  5
5D9D
330
5D97
100
AcDbEntity
  8
寸法
 62
     0
370
    -2
100
AcDbBlockReference
  2
_DOT
 10
450.87948038694
 20
264.7498087911708
 30
0.0
 41
2.0
 42
2.0
 43
2.0
 50
180.0
  0
INSERT
  5
5D9E
330
5D97
100
AcDbEntity
  8
寸法
 62
     0
370
    -2
100
AcDbBlockReference
  2
_DOT
 10
488.8794803869403
 20
264.7498087911708
 30
0.0
 41
2.0
 42
2.0
 43
2.0
  0
MTEXT
  5
5D9F
330
5D97
100
AcDbEntity
  8
寸法
 62
     0
100
AcDbMText
 10
469.8794803869401
 20
272.2498087911708
 30
0.0
 40
5.0
 41
0.0
 46
0.0
 71
     5
 72
     1
  1
\A1;38
  7
ＭＳ ゴシック
 73
     1
 44
1.0
  0
POINT
  5
5DA0
330
5D97
100
AcDbEntity
  8
Defpoints
 62
     0
100
AcDbPoint
 10
450.87948038694
 20
304.0197207733756
 30
0.0
  0
POINT
  5
5DA1
330
5D97
100
AcDbEntity
  8
Defpoints
 62
     0
100
AcDbPoint
 10
488.8794803869403
 20
304.0197207733756
 30
0.0
  0
POINT
  5
5DA2
330
5D97
100
AcDbEntity
  8
Defpoints
 62
     0
100
AcDbPoint
 10
488.8794803869403
 20
264.7498087911708
 30
0.0
  0
ENDBLK
  5
5D99
330
5D97
100
AcDbEntity
  8
0
100
AcDbBlockEnd
  0
BLOCK
  5
5DA9
330
5DA8
100
AcDbEntity
  8
0
100
AcDbBlockBegin
  2
*D45
 70
     1
 10
0.0
 20
0.0
 30
0.0
  3
*D45
  1

  0
LINE
  5
5DAB
330
5DA8
100
AcDbEntity
  8
寸法
 62
     0
370
    -2
100
AcDbLine
 10
333.5565063758053
 20
290.738224425475
 30
0.0
 11
311.3257701428161
 21
290.738224425475
 31
0.0
  0
LINE
  5
5DAC
330
5DA8
100
AcDbEntity
  8
寸法
 62
     0
370
    -2
100
AcDbLine
 10
321.0406940077518
 20
314.7533767242107
 30
0.0
 11
311.3257701428161
 21
314.7533767242107
 31
0.0
  0
LINE
  5
5DAD
330
5DA8
100
AcDbEntity
  8
寸法
 62
     0
370
    -2
100
AcDbLine
 10
311.3257701428161
 20
292.738224425475
 30
0.0
 11
311.3257701428161
 21
312.7533767242107
 31
0.0
  0
INSERT
  5
5DAE
330
5DA8
100
AcDbEntity
  8
寸法
 62
     0
370
    -2
100
AcDbBlockReference
  2
_DOT
 10
311.3257701428161
 20
290.738224425475
 30
0.0
 41
2.0
 42
2.0
 43
2.0
 50
270.0
  0
INSERT
  5
5DAF
330
5DA8
100
AcDbEntity
  8
寸法
 62
     0
370
    -2
100
AcDbBlockReference
  2
_DOT
 10
311.3257701428161
 20
314.7533767242107
 30
0.0
 41
2.0
 42
2.0
 43
2.0
 50
90.0
  0
MTEXT
  5
5DB0
330
5DA8
100
AcDbEntity
  8
寸法
 62
     0
100
AcDbMText
 10
303.8257701428161
 20
302.7458005748429
 30
0.0
 40
5.0
 41
0.0
 46
0.0
 71
     5
 72
     1
  1
\A1;23
  7
ＭＳ ゴシック
 11
0.0
 21
1.0
 31
0.0
 73
     1
 44
1.0
  0
POINT
  5
5DB1
330
5DA8
100
AcDbEntity
  8
Defpoints
 62
     0
100
AcDbPoint
 10
338.5565063758053
 20
290.738224425475
 30
0.0
  0
POINT
  5
5DB2
330
5DA8
100
AcDbEntity
  8
Defpoints
 62
     0
100
AcDbPoint
 10
326.0406940077518
 20
314.7533767242107
 30
0.0
  0
POINT
  5
5DB3
330
5DA8
100
AcDbEntity
  8
Defpoints
 62
     0
100
AcDbPoint
 10
311.3257701428161
 20
314.7533767242107
 30
0.0
  0
ENDBLK
  5
5DAA
330
5DA8
100
AcDbEntity
  8
0
100
AcDbBlockEnd
  0
BLOCK
  5
5E32
330
5E31
100
AcDbEntity
  8
0
100
AcDbBlockBegin
  2
*D48
 70
     1
 10
0.0
 20
0.0
 30
0.0
  3
*D48
  1

  0
LINE
  5
5E33
330
5E31
100
AcDbEntity
  8
寸法
 62
     0
370
    -2
100
AcDbLine
 10
19.71492386493577
 20
45.66852242445572
 30
0.0
 11
10.00000000000006
 21
45.66852242445572
 31
0.0
  0
LINE
  5
5E34
330
5E31
100
AcDbEntity
  8
寸法
 62
     0
370
    -2
100
AcDbLine
 10
19.71492386493577
 20
51.64068576325332
 30
0.0
 11
10.00000000000006
 21
51.64068576325332
 31
0.0
  0
LINE
  5
5E35
330
5E31
100
AcDbEntity
  8
寸法
 62
     0
370
    -2
100
AcDbLine
 10
10.00000000000006
 20
47.66852242445572
 30
0.0
 11
10.00000000000006
 21
49.64068576325332
 31
0.0
  0
INSERT
  5
5E36
330
5E31
100
AcDbEntity
  8
寸法
 62
     0
370
    -2
100
AcDbBlockReference
  2
_DOT
 10
10.00000000000006
 20
45.66852242445572
 30
0.0
 41
2.0
 42
2.0
 43
2.0
 50
270.0
  0
INSERT
  5
5E37
330
5E31
100
AcDbEntity
  8
寸法
 62
     0
370
    -2
100
AcDbBlockReference
  2
_DOT
 10
10.00000000000006
 20
51.64068576325332
 30
0.0
 41
2.0
 42
2.0
 43
2.0
 50
90.0
  0
MTEXT
  5
5E38
330
5E31
100
AcDbEntity
  8
寸法
 62
     0
100
AcDbMText
 10
2.500000000000057
 20
48.26312143104735
 30
0.0
 40
5.0
 41
0.0
 46
0.0
 71
     5
 72
     1
  1
\A1;6
  7
ＭＳ ゴシック
 11
0.0
 21
1.0
 31
0.0
 73
     1
 44
1.0
  0
POINT
  5
5E39
330
5E31
100
AcDbEntity
  8
Defpoints
 62
     0
100
AcDbPoint
 10
24.71492386493577
 20
45.66852242445572
 30
0.0
  0
POINT
  5
5E3A
330
5E31
100
AcDbEntity
  8
Defpoints
 62
     0
100
AcDbPoint
 10
24.71492386493577
 20
51.64068576325332
 30
0.0
  0
POINT
  5
5E3B
330
5E31
100
AcDbEntity
  8
Defpoints
 62
     0
100
AcDbPoint
 10
10.00000000000006
 20
51.64068576325332
 30
0.0
  0
ENDBLK
  5
5E3C
330
5E31
100
AcDbEntity
  8
0
100
AcDbBlockEnd
  0
BLOCK
  5
5E41
330
5E40
100
AcDbEntity
  8
0
100
AcDbBlockBegin
  2
*D49
 70
     1
 10
0.0
 20
0.0
 30
0.0
  3
*D49
  1

  0
LINE
  5
5E42
330
5E40
100
AcDbEntity
  8
寸法
 62
     0
370
    -2
100
AcDbLine
 10
37.23073623298927
 20
16.65337012572002
 30
0.0
 11
37.23073623298927
 21
0.9510565162951252
 31
0.0
  0
LINE
  5
5E43
330
5E40
100
AcDbEntity
  8
寸法
 62
     0
370
    -2
100
AcDbLine
 10
62.19876681355356
 20
16.65337012572002
 30
0.0
 11
62.19876681355356
 21
0.9510565162951252
 31
0.0
  0
LINE
  5
5E44
330
5E40
100
AcDbEntity
  8
寸法
 62
     0
370
    -2
100
AcDbLine
 10
39.23073623298927
 20
0.9510565162951252
 30
0.0
 11
60.19876681355356
 21
0.9510565162951252
 31
0.0
  0
INSERT
  5
5E45
330
5E40
100
AcDbEntity
  8
寸法
 62
     0
370
    -2
100
AcDbBlockReference
  2
_DOT
 10
37.23073623298927
 20
0.9510565162951252
 30
0.0
 41
2.0
 42
2.0
 43
2.0
 50
180.0
  0
INSERT
  5
5E46
330
5E40
100
AcDbEntity
  8
寸法
 62
     0
370
    -2
100
AcDbBlockReference
  2
_DOT
 10
62.19876681355356
 20
0.9510565162951252
 30
0.0
 41
2.0
 42
2.0
 43
2.0
  0
MTEXT
  5
5E47
330
5E40
100
AcDbEntity
  8
寸法
 62
     0
100
AcDbMText
 10
49.71475152327142
 20
8.451056516295125
 30
0.0
 40
5.0
 41
0.0
 46
0.0
 71
     5
 72
     1
  1
\A1;25
  7
ＭＳ ゴシック
 73
     1
 44
1.0
  0
POINT
  5
5E48
330
5E40
100
AcDbEntity
  8
Defpoints
 62
     0
100
AcDbPoint
 10
37.23073623298927
 20
21.65337012572002
 30
0.0
  0
POINT
  5
5E49
330
5E40
100
AcDbEntity
  8
Defpoints
 62
     0
100
AcDbPoint
 10
62.19876681355356
 20
21.65337012572002
 30
0.0
  0
POINT
  5
5E4A
330
5E40
100
AcDbEntity
  8
Defpoints
 62
     0
100
AcDbPoint
 10
62.19876681355356
 20
0.9510565162951252
 30
0.0
  0
ENDBLK
  5
5E4B
330
5E40
100
AcDbEntity
  8
0
100
AcDbBlockEnd
  0
BLOCK
  5
5E55
330
5E54
100
AcDbEntity
  8
0
100
AcDbBlockBegin
  2
*D50
 70
     1
 10
0.0
 20
0.0
 30
0.0
  3
*D50
  1

  0
LINE
  5
5E56
330
5E54
100
AcDbEntity
  8
寸法
 62
     0
370
    -2
100
AcDbLine
 10
32.23073623298927
 20
21.65337012572002
 30
0.0
 11
10.00000000000006
 21
21.65337012572002
 31
0.0
  0
LINE
  5
5E57
330
5E54
100
AcDbEntity
  8
寸法
 62
     0
370
    -2
100
AcDbLine
 10
19.71492386493577
 20
45.66852242445572
 30
0.0
 11
10.00000000000006
 21
45.66852242445572
 31
0.0
  0
LINE
  5
5E58
330
5E54
100
AcDbEntity
  8
寸法
 62
     0
370
    -2
100
AcDbLine
 10
10.00000000000006
 20
23.65337012572002
 30
0.0
 11
10.00000000000006
 21
43.66852242445572
 31
0.0
  0
INSERT
  5
5E59
330
5E54
100
AcDbEntity
  8
寸法
 62
     0
370
    -2
100
AcDbBlockReference
  2
_DOT
 10
10.00000000000006
 20
21.65337012572002
 30
0.0
 41
2.0
 42
2.0
 43
2.0
 50
270.0
  0
INSERT
  5
5E5A
330
5E54
100
AcDbEntity
  8
寸法
 62
     0
370
    -2
100
AcDbBlockReference
  2
_DOT
 10
10.00000000000006
 20
45.66852242445572
 30
0.0
 41
2.0
 42
2.0
 43
2.0
 50
90.0
  0
MTEXT
  5
5E5B
330
5E54
100
AcDbEntity
  8
寸法
 62
     0
100
AcDbMText
 10
2.500000000000057
 20
33.66094627508787
 30
0.0
 40
5.0
 41
0.0
 46
0.0
 71
     5
 72
     1
  1
\A1;23
  7
ＭＳ ゴシック
 11
7.396816881705841E-17
 21
1.0
 31
0.0
 73
     1
 44
1.0
  0
POINT
  5
5E5C
330
5E54
100
AcDbEntity
  8
Defpoints
 62
     0
100
AcDbPoint
 10
37.23073623298927
 20
21.65337012572002
 30
0.0
  0
POINT
  5
5E5D
330
5E54
100
AcDbEntity
  8
Defpoints
 62
     0
100
AcDbPoint
 10
24.71492386493577
 20
45.66852242445572
 30
0.0
  0
POINT
  5
5E5E
330
5E54
100
AcDbEntity
  8
Defpoints
 62
     0
100
AcDbPoint
 10
10.00000000000006
 20
45.66852242445572
 30
0.0
  0
ENDBLK
  5
5E5F
330
5E54
100
AcDbEntity
  8
0
100
AcDbBlockEnd
  0
BLOCK
  5
5E81
330
5E80
100
AcDbEntity
  8
0
100
AcDbBlockBegin
  2
*D51
 70
     1
 10
0.0
 20
0.0
 30
0.0
  3
*D51
  1

  0
LINE
  5
5E83
330
5E80
100
AcDbEntity
  8
寸法
 62
     0
370
    -2
100
AcDbLine
 10
213.7083559854924
 20
188.3013503100965
 30
0.0
 11
203.9934321205567
 21
188.3013503100965
 31
0.0
  0
LINE
  5
5E84
330
5E80
100
AcDbEntity
  8
寸法
 62
     0
370
    -2
100
AcDbLine
 10
213.7083559854924
 20
194.2735136488941
 30
0.0
 11
203.9934321205567
 21
194.2735136488941
 31
0.0
  0
LINE
  5
5E85
330
5E80
100
AcDbEntity
  8
寸法
 62
     0
370
    -2
100
AcDbLine
 10
203.9934321205567
 20
190.3013503100965
 30
0.0
 11
203.9934321205567
 21
192.2735136488941
 31
0.0
  0
INSERT
  5
5E86
330
5E80
100
AcDbEntity
  8
寸法
 62
     0
370
    -2
100
AcDbBlockReference
  2
_DOT
 10
203.9934321205567
 20
188.3013503100965
 30
0.0
 41
2.0
 42
2.0
 43
2.0
 50
270.0
  0
INSERT
  5
5E87
330
5E80
100
AcDbEntity
  8
寸法
 62
     0
370
    -2
100
AcDbBlockReference
  2
_DOT
 10
203.9934321205567
 20
194.2735136488941
 30
0.0
 41
2.0
 42
2.0
 43
2.0
 50
90.0
  0
MTEXT
  5
5E88
330
5E80
100
AcDbEntity
  8
寸法
 62
     0
100
AcDbMText
 10
196.4934321205567
 20
190.8959493166881
 30
0.0
 40
5.0
 41
0.0
 46
0.0
 71
     5
 72
     1
  1
\A1;6
  7
ＭＳ ゴシック
 11
0.0
 21
1.0
 31
0.0
 73
     1
 44
1.0
  0
POINT
  5
5E89
330
5E80
100
AcDbEntity
  8
Defpoints
 62
     0
100
AcDbPoint
 10
218.7083559854924
 20
188.3013503100965
 30
0.0
  0
POINT
  5
5E8A
330
5E80
100
AcDbEntity
  8
Defpoints
 62
     0
100
AcDbPoint
 10
218.7083559854924
 20
194.2735136488941
 30
0.0
  0
POINT
  5
5E8B
330
5E80
100
AcDbEntity
  8
Defpoints
 62
     0
100
AcDbPoint
 10
203.9934321205567
 20
194.2735136488941
 30
0.0
  0
ENDBLK
  5
5E82
330
5E80
100
AcDbEntity
  8
0
100
AcDbBlockEnd
  0
BLOCK
  5
5E8D
330
5E8C
100
AcDbEntity
  8
0
100
AcDbBlockBegin
  2
*D52
 70
     1
 10
0.0
 20
0.0
 30
0.0
  3
*D52
  1

  0
LINE
  5
5E8F
330
5E8C
100
AcDbEntity
  8
寸法
 62
     0
370
    -2
100
AcDbLine
 10
231.2241683535459
 20
159.2861980113608
 30
0.0
 11
231.2241683535459
 21
143.5838844019359
 31
0.0
  0
LINE
  5
5E90
330
5E8C
100
AcDbEntity
  8
寸法
 62
     0
370
    -2
100
AcDbLine
 10
256.1921989341101
 20
159.2861980113608
 30
0.0
 11
256.1921989341101
 21
143.5838844019359
 31
0.0
  0
LINE
  5
5E91
330
5E8C
100
AcDbEntity
  8
寸法
 62
     0
370
    -2
100
AcDbLine
 10
233.2241683535459
 20
143.5838844019359
 30
0.0
 11
254.1921989341101
 21
143.5838844019359
 31
0.0
  0
INSERT
  5
5E92
330
5E8C
100
AcDbEntity
  8
寸法
 62
     0
370
    -2
100
AcDbBlockReference
  2
_DOT
 10
231.2241683535459
 20
143.5838844019359
 30
0.0
 41
2.0
 42
2.0
 43
2.0
 50
180.0
  0
INSERT
  5
5E93
330
5E8C
100
AcDbEntity
  8
寸法
 62
     0
370
    -2
100
AcDbBlockReference
  2
_DOT
 10
256.1921989341101
 20
143.5838844019359
 30
0.0
 41
2.0
 42
2.0
 43
2.0
  0
MTEXT
  5
5E94
330
5E8C
100
AcDbEntity
  8
寸法
 62
     0
100
AcDbMText
 10
243.708183643828
 20
151.0838844019359
 30
0.0
 40
5.0
 41
0.0
 46
0.0
 71
     5
 72
     1
  1
\A1;25
  7
ＭＳ ゴシック
 73
     1
 44
1.0
  0
POINT
  5
5E95
330
5E8C
100
AcDbEntity
  8
Defpoints
 62
     0
100
AcDbPoint
 10
231.2241683535459
 20
164.2861980113608
 30
0.0
  0
POINT
  5
5E96
330
5E8C
100
AcDbEntity
  8
Defpoints
 62
     0
100
AcDbPoint
 10
256.1921989341101
 20
164.2861980113608
 30
0.0
  0
POINT
  5
5E97
330
5E8C
100
AcDbEntity
  8
Defpoints
 62
     0
100
AcDbPoint
 10
256.1921989341101
 20
143.5838844019359
 30
0.0
  0
ENDBLK
  5
5E8E
330
5E8C
100
AcDbEntity
  8
0
100
AcDbBlockEnd
  0
BLOCK
  5
5E99
330
5E98
100
AcDbEntity
  8
0
100
AcDbBlockBegin
  2
*D53
 70
     1
 10
0.0
 20
0.0
 30
0.0
  3
*D53
  1

  0
LINE
  5
5E9B
330
5E98
100
AcDbEntity
  8
寸法
 62
     0
370
    -2
100
AcDbLine
 10
226.2241683535459
 20
164.2861980113608
 30
0.0
 11
203.9934321205567
 21
164.2861980113608
 31
0.0
  0
LINE
  5
5E9C
330
5E98
100
AcDbEntity
  8
寸法
 62
     0
370
    -2
100
AcDbLine
 10
213.7083559854924
 20
188.3013503100965
 30
0.0
 11
203.9934321205567
 21
188.3013503100965
 31
0.0
  0
LINE
  5
5E9D
330
5E98
100
AcDbEntity
  8
寸法
 62
     0
370
    -2
100
AcDbLine
 10
203.9934321205567
 20
166.2861980113608
 30
0.0
 11
203.9934321205567
 21
186.3013503100965
 31
0.0
  0
INSERT
  5
5E9E
330
5E98
100
AcDbEntity
  8
寸法
 62
     0
370
    -2
100
AcDbBlockReference
  2
_DOT
 10
203.9934321205567
 20
164.2861980113608
 30
0.0
 41
2.0
 42
2.0
 43
2.0
 50
270.0
  0
INSERT
  5
5E9F
330
5E98
100
AcDbEntity
  8
寸法
 62
     0
370
    -2
100
AcDbBlockReference
  2
_DOT
 10
203.9934321205567
 20
188.3013503100965
 30
0.0
 41
2.0
 42
2.0
 43
2.0
 50
90.0
  0
MTEXT
  5
5EA0
330
5E98
100
AcDbEntity
  8
寸法
 62
     0
100
AcDbMText
 10
196.4934321205567
 20
176.2937741607286
 30
0.0
 40
5.0
 41
0.0
 46
0.0
 71
     5
 72
     1
  1
\A1;23
  7
ＭＳ ゴシック
 11
0.0
 21
1.0
 31
0.0
 73
     1
 44
1.0
  0
POINT
  5
5EA1
330
5E98
100
AcDbEntity
  8
Defpoints
 62
     0
100
AcDbPoint
 10
231.2241683535459
 20
164.2861980113608
 30
0.0
  0
POINT
  5
5EA2
330
5E98
100
AcDbEntity
  8
Defpoints
 62
     0
100
AcDbPoint
 10
218.7083559854924
 20
188.3013503100965
 30
0.0
  0
POINT
  5
5EA3
330
5E98
100
AcDbEntity
  8
Defpoints
 62
     0
100
AcDbPoint
 10
203.9934321205567
 20
188.3013503100965
 30
0.0
  0
ENDBLK
  5
5E9A
330
5E98
100
AcDbEntity
  8
0
100
AcDbBlockEnd
  0
BLOCK
  5
5EAE
330
5EAD
100
AcDbEntity
  8
0
100
AcDbBlockBegin
  2
*D54
 70
     1
 10
0.0
 20
0.0
 30
0.0
  3
*D54
  1

  0
LINE
  5
5EB0
330
5EAD
100
AcDbEntity
  8
寸法
 62
     0
370
    -2
100
AcDbLine
 10
371.5516010236893
 20
175.8188431501318
 30
0.0
 11
386.4304534622614
 21
175.8188431501318
 31
0.0
  0
LINE
  5
5EB1
330
5EAD
100
AcDbEntity
  8
寸法
 62
     0
370
    -2
100
AcDbLine
 10
371.5516010236893
 20
150.8508125695674
 30
0.0
 11
386.4304534622614
 21
150.8508125695674
 31
0.0
  0
LINE
  5
5EB2
330
5EAD
100
AcDbEntity
  8
寸法
 62
     0
370
    -2
100
AcDbLine
 10
386.4304534622614
 20
173.8188431501318
 30
0.0
 11
386.4304534622614
 21
152.8508125695674
 31
0.0
  0
INSERT
  5
5EB3
330
5EAD
100
AcDbEntity
  8
寸法
 62
     0
370
    -2
100
AcDbBlockReference
  2
_DOT
 10
386.4304534622614
 20
175.8188431501318
 30
0.0
 41
2.0
 42
2.0
 43
2.0
 50
90.0
  0
INSERT
  5
5EB4
330
5EAD
100
AcDbEntity
  8
寸法
 62
     0
370
    -2
100
AcDbBlockReference
  2
_DOT
 10
386.4304534622614
 20
150.8508125695674
 30
0.0
 41
2.0
 42
2.0
 43
2.0
 50
270.0
  0
MTEXT
  5
5EB5
330
5EAD
100
AcDbEntity
  8
寸法
 62
     0
100
AcDbMText
 10
378.9304534622614
 20
163.3348278598496
 30
0.0
 40
5.0
 41
0.0
 46
0.0
 71
     5
 72
     1
  1
\A1;25
  7
ＭＳ ゴシック
 11
0.0
 21
1.0
 31
0.0
 73
     1
 44
1.0
  0
POINT
  5
5EB6
330
5EAD
100
AcDbEntity
  8
Defpoints
 62
     0
100
AcDbPoint
 10
366.5516010236893
 20
175.8188431501318
 30
0.0
  0
POINT
  5
5EB7
330
5EAD
100
AcDbEntity
  8
Defpoints
 62
     0
100
AcDbPoint
 10
366.5516010236893
 20
150.8508125695674
 30
0.0
  0
POINT
  5
5EB8
330
5EAD
100
AcDbEntity
  8
Defpoints
 62
     0
100
AcDbPoint
 10
386.4304534622614
 20
150.8508125695674
 30
0.0
  0
ENDBLK
  5
5EAF
330
5EAD
100
AcDbEntity
  8
0
100
AcDbBlockEnd
  0
ENDSEC
  0
SECTION
  2
ENTITIES
  0
LINE
  5
36CD
330
A
100
AcDbEntity
  8
PRINT BORDER
100
AcDbLine
 10
296.9999999999999
 20
0.0
 30
0.0
 11
296.9999999999999
 21
15.30952622855898
 31
0.0
  0
LINE
  5
36CE
330
A
100
AcDbEntity
  8
テンプレート
100
AcDbLine
 10
437.9999999999999
 20
38.27810890422097
 30
0.0
 11
15.30952622855898
 21
38.27810890422097
 31
0.0
  0
LINE
  5
36CF
330
A
100
AcDbEntity
  8
テンプレート
100
AcDbLine
 10
15.30952622855898
 20
26.22153683920783
 30
0.0
 11
578.6904737714407
 21
26.22153683920783
 31
0.0
  0
TEXT
  5
36D0
330
A
100
AcDbEntity
  8
テンプレート
100
AcDbText
 10
18.06121699514119
 20
32.16825981613692
 30
0.0
 40
3.5
  1
材質
  7
ＭＳ ゴシック
100
AcDbText
  0
TEXT
  5
36D3
330
A
100
AcDbEntity
  8
テンプレート
100
AcDbText
 10
18.06121699514119
 20
56.50959028673083
 30
0.0
 40
3.5
  1
品名
  7
ＭＳ ゴシック
100
AcDbText
  0
TEXT
  5
36D4
330
A
100
AcDbEntity
  8
テンプレート
100
AcDbText
 10
18.06121699514119
 20
44.65099339080098
 30
0.0
 40
3.5
  1
仕上げ
  7
ＭＳ ゴシック
100
AcDbText
  0
TEXT
  5
36D5
330
A
100
AcDbEntity
  8
テンプレート
100
AcDbText
 10
298.8233485179306
 20
56.58523052309897
 30
0.0
 40
3.5
  1
品番
  7
ＭＳ ゴシック
100
AcDbText
  0
TEXT
  5
36D6
330
A
100
AcDbEntity
  8
テンプレート
100
AcDbText
 10
36.7528253083583
 20
53.09440584367189
 30
0.0
 40
5.5
  1
表示付間仕切装置 - FORMANI,Tense -
  7
ＭＳ ゴシック
100
AcDbText
  0
LINE
  5
36D8
330
A
100
AcDbEntity
  8
テンプレート
100
AcDbLine
 10
437.9999999999999
 20
50.16496477419605
 30
0.0
 11
15.30952622855898
 21
50.16496477419605
 31
0.0
  0
LINE
  5
36D9
330
A
100
AcDbEntity
  8
テンプレート
100
AcDbLine
 10
578.6904737714411
 20
62.22153683920783
 30
0.0
 11
15.30952622855898
 21
62.22153683920783
 31
0.0
  0
LINE
  5
36DA
330
A
100
AcDbEntity
  8
PRINT BORDER
100
AcDbLine
 10
593.9999999999999
 20
210.0
 30
0.0
 11
578.6904737714411
 21
210.0
 31
0.0
  0
LINE
  5
36DB
330
A
100
AcDbEntity
  8
PRINT BORDER
100
AcDbLine
 10
0.0
 20
210.0
 30
0.0
 11
15.30952622855898
 21
210.0
 31
0.0
  0
LINE
  5
36DC
330
A
100
AcDbEntity
  8
PRINT BORDER
100
AcDbLine
 10
296.9999999999999
 20
420.0
 30
0.0
 11
296.9999999999999
 21
404.690473771441
 31
0.0
  0
LINE
  5
36DD
330
A
100
AcDbEntity
  8
テンプレート
100
AcDbLine
 10
578.6904737714411
 20
62.22153683920783
 30
0.0
 11
578.6904737714411
 21
26.22153683920783
 31
0.0
  0
LINE
  5
36DE
330
A
100
AcDbEntity
  8
テンプレート
100
AcDbLine
 10
15.30952622855898
 20
62.22153683920783
 30
0.0
 11
15.30952622855898
 21
26.22153683920783
 31
0.0
  0
TEXT
  5
36E0
330
A
100
AcDbEntity
  8
テンプレート
100
AcDbText
 10
494.9733384955217
 20
16.51938390313694
 30
0.0
 40
5.5
  1
大洋金物株式会社  
  7
ＭＳ ゴシック
100
AcDbText
  0
LINE
  5
36E1
330
A
100
AcDbEntity
  8
テンプレート
100
AcDbLine
 10
437.9999999999999
 20
62.22153683920783
 30
0.0
 11
437.9999999999999
 21
26.22153683920783
 31
0.0
  0
LINE
  5
36E2
330
A
100
AcDbEntity
  8
テンプレート
100
AcDbLine
 10
296.9999999999999
 20
62.22153683920783
 30
0.0
 11
296.9999999999999
 21
26.22153683920783
 31
0.0
  0
INSERT
  5
36E3
330
A
100
AcDbEntity
  8
テンプレート
100
AcDbBlockReference
  2
名称未設定-1
 10
548.3945198859805
 20
-7.642344203993161
 30
0.0
 41
0.180975
 42
0.180975
 43
0.180975
  0
LINE
  5
36E5
330
A
100
AcDbEntity
  8
テンプレート
100
AcDbLine
 10
15.30952622855898
 20
210.0
 30
0.0
 11
15.30952622855898
 21
26.22153683920783
 31
0.0
  0
LINE
  5
36E6
330
A
100
AcDbEntity
  8
テンプレート
100
AcDbLine
 10
15.30952622855898
 20
210.0
 30
0.0
 11
15.30952622855898
 21
404.690473771441
 31
0.0
  0
LINE
  5
36E7
330
A
100
AcDbEntity
  8
テンプレート
100
AcDbLine
 10
296.9999999999999
 20
404.690473771441
 30
0.0
 11
15.30952622855887
 21
404.690473771441
 31
0.0
  0
LINE
  5
36E8
330
A
100
AcDbEntity
  8
テンプレート
100
AcDbLine
 10
296.9999999999999
 20
404.690473771441
 30
0.0
 11
578.6904737714411
 21
404.690473771441
 31
0.0
  0
LINE
  5
36E9
330
A
100
AcDbEntity
  8
テンプレート
100
AcDbLine
 10
578.6904737714411
 20
210.0
 30
0.0
 11
578.6904737714411
 21
404.690473771441
 31
0.0
  0
LINE
  5
36EA
330
A
100
AcDbEntity
  8
テンプレート
100
AcDbLine
 10
578.6904737714411
 20
210.0
 30
0.0
 11
578.6904737714411
 21
26.22153683920783
 31
0.0
  0
LWPOLYLINE
  5
36EB
330
A
100
AcDbEntity
  8
PRINT BORDER
  6
HIDDEN
 48
3.0
100
AcDbPolyline
 90
        4
 70
     1
 43
0.0
 10
0.0
 20
0.0
 10
0.0
 20
420.0
 10
593.9999999999999
 20
420.0
 10
593.9999999999999
 20
0.0
  0
TEXT
  5
36EC
330
A
100
AcDbEntity
  8
テンプレート
100
AcDbText
 10
298.7989156222221
 20
32.62405342819488
 30
0.0
 40
3.5
  1
縮尺
  7
ＭＳ ゴシック
100
AcDbText
  0
TEXT
  5
36ED
330
A
100
AcDbEntity
  8
テンプレート
100
AcDbText
 10
313.0171205424464
 20
29.43815249371804
 30
0.0
 40
5.5
  1
1/2
  7
ＭＳ ゴシック
100
AcDbText
  0
TEXT
  5
37DE
330
A
100
AcDbEntity
  8
テンプレート
100
AcDbText
 10
298.8233485179306
 20
44.52865845808583
 30
0.0
 40
3.5
  1
扉厚
  7
ＭＳ ゴシック
100
AcDbText
  0
TEXT
  5
41D7
330
A
100
AcDbEntity
  8
テンプレート
100
AcDbText
 10
36.7528253083583
 20
29.15097790868504
 30
0.0
 40
5.5
  1
ステンレス
  7
ＭＳ ゴシック
100
AcDbText
  0
TEXT
  5
41D8
330
A
100
AcDbEntity
  8
テンプレート
100
AcDbText
 10
36.7528253083583
 20
41.03783377866012
 30
0.0
 40
5.5
  1
サテン・ブラック
  7
ＭＳ ゴシック
100
AcDbText
  0
TEXT
  5
42C8
330
A
100
AcDbEntity
  8
テンプレート
100
AcDbText
 10
313.0171205424464
 20
53.38158042870626
 30
0.0
 40
5.5
  1
FOR16-TE01S
  7
ＭＳ ゴシック
100
AcDbText
  0
TEXT
  5
4346
330
A
100
AcDbEntity
  8
テンプレート
100
AcDbText
 10
440.0887524673468
 20
56.58523052309891
 30
0.0
 40
3.5
  1
備考
  7
ＭＳ ゴシック
100
AcDbText
  0
TEXT
  5
438B
330
A
100
AcDbEntity
  8
テンプレート
100
AcDbText
 10
448.8597899700613
 20
37.77141304343548
 30
0.0
 40
5.0
  1
ユーロケース(DIN規格)専用
  7
ＭＳ ゴシック
100
AcDbText
  0
TEXT
  5
438C
330
A
100
AcDbEntity
  8
テンプレート
100
AcDbText
 10
448.8597899700613
 20
47.20172179435573
 30
0.0
 40
5.0
  1
取付方＝呼込み(ビス・ナット付)
  7
ＭＳ ゴシック
100
AcDbText
  0
TEXT
  5
45B0
330
A
100
AcDbEntity
  8
テンプレート
100
AcDbText
 10
192.6640855805966
 20
77.17630111113886
 30
0.0
 40
5.0
  1
　 加工は現物合わせの上行って下さい。
  7
ＭＳ ゴシック
100
AcDbText
  0
TEXT
  5
45B1
330
A
100
AcDbEntity
  8
テンプレート
100
AcDbText
 10
192.8363286628052
 20
85.28008520727872
 30
0.0
 40
5.0
  1
※ 輸入製品の為、国内製品と比べ製品寸法の個体差に幅が有ります。
  7
ＭＳ ゴシック
100
AcDbText
  0
TEXT
  5
45B2
330
A
100
AcDbEntity
  8
テンプレート
100
AcDbText
 10
192.6640855805966
 20
67.80466980665778
 30
0.0
 40
5.0
  1
※ ご注文の際は正確な扉厚の指示をしてください。
  7
ＭＳ ゴシック
100
AcDbText
  0
TEXT
  5
45B3
330
A
100
AcDbEntity
  8
テンプレート
100
AcDbText
 10
313.0505831322699
 20
41.51005322404905
 30
0.0
 40
5.0
  1
ユーロケース(DIN規格)：36～55
  7
ＭＳ ゴシック
100
AcDbText
  0
MTEXT
  5
52FC
102
{ACAD_XDICTIONARY
360
52FD
102
}
330
A
100
AcDbEntity
  8
TFORMLOGO
100
AcDbMText
 10
16.60399471718529
 20
23.26688997902569
 30
0.0
 40
4.0
 41
0.0
 46
4.0
 71
     1
 72
     1
  1
{20170831N}
  7
ＭＳ ゴシック
 73
     1
 44
1.0
1001
ACAD
1000
ACAD_MTEXT_DEFINED_HEIGHT_BEGIN
1070
    46
1040
4.0
1000
ACAD_MTEXT_DEFINED_HEIGHT_END
  0
HATCH
  5
5602
330
A
100
AcDbEntity
  8
レイヤー 1
 62
     7
420
 16777215
100
AcDbHatch
 10
0.0
 20
0.0
 30
0.0
210
0.0
220
0.0
230
1.0
  2
SOLID
 70
     1
 71
     0
 91
        1
 92
        1
 93
        1
 72
     4
 94
        3
 73
     0
 74
     1
 95
       14
 96
       10
 40
0.0
 40
0.0
 40
0.0
 40
0.0
 40
1.0
 40
1.0
 40
1.0
 40
2.0
 40
2.0
 40
2.0
 40
3.0
 40
3.0
 40
3.0
 40
3.0
 10
705.5071475367902
 20
261.7973260613207
 10
705.5071475367902
 20
261.7973260613207
 10
705.5071475367902
 20
261.7973260613207
 10
705.5071475367902
 20
261.7973260613207
 10
705.5071475367902
 20
261.7973260613207
 10
711.2669131617902
 20
261.7973260613207
 10
711.2669131617902
 20
261.7973260613207
 10
711.2669131617902
 20
261.7973260613207
 10
705.5071475367902
 20
261.7973260613207
 10
705.5071475367902
 20
261.7973260613207
 97
        0
 75
     2
 76
     1
 98
        0
  0
HATCH
  5
5605
330
A
100
AcDbEntity
  8
レイヤー 1
 62
     7
420
 16777215
100
AcDbHatch
 10
0.0
 20
0.0
 30
0.0
210
0.0
220
0.0
230
1.0
  2
SOLID
 70
     1
 71
     0
 91
        1
 92
        1
 93
        1
 72
     4
 94
        3
 73
     0
 74
     1
 95
       11
 96
        7
 40
0.0
 40
0.0
 40
0.0
 40
0.0
 40
1.0
 40
1.0
 40
1.0
 40
2.0
 40
2.0
 40
2.0
 40
2.0
 10
705.5071475367902
 20
261.7973260613207
 10
705.5071475367902
 20
261.7973260613207
 10
711.2669131617902
 20
261.0771112175707
 10
711.2669131617902
 20
261.0771112175707
 10
711.2669131617902
 20
261.0771112175707
 10
705.5071475367902
 20
261.7973260613207
 10
705.5071475367902
 20
261.7973260613207
 97
        0
 75
     2
 76
     1
 98
        0
  0
HATCH
  5
5608
330
A
100
AcDbEntity
  8
レイヤー 1
 62
     7
420
 16777215
100
AcDbHatch
 10
0.0
 20
0.0
 30
0.0
210
0.0
220
0.0
230
1.0
  2
SOLID
 70
     1
 71
     0
 91
        1
 92
        1
 93
        1
 72
     4
 94
        3
 73
     0
 74
     1
 95
       11
 96
        7
 40
0.0
 40
0.0
 40
0.0
 40
0.0
 40
1.0
 40
1.0
 40
1.0
 40
2.0
 40
2.0
 40
2.0
 40
2.0
 10
705.5071475367902
 20
261.7973260613207
 10
705.5071475367902
 20
261.7973260613207
 10
705.5071475367902
 20
261.0771112175707
 10
705.5071475367902
 20
261.0771112175707
 10
705.5071475367902
 20
261.0771112175707
 10
705.5071475367902
 20
261.7973260613207
 10
705.5071475367902
 20
261.7973260613207
 97
        0
 75
     2
 76
     1
 98
        0
  0
HATCH
  5
560C
330
A
100
AcDbEntity
  8
レイヤー 1
 62
     7
420
 16777215
100
AcDbHatch
 10
0.0
 20
0.0
 30
0.0
210
0.0
220
0.0
230
1.0
  2
SOLID
 70
     1
 71
     0
 91
        1
 92
        1
 93
        1
 72
     4
 94
        3
 73
     0
 74
     1
 95
       14
 96
       10
 40
0.0
 40
0.0
 40
0.0
 40
0.0
 40
1.0
 40
1.0
 40
1.0
 40
2.0
 40
2.0
 40
2.0
 40
3.0
 40
3.0
 40
3.0
 40
3.0
 10
711.2669131617902
 20
192.4975213738207
 10
711.2669131617902
 20
192.4975213738207
 10
711.2669131617902
 20
192.4975213738207
 10
711.2669131617902
 20
192.4975213738207
 10
711.2669131617902
 20
192.4975213738207
 10
705.5071475367902
 20
192.4975213738207
 10
705.5071475367902
 20
192.4975213738207
 10
705.5071475367902
 20
192.4975213738207
 10
711.2669131617902
 20
192.4975213738207
 10
711.2669131617902
 20
192.4975213738207
 97
        0
 75
     2
 76
     1
 98
        0
  0
HATCH
  5
560F
330
A
100
AcDbEntity
  8
レイヤー 1
 62
     7
420
 16777215
100
AcDbHatch
 10
0.0
 20
0.0
 30
0.0
210
0.0
220
0.0
230
1.0
  2
SOLID
 70
     1
 71
     0
 91
        1
 92
        1
 93
        1
 72
     4
 94
        3
 73
     0
 74
     1
 95
       11
 96
        7
 40
0.0
 40
0.0
 40
0.0
 40
0.0
 40
1.0
 40
1.0
 40
1.0
 40
2.0
 40
2.0
 40
2.0
 40
2.0
 10
711.2669131617902
 20
192.4975213738207
 10
711.2669131617902
 20
192.4975213738207
 10
705.5071475367902
 20
193.2172479363207
 10
705.5071475367902
 20
193.2172479363207
 10
705.5071475367902
 20
193.2172479363207
 10
711.2669131617902
 20
192.4975213738207
 10
711.2669131617902
 20
192.4975213738207
 97
        0
 75
     2
 76
     1
 98
        0
  0
HATCH
  5
5612
330
A
100
AcDbEntity
  8
レイヤー 1
 62
     7
420
 16777215
100
AcDbHatch
 10
0.0
 20
0.0
 30
0.0
210
0.0
220
0.0
230
1.0
  2
SOLID
 70
     1
 71
     0
 91
        1
 92
        1
 93
        1
 72
     4
 94
        3
 73
     0
 74
     1
 95
       11
 96
        7
 40
0.0
 40
0.0
 40
0.0
 40
0.0
 40
1.0
 40
1.0
 40
1.0
 40
2.0
 40
2.0
 40
2.0
 40
2.0
 10
711.2669131617902
 20
192.4975213738207
 10
711.2669131617902
 20
192.4975213738207
 10
711.2669131617902
 20
193.2172479363207
 10
711.2669131617902
 20
193.2172479363207
 10
711.2669131617902
 20
193.2172479363207
 10
711.2669131617902
 20
192.4975213738207
 10
711.2669131617902
 20
192.4975213738207
 97
        0
 75
     2
 76
     1
 98
        0
  0
HATCH
  5
5616
330
A
100
AcDbEntity
  8
レイヤー 1
 62
     7
420
 16777215
100
AcDbHatch
 10
0.0
 20
0.0
 30
0.0
210
0.0
220
0.0
230
1.0
  2
SOLID
 70
     1
 71
     0
 91
        1
 92
        1
 93
        1
 72
     4
 94
        3
 73
     0
 74
     1
 95
       14
 96
       10
 40
0.0
 40
0.0
 40
0.0
 40
0.0
 40
1.0
 40
1.0
 40
1.0
 40
2.0
 40
2.0
 40
2.0
 40
3.0
 40
3.0
 40
3.0
 40
3.0
 10
818.1873233180402
 20
132.1977166863207
 10
818.1873233180402
 20
132.1977166863207
 10
818.1873233180402
 20
132.1977166863207
 10
818.1873233180402
 20
132.1977166863207
 10
818.1873233180402
 20
132.1977166863207
 10
818.1873233180402
 20
126.4369744988207
 10
818.1873233180402
 20
126.4369744988207
 10
818.1873233180402
 20
126.4369744988207
 10
818.1873233180402
 20
132.1977166863207
 10
818.1873233180402
 20
132.1977166863207
 97
        0
 75
     2
 76
     1
 98
        0
  0
HATCH
  5
5619
330
A
100
AcDbEntity
  8
レイヤー 1
 62
     7
420
 16777215
100
AcDbHatch
 10
0.0
 20
0.0
 30
0.0
210
0.0
220
0.0
230
1.0
  2
SOLID
 70
     1
 71
     0
 91
        1
 92
        1
 93
        1
 72
     4
 94
        3
 73
     0
 74
     1
 95
       11
 96
        7
 40
0.0
 40
0.0
 40
0.0
 40
0.0
 40
1.0
 40
1.0
 40
1.0
 40
2.0
 40
2.0
 40
2.0
 40
2.0
 10
818.1873233180402
 20
132.1977166863207
 10
818.1873233180402
 20
132.1977166863207
 10
817.4671084742902
 20
126.4369744988207
 10
817.4671084742902
 20
126.4369744988207
 10
817.4671084742902
 20
126.4369744988207
 10
818.1873233180402
 20
132.1977166863207
 10
818.1873233180402
 20
132.1977166863207
 97
        0
 75
     2
 76
     1
 98
        0
  0
HATCH
  5
561C
330
A
100
AcDbEntity
  8
レイヤー 1
 62
     7
420
 16777215
100
AcDbHatch
 10
0.0
 20
0.0
 30
0.0
210
0.0
220
0.0
230
1.0
  2
SOLID
 70
     1
 71
     0
 91
        1
 92
        1
 93
        1
 72
     4
 94
        3
 73
     0
 74
     1
 95
       11
 96
        7
 40
0.0
 40
0.0
 40
0.0
 40
0.0
 40
1.0
 40
1.0
 40
1.0
 40
2.0
 40
2.0
 40
2.0
 40
2.0
 10
818.1873233180402
 20
132.1977166863207
 10
818.1873233180402
 20
132.1977166863207
 10
817.4671084742902
 20
132.1977166863207
 10
817.4671084742902
 20
132.1977166863207
 10
817.4671084742902
 20
132.1977166863207
 10
818.1873233180402
 20
132.1977166863207
 10
818.1873233180402
 20
132.1977166863207
 97
        0
 75
     2
 76
     1
 98
        0
  0
HATCH
  5
5620
330
A
100
AcDbEntity
  8
レイヤー 1
 62
     7
420
 16777215
100
AcDbHatch
 10
0.0
 20
0.0
 30
0.0
210
0.0
220
0.0
230
1.0
  2
SOLID
 70
     1
 71
     0
 91
        1
 92
        1
 93
        1
 72
     4
 94
        3
 73
     0
 74
     1
 95
       14
 96
       10
 40
0.0
 40
0.0
 40
0.0
 40
0.0
 40
1.0
 40
1.0
 40
1.0
 40
2.0
 40
2.0
 40
2.0
 40
3.0
 40
3.0
 40
3.0
 40
3.0
 10
754.4671084742902
 20
126.4369744988207
 10
754.4671084742902
 20
126.4369744988207
 10
754.4671084742902
 20
126.4369744988207
 10
754.4671084742902
 20
126.4369744988207
 10
754.4671084742902
 20
126.4369744988207
 10
754.4671084742902
 20
132.1977166863207
 10
754.4671084742902
 20
132.1977166863207
 10
754.4671084742902
 20
132.1977166863207
 10
754.4671084742902
 20
126.4369744988207
 10
754.4671084742902
 20
126.4369744988207
 97
        0
 75
     2
 76
     1
 98
        0
  0
HATCH
  5
5623
330
A
100
AcDbEntity
  8
レイヤー 1
 62
     7
420
 16777215
100
AcDbHatch
 10
0.0
 20
0.0
 30
0.0
210
0.0
220
0.0
230
1.0
  2
SOLID
 70
     1
 71
     0
 91
        1
 92
        1
 93
        1
 72
     4
 94
        3
 73
     0
 74
     1
 95
       11
 96
        7
 40
0.0
 40
0.0
 40
0.0
 40
0.0
 40
1.0
 40
1.0
 40
1.0
 40
2.0
 40
2.0
 40
2.0
 40
2.0
 10
754.4671084742902
 20
126.4369744988207
 10
754.4671084742902
 20
126.4369744988207
 10
755.1873233180402
 20
132.1977166863207
 10
755.1873233180402
 20
132.1977166863207
 10
755.1873233180402
 20
132.1977166863207
 10
754.4671084742902
 20
126.4369744988207
 10
754.4671084742902
 20
126.4369744988207
 97
        0
 75
     2
 76
     1
 98
        0
  0
HATCH
  5
5626
330
A
100
AcDbEntity
  8
レイヤー 1
 62
     7
420
 16777215
100
AcDbHatch
 10
0.0
 20
0.0
 30
0.0
210
0.0
220
0.0
230
1.0
  2
SOLID
 70
     1
 71
     0
 91
        1
 92
        1
 93
        1
 72
     4
 94
        3
 73
     0
 74
     1
 95
       11
 96
        7
 40
0.0
 40
0.0
 40
0.0
 40
0.0
 40
1.0
 40
1.0
 40
1.0
 40
2.0
 40
2.0
 40
2.0
 40
2.0
 10
754.4671084742902
 20
126.4369744988207
 10
754.4671084742902
 20
126.4369744988207
 10
755.1873233180402
 20
126.4369744988207
 10
755.1873233180402
 20
126.4369744988207
 10
755.1873233180402
 20
126.4369744988207
 10
754.4671084742902
 20
126.4369744988207
 10
754.4671084742902
 20
126.4369744988207
 97
        0
 75
     2
 76
     1
 98
        0
  0
HATCH
  5
562A
330
A
100
AcDbEntity
  8
レイヤー 1
 62
     7
420
 16777215
100
AcDbHatch
 10
0.0
 20
0.0
 30
0.0
210
0.0
220
0.0
230
1.0
  2
SOLID
 70
     1
 71
     0
 91
        1
 92
        1
 93
        1
 72
     4
 94
        3
 73
     0
 74
     1
 95
       14
 96
       10
 40
0.0
 40
0.0
 40
0.0
 40
0.0
 40
1.0
 40
1.0
 40
1.0
 40
2.0
 40
2.0
 40
2.0
 40
3.0
 40
3.0
 40
3.0
 40
3.0
 10
822.5071475367902
 20
91.15767762382072
 10
822.5071475367902
 20
91.15767762382072
 10
822.5071475367902
 20
91.15767762382072
 10
822.5071475367902
 20
91.15767762382072
 10
822.5071475367902
 20
91.15767762382072
 10
822.5071475367902
 20
96.73775574882072
 10
822.5071475367902
 20
96.73775574882072
 10
822.5071475367902
 20
96.73775574882072
 10
822.5071475367902
 20
91.15767762382072
 10
822.5071475367902
 20
91.15767762382072
 97
        0
 75
     2
 76
     1
 98
        0
  0
HATCH
  5
562D
330
A
100
AcDbEntity
  8
レイヤー 1
 62
     7
420
 16777215
100
AcDbHatch
 10
0.0
 20
0.0
 30
0.0
210
0.0
220
0.0
230
1.0
  2
SOLID
 70
     1
 71
     0
 91
        1
 92
        1
 93
        1
 72
     4
 94
        3
 73
     0
 74
     1
 95
       11
 96
        7
 40
0.0
 40
0.0
 40
0.0
 40
0.0
 40
1.0
 40
1.0
 40
1.0
 40
2.0
 40
2.0
 40
2.0
 40
2.0
 10
822.5071475367902
 20
91.15767762382072
 10
822.5071475367902
 20
91.15767762382072
 10
823.2268740992902
 20
96.73775574882072
 10
823.2268740992902
 20
96.73775574882072
 10
823.2268740992902
 20
96.73775574882072
 10
822.5071475367902
 20
91.15767762382072
 10
822.5071475367902
 20
91.15767762382072
 97
        0
 75
     2
 76
     1
 98
        0
  0
HATCH
  5
5630
330
A
100
AcDbEntity
  8
レイヤー 1
 62
     7
420
 16777215
100
AcDbHatch
 10
0.0
 20
0.0
 30
0.0
210
0.0
220
0.0
230
1.0
  2
SOLID
 70
     1
 71
     0
 91
        1
 92
        1
 93
        1
 72
     4
 94
        3
 73
     0
 74
     1
 95
       11
 96
        7
 40
0.0
 40
0.0
 40
0.0
 40
0.0
 40
1.0
 40
1.0
 40
1.0
 40
2.0
 40
2.0
 40
2.0
 40
2.0
 10
822.5071475367902
 20
91.15767762382072
 10
822.5071475367902
 20
91.15767762382072
 10
823.2268740992902
 20
91.15767762382072
 10
823.2268740992902
 20
91.15767762382072
 10
823.2268740992902
 20
91.15767762382072
 10
822.5071475367902
 20
91.15767762382072
 10
822.5071475367902
 20
91.15767762382072
 97
        0
 75
     2
 76
     1
 98
        0
  0
HATCH
  5
5634
330
A
100
AcDbEntity
  8
レイヤー 1
 62
     7
420
 16777215
100
AcDbHatch
 10
0.0
 20
0.0
 30
0.0
210
0.0
220
0.0
230
1.0
  2
SOLID
 70
     1
 71
     0
 91
        1
 92
        1
 93
        1
 72
     4
 94
        3
 73
     0
 74
     1
 95
       14
 96
       10
 40
0.0
 40
0.0
 40
0.0
 40
0.0
 40
1.0
 40
1.0
 40
1.0
 40
2.0
 40
2.0
 40
2.0
 40
3.0
 40
3.0
 40
3.0
 40
3.0
 10
837.9871280055402
 20
96.73775574882072
 10
837.9871280055402
 20
96.73775574882072
 10
837.9871280055402
 20
96.73775574882072
 10
837.9871280055402
 20
96.73775574882072
 10
837.9871280055402
 20
96.73775574882072
 10
837.9871280055402
 20
91.15767762382072
 10
837.9871280055402
 20
91.15767762382072
 10
837.9871280055402
 20
91.15767762382072
 10
837.9871280055402
 20
96.73775574882072
 10
837.9871280055402
 20
96.73775574882072
 97
        0
 75
     2
 76
     1
 98
        0
  0
HATCH
  5
5637
330
A
100
AcDbEntity
  8
レイヤー 1
 62
     7
420
 16777215
100
AcDbHatch
 10
0.0
 20
0.0
 30
0.0
210
0.0
220
0.0
230
1.0
  2
SOLID
 70
     1
 71
     0
 91
        1
 92
        1
 93
        1
 72
     4
 94
        3
 73
     0
 74
     1
 95
       11
 96
        7
 40
0.0
 40
0.0
 40
0.0
 40
0.0
 40
1.0
 40
1.0
 40
1.0
 40
2.0
 40
2.0
 40
2.0
 40
2.0
 10
837.9871280055402
 20
96.73775574882072
 10
837.9871280055402
 20
96.73775574882072
 10
837.2669131617902
 20
91.15767762382072
 10
837.2669131617902
 20
91.15767762382072
 10
837.2669131617902
 20
91.15767762382072
 10
837.9871280055402
 20
96.73775574882072
 10
837.9871280055402
 20
96.73775574882072
 97
        0
 75
     2
 76
     1
 98
        0
  0
HATCH
  5
563A
330
A
100
AcDbEntity
  8
レイヤー 1
 62
     7
420
 16777215
100
AcDbHatch
 10
0.0
 20
0.0
 30
0.0
210
0.0
220
0.0
230
1.0
  2
SOLID
 70
     1
 71
     0
 91
        1
 92
        1
 93
        1
 72
     4
 94
        3
 73
     0
 74
     1
 95
       11
 96
        7
 40
0.0
 40
0.0
 40
0.0
 40
0.0
 40
1.0
 40
1.0
 40
1.0
 40
2.0
 40
2.0
 40
2.0
 40
2.0
 10
837.9871280055402
 20
96.73775574882072
 10
837.9871280055402
 20
96.73775574882072
 10
837.2669131617902
 20
96.73775574882072
 10
837.2669131617902
 20
96.73775574882072
 10
837.2669131617902
 20
96.73775574882072
 10
837.9871280055402
 20
96.73775574882072
 10
837.9871280055402
 20
96.73775574882072
 97
        0
 75
     2
 76
     1
 98
        0
  0
HATCH
  5
563E
330
A
100
AcDbEntity
  8
レイヤー 1
 62
     7
420
 16777215
100
AcDbHatch
 10
0.0
 20
0.0
 30
0.0
210
0.0
220
0.0
230
1.0
  2
SOLID
 70
     1
 71
     0
 91
        1
 92
        1
 93
        1
 72
     4
 94
        3
 73
     0
 74
     1
 95
       14
 96
       10
 40
0.0
 40
0.0
 40
0.0
 40
0.0
 40
1.0
 40
1.0
 40
1.0
 40
2.0
 40
2.0
 40
2.0
 40
3.0
 40
3.0
 40
3.0
 40
3.0
 10
1102.58673738054
 20
297.4374627800707
 10
1102.58673738054
 20
297.4374627800707
 10
1102.58673738054
 20
297.4374627800707
 10
1102.58673738054
 20
297.4374627800707
 10
1102.58673738054
 20
297.4374627800707
 10
1108.16681550554
 20
297.4374627800707
 10
1108.16681550554
 20
297.4374627800707
 10
1108.16681550554
 20
297.4374627800707
 10
1102.58673738054
 20
297.4374627800707
 10
1102.58673738054
 20
297.4374627800707
 97
        0
 75
     2
 76
     1
 98
        0
  0
HATCH
  5
5641
330
A
100
AcDbEntity
  8
レイヤー 1
 62
     7
420
 16777215
100
AcDbHatch
 10
0.0
 20
0.0
 30
0.0
210
0.0
220
0.0
230
1.0
  2
SOLID
 70
     1
 71
     0
 91
        1
 92
        1
 93
        1
 72
     4
 94
        3
 73
     0
 74
     1
 95
       11
 96
        7
 40
0.0
 40
0.0
 40
0.0
 40
0.0
 40
1.0
 40
1.0
 40
1.0
 40
2.0
 40
2.0
 40
2.0
 40
2.0
 10
1102.58673738054
 20
297.4374627800707
 10
1102.58673738054
 20
297.4374627800707
 10
1108.16681550554
 20
296.7172479363207
 10
1108.16681550554
 20
296.7172479363207
 10
1108.16681550554
 20
296.7172479363207
 10
1102.58673738054
 20
297.4374627800707
 10
1102.58673738054
 20
297.4374627800707
 97
        0
 75
     2
 76
     1
 98
        0
  0
HATCH
  5
5644
330
A
100
AcDbEntity
  8
レイヤー 1
 62
     7
420
 16777215
100
AcDbHatch
 10
0.0
 20
0.0
 30
0.0
210
0.0
220
0.0
230
1.0
  2
SOLID
 70
     1
 71
     0
 91
        1
 92
        1
 93
        1
 72
     4
 94
        3
 73
     0
 74
     1
 95
       11
 96
        7
 40
0.0
 40
0.0
 40
0.0
 40
0.0
 40
1.0
 40
1.0
 40
1.0
 40
2.0
 40
2.0
 40
2.0
 40
2.0
 10
1102.58673738054
 20
297.4374627800707
 10
1102.58673738054
 20
297.4374627800707
 10
1102.58673738054
 20
296.7172479363207
 10
1102.58673738054
 20
296.7172479363207
 10
1102.58673738054
 20
296.7172479363207
 10
1102.58673738054
 20
297.4374627800707
 10
1102.58673738054
 20
297.4374627800707
 97
        0
 75
     2
 76
     1
 98
        0
  0
HATCH
  5
5648
330
A
100
AcDbEntity
  8
レイヤー 1
 62
     7
420
 16777215
100
AcDbHatch
 10
0.0
 20
0.0
 30
0.0
210
0.0
220
0.0
230
1.0
  2
SOLID
 70
     1
 71
     0
 91
        1
 92
        1
 93
        1
 72
     4
 94
        3
 73
     0
 74
     1
 95
       14
 96
       10
 40
0.0
 40
0.0
 40
0.0
 40
0.0
 40
1.0
 40
1.0
 40
1.0
 40
2.0
 40
2.0
 40
2.0
 40
3.0
 40
3.0
 40
3.0
 40
3.0
 10
1108.16681550554
 20
157.0375604363207
 10
1108.16681550554
 20
157.0375604363207
 10
1108.16681550554
 20
157.0375604363207
 10
1108.16681550554
 20
157.0375604363207
 10
1108.16681550554
 20
157.0375604363207
 10
1102.58673738054
 20
157.0375604363207
 10
1102.58673738054
 20
157.0375604363207
 10
1102.58673738054
 20
157.0375604363207
 10
1108.16681550554
 20
157.0375604363207
 10
1108.16681550554
 20
157.0375604363207
 97
        0
 75
     2
 76
     1
 98
        0
  0
HATCH
  5
564B
330
A
100
AcDbEntity
  8
レイヤー 1
 62
     7
420
 16777215
100
AcDbHatch
 10
0.0
 20
0.0
 30
0.0
210
0.0
220
0.0
230
1.0
  2
SOLID
 70
     1
 71
     0
 91
        1
 92
        1
 93
        1
 72
     4
 94
        3
 73
     0
 74
     1
 95
       11
 96
        7
 40
0.0
 40
0.0
 40
0.0
 40
0.0
 40
1.0
 40
1.0
 40
1.0
 40
2.0
 40
2.0
 40
2.0
 40
2.0
 10
1108.16681550554
 20
157.0375604363207
 10
1108.16681550554
 20
157.0375604363207
 10
1102.58673738054
 20
157.7572869988207
 10
1102.58673738054
 20
157.7572869988207
 10
1102.58673738054
 20
157.7572869988207
 10
1108.16681550554
 20
157.0375604363207
 10
1108.16681550554
 20
157.0375604363207
 97
        0
 75
     2
 76
     1
 98
        0
  0
HATCH
  5
564E
330
A
100
AcDbEntity
  8
レイヤー 1
 62
     7
420
 16777215
100
AcDbHatch
 10
0.0
 20
0.0
 30
0.0
210
0.0
220
0.0
230
1.0
  2
SOLID
 70
     1
 71
     0
 91
        1
 92
        1
 93
        1
 72
     4
 94
        3
 73
     0
 74
     1
 95
       11
 96
        7
 40
0.0
 40
0.0
 40
0.0
 40
0.0
 40
1.0
 40
1.0
 40
1.0
 40
2.0
 40
2.0
 40
2.0
 40
2.0
 10
1108.16681550554
 20
157.0375604363207
 10
1108.16681550554
 20
157.0375604363207
 10
1108.16681550554
 20
157.7572869988207
 10
1108.16681550554
 20
157.7572869988207
 10
1108.16681550554
 20
157.7572869988207
 10
1108.16681550554
 20
157.0375604363207
 10
1108.16681550554
 20
157.0375604363207
 97
        0
 75
     2
 76
     1
 98
        0
  0
HATCH
  5
5652
330
A
100
AcDbEntity
  8
レイヤー 1
 62
     7
420
 16777215
100
AcDbHatch
 10
0.0
 20
0.0
 30
0.0
210
0.0
220
0.0
230
1.0
  2
SOLID
 70
     1
 71
     0
 91
        1
 92
        1
 93
        1
 72
     4
 94
        3
 73
     0
 74
     1
 95
       14
 96
       10
 40
0.0
 40
0.0
 40
0.0
 40
0.0
 40
1.0
 40
1.0
 40
1.0
 40
2.0
 40
2.0
 40
2.0
 40
3.0
 40
3.0
 40
3.0
 40
3.0
 10
1459.70783113054
 20
254.7773065300707
 10
1459.70783113054
 20
254.7773065300707
 10
1459.70783113054
 20
254.7773065300707
 10
1459.70783113054
 20
254.7773065300707
 10
1459.70783113054
 20
254.7773065300707
 10
1465.28790925554
 20
254.7773065300707
 10
1465.28790925554
 20
254.7773065300707
 10
1465.28790925554
 20
254.7773065300707
 10
1459.70783113054
 20
254.7773065300707
 10
1459.70783113054
 20
254.7773065300707
 97
        0
 75
     2
 76
     1
 98
        0
  0
HATCH
  5
5655
330
A
100
AcDbEntity
  8
レイヤー 1
 62
     7
420
 16777215
100
AcDbHatch
 10
0.0
 20
0.0
 30
0.0
210
0.0
220
0.0
230
1.0
  2
SOLID
 70
     1
 71
     0
 91
        1
 92
        1
 93
        1
 72
     4
 94
        3
 73
     0
 74
     1
 95
       11
 96
        7
 40
0.0
 40
0.0
 40
0.0
 40
0.0
 40
1.0
 40
1.0
 40
1.0
 40
2.0
 40
2.0
 40
2.0
 40
2.0
 10
1459.70783113054
 20
254.7773065300707
 10
1459.70783113054
 20
254.7773065300707
 10
1465.28790925554
 20
254.0570916863207
 10
1465.28790925554
 20
254.0570916863207
 10
1465.28790925554
 20
254.0570916863207
 10
1459.70783113054
 20
254.7773065300707
 10
1459.70783113054
 20
254.7773065300707
 97
        0
 75
     2
 76
     1
 98
        0
  0
HATCH
  5
5658
330
A
100
AcDbEntity
  8
レイヤー 1
 62
     7
420
 16777215
100
AcDbHatch
 10
0.0
 20
0.0
 30
0.0
210
0.0
220
0.0
230
1.0
  2
SOLID
 70
     1
 71
     0
 91
        1
 92
        1
 93
        1
 72
     4
 94
        3
 73
     0
 74
     1
 95
       11
 96
        7
 40
0.0
 40
0.0
 40
0.0
 40
0.0
 40
1.0
 40
1.0
 40
1.0
 40
2.0
 40
2.0
 40
2.0
 40
2.0
 10
1459.70783113054
 20
254.7773065300707
 10
1459.70783113054
 20
254.7773065300707
 10
1459.70783113054
 20
254.0570916863207
 10
1459.70783113054
 20
254.0570916863207
 10
1459.70783113054
 20
254.0570916863207
 10
1459.70783113054
 20
254.7773065300707
 10
1459.70783113054
 20
254.7773065300707
 97
        0
 75
     2
 76
     1
 98
        0
  0
HATCH
  5
565C
330
A
100
AcDbEntity
  8
レイヤー 1
 62
     7
420
 16777215
100
AcDbHatch
 10
0.0
 20
0.0
 30
0.0
210
0.0
220
0.0
230
1.0
  2
SOLID
 70
     1
 71
     0
 91
        1
 92
        1
 93
        1
 72
     4
 94
        3
 73
     0
 74
     1
 95
       14
 96
       10
 40
0.0
 40
0.0
 40
0.0
 40
0.0
 40
1.0
 40
1.0
 40
1.0
 40
2.0
 40
2.0
 40
2.0
 40
3.0
 40
3.0
 40
3.0
 40
3.0
 10
1465.28790925554
 20
199.5170526238207
 10
1465.28790925554
 20
199.5170526238207
 10
1465.28790925554
 20
199.5170526238207
 10
1465.28790925554
 20
199.5170526238207
 10
1465.28790925554
 20
199.5170526238207
 10
1459.70783113054
 20
199.5170526238207
 10
1459.70783113054
 20
199.5170526238207
 10
1459.70783113054
 20
199.5170526238207
 10
1465.28790925554
 20
199.5170526238207
 10
1465.28790925554
 20
199.5170526238207
 97
        0
 75
     2
 76
     1
 98
        0
  0
HATCH
  5
565F
330
A
100
AcDbEntity
  8
レイヤー 1
 62
     7
420
 16777215
100
AcDbHatch
 10
0.0
 20
0.0
 30
0.0
210
0.0
220
0.0
230
1.0
  2
SOLID
 70
     1
 71
     0
 91
        1
 92
        1
 93
        1
 72
     4
 94
        3
 73
     0
 74
     1
 95
       11
 96
        7
 40
0.0
 40
0.0
 40
0.0
 40
0.0
 40
1.0
 40
1.0
 40
1.0
 40
2.0
 40
2.0
 40
2.0
 40
2.0
 10
1465.28790925554
 20
199.5170526238207
 10
1465.28790925554
 20
199.5170526238207
 10
1459.70783113054
 20
200.2377557488207
 10
1459.70783113054
 20
200.2377557488207
 10
1459.70783113054
 20
200.2377557488207
 10
1465.28790925554
 20
199.5170526238207
 10
1465.28790925554
 20
199.5170526238207
 97
        0
 75
     2
 76
     1
 98
        0
  0
HATCH
  5
5662
330
A
100
AcDbEntity
  8
レイヤー 1
 62
     7
420
 16777215
100
AcDbHatch
 10
0.0
 20
0.0
 30
0.0
210
0.0
220
0.0
230
1.0
  2
SOLID
 70
     1
 71
     0
 91
        1
 92
        1
 93
        1
 72
     4
 94
        3
 73
     0
 74
     1
 95
       11
 96
        7
 40
0.0
 40
0.0
 40
0.0
 40
0.0
 40
1.0
 40
1.0
 40
1.0
 40
2.0
 40
2.0
 40
2.0
 40
2.0
 10
1465.28790925554
 20
199.5170526238207
 10
1465.28790925554
 20
199.5170526238207
 10
1465.28790925554
 20
200.2377557488207
 10
1465.28790925554
 20
200.2377557488207
 10
1465.28790925554
 20
200.2377557488207
 10
1465.28790925554
 20
199.5170526238207
 10
1465.28790925554
 20
199.5170526238207
 97
        0
 75
     2
 76
     1
 98
        0
  0
HATCH
  5
5666
330
A
100
AcDbEntity
  8
レイヤー 1
 62
     7
420
 16777215
100
AcDbHatch
 10
0.0
 20
0.0
 30
0.0
210
0.0
220
0.0
230
1.0
  2
SOLID
 70
     1
 71
     0
 91
        1
 92
        1
 93
        1
 72
     4
 94
        3
 73
     0
 74
     1
 95
       14
 96
       10
 40
0.0
 40
0.0
 40
0.0
 40
0.0
 40
1.0
 40
1.0
 40
1.0
 40
2.0
 40
2.0
 40
2.0
 40
3.0
 40
3.0
 40
3.0
 40
3.0
 10
1409.30744050554
 20
118.1576776238207
 10
1409.30744050554
 20
118.1576776238207
 10
1409.30744050554
 20
118.1576776238207
 10
1409.30744050554
 20
118.1576776238207
 10
1409.30744050554
 20
118.1576776238207
 10
1409.30744050554
 20
123.7377557488207
 10
1409.30744050554
 20
123.7377557488207
 10
1409.30744050554
 20
123.7377557488207
 10
1409.30744050554
 20
118.1576776238207
 10
1409.30744050554
 20
118.1576776238207
 97
        0
 75
     2
 76
     1
 98
        0
  0
HATCH
  5
5669
330
A
100
AcDbEntity
  8
レイヤー 1
 62
     7
420
 16777215
100
AcDbHatch
 10
0.0
 20
0.0
 30
0.0
210
0.0
220
0.0
230
1.0
  2
SOLID
 70
     1
 71
     0
 91
        1
 92
        1
 93
        1
 72
     4
 94
        3
 73
     0
 74
     1
 95
       11
 96
        7
 40
0.0
 40
0.0
 40
0.0
 40
0.0
 40
1.0
 40
1.0
 40
1.0
 40
2.0
 40
2.0
 40
2.0
 40
2.0
 10
1409.30744050554
 20
118.1576776238207
 10
1409.30744050554
 20
118.1576776238207
 10
1410.02619050554
 20
123.7377557488207
 10
1410.02619050554
 20
123.7377557488207
 10
1410.02619050554
 20
123.7377557488207
 10
1409.30744050554
 20
118.1576776238207
 10
1409.30744050554
 20
118.1576776238207
 97
        0
 75
     2
 76
     1
 98
        0
  0
HATCH
  5
566C
330
A
100
AcDbEntity
  8
レイヤー 1
 62
     7
420
 16777215
100
AcDbHatch
 10
0.0
 20
0.0
 30
0.0
210
0.0
220
0.0
230
1.0
  2
SOLID
 70
     1
 71
     0
 91
        1
 92
        1
 93
        1
 72
     4
 94
        3
 73
     0
 74
     1
 95
       11
 96
        7
 40
0.0
 40
0.0
 40
0.0
 40
0.0
 40
1.0
 40
1.0
 40
1.0
 40
2.0
 40
2.0
 40
2.0
 40
2.0
 10
1409.30744050554
 20
118.1576776238207
 10
1409.30744050554
 20
118.1576776238207
 10
1410.02619050554
 20
118.1576776238207
 10
1410.02619050554
 20
118.1576776238207
 10
1410.02619050554
 20
118.1576776238207
 10
1409.30744050554
 20
118.1576776238207
 10
1409.30744050554
 20
118.1576776238207
 97
        0
 75
     2
 76
     1
 98
        0
  0
HATCH
  5
5670
330
A
100
AcDbEntity
  8
レイヤー 1
 62
     7
420
 16777215
100
AcDbHatch
 10
0.0
 20
0.0
 30
0.0
210
0.0
220
0.0
230
1.0
  2
SOLID
 70
     1
 71
     0
 91
        1
 92
        1
 93
        1
 72
     4
 94
        3
 73
     0
 74
     1
 95
       14
 96
       10
 40
0.0
 40
0.0
 40
0.0
 40
0.0
 40
1.0
 40
1.0
 40
1.0
 40
2.0
 40
2.0
 40
2.0
 40
3.0
 40
3.0
 40
3.0
 40
3.0
 10
1426.40704988054
 20
123.7377557488207
 10
1426.40704988054
 20
123.7377557488207
 10
1426.40704988054
 20
123.7377557488207
 10
1426.40704988054
 20
123.7377557488207
 10
1426.40704988054
 20
123.7377557488207
 10
1426.40704988054
 20
118.1576776238207
 10
1426.40704988054
 20
118.1576776238207
 10
1426.40704988054
 20
118.1576776238207
 10
1426.40704988054
 20
123.7377557488207
 10
1426.40704988054
 20
123.7377557488207
 97
        0
 75
     2
 76
     1
 98
        0
  0
HATCH
  5
5673
330
A
100
AcDbEntity
  8
レイヤー 1
 62
     7
420
 16777215
100
AcDbHatch
 10
0.0
 20
0.0
 30
0.0
210
0.0
220
0.0
230
1.0
  2
SOLID
 70
     1
 71
     0
 91
        1
 92
        1
 93
        1
 72
     4
 94
        3
 73
     0
 74
     1
 95
       11
 96
        7
 40
0.0
 40
0.0
 40
0.0
 40
0.0
 40
1.0
 40
1.0
 40
1.0
 40
2.0
 40
2.0
 40
2.0
 40
2.0
 10
1426.40704988054
 20
123.7377557488207
 10
1426.40704988054
 20
123.7377557488207
 10
1425.68634675554
 20
118.1576776238207
 10
1425.68634675554
 20
118.1576776238207
 10
1425.68634675554
 20
118.1576776238207
 10
1426.40704988054
 20
123.7377557488207
 10
1426.40704988054
 20
123.7377557488207
 97
        0
 75
     2
 76
     1
 98
        0
  0
HATCH
  5
5676
330
A
100
AcDbEntity
  8
レイヤー 1
 62
     7
420
 16777215
100
AcDbHatch
 10
0.0
 20
0.0
 30
0.0
210
0.0
220
0.0
230
1.0
  2
SOLID
 70
     1
 71
     0
 91
        1
 92
        1
 93
        1
 72
     4
 94
        3
 73
     0
 74
     1
 95
       11
 96
        7
 40
0.0
 40
0.0
 40
0.0
 40
0.0
 40
1.0
 40
1.0
 40
1.0
 40
2.0
 40
2.0
 40
2.0
 40
2.0
 10
1426.40704988054
 20
123.7377557488207
 10
1426.40704988054
 20
123.7377557488207
 10
1425.68634675554
 20
123.7377557488207
 10
1425.68634675554
 20
123.7377557488207
 10
1425.68634675554
 20
123.7377557488207
 10
1426.40704988054
 20
123.7377557488207
 10
1426.40704988054
 20
123.7377557488207
 97
        0
 75
     2
 76
     1
 98
        0
  0
HATCH
  5
567A
330
A
100
AcDbEntity
  8
レイヤー 1
 62
     7
420
 16777215
100
AcDbHatch
 10
0.0
 20
0.0
 30
0.0
210
0.0
220
0.0
230
1.0
  2
SOLID
 70
     1
 71
     0
 91
        1
 92
        1
 93
        1
 72
     4
 94
        3
 73
     0
 74
     1
 95
       14
 96
       10
 40
0.0
 40
0.0
 40
0.0
 40
0.0
 40
1.0
 40
1.0
 40
1.0
 40
2.0
 40
2.0
 40
2.0
 40
3.0
 40
3.0
 40
3.0
 40
3.0
 10
1391.48712800554
 20
91.15767762382072
 10
1391.48712800554
 20
91.15767762382072
 10
1391.48712800554
 20
91.15767762382072
 10
1391.48712800554
 20
91.15767762382072
 10
1391.48712800554
 20
91.15767762382072
 10
1391.48712800554
 20
96.73775574882072
 10
1391.48712800554
 20
96.73775574882072
 10
1391.48712800554
 20
96.73775574882072
 10
1391.48712800554
 20
91.15767762382072
 10
1391.48712800554
 20
91.15767762382072
 97
        0
 75
     2
 76
     1
 98
        0
  0
HATCH
  5
567D
330
A
100
AcDbEntity
  8
レイヤー 1
 62
     7
420
 16777215
100
AcDbHatch
 10
0.0
 20
0.0
 30
0.0
210
0.0
220
0.0
230
1.0
  2
SOLID
 70
     1
 71
     0
 91
        1
 92
        1
 93
        1
 72
     4
 94
        3
 73
     0
 74
     1
 95
       11
 96
        7
 40
0.0
 40
0.0
 40
0.0
 40
0.0
 40
1.0
 40
1.0
 40
1.0
 40
2.0
 40
2.0
 40
2.0
 40
2.0
 10
1391.48712800554
 20
91.15767762382072
 10
1391.48712800554
 20
91.15767762382072
 10
1392.20783113054
 20
96.73775574882072
 10
1392.20783113054
 20
96.73775574882072
 10
1392.20783113054
 20
96.73775574882072
 10
1391.48712800554
 20
91.15767762382072
 10
1391.48712800554
 20
91.15767762382072
 97
        0
 75
     2
 76
     1
 98
        0
  0
HATCH
  5
5680
330
A
100
AcDbEntity
  8
レイヤー 1
 62
     7
420
 16777215
100
AcDbHatch
 10
0.0
 20
0.0
 30
0.0
210
0.0
220
0.0
230
1.0
  2
SOLID
 70
     1
 71
     0
 91
        1
 92
        1
 93
        1
 72
     4
 94
        3
 73
     0
 74
     1
 95
       11
 96
        7
 40
0.0
 40
0.0
 40
0.0
 40
0.0
 40
1.0
 40
1.0
 40
1.0
 40
2.0
 40
2.0
 40
2.0
 40
2.0
 10
1391.48712800554
 20
91.15767762382072
 10
1391.48712800554
 20
91.15767762382072
 10
1392.20783113054
 20
91.15767762382072
 10
1392.20783113054
 20
91.15767762382072
 10
1392.20783113054
 20
91.15767762382072
 10
1391.48712800554
 20
91.15767762382072
 10
1391.48712800554
 20
91.15767762382072
 97
        0
 75
     2
 76
     1
 98
        0
  0
HATCH
  5
5684
330
A
100
AcDbEntity
  8
レイヤー 1
 62
     7
420
 16777215
100
AcDbHatch
 10
0.0
 20
0.0
 30
0.0
210
0.0
220
0.0
230
1.0
  2
SOLID
 70
     1
 71
     0
 91
        1
 92
        1
 93
        1
 72
     4
 94
        3
 73
     0
 74
     1
 95
       14
 96
       10
 40
0.0
 40
0.0
 40
0.0
 40
0.0
 40
1.0
 40
1.0
 40
1.0
 40
2.0
 40
2.0
 40
2.0
 40
3.0
 40
3.0
 40
3.0
 40
3.0
 10
1407.14728425554
 20
96.73775574882072
 10
1407.14728425554
 20
96.73775574882072
 10
1407.14728425554
 20
96.73775574882072
 10
1407.14728425554
 20
96.73775574882072
 10
1407.14728425554
 20
96.73775574882072
 10
1407.14728425554
 20
91.15767762382072
 10
1407.14728425554
 20
91.15767762382072
 10
1407.14728425554
 20
91.15767762382072
 10
1407.14728425554
 20
96.73775574882072
 10
1407.14728425554
 20
96.73775574882072
 97
        0
 75
     2
 76
     1
 98
        0
  0
HATCH
  5
5687
330
A
100
AcDbEntity
  8
レイヤー 1
 62
     7
420
 16777215
100
AcDbHatch
 10
0.0
 20
0.0
 30
0.0
210
0.0
220
0.0
230
1.0
  2
SOLID
 70
     1
 71
     0
 91
        1
 92
        1
 93
        1
 72
     4
 94
        3
 73
     0
 74
     1
 95
       11
 96
        7
 40
0.0
 40
0.0
 40
0.0
 40
0.0
 40
1.0
 40
1.0
 40
1.0
 40
2.0
 40
2.0
 40
2.0
 40
2.0
 10
1407.14728425554
 20
96.73775574882072
 10
1407.14728425554
 20
96.73775574882072
 10
1406.42658113054
 20
91.15767762382072
 10
1406.42658113054
 20
91.15767762382072
 10
1406.42658113054
 20
91.15767762382072
 10
1407.14728425554
 20
96.73775574882072
 10
1407.14728425554
 20
96.73775574882072
 97
        0
 75
     2
 76
     1
 98
        0
  0
HATCH
  5
568A
330
A
100
AcDbEntity
  8
レイヤー 1
 62
     7
420
 16777215
100
AcDbHatch
 10
0.0
 20
0.0
 30
0.0
210
0.0
220
0.0
230
1.0
  2
SOLID
 70
     1
 71
     0
 91
        1
 92
        1
 93
        1
 72
     4
 94
        3
 73
     0
 74
     1
 95
       11
 96
        7
 40
0.0
 40
0.0
 40
0.0
 40
0.0
 40
1.0
 40
1.0
 40
1.0
 40
2.0
 40
2.0
 40
2.0
 40
2.0
 10
1407.14728425554
 20
96.73775574882072
 10
1407.14728425554
 20
96.73775574882072
 10
1406.42658113054
 20
96.73775574882072
 10
1406.42658113054
 20
96.73775574882072
 10
1406.42658113054
 20
96.73775574882072
 10
1407.14728425554
 20
96.73775574882072
 10
1407.14728425554
 20
96.73775574882072
 97
        0
 75
     2
 76
     1
 98
        0
  0
HATCH
  5
568E
330
A
100
AcDbEntity
  8
レイヤー 1
 62
     7
420
 16777215
100
AcDbHatch
 10
0.0
 20
0.0
 30
0.0
210
0.0
220
0.0
230
1.0
  2
SOLID
 70
     1
 71
     0
 91
        1
 92
        1
 93
        1
 72
     4
 94
        3
 73
     0
 74
     1
 95
       14
 96
       10
 40
0.0
 40
0.0
 40
0.0
 40
0.0
 40
1.0
 40
1.0
 40
1.0
 40
2.0
 40
2.0
 40
2.0
 40
3.0
 40
3.0
 40
3.0
 40
3.0
 10
910.5271670680402
 20
89.71724793632072
 10
910.5271670680402
 20
89.71724793632072
 10
910.5271670680402
 20
89.71724793632072
 10
910.5271670680402
 20
89.71724793632072
 10
910.5271670680402
 20
89.71724793632072
 10
910.5271670680402
 20
95.29732606132072
 10
910.5271670680402
 20
95.29732606132072
 10
910.5271670680402
 20
95.29732606132072
 10
910.5271670680402
 20
89.71724793632072
 10
910.5271670680402
 20
89.71724793632072
 97
        0
 75
     2
 76
     1
 98
        0
  0
HATCH
  5
5691
330
A
100
AcDbEntity
  8
レイヤー 1
 62
     7
420
 16777215
100
AcDbHatch
 10
0.0
 20
0.0
 30
0.0
210
0.0
220
0.0
230
1.0
  2
SOLID
 70
     1
 71
     0
 91
        1
 92
        1
 93
        1
 72
     4
 94
        3
 73
     0
 74
     1
 95
       11
 96
        7
 40
0.0
 40
0.0
 40
0.0
 40
0.0
 40
1.0
 40
1.0
 40
1.0
 40
2.0
 40
2.0
 40
2.0
 40
2.0
 10
910.5271670680402
 20
89.71724793632072
 10
910.5271670680402
 20
89.71724793632072
 10
911.2468936305402
 20
95.29732606132072
 10
911.2468936305402
 20
95.29732606132072
 10
911.2468936305402
 20
95.29732606132072
 10
910.5271670680402
 20
89.71724793632072
 10
910.5271670680402
 20
89.71724793632072
 97
        0
 75
     2
 76
     1
 98
        0
  0
HATCH
  5
5694
330
A
100
AcDbEntity
  8
レイヤー 1
 62
     7
420
 16777215
100
AcDbHatch
 10
0.0
 20
0.0
 30
0.0
210
0.0
220
0.0
230
1.0
  2
SOLID
 70
     1
 71
     0
 91
        1
 92
        1
 93
        1
 72
     4
 94
        3
 73
     0
 74
     1
 95
       11
 96
        7
 40
0.0
 40
0.0
 40
0.0
 40
0.0
 40
1.0
 40
1.0
 40
1.0
 40
2.0
 40
2.0
 40
2.0
 40
2.0
 10
910.5271670680402
 20
89.71724793632072
 10
910.5271670680402
 20
89.71724793632072
 10
911.2468936305402
 20
89.71724793632072
 10
911.2468936305402
 20
89.71724793632072
 10
911.2468936305402
 20
89.71724793632072
 10
910.5271670680402
 20
89.71724793632072
 10
910.5271670680402
 20
89.71724793632072
 97
        0
 75
     2
 76
     1
 98
        0
  0
HATCH
  5
5698
330
A
100
AcDbEntity
  8
レイヤー 1
 62
     7
420
 16777215
100
AcDbHatch
 10
0.0
 20
0.0
 30
0.0
210
0.0
220
0.0
230
1.0
  2
SOLID
 70
     1
 71
     0
 91
        1
 92
        1
 93
        1
 72
     4
 94
        3
 73
     0
 74
     1
 95
       14
 96
       10
 40
0.0
 40
0.0
 40
0.0
 40
0.0
 40
1.0
 40
1.0
 40
1.0
 40
2.0
 40
2.0
 40
2.0
 40
3.0
 40
3.0
 40
3.0
 40
3.0
 10
1016.72687409929
 20
95.29732606132072
 10
1016.72687409929
 20
95.29732606132072
 10
1016.72687409929
 20
95.29732606132072
 10
1016.72687409929
 20
95.29732606132072
 10
1016.72687409929
 20
95.29732606132072
 10
1016.72687409929
 20
89.71724793632072
 10
1016.72687409929
 20
89.71724793632072
 10
1016.72687409929
 20
89.71724793632072
 10
1016.72687409929
 20
95.29732606132072
 10
1016.72687409929
 20
95.29732606132072
 97
        0
 75
     2
 76
     1
 98
        0
  0
HATCH
  5
569B
330
A
100
AcDbEntity
  8
レイヤー 1
 62
     7
420
 16777215
100
AcDbHatch
 10
0.0
 20
0.0
 30
0.0
210
0.0
220
0.0
230
1.0
  2
SOLID
 70
     1
 71
     0
 91
        1
 92
        1
 93
        1
 72
     4
 94
        3
 73
     0
 74
     1
 95
       11
 96
        7
 40
0.0
 40
0.0
 40
0.0
 40
0.0
 40
1.0
 40
1.0
 40
1.0
 40
2.0
 40
2.0
 40
2.0
 40
2.0
 10
1016.72687409929
 20
95.29732606132072
 10
1016.72687409929
 20
95.29732606132072
 10
1016.00714753679
 20
89.71724793632072
 10
1016.00714753679
 20
89.71724793632072
 10
1016.00714753679
 20
89.71724793632072
 10
1016.72687409929
 20
95.29732606132072
 10
1016.72687409929
 20
95.29732606132072
 97
        0
 75
     2
 76
     1
 98
        0
  0
HATCH
  5
569E
330
A
100
AcDbEntity
  8
レイヤー 1
 62
     7
420
 16777215
100
AcDbHatch
 10
0.0
 20
0.0
 30
0.0
210
0.0
220
0.0
230
1.0
  2
SOLID
 70
     1
 71
     0
 91
        1
 92
        1
 93
        1
 72
     4
 94
        3
 73
     0
 74
     1
 95
       11
 96
        7
 40
0.0
 40
0.0
 40
0.0
 40
0.0
 40
1.0
 40
1.0
 40
1.0
 40
2.0
 40
2.0
 40
2.0
 40
2.0
 10
1016.72687409929
 20
95.29732606132072
 10
1016.72687409929
 20
95.29732606132072
 10
1016.00714753679
 20
95.29732606132072
 10
1016.00714753679
 20
95.29732606132072
 10
1016.00714753679
 20
95.29732606132072
 10
1016.72687409929
 20
95.29732606132072
 10
1016.72687409929
 20
95.29732606132072
 97
        0
 75
     2
 76
     1
 98
        0
  0
LINE
  5
56A1
102
{ACAD_REACTORS
330
5ADA
102
}
330
A
100
AcDbEntity
  8
CutoutUnderlay
100
AcDbLine
 10
444.8795665576619
 20
188.335000201955
 30
0.0
 11
444.8795665576619
 21
138.3350002015138
 31
0.0
  0
LINE
  5
56A2
102
{ACAD_REACTORS
330
5ADA
102
}
330
A
100
AcDbEntity
  8
CutoutUnderlay
100
AcDbLine
 10
444.8795665576619
 20
138.3350002015138
 30
0.0
 11
494.9428160298758
 21
138.3350002015138
 31
0.0
  0
LINE
  5
56A3
102
{ACAD_REACTORS
330
5ADA
102
}
330
A
100
AcDbEntity
  8
CutoutUnderlay
100
AcDbLine
 10
494.9428160298758
 20
138.3350002015138
 30
0.0
 11
494.9428160298758
 21
188.335000201955
 31
0.0
  0
LINE
  5
56A4
102
{ACAD_REACTORS
330
5ADA
102
}
330
A
100
AcDbEntity
  8
CutoutUnderlay
100
AcDbLine
 10
494.9428160298758
 20
188.335000201955
 30
0.0
 11
444.8795665576619
 21
188.335000201955
 31
0.0
  0
SPLINE
  5
56A5
102
{ACAD_REACTORS
330
5ADA
102
}
330
A
100
AcDbEntity
  8
CutoutUnderlay
100
AcDbSpline
210
0.0
220
0.0
230
1.0
 70
     8
 71
     3
 72
     8
 73
     4
 74
     0
 42
0.000000001
 43
0.0000000001
 40
0.0
 40
0.0
 40
0.0
 40
0.0
 40
1.0
 40
1.0
 40
1.0
 40
1.0
 10
457.3953789257152
 20
163.3362927658714
 30
0.0
 10
457.3946895581757
 20
156.4419280007643
 30
0.0
 10
462.9830475192134
 20
150.8518466208769
 30
0.0
 10
469.8775846262056
 20
150.8511572533371
 30
0.0
  0
SPLINE
  5
56A6
102
{ACAD_REACTORS
330
5ADA
102
}
330
A
100
AcDbEntity
  8
CutoutUnderlay
100
AcDbSpline
210
0.0
220
0.0
230
1.0
 70
     8
 71
     3
 72
     8
 73
     4
 74
     0
 42
0.000000001
 43
0.0000000001
 40
1.0
 40
1.0
 40
1.0
 40
1.0
 40
2.0
 40
2.0
 40
2.0
 40
2.0
 10
469.8775846262056
 20
150.8511572533371
 30
0.0
 10
476.7721217331978
 20
150.8501232020275
 30
0.0
 10
482.3620307712004
 20
156.4381364792956
 30
0.0
 10
482.3634095062798
 20
163.3325012444027
 30
0.0
  0
SPLINE
  5
56A7
102
{ACAD_REACTORS
330
5ADA
102
}
330
A
100
AcDbEntity
  8
CutoutUnderlay
100
AcDbSpline
210
0.0
220
0.0
230
1.0
 70
     8
 71
     3
 72
     8
 73
     4
 74
     0
 42
0.000000001
 43
0.0000000001
 40
2.0
 40
2.0
 40
2.0
 40
2.0
 40
3.0
 40
3.0
 40
3.0
 40
3.0
 10
482.3634095062798
 20
163.3325012444027
 30
0.0
 10
482.3647882413593
 20
170.2272106932798
 30
0.0
 10
476.7769473059761
 20
175.8174644150521
 30
0.0
 10
469.882410198984
 20
175.8191878339015
 30
0.0
  0
SPLINE
  5
56A8
102
{ACAD_REACTORS
330
5ADA
102
}
330
A
100
AcDbEntity
  8
CutoutUnderlay
100
AcDbSpline
210
0.0
220
0.0
230
1.0
 70
     8
 71
     3
 72
     8
 73
     4
 74
     0
 42
0.000000001
 43
0.0000000001
 40
3.0
 40
3.0
 40
3.0
 40
3.0
 40
4.0
 40
4.0
 40
4.0
 40
4.0
 10
469.882410198984
 20
175.8191878339015
 30
0.0
 10
462.9878730919918
 20
175.820738910866
 30
0.0
 10
457.3972746864497
 20
170.2332426592526
 30
0.0
 10
457.3953789257152
 20
163.3387055522606
 30
0.0
  0
LINE
  5
56A9
330
A
100
AcDbEntity
  8
モデル
100
AcDbLine
 10
342.5364487249535
 20
138.3350002015139
 30
0.0
 11
342.5364487249535
 21
188.335000201955
 31
0.0
  0
LINE
  5
56AA
330
A
100
AcDbEntity
  8
モデル
100
AcDbLine
 10
342.5364487249535
 20
188.335000201955
 30
0.0
 11
336.5642853861559
 21
188.335000201955
 31
0.0
  0
LINE
  5
56AB
330
A
100
AcDbEntity
  8
モデル
100
AcDbLine
 10
336.5642853861559
 20
188.335000201955
 30
0.0
 11
336.5642853861559
 21
138.3350002015139
 31
0.0
  0
LINE
  5
56AC
330
A
100
AcDbEntity
  8
モデル
100
AcDbLine
 10
336.5642853861559
 20
138.3350002015139
 30
0.0
 11
342.5364487249535
 21
138.3350002015139
 31
0.0
  0
LINE
  5
56AD
330
A
100
AcDbEntity
  8
モデル
100
AcDbLine
 10
343.552921162325
 20
154.3452166285942
 30
0.0
 11
342.5364487249535
 21
154.3452166285942
 31
0.0
  0
LINE
  5
56AE
330
A
100
AcDbEntity
  8
モデル
100
AcDbLine
 10
343.552921162325
 20
172.3247837748748
 30
0.0
 11
342.5364487249535
 21
172.3247837748748
 31
0.0
  0
LINE
  5
56B6
330
A
100
AcDbEntity
  8
モデル
100
AcDbLine
 10
343.552921162325
 20
150.8508125695674
 30
0.0
 11
343.552921162325
 21
175.8188431501318
 31
0.0
  0
LINE
  5
56B7
102
{ACAD_REACTORS
330
5EAC
102
}
330
A
100
AcDbEntity
  8
モデル
100
AcDbLine
 10
343.552921162325
 20
150.8508125695674
 30
0.0
 11
347.5553890981527
 21
150.8508125695674
 31
0.0
  0
LINE
  5
56B8
330
A
100
AcDbEntity
  8
モデル
100
AcDbLine
 10
366.5516010236893
 20
150.8508125695674
 30
0.0
 11
366.5516010236893
 21
175.8188431501318
 31
0.0
  0
LINE
  5
56B9
102
{ACAD_REACTORS
330
5EAC
102
}
330
A
100
AcDbEntity
  8
モデル
100
AcDbLine
 10
366.5516010236893
 20
175.8188431501318
 30
0.0
 11
343.552921162325
 21
175.8188431501318
 31
0.0
  0
LINE
  5
56BA
330
A
100
AcDbEntity
  8
モデル
100
AcDbLine
 10
333.5782898876996
 20
170.927091088018
 30
0.0
 11
333.5782898876996
 21
155.742909315451
 31
0.0
  0
LINE
  5
56BB
330
A
100
AcDbEntity
  8
モデル
100
AcDbLine
 10
333.5782898876996
 20
155.742909315451
 30
0.0
 11
333.8324941679853
 21
155.4252832215082
 31
0.0
  0
LINE
  5
56BC
330
A
100
AcDbEntity
  8
モデル
100
AcDbLine
 10
333.8324941679853
 20
155.4252832215082
 30
0.0
 11
333.8324941679853
 21
171.2445448400759
 31
0.0
  0
LINE
  5
56BD
330
A
100
AcDbEntity
  8
モデル
100
AcDbLine
 10
333.8324941679853
 20
171.2445448400759
 30
0.0
 11
333.5782898876996
 21
170.927091088018
 31
0.0
  0
LINE
  5
56BE
330
A
100
AcDbEntity
  8
モデル
100
AcDbLine
 10
334.8489666053565
 20
171.2445448400759
 30
0.0
 11
334.8489666053565
 21
155.4252832215082
 31
0.0
  0
LINE
  5
56BF
330
A
100
AcDbEntity
  8
モデル
100
AcDbLine
 10
336.1832374785554
 20
171.2445448400759
 30
0.0
 11
336.1832374785554
 21
155.4252832215082
 31
0.0
  0
LINE
  5
56C0
330
A
100
AcDbEntity
  8
モデル
100
AcDbLine
 10
333.8324941679853
 20
171.2445448400759
 30
0.0
 11
334.8489666053565
 21
171.2445448400759
 31
0.0
  0
LINE
  5
56C1
330
A
100
AcDbEntity
  8
モデル
100
AcDbLine
 10
333.8324941679853
 20
155.4252832215082
 30
0.0
 11
334.8489666053565
 21
155.4252832215082
 31
0.0
  0
LINE
  5
56C2
330
A
100
AcDbEntity
  8
モデル
100
AcDbLine
 10
334.8489666053565
 20
170.5458708385324
 30
0.0
 11
336.1832374785554
 21
170.5458708385324
 31
0.0
  0
LINE
  5
56C3
330
A
100
AcDbEntity
  8
モデル
100
AcDbLine
 10
334.8489666053565
 20
156.1241295649365
 30
0.0
 11
336.1832374785554
 21
156.1241295649365
 31
0.0
  0
LINE
  5
56C4
330
A
100
AcDbEntity
  8
モデル
100
AcDbLine
 10
336.1832374785554
 20
171.2445448400759
 30
0.0
 11
336.5642853861559
 21
171.2445448400759
 31
0.0
  0
LINE
  5
56C5
330
A
100
AcDbEntity
  8
モデル
100
AcDbLine
 10
336.1832374785554
 20
155.4252832215082
 30
0.0
 11
336.5642853861559
 21
155.4252832215082
 31
0.0
  0
LINE
  5
56DB
330
A
100
AcDbEntity
  8
モデル
100
AcDbLine
 10
96.28892836230818
 20
188.3984220156126
 30
0.0
 11
96.28892836230818
 21
138.3350002015138
 31
0.0
  0
LINE
  5
56DC
330
A
100
AcDbEntity
  8
モデル
100
AcDbLine
 10
96.28892836230818
 20
138.3350002015138
 30
0.0
 11
90.31693736539557
 21
138.3350002015138
 31
0.0
  0
LINE
  5
56DD
330
A
100
AcDbEntity
  8
モデル
100
AcDbLine
 10
90.31693736539557
 20
138.3350002015138
 30
0.0
 11
90.31693736539557
 21
188.3984220156126
 31
0.0
  0
LINE
  5
56DE
330
A
100
AcDbEntity
  8
モデル
100
AcDbLine
 10
90.31693736539557
 20
188.3984220156126
 30
0.0
 11
96.28892836230818
 21
188.3984220156126
 31
0.0
  0
LINE
  5
56DF
330
A
100
AcDbEntity
  8
モデル
100
AcDbLine
 10
83.96372611899744
 20
164.3834420587619
 30
0.0
 11
83.45497287465707
 21
164.3834420587619
 31
0.0
  0
LINE
  5
56E0
330
A
100
AcDbEntity
  8
モデル
100
AcDbLine
 10
83.45497287465707
 20
164.3834420587619
 30
0.0
 11
83.45497287465707
 21
172.8330199935603
 31
0.0
  0
LINE
  5
56E1
330
A
100
AcDbEntity
  8
モデル
100
AcDbLine
 10
83.45497287465707
 20
153.8371527517934
 30
0.0
 11
83.45497287465707
 21
162.3501525002494
 31
0.0
  0
LINE
  5
56E2
330
A
100
AcDbEntity
  8
モデル
100
AcDbLine
 10
83.45497287465707
 20
162.3501525002494
 30
0.0
 11
83.96372611899744
 21
162.3501525002494
 31
0.0
  0
LINE
  5
56E3
330
A
100
AcDbEntity
  8
モデル
100
AcDbLine
 10
83.45497287465707
 20
172.8330199935603
 30
0.0
 11
83.96372611899744
 21
173.3414285541308
 31
0.0
  0
LINE
  5
56E4
330
A
100
AcDbEntity
  8
モデル
100
AcDbLine
 10
83.45497287465707
 20
153.8371527517934
 30
0.0
 11
83.96372611899744
 21
153.3287441912228
 31
0.0
  0
LINE
  5
56E5
330
A
100
AcDbEntity
  8
モデル
100
AcDbLine
 10
96.28892836230818
 20
158.5382946891645
 30
0.0
 11
97.36847792956735
 21
158.5382946891645
 31
0.0
  0
LINE
  5
56E6
330
A
100
AcDbEntity
  8
モデル
100
AcDbLine
 10
97.36847792956735
 20
158.5382946891645
 30
0.0
 11
97.36847792956735
 21
159.8091437487061
 31
0.0
  0
LINE
  5
56E7
330
A
100
AcDbEntity
  8
モデル
100
AcDbLine
 10
97.36847792956735
 20
159.8091437487061
 30
0.0
 11
98.70309348653643
 21
159.8091437487061
 31
0.0
  0
LINE
  5
56E8
330
A
100
AcDbEntity
  8
モデル
100
AcDbLine
 10
98.70309348653643
 20
159.8091437487061
 30
0.0
 11
98.70309348653643
 21
158.5382946891645
 31
0.0
  0
LINE
  5
56E9
330
A
100
AcDbEntity
  8
モデル
100
AcDbLine
 10
98.70309348653643
 20
158.5382946891645
 30
0.0
 11
99.97359786230811
 21
158.5382946891645
 31
0.0
  0
LINE
  5
56EA
330
A
100
AcDbEntity
  8
モデル
100
AcDbLine
 10
99.97359786230811
 20
158.5382946891645
 30
0.0
 11
99.97359786230811
 21
168.1952998698468
 31
0.0
  0
LINE
  5
56EB
330
A
100
AcDbEntity
  8
モデル
100
AcDbLine
 10
99.97359786230811
 20
168.1952998698468
 30
0.0
 11
98.70309348653643
 21
168.1952998698468
 31
0.0
  0
LINE
  5
56EC
330
A
100
AcDbEntity
  8
モデル
100
AcDbLine
 10
98.70309348653643
 20
168.1952998698468
 30
0.0
 11
98.70309348653643
 21
166.9244508103052
 31
0.0
  0
LINE
  5
56ED
330
A
100
AcDbEntity
  8
モデル
100
AcDbLine
 10
98.70309348653643
 20
166.9244508103052
 30
0.0
 11
97.36847792956735
 21
166.9244508103052
 31
0.0
  0
LINE
  5
56EE
330
A
100
AcDbEntity
  8
モデル
100
AcDbLine
 10
97.36847792956735
 20
166.9244508103052
 30
0.0
 11
97.36847792956735
 21
168.1952998698468
 31
0.0
  0
LINE
  5
56EF
330
A
100
AcDbEntity
  8
モデル
100
AcDbLine
 10
97.36847792956735
 20
168.1952998698468
 30
0.0
 11
96.28892836230818
 21
168.1952998698468
 31
0.0
  0
LINE
  5
56F0
330
A
100
AcDbEntity
  8
モデル
100
AcDbLine
 10
99.97359786230811
 20
171.2447171819607
 30
0.0
 11
99.97359786230811
 21
168.1952998698468
 31
0.0
  0
LINE
  5
56F1
330
A
100
AcDbEntity
  8
モデル
100
AcDbLine
 10
99.97359786230811
 20
158.5382946891645
 30
0.0
 11
99.97359786230811
 21
155.425455563393
 31
0.0
  0
LINE
  5
56F2
330
A
100
AcDbEntity
  8
モデル
100
AcDbLine
 10
98.70309348653643
 20
171.2447171819607
 30
0.0
 11
99.97359786230811
 21
171.2447171819607
 31
0.0
  0
LINE
  5
56F3
330
A
100
AcDbEntity
  8
モデル
100
AcDbLine
 10
98.70309348653643
 20
155.425455563393
 30
0.0
 11
99.97359786230811
 21
155.425455563393
 31
0.0
  0
LINE
  5
56F4
330
A
100
AcDbEntity
  8
モデル
100
AcDbLine
 10
96.28892836230818
 20
171.2447171819607
 30
0.0
 11
97.36847792956735
 21
171.2447171819607
 31
0.0
  0
LINE
  5
56F5
330
A
100
AcDbEntity
  8
モデル
100
AcDbLine
 10
96.28892836230818
 20
155.425455563393
 30
0.0
 11
97.36847792956735
 21
155.425455563393
 31
0.0
  0
LINE
  5
56F6
330
A
100
AcDbEntity
  8
モデル
100
AcDbLine
 10
98.70309348653643
 20
168.1952998698468
 30
0.0
 11
98.70309348653643
 21
171.2447171819607
 31
0.0
  0
LINE
  5
56F7
330
A
100
AcDbEntity
  8
モデル
100
AcDbLine
 10
98.70309348653643
 20
155.425455563393
 30
0.0
 11
98.70309348653643
 21
158.5382946891645
 31
0.0
  0
LINE
  5
56F8
330
A
100
AcDbEntity
  8
モデル
100
AcDbLine
 10
97.36847792956735
 20
171.2447171819607
 30
0.0
 11
97.36847792956735
 21
168.1952998698468
 31
0.0
  0
LINE
  5
56F9
330
A
100
AcDbEntity
  8
モデル
100
AcDbLine
 10
97.36847792956735
 20
158.5382946891645
 30
0.0
 11
97.36847792956735
 21
155.425455563393
 31
0.0
  0
LINE
  5
56FA
330
A
100
AcDbEntity
  8
モデル
100
AcDbLine
 10
98.70309348653643
 20
170.5458708385323
 30
0.0
 11
97.36847792956735
 21
170.5458708385323
 31
0.0
  0
LINE
  5
56FB
330
A
100
AcDbEntity
  8
モデル
100
AcDbLine
 10
98.70309348653643
 20
156.1241295649364
 30
0.0
 11
97.36847792956735
 21
156.1241295649364
 31
0.0
  0
LINE
  5
56FC
330
A
100
AcDbEntity
  8
モデル
100
AcDbLine
 10
83.96372611899744
 20
173.3414285541308
 30
0.0
 11
89.99913892956772
 21
173.3414285541308
 31
0.0
  0
LINE
  5
56FD
330
A
100
AcDbEntity
  8
モデル
100
AcDbLine
 10
89.99913892956772
 20
173.3414285541308
 30
0.0
 11
89.99913892956772
 21
153.3287441912228
 31
0.0
  0
LINE
  5
56FE
330
A
100
AcDbEntity
  8
モデル
100
AcDbLine
 10
89.99913892956772
 20
153.3287441912228
 30
0.0
 11
83.96372611899744
 21
153.3287441912228
 31
0.0
  0
LINE
  5
56FF
330
A
100
AcDbEntity
  8
モデル
100
AcDbLine
 10
83.96372611899744
 20
162.3501525002494
 30
0.0
 11
85.29765230842679
 21
162.3501525002494
 31
0.0
  0
LINE
  5
5700
330
A
100
AcDbEntity
  8
モデル
100
AcDbLine
 10
85.29765230842679
 20
162.3501525002494
 30
0.0
 11
85.29765230842679
 21
164.3834420587619
 31
0.0
  0
LINE
  5
5701
330
A
100
AcDbEntity
  8
モデル
100
AcDbLine
 10
85.29765230842679
 20
164.3834420587619
 30
0.0
 11
83.96372611899744
 21
164.3834420587619
 31
0.0
  0
LINE
  5
5702
330
A
100
AcDbEntity
  8
モデル
100
AcDbLine
 10
90.31693736539557
 20
153.3287441912228
 30
0.0
 11
89.99913892956772
 21
153.3287441912228
 31
0.0
  0
LINE
  5
5703
330
A
100
AcDbEntity
  8
モデル
100
AcDbLine
 10
89.99913892956772
 20
153.3287441912228
 30
0.0
 11
89.99913892956772
 21
173.3414285541308
 31
0.0
  0
LINE
  5
5704
330
A
100
AcDbEntity
  8
モデル
100
AcDbLine
 10
89.99913892956772
 20
173.3414285541308
 30
0.0
 11
90.31693736539557
 21
173.3414285541308
 31
0.0
  0
SPLINE
  5
5820
330
A
100
AcDbEntity
  8
モデル
100
AcDbSpline
210
0.0
220
0.0
230
1.0
 70
     8
 71
     3
 72
    11
 73
     7
 74
     0
 42
0.000000001
 43
0.0000000001
 40
0.0
 40
0.0
 40
0.0
 40
0.0
 40
1.0
 40
1.0
 40
1.0
 40
2.0
 40
2.0
 40
2.0
 40
2.0
 10
207.4024621587683
 20
306.3273213200352
 30
0.0
 10
207.9153516083474
 20
301.2146269614293
 30
0.0
 10
212.2183837915089
 20
297.321768464423
 30
0.0
 10
217.3569294328557
 20
297.3210790968832
 30
0.0
 10
222.4954750742025
 20
297.3203897293435
 30
0.0
 10
226.7991966249039
 20
301.2118694912703
 30
0.0
 10
227.3141541771021
 20
306.3245638498761
 30
0.0
  0
SPLINE
  5
5821
330
A
100
AcDbEntity
  8
モデル
100
AcDbSpline
210
0.0
220
0.0
230
1.0
 70
     8
 71
     3
 72
     8
 73
     4
 74
     0
 42
0.000000001
 43
0.0000000001
 40
0.0
 40
0.0
 40
0.0
 40
0.0
 40
1.0
 40
1.0
 40
1.0
 40
1.0
 10
227.3141541771021
 20
306.3255979011858
 30
0.0
 10
227.3817121959981
 20
306.990837577051
 30
0.0
 10
227.3817121959981
 20
307.6609028256946
 30
0.0
 10
227.3148435446418
 20
308.3261425015598
 30
0.0
  0
SPLINE
  5
5822
330
A
100
AcDbEntity
  8
モデル
100
AcDbSpline
210
0.0
220
0.0
230
1.0
 70
     8
 71
     3
 72
     8
 73
     4
 74
     0
 42
0.000000001
 43
0.0000000001
 40
0.0
 40
0.0
 40
0.0
 40
0.0
 40
1.0
 40
1.0
 40
1.0
 40
1.0
 10
207.4024621587683
 20
308.3292446554887
 30
0.0
 10
207.335593507412
 20
307.6640049796235
 30
0.0
 10
207.335593507412
 20
306.9935950472101
 30
0.0
 10
207.4017727912286
 20
306.3283553713448
 30
0.0
  0
LINE
  5
5893
330
A
100
AcDbEntity
  8
モデル
100
AcDbLine
 10
444.8795665576619
 20
332.3273351076154
 30
0.0
 11
444.8795665576619
 21
282.3273351071742
 31
0.0
  0
LINE
  5
5894
102
{ACAD_REACTORS
330
5B0A
102
}
330
A
100
AcDbEntity
  8
モデル
100
AcDbLine
 10
444.8795665576619
 20
282.3273351071742
 30
0.0
 11
494.9428160298758
 21
282.3273351071742
 31
0.0
  0
LINE
  5
5895
330
A
100
AcDbEntity
  8
モデル
100
AcDbLine
 10
494.9428160298758
 20
282.3273351071742
 30
0.0
 11
494.9428160298758
 21
332.3273351076154
 31
0.0
  0
LINE
  5
5896
102
{ACAD_REACTORS
330
5B0A
102
}
330
A
100
AcDbEntity
  8
モデル
100
AcDbLine
 10
494.9428160298758
 20
332.3273351076154
 30
0.0
 11
444.8795665576619
 21
332.3273351076154
 31
0.0
  0
SPLINE
  5
5897
330
A
100
AcDbEntity
  8
モデル
100
AcDbSpline
210
0.0
220
0.0
230
1.0
 70
     8
 71
     3
 72
     8
 73
     4
 74
     0
 42
0.000000001
 43
0.0000000001
 40
0.0
 40
0.0
 40
0.0
 40
0.0
 40
1.0
 40
1.0
 40
1.0
 40
1.0
 10
457.3953789257152
 20
307.3286276715318
 30
0.0
 10
457.3946895581757
 20
300.4342629064247
 30
0.0
 10
462.9830475192134
 20
294.8441815265373
 30
0.0
 10
469.8775846262056
 20
294.8434921589975
 30
0.0
  0
SPLINE
  5
5898
330
A
100
AcDbEntity
  8
モデル
100
AcDbSpline
210
0.0
220
0.0
230
1.0
 70
     8
 71
     3
 72
     8
 73
     4
 74
     0
 42
0.000000001
 43
0.0000000001
 40
1.0
 40
1.0
 40
1.0
 40
1.0
 40
2.0
 40
2.0
 40
2.0
 40
2.0
 10
469.8775846262056
 20
294.8434921589975
 30
0.0
 10
476.7721217331978
 20
294.8424581076879
 30
0.0
 10
482.3620307712004
 20
300.430471384956
 30
0.0
 10
482.3634095062798
 20
307.3248361500631
 30
0.0
  0
SPLINE
  5
5899
330
A
100
AcDbEntity
  8
モデル
100
AcDbSpline
210
0.0
220
0.0
230
1.0
 70
     8
 71
     3
 72
     8
 73
     4
 74
     0
 42
0.000000001
 43
0.0000000001
 40
2.0
 40
2.0
 40
2.0
 40
2.0
 40
3.0
 40
3.0
 40
3.0
 40
3.0
 10
482.3634095062798
 20
307.3248361500631
 30
0.0
 10
482.3647882413593
 20
314.2195455989402
 30
0.0
 10
476.7769473059761
 20
319.8097993207125
 30
0.0
 10
469.882410198984
 20
319.8115227395619
 30
0.0
  0
SPLINE
  5
589A
330
A
100
AcDbEntity
  8
モデル
100
AcDbSpline
210
0.0
220
0.0
230
1.0
 70
     8
 71
     3
 72
     8
 73
     4
 74
     0
 42
0.000000001
 43
0.0000000001
 40
3.0
 40
3.0
 40
3.0
 40
3.0
 40
4.0
 40
4.0
 40
4.0
 40
4.0
 10
469.882410198984
 20
319.8115227395619
 30
0.0
 10
462.9878730919918
 20
319.8130738165264
 30
0.0
 10
457.3972746864497
 20
314.225577564913
 30
0.0
 10
457.3953789257152
 20
307.331040457921
 30
0.0
  0
LINE
  5
589B
102
{ACAD_REACTORS
330
5B37
102
}
330
A
100
AcDbEntity
  8
モデル
100
AcDbLine
 10
326.0406940077518
 20
314.7533767242107
 30
0.0
 11
376.0406940081929
 21
314.7533767242107
 31
0.0
  0
LINE
  5
589C
330
A
100
AcDbEntity
  8
モデル
100
AcDbLine
 10
376.0406940081929
 20
314.7533767242107
 30
0.0
 11
376.0406940081929
 21
320.7255400630083
 31
0.0
  0
LINE
  5
589D
330
A
100
AcDbEntity
  8
モデル
100
AcDbLine
 10
376.0406940081929
 20
320.7255400630083
 30
0.0
 11
326.0406940077518
 21
320.7255400630083
 31
0.0
  0
LINE
  5
589E
102
{ACAD_REACTORS
330
5B37
330
5DA7
102
}
330
A
100
AcDbEntity
  8
モデル
100
AcDbLine
 10
326.0406940077518
 20
320.7255400630083
 30
0.0
 11
326.0406940077518
 21
314.7533767242107
 31
0.0
  0
LINE
  5
589F
330
A
100
AcDbEntity
  8
モデル
100
AcDbLine
 10
342.0509104348322
 20
313.7369042868393
 30
0.0
 11
342.0509104348322
 21
314.7533767242107
 31
0.0
  0
LINE
  5
58A0
330
A
100
AcDbEntity
  8
モデル
100
AcDbLine
 10
360.0304775811127
 20
313.7369042868393
 30
0.0
 11
360.0304775811127
 21
314.7533767242107
 31
0.0
  0
LINE
  5
58A8
330
A
100
AcDbEntity
  8
モデル
100
AcDbLine
 10
338.5565063758053
 20
313.7369042868393
 30
0.0
 11
363.5245369563696
 21
313.7369042868393
 31
0.0
  0
LINE
  5
58A9
102
{ACAD_REACTORS
330
5B28
330
5B84
330
5DA7
102
}
330
A
100
AcDbEntity
  8
モデル
100
AcDbLine
 10
338.5565063758053
 20
313.7369042868393
 30
0.0
 11
338.5565063758053
 21
290.738224425475
 31
0.0
  0
LINE
  5
58AA
102
{ACAD_REACTORS
330
5B84
102
}
330
A
100
AcDbEntity
  8
モデル
100
AcDbLine
 10
338.5565063758053
 20
290.738224425475
 30
0.0
 11
363.5245369563696
 21
290.738224425475
 31
0.0
  0
LINE
  5
58AB
330
A
100
AcDbEntity
  8
モデル
100
AcDbLine
 10
363.5245369563696
 20
290.738224425475
 30
0.0
 11
363.5245369563696
 21
294.7408647031875
 31
0.0
  0
LINE
  5
58AC
330
A
100
AcDbEntity
  8
モデル
100
AcDbLine
 10
358.6327848942559
 20
323.7115355614646
 30
0.0
 11
343.448603121689
 21
323.7115355614646
 31
0.0
  0
LINE
  5
58AD
330
A
100
AcDbEntity
  8
モデル
100
AcDbLine
 10
343.448603121689
 20
323.7115355614646
 30
0.0
 11
343.1309770277461
 21
323.457331281179
 31
0.0
  0
LINE
  5
58AE
330
A
100
AcDbEntity
  8
モデル
100
AcDbLine
 10
343.1309770277461
 20
323.457331281179
 30
0.0
 11
358.9502386463138
 21
323.457331281179
 31
0.0
  0
LINE
  5
58AF
330
A
100
AcDbEntity
  8
モデル
100
AcDbLine
 10
358.9502386463138
 20
323.457331281179
 30
0.0
 11
358.6327848942559
 21
323.7115355614646
 31
0.0
  0
LINE
  5
58B0
330
A
100
AcDbEntity
  8
モデル
100
AcDbLine
 10
358.9502386463138
 20
322.4408588438077
 30
0.0
 11
343.1309770277461
 21
322.4408588438077
 31
0.0
  0
LINE
  5
58B1
330
A
100
AcDbEntity
  8
モデル
100
AcDbLine
 10
358.9502386463138
 20
321.1065879706089
 30
0.0
 11
343.1309770277461
 21
321.1065879706089
 31
0.0
  0
LINE
  5
58B2
330
A
100
AcDbEntity
  8
モデル
100
AcDbLine
 10
358.9502386463138
 20
323.457331281179
 30
0.0
 11
358.9502386463138
 21
322.4408588438077
 31
0.0
  0
LINE
  5
58B3
330
A
100
AcDbEntity
  8
モデル
100
AcDbLine
 10
343.1309770277461
 20
323.457331281179
 30
0.0
 11
343.1309770277461
 21
322.4408588438077
 31
0.0
  0
LINE
  5
58B4
330
A
100
AcDbEntity
  8
モデル
100
AcDbLine
 10
358.2515646447704
 20
322.4408588438077
 30
0.0
 11
358.2515646447704
 21
321.1065879706089
 31
0.0
  0
LINE
  5
58B5
330
A
100
AcDbEntity
  8
モデル
100
AcDbLine
 10
343.8298233711745
 20
322.4408588438077
 30
0.0
 11
343.8298233711745
 21
321.1065879706089
 31
0.0
  0
LINE
  5
58B6
330
A
100
AcDbEntity
  8
モデル
100
AcDbLine
 10
358.9502386463138
 20
321.1065879706089
 30
0.0
 11
358.9502386463138
 21
320.7255400630083
 31
0.0
  0
LINE
  5
58B7
330
A
100
AcDbEntity
  8
モデル
100
AcDbLine
 10
343.1309770277461
 20
321.1065879706089
 30
0.0
 11
343.1309770277461
 21
320.7255400630083
 31
0.0
  0
SPLINE
  5
58BE
330
A
100
AcDbEntity
  8
モデル
100
AcDbSpline
210
0.0
220
0.0
230
1.0
 70
     8
 71
     3
 72
     8
 73
     4
 74
     0
 42
0.000000001
 43
0.0000000001
 40
0.0
 40
0.0
 40
0.0
 40
0.0
 40
1.0
 40
1.0
 40
1.0
 40
1.0
 10
215.1026975778512
 20
320.6058464872466
 30
0.0
 10
215.1026975778512
 20
319.3601593429062
 30
0.0
 10
216.1126210235949
 20
318.3504082390475
 30
0.0
 10
217.3583081679352
 20
318.3502358971626
 30
0.0
  0
SPLINE
  5
58BF
330
A
100
AcDbEntity
  8
モデル
100
AcDbSpline
210
0.0
220
0.0
230
1.0
 70
     8
 71
     3
 72
     8
 73
     4
 74
     0
 42
0.000000001
 43
0.0000000001
 40
1.0
 40
1.0
 40
1.0
 40
1.0
 40
2.0
 40
2.0
 40
2.0
 40
2.0
 10
217.3583081679352
 20
318.3502358971626
 30
0.0
 10
218.603305944736
 20
318.3500635552776
 30
0.0
 10
219.6132293904797
 20
319.3596423172514
 30
0.0
 10
219.6139187580194
 20
320.6051571197069
 30
0.0
  0
SPLINE
  5
58C0
330
A
100
AcDbEntity
  8
モデル
100
AcDbSpline
210
0.0
220
0.0
230
1.0
 70
     8
 71
     3
 72
    11
 73
     7
 74
     0
 42
0.000000001
 43
0.0000000001
 40
2.0
 40
2.0
 40
2.0
 40
2.0
 40
3.0
 40
3.0
 40
3.0
 40
4.0
 40
4.0
 40
4.0
 40
4.0
 10
219.6139187580194
 20
320.6051571197069
 30
0.0
 10
219.6139187580194
 20
321.8506719221624
 30
0.0
 10
218.6046846798155
 20
322.860595367906
 30
0.0
 10
217.3589975354752
 20
322.8609400516758
 30
0.0
 10
216.1133103911346
 20
322.8612847354457
 30
0.0
 10
215.103386945391
 20
321.8518783153569
 30
0.0
 10
215.1026975778512
 20
320.6061911710165
 30
0.0
  0
LINE
  5
58C1
330
A
100
AcDbEntity
  8
モデル
100
AcDbLine
 10
192.3583943386569
 20
332.390756921273
 30
0.0
 11
192.3583943386569
 21
282.3273351071742
 31
0.0
  0
LINE
  5
58C2
102
{ACAD_REACTORS
330
5B9C
102
}
330
A
100
AcDbEntity
  8
モデル
100
AcDbLine
 10
192.3583943386569
 20
282.3273351071742
 30
0.0
 11
242.3582219972135
 21
282.3273351071742
 31
0.0
  0
LINE
  5
58C3
330
A
100
AcDbEntity
  8
モデル
100
AcDbLine
 10
242.3582219972135
 20
282.3273351071742
 30
0.0
 11
242.3582219972135
 21
332.390756921273
 31
0.0
  0
LINE
  5
58C4
102
{ACAD_REACTORS
330
5B9C
102
}
330
A
100
AcDbEntity
  8
モデル
100
AcDbLine
 10
242.3582219972135
 20
332.390756921273
 30
0.0
 11
192.3583943386569
 21
332.390756921273
 31
0.0
  0
LINE
  5
58C5
330
A
100
AcDbEntity
  8
モデル
100
AcDbLine
 10
207.4155601420238
 20
308.3757769644223
 30
0.0
 11
207.9236240188244
 21
308.3757769644223
 31
0.0
  0
LINE
  5
58C6
330
A
100
AcDbEntity
  8
モデル
100
AcDbLine
 10
226.792992317046
 20
308.3757769644223
 30
0.0
 11
227.3010561938466
 21
308.3757769644223
 31
0.0
  0
SPLINE
  5
58C7
330
A
100
AcDbEntity
  8
モデル
100
AcDbSpline
210
0.0
220
0.0
230
1.0
 70
     8
 71
     3
 72
     8
 73
     4
 74
     0
 42
0.000000001
 43
0.0000000001
 40
0.0
 40
0.0
 40
0.0
 40
0.0
 40
1.0
 40
1.0
 40
1.0
 40
1.0
 10
227.3148435446418
 20
308.3271765528694
 30
0.0
 10
226.8012647275231
 20
313.4402155952452
 30
0.0
 10
222.4982325443615
 20
317.3329017503665
 30
0.0
 10
217.3596869030147
 20
317.3335911179063
 30
0.0
  0
SPLINE
  5
58C8
330
A
100
AcDbEntity
  8
モデル
100
AcDbSpline
210
0.0
220
0.0
230
1.0
 70
     8
 71
     3
 72
     8
 73
     4
 74
     0
 42
0.000000001
 43
0.0000000001
 40
1.0
 40
1.0
 40
1.0
 40
1.0
 40
2.0
 40
2.0
 40
2.0
 40
2.0
 10
217.3596869030147
 20
317.3335911179063
 30
0.0
 10
212.2211412616681
 20
317.334452827331
 30
0.0
 10
207.9174197109668
 20
313.4426283816343
 30
0.0
 10
207.4024621587683
 20
308.3299340230285
 30
0.0
  0
LINE
  5
58C9
330
A
100
AcDbEntity
  8
モデル
100
AcDbLine
 10
227.3010561938466
 20
306.3424874059098
 30
0.0
 11
226.792992317046
 21
306.3424874059098
 31
0.0
  0
LINE
  5
58CA
330
A
100
AcDbEntity
  8
モデル
100
AcDbLine
 10
207.9236240188244
 20
306.3424874059098
 30
0.0
 11
207.4155601420238
 21
306.3424874059098
 31
0.0
  0
LINE
  5
58CB
330
A
100
AcDbEntity
  8
モデル
100
AcDbLine
 10
207.9236240188244
 20
308.3757769644223
 30
0.0
 11
226.792992317046
 21
308.3757769644223
 31
0.0
  0
LINE
  5
58CC
330
A
100
AcDbEntity
  8
モデル
100
AcDbLine
 10
226.792992317046
 20
306.3424874059098
 30
0.0
 11
207.9236240188244
 21
306.3424874059098
 31
0.0
  0
LINE
  5
58CD
102
{ACAD_REACTORS
330
5B65
102
}
330
A
100
AcDbEntity
  8
モデル
100
AcDbLine
 10
119.4553409498311
 20
310.3450415126799
 30
0.0
 11
69.39191913573222
 21
310.3450415126799
 31
0.0
  0
LINE
  5
58CE
330
A
100
AcDbEntity
  8
モデル
100
AcDbLine
 10
69.39191913573222
 20
310.3450415126799
 30
0.0
 11
69.39191913573222
 21
304.3730505157673
 31
0.0
  0
LINE
  5
58CF
330
A
100
AcDbEntity
  8
モデル
100
AcDbLine
 10
69.39191913573222
 20
304.3730505157673
 30
0.0
 11
119.4553409498311
 21
304.3730505157673
 31
0.0
  0
LINE
  5
58D0
102
{ACAD_REACTORS
330
5B65
102
}
330
A
100
AcDbEntity
  8
モデル
100
AcDbLine
 10
119.4553409498311
 20
304.3730505157673
 30
0.0
 11
119.4553409498311
 21
310.3450415126799
 31
0.0
  0
LINE
  5
58D3
330
A
100
AcDbEntity
  8
モデル
100
AcDbLine
 10
84.8940716860119
 20
297.5110860250288
 30
0.0
 11
103.8899389277788
 21
297.5110860250288
 31
0.0
  0
LINE
  5
58D5
102
{ACAD_REACTORS
330
5B48
102
}
330
A
100
AcDbEntity
  8
モデル
100
AcDbLine
 10
103.8899389277788
 20
297.5110860250288
 30
0.0
 11
104.3983474883494
 21
298.0198392693691
 31
0.0
  0
LINE
  5
58D6
330
A
100
AcDbEntity
  8
モデル
100
AcDbLine
 10
84.8940716860119
 20
297.5110860250288
 30
0.0
 11
84.3856631254414
 21
298.0198392693691
 31
0.0
  0
LINE
  5
58D7
330
A
100
AcDbEntity
  8
モデル
100
AcDbLine
 10
89.59521362338296
 20
310.3450415126799
 30
0.0
 11
89.59521362338296
 21
311.424591079939
 31
0.0
  0
LINE
  5
58D8
330
A
100
AcDbEntity
  8
モデル
100
AcDbLine
 10
89.59521362338296
 20
311.424591079939
 30
0.0
 11
90.86606268292462
 21
311.424591079939
 31
0.0
  0
LINE
  5
58D9
330
A
100
AcDbEntity
  8
モデル
100
AcDbLine
 10
90.86606268292462
 20
311.424591079939
 30
0.0
 11
90.86606268292462
 21
312.7592066369081
 31
0.0
  0
LINE
  5
58DA
330
A
100
AcDbEntity
  8
モデル
100
AcDbLine
 10
90.86606268292462
 20
312.7592066369081
 30
0.0
 11
89.59521362338296
 21
312.7592066369081
 31
0.0
  0
LINE
  5
58DB
330
A
100
AcDbEntity
  8
モデル
100
AcDbLine
 10
89.59521362338296
 20
312.7592066369081
 30
0.0
 11
89.59521362338296
 21
314.0297110126798
 31
0.0
  0
LINE
  5
58DC
330
A
100
AcDbEntity
  8
モデル
100
AcDbLine
 10
89.59521362338296
 20
314.0297110126798
 30
0.0
 11
99.25221880406525
 21
314.0297110126798
 31
0.0
  0
LINE
  5
58DD
330
A
100
AcDbEntity
  8
モデル
100
AcDbLine
 10
99.25221880406525
 20
314.0297110126798
 30
0.0
 11
99.25221880406525
 21
312.7592066369081
 31
0.0
  0
LINE
  5
58DE
330
A
100
AcDbEntity
  8
モデル
100
AcDbLine
 10
99.25221880406525
 20
312.7592066369081
 30
0.0
 11
97.9813697445237
 21
312.7592066369081
 31
0.0
  0
LINE
  5
58DF
330
A
100
AcDbEntity
  8
モデル
100
AcDbLine
 10
97.9813697445237
 20
312.7592066369081
 30
0.0
 11
97.9813697445237
 21
311.424591079939
 31
0.0
  0
LINE
  5
58E0
330
A
100
AcDbEntity
  8
モデル
100
AcDbLine
 10
97.9813697445237
 20
311.424591079939
 30
0.0
 11
99.25221880406525
 21
311.424591079939
 31
0.0
  0
LINE
  5
58E1
330
A
100
AcDbEntity
  8
モデル
100
AcDbLine
 10
99.25221880406525
 20
311.424591079939
 30
0.0
 11
99.25221880406525
 21
310.3450415126799
 31
0.0
  0
LINE
  5
58E2
330
A
100
AcDbEntity
  8
モデル
100
AcDbLine
 10
102.3016361161792
 20
314.0297110126798
 30
0.0
 11
99.25221880406525
 21
314.0297110126798
 31
0.0
  0
LINE
  5
58E3
330
A
100
AcDbEntity
  8
モデル
100
AcDbLine
 10
89.59521362338296
 20
314.0297110126798
 30
0.0
 11
86.48237449761154
 21
314.0297110126798
 31
0.0
  0
LINE
  5
58E4
330
A
100
AcDbEntity
  8
モデル
100
AcDbLine
 10
102.3016361161792
 20
312.7592066369081
 30
0.0
 11
102.3016361161792
 21
314.0297110126798
 31
0.0
  0
LINE
  5
58E5
330
A
100
AcDbEntity
  8
モデル
100
AcDbLine
 10
86.48237449761154
 20
312.7592066369081
 30
0.0
 11
86.48237449761154
 21
314.0297110126798
 31
0.0
  0
LINE
  5
58E6
330
A
100
AcDbEntity
  8
モデル
100
AcDbLine
 10
102.3016361161792
 20
310.3450415126799
 30
0.0
 11
102.3016361161792
 21
311.424591079939
 31
0.0
  0
LINE
  5
58E7
330
A
100
AcDbEntity
  8
モデル
100
AcDbLine
 10
86.48237449761154
 20
310.3450415126799
 30
0.0
 11
86.48237449761154
 21
311.424591079939
 31
0.0
  0
LINE
  5
58E8
330
A
100
AcDbEntity
  8
モデル
100
AcDbLine
 10
99.25221880406525
 20
312.7592066369081
 30
0.0
 11
102.3016361161792
 21
312.7592066369081
 31
0.0
  0
LINE
  5
58E9
330
A
100
AcDbEntity
  8
モデル
100
AcDbLine
 10
86.48237449761154
 20
312.7592066369081
 30
0.0
 11
89.59521362338296
 21
312.7592066369081
 31
0.0
  0
LINE
  5
58EA
330
A
100
AcDbEntity
  8
モデル
100
AcDbLine
 10
102.3016361161792
 20
311.424591079939
 30
0.0
 11
99.25221880406525
 21
311.424591079939
 31
0.0
  0
LINE
  5
58EB
330
A
100
AcDbEntity
  8
モデル
100
AcDbLine
 10
89.59521362338296
 20
311.424591079939
 30
0.0
 11
86.48237449761154
 21
311.424591079939
 31
0.0
  0
LINE
  5
58EC
330
A
100
AcDbEntity
  8
モデル
100
AcDbLine
 10
101.6027897727508
 20
312.7592066369081
 30
0.0
 11
101.6027897727508
 21
311.424591079939
 31
0.0
  0
LINE
  5
58ED
330
A
100
AcDbEntity
  8
モデル
100
AcDbLine
 10
87.18104849915494
 20
312.7592066369081
 30
0.0
 11
87.18104849915494
 21
311.424591079939
 31
0.0
  0
LINE
  5
58EE
330
A
100
AcDbEntity
  8
モデル
100
AcDbLine
 10
104.3983474883494
 20
298.0198392693691
 30
0.0
 11
104.3983474883494
 21
304.0552520799394
 31
0.0
  0
LINE
  5
58EF
330
A
100
AcDbEntity
  8
モデル
100
AcDbLine
 10
104.3983474883494
 20
304.0552520799394
 30
0.0
 11
84.3856631254414
 21
304.0552520799394
 31
0.0
  0
LINE
  5
58F0
102
{ACAD_REACTORS
330
5B48
102
}
330
A
100
AcDbEntity
  8
モデル
100
AcDbLine
 10
84.3856631254414
 20
304.0552520799394
 30
0.0
 11
84.3856631254414
 21
298.0198392693691
 31
0.0
  0
LINE
  5
58F4
330
A
100
AcDbEntity
  8
モデル
100
AcDbLine
 10
84.3856631254414
 20
304.3730505157673
 30
0.0
 11
84.3856631254414
 21
304.0552520799394
 31
0.0
  0
LINE
  5
58F5
330
A
100
AcDbEntity
  8
モデル
100
AcDbLine
 10
84.3856631254414
 20
304.0552520799394
 30
0.0
 11
104.3983474883494
 21
304.0552520799394
 31
0.0
  0
LINE
  5
58F6
330
A
100
AcDbEntity
  8
モデル
100
AcDbLine
 10
104.3983474883494
 20
304.0552520799394
 30
0.0
 11
104.3983474883494
 21
304.3730505157673
 31
0.0
  0
LINE
  5
5A3E
330
A
100
AcDbEntity
  8
モデル
100
AcDbLine
 10
363.5245369563696
 20
309.7344363510115
 30
0.0
 11
363.5245369563696
 21
313.7369042868393
 31
0.0
  0
LINE
  5
5A43
330
A
100
AcDbEntity
  8
HIDDEN
100
AcDbLine
 10
460.7530279837343
 20
298.8751168948838
 30
0.0
 11
479.0695784533073
 21
298.8751168948838
 31
0.0
  0
CIRCLE
  5
5A4F
330
A
100
AcDbEntity
  8
モデル
  6
HIDDEN
 48
0.75
100
AcDbCircle
 10
198.3583081679351
 20
307.3273351073948
 30
0.0
 40
3.307614334019174
  0
CIRCLE
  5
5A53
330
A
100
AcDbEntity
  8
モデル
  6
HIDDEN
 48
0.75
100
AcDbCircle
 10
236.3583081679353
 20
307.3273351073948
 30
0.0
 40
3.307614334019174
  0
CIRCLE
  5
5A54
102
{ACAD_REACTORS
330
5D96
102
}
330
A
100
AcDbEntity
  8
モデル
  6
HIDDEN
 48
0.75
100
AcDbCircle
 10
488.8794803869403
 20
307.3273351073948
 30
0.0
 40
3.307614334019174
  0
CIRCLE
  5
5A55
102
{ACAD_REACTORS
330
5D96
102
}
330
A
100
AcDbEntity
  8
モデル
  6
HIDDEN
 48
0.75
100
AcDbCircle
 10
450.87948038694
 20
307.3273351073948
 30
0.0
 40
3.307614334019174
  0
DIMENSION
  5
5A5F
330
A
100
AcDbEntity
  8
寸法
100
AcDbDimension
  2
*D26
 10
113.4236300427817
 20
329.698320209188
 30
0.0
 11
94.42363004278172
 21
337.198320209188
 31
0.0
 70
    32
 71
     5
 42
38.0
 73
     0
 74
     0
 75
     0
  3
tfrom線あり
100
AcDbAlignedDimension
 13
75.42363004278172
 23
310.0283743428685
 33
0.0
 14
113.4236300427817
 24
310.0283743428685
 34
0.0
100
AcDbRotatedDimension
1001
ACAD
1000
DSTYLE
1002
{
1070
   144
1040
1.0
1002
}
  0
TEXT
  5
5ABA
330
A
100
AcDbEntity
  8
寸法
100
AcDbText
 10
413.5289937891508
 20
203.4336943606158
 30
0.0
 40
5.0
  1
<切欠図>
  7
ＭＳ ゴシック
100
AcDbText
  0
DIMENSION
  5
5ABB
330
A
100
AcDbEntity
  8
寸法
100
AcDbDimension
  2
*D27
 10
488.8794803869403
 20
204.4302411864766
 30
0.0
 11
479.3953358403545
 21
211.9302411864766
 31
0.0
 70
    32
 71
     5
 42
18.96828909317151
 73
     0
 74
     0
 75
     0
  3
tfrom線あり
100
AcDbAlignedDimension
 13
469.9111912937688
 23
194.8447780359249
 33
0.0
 14
488.8794803869403
 24
165.6397216858863
 34
0.0
100
AcDbRotatedDimension
  0
DIMENSION
  5
5ABC
330
A
100
AcDbEntity
  8
寸法
100
AcDbDimension
  2
*D28
 10
469.9111912937688
 20
204.4302411864766
 30
0.0
 11
460.3953358403545
 21
211.9302411864766
 31
0.0
 70
    32
 71
     5
 42
19.03171090682849
 73
     0
 74
     0
 75
     0
  3
tfrom線あり
100
AcDbAlignedDimension
 13
450.8794803869403
 23
165.6397216858863
 33
0.0
 14
469.9111912937688
 24
194.8447780359249
 34
0.0
100
AcDbRotatedDimension
  0
CIRCLE
  5
5ADE
102
{ACAD_REACTORS
330
5AE1
102
}
330
A
100
AcDbEntity
  8
CutoutOverlay
100
AcDbCircle
 10
469.9111912937688
 20
163.3350002017344
 30
0.0
 40
14.0
  0
CIRCLE
  5
5ADF
102
{ACAD_REACTORS
330
5AE1
102
}
330
A
100
AcDbEntity
  8
CutoutOverlay
100
AcDbCircle
 10
450.9111912937688
 20
163.3350002017344
 30
0.0
 40
4.0
  0
CIRCLE
  5
5AE0
102
{ACAD_REACTORS
330
5AE1
102
}
330
A
100
AcDbEntity
  8
CutoutOverlay
100
AcDbCircle
 10
488.9111912937688
 20
163.3350002017344
 30
0.0
 40
4.0
  0
HATCH
  5
5AE1
330
A
100
AcDbEntity
  8
CutoutOverlay
100
AcDbHatch
 10
0.0
 20
0.0
 30
0.0
210
0.0
220
0.0
230
1.0
  2
ANSI31
 70
     0
 71
     1
 91
        3
 92
        1
 93
        1
 72
     2
 10
450.9111912937688
 20
163.3350002017344
 40
4.0
 50
0.0
 51
360.0
 73
     1
 97
        1
330
5ADF
 92
        1
 93
        1
 72
     2
 10
469.9111912937688
 20
163.3350002017344
 40
14.0
 50
0.0
 51
360.0
 73
     1
 97
        1
330
5ADE
 92
        1
 93
        1
 72
     2
 10
488.9111912937688
 20
163.3350002017344
 40
4.0
 50
0.0
 51
360.0
 73
     1
 97
        1
330
5AE0
 75
     0
 76
     1
 52
0.0
 41
1.0
 77
     0
 78
     1
 53
45.0
 43
61.03906678221404
 44
-17.52784671830346
 45
-2.245064030267288
 46
2.245064030267288
 79
     0
 98
        1
 10
61.03906678221404
 20
-17.52784671830346
1001
ACAD
1010
0.0
1020
0.0
1030
0.0
  0
LEADER
  5
5AE2
102
{ACAD_XDICTIONARY
360
5AE3
102
}
330
A
100
AcDbEntity
  8
寸法
100
AcDbLeader
  3
tfrom線あり
 76
     3
 10
469.9111912937688
 20
163.3350002017344
 30
0.0
 10
503.1920781953218
 20
139.0391027305169
 30
0.0
 10
549.5736168152412
 20
139.0391027305169
 30
0.0
  0
TEXT
  5
5AE4
330
A
100
AcDbEntity
  8
寸法
100
AcDbText
 10
504.7730152649449
 20
141.6745556802124
 30
0.0
 40
5.0
  1
角芯 センター
  7
ＭＳ ゴシック
100
AcDbText
  0
LINE
  5
5AE5
330
A
100
AcDbEntity
  8
CutoutOverlay
  6
CENTER
100
AcDbLine
 10
437.3211602517185
 20
163.3315368309287
 30
0.0
 11
501.9123160799395
 21
163.3315368309287
 31
0.0
  0
LINE
  5
5AE6
330
A
100
AcDbEntity
  8
CutoutOverlay
  6
CENTER
100
AcDbLine
 10
437.3211602517185
 20
163.3350002017344
 30
0.0
 11
501.9123160799395
 21
163.3350002017344
 31
0.0
  0
LINE
  5
5AE7
330
A
100
AcDbEntity
  8
CutoutOverlay
  6
CENTER
100
AcDbLine
 10
469.9111912937688
 20
194.8413146651193
 30
0.0
 11
469.9111912937688
 21
129.083760434849
 31
0.0
  0
LINE
  5
5AE8
330
A
100
AcDbEntity
  8
CutoutOverlay
  6
CENTER
100
AcDbLine
 10
469.9111912937688
 20
194.8447780359249
 30
0.0
 11
469.9111912937688
 21
129.0872238056547
 31
0.0
  0
TEXT
  5
5AE9
330
A
100
AcDbEntity
  8
寸法
100
AcDbText
 10
505.9146554086315
 20
178.8666634828576
 30
0.0
 40
5.0
  1
ø28
  7
ＭＳ ゴシック
100
AcDbText
  0
LEADER
  5
5AEA
102
{ACAD_XDICTIONARY
360
5AEB
102
}
330
A
100
AcDbEntity
  8
寸法
100
AcDbLeader
  3
tfrom線あり
 76
     3
 10
481.991326017047
 20
170.6868606871926
 30
0.0
 10
502.7360040376504
 20
176.5577890553814
 30
0.0
 10
518.023253930844
 20
176.5577890553814
 30
0.0
1001
ACAD
1000
DSTYLE
1002
{
1070
   341
1005
473A
1002
}
  0
TEXT
  5
5AEC
330
A
100
AcDbEntity
  8
寸法
100
AcDbText
 10
504.3454973550442
 20
169.3349425892579
 30
0.0
 40
5.0
  1
ø8
  7
ＭＳ ゴシック
100
AcDbText
  0
LEADER
  5
5AED
102
{ACAD_XDICTIONARY
360
5AEE
102
}
330
A
100
AcDbEntity
  8
寸法
100
AcDbLeader
  3
tfrom線あり
 76
     3
 10
492.5986814600235
 20
164.6290949630337
 30
0.0
 10
501.1239938387448
 20
167.6877443311874
 30
0.0
 10
511.6808645596798
 20
167.6877443311874
 30
0.0
1001
ACAD
1000
DSTYLE
1002
{
1070
   341
1005
473A
1002
}
  0
LEADER
  5
5AEF
102
{ACAD_XDICTIONARY
360
5AF0
102
}
330
A
100
AcDbEntity
  8
寸法
100
AcDbLeader
  3
tfrom線あり
 76
     3
 10
447.1838434337596
 20
164.6290949630337
 30
0.0
 10
440.7231041248428
 20
168.3416969807321
 30
0.0
 10
430.1662334039074
 20
168.3416969807321
 30
0.0
211
-1.0
221
0.0
231
0.0
1001
ACAD
1000
DSTYLE
1002
{
1070
   341
1005
473A
1002
}
  0
TEXT
  5
5AF1
330
A
100
AcDbEntity
  8
寸法
100
AcDbText
 10
432.2347687353467
 20
170.417416691986
 30
0.0
 40
5.0
  1
ø8
  7
ＭＳ ゴシック
100
AcDbText
  0
DIMENSION
  5
5B08
102
{ACAD_REACTORS
330
5B0A
102
}
102
{ACAD_XDICTIONARY
360
5B09
102
}
330
A
100
AcDbEntity
  8
寸法
100
AcDbDimension
  2
*D30
 10
425.0468091647026
 20
282.3273351071742
 30
0.0
 11
417.5468091647026
 21
307.3273351073948
 31
0.0
 70
    32
 71
     5
 42
50.00000000044122
 73
     0
 74
     0
 75
     0
  3
tfrom線あり
100
AcDbAlignedDimension
 13
444.8795665576619
 23
332.3273351076154
 33
0.0
 14
444.8795665576619
 24
282.3273351071742
 34
0.0
 50
90.0
100
AcDbRotatedDimension
1001
ACAD
1000
DSTYLE
1002
{
1070
   144
1040
1.0
1002
}
  0
DIMENSION
  5
5B35
102
{ACAD_REACTORS
330
5B37
102
}
102
{ACAD_XDICTIONARY
360
5B36
102
}
330
A
100
AcDbEntity
  8
寸法
100
AcDbDimension
  2
*D33
 10
311.3257701428161
 20
320.7255400630083
 30
0.0
 11
311.3257701428161
 21
317.3479757308023
 31
0.0
 70
   160
 71
     5
 42
5.9721633387976
 73
     0
 74
     0
 75
     0
  3
tfrom線あり
100
AcDbAlignedDimension
 13
326.0406940077518
 23
314.7533767242107
 33
0.0
 14
326.0406940077518
 24
320.7255400630083
 34
0.0
 50
90.0
100
AcDbRotatedDimension
1001
ACAD
1000
DSTYLE
1002
{
1070
   144
1040
1.0
1002
}
  0
DIMENSION
  5
5B46
102
{ACAD_REACTORS
330
5B48
102
}
102
{ACAD_XDICTIONARY
360
5B47
102
}
330
A
100
AcDbEntity
  8
寸法
100
AcDbDimension
  2
*D34
 10
104.3983474883494
 20
275.556670425452
 30
0.0
 11
94.39200530689538
 21
283.056670425452
 31
0.0
 70
    32
 71
     5
 42
20.01268436290798
 73
     0
 74
     0
 75
     0
  3
tfrom線あり
100
AcDbAlignedDimension
 13
84.3856631254414
 23
298.0198392693691
 33
0.0
 14
104.3983474883494
 24
298.0198392693691
 34
0.0
100
AcDbRotatedDimension
1001
ACAD
1000
DSTYLE
1002
{
1070
   144
1040
1.0
1002
}
  0
DIMENSION
  5
5B55
330
A
100
AcDbEntity
  8
寸法
100
AcDbDimension
  2
*D35
 10
63.20471462213902
 20
304.0110860250288
 30
0.0
 11
63.20471462213902
 21
300.7610860250288
 31
0.0
 70
   160
 71
     5
 42
6.5
 73
     0
 74
     0
 75
     0
  3
tfrom線あり
100
AcDbAlignedDimension
 13
84.8940716860119
 23
297.5110860250288
 33
0.0
 14
84.8940716860119
 24
304.0110860250288
 34
0.0
 50
90.0
100
AcDbRotatedDimension
1001
ACAD
1000
DSTYLE
1002
{
1070
   271
1070
     1
1070
   144
1040
1.0
1002
}
  0
DIMENSION
  5
5B63
102
{ACAD_REACTORS
330
5B65
102
}
102
{ACAD_XDICTIONARY
360
5B64
102
}
330
A
100
AcDbEntity
  8
寸法
100
AcDbDimension
  2
*D36
 10
139.6101693542145
 20
304.3730505157673
 30
0.0
 11
139.6101693542145
 21
307.3590460142236
 31
0.0
 70
   160
 71
     5
 42
5.971990996912609
 73
     0
 74
     0
 75
     0
  3
tfrom線あり
100
AcDbAlignedDimension
 13
119.4553409498311
 23
310.3450415126799
 33
0.0
 14
119.4553409498311
 24
304.3730505157673
 34
0.0
 50
90.0
100
AcDbRotatedDimension
1001
ACAD
1000
DSTYLE
1002
{
1070
   144
1040
1.0
1002
}
  0
DIMENSION
  5
5B82
102
{ACAD_REACTORS
330
5B84
102
}
102
{ACAD_XDICTIONARY
360
5B83
102
}
330
A
100
AcDbEntity
  8
寸法
100
AcDbDimension
  2
*D37
 10
363.5245369563696
 20
270.0359108160501
 30
0.0
 11
351.0405216660874
 21
277.5359108160501
 31
0.0
 70
    32
 71
     5
 42
24.96803058056435
 73
     0
 74
     0
 75
     0
  3
tfrom線あり
100
AcDbAlignedDimension
 13
338.5565063758053
 23
290.738224425475
 33
0.0
 14
363.5245369563696
 24
290.738224425475
 34
0.0
100
AcDbRotatedDimension
1001
ACAD
1000
DSTYLE
1002
{
1070
   144
1040
1.0
1002
}
  0
DIMENSION
  5
5B9A
102
{ACAD_REACTORS
330
5B9C
102
}
102
{ACAD_XDICTIONARY
360
5B9B
102
}
330
A
100
AcDbEntity
  8
寸法
100
AcDbDimension
  2
*D38
 10
174.1422279255171
 20
282.3273351071742
 30
0.0
 11
166.6422279255171
 21
307.3590460142236
 31
0.0
 70
    32
 71
     5
 42
50.06342181409883
 73
     0
 74
     0
 75
     0
  3
tfrom線あり
100
AcDbAlignedDimension
 13
192.3583943386569
 23
332.390756921273
 33
0.0
 14
192.3583943386569
 24
282.3273351071742
 34
0.0
 50
90.0
100
AcDbRotatedDimension
1001
ACAD
1000
DSTYLE
1002
{
1070
   144
1040
1.0
1002
}
  0
LINE
  5
5C95
330
A
100
AcDbEntity
  8
モデル
100
AcDbLine
 10
355.0522610930071
 20
132.8113040420475
 30
0.0
 11
353.5875881573215
 21
131.3877684662244
 31
0.0
  0
LINE
  5
5C96
330
A
100
AcDbEntity
  8
モデル
100
AcDbLine
 10
353.5875881573215
 20
131.3877684662244
 30
0.0
 11
353.5875881573215
 21
126.9098531934118
 31
0.0
  0
LINE
  5
5C97
330
A
100
AcDbEntity
  8
モデル
100
AcDbLine
 10
355.0522610930071
 20
132.8113040420475
 30
0.0
 11
356.5169340286927
 21
131.3877684662244
 31
0.0
  0
LINE
  5
5C98
330
A
100
AcDbEntity
  8
モデル
100
AcDbLine
 10
356.5169340286927
 20
131.3877684662244
 30
0.0
 11
356.5169340286927
 21
126.9098531934118
 31
0.0
  0
LINE
  5
5C99
330
A
100
AcDbEntity
  8
モデル
100
AcDbLine
 10
353.5875881573215
 20
126.9098531934118
 30
0.0
 11
356.5169340286927
 21
126.9098531934118
 31
0.0
  0
LINE
  5
5C9A
330
A
100
AcDbEntity
  8
モデル
100
AcDbLine
 10
353.5875881573215
 20
131.3877684662244
 30
0.0
 11
356.5169340286927
 21
131.3877684662244
 31
0.0
  0
HATCH
  5
5C9B
330
A
100
AcDbEntity
  8
モデル
100
AcDbHatch
 10
0.0
 20
0.0
 30
0.0
210
0.0
220
0.0
230
1.0
  2
ANSI31
 70
     0
 71
     0
 91
        1
 92
        1
 93
        4
 72
     1
 10
353.5875881573215
 20
131.3877684662244
 11
353.5875881573215
 21
126.9098531934116
 72
     1
 10
353.5875881573215
 20
126.9098531934118
 11
356.5169340286927
 21
126.9098531934118
 72
     1
 10
353.5875881573215
 20
131.3877684662244
 11
356.5169340286927
 21
131.3877684662244
 72
     1
 10
356.5169340286927
 20
131.3877684662244
 11
356.5169340286927
 21
126.9098531934116
 97
        0
 75
     0
 76
     1
 52
330.0000000000002
 41
0.4999999999999988
 77
     0
 78
     1
 53
14.99999999999987
 43
74.84602479215096
 44
1.288084907936152
 45
-0.41087523410025
 46
1.533407249233896
 79
     0
 98
        1
 10
74.84602479215096
 20
1.288084907936152
1001
ACAD
1010
0.0
1020
0.0
1030
0.0
  0
LINE
  5
5C9C
330
A
100
AcDbEntity
  8
モデル
  6
CENTER
100
AcDbLine
 10
355.0522610930071
 20
134.2825156961959
 30
0.0
 11
355.0522610930071
 21
149.7361459623016
 31
0.0
  0
LINE
  5
5C9F
102
{ACAD_REACTORS
330
5B28
330
5B84
102
}
330
A
100
AcDbEntity
  8
モデル
100
AcDbLine
 10
363.5245369563696
 20
313.7369042868393
 30
0.0
 11
363.5245369563696
 21
290.738224425475
 31
0.0
  0
LINE
  5
5D90
330
A
100
AcDbEntity
  8
HIDDEN
100
AcDbLine
 10
360.2210877058553
 20
309.7344363510115
 30
0.0
 11
360.2210877058553
 21
294.7408647031876
 31
0.0
  0
LINE
  5
5D91
330
A
100
AcDbEntity
  8
HIDDEN
100
AcDbLine
 10
360.2210877058553
 20
294.7408647031876
 30
0.0
 11
341.8603003100894
 21
294.7408647031876
 31
0.0
  0
LINE
  5
5D92
330
A
100
AcDbEntity
  8
HIDDEN
100
AcDbLine
 10
341.8603003100894
 20
309.7344363510115
 30
0.0
 11
360.2210877058553
 21
309.7344363510115
 31
0.0
  0
LINE
  5
5D93
330
A
100
AcDbEntity
  8
HIDDEN
100
AcDbLine
 10
341.8603003100894
 20
294.7408647031876
 30
0.0
 11
341.8603003100894
 21
309.7344363510115
 31
0.0
  0
DIMENSION
  5
5DA5
102
{ACAD_REACTORS
330
5DA7
102
}
102
{ACAD_XDICTIONARY
360
5DA6
102
}
330
A
100
AcDbEntity
  8
寸法
100
AcDbDimension
  2
*D45
 10
311.3257701428161
 20
314.7533767242107
 30
0.0
 11
303.8257701428161
 21
302.7458005748429
 31
0.0
 70
    32
  1
23
 71
     5
 42
24.0151522987357
 73
     0
 74
     0
 75
     0
  3
tfrom線あり
100
AcDbAlignedDimension
 13
338.5565063758053
 23
290.738224425475
 33
0.0
 14
326.0406940077518
 24
314.7533767242107
 34
0.0
 50
90.0
100
AcDbRotatedDimension
1001
ACAD
1000
DSTYLE
1002
{
1070
   144
1040
1.0
1002
}
  0
LINE
  5
5DEB
330
A
100
AcDbEntity
  8
モデル
100
AcDbLine
 10
347.5553890981527
 20
154.8824373054537
 30
0.0
 11
362.5489607459767
 21
154.8824373054537
 31
0.0
  0
LINE
  5
5EA8
330
A
100
AcDbEntity
  8
寸法
100
AcDbLine
 10
362.5489607459767
 20
154.8824373054537
 30
0.0
 11
362.5489607459767
 21
150.8508125695674
 31
0.0
  0
LINE
  5
5EA9
330
A
100
AcDbEntity
  8
寸法
100
AcDbLine
 10
347.5553890981527
 20
154.8824373054537
 30
0.0
 11
347.5553890981527
 21
150.8508125695674
 31
0.0
  0
LINE
  5
5EB9
330
A
100
AcDbEntity
  8
モデル
100
AcDbLine
 10
362.5489607459767
 20
150.8508125695674
 30
0.0
 11
366.5516010236893
 21
150.8508125695674
 31
0.0
  0
VIEWPORT
  5
349
330
B
100
AcDbEntity
 67
     1
  8
0
100
AcDbViewport
 10
202.5
 20
128.5
 30
0.0
 40
486.0
 41
308.4
 68
     1
 69
     1
 12
202.5
 22
128.5
 13
0.0
 23
0.0
 14
0.5
 24
0.5
 15
0.0
 25
0.0
 16
0.0
 26
0.0
 36
1.0
 17
0.0
 27
0.0
 37
0.0
 42
50.0
 43
0.0
 44
0.0
 45
308.4
 50
0.0
 51
0.0
 72
   100
 90
   557152
  1

281
     0
 71
     1
 74
     0
110
0.0
120
0.0
130
0.0
111
1.0
121
0.0
131
0.0
112
0.0
122
1.0
132
0.0
 79
     0
146
0.0
170
     0
 61
     5
348
26C
292
     1
282
     1
141
0.0
142
0.0
 63
   256
  0
VIEWPORT
  5
34A
330
B
100
AcDbEntity
 67
     1
  8
0
100
AcDbViewport
 10
202.5
 20
128.5
 30
0.0
 40
324.0
 41
205.6
 68
     2
 69
     2
 12
986.6781359294573
 22
1427.077061889956
 13
0.0
 23
0.0
 14
0.5
 24
0.5
 15
0.0
 25
0.0
 16
0.0
 26
0.0
 36
1.0
 17
0.0
 27
0.0
 37
0.0
 42
50.0
 43
0.0
 44
0.0
 45
2890.021615685494
 50
0.0
 51
0.0
 72
   100
 90
   557152
  1

281
     0
 71
     1
 74
     0
110
0.0
120
0.0
130
0.0
111
1.0
121
0.0
131
0.0
112
0.0
122
1.0
132
0.0
 79
     0
146
0.0
170
     0
 61
     5
348
26C
292
     1
282
     1
141
0.0
142
0.0
 63
   256
  0
ENDSEC
  0
SECTION
  2
OBJECTS
  0
DICTIONARY
  5
19
330
0
100
AcDbDictionary
281
     1
  3
ACAD_COLOR
350
674
  3
ACAD_DETAILVIEWSTYLE
350
12F4
  3
ACAD_FIELDLIST
350
52FA
  3
ACAD_GROUP
350
1A
  3
ACAD_IMAGE_VARS
350
27B
  3
ACAD_LAYOUT
350
1E
  3
ACAD_MATERIAL
350
263
  3
ACAD_MLEADERSTYLE
350
336
  3
ACAD_MLINESTYLE
350
1B
  3
ACAD_PLOTSETTINGS
350
22
  3
ACAD_PLOTSTYLENAME
350
1F
  3
ACAD_SCALELIST
350
241
  3
ACAD_SECTIONVIEWSTYLE
350
12F5
  3
ACAD_TABLESTYLE
350
278
  3
ACAD_VISUALSTYLE
350
267
  3
ACDB_RECOMPOSE_DATA
350
5EC5
  3
AcDbVariableDictionary
350
330
  3
AcStStandard
350
12B9
  3
APPDATA
350
27A
  0
SUN
  5
10E8
330
15
100
AcDbSun
 90
        1
290
     0
 63
     7
421
 16777215
 40
1.0
291
     1
 91
  2455826
 92
 54000000
292
     0
 70
     2
 71
   256
280
     1
  0
DICTIONARY
  5
2E1
330
2
100
AcDbDictionary
280
     1
281
     1
  3
ACAD_LAYERSTATES
360
2E2
  3
ACLYDICTIONARY
360
5BDF
  0
DICTIONARY
  5
45FB
330
A
100
AcDbDictionary
280
     1
281
     1
  3
ACAD_SORTENTS
360
45FC
  0
DICTIONARY
  5
52FD
330
52FC
100
AcDbDictionary
280
     1
281
     1
  3
ACAD_FIELD
360
52FE
  0
DICTIONARY
  5
5AE3
330
5AE2
100
AcDbDictionary
280
     1
281
     1
  0
DICTIONARY
  5
5AEB
330
5AEA
100
AcDbDictionary
280
     1
281
     1
  0
DICTIONARY
  5
5AEE
330
5AED
100
AcDbDictionary
280
     1
281
     1
  0
DICTIONARY
  5
5AF0
330
5AEF
100
AcDbDictionary
280
     1
281
     1
  0
DICTIONARY
  5
5B09
330
5B08
100
AcDbDictionary
280
     1
281
     1
  3
ACAD_DIMASSOC
360
5B0A
  0
DICTIONARY
  5
5B36
330
5B35
100
AcDbDictionary
280
     1
281
     1
  3
ACAD_DIMASSOC
360
5B37
  0
DICTIONARY
  5
5B47
330
5B46
100
AcDbDictionary
280
     1
281
     1
  3
ACAD_DIMASSOC
360
5B48
  0
DICTIONARY
  5
5B64
330
5B63
100
AcDbDictionary
280
     1
281
     1
  3
ACAD_DIMASSOC
360
5B65
  0
DICTIONARY
  5
5B83
330
5B82
100
AcDbDictionary
280
     1
281
     1
  3
ACAD_DIMASSOC
360
5B84
  0
DICTIONARY
  5
5B9B
330
5B9A
100
AcDbDictionary
280
     1
281
     1
  3
ACAD_DIMASSOC
360
5B9C
  0
DICTIONARY
  5
5DA6
330
5DA5
100
AcDbDictionary
280
     1
281
     1
  3
ACAD_DIMASSOC
360
5DA7
  0
DICTIONARY
  5
674
102
{ACAD_REACTORS
330
19
102
}
330
19
100
AcDbDictionary
281
     1
  0
DICTIONARY
  5
12F4
102
{ACAD_REACTORS
330
19
102
}
330
19
100
AcDbDictionary
281
     1
  0
FIELDLIST
  5
52FA
102
{ACAD_REACTORS
330
19
102
}
330
19
100
AcDbIdSet
 90
        1
330
52FF
100
AcDbFieldList
  0
DICTIONARY
  5
1A
102
{ACAD_REACTORS
330
19
102
}
330
19
100
AcDbDictionary
281
     1
  3
*A1
350
5ADA
  0
RASTERVARIABLES
  5
27B
102
{ACAD_REACTORS
330
19
102
}
330
19
100
AcDbRasterVariables
 90
        0
 70
     1
 71
     1
 72
     1
  0
DICTIONARY
  5
1E
102
{ACAD_REACTORS
330
19
102
}
330
19
100
AcDbDictionary
281
     1
  3
Layout1
350
21
  3
Layout2
350
12C4
  3
Model
350
20
  0
DICTIONARY
  5
263
102
{ACAD_REACTORS
330
19
102
}
330
19
100
AcDbDictionary
281
     1
  3
ByBlock
350
385B
  3
ByLayer
350
264
  3
Global
350
266
  0
DICTIONARY
  5
336
102
{ACAD_REACTORS
330
19
102
}
330
19
100
AcDbDictionary
281
     1
  3
Standard
350
4739
  0
DICTIONARY
  5
1B
102
{ACAD_REACTORS
330
19
102
}
330
19
100
AcDbDictionary
281
     1
  3
Standard
350
1C
  0
DICTIONARY
  5
22
102
{ACAD_REACTORS
330
19
102
}
330
19
100
AcDbDictionary
281
     1
  0
ACDBDICTIONARYWDFLT
  5
1F
102
{ACAD_REACTORS
330
19
102
}
330
19
100
AcDbDictionary
281
     1
  3
Normal
350
1D
100
AcDbDictionaryWithDefault
340
1D
  0
DICTIONARY
  5
241
102
{ACAD_REACTORS
330
19
102
}
330
19
100
AcDbDictionary
281
     1
  3
A0
350
242
  3
A1
350
243
  3
A2
350
244
  3
A3
350
245
  3
A4
350
246
  3
A5
350
247
  3
A6
350
248
  3
A7
350
249
  3
A8
350
24A
  3
A9
350
24B
  3
B0
350
24C
  3
B1
350
24D
  3
B2
350
24E
  3
B3
350
24F
  3
B4
350
250
  3
B5
350
251
  3
B6
350
252
  3
B7
350
253
  3
B8
350
254
  3
B9
350
255
  3
C0
350
256
  3
C1
350
257
  3
C2
350
258
  3
C3
350
259
  3
C4
350
25A
  3
C5
350
25B
  3
C6
350
25C
  3
C7
350
25D
  3
C8
350
25E
  3
C9
350
25F
  3
D0
350
260
  3
D1
350
261
  3
D2
350
262
  0
DICTIONARY
  5
12F5
102
{ACAD_REACTORS
330
19
102
}
330
19
100
AcDbDictionary
281
     1
  0
DICTIONARY
  5
278
102
{ACAD_REACTORS
330
19
102
}
330
19
100
AcDbDictionary
281
     1
  3
Standard
350
279
  0
DICTIONARY
  5
267
102
{ACAD_REACTORS
330
19
102
}
330
19
100
AcDbDictionary
281
     1
  3
2dWireframe
350
26C
  3
3D Hidden
350
26E
  3
3dWireframe
350
26D
  3
Basic
350
26F
  3
Brighten
350
273
  3
ColorChange
350
277
  3
Conceptual
350
271
  3
Dim
350
272
  3
EdgeColorOff
350
10E2
  3
Facepattern
350
276
  3
Flat
350
268
  3
FlatWithEdges
350
269
  3
Gouraud
350
26A
  3
GouraudWithEdges
350
26B
  3
Hidden
350
10DF
  3
JitterOff
350
10E0
  3
Linepattern
350
275
  3
OverhangOff
350
10E1
  3
Realistic
350
270
  3
Shaded
350
10E7
  3
Shaded with edges
350
10E6
  3
Shades of Gray
350
10E3
  3
Sketchy
350
10E4
  3
Thicken
350
274
  3
Wireframe
350
10DE
  3
X-Ray
350
10E5
  0
XRECORD
  5
5EC5
102
{ACAD_REACTORS
330
19
102
}
330
19
100
AcDbXrecord
280
     1
 90
        1
330
279
  0
DICTIONARY
  5
330
102
{ACAD_REACTORS
330
19
102
}
330
19
100
AcDbDictionary
281
     1
  3
CANNOSCALE
350
331
  3
CMLEADERSTYLE
350
4741
  3
CTABLESTYLE
350
335
  3
XCLIPFRAME
350
109E
  0
DICTIONARY
  5
12B9
102
{ACAD_REACTORS
330
19
102
}
330
19
100
AcDbDictionary
281
     1
  0
DICTIONARY
  5
27A
102
{ACAD_REACTORS
330
19
102
}
330
19
100
AcDbDictionary
281
     1
  0
DICTIONARY
  5
2E2
102
{ACAD_REACTORS
330
2E1
102
}
330
2E1
100
AcDbDictionary
281
     1
  0
DICTIONARY
  5
5BDF
102
{ACAD_REACTORS
330
2E1
102
}
330
2E1
100
AcDbDictionary
281
     1
1001
ACAD
1000
<All
  0
SORTENTSTABLE
  5
45FC
102
{ACAD_REACTORS
330
45FB
102
}
330
45FB
100
AcDbSortentsTable
330
A
331
0
  5
4AB8
331
36CD
  5
4AB4
331
36CE
  5
4AB0
331
36CF
  5
4AAC
331
36D0
  5
4AA8
331
36D3
  5
4AA3
331
36D4
  5
4A9F
331
36D5
  5
4A9B
331
36D6
  5
4A97
331
36D8
  5
4784
331
36D9
  5
471F
331
36DA
  5
471E
331
36DB
  5
4673
331
36DC
  5
4672
331
36DD
  5
4671
331
36DE
  5
4670
331
36E0
  5
4639
331
36E1
  5
4637
331
36E2
  5
45C4
331
36E3
  5
45C3
331
36E5
  5
45B3
331
36E6
  5
45B2
331
36E7
  5
45B1
331
36E8
  5
45B0
331
36E9
  5
45AF
331
36EA
  5
45AE
331
36EB
  5
457E
331
36EC
  5
457D
331
36ED
  5
454D
331
37DE
  5
454C
331
41D7
  5
454B
331
41D8
  5
454A
331
42C8
  5
4549
331
4346
  5
442F
331
438B
  5
442E
331
438C
  5
442D
331
45B0
  5
442C
331
45B1
  5
442B
331
45B2
  5
4042
331
45B3
  5
403E
331
52FC
  5
5600
331
5602
  5
560A
331
5605
  5
560D
331
5608
  5
5610
331
560C
  5
5614
331
560F
  5
5617
331
5612
  5
561A
331
5616
  5
561E
331
5619
  5
5621
331
561C
  5
5624
331
5620
  5
5628
331
5623
  5
562B
331
5626
  5
562E
331
562A
  5
5632
331
562D
  5
5635
331
5630
  5
5638
331
5634
  5
563C
331
5637
  5
563F
331
563A
  5
5642
331
563E
  5
5646
331
5641
  5
5649
331
5644
  5
564C
331
5648
  5
5650
331
564B
  5
5653
331
564E
  5
5656
331
5652
  5
565A
331
5655
  5
565D
331
5658
  5
5660
331
565C
  5
5664
331
565F
  5
5667
331
5662
  5
566A
331
5666
  5
566E
331
5669
  5
5671
331
566C
  5
5674
331
5670
  5
5678
331
5673
  5
567B
331
5676
  5
567E
331
567A
  5
5682
331
567D
  5
5685
331
5680
  5
5688
331
5684
  5
568C
331
5687
  5
568F
331
568A
  5
5692
331
568E
  5
5696
331
5691
  5
5699
331
5694
  5
569C
331
5698
  5
56A0
331
569B
  5
56A3
331
569E
  5
56A6
331
56A1
  5
36E7
331
56A2
  5
36E8
331
56A3
  5
36E9
331
56A4
  5
36EA
331
56A5
  5
36EB
331
56A6
  5
36EC
331
56A7
  5
36ED
331
56A8
  5
37DE
  0
DICTIONARY
  5
52FE
102
{ACAD_REACTORS
330
52FD
102
}
330
52FD
100
AcDbDictionary
280
     1
281
     1
  3
TEXT
360
52FF
  0
DIMASSOC
  5
5B0A
102
{ACAD_REACTORS
330
5B09
102
}
330
5B09
100
AcDbDimAssoc
330
5B08
 90
        3
 70
     0
 71
     1
  1
AcDbOsnapPointRef
 72
     1
331
5896
 73
     0
 91
        0
 40
0.0
 10
0.0
 20
0.0
 30
0.0
 75
     0
  1
AcDbOsnapPointRef
 72
    13
331
5894
 73
     0
 91
        0
 40
0.0
 10
0.0
 20
0.0
 30
0.0
 75
     0
  0
DIMASSOC
  5
5B37
102
{ACAD_REACTORS
330
5B36
102
}
330
5B36
100
AcDbDimAssoc
330
5B35
 90
        3
 70
     0
 71
     1
  1
AcDbOsnapPointRef
 72
    13
331
589B
 73
     0
 91
        0
 40
0.0
 10
0.0
 20
0.0
 30
0.0
 75
     0
  1
AcDbOsnapPointRef
 72
    13
331
589E
 73
     0
 91
        0
 40
0.0
 10
0.0
 20
0.0
 30
0.0
 75
     0
  0
DIMASSOC
  5
5B48
102
{ACAD_REACTORS
330
5B47
102
}
330
5B47
100
AcDbDimAssoc
330
5B46
 90
        3
 70
     0
 71
     1
  1
AcDbOsnapPointRef
 72
     1
331
58F0
 73
     0
 91
        0
 40
0.0
 10
0.0
 20
0.0
 30
0.0
 75
     0
  1
AcDbOsnapPointRef
 72
     1
331
58D5
 73
     0
 91
        0
 40
0.0
 10
0.0
 20
0.0
 30
0.0
 75
     0
  0
DIMASSOC
  5
5B65
102
{ACAD_REACTORS
330
5B64
102
}
330
5B64
100
AcDbDimAssoc
330
5B63
 90
        3
 70
     0
 71
     1
  1
AcDbOsnapPointRef
 72
    13
331
58CD
 73
     0
 91
        0
 40
0.0
 10
0.0
 20
0.0
 30
0.0
 75
     0
  1
AcDbOsnapPointRef
 72
    13
331
58D0
 73
     0
 91
        0
 40
0.0
 10
0.0
 20
0.0
 30
0.0
 75
     0
  0
DIMASSOC
  5
5B84
102
{ACAD_REACTORS
330
5B83
102
}
330
5B83
100
AcDbDimAssoc
330
5B82
 90
        3
 70
     0
 71
     1
  1
AcDbOsnapPointRef
 72
     1
331
58A9
 73
     0
 91
        0
 40
0.0
 10
0.0
 20
0.0
 30
0.0
 75
     0
  1
AcDbOsnapPointRef
 72
     1
331
58AA
 73
     0
 91
        0
 40
0.0
 10
0.0
 20
0.0
 30
0.0
 75
     0
  0
DIMASSOC
  5
5B9C
102
{ACAD_REACTORS
330
5B9B
102
}
330
5B9B
100
AcDbDimAssoc
330
5B9A
 90
        3
 70
     0
 71
     1
  1
AcDbOsnapPointRef
 72
     1
331
58C4
 73
     0
 91
        0
 40
0.0
 10
0.0
 20
0.0
 30
0.0
 75
     0
  1
AcDbOsnapPointRef
 72
    13
331
58C2
 73
     0
 91
        0
 40
0.0
 10
0.0
 20
0.0
 30
0.0
 75
     0
  0
DIMASSOC
  5
5DA7
102
{ACAD_REACTORS
330
5DA6
102
}
330
5DA6
100
AcDbDimAssoc
330
5DA5
 90
        3
 70
     0
 71
     1
  1
AcDbOsnapPointRef
 72
     1
331
58A9
 73
     0
 91
        0
 40
0.0
 10
0.0
 20
0.0
 30
0.0
 75
     0
  1
AcDbOsnapPointRef
 72
     1
331
589E
 73
     0
 91
        0
 40
0.0
 10
0.0
 20
0.0
 30
0.0
 75
     0
  0
GROUP
  5
5ADA
102
{ACAD_REACTORS
330
1A
102
}
330
1A
100
AcDbGroup
300

 70
     1
 71
     1
340
56A1
340
56A2
340
56A3
340
56A4
340
56A5
340
56A6
340
56A7
340
56A8
  0
LAYOUT
  5
21
102
{ACAD_REACTORS
330
1E
102
}
330
1E
100
AcDbPlotSettings
  1

  2
none_device
  4
ISO_A3_(420.00_x_297.00_MM)
  6

 40
7.5
 41
20.0
 42
7.5
 43
20.0
 44
420.0
 45
297.0
 46
0.0
 47
0.0
 48
0.0
 49
0.0
140
0.0
141
0.0
142
1.0
143
1.0
 70
     0
 72
     1
 73
     0
 74
     0
  7

 75
     0
 76
     0
 77
     2
 78
   300
147
1.0
148
0.0
149
0.0
100
AcDbLayout
  1
Layout1
 70
     0
 71
     0
 10
-7.5
 20
-20.0
 11
412.5
 21
277.0
 12
0.0
 22
0.0
 32
0.0
 14
0.0
 24
0.0
 34
0.0
 15
0.0
 25
0.0
 35
0.0
146
0.0
 13
0.0
 23
0.0
 33
0.0
 16
0.0
 26
0.0
 36
0.0
 17
0.0
 27
0.0
 37
0.0
 76
     0
330
B
331
349
  0
LAYOUT
  5
12C4
102
{ACAD_REACTORS
330
1E
102
}
330
1E
100
AcDbPlotSettings
  1

  2
none_device
  4

  6

 40
0.0
 41
0.0
 42
0.0
 43
0.0
 44
0.0
 45
0.0
 46
0.0
 47
0.0
 48
0.0
 49
0.0
140
0.0
141
0.0
142
1.0
143
1.0
 70
   688
 72
     1
 73
     0
 74
     5
  7

 75
    16
 76
     0
 77
     2
 78
   300
147
1.0
148
0.0
149
0.0
100
AcDbLayout
  1
Layout2
 70
     1
 71
     2
 10
0.0
 20
0.0
 11
0.0
 21
0.0
 12
0.0
 22
0.0
 32
0.0
 14
0.0
 24
0.0
 34
0.0
 15
0.0
 25
0.0
 35
0.0
146
0.0
 13
0.0
 23
0.0
 33
0.0
 16
1.0
 26
0.0
 36
0.0
 17
0.0
 27
1.0
 37
0.0
 76
     0
330
12C3
  0
LAYOUT
  5
20
102
{ACAD_REACTORS
330
1E
102
}
330
1E
100
AcDbPlotSettings
  1

  2
none_device
  4
ISO_A3_(420.00_x_297.00_MM)
  6

 40
7.5
 41
20.0
 42
7.5
 43
20.0
 44
420.0
 45
297.0
 46
0.0
 47
0.0
 48
0.0
 49
0.0
140
0.0
141
0.0
142
1.0
143
1.0
 70
  1024
 72
     1
 73
     0
 74
     0
  7

 75
     0
 76
     0
 77
     2
 78
   300
147
1.0
148
0.0
149
0.0
100
AcDbLayout
  1
Model
 70
     0
 71
     1
 10
0.0
 20
0.0
 11
593.9999999999999
 21
420.0
 12
0.0
 22
0.0
 32
0.0
 14
0.0
 24
0.0
 34
0.0
 15
1465.28790925554
 25
420.0
 35
0.0
146
0.0
 13
0.0
 23
0.0
 33
0.0
 16
0.0
 26
0.0
 36
0.0
 17
0.0
 27
0.0
 37
0.0
 76
     0
330
A
331
15
  0
MATERIAL
  5
385B
102
{ACAD_REACTORS
330
263
102
}
330
263
100
AcDbMaterial
  1
ByBlock
 72
     1
 94
      127
  0
MATERIAL
  5
264
102
{ACAD_REACTORS
330
263
102
}
330
263
100
AcDbMaterial
  1
ByLayer
 72
     1
 94
      127
  0
MATERIAL
  5
266
102
{ACAD_REACTORS
330
263
102
}
330
263
100
AcDbMaterial
  1
Global
 72
     1
 94
      127
  0
MLEADERSTYLE
  5
4739
102
{ACAD_REACTORS
330
336
102
}
330
336
100
AcDbMLeaderStyle
170
     2
171
     1
172
     0
 90
        2
 40
0.0
 41
0.0
173
     1
 91
-1056964608
340
11
 92
       -2
290
     1
 42
2.0
291
     1
 43
8.0
  3
Standard
341
0
 44
4.0
300

342
17
174
     1
178
     6
175
     1
176
     0
 93
-1056964608
 45
4.0
292
     0
297
     0
 46
4.0
343
0
 94
-1056964608
 47
1.0
 49
1.0
140
1.0
293
     1
141
0.0
294
     1
177
     0
142
1.0
295
     0
296
     0
143
3.75
1001
ACAD_MLEADERVER
1070
     2
  0
MLINESTYLE
  5
1C
102
{ACAD_REACTORS
330
1B
102
}
330
1B
100
AcDbMlineStyle
  2
Standard
 70
     0
  3

 62
     0
 51
90.0
 52
90.0
 71
     2
 49
0.5
 62
   256
  6
BYLAYER
 49
-0.5
 62
   256
  6
BYLAYER
  0
ACDBPLACEHOLDER
  5
1D
102
{ACAD_REACTORS
330
1F
102
}
330
1F
  0
SCALE
  5
242
102
{ACAD_REACTORS
330
241
102
}
330
241
100
AcDbScale
 70
     0
300
1:1
140
1.0
141
1.0
290
     1
  0
SCALE
  5
243
102
{ACAD_REACTORS
330
241
102
}
330
241
100
AcDbScale
 70
     0
300
1:2
140
1.0
141
2.0
290
     0
  0
SCALE
  5
244
102
{ACAD_REACTORS
330
241
102
}
330
241
100
AcDbScale
 70
     0
300
1:4
140
1.0
141
4.0
290
     0
  0
SCALE
  5
245
102
{ACAD_REACTORS
330
241
102
}
330
241
100
AcDbScale
 70
     0
300
1:5
140
1.0
141
5.0
290
     0
  0
SCALE
  5
246
102
{ACAD_REACTORS
330
241
102
}
330
241
100
AcDbScale
 70
     0
300
1:8
140
1.0
141
8.0
290
     0
  0
SCALE
  5
247
102
{ACAD_REACTORS
330
241
102
}
330
241
100
AcDbScale
 70
     0
300
1:10
140
1.0
141
10.0
290
     0
  0
SCALE
  5
248
102
{ACAD_REACTORS
330
241
102
}
330
241
100
AcDbScale
 70
     0
300
1:16
140
1.0
141
16.0
290
     0
  0
SCALE
  5
249
102
{ACAD_REACTORS
330
241
102
}
330
241
100
AcDbScale
 70
     0
300
1:20
140
1.0
141
20.0
290
     0
  0
SCALE
  5
24A
102
{ACAD_REACTORS
330
241
102
}
330
241
100
AcDbScale
 70
     0
300
1:30
140
1.0
141
30.0
290
     0
  0
SCALE
  5
24B
102
{ACAD_REACTORS
330
241
102
}
330
241
100
AcDbScale
 70
     0
300
1:40
140
1.0
141
40.0
290
     0
  0
SCALE
  5
24C
102
{ACAD_REACTORS
330
241
102
}
330
241
100
AcDbScale
 70
     0
300
1:50
140
1.0
141
50.0
290
     0
  0
SCALE
  5
24D
102
{ACAD_REACTORS
330
241
102
}
330
241
100
AcDbScale
 70
     0
300
1:100
140
1.0
141
100.0
290
     0
  0
SCALE
  5
24E
102
{ACAD_REACTORS
330
241
102
}
330
241
100
AcDbScale
 70
     0
300
2:1
140
2.0
141
1.0
290
     0
  0
SCALE
  5
24F
102
{ACAD_REACTORS
330
241
102
}
330
241
100
AcDbScale
 70
     0
300
4:1
140
4.0
141
1.0
290
     0
  0
SCALE
  5
250
102
{ACAD_REACTORS
330
241
102
}
330
241
100
AcDbScale
 70
     0
300
8:1
140
8.0
141
1.0
290
     0
  0
SCALE
  5
251
102
{ACAD_REACTORS
330
241
102
}
330
241
100
AcDbScale
 70
     0
300
10:1
140
10.0
141
1.0
290
     0
  0
SCALE
  5
252
102
{ACAD_REACTORS
330
241
102
}
330
241
100
AcDbScale
 70
     0
300
100:1
140
100.0
141
1.0
290
     0
  0
SCALE
  5
253
102
{ACAD_REACTORS
330
241
102
}
330
241
100
AcDbScale
 70
     0
300
1/128" = 1'-0"
140
0.0078125
141
12.0
290
     0
  0
SCALE
  5
254
102
{ACAD_REACTORS
330
241
102
}
330
241
100
AcDbScale
 70
     0
300
1/64" = 1'-0"
140
0.015625
141
12.0
290
     0
  0
SCALE
  5
255
102
{ACAD_REACTORS
330
241
102
}
330
241
100
AcDbScale
 70
     0
300
1/32" = 1'-0"
140
0.03125
141
12.0
290
     0
  0
SCALE
  5
256
102
{ACAD_REACTORS
330
241
102
}
330
241
100
AcDbScale
 70
     0
300
1/16" = 1'-0"
140
0.0625
141
12.0
290
     0
  0
SCALE
  5
257
102
{ACAD_REACTORS
330
241
102
}
330
241
100
AcDbScale
 70
     0
300
3/32" = 1'-0"
140
0.09375
141
12.0
290
     0
  0
SCALE
  5
258
102
{ACAD_REACTORS
330
241
102
}
330
241
100
AcDbScale
 70
     0
300
1/8" = 1'-0"
140
0.125
141
12.0
290
     0
  0
SCALE
  5
259
102
{ACAD_REACTORS
330
241
102
}
330
241
100
AcDbScale
 70
     0
300
3/16" = 1'-0"
140
0.1875
141
12.0
290
     0
  0
SCALE
  5
25A
102
{ACAD_REACTORS
330
241
102
}
330
241
100
AcDbScale
 70
     0
300
1/4" = 1'-0"
140
0.25
141
12.0
290
     0
  0
SCALE
  5
25B
102
{ACAD_REACTORS
330
241
102
}
330
241
100
AcDbScale
 70
     0
300
3/8" = 1'-0"
140
0.375
141
12.0
290
     0
  0
SCALE
  5
25C
102
{ACAD_REACTORS
330
241
102
}
330
241
100
AcDbScale
 70
     0
300
1/2" = 1'-0"
140
0.5
141
12.0
290
     0
  0
SCALE
  5
25D
102
{ACAD_REACTORS
330
241
102
}
330
241
100
AcDbScale
 70
     0
300
3/4" = 1'-0"
140
0.75
141
12.0
290
     0
  0
SCALE
  5
25E
102
{ACAD_REACTORS
330
241
102
}
330
241
100
AcDbScale
 70
     0
300
1" = 1'-0"
140
1.0
141
12.0
290
     0
  0
SCALE
  5
25F
102
{ACAD_REACTORS
330
241
102
}
330
241
100
AcDbScale
 70
     0
300
1-1/2" = 1'-0"
140
1.5
141
12.0
290
     0
  0
SCALE
  5
260
102
{ACAD_REACTORS
330
241
102
}
330
241
100
AcDbScale
 70
     0
300
3" = 1'-0"
140
3.0
141
12.0
290
     0
  0
SCALE
  5
261
102
{ACAD_REACTORS
330
241
102
}
330
241
100
AcDbScale
 70
     0
300
6" = 1'-0"
140
6.0
141
12.0
290
     0
  0
SCALE
  5
262
102
{ACAD_REACTORS
330
241
102
}
330
241
100
AcDbScale
 70
     0
300
1'-0" = 1'-0"
140
12.0
141
12.0
290
     0
  0
TABLESTYLE
  5
279
102
{ACAD_REACTORS
330
278
102
}
102
{ACAD_XDICTIONARY
360
5EC3
102
}
330
278
100
AcDbTableStyle
  3
Standard
 70
     0
 71
     0
 40
0.06
 41
0.06
280
     0
281
     0
  7
Standard
140
4.5
170
     2
 62
     0
 63
   257
283
     0
 90
        4
 91
        0
  1

274
    -2
284
     1
 64
     0
275
    -2
285
     1
 65
     0
276
    -2
286
     1
 66
     0
277
    -2
287
     1
 67
     0
278
    -2
288
     1
 68
     0
279
    -2
289
     1
 69
     0
  7
Standard
140
6.0
170
     5
 62
     0
 63
   257
283
     0
 90
        4
 91
        0
  1

274
    -2
284
     1
 64
     0
275
    -2
285
     1
 65
     0
276
    -2
286
     1
 66
     0
277
    -2
287
     1
 67
     0
278
    -2
288
     1
 68
     0
279
    -2
289
     1
 69
     0
  7
Standard
140
4.5
170
     5
 62
     0
 63
   257
283
     0
 90
        4
 91
        0
  1

274
    -2
284
     1
 64
     0
275
    -2
285
     1
 65
     0
276
    -2
286
     1
 66
     0
277
    -2
287
     1
 67
     0
278
    -2
288
     1
 68
     0
279
    -2
289
     1
 69
     0
  0
VISUALSTYLE
  5
26C
102
{ACAD_REACTORS
330
267
102
}
330
267
100
AcDbVisualStyle
  2
2dWireframe
 70
     4
 71
     0
 72
     2
 73
     0
 90
        0
 40
-0.6
 41
-30.0
 62
     5
 63
     7
421
 16777215
 74
     1
 91
        4
 64
     7
 65
   257
 75
     1
175
     1
 42
1.0
 92
        0
 66
   257
 43
1.0
 76
     1
 77
     6
 78
     2
 67
     7
 79
     5
170
     0
171
     0
290
     0
174
     0
 93
        1
 44
0.0
173
     0
291
     0
 45
0.0
  0
VISUALSTYLE
  5
26E
102
{ACAD_REACTORS
330
267
102
}
330
267
100
AcDbVisualStyle
  2
3D Hidden
 70
     6
 71
     1
 72
     2
 73
     2
 90
        0
 40
-0.6
 41
-30.0
 62
     5
 63
     7
421
 16777215
 74
     2
 91
        2
 64
     7
 65
   257
 75
     2
175
     1
 42
40.0
 92
        0
 66
   257
 43
1.0
 76
     1
 77
     6
 78
     2
 67
     7
 79
     3
170
     0
171
     0
290
     0
174
     0
 93
        1
 44
0.0
173
     0
291
     0
 45
0.0
  0
VISUALSTYLE
  5
26D
102
{ACAD_REACTORS
330
267
102
}
330
267
100
AcDbVisualStyle
  2
3dWireframe
 70
     5
 71
     0
 72
     2
 73
     0
 90
        0
 40
-0.6
 41
-30.0
 62
     5
 63
     7
421
 16777215
 74
     1
 91
        4
 64
     7
 65
   257
 75
     1
175
     1
 42
1.0
 92
        0
 66
   257
 43
1.0
 76
     1
 77
     6
 78
     2
 67
     7
 79
     5
170
     0
171
     0
290
     0
174
     0
 93
        1
 44
0.0
173
     0
291
     0
 45
0.0
  0
VISUALSTYLE
  5
26F
102
{ACAD_REACTORS
330
267
102
}
330
267
100
AcDbVisualStyle
  2
Basic
 70
     7
 71
     1
 72
     0
 73
     1
 90
        0
 40
-0.6
 41
-30.0
 62
     5
 63
     7
421
 16777215
 74
     0
 91
        4
 64
     7
 65
   257
 75
     1
175
     1
 42
1.0
 92
        8
 66
     7
 43
1.0
 76
     1
 77
     6
 78
     2
 67
     7
 79
     5
170
     0
171
     0
290
     0
174
     0
 93
        1
 44
0.0
173
     0
291
     1
 45
0.0
  0
VISUALSTYLE
  5
273
102
{ACAD_REACTORS
330
267
102
}
330
267
100
AcDbVisualStyle
  2
Brighten
 70
    12
 71
     2
 72
     2
 73
     0
 90
        0
 40
-0.6
 41
-30.0
 62
     5
 63
     7
421
 16777215
 74
     1
 91
        4
 64
     7
 65
   257
 75
     1
175
     1
 42
1.0
 92
        8
 66
     7
 43
1.0
 76
     1
 77
     6
 78
     2
 67
     7
 79
     5
170
     0
171
     0
290
     0
174
     0
 93
        1
 44
50.0
173
     0
291
     1
 45
0.0
  0
VISUALSTYLE
  5
277
102
{ACAD_REACTORS
330
267
102
}
330
267
100
AcDbVisualStyle
  2
ColorChange
 70
    16
 71
     2
 72
     2
 73
     3
 90
        0
 40
-0.6
 41
-30.0
 62
     5
 63
     8
421
  8421504
 74
     1
 91
        4
 64
     7
 65
   257
 75
     1
175
     1
 42
1.0
 92
        8
 66
     8
424
  8421504
 43
1.0
 76
     1
 77
     6
 78
     2
 67
     7
 79
     5
170
     0
171
     0
290
     0
174
     0
 93
        1
 44
0.0
173
     0
291
     1
 45
0.0
  0
VISUALSTYLE
  5
271
102
{ACAD_REACTORS
330
267
102
}
330
267
100
AcDbVisualStyle
  2
Conceptual
 70
     9
 71
     3
 72
     2
 73
     0
 90
        0
 40
-0.6
 41
-30.0
 62
     5
 63
     7
421
 16777215
 74
     2
 91
        2
 64
     7
 65
   257
 75
     1
175
     1
 42
40.0
 92
        8
 66
     7
 43
1.0
 76
     1
 77
     6
 78
     2
 67
     7
 79
     3
170
     0
171
     0
290
     0
174
     0
 93
        1
 44
0.0
173
     0
291
     0
 45
0.0
  0
VISUALSTYLE
  5
272
102
{ACAD_REACTORS
330
267
102
}
330
267
100
AcDbVisualStyle
  2
Dim
 70
    11
 71
     2
 72
     2
 73
     0
 90
        0
 40
-0.6
 41
-30.0
 62
     5
 63
     7
421
 16777215
 74
     1
 91
        4
 64
     7
 65
   257
 75
     1
175
     1
 42
1.0
 92
        8
 66
     7
 43
1.0
 76
     1
 77
     6
 78
     2
 67
     7
 79
     5
170
     0
171
     0
290
     0
174
     0
 93
        1
 44
-50.0
173
     0
291
     1
 45
0.0
  0
VISUALSTYLE
  5
10E2
102
{ACAD_REACTORS
330
267
102
}
330
267
100
AcDbVisualStyle
  2
EdgeColorOff
 70
    22
 71
     2
 72
     2
 73
     0
 90
        0
 40
0.6
 41
30.0
 62
     5
 63
     7
421
 16777215
 74
     1
 91
        4
 64
     7
 65
   257
 75
     1
175
     1
 42
1.0
 92
        8
 66
     7
 43
1.0
 76
     1
 77
     6
 78
     2
 67
     7
 79
     5
170
     0
171
     0
290
     0
174
     0
 93
        1
 44
0.0
173
     0
291
     1
 45
0.0
  0
VISUALSTYLE
  5
276
102
{ACAD_REACTORS
330
267
102
}
330
267
100
AcDbVisualStyle
  2
Facepattern
 70
    15
 71
     2
 72
     2
 73
     0
 90
        0
 40
-0.6
 41
-30.0
 62
     5
 63
     7
421
 16777215
 74
     1
 91
        4
 64
     7
 65
   257
 75
     1
175
     1
 42
1.0
 92
        8
 66
     7
 43
1.0
 76
     1
 77
     6
 78
     2
 67
     7
 79
     5
170
     0
171
     0
290
     0
174
     0
 93
        1
 44
0.0
173
     0
291
     1
 45
0.0
  0
VISUALSTYLE
  5
268
102
{ACAD_REACTORS
330
267
102
}
330
267
100
AcDbVisualStyle
  2
Flat
 70
     0
 71
     2
 72
     1
 73
     1
 90
        2
 40
-0.6
 41
30.0
 62
     5
 63
     7
421
 16777215
 74
     0
 91
        4
 64
     7
 65
   257
 75
     1
175
     1
 42
1.0
 92
        8
 66
     7
 43
1.0
 76
     1
 77
     6
 78
     2
 67
     7
 79
     5
170
     0
171
     0
290
     0
174
     0
 93
       13
 44
0.0
173
     0
291
     1
 45
0.0
  0
VISUALSTYLE
  5
269
102
{ACAD_REACTORS
330
267
102
}
330
267
100
AcDbVisualStyle
  2
FlatWithEdges
 70
     1
 71
     2
 72
     1
 73
     1
 90
        2
 40
-0.6
 41
30.0
 62
     5
 63
     7
421
 16777215
 74
     1
 91
        4
 64
     7
 65
   257
 75
     1
175
     1
 42
1.0
 92
        0
 66
   257
 43
1.0
 76
     1
 77
     6
 78
     2
 67
     7
 79
     5
170
     0
171
     0
290
     0
174
     0
 93
       13
 44
0.0
173
     0
291
     1
 45
0.0
  0
VISUALSTYLE
  5
26A
102
{ACAD_REACTORS
330
267
102
}
330
267
100
AcDbVisualStyle
  2
Gouraud
 70
     2
 71
     2
 72
     2
 73
     1
 90
        2
 40
-0.6
 41
30.0
 62
     5
 63
     7
421
 16777215
 74
     0
 91
        4
 64
     7
 65
   257
 75
     1
175
     1
 42
1.0
 92
        0
 66
     7
 43
1.0
 76
     1
 77
     6
 78
     2
 67
     7
 79
     5
170
     0
171
     0
290
     0
174
     0
 93
       13
 44
0.0
173
     0
291
     1
 45
0.0
  0
VISUALSTYLE
  5
26B
102
{ACAD_REACTORS
330
267
102
}
330
267
100
AcDbVisualStyle
  2
GouraudWithEdges
 70
     3
 71
     2
 72
     2
 73
     1
 90
        2
 40
-0.6
 41
30.0
 62
     5
 63
     7
421
 16777215
 74
     1
 91
        4
 64
     7
 65
   257
 75
     1
175
     1
 42
1.0
 92
        0
 66
   257
 43
1.0
 76
     1
 77
     6
 78
     2
 67
     7
 79
     5
170
     0
171
     0
290
     0
174
     0
 93
       13
 44
0.0
173
     0
291
     1
 45
0.0
  0
VISUALSTYLE
  5
10DF
102
{ACAD_REACTORS
330
267
102
}
330
267
100
AcDbVisualStyle
  2
Hidden
 70
     6
 71
     1
 72
     2
 73
     2
 90
        0
 40
0.6
 41
30.0
 62
     5
 63
     7
421
 16777215
 74
     2
 91
        2
 64
     7
 65
   257
 75
     2
175
     1
 42
40.0
 92
        0
 66
   257
 43
1.0
 76
     1
 77
     6
 78
     2
 67
     7
 79
     3
170
     0
171
     0
290
     0
174
     0
 93
        1
 44
0.0
173
     0
291
     0
 45
0.0
  0
VISUALSTYLE
  5
10E0
102
{ACAD_REACTORS
330
267
102
}
330
267
100
AcDbVisualStyle
  2
JitterOff
 70
    20
 71
     2
 72
     2
 73
     0
 90
        0
 40
0.6
 41
30.0
 62
     5
 63
     7
421
 16777215
 74
     1
 91
        4
 64
     7
 65
   257
 75
     1
175
     1
 42
1.0
 92
       10
 66
     7
 43
1.0
 76
     1
 77
     6
 78
     2
 67
     7
 79
     5
170
     0
171
     0
290
     0
174
     0
 93
        1
 44
0.0
173
     0
291
     1
 45
0.0
  0
VISUALSTYLE
  5
275
102
{ACAD_REACTORS
330
267
102
}
330
267
100
AcDbVisualStyle
  2
Linepattern
 70
    14
 71
     2
 72
     2
 73
     0
 90
        0
 40
-0.6
 41
-30.0
 62
     5
 63
     7
421
 16777215
 74
     1
 91
        4
 64
     7
 65
   257
 75
     7
175
     7
 42
1.0
 92
        8
 66
     7
 43
1.0
 76
     1
 77
     6
 78
     2
 67
     7
 79
     5
170
     0
171
     0
290
     0
174
     0
 93
        1
 44
0.0
173
     0
291
     1
 45
0.0
  0
VISUALSTYLE
  5
10E1
102
{ACAD_REACTORS
330
267
102
}
330
267
100
AcDbVisualStyle
  2
OverhangOff
 70
    21
 71
     2
 72
     2
 73
     0
 90
        0
 40
0.6
 41
30.0
 62
     5
 63
     7
421
 16777215
 74
     1
 91
        4
 64
     7
 65
   257
 75
     1
175
     1
 42
1.0
 92
        9
 66
     7
 43
1.0
 76
     1
 77
     6
 78
     2
 67
     7
 79
     5
170
     0
171
     0
290
     0
174
     0
 93
        1
 44
0.0
173
     0
291
     1
 45
0.0
  0
VISUALSTYLE
  5
270
102
{ACAD_REACTORS
330
267
102
}
330
267
100
AcDbVisualStyle
  2
Realistic
 70
     8
 71
     2
 72
     2
 73
     0
 90
        0
 40
-0.6
 41
-30.0
 62
     5
 63
     7
421
 16777215
 74
     1
 91
        0
 64
     7
 65
   257
 75
     1
175
     1
 42
1.0
 92
        8
 66
     8
424
  7895160
 43
1.0
 76
     1
 77
     6
 78
     2
 67
     7
 79
     5
170
     0
171
     0
290
     0
174
     0
 93
       13
 44
0.0
173
     0
291
     0
 45
0.0
  0
VISUALSTYLE
  5
10E7
102
{ACAD_REACTORS
330
267
102
}
330
267
100
AcDbVisualStyle
  2
Shaded
 70
    27
 71
     2
 72
     2
 73
     1
 90
        2
 40
0.6
 41
30.0
 62
     5
 63
     7
421
 16777215
 74
     0
 91
        4
 64
     7
 65
   257
 75
     1
175
     1
 42
1.0
 92
        8
 66
   257
 43
1.0
 76
     1
 77
     6
 78
     2
 67
     8
425
  7895160
 79
     3
170
     0
171
     0
290
     0
174
     0
 93
        5
 44
0.0
173
     0
291
     0
 45
0.0
  0
VISUALSTYLE
  5
10E6
102
{ACAD_REACTORS
330
267
102
}
330
267
100
AcDbVisualStyle
  2
Shaded with edges
 70
    26
 71
     2
 72
     2
 73
     1
 90
        2
 40
0.6
 41
30.0
 62
     5
 63
     7
421
 16777215
 74
     1
 91
       10
 64
     7
 65
   257
 75
     2
175
     1
 42
1.0
 92
        8
 66
   257
 43
1.0
 76
     1
 77
     6
 78
     2
 67
     7
 79
     3
170
     0
171
     0
290
     0
174
     0
 93
        5
 44
0.0
173
     0
291
     0
 45
0.0
  0
VISUALSTYLE
  5
10E3
102
{ACAD_REACTORS
330
267
102
}
330
267
100
AcDbVisualStyle
  2
Shades of Gray
 70
    23
 71
     2
 72
     2
 73
     3
 90
        0
 40
0.6
 41
30.0
 62
     5
 63
     7
421
 16777215
 74
     2
 91
        2
 64
     7
 65
     7
 75
     1
175
     1
 42
40.0
 92
        8
 66
     7
 43
1.0
 76
     1
 77
     6
 78
     2
 67
     7
 79
     3
170
     0
171
     0
290
     0
174
     0
 93
        1
 44
0.0
173
     0
291
     0
 45
0.0
  0
VISUALSTYLE
  5
10E4
102
{ACAD_REACTORS
330
267
102
}
330
267
100
AcDbVisualStyle
  2
Sketchy
 70
    24
 71
     1
 72
     2
 73
     2
 90
        0
 40
0.6
 41
30.0
 62
     5
 63
     7
421
 16777215
 74
     2
 91
        2
 64
     7
 65
     7
 75
     1
175
     1
 42
40.0
 92
       11
 66
     7
 43
1.0
 76
     1
 77
     6
 78
     2
 67
     7
 79
     6
170
     0
171
     0
290
     0
174
     0
 93
        1
 44
0.0
173
     0
291
     0
 45
0.0
  0
VISUALSTYLE
  5
274
102
{ACAD_REACTORS
330
267
102
}
330
267
100
AcDbVisualStyle
  2
Thicken
 70
    13
 71
     2
 72
     2
 73
     0
 90
        0
 40
-0.6
 41
-30.0
 62
     5
 63
     7
421
 16777215
 74
     1
 91
        4
 64
     7
 65
   257
 75
     1
175
     1
 42
1.0
 92
       12
 66
     7
 43
1.0
 76
     1
 77
     6
 78
     2
 67
     7
 79
     5
170
     0
171
     0
290
     0
174
     0
 93
        1
 44
0.0
173
     0
291
     1
 45
0.0
  0
VISUALSTYLE
  5
10DE
102
{ACAD_REACTORS
330
267
102
}
330
267
100
AcDbVisualStyle
  2
Wireframe
 70
     5
 71
     0
 72
     2
 73
     0
 90
        0
 40
0.6
 41
30.0
 62
     5
 63
     7
421
 16777215
 74
     1
 91
        4
 64
     7
 65
   257
 75
     1
175
     1
 42
1.0
 92
        0
 66
   257
 43
1.0
 76
     1
 77
     6
 78
     2
 67
     7
 79
     3
170
     0
171
     0
290
     0
174
     0
 93
        1
 44
0.0
173
     0
291
     0
 45
0.0
  0
VISUALSTYLE
  5
10E5
102
{ACAD_REACTORS
330
267
102
}
330
267
100
AcDbVisualStyle
  2
X-Ray
 70
    25
 71
     2
 72
     2
 73
     1
 90
        1
 40
0.5
 41
30.0
 62
     5
 63
     7
421
 16777215
 74
     1
 91
        0
 64
     7
 65
   257
 75
     1
175
     1
 42
1.0
 92
        8
 66
     7
 43
1.0
 76
     1
 77
     6
 78
     2
 67
     7
 79
     3
170
     0
171
     0
290
     0
174
     0
 93
       13
 44
0.0
173
     0
291
     0
 45
0.0
  0
DICTIONARYVAR
  5
331
102
{ACAD_REACTORS
330
330
102
}
330
330
100
DictionaryVariables
280
     0
  1
1:1
  0
DICTIONARYVAR
  5
4741
102
{ACAD_REACTORS
330
330
102
}
330
330
100
DictionaryVariables
280
     0
  1
Standard
  0
DICTIONARYVAR
  5
335
102
{ACAD_REACTORS
330
330
102
}
330
330
100
DictionaryVariables
280
     0
  1
Standard
  0
DICTIONARYVAR
  5
109E
102
{ACAD_REACTORS
330
330
102
}
330
330
100
DictionaryVariables
280
     0
  1
0
  0
FIELD
  5
52FF
102
{ACAD_REACTORS
330
52FE
102
}
330
52FE
100
AcDbField
  1
_text
  2
{%<\_FldIdx 0>%N}
 90
        1
360
5300
 97
        0
 91
       63
 92
        0
 94
        8
 95
        2
 96
        0
300

 93
        1
  6
ACFD_FIELDTEXT_CHECKSUM
 93
        2
 90
        2
140
4522.0
 94
        0
300

302

304
ACVALUE_END
  7
ACFD_FIELD_VALUE
 93
        6
 90
        4
  1
{20170831N}
 94
        0
300

302

304
ACVALUE_END
301
{20170831N}
 98
       11
  0
DICTIONARY
  5
5EC3
330
279
100
AcDbDictionary
280
     1
281
     1
  3
ACAD_ROUNDTRIP_2008_TABLESTYLE_CELLSTYLEMAP
360
5EC4
  0
FIELD
  5
5300
330
52FF
100
AcDbField
  1
AcVar
  2
\AcVar Date \f "yyyyMMdd"
 90
        0
 97
        0
 91
       63
 92
        0
 94
        8
 95
        2
 96
        0
300

 93
        1
  6
Variable
 93
        2
 90
        4
  1
Date
 94
        0
300

302

304
ACVALUE_END
  7
ACFD_FIELD_VALUE
 93
        6
 90
        8
 92
       16
310
E107080000001E0011001A0016000000
 94
        0
300
yyyyMMdd
302

304
ACVALUE_END
301
20170831
 98
        8
  0
CELLSTYLEMAP
  5
5EC4
102
{ACAD_REACTORS
330
5EC3
102
}
330
5EC3
100
AcDbCellStyleMap
 90
        3
300
CELLSTYLE
  1
TABLEFORMAT_BEGIN
 90
        5
170
     1
 91
        0
 92
    32768
 62
   257
 93
        1
300
CONTENTFORMAT
  1
CONTENTFORMAT_BEGIN
 90
        0
 91
        0
 92
        4
 93
        0
300

 40
0.0
140
1.0
 94
        5
 62
     0
340
17
144
6.0
309
CONTENTFORMAT_END
171
     1
301
MARGIN
  1
CELLMARGIN_BEGIN
 40
0.06
 40
0.06
 40
0.06
 40
0.06
 40
0.18
 40
0.18
309
CELLMARGIN_END
 94
        6
 95
        1
302
GRIDFORMAT
  1
GRIDFORMAT_BEGIN
 90
        0
 91
        1
 62
     0
 92
       -2
340
0
 93
        0
 40
0.045
309
GRIDFORMAT_END
 95
        2
302
GRIDFORMAT
  1
GRIDFORMAT_BEGIN
 90
        0
 91
        1
 62
     0
 92
       -2
340
0
 93
        0
 40
0.045
309
GRIDFORMAT_END
 95
        4
302
GRIDFORMAT
  1
GRIDFORMAT_BEGIN
 90
        0
 91
        1
 62
     0
 92
       -2
340
0
 93
        0
 40
0.045
309
GRIDFORMAT_END
 95
        8
302
GRIDFORMAT
  1
GRIDFORMAT_BEGIN
 90
        0
 91
        1
 62
     0
 92
       -2
340
0
 93
        0
 40
0.045
309
GRIDFORMAT_END
 95
       16
302
GRIDFORMAT
  1
GRIDFORMAT_BEGIN
 90
        0
 91
        1
 62
     0
 92
       -2
340
0
 93
        0
 40
0.045
309
GRIDFORMAT_END
 95
       32
302
GRIDFORMAT
  1
GRIDFORMAT_BEGIN
 90
        0
 91
        1
 62
     0
 92
       -2
340
0
 93
        0
 40
0.045
309
GRIDFORMAT_END
309
TABLEFORMAT_END
  1
CELLSTYLE_BEGIN
 90
        1
 91
        1
300
_TITLE
309
CELLSTYLE_END
300
CELLSTYLE
  1
TABLEFORMAT_BEGIN
 90
        5
170
     1
 91
        0
 92
        0
 62
   257
 93
        1
300
CONTENTFORMAT
  1
CONTENTFORMAT_BEGIN
 90
        0
 91
        0
 92
        4
 93
        0
300

 40
0.0
140
1.0
 94
        5
 62
     0
340
17
144
4.5
309
CONTENTFORMAT_END
171
     1
301
MARGIN
  1
CELLMARGIN_BEGIN
 40
0.06
 40
0.06
 40
0.06
 40
0.06
 40
0.18
 40
0.18
309
CELLMARGIN_END
 94
        6
 95
        1
302
GRIDFORMAT
  1
GRIDFORMAT_BEGIN
 90
        0
 91
        1
 62
     0
 92
       -2
340
0
 93
        0
 40
0.045
309
GRIDFORMAT_END
 95
        2
302
GRIDFORMAT
  1
GRIDFORMAT_BEGIN
 90
        0
 91
        1
 62
     0
 92
       -2
340
0
 93
        0
 40
0.045
309
GRIDFORMAT_END
 95
        4
302
GRIDFORMAT
  1
GRIDFORMAT_BEGIN
 90
        0
 91
        1
 62
     0
 92
       -2
340
0
 93
        0
 40
0.045
309
GRIDFORMAT_END
 95
        8
302
GRIDFORMAT
  1
GRIDFORMAT_BEGIN
 90
        0
 91
        1
 62
     0
 92
       -2
340
0
 93
        0
 40
0.045
309
GRIDFORMAT_END
 95
       16
302
GRIDFORMAT
  1
GRIDFORMAT_BEGIN
 90
        0
 91
        1
 62
     0
 92
       -2
340
0
 93
        0
 40
0.045
309
GRIDFORMAT_END
 95
       32
302
GRIDFORMAT
  1
GRIDFORMAT_BEGIN
 90
        0
 91
        1
 62
     0
 92
       -2
340
0
 93
        0
 40
0.045
309
GRIDFORMAT_END
309
TABLEFORMAT_END
  1
CELLSTYLE_BEGIN
 90
        2
 91
        1
300
_HEADER
309
CELLSTYLE_END
300
CELLSTYLE
  1
TABLEFORMAT_BEGIN
 90
        5
170
     1
 91
        0
 92
        0
 62
   257
 93
        1
300
CONTENTFORMAT
  1
CONTENTFORMAT_BEGIN
 90
        0
 91
        0
 92
        4
 93
        0
300

 40
0.0
140
1.0
 94
        2
 62
     0
340
17
144
4.5
309
CONTENTFORMAT_END
171
     1
301
MARGIN
  1
CELLMARGIN_BEGIN
 40
0.06
 40
0.06
 40
0.06
 40
0.06
 40
0.18
 40
0.18
309
CELLMARGIN_END
 94
        6
 95
        1
302
GRIDFORMAT
  1
GRIDFORMAT_BEGIN
 90
        0
 91
        1
 62
     0
 92
       -2
340
0
 93
        0
 40
0.045
309
GRIDFORMAT_END
 95
        2
302
GRIDFORMAT
  1
GRIDFORMAT_BEGIN
 90
        0
 91
        1
 62
     0
 92
       -2
340
0
 93
        0
 40
0.045
309
GRIDFORMAT_END
 95
        4
302
GRIDFORMAT
  1
GRIDFORMAT_BEGIN
 90
        0
 91
        1
 62
     0
 92
       -2
340
0
 93
        0
 40
0.045
309
GRIDFORMAT_END
 95
        8
302
GRIDFORMAT
  1
GRIDFORMAT_BEGIN
 90
        0
 91
        1
 62
     0
 92
       -2
340
0
 93
        0
 40
0.045
309
GRIDFORMAT_END
 95
       16
302
GRIDFORMAT
  1
GRIDFORMAT_BEGIN
 90
        0
 91
        1
 62
     0
 92
       -2
340
0
 93
        0
 40
0.045
309
GRIDFORMAT_END
 95
       32
302
GRIDFORMAT
  1
GRIDFORMAT_BEGIN
 90
        0
 91
        1
 62
     0
 92
       -2
340
0
 93
        0
 40
0.045
309
GRIDFORMAT_END
309
TABLEFORMAT_END
  1
CELLSTYLE_BEGIN
 90
        3
 91
        2
300
_DATA
309
CELLSTYLE_END
  0
ENDSEC
  0
EOF
