  0
SECTION
  2
HEADER
  9
$ACADVER
  1
AC1021
  9
$ACADMAINTVER
 70
    25
  9
$DWGCODEPAGE
  3
ANSI_932
  9
$LASTSAVEDBY
  1
howeNelson
  9
$INSBASE
 10
0.0
 20
0.0
 30
0.0
  9
$EXTMIN
 10
0.0
 20
0.0
 30
0.0
  9
$EXTMAX
 10
593.9999999999999
 20
420.0
 30
0.0
  9
$LIMMIN
 10
0.0
 20
0.0
  9
$LIMMAX
 10
593.9999999999999
 20
420.0
  9
$ORTHOMODE
 70
     0
  9
$REGENMODE
 70
     1
  9
$FILLMODE
 70
     1
  9
$QTEXTMODE
 70
     0
  9
$MIRRTEXT
 70
     1
  9
$LTSCALE
 40
0.5
  9
$ATTMODE
 70
     1
  9
$TEXTSIZE
 40
136.139079520063
  9
$TRACEWID
 40
1.0
  9
$TEXTSTYLE
  7
ＭＳ ゴシック
  9
$CLAYER
  8
寸法
  9
$CELTYPE
  6
ByLayer
  9
$CECOLOR
 62
   256
  9
$CELTSCALE
 40
1.0
  9
$DISPSILH
 70
     0
  9
$DIMSCALE
 40
1.0
  9
$DIMASZ
 40
2.0
  9
$DIMEXO
 40
5.0
  9
$DIMDLI
 40
0.9999999999999999
  9
$DIMRND
 40
0.0
  9
$DIMDLE
 40
0.0
  9
$DIMEXE
 40
0.0
  9
$DIMTP
 40
0.0
  9
$DIMTM
 40
0.0
  9
$DIMTXT
 40
5.0
  9
$DIMCEN
 40
0.0
  9
$DIMTSZ
 40
0.0
  9
$DIMTOL
 70
     0
  9
$DIMLIM
 70
     0
  9
$DIMTIH
 70
     0
  9
$DIMTOH
 70
     0
  9
$DIMSE1
 70
     0
  9
$DIMSE2
 70
     0
  9
$DIMTAD
 70
     1
  9
$DIMZIN
 70
    11
  9
$DIMBLK
  1
DOT
  9
$DIMASO
 70
     1
  9
$DIMSHO
 70
     1
  9
$DIMPOST
  1
<>
  9
$DIMAPOST
  1
[]
  9
$DIMALT
 70
     0
  9
$DIMALTD
 70
     1
  9
$DIMALTF
 40
1.0
  9
$DIMLFAC
 40
1.0
  9
$DIMTOFL
 70
     0
  9
$DIMTVP
 40
0.0
  9
$DIMTIX
 70
     1
  9
$DIMSOXD
 70
     0
  9
$DIMSAH
 70
     0
  9
$DIMBLK1
  1

  9
$DIMBLK2
  1

  9
$DIMSTYLE
  2
tfrom線あり
  9
$DIMCLRD
 70
     0
  9
$DIMCLRE
 70
     0
  9
$DIMCLRT
 70
     0
  9
$DIMTFAC
 40
1.0
  9
$DIMGAP
 40
5.0
  9
$DIMJUST
 70
     0
  9
$DIMSD1
 70
     0
  9
$DIMSD2
 70
     0
  9
$DIMTOLJ
 70
     1
  9
$DIMTZIN
 70
    11
  9
$DIMALTZ
 70
    11
  9
$DIMALTTZ
 70
    11
  9
$DIMUPT
 70
     0
  9
$DIMDEC
 70
     0
  9
$DIMTDEC
 70
     1
  9
$DIMALTU
 70
     2
  9
$DIMALTTD
 70
     2
  9
$DIMTXSTY
  7
ＭＳ ゴシック
  9
$DIMAUNIT
 70
     0
  9
$DIMADEC
 70
     2
  9
$DIMALTRND
 40
0.0
  9
$DIMAZIN
 70
     0
  9
$DIMDSEP
 70
    46
  9
$DIMATFIT
 70
     0
  9
$DIMFRAC
 70
     2
  9
$DIMLDRBLK
  1
DOT
  9
$DIMLUNIT
 70
     2
  9
$DIMLWD
 70
    -2
  9
$DIMLWE
 70
    -2
  9
$DIMTMOVE
 70
     0
  9
$DIMFXL
 40
1.0
  9
$DIMFXLON
 70
     0
  9
$DIMJOGANG
 40
0.7853981633974483
  9
$DIMTFILL
 70
     0
  9
$DIMTFILLCLR
 70
     0
  9
$DIMARCSYM
 70
     0
  9
$DIMLTYPE
  6

  9
$DIMLTEX1
  6

  9
$DIMLTEX2
  6

  9
$LUNITS
 70
     2
  9
$LUPREC
 70
     0
  9
$SKETCHINC
 40
0.1
  9
$FILLETRAD
 40
0.0
  9
$AUNITS
 70
     0
  9
$AUPREC
 70
     0
  9
$MENU
  1
acad
  9
$ELEVATION
 40
0.0
  9
$PELEVATION
 40
0.0
  9
$THICKNESS
 40
0.0
  9
$LIMCHECK
 70
     0
  9
$CHAMFERA
 40
0.0
  9
$CHAMFERB
 40
0.0
  9
$CHAMFERC
 40
0.0
  9
$CHAMFERD
 40
0.0
  9
$SKPOLY
 70
     0
  9
$TDCREATE
 40
2447893.375
  9
$TDUCREATE
 40
0.0
  9
$TDUPDATE
 40
2457490.633666204
  9
$TDUUPDATE
 40
2457490.258666204
  9
$TDINDWG
 40
0.6050893981
  9
$TDUSRTIMER
 40
2457490.258453287
  9
$USRTIMER
 70
     1
  9
$ANGBASE
 50
0.0
  9
$ANGDIR
 70
     0
  9
$PDMODE
 70
     1
  9
$PDSIZE
 40
-2.0
  9
$PLINEWID
 40
0.0
  9
$SPLFRAME
 70
     0
  9
$SPLINETYPE
 70
     6
  9
$SPLINESEGS
 70
     8
  9
$HANDSEED
  5
44C8
  9
$SURFTAB1
 70
     6
  9
$SURFTAB2
 70
     6
  9
$SURFTYPE
 70
     6
  9
$SURFU
 70
     6
  9
$SURFV
 70
     6
  9
$UCSBASE
  2

  9
$UCSNAME
  2

  9
$UCSORG
 10
0.0
 20
0.0
 30
0.0
  9
$UCSXDIR
 10
1.0
 20
0.0
 30
0.0
  9
$UCSYDIR
 10
0.0
 20
1.0
 30
0.0
  9
$UCSORTHOREF
  2

  9
$UCSORTHOVIEW
 70
     1
  9
$UCSORGTOP
 10
0.0
 20
0.0
 30
0.0
  9
$UCSORGBOTTOM
 10
0.0
 20
0.0
 30
0.0
  9
$UCSORGLEFT
 10
0.0
 20
0.0
 30
0.0
  9
$UCSORGRIGHT
 10
0.0
 20
0.0
 30
0.0
  9
$UCSORGFRONT
 10
0.0
 20
0.0
 30
0.0
  9
$UCSORGBACK
 10
0.0
 20
0.0
 30
0.0
  9
$PUCSBASE
  2

  9
$PUCSNAME
  2

  9
$PUCSORG
 10
0.0
 20
0.0
 30
0.0
  9
$PUCSXDIR
 10
1.0
 20
0.0
 30
0.0
  9
$PUCSYDIR
 10
0.0
 20
1.0
 30
0.0
  9
$PUCSORTHOREF
  2

  9
$PUCSORTHOVIEW
 70
     0
  9
$PUCSORGTOP
 10
0.0
 20
0.0
 30
0.0
  9
$PUCSORGBOTTOM
 10
0.0
 20
0.0
 30
0.0
  9
$PUCSORGLEFT
 10
0.0
 20
0.0
 30
0.0
  9
$PUCSORGRIGHT
 10
0.0
 20
0.0
 30
0.0
  9
$PUCSORGFRONT
 10
0.0
 20
0.0
 30
0.0
  9
$PUCSORGBACK
 10
0.0
 20
0.0
 30
0.0
  9
$USERI1
 70
     0
  9
$USERI2
 70
     0
  9
$USERI3
 70
     0
  9
$USERI4
 70
     0
  9
$USERI5
 70
     0
  9
$USERR1
 40
0.0
  9
$USERR2
 40
0.0
  9
$USERR3
 40
0.0
  9
$USERR4
 40
0.0
  9
$USERR5
 40
0.0
  9
$WORLDVIEW
 70
     1
  9
$SHADEDGE
 70
     3
  9
$SHADEDIF
 70
    70
  9
$TILEMODE
 70
     1
  9
$MAXACTVP
 70
    64
  9
$PINSBASE
 10
0.0
 20
0.0
 30
0.0
  9
$PLIMCHECK
 70
     0
  9
$PEXTMIN
 10
0.0
 20
0.0
 30
0.0
  9
$PEXTMAX
 10
0.0
 20
0.0
 30
0.0
  9
$PLIMMIN
 10
-95.87226993865028
 20
-25.69999999999999
  9
$PLIMMAX
 10
201.1277300613497
 20
184.3
  9
$UNITMODE
 70
     0
  9
$VISRETAIN
 70
     0
  9
$PLINEGEN
 70
     1
  9
$PSLTSCALE
 70
     0
  9
$TREEDEPTH
 70
  3020
  9
$CMLSTYLE
  2
Standard
  9
$CMLJUST
 70
     0
  9
$CMLSCALE
 40
1.0
  9
$PROXYGRAPHICS
 70
     0
  9
$MEASUREMENT
 70
     1
  9
$CELWEIGHT
370
    -1
  9
$ENDCAPS
280
     0
  9
$JOINSTYLE
280
     0
  9
$LWDISPLAY
290
     1
  9
$INSUNITS
 70
     4
  9
$HYPERLINKBASE
  1

  9
$STYLESHEET
  1

  9
$XEDIT
290
     1
  9
$CEPSNTYPE
380
     0
  9
$PSTYLEMODE
290
     1
  9
$FINGERPRINTGUID
  2

  9
$VERSIONGUID
  2

  9
$EXTNAMES
290
     1
  9
$PSVPSCALE
 40
0.0
  9
$OLESTARTUP
290
     0
  9
$SORTENTS
280
   127
  9
$INDEXCTL
280
     0
  9
$HIDETEXT
280
     1
  9
$XCLIPFRAME
290
     0
  9
$HALOGAP
280
     0
  9
$OBSCOLOR
 70
   257
  9
$OBSLTYPE
280
     0
  9
$INTERSECTIONDISPLAY
280
     0
  9
$INTERSECTIONCOLOR
 70
   257
  9
$DIMASSOC
280
     2
  9
$PROJECTNAME
  1

  9
$CAMERADISPLAY
290
     0
  9
$LENSLENGTH
 40
50.0
  9
$CAMERAHEIGHT
 40
0.0
  9
$STEPSPERSEC
 40
2.0
  9
$STEPSIZE
 40
6.0
  9
$3DDWFPREC
 40
2.0
  9
$PSOLWIDTH
 40
0.25
  9
$PSOLHEIGHT
 40
4.0
  9
$LOFTANG1
 40
1.570796326794897
  9
$LOFTANG2
 40
1.570796326794897
  9
$LOFTMAG1
 40
0.0
  9
$LOFTMAG2
 40
0.0
  9
$LOFTPARAM
 70
     7
  9
$LOFTNORMALS
280
     1
  9
$LATITUDE
 40
37.795
  9
$LONGITUDE
 40
-122.394
  9
$NORTHDIRECTION
 40
0.0
  9
$TIMEZONE
 70
 -8000
  9
$LIGHTGLYPHDISPLAY
280
     1
  9
$TILEMODELIGHTSYNCH
280
     1
  9
$SOLIDHIST
280
     1
  9
$SHOWHIST
280
     1
  9
$DWFFRAME
280
     2
  9
$DGNFRAME
280
     2
  9
$REALWORLDSCALE
290
     1
  9
$INTERFERECOLOR
 62
   256
  9
$CSHADOW
280
     0
  9
$SHADOWPLANELOCATION
 40
0.0
  0
ENDSEC
  0
SECTION
  2
CLASSES
  0
CLASS
  1
LWPOLYLINE
  2
AcDbPolyline
  3
ObjectDBX Classes
 90
        0
 91
        1
280
     0
281
     1
  0
CLASS
  1
IMAGE
  2
AcDbRasterImage
  3
ISM
 90
      127
 91
        8
280
     0
281
     1
  0
CLASS
  1
OLE2FRAME
  2
AcDbOle2Frame
  3
ObjectDBX Classes
 90
        0
 91
        1
280
     0
281
     1
  0
CLASS
  1
HATCH
  2
AcDbHatch
  3
ObjectDBX Classes
 90
        0
 91
        1
280
     0
281
     1
  0
CLASS
  1
DICTIONARYVAR
  2
AcDbDictionaryVar
  3
ObjectDBX Classes
 90
        0
 91
        7
280
     0
281
     0
  0
CLASS
  1
RASTERVARIABLES
  2
AcDbRasterVariables
  3
ISM
 90
        0
 91
        7
280
     0
281
     0
  0
CLASS
  1
IMAGEDEF
  2
AcDbRasterImageDef
  3
ISM
 90
        0
 91
        7
280
     0
281
     0
  0
CLASS
  1
IMAGEDEF_REACTOR
  2
AcDbRasterImageDefReactor
  3
ISM
 90
        1
 91
        7
280
     0
281
     0
  0
CLASS
  1
IDBUFFER
  2
AcDbIdBuffer
  3
ObjectDBX Classes
 90
        0
 91
        7
280
     0
281
     0
  0
CLASS
  1
SPATIAL_FILTER
  2
AcDbSpatialFilter
  3
ObjectDBX Classes
 90
        0
 91
        7
280
     0
281
     0
  0
CLASS
  1
XRECORD
  2
AcDbXrecord
  3
ObjectDBX Classes
 90
        0
 91
        1
280
     0
281
     0
  0
CLASS
  1
SORTENTSTABLE
  2
AcDbSortentsTable
  3
ObjectDBX Classes
 90
        0
 91
        7
280
     0
281
     0
  0
CLASS
  1
LAYER_INDEX
  2
AcDbLayerIndex
  3
ObjectDBX Classes
 90
        0
 91
        7
280
     0
281
     0
  0
CLASS
  1
SPATIAL_INDEX
  2
AcDbSpatialIndex
  3
AutoCAD 2000
 90
        0
 91
        7
280
     0
281
     0
  0
CLASS
  1
OBJECT_PTR
  2
CAseDLPNTableRecord
  3
ASE-LPNTableRecord
 90
        1
 91
        7
280
     0
281
     0
  0
CLASS
  1
LAYOUT
  2
AcDbLayout
  3
ObjectDBX Classes
 90
        0
 91
        1
280
     0
281
     0
  0
CLASS
  1
PLOTSETTINGS
  2
AcDbPlotSettings
  3
ObjectDBX Classes
 90
        0
 91
        7
280
     0
281
     0
  0
CLASS
  1
ACDBDICTIONARYWDFLT
  2
AcDbDictionaryWithDefault
  3
ObjectDBX Classes
 90
        0
 91
        7
280
     0
281
     0
  0
CLASS
  1
ACDBPLACEHOLDER
  2
AcDbPlaceHolder
  3
ObjectDBX Classes
 90
        0
 91
        1
280
     0
281
     0
  0
CLASS
  1
SCALE
  2
AcDbScale
  3
ObjectDBX Classes
 90
     1153
 91
        7
280
     0
281
     0
  0
CLASS
  1
MATERIAL
  2
AcDbMaterial
  3
ObjectDBX Classes
 90
     1153
 91
        7
280
     0
281
     0
  0
CLASS
  1
VISUALSTYLE
  2
AcDbVisualStyle
  3
ObjectDBX Classes
 90
     4095
 91
        7
280
     0
281
     0
  0
CLASS
  1
TABLESTYLE
  2
AcDbTableStyle
  3
ObjectDBX Classes
 90
     4095
 91
        7
280
     0
281
     0
  0
CLASS
  1
DIMASSOC
  2
AcDbDimAssoc
  3
"AcDbDimAssoc|Product Desc:     AcDim ARX App For Dimension|Company:          Autodesk, Inc.|WEB Address:      www.autodesk.com"
 90
        0
 91
        7
280
     0
281
     0
  0
CLASS
  1
CELLSTYLEMAP
  2
AcDbCellStyleMap
  3
ObjectDBX Classes
 90
     1152
 91
        7
280
     0
281
     0
  0
CLASS
  1
SUN
  2
AcDbSun
  3
SCENEOE
 90
     1153
 91
        7
280
     0
281
     0
  0
CLASS
  1
MLEADERSTYLE
  2
AcDbMLeaderStyle
  3
ACDB_MLEADERSTYLE_CLASS
 90
     4095
 91
        7
280
     0
281
     0
  0
ENDSEC
  0
SECTION
  2
TABLES
  0
TABLE
  2
VPORT
  5
7
330
0
100
AcDbSymbolTable
 70
     1
  0
VPORT
  5
15
330
7
100
AcDbSymbolTableRecord
100
AcDbViewportTableRecord
  2
*ACTIVE
 70
     0
 10
0.0
 20
0.0
 11
1.0
 21
1.0
 12
296.9999999999999
 22
210.0
 13
0.0
 23
0.0
 14
1.0
 24
1.0
 15
0.0
 25
0.0
 16
0.0
 26
0.0
 36
1.0
 17
0.0
 27
0.0
 37
0.0
 40
428.4
 41
2.429403202328967
 42
50.0
 43
0.0
 44
0.0
 50
0.0
 51
0.0
 71
    16
 72
  2000
 73
     1
 74
     1
 75
     0
 76
     0
 77
     0
 78
     0
281
     0
 65
     0
110
0.0
120
0.0
130
0.0
111
1.0
121
0.0
131
0.0
112
0.0
122
1.0
132
0.0
 79
     0
146
0.0
348
26C
 60
     3
 61
     5
292
     1
282
     1
141
0.0
142
0.0
 63
   256
361
10E8
  0
ENDTAB
  0
TABLE
  2
LTYPE
  5
4
330
0
100
AcDbSymbolTable
 70
     3
  0
LTYPE
  5
11
330
4
100
AcDbSymbolTableRecord
100
AcDbLinetypeTableRecord
  2
ByBlock
 70
     0
  3

 72
    65
 73
     0
 40
0.0
  0
LTYPE
  5
12
330
4
100
AcDbSymbolTableRecord
100
AcDbLinetypeTableRecord
  2
ByLayer
 70
     0
  3
Solid line
 72
    65
 73
     0
 40
0.0
  0
LTYPE
  5
13
330
4
100
AcDbSymbolTableRecord
100
AcDbLinetypeTableRecord
  2
Continuous
 70
     0
  3
Solid line
 72
    65
 73
     0
 40
0.0
  0
LTYPE
  5
88D
330
4
100
AcDbSymbolTableRecord
100
AcDbLinetypeTableRecord
  2
CENTER
 70
     0
  3
----------  --  ----------  --  
 72
    65
 73
     4
 40
20.0
 49
12.5
 74
     0
 49
-2.5
 74
     0
 49
2.5
 74
     0
 49
-2.5
 74
     0
  0
LTYPE
  5
12C7
330
4
100
AcDbSymbolTableRecord
100
AcDbLinetypeTableRecord
  2
HIDDEN
 70
     0
  3
Hidden _ _ _ _ _ _ _ _ _ _ _ _ _ _ _ _ _ _ _ _ 
 72
    65
 73
     2
 40
9.524999999999999
 49
6.35
 74
     0
 49
-3.175
 74
     0
  0
ENDTAB
  0
TABLE
  2
LAYER
  5
2
102
{ACAD_XDICTIONARY
360
2E1
102
}
330
0
100
AcDbSymbolTable
 70
     9
  0
LAYER
  5
14
330
2
100
AcDbSymbolTableRecord
100
AcDbLayerTableRecord
  2
0
 70
     0
 62
     7
  6
Continuous
370
    -3
390
1D
347
266
  0
LAYER
  5
4A
330
2
100
AcDbSymbolTableRecord
100
AcDbLayerTableRecord
  2
Defpoints
 70
     0
 62
     7
  6
Continuous
290
     0
370
    -3
390
1D
347
266
  0
LAYER
  5
12CE
330
2
100
AcDbSymbolTableRecord
100
AcDbLayerTableRecord
  2
寸法
 70
     0
 62
     7
  6
Continuous
370
    13
390
1D
347
266
1001
AcAecLayerStandard
1000

1000

  0
LAYER
  5
12CF
330
2
100
AcDbSymbolTableRecord
100
AcDbLayerTableRecord
  2
モデル
 70
     0
 62
     7
  6
Continuous
370
    20
390
1D
347
266
1001
AcAecLayerStandard
1000

1000

  0
LAYER
  5
142A
330
2
100
AcDbSymbolTableRecord
100
AcDbLayerTableRecord
  2
テンプレート
 70
     0
 62
     7
  6
Continuous
370
    20
390
1D
347
266
1001
AcAecLayerStandard
1000

1000

  0
LAYER
  5
1D5C
330
2
100
AcDbSymbolTableRecord
100
AcDbLayerTableRecord
  2
TFORMLOGO
 70
     0
 62
     7
  6
Continuous
370
    20
390
1D
347
266
  0
LAYER
  5
3848
330
2
100
AcDbSymbolTableRecord
100
AcDbLayerTableRecord
  2
PRINT BORDER
 70
     0
 62
    -4
  6
Continuous
370
    -3
390
1D
347
266
1001
AcAecLayerStandard
1000

1000

  0
LAYER
  5
387B
330
2
100
AcDbSymbolTableRecord
100
AcDbLayerTableRecord
  2
レイヤー 2
 70
     0
 62
     7
  6
Continuous
370
    -3
390
1D
347
266
  0
LAYER
  5
3B73
330
2
100
AcDbSymbolTableRecord
100
AcDbLayerTableRecord
  2
Laag 1
 70
     0
 62
     7
  6
Continuous
370
    -3
390
1D
347
266
  0
ENDTAB
  0
TABLE
  2
STYLE
  5
3
330
0
100
AcDbSymbolTable
 70
     2
  0
STYLE
  5
17
330
3
100
AcDbSymbolTableRecord
100
AcDbTextStyleTableRecord
  2
Standard
 70
     0
 40
0.0
 41
1.0
 50
0.0
 71
     0
 42
2.5
  3
txt
  4
BIGFONT.SHX
  0
STYLE
  5
39
330
3
100
AcDbSymbolTableRecord
100
AcDbTextStyleTableRecord
  2
ＭＳ ゴシック
 70
     0
 40
0.0
 41
1.0
 50
0.0
 71
     0
 42
136.139079520063
  3
msgothic.ttc
  4
ＭＳ ゴシック
1001
ACAD
1000
ＭＳ ゴシック
1071
        0
  0
ENDTAB
  0
TABLE
  2
VIEW
  5
5
330
0
100
AcDbSymbolTable
 70
     0
  0
ENDTAB
  0
TABLE
  2
UCS
  5
6
330
0
100
AcDbSymbolTable
 70
     0
  0
ENDTAB
  0
TABLE
  2
APPID
  5
8
330
0
100
AcDbSymbolTable
 70
     3
  0
APPID
  5
16
330
8
100
AcDbSymbolTableRecord
100
AcDbRegAppTableRecord
  2
ACAD
 70
     0
  0
APPID
  5
7AC
330
8
100
AcDbSymbolTableRecord
100
AcDbRegAppTableRecord
  2
AcAecLayerStandard
 70
     0
  0
APPID
  5
446A
330
8
100
AcDbSymbolTableRecord
100
AcDbRegAppTableRecord
  2
ACAD_MLEADERVER
 70
     0
  0
ENDTAB
  0
TABLE
  2
DIMSTYLE
  5
9
330
0
100
AcDbSymbolTable
 70
     2
100
AcDbDimStyleTable
  0
DIMSTYLE
105
18
330
9
100
AcDbSymbolTableRecord
100
AcDbDimStyleTableRecord
  2
Standard
 70
     0
178
     0
340
17
  0
DIMSTYLE
105
57
102
{ACAD_REACTORS
330
417B
330
417E
330
4181
330
4184
330
4187
330
418D
330
4190
330
4288
330
42AD
330
42C6
330
42DE
330
4390
330
43B9
330
43DC
102
}
330
9
100
AcDbSymbolTableRecord
100
AcDbDimStyleTableRecord
  2
tfrom線あり
 70
     0
  3
<>
  4
[]
 41
2.0
 42
5.0
 43
0.9999999999999999
 44
0.0
 73
     0
 74
     0
 77
     1
 78
    11
140
5.0
141
0.0
143
1.0
147
5.0
171
     1
174
     1
178
     0
179
     2
271
     0
272
     1
276
     2
284
    11
285
    11
286
    11
289
     0
340
39
341
4E
342
4E
  0
ENDTAB
  0
TABLE
  2
BLOCK_RECORD
  5
1
330
0
100
AcDbSymbolTable
 70
    91
  0
BLOCK_RECORD
  5
A
330
1
100
AcDbSymbolTableRecord
100
AcDbBlockTableRecord
  2
*MODEL_SPACE
340
20
 70
     0
280
     1
281
     0
  0
BLOCK_RECORD
  5
B
330
1
100
AcDbSymbolTableRecord
100
AcDbBlockTableRecord
  2
*PAPER_SPACE
340
21
 70
     0
280
     1
281
     0
  0
BLOCK_RECORD
  5
4E
330
1
100
AcDbSymbolTableRecord
100
AcDbBlockTableRecord
  2
_DOT
340
0
102
{BLKREFS
331
37E4
331
37E5
331
37F0
331
37F1
331
37FC
331
37FD
331
3808
331
3809
331
3814
331
3815
331
3820
331
3821
331
382C
331
382D
331
3838
331
3839
331
3964
331
3965
331
3973
331
3974
331
3982
331
3983
331
3991
331
3992
331
399E
331
399F
331
39AD
331
39AE
331
39BC
331
39BD
331
39CB
331
39CC
331
39E7
331
39E8
331
39F6
331
39F7
331
3AE6
331
3AE7
331
3AF2
331
3AF3
331
3AFE
331
3AFF
331
3B0A
331
3B0B
331
3B16
331
3B17
331
3B22
331
3B23
331
3B2E
331
3B2F
331
3B3A
331
3B3B
331
3B46
331
3B47
331
3B52
331
3B53
331
3C1C
331
3C1D
331
3C2B
331
3C2C
331
3C38
331
3C39
331
3C45
331
3C46
331
3C52
331
3C53
331
3C6A
331
3C6B
331
3C77
331
3C78
331
3D14
331
3D15
331
3D20
331
3D21
331
3D2C
331
3D2D
331
3D38
331
3D39
331
3D44
331
3D45
331
3D50
331
3D51
331
3D5C
331
3D5D
331
3DE0
331
3DE1
331
3DED
331
3DEE
331
3E07
331
3E08
331
3E16
331
3E17
331
3E25
331
3E26
331
3E34
331
3E35
331
3E43
331
3E44
331
3E9B
331
3E9C
331
3EA7
331
3EA8
331
3EB3
331
3EB4
331
3EBF
331
3EC0
331
3ECB
331
3ECC
331
3ED7
331
3ED8
331
3EE3
331
3EE4
331
3FEE
331
3FEF
331
3FFD
331
3FFE
331
400C
331
400D
331
401B
331
401C
331
402A
331
402B
331
4039
331
403A
331
4046
331
4047
331
4057
331
4058
331
41F4
331
41F5
331
4200
331
4201
331
420C
331
420D
331
4218
331
4219
331
4224
331
4225
331
4231
331
4232
331
423C
331
423D
331
4248
331
4249
331
4291
331
4292
331
42A6
331
42A7
331
42B4
331
42B5
331
42CF
331
42D0
331
42E5
331
42E6
331
4376
331
4377
331
4389
331
438A
331
4397
331
4398
331
43C2
331
43C3
331
43D6
331
43D7
331
43E5
331
43E6
102
}
 70
     0
280
     1
281
     0
  0
BLOCK_RECORD
  5
12C3
330
1
100
AcDbSymbolTableRecord
100
AcDbBlockTableRecord
  2
*Paper_Space1
340
12C4
 70
     0
280
     1
281
     0
  0
BLOCK_RECORD
  5
1D88
330
1
100
AcDbSymbolTableRecord
100
AcDbBlockTableRecord
  2
名称未設定-1
340
0
102
{BLKREFS
331
36E3
102
}
 70
     1
280
     1
281
     0
  0
BLOCK_RECORD
  5
1D8B
330
1
100
AcDbSymbolTableRecord
100
AcDbBlockTableRecord
  2
block 2
340
0
102
{BLKREFS
331
1D8A
102
}
 70
     0
280
     1
281
     0
  0
BLOCK_RECORD
  5
1D8E
330
1
100
AcDbSymbolTableRecord
100
AcDbBlockTableRecord
  2
block 3
340
0
102
{BLKREFS
331
1D8D
102
}
 70
     0
280
     1
281
     0
  0
BLOCK_RECORD
  5
1D91
330
1
100
AcDbSymbolTableRecord
100
AcDbBlockTableRecord
  2
block 4
340
0
102
{BLKREFS
331
1D90
102
}
 70
     0
280
     1
281
     0
  0
BLOCK_RECORD
  5
1DA0
330
1
100
AcDbSymbolTableRecord
100
AcDbBlockTableRecord
  2
block 5
340
0
102
{BLKREFS
331
1D9F
102
}
 70
     0
280
     1
281
     0
  0
BLOCK_RECORD
  5
37DF
330
1
100
AcDbSymbolTableRecord
100
AcDbBlockTableRecord
  2
*D7
340
0
 70
     0
280
     1
281
     0
  0
BLOCK_RECORD
  5
37EA
330
1
100
AcDbSymbolTableRecord
100
AcDbBlockTableRecord
  2
*D8
340
0
 70
     0
280
     1
281
     0
  0
BLOCK_RECORD
  5
37F6
330
1
100
AcDbSymbolTableRecord
100
AcDbBlockTableRecord
  2
*D9
340
0
 70
     0
280
     1
281
     0
  0
BLOCK_RECORD
  5
3802
330
1
100
AcDbSymbolTableRecord
100
AcDbBlockTableRecord
  2
*D10
340
0
 70
     0
280
     1
281
     0
  0
BLOCK_RECORD
  5
380E
330
1
100
AcDbSymbolTableRecord
100
AcDbBlockTableRecord
  2
*D11
340
0
 70
     0
280
     1
281
     0
  0
BLOCK_RECORD
  5
381A
330
1
100
AcDbSymbolTableRecord
100
AcDbBlockTableRecord
  2
*D12
340
0
 70
     0
280
     1
281
     0
  0
BLOCK_RECORD
  5
3826
330
1
100
AcDbSymbolTableRecord
100
AcDbBlockTableRecord
  2
*D13
340
0
 70
     0
280
     1
281
     0
  0
BLOCK_RECORD
  5
3832
330
1
100
AcDbSymbolTableRecord
100
AcDbBlockTableRecord
  2
*D14
340
0
 70
     0
280
     1
281
     0
  0
BLOCK_RECORD
  5
395F
330
1
100
AcDbSymbolTableRecord
100
AcDbBlockTableRecord
  2
*D15
340
0
 70
     0
280
     1
281
     0
  0
BLOCK_RECORD
  5
396E
330
1
100
AcDbSymbolTableRecord
100
AcDbBlockTableRecord
  2
*D16
340
0
 70
     0
280
     1
281
     0
  0
BLOCK_RECORD
  5
397D
330
1
100
AcDbSymbolTableRecord
100
AcDbBlockTableRecord
  2
*D17
340
0
 70
     0
280
     1
281
     0
  0
BLOCK_RECORD
  5
398C
330
1
100
AcDbSymbolTableRecord
100
AcDbBlockTableRecord
  2
*D18
340
0
 70
     0
280
     1
281
     0
  0
BLOCK_RECORD
  5
3999
330
1
100
AcDbSymbolTableRecord
100
AcDbBlockTableRecord
  2
*D19
340
0
 70
     0
280
     1
281
     0
  0
BLOCK_RECORD
  5
39A8
330
1
100
AcDbSymbolTableRecord
100
AcDbBlockTableRecord
  2
*D20
340
0
 70
     0
280
     1
281
     0
  0
BLOCK_RECORD
  5
39B7
330
1
100
AcDbSymbolTableRecord
100
AcDbBlockTableRecord
  2
*D21
340
0
 70
     0
280
     1
281
     0
  0
BLOCK_RECORD
  5
39C6
330
1
100
AcDbSymbolTableRecord
100
AcDbBlockTableRecord
  2
*D22
340
0
 70
     0
280
     1
281
     0
  0
BLOCK_RECORD
  5
39E2
330
1
100
AcDbSymbolTableRecord
100
AcDbBlockTableRecord
  2
*D23
340
0
 70
     0
280
     1
281
     0
  0
BLOCK_RECORD
  5
39F1
330
1
100
AcDbSymbolTableRecord
100
AcDbBlockTableRecord
  2
*D24
340
0
 70
     0
280
     1
281
     0
  0
BLOCK_RECORD
  5
3AE0
330
1
100
AcDbSymbolTableRecord
100
AcDbBlockTableRecord
  2
*D25
340
0
 70
     0
280
     1
281
     0
  0
BLOCK_RECORD
  5
3AEC
330
1
100
AcDbSymbolTableRecord
100
AcDbBlockTableRecord
  2
*D26
340
0
 70
     0
280
     1
281
     0
  0
BLOCK_RECORD
  5
3AF8
330
1
100
AcDbSymbolTableRecord
100
AcDbBlockTableRecord
  2
*D27
340
0
 70
     0
280
     1
281
     0
  0
BLOCK_RECORD
  5
3B04
330
1
100
AcDbSymbolTableRecord
100
AcDbBlockTableRecord
  2
*D28
340
0
 70
     0
280
     1
281
     0
  0
BLOCK_RECORD
  5
3B10
330
1
100
AcDbSymbolTableRecord
100
AcDbBlockTableRecord
  2
*D29
340
0
 70
     0
280
     1
281
     0
  0
BLOCK_RECORD
  5
3B1C
330
1
100
AcDbSymbolTableRecord
100
AcDbBlockTableRecord
  2
*D30
340
0
 70
     0
280
     1
281
     0
  0
BLOCK_RECORD
  5
3B28
330
1
100
AcDbSymbolTableRecord
100
AcDbBlockTableRecord
  2
*D31
340
0
 70
     0
280
     1
281
     0
  0
BLOCK_RECORD
  5
3B34
330
1
100
AcDbSymbolTableRecord
100
AcDbBlockTableRecord
  2
*D32
340
0
 70
     0
280
     1
281
     0
  0
BLOCK_RECORD
  5
3B40
330
1
100
AcDbSymbolTableRecord
100
AcDbBlockTableRecord
  2
*D33
340
0
 70
     0
280
     1
281
     0
  0
BLOCK_RECORD
  5
3B4C
330
1
100
AcDbSymbolTableRecord
100
AcDbBlockTableRecord
  2
*D34
340
0
 70
     0
280
     1
281
     0
  0
BLOCK_RECORD
  5
3C17
330
1
100
AcDbSymbolTableRecord
100
AcDbBlockTableRecord
  2
*D35
340
0
 70
     0
280
     1
281
     0
  0
BLOCK_RECORD
  5
3C26
330
1
100
AcDbSymbolTableRecord
100
AcDbBlockTableRecord
  2
*D36
340
0
 70
     0
280
     1
281
     0
  0
BLOCK_RECORD
  5
3C33
330
1
100
AcDbSymbolTableRecord
100
AcDbBlockTableRecord
  2
*D37
340
0
 70
     0
280
     1
281
     0
  0
BLOCK_RECORD
  5
3C40
330
1
100
AcDbSymbolTableRecord
100
AcDbBlockTableRecord
  2
*D38
340
0
 70
     0
280
     1
281
     0
  0
BLOCK_RECORD
  5
3C4D
330
1
100
AcDbSymbolTableRecord
100
AcDbBlockTableRecord
  2
*D39
340
0
 70
     0
280
     1
281
     0
  0
BLOCK_RECORD
  5
3C65
330
1
100
AcDbSymbolTableRecord
100
AcDbBlockTableRecord
  2
*D40
340
0
 70
     0
280
     1
281
     0
  0
BLOCK_RECORD
  5
3C72
330
1
100
AcDbSymbolTableRecord
100
AcDbBlockTableRecord
  2
*D41
340
0
 70
     0
280
     1
281
     0
  0
BLOCK_RECORD
  5
3D0E
330
1
100
AcDbSymbolTableRecord
100
AcDbBlockTableRecord
  2
*D42
340
0
 70
     0
280
     1
281
     0
  0
BLOCK_RECORD
  5
3D1A
330
1
100
AcDbSymbolTableRecord
100
AcDbBlockTableRecord
  2
*D43
340
0
 70
     0
280
     1
281
     0
  0
BLOCK_RECORD
  5
3D26
330
1
100
AcDbSymbolTableRecord
100
AcDbBlockTableRecord
  2
*D44
340
0
 70
     0
280
     1
281
     0
  0
BLOCK_RECORD
  5
3D32
330
1
100
AcDbSymbolTableRecord
100
AcDbBlockTableRecord
  2
*D45
340
0
 70
     0
280
     1
281
     0
  0
BLOCK_RECORD
  5
3D3E
330
1
100
AcDbSymbolTableRecord
100
AcDbBlockTableRecord
  2
*D46
340
0
 70
     0
280
     1
281
     0
  0
BLOCK_RECORD
  5
3D4A
330
1
100
AcDbSymbolTableRecord
100
AcDbBlockTableRecord
  2
*D47
340
0
 70
     0
280
     1
281
     0
  0
BLOCK_RECORD
  5
3D56
330
1
100
AcDbSymbolTableRecord
100
AcDbBlockTableRecord
  2
*D48
340
0
 70
     0
280
     1
281
     0
  0
BLOCK_RECORD
  5
3DDB
330
1
100
AcDbSymbolTableRecord
100
AcDbBlockTableRecord
  2
*D49
340
0
 70
     0
280
     1
281
     0
  0
BLOCK_RECORD
  5
3DE8
330
1
100
AcDbSymbolTableRecord
100
AcDbBlockTableRecord
  2
*D50
340
0
 70
     0
280
     1
281
     0
  0
BLOCK_RECORD
  5
3E02
330
1
100
AcDbSymbolTableRecord
100
AcDbBlockTableRecord
  2
*D51
340
0
 70
     0
280
     1
281
     0
  0
BLOCK_RECORD
  5
3E11
330
1
100
AcDbSymbolTableRecord
100
AcDbBlockTableRecord
  2
*D52
340
0
 70
     0
280
     1
281
     0
  0
BLOCK_RECORD
  5
3E20
330
1
100
AcDbSymbolTableRecord
100
AcDbBlockTableRecord
  2
*D53
340
0
 70
     0
280
     1
281
     0
  0
BLOCK_RECORD
  5
3E2F
330
1
100
AcDbSymbolTableRecord
100
AcDbBlockTableRecord
  2
*D54
340
0
 70
     0
280
     1
281
     0
  0
BLOCK_RECORD
  5
3E3E
330
1
100
AcDbSymbolTableRecord
100
AcDbBlockTableRecord
  2
*D55
340
0
 70
     0
280
     1
281
     0
  0
BLOCK_RECORD
  5
3E95
330
1
100
AcDbSymbolTableRecord
100
AcDbBlockTableRecord
  2
*D56
340
0
 70
     0
280
     1
281
     0
  0
BLOCK_RECORD
  5
3EA1
330
1
100
AcDbSymbolTableRecord
100
AcDbBlockTableRecord
  2
*D57
340
0
 70
     0
280
     1
281
     0
  0
BLOCK_RECORD
  5
3EAD
330
1
100
AcDbSymbolTableRecord
100
AcDbBlockTableRecord
  2
*D58
340
0
 70
     0
280
     1
281
     0
  0
BLOCK_RECORD
  5
3EB9
330
1
100
AcDbSymbolTableRecord
100
AcDbBlockTableRecord
  2
*D59
340
0
 70
     0
280
     1
281
     0
  0
BLOCK_RECORD
  5
3EC5
330
1
100
AcDbSymbolTableRecord
100
AcDbBlockTableRecord
  2
*D60
340
0
 70
     0
280
     1
281
     0
  0
BLOCK_RECORD
  5
3ED1
330
1
100
AcDbSymbolTableRecord
100
AcDbBlockTableRecord
  2
*D61
340
0
 70
     0
280
     1
281
     0
  0
BLOCK_RECORD
  5
3EDD
330
1
100
AcDbSymbolTableRecord
100
AcDbBlockTableRecord
  2
*D62
340
0
 70
     0
280
     1
281
     0
  0
BLOCK_RECORD
  5
3FE9
330
1
100
AcDbSymbolTableRecord
100
AcDbBlockTableRecord
  2
*D63
340
0
 70
     0
280
     1
281
     0
  0
BLOCK_RECORD
  5
3FF8
330
1
100
AcDbSymbolTableRecord
100
AcDbBlockTableRecord
  2
*D64
340
0
 70
     0
280
     1
281
     0
  0
BLOCK_RECORD
  5
4007
330
1
100
AcDbSymbolTableRecord
100
AcDbBlockTableRecord
  2
*D65
340
0
 70
     0
280
     1
281
     0
  0
BLOCK_RECORD
  5
4016
330
1
100
AcDbSymbolTableRecord
100
AcDbBlockTableRecord
  2
*D66
340
0
 70
     0
280
     1
281
     0
  0
BLOCK_RECORD
  5
4025
330
1
100
AcDbSymbolTableRecord
100
AcDbBlockTableRecord
  2
*D67
340
0
 70
     0
280
     1
281
     0
  0
BLOCK_RECORD
  5
4034
330
1
100
AcDbSymbolTableRecord
100
AcDbBlockTableRecord
  2
*D68
340
0
 70
     0
280
     1
281
     0
  0
BLOCK_RECORD
  5
4041
330
1
100
AcDbSymbolTableRecord
100
AcDbBlockTableRecord
  2
*D69
340
0
 70
     0
280
     1
281
     0
  0
BLOCK_RECORD
  5
4052
330
1
100
AcDbSymbolTableRecord
100
AcDbBlockTableRecord
  2
*D70
340
0
 70
     0
280
     1
281
     0
  0
BLOCK_RECORD
  5
41EE
330
1
100
AcDbSymbolTableRecord
100
AcDbBlockTableRecord
  2
*D71
340
0
 70
     0
280
     1
281
     0
  0
BLOCK_RECORD
  5
41FA
330
1
100
AcDbSymbolTableRecord
100
AcDbBlockTableRecord
  2
*D72
340
0
 70
     0
280
     1
281
     0
  0
BLOCK_RECORD
  5
4206
330
1
100
AcDbSymbolTableRecord
100
AcDbBlockTableRecord
  2
*D73
340
0
 70
     0
280
     1
281
     0
  0
BLOCK_RECORD
  5
4212
330
1
100
AcDbSymbolTableRecord
100
AcDbBlockTableRecord
  2
*D74
340
0
 70
     0
280
     1
281
     0
  0
BLOCK_RECORD
  5
421E
330
1
100
AcDbSymbolTableRecord
100
AcDbBlockTableRecord
  2
*D75
340
0
 70
     0
280
     1
281
     0
  0
BLOCK_RECORD
  5
422A
330
1
100
AcDbSymbolTableRecord
100
AcDbBlockTableRecord
  2
*D76
340
0
 70
     0
280
     1
281
     0
  0
BLOCK_RECORD
  5
4236
330
1
100
AcDbSymbolTableRecord
100
AcDbBlockTableRecord
  2
*D77
340
0
 70
     0
280
     1
281
     0
  0
BLOCK_RECORD
  5
4242
330
1
100
AcDbSymbolTableRecord
100
AcDbBlockTableRecord
  2
*D78
340
0
 70
     0
280
     1
281
     0
  0
BLOCK_RECORD
  5
428B
330
1
100
AcDbSymbolTableRecord
100
AcDbBlockTableRecord
  2
*D79
340
0
 70
     0
280
     1
281
     0
  0
BLOCK_RECORD
  5
429F
330
1
100
AcDbSymbolTableRecord
100
AcDbBlockTableRecord
  2
*D80
340
0
 70
     0
280
     1
281
     0
  0
BLOCK_RECORD
  5
42AE
330
1
100
AcDbSymbolTableRecord
100
AcDbBlockTableRecord
  2
*D81
340
0
 70
     0
280
     1
281
     0
  0
BLOCK_RECORD
  5
42C9
330
1
100
AcDbSymbolTableRecord
100
AcDbBlockTableRecord
  2
*D82
340
0
 70
     0
280
     1
281
     0
  0
BLOCK_RECORD
  5
42DF
330
1
100
AcDbSymbolTableRecord
100
AcDbBlockTableRecord
  2
*D83
340
0
 70
     0
280
     1
281
     0
  0
BLOCK_RECORD
  5
4371
330
1
100
AcDbSymbolTableRecord
100
AcDbBlockTableRecord
  2
*D84
340
0
 70
     0
280
     1
281
     0
  0
BLOCK_RECORD
  5
4383
330
1
100
AcDbSymbolTableRecord
100
AcDbBlockTableRecord
  2
*D85
340
0
 70
     0
280
     1
281
     0
  0
BLOCK_RECORD
  5
4391
330
1
100
AcDbSymbolTableRecord
100
AcDbBlockTableRecord
  2
*D86
340
0
 70
     0
280
     1
281
     0
  0
BLOCK_RECORD
  5
43BC
330
1
100
AcDbSymbolTableRecord
100
AcDbBlockTableRecord
  2
*D87
340
0
 70
     0
280
     1
281
     0
  0
BLOCK_RECORD
  5
43CF
330
1
100
AcDbSymbolTableRecord
100
AcDbBlockTableRecord
  2
*D88
340
0
 70
     0
280
     1
281
     0
  0
BLOCK_RECORD
  5
43DF
330
1
100
AcDbSymbolTableRecord
100
AcDbBlockTableRecord
  2
*D89
340
0
 70
     0
280
     1
281
     0
  0
ENDTAB
  0
ENDSEC
  0
SECTION
  2
BLOCKS
  0
BLOCK
  5
D
330
A
100
AcDbEntity
  8
0
390
1D
100
AcDbBlockBegin
  2
*MODEL_SPACE
 70
     0
 10
0.0
 20
0.0
 30
0.0
  3
*MODEL_SPACE
  1
*MODEL_SPACE
  0
ENDBLK
  5
E
330
A
100
AcDbEntity
  8
0
390
1D
100
AcDbBlockEnd
  0
BLOCK
  5
F
330
B
100
AcDbEntity
 67
     1
  8
0
390
1D
100
AcDbBlockBegin
  2
*PAPER_SPACE
 70
     0
 10
0.0
 20
0.0
 30
0.0
  3
*PAPER_SPACE
  1
*PAPER_SPACE
  0
ENDBLK
  5
10
330
B
100
AcDbEntity
 67
     1
  8
0
390
1D
100
AcDbBlockEnd
  0
BLOCK
  5
1066
330
4E
100
AcDbEntity
  8
0
390
1D
100
AcDbBlockBegin
  2
_DOT
 70
     0
 10
0.0
 20
0.0
 30
0.0
  3
_DOT
  1
_DOT
  0
POLYLINE
  5
1068
330
4E
100
AcDbEntity
  8
0
  6
ByBlock
 62
     0
370
    -2
390
1D
100
AcDb2dPolyline
 66
     1
 10
0.0
 20
0.0
 30
0.0
 70
     1
 40
0.5
 41
0.5
  0
VERTEX
  5
1069
330
1068
100
AcDbEntity
  8
0
  6
ByBlock
 62
     0
370
    -2
390
1D
100
AcDbVertex
100
AcDb2dVertex
 10
-0.25
 20
0.0
 30
0.0
 42
1.0
  0
VERTEX
  5
106A
330
1068
100
AcDbEntity
  8
0
  6
ByBlock
 62
     0
370
    -2
390
1D
100
AcDbVertex
100
AcDb2dVertex
 10
0.25
 20
0.0
 30
0.0
 42
1.0
  0
SEQEND
  5
106B
330
1068
100
AcDbEntity
  8
0
390
1D
  0
LINE
  5
106C
330
4E
100
AcDbEntity
  8
0
  6
ByBlock
 62
     0
370
    -2
390
1D
100
AcDbLine
 10
-0.5
 20
0.0
 30
0.0
 11
-1.0
 21
0.0
 31
0.0
  0
ENDBLK
  5
106D
330
4E
100
AcDbEntity
  8
0
390
1D
100
AcDbBlockEnd
  0
BLOCK
  5
12C5
330
12C3
100
AcDbEntity
  8
0
100
AcDbBlockBegin
  2
*Paper_Space1
 70
     0
 10
0.0
 20
0.0
 30
0.0
  3
*Paper_Space1
  1
*Paper_Space83
  0
ENDBLK
  5
12C6
330
12C3
100
AcDbEntity
  8
0
100
AcDbBlockEnd
  0
BLOCK
  5
1D89
330
1D88
100
AcDbEntity
  8
0
100
AcDbBlockBegin
  2
名称未設定-1
 70
     0
 10
0.0
 20
0.0
 30
0.0
  3
名称未設定-1
  1
名称未設定-1
  0
INSERT
  5
1D8A
330
1D88
100
AcDbEntity
  8
TFORMLOGO
100
AcDbBlockReference
  2
block 2
 10
0.0
 20
0.0
 30
0.0
  0
ENDBLK
  5
1DAF
330
1D88
100
AcDbEntity
  8
0
100
AcDbBlockEnd
  0
BLOCK
  5
1D8C
330
1D8B
100
AcDbEntity
  8
0
100
AcDbBlockBegin
  2
block 2
 70
     0
 10
0.0
 20
0.0
 30
0.0
  3
block 2
  1
block 2
  0
INSERT
  5
1D8D
330
1D8B
100
AcDbEntity
  8
TFORMLOGO
100
AcDbBlockReference
  2
block 3
 10
0.0
 20
0.0
 30
0.0
  0
ENDBLK
  5
1DAE
330
1D8B
100
AcDbEntity
  8
0
100
AcDbBlockEnd
  0
BLOCK
  5
1D8F
330
1D8E
100
AcDbEntity
  8
0
100
AcDbBlockBegin
  2
block 3
 70
     0
 10
0.0
 20
0.0
 30
0.0
  3
block 3
  1
block 3
  0
INSERT
  5
1D90
330
1D8E
100
AcDbEntity
  8
TFORMLOGO
100
AcDbBlockReference
  2
block 4
 10
0.0
 20
0.0
 30
0.0
  0
ENDBLK
  5
1DAD
330
1D8E
100
AcDbEntity
  8
0
100
AcDbBlockEnd
  0
BLOCK
  5
1D92
330
1D91
100
AcDbEntity
  8
0
100
AcDbBlockBegin
  2
block 4
 70
     0
 10
0.0
 20
0.0
 30
0.0
  3
block 4
  1
block 4
  0
POLYLINE
  5
1D93
330
1D91
100
AcDbEntity
  8
TFORMLOGO
370
     0
100
AcDb2dPolyline
 66
     1
 10
0.0
 20
0.0
 30
0.0
  0
VERTEX
  5
1D94
330
1D93
100
AcDbEntity
  8
TFORMLOGO
370
     0
100
AcDbVertex
100
AcDb2dVertex
 10
83.79545727667795
 20
167.6444858234922
 30
0.0
  0
VERTEX
  5
1D95
330
1D93
100
AcDbEntity
  8
TFORMLOGO
370
     0
100
AcDbVertex
100
AcDb2dVertex
 10
83.79545727667795
 20
159.7968976406313
 30
0.0
  0
VERTEX
  5
1D96
330
1D93
100
AcDbEntity
  8
TFORMLOGO
370
     0
100
AcDbVertex
100
AcDb2dVertex
 10
71.3631329975216
 20
159.7968976406313
 30
0.0
  0
VERTEX
  5
1D97
330
1D93
100
AcDbEntity
  8
TFORMLOGO
370
     0
100
AcDbVertex
100
AcDb2dVertex
 10
71.3631329975216
 20
127.8027915271048
 30
0.0
  0
VERTEX
  5
1D98
330
1D93
100
AcDbEntity
  8
TFORMLOGO
370
     0
100
AcDbVertex
100
AcDb2dVertex
 10
60.43011526263018
 20
127.8027915271048
 30
0.0
  0
VERTEX
  5
1D99
330
1D93
100
AcDbEntity
  8
TFORMLOGO
370
     0
100
AcDbVertex
100
AcDb2dVertex
 10
60.43011526263018
 20
159.7968976406313
 30
0.0
  0
VERTEX
  5
1D9A
330
1D93
100
AcDbEntity
  8
TFORMLOGO
370
     0
100
AcDbVertex
100
AcDb2dVertex
 10
48.21793273020759
 20
159.7968976406313
 30
0.0
  0
VERTEX
  5
1D9B
330
1D93
100
AcDbEntity
  8
TFORMLOGO
370
     0
100
AcDbVertex
100
AcDb2dVertex
 10
48.21793273020759
 20
167.6444858234922
 30
0.0
  0
VERTEX
  5
1D9C
330
1D93
100
AcDbEntity
  8
TFORMLOGO
370
     0
100
AcDbVertex
100
AcDb2dVertex
 10
83.79545727667795
 20
167.6444858234922
 30
0.0
  0
SEQEND
  5
1D9D
330
1D93
100
AcDbEntity
  8
TFORMLOGO
370
     0
  0
HATCH
  5
1D9E
330
1D91
100
AcDbEntity
  8
TFORMLOGO
 62
   250
420
  2234388
100
AcDbHatch
 10
0.0
 20
0.0
 30
0.0
210
0.0
220
0.0
230
1.0
  2
SOLID
 70
     1
 71
     0
 91
        1
 92
        1
 93
        8
 72
     1
 10
83.79545727667795
 20
167.6444858234922
 11
83.79545727667795
 21
159.7968976406313
 72
     1
 10
83.79545727667795
 20
159.7968976406313
 11
71.3631329975216
 21
159.7968976406313
 72
     1
 10
71.3631329975216
 20
159.7968976406313
 11
71.3631329975216
 21
127.8027915271048
 72
     1
 10
71.3631329975216
 20
127.8027915271048
 11
60.43011526263018
 21
127.8027915271048
 72
     1
 10
60.43011526263018
 20
127.8027915271048
 11
60.43011526263018
 21
159.7968976406313
 72
     1
 10
60.43011526263018
 20
159.7968976406313
 11
48.21793273020759
 21
159.7968976406313
 72
     1
 10
48.21793273020759
 20
159.7968976406313
 11
48.21793273020759
 21
167.6444858234922
 72
     1
 10
48.21793273020759
 20
167.6444858234922
 11
83.79545727667795
 21
167.6444858234922
 97
        0
 75
     2
 76
     1
 98
        0
  0
INSERT
  5
1D9F
330
1D91
100
AcDbEntity
  8
TFORMLOGO
100
AcDbBlockReference
  2
block 5
 10
0.0
 20
0.0
 30
0.0
  0
ENDBLK
  5
1DAC
330
1D91
100
AcDbEntity
  8
0
100
AcDbBlockEnd
  0
BLOCK
  5
1DA1
330
1DA0
100
AcDbEntity
  8
0
100
AcDbBlockBegin
  2
block 5
 70
     0
 10
0.0
 20
0.0
 30
0.0
  3
block 5
  1
block 5
  0
SPLINE
  5
1DA2
330
1DA0
100
AcDbEntity
  8
TFORMLOGO
370
     0
100
AcDbSpline
210
0.0
220
0.0
230
1.0
 70
    11
 71
     3
 72
    56
 73
    52
 74
     0
 42
0.000000001
 43
0.0000000001
 40
0.0
 40
0.0
 40
0.0
 40
0.0
 40
1.0
 40
1.0
 40
1.0
 40
2.0
 40
2.0
 40
2.0
 40
3.0
 40
3.0
 40
3.0
 40
4.0
 40
4.0
 40
4.0
 40
5.0
 40
5.0
 40
5.0
 40
6.0
 40
6.0
 40
6.0
 40
7.0
 40
7.0
 40
7.0
 40
8.0
 40
8.0
 40
8.0
 40
9.0
 40
9.0
 40
9.0
 40
10.0
 40
10.0
 40
10.0
 40
11.0
 40
11.0
 40
11.0
 40
12.0
 40
12.0
 40
12.0
 40
13.0
 40
13.0
 40
13.0
 40
14.0
 40
14.0
 40
14.0
 40
15.0
 40
15.0
 40
15.0
 40
16.0
 40
16.0
 40
16.0
 40
17.0
 40
17.0
 40
17.0
 40
17.0
 10
100.4504378777679
 20
166.69157178364
 30
0.0
 10
101.9848844191641
 20
167.1313385124438
 30
0.0
 10
103.9637485713373
 20
166.7649523658846
 30
0.0
 10
103.9637485713373
 20
166.7649523658846
 30
0.0
 10
103.9637485713373
 20
166.7649523658846
 30
0.0
 10
103.0132460999156
 20
163.911205638077
 30
0.0
 10
103.0132460999156
 20
163.911205638077
 30
0.0
 10
103.0132460999156
 20
163.911205638077
 30
0.0
 10
101.0674548862189
 20
164.3601018759394
 30
0.0
 10
99.57090442016032
 20
163.1805004036133
 30
0.0
 10
98.40508333886608
 20
162.258247733807
 30
0.0
 10
97.65301849830304
 20
159.804132345923
 30
0.0
 10
97.3598406791005
 20
158.8699940888517
 30
0.0
 10
97.3598406791005
 20
158.8699940888517
 30
0.0
 10
96.07137411762282
 20
154.9119212747295
 30
0.0
 10
96.07137411762282
 20
154.9119212747295
 30
0.0
 10
96.07137411762282
 20
154.9119212747295
 30
0.0
 10
100.3012651448482
 20
154.9119212747295
 30
0.0
 10
100.3012651448482
 20
154.9119212747295
 30
0.0
 10
100.3012651448482
 20
154.9119212747295
 30
0.0
 10
99.64152892419852
 20
152.4199098115079
 30
0.0
 10
99.64152892419852
 20
152.4199098115079
 30
0.0
 10
99.64152892419852
 20
152.4199098115079
 30
0.0
 10
95.38097652692731
 20
152.4199098115079
 30
0.0
 10
95.38097652692731
 20
152.4199098115079
 30
0.0
 10
95.38097652692731
 20
152.4199098115079
 30
0.0
 10
87.75353009080013
 20
127.8027915271048
 30
0.0
 10
87.75353009080013
 20
127.8027915271048
 30
0.0
 10
87.75353009080013
 20
127.8027915271048
 30
0.0
 10
85.36538832498108
 20
127.8027915271048
 30
0.0
 10
85.36538832498108
 20
127.8027915271048
 30
0.0
 10
85.36538832498108
 20
127.8027915271048
 30
0.0
 10
93.00006946639998
 20
152.4199098115079
 30
0.0
 10
93.00006946639998
 20
152.4199098115079
 30
0.0
 10
93.00006946639998
 20
152.4199098115079
 30
0.0
 10
89.85297266450198
 20
152.4199098115079
 30
0.0
 10
89.85297266450198
 20
152.4199098115079
 30
0.0
 10
89.85297266450198
 20
152.4199098115079
 30
0.0
 10
90.51270888515164
 20
154.9119212747295
 30
0.0
 10
90.51270888515164
 20
154.9119212747295
 30
0.0
 10
90.51270888515164
 20
154.9119212747295
 30
0.0
 10
93.6904670570955
 20
154.9119212747295
 30
0.0
 10
93.6904670570955
 20
154.9119212747295
 30
0.0
 10
93.6904670570955
 20
154.9119212747295
 30
0.0
 10
94.81598049462158
 20
158.3616699146644
 30
0.0
 10
94.81598049462158
 20
158.3616699146644
 30
0.0
 10
95.7237637538445
 20
161.2605474231013
 30
0.0
 10
96.4968436907311
 20
162.8139420021662
 30
0.0
 10
97.15657991138076
 20
163.9844139654337
 30
0.0
 10
97.81183750494507
 20
165.1523021053827
 30
0.0
 10
99.1047826935081
 20
166.3084769129547
 30
0.0
 10
100.4504378777679
 20
166.69157178364
 30
0.0
  0
HATCH
  5
1DA3
330
1DA0
100
AcDbEntity
  8
TFORMLOGO
 62
   250
420
  2234388
100
AcDbHatch
 10
0.0
 20
0.0
 30
0.0
210
0.0
220
0.0
230
1.0
  2
SOLID
 70
     1
 71
     0
 91
        1
 92
        1
 93
        1
 72
     4
 94
        3
 73
     0
 74
     1
 95
       56
 96
       52
 40
0.0
 40
0.0
 40
0.0
 40
0.0
 40
1.0
 40
1.0
 40
1.0
 40
2.0
 40
2.0
 40
2.0
 40
3.0
 40
3.0
 40
3.0
 40
4.0
 40
4.0
 40
4.0
 40
5.0
 40
5.0
 40
5.0
 40
6.0
 40
6.0
 40
6.0
 40
7.0
 40
7.0
 40
7.0
 40
8.0
 40
8.0
 40
8.0
 40
9.0
 40
9.0
 40
9.0
 40
10.0
 40
10.0
 40
10.0
 40
11.0
 40
11.0
 40
11.0
 40
12.0
 40
12.0
 40
12.0
 40
13.0
 40
13.0
 40
13.0
 40
14.0
 40
14.0
 40
14.0
 40
15.0
 40
15.0
 40
15.0
 40
16.0
 40
16.0
 40
16.0
 40
17.0
 40
17.0
 40
17.0
 40
17.0
 10
100.4504378777679
 20
166.69157178364
 10
101.9848844191641
 20
167.1313385124438
 10
103.9637485713373
 20
166.7649523658846
 10
103.9637485713373
 20
166.7649523658846
 10
103.9637485713373
 20
166.7649523658846
 10
103.0132460999156
 20
163.911205638077
 10
103.0132460999156
 20
163.911205638077
 10
103.0132460999156
 20
163.911205638077
 10
101.0674548862189
 20
164.3601018759394
 10
99.57090442016032
 20
163.1805004036133
 10
98.40508333886608
 20
162.258247733807
 10
97.65301849830304
 20
159.804132345923
 10
97.3598406791005
 20
158.8699940888517
 10
97.3598406791005
 20
158.8699940888517
 10
96.07137411762282
 20
154.9119212747295
 10
96.07137411762282
 20
154.9119212747295
 10
96.07137411762282
 20
154.9119212747295
 10
100.3012651448482
 20
154.9119212747295
 10
100.3012651448482
 20
154.9119212747295
 10
100.3012651448482
 20
154.9119212747295
 10
99.64152892419852
 20
152.4199098115079
 10
99.64152892419852
 20
152.4199098115079
 10
99.64152892419852
 20
152.4199098115079
 10
95.38097652692731
 20
152.4199098115079
 10
95.38097652692731
 20
152.4199098115079
 10
95.38097652692731
 20
152.4199098115079
 10
87.75353009080013
 20
127.8027915271048
 10
87.75353009080013
 20
127.8027915271048
 10
87.75353009080013
 20
127.8027915271048
 10
85.36538832498108
 20
127.8027915271048
 10
85.36538832498108
 20
127.8027915271048
 10
85.36538832498108
 20
127.8027915271048
 10
93.00006946639998
 20
152.4199098115079
 10
93.00006946639998
 20
152.4199098115079
 10
93.00006946639998
 20
152.4199098115079
 10
89.85297266450198
 20
152.4199098115079
 10
89.85297266450198
 20
152.4199098115079
 10
89.85297266450198
 20
152.4199098115079
 10
90.51270888515164
 20
154.9119212747295
 10
90.51270888515164
 20
154.9119212747295
 10
90.51270888515164
 20
154.9119212747295
 10
93.6904670570955
 20
154.9119212747295
 10
93.6904670570955
 20
154.9119212747295
 10
93.6904670570955
 20
154.9119212747295
 10
94.81598049462158
 20
158.3616699146644
 10
94.81598049462158
 20
158.3616699146644
 10
95.7237637538445
 20
161.2605474231013
 10
96.4968436907311
 20
162.8139420021662
 10
97.15657991138076
 20
163.9844139654337
 10
97.81183750494507
 20
165.1523021053827
 10
99.1047826935081
 20
166.3084769129547
 10
100.4504378777679
 20
166.69157178364
 97
        0
 75
     2
 76
     1
 98
        0
  0
SPLINE
  5
1DA4
330
1DA0
100
AcDbEntity
  8
TFORMLOGO
370
     0
100
AcDbSpline
210
0.0
220
0.0
230
1.0
 70
    11
 71
     3
 72
    38
 73
    34
 74
     0
 42
0.000000001
 43
0.0000000001
 40
0.0
 40
0.0
 40
0.0
 40
0.0
 40
1.0
 40
1.0
 40
1.0
 40
2.0
 40
2.0
 40
2.0
 40
3.0
 40
3.0
 40
3.0
 40
4.0
 40
4.0
 40
4.0
 40
5.0
 40
5.0
 40
5.0
 40
6.0
 40
6.0
 40
6.0
 40
7.0
 40
7.0
 40
7.0
 40
8.0
 40
8.0
 40
8.0
 40
9.0
 40
9.0
 40
9.0
 40
10.0
 40
10.0
 40
10.0
 40
11.0
 40
11.0
 40
11.0
 40
11.0
 10
126.377554584636
 20
154.8151140277308
 30
0.0
 10
126.377554584636
 20
154.8151140277308
 30
0.0
 10
128.8311532078563
 20
154.8151140277308
 30
0.0
 10
128.8311532078563
 20
154.8151140277308
 30
0.0
 10
128.8311532078563
 20
154.8151140277308
 30
0.0
 10
127.7345785914971
 20
151.3062819612468
 30
0.0
 10
127.7345785914971
 20
151.3062819612468
 30
0.0
 10
128.571392836906
 20
152.2922689395754
 30
0.0
 10
129.8860421413442
 20
153.604506675583
 30
0.0
 10
131.0163787157314
 20
154.2664822097754
 30
0.0
 10
132.7044766171327
 20
155.2500576196734
 30
0.0
 10
133.6642808525008
 20
155.3847609420097
 30
0.0
 10
134.7284715499351
 20
155.3565111403944
 30
0.0
 10
134.7284715499351
 20
155.3565111403944
 30
0.0
 10
133.6877075172549
 20
152.0345756272799
 30
0.0
 10
133.6877075172549
 20
152.0345756272799
 30
0.0
 10
133.011434827367
 20
152.3184516825359
 30
0.0
 10
130.930940291334
 20
151.7768823149844
 30
0.0
 10
129.739280976855
 20
150.9162968950455
 30
0.0
 10
128.66613302525
 20
150.1454562717016
 30
0.0
 10
127.9192358313239
 20
149.4857200510519
 30
0.0
 10
127.0393578639405
 20
147.8282835196966
 30
0.0
 10
126.164647543194
 20
146.1699857139017
 30
0.0
 10
125.4742499524985
 20
143.5262176944419
 30
0.0
 10
124.2822461282437
 20
139.6959580071401
 30
0.0
 10
124.2822461282437
 20
139.6959580071401
 30
0.0
 10
120.5753209406769
 20
127.8027915271048
 30
0.0
 10
120.5753209406769
 20
127.8027915271048
 30
0.0
 10
120.5753209406769
 20
127.8027915271048
 30
0.0
 10
118.1964809388044
 20
127.8027915271048
 30
0.0
 10
118.1964809388044
 20
127.8027915271048
 30
0.0
 10
118.1964809388044
 20
127.8027915271048
 30
0.0
 10
126.377554584636
 20
154.8151140277308
 30
0.0
 10
126.377554584636
 20
154.8151140277308
 30
0.0
  0
HATCH
  5
1DA5
330
1DA0
100
AcDbEntity
  8
TFORMLOGO
 62
   250
420
  2234388
100
AcDbHatch
 10
0.0
 20
0.0
 30
0.0
210
0.0
220
0.0
230
1.0
  2
SOLID
 70
     1
 71
     0
 91
        1
 92
        1
 93
        1
 72
     4
 94
        3
 73
     0
 74
     1
 95
       38
 96
       34
 40
0.0
 40
0.0
 40
0.0
 40
0.0
 40
1.0
 40
1.0
 40
1.0
 40
2.0
 40
2.0
 40
2.0
 40
3.0
 40
3.0
 40
3.0
 40
4.0
 40
4.0
 40
4.0
 40
5.0
 40
5.0
 40
5.0
 40
6.0
 40
6.0
 40
6.0
 40
7.0
 40
7.0
 40
7.0
 40
8.0
 40
8.0
 40
8.0
 40
9.0
 40
9.0
 40
9.0
 40
10.0
 40
10.0
 40
10.0
 40
11.0
 40
11.0
 40
11.0
 40
11.0
 10
126.377554584636
 20
154.8151140277308
 10
126.377554584636
 20
154.8151140277308
 10
128.8311532078563
 20
154.8151140277308
 10
128.8311532078563
 20
154.8151140277308
 10
128.8311532078563
 20
154.8151140277308
 10
127.7345785914971
 20
151.3062819612468
 10
127.7345785914971
 20
151.3062819612468
 10
128.571392836906
 20
152.2922689395754
 10
129.8860421413442
 20
153.604506675583
 10
131.0163787157314
 20
154.2664822097754
 10
132.7044766171327
 20
155.2500576196734
 10
133.6642808525008
 20
155.3847609420097
 10
134.7284715499351
 20
155.3565111403944
 10
134.7284715499351
 20
155.3565111403944
 10
133.6877075172549
 20
152.0345756272799
 10
133.6877075172549
 20
152.0345756272799
 10
133.011434827367
 20
152.3184516825359
 10
130.930940291334
 20
151.7768823149844
 10
129.739280976855
 20
150.9162968950455
 10
128.66613302525
 20
150.1454562717016
 10
127.9192358313239
 20
149.4857200510519
 10
127.0393578639405
 20
147.8282835196966
 10
126.164647543194
 20
146.1699857139017
 10
125.4742499524985
 20
143.5262176944419
 10
124.2822461282437
 20
139.6959580071401
 10
124.2822461282437
 20
139.6959580071401
 10
120.5753209406769
 20
127.8027915271048
 10
120.5753209406769
 20
127.8027915271048
 10
120.5753209406769
 20
127.8027915271048
 10
118.1964809388044
 20
127.8027915271048
 10
118.1964809388044
 20
127.8027915271048
 10
118.1964809388044
 20
127.8027915271048
 10
126.377554584636
 20
154.8151140277308
 10
126.377554584636
 20
154.8151140277308
 97
        0
 75
     2
 76
     1
 98
        0
  0
SPLINE
  5
1DA6
330
1DA0
100
AcDbEntity
  8
TFORMLOGO
370
     0
100
AcDbSpline
210
0.0
220
0.0
230
1.0
 70
    11
 71
     3
 72
   104
 73
   100
 74
     0
 42
0.000000001
 43
0.0000000001
 40
0.0
 40
0.0
 40
0.0
 40
0.0
 40
1.0
 40
1.0
 40
1.0
 40
2.0
 40
2.0
 40
2.0
 40
3.0
 40
3.0
 40
3.0
 40
4.0
 40
4.0
 40
4.0
 40
5.0
 40
5.0
 40
5.0
 40
6.0
 40
6.0
 40
6.0
 40
7.0
 40
7.0
 40
7.0
 40
8.0
 40
8.0
 40
8.0
 40
9.0
 40
9.0
 40
9.0
 40
10.0
 40
10.0
 40
10.0
 40
11.0
 40
11.0
 40
11.0
 40
12.0
 40
12.0
 40
12.0
 40
13.0
 40
13.0
 40
13.0
 40
14.0
 40
14.0
 40
14.0
 40
15.0
 40
15.0
 40
15.0
 40
16.0
 40
16.0
 40
16.0
 40
17.0
 40
17.0
 40
17.0
 40
18.0
 40
18.0
 40
18.0
 40
19.0
 40
19.0
 40
19.0
 40
20.0
 40
20.0
 40
20.0
 40
21.0
 40
21.0
 40
21.0
 40
22.0
 40
22.0
 40
22.0
 40
23.0
 40
23.0
 40
23.0
 40
24.0
 40
24.0
 40
24.0
 40
25.0
 40
25.0
 40
25.0
 40
26.0
 40
26.0
 40
26.0
 40
27.0
 40
27.0
 40
27.0
 40
28.0
 40
28.0
 40
28.0
 40
29.0
 40
29.0
 40
29.0
 40
30.0
 40
30.0
 40
30.0
 40
31.0
 40
31.0
 40
31.0
 40
32.0
 40
32.0
 40
32.0
 40
33.0
 40
33.0
 40
33.0
 40
33.0
 10
139.8926730891197
 20
154.8294111834263
 30
0.0
 10
139.8926730891197
 20
154.8294111834263
 30
0.0
 10
142.0344903652445
 20
154.8294111834263
 30
0.0
 10
142.0344903652445
 20
154.8294111834263
 30
0.0
 10
142.0344903652445
 20
154.8294111834263
 30
0.0
 10
140.9516961399171
 20
151.3157559800812
 30
0.0
 10
140.9516961399171
 20
151.3157559800812
 30
0.0
 10
141.8928968473923
 20
152.7887075264977
 30
0.0
 10
142.7341897198865
 20
153.4484437471474
 30
0.0
 10
143.8552245303272
 20
154.2926649527359
 30
0.0
 10
144.9803934580775
 20
155.1296514530327
 30
0.0
 10
146.3139908001845
 20
155.3044901642492
 30
0.0
 10
147.241066606852
 20
155.3044901642492
 30
0.0
 10
148.3855280820469
 20
155.3044901642492
 30
0.0
 10
149.4969166187653
 20
155.0752189084569
 30
0.0
 10
150.0784491203092
 20
153.8172414621372
 30
0.0
 10
150.5228667310863
 20
152.833838307127
 30
0.0
 10
150.5414702589793
 20
152.7201500811143
 30
0.0
 10
150.4140016419347
 20
150.7765981809602
 30
0.0
 10
151.5818897818837
 20
152.7699317437168
 30
0.0
 10
152.4424752018226
 20
153.6256940267945
 30
0.0
 10
153.9038856707499
 20
154.4507949398263
 30
0.0
 10
155.4455669174378
 20
155.3044901642492
 30
0.0
 10
156.339225275853
 20
155.3659851592288
 30
0.0
 10
157.3748216618963
 20
155.2147453676543
 30
0.0
 10
158.911679771723
 20
154.9877134254046
 30
0.0
 10
159.8859534176746
 20
154.4390816074493
 30
0.0
 10
160.3965169054045
 20
152.7816450760939
 30
0.0
 10
160.9070803931344
 20
151.1219692311958
 30
0.0
 10
160.6328506116007
 20
150.2303779314354
 30
0.0
 10
159.9992971339115
 20
147.597634224801
 30
0.0
 10
159.7105979417943
 20
146.4014962832367
 30
0.0
 10
159.2947746424084
 20
144.9400858143094
 30
0.0
 10
158.7463150793409
 20
143.2092687007094
 30
0.0
 10
158.7463150793409
 20
143.2092687007094
 30
0.0
 10
153.9038856707499
 20
127.8027915271048
 30
0.0
 10
153.9038856707499
 20
127.8027915271048
 30
0.0
 10
153.9038856707499
 20
127.8027915271048
 30
0.0
 10
151.3882752878863
 20
127.8027915271048
 30
0.0
 10
151.3882752878863
 20
127.8027915271048
 30
0.0
 10
151.3882752878863
 20
127.8027915271048
 30
0.0
 10
155.6250565106276
 20
141.2751908193897
 30
0.0
 10
155.6250565106276
 20
141.2751908193897
 30
0.0
 10
156.5094131050963
 20
144.0936252951782
 30
0.0
 10
157.109893644309
 20
146.1506931664571
 30
0.0
 10
157.4220195011804
 20
147.4415712963654
 30
0.0
 10
157.8095929989511
 20
149.0530157726519
 30
0.0
 10
157.9656559273867
 20
149.5826995529385
 30
0.0
 10
157.7816877071116
 20
150.7529992613181
 30
0.0
 10
157.6111553680925
 20
151.8430281919372
 30
0.0
 10
157.0582171779396
 20
152.5547853887321
 30
0.0
 10
156.1170164704645
 20
152.5547853887321
 30
0.0
 10
155.1096698860365
 20
152.5547853887321
 30
0.0
 10
154.2962823053817
 20
152.4412694176073
 30
0.0
 10
153.156643967048
 20
151.2945686288697
 30
0.0
 10
152.0170056287143
 20
150.1476955852443
 30
0.0
 10
151.076149431015
 20
148.7930831468137
 30
0.0
 10
150.3337308641742
 20
147.2290087646991
 30
0.0
 10
149.5957909244188
 20
145.6683794803425
 30
0.0
 10
148.8530278478023
 20
143.6822806228776
 30
0.0
 10
148.0964843801539
 20
141.2751908193897
 30
0.0
 10
148.0964843801539
 20
141.2751908193897
 30
0.0
 10
143.8552245303272
 20
127.8027915271048
 30
0.0
 10
143.8552245303272
 20
127.8027915271048
 30
0.0
 10
143.8552245303272
 20
127.8027915271048
 30
0.0
 10
141.486030802177
 20
127.8027915271048
 30
0.0
 10
141.486030802177
 20
127.8027915271048
 30
0.0
 10
141.486030802177
 20
127.8027915271048
 30
0.0
 10
146.3329388378533
 20
143.2092687007094
 30
0.0
 10
146.3329388378533
 20
143.2092687007094
 30
0.0
 10
146.8483254624444
 20
144.8408669988801
 30
0.0
 10
147.2314203331297
 20
146.1837661049335
 30
0.0
 10
147.4867020769946
 20
147.224185627838
 30
0.0
 10
147.9169947869641
 20
149.0197705792876
 30
0.0
 10
148.0306830129768
 20
150.2400242051577
 30
0.0
 10
147.709255392159
 20
151.3157559800812
 30
0.0
 10
147.3874832615654
 20
152.3916600098926
 30
0.0
 10
146.8245542879144
 20
152.6683013598569
 30
0.0
 10
145.8840425999909
 20
152.6683013598569
 30
0.0
 10
145.0989048209514
 20
152.6683013598569
 30
0.0
 10
144.3282364524954
 20
152.3275811915945
 30
0.0
 10
143.4531816219731
 20
151.6538923250251
 30
0.0
 10
142.34627171234
 20
150.8074318058939
 30
0.0
 10
141.901854101563
 20
150.1097995099067
 30
0.0
 10
141.3578731655808
 20
149.289521733736
 30
0.0
 10
140.6299240093235
 20
148.192602607601
 30
0.0
 10
140.2850697237515
 20
147.455696197173
 30
0.0
 10
139.6652966370942
 20
145.8385673095858
 30
0.0
 10
139.0506911970739
 20
144.2214384219986
 30
0.0
 10
138.463991048893
 20
142.3252566160164
 30
0.0
 10
138.0571250036777
 20
141.0154304484394
 30
0.0
 10
138.0571250036777
 20
141.0154304484394
 30
0.0
 10
133.9009590684727
 20
127.8027915271048
 30
0.0
 10
133.9009590684727
 20
127.8027915271048
 30
0.0
 10
133.9009590684727
 20
127.8027915271048
 30
0.0
 10
131.4180771143097
 20
127.8027915271048
 30
0.0
 10
131.4180771143097
 20
127.8027915271048
 30
0.0
 10
131.4180771143097
 20
127.8027915271048
 30
0.0
 10
139.8926730891197
 20
154.8294111834263
 30
0.0
 10
139.8926730891197
 20
154.8294111834263
 30
0.0
  0
HATCH
  5
1DA7
330
1DA0
100
AcDbEntity
  8
TFORMLOGO
 62
   250
420
  2234388
100
AcDbHatch
 10
0.0
 20
0.0
 30
0.0
210
0.0
220
0.0
230
1.0
  2
SOLID
 70
     1
 71
     0
 91
        1
 92
        1
 93
        1
 72
     4
 94
        3
 73
     0
 74
     1
 95
      104
 96
      100
 40
0.0
 40
0.0
 40
0.0
 40
0.0
 40
1.0
 40
1.0
 40
1.0
 40
2.0
 40
2.0
 40
2.0
 40
3.0
 40
3.0
 40
3.0
 40
4.0
 40
4.0
 40
4.0
 40
5.0
 40
5.0
 40
5.0
 40
6.0
 40
6.0
 40
6.0
 40
7.0
 40
7.0
 40
7.0
 40
8.0
 40
8.0
 40
8.0
 40
9.0
 40
9.0
 40
9.0
 40
10.0
 40
10.0
 40
10.0
 40
11.0
 40
11.0
 40
11.0
 40
12.0
 40
12.0
 40
12.0
 40
13.0
 40
13.0
 40
13.0
 40
14.0
 40
14.0
 40
14.0
 40
15.0
 40
15.0
 40
15.0
 40
16.0
 40
16.0
 40
16.0
 40
17.0
 40
17.0
 40
17.0
 40
18.0
 40
18.0
 40
18.0
 40
19.0
 40
19.0
 40
19.0
 40
20.0
 40
20.0
 40
20.0
 40
21.0
 40
21.0
 40
21.0
 40
22.0
 40
22.0
 40
22.0
 40
23.0
 40
23.0
 40
23.0
 40
24.0
 40
24.0
 40
24.0
 40
25.0
 40
25.0
 40
25.0
 40
26.0
 40
26.0
 40
26.0
 40
27.0
 40
27.0
 40
27.0
 40
28.0
 40
28.0
 40
28.0
 40
29.0
 40
29.0
 40
29.0
 40
30.0
 40
30.0
 40
30.0
 40
31.0
 40
31.0
 40
31.0
 40
32.0
 40
32.0
 40
32.0
 40
33.0
 40
33.0
 40
33.0
 40
33.0
 10
139.8926730891197
 20
154.8294111834263
 10
139.8926730891197
 20
154.8294111834263
 10
142.0344903652445
 20
154.8294111834263
 10
142.0344903652445
 20
154.8294111834263
 10
142.0344903652445
 20
154.8294111834263
 10
140.9516961399171
 20
151.3157559800812
 10
140.9516961399171
 20
151.3157559800812
 10
141.8928968473923
 20
152.7887075264977
 10
142.7341897198865
 20
153.4484437471474
 10
143.8552245303272
 20
154.2926649527359
 10
144.9803934580775
 20
155.1296514530327
 10
146.3139908001845
 20
155.3044901642492
 10
147.241066606852
 20
155.3044901642492
 10
148.3855280820469
 20
155.3044901642492
 10
149.4969166187653
 20
155.0752189084569
 10
150.0784491203092
 20
153.8172414621372
 10
150.5228667310863
 20
152.833838307127
 10
150.5414702589793
 20
152.7201500811143
 10
150.4140016419347
 20
150.7765981809602
 10
151.5818897818837
 20
152.7699317437168
 10
152.4424752018226
 20
153.6256940267945
 10
153.9038856707499
 20
154.4507949398263
 10
155.4455669174378
 20
155.3044901642492
 10
156.339225275853
 20
155.3659851592288
 10
157.3748216618963
 20
155.2147453676543
 10
158.911679771723
 20
154.9877134254046
 10
159.8859534176746
 20
154.4390816074493
 10
160.3965169054045
 20
152.7816450760939
 10
160.9070803931344
 20
151.1219692311958
 10
160.6328506116007
 20
150.2303779314354
 10
159.9992971339115
 20
147.597634224801
 10
159.7105979417943
 20
146.4014962832367
 10
159.2947746424084
 20
144.9400858143094
 10
158.7463150793409
 20
143.2092687007094
 10
158.7463150793409
 20
143.2092687007094
 10
153.9038856707499
 20
127.8027915271048
 10
153.9038856707499
 20
127.8027915271048
 10
153.9038856707499
 20
127.8027915271048
 10
151.3882752878863
 20
127.8027915271048
 10
151.3882752878863
 20
127.8027915271048
 10
151.3882752878863
 20
127.8027915271048
 10
155.6250565106276
 20
141.2751908193897
 10
155.6250565106276
 20
141.2751908193897
 10
156.5094131050963
 20
144.0936252951782
 10
157.109893644309
 20
146.1506931664571
 10
157.4220195011804
 20
147.4415712963654
 10
157.8095929989511
 20
149.0530157726519
 10
157.9656559273867
 20
149.5826995529385
 10
157.7816877071116
 20
150.7529992613181
 10
157.6111553680925
 20
151.8430281919372
 10
157.0582171779396
 20
152.5547853887321
 10
156.1170164704645
 20
152.5547853887321
 10
155.1096698860365
 20
152.5547853887321
 10
154.2962823053817
 20
152.4412694176073
 10
153.156643967048
 20
151.2945686288697
 10
152.0170056287143
 20
150.1476955852443
 10
151.076149431015
 20
148.7930831468137
 10
150.3337308641742
 20
147.2290087646991
 10
149.5957909244188
 20
145.6683794803425
 10
148.8530278478023
 20
143.6822806228776
 10
148.0964843801539
 20
141.2751908193897
 10
148.0964843801539
 20
141.2751908193897
 10
143.8552245303272
 20
127.8027915271048
 10
143.8552245303272
 20
127.8027915271048
 10
143.8552245303272
 20
127.8027915271048
 10
141.486030802177
 20
127.8027915271048
 10
141.486030802177
 20
127.8027915271048
 10
141.486030802177
 20
127.8027915271048
 10
146.3329388378533
 20
143.2092687007094
 10
146.3329388378533
 20
143.2092687007094
 10
146.8483254624444
 20
144.8408669988801
 10
147.2314203331297
 20
146.1837661049335
 10
147.4867020769946
 20
147.224185627838
 10
147.9169947869641
 20
149.0197705792876
 10
148.0306830129768
 20
150.2400242051577
 10
147.709255392159
 20
151.3157559800812
 10
147.3874832615654
 20
152.3916600098926
 10
146.8245542879144
 20
152.6683013598569
 10
145.8840425999909
 20
152.6683013598569
 10
145.0989048209514
 20
152.6683013598569
 10
144.3282364524954
 20
152.3275811915945
 10
143.4531816219731
 20
151.6538923250251
 10
142.34627171234
 20
150.8074318058939
 10
141.901854101563
 20
150.1097995099067
 10
141.3578731655808
 20
149.289521733736
 10
140.6299240093235
 20
148.192602607601
 10
140.2850697237515
 20
147.455696197173
 10
139.6652966370942
 20
145.8385673095858
 10
139.0506911970739
 20
144.2214384219986
 10
138.463991048893
 20
142.3252566160164
 10
138.0571250036777
 20
141.0154304484394
 10
138.0571250036777
 20
141.0154304484394
 10
133.9009590684727
 20
127.8027915271048
 10
133.9009590684727
 20
127.8027915271048
 10
133.9009590684727
 20
127.8027915271048
 10
131.4180771143097
 20
127.8027915271048
 10
131.4180771143097
 20
127.8027915271048
 10
131.4180771143097
 20
127.8027915271048
 10
139.8926730891197
 20
154.8294111834263
 10
139.8926730891197
 20
154.8294111834263
 97
        0
 75
     2
 76
     1
 98
        0
  0
SPLINE
  5
1DA8
330
1DA0
100
AcDbEntity
  8
TFORMLOGO
370
     0
100
AcDbSpline
210
0.0
220
0.0
230
1.0
 70
    11
 71
     3
 72
    29
 73
    25
 74
     0
 42
0.000000001
 43
0.0000000001
 40
0.0
 40
0.0
 40
0.0
 40
0.0
 40
1.0
 40
1.0
 40
1.0
 40
2.0
 40
2.0
 40
2.0
 40
3.0
 40
3.0
 40
3.0
 40
4.0
 40
4.0
 40
4.0
 40
5.0
 40
5.0
 40
5.0
 40
6.0
 40
6.0
 40
6.0
 40
7.0
 40
7.0
 40
7.0
 40
8.0
 40
8.0
 40
8.0
 40
8.0
 10
101.6420971922469
 20
132.8388354296931
 30
0.0
 10
101.630039350094
 20
134.7164137077823
 30
0.0
 10
102.2236296937908
 20
138.0598810818841
 30
0.0
 10
103.7487744712405
 20
142.5378191476827
 30
0.0
 10
105.819967243327
 20
148.5896501242061
 30
0.0
 10
107.0602024361932
 20
150.8074318058939
 30
0.0
 10
108.1522984254671
 20
151.8833358357054
 30
0.0
 10
109.741177511439
 20
153.4532668840085
 30
0.0
 10
111.8740375333931
 20
153.5290590346837
 30
0.0
 10
112.5075910110823
 20
153.4532668840085
 30
0.0
 10
113.4012493694975
 20
153.3490526768302
 30
0.0
 10
114.6683563248758
 20
152.7580461564518
 30
0.0
 10
114.7493161221879
 20
150.7838328862519
 30
0.0
 10
114.8106388622796
 20
149.0909118479895
 30
0.0
 10
114.3186789024427
 20
145.9191825971221
 30
0.0
 10
112.6164561002338
 20
140.9489400617108
 30
0.0
 10
110.6444821435766
 20
135.1746117095912
 30
0.0
 10
109.4669477299053
 20
132.8960240524753
 30
0.0
 10
108.5212683953448
 20
131.9072809959403
 30
0.0
 10
106.7346406980658
 20
130.0538184021569
 30
0.0
 10
104.8222669326213
 20
130.2336525051225
 30
0.0
 10
104.5408024457958
 20
130.2336525051225
 30
0.0
 10
104.1721769856939
 20
130.2336525051225
 30
0.0
 10
101.6465758193322
 20
130.6305277668397
 30
0.0
 10
101.6420971922469
 20
132.8388354296931
 30
0.0
  0
SPLINE
  5
1DA9
330
1DA0
100
AcDbEntity
  8
TFORMLOGO
370
     0
100
AcDbSpline
210
0.0
220
0.0
230
1.0
 70
    11
 71
     3
 72
    32
 73
    28
 74
     0
 42
0.000000001
 43
0.0000000001
 40
0.0
 40
0.0
 40
0.0
 40
0.0
 40
1.0
 40
1.0
 40
1.0
 40
2.0
 40
2.0
 40
2.0
 40
3.0
 40
3.0
 40
3.0
 40
4.0
 40
4.0
 40
4.0
 40
5.0
 40
5.0
 40
5.0
 40
6.0
 40
6.0
 40
6.0
 40
7.0
 40
7.0
 40
7.0
 40
8.0
 40
8.0
 40
8.0
 40
9.0
 40
9.0
 40
9.0
 40
9.0
 10
106.2595617172429
 20
153.4105476718098
 30
0.0
 10
104.8222669326213
 20
151.5474388043041
 30
0.0
 10
103.7177685914188
 20
149.8758773721411
 30
0.0
 10
101.9232171692965
 20
144.6141795664062
 30
0.0
 10
100.2754269116635
 20
139.7999999594306
 30
0.0
 10
99.22777268346732
 20
136.3052927937542
 30
0.0
 10
99.06964269637689
 20
132.039572749846
 30
0.0
 10
98.94665270641765
 20
128.8673267343149
 30
0.0
 10
100.8807305877373
 20
127.8027915271048
 30
0.0
 10
103.7129454545577
 20
127.8027915271048
 30
0.0
 10
104.9352661390825
 20
127.8027915271048
 30
0.0
 10
108.0151835347002
 20
127.8827177950895
 30
0.0
 10
110.2045431598849
 20
130.5926316915021
 30
0.0
 10
111.7417457794874
 20
132.4984597712065
 30
0.0
 10
113.155269389579
 20
134.475256864725
 30
0.0
 10
115.0562743324223
 20
140.9489400617108
 30
0.0
 10
116.6361961642235
 20
146.3680788349845
 30
0.0
 10
117.7282921534974
 20
149.8639917848761
 30
0.0
 10
117.6480213757369
 20
151.8595646611754
 30
0.0
 10
117.6480213757369
 20
151.8595646611754
 30
0.0
 10
117.6480213757369
 20
151.8595646611754
 30
0.0
 10
117.6480213757369
 20
151.8595646611754
 30
0.0
 10
117.13229024137
 20
155.18150017429
 30
0.0
 10
114.7162431837115
 20
155.886194920681
 30
0.0
 10
113.3351034925446
 20
155.886194920681
 30
0.0
 10
111.9829026225447
 20
155.886194920681
 30
0.0
 10
108.3414342923792
 20
156.1251124501957
 30
0.0
 10
106.2595617172429
 20
153.4105476718098
 30
0.0
  0
HATCH
  5
1DAA
330
1DA0
100
AcDbEntity
  8
TFORMLOGO
 62
   250
420
  2234388
100
AcDbHatch
 10
0.0
 20
0.0
 30
0.0
210
0.0
220
0.0
230
1.0
  2
SOLID
 70
     1
 71
     0
 91
        2
 92
        1
 93
        1
 72
     4
 94
        3
 73
     0
 74
     1
 95
       29
 96
       25
 40
0.0
 40
0.0
 40
0.0
 40
0.0
 40
1.0
 40
1.0
 40
1.0
 40
2.0
 40
2.0
 40
2.0
 40
3.0
 40
3.0
 40
3.0
 40
4.0
 40
4.0
 40
4.0
 40
5.0
 40
5.0
 40
5.0
 40
6.0
 40
6.0
 40
6.0
 40
7.0
 40
7.0
 40
7.0
 40
8.0
 40
8.0
 40
8.0
 40
8.0
 10
101.6420971922469
 20
132.8388354296931
 10
101.630039350094
 20
134.7164137077823
 10
102.2236296937908
 20
138.0598810818841
 10
103.7487744712405
 20
142.5378191476827
 10
105.819967243327
 20
148.5896501242061
 10
107.0602024361932
 20
150.8074318058939
 10
108.1522984254671
 20
151.8833358357054
 10
109.741177511439
 20
153.4532668840085
 10
111.8740375333931
 20
153.5290590346837
 10
112.5075910110823
 20
153.4532668840085
 10
113.4012493694975
 20
153.3490526768302
 10
114.6683563248758
 20
152.7580461564518
 10
114.7493161221879
 20
150.7838328862519
 10
114.8106388622796
 20
149.0909118479895
 10
114.3186789024427
 20
145.9191825971221
 10
112.6164561002338
 20
140.9489400617108
 10
110.6444821435766
 20
135.1746117095912
 10
109.4669477299053
 20
132.8960240524753
 10
108.5212683953448
 20
131.9072809959403
 10
106.7346406980658
 20
130.0538184021569
 10
104.8222669326213
 20
130.2336525051225
 10
104.5408024457958
 20
130.2336525051225
 10
104.1721769856939
 20
130.2336525051225
 10
101.6465758193322
 20
130.6305277668397
 10
101.6420971922469
 20
132.8388354296931
 97
        0
 92
        1
 93
        1
 72
     4
 94
        3
 73
     0
 74
     1
 95
       32
 96
       28
 40
0.0
 40
0.0
 40
0.0
 40
0.0
 40
1.0
 40
1.0
 40
1.0
 40
2.0
 40
2.0
 40
2.0
 40
3.0
 40
3.0
 40
3.0
 40
4.0
 40
4.0
 40
4.0
 40
5.0
 40
5.0
 40
5.0
 40
6.0
 40
6.0
 40
6.0
 40
7.0
 40
7.0
 40
7.0
 40
8.0
 40
8.0
 40
8.0
 40
9.0
 40
9.0
 40
9.0
 40
9.0
 10
106.2595617172429
 20
153.4105476718098
 10
104.8222669326213
 20
151.5474388043041
 10
103.7177685914188
 20
149.8758773721411
 10
101.9232171692965
 20
144.6141795664062
 10
100.2754269116635
 20
139.7999999594306
 10
99.22777268346732
 20
136.3052927937542
 10
99.06964269637689
 20
132.039572749846
 10
98.94665270641765
 20
128.8673267343149
 10
100.8807305877373
 20
127.8027915271048
 10
103.7129454545577
 20
127.8027915271048
 10
104.9352661390825
 20
127.8027915271048
 10
108.0151835347002
 20
127.8827177950895
 10
110.2045431598849
 20
130.5926316915021
 10
111.7417457794874
 20
132.4984597712065
 10
113.155269389579
 20
134.475256864725
 10
115.0562743324223
 20
140.9489400617108
 10
116.6361961642235
 20
146.3680788349845
 10
117.7282921534974
 20
149.8639917848761
 10
117.6480213757369
 20
151.8595646611754
 10
117.6480213757369
 20
151.8595646611754
 10
117.6480213757369
 20
151.8595646611754
 10
117.6480213757369
 20
151.8595646611754
 10
117.13229024137
 20
155.18150017429
 10
114.7162431837115
 20
155.886194920681
 10
113.3351034925446
 20
155.886194920681
 10
111.9829026225447
 20
155.886194920681
 10
108.3414342923792
 20
156.1251124501957
 10
106.2595617172429
 20
153.4105476718098
 97
        0
 75
     2
 76
     1
 98
        0
  0
ENDBLK
  5
1DAB
330
1DA0
100
AcDbEntity
  8
0
100
AcDbBlockEnd
  0
BLOCK
  5
37E0
330
37DF
100
AcDbEntity
  8
0
100
AcDbBlockBegin
  2
*D7
 70
     1
 10
0.0
 20
0.0
 30
0.0
  3
*D7
  1
*D156
  0
LINE
  5
37E2
330
37DF
100
AcDbEntity
  8
寸法
 62
     0
370
    -2
100
AcDbLine
 10
202.2957663671774
 20
349.3799946242279
 30
0.0
 11
200.389510035032
 21
349.3799946242279
 31
0.0
  0
LINE
  5
37E3
330
37DF
100
AcDbEntity
  8
寸法
 62
     0
370
    -2
100
AcDbLine
 10
202.2957663671774
 20
347.4048052429969
 30
0.0
 11
200.389510035032
 21
347.4048052429969
 31
0.0
  0
INSERT
  5
37E4
330
37DF
100
AcDbEntity
  8
寸法
 62
     0
370
    -2
100
AcDbBlockReference
  2
_DOT
 10
200.389510035032
 20
349.3799946242279
 30
0.0
 41
2.0
 42
2.0
 43
2.0
 50
90.0
  0
INSERT
  5
37E5
330
37DF
100
AcDbEntity
  8
寸法
 62
     0
370
    -2
100
AcDbBlockReference
  2
_DOT
 10
200.389510035032
 20
347.4048052429969
 30
0.0
 41
2.0
 42
2.0
 43
2.0
 50
270.0
  0
MTEXT
  5
37E6
330
37DF
100
AcDbEntity
  8
寸法
 62
     0
100
AcDbMText
 10
192.889510035032
 20
348.3923999336124
 30
0.0
 40
5.0
 41
0.0
 46
0.0
 71
     5
 72
     1
  1
\A1;2
  7
ＭＳ ゴシック
 11
0.0
 21
1.0
 31
0.0
 73
     1
 44
1.0
  0
POINT
  5
37E7
330
37DF
100
AcDbEntity
  8
Defpoints
 62
     0
100
AcDbPoint
 10
207.2957663671774
 20
349.3799946242279
 30
0.0
  0
POINT
  5
37E8
330
37DF
100
AcDbEntity
  8
Defpoints
 62
     0
100
AcDbPoint
 10
207.2957663671774
 20
347.4048052429969
 30
0.0
  0
POINT
  5
37E9
330
37DF
100
AcDbEntity
  8
Defpoints
 62
     0
100
AcDbPoint
 10
200.389510035032
 20
347.4048052429969
 30
0.0
  0
ENDBLK
  5
37E1
330
37DF
100
AcDbEntity
  8
0
100
AcDbBlockEnd
  0
BLOCK
  5
37EB
330
37EA
100
AcDbEntity
  8
0
100
AcDbBlockBegin
  2
*D8
 70
     1
 10
0.0
 20
0.0
 30
0.0
  3
*D8
  1
*D157
  0
LINE
  5
37ED
330
37EA
100
AcDbEntity
  8
寸法
 62
     0
370
    -2
100
AcDbLine
 10
315.5889840782232
 20
306.1991393259359
 30
0.0
 11
328.2278845989873
 21
306.1991393259359
 31
0.0
  0
LINE
  5
37EE
330
37EA
100
AcDbEntity
  8
寸法
 62
     0
370
    -2
100
AcDbLine
 10
315.7302330862998
 20
322.8504451560839
 30
0.0
 11
328.2278845989873
 21
322.8504451560839
 31
0.0
  0
LINE
  5
37EF
330
37EA
100
AcDbEntity
  8
寸法
 62
     0
370
    -2
100
AcDbLine
 10
328.2278845989873
 20
308.1991393259359
 30
0.0
 11
328.2278845989873
 21
320.8504451560839
 31
0.0
  0
INSERT
  5
37F0
330
37EA
100
AcDbEntity
  8
寸法
 62
     0
370
    -2
100
AcDbBlockReference
  2
_DOT
 10
328.2278845989873
 20
306.1991393259359
 30
0.0
 41
2.0
 42
2.0
 43
2.0
 50
270.0
  0
INSERT
  5
37F1
330
37EA
100
AcDbEntity
  8
寸法
 62
     0
370
    -2
100
AcDbBlockReference
  2
_DOT
 10
328.2278845989873
 20
322.8504451560839
 30
0.0
 41
2.0
 42
2.0
 43
2.0
 50
90.0
  0
MTEXT
  5
37F2
330
37EA
100
AcDbEntity
  8
寸法
 62
     0
100
AcDbMText
 10
320.7278845989873
 20
314.5247922410099
 30
0.0
 40
5.0
 41
0.0
 46
0.0
 71
     5
 72
     1
  1
\A1;17
  7
ＭＳ ゴシック
 11
0.0
 21
1.0
 31
0.0
 73
     1
 44
1.0
  0
POINT
  5
37F3
330
37EA
100
AcDbEntity
  8
Defpoints
 62
     0
100
AcDbPoint
 10
310.5889840782232
 20
306.1991393259359
 30
0.0
  0
POINT
  5
37F4
330
37EA
100
AcDbEntity
  8
Defpoints
 62
     0
100
AcDbPoint
 10
310.7302330862998
 20
322.8504451560839
 30
0.0
  0
POINT
  5
37F5
330
37EA
100
AcDbEntity
  8
Defpoints
 62
     0
100
AcDbPoint
 10
328.2278845989873
 20
322.8504451560839
 30
0.0
  0
ENDBLK
  5
37EC
330
37EA
100
AcDbEntity
  8
0
100
AcDbBlockEnd
  0
BLOCK
  5
37F7
330
37F6
100
AcDbEntity
  8
0
100
AcDbBlockBegin
  2
*D9
 70
     1
 10
0.0
 20
0.0
 30
0.0
  3
*D9
  1
*D158
  0
LINE
  5
37F9
330
37F6
100
AcDbEntity
  8
寸法
 62
     0
370
    -2
100
AcDbLine
 10
315.5889840782232
 20
306.1991393259359
 30
0.0
 11
349.1700500172429
 21
306.1991393259359
 31
0.0
  0
LINE
  5
37FA
330
37F6
100
AcDbEntity
  8
寸法
 62
     0
370
    -2
100
AcDbLine
 10
239.1066654855546
 20
349.3799946242279
 30
0.0
 11
349.1700500172429
 21
349.3799946242279
 31
0.0
  0
LINE
  5
37FB
330
37F6
100
AcDbEntity
  8
寸法
 62
     0
370
    -2
100
AcDbLine
 10
349.1700500172429
 20
308.1991393259359
 30
0.0
 11
349.1700500172429
 21
347.3799946242279
 31
0.0
  0
INSERT
  5
37FC
330
37F6
100
AcDbEntity
  8
寸法
 62
     0
370
    -2
100
AcDbBlockReference
  2
_DOT
 10
349.1700500172429
 20
306.1991393259359
 30
0.0
 41
2.0
 42
2.0
 43
2.0
 50
270.0
  0
INSERT
  5
37FD
330
37F6
100
AcDbEntity
  8
寸法
 62
     0
370
    -2
100
AcDbBlockReference
  2
_DOT
 10
349.1700500172429
 20
349.3799946242279
 30
0.0
 41
2.0
 42
2.0
 43
2.0
 50
90.0
  0
MTEXT
  5
37FE
330
37F6
100
AcDbEntity
  8
寸法
 62
     0
100
AcDbMText
 10
341.6700500172429
 20
327.7895669750819
 30
0.0
 40
5.0
 41
0.0
 46
0.0
 71
     5
 72
     1
  1
\A1;43
  7
ＭＳ ゴシック
 11
0.0
 21
1.0
 31
0.0
 73
     1
 44
1.0
  0
POINT
  5
37FF
330
37F6
100
AcDbEntity
  8
Defpoints
 62
     0
100
AcDbPoint
 10
310.5889840782232
 20
306.1991393259359
 30
0.0
  0
POINT
  5
3800
330
37F6
100
AcDbEntity
  8
Defpoints
 62
     0
100
AcDbPoint
 10
234.1066654855546
 20
349.3799946242279
 30
0.0
  0
POINT
  5
3801
330
37F6
100
AcDbEntity
  8
Defpoints
 62
     0
100
AcDbPoint
 10
349.1700500172429
 20
349.3799946242279
 30
0.0
  0
ENDBLK
  5
37F8
330
37F6
100
AcDbEntity
  8
0
100
AcDbBlockEnd
  0
BLOCK
  5
3803
330
3802
100
AcDbEntity
  8
0
100
AcDbBlockBegin
  2
*D10
 70
     1
 10
0.0
 20
0.0
 30
0.0
  3
*D10
  1
*D159
  0
LINE
  5
3805
330
3802
100
AcDbEntity
  8
寸法
 62
     0
370
    -2
100
AcDbLine
 10
311.4353297607628
 20
301.7641353582419
 30
0.0
 11
311.4353297607628
 21
289.5478334957879
 31
0.0
  0
LINE
  5
3806
330
3802
100
AcDbEntity
  8
寸法
 62
     0
370
    -2
100
AcDbLine
 10
214.633824591636
 20
301.1991393259359
 30
0.0
 11
214.633824591636
 21
289.5478334957879
 31
0.0
  0
LINE
  5
3807
330
3802
100
AcDbEntity
  8
寸法
 62
     0
370
    -2
100
AcDbLine
 10
309.4353297607628
 20
289.5478334957879
 30
0.0
 11
216.633824591636
 21
289.5478334957879
 31
0.0
  0
INSERT
  5
3808
330
3802
100
AcDbEntity
  8
寸法
 62
     0
370
    -2
100
AcDbBlockReference
  2
_DOT
 10
311.4353297607628
 20
289.5478334957879
 30
0.0
 41
2.0
 42
2.0
 43
2.0
  0
INSERT
  5
3809
330
3802
100
AcDbEntity
  8
寸法
 62
     0
370
    -2
100
AcDbBlockReference
  2
_DOT
 10
214.633824591636
 20
289.5478334957879
 30
0.0
 41
2.0
 42
2.0
 43
2.0
 50
180.0
  0
MTEXT
  5
380A
330
3802
100
AcDbEntity
  8
寸法
 62
     0
100
AcDbMText
 10
263.0345771761994
 20
297.0478334957879
 30
0.0
 40
5.0
 41
0.0
 46
0.0
 71
     5
 72
     1
  1
\A1;97
  7
ＭＳ ゴシック
 73
     1
 44
1.0
  0
POINT
  5
380B
330
3802
100
AcDbEntity
  8
Defpoints
 62
     0
100
AcDbPoint
 10
311.4353297607628
 20
306.7641353582419
 30
0.0
  0
POINT
  5
380C
330
3802
100
AcDbEntity
  8
Defpoints
 62
     0
100
AcDbPoint
 10
214.633824591636
 20
306.1991393259359
 30
0.0
  0
POINT
  5
380D
330
3802
100
AcDbEntity
  8
Defpoints
 62
     0
100
AcDbPoint
 10
214.633824591636
 20
289.5478334957879
 30
0.0
  0
ENDBLK
  5
3804
330
3802
100
AcDbEntity
  8
0
100
AcDbBlockEnd
  0
BLOCK
  5
380F
330
380E
100
AcDbEntity
  8
0
100
AcDbBlockBegin
  2
*D11
 70
     1
 10
0.0
 20
0.0
 30
0.0
  3
*D11
  1
*D160
  0
LINE
  5
3811
330
380E
100
AcDbEntity
  8
寸法
 62
     0
370
    -2
100
AcDbLine
 10
209.633824591636
 20
306.1991393259359
 30
0.0
 11
200.389510035032
 21
306.1991393259359
 31
0.0
  0
LINE
  5
3812
330
380E
100
AcDbEntity
  8
寸法
 62
     0
370
    -2
100
AcDbLine
 10
202.2957663671774
 20
347.4048052429969
 30
0.0
 11
200.389510035032
 21
347.4048052429969
 31
0.0
  0
LINE
  5
3813
330
380E
100
AcDbEntity
  8
寸法
 62
     0
370
    -2
100
AcDbLine
 10
200.389510035032
 20
308.1991393259359
 30
0.0
 11
200.389510035032
 21
345.4048052429969
 31
0.0
  0
INSERT
  5
3814
330
380E
100
AcDbEntity
  8
寸法
 62
     0
370
    -2
100
AcDbBlockReference
  2
_DOT
 10
200.389510035032
 20
306.1991393259359
 30
0.0
 41
2.0
 42
2.0
 43
2.0
 50
270.0
  0
INSERT
  5
3815
330
380E
100
AcDbEntity
  8
寸法
 62
     0
370
    -2
100
AcDbBlockReference
  2
_DOT
 10
200.389510035032
 20
347.4048052429969
 30
0.0
 41
2.0
 42
2.0
 43
2.0
 50
90.0
  0
MTEXT
  5
3816
330
380E
100
AcDbEntity
  8
寸法
 62
     0
100
AcDbMText
 10
192.889510035032
 20
326.8019722844664
 30
0.0
 40
5.0
 41
0.0
 46
0.0
 71
     5
 72
     1
  1
\A1;41
  7
ＭＳ ゴシック
 11
0.0
 21
1.0
 31
0.0
 73
     1
 44
1.0
  0
POINT
  5
3817
330
380E
100
AcDbEntity
  8
Defpoints
 62
     0
100
AcDbPoint
 10
214.633824591636
 20
306.1991393259359
 30
0.0
  0
POINT
  5
3818
330
380E
100
AcDbEntity
  8
Defpoints
 62
     0
100
AcDbPoint
 10
207.2957663671774
 20
347.4048052429969
 30
0.0
  0
POINT
  5
3819
330
380E
100
AcDbEntity
  8
Defpoints
 62
     0
100
AcDbPoint
 10
200.389510035032
 20
347.4048052429969
 30
0.0
  0
ENDBLK
  5
3810
330
380E
100
AcDbEntity
  8
0
100
AcDbBlockEnd
  0
BLOCK
  5
381B
330
381A
100
AcDbEntity
  8
0
100
AcDbBlockBegin
  2
*D12
 70
     1
 10
0.0
 20
0.0
 30
0.0
  3
*D12
  1
*D161
  0
LINE
  5
381D
330
381A
100
AcDbEntity
  8
寸法
 62
     0
370
    -2
100
AcDbLine
 10
202.2957663671774
 20
256.24751856733
 30
0.0
 11
190.6444605370293
 21
256.24751856733
 31
0.0
  0
LINE
  5
381E
330
381A
100
AcDbEntity
  8
寸法
 62
     0
370
    -2
100
AcDbLine
 10
202.2957663671774
 20
109.490947541839
 30
0.0
 11
190.6444605370293
 21
109.490947541839
 31
0.0
  0
LINE
  5
381F
330
381A
100
AcDbEntity
  8
寸法
 62
     0
370
    -2
100
AcDbLine
 10
190.6444605370293
 20
254.24751856733
 30
0.0
 11
190.6444605370293
 21
111.490947541839
 31
0.0
  0
INSERT
  5
3820
330
381A
100
AcDbEntity
  8
寸法
 62
     0
370
    -2
100
AcDbBlockReference
  2
_DOT
 10
190.6444605370293
 20
256.24751856733
 30
0.0
 41
2.0
 42
2.0
 43
2.0
 50
90.0
  0
INSERT
  5
3821
330
381A
100
AcDbEntity
  8
寸法
 62
     0
370
    -2
100
AcDbBlockReference
  2
_DOT
 10
190.6444605370293
 20
109.490947541839
 30
0.0
 41
2.0
 42
2.0
 43
2.0
 50
270.0
  0
MTEXT
  5
3822
330
381A
100
AcDbEntity
  8
寸法
 62
     0
100
AcDbMText
 10
183.1444605370293
 20
182.8692330545845
 30
0.0
 40
5.0
 41
0.0
 46
0.0
 71
     5
 72
     1
  1
\A1;147
  7
ＭＳ ゴシック
 11
0.0
 21
1.0
 31
0.0
 73
     1
 44
1.0
  0
POINT
  5
3823
330
381A
100
AcDbEntity
  8
Defpoints
 62
     0
100
AcDbPoint
 10
207.2957663671774
 20
256.24751856733
 30
0.0
  0
POINT
  5
3824
330
381A
100
AcDbEntity
  8
Defpoints
 62
     0
100
AcDbPoint
 10
207.2957663671774
 20
109.490947541839
 30
0.0
  0
POINT
  5
3825
330
381A
100
AcDbEntity
  8
Defpoints
 62
     0
100
AcDbPoint
 10
190.6444605370293
 20
109.490947541839
 30
0.0
  0
ENDBLK
  5
381C
330
381A
100
AcDbEntity
  8
0
100
AcDbBlockEnd
  0
BLOCK
  5
3827
330
3826
100
AcDbEntity
  8
0
100
AcDbBlockBegin
  2
*D13
 70
     1
 10
0.0
 20
0.0
 30
0.0
  3
*D13
  1
*D162
  0
LINE
  5
3829
330
3826
100
AcDbEntity
  8
寸法
 62
     0
370
    -2
100
AcDbLine
 10
207.2957663671774
 20
104.490947541839
 30
0.0
 11
207.2957663671774
 21
94.18180669859589
 31
0.0
  0
LINE
  5
382A
330
3826
100
AcDbEntity
  8
寸法
 62
     0
370
    -2
100
AcDbLine
 10
234.1066654855546
 20
104.490947541839
 30
0.0
 11
234.1066654855546
 21
94.18180669859589
 31
0.0
  0
LINE
  5
382B
330
3826
100
AcDbEntity
  8
寸法
 62
     0
370
    -2
100
AcDbLine
 10
209.2957663671774
 20
94.18180669859589
 30
0.0
 11
232.1066654855546
 21
94.18180669859589
 31
0.0
  0
INSERT
  5
382C
330
3826
100
AcDbEntity
  8
寸法
 62
     0
370
    -2
100
AcDbBlockReference
  2
_DOT
 10
207.2957663671774
 20
94.18180669859589
 30
0.0
 41
2.0
 42
2.0
 43
2.0
 50
180.0
  0
INSERT
  5
382D
330
3826
100
AcDbEntity
  8
寸法
 62
     0
370
    -2
100
AcDbBlockReference
  2
_DOT
 10
234.1066654855546
 20
94.18180669859589
 30
0.0
 41
2.0
 42
2.0
 43
2.0
  0
MTEXT
  5
382E
330
3826
100
AcDbEntity
  8
寸法
 62
     0
100
AcDbMText
 10
220.701215926366
 20
101.6818066985959
 30
0.0
 40
5.0
 41
0.0
 46
0.0
 71
     5
 72
     1
  1
\A1;27
  7
ＭＳ ゴシック
 73
     1
 44
1.0
  0
POINT
  5
382F
330
3826
100
AcDbEntity
  8
Defpoints
 62
     0
100
AcDbPoint
 10
207.2957663671774
 20
109.490947541839
 30
0.0
  0
POINT
  5
3830
330
3826
100
AcDbEntity
  8
Defpoints
 62
     0
100
AcDbPoint
 10
234.1066654855546
 20
109.490947541839
 30
0.0
  0
POINT
  5
3831
330
3826
100
AcDbEntity
  8
Defpoints
 62
     0
100
AcDbPoint
 10
234.1066654855546
 20
94.18180669859589
 30
0.0
  0
ENDBLK
  5
3828
330
3826
100
AcDbEntity
  8
0
100
AcDbBlockEnd
  0
BLOCK
  5
3833
330
3832
100
AcDbEntity
  8
0
100
AcDbBlockBegin
  2
*D14
 70
     1
 10
0.0
 20
0.0
 30
0.0
  3
*D14
  1
*D163
  0
LINE
  5
3835
330
3832
100
AcDbEntity
  8
寸法
 62
     0
370
    -2
100
AcDbLine
 10
316.4353297607628
 20
204.1760143216588
 30
0.0
 11
328.086635590911
 21
204.1760143216588
 31
0.0
  0
LINE
  5
3836
330
3832
100
AcDbEntity
  8
寸法
 62
     0
370
    -2
100
AcDbLine
 10
239.1066654855546
 20
256.24751856733
 30
0.0
 11
328.086635590911
 21
256.24751856733
 31
0.0
  0
LINE
  5
3837
330
3832
100
AcDbEntity
  8
寸法
 62
     0
370
    -2
100
AcDbLine
 10
328.086635590911
 20
206.1760143216588
 30
0.0
 11
328.086635590911
 21
254.24751856733
 31
0.0
  0
INSERT
  5
3838
330
3832
100
AcDbEntity
  8
寸法
 62
     0
370
    -2
100
AcDbBlockReference
  2
_DOT
 10
328.086635590911
 20
204.1760143216588
 30
0.0
 41
2.0
 42
2.0
 43
2.0
 50
270.0
  0
INSERT
  5
3839
330
3832
100
AcDbEntity
  8
寸法
 62
     0
370
    -2
100
AcDbBlockReference
  2
_DOT
 10
328.086635590911
 20
256.24751856733
 30
0.0
 41
2.0
 42
2.0
 43
2.0
 50
90.0
  0
MTEXT
  5
383A
330
3832
100
AcDbEntity
  8
寸法
 62
     0
100
AcDbMText
 10
320.586635590911
 20
230.2117664444944
 30
0.0
 40
5.0
 41
0.0
 46
0.0
 71
     5
 72
     1
  1
\A1;52
  7
ＭＳ ゴシック
 11
0.0
 21
1.0
 31
0.0
 73
     1
 44
1.0
  0
POINT
  5
383B
330
3832
100
AcDbEntity
  8
Defpoints
 62
     0
100
AcDbPoint
 10
311.4353297607628
 20
204.1760143216588
 30
0.0
  0
POINT
  5
383C
330
3832
100
AcDbEntity
  8
Defpoints
 62
     0
100
AcDbPoint
 10
234.1066654855546
 20
256.24751856733
 30
0.0
  0
POINT
  5
383D
330
3832
100
AcDbEntity
  8
Defpoints
 62
     0
100
AcDbPoint
 10
328.086635590911
 20
256.24751856733
 30
0.0
  0
ENDBLK
  5
3834
330
3832
100
AcDbEntity
  8
0
100
AcDbBlockEnd
  0
BLOCK
  5
3960
330
395F
100
AcDbEntity
  8
0
100
AcDbBlockBegin
  2
*D15
 70
     1
 10
0.0
 20
0.0
 30
0.0
  3
*D15
  1
*D40
  0
LINE
  5
3961
330
395F
100
AcDbEntity
  8
寸法
 62
     0
370
    -2
100
AcDbLine
 10
14.74478791698148
 20
224.0104347839655
 30
0.0
 11
9.999999999999986
 21
224.0104347839655
 31
0.0
  0
LINE
  5
3962
330
395F
100
AcDbEntity
  8
寸法
 62
     0
370
    -2
100
AcDbLine
 10
14.74478791698148
 20
219.3526626152015
 30
0.0
 11
9.999999999999986
 21
219.3526626152015
 31
0.0
  0
LINE
  5
3963
330
395F
100
AcDbEntity
  8
寸法
 62
     0
370
    -2
100
AcDbLine
 10
9.999999999999986
 20
222.0104347839655
 30
0.0
 11
9.999999999999986
 21
221.3526626152015
 31
0.0
  0
INSERT
  5
3964
330
395F
100
AcDbEntity
  8
寸法
 62
     0
370
    -2
100
AcDbBlockReference
  2
_DOT
 10
9.999999999999986
 20
224.0104347839655
 30
0.0
 41
2.0
 42
2.0
 43
2.0
 50
90.0
  0
INSERT
  5
3965
330
395F
100
AcDbEntity
  8
寸法
 62
     0
370
    -2
100
AcDbBlockReference
  2
_DOT
 10
9.999999999999986
 20
219.3526626152015
 30
0.0
 41
2.0
 42
2.0
 43
2.0
 50
270.0
  0
MTEXT
  5
3966
330
395F
100
AcDbEntity
  8
寸法
 62
     0
100
AcDbMText
 10
2.499999999999986
 20
221.6357466385695
 30
0.0
 40
5.0
 41
0.0
 46
0.0
 71
     5
 72
     1
  1
\A1;5
  7
ＭＳ ゴシック
 11
0.0
 21
1.0
 31
0.0
 73
     1
 44
1.0
  0
POINT
  5
3967
330
395F
100
AcDbEntity
  8
Defpoints
 62
     0
100
AcDbPoint
 10
19.74478791698148
 20
224.0104347839655
 30
0.0
  0
POINT
  5
3968
330
395F
100
AcDbEntity
  8
Defpoints
 62
     0
100
AcDbPoint
 10
19.74478791698148
 20
219.3526626152015
 30
0.0
  0
POINT
  5
3969
330
395F
100
AcDbEntity
  8
Defpoints
 62
     0
100
AcDbPoint
 10
9.999999999999986
 20
219.3526626152015
 30
0.0
  0
ENDBLK
  5
396A
330
395F
100
AcDbEntity
  8
0
100
AcDbBlockEnd
  0
BLOCK
  5
396F
330
396E
100
AcDbEntity
  8
0
100
AcDbBlockBegin
  2
*D16
 70
     1
 10
0.0
 20
0.0
 30
0.0
  3
*D16
  1
*D41
  0
LINE
  5
3970
330
396E
100
AcDbEntity
  8
寸法
 62
     0
370
    -2
100
AcDbLine
 10
29.98417784932528
 20
164.3206710295212
 30
0.0
 11
9.999999999999984
 21
164.3206710295212
 31
0.0
  0
LINE
  5
3971
330
396E
100
AcDbEntity
  8
寸法
 62
     0
370
    -2
100
AcDbLine
 10
29.98417784932528
 20
184.2161105817494
 30
0.0
 11
9.999999999999986
 21
184.2161105817494
 31
0.0
  0
LINE
  5
3972
330
396E
100
AcDbEntity
  8
寸法
 62
     0
370
    -2
100
AcDbLine
 10
9.999999999999984
 20
166.3206710295212
 30
0.0
 11
9.999999999999986
 21
182.2161105817494
 31
0.0
  0
INSERT
  5
3973
330
396E
100
AcDbEntity
  8
寸法
 62
     0
370
    -2
100
AcDbBlockReference
  2
_DOT
 10
9.999999999999984
 20
164.3206710295212
 30
0.0
 41
2.0
 42
2.0
 43
2.0
 50
270.0
  0
INSERT
  5
3974
330
396E
100
AcDbEntity
  8
寸法
 62
     0
370
    -2
100
AcDbBlockReference
  2
_DOT
 10
9.999999999999986
 20
184.2161105817494
 30
0.0
 41
2.0
 42
2.0
 43
2.0
 50
90.0
  0
MTEXT
  5
3975
330
396E
100
AcDbEntity
  8
寸法
 62
     0
100
AcDbMText
 10
2.499999999999986
 20
174.2683908056353
 30
0.0
 40
5.0
 41
0.0
 46
0.0
 71
     5
 72
     1
  1
\A1;20
  7
ＭＳ ゴシック
 11
8.928462398315330E-17
 21
1.0
 31
0.0
 73
     1
 44
1.0
  0
POINT
  5
3976
330
396E
100
AcDbEntity
  8
Defpoints
 62
     0
100
AcDbPoint
 10
34.98417784932528
 20
164.3206710295212
 30
0.0
  0
POINT
  5
3977
330
396E
100
AcDbEntity
  8
Defpoints
 62
     0
100
AcDbPoint
 10
34.98417784932528
 20
184.2161105817494
 30
0.0
  0
POINT
  5
3978
330
396E
100
AcDbEntity
  8
Defpoints
 62
     0
100
AcDbPoint
 10
9.999999999999986
 20
184.2161105817494
 30
0.0
  0
ENDBLK
  5
3979
330
396E
100
AcDbEntity
  8
0
100
AcDbBlockEnd
  0
BLOCK
  5
397E
330
397D
100
AcDbEntity
  8
0
100
AcDbBlockBegin
  2
*D17
 70
     1
 10
0.0
 20
0.0
 30
0.0
  3
*D17
  1
*D42
  0
LINE
  5
397F
330
397D
100
AcDbEntity
  8
寸法
 62
     0
370
    -2
100
AcDbLine
 10
134.4682658059849
 20
161.8597080771391
 30
0.0
 11
134.4682658059849
 21
145.2942155193206
 31
0.0
  0
LINE
  5
3980
330
397D
100
AcDbEntity
  8
寸法
 62
     0
370
    -2
100
AcDbLine
 10
34.56215337397478
 20
159.7426955048717
 30
0.0
 11
34.56215337397478
 21
145.2942155193206
 31
0.0
  0
LINE
  5
3981
330
397D
100
AcDbEntity
  8
寸法
 62
     0
370
    -2
100
AcDbLine
 10
132.4682658059849
 20
145.2942155193206
 30
0.0
 11
36.56215337397478
 21
145.2942155193206
 31
0.0
  0
INSERT
  5
3982
330
397D
100
AcDbEntity
  8
寸法
 62
     0
370
    -2
100
AcDbBlockReference
  2
_DOT
 10
134.4682658059849
 20
145.2942155193206
 30
0.0
 41
2.0
 42
2.0
 43
2.0
  0
INSERT
  5
3983
330
397D
100
AcDbEntity
  8
寸法
 62
     0
370
    -2
100
AcDbBlockReference
  2
_DOT
 10
34.56215337397478
 20
145.2942155193206
 30
0.0
 41
2.0
 42
2.0
 43
2.0
 50
180.0
  0
MTEXT
  5
3984
330
397D
100
AcDbEntity
  8
寸法
 62
     0
100
AcDbMText
 10
84.51520958997983
 20
152.7942155193206
 30
0.0
 40
5.0
 41
0.0
 46
0.0
 71
     5
 72
     1
  1
\A1;100
  7
ＭＳ ゴシック
 73
     1
 44
1.0
  0
POINT
  5
3985
330
397D
100
AcDbEntity
  8
Defpoints
 62
     0
100
AcDbPoint
 10
134.4682658059849
 20
166.8597080771391
 30
0.0
  0
POINT
  5
3986
330
397D
100
AcDbEntity
  8
Defpoints
 62
     0
100
AcDbPoint
 10
34.56215337397478
 20
164.7426955048717
 30
0.0
  0
POINT
  5
3987
330
397D
100
AcDbEntity
  8
Defpoints
 62
     0
100
AcDbPoint
 10
34.56215337397478
 20
145.2942155193206
 30
0.0
  0
ENDBLK
  5
3988
330
397D
100
AcDbEntity
  8
0
100
AcDbBlockEnd
  0
BLOCK
  5
398D
330
398C
100
AcDbEntity
  8
0
100
AcDbBlockBegin
  2
*D18
 70
     1
 10
0.0
 20
0.0
 30
0.0
  3
*D18
  1
*D43
  0
LINE
  5
398E
330
398C
100
AcDbEntity
  8
寸法
 62
     0
370
    -2
100
AcDbLine
 10
29.98417784932528
 20
184.2161105817494
 30
0.0
 11
9.999999999999984
 21
184.2161105817494
 31
0.0
  0
LINE
  5
398F
330
398C
100
AcDbEntity
  8
寸法
 62
     0
370
    -2
100
AcDbLine
 10
14.74478791698148
 20
219.3526626152015
 30
0.0
 11
9.999999999999986
 21
219.3526626152015
 31
0.0
  0
LINE
  5
3990
330
398C
100
AcDbEntity
  8
寸法
 62
     0
370
    -2
100
AcDbLine
 10
9.999999999999984
 20
186.2161105817494
 30
0.0
 11
9.999999999999986
 21
217.3526626152015
 31
0.0
  0
INSERT
  5
3991
330
398C
100
AcDbEntity
  8
寸法
 62
     0
370
    -2
100
AcDbBlockReference
  2
_DOT
 10
9.999999999999984
 20
184.2161105817494
 30
0.0
 41
2.0
 42
2.0
 43
2.0
 50
270.0
  0
INSERT
  5
3992
330
398C
100
AcDbEntity
  8
寸法
 62
     0
370
    -2
100
AcDbBlockReference
  2
_DOT
 10
9.999999999999986
 20
219.3526626152015
 30
0.0
 41
2.0
 42
2.0
 43
2.0
 50
90.0
  0
MTEXT
  5
3993
330
398C
100
AcDbEntity
  8
寸法
 62
     0
100
AcDbMText
 10
2.499999999999986
 20
201.7843865984755
 30
0.0
 40
5.0
 41
0.0
 46
0.0
 71
     5
 72
     1
  1
\A1;35
  7
ＭＳ ゴシック
 11
5.055580973651175E-17
 21
1.0
 31
0.0
 73
     1
 44
1.0
  0
POINT
  5
3994
330
398C
100
AcDbEntity
  8
Defpoints
 62
     0
100
AcDbPoint
 10
34.98417784932528
 20
184.2161105817494
 30
0.0
  0
POINT
  5
3995
330
398C
100
AcDbEntity
  8
Defpoints
 62
     0
100
AcDbPoint
 10
19.74478791698148
 20
219.3526626152015
 30
0.0
  0
POINT
  5
3996
330
398C
100
AcDbEntity
  8
Defpoints
 62
     0
100
AcDbPoint
 10
9.999999999999986
 20
219.3526626152015
 30
0.0
  0
ENDBLK
  5
3997
330
398C
100
AcDbEntity
  8
0
100
AcDbBlockEnd
  0
BLOCK
  5
399A
330
3999
100
AcDbEntity
  8
0
100
AcDbBlockBegin
  2
*D19
 70
     1
 10
0.0
 20
0.0
 30
0.0
  3
*D19
  1
*D44
  0
LINE
  5
399B
330
3999
100
AcDbEntity
  8
寸法
 62
     0
370
    -2
100
AcDbLine
 10
39.72088538776438
 20
17.8237685643322
 30
0.0
 11
9.999999999999982
 21
17.8237685643322
 31
0.0
  0
LINE
  5
399C
330
3999
100
AcDbEntity
  8
寸法
 62
     0
370
    -2
100
AcDbLine
 10
39.72088538776438
 20
68.20192514080222
 30
0.0
 11
9.999999999999986
 21
68.20192514080222
 31
0.0
  0
LINE
  5
399D
330
3999
100
AcDbEntity
  8
寸法
 62
     0
370
    -2
100
AcDbLine
 10
9.999999999999982
 20
19.8237685643322
 30
0.0
 11
9.999999999999986
 21
66.20192514080222
 31
0.0
  0
INSERT
  5
399E
330
3999
100
AcDbEntity
  8
寸法
 62
     0
370
    -2
100
AcDbBlockReference
  2
_DOT
 10
9.999999999999982
 20
17.8237685643322
 30
0.0
 41
2.0
 42
2.0
 43
2.0
 50
270.0
  0
INSERT
  5
399F
330
3999
100
AcDbEntity
  8
寸法
 62
     0
370
    -2
100
AcDbBlockReference
  2
_DOT
 10
9.999999999999986
 20
68.20192514080222
 30
0.0
 41
2.0
 42
2.0
 43
2.0
 50
90.0
  0
MTEXT
  5
39A0
330
3999
100
AcDbEntity
  8
寸法
 62
     0
100
AcDbMText
 10
2.499999999999984
 20
43.01284685256721
 30
0.0
 40
5.0
 41
0.0
 46
0.0
 71
     5
 72
     1
  1
\A1;50
  7
ＭＳ ゴシック
 11
7.052091462314159E-17
 21
1.0
 31
0.0
 73
     1
 44
1.0
  0
POINT
  5
39A1
330
3999
100
AcDbEntity
  8
Defpoints
 62
     0
100
AcDbPoint
 10
44.72088538776438
 20
17.8237685643322
 30
0.0
  0
POINT
  5
39A2
330
3999
100
AcDbEntity
  8
Defpoints
 62
     0
100
AcDbPoint
 10
44.72088538776438
 20
68.20192514080222
 30
0.0
  0
POINT
  5
39A3
330
3999
100
AcDbEntity
  8
Defpoints
 62
     0
100
AcDbPoint
 10
9.999999999999986
 20
68.20192514080222
 30
0.0
  0
ENDBLK
  5
39A4
330
3999
100
AcDbEntity
  8
0
100
AcDbBlockEnd
  0
BLOCK
  5
39A9
330
39A8
100
AcDbEntity
  8
0
100
AcDbBlockBegin
  2
*D20
 70
     1
 10
0.0
 20
0.0
 30
0.0
  3
*D20
  1
*D45
  0
LINE
  5
39AA
330
39A8
100
AcDbEntity
  8
寸法
 62
     0
370
    -2
100
AcDbLine
 10
139.4682658059849
 20
50.4215216741176
 30
0.0
 11
156.8315585182279
 21
50.4215216741176
 31
0.0
  0
LINE
  5
39AB
330
39A8
100
AcDbEntity
  8
寸法
 62
     0
370
    -2
100
AcDbLine
 10
139.4682658059849
 20
35.6041562171234
 30
0.0
 11
156.8315585182279
 21
35.6041562171234
 31
0.0
  0
LINE
  5
39AC
330
39A8
100
AcDbEntity
  8
寸法
 62
     0
370
    -2
100
AcDbLine
 10
156.8315585182279
 20
48.4215216741176
 30
0.0
 11
156.8315585182279
 21
37.6041562171234
 31
0.0
  0
INSERT
  5
39AD
330
39A8
100
AcDbEntity
  8
寸法
 62
     0
370
    -2
100
AcDbBlockReference
  2
_DOT
 10
156.8315585182279
 20
50.4215216741176
 30
0.0
 41
2.0
 42
2.0
 43
2.0
 50
90.0
  0
INSERT
  5
39AE
330
39A8
100
AcDbEntity
  8
寸法
 62
     0
370
    -2
100
AcDbBlockReference
  2
_DOT
 10
156.8315585182279
 20
35.6041562171234
 30
0.0
 41
2.0
 42
2.0
 43
2.0
 50
270.0
  0
MTEXT
  5
39AF
330
39A8
100
AcDbEntity
  8
寸法
 62
     0
100
AcDbMText
 10
149.3315585182279
 20
43.26831551848721
 30
0.0
 40
5.0
 41
0.0
 46
0.0
 71
     5
 72
     1
  1
\A1;15
  7
ＭＳ ゴシック
 11
0.0
 21
1.0
 31
0.0
 73
     1
 44
1.0
  0
POINT
  5
39B0
330
39A8
100
AcDbEntity
  8
Defpoints
 62
     0
100
AcDbPoint
 10
134.4682658059849
 20
50.4215216741176
 30
0.0
  0
POINT
  5
39B1
330
39A8
100
AcDbEntity
  8
Defpoints
 62
     0
100
AcDbPoint
 10
134.4682658059849
 20
35.6041562171234
 30
0.0
  0
POINT
  5
39B2
330
39A8
100
AcDbEntity
  8
Defpoints
 62
     0
100
AcDbPoint
 10
156.8315585182279
 20
35.6041562171234
 30
0.0
  0
ENDBLK
  5
39B3
330
39A8
100
AcDbEntity
  8
0
100
AcDbBlockEnd
  0
BLOCK
  5
39B8
330
39B7
100
AcDbEntity
  8
0
100
AcDbBlockBegin
  2
*D21
 70
     1
 10
0.0
 20
0.0
 30
0.0
  3
*D21
  1
*D46
  0
LINE
  5
39B9
330
39B7
100
AcDbEntity
  8
寸法
 62
     0
370
    -2
100
AcDbLine
 10
139.4682658059849
 20
166.8597080771391
 30
0.0
 11
173.677299873684
 21
166.8597080771391
 31
0.0
  0
LINE
  5
39BA
330
39B7
100
AcDbEntity
  8
寸法
 62
     0
370
    -2
100
AcDbLine
 10
74.69870540742588
 20
224.0104347839655
 30
0.0
 11
173.677299873684
 21
224.0104347839655
 31
0.0
  0
LINE
  5
39BB
330
39B7
100
AcDbEntity
  8
寸法
 62
     0
370
    -2
100
AcDbLine
 10
173.677299873684
 20
168.8597080771391
 30
0.0
 11
173.677299873684
 21
222.0104347839655
 31
0.0
  0
INSERT
  5
39BC
330
39B7
100
AcDbEntity
  8
寸法
 62
     0
370
    -2
100
AcDbBlockReference
  2
_DOT
 10
173.677299873684
 20
166.8597080771391
 30
0.0
 41
2.0
 42
2.0
 43
2.0
 50
270.0
  0
INSERT
  5
39BD
330
39B7
100
AcDbEntity
  8
寸法
 62
     0
370
    -2
100
AcDbBlockReference
  2
_DOT
 10
173.677299873684
 20
224.0104347839655
 30
0.0
 41
2.0
 42
2.0
 43
2.0
 50
90.0
  0
MTEXT
  5
39BE
330
39B7
100
AcDbEntity
  8
寸法
 62
     0
100
AcDbMText
 10
166.177299873684
 20
195.4350714305523
 30
0.0
 40
5.0
 41
0.0
 46
0.0
 71
     5
 72
     1
  1
\A1;57
  7
ＭＳ ゴシック
 11
0.0
 21
1.0
 31
0.0
 73
     1
 44
1.0
  0
POINT
  5
39BF
330
39B7
100
AcDbEntity
  8
Defpoints
 62
     0
100
AcDbPoint
 10
134.4682658059849
 20
166.8597080771391
 30
0.0
  0
POINT
  5
39C0
330
39B7
100
AcDbEntity
  8
Defpoints
 62
     0
100
AcDbPoint
 10
69.69870540742588
 20
224.0104347839655
 30
0.0
  0
POINT
  5
39C1
330
39B7
100
AcDbEntity
  8
Defpoints
 62
     0
100
AcDbPoint
 10
173.677299873684
 20
224.0104347839655
 30
0.0
  0
ENDBLK
  5
39C2
330
39B7
100
AcDbEntity
  8
0
100
AcDbBlockEnd
  0
BLOCK
  5
39C7
330
39C6
100
AcDbEntity
  8
0
100
AcDbBlockBegin
  2
*D22
 70
     1
 10
0.0
 20
0.0
 30
0.0
  3
*D22
  1
*D47
  0
LINE
  5
39C8
330
39C6
100
AcDbEntity
  8
寸法
 62
     0
370
    -2
100
AcDbLine
 10
74.69870540742588
 20
224.0104347839655
 30
0.0
 11
153.1098097798007
 21
224.0104347839655
 31
0.0
  0
LINE
  5
39C9
330
39C6
100
AcDbEntity
  8
寸法
 62
     0
370
    -2
100
AcDbLine
 10
139.4682658059849
 20
181.6770735341324
 30
0.0
 11
153.1098097798007
 21
181.6770735341324
 31
0.0
  0
LINE
  5
39CA
330
39C6
100
AcDbEntity
  8
寸法
 62
     0
370
    -2
100
AcDbLine
 10
153.1098097798007
 20
222.0104347839655
 30
0.0
 11
153.1098097798007
 21
183.6770735341324
 31
0.0
  0
INSERT
  5
39CB
330
39C6
100
AcDbEntity
  8
寸法
 62
     0
370
    -2
100
AcDbBlockReference
  2
_DOT
 10
153.1098097798007
 20
224.0104347839655
 30
0.0
 41
2.0
 42
2.0
 43
2.0
 50
90.0
  0
INSERT
  5
39CC
330
39C6
100
AcDbEntity
  8
寸法
 62
     0
370
    -2
100
AcDbBlockReference
  2
_DOT
 10
153.1098097798007
 20
181.6770735341324
 30
0.0
 41
2.0
 42
2.0
 43
2.0
 50
270.0
  0
MTEXT
  5
39CD
330
39C6
100
AcDbEntity
  8
寸法
 62
     0
100
AcDbMText
 10
145.6098097798007
 20
202.843754159049
 30
0.0
 40
5.0
 41
0.0
 46
0.0
 71
     5
 72
     1
  1
\A1;42
  7
ＭＳ ゴシック
 11
0.0
 21
1.0
 31
0.0
 73
     1
 44
1.0
  0
POINT
  5
39CE
330
39C6
100
AcDbEntity
  8
Defpoints
 62
     0
100
AcDbPoint
 10
69.69870540742588
 20
224.0104347839655
 30
0.0
  0
POINT
  5
39CF
330
39C6
100
AcDbEntity
  8
Defpoints
 62
     0
100
AcDbPoint
 10
134.4682658059849
 20
181.6770735341324
 30
0.0
  0
POINT
  5
39D0
330
39C6
100
AcDbEntity
  8
Defpoints
 62
     0
100
AcDbPoint
 10
153.1098097798007
 20
181.6770735341324
 30
0.0
  0
ENDBLK
  5
39D1
330
39C6
100
AcDbEntity
  8
0
100
AcDbBlockEnd
  0
BLOCK
  5
39E3
330
39E2
100
AcDbEntity
  8
0
100
AcDbBlockBegin
  2
*D23
 70
     1
 10
0.0
 20
0.0
 30
0.0
  3
*D23
  1
*D51
  0
LINE
  5
39E4
330
39E2
100
AcDbEntity
  8
寸法
 62
     0
370
    -2
100
AcDbLine
 10
63.72088538776438
 20
37.80096543350609
 30
0.0
 11
63.72088538776438
 21
0.5108464693973076
 31
0.0
  0
LINE
  5
39E5
330
39E2
100
AcDbEntity
  8
寸法
 62
     0
370
    -2
100
AcDbLine
 10
25.88395212166938
 20
37.80096543350609
 30
0.0
 11
25.88395212166938
 21
0.5108464693973076
 31
0.0
  0
LINE
  5
39E6
330
39E2
100
AcDbEntity
  8
寸法
 62
     0
370
    -2
100
AcDbLine
 10
61.72088538776438
 20
0.5108464693973076
 30
0.0
 11
27.88395212166938
 21
0.5108464693973076
 31
0.0
  0
INSERT
  5
39E7
330
39E2
100
AcDbEntity
  8
寸法
 62
     0
370
    -2
100
AcDbBlockReference
  2
_DOT
 10
63.72088538776438
 20
0.5108464693973076
 30
0.0
 41
2.0
 42
2.0
 43
2.0
  0
INSERT
  5
39E8
330
39E2
100
AcDbEntity
  8
寸法
 62
     0
370
    -2
100
AcDbBlockReference
  2
_DOT
 10
25.88395212166938
 20
0.5108464693973076
 30
0.0
 41
2.0
 42
2.0
 43
2.0
 50
180.0
  0
MTEXT
  5
39E9
330
39E2
100
AcDbEntity
  8
寸法
 62
     0
100
AcDbMText
 10
44.80241875471688
 20
8.010846469397308
 30
0.0
 40
5.0
 41
0.0
 46
0.0
 71
     5
 72
     1
  1
\A1;38
  7
ＭＳ ゴシック
 73
     1
 44
1.0
  0
POINT
  5
39EA
330
39E2
100
AcDbEntity
  8
Defpoints
 62
     0
100
AcDbPoint
 10
63.72088538776438
 20
42.80096543350609
 30
0.0
  0
POINT
  5
39EB
330
39E2
100
AcDbEntity
  8
Defpoints
 62
     0
100
AcDbPoint
 10
25.88395212166938
 20
42.80096543350609
 30
0.0
  0
POINT
  5
39EC
330
39E2
100
AcDbEntity
  8
Defpoints
 62
     0
100
AcDbPoint
 10
25.88395212166938
 20
0.5108464693973076
 30
0.0
  0
ENDBLK
  5
39ED
330
39E2
100
AcDbEntity
  8
0
100
AcDbBlockEnd
  0
BLOCK
  5
39F2
330
39F1
100
AcDbEntity
  8
0
100
AcDbBlockBegin
  2
*D24
 70
     1
 10
0.0
 20
0.0
 30
0.0
  3
*D24
  1
*D52
  0
LINE
  5
39F3
330
39F1
100
AcDbEntity
  8
寸法
 62
     0
370
    -2
100
AcDbLine
 10
314.8282422312282
 20
12.8237527504389
 30
0.0
 11
314.8282422312282
 21
0.5
 31
0.0
  0
LINE
  5
39F4
330
39F1
100
AcDbEntity
  8
寸法
 62
     0
370
    -2
100
AcDbLine
 10
310.1704700624643
 20
12.8237527504389
 30
0.0
 11
310.1704700624643
 21
0.5
 31
0.0
  0
LINE
  5
39F5
330
39F1
100
AcDbEntity
  8
寸法
 62
     0
370
    -2
100
AcDbLine
 10
312.8282422312282
 20
0.5
 30
0.0
 11
312.1704700624643
 21
0.5
 31
0.0
  0
INSERT
  5
39F6
330
39F1
100
AcDbEntity
  8
寸法
 62
     0
370
    -2
100
AcDbBlockReference
  2
_DOT
 10
314.8282422312282
 20
0.5
 30
0.0
 41
2.0
 42
2.0
 43
2.0
  0
INSERT
  5
39F7
330
39F1
100
AcDbEntity
  8
寸法
 62
     0
370
    -2
100
AcDbBlockReference
  2
_DOT
 10
310.1704700624643
 20
0.5
 30
0.0
 41
2.0
 42
2.0
 43
2.0
 50
180.0
  0
MTEXT
  5
39F8
330
39F1
100
AcDbEntity
  8
寸法
 62
     0
100
AcDbMText
 10
312.4993561468462
 20
8.0
 30
0.0
 40
5.0
 41
0.0
 46
0.0
 71
     5
 72
     1
  1
\A1;5
  7
ＭＳ ゴシック
 73
     1
 44
1.0
  0
POINT
  5
39F9
330
39F1
100
AcDbEntity
  8
Defpoints
 62
     0
100
AcDbPoint
 10
314.8282422312282
 20
17.8237527504389
 30
0.0
  0
POINT
  5
39FA
330
39F1
100
AcDbEntity
  8
Defpoints
 62
     0
100
AcDbPoint
 10
310.1704700624643
 20
17.8237527504389
 30
0.0
  0
POINT
  5
39FB
330
39F1
100
AcDbEntity
  8
Defpoints
 62
     0
100
AcDbPoint
 10
310.1704700624643
 20
0.5
 30
0.0
  0
ENDBLK
  5
39FC
330
39F1
100
AcDbEntity
  8
0
100
AcDbBlockEnd
  0
BLOCK
  5
3AE1
330
3AE0
100
AcDbEntity
  8
0
100
AcDbBlockBegin
  2
*D25
 70
     1
 10
0.0
 20
0.0
 30
0.0
  3
*D25
  1
*D26
  0
LINE
  5
3AE3
330
3AE0
100
AcDbEntity
  8
寸法
 62
     0
370
    -2
100
AcDbLine
 10
141.8419307741243
 20
350.9532919268227
 30
0.0
 11
137.0971428571428
 21
350.9532919268227
 31
0.0
  0
LINE
  5
3AE4
330
3AE0
100
AcDbEntity
  8
寸法
 62
     0
370
    -2
100
AcDbLine
 10
141.8419307741243
 20
346.2955197580586
 30
0.0
 11
137.0971428571428
 21
346.2955197580586
 31
0.0
  0
LINE
  5
3AE5
330
3AE0
100
AcDbEntity
  8
寸法
 62
     0
370
    -2
100
AcDbLine
 10
137.0971428571428
 20
348.9532919268227
 30
0.0
 11
137.0971428571428
 21
348.2955197580586
 31
0.0
  0
INSERT
  5
3AE6
330
3AE0
100
AcDbEntity
  8
寸法
 62
     0
370
    -2
100
AcDbBlockReference
  2
_DOT
 10
137.0971428571428
 20
350.9532919268227
 30
0.0
 41
2.0
 42
2.0
 43
2.0
 50
90.0
  0
INSERT
  5
3AE7
330
3AE0
100
AcDbEntity
  8
寸法
 62
     0
370
    -2
100
AcDbBlockReference
  2
_DOT
 10
137.0971428571428
 20
346.2955197580586
 30
0.0
 41
2.0
 42
2.0
 43
2.0
 50
270.0
  0
MTEXT
  5
3AE8
330
3AE0
100
AcDbEntity
  8
寸法
 62
     0
100
AcDbMText
 10
129.5971428571428
 20
348.5786037814266
 30
0.0
 40
5.0
 41
0.0
 46
0.0
 71
     5
 72
     1
  1
\A1;5
  7
ＭＳ ゴシック
 11
0.0
 21
1.0
 31
0.0
 73
     1
 44
1.0
  0
POINT
  5
3AE9
330
3AE0
100
AcDbEntity
  8
Defpoints
 62
     0
100
AcDbPoint
 10
146.8419307741243
 20
350.9532919268227
 30
0.0
  0
POINT
  5
3AEA
330
3AE0
100
AcDbEntity
  8
Defpoints
 62
     0
100
AcDbPoint
 10
146.8419307741243
 20
346.2955197580586
 30
0.0
  0
POINT
  5
3AEB
330
3AE0
100
AcDbEntity
  8
Defpoints
 62
     0
100
AcDbPoint
 10
137.0971428571428
 20
346.2955197580586
 30
0.0
  0
ENDBLK
  5
3AE2
330
3AE0
100
AcDbEntity
  8
0
100
AcDbBlockEnd
  0
BLOCK
  5
3AED
330
3AEC
100
AcDbEntity
  8
0
100
AcDbBlockBegin
  2
*D26
 70
     1
 10
0.0
 20
0.0
 30
0.0
  3
*D26
  1
*D27
  0
LINE
  5
3AEF
330
3AEC
100
AcDbEntity
  8
寸法
 62
     0
370
    -2
100
AcDbLine
 10
157.0813207064681
 20
291.2635281723783
 30
0.0
 11
137.0971428571428
 21
291.2635281723783
 31
0.0
  0
LINE
  5
3AF0
330
3AEC
100
AcDbEntity
  8
寸法
 62
     0
370
    -2
100
AcDbLine
 10
157.0813207064681
 20
311.1589677246066
 30
0.0
 11
137.0971428571428
 21
311.1589677246066
 31
0.0
  0
LINE
  5
3AF1
330
3AEC
100
AcDbEntity
  8
寸法
 62
     0
370
    -2
100
AcDbLine
 10
137.0971428571428
 20
293.2635281723783
 30
0.0
 11
137.0971428571428
 21
309.1589677246066
 31
0.0
  0
INSERT
  5
3AF2
330
3AEC
100
AcDbEntity
  8
寸法
 62
     0
370
    -2
100
AcDbBlockReference
  2
_DOT
 10
137.0971428571428
 20
291.2635281723783
 30
0.0
 41
2.0
 42
2.0
 43
2.0
 50
270.0
  0
INSERT
  5
3AF3
330
3AEC
100
AcDbEntity
  8
寸法
 62
     0
370
    -2
100
AcDbBlockReference
  2
_DOT
 10
137.0971428571428
 20
311.1589677246066
 30
0.0
 41
2.0
 42
2.0
 43
2.0
 50
90.0
  0
MTEXT
  5
3AF4
330
3AEC
100
AcDbEntity
  8
寸法
 62
     0
100
AcDbMText
 10
129.5971428571428
 20
301.2112479484924
 30
0.0
 40
5.0
 41
0.0
 46
0.0
 71
     5
 72
     1
  1
\A1;20
  7
ＭＳ ゴシック
 11
0.0
 21
1.0
 31
0.0
 73
     1
 44
1.0
  0
POINT
  5
3AF5
330
3AEC
100
AcDbEntity
  8
Defpoints
 62
     0
100
AcDbPoint
 10
162.0813207064681
 20
291.2635281723783
 30
0.0
  0
POINT
  5
3AF6
330
3AEC
100
AcDbEntity
  8
Defpoints
 62
     0
100
AcDbPoint
 10
162.0813207064681
 20
311.1589677246066
 30
0.0
  0
POINT
  5
3AF7
330
3AEC
100
AcDbEntity
  8
Defpoints
 62
     0
100
AcDbPoint
 10
137.0971428571428
 20
311.1589677246066
 30
0.0
  0
ENDBLK
  5
3AEE
330
3AEC
100
AcDbEntity
  8
0
100
AcDbBlockEnd
  0
BLOCK
  5
3AF9
330
3AF8
100
AcDbEntity
  8
0
100
AcDbBlockBegin
  2
*D27
 70
     1
 10
0.0
 20
0.0
 30
0.0
  3
*D27
  1
*D28
  0
LINE
  5
3AFB
330
3AF8
100
AcDbEntity
  8
寸法
 62
     0
370
    -2
100
AcDbLine
 10
261.5654086631278
 20
288.8025652199963
 30
0.0
 11
261.5654086631278
 21
272.2370726621778
 31
0.0
  0
LINE
  5
3AFC
330
3AF8
100
AcDbEntity
  8
寸法
 62
     0
370
    -2
100
AcDbLine
 10
161.6592962311176
 20
286.6855526477289
 30
0.0
 11
161.6592962311176
 21
272.2370726621778
 31
0.0
  0
LINE
  5
3AFD
330
3AF8
100
AcDbEntity
  8
寸法
 62
     0
370
    -2
100
AcDbLine
 10
259.5654086631278
 20
272.2370726621778
 30
0.0
 11
163.6592962311176
 21
272.2370726621778
 31
0.0
  0
INSERT
  5
3AFE
330
3AF8
100
AcDbEntity
  8
寸法
 62
     0
370
    -2
100
AcDbBlockReference
  2
_DOT
 10
261.5654086631278
 20
272.2370726621778
 30
0.0
 41
2.0
 42
2.0
 43
2.0
  0
INSERT
  5
3AFF
330
3AF8
100
AcDbEntity
  8
寸法
 62
     0
370
    -2
100
AcDbBlockReference
  2
_DOT
 10
161.6592962311176
 20
272.2370726621778
 30
0.0
 41
2.0
 42
2.0
 43
2.0
 50
180.0
  0
MTEXT
  5
3B00
330
3AF8
100
AcDbEntity
  8
寸法
 62
     0
100
AcDbMText
 10
211.6123524471227
 20
279.7370726621778
 30
0.0
 40
5.0
 41
0.0
 46
0.0
 71
     5
 72
     1
  1
\A1;100
  7
ＭＳ ゴシック
 73
     1
 44
1.0
  0
POINT
  5
3B01
330
3AF8
100
AcDbEntity
  8
Defpoints
 62
     0
100
AcDbPoint
 10
261.5654086631278
 20
293.8025652199963
 30
0.0
  0
POINT
  5
3B02
330
3AF8
100
AcDbEntity
  8
Defpoints
 62
     0
100
AcDbPoint
 10
161.6592962311176
 20
291.6855526477289
 30
0.0
  0
POINT
  5
3B03
330
3AF8
100
AcDbEntity
  8
Defpoints
 62
     0
100
AcDbPoint
 10
161.6592962311176
 20
272.2370726621778
 30
0.0
  0
ENDBLK
  5
3AFA
330
3AF8
100
AcDbEntity
  8
0
100
AcDbBlockEnd
  0
BLOCK
  5
3B05
330
3B04
100
AcDbEntity
  8
0
100
AcDbBlockBegin
  2
*D28
 70
     1
 10
0.0
 20
0.0
 30
0.0
  3
*D28
  1
*D29
  0
LINE
  5
3B07
330
3B04
100
AcDbEntity
  8
寸法
 62
     0
370
    -2
100
AcDbLine
 10
157.0813207064681
 20
311.1589677246066
 30
0.0
 11
137.0971428571428
 21
311.1589677246066
 31
0.0
  0
LINE
  5
3B08
330
3B04
100
AcDbEntity
  8
寸法
 62
     0
370
    -2
100
AcDbLine
 10
141.8419307741243
 20
346.2955197580586
 30
0.0
 11
137.0971428571428
 21
346.2955197580586
 31
0.0
  0
LINE
  5
3B09
330
3B04
100
AcDbEntity
  8
寸法
 62
     0
370
    -2
100
AcDbLine
 10
137.0971428571428
 20
313.1589677246066
 30
0.0
 11
137.0971428571428
 21
344.2955197580586
 31
0.0
  0
INSERT
  5
3B0A
330
3B04
100
AcDbEntity
  8
寸法
 62
     0
370
    -2
100
AcDbBlockReference
  2
_DOT
 10
137.0971428571428
 20
311.1589677246066
 30
0.0
 41
2.0
 42
2.0
 43
2.0
 50
270.0
  0
INSERT
  5
3B0B
330
3B04
100
AcDbEntity
  8
寸法
 62
     0
370
    -2
100
AcDbBlockReference
  2
_DOT
 10
137.0971428571428
 20
346.2955197580586
 30
0.0
 41
2.0
 42
2.0
 43
2.0
 50
90.0
  0
MTEXT
  5
3B0C
330
3B04
100
AcDbEntity
  8
寸法
 62
     0
100
AcDbMText
 10
129.5971428571428
 20
328.7272437413326
 30
0.0
 40
5.0
 41
0.0
 46
0.0
 71
     5
 72
     1
  1
\A1;35
  7
ＭＳ ゴシック
 11
0.0
 21
1.0
 31
0.0
 73
     1
 44
1.0
  0
POINT
  5
3B0D
330
3B04
100
AcDbEntity
  8
Defpoints
 62
     0
100
AcDbPoint
 10
162.0813207064681
 20
311.1589677246066
 30
0.0
  0
POINT
  5
3B0E
330
3B04
100
AcDbEntity
  8
Defpoints
 62
     0
100
AcDbPoint
 10
146.8419307741243
 20
346.2955197580586
 30
0.0
  0
POINT
  5
3B0F
330
3B04
100
AcDbEntity
  8
Defpoints
 62
     0
100
AcDbPoint
 10
137.0971428571428
 20
346.2955197580586
 30
0.0
  0
ENDBLK
  5
3B06
330
3B04
100
AcDbEntity
  8
0
100
AcDbBlockEnd
  0
BLOCK
  5
3B11
330
3B10
100
AcDbEntity
  8
0
100
AcDbBlockBegin
  2
*D29
 70
     1
 10
0.0
 20
0.0
 30
0.0
  3
*D29
  1
*D30
  0
LINE
  5
3B13
330
3B10
100
AcDbEntity
  8
寸法
 62
     0
370
    -2
100
AcDbLine
 10
166.8180282449072
 20
144.7666257071893
 30
0.0
 11
137.0971428571428
 21
144.7666257071893
 31
0.0
  0
LINE
  5
3B14
330
3B10
100
AcDbEntity
  8
寸法
 62
     0
370
    -2
100
AcDbLine
 10
166.8180282449072
 20
195.1447822836593
 30
0.0
 11
137.0971428571428
 21
195.1447822836593
 31
0.0
  0
LINE
  5
3B15
330
3B10
100
AcDbEntity
  8
寸法
 62
     0
370
    -2
100
AcDbLine
 10
137.0971428571428
 20
146.7666257071893
 30
0.0
 11
137.0971428571428
 21
193.1447822836593
 31
0.0
  0
INSERT
  5
3B16
330
3B10
100
AcDbEntity
  8
寸法
 62
     0
370
    -2
100
AcDbBlockReference
  2
_DOT
 10
137.0971428571428
 20
144.7666257071893
 30
0.0
 41
2.0
 42
2.0
 43
2.0
 50
270.0
  0
INSERT
  5
3B17
330
3B10
100
AcDbEntity
  8
寸法
 62
     0
370
    -2
100
AcDbBlockReference
  2
_DOT
 10
137.0971428571428
 20
195.1447822836593
 30
0.0
 41
2.0
 42
2.0
 43
2.0
 50
90.0
  0
MTEXT
  5
3B18
330
3B10
100
AcDbEntity
  8
寸法
 62
     0
100
AcDbMText
 10
129.5971428571428
 20
169.9557039954243
 30
0.0
 40
5.0
 41
0.0
 46
0.0
 71
     5
 72
     1
  1
\A1;50
  7
ＭＳ ゴシック
 11
0.0
 21
1.0
 31
0.0
 73
     1
 44
1.0
  0
POINT
  5
3B19
330
3B10
100
AcDbEntity
  8
Defpoints
 62
     0
100
AcDbPoint
 10
171.8180282449072
 20
144.7666257071893
 30
0.0
  0
POINT
  5
3B1A
330
3B10
100
AcDbEntity
  8
Defpoints
 62
     0
100
AcDbPoint
 10
171.8180282449072
 20
195.1447822836593
 30
0.0
  0
POINT
  5
3B1B
330
3B10
100
AcDbEntity
  8
Defpoints
 62
     0
100
AcDbPoint
 10
137.0971428571428
 20
195.1447822836593
 30
0.0
  0
ENDBLK
  5
3B12
330
3B10
100
AcDbEntity
  8
0
100
AcDbBlockEnd
  0
BLOCK
  5
3B1D
330
3B1C
100
AcDbEntity
  8
0
100
AcDbBlockBegin
  2
*D30
 70
     1
 10
0.0
 20
0.0
 30
0.0
  3
*D30
  1
*D31
  0
LINE
  5
3B1F
330
3B1C
100
AcDbEntity
  8
寸法
 62
     0
370
    -2
100
AcDbLine
 10
266.5654086631278
 20
177.3643788169747
 30
0.0
 11
283.9287013753707
 21
177.3643788169747
 31
0.0
  0
LINE
  5
3B20
330
3B1C
100
AcDbEntity
  8
寸法
 62
     0
370
    -2
100
AcDbLine
 10
266.5654086631278
 20
162.5470133599805
 30
0.0
 11
283.9287013753707
 21
162.5470133599805
 31
0.0
  0
LINE
  5
3B21
330
3B1C
100
AcDbEntity
  8
寸法
 62
     0
370
    -2
100
AcDbLine
 10
283.9287013753707
 20
175.3643788169747
 30
0.0
 11
283.9287013753707
 21
164.5470133599805
 31
0.0
  0
INSERT
  5
3B22
330
3B1C
100
AcDbEntity
  8
寸法
 62
     0
370
    -2
100
AcDbBlockReference
  2
_DOT
 10
283.9287013753707
 20
177.3643788169747
 30
0.0
 41
2.0
 42
2.0
 43
2.0
 50
90.0
  0
INSERT
  5
3B23
330
3B1C
100
AcDbEntity
  8
寸法
 62
     0
370
    -2
100
AcDbBlockReference
  2
_DOT
 10
283.9287013753707
 20
162.5470133599805
 30
0.0
 41
2.0
 42
2.0
 43
2.0
 50
270.0
  0
MTEXT
  5
3B24
330
3B1C
100
AcDbEntity
  8
寸法
 62
     0
100
AcDbMText
 10
276.4287013753707
 20
170.2111726613443
 30
0.0
 40
5.0
 41
0.0
 46
0.0
 71
     5
 72
     1
  1
\A1;15
  7
ＭＳ ゴシック
 11
0.0
 21
1.0
 31
0.0
 73
     1
 44
1.0
  0
POINT
  5
3B25
330
3B1C
100
AcDbEntity
  8
Defpoints
 62
     0
100
AcDbPoint
 10
261.5654086631278
 20
177.3643788169747
 30
0.0
  0
POINT
  5
3B26
330
3B1C
100
AcDbEntity
  8
Defpoints
 62
     0
100
AcDbPoint
 10
261.5654086631278
 20
162.5470133599805
 30
0.0
  0
POINT
  5
3B27
330
3B1C
100
AcDbEntity
  8
Defpoints
 62
     0
100
AcDbPoint
 10
283.9287013753707
 20
162.5470133599805
 30
0.0
  0
ENDBLK
  5
3B1E
330
3B1C
100
AcDbEntity
  8
0
100
AcDbBlockEnd
  0
BLOCK
  5
3B29
330
3B28
100
AcDbEntity
  8
0
100
AcDbBlockBegin
  2
*D31
 70
     1
 10
0.0
 20
0.0
 30
0.0
  3
*D31
  1
*D32
  0
LINE
  5
3B2B
330
3B28
100
AcDbEntity
  8
寸法
 62
     0
370
    -2
100
AcDbLine
 10
266.5654086631278
 20
293.8025652199963
 30
0.0
 11
300.7744427308268
 21
293.8025652199963
 31
0.0
  0
LINE
  5
3B2C
330
3B28
100
AcDbEntity
  8
寸法
 62
     0
370
    -2
100
AcDbLine
 10
201.7958482645687
 20
350.9532919268227
 30
0.0
 11
300.7744427308268
 21
350.9532919268227
 31
0.0
  0
LINE
  5
3B2D
330
3B28
100
AcDbEntity
  8
寸法
 62
     0
370
    -2
100
AcDbLine
 10
300.7744427308268
 20
295.8025652199963
 30
0.0
 11
300.7744427308268
 21
348.9532919268227
 31
0.0
  0
INSERT
  5
3B2E
330
3B28
100
AcDbEntity
  8
寸法
 62
     0
370
    -2
100
AcDbBlockReference
  2
_DOT
 10
300.7744427308268
 20
293.8025652199963
 30
0.0
 41
2.0
 42
2.0
 43
2.0
 50
270.0
  0
INSERT
  5
3B2F
330
3B28
100
AcDbEntity
  8
寸法
 62
     0
370
    -2
100
AcDbBlockReference
  2
_DOT
 10
300.7744427308268
 20
350.9532919268227
 30
0.0
 41
2.0
 42
2.0
 43
2.0
 50
90.0
  0
MTEXT
  5
3B30
330
3B28
100
AcDbEntity
  8
寸法
 62
     0
100
AcDbMText
 10
293.2744427308268
 20
322.3779285734095
 30
0.0
 40
5.0
 41
0.0
 46
0.0
 71
     5
 72
     1
  1
\A1;57
  7
ＭＳ ゴシック
 11
0.0
 21
1.0
 31
0.0
 73
     1
 44
1.0
  0
POINT
  5
3B31
330
3B28
100
AcDbEntity
  8
Defpoints
 62
     0
100
AcDbPoint
 10
261.5654086631278
 20
293.8025652199963
 30
0.0
  0
POINT
  5
3B32
330
3B28
100
AcDbEntity
  8
Defpoints
 62
     0
100
AcDbPoint
 10
196.7958482645687
 20
350.9532919268227
 30
0.0
  0
POINT
  5
3B33
330
3B28
100
AcDbEntity
  8
Defpoints
 62
     0
100
AcDbPoint
 10
300.7744427308268
 20
350.9532919268227
 30
0.0
  0
ENDBLK
  5
3B2A
330
3B28
100
AcDbEntity
  8
0
100
AcDbBlockEnd
  0
BLOCK
  5
3B35
330
3B34
100
AcDbEntity
  8
0
100
AcDbBlockBegin
  2
*D32
 70
     1
 10
0.0
 20
0.0
 30
0.0
  3
*D32
  1
*D33
  0
LINE
  5
3B37
330
3B34
100
AcDbEntity
  8
寸法
 62
     0
370
    -2
100
AcDbLine
 10
201.7958482645687
 20
350.9532919268227
 30
0.0
 11
280.2069526369435
 21
350.9532919268227
 31
0.0
  0
LINE
  5
3B38
330
3B34
100
AcDbEntity
  8
寸法
 62
     0
370
    -2
100
AcDbLine
 10
266.5654086631278
 20
308.6199306769895
 30
0.0
 11
280.2069526369435
 21
308.6199306769895
 31
0.0
  0
LINE
  5
3B39
330
3B34
100
AcDbEntity
  8
寸法
 62
     0
370
    -2
100
AcDbLine
 10
280.2069526369435
 20
348.9532919268227
 30
0.0
 11
280.2069526369435
 21
310.6199306769895
 31
0.0
  0
INSERT
  5
3B3A
330
3B34
100
AcDbEntity
  8
寸法
 62
     0
370
    -2
100
AcDbBlockReference
  2
_DOT
 10
280.2069526369435
 20
350.9532919268227
 30
0.0
 41
2.0
 42
2.0
 43
2.0
 50
90.0
  0
INSERT
  5
3B3B
330
3B34
100
AcDbEntity
  8
寸法
 62
     0
370
    -2
100
AcDbBlockReference
  2
_DOT
 10
280.2069526369435
 20
308.6199306769895
 30
0.0
 41
2.0
 42
2.0
 43
2.0
 50
270.0
  0
MTEXT
  5
3B3C
330
3B34
100
AcDbEntity
  8
寸法
 62
     0
100
AcDbMText
 10
272.7069526369435
 20
329.7866113019061
 30
0.0
 40
5.0
 41
0.0
 46
0.0
 71
     5
 72
     1
  1
\A1;42
  7
ＭＳ ゴシック
 11
0.0
 21
1.0
 31
0.0
 73
     1
 44
1.0
  0
POINT
  5
3B3D
330
3B34
100
AcDbEntity
  8
Defpoints
 62
     0
100
AcDbPoint
 10
196.7958482645687
 20
350.9532919268227
 30
0.0
  0
POINT
  5
3B3E
330
3B34
100
AcDbEntity
  8
Defpoints
 62
     0
100
AcDbPoint
 10
261.5654086631278
 20
308.6199306769895
 30
0.0
  0
POINT
  5
3B3F
330
3B34
100
AcDbEntity
  8
Defpoints
 62
     0
100
AcDbPoint
 10
280.2069526369435
 20
308.6199306769895
 30
0.0
  0
ENDBLK
  5
3B36
330
3B34
100
AcDbEntity
  8
0
100
AcDbBlockEnd
  0
BLOCK
  5
3B41
330
3B40
100
AcDbEntity
  8
0
100
AcDbBlockBegin
  2
*D33
 70
     1
 10
0.0
 20
0.0
 30
0.0
  3
*D33
  1
*D34
  0
LINE
  5
3B43
330
3B40
100
AcDbEntity
  8
寸法
 62
     0
370
    -2
100
AcDbLine
 10
190.8180282449072
 20
164.7438225763632
 30
0.0
 11
190.8180282449072
 21
127.4537036122544
 31
0.0
  0
LINE
  5
3B44
330
3B40
100
AcDbEntity
  8
寸法
 62
     0
370
    -2
100
AcDbLine
 10
152.9810949788122
 20
164.7438225763632
 30
0.0
 11
152.9810949788122
 21
127.4537036122544
 31
0.0
  0
LINE
  5
3B45
330
3B40
100
AcDbEntity
  8
寸法
 62
     0
370
    -2
100
AcDbLine
 10
188.8180282449072
 20
127.4537036122544
 30
0.0
 11
154.9810949788122
 21
127.4537036122544
 31
0.0
  0
INSERT
  5
3B46
330
3B40
100
AcDbEntity
  8
寸法
 62
     0
370
    -2
100
AcDbBlockReference
  2
_DOT
 10
190.8180282449072
 20
127.4537036122544
 30
0.0
 41
2.0
 42
2.0
 43
2.0
  0
INSERT
  5
3B47
330
3B40
100
AcDbEntity
  8
寸法
 62
     0
370
    -2
100
AcDbBlockReference
  2
_DOT
 10
152.9810949788122
 20
127.4537036122544
 30
0.0
 41
2.0
 42
2.0
 43
2.0
 50
180.0
  0
MTEXT
  5
3B48
330
3B40
100
AcDbEntity
  8
寸法
 62
     0
100
AcDbMText
 10
171.8995616118597
 20
134.9537036122544
 30
0.0
 40
5.0
 41
0.0
 46
0.0
 71
     5
 72
     1
  1
\A1;38
  7
ＭＳ ゴシック
 73
     1
 44
1.0
  0
POINT
  5
3B49
330
3B40
100
AcDbEntity
  8
Defpoints
 62
     0
100
AcDbPoint
 10
190.8180282449072
 20
169.7438225763632
 30
0.0
  0
POINT
  5
3B4A
330
3B40
100
AcDbEntity
  8
Defpoints
 62
     0
100
AcDbPoint
 10
152.9810949788122
 20
169.7438225763632
 30
0.0
  0
POINT
  5
3B4B
330
3B40
100
AcDbEntity
  8
Defpoints
 62
     0
100
AcDbPoint
 10
152.9810949788122
 20
127.4537036122544
 30
0.0
  0
ENDBLK
  5
3B42
330
3B40
100
AcDbEntity
  8
0
100
AcDbBlockEnd
  0
BLOCK
  5
3B4D
330
3B4C
100
AcDbEntity
  8
0
100
AcDbBlockBegin
  2
*D34
 70
     1
 10
0.0
 20
0.0
 30
0.0
  3
*D34
  1
*D35
  0
LINE
  5
3B4F
330
3B4C
100
AcDbEntity
  8
寸法
 62
     0
370
    -2
100
AcDbLine
 10
431.4339565169425
 20
139.766609893296
 30
0.0
 11
431.4339565169425
 21
127.4428571428571
 31
0.0
  0
LINE
  5
3B50
330
3B4C
100
AcDbEntity
  8
寸法
 62
     0
370
    -2
100
AcDbLine
 10
426.7761843481786
 20
139.766609893296
 30
0.0
 11
426.7761843481786
 21
127.4428571428571
 31
0.0
  0
LINE
  5
3B51
330
3B4C
100
AcDbEntity
  8
寸法
 62
     0
370
    -2
100
AcDbLine
 10
429.4339565169425
 20
127.4428571428571
 30
0.0
 11
428.7761843481786
 21
127.4428571428571
 31
0.0
  0
INSERT
  5
3B52
330
3B4C
100
AcDbEntity
  8
寸法
 62
     0
370
    -2
100
AcDbBlockReference
  2
_DOT
 10
431.4339565169425
 20
127.4428571428571
 30
0.0
 41
2.0
 42
2.0
 43
2.0
  0
INSERT
  5
3B53
330
3B4C
100
AcDbEntity
  8
寸法
 62
     0
370
    -2
100
AcDbBlockReference
  2
_DOT
 10
426.7761843481786
 20
127.4428571428571
 30
0.0
 41
2.0
 42
2.0
 43
2.0
 50
180.0
  0
MTEXT
  5
3B54
330
3B4C
100
AcDbEntity
  8
寸法
 62
     0
100
AcDbMText
 10
429.1050704325605
 20
134.9428571428571
 30
0.0
 40
5.0
 41
0.0
 46
0.0
 71
     5
 72
     1
  1
\A1;5
  7
ＭＳ ゴシック
 73
     1
 44
1.0
  0
POINT
  5
3B55
330
3B4C
100
AcDbEntity
  8
Defpoints
 62
     0
100
AcDbPoint
 10
431.4339565169425
 20
144.766609893296
 30
0.0
  0
POINT
  5
3B56
330
3B4C
100
AcDbEntity
  8
Defpoints
 62
     0
100
AcDbPoint
 10
426.7761843481786
 20
144.766609893296
 30
0.0
  0
POINT
  5
3B57
330
3B4C
100
AcDbEntity
  8
Defpoints
 62
     0
100
AcDbPoint
 10
426.7761843481786
 20
127.4428571428571
 30
0.0
  0
ENDBLK
  5
3B4E
330
3B4C
100
AcDbEntity
  8
0
100
AcDbBlockEnd
  0
BLOCK
  5
3C18
330
3C17
100
AcDbEntity
  8
0
100
AcDbBlockBegin
  2
*D35
 70
     1
 10
0.0
 20
0.0
 30
0.0
  3
*D35
  1
*D16
  0
LINE
  5
3C19
330
3C17
100
AcDbEntity
  8
寸法
 62
     0
370
    -2
100
AcDbLine
 10
32.06858160197294
 20
91.28108679034571
 30
0.0
 11
10.0
 21
91.28108679034571
 31
0.0
  0
LINE
  5
3C1A
330
3C17
100
AcDbEntity
  8
寸法
 62
     0
370
    -2
100
AcDbLine
 10
32.06858160197294
 20
23.5470197710605
 30
0.0
 11
10.0
 21
23.5470197710605
 31
0.0
  0
LINE
  5
3C1B
330
3C17
100
AcDbEntity
  8
寸法
 62
     0
370
    -2
100
AcDbLine
 10
10.0
 20
89.28108679034571
 30
0.0
 11
10.0
 21
25.5470197710605
 31
0.0
  0
INSERT
  5
3C1C
330
3C17
100
AcDbEntity
  8
寸法
 62
     0
370
    -2
100
AcDbBlockReference
  2
_DOT
 10
10.0
 20
91.28108679034571
 30
0.0
 41
2.0
 42
2.0
 43
2.0
 50
90.0
  0
INSERT
  5
3C1D
330
3C17
100
AcDbEntity
  8
寸法
 62
     0
370
    -2
100
AcDbBlockReference
  2
_DOT
 10
10.0
 20
23.5470197710605
 30
0.0
 41
2.0
 42
2.0
 43
2.0
 50
270.0
  0
MTEXT
  5
3C1E
330
3C17
100
AcDbEntity
  8
寸法
 62
     0
100
AcDbMText
 10
2.500000000000002
 20
57.41405328070311
 30
0.0
 40
5.0
 41
0.0
 46
0.0
 71
     5
 72
     1
  1
\A1;68
  7
ＭＳ ゴシック
 11
5.245091333123367E-17
 21
1.0
 31
0.0
 73
     1
 44
1.0
  0
POINT
  5
3C1F
330
3C17
100
AcDbEntity
  8
Defpoints
 62
     0
100
AcDbPoint
 10
37.06858160197294
 20
91.28108679034571
 30
0.0
  0
POINT
  5
3C20
330
3C17
100
AcDbEntity
  8
Defpoints
 62
     0
100
AcDbPoint
 10
37.06858160197294
 20
23.5470197710605
 30
0.0
  0
POINT
  5
3C21
330
3C17
100
AcDbEntity
  8
Defpoints
 62
     0
100
AcDbPoint
 10
10.0
 20
23.5470197710605
 30
0.0
  0
ENDBLK
  5
3C22
330
3C17
100
AcDbEntity
  8
0
100
AcDbBlockEnd
  0
BLOCK
  5
3C27
330
3C26
100
AcDbEntity
  8
0
100
AcDbBlockBegin
  2
*D36
 70
     1
 10
0.0
 20
0.0
 30
0.0
  3
*D36
  1
*D17
  0
LINE
  5
3C28
330
3C26
100
AcDbEntity
  8
寸法
 62
     0
370
    -2
100
AcDbLine
 10
527.6344400001251
 20
91.28108679034571
 30
0.0
 11
547.8702609313852
 21
91.28108679034571
 31
0.0
  0
LINE
  5
3C29
330
3C26
100
AcDbEntity
  8
寸法
 62
     0
370
    -2
100
AcDbLine
 10
527.6344400001251
 20
23.5470197710605
 30
0.0
 11
547.8702609313852
 21
23.5470197710605
 31
0.0
  0
LINE
  5
3C2A
330
3C26
100
AcDbEntity
  8
寸法
 62
     0
370
    -2
100
AcDbLine
 10
547.8702609313852
 20
89.28108679034571
 30
0.0
 11
547.8702609313852
 21
25.5470197710605
 31
0.0
  0
INSERT
  5
3C2B
330
3C26
100
AcDbEntity
  8
寸法
 62
     0
370
    -2
100
AcDbBlockReference
  2
_DOT
 10
547.8702609313852
 20
91.28108679034571
 30
0.0
 41
2.0
 42
2.0
 43
2.0
 50
90.0
  0
INSERT
  5
3C2C
330
3C26
100
AcDbEntity
  8
寸法
 62
     0
370
    -2
100
AcDbBlockReference
  2
_DOT
 10
547.8702609313852
 20
23.5470197710605
 30
0.0
 41
2.0
 42
2.0
 43
2.0
 50
270.0
  0
MTEXT
  5
3C2D
330
3C26
100
AcDbEntity
  8
寸法
 62
     0
100
AcDbMText
 10
540.3702609313852
 20
57.41405328070311
 30
0.0
 40
5.0
 41
0.0
 46
0.0
 71
     5
 72
     1
  1
\A1;68
  7
ＭＳ ゴシック
 11
0.0
 21
1.0
 31
0.0
 73
     1
 44
1.0
  0
POINT
  5
3C2E
330
3C26
100
AcDbEntity
  8
Defpoints
 62
     0
100
AcDbPoint
 10
522.6344400001251
 20
91.28108679034571
 30
0.0
  0
POINT
  5
3C2F
330
3C26
100
AcDbEntity
  8
Defpoints
 62
     0
100
AcDbPoint
 10
522.6344400001251
 20
23.5470197710605
 30
0.0
  0
POINT
  5
3C30
330
3C26
100
AcDbEntity
  8
Defpoints
 62
     0
100
AcDbPoint
 10
547.8702609313852
 20
23.5470197710605
 30
0.0
  0
ENDBLK
  5
3C31
330
3C26
100
AcDbEntity
  8
0
100
AcDbBlockEnd
  0
BLOCK
  5
3C34
330
3C33
100
AcDbEntity
  8
0
100
AcDbBlockBegin
  2
*D37
 70
     1
 10
0.0
 20
0.0
 30
0.0
  3
*D37
  1
*D18
  0
LINE
  5
3C35
330
3C33
100
AcDbEntity
  8
寸法
 62
     0
370
    -2
100
AcDbLine
 10
522.6344400001251
 20
18.5470197710605
 30
0.0
 11
522.6344400001251
 21
0.5
 31
0.0
  0
LINE
  5
3C36
330
3C33
100
AcDbEntity
  8
寸法
 62
     0
370
    -2
100
AcDbLine
 10
507.6344400001251
 20
18.5470197710605
 30
0.0
 11
507.6344400001251
 21
0.5
 31
0.0
  0
LINE
  5
3C37
330
3C33
100
AcDbEntity
  8
寸法
 62
     0
370
    -2
100
AcDbLine
 10
520.6344400001251
 20
0.5
 30
0.0
 11
509.6344400001251
 21
0.5
 31
0.0
  0
INSERT
  5
3C38
330
3C33
100
AcDbEntity
  8
寸法
 62
     0
370
    -2
100
AcDbBlockReference
  2
_DOT
 10
522.6344400001251
 20
0.5
 30
0.0
 41
2.0
 42
2.0
 43
2.0
  0
INSERT
  5
3C39
330
3C33
100
AcDbEntity
  8
寸法
 62
     0
370
    -2
100
AcDbBlockReference
  2
_DOT
 10
507.6344400001251
 20
0.5
 30
0.0
 41
2.0
 42
2.0
 43
2.0
 50
180.0
  0
MTEXT
  5
3C3A
330
3C33
100
AcDbEntity
  8
寸法
 62
     0
100
AcDbMText
 10
514.6493836031327
 20
8.0
 30
0.0
 40
5.0
 41
0.0
 46
0.0
 71
     5
 72
     1
  1
\A1;15
  7
ＭＳ ゴシック
 73
     1
 44
1.0
  0
POINT
  5
3C3B
330
3C33
100
AcDbEntity
  8
Defpoints
 62
     0
100
AcDbPoint
 10
522.6344400001251
 20
23.5470197710605
 30
0.0
  0
POINT
  5
3C3C
330
3C33
100
AcDbEntity
  8
Defpoints
 62
     0
100
AcDbPoint
 10
507.6344400001251
 20
23.5470197710605
 30
0.0
  0
POINT
  5
3C3D
330
3C33
100
AcDbEntity
  8
Defpoints
 62
     0
100
AcDbPoint
 10
507.6344400001251
 20
0.5
 30
0.0
  0
ENDBLK
  5
3C3E
330
3C33
100
AcDbEntity
  8
0
100
AcDbBlockEnd
  0
BLOCK
  5
3C41
330
3C40
100
AcDbEntity
  8
0
100
AcDbBlockBegin
  2
*D38
 70
     1
 10
0.0
 20
0.0
 30
0.0
  3
*D38
  1
*D19
  0
LINE
  5
3C42
330
3C40
100
AcDbEntity
  8
寸法
 62
     0
370
    -2
100
AcDbLine
 10
437.1202234520003
 20
96.28108679034571
 30
0.0
 11
437.1202234520003
 21
114.2313903958224
 31
0.0
  0
LINE
  5
3C43
330
3C40
100
AcDbEntity
  8
寸法
 62
     0
370
    -2
100
AcDbLine
 10
57.12022345200035
 20
96.28108679034571
 30
0.0
 11
57.12022345200035
 21
114.2313903958224
 31
0.0
  0
LINE
  5
3C44
330
3C40
100
AcDbEntity
  8
寸法
 62
     0
370
    -2
100
AcDbLine
 10
435.1202234520003
 20
114.2313903958224
 30
0.0
 11
59.12022345200035
 21
114.2313903958224
 31
0.0
  0
INSERT
  5
3C45
330
3C40
100
AcDbEntity
  8
寸法
 62
     0
370
    -2
100
AcDbBlockReference
  2
_DOT
 10
437.1202234520003
 20
114.2313903958224
 30
0.0
 41
2.0
 42
2.0
 43
2.0
  0
INSERT
  5
3C46
330
3C40
100
AcDbEntity
  8
寸法
 62
     0
370
    -2
100
AcDbBlockReference
  2
_DOT
 10
57.12022345200035
 20
114.2313903958224
 30
0.0
 41
2.0
 42
2.0
 43
2.0
 50
180.0
  0
MTEXT
  5
3C47
330
3C40
100
AcDbEntity
  8
寸法
 62
     0
100
AcDbMText
 10
247.1202234520003
 20
121.7313903958224
 30
0.0
 40
5.0
 41
0.0
 46
0.0
 71
     5
 72
     1
  1
\A1;380
  7
ＭＳ ゴシック
 73
     1
 44
1.0
  0
POINT
  5
3C48
330
3C40
100
AcDbEntity
  8
Defpoints
 62
     0
100
AcDbPoint
 10
437.1202234520003
 20
91.28108679034571
 30
0.0
  0
POINT
  5
3C49
330
3C40
100
AcDbEntity
  8
Defpoints
 62
     0
100
AcDbPoint
 10
57.12022345200035
 20
91.28108679034571
 30
0.0
  0
POINT
  5
3C4A
330
3C40
100
AcDbEntity
  8
Defpoints
 62
     0
100
AcDbPoint
 10
57.12022345200035
 20
114.2313903958224
 30
0.0
  0
ENDBLK
  5
3C4B
330
3C40
100
AcDbEntity
  8
0
100
AcDbBlockEnd
  0
BLOCK
  5
3C4E
330
3C4D
100
AcDbEntity
  8
0
100
AcDbBlockBegin
  2
*D39
 70
     1
 10
0.0
 20
0.0
 30
0.0
  3
*D39
  1
*D20
  0
LINE
  5
3C4F
330
3C4D
100
AcDbEntity
  8
寸法
 62
     0
370
    -2
100
AcDbLine
 10
431.1929327594278
 20
39.61373397789231
 30
0.0
 11
431.1929327594278
 21
0.5
 31
0.0
  0
LINE
  5
3C50
330
3C4D
100
AcDbEntity
  8
寸法
 62
     0
370
    -2
100
AcDbLine
 10
63.19293275942778
 20
39.61373397789231
 30
0.0
 11
63.19293275942778
 21
0.5
 31
0.0
  0
LINE
  5
3C51
330
3C4D
100
AcDbEntity
  8
寸法
 62
     0
370
    -2
100
AcDbLine
 10
429.1929327594278
 20
0.5
 30
0.0
 11
65.19293275942778
 21
0.5
 31
0.0
  0
INSERT
  5
3C52
330
3C4D
100
AcDbEntity
  8
寸法
 62
     0
370
    -2
100
AcDbBlockReference
  2
_DOT
 10
431.1929327594278
 20
0.5
 30
0.0
 41
2.0
 42
2.0
 43
2.0
  0
INSERT
  5
3C53
330
3C4D
100
AcDbEntity
  8
寸法
 62
     0
370
    -2
100
AcDbBlockReference
  2
_DOT
 10
63.19293275942778
 20
0.5
 30
0.0
 41
2.0
 42
2.0
 43
2.0
 50
180.0
  0
MTEXT
  5
3C54
330
3C4D
100
AcDbEntity
  8
寸法
 62
     0
100
AcDbMText
 10
247.1929327594278
 20
8.0
 30
0.0
 40
5.0
 41
0.0
 46
0.0
 71
     5
 72
     1
  1
\A1;368
  7
ＭＳ ゴシック
 73
     1
 44
1.0
  0
POINT
  5
3C55
330
3C4D
100
AcDbEntity
  8
Defpoints
 62
     0
100
AcDbPoint
 10
431.1929327594278
 20
44.61373397789231
 30
0.0
  0
POINT
  5
3C56
330
3C4D
100
AcDbEntity
  8
Defpoints
 62
     0
100
AcDbPoint
 10
63.19293275942778
 20
44.61373397789231
 30
0.0
  0
POINT
  5
3C57
330
3C4D
100
AcDbEntity
  8
Defpoints
 62
     0
100
AcDbPoint
 10
63.19293275942778
 20
0.5
 30
0.0
  0
ENDBLK
  5
3C58
330
3C4D
100
AcDbEntity
  8
0
100
AcDbBlockEnd
  0
BLOCK
  5
3C66
330
3C65
100
AcDbEntity
  8
0
100
AcDbBlockBegin
  2
*D40
 70
     1
 10
0.0
 20
0.0
 30
0.0
  3
*D40
  1
*D22
  0
LINE
  5
3C67
330
3C65
100
AcDbEntity
  8
寸法
 62
     0
370
    -2
100
AcDbLine
 10
37.06858160197294
 20
188.0346734004582
 30
0.0
 11
37.06858160197294
 21
208.1774756951709
 31
0.0
  0
LINE
  5
3C68
330
3C65
100
AcDbEntity
  8
寸法
 62
     0
370
    -2
100
AcDbLine
 10
457.0156630042291
 20
188.0346734004581
 30
0.0
 11
457.0156630042291
 21
208.1774756951709
 31
0.0
  0
LINE
  5
3C69
330
3C65
100
AcDbEntity
  8
寸法
 62
     0
370
    -2
100
AcDbLine
 10
39.06858160197294
 20
208.1774756951709
 30
0.0
 11
455.0156630042291
 21
208.1774756951709
 31
0.0
  0
INSERT
  5
3C6A
330
3C65
100
AcDbEntity
  8
寸法
 62
     0
370
    -2
100
AcDbBlockReference
  2
_DOT
 10
37.06858160197294
 20
208.1774756951709
 30
0.0
 41
2.0
 42
2.0
 43
2.0
 50
180.0
  0
INSERT
  5
3C6B
330
3C65
100
AcDbEntity
  8
寸法
 62
     0
370
    -2
100
AcDbBlockReference
  2
_DOT
 10
457.0156630042291
 20
208.1774756951709
 30
0.0
 41
2.0
 42
2.0
 43
2.0
  0
MTEXT
  5
3C6C
330
3C65
100
AcDbEntity
  8
寸法
 62
     0
100
AcDbMText
 10
251.687122303101
 20
215.6774756951709
 30
0.0
 40
5.0
 41
0.0
 46
0.0
 71
     5
 72
     1
  1
\A1;420
  7
ＭＳ ゴシック
 73
     1
 44
1.0
  0
POINT
  5
3C6D
330
3C65
100
AcDbEntity
  8
Defpoints
 62
     0
100
AcDbPoint
 10
37.06858160197294
 20
183.0346734004582
 30
0.0
  0
POINT
  5
3C6E
330
3C65
100
AcDbEntity
  8
Defpoints
 62
     0
100
AcDbPoint
 10
457.0156630042291
 20
183.0346734004581
 30
0.0
  0
POINT
  5
3C6F
330
3C65
100
AcDbEntity
  8
Defpoints
 62
     0
100
AcDbPoint
 10
457.0156630042291
 20
208.1774756951709
 30
0.0
  0
ENDBLK
  5
3C70
330
3C65
100
AcDbEntity
  8
0
100
AcDbBlockEnd
  0
BLOCK
  5
3C73
330
3C72
100
AcDbEntity
  8
0
100
AcDbBlockBegin
  2
*D41
 70
     1
 10
0.0
 20
0.0
 30
0.0
  3
*D41
  1
*D24
  0
LINE
  5
3C74
330
3C72
100
AcDbEntity
  8
モデル
 62
     0
370
    -2
100
AcDbLine
 10
32.06858160197294
 20
183.0346734004581
 30
0.0
 11
19.96100788988826
 21
183.0346734004581
 31
0.0
  0
LINE
  5
3C75
330
3C72
100
AcDbEntity
  8
モデル
 62
     0
370
    -2
100
AcDbLine
 10
32.06858160197294
 20
168.0346734004581
 30
0.0
 11
19.96100788988826
 21
168.0346734004581
 31
0.0
  0
LINE
  5
3C76
330
3C72
100
AcDbEntity
  8
モデル
 62
     0
370
    -2
100
AcDbLine
 10
19.96100788988826
 20
181.0346734004581
 30
0.0
 11
19.96100788988826
 21
170.0346734004581
 31
0.0
  0
INSERT
  5
3C77
330
3C72
100
AcDbEntity
  8
モデル
 62
     0
370
    -2
100
AcDbBlockReference
  2
_DOT
 10
19.96100788988826
 20
183.0346734004581
 30
0.0
 41
2.0
 42
2.0
 43
2.0
 50
90.0
  0
INSERT
  5
3C78
330
3C72
100
AcDbEntity
  8
モデル
 62
     0
370
    -2
100
AcDbBlockReference
  2
_DOT
 10
19.96100788988826
 20
168.0346734004581
 30
0.0
 41
2.0
 42
2.0
 43
2.0
 50
270.0
  0
MTEXT
  5
3C79
330
3C72
100
AcDbEntity
  8
モデル
 62
     0
100
AcDbMText
 10
12.46100788988826
 20
175.5346734004581
 30
0.0
 40
5.0
 41
0.0
 46
0.0
 71
     5
 72
     1
  1
\A1;15
  7
ＭＳ ゴシック
 11
0.0
 21
1.0
 31
0.0
 73
     1
 44
1.0
  0
POINT
  5
3C7A
330
3C72
100
AcDbEntity
  8
Defpoints
 62
     0
100
AcDbPoint
 10
37.06858160197294
 20
183.0346734004581
 30
0.0
  0
POINT
  5
3C7B
330
3C72
100
AcDbEntity
  8
Defpoints
 62
     0
100
AcDbPoint
 10
37.06858160197294
 20
168.0346734004581
 30
0.0
  0
POINT
  5
3C7C
330
3C72
100
AcDbEntity
  8
Defpoints
 62
     0
100
AcDbPoint
 10
19.96100788988826
 20
168.0346734004581
 30
0.0
  0
ENDBLK
  5
3C7D
330
3C72
100
AcDbEntity
  8
0
100
AcDbBlockEnd
  0
BLOCK
  5
3D0F
330
3D0E
100
AcDbEntity
  8
0
100
AcDbBlockBegin
  2
*D42
 70
     1
 10
0.0
 20
0.0
 30
0.0
  3
*D42
  1
*D43
  0
LINE
  5
3D11
330
3D0E
100
AcDbEntity
  8
寸法
 62
     0
370
    -2
100
AcDbLine
 10
53.6685816019729
 20
219.3896582189171
 30
0.0
 11
41.56100788988822
 21
219.3896582189171
 31
0.0
  0
LINE
  5
3D12
330
3D0E
100
AcDbEntity
  8
寸法
 62
     0
370
    -2
100
AcDbLine
 10
53.6685816019729
 20
151.6555911996319
 30
0.0
 11
41.56100788988822
 21
151.6555911996319
 31
0.0
  0
LINE
  5
3D13
330
3D0E
100
AcDbEntity
  8
寸法
 62
     0
370
    -2
100
AcDbLine
 10
41.56100788988822
 20
217.3896582189171
 30
0.0
 11
41.56100788988822
 21
153.6555911996319
 31
0.0
  0
INSERT
  5
3D14
330
3D0E
100
AcDbEntity
  8
寸法
 62
     0
370
    -2
100
AcDbBlockReference
  2
_DOT
 10
41.56100788988822
 20
219.3896582189171
 30
0.0
 41
2.0
 42
2.0
 43
2.0
 50
90.0
  0
INSERT
  5
3D15
330
3D0E
100
AcDbEntity
  8
寸法
 62
     0
370
    -2
100
AcDbBlockReference
  2
_DOT
 10
41.56100788988822
 20
151.6555911996319
 30
0.0
 41
2.0
 42
2.0
 43
2.0
 50
270.0
  0
MTEXT
  5
3D16
330
3D0E
100
AcDbEntity
  8
寸法
 62
     0
100
AcDbMText
 10
34.06100788988822
 20
185.5226247092745
 30
0.0
 40
5.0
 41
0.0
 46
0.0
 71
     5
 72
     1
  1
\A1;68
  7
ＭＳ ゴシック
 11
1.049018266624674E-16
 21
1.0
 31
0.0
 73
     1
 44
1.0
  0
POINT
  5
3D17
330
3D0E
100
AcDbEntity
  8
Defpoints
 62
     0
100
AcDbPoint
 10
58.6685816019729
 20
219.3896582189171
 30
0.0
  0
POINT
  5
3D18
330
3D0E
100
AcDbEntity
  8
Defpoints
 62
     0
100
AcDbPoint
 10
58.6685816019729
 20
151.6555911996319
 30
0.0
  0
POINT
  5
3D19
330
3D0E
100
AcDbEntity
  8
Defpoints
 62
     0
100
AcDbPoint
 10
41.56100788988822
 20
151.6555911996319
 30
0.0
  0
ENDBLK
  5
3D10
330
3D0E
100
AcDbEntity
  8
0
100
AcDbBlockEnd
  0
BLOCK
  5
3D1B
330
3D1A
100
AcDbEntity
  8
0
100
AcDbBlockBegin
  2
*D43
 70
     1
 10
0.0
 20
0.0
 30
0.0
  3
*D43
  1
*D44
  0
LINE
  5
3D1D
330
3D1A
100
AcDbEntity
  8
寸法
 62
     0
370
    -2
100
AcDbLine
 10
538.7430114286964
 20
219.3896582189171
 30
0.0
 11
558.9788323599565
 21
219.3896582189171
 31
0.0
  0
LINE
  5
3D1E
330
3D1A
100
AcDbEntity
  8
寸法
 62
     0
370
    -2
100
AcDbLine
 10
538.7430114286964
 20
151.6555911996319
 30
0.0
 11
558.9788323599565
 21
151.6555911996319
 31
0.0
  0
LINE
  5
3D1F
330
3D1A
100
AcDbEntity
  8
寸法
 62
     0
370
    -2
100
AcDbLine
 10
558.9788323599565
 20
217.3896582189171
 30
0.0
 11
558.9788323599565
 21
153.6555911996319
 31
0.0
  0
INSERT
  5
3D20
330
3D1A
100
AcDbEntity
  8
寸法
 62
     0
370
    -2
100
AcDbBlockReference
  2
_DOT
 10
558.9788323599565
 20
219.3896582189171
 30
0.0
 41
2.0
 42
2.0
 43
2.0
 50
90.0
  0
INSERT
  5
3D21
330
3D1A
100
AcDbEntity
  8
寸法
 62
     0
370
    -2
100
AcDbBlockReference
  2
_DOT
 10
558.9788323599565
 20
151.6555911996319
 30
0.0
 41
2.0
 42
2.0
 43
2.0
 50
270.0
  0
MTEXT
  5
3D22
330
3D1A
100
AcDbEntity
  8
寸法
 62
     0
100
AcDbMText
 10
551.4788323599565
 20
185.5226247092745
 30
0.0
 40
5.0
 41
0.0
 46
0.0
 71
     5
 72
     1
  1
\A1;68
  7
ＭＳ ゴシック
 11
0.0
 21
1.0
 31
0.0
 73
     1
 44
1.0
  0
POINT
  5
3D23
330
3D1A
100
AcDbEntity
  8
Defpoints
 62
     0
100
AcDbPoint
 10
533.7430114286964
 20
219.3896582189171
 30
0.0
  0
POINT
  5
3D24
330
3D1A
100
AcDbEntity
  8
Defpoints
 62
     0
100
AcDbPoint
 10
533.7430114286964
 20
151.6555911996319
 30
0.0
  0
POINT
  5
3D25
330
3D1A
100
AcDbEntity
  8
Defpoints
 62
     0
100
AcDbPoint
 10
558.9788323599565
 20
151.6555911996319
 30
0.0
  0
ENDBLK
  5
3D1C
330
3D1A
100
AcDbEntity
  8
0
100
AcDbBlockEnd
  0
BLOCK
  5
3D27
330
3D26
100
AcDbEntity
  8
0
100
AcDbBlockBegin
  2
*D44
 70
     1
 10
0.0
 20
0.0
 30
0.0
  3
*D44
  1
*D45
  0
LINE
  5
3D29
330
3D26
100
AcDbEntity
  8
寸法
 62
     0
370
    -2
100
AcDbLine
 10
533.7430114286964
 20
146.6555911996319
 30
0.0
 11
533.7430114286964
 21
128.6085714285714
 31
0.0
  0
LINE
  5
3D2A
330
3D26
100
AcDbEntity
  8
寸法
 62
     0
370
    -2
100
AcDbLine
 10
518.7430114286964
 20
146.6555911996319
 30
0.0
 11
518.7430114286964
 21
128.6085714285714
 31
0.0
  0
LINE
  5
3D2B
330
3D26
100
AcDbEntity
  8
寸法
 62
     0
370
    -2
100
AcDbLine
 10
531.7430114286964
 20
128.6085714285714
 30
0.0
 11
520.7430114286964
 21
128.6085714285714
 31
0.0
  0
INSERT
  5
3D2C
330
3D26
100
AcDbEntity
  8
寸法
 62
     0
370
    -2
100
AcDbBlockReference
  2
_DOT
 10
533.7430114286964
 20
128.6085714285714
 30
0.0
 41
2.0
 42
2.0
 43
2.0
  0
INSERT
  5
3D2D
330
3D26
100
AcDbEntity
  8
寸法
 62
     0
370
    -2
100
AcDbBlockReference
  2
_DOT
 10
518.7430114286964
 20
128.6085714285714
 30
0.0
 41
2.0
 42
2.0
 43
2.0
 50
180.0
  0
MTEXT
  5
3D2E
330
3D26
100
AcDbEntity
  8
寸法
 62
     0
100
AcDbMText
 10
525.757955031704
 20
136.1085714285714
 30
0.0
 40
5.0
 41
0.0
 46
0.0
 71
     5
 72
     1
  1
\A1;15
  7
ＭＳ ゴシック
 73
     1
 44
1.0
  0
POINT
  5
3D2F
330
3D26
100
AcDbEntity
  8
Defpoints
 62
     0
100
AcDbPoint
 10
533.7430114286964
 20
151.6555911996319
 30
0.0
  0
POINT
  5
3D30
330
3D26
100
AcDbEntity
  8
Defpoints
 62
     0
100
AcDbPoint
 10
518.7430114286964
 20
151.6555911996319
 30
0.0
  0
POINT
  5
3D31
330
3D26
100
AcDbEntity
  8
Defpoints
 62
     0
100
AcDbPoint
 10
518.7430114286964
 20
128.6085714285714
 30
0.0
  0
ENDBLK
  5
3D28
330
3D26
100
AcDbEntity
  8
0
100
AcDbBlockEnd
  0
BLOCK
  5
3D33
330
3D32
100
AcDbEntity
  8
0
100
AcDbBlockBegin
  2
*D45
 70
     1
 10
0.0
 20
0.0
 30
0.0
  3
*D45
  1
*D46
  0
LINE
  5
3D35
330
3D32
100
AcDbEntity
  8
寸法
 62
     0
370
    -2
100
AcDbLine
 10
458.7202234520003
 20
224.3896582189171
 30
0.0
 11
458.7202234520003
 21
242.3399618243938
 31
0.0
  0
LINE
  5
3D36
330
3D32
100
AcDbEntity
  8
寸法
 62
     0
370
    -2
100
AcDbLine
 10
78.72022345200031
 20
224.3896582189171
 30
0.0
 11
78.72022345200031
 21
242.3399618243938
 31
0.0
  0
LINE
  5
3D37
330
3D32
100
AcDbEntity
  8
寸法
 62
     0
370
    -2
100
AcDbLine
 10
456.7202234520003
 20
242.3399618243938
 30
0.0
 11
80.72022345200031
 21
242.3399618243938
 31
0.0
  0
INSERT
  5
3D38
330
3D32
100
AcDbEntity
  8
寸法
 62
     0
370
    -2
100
AcDbBlockReference
  2
_DOT
 10
458.7202234520003
 20
242.3399618243938
 30
0.0
 41
2.0
 42
2.0
 43
2.0
  0
INSERT
  5
3D39
330
3D32
100
AcDbEntity
  8
寸法
 62
     0
370
    -2
100
AcDbBlockReference
  2
_DOT
 10
78.72022345200031
 20
242.3399618243938
 30
0.0
 41
2.0
 42
2.0
 43
2.0
 50
180.0
  0
MTEXT
  5
3D3A
330
3D32
100
AcDbEntity
  8
寸法
 62
     0
100
AcDbMText
 10
268.7202234520003
 20
249.8399618243938
 30
0.0
 40
5.0
 41
0.0
 46
0.0
 71
     5
 72
     1
  1
\A1;380
  7
ＭＳ ゴシック
 73
     1
 44
1.0
  0
POINT
  5
3D3B
330
3D32
100
AcDbEntity
  8
Defpoints
 62
     0
100
AcDbPoint
 10
458.7202234520003
 20
219.3896582189171
 30
0.0
  0
POINT
  5
3D3C
330
3D32
100
AcDbEntity
  8
Defpoints
 62
     0
100
AcDbPoint
 10
78.72022345200031
 20
219.3896582189171
 30
0.0
  0
POINT
  5
3D3D
330
3D32
100
AcDbEntity
  8
Defpoints
 62
     0
100
AcDbPoint
 10
78.72022345200031
 20
242.3399618243938
 30
0.0
  0
ENDBLK
  5
3D34
330
3D32
100
AcDbEntity
  8
0
100
AcDbBlockEnd
  0
BLOCK
  5
3D3F
330
3D3E
100
AcDbEntity
  8
0
100
AcDbBlockBegin
  2
*D46
 70
     1
 10
0.0
 20
0.0
 30
0.0
  3
*D46
  1
*D47
  0
LINE
  5
3D41
330
3D3E
100
AcDbEntity
  8
寸法
 62
     0
370
    -2
100
AcDbLine
 10
452.7929327594277
 20
167.7223054064637
 30
0.0
 11
452.7929327594277
 21
128.6085714285714
 31
0.0
  0
LINE
  5
3D42
330
3D3E
100
AcDbEntity
  8
寸法
 62
     0
370
    -2
100
AcDbLine
 10
84.79293275942774
 20
167.7223054064637
 30
0.0
 11
84.79293275942774
 21
128.6085714285714
 31
0.0
  0
LINE
  5
3D43
330
3D3E
100
AcDbEntity
  8
寸法
 62
     0
370
    -2
100
AcDbLine
 10
450.7929327594277
 20
128.6085714285714
 30
0.0
 11
86.79293275942774
 21
128.6085714285714
 31
0.0
  0
INSERT
  5
3D44
330
3D3E
100
AcDbEntity
  8
寸法
 62
     0
370
    -2
100
AcDbBlockReference
  2
_DOT
 10
452.7929327594277
 20
128.6085714285714
 30
0.0
 41
2.0
 42
2.0
 43
2.0
  0
INSERT
  5
3D45
330
3D3E
100
AcDbEntity
  8
寸法
 62
     0
370
    -2
100
AcDbBlockReference
  2
_DOT
 10
84.79293275942774
 20
128.6085714285714
 30
0.0
 41
2.0
 42
2.0
 43
2.0
 50
180.0
  0
MTEXT
  5
3D46
330
3D3E
100
AcDbEntity
  8
寸法
 62
     0
100
AcDbMText
 10
268.7929327594277
 20
136.1085714285714
 30
0.0
 40
5.0
 41
0.0
 46
0.0
 71
     5
 72
     1
  1
\A1;368
  7
ＭＳ ゴシック
 73
     1
 44
1.0
  0
POINT
  5
3D47
330
3D3E
100
AcDbEntity
  8
Defpoints
 62
     0
100
AcDbPoint
 10
452.7929327594277
 20
172.7223054064637
 30
0.0
  0
POINT
  5
3D48
330
3D3E
100
AcDbEntity
  8
Defpoints
 62
     0
100
AcDbPoint
 10
84.79293275942774
 20
172.7223054064637
 30
0.0
  0
POINT
  5
3D49
330
3D3E
100
AcDbEntity
  8
Defpoints
 62
     0
100
AcDbPoint
 10
84.79293275942774
 20
128.6085714285714
 30
0.0
  0
ENDBLK
  5
3D40
330
3D3E
100
AcDbEntity
  8
0
100
AcDbBlockEnd
  0
BLOCK
  5
3D4B
330
3D4A
100
AcDbEntity
  8
0
100
AcDbBlockBegin
  2
*D47
 70
     1
 10
0.0
 20
0.0
 30
0.0
  3
*D47
  1
*D48
  0
LINE
  5
3D4D
330
3D4A
100
AcDbEntity
  8
寸法
 62
     0
370
    -2
100
AcDbLine
 10
58.6685816019729
 20
316.1432448290295
 30
0.0
 11
58.6685816019729
 21
336.2860471237423
 31
0.0
  0
LINE
  5
3D4E
330
3D4A
100
AcDbEntity
  8
寸法
 62
     0
370
    -2
100
AcDbLine
 10
478.615663004229
 20
316.1432448290295
 30
0.0
 11
478.615663004229
 21
336.2860471237423
 31
0.0
  0
LINE
  5
3D4F
330
3D4A
100
AcDbEntity
  8
寸法
 62
     0
370
    -2
100
AcDbLine
 10
60.6685816019729
 20
336.2860471237423
 30
0.0
 11
476.615663004229
 21
336.2860471237423
 31
0.0
  0
INSERT
  5
3D50
330
3D4A
100
AcDbEntity
  8
寸法
 62
     0
370
    -2
100
AcDbBlockReference
  2
_DOT
 10
58.6685816019729
 20
336.2860471237423
 30
0.0
 41
2.0
 42
2.0
 43
2.0
 50
180.0
  0
INSERT
  5
3D51
330
3D4A
100
AcDbEntity
  8
寸法
 62
     0
370
    -2
100
AcDbBlockReference
  2
_DOT
 10
478.615663004229
 20
336.2860471237423
 30
0.0
 41
2.0
 42
2.0
 43
2.0
  0
MTEXT
  5
3D52
330
3D4A
100
AcDbEntity
  8
寸法
 62
     0
100
AcDbMText
 10
273.2871223031009
 20
343.7860471237423
 30
0.0
 40
5.0
 41
0.0
 46
0.0
 71
     5
 72
     1
  1
\A1;420
  7
ＭＳ ゴシック
 73
     1
 44
1.0
  0
POINT
  5
3D53
330
3D4A
100
AcDbEntity
  8
Defpoints
 62
     0
100
AcDbPoint
 10
58.6685816019729
 20
311.1432448290295
 30
0.0
  0
POINT
  5
3D54
330
3D4A
100
AcDbEntity
  8
Defpoints
 62
     0
100
AcDbPoint
 10
478.615663004229
 20
311.1432448290295
 30
0.0
  0
POINT
  5
3D55
330
3D4A
100
AcDbEntity
  8
Defpoints
 62
     0
100
AcDbPoint
 10
478.615663004229
 20
336.2860471237423
 30
0.0
  0
ENDBLK
  5
3D4C
330
3D4A
100
AcDbEntity
  8
0
100
AcDbBlockEnd
  0
BLOCK
  5
3D57
330
3D56
100
AcDbEntity
  8
0
100
AcDbBlockBegin
  2
*D48
 70
     1
 10
0.0
 20
0.0
 30
0.0
  3
*D48
  1
*D49
  0
LINE
  5
3D59
330
3D56
100
AcDbEntity
  8
モデル
 62
     0
370
    -2
100
AcDbLine
 10
53.6685816019729
 20
311.1432448290295
 30
0.0
 11
41.56100788988823
 21
311.1432448290295
 31
0.0
  0
LINE
  5
3D5A
330
3D56
100
AcDbEntity
  8
モデル
 62
     0
370
    -2
100
AcDbLine
 10
53.6685816019729
 20
296.1432448290295
 30
0.0
 11
41.56100788988823
 21
296.1432448290295
 31
0.0
  0
LINE
  5
3D5B
330
3D56
100
AcDbEntity
  8
モデル
 62
     0
370
    -2
100
AcDbLine
 10
41.56100788988823
 20
309.1432448290295
 30
0.0
 11
41.56100788988823
 21
298.1432448290295
 31
0.0
  0
INSERT
  5
3D5C
330
3D56
100
AcDbEntity
  8
モデル
 62
     0
370
    -2
100
AcDbBlockReference
  2
_DOT
 10
41.56100788988823
 20
311.1432448290295
 30
0.0
 41
2.0
 42
2.0
 43
2.0
 50
90.0
  0
INSERT
  5
3D5D
330
3D56
100
AcDbEntity
  8
モデル
 62
     0
370
    -2
100
AcDbBlockReference
  2
_DOT
 10
41.56100788988823
 20
296.1432448290295
 30
0.0
 41
2.0
 42
2.0
 43
2.0
 50
270.0
  0
MTEXT
  5
3D5E
330
3D56
100
AcDbEntity
  8
モデル
 62
     0
100
AcDbMText
 10
34.06100788988823
 20
303.6432448290295
 30
0.0
 40
5.0
 41
0.0
 46
0.0
 71
     5
 72
     1
  1
\A1;15
  7
ＭＳ ゴシック
 11
0.0
 21
1.0
 31
0.0
 73
     1
 44
1.0
  0
POINT
  5
3D5F
330
3D56
100
AcDbEntity
  8
Defpoints
 62
     0
100
AcDbPoint
 10
58.6685816019729
 20
311.1432448290295
 30
0.0
  0
POINT
  5
3D60
330
3D56
100
AcDbEntity
  8
Defpoints
 62
     0
100
AcDbPoint
 10
58.6685816019729
 20
296.1432448290295
 30
0.0
  0
POINT
  5
3D61
330
3D56
100
AcDbEntity
  8
Defpoints
 62
     0
100
AcDbPoint
 10
41.56100788988823
 20
296.1432448290295
 30
0.0
  0
ENDBLK
  5
3D58
330
3D56
100
AcDbEntity
  8
0
100
AcDbBlockEnd
  0
BLOCK
  5
3DDC
330
3DDB
100
AcDbEntity
  8
0
100
AcDbBlockBegin
  2
*D49
 70
     1
 10
0.0
 20
0.0
 30
0.0
  3
*D49
  1
*D15
  0
LINE
  5
3DDD
330
3DDB
100
AcDbEntity
  8
寸法
 62
     0
370
    -2
100
AcDbLine
 10
60.78090629456685
 20
60.18976375444379
 30
0.0
 11
99.49502951788133
 21
60.18976375444379
 31
0.0
  0
LINE
  5
3DDE
330
3DDB
100
AcDbEntity
  8
寸法
 62
     0
370
    -2
100
AcDbLine
 10
60.78090629456685
 20
0.5
 30
0.0
 11
99.49502951788133
 21
0.5
 31
0.0
  0
LINE
  5
3DDF
330
3DDB
100
AcDbEntity
  8
寸法
 62
     0
370
    -2
100
AcDbLine
 10
99.49502951788133
 20
58.18976375444379
 30
0.0
 11
99.49502951788133
 21
2.5
 31
0.0
  0
INSERT
  5
3DE0
330
3DDB
100
AcDbEntity
  8
寸法
 62
     0
370
    -2
100
AcDbBlockReference
  2
_DOT
 10
99.49502951788133
 20
60.18976375444379
 30
0.0
 41
2.0
 42
2.0
 43
2.0
 50
90.0
  0
INSERT
  5
3DE1
330
3DDB
100
AcDbEntity
  8
寸法
 62
     0
370
    -2
100
AcDbBlockReference
  2
_DOT
 10
99.49502951788133
 20
0.5
 30
0.0
 41
2.0
 42
2.0
 43
2.0
 50
270.0
  0
MTEXT
  5
3DE2
330
3DDB
100
AcDbEntity
  8
寸法
 62
     0
100
AcDbMText
 10
91.99502951788133
 20
30.34488187722189
 30
0.0
 40
5.0
 41
0.0
 46
0.0
 71
     5
 72
     1
  1
\A1;60
  7
ＭＳ ゴシック
 11
0.0
 21
1.0
 31
0.0
 73
     1
 44
1.0
  0
POINT
  5
3DE3
330
3DDB
100
AcDbEntity
  8
Defpoints
 62
     0
100
AcDbPoint
 10
55.78090629456685
 20
60.18976375444379
 30
0.0
  0
POINT
  5
3DE4
330
3DDB
100
AcDbEntity
  8
Defpoints
 62
     0
100
AcDbPoint
 10
55.78090629456685
 20
0.5
 30
0.0
  0
POINT
  5
3DE5
330
3DDB
100
AcDbEntity
  8
Defpoints
 62
     0
100
AcDbPoint
 10
99.49502951788133
 20
0.4999999999999973
 30
0.0
  0
ENDBLK
  5
3DE6
330
3DDB
100
AcDbEntity
  8
0
100
AcDbBlockEnd
  0
BLOCK
  5
3DE9
330
3DE8
100
AcDbEntity
  8
0
100
AcDbBlockBegin
  2
*D50
 70
     1
 10
0.0
 20
0.0
 30
0.0
  3
*D50
  1
*D16
  0
LINE
  5
3DEA
330
3DE8
100
AcDbEntity
  8
寸法
 62
     0
370
    -2
100
AcDbLine
 10
65.76384546064907
 20
52.25002093737498
 30
0.0
 11
84.03236215495718
 21
52.25002093737498
 31
0.0
  0
LINE
  5
3DEB
330
3DE8
100
AcDbEntity
  8
寸法
 62
     0
370
    -2
100
AcDbLine
 10
65.76384546064907
 20
12.25002093737498
 30
0.0
 11
84.03236215495718
 21
12.25002093737498
 31
0.0
  0
LINE
  5
3DEC
330
3DE8
100
AcDbEntity
  8
寸法
 62
     0
370
    -2
100
AcDbLine
 10
84.03236215495718
 20
50.25002093737498
 30
0.0
 11
84.03236215495718
 21
14.25002093737498
 31
0.0
  0
INSERT
  5
3DED
330
3DE8
100
AcDbEntity
  8
寸法
 62
     0
370
    -2
100
AcDbBlockReference
  2
_DOT
 10
84.03236215495718
 20
52.25002093737498
 30
0.0
 41
2.0
 42
2.0
 43
2.0
 50
90.0
  0
INSERT
  5
3DEE
330
3DE8
100
AcDbEntity
  8
寸法
 62
     0
370
    -2
100
AcDbBlockReference
  2
_DOT
 10
84.03236215495718
 20
12.25002093737498
 30
0.0
 41
2.0
 42
2.0
 43
2.0
 50
270.0
  0
MTEXT
  5
3DEF
330
3DE8
100
AcDbEntity
  8
寸法
 62
     0
100
AcDbMText
 10
76.53236215495718
 20
32.25002093737498
 30
0.0
 40
5.0
 41
0.0
 46
0.0
 71
     5
 72
     1
  1
\A1;40
  7
ＭＳ ゴシック
 11
0.0
 21
1.0
 31
0.0
 73
     1
 44
1.0
  0
POINT
  5
3DF0
330
3DE8
100
AcDbEntity
  8
Defpoints
 62
     0
100
AcDbPoint
 10
60.76384546064907
 20
52.25002093737498
 30
0.0
  0
POINT
  5
3DF1
330
3DE8
100
AcDbEntity
  8
Defpoints
 62
     0
100
AcDbPoint
 10
60.76384546064907
 20
12.25002093737498
 30
0.0
  0
POINT
  5
3DF2
330
3DE8
100
AcDbEntity
  8
Defpoints
 62
     0
100
AcDbPoint
 10
84.03236215495718
 20
12.25002093737498
 30
0.0
  0
ENDBLK
  5
3DF3
330
3DE8
100
AcDbEntity
  8
0
100
AcDbBlockEnd
  0
BLOCK
  5
3E03
330
3E02
100
AcDbEntity
  8
0
100
AcDbBlockBegin
  2
*D51
 70
     1
 10
0.0
 20
0.0
 30
0.0
  3
*D51
  1
*D23
  0
LINE
  5
3E04
330
3E02
100
AcDbEntity
  8
寸法
 62
     0
370
    -2
100
AcDbLine
 10
60.78090629456685
 20
134.8014520447273
 30
0.0
 11
72.44674969041398
 21
134.8014520447273
 31
0.0
  0
LINE
  5
3E05
330
3E02
100
AcDbEntity
  8
寸法
 62
     0
370
    -2
100
AcDbLine
 10
60.78090629456685
 20
113.6347714198103
 30
0.0
 11
72.44674969041398
 21
113.6347714198103
 31
0.0
  0
LINE
  5
3E06
330
3E02
100
AcDbEntity
  8
寸法
 62
     0
370
    -2
100
AcDbLine
 10
72.44674969041398
 20
132.8014520447273
 30
0.0
 11
72.44674969041398
 21
115.6347714198103
 31
0.0
  0
INSERT
  5
3E07
330
3E02
100
AcDbEntity
  8
寸法
 62
     0
370
    -2
100
AcDbBlockReference
  2
_DOT
 10
72.44674969041398
 20
134.8014520447273
 30
0.0
 41
2.0
 42
2.0
 43
2.0
 50
90.0
  0
INSERT
  5
3E08
330
3E02
100
AcDbEntity
  8
寸法
 62
     0
370
    -2
100
AcDbBlockReference
  2
_DOT
 10
72.44674969041398
 20
113.6347714198103
 30
0.0
 41
2.0
 42
2.0
 43
2.0
 50
270.0
  0
MTEXT
  5
3E09
330
3E02
100
AcDbEntity
  8
寸法
 62
     0
100
AcDbMText
 10
64.94674969041398
 20
124.2181117322688
 30
0.0
 40
5.0
 41
0.0
 46
0.0
 71
     5
 72
     1
  1
\A1;21
  7
ＭＳ ゴシック
 11
0.0
 21
1.0
 31
0.0
 73
     1
 44
1.0
  0
POINT
  5
3E0A
330
3E02
100
AcDbEntity
  8
Defpoints
 62
     0
100
AcDbPoint
 10
55.78090629456685
 20
134.8014520447273
 30
0.0
  0
POINT
  5
3E0B
330
3E02
100
AcDbEntity
  8
Defpoints
 62
     0
100
AcDbPoint
 10
55.78090629456685
 20
113.6347714198103
 30
0.0
  0
POINT
  5
3E0C
330
3E02
100
AcDbEntity
  8
Defpoints
 62
     0
100
AcDbPoint
 10
72.44674969041398
 20
113.6347714198103
 30
0.0
  0
ENDBLK
  5
3E0D
330
3E02
100
AcDbEntity
  8
0
100
AcDbBlockEnd
  0
BLOCK
  5
3E12
330
3E11
100
AcDbEntity
  8
0
100
AcDbBlockBegin
  2
*D52
 70
     1
 10
0.0
 20
0.0
 30
0.0
  3
*D52
  1
*D24
  0
LINE
  5
3E13
330
3E11
100
AcDbEntity
  8
寸法
 62
     0
370
    -2
100
AcDbLine
 10
34.69574486264375
 20
134.8014520447273
 30
0.0
 11
9.999999999999972
 21
134.8014520447273
 31
0.0
  0
LINE
  5
3E14
330
3E11
100
AcDbEntity
  8
寸法
 62
     0
370
    -2
100
AcDbLine
 10
34.69574486264375
 20
130.9911739244213
 30
0.0
 11
9.999999999999972
 21
130.9911739244213
 31
0.0
  0
LINE
  5
3E15
330
3E11
100
AcDbEntity
  8
寸法
 62
     0
370
    -2
100
AcDbLine
 10
9.999999999999972
 20
132.8014520447273
 30
0.0
 11
9.999999999999972
 21
132.9911739244213
 31
0.0
  0
INSERT
  5
3E16
330
3E11
100
AcDbEntity
  8
寸法
 62
     0
370
    -2
100
AcDbBlockReference
  2
_DOT
 10
9.999999999999972
 20
134.8014520447273
 30
0.0
 41
2.0
 42
2.0
 43
2.0
 50
90.0
  0
INSERT
  5
3E17
330
3E11
100
AcDbEntity
  8
寸法
 62
     0
370
    -2
100
AcDbBlockReference
  2
_DOT
 10
9.999999999999972
 20
130.9911739244213
 30
0.0
 41
2.0
 42
2.0
 43
2.0
 50
270.0
  0
MTEXT
  5
3E18
330
3E11
100
AcDbEntity
  8
寸法
 62
     0
100
AcDbMText
 10
2.499999999999972
 20
133.1077027892214
 30
0.0
 40
5.0
 41
0.0
 46
0.0
 71
     5
 72
     1
  1
\A1;4
  7
ＭＳ ゴシック
 11
0.0
 21
1.0
 31
0.0
 73
     1
 44
1.0
  0
POINT
  5
3E19
330
3E11
100
AcDbEntity
  8
Defpoints
 62
     0
100
AcDbPoint
 10
39.69574486264375
 20
134.8014520447273
 30
0.0
  0
POINT
  5
3E1A
330
3E11
100
AcDbEntity
  8
Defpoints
 62
     0
100
AcDbPoint
 10
39.69574486264375
 20
130.9911739244213
 30
0.0
  0
POINT
  5
3E1B
330
3E11
100
AcDbEntity
  8
Defpoints
 62
     0
100
AcDbPoint
 10
9.999999999999972
 20
130.9911739244213
 30
0.0
  0
ENDBLK
  5
3E1C
330
3E11
100
AcDbEntity
  8
0
100
AcDbBlockEnd
  0
BLOCK
  5
3E21
330
3E20
100
AcDbEntity
  8
0
100
AcDbBlockBegin
  2
*D53
 70
     1
 10
0.0
 20
0.0
 30
0.0
  3
*D53
  1
*D25
  0
LINE
  5
3E22
330
3E20
100
AcDbEntity
  8
寸法
 62
     0
370
    -2
100
AcDbLine
 10
34.69574486264375
 20
116.5975554916573
 30
0.0
 11
9.999999999999972
 21
116.5975554916573
 31
0.0
  0
LINE
  5
3E23
330
3E20
100
AcDbEntity
  8
寸法
 62
     0
370
    -2
100
AcDbLine
 10
34.69574486264375
 20
113.6347714198103
 30
0.0
 11
9.999999999999972
 21
113.6347714198103
 31
0.0
  0
LINE
  5
3E24
330
3E20
100
AcDbEntity
  8
寸法
 62
     0
370
    -2
100
AcDbLine
 10
9.999999999999972
 20
114.5975554916573
 30
0.0
 11
9.999999999999972
 21
115.6347714198103
 31
0.0
  0
INSERT
  5
3E25
330
3E20
100
AcDbEntity
  8
寸法
 62
     0
370
    -2
100
AcDbBlockReference
  2
_DOT
 10
9.999999999999972
 20
116.5975554916573
 30
0.0
 41
2.0
 42
2.0
 43
2.0
 50
90.0
  0
INSERT
  5
3E26
330
3E20
100
AcDbEntity
  8
寸法
 62
     0
370
    -2
100
AcDbBlockReference
  2
_DOT
 10
9.999999999999972
 20
113.6347714198103
 30
0.0
 41
2.0
 42
2.0
 43
2.0
 50
270.0
  0
MTEXT
  5
3E27
330
3E20
100
AcDbEntity
  8
寸法
 62
     0
100
AcDbMText
 10
2.499999999999972
 20
115.1161634557338
 30
0.0
 40
5.0
 41
0.0
 46
0.0
 71
     5
 72
     1
  1
\A1;3
  7
ＭＳ ゴシック
 11
0.0
 21
1.0
 31
0.0
 73
     1
 44
1.0
  0
POINT
  5
3E28
330
3E20
100
AcDbEntity
  8
Defpoints
 62
     0
100
AcDbPoint
 10
39.69574486264375
 20
116.5975554916573
 30
0.0
  0
POINT
  5
3E29
330
3E20
100
AcDbEntity
  8
Defpoints
 62
     0
100
AcDbPoint
 10
39.69574486264375
 20
113.6347714198103
 30
0.0
  0
POINT
  5
3E2A
330
3E20
100
AcDbEntity
  8
Defpoints
 62
     0
100
AcDbPoint
 10
9.999999999999972
 20
113.6347714198103
 30
0.0
  0
ENDBLK
  5
3E2B
330
3E20
100
AcDbEntity
  8
0
100
AcDbBlockEnd
  0
BLOCK
  5
3E30
330
3E2F
100
AcDbEntity
  8
0
100
AcDbBlockBegin
  2
*D54
 70
     1
 10
0.0
 20
0.0
 30
0.0
  3
*D54
  1
*D27
  0
LINE
  5
3E31
330
3E2F
100
AcDbEntity
  8
寸法
 62
     0
370
    -2
100
AcDbLine
 10
60.78090629456685
 20
41.98586720137499
 30
0.0
 11
69.84519304205895
 21
41.98586720137499
 31
0.0
  0
LINE
  5
3E32
330
3E2F
100
AcDbEntity
  8
寸法
 62
     0
370
    -2
100
AcDbLine
 10
60.78090629456685
 20
21.66668062491689
 30
0.0
 11
69.84519304205895
 21
21.66668062491689
 31
0.0
  0
LINE
  5
3E33
330
3E2F
100
AcDbEntity
  8
寸法
 62
     0
370
    -2
100
AcDbLine
 10
69.84519304205895
 20
39.98586720137499
 30
0.0
 11
69.84519304205895
 21
23.66668062491689
 31
0.0
  0
INSERT
  5
3E34
330
3E2F
100
AcDbEntity
  8
寸法
 62
     0
370
    -2
100
AcDbBlockReference
  2
_DOT
 10
69.84519304205895
 20
41.98586720137499
 30
0.0
 41
2.0
 42
2.0
 43
2.0
 50
90.0
  0
INSERT
  5
3E35
330
3E2F
100
AcDbEntity
  8
寸法
 62
     0
370
    -2
100
AcDbBlockReference
  2
_DOT
 10
69.84519304205895
 20
21.66668062491689
 30
0.0
 41
2.0
 42
2.0
 43
2.0
 50
270.0
  0
MTEXT
  5
3E36
330
3E2F
100
AcDbEntity
  8
寸法
 62
     0
100
AcDbMText
 10
62.34519304205895
 20
31.82627391314594
 30
0.0
 40
5.0
 41
0.0
 46
0.0
 71
     5
 72
     1
  1
\A1;20
  7
ＭＳ ゴシック
 11
0.0
 21
1.0
 31
0.0
 73
     1
 44
1.0
  0
POINT
  5
3E37
330
3E2F
100
AcDbEntity
  8
Defpoints
 62
     0
100
AcDbPoint
 10
55.78090629456685
 20
41.98586720137499
 30
0.0
  0
POINT
  5
3E38
330
3E2F
100
AcDbEntity
  8
Defpoints
 62
     0
100
AcDbPoint
 10
55.78090629456685
 20
21.66668062491689
 30
0.0
  0
POINT
  5
3E39
330
3E2F
100
AcDbEntity
  8
Defpoints
 62
     0
100
AcDbPoint
 10
69.84519304205895
 20
21.66668062491689
 30
0.0
  0
ENDBLK
  5
3E3A
330
3E2F
100
AcDbEntity
  8
0
100
AcDbBlockEnd
  0
BLOCK
  5
3E3F
330
3E3E
100
AcDbEntity
  8
0
100
AcDbBlockBegin
  2
*D55
 70
     1
 10
0.0
 20
0.0
 30
0.0
  3
*D55
  1
*D28
  0
LINE
  5
3E40
330
3E3E
100
AcDbEntity
  8
寸法
 62
     0
370
    -2
100
AcDbLine
 10
55.78090629456685
 20
139.8014520447273
 30
0.0
 11
55.78090629456685
 21
147.5879419149208
 31
0.0
  0
LINE
  5
3E41
330
3E3E
100
AcDbEntity
  8
寸法
 62
     0
370
    -2
100
AcDbLine
 10
39.69574486264375
 20
139.8014520447273
 30
0.0
 11
39.69574486264375
 21
147.5879419149208
 31
0.0
  0
LINE
  5
3E42
330
3E3E
100
AcDbEntity
  8
寸法
 62
     0
370
    -2
100
AcDbLine
 10
53.78090629456685
 20
147.5879419149208
 30
0.0
 11
41.69574486264375
 21
147.5879419149208
 31
0.0
  0
INSERT
  5
3E43
330
3E3E
100
AcDbEntity
  8
寸法
 62
     0
370
    -2
100
AcDbBlockReference
  2
_DOT
 10
55.78090629456685
 20
147.5879419149208
 30
0.0
 41
2.0
 42
2.0
 43
2.0
  0
INSERT
  5
3E44
330
3E3E
100
AcDbEntity
  8
寸法
 62
     0
370
    -2
100
AcDbBlockReference
  2
_DOT
 10
39.69574486264375
 20
147.5879419149208
 30
0.0
 41
2.0
 42
2.0
 43
2.0
 50
180.0
  0
MTEXT
  5
3E45
330
3E3E
100
AcDbEntity
  8
寸法
 62
     0
100
AcDbMText
 10
47.7383255786053
 20
155.0879419149208
 30
0.0
 40
5.0
 41
0.0
 46
0.0
 71
     5
 72
     1
  1
\A1;16
  7
ＭＳ ゴシック
 73
     1
 44
1.0
  0
POINT
  5
3E46
330
3E3E
100
AcDbEntity
  8
Defpoints
 62
     0
100
AcDbPoint
 10
55.78090629456685
 20
134.8014520447273
 30
0.0
  0
POINT
  5
3E47
330
3E3E
100
AcDbEntity
  8
Defpoints
 62
     0
100
AcDbPoint
 10
39.69574486264375
 20
134.8014520447273
 30
0.0
  0
POINT
  5
3E48
330
3E3E
100
AcDbEntity
  8
Defpoints
 62
     0
100
AcDbPoint
 10
39.69574486264375
 20
147.5879419149208
 30
0.0
  0
ENDBLK
  5
3E49
330
3E3E
100
AcDbEntity
  8
0
100
AcDbBlockEnd
  0
BLOCK
  5
3E96
330
3E95
100
AcDbEntity
  8
0
100
AcDbBlockBegin
  2
*D56
 70
     1
 10
0.0
 20
0.0
 30
0.0
  3
*D56
  1
*D57
  0
LINE
  5
3E98
330
3E95
100
AcDbEntity
  8
寸法
 62
     0
370
    -2
100
AcDbLine
 10
244.4151920088525
 20
223.8526208973009
 30
0.0
 11
283.129315232167
 21
223.8526208973009
 31
0.0
  0
LINE
  5
3E99
330
3E95
100
AcDbEntity
  8
寸法
 62
     0
370
    -2
100
AcDbLine
 10
244.4151920088525
 20
164.1628571428571
 30
0.0
 11
283.129315232167
 21
164.1628571428571
 31
0.0
  0
LINE
  5
3E9A
330
3E95
100
AcDbEntity
  8
寸法
 62
     0
370
    -2
100
AcDbLine
 10
283.129315232167
 20
221.8526208973009
 30
0.0
 11
283.129315232167
 21
166.1628571428571
 31
0.0
  0
INSERT
  5
3E9B
330
3E95
100
AcDbEntity
  8
寸法
 62
     0
370
    -2
100
AcDbBlockReference
  2
_DOT
 10
283.129315232167
 20
223.8526208973009
 30
0.0
 41
2.0
 42
2.0
 43
2.0
 50
90.0
  0
INSERT
  5
3E9C
330
3E95
100
AcDbEntity
  8
寸法
 62
     0
370
    -2
100
AcDbBlockReference
  2
_DOT
 10
283.129315232167
 20
164.1628571428571
 30
0.0
 41
2.0
 42
2.0
 43
2.0
 50
270.0
  0
MTEXT
  5
3E9D
330
3E95
100
AcDbEntity
  8
寸法
 62
     0
100
AcDbMText
 10
275.629315232167
 20
194.007739020079
 30
0.0
 40
5.0
 41
0.0
 46
0.0
 71
     5
 72
     1
  1
\A1;60
  7
ＭＳ ゴシック
 11
0.0
 21
1.0
 31
0.0
 73
     1
 44
1.0
  0
POINT
  5
3E9E
330
3E95
100
AcDbEntity
  8
Defpoints
 62
     0
100
AcDbPoint
 10
239.4151920088525
 20
223.8526208973009
 30
0.0
  0
POINT
  5
3E9F
330
3E95
100
AcDbEntity
  8
Defpoints
 62
     0
100
AcDbPoint
 10
239.4151920088525
 20
164.1628571428571
 30
0.0
  0
POINT
  5
3EA0
330
3E95
100
AcDbEntity
  8
Defpoints
 62
     0
100
AcDbPoint
 10
283.129315232167
 20
164.1628571428571
 30
0.0
  0
ENDBLK
  5
3E97
330
3E95
100
AcDbEntity
  8
0
100
AcDbBlockEnd
  0
BLOCK
  5
3EA2
330
3EA1
100
AcDbEntity
  8
0
100
AcDbBlockBegin
  2
*D57
 70
     1
 10
0.0
 20
0.0
 30
0.0
  3
*D57
  1
*D58
  0
LINE
  5
3EA4
330
3EA1
100
AcDbEntity
  8
寸法
 62
     0
370
    -2
100
AcDbLine
 10
249.3981311749347
 20
215.9128780802321
 30
0.0
 11
267.6666478692429
 21
215.9128780802321
 31
0.0
  0
LINE
  5
3EA5
330
3EA1
100
AcDbEntity
  8
寸法
 62
     0
370
    -2
100
AcDbLine
 10
249.3981311749347
 20
175.9128780802321
 30
0.0
 11
267.6666478692429
 21
175.9128780802321
 31
0.0
  0
LINE
  5
3EA6
330
3EA1
100
AcDbEntity
  8
寸法
 62
     0
370
    -2
100
AcDbLine
 10
267.6666478692429
 20
213.9128780802321
 30
0.0
 11
267.6666478692429
 21
177.9128780802321
 31
0.0
  0
INSERT
  5
3EA7
330
3EA1
100
AcDbEntity
  8
寸法
 62
     0
370
    -2
100
AcDbBlockReference
  2
_DOT
 10
267.6666478692429
 20
215.9128780802321
 30
0.0
 41
2.0
 42
2.0
 43
2.0
 50
90.0
  0
INSERT
  5
3EA8
330
3EA1
100
AcDbEntity
  8
寸法
 62
     0
370
    -2
100
AcDbBlockReference
  2
_DOT
 10
267.6666478692429
 20
175.9128780802321
 30
0.0
 41
2.0
 42
2.0
 43
2.0
 50
270.0
  0
MTEXT
  5
3EA9
330
3EA1
100
AcDbEntity
  8
寸法
 62
     0
100
AcDbMText
 10
260.1666478692429
 20
195.9128780802321
 30
0.0
 40
5.0
 41
0.0
 46
0.0
 71
     5
 72
     1
  1
\A1;40
  7
ＭＳ ゴシック
 11
0.0
 21
1.0
 31
0.0
 73
     1
 44
1.0
  0
POINT
  5
3EAA
330
3EA1
100
AcDbEntity
  8
Defpoints
 62
     0
100
AcDbPoint
 10
244.3981311749347
 20
215.9128780802321
 30
0.0
  0
POINT
  5
3EAB
330
3EA1
100
AcDbEntity
  8
Defpoints
 62
     0
100
AcDbPoint
 10
244.3981311749347
 20
175.9128780802321
 30
0.0
  0
POINT
  5
3EAC
330
3EA1
100
AcDbEntity
  8
Defpoints
 62
     0
100
AcDbPoint
 10
267.6666478692429
 20
175.9128780802321
 30
0.0
  0
ENDBLK
  5
3EA3
330
3EA1
100
AcDbEntity
  8
0
100
AcDbBlockEnd
  0
BLOCK
  5
3EAE
330
3EAD
100
AcDbEntity
  8
0
100
AcDbBlockBegin
  2
*D58
 70
     1
 10
0.0
 20
0.0
 30
0.0
  3
*D58
  1
*D59
  0
LINE
  5
3EB0
330
3EAD
100
AcDbEntity
  8
寸法
 62
     0
370
    -2
100
AcDbLine
 10
244.4151920088525
 20
298.4643091875844
 30
0.0
 11
256.0810354046997
 21
298.4643091875844
 31
0.0
  0
LINE
  5
3EB1
330
3EAD
100
AcDbEntity
  8
寸法
 62
     0
370
    -2
100
AcDbLine
 10
244.4151920088525
 20
277.2976285626675
 30
0.0
 11
256.0810354046997
 21
277.2976285626675
 31
0.0
  0
LINE
  5
3EB2
330
3EAD
100
AcDbEntity
  8
寸法
 62
     0
370
    -2
100
AcDbLine
 10
256.0810354046997
 20
296.4643091875844
 30
0.0
 11
256.0810354046997
 21
279.2976285626675
 31
0.0
  0
INSERT
  5
3EB3
330
3EAD
100
AcDbEntity
  8
寸法
 62
     0
370
    -2
100
AcDbBlockReference
  2
_DOT
 10
256.0810354046997
 20
298.4643091875844
 30
0.0
 41
2.0
 42
2.0
 43
2.0
 50
90.0
  0
INSERT
  5
3EB4
330
3EAD
100
AcDbEntity
  8
寸法
 62
     0
370
    -2
100
AcDbBlockReference
  2
_DOT
 10
256.0810354046997
 20
277.2976285626675
 30
0.0
 41
2.0
 42
2.0
 43
2.0
 50
270.0
  0
MTEXT
  5
3EB5
330
3EAD
100
AcDbEntity
  8
寸法
 62
     0
100
AcDbMText
 10
248.5810354046997
 20
287.880968875126
 30
0.0
 40
5.0
 41
0.0
 46
0.0
 71
     5
 72
     1
  1
\A1;21
  7
ＭＳ ゴシック
 11
0.0
 21
1.0
 31
0.0
 73
     1
 44
1.0
  0
POINT
  5
3EB6
330
3EAD
100
AcDbEntity
  8
Defpoints
 62
     0
100
AcDbPoint
 10
239.4151920088525
 20
298.4643091875844
 30
0.0
  0
POINT
  5
3EB7
330
3EAD
100
AcDbEntity
  8
Defpoints
 62
     0
100
AcDbPoint
 10
239.4151920088525
 20
277.2976285626675
 30
0.0
  0
POINT
  5
3EB8
330
3EAD
100
AcDbEntity
  8
Defpoints
 62
     0
100
AcDbPoint
 10
256.0810354046997
 20
277.2976285626675
 30
0.0
  0
ENDBLK
  5
3EAF
330
3EAD
100
AcDbEntity
  8
0
100
AcDbBlockEnd
  0
BLOCK
  5
3EBA
330
3EB9
100
AcDbEntity
  8
0
100
AcDbBlockBegin
  2
*D59
 70
     1
 10
0.0
 20
0.0
 30
0.0
  3
*D59
  1
*D60
  0
LINE
  5
3EBC
330
3EB9
100
AcDbEntity
  8
寸法
 62
     0
370
    -2
100
AcDbLine
 10
218.3300305769294
 20
298.4643091875844
 30
0.0
 11
205.7152749270858
 21
298.4643091875844
 31
0.0
  0
LINE
  5
3EBD
330
3EB9
100
AcDbEntity
  8
寸法
 62
     0
370
    -2
100
AcDbLine
 10
218.3300305769294
 20
294.6540310672784
 30
0.0
 11
205.7152749270858
 21
294.6540310672784
 31
0.0
  0
LINE
  5
3EBE
330
3EB9
100
AcDbEntity
  8
寸法
 62
     0
370
    -2
100
AcDbLine
 10
205.7152749270858
 20
296.4643091875844
 30
0.0
 11
205.7152749270858
 21
296.6540310672784
 31
0.0
  0
INSERT
  5
3EBF
330
3EB9
100
AcDbEntity
  8
寸法
 62
     0
370
    -2
100
AcDbBlockReference
  2
_DOT
 10
205.7152749270858
 20
298.4643091875844
 30
0.0
 41
2.0
 42
2.0
 43
2.0
 50
90.0
  0
INSERT
  5
3EC0
330
3EB9
100
AcDbEntity
  8
寸法
 62
     0
370
    -2
100
AcDbBlockReference
  2
_DOT
 10
205.7152749270858
 20
294.6540310672784
 30
0.0
 41
2.0
 42
2.0
 43
2.0
 50
270.0
  0
MTEXT
  5
3EC1
330
3EB9
100
AcDbEntity
  8
寸法
 62
     0
100
AcDbMText
 10
198.2152749270858
 20
296.7705599320785
 30
0.0
 40
5.0
 41
0.0
 46
0.0
 71
     5
 72
     1
  1
\A1;4
  7
ＭＳ ゴシック
 11
0.0
 21
1.0
 31
0.0
 73
     1
 44
1.0
  0
POINT
  5
3EC2
330
3EB9
100
AcDbEntity
  8
Defpoints
 62
     0
100
AcDbPoint
 10
223.3300305769294
 20
298.4643091875844
 30
0.0
  0
POINT
  5
3EC3
330
3EB9
100
AcDbEntity
  8
Defpoints
 62
     0
100
AcDbPoint
 10
223.3300305769294
 20
294.6540310672784
 30
0.0
  0
POINT
  5
3EC4
330
3EB9
100
AcDbEntity
  8
Defpoints
 62
     0
100
AcDbPoint
 10
205.7152749270858
 20
294.6540310672784
 30
0.0
  0
ENDBLK
  5
3EBB
330
3EB9
100
AcDbEntity
  8
0
100
AcDbBlockEnd
  0
BLOCK
  5
3EC6
330
3EC5
100
AcDbEntity
  8
0
100
AcDbBlockBegin
  2
*D60
 70
     1
 10
0.0
 20
0.0
 30
0.0
  3
*D60
  1
*D61
  0
LINE
  5
3EC8
330
3EC5
100
AcDbEntity
  8
寸法
 62
     0
370
    -2
100
AcDbLine
 10
218.3300305769294
 20
280.2604126345144
 30
0.0
 11
205.7152749270858
 21
280.2604126345144
 31
0.0
  0
LINE
  5
3EC9
330
3EC5
100
AcDbEntity
  8
寸法
 62
     0
370
    -2
100
AcDbLine
 10
218.3300305769294
 20
277.2976285626675
 30
0.0
 11
205.7152749270858
 21
277.2976285626675
 31
0.0
  0
LINE
  5
3ECA
330
3EC5
100
AcDbEntity
  8
寸法
 62
     0
370
    -2
100
AcDbLine
 10
205.7152749270858
 20
278.2604126345144
 30
0.0
 11
205.7152749270858
 21
279.2976285626675
 31
0.0
  0
INSERT
  5
3ECB
330
3EC5
100
AcDbEntity
  8
寸法
 62
     0
370
    -2
100
AcDbBlockReference
  2
_DOT
 10
205.7152749270858
 20
280.2604126345144
 30
0.0
 41
2.0
 42
2.0
 43
2.0
 50
90.0
  0
INSERT
  5
3ECC
330
3EC5
100
AcDbEntity
  8
寸法
 62
     0
370
    -2
100
AcDbBlockReference
  2
_DOT
 10
205.7152749270858
 20
277.2976285626675
 30
0.0
 41
2.0
 42
2.0
 43
2.0
 50
270.0
  0
MTEXT
  5
3ECD
330
3EC5
100
AcDbEntity
  8
寸法
 62
     0
100
AcDbMText
 10
198.2152749270858
 20
278.7790205985909
 30
0.0
 40
5.0
 41
0.0
 46
0.0
 71
     5
 72
     1
  1
\A1;3
  7
ＭＳ ゴシック
 11
0.0
 21
1.0
 31
0.0
 73
     1
 44
1.0
  0
POINT
  5
3ECE
330
3EC5
100
AcDbEntity
  8
Defpoints
 62
     0
100
AcDbPoint
 10
223.3300305769294
 20
280.2604126345144
 30
0.0
  0
POINT
  5
3ECF
330
3EC5
100
AcDbEntity
  8
Defpoints
 62
     0
100
AcDbPoint
 10
223.3300305769294
 20
277.2976285626675
 30
0.0
  0
POINT
  5
3ED0
330
3EC5
100
AcDbEntity
  8
Defpoints
 62
     0
100
AcDbPoint
 10
205.7152749270858
 20
277.2976285626675
 30
0.0
  0
ENDBLK
  5
3EC7
330
3EC5
100
AcDbEntity
  8
0
100
AcDbBlockEnd
  0
BLOCK
  5
3ED2
330
3ED1
100
AcDbEntity
  8
0
100
AcDbBlockBegin
  2
*D61
 70
     1
 10
0.0
 20
0.0
 30
0.0
  3
*D61
  1
*D62
  0
LINE
  5
3ED4
330
3ED1
100
AcDbEntity
  8
寸法
 62
     0
370
    -2
100
AcDbLine
 10
244.4151920088525
 20
205.6487243442321
 30
0.0
 11
253.4794787563446
 21
205.6487243442321
 31
0.0
  0
LINE
  5
3ED5
330
3ED1
100
AcDbEntity
  8
寸法
 62
     0
370
    -2
100
AcDbLine
 10
244.4151920088525
 20
185.329537767774
 30
0.0
 11
253.4794787563446
 21
185.329537767774
 31
0.0
  0
LINE
  5
3ED6
330
3ED1
100
AcDbEntity
  8
寸法
 62
     0
370
    -2
100
AcDbLine
 10
253.4794787563446
 20
203.6487243442321
 30
0.0
 11
253.4794787563446
 21
187.329537767774
 31
0.0
  0
INSERT
  5
3ED7
330
3ED1
100
AcDbEntity
  8
寸法
 62
     0
370
    -2
100
AcDbBlockReference
  2
_DOT
 10
253.4794787563446
 20
205.6487243442321
 30
0.0
 41
2.0
 42
2.0
 43
2.0
 50
90.0
  0
INSERT
  5
3ED8
330
3ED1
100
AcDbEntity
  8
寸法
 62
     0
370
    -2
100
AcDbBlockReference
  2
_DOT
 10
253.4794787563446
 20
185.329537767774
 30
0.0
 41
2.0
 42
2.0
 43
2.0
 50
270.0
  0
MTEXT
  5
3ED9
330
3ED1
100
AcDbEntity
  8
寸法
 62
     0
100
AcDbMText
 10
245.9794787563446
 20
195.4891310560031
 30
0.0
 40
5.0
 41
0.0
 46
0.0
 71
     5
 72
     1
  1
\A1;20
  7
ＭＳ ゴシック
 11
0.0
 21
1.0
 31
0.0
 73
     1
 44
1.0
  0
POINT
  5
3EDA
330
3ED1
100
AcDbEntity
  8
Defpoints
 62
     0
100
AcDbPoint
 10
239.4151920088525
 20
205.6487243442321
 30
0.0
  0
POINT
  5
3EDB
330
3ED1
100
AcDbEntity
  8
Defpoints
 62
     0
100
AcDbPoint
 10
239.4151920088525
 20
185.329537767774
 30
0.0
  0
POINT
  5
3EDC
330
3ED1
100
AcDbEntity
  8
Defpoints
 62
     0
100
AcDbPoint
 10
253.4794787563446
 20
185.329537767774
 30
0.0
  0
ENDBLK
  5
3ED3
330
3ED1
100
AcDbEntity
  8
0
100
AcDbBlockEnd
  0
BLOCK
  5
3EDE
330
3EDD
100
AcDbEntity
  8
0
100
AcDbBlockBegin
  2
*D62
 70
     1
 10
0.0
 20
0.0
 30
0.0
  3
*D62
  1
*D63
  0
LINE
  5
3EE0
330
3EDD
100
AcDbEntity
  8
寸法
 62
     0
370
    -2
100
AcDbLine
 10
239.4151920088525
 20
303.4643091875844
 30
0.0
 11
239.4151920088525
 21
311.250799057778
 31
0.0
  0
LINE
  5
3EE1
330
3EDD
100
AcDbEntity
  8
寸法
 62
     0
370
    -2
100
AcDbLine
 10
223.3300305769294
 20
303.4643091875844
 30
0.0
 11
223.3300305769294
 21
311.250799057778
 31
0.0
  0
LINE
  5
3EE2
330
3EDD
100
AcDbEntity
  8
寸法
 62
     0
370
    -2
100
AcDbLine
 10
237.4151920088525
 20
311.250799057778
 30
0.0
 11
225.3300305769294
 21
311.250799057778
 31
0.0
  0
INSERT
  5
3EE3
330
3EDD
100
AcDbEntity
  8
寸法
 62
     0
370
    -2
100
AcDbBlockReference
  2
_DOT
 10
239.4151920088525
 20
311.250799057778
 30
0.0
 41
2.0
 42
2.0
 43
2.0
  0
INSERT
  5
3EE4
330
3EDD
100
AcDbEntity
  8
寸法
 62
     0
370
    -2
100
AcDbBlockReference
  2
_DOT
 10
223.3300305769294
 20
311.250799057778
 30
0.0
 41
2.0
 42
2.0
 43
2.0
 50
180.0
  0
MTEXT
  5
3EE5
330
3EDD
100
AcDbEntity
  8
寸法
 62
     0
100
AcDbMText
 10
231.372611292891
 20
318.750799057778
 30
0.0
 40
5.0
 41
0.0
 46
0.0
 71
     5
 72
     1
  1
\A1;16
  7
ＭＳ ゴシック
 73
     1
 44
1.0
  0
POINT
  5
3EE6
330
3EDD
100
AcDbEntity
  8
Defpoints
 62
     0
100
AcDbPoint
 10
239.4151920088525
 20
298.4643091875844
 30
0.0
  0
POINT
  5
3EE7
330
3EDD
100
AcDbEntity
  8
Defpoints
 62
     0
100
AcDbPoint
 10
223.3300305769294
 20
298.4643091875844
 30
0.0
  0
POINT
  5
3EE8
330
3EDD
100
AcDbEntity
  8
Defpoints
 62
     0
100
AcDbPoint
 10
223.3300305769294
 20
311.250799057778
 30
0.0
  0
ENDBLK
  5
3EDF
330
3EDD
100
AcDbEntity
  8
0
100
AcDbBlockEnd
  0
BLOCK
  5
3FEA
330
3FE9
100
AcDbEntity
  8
0
100
AcDbBlockBegin
  2
*D63
 70
     1
 10
0.0
 20
0.0
 30
0.0
  3
*D63
  1
*D16
  0
LINE
  5
3FEB
330
3FE9
100
AcDbEntity
  8
寸法
 62
     0
370
    -2
100
AcDbLine
 10
36.49761389311502
 20
38.87490450608581
 30
0.0
 11
10.0
 21
38.87490450608581
 31
0.0
  0
LINE
  5
3FEC
330
3FE9
100
AcDbEntity
  8
寸法
 62
     0
370
    -2
100
AcDbLine
 10
36.49761389311502
 20
27.02032312093982
 30
0.0
 11
10.0
 21
27.02032312093982
 31
0.0
  0
LINE
  5
3FED
330
3FE9
100
AcDbEntity
  8
寸法
 62
     0
370
    -2
100
AcDbLine
 10
10.0
 20
36.87490450608581
 30
0.0
 11
10.0
 21
29.02032312093982
 31
0.0
  0
INSERT
  5
3FEE
330
3FE9
100
AcDbEntity
  8
寸法
 62
     0
370
    -2
100
AcDbBlockReference
  2
_DOT
 10
10.0
 20
38.87490450608581
 30
0.0
 41
2.0
 42
2.0
 43
2.0
 50
90.0
  0
INSERT
  5
3FEF
330
3FE9
100
AcDbEntity
  8
寸法
 62
     0
370
    -2
100
AcDbBlockReference
  2
_DOT
 10
10.0
 20
27.02032312093982
 30
0.0
 41
2.0
 42
2.0
 43
2.0
 50
270.0
  0
MTEXT
  5
3FF0
330
3FE9
100
AcDbEntity
  8
寸法
 62
     0
100
AcDbMText
 10
2.5
 20
32.84587508650432
 30
0.0
 40
5.0
 41
0.0
 46
0.0
 71
     5
 72
     1
  1
\A1;12
  7
ＭＳ ゴシック
 11
0.0
 21
1.0
 31
0.0
 73
     1
 44
1.0
  0
POINT
  5
3FF1
330
3FE9
100
AcDbEntity
  8
Defpoints
 62
     0
100
AcDbPoint
 10
41.49761389311502
 20
38.87490450608581
 30
0.0
  0
POINT
  5
3FF2
330
3FE9
100
AcDbEntity
  8
Defpoints
 62
     0
100
AcDbPoint
 10
41.49761389311502
 20
27.02032312093982
 30
0.0
  0
POINT
  5
3FF3
330
3FE9
100
AcDbEntity
  8
Defpoints
 62
     0
100
AcDbPoint
 10
10.0
 20
27.02032312093982
 30
0.0
  0
ENDBLK
  5
3FF4
330
3FE9
100
AcDbEntity
  8
0
100
AcDbBlockEnd
  0
BLOCK
  5
3FF9
330
3FF8
100
AcDbEntity
  8
0
100
AcDbBlockBegin
  2
*D64
 70
     1
 10
0.0
 20
0.0
 30
0.0
  3
*D64
  1
*D17
  0
LINE
  5
3FFA
330
3FF8
100
AcDbEntity
  8
寸法
 62
     0
370
    -2
100
AcDbLine
 10
41.49761389311502
 20
140.8133555151877
 30
0.0
 11
41.49761389311502
 21
146.9113700349979
 31
0.0
  0
LINE
  5
3FFB
330
3FF8
100
AcDbEntity
  8
寸法
 62
     0
370
    -2
100
AcDbLine
 10
77.48165997502471
 20
140.8133555151877
 30
0.0
 11
77.48165997502471
 21
146.9113700349979
 31
0.0
  0
LINE
  5
3FFC
330
3FF8
100
AcDbEntity
  8
寸法
 62
     0
370
    -2
100
AcDbLine
 10
43.49761389311502
 20
146.9113700349979
 30
0.0
 11
75.48165997502471
 21
146.9113700349979
 31
0.0
  0
INSERT
  5
3FFD
330
3FF8
100
AcDbEntity
  8
寸法
 62
     0
370
    -2
100
AcDbBlockReference
  2
_DOT
 10
41.49761389311502
 20
146.9113700349979
 30
0.0
 41
2.0
 42
2.0
 43
2.0
 50
180.0
  0
INSERT
  5
3FFE
330
3FF8
100
AcDbEntity
  8
寸法
 62
     0
370
    -2
100
AcDbBlockReference
  2
_DOT
 10
77.48165997502471
 20
146.9113700349979
 30
0.0
 41
2.0
 42
2.0
 43
2.0
  0
MTEXT
  5
3FFF
330
3FF8
100
AcDbEntity
  8
寸法
 62
     0
100
AcDbMText
 10
59.48963693406986
 20
154.4113700349979
 30
0.0
 40
5.0
 41
0.0
 46
0.0
 71
     5
 72
     1
  1
\A1;36
  7
ＭＳ ゴシック
 73
     1
 44
1.0
  0
POINT
  5
4000
330
3FF8
100
AcDbEntity
  8
Defpoints
 62
     0
100
AcDbPoint
 10
41.49761389311502
 20
135.8133555151877
 30
0.0
  0
POINT
  5
4001
330
3FF8
100
AcDbEntity
  8
Defpoints
 62
     0
100
AcDbPoint
 10
77.48165997502471
 20
135.8133555151877
 30
0.0
  0
POINT
  5
4002
330
3FF8
100
AcDbEntity
  8
Defpoints
 62
     0
100
AcDbPoint
 10
77.48165997502471
 20
146.9113700349979
 30
0.0
  0
ENDBLK
  5
4003
330
3FF8
100
AcDbEntity
  8
0
100
AcDbBlockEnd
  0
BLOCK
  5
4008
330
4007
100
AcDbEntity
  8
0
100
AcDbBlockBegin
  2
*D65
 70
     1
 10
0.0
 20
0.0
 30
0.0
  3
*D65
  1
*D18
  0
LINE
  5
4009
330
4007
100
AcDbEntity
  8
寸法
 62
     0
370
    -2
100
AcDbLine
 10
36.49761389311502
 20
135.8133555151877
 30
0.0
 11
10.0
 21
135.8133555151877
 31
0.0
  0
LINE
  5
400A
330
4007
100
AcDbEntity
  8
寸法
 62
     0
370
    -2
100
AcDbLine
 10
51.39477599422273
 20
115.9144708652007
 30
0.0
 11
10.0
 21
115.9144708652007
 31
0.0
  0
LINE
  5
400B
330
4007
100
AcDbEntity
  8
寸法
 62
     0
370
    -2
100
AcDbLine
 10
10.0
 20
133.8133555151877
 30
0.0
 11
10.0
 21
117.9144708652007
 31
0.0
  0
INSERT
  5
400C
330
4007
100
AcDbEntity
  8
寸法
 62
     0
370
    -2
100
AcDbBlockReference
  2
_DOT
 10
10.0
 20
135.8133555151877
 30
0.0
 41
2.0
 42
2.0
 43
2.0
 50
90.0
  0
INSERT
  5
400D
330
4007
100
AcDbEntity
  8
寸法
 62
     0
370
    -2
100
AcDbBlockReference
  2
_DOT
 10
10.0
 20
115.9144708652007
 30
0.0
 41
2.0
 42
2.0
 43
2.0
 50
270.0
  0
MTEXT
  5
400E
330
4007
100
AcDbEntity
  8
寸法
 62
     0
100
AcDbMText
 10
2.5
 20
125.8639131901942
 30
0.0
 40
5.0
 41
0.0
 46
0.0
 71
     5
 72
     1
  1
\A1;20
  7
ＭＳ ゴシック
 11
8.926916611888653E-17
 21
1.0
 31
0.0
 73
     1
 44
1.0
  0
POINT
  5
400F
330
4007
100
AcDbEntity
  8
Defpoints
 62
     0
100
AcDbPoint
 10
41.49761389311502
 20
135.8133555151877
 30
0.0
  0
POINT
  5
4010
330
4007
100
AcDbEntity
  8
Defpoints
 62
     0
100
AcDbPoint
 10
56.39477599422273
 20
115.9144708652007
 30
0.0
  0
POINT
  5
4011
330
4007
100
AcDbEntity
  8
Defpoints
 62
     0
100
AcDbPoint
 10
10.0
 20
115.9144708652007
 30
0.0
  0
ENDBLK
  5
4012
330
4007
100
AcDbEntity
  8
0
100
AcDbBlockEnd
  0
BLOCK
  5
4017
330
4016
100
AcDbEntity
  8
0
100
AcDbBlockBegin
  2
*D66
 70
     1
 10
0.0
 20
0.0
 30
0.0
  3
*D66
  1
*D19
  0
LINE
  5
4018
330
4016
100
AcDbEntity
  8
寸法
 62
     0
370
    -2
100
AcDbLine
 10
298.038540988611
 20
134.8843422737357
 30
0.0
 11
298.038540988611
 21
140.4676825861935
 31
0.0
  0
LINE
  5
4019
330
4016
100
AcDbEntity
  8
寸法
 62
     0
370
    -2
100
AcDbLine
 10
314.1254249694132
 20
134.8843422737357
 30
0.0
 11
314.1254249694132
 21
140.4676825861935
 31
0.0
  0
LINE
  5
401A
330
4016
100
AcDbEntity
  8
寸法
 62
     0
370
    -2
100
AcDbLine
 10
300.038540988611
 20
140.4676825861935
 30
0.0
 11
312.1254249694132
 21
140.4676825861935
 31
0.0
  0
INSERT
  5
401B
330
4016
100
AcDbEntity
  8
寸法
 62
     0
370
    -2
100
AcDbBlockReference
  2
_DOT
 10
298.038540988611
 20
140.4676825861935
 30
0.0
 41
2.0
 42
2.0
 43
2.0
 50
180.0
  0
INSERT
  5
401C
330
4016
100
AcDbEntity
  8
寸法
 62
     0
370
    -2
100
AcDbBlockReference
  2
_DOT
 10
314.1254249694132
 20
140.4676825861935
 30
0.0
 41
2.0
 42
2.0
 43
2.0
  0
MTEXT
  5
401D
330
4016
100
AcDbEntity
  8
寸法
 62
     0
100
AcDbMText
 10
306.0819829790121
 20
147.9676825861935
 30
0.0
 40
5.0
 41
0.0
 46
0.0
 71
     5
 72
     1
  1
\A1;16
  7
ＭＳ ゴシック
 73
     1
 44
1.0
  0
POINT
  5
401E
330
4016
100
AcDbEntity
  8
Defpoints
 62
     0
100
AcDbPoint
 10
298.038540988611
 20
129.8843422737357
 30
0.0
  0
POINT
  5
401F
330
4016
100
AcDbEntity
  8
Defpoints
 62
     0
100
AcDbPoint
 10
314.1254249694132
 20
129.8843422737357
 30
0.0
  0
POINT
  5
4020
330
4016
100
AcDbEntity
  8
Defpoints
 62
     0
100
AcDbPoint
 10
314.1254249694132
 20
140.4676825861935
 30
0.0
  0
ENDBLK
  5
4021
330
4016
100
AcDbEntity
  8
0
100
AcDbBlockEnd
  0
BLOCK
  5
4026
330
4025
100
AcDbEntity
  8
0
100
AcDbBlockBegin
  2
*D67
 70
     1
 10
0.0
 20
0.0
 30
0.0
  3
*D67
  1
*D20
  0
LINE
  5
4027
330
4025
100
AcDbEntity
  8
寸法
 62
     0
370
    -2
100
AcDbLine
 10
376.6981761515901
 20
127.7690522503465
 30
0.0
 11
389.1455509633922
 21
127.7690522503465
 31
0.0
  0
LINE
  5
4028
330
4025
100
AcDbEntity
  8
寸法
 62
     0
370
    -2
100
AcDbLine
 10
376.6981761515901
 20
115.9144708652007
 30
0.0
 11
389.1455509633922
 21
115.9144708652007
 31
0.0
  0
LINE
  5
4029
330
4025
100
AcDbEntity
  8
寸法
 62
     0
370
    -2
100
AcDbLine
 10
389.1455509633922
 20
125.7690522503465
 30
0.0
 11
389.1455509633922
 21
117.9144708652007
 31
0.0
  0
INSERT
  5
402A
330
4025
100
AcDbEntity
  8
寸法
 62
     0
370
    -2
100
AcDbBlockReference
  2
_DOT
 10
389.1455509633922
 20
127.7690522503465
 30
0.0
 41
2.0
 42
2.0
 43
2.0
 50
90.0
  0
INSERT
  5
402B
330
4025
100
AcDbEntity
  8
寸法
 62
     0
370
    -2
100
AcDbBlockReference
  2
_DOT
 10
389.1455509633922
 20
115.9144708652007
 30
0.0
 41
2.0
 42
2.0
 43
2.0
 50
270.0
  0
MTEXT
  5
402C
330
4025
100
AcDbEntity
  8
寸法
 62
     0
100
AcDbMText
 10
381.6455509633922
 20
122.0195360434448
 30
0.0
 40
5.0
 41
0.0
 46
0.0
 71
     5
 72
     1
  1
\A1;12
  7
ＭＳ ゴシック
 11
0.0
 21
1.0
 31
0.0
 73
     1
 44
1.0
  0
POINT
  5
402D
330
4025
100
AcDbEntity
  8
Defpoints
 62
     0
100
AcDbPoint
 10
371.6981761515901
 20
127.7690522503465
 30
0.0
  0
POINT
  5
402E
330
4025
100
AcDbEntity
  8
Defpoints
 62
     0
100
AcDbPoint
 10
371.6981761515901
 20
115.9144708652007
 30
0.0
  0
POINT
  5
402F
330
4025
100
AcDbEntity
  8
Defpoints
 62
     0
100
AcDbPoint
 10
389.1455509633922
 20
115.9144708652007
 30
0.0
  0
ENDBLK
  5
4030
330
4025
100
AcDbEntity
  8
0
100
AcDbBlockEnd
  0
BLOCK
  5
4035
330
4034
100
AcDbEntity
  8
0
100
AcDbBlockBegin
  2
*D68
 70
     1
 10
0.0
 20
0.0
 30
0.0
  3
*D68
  1
*D21
  0
LINE
  5
4036
330
4034
100
AcDbEntity
  8
寸法
 62
     0
370
    -2
100
AcDbLine
 10
376.6981761515901
 20
38.87490450608581
 30
0.0
 11
389.1455509633922
 21
38.87490450608581
 31
0.0
  0
LINE
  5
4037
330
4034
100
AcDbEntity
  8
寸法
 62
     0
370
    -2
100
AcDbLine
 10
285.6821384840001
 20
18.97601985609882
 30
0.0
 11
389.1455509633922
 21
18.97601985609881
 31
0.0
  0
LINE
  5
4038
330
4034
100
AcDbEntity
  8
寸法
 62
     0
370
    -2
100
AcDbLine
 10
389.1455509633922
 20
36.87490450608581
 30
0.0
 11
389.1455509633922
 21
20.97601985609881
 31
0.0
  0
INSERT
  5
4039
330
4034
100
AcDbEntity
  8
寸法
 62
     0
370
    -2
100
AcDbBlockReference
  2
_DOT
 10
389.1455509633922
 20
38.87490450608581
 30
0.0
 41
2.0
 42
2.0
 43
2.0
 50
90.0
  0
INSERT
  5
403A
330
4034
100
AcDbEntity
  8
寸法
 62
     0
370
    -2
100
AcDbBlockReference
  2
_DOT
 10
389.1455509633922
 20
18.97601985609881
 30
0.0
 41
2.0
 42
2.0
 43
2.0
 50
270.0
  0
MTEXT
  5
403B
330
4034
100
AcDbEntity
  8
寸法
 62
     0
100
AcDbMText
 10
381.6455509633922
 20
28.92546218109231
 30
0.0
 40
5.0
 41
0.0
 46
0.0
 71
     5
 72
     1
  1
\A1;20
  7
ＭＳ ゴシック
 11
0.0
 21
1.0
 31
0.0
 73
     1
 44
1.0
  0
POINT
  5
403C
330
4034
100
AcDbEntity
  8
Defpoints
 62
     0
100
AcDbPoint
 10
371.6981761515901
 20
38.87490450608581
 30
0.0
  0
POINT
  5
403D
330
4034
100
AcDbEntity
  8
Defpoints
 62
     0
100
AcDbPoint
 10
280.6821384840001
 20
18.97601985609882
 30
0.0
  0
POINT
  5
403E
330
4034
100
AcDbEntity
  8
Defpoints
 62
     0
100
AcDbPoint
 10
389.1455509633922
 20
18.97601985609881
 30
0.0
  0
ENDBLK
  5
403F
330
4034
100
AcDbEntity
  8
0
100
AcDbBlockEnd
  0
BLOCK
  5
4042
330
4041
100
AcDbEntity
  8
0
100
AcDbBlockBegin
  2
*D69
 70
     1
 10
0.0
 20
0.0
 30
0.0
  3
*D69
  1
*D24
  0
LINE
  5
4043
330
4041
100
AcDbEntity
  8
寸法
 62
     0
370
    -2
100
AcDbLine
 10
371.6981761515901
 20
12.18745225304292
 30
0.0
 11
371.6981761515901
 21
0.5
 31
0.0
  0
LINE
  5
4044
330
4041
100
AcDbEntity
  8
寸法
 62
     0
370
    -2
100
AcDbLine
 10
66.69817615159013
 20
19.02834543289831
 30
0.0
 11
66.69817615159013
 21
0.5
 31
0.0
  0
LINE
  5
4045
330
4041
100
AcDbEntity
  8
寸法
 62
     0
370
    -2
100
AcDbLine
 10
369.6981761515901
 20
0.5
 30
0.0
 11
68.69817615159013
 21
0.5
 31
0.0
  0
INSERT
  5
4046
330
4041
100
AcDbEntity
  8
寸法
 62
     0
370
    -2
100
AcDbBlockReference
  2
_DOT
 10
371.6981761515901
 20
0.5
 30
0.0
 41
2.0
 42
2.0
 43
2.0
  0
INSERT
  5
4047
330
4041
100
AcDbEntity
  8
寸法
 62
     0
370
    -2
100
AcDbBlockReference
  2
_DOT
 10
66.69817615159013
 20
0.5
 30
0.0
 41
2.0
 42
2.0
 43
2.0
 50
180.0
  0
MTEXT
  5
4048
330
4041
100
AcDbEntity
  8
寸法
 62
     0
100
AcDbMText
 10
219.1981761515901
 20
8.0
 30
0.0
 40
5.0
 41
0.0
 46
0.0
 71
     5
 72
     1
  1
\A1;305
  7
ＭＳ ゴシック
 73
     1
 44
1.0
  0
POINT
  5
4049
330
4041
100
AcDbEntity
  8
Defpoints
 62
     0
100
AcDbPoint
 10
371.6981761515901
 20
17.18745225304292
 30
0.0
  0
POINT
  5
404A
330
4041
100
AcDbEntity
  8
Defpoints
 62
     0
100
AcDbPoint
 10
66.69817615159013
 20
24.02834543289831
 30
0.0
  0
POINT
  5
404B
330
4041
100
AcDbEntity
  8
Defpoints
 62
     0
100
AcDbPoint
 10
66.69817615159013
 20
0.5
 30
0.0
  0
ENDBLK
  5
404C
330
4041
100
AcDbEntity
  8
0
100
AcDbBlockEnd
  0
BLOCK
  5
4053
330
4052
100
AcDbEntity
  8
0
100
AcDbBlockBegin
  2
*D70
 70
     1
 10
0.0
 20
0.0
 30
0.0
  3
*D70
  1
*D25
  0
LINE
  5
4054
330
4052
100
AcDbEntity
  8
寸法
 62
     0
370
    -2
100
AcDbLine
 10
371.6981761515901
 20
43.87490450608581
 30
0.0
 11
371.6981761515901
 21
57.67396423185372
 31
0.0
  0
LINE
  5
4055
330
4052
100
AcDbEntity
  8
寸法
 62
     0
370
    -2
100
AcDbLine
 10
41.49761389311502
 20
43.87490450608581
 30
0.0
 11
41.49761389311502
 21
57.67396423185372
 31
0.0
  0
LINE
  5
4056
330
4052
100
AcDbEntity
  8
寸法
 62
     0
370
    -2
100
AcDbLine
 10
369.6981761515901
 20
57.67396423185372
 30
0.0
 11
43.49761389311502
 21
57.67396423185372
 31
0.0
  0
INSERT
  5
4057
330
4052
100
AcDbEntity
  8
寸法
 62
     0
370
    -2
100
AcDbBlockReference
  2
_DOT
 10
371.6981761515901
 20
57.67396423185372
 30
0.0
 41
2.0
 42
2.0
 43
2.0
  0
INSERT
  5
4058
330
4052
100
AcDbEntity
  8
寸法
 62
     0
370
    -2
100
AcDbBlockReference
  2
_DOT
 10
41.49761389311502
 20
57.67396423185372
 30
0.0
 41
2.0
 42
2.0
 43
2.0
 50
180.0
  0
MTEXT
  5
4059
330
4052
100
AcDbEntity
  8
寸法
 62
     0
100
AcDbMText
 10
206.5978950223526
 20
65.17396423185372
 30
0.0
 40
5.0
 41
0.0
 46
0.0
 71
     5
 72
     1
  1
\A1;330
  7
ＭＳ ゴシック
 73
     1
 44
1.0
  0
POINT
  5
405A
330
4052
100
AcDbEntity
  8
Defpoints
 62
     0
100
AcDbPoint
 10
371.6981761515901
 20
38.87490450608581
 30
0.0
  0
POINT
  5
405B
330
4052
100
AcDbEntity
  8
Defpoints
 62
     0
100
AcDbPoint
 10
41.49761389311502
 20
38.87490450608581
 30
0.0
  0
POINT
  5
405C
330
4052
100
AcDbEntity
  8
Defpoints
 62
     0
100
AcDbPoint
 10
41.49761389311502
 20
57.67396423185372
 30
0.0
  0
ENDBLK
  5
405D
330
4052
100
AcDbEntity
  8
0
100
AcDbBlockEnd
  0
BLOCK
  5
41EF
330
41EE
100
AcDbEntity
  8
0
100
AcDbBlockBegin
  2
*D71
 70
     1
 10
0.0
 20
0.0
 30
0.0
  3
*D71
  1
*D72
  0
LINE
  5
41F1
330
41EE
100
AcDbEntity
  8
寸法
 62
     0
370
    -2
100
AcDbLine
 10
103.667370599291
 20
229.3924590912386
 30
0.0
 11
77.16975670617595
 21
229.3924590912386
 31
0.0
  0
LINE
  5
41F2
330
41EE
100
AcDbEntity
  8
寸法
 62
     0
370
    -2
100
AcDbLine
 10
103.667370599291
 20
217.5378777060926
 30
0.0
 11
77.16975670617595
 21
217.5378777060926
 31
0.0
  0
LINE
  5
41F3
330
41EE
100
AcDbEntity
  8
寸法
 62
     0
370
    -2
100
AcDbLine
 10
77.16975670617595
 20
227.3924590912386
 30
0.0
 11
77.16975670617595
 21
219.5378777060926
 31
0.0
  0
INSERT
  5
41F4
330
41EE
100
AcDbEntity
  8
寸法
 62
     0
370
    -2
100
AcDbBlockReference
  2
_DOT
 10
77.16975670617595
 20
229.3924590912386
 30
0.0
 41
2.0
 42
2.0
 43
2.0
 50
90.0
  0
INSERT
  5
41F5
330
41EE
100
AcDbEntity
  8
寸法
 62
     0
370
    -2
100
AcDbBlockReference
  2
_DOT
 10
77.16975670617595
 20
217.5378777060926
 30
0.0
 41
2.0
 42
2.0
 43
2.0
 50
270.0
  0
MTEXT
  5
41F6
330
41EE
100
AcDbEntity
  8
寸法
 62
     0
100
AcDbMText
 10
69.66975670617595
 20
223.3634296716571
 30
0.0
 40
5.0
 41
0.0
 46
0.0
 71
     5
 72
     1
  1
\A1;12
  7
ＭＳ ゴシック
 11
0.0
 21
1.0
 31
0.0
 73
     1
 44
1.0
  0
POINT
  5
41F7
330
41EE
100
AcDbEntity
  8
Defpoints
 62
     0
100
AcDbPoint
 10
108.667370599291
 20
229.3924590912386
 30
0.0
  0
POINT
  5
41F8
330
41EE
100
AcDbEntity
  8
Defpoints
 62
     0
100
AcDbPoint
 10
108.667370599291
 20
217.5378777060926
 30
0.0
  0
POINT
  5
41F9
330
41EE
100
AcDbEntity
  8
Defpoints
 62
     0
100
AcDbPoint
 10
77.16975670617595
 20
217.5378777060926
 30
0.0
  0
ENDBLK
  5
41F0
330
41EE
100
AcDbEntity
  8
0
100
AcDbBlockEnd
  0
BLOCK
  5
41FB
330
41FA
100
AcDbEntity
  8
0
100
AcDbBlockBegin
  2
*D72
 70
     1
 10
0.0
 20
0.0
 30
0.0
  3
*D72
  1
*D73
  0
LINE
  5
41FD
330
41FA
100
AcDbEntity
  8
寸法
 62
     0
370
    -2
100
AcDbLine
 10
108.667370599291
 20
331.3309101003404
 30
0.0
 11
108.667370599291
 21
337.4289246201507
 31
0.0
  0
LINE
  5
41FE
330
41FA
100
AcDbEntity
  8
寸法
 62
     0
370
    -2
100
AcDbLine
 10
144.6514166812007
 20
331.3309101003404
 30
0.0
 11
144.6514166812007
 21
337.4289246201507
 31
0.0
  0
LINE
  5
41FF
330
41FA
100
AcDbEntity
  8
寸法
 62
     0
370
    -2
100
AcDbLine
 10
110.667370599291
 20
337.4289246201507
 30
0.0
 11
142.6514166812007
 21
337.4289246201507
 31
0.0
  0
INSERT
  5
4200
330
41FA
100
AcDbEntity
  8
寸法
 62
     0
370
    -2
100
AcDbBlockReference
  2
_DOT
 10
108.667370599291
 20
337.4289246201507
 30
0.0
 41
2.0
 42
2.0
 43
2.0
 50
180.0
  0
INSERT
  5
4201
330
41FA
100
AcDbEntity
  8
寸法
 62
     0
370
    -2
100
AcDbBlockReference
  2
_DOT
 10
144.6514166812007
 20
337.4289246201507
 30
0.0
 41
2.0
 42
2.0
 43
2.0
  0
MTEXT
  5
4202
330
41FA
100
AcDbEntity
  8
寸法
 62
     0
100
AcDbMText
 10
126.6593936402458
 20
344.9289246201507
 30
0.0
 40
5.0
 41
0.0
 46
0.0
 71
     5
 72
     1
  1
\A1;36
  7
ＭＳ ゴシック
 73
     1
 44
1.0
  0
POINT
  5
4203
330
41FA
100
AcDbEntity
  8
Defpoints
 62
     0
100
AcDbPoint
 10
108.667370599291
 20
326.3309101003404
 30
0.0
  0
POINT
  5
4204
330
41FA
100
AcDbEntity
  8
Defpoints
 62
     0
100
AcDbPoint
 10
144.6514166812007
 20
326.3309101003404
 30
0.0
  0
POINT
  5
4205
330
41FA
100
AcDbEntity
  8
Defpoints
 62
     0
100
AcDbPoint
 10
144.6514166812007
 20
337.4289246201507
 30
0.0
  0
ENDBLK
  5
41FC
330
41FA
100
AcDbEntity
  8
0
100
AcDbBlockEnd
  0
BLOCK
  5
4207
330
4206
100
AcDbEntity
  8
0
100
AcDbBlockBegin
  2
*D73
 70
     1
 10
0.0
 20
0.0
 30
0.0
  3
*D73
  1
*D74
  0
LINE
  5
4209
330
4206
100
AcDbEntity
  8
寸法
 62
     0
370
    -2
100
AcDbLine
 10
103.667370599291
 20
326.3309101003404
 30
0.0
 11
77.16975670617595
 21
326.3309101003404
 31
0.0
  0
LINE
  5
420A
330
4206
100
AcDbEntity
  8
寸法
 62
     0
370
    -2
100
AcDbLine
 10
118.5645327003987
 20
306.4320254503535
 30
0.0
 11
77.16975670617595
 21
306.4320254503535
 31
0.0
  0
LINE
  5
420B
330
4206
100
AcDbEntity
  8
寸法
 62
     0
370
    -2
100
AcDbLine
 10
77.16975670617595
 20
324.3309101003404
 30
0.0
 11
77.16975670617595
 21
308.4320254503535
 31
0.0
  0
INSERT
  5
420C
330
4206
100
AcDbEntity
  8
寸法
 62
     0
370
    -2
100
AcDbBlockReference
  2
_DOT
 10
77.16975670617595
 20
326.3309101003404
 30
0.0
 41
2.0
 42
2.0
 43
2.0
 50
90.0
  0
INSERT
  5
420D
330
4206
100
AcDbEntity
  8
寸法
 62
     0
370
    -2
100
AcDbBlockReference
  2
_DOT
 10
77.16975670617595
 20
306.4320254503535
 30
0.0
 41
2.0
 42
2.0
 43
2.0
 50
270.0
  0
MTEXT
  5
420E
330
4206
100
AcDbEntity
  8
寸法
 62
     0
100
AcDbMText
 10
69.66975670617595
 20
316.3814677753471
 30
0.0
 40
5.0
 41
0.0
 46
0.0
 71
     5
 72
     1
  1
\A1;20
  7
ＭＳ ゴシック
 11
0.0
 21
1.0
 31
0.0
 73
     1
 44
1.0
  0
POINT
  5
420F
330
4206
100
AcDbEntity
  8
Defpoints
 62
     0
100
AcDbPoint
 10
108.667370599291
 20
326.3309101003404
 30
0.0
  0
POINT
  5
4210
330
4206
100
AcDbEntity
  8
Defpoints
 62
     0
100
AcDbPoint
 10
123.5645327003987
 20
306.4320254503535
 30
0.0
  0
POINT
  5
4211
330
4206
100
AcDbEntity
  8
Defpoints
 62
     0
100
AcDbPoint
 10
77.16975670617595
 20
306.4320254503535
 30
0.0
  0
ENDBLK
  5
4208
330
4206
100
AcDbEntity
  8
0
100
AcDbBlockEnd
  0
BLOCK
  5
4213
330
4212
100
AcDbEntity
  8
0
100
AcDbBlockBegin
  2
*D74
 70
     1
 10
0.0
 20
0.0
 30
0.0
  3
*D74
  1
*D75
  0
LINE
  5
4215
330
4212
100
AcDbEntity
  8
寸法
 62
     0
370
    -2
100
AcDbLine
 10
365.208297694787
 20
325.4018968588884
 30
0.0
 11
365.208297694787
 21
330.9852371713462
 31
0.0
  0
LINE
  5
4216
330
4212
100
AcDbEntity
  8
寸法
 62
     0
370
    -2
100
AcDbLine
 10
381.2951816755892
 20
325.4018968588884
 30
0.0
 11
381.2951816755892
 21
330.9852371713462
 31
0.0
  0
LINE
  5
4217
330
4212
100
AcDbEntity
  8
寸法
 62
     0
370
    -2
100
AcDbLine
 10
367.208297694787
 20
330.9852371713462
 30
0.0
 11
379.2951816755892
 21
330.9852371713462
 31
0.0
  0
INSERT
  5
4218
330
4212
100
AcDbEntity
  8
寸法
 62
     0
370
    -2
100
AcDbBlockReference
  2
_DOT
 10
365.208297694787
 20
330.9852371713462
 30
0.0
 41
2.0
 42
2.0
 43
2.0
 50
180.0
  0
INSERT
  5
4219
330
4212
100
AcDbEntity
  8
寸法
 62
     0
370
    -2
100
AcDbBlockReference
  2
_DOT
 10
381.2951816755892
 20
330.9852371713462
 30
0.0
 41
2.0
 42
2.0
 43
2.0
  0
MTEXT
  5
421A
330
4212
100
AcDbEntity
  8
寸法
 62
     0
100
AcDbMText
 10
373.2517396851881
 20
338.4852371713462
 30
0.0
 40
5.0
 41
0.0
 46
0.0
 71
     5
 72
     1
  1
\A1;16
  7
ＭＳ ゴシック
 73
     1
 44
1.0
  0
POINT
  5
421B
330
4212
100
AcDbEntity
  8
Defpoints
 62
     0
100
AcDbPoint
 10
365.208297694787
 20
320.4018968588884
 30
0.0
  0
POINT
  5
421C
330
4212
100
AcDbEntity
  8
Defpoints
 62
     0
100
AcDbPoint
 10
381.2951816755892
 20
320.4018968588884
 30
0.0
  0
POINT
  5
421D
330
4212
100
AcDbEntity
  8
Defpoints
 62
     0
100
AcDbPoint
 10
381.2951816755892
 20
330.9852371713462
 30
0.0
  0
ENDBLK
  5
4214
330
4212
100
AcDbEntity
  8
0
100
AcDbBlockEnd
  0
BLOCK
  5
421F
330
421E
100
AcDbEntity
  8
0
100
AcDbBlockBegin
  2
*D75
 70
     1
 10
0.0
 20
0.0
 30
0.0
  3
*D75
  1
*D76
  0
LINE
  5
4221
330
421E
100
AcDbEntity
  8
寸法
 62
     0
370
    -2
100
AcDbLine
 10
443.8679328577661
 20
318.2866068354994
 30
0.0
 11
456.3153076695681
 21
318.2866068354994
 31
0.0
  0
LINE
  5
4222
330
421E
100
AcDbEntity
  8
寸法
 62
     0
370
    -2
100
AcDbLine
 10
443.8679328577661
 20
306.4320254503535
 30
0.0
 11
456.3153076695681
 21
306.4320254503535
 31
0.0
  0
LINE
  5
4223
330
421E
100
AcDbEntity
  8
寸法
 62
     0
370
    -2
100
AcDbLine
 10
456.3153076695681
 20
316.2866068354994
 30
0.0
 11
456.3153076695681
 21
308.4320254503535
 31
0.0
  0
INSERT
  5
4224
330
421E
100
AcDbEntity
  8
寸法
 62
     0
370
    -2
100
AcDbBlockReference
  2
_DOT
 10
456.3153076695681
 20
318.2866068354994
 30
0.0
 41
2.0
 42
2.0
 43
2.0
 50
90.0
  0
INSERT
  5
4225
330
421E
100
AcDbEntity
  8
寸法
 62
     0
370
    -2
100
AcDbBlockReference
  2
_DOT
 10
456.3153076695681
 20
306.4320254503535
 30
0.0
 41
2.0
 42
2.0
 43
2.0
 50
270.0
  0
MTEXT
  5
4226
330
421E
100
AcDbEntity
  8
寸法
 62
     0
100
AcDbMText
 10
448.8153076695681
 20
312.5370906285976
 30
0.0
 40
5.0
 41
0.0
 46
0.0
 71
     5
 72
     1
  1
\A1;12
  7
ＭＳ ゴシック
 11
0.0
 21
1.0
 31
0.0
 73
     1
 44
1.0
  0
POINT
  5
4227
330
421E
100
AcDbEntity
  8
Defpoints
 62
     0
100
AcDbPoint
 10
438.8679328577661
 20
318.2866068354994
 30
0.0
  0
POINT
  5
4228
330
421E
100
AcDbEntity
  8
Defpoints
 62
     0
100
AcDbPoint
 10
438.8679328577661
 20
306.4320254503535
 30
0.0
  0
POINT
  5
4229
330
421E
100
AcDbEntity
  8
Defpoints
 62
     0
100
AcDbPoint
 10
456.3153076695681
 20
306.4320254503535
 30
0.0
  0
ENDBLK
  5
4220
330
421E
100
AcDbEntity
  8
0
100
AcDbBlockEnd
  0
BLOCK
  5
422B
330
422A
100
AcDbEntity
  8
0
100
AcDbBlockBegin
  2
*D76
 70
     1
 10
0.0
 20
0.0
 30
0.0
  3
*D76
  1
*D77
  0
LINE
  5
422D
330
422A
100
AcDbEntity
  8
寸法
 62
     0
370
    -2
100
AcDbLine
 10
460.0810332944473
 20
201.9549045060858
 30
0.0
 11
472.5284081062493
 21
201.9549045060858
 31
0.0
  0
LINE
  5
422E
330
422A
100
AcDbEntity
  8
寸法
 62
     0
370
    -2
100
AcDbLine
 10
369.0649956268572
 20
182.0560198560988
 30
0.0
 11
472.5284081062493
 21
182.0560198560988
 31
0.0
  0
LINE
  5
422F
330
422A
100
AcDbEntity
  8
寸法
 62
     0
370
    -2
100
AcDbLine
 10
472.5284081062493
 20
203.9549045060858
 30
0.0
 11
472.5284081062493
 21
205.9549045060858
 31
0.0
  0
LINE
  5
4230
330
422A
100
AcDbEntity
  8
寸法
 62
     0
370
    -2
100
AcDbLine
 10
472.5284081062493
 20
180.0560198560988
 30
0.0
 11
472.5284081062493
 21
178.0560198560988
 31
0.0
  0
INSERT
  5
4231
330
422A
100
AcDbEntity
  8
寸法
 62
     0
370
    -2
100
AcDbBlockReference
  2
_DOT
 10
472.5284081062493
 20
201.9549045060858
 30
0.0
 41
2.0
 42
2.0
 43
2.0
 50
270.0
  0
INSERT
  5
4232
330
422A
100
AcDbEntity
  8
寸法
 62
     0
370
    -2
100
AcDbBlockReference
  2
_DOT
 10
472.5284081062493
 20
182.0560198560988
 30
0.0
 41
2.0
 42
2.0
 43
2.0
 50
90.0
  0
MTEXT
  5
4233
330
422A
100
AcDbEntity
  8
寸法
 62
     0
100
AcDbMText
 10
465.0284081062493
 20
192.0054621810923
 30
0.0
 40
5.0
 41
0.0
 46
0.0
 71
     5
 72
     1
  1
\A1;19.89888465
  7
ＭＳ ゴシック
 11
0.0
 21
1.0
 31
0.0
 73
     1
 44
1.0
  0
POINT
  5
4234
330
422A
100
AcDbEntity
  8
Defpoints
 62
     0
100
AcDbPoint
 10
455.0810332944473
 20
201.9549045060858
 30
0.0
  0
POINT
  5
4235
330
422A
100
AcDbEntity
  8
Defpoints
 62
     0
100
AcDbPoint
 10
364.0649956268572
 20
182.0560198560988
 30
0.0
  0
POINT
  5
42AB
330
422A
100
AcDbEntity
  8
Defpoints
 62
     0
100
AcDbPoint
 10
472.5284081062493
 20
182.0560198560988
 30
0.0
  0
ENDBLK
  5
422C
330
422A
100
AcDbEntity
  8
0
100
AcDbBlockEnd
  0
BLOCK
  5
4237
330
4236
100
AcDbEntity
  8
0
100
AcDbBlockBegin
  2
*D77
 70
     1
 10
0.0
 20
0.0
 30
0.0
  3
*D77
  1
*D78
  0
LINE
  5
4239
330
4236
100
AcDbEntity
  8
寸法
 62
     0
370
    -2
100
AcDbLine
 10
438.8679328577661
 20
202.7050068381957
 30
0.0
 11
438.8679328577661
 21
191.0175545851529
 31
0.0
  0
LINE
  5
423A
330
4236
100
AcDbEntity
  8
寸法
 62
     0
370
    -2
100
AcDbLine
 10
133.8679328577661
 20
209.5459000180511
 30
0.0
 11
133.8679328577661
 21
191.0175545851529
 31
0.0
  0
LINE
  5
423B
330
4236
100
AcDbEntity
  8
寸法
 62
     0
370
    -2
100
AcDbLine
 10
436.8679328577661
 20
191.0175545851529
 30
0.0
 11
135.8679328577661
 21
191.0175545851529
 31
0.0
  0
INSERT
  5
423C
330
4236
100
AcDbEntity
  8
寸法
 62
     0
370
    -2
100
AcDbBlockReference
  2
_DOT
 10
438.8679328577661
 20
191.0175545851529
 30
0.0
 41
2.0
 42
2.0
 43
2.0
  0
INSERT
  5
423D
330
4236
100
AcDbEntity
  8
寸法
 62
     0
370
    -2
100
AcDbBlockReference
  2
_DOT
 10
133.8679328577661
 20
191.0175545851529
 30
0.0
 41
2.0
 42
2.0
 43
2.0
 50
180.0
  0
MTEXT
  5
423E
330
4236
100
AcDbEntity
  8
寸法
 62
     0
100
AcDbMText
 10
286.3679328577661
 20
198.5175545851529
 30
0.0
 40
5.0
 41
0.0
 46
0.0
 71
     5
 72
     1
  1
\A1;305
  7
ＭＳ ゴシック
 73
     1
 44
1.0
  0
POINT
  5
423F
330
4236
100
AcDbEntity
  8
Defpoints
 62
     0
100
AcDbPoint
 10
438.8679328577661
 20
207.7050068381957
 30
0.0
  0
POINT
  5
4240
330
4236
100
AcDbEntity
  8
Defpoints
 62
     0
100
AcDbPoint
 10
133.8679328577661
 20
214.5459000180511
 30
0.0
  0
POINT
  5
4241
330
4236
100
AcDbEntity
  8
Defpoints
 62
     0
100
AcDbPoint
 10
133.8679328577661
 20
191.0175545851529
 30
0.0
  0
ENDBLK
  5
4238
330
4236
100
AcDbEntity
  8
0
100
AcDbBlockEnd
  0
BLOCK
  5
4243
330
4242
100
AcDbEntity
  8
0
100
AcDbBlockBegin
  2
*D78
 70
     1
 10
0.0
 20
0.0
 30
0.0
  3
*D78
  1
*D79
  0
LINE
  5
4245
330
4242
100
AcDbEntity
  8
寸法
 62
     0
370
    -2
100
AcDbLine
 10
438.8679328577661
 20
234.3924590912386
 30
0.0
 11
438.8679328577661
 21
255.6915188170065
 31
0.0
  0
LINE
  5
4246
330
4242
100
AcDbEntity
  8
寸法
 62
     0
370
    -2
100
AcDbLine
 10
108.667370599291
 20
234.3924590912386
 30
0.0
 11
108.667370599291
 21
255.6915188170065
 31
0.0
  0
LINE
  5
4247
330
4242
100
AcDbEntity
  8
寸法
 62
     0
370
    -2
100
AcDbLine
 10
436.8679328577661
 20
255.6915188170065
 30
0.0
 11
110.667370599291
 21
255.6915188170065
 31
0.0
  0
INSERT
  5
4248
330
4242
100
AcDbEntity
  8
寸法
 62
     0
370
    -2
100
AcDbBlockReference
  2
_DOT
 10
438.8679328577661
 20
255.6915188170065
 30
0.0
 41
2.0
 42
2.0
 43
2.0
  0
INSERT
  5
4249
330
4242
100
AcDbEntity
  8
寸法
 62
     0
370
    -2
100
AcDbBlockReference
  2
_DOT
 10
108.667370599291
 20
255.6915188170065
 30
0.0
 41
2.0
 42
2.0
 43
2.0
 50
180.0
  0
MTEXT
  5
424A
330
4242
100
AcDbEntity
  8
寸法
 62
     0
100
AcDbMText
 10
273.7676517285285
 20
263.1915188170066
 30
0.0
 40
5.0
 41
0.0
 46
0.0
 71
     5
 72
     1
  1
\A1;330
  7
ＭＳ ゴシック
 73
     1
 44
1.0
  0
POINT
  5
424B
330
4242
100
AcDbEntity
  8
Defpoints
 62
     0
100
AcDbPoint
 10
438.8679328577661
 20
229.3924590912386
 30
0.0
  0
POINT
  5
424C
330
4242
100
AcDbEntity
  8
Defpoints
 62
     0
100
AcDbPoint
 10
108.667370599291
 20
229.3924590912386
 30
0.0
  0
POINT
  5
424D
330
4242
100
AcDbEntity
  8
Defpoints
 62
     0
100
AcDbPoint
 10
108.667370599291
 20
255.6915188170065
 30
0.0
  0
ENDBLK
  5
4244
330
4242
100
AcDbEntity
  8
0
100
AcDbBlockEnd
  0
BLOCK
  5
428C
330
428B
100
AcDbEntity
  8
0
100
AcDbBlockBegin
  2
*D79
 70
     1
 10
0.0
 20
0.0
 30
0.0
  3
*D79
  1
*D79
  0
LINE
  5
428E
330
428B
100
AcDbEntity
  8
寸法
 62
     0
370
    -2
100
AcDbLine
 10
518.1815909965541
 20
215.5692411878877
 30
0.0
 11
531.8688236101311
 21
215.5692411878877
 31
0.0
  0
LINE
  5
428F
330
428B
100
AcDbEntity
  8
寸法
 62
     0
370
    -2
100
AcDbLine
 10
518.1815909965541
 20
209.5368750136969
 30
0.0
 11
531.8688236101311
 21
209.5368750136969
 31
0.0
  0
LINE
  5
4290
330
428B
100
AcDbEntity
  8
寸法
 62
     0
370
    -2
100
AcDbLine
 10
531.8688236101311
 20
213.5692411878877
 30
0.0
 11
531.8688236101311
 21
211.5368750136969
 31
0.0
  0
INSERT
  5
4291
330
428B
100
AcDbEntity
  8
寸法
 62
     0
370
    -2
100
AcDbBlockReference
  2
_DOT
 10
531.8688236101311
 20
215.5692411878877
 30
0.0
 41
2.0
 42
2.0
 43
2.0
 50
90.0
  0
INSERT
  5
4292
330
428B
100
AcDbEntity
  8
寸法
 62
     0
370
    -2
100
AcDbBlockReference
  2
_DOT
 10
531.8688236101311
 20
209.5368750136969
 30
0.0
 41
2.0
 42
2.0
 43
2.0
 50
270.0
  0
MTEXT
  5
4293
330
428B
100
AcDbEntity
  8
寸法
 62
     0
100
AcDbMText
 10
524.3688236101311
 20
212.5530581007923
 30
0.0
 40
5.0
 41
0.0
 46
0.0
 71
     5
 72
     1
  1
\A1;6
  7
ＭＳ ゴシック
 11
0.0
 21
1.0
 31
0.0
 73
     1
 44
1.0
  0
POINT
  5
4294
330
428B
100
AcDbEntity
  8
Defpoints
 62
     0
100
AcDbPoint
 10
513.1815909965541
 20
215.5692411878877
 30
0.0
  0
POINT
  5
4295
330
428B
100
AcDbEntity
  8
Defpoints
 62
     0
100
AcDbPoint
 10
513.1815909965541
 20
209.5368750136969
 30
0.0
  0
POINT
  5
4296
330
428B
100
AcDbEntity
  8
Defpoints
 62
     0
100
AcDbPoint
 10
531.8688236101311
 20
209.5368750136969
 30
0.0
  0
ENDBLK
  5
428D
330
428B
100
AcDbEntity
  8
0
100
AcDbBlockEnd
  0
BLOCK
  5
42A0
330
429F
100
AcDbEntity
  8
0
100
AcDbBlockBegin
  2
*D80
 70
     1
 10
0.0
 20
0.0
 30
0.0
  3
*D80
  1
*D80
  0
LINE
  5
42A2
330
429F
100
AcDbEntity
  8
寸法
 62
     0
370
    -2
100
AcDbLine
 10
369.0649956268572
 20
182.0560198560988
 30
0.0
 11
434.7005459004368
 21
182.0560198560988
 31
0.0
  0
LINE
  5
42A3
330
429F
100
AcDbEntity
  8
寸法
 62
     0
370
    -2
100
AcDbLine
 10
402.5082821122704
 20
204.0701945294738
 30
0.0
 11
434.7005459004368
 21
204.0701945294738
 31
0.0
  0
LINE
  5
42A4
330
429F
100
AcDbEntity
  8
寸法
 62
     0
370
    -2
100
AcDbLine
 10
434.7005459004368
 20
180.0560198560988
 30
0.0
 11
434.7005459004368
 21
178.0560198560988
 31
0.0
  0
LINE
  5
42A5
330
429F
100
AcDbEntity
  8
寸法
 62
     0
370
    -2
100
AcDbLine
 10
434.7005459004368
 20
206.0701945294738
 30
0.0
 11
434.7005459004368
 21
208.0701945294738
 31
0.0
  0
INSERT
  5
42A6
330
429F
100
AcDbEntity
  8
寸法
 62
     0
370
    -2
100
AcDbBlockReference
  2
_DOT
 10
434.7005459004368
 20
182.0560198560988
 30
0.0
 41
2.0
 42
2.0
 43
2.0
 50
90.0
  0
INSERT
  5
42A7
330
429F
100
AcDbEntity
  8
寸法
 62
     0
370
    -2
100
AcDbBlockReference
  2
_DOT
 10
434.7005459004368
 20
204.0701945294738
 30
0.0
 41
2.0
 42
2.0
 43
2.0
 50
270.0
  0
MTEXT
  5
42A8
330
429F
100
AcDbEntity
  8
寸法
 62
     0
100
AcDbMText
 10
427.2005459004368
 20
193.0631071927863
 30
0.0
 40
5.0
 41
0.0
 46
0.0
 71
     5
 72
     1
  1
\A1;22.01417467
  7
ＭＳ ゴシック
 11
0.0
 21
1.0
 31
0.0
 73
     1
 44
1.0
  0
POINT
  5
42A9
330
429F
100
AcDbEntity
  8
Defpoints
 62
     0
100
AcDbPoint
 10
364.0649956268572
 20
182.0560198560988
 30
0.0
  0
POINT
  5
42AA
330
429F
100
AcDbEntity
  8
Defpoints
 62
     0
100
AcDbPoint
 10
397.5082821122704
 20
204.0701945294738
 30
0.0
  0
POINT
  5
42AC
330
429F
100
AcDbEntity
  8
Defpoints
 62
     0
100
AcDbPoint
 10
434.7005459004368
 20
204.0701945294738
 30
0.0
  0
ENDBLK
  5
42A1
330
429F
100
AcDbEntity
  8
0
100
AcDbBlockEnd
  0
BLOCK
  5
42AF
330
42AE
100
AcDbEntity
  8
0
100
AcDbBlockBegin
  2
*D81
 70
     1
 10
0.0
 20
0.0
 30
0.0
  3
*D81
  1
*D81
  0
LINE
  5
42B1
330
42AE
100
AcDbEntity
  8
寸法
 62
     0
370
    -2
100
AcDbLine
 10
352.851895190176
 20
209.4935744412516
 30
0.0
 11
454.7119457481224
 21
209.4935744412516
 31
0.0
  0
LINE
  5
42B2
330
42AE
100
AcDbEntity
  8
寸法
 62
     0
370
    -2
100
AcDbLine
 10
438.6572722976421
 20
231.4935744412516
 30
0.0
 11
454.7119457481224
 21
231.4935744412516
 31
0.0
  0
LINE
  5
42B3
330
42AE
100
AcDbEntity
  8
寸法
 62
     0
370
    -2
100
AcDbLine
 10
454.7119457481224
 20
211.4935744412516
 30
0.0
 11
454.7119457481224
 21
229.4935744412516
 31
0.0
  0
INSERT
  5
42B4
330
42AE
100
AcDbEntity
  8
寸法
 62
     0
370
    -2
100
AcDbBlockReference
  2
_DOT
 10
454.7119457481224
 20
209.4935744412516
 30
0.0
 41
2.0
 42
2.0
 43
2.0
 50
270.0
  0
INSERT
  5
42B5
330
42AE
100
AcDbEntity
  8
寸法
 62
     0
370
    -2
100
AcDbBlockReference
  2
_DOT
 10
454.7119457481224
 20
231.4935744412516
 30
0.0
 41
2.0
 42
2.0
 43
2.0
 50
90.0
  0
MTEXT
  5
42B6
330
42AE
100
AcDbEntity
  8
寸法
 62
     0
100
AcDbMText
 10
447.2119457481224
 20
220.4935744412516
 30
0.0
 40
5.0
 41
0.0
 46
0.0
 71
     5
 72
     1
  1
\A1;22
  7
ＭＳ ゴシック
 11
0.0
 21
1.0
 31
0.0
 73
     1
 44
1.0
  0
POINT
  5
42B7
330
42AE
100
AcDbEntity
  8
Defpoints
 62
     0
100
AcDbPoint
 10
347.851895190176
 20
209.4935744412516
 30
0.0
  0
POINT
  5
42B8
330
42AE
100
AcDbEntity
  8
Defpoints
 62
     0
100
AcDbPoint
 10
433.6572722976421
 20
231.4935744412516
 30
0.0
  0
POINT
  5
42B9
330
42AE
100
AcDbEntity
  8
Defpoints
 62
     0
100
AcDbPoint
 10
454.7119457481224
 20
231.4935744412516
 30
0.0
  0
ENDBLK
  5
42B0
330
42AE
100
AcDbEntity
  8
0
100
AcDbBlockEnd
  0
BLOCK
  5
42CA
330
42C9
100
AcDbEntity
  8
0
100
AcDbBlockBegin
  2
*D82
 70
     1
 10
0.0
 20
0.0
 30
0.0
  3
*D82
  1
*D82
  0
LINE
  5
42CC
330
42C9
100
AcDbEntity
  8
寸法
 62
     0
370
    -2
100
AcDbLine
 10
103.667370599291
 20
326.3309101003404
 30
0.0
 11
90.9964336517032
 21
326.3309101003404
 31
0.0
  0
LINE
  5
42CD
330
42C9
100
AcDbEntity
  8
寸法
 62
     0
370
    -2
100
AcDbLine
 10
103.667370599291
 20
320.4018968588884
 30
0.0
 11
90.9964336517032
 21
320.4018968588884
 31
0.0
  0
LINE
  5
42CE
330
42C9
100
AcDbEntity
  8
寸法
 62
     0
370
    -2
100
AcDbLine
 10
90.9964336517032
 20
324.3309101003404
 30
0.0
 11
90.9964336517032
 21
322.4018968588884
 31
0.0
  0
INSERT
  5
42CF
330
42C9
100
AcDbEntity
  8
寸法
 62
     0
370
    -2
100
AcDbBlockReference
  2
_DOT
 10
90.9964336517032
 20
326.3309101003404
 30
0.0
 41
2.0
 42
2.0
 43
2.0
 50
90.0
  0
INSERT
  5
42D0
330
42C9
100
AcDbEntity
  8
寸法
 62
     0
370
    -2
100
AcDbBlockReference
  2
_DOT
 10
90.9964336517032
 20
320.4018968588884
 30
0.0
 41
2.0
 42
2.0
 43
2.0
 50
270.0
  0
MTEXT
  5
42D1
330
42C9
100
AcDbEntity
  8
寸法
 62
     0
100
AcDbMText
 10
83.4964336517032
 20
323.3664034796145
 30
0.0
 40
5.0
 41
0.0
 46
0.0
 71
     5
 72
     1
  1
\A1;6
  7
ＭＳ ゴシック
 11
0.0
 21
1.0
 31
0.0
 73
     1
 44
1.0
  0
POINT
  5
42D2
330
42C9
100
AcDbEntity
  8
Defpoints
 62
     0
100
AcDbPoint
 10
108.667370599291
 20
326.3309101003404
 30
0.0
  0
POINT
  5
42D3
330
42C9
100
AcDbEntity
  8
Defpoints
 62
     0
100
AcDbPoint
 10
108.667370599291
 20
320.4018968588884
 30
0.0
  0
POINT
  5
42D4
330
42C9
100
AcDbEntity
  8
Defpoints
 62
     0
100
AcDbPoint
 10
90.9964336517032
 20
320.4018968588884
 30
0.0
  0
ENDBLK
  5
42CB
330
42C9
100
AcDbEntity
  8
0
100
AcDbBlockEnd
  0
BLOCK
  5
42E0
330
42DF
100
AcDbEntity
  8
0
100
AcDbBlockBegin
  2
*D83
 70
     1
 10
0.0
 20
0.0
 30
0.0
  3
*D83
  1
*D83
  0
LINE
  5
42E2
330
42DF
100
AcDbEntity
  8
寸法
 62
     0
370
    -2
100
AcDbLine
 10
114.8357838275634
 20
233.8442058765413
 30
0.0
 11
114.8357838275634
 21
238.6784384447161
 31
0.0
  0
LINE
  5
42E3
330
42DF
100
AcDbEntity
  8
寸法
 62
     0
370
    -2
100
AcDbLine
 10
138.7638705501784
 20
231.9876860692088
 30
0.0
 11
138.7638705501784
 21
238.6784384447161
 31
0.0
  0
LINE
  5
42E4
330
42DF
100
AcDbEntity
  8
寸法
 62
     0
370
    -2
100
AcDbLine
 10
116.8357838275634
 20
238.6784384447161
 30
0.0
 11
136.7638705501784
 21
238.6784384447161
 31
0.0
  0
INSERT
  5
42E5
330
42DF
100
AcDbEntity
  8
寸法
 62
     0
370
    -2
100
AcDbBlockReference
  2
_DOT
 10
114.8357838275634
 20
238.6784384447161
 30
0.0
 41
2.0
 42
2.0
 43
2.0
 50
180.0
  0
INSERT
  5
42E6
330
42DF
100
AcDbEntity
  8
寸法
 62
     0
370
    -2
100
AcDbBlockReference
  2
_DOT
 10
138.7638705501784
 20
238.6784384447161
 30
0.0
 41
2.0
 42
2.0
 43
2.0
  0
MTEXT
  5
42E7
330
42DF
100
AcDbEntity
  8
寸法
 62
     0
100
AcDbMText
 10
126.7998271888709
 20
246.1784384447161
 30
0.0
 40
5.0
 41
0.0
 46
0.0
 71
     5
 72
     1
  1
\A1;24
  7
ＭＳ ゴシック
 73
     1
 44
1.0
  0
POINT
  5
42E8
330
42DF
100
AcDbEntity
  8
Defpoints
 62
     0
100
AcDbPoint
 10
114.8357838275634
 20
228.8442058765413
 30
0.0
  0
POINT
  5
42E9
330
42DF
100
AcDbEntity
  8
Defpoints
 62
     0
100
AcDbPoint
 10
138.7638705501784
 20
226.9876860692088
 30
0.0
  0
POINT
  5
42EA
330
42DF
100
AcDbEntity
  8
Defpoints
 62
     0
100
AcDbPoint
 10
138.7638705501784
 20
238.6784384447161
 30
0.0
  0
ENDBLK
  5
42E1
330
42DF
100
AcDbEntity
  8
0
100
AcDbBlockEnd
  0
BLOCK
  5
4372
330
4371
100
AcDbEntity
  8
0
100
AcDbBlockBegin
  2
*D84
 70
     1
 10
0.0
 20
0.0
 30
0.0
  3
*D84
  1
*D85
  0
LINE
  5
4373
330
4371
100
AcDbEntity
  8
寸法
 62
     0
370
    -2
100
AcDbLine
 10
4.051400656005114
 20
14.19103814706079
 30
0.0
 11
4.051400656005114
 21
19.02527071523548
 31
0.0
  0
LINE
  5
4374
330
4371
100
AcDbEntity
  8
寸法
 62
     0
370
    -2
100
AcDbLine
 10
27.97948737862006
 20
12.33451833972825
 30
0.0
 11
27.97948737862006
 21
19.02527071523548
 31
0.0
  0
LINE
  5
4375
330
4371
100
AcDbEntity
  8
寸法
 62
     0
370
    -2
100
AcDbLine
 10
6.051400656005114
 20
19.02527071523548
 30
0.0
 11
25.97948737862006
 21
19.02527071523548
 31
0.0
  0
INSERT
  5
4376
330
4371
100
AcDbEntity
  8
寸法
 62
     0
370
    -2
100
AcDbBlockReference
  2
_DOT
 10
4.051400656005114
 20
19.02527071523548
 30
0.0
 41
2.0
 42
2.0
 43
2.0
 50
180.0
  0
INSERT
  5
4377
330
4371
100
AcDbEntity
  8
寸法
 62
     0
370
    -2
100
AcDbBlockReference
  2
_DOT
 10
27.97948737862006
 20
19.02527071523548
 30
0.0
 41
2.0
 42
2.0
 43
2.0
  0
MTEXT
  5
4378
330
4371
100
AcDbEntity
  8
寸法
 62
     0
100
AcDbMText
 10
16.01544401731259
 20
26.52527071523548
 30
0.0
 40
5.0
 41
0.0
 46
0.0
 71
     5
 72
     1
  1
\A1;24
  7
ＭＳ ゴシック
 73
     1
 44
1.0
  0
POINT
  5
4379
330
4371
100
AcDbEntity
  8
Defpoints
 62
     0
100
AcDbPoint
 10
4.051400656005114
 20
9.191038147060794
 30
0.0
  0
POINT
  5
437A
330
4371
100
AcDbEntity
  8
Defpoints
 62
     0
100
AcDbPoint
 10
27.97948737862006
 20
7.334518339728248
 30
0.0
  0
POINT
  5
437B
330
4371
100
AcDbEntity
  8
Defpoints
 62
     0
100
AcDbPoint
 10
27.97948737862006
 20
19.02527071523548
 30
0.0
  0
ENDBLK
  5
437C
330
4371
100
AcDbEntity
  8
0
100
AcDbBlockEnd
  0
BLOCK
  5
4384
330
4383
100
AcDbEntity
  8
0
100
AcDbBlockBegin
  2
*D85
 70
     1
 10
0.0
 20
0.0
 30
0.0
  3
*D85
  1
*D86
  0
LINE
  5
4386
330
4383
100
AcDbEntity
  8
寸法
 62
     0
370
    -2
100
AcDbLine
 10
333.5526451695789
 20
154.3900591126357
 30
0.0
 11
333.5526451695789
 21
158.5547269102113
 31
0.0
  0
LINE
  5
4387
330
4383
100
AcDbEntity
  8
寸法
 62
     0
370
    -2
100
AcDbLine
 10
357.4807318921938
 20
152.5335393053032
 30
0.0
 11
357.4807318921938
 21
158.5547269102113
 31
0.0
  0
LINE
  5
4388
330
4383
100
AcDbEntity
  8
寸法
 62
     0
370
    -2
100
AcDbLine
 10
335.5526451695789
 20
158.5547269102113
 30
0.0
 11
355.4807318921938
 21
158.5547269102113
 31
0.0
  0
INSERT
  5
4389
330
4383
100
AcDbEntity
  8
寸法
 62
     0
370
    -2
100
AcDbBlockReference
  2
_DOT
 10
333.5526451695789
 20
158.5547269102113
 30
0.0
 41
2.0
 42
2.0
 43
2.0
 50
180.0
  0
INSERT
  5
438A
330
4383
100
AcDbEntity
  8
寸法
 62
     0
370
    -2
100
AcDbBlockReference
  2
_DOT
 10
357.4807318921938
 20
158.5547269102113
 30
0.0
 41
2.0
 42
2.0
 43
2.0
  0
MTEXT
  5
438B
330
4383
100
AcDbEntity
  8
寸法
 62
     0
100
AcDbMText
 10
345.5166885308864
 20
166.0547269102113
 30
0.0
 40
5.0
 41
0.0
 46
0.0
 71
     5
 72
     1
  1
\A1;24
  7
ＭＳ ゴシック
 73
     1
 44
1.0
  0
POINT
  5
438C
330
4383
100
AcDbEntity
  8
Defpoints
 62
     0
100
AcDbPoint
 10
333.5526451695789
 20
149.3900591126357
 30
0.0
  0
POINT
  5
438D
330
4383
100
AcDbEntity
  8
Defpoints
 62
     0
100
AcDbPoint
 10
357.4807318921938
 20
147.5335393053032
 30
0.0
  0
POINT
  5
438E
330
4383
100
AcDbEntity
  8
Defpoints
 62
     0
100
AcDbPoint
 10
357.4807318921938
 20
158.5547269102113
 30
0.0
  0
ENDBLK
  5
4385
330
4383
100
AcDbEntity
  8
0
100
AcDbBlockEnd
  0
BLOCK
  5
4392
330
4391
100
AcDbEntity
  8
0
100
AcDbBlockBegin
  2
*D86
 70
     1
 10
0.0
 20
0.0
 30
0.0
  3
*D86
  1
*D87
  0
LINE
  5
4394
330
4391
100
AcDbEntity
  8
寸法
 62
     0
370
    -2
100
AcDbLine
 10
317.3395447328977
 20
158.2103336244541
 30
0.0
 11
317.3395447328977
 21
146.2487202960176
 31
0.0
  0
LINE
  5
4395
330
4391
100
AcDbEntity
  8
寸法
 62
     0
370
    -2
100
AcDbLine
 10
341.2676314555126
 20
158.2103336244541
 30
0.0
 11
341.2676314555126
 21
146.2487202960176
 31
0.0
  0
LINE
  5
4396
330
4391
100
AcDbEntity
  8
寸法
 62
     0
370
    -2
100
AcDbLine
 10
319.3395447328977
 20
146.2487202960176
 30
0.0
 11
339.2676314555126
 21
146.2487202960176
 31
0.0
  0
INSERT
  5
4397
330
4391
100
AcDbEntity
  8
寸法
 62
     0
370
    -2
100
AcDbBlockReference
  2
_DOT
 10
317.3395447328977
 20
146.2487202960176
 30
0.0
 41
2.0
 42
2.0
 43
2.0
 50
180.0
  0
INSERT
  5
4398
330
4391
100
AcDbEntity
  8
寸法
 62
     0
370
    -2
100
AcDbBlockReference
  2
_DOT
 10
341.2676314555126
 20
146.2487202960176
 30
0.0
 41
2.0
 42
2.0
 43
2.0
  0
MTEXT
  5
4399
330
4391
100
AcDbEntity
  8
寸法
 62
     0
100
AcDbMText
 10
329.3035880942052
 20
153.7487202960176
 30
0.0
 40
5.0
 41
0.0
 46
0.0
 71
     5
 72
     1
  1
\A1;24
  7
ＭＳ ゴシック
 73
     1
 44
1.0
  0
POINT
  5
439A
330
4391
100
AcDbEntity
  8
Defpoints
 62
     0
100
AcDbPoint
 10
317.3395447328977
 20
163.2103336244541
 30
0.0
  0
POINT
  5
439B
330
4391
100
AcDbEntity
  8
Defpoints
 62
     0
100
AcDbPoint
 10
341.2676314555126
 20
163.2103336244541
 30
0.0
  0
POINT
  5
439C
330
4391
100
AcDbEntity
  8
Defpoints
 62
     0
100
AcDbPoint
 10
341.2676314555126
 20
146.2487202960176
 30
0.0
  0
ENDBLK
  5
4393
330
4391
100
AcDbEntity
  8
0
100
AcDbBlockEnd
  0
BLOCK
  5
43BD
330
43BC
100
AcDbEntity
  8
0
100
AcDbBlockBegin
  2
*D87
 70
     1
 10
0.0
 20
0.0
 30
0.0
  3
*D87
  1
*D88
  0
LINE
  5
43BF
330
43BC
100
AcDbEntity
  8
寸法
 62
     0
370
    -2
100
AcDbLine
 10
311.851895190176
 20
158.5958008733624
 30
0.0
 11
311.851895190176
 21
131.4722956093153
 31
0.0
  0
LINE
  5
43C0
330
43BC
100
AcDbEntity
  8
寸法
 62
     0
370
    -2
100
AcDbLine
 10
347.851895190176
 20
158.2103336244541
 30
0.0
 11
347.851895190176
 21
131.4722956093153
 31
0.0
  0
LINE
  5
43C1
330
43BC
100
AcDbEntity
  8
寸法
 62
     0
370
    -2
100
AcDbLine
 10
313.851895190176
 20
131.4722956093153
 30
0.0
 11
345.851895190176
 21
131.4722956093153
 31
0.0
  0
INSERT
  5
43C2
330
43BC
100
AcDbEntity
  8
寸法
 62
     0
370
    -2
100
AcDbBlockReference
  2
_DOT
 10
311.851895190176
 20
131.4722956093153
 30
0.0
 41
2.0
 42
2.0
 43
2.0
 50
180.0
  0
INSERT
  5
43C3
330
43BC
100
AcDbEntity
  8
寸法
 62
     0
370
    -2
100
AcDbBlockReference
  2
_DOT
 10
347.851895190176
 20
131.4722956093153
 30
0.0
 41
2.0
 42
2.0
 43
2.0
  0
MTEXT
  5
43C4
330
43BC
100
AcDbEntity
  8
寸法
 62
     0
100
AcDbMText
 10
329.851895190176
 20
138.9722956093153
 30
0.0
 40
5.0
 41
0.0
 46
0.0
 71
     5
 72
     1
  1
\A1;36
  7
ＭＳ ゴシック
 73
     1
 44
1.0
  0
POINT
  5
43C5
330
43BC
100
AcDbEntity
  8
Defpoints
 62
     0
100
AcDbPoint
 10
311.851895190176
 20
163.5958008733624
 30
0.0
  0
POINT
  5
43C6
330
43BC
100
AcDbEntity
  8
Defpoints
 62
     0
100
AcDbPoint
 10
347.851895190176
 20
163.2103336244541
 30
0.0
  0
POINT
  5
43C7
330
43BC
100
AcDbEntity
  8
Defpoints
 62
     0
100
AcDbPoint
 10
347.851895190176
 20
131.4722956093153
 30
0.0
  0
ENDBLK
  5
43BE
330
43BC
100
AcDbEntity
  8
0
100
AcDbBlockEnd
  0
BLOCK
  5
43D0
330
43CF
100
AcDbEntity
  8
0
100
AcDbBlockBegin
  2
*D88
 70
     1
 10
0.0
 20
0.0
 30
0.0
  3
*D88
  1
*D89
  0
LINE
  5
43D2
330
43CF
100
AcDbEntity
  8
寸法
 62
     0
370
    -2
100
AcDbLine
 10
369.0649956268572
 20
148.1582462882096
 30
0.0
 11
382.9203555525129
 21
148.1582462882096
 31
0.0
  0
LINE
  5
43D3
330
43CF
100
AcDbEntity
  8
寸法
 62
     0
370
    -2
100
AcDbLine
 10
369.0649956268572
 20
135.387311790393
 30
0.0
 11
382.9203555525129
 21
135.387311790393
 31
0.0
  0
LINE
  5
43D4
330
43CF
100
AcDbEntity
  8
寸法
 62
     0
370
    -2
100
AcDbLine
 10
382.9203555525129
 20
150.1582462882096
 30
0.0
 11
382.9203555525129
 21
152.1582462882096
 31
0.0
  0
LINE
  5
43D5
330
43CF
100
AcDbEntity
  8
寸法
 62
     0
370
    -2
100
AcDbLine
 10
382.9203555525129
 20
133.387311790393
 30
0.0
 11
382.9203555525129
 21
131.387311790393
 31
0.0
  0
INSERT
  5
43D6
330
43CF
100
AcDbEntity
  8
寸法
 62
     0
370
    -2
100
AcDbBlockReference
  2
_DOT
 10
382.9203555525129
 20
148.1582462882096
 30
0.0
 41
2.0
 42
2.0
 43
2.0
 50
270.0
  0
INSERT
  5
43D7
330
43CF
100
AcDbEntity
  8
寸法
 62
     0
370
    -2
100
AcDbBlockReference
  2
_DOT
 10
382.9203555525129
 20
135.387311790393
 30
0.0
 41
2.0
 42
2.0
 43
2.0
 50
90.0
  0
MTEXT
  5
43D8
330
43CF
100
AcDbEntity
  8
寸法
 62
     0
100
AcDbMText
 10
375.4203555525129
 20
141.7727790393013
 30
0.0
 40
5.0
 41
0.0
 46
0.0
 71
     5
 72
     1
  1
\A1;13
  7
ＭＳ ゴシック
 11
0.0
 21
1.0
 31
0.0
 73
     1
 44
1.0
  0
POINT
  5
43D9
330
43CF
100
AcDbEntity
  8
Defpoints
 62
     0
100
AcDbPoint
 10
364.0649956268572
 20
148.1582462882096
 30
0.0
  0
POINT
  5
43DA
330
43CF
100
AcDbEntity
  8
Defpoints
 62
     0
100
AcDbPoint
 10
364.0649956268572
 20
135.387311790393
 30
0.0
  0
POINT
  5
43DB
330
43CF
100
AcDbEntity
  8
Defpoints
 62
     0
100
AcDbPoint
 10
382.9203555525129
 20
135.387311790393
 30
0.0
  0
ENDBLK
  5
43D1
330
43CF
100
AcDbEntity
  8
0
100
AcDbBlockEnd
  0
BLOCK
  5
43E0
330
43DF
100
AcDbEntity
  8
0
100
AcDbBlockBegin
  2
*D89
 70
     1
 10
0.0
 20
0.0
 30
0.0
  3
*D89
  1
*D90
  0
LINE
  5
43E2
330
43DF
100
AcDbEntity
  8
寸法
 62
     0
370
    -2
100
AcDbLine
 10
352.8439182311309
 20
175.2103336244541
 30
0.0
 11
367.9941192501768
 21
175.2103336244541
 31
0.0
  0
LINE
  5
43E3
330
43DF
100
AcDbEntity
  8
寸法
 62
     0
370
    -2
100
AcDbLine
 10
352.851895190176
 20
163.2103336244541
 30
0.0
 11
367.9941192501768
 21
163.2103336244541
 31
0.0
  0
LINE
  5
43E4
330
43DF
100
AcDbEntity
  8
寸法
 62
     0
370
    -2
100
AcDbLine
 10
367.9941192501768
 20
173.2103336244541
 30
0.0
 11
367.9941192501768
 21
165.2103336244541
 31
0.0
  0
INSERT
  5
43E5
330
43DF
100
AcDbEntity
  8
寸法
 62
     0
370
    -2
100
AcDbBlockReference
  2
_DOT
 10
367.9941192501768
 20
175.2103336244541
 30
0.0
 41
2.0
 42
2.0
 43
2.0
 50
90.0
  0
INSERT
  5
43E6
330
43DF
100
AcDbEntity
  8
寸法
 62
     0
370
    -2
100
AcDbBlockReference
  2
_DOT
 10
367.9941192501768
 20
163.2103336244541
 30
0.0
 41
2.0
 42
2.0
 43
2.0
 50
270.0
  0
MTEXT
  5
43E7
330
43DF
100
AcDbEntity
  8
寸法
 62
     0
100
AcDbMText
 10
360.4941192501768
 20
169.2103336244541
 30
0.0
 40
5.0
 41
0.0
 46
0.0
 71
     5
 72
     1
  1
\A1;12
  7
ＭＳ ゴシック
 11
0.0
 21
1.0
 31
0.0
 73
     1
 44
1.0
  0
POINT
  5
43E8
330
43DF
100
AcDbEntity
  8
Defpoints
 62
     0
100
AcDbPoint
 10
347.8439182311309
 20
175.2103336244541
 30
0.0
  0
POINT
  5
43E9
330
43DF
100
AcDbEntity
  8
Defpoints
 62
     0
100
AcDbPoint
 10
347.851895190176
 20
163.2103336244541
 30
0.0
  0
POINT
  5
43EA
330
43DF
100
AcDbEntity
  8
Defpoints
 62
     0
100
AcDbPoint
 10
367.9941192501768
 20
163.2103336244541
 30
0.0
  0
ENDBLK
  5
43E1
330
43DF
100
AcDbEntity
  8
0
100
AcDbBlockEnd
  0
ENDSEC
  0
SECTION
  2
ENTITIES
  0
LINE
  5
36CD
330
A
100
AcDbEntity
  8
PRINT BORDER
100
AcDbLine
 10
296.9999999999999
 20
0.0
 30
0.0
 11
296.9999999999999
 21
15.30952622855898
 31
0.0
  0
LINE
  5
36CE
330
A
100
AcDbEntity
  8
テンプレート
100
AcDbLine
 10
437.9999999999999
 20
38.27810890422097
 30
0.0
 11
15.30952622855898
 21
38.27810890422097
 31
0.0
  0
LINE
  5
36CF
330
A
100
AcDbEntity
  8
テンプレート
100
AcDbLine
 10
15.30952622855898
 20
26.22153683920783
 30
0.0
 11
578.6904737714407
 21
26.22153683920783
 31
0.0
  0
TEXT
  5
36D0
330
A
100
AcDbEntity
  8
テンプレート
100
AcDbText
 10
18.06121699514119
 20
32.16825981613692
 30
0.0
 40
3.5
  1
材質
  7
ＭＳ ゴシック
100
AcDbText
  0
TEXT
  5
36D1
330
A
100
AcDbEntity
  8
テンプレート
100
AcDbText
 10
36.7528253083583
 20
41.29280421576505
 30
0.0
 40
5.5
  1
サテン・ホワイト・ブラック
  7
ＭＳ ゴシック
100
AcDbText
  0
TEXT
  5
36D2
330
A
100
AcDbEntity
  8
テンプレート
100
AcDbText
 10
36.7528253083583
 20
29.19151340726899
 30
0.0
 40
5.5
  1
ステンレス
  7
ＭＳ ゴシック
100
AcDbText
  0
TEXT
  5
36D3
330
A
100
AcDbEntity
  8
テンプレート
100
AcDbText
 10
18.06121699514119
 20
56.50959028673083
 30
0.0
 40
3.5
  1
品名
  7
ＭＳ ゴシック
100
AcDbText
  0
TEXT
  5
36D4
330
A
100
AcDbEntity
  8
テンプレート
100
AcDbText
 10
18.06121699514119
 20
44.65099339080098
 30
0.0
 40
3.5
  1
仕上げ
  7
ＭＳ ゴシック
100
AcDbText
  0
TEXT
  5
36D5
330
A
100
AcDbEntity
  8
テンプレート
100
AcDbText
 10
298.8233485179306
 20
56.58523052309897
 30
0.0
 40
3.5
  1
品番
  7
ＭＳ ゴシック
100
AcDbText
  0
TEXT
  5
36D6
330
A
100
AcDbEntity
  8
テンプレート
100
AcDbText
 10
36.7528253083583
 20
53.09440584367189
 30
0.0
 40
5.5
  1
窓調整器 - FORMANI,One -
  7
ＭＳ ゴシック
100
AcDbText
  0
TEXT
  5
36D7
330
A
100
AcDbEntity
  8
テンプレート
100
AcDbText
 10
313.0171205424464
 20
52.977080524553
 30
0.0
 40
5.5
  1
FOR21-ON01
  7
ＭＳ ゴシック
100
AcDbText
  0
LINE
  5
36D8
330
A
100
AcDbEntity
  8
テンプレート
100
AcDbLine
 10
437.9999999999999
 20
50.16496477419605
 30
0.0
 11
15.30952622855898
 21
50.16496477419605
 31
0.0
  0
LINE
  5
36D9
330
A
100
AcDbEntity
  8
テンプレート
100
AcDbLine
 10
578.6904737714411
 20
62.22153683920783
 30
0.0
 11
15.30952622855898
 21
62.22153683920783
 31
0.0
  0
LINE
  5
36DA
330
A
100
AcDbEntity
  8
PRINT BORDER
100
AcDbLine
 10
593.9999999999999
 20
210.0
 30
0.0
 11
578.6904737714411
 21
210.0
 31
0.0
  0
LINE
  5
36DB
330
A
100
AcDbEntity
  8
PRINT BORDER
100
AcDbLine
 10
0.0
 20
210.0
 30
0.0
 11
15.30952622855898
 21
210.0
 31
0.0
  0
LINE
  5
36DC
330
A
100
AcDbEntity
  8
PRINT BORDER
100
AcDbLine
 10
296.9999999999999
 20
420.0
 30
0.0
 11
296.9999999999999
 21
404.690473771441
 31
0.0
  0
LINE
  5
36DD
330
A
100
AcDbEntity
  8
テンプレート
100
AcDbLine
 10
578.6904737714411
 20
62.22153683920783
 30
0.0
 11
578.6904737714411
 21
26.22153683920783
 31
0.0
  0
LINE
  5
36DE
330
A
100
AcDbEntity
  8
テンプレート
100
AcDbLine
 10
15.30952622855898
 20
62.22153683920783
 30
0.0
 11
15.30952622855898
 21
26.22153683920783
 31
0.0
  0
TEXT
  5
36DF
330
A
100
AcDbEntity
  8
テンプレート
100
AcDbText
 10
440.0887524673468
 20
56.58523052309897
 30
0.0
 40
3.5
  1
備考
  7
ＭＳ ゴシック
100
AcDbText
  0
TEXT
  5
36E0
330
A
100
AcDbEntity
  8
テンプレート
100
AcDbText
 10
494.9733384955217
 20
16.51938390313694
 30
0.0
 40
5.5
  1
大洋金物株式会社  
  7
ＭＳ ゴシック
100
AcDbText
  0
LINE
  5
36E1
330
A
100
AcDbEntity
  8
テンプレート
100
AcDbLine
 10
437.9999999999999
 20
62.22153683920783
 30
0.0
 11
437.9999999999999
 21
26.22153683920783
 31
0.0
  0
LINE
  5
36E2
330
A
100
AcDbEntity
  8
テンプレート
100
AcDbLine
 10
296.9999999999999
 20
62.22153683920783
 30
0.0
 11
296.9999999999999
 21
26.22153683920783
 31
0.0
  0
INSERT
  5
36E3
330
A
100
AcDbEntity
  8
テンプレート
100
AcDbBlockReference
  2
名称未設定-1
 10
548.3945198859805
 20
-7.642344203993161
 30
0.0
 41
0.180975
 42
0.180975
 43
0.180975
  0
TEXT
  5
36E4
330
A
100
AcDbEntity
  8
テンプレート
100
AcDbText
 10
18.42255191974346
 20
18.90483678917599
 30
0.0
 40
4.0
  1
20160408N
  7
ＭＳ ゴシック
100
AcDbText
  0
LINE
  5
36E5
330
A
100
AcDbEntity
  8
テンプレート
100
AcDbLine
 10
15.30952622855898
 20
210.0
 30
0.0
 11
15.30952622855898
 21
26.22153683920783
 31
0.0
  0
LINE
  5
36E6
330
A
100
AcDbEntity
  8
テンプレート
100
AcDbLine
 10
15.30952622855898
 20
210.0
 30
0.0
 11
15.30952622855898
 21
404.690473771441
 31
0.0
  0
LINE
  5
36E7
330
A
100
AcDbEntity
  8
テンプレート
100
AcDbLine
 10
296.9999999999999
 20
404.690473771441
 30
0.0
 11
15.30952622855887
 21
404.690473771441
 31
0.0
  0
LINE
  5
36E8
330
A
100
AcDbEntity
  8
テンプレート
100
AcDbLine
 10
296.9999999999999
 20
404.690473771441
 30
0.0
 11
578.6904737714411
 21
404.690473771441
 31
0.0
  0
LINE
  5
36E9
330
A
100
AcDbEntity
  8
テンプレート
100
AcDbLine
 10
578.6904737714411
 20
210.0
 30
0.0
 11
578.6904737714411
 21
404.690473771441
 31
0.0
  0
LINE
  5
36EA
330
A
100
AcDbEntity
  8
テンプレート
100
AcDbLine
 10
578.6904737714411
 20
210.0
 30
0.0
 11
578.6904737714411
 21
26.22153683920783
 31
0.0
  0
LWPOLYLINE
  5
36EB
330
A
100
AcDbEntity
  8
PRINT BORDER
  6
HIDDEN
 48
3.0
100
AcDbPolyline
 90
        4
 70
     1
 43
0.0
 10
0.0
 20
0.0
 10
0.0
 20
420.0
 10
593.9999999999999
 20
420.0
 10
593.9999999999999
 20
0.0
  0
TEXT
  5
36EC
330
A
100
AcDbEntity
  8
テンプレート
100
AcDbText
 10
298.7989156222221
 20
32.62405342819488
 30
0.0
 40
3.5
  1
縮尺
  7
ＭＳ ゴシック
100
AcDbText
  0
TEXT
  5
36ED
330
A
100
AcDbEntity
  8
テンプレート
100
AcDbText
 10
313.0171205424464
 20
28.29362070227194
 30
0.0
 40
5.5
  1
1/2
  7
ＭＳ ゴシック
100
AcDbText
  0
TEXT
  5
37DE
330
A
100
AcDbEntity
  8
テンプレート
100
AcDbText
 10
298.8233485179306
 20
44.52865845808583
 30
0.0
 40
3.5
  1
扉厚
  7
ＭＳ ゴシック
100
AcDbText
  0
LINE
  5
40BC
330
A
100
AcDbEntity
  8
モデル
100
AcDbLine
 10
333.0345297331828
 20
215.4225876827036
 30
0.0
 11
333.0345297331828
 21
217.5378777060926
 31
0.0
  0
LINE
  5
40BD
330
A
100
AcDbEntity
  8
モデル
100
AcDbLine
 10
326.6852145652593
 20
215.4225876827036
 30
0.0
 11
326.6852145652593
 21
218.3853717545507
 31
0.0
  0
LINE
  5
40BE
102
{ACAD_REACTORS
102
}
330
A
100
AcDbEntity
  8
モデル
100
AcDbLine
 10
311.8678491082661
 20
209.4935744412516
 30
0.0
 11
347.851895190176
 21
209.4935744412516
 31
0.0
  0
LINE
  5
40BF
330
A
100
AcDbEntity
  8
モデル
100
AcDbLine
 10
311.8678491082661
 20
215.4225876827036
 30
0.0
 11
347.851895190176
 21
215.4225876827036
 31
0.0
  0
LINE
  5
40C0
330
A
100
AcDbEntity
  8
モデル
100
AcDbLine
 10
347.851895190176
 20
209.4935744412516
 30
0.0
 11
347.851895190176
 21
215.4225876827036
 31
0.0
  0
LINE
  5
40C1
330
A
100
AcDbEntity
  8
モデル
100
AcDbLine
 10
329.6479986371064
 20
218.3853717545507
 30
0.0
 11
330.4937701366861
 21
218.3853717545507
 31
0.0
  0
LINE
  5
40C2
330
A
100
AcDbEntity
  8
モデル
100
AcDbLine
 10
330.4937701366861
 20
218.3853717545507
 30
0.0
 11
330.9175171609153
 21
218.3853717545507
 31
0.0
  0
LINE
  5
40C3
330
A
100
AcDbEntity
  8
モデル
100
AcDbLine
 10
332.6107827089535
 20
217.5378777060926
 30
0.0
 11
333.0345297331828
 21
217.5378777060926
 31
0.0
  0
LINE
  5
40C4
330
A
100
AcDbEntity
  8
モデル
100
AcDbLine
 10
365.208297694787
 20
215.4225876827036
 30
0.0
 11
381.2951816755892
 21
215.4225876827036
 31
0.0
  0
LINE
  5
40C5
330
A
100
AcDbEntity
  8
モデル
100
AcDbLine
 10
365.208297694787
 20
231.5077491146266
 30
0.0
 11
381.2951816755892
 21
231.5077491146266
 31
0.0
  0
LINE
  5
40C6
330
A
100
AcDbEntity
  8
モデル
100
AcDbLine
 10
381.2951816755892
 20
217.5378777060926
 30
0.0
 11
398.6515841801998
 21
217.5378777060926
 31
0.0
  0
LINE
  5
40C7
102
{ACAD_REACTORS
330
4192
102
}
330
A
100
AcDbEntity
  8
モデル
100
AcDbLine
 10
381.2951816755892
 20
229.3924590912386
 30
0.0
 11
438.8679328577661
 21
229.3924590912386
 31
0.0
  0
LINE
  5
40C8
330
A
100
AcDbEntity
  8
モデル
100
AcDbLine
 10
404.1551278485442
 20
223.4634458497866
 30
0.0
 11
403.731380824315
 21
223.4634458497866
 31
0.0
  0
LINE
  5
40C9
330
A
100
AcDbEntity
  8
モデル
100
AcDbLine
 10
403.731380824315
 20
223.4634458497866
 30
0.0
 11
403.3076338000851
 21
223.4634458497866
 31
0.0
  0
LINE
  5
40CA
330
A
100
AcDbEntity
  8
モデル
100
AcDbLine
 10
333.0345297331828
 20
217.5378777060926
 30
0.0
 11
365.208297694787
 21
217.5378777060926
 31
0.0
  0
LINE
  5
40CB
330
A
100
AcDbEntity
  8
モデル
100
AcDbLine
 10
143.3818981573917
 20
229.3924590912386
 30
0.0
 11
365.208297694787
 21
229.3924590912386
 31
0.0
  0
LINE
  5
40CC
102
{ACAD_REACTORS
102
}
330
A
100
AcDbEntity
  8
モデル
100
AcDbLine
 10
381.2951816755892
 20
215.4225876827036
 30
0.0
 11
381.2951816755892
 21
231.5077491146266
 31
0.0
  0
LINE
  5
40CD
330
A
100
AcDbEntity
  8
モデル
100
AcDbLine
 10
365.208297694787
 20
215.4225876827036
 30
0.0
 11
365.208297694787
 21
231.5077491146266
 31
0.0
  0
LINE
  5
40CE
330
A
100
AcDbEntity
  8
モデル
100
AcDbLine
 10
438.8679328577661
 20
223.4634458497866
 30
0.0
 11
438.8679328577661
 21
229.3924590912386
 31
0.0
  0
LINE
  5
40CF
330
A
100
AcDbEntity
  8
モデル
100
AcDbLine
 10
176.8251846428049
 20
218.3853717545507
 30
0.0
 11
329.6479986371064
 21
218.3853717545507
 31
0.0
  0
LINE
  5
40D0
330
A
100
AcDbEntity
  8
モデル
100
AcDbLine
 10
404.1551278485442
 20
223.4634458497866
 30
0.0
 11
438.8679328577661
 21
223.4634458497866
 31
0.0
  0
LINE
  5
40D1
330
A
100
AcDbEntity
  8
モデル
100
AcDbLine
 10
398.6515841801998
 20
220.5006617779395
 30
0.0
 11
398.6515841801998
 21
217.5378777060926
 31
0.0
  0
LINE
  5
40D2
102
{ACAD_REACTORS
330
4189
102
}
330
A
100
AcDbEntity
  8
モデル
100
AcDbLine
 10
438.8679328577661
 20
318.2866068354994
 30
0.0
 11
404.1551278485442
 21
318.2866068354994
 31
0.0
  0
LINE
  5
40D3
102
{ACAD_REACTORS
330
4189
102
}
330
A
100
AcDbEntity
  8
モデル
100
AcDbLine
 10
404.1551278485442
 20
306.4320254503535
 30
0.0
 11
438.8679328577661
 21
306.4320254503535
 31
0.0
  0
LINE
  5
40D4
330
A
100
AcDbEntity
  8
モデル
100
AcDbLine
 10
438.8679328577661
 20
306.4320254503535
 30
0.0
 11
438.8679328577661
 21
318.2866068354994
 31
0.0
  0
LINE
  5
40D5
330
A
100
AcDbEntity
  8
モデル
100
AcDbLine
 10
365.208297694787
 20
304.3167354269655
 30
0.0
 11
365.208297694787
 21
320.4018968588884
 31
0.0
  0
LINE
  5
40D6
330
A
100
AcDbEntity
  8
モデル
100
AcDbLine
 10
381.2951816755892
 20
304.3167354269655
 30
0.0
 11
381.2951816755892
 21
320.4018968588884
 31
0.0
  0
LINE
  5
40D7
330
A
100
AcDbEntity
  8
モデル
100
AcDbLine
 10
151.8482258975827
 20
318.2866068354994
 30
0.0
 11
365.208297694787
 21
318.2866068354994
 31
0.0
  0
LINE
  5
40D8
330
A
100
AcDbEntity
  8
モデル
100
AcDbLine
 10
151.8482258975827
 20
306.4320254503535
 30
0.0
 11
365.208297694787
 21
306.4320254503535
 31
0.0
  0
LINE
  5
40D9
330
A
100
AcDbEntity
  8
モデル
100
AcDbLine
 10
381.2951816755892
 20
318.2866068354994
 30
0.0
 11
404.1551278485442
 21
318.2866068354994
 31
0.0
  0
LINE
  5
40DA
330
A
100
AcDbEntity
  8
モデル
100
AcDbLine
 10
381.2951816755892
 20
306.4320254503535
 30
0.0
 11
404.1551278485442
 21
306.4320254503535
 31
0.0
  0
LINE
  5
40DB
102
{ACAD_REACTORS
330
4186
102
}
330
A
100
AcDbEntity
  8
モデル
100
AcDbLine
 10
365.208297694787
 20
320.4018968588884
 30
0.0
 11
381.2951816755892
 21
320.4018968588884
 31
0.0
  0
LINE
  5
40DC
330
A
100
AcDbEntity
  8
モデル
100
AcDbLine
 10
365.208297694787
 20
304.3167354269655
 30
0.0
 11
381.2951816755892
 21
304.3167354269655
 31
0.0
  0
SPLINE
  5
40DE
330
A
100
AcDbEntity
  8
モデル
100
AcDbSpline
210
0.0
220
0.0
230
1.0
 70
    11
 71
     3
 72
    17
 73
    13
 74
     0
 42
0.000000001
 43
0.0000000001
 40
0.0
 40
0.0
 40
0.0
 40
0.0
 40
1.0
 40
1.0
 40
1.0
 40
2.0
 40
2.0
 40
2.0
 40
3.0
 40
3.0
 40
3.0
 40
4.0
 40
4.0
 40
4.0
 40
4.0
 10
114.8065348039788
 20
225.5821809709327
 30
0.0
 10
113.7540574389213
 20
225.5821809709327
 30
0.0
 10
112.9013957438257
 20
224.7277967269586
 30
0.0
 10
112.9013957438257
 20
223.6770419107795
 30
0.0
 10
112.9013957438257
 20
222.6228419968436
 30
0.0
 10
113.7540574389213
 20
221.7719028506267
 30
0.0
 10
114.8065348039788
 20
221.7719028506267
 30
0.0
 10
115.859012169036
 20
221.7719028506267
 30
0.0
 10
116.7116738641316
 20
222.6228419968436
 30
0.0
 10
116.7116738641316
 20
223.6770419107795
 30
0.0
 10
116.7116738641316
 20
224.7277967269586
 30
0.0
 10
115.859012169036
 20
225.5821809709327
 30
0.0
 10
114.8065348039788
 20
225.5821809709327
 30
0.0
  0
SPLINE
  5
40DF
330
A
100
AcDbEntity
  8
モデル
100
AcDbSpline
210
0.0
220
0.0
230
1.0
 70
    11
 71
     3
 72
    17
 73
    13
 74
     0
 42
0.000000001
 43
0.0000000001
 40
0.0
 40
0.0
 40
0.0
 40
0.0
 40
1.0
 40
1.0
 40
1.0
 40
2.0
 40
2.0
 40
2.0
 40
3.0
 40
3.0
 40
3.0
 40
4.0
 40
4.0
 40
4.0
 40
4.0
 10
114.8065348039788
 20
227.6974709943215
 30
0.0
 10
112.5844467500933
 20
227.6974709943215
 30
0.0
 10
110.7843831715583
 20
225.8991299646655
 30
0.0
 10
110.7843831715583
 20
223.6770419107795
 30
0.0
 10
110.7843831715583
 20
221.4549538568945
 30
0.0
 10
112.5844467500933
 20
219.6531677294805
 30
0.0
 10
114.8065348039788
 20
219.6531677294805
 30
0.0
 10
117.026900308985
 20
219.6531677294805
 30
0.0
 10
118.82696388752
 20
221.4549538568945
 30
0.0
 10
118.82696388752
 20
223.6770419107795
 30
0.0
 10
118.82696388752
 20
225.8991299646655
 30
0.0
 10
117.026900308985
 20
227.6974709943215
 30
0.0
 10
114.8065348039788
 20
227.6974709943215
 30
0.0
  0
SPLINE
  5
40E1
330
A
100
AcDbEntity
  8
モデル
100
AcDbSpline
210
0.0
220
0.0
230
1.0
 70
     8
 71
     3
 72
     8
 73
     4
 74
     0
 42
0.000000001
 43
0.0000000001
 40
0.0
 40
0.0
 40
0.0
 40
0.0
 40
1.0
 40
1.0
 40
1.0
 40
1.0
 10
120.9439764597873
 20
319.7679988714231
 30
0.0
 10
120.9439764597873
 20
320.1193988427353
 30
0.0
 10
120.6597558947556
 20
320.4018968588884
 30
0.0
 10
120.3100784723225
 20
320.4018968588884
 30
0.0
  0
SPLINE
  5
40E2
330
A
100
AcDbEntity
  8
モデル
100
AcDbSpline
210
0.0
220
0.0
230
1.0
 70
     8
 71
     3
 72
     8
 73
     4
 74
     0
 42
0.000000001
 43
0.0000000001
 40
0.0
 40
0.0
 40
0.0
 40
0.0
 40
1.0
 40
1.0
 40
1.0
 40
1.0
 10
133.4324558323985
 20
320.4018968588884
 30
0.0
 10
133.0827784099653
 20
320.4018968588884
 30
0.0
 10
132.7985578449336
 20
320.1193988427353
 30
0.0
 10
132.7985578449336
 20
319.7679988714231
 30
0.0
  0
SPLINE
  5
40E3
330
A
100
AcDbEntity
  8
モデル
100
AcDbSpline
210
0.0
220
0.0
230
1.0
 70
     8
 71
     3
 72
     8
 73
     4
 74
     0
 42
0.000000001
 43
0.0000000001
 40
0.0
 40
0.0
 40
0.0
 40
0.0
 40
1.0
 40
1.0
 40
1.0
 40
1.0
 10
120.9439764597873
 20
310.4558996316524
 30
0.0
 10
120.9439764597873
 20
308.2338115777674
 30
0.0
 10
122.7457625872013
 20
306.4320254503535
 30
0.0
 10
124.9661280922077
 20
306.4320254503535
 30
0.0
  0
SPLINE
  5
40E4
330
A
100
AcDbEntity
  8
モデル
100
AcDbSpline
210
0.0
220
0.0
230
1.0
 70
     8
 71
     3
 72
     8
 73
     4
 74
     0
 42
0.000000001
 43
0.0000000001
 40
0.0
 40
0.0
 40
0.0
 40
0.0
 40
1.0
 40
1.0
 40
1.0
 40
1.0
 10
128.7764062125133
 20
306.4320254503535
 30
0.0
 10
130.9967717175197
 20
306.4320254503535
 30
0.0
 10
132.7985578449336
 20
308.2338115777674
 30
0.0
 10
132.7985578449336
 20
310.4558996316524
 30
0.0
  0
LINE
  5
40E6
330
A
100
AcDbEntity
  8
モデル
100
AcDbLine
 10
134.0680763687425
 20
226.4296750193915
 30
0.0
 11
134.4918233929718
 21
226.4296750193915
 31
0.0
  0
LINE
  5
40E7
330
A
100
AcDbEntity
  8
モデル
100
AcDbLine
 10
134.4918233929718
 20
226.4296750193915
 30
0.0
 11
134.913847868322
 21
226.4296750193915
 31
0.0
  0
LINE
  5
40E8
330
A
100
AcDbEntity
  8
モデル
100
AcDbLine
 10
134.913847868322
 20
226.4296750193915
 30
0.0
 11
134.913847868322
 21
226.8499769458626
 31
0.0
  0
LINE
  5
40E9
330
A
100
AcDbEntity
  8
モデル
100
AcDbLine
 10
134.913847868322
 20
220.0769147537096
 30
0.0
 11
134.4918233929718
 21
220.0769147537096
 31
0.0
  0
LINE
  5
40EA
330
A
100
AcDbEntity
  8
モデル
100
AcDbLine
 10
134.4918233929718
 20
220.0769147537096
 30
0.0
 11
134.4918233929718
 21
220.5006617779395
 31
0.0
  0
LINE
  5
40EB
330
A
100
AcDbEntity
  8
モデル
100
AcDbLine
 10
134.4918233929718
 20
220.5006617779395
 30
0.0
 11
134.0680763687425
 21
220.5006617779395
 31
0.0
  0
LINE
  5
40EC
330
A
100
AcDbEntity
  8
モデル
100
AcDbLine
 10
122.6372420078255
 20
220.5006617779395
 30
0.0
 11
123.0609890320548
 21
220.5006617779395
 31
0.0
  0
LINE
  5
40ED
330
A
100
AcDbEntity
  8
モデル
100
AcDbLine
 10
123.0609890320548
 20
220.5006617779395
 30
0.0
 11
123.4847360562841
 21
220.5006617779395
 31
0.0
  0
LINE
  5
40EE
330
A
100
AcDbEntity
  8
モデル
100
AcDbLine
 10
123.4847360562841
 20
220.5006617779395
 30
0.0
 11
123.9084830805135
 21
220.5006617779395
 31
0.0
  0
LINE
  5
40EF
330
A
100
AcDbEntity
  8
モデル
100
AcDbLine
 10
123.9084830805135
 20
220.5006617779395
 30
0.0
 11
124.754254580093
 21
220.5006617779395
 31
0.0
  0
LINE
  5
40F0
330
A
100
AcDbEntity
  8
モデル
100
AcDbLine
 10
311.8678491082661
 20
209.4935744412516
 30
0.0
 11
311.8678491082661
 21
215.4225876827036
 31
0.0
  0
LINE
  5
40F1
330
A
100
AcDbEntity
  8
モデル
100
AcDbLine
 10
180.2117157388813
 20
215.4225876827036
 30
0.0
 11
180.2117157388813
 21
218.3853717545507
 31
0.0
  0
LINE
  5
40F2
330
A
100
AcDbEntity
  8
モデル
100
AcDbLine
 10
173.4369309978496
 20
215.4225876827036
 30
0.0
 11
173.4369309978496
 21
217.5378777060926
 31
0.0
  0
LINE
  5
40F3
330
A
100
AcDbEntity
  8
モデル
100
AcDbLine
 10
124.754254580093
 20
226.4296750193915
 30
0.0
 11
123.9084830805135
 21
226.4296750193915
 31
0.0
  0
LINE
  5
40F4
330
A
100
AcDbEntity
  8
モデル
100
AcDbLine
 10
123.9084830805135
 20
226.4296750193915
 30
0.0
 11
123.4847360562841
 21
226.4296750193915
 31
0.0
  0
LINE
  5
40F5
330
A
100
AcDbEntity
  8
モデル
100
AcDbLine
 10
123.4847360562841
 20
226.4296750193915
 30
0.0
 11
123.0609890320548
 21
226.4296750193915
 31
0.0
  0
LINE
  5
40F6
330
A
100
AcDbEntity
  8
モデル
100
AcDbLine
 10
123.0609890320548
 20
226.4296750193915
 30
0.0
 11
122.6372420078255
 21
226.4296750193915
 31
0.0
  0
LINE
  5
40F7
330
A
100
AcDbEntity
  8
モデル
100
AcDbLine
 10
194.6036116227663
 20
215.4225876827036
 30
0.0
 11
158.6212880897354
 21
215.4225876827036
 31
0.0
  0
LINE
  5
40F8
330
A
100
AcDbEntity
  8
モデル
100
AcDbLine
 10
158.6212880897354
 20
215.4225876827036
 30
0.0
 11
158.6212880897354
 21
209.4935744412516
 31
0.0
  0
LINE
  5
40F9
330
A
100
AcDbEntity
  8
モデル
100
AcDbLine
 10
158.6212880897354
 20
209.4935744412516
 30
0.0
 11
194.6036116227663
 21
209.4935744412516
 31
0.0
  0
LINE
  5
40FA
330
A
100
AcDbEntity
  8
モデル
100
AcDbLine
 10
194.6036116227663
 20
209.4935744412516
 30
0.0
 11
194.6036116227663
 21
215.4225876827036
 31
0.0
  0
LINE
  5
40FB
330
A
100
AcDbEntity
  8
モデル
100
AcDbLine
 10
134.913847868322
 20
220.0769147537096
 30
0.0
 11
134.913847868322
 21
217.9616247303216
 31
0.0
  0
LINE
  5
40FC
330
A
100
AcDbEntity
  8
モデル
100
AcDbLine
 10
134.913847868322
 20
217.9616247303216
 30
0.0
 11
146.7684292534682
 21
217.9616247303216
 31
0.0
  0
LINE
  5
40FD
330
A
100
AcDbEntity
  8
モデル
100
AcDbLine
 10
146.7684292534682
 20
217.9616247303216
 30
0.0
 11
146.7684292534682
 21
228.5449650427796
 31
0.0
  0
LINE
  5
40FE
330
A
100
AcDbEntity
  8
モデル
100
AcDbLine
 10
146.7684292534682
 20
228.5449650427796
 30
0.0
 11
134.913847868322
 21
228.5449650427796
 31
0.0
  0
LINE
  5
40FF
330
A
100
AcDbEntity
  8
モデル
100
AcDbLine
 10
134.913847868322
 20
228.5449650427796
 30
0.0
 11
134.913847868322
 21
226.8499769458626
 31
0.0
  0
LINE
  5
4100
330
A
100
AcDbEntity
  8
モデル
100
AcDbLine
 10
124.754254580093
 20
220.5006617779395
 30
0.0
 11
134.0680763687425
 21
220.5006617779395
 31
0.0
  0
LINE
  5
4101
330
A
100
AcDbEntity
  8
モデル
100
AcDbLine
 10
134.0680763687425
 20
226.4296750193915
 30
0.0
 11
124.754254580093
 21
226.4296750193915
 31
0.0
  0
LINE
  5
4102
330
A
100
AcDbEntity
  8
モデル
100
AcDbLine
 10
122.6372420078255
 20
220.5006617779395
 30
0.0
 11
122.6372420078255
 21
226.4296750193915
 31
0.0
  0
LINE
  5
4103
330
A
100
AcDbEntity
  8
モデル
100
AcDbLine
 10
128.5645327003987
 20
220.5006617779395
 30
0.0
 11
124.754254580093
 21
220.5006617779395
 31
0.0
  0
LINE
  5
4104
330
A
100
AcDbEntity
  8
モデル
100
AcDbLine
 10
124.754254580093
 20
226.4296750193915
 30
0.0
 11
128.5645327003987
 21
226.4296750193915
 31
0.0
  0
LINE
  5
4105
330
A
100
AcDbEntity
  8
モデル
100
AcDbLine
 10
132.7985578449336
 20
226.4296750193915
 30
0.0
 11
132.7985578449336
 21
229.3924590912386
 31
0.0
  0
LINE
  5
4106
330
A
100
AcDbEntity
  8
モデル
100
AcDbLine
 10
132.7985578449336
 20
229.3924590912386
 30
0.0
 11
128.5645327003987
 21
229.3924590912386
 31
0.0
  0
LINE
  5
4107
330
A
100
AcDbEntity
  8
モデル
100
AcDbLine
 10
132.7985578449336
 20
217.5378777060926
 30
0.0
 11
128.5645327003987
 21
217.5378777060926
 31
0.0
  0
LINE
  5
4108
330
A
100
AcDbEntity
  8
モデル
100
AcDbLine
 10
128.5645327003987
 20
220.5006617779395
 30
0.0
 11
132.7985578449336
 21
220.5006617779395
 31
0.0
  0
LINE
  5
4109
330
A
100
AcDbEntity
  8
モデル
100
AcDbLine
 10
124.754254580093
 20
217.5378777060926
 30
0.0
 11
120.9439764597873
 21
217.5378777060926
 31
0.0
  0
LINE
  5
410A
330
A
100
AcDbEntity
  8
モデル
100
AcDbLine
 10
124.754254580093
 20
220.5006617779395
 30
0.0
 11
120.9439764597873
 21
220.5006617779395
 31
0.0
  0
LINE
  5
410B
330
A
100
AcDbEntity
  8
モデル
100
AcDbLine
 10
120.9439764597873
 20
220.5006617779395
 30
0.0
 11
120.9439764597873
 21
217.5378777060926
 31
0.0
  0
LINE
  5
410C
330
A
100
AcDbEntity
  8
モデル
100
AcDbLine
 10
132.7985578449336
 20
226.4296750193915
 30
0.0
 11
128.5645327003987
 21
226.4296750193915
 31
0.0
  0
LINE
  5
410D
330
A
100
AcDbEntity
  8
モデル
100
AcDbLine
 10
124.754254580093
 20
226.4296750193915
 30
0.0
 11
120.9439764597873
 21
226.4296750193915
 31
0.0
  0
LINE
  5
410E
330
A
100
AcDbEntity
  8
モデル
100
AcDbLine
 10
120.9439764597873
 20
229.3924590912386
 30
0.0
 11
124.754254580093
 21
229.3924590912386
 31
0.0
  0
LINE
  5
410F
330
A
100
AcDbEntity
  8
モデル
100
AcDbLine
 10
132.7985578449336
 20
217.5378777060926
 30
0.0
 11
132.7985578449336
 21
220.5006617779395
 31
0.0
  0
LINE
  5
4110
330
A
100
AcDbEntity
  8
モデル
100
AcDbLine
 10
120.9439764597873
 20
229.3924590912386
 30
0.0
 11
120.9439764597873
 21
226.4296750193915
 31
0.0
  0
LINE
  5
4111
330
A
100
AcDbEntity
  8
モデル
100
AcDbLine
 10
124.754254580093
 20
217.5378777060926
 30
0.0
 11
128.5645327003987
 21
217.5378777060926
 31
0.0
  0
LINE
  5
4112
330
A
100
AcDbEntity
  8
モデル
100
AcDbLine
 10
128.5645327003987
 20
229.3924590912386
 30
0.0
 11
124.754254580093
 21
229.3924590912386
 31
0.0
  0
LINE
  5
4113
102
{ACAD_REACTORS
330
417D
330
4192
102
}
330
A
100
AcDbEntity
  8
モデル
100
AcDbLine
 10
120.098204960208
 20
229.3924590912386
 30
0.0
 11
108.667370599291
 21
229.3924590912386
 31
0.0
  0
LINE
  5
4114
102
{ACAD_REACTORS
330
417D
102
}
330
A
100
AcDbEntity
  8
モデル
100
AcDbLine
 10
108.667370599291
 20
229.3924590912386
 30
0.0
 11
108.667370599291
 21
217.5378777060926
 31
0.0
  0
LINE
  5
4115
330
A
100
AcDbEntity
  8
モデル
100
AcDbLine
 10
108.667370599291
 20
217.5378777060926
 30
0.0
 11
120.098204960208
 21
217.5378777060926
 31
0.0
  0
LINE
  5
4116
330
A
100
AcDbEntity
  8
モデル
100
AcDbLine
 10
143.3818981573917
 20
229.3924590912386
 30
0.0
 11
133.2205823202839
 21
229.3924590912386
 31
0.0
  0
LINE
  5
4117
330
A
100
AcDbEntity
  8
モデル
100
AcDbLine
 10
132.7985578449336
 20
217.5378777060926
 30
0.0
 11
133.2205823202839
 21
217.5378777060926
 31
0.0
  0
LINE
  5
4118
330
A
100
AcDbEntity
  8
モデル
100
AcDbLine
 10
133.2205823202839
 20
217.5378777060926
 30
0.0
 11
133.6443293445132
 21
217.5378777060926
 31
0.0
  0
LINE
  5
4119
330
A
100
AcDbEntity
  8
モデル
100
AcDbLine
 10
133.2205823202839
 20
220.5006617779395
 30
0.0
 11
132.7985578449336
 21
220.5006617779395
 31
0.0
  0
LINE
  5
411A
330
A
100
AcDbEntity
  8
モデル
100
AcDbLine
 10
133.2205823202839
 20
229.3924590912386
 30
0.0
 11
132.7985578449336
 21
229.3924590912386
 31
0.0
  0
LINE
  5
411B
330
A
100
AcDbEntity
  8
モデル
100
AcDbLine
 10
132.7985578449336
 20
226.4296750193915
 30
0.0
 11
133.2205823202839
 21
226.4296750193915
 31
0.0
  0
LINE
  5
411C
330
A
100
AcDbEntity
  8
モデル
100
AcDbLine
 10
120.9439764597873
 20
229.3924590912386
 30
0.0
 11
120.098204960208
 21
229.3924590912386
 31
0.0
  0
LINE
  5
411D
330
A
100
AcDbEntity
  8
モデル
100
AcDbLine
 10
120.098204960208
 20
226.4296750193915
 30
0.0
 11
120.9439764597873
 21
226.4296750193915
 31
0.0
  0
LINE
  5
411E
330
A
100
AcDbEntity
  8
モデル
100
AcDbLine
 10
120.098204960208
 20
217.5378777060926
 30
0.0
 11
120.9439764597873
 21
217.5378777060926
 31
0.0
  0
LINE
  5
4137
330
A
100
AcDbEntity
  8
モデル
100
AcDbLine
 10
143.3818981573917
 20
229.3924590912386
 30
0.0
 11
142.5344041089334
 21
229.3924590912386
 31
0.0
  0
LINE
  5
413B
330
A
100
AcDbEntity
  8
モデル
100
AcDbLine
 10
120.9439764597873
 20
220.5006617779395
 30
0.0
 11
120.098204960208
 21
220.5006617779395
 31
0.0
  0
LINE
  5
413C
330
A
100
AcDbEntity
  8
モデル
100
AcDbLine
 10
173.4369309978496
 20
217.5378777060926
 30
0.0
 11
173.860678022079
 21
217.5378777060926
 31
0.0
  0
LINE
  5
413D
330
A
100
AcDbEntity
  8
モデル
100
AcDbLine
 10
173.860678022079
 20
217.5378777060926
 30
0.0
 11
174.2844250463083
 21
217.9616247303216
 31
0.0
  0
LINE
  5
413E
330
A
100
AcDbEntity
  8
モデル
100
AcDbLine
 10
174.2844250463083
 20
217.9616247303216
 30
0.0
 11
174.7081720705374
 21
217.9616247303216
 31
0.0
  0
LINE
  5
413F
330
A
100
AcDbEntity
  8
モデル
100
AcDbLine
 10
174.7081720705374
 20
217.9616247303216
 30
0.0
 11
175.553943570117
 21
218.3853717545507
 31
0.0
  0
LINE
  5
4140
330
A
100
AcDbEntity
  8
モデル
100
AcDbLine
 10
175.553943570117
 20
218.3853717545507
 30
0.0
 11
175.9776905943464
 21
218.3853717545507
 31
0.0
  0
LINE
  5
4141
330
A
100
AcDbEntity
  8
モデル
100
AcDbLine
 10
175.9776905943464
 20
218.3853717545507
 30
0.0
 11
176.8251846428049
 21
218.3853717545507
 31
0.0
  0
LINE
  5
4142
330
A
100
AcDbEntity
  8
モデル
100
AcDbLine
 10
133.6443293445132
 20
217.5378777060926
 30
0.0
 11
173.4369309978496
 21
217.5378777060926
 31
0.0
  0
LINE
  5
4143
330
A
100
AcDbEntity
  8
モデル
100
AcDbLine
 10
133.6443293445132
 20
217.5378777060926
 30
0.0
 11
133.6443293445132
 21
217.9616247303216
 31
0.0
  0
LINE
  5
4145
330
A
100
AcDbEntity
  8
モデル
100
AcDbLine
 10
133.6443293445132
 20
217.9616247303216
 30
0.0
 11
133.6443293445132
 21
220.0769147537096
 31
0.0
  0
LINE
  5
4146
330
A
100
AcDbEntity
  8
モデル
100
AcDbLine
 10
133.6443293445132
 20
220.0769147537096
 30
0.0
 11
134.4918233929718
 21
220.0769147537096
 31
0.0
  0
LINE
  5
4147
330
A
100
AcDbEntity
  8
モデル
100
AcDbLine
 10
139.9936445124366
 20
228.5449650427796
 30
0.0
 11
146.7684292534681
 21
228.5449650427796
 31
0.0
  0
LINE
  5
4148
330
A
100
AcDbEntity
  8
モデル
100
AcDbLine
 10
146.7684292534682
 20
217.9616247303216
 30
0.0
 11
133.6443293445132
 21
217.9616247303216
 31
0.0
  0
LINE
  5
4149
330
A
100
AcDbEntity
  8
モデル
100
AcDbLine
 10
151.8482258975827
 20
315.3238227636522
 30
0.0
 11
151.8482258975827
 21
318.2866068354994
 31
0.0
  0
LINE
  5
414A
330
A
100
AcDbEntity
  8
モデル
100
AcDbLine
 10
151.8482258975827
 20
315.3238227636522
 30
0.0
 11
139.9936445124366
 21
315.3238227636522
 31
0.0
  0
LINE
  5
414B
330
A
100
AcDbEntity
  8
モデル
100
AcDbLine
 10
139.9936445124366
 20
315.3238227636522
 30
0.0
 11
135.3375948925514
 21
315.3238227636522
 31
0.0
  0
LINE
  5
414C
330
A
100
AcDbEntity
  8
モデル
100
AcDbLine
 10
135.3375948925514
 20
315.3238227636522
 30
0.0
 11
134.913847868322
 21
315.3238227636522
 31
0.0
  0
LINE
  5
414D
330
A
100
AcDbEntity
  8
モデル
100
AcDbLine
 10
134.913847868322
 20
309.3982546199587
 30
0.0
 11
135.3375948925514
 21
309.3982546199587
 31
0.0
  0
LINE
  5
414E
330
A
100
AcDbEntity
  8
モデル
100
AcDbLine
 10
135.3375948925514
 20
309.3982546199587
 30
0.0
 11
139.9936445124366
 21
309.3982546199587
 31
0.0
  0
LINE
  5
414F
330
A
100
AcDbEntity
  8
モデル
100
AcDbLine
 10
139.9936445124366
 20
309.3982546199587
 30
0.0
 11
151.8482258975827
 21
309.3982546199587
 31
0.0
  0
LINE
  5
4150
330
A
100
AcDbEntity
  8
モデル
100
AcDbLine
 10
151.8482258975827
 20
309.3982546199587
 30
0.0
 11
151.8482258975827
 21
306.4320254503535
 31
0.0
  0
LINE
  5
4151
330
A
100
AcDbEntity
  8
モデル
100
AcDbLine
 10
135.3375948925514
 20
315.3238227636522
 30
0.0
 11
135.3375948925514
 21
309.3982546199587
 31
0.0
  0
LINE
  5
4152
330
A
100
AcDbEntity
  8
モデル
100
AcDbLine
 10
144.6514166812007
 20
320.4018968588884
 30
0.0
 11
133.4324558323985
 21
320.4018968588884
 31
0.0
  0
LINE
  5
4153
330
A
100
AcDbEntity
  8
モデル
100
AcDbLine
 10
120.3100784723225
 20
320.4018968588884
 30
0.0
 11
108.667370599291
 21
320.4018968588884
 31
0.0
  0
LINE
  5
4154
330
A
100
AcDbEntity
  8
モデル
100
AcDbLine
 10
120.9439764597873
 20
310.2423035706594
 30
0.0
 11
120.9439764597873
 21
319.7679988714231
 31
0.0
  0
LINE
  5
4155
330
A
100
AcDbEntity
  8
モデル
100
AcDbLine
 10
128.5645327003987
 20
306.4320254503535
 30
0.0
 11
124.754254580093
 21
306.4320254503535
 31
0.0
  0
LINE
  5
4156
330
A
100
AcDbEntity
  8
モデル
100
AcDbLine
 10
132.7985578449336
 20
319.7679988714231
 30
0.0
 11
132.7985578449336
 21
310.2423035706594
 31
0.0
  0
LINE
  5
4157
330
A
100
AcDbEntity
  8
モデル
100
AcDbLine
 10
144.6514166812007
 20
326.3309101003404
 30
0.0
 11
144.6514166812007
 21
320.4018968588884
 31
0.0
  0
LINE
  5
4158
102
{ACAD_REACTORS
330
42C8
102
}
330
A
100
AcDbEntity
  8
モデル
100
AcDbLine
 10
108.667370599291
 20
320.4018968588884
 30
0.0
 11
108.667370599291
 21
326.3309101003404
 31
0.0
  0
LINE
  5
4159
102
{ACAD_REACTORS
330
4180
330
4183
102
}
330
A
100
AcDbEntity
  8
モデル
100
AcDbLine
 10
108.667370599291
 20
326.3309101003404
 30
0.0
 11
144.6514166812007
 21
326.3309101003404
 31
0.0
  0
LINE
  5
415A
330
A
100
AcDbEntity
  8
モデル
100
AcDbLine
 10
142.5344041089334
 20
318.2866068354994
 30
0.0
 11
142.110657084704
 21
318.2866068354994
 31
0.0
  0
LINE
  5
415B
330
A
100
AcDbEntity
  8
モデル
100
AcDbLine
 10
142.110657084704
 20
318.2866068354994
 30
0.0
 11
141.6869100604746
 21
318.2866068354994
 31
0.0
  0
LINE
  5
415C
330
A
100
AcDbEntity
  8
モデル
100
AcDbLine
 10
141.6869100604746
 20
318.2866068354994
 30
0.0
 11
141.2648855851244
 21
318.2866068354994
 31
0.0
  0
LINE
  5
415D
330
A
100
AcDbEntity
  8
モデル
100
AcDbLine
 10
141.2648855851244
 20
318.2866068354994
 30
0.0
 11
140.8411385608952
 21
318.2866068354994
 31
0.0
  0
LINE
  5
415E
330
A
100
AcDbEntity
  8
モデル
100
AcDbLine
 10
140.8411385608952
 20
318.2866068354994
 30
0.0
 11
139.9936445124366
 21
318.2866068354994
 31
0.0
  0
LINE
  5
415F
330
A
100
AcDbEntity
  8
モデル
100
AcDbLine
 10
139.9936445124366
 20
318.2866068354994
 30
0.0
 11
139.5716200370862
 21
318.2866068354994
 31
0.0
  0
LINE
  5
4160
330
A
100
AcDbEntity
  8
モデル
100
AcDbLine
 10
139.5716200370862
 20
318.2866068354994
 30
0.0
 11
139.147873012857
 21
318.2866068354994
 31
0.0
  0
LINE
  5
4161
330
A
100
AcDbEntity
  8
モデル
100
AcDbLine
 10
139.147873012857
 20
306.4320254503535
 30
0.0
 11
139.5716200370862
 21
306.4320254503535
 31
0.0
  0
LINE
  5
4162
330
A
100
AcDbEntity
  8
モデル
100
AcDbLine
 10
139.5716200370862
 20
306.4320254503535
 30
0.0
 11
139.9936445124366
 21
306.4320254503535
 31
0.0
  0
LINE
  5
4163
330
A
100
AcDbEntity
  8
モデル
100
AcDbLine
 10
139.9936445124366
 20
306.4320254503535
 30
0.0
 11
140.8411385608952
 21
306.4320254503535
 31
0.0
  0
LINE
  5
4164
330
A
100
AcDbEntity
  8
モデル
100
AcDbLine
 10
140.8411385608952
 20
306.4320254503535
 30
0.0
 11
141.2648855851244
 21
306.4320254503535
 31
0.0
  0
LINE
  5
4165
330
A
100
AcDbEntity
  8
モデル
100
AcDbLine
 10
141.2648855851244
 20
306.4320254503535
 30
0.0
 11
141.6869100604746
 21
306.4320254503535
 31
0.0
  0
LINE
  5
4166
330
A
100
AcDbEntity
  8
モデル
100
AcDbLine
 10
141.6869100604746
 20
306.4320254503535
 30
0.0
 11
142.110657084704
 21
306.4320254503535
 31
0.0
  0
LINE
  5
4167
330
A
100
AcDbEntity
  8
モデル
100
AcDbLine
 10
142.110657084704
 20
306.4320254503535
 30
0.0
 11
142.5344041089334
 21
306.4320254503535
 31
0.0
  0
LINE
  5
4168
330
A
100
AcDbEntity
  8
モデル
100
AcDbLine
 10
132.7985578449336
 20
317.4391127870416
 30
0.0
 11
134.0680763687425
 21
317.4391127870416
 31
0.0
  0
LINE
  5
4169
330
A
100
AcDbEntity
  8
モデル
100
AcDbLine
 10
134.913847868322
 20
315.3238227636522
 30
0.0
 11
134.913847868322
 21
317.4391127870416
 31
0.0
  0
LINE
  5
416A
330
A
100
AcDbEntity
  8
モデル
100
AcDbLine
 10
134.0680763687425
 20
307.2795194988125
 30
0.0
 11
131.2453856115219
 21
307.2795194988125
 31
0.0
  0
LINE
  5
416B
330
A
100
AcDbEntity
  8
モデル
100
AcDbLine
 10
134.913847868322
 20
307.2795194988125
 30
0.0
 11
134.913847868322
 21
309.3982546199587
 31
0.0
  0
LINE
  5
416C
330
A
100
AcDbEntity
  8
モデル
100
AcDbLine
 10
134.913847868322
 20
317.4391127870416
 30
0.0
 11
134.4918233929718
 21
317.4391127870416
 31
0.0
  0
LINE
  5
416D
330
A
100
AcDbEntity
  8
モデル
100
AcDbLine
 10
134.4918233929718
 20
317.4391127870416
 30
0.0
 11
134.0680763687425
 21
317.4391127870416
 31
0.0
  0
LINE
  5
416E
330
A
100
AcDbEntity
  8
モデル
100
AcDbLine
 10
134.0680763687425
 20
307.2795194988125
 30
0.0
 11
134.4918233929718
 21
307.2795194988125
 31
0.0
  0
LINE
  5
416F
330
A
100
AcDbEntity
  8
モデル
100
AcDbLine
 10
134.4918233929718
 20
307.2795194988125
 30
0.0
 11
134.913847868322
 21
307.2795194988125
 31
0.0
  0
LINE
  5
4170
330
A
100
AcDbEntity
  8
モデル
100
AcDbLine
 10
134.0680763687425
 20
315.3238227636522
 30
0.0
 11
134.913847868322
 21
315.3238227636522
 31
0.0
  0
LINE
  5
4171
330
A
100
AcDbEntity
  8
モデル
100
AcDbLine
 10
134.913847868322
 20
309.3982546199587
 30
0.0
 11
134.0680763687425
 21
309.3982546199587
 31
0.0
  0
LINE
  5
4172
330
A
100
AcDbEntity
  8
モデル
100
AcDbLine
 10
146.7684292534682
 20
306.4320254503535
 30
0.0
 11
146.7684292534682
 21
309.3982546199587
 31
0.0
  0
LINE
  5
4173
330
A
100
AcDbEntity
  8
モデル
100
AcDbLine
 10
146.7684292534682
 20
309.3982546199587
 30
0.0
 11
134.913847868322
 21
309.3982546199587
 31
0.0
  0
LINE
  5
4174
330
A
100
AcDbEntity
  8
モデル
100
AcDbLine
 10
134.913847868322
 20
309.3982546199587
 30
0.0
 11
134.913847868322
 21
315.3238227636522
 31
0.0
  0
LINE
  5
4175
330
A
100
AcDbEntity
  8
モデル
100
AcDbLine
 10
134.913847868322
 20
315.3238227636522
 30
0.0
 11
146.7684292534682
 21
315.3238227636522
 31
0.0
  0
LINE
  5
4176
330
A
100
AcDbEntity
  8
モデル
100
AcDbLine
 10
146.7684292534682
 20
315.3238227636522
 30
0.0
 11
146.7684292534682
 21
318.2866068354994
 31
0.0
  0
LINE
  5
4177
330
A
100
AcDbEntity
  8
モデル
100
AcDbLine
 10
146.7684292534682
 20
318.2866068354994
 30
0.0
 11
142.5344041089334
 21
318.2866068354994
 31
0.0
  0
LINE
  5
4178
330
A
100
AcDbEntity
  8
モデル
100
AcDbLine
 10
139.147873012857
 20
318.2866068354994
 30
0.0
 11
132.7985578449336
 21
318.2866068354994
 31
0.0
  0
LINE
  5
4179
330
A
100
AcDbEntity
  8
モデル
100
AcDbLine
 10
146.7684292534682
 20
306.4320254503535
 30
0.0
 11
142.5344041089334
 21
306.4320254503535
 31
0.0
  0
LINE
  5
417A
330
A
100
AcDbEntity
  8
モデル
100
AcDbLine
 10
139.147873012857
 20
306.4320254503535
 30
0.0
 11
128.5645327003987
 21
306.4320254503535
 31
0.0
  0
DIMENSION
  5
417B
102
{ACAD_REACTORS
330
417D
102
}
102
{ACAD_XDICTIONARY
360
417C
102
}
330
A
100
AcDbEntity
  8
寸法
100
AcDbDimension
  2
*D71
 10
77.16975670617595
 20
217.5378777060926
 30
0.0
 11
77.16975670617595
 21
223.3634296716571
 31
0.0
 70
   160
 71
     5
 42
11.85458138514599
 73
     0
 74
     0
 75
     0
  3
tfrom線あり
100
AcDbAlignedDimension
 13
108.667370599291
 23
229.3924590912386
 33
0.0
 14
108.667370599291
 24
217.5378777060926
 34
0.0
 50
90.0
100
AcDbRotatedDimension
  0
DIMENSION
  5
417E
102
{ACAD_REACTORS
330
4180
102
}
102
{ACAD_XDICTIONARY
360
417F
102
}
330
A
100
AcDbEntity
  8
寸法
100
AcDbDimension
  2
*D72
 10
144.6514166812007
 20
337.4289246201507
 30
0.0
 11
126.6593936402458
 21
344.9289246201507
 31
0.0
 70
    32
 71
     5
 42
35.98404608190968
 73
     0
 74
     0
 75
     0
  3
tfrom線あり
100
AcDbAlignedDimension
 13
108.667370599291
 23
326.3309101003404
 33
0.0
 14
144.6514166812007
 24
326.3309101003404
 34
0.0
100
AcDbRotatedDimension
  0
DIMENSION
  5
4181
102
{ACAD_REACTORS
330
4183
102
}
102
{ACAD_XDICTIONARY
360
4182
102
}
330
A
100
AcDbEntity
  8
寸法
100
AcDbDimension
  2
*D73
 10
77.16975670617595
 20
306.4320254503535
 30
0.0
 11
77.16975670617595
 21
316.3814677753471
 31
0.0
 70
   160
 71
     5
 42
19.89888464998688
 73
     0
 74
     0
 75
     0
  3
tfrom線あり
100
AcDbAlignedDimension
 13
108.667370599291
 23
326.3309101003404
 33
0.0
 14
123.5645327003987
 24
306.4320254503535
 34
0.0
 50
90.0
100
AcDbRotatedDimension
  0
DIMENSION
  5
4184
102
{ACAD_REACTORS
330
4186
102
}
102
{ACAD_XDICTIONARY
360
4185
102
}
330
A
100
AcDbEntity
  8
寸法
100
AcDbDimension
  2
*D74
 10
381.2951816755892
 20
330.9852371713462
 30
0.0
 11
373.2517396851881
 21
338.4852371713462
 31
0.0
 70
    32
 71
     5
 42
16.08688398080221
 73
     0
 74
     0
 75
     0
  3
tfrom線あり
100
AcDbAlignedDimension
 13
365.208297694787
 23
320.4018968588884
 33
0.0
 14
381.2951816755892
 24
320.4018968588884
 34
0.0
100
AcDbRotatedDimension
  0
DIMENSION
  5
4187
102
{ACAD_REACTORS
330
4189
102
}
102
{ACAD_XDICTIONARY
360
4188
102
}
330
A
100
AcDbEntity
  8
寸法
100
AcDbDimension
  2
*D75
 10
456.3153076695681
 20
306.4320254503535
 30
0.0
 11
456.3153076695681
 21
312.5370906285976
 31
0.0
 70
   160
 71
     5
 42
11.85458138514582
 73
     0
 74
     0
 75
     0
  3
tfrom線あり
100
AcDbAlignedDimension
 13
438.8679328577661
 23
318.2866068354994
 33
0.0
 14
438.8679328577661
 24
306.4320254503535
 34
0.0
 50
90.0
100
AcDbRotatedDimension
  0
DIMENSION
  5
418D
330
A
100
AcDbEntity
  8
寸法
100
AcDbDimension
  2
*D77
 10
133.8679328577661
 20
191.0175545851529
 30
0.0
 11
286.3679328577661
 21
191.0175545851529
 31
0.0
 70
   160
 71
     5
 42
305.0
 73
     0
 74
     0
 75
     0
  3
tfrom線あり
100
AcDbAlignedDimension
 13
438.8679328577661
 23
207.7050068381957
 33
0.0
 14
133.8679328577661
 24
214.5459000180511
 34
0.0
100
AcDbRotatedDimension
  0
DIMENSION
  5
4190
102
{ACAD_REACTORS
330
4192
102
}
102
{ACAD_XDICTIONARY
360
4191
102
}
330
A
100
AcDbEntity
  8
寸法
100
AcDbDimension
  2
*D78
 10
108.667370599291
 20
255.6915188170065
 30
0.0
 11
273.7676517285285
 21
255.6915188170065
 31
0.0
 70
   160
 71
     5
 42
330.2005622584751
 73
     0
 74
     0
 75
     0
  3
tfrom線あり
100
AcDbAlignedDimension
 13
438.8679328577661
 23
229.3924590912386
 33
0.0
 14
108.667370599291
 24
229.3924590912386
 34
0.0
100
AcDbRotatedDimension
  0
ARC
  5
4193
330
A
100
AcDbEntity
  8
モデル
100
AcDbCircle
 10
404.6716292178463
 20
216.1800010955587
 30
0.0
 40
7.410064168923506
100
AcDbArc
 50
100.6071121350029
 51
144.3325292499166
  0
LINE
  5
4194
330
A
100
AcDbEntity
  8
モデル
100
AcDbLine
 10
330.9175171609153
 20
218.3853717545507
 30
0.0
 11
332.6107827089535
 21
217.5378777060926
 31
0.0
  0
SPLINE
  5
4195
330
A
100
AcDbEntity
  8
モデル
100
AcDbSpline
210
0.0
220
0.0
230
1.0
 70
     8
 71
     3
 72
     8
 73
     4
 74
     0
 42
0.000000001
 43
0.0000000001
 40
0.0
 40
0.0
 40
0.0
 40
0.0
 40
1.0
 40
1.0
 40
1.0
 40
1.0
 10
512.4524360560814
 20
229.5151691670045
 30
0.0
 10
509.4405593411835
 20
232.1715117932809
 30
0.0
 10
504.9228303962803
 20
232.1720285579446
 30
0.0
 10
501.9106091716066
 20
229.5162026963319
 30
0.0
  0
SPLINE
  5
4196
330
A
100
AcDbEntity
  8
モデル
100
AcDbSpline
210
0.0
220
0.0
230
1.0
 70
     8
 71
     3
 72
     8
 73
     4
 74
     0
 42
0.000000001
 43
0.0000000001
 40
0.0
 40
0.0
 40
0.0
 40
0.0
 40
1.0
 40
1.0
 40
1.0
 40
1.0
 10
513.1571308024726
 20
218.266408222596
 30
0.0
 10
515.8138179385247
 20
221.2781126826061
 30
0.0
 10
515.8146792129643
 20
225.7958416275091
 30
0.0
 10
513.1590256062394
 20
228.8084073619587
 30
0.0
  0
SPLINE
  5
4197
330
A
100
AcDbEntity
  8
モデル
100
AcDbSpline
210
0.0
220
0.0
230
1.0
 70
     8
 71
     3
 72
     8
 73
     4
 74
     0
 42
0.000000001
 43
0.0000000001
 40
0.0
 40
0.0
 40
0.0
 40
0.0
 40
1.0
 40
1.0
 40
1.0
 40
1.0
 10
510.4174168104536
 20
216.2561936808254
 30
0.0
 10
511.1574238088637
 20
216.5848560069349
 30
0.0
 10
511.8431705175859
 20
217.0247949906265
 30
0.0
 10
512.4507135072025
 20
217.5605076919897
 30
0.0
  0
SPLINE
  5
4198
330
A
100
AcDbEntity
  8
モデル
100
AcDbSpline
210
0.0
220
0.0
230
1.0
 70
     8
 71
     3
 72
     8
 73
     4
 74
     0
 42
0.000000001
 43
0.0000000001
 40
0.0
 40
0.0
 40
0.0
 40
0.0
 40
1.0
 40
1.0
 40
1.0
 40
1.0
 10
501.9088866227277
 20
217.5622302408686
 30
0.0
 10
502.5162573574564
 20
217.0265175395055
 30
0.0
 10
503.2016595564029
 20
216.5865785558139
 30
0.0
 10
503.941666554813
 20
216.2572272101528
 30
0.0
  0
SPLINE
  5
4199
330
A
100
AcDbEntity
  8
モデル
100
AcDbSpline
210
0.0
220
0.0
230
1.0
 70
     8
 71
     3
 72
     8
 73
     4
 74
     0
 42
0.000000001
 43
0.0000000001
 40
0.0
 40
0.0
 40
0.0
 40
0.0
 40
1.0
 40
1.0
 40
1.0
 40
1.0
 10
499.7934243444512
 20
226.5274081364123
 30
0.0
 10
499.0179328391341
 20
224.6109002536582
 30
0.0
 10
499.0177605842463
 20
222.4677049384303
 30
0.0
 10
499.7929075797875
 20
220.5511970556762
 30
0.0
  0
SPLINE
  5
419A
330
A
100
AcDbEntity
  8
モデル
100
AcDbSpline
210
0.0
220
0.0
230
1.0
 70
     8
 71
     3
 72
     8
 73
     4
 74
     0
 42
0.000000001
 43
0.0000000001
 40
0.0
 40
0.0
 40
0.0
 40
0.0
 40
1.0
 40
1.0
 40
1.0
 40
1.0
 10
501.9557399522358
 20
226.4893398061868
 30
0.0
 10
500.9218661150716
 20
224.6584426027181
 30
0.0
 10
500.9215216052959
 20
222.4198180795945
 30
0.0
 10
501.9552231875722
 20
220.588748621238
 30
0.0
  0
SPLINE
  5
419B
330
A
100
AcDbEntity
  8
モデル
100
AcDbSpline
210
0.0
220
0.0
230
1.0
 70
     8
 71
     3
 72
     8
 73
     4
 74
     0
 42
0.000000001
 43
0.0000000001
 40
0.0
 40
0.0
 40
0.0
 40
0.0
 40
1.0
 40
1.0
 40
1.0
 40
1.0
 10
512.4057549814612
 20
220.5873705821348
 30
0.0
 10
513.4398010735134
 20
222.4180955307156
 30
0.0
 10
513.4403178381771
 20
224.6567200538391
 30
0.0
 10
512.4069607656764
 20
226.4877895121957
 30
0.0
  0
LINE
  5
419C
330
A
100
AcDbEntity
  8
モデル
100
AcDbLine
 10
504.2281264333876
 20
220.5856480332558
 30
0.0
 11
504.2281264333876
 21
220.5856480332558
 31
0.0
  0
LINE
  5
419D
330
A
100
AcDbEntity
  8
モデル
100
AcDbLine
 10
504.2281264333876
 20
226.5547966635882
 30
0.0
 11
504.2281264333876
 21
226.4912346099538
 31
0.0
  0
LINE
  5
419E
330
A
100
AcDbEntity
  8
モデル
100
AcDbLine
 10
510.1337130100854
 20
226.4912346099538
 30
0.0
 11
510.1337130100854
 21
226.5547966635882
 31
0.0
  0
LINE
  5
419F
330
A
100
AcDbEntity
  8
モデル
100
AcDbLine
 10
510.1337130100854
 20
220.5856480332558
 30
0.0
 11
510.1337130100854
 21
220.5856480332558
 31
0.0
  0
LINE
  5
41A0
330
A
100
AcDbEntity
  8
モデル
100
AcDbLine
 10
499.7196992524308
 20
220.5856480332558
 30
0.0
 11
499.3386714404004
 21
220.5856480332558
 31
0.0
  0
LINE
  5
41A1
330
A
100
AcDbEntity
  8
モデル
100
AcDbLine
 10
499.3386714404004
 20
220.5856480332558
 30
0.0
 11
499.2117195880196
 21
220.5856480332558
 31
0.0
  0
LINE
  5
41A2
330
A
100
AcDbEntity
  8
モデル
100
AcDbLine
 10
499.2117195880196
 20
217.5377700467871
 30
0.0
 11
499.3386714404004
 21
217.5377700467871
 31
0.0
  0
LINE
  5
41A3
330
A
100
AcDbEntity
  8
モデル
100
AcDbLine
 10
499.3386714404004
 20
217.5377700467871
 30
0.0
 11
499.7196992524308
 21
217.5377700467871
 31
0.0
  0
LINE
  5
41A4
330
A
100
AcDbEntity
  8
モデル
100
AcDbLine
 10
499.2117195880196
 20
226.5547966635882
 30
0.0
 11
499.3386714404004
 21
226.5547966635882
 31
0.0
  0
LINE
  5
41A5
330
A
100
AcDbEntity
  8
モデル
100
AcDbLine
 10
499.3386714404004
 20
226.5547966635882
 30
0.0
 11
499.7196992524308
 21
226.5547966635882
 31
0.0
  0
LINE
  5
41A6
330
A
100
AcDbEntity
  8
モデル
100
AcDbLine
 10
499.7196992524308
 20
229.5392848513103
 30
0.0
 11
499.3386714404004
 21
229.5392848513103
 31
0.0
  0
LINE
  5
41A7
330
A
100
AcDbEntity
  8
モデル
100
AcDbLine
 10
499.3386714404004
 20
229.5392848513103
 30
0.0
 11
499.2117195880196
 21
229.5392848513103
 31
0.0
  0
LINE
  5
41A8
330
A
100
AcDbEntity
  8
モデル
100
AcDbLine
 10
499.2117195880196
 20
217.5377700467871
 30
0.0
 11
499.2117195880196
 21
229.5392848513103
 31
0.0
  0
LINE
  5
41A9
330
A
100
AcDbEntity
  8
モデル
100
AcDbLine
 10
509.1811434800089
 20
229.5392848513103
 30
0.0
 11
499.7196992524308
 21
229.5392848513103
 31
0.0
  0
LINE
  5
41AA
330
A
100
AcDbEntity
  8
モデル
100
AcDbLine
 10
499.7196992524308
 20
217.5377700467871
 30
0.0
 11
509.1811434800089
 21
217.5377700467871
 31
0.0
  0
LINE
  5
41AB
330
A
100
AcDbEntity
  8
モデル
100
AcDbLine
 10
493.1791811589407
 20
217.5377700467871
 30
0.0
 11
499.2117195880196
 21
217.5377700467871
 31
0.0
  0
LINE
  5
41AC
330
A
100
AcDbEntity
  8
モデル
100
AcDbLine
 10
499.2117195880196
 20
229.5392848513103
 30
0.0
 11
493.1791811589407
 21
229.5392848513103
 31
0.0
  0
LINE
  5
41AD
330
A
100
AcDbEntity
  8
モデル
100
AcDbLine
 10
493.1791811589407
 20
229.5392848513103
 30
0.0
 11
493.1791811589407
 21
217.5377700467871
 31
0.0
  0
LINE
  5
41AE
330
A
100
AcDbEntity
  8
モデル
100
AcDbLine
 10
499.7196992524308
 20
226.5547966635882
 30
0.0
 11
509.1811434800089
 21
226.5547966635882
 31
0.0
  0
LINE
  5
41AF
330
A
100
AcDbEntity
  8
モデル
100
AcDbLine
 10
509.1811434800089
 20
220.5856480332558
 30
0.0
 11
499.7196992524308
 21
220.5856480332558
 31
0.0
  0
LINE
  5
41B0
330
A
100
AcDbEntity
  8
モデル
100
AcDbLine
 10
513.1815909965541
 20
229.5392848513103
 30
0.0
 11
512.9910770905389
 21
229.5392848513103
 31
0.0
  0
LINE
  5
41B1
330
A
100
AcDbEntity
  8
モデル
100
AcDbLine
 10
512.9910770905389
 20
229.5392848513103
 30
0.0
 11
512.419707627381
 21
229.5392848513103
 31
0.0
  0
LINE
  5
41B2
330
A
100
AcDbEntity
  8
モデル
100
AcDbLine
 10
512.419707627381
 20
229.5392848513103
 30
0.0
 11
511.530700150939
 21
229.5392848513103
 31
0.0
  0
LINE
  5
41B3
330
A
100
AcDbEntity
  8
モデル
100
AcDbLine
 10
511.530700150939
 20
229.5392848513103
 30
0.0
 11
510.4511787684816
 21
229.5392848513103
 31
0.0
  0
LINE
  5
41B4
330
A
100
AcDbEntity
  8
モデル
100
AcDbLine
 10
510.4511787684816
 20
229.5392848513103
 30
0.0
 11
509.1811434800089
 21
229.5392848513103
 31
0.0
  0
LINE
  5
41B5
330
A
100
AcDbEntity
  8
モデル
100
AcDbLine
 10
509.1811434800089
 20
226.5547966635882
 30
0.0
 11
510.4511787684816
 21
226.5547966635882
 31
0.0
  0
LINE
  5
41B6
330
A
100
AcDbEntity
  8
モデル
100
AcDbLine
 10
510.4511787684816
 20
226.5547966635882
 30
0.0
 11
511.530700150939
 21
226.5547966635882
 31
0.0
  0
LINE
  5
41B7
330
A
100
AcDbEntity
  8
モデル
100
AcDbLine
 10
511.530700150939
 20
226.5547966635882
 30
0.0
 11
512.419707627381
 21
226.5547966635882
 31
0.0
  0
LINE
  5
41B8
330
A
100
AcDbEntity
  8
モデル
100
AcDbLine
 10
512.419707627381
 20
226.5547966635882
 30
0.0
 11
512.9910770905389
 21
226.5547966635882
 31
0.0
  0
LINE
  5
41B9
330
A
100
AcDbEntity
  8
モデル
100
AcDbLine
 10
512.9910770905389
 20
226.5547966635882
 30
0.0
 11
513.1815909965541
 21
226.5547966635882
 31
0.0
  0
LINE
  5
41BA
330
A
100
AcDbEntity
  8
モデル
100
AcDbLine
 10
513.1815909965541
 20
226.5547966635882
 30
0.0
 11
513.1815909965541
 21
229.5392848513103
 31
0.0
  0
LINE
  5
41BB
330
A
100
AcDbEntity
  8
モデル
100
AcDbLine
 10
513.1815909965541
 20
220.5856480332558
 30
0.0
 11
512.9910770905389
 21
220.5856480332558
 31
0.0
  0
LINE
  5
41BC
330
A
100
AcDbEntity
  8
モデル
100
AcDbLine
 10
512.9910770905389
 20
220.5856480332558
 30
0.0
 11
512.419707627381
 21
220.5856480332558
 31
0.0
  0
LINE
  5
41BD
330
A
100
AcDbEntity
  8
モデル
100
AcDbLine
 10
512.419707627381
 20
220.5856480332558
 30
0.0
 11
511.530700150939
 21
220.5856480332558
 31
0.0
  0
LINE
  5
41BE
330
A
100
AcDbEntity
  8
モデル
100
AcDbLine
 10
511.530700150939
 20
220.5856480332558
 30
0.0
 11
510.4511787684816
 21
220.5856480332558
 31
0.0
  0
LINE
  5
41BF
330
A
100
AcDbEntity
  8
モデル
100
AcDbLine
 10
510.4511787684816
 20
220.5856480332558
 30
0.0
 11
509.1811434800089
 21
220.5856480332558
 31
0.0
  0
LINE
  5
41C0
330
A
100
AcDbEntity
  8
モデル
100
AcDbLine
 10
509.1811434800089
 20
217.5377700467871
 30
0.0
 11
510.4511787684816
 21
217.5377700467871
 31
0.0
  0
LINE
  5
41C1
330
A
100
AcDbEntity
  8
モデル
100
AcDbLine
 10
510.4511787684816
 20
217.5377700467871
 30
0.0
 11
511.530700150939
 21
217.5377700467871
 31
0.0
  0
LINE
  5
41C2
330
A
100
AcDbEntity
  8
モデル
100
AcDbLine
 10
511.530700150939
 20
217.5377700467871
 30
0.0
 11
512.419707627381
 21
217.5377700467871
 31
0.0
  0
LINE
  5
41C3
330
A
100
AcDbEntity
  8
モデル
100
AcDbLine
 10
512.419707627381
 20
217.5377700467871
 30
0.0
 11
512.9910770905389
 21
217.5377700467871
 31
0.0
  0
LINE
  5
41C4
330
A
100
AcDbEntity
  8
モデル
100
AcDbLine
 10
512.9910770905389
 20
217.5377700467871
 30
0.0
 11
513.1815909965541
 21
217.5377700467871
 31
0.0
  0
LINE
  5
41C5
330
A
100
AcDbEntity
  8
モデル
100
AcDbLine
 10
513.1815909965541
 20
217.5377700467871
 30
0.0
 11
513.1815909965541
 21
220.5856480332558
 31
0.0
  0
LINE
  5
41C6
330
A
100
AcDbEntity
  8
モデル
100
AcDbLine
 10
504.4822023930373
 20
226.4912346099538
 30
0.0
 11
503.5931949165951
 21
226.4912346099538
 31
0.0
  0
LINE
  5
41C7
330
A
100
AcDbEntity
  8
モデル
100
AcDbLine
 10
503.5931949165951
 20
226.4912346099538
 30
0.0
 11
502.7675772388997
 21
226.4912346099538
 31
0.0
  0
LINE
  5
41C8
330
A
100
AcDbEntity
  8
モデル
100
AcDbLine
 10
502.7675772388997
 20
226.4912346099538
 30
0.0
 11
502.4501114805036
 21
226.4912346099538
 31
0.0
  0
LINE
  5
41C9
330
A
100
AcDbEntity
  8
モデル
100
AcDbLine
 10
502.4501114805036
 20
226.4912346099538
 30
0.0
 11
502.1962077757418
 21
226.4912346099538
 31
0.0
  0
LINE
  5
41CA
330
A
100
AcDbEntity
  8
モデル
100
AcDbLine
 10
502.1962077757418
 20
226.4912346099538
 30
0.0
 11
502.0056938697263
 21
226.4912346099538
 31
0.0
  0
LINE
  5
41CB
330
A
100
AcDbEntity
  8
モデル
100
AcDbLine
 10
502.0056938697263
 20
226.4912346099538
 30
0.0
 11
501.9421318160921
 21
226.4912346099538
 31
0.0
  0
LINE
  5
41CC
330
A
100
AcDbEntity
  8
モデル
100
AcDbLine
 10
501.9421318160921
 20
220.5856480332558
 30
0.0
 11
502.0056938697263
 21
220.5856480332558
 31
0.0
  0
LINE
  5
41CD
330
A
100
AcDbEntity
  8
モデル
100
AcDbLine
 10
502.0056938697263
 20
220.5856480332558
 30
0.0
 11
502.1962077757418
 21
220.5856480332558
 31
0.0
  0
LINE
  5
41CE
330
A
100
AcDbEntity
  8
モデル
100
AcDbLine
 10
502.1962077757418
 20
220.5856480332558
 30
0.0
 11
502.4501114805036
 21
220.5856480332558
 31
0.0
  0
LINE
  5
41CF
330
A
100
AcDbEntity
  8
モデル
100
AcDbLine
 10
502.4501114805036
 20
220.5856480332558
 30
0.0
 11
502.7675772388997
 21
220.5856480332558
 31
0.0
  0
LINE
  5
41D0
330
A
100
AcDbEntity
  8
モデル
100
AcDbLine
 10
502.7675772388997
 20
220.5856480332558
 30
0.0
 11
503.5931949165951
 21
220.5856480332558
 31
0.0
  0
LINE
  5
41D1
330
A
100
AcDbEntity
  8
モデル
100
AcDbLine
 10
503.5931949165951
 20
220.5856480332558
 30
0.0
 11
504.4822023930373
 21
220.5856480332558
 31
0.0
  0
LINE
  5
41D2
330
A
100
AcDbEntity
  8
モデル
100
AcDbLine
 10
512.419707627381
 20
226.4912346099538
 30
0.0
 11
512.3561455737464
 21
226.4912346099538
 31
0.0
  0
LINE
  5
41D3
330
A
100
AcDbEntity
  8
モデル
100
AcDbLine
 10
512.3561455737464
 20
226.4912346099538
 30
0.0
 11
512.1656316677312
 21
226.4912346099538
 31
0.0
  0
LINE
  5
41D4
330
A
100
AcDbEntity
  8
モデル
100
AcDbLine
 10
512.1656316677312
 20
226.4912346099538
 30
0.0
 11
511.9117279629694
 21
226.4912346099538
 31
0.0
  0
LINE
  5
41D5
330
A
100
AcDbEntity
  8
モデル
100
AcDbLine
 10
511.9117279629694
 20
226.4912346099538
 30
0.0
 11
511.5940899496853
 21
226.4912346099538
 31
0.0
  0
LINE
  5
41D6
330
A
100
AcDbEntity
  8
モデル
100
AcDbLine
 10
511.5940899496853
 20
226.4912346099538
 30
0.0
 11
510.7686445268777
 21
226.4912346099538
 31
0.0
  0
LINE
  5
41D7
330
A
100
AcDbEntity
  8
モデル
100
AcDbLine
 10
510.7686445268777
 20
226.4912346099538
 30
0.0
 11
509.8796370504357
 21
226.4912346099538
 31
0.0
  0
LINE
  5
41D8
330
A
100
AcDbEntity
  8
モデル
100
AcDbLine
 10
509.8796370504357
 20
220.5856480332558
 30
0.0
 11
510.7686445268777
 21
220.5856480332558
 31
0.0
  0
LINE
  5
41D9
330
A
100
AcDbEntity
  8
モデル
100
AcDbLine
 10
510.7686445268777
 20
220.5856480332558
 30
0.0
 11
511.5940899496853
 21
220.5856480332558
 31
0.0
  0
LINE
  5
41DA
330
A
100
AcDbEntity
  8
モデル
100
AcDbLine
 10
511.5940899496853
 20
220.5856480332558
 30
0.0
 11
511.9117279629694
 21
220.5856480332558
 31
0.0
  0
LINE
  5
41DB
330
A
100
AcDbEntity
  8
モデル
100
AcDbLine
 10
511.9117279629694
 20
220.5856480332558
 30
0.0
 11
512.1656316677312
 21
220.5856480332558
 31
0.0
  0
LINE
  5
41DC
330
A
100
AcDbEntity
  8
モデル
100
AcDbLine
 10
512.1656316677312
 20
220.5856480332558
 30
0.0
 11
512.3561455737464
 21
220.5856480332558
 31
0.0
  0
LINE
  5
41DD
330
A
100
AcDbEntity
  8
モデル
100
AcDbLine
 10
512.3561455737464
 20
220.5856480332558
 30
0.0
 11
512.419707627381
 21
220.5856480332558
 31
0.0
  0
LINE
  5
41DE
330
A
100
AcDbEntity
  8
モデル
100
AcDbLine
 10
502.0056938697263
 20
226.5547966635882
 30
0.0
 11
501.9421318160921
 21
226.4912346099538
 31
0.0
  0
LINE
  5
41DF
330
A
100
AcDbEntity
  8
モデル
100
AcDbLine
 10
501.9421318160921
 20
220.5856480332558
 30
0.0
 11
502.0056938697263
 21
220.5856480332558
 31
0.0
  0
LINE
  5
41E0
330
A
100
AcDbEntity
  8
モデル
100
AcDbLine
 10
512.3561455737464
 20
220.5856480332558
 30
0.0
 11
512.419707627381
 21
220.5856480332558
 31
0.0
  0
LINE
  5
41E1
330
A
100
AcDbEntity
  8
モデル
100
AcDbLine
 10
512.419707627381
 20
226.4912346099538
 30
0.0
 11
512.3561455737464
 21
226.5547966635882
 31
0.0
  0
LINE
  5
41E2
330
A
100
AcDbEntity
  8
モデル
100
AcDbLine
 10
504.1647366346409
 20
226.4912346099538
 30
0.0
 11
504.1647366346409
 21
226.5547966635882
 31
0.0
  0
LINE
  5
41E3
330
A
100
AcDbEntity
  8
モデル
100
AcDbLine
 10
510.1971028088318
 20
226.5547966635882
 30
0.0
 11
510.1971028088318
 21
226.4912346099538
 31
0.0
  0
LINE
  5
41E4
330
A
100
AcDbEntity
  8
モデル
100
AcDbLine
 10
510.1971028088318
 20
220.5856480332558
 30
0.0
 11
510.1971028088318
 21
220.5856480332558
 31
0.0
  0
LINE
  5
41E5
330
A
100
AcDbEntity
  8
モデル
100
AcDbLine
 10
504.1647366346409
 20
220.5856480332558
 30
0.0
 11
504.1647366346409
 21
220.5856480332558
 31
0.0
  0
LINE
  5
41E6
330
A
100
AcDbEntity
  8
モデル
100
AcDbLine
 10
509.8796370504357
 20
226.4912346099538
 30
0.0
 11
504.4822023930373
 21
226.4912346099538
 31
0.0
  0
LINE
  5
41E7
330
A
100
AcDbEntity
  8
モデル
100
AcDbLine
 10
504.4822023930373
 20
220.5856480332558
 30
0.0
 11
509.8796370504357
 21
220.5856480332558
 31
0.0
  0
LINE
  5
41E8
330
A
100
AcDbEntity
  8
モデル
100
AcDbLine
 10
501.1800761920309
 20
209.5368750136969
 30
0.0
 11
501.1800761920309
 21
215.5692411878877
 31
0.0
  0
LINE
  5
41E9
102
{ACAD_REACTORS
330
428A
102
}
330
A
100
AcDbEntity
  8
モデル
100
AcDbLine
 10
501.1800761920309
 20
209.5368750136969
 30
0.0
 11
513.1815909965541
 21
209.5368750136969
 31
0.0
  0
LINE
  5
41EA
102
{ACAD_REACTORS
330
428A
102
}
330
A
100
AcDbEntity
  8
モデル
100
AcDbLine
 10
513.1815909965541
 20
209.5368750136969
 30
0.0
 11
513.1815909965541
 21
215.5692411878877
 31
0.0
  0
LINE
  5
41EB
330
A
100
AcDbEntity
  8
モデル
100
AcDbLine
 10
513.1815909965541
 20
215.5692411878877
 30
0.0
 11
501.1800761920309
 21
215.5692411878877
 31
0.0
  0
LINE
  5
41EC
330
A
100
AcDbEntity
  8
モデル
100
AcDbLine
 10
503.9106606749915
 20
215.5692411878877
 30
0.0
 11
503.9106606749915
 21
217.5377700467871
 31
0.0
  0
LINE
  5
41ED
330
A
100
AcDbEntity
  8
モデル
100
AcDbLine
 10
510.4511787684816
 20
215.5692411878877
 30
0.0
 11
510.4511787684816
 21
217.5377700467871
 31
0.0
  0
DIMENSION
  5
4288
102
{ACAD_REACTORS
330
428A
102
}
102
{ACAD_XDICTIONARY
360
4289
102
}
330
A
100
AcDbEntity
  8
寸法
100
AcDbDimension
  2
*D79
 10
531.8688236101311
 20
209.5368750136969
 30
0.0
 11
531.8688236101311
 21
212.5530581007923
 31
0.0
 70
   160
 71
     5
 42
6.032366174190798
 73
     0
 74
     0
 75
     0
  3
tfrom線あり
100
AcDbAlignedDimension
 13
513.1815909965541
 23
215.5692411878877
 33
0.0
 14
513.1815909965541
 24
209.5368750136969
 34
0.0
 50
90.0
100
AcDbRotatedDimension
  0
DIMENSION
  5
42AD
330
A
100
AcDbEntity
  8
寸法
100
AcDbDimension
  2
*D81
 10
454.7119457481224
 20
231.4935744412516
 30
0.0
 11
447.2119457481224
 21
220.4935744412516
 31
0.0
 70
    32
 71
     5
 42
22.0
 73
     0
 74
     0
 75
     0
  3
tfrom線あり
100
AcDbAlignedDimension
 13
347.851895190176
 23
209.4935744412516
 33
0.0
 14
433.6572722976421
 24
231.4935744412516
 34
0.0
 50
90.0
100
AcDbRotatedDimension
  0
DIMENSION
  5
42C6
102
{ACAD_REACTORS
330
42C8
102
}
102
{ACAD_XDICTIONARY
360
42C7
102
}
330
A
100
AcDbEntity
  8
寸法
100
AcDbDimension
  2
*D82
 10
90.9964336517032
 20
320.4018968588884
 30
0.0
 11
90.9964336517032
 21
323.3664034796145
 31
0.0
 70
   160
 71
     5
 42
5.929013241451969
 73
     0
 74
     0
 75
     0
  3
tfrom線あり
100
AcDbAlignedDimension
 13
108.667370599291
 23
326.3309101003404
 33
0.0
 14
108.667370599291
 24
320.4018968588884
 34
0.0
 50
90.0
100
AcDbRotatedDimension
  0
DIMENSION
  5
42DE
330
A
100
AcDbEntity
  8
寸法
100
AcDbDimension
  2
*D83
 10
138.7638705501784
 20
238.6784384447161
 30
0.0
 11
126.7998271888709
 21
246.1784384447161
 31
0.0
 70
    32
 71
     5
 42
23.92808672261501
 73
     0
 74
     0
 75
     0
  3
tfrom線あり
100
AcDbAlignedDimension
 13
114.8357838275634
 23
228.8442058765413
 33
0.0
 14
138.7638705501784
 24
226.9876860692088
 34
0.0
100
AcDbRotatedDimension
  0
ARC
  5
42F1
330
A
100
AcDbEntity
  8
モデル
100
AcDbCircle
 10
147.1053866990688
 20
223.4509149521817
 30
0.0
 40
5.105182332264536
100
AcDbArc
 50
21.71674860917035
 51
93.78444557205107
  0
SPLINE
  5
42F7
330
A
100
AcDbEntity
  8
モデル
  6
HIDDEN
 48
0.56
100
AcDbSpline
210
0.0
220
0.0
230
1.0
 70
    11
 71
     3
 72
    17
 73
    13
 74
     0
 42
0.000000001
 43
0.0000000001
 40
0.0
 40
0.0
 40
0.0
 40
0.0
 40
1.0
 40
1.0
 40
1.0
 40
2.0
 40
2.0
 40
2.0
 40
3.0
 40
3.0
 40
3.0
 40
4.0
 40
4.0
 40
4.0
 40
4.0
 10
139.4465183620266
 20
227.6974709943215
 30
0.0
 10
137.2244303081411
 20
227.6974709943215
 30
0.0
 10
135.4243667296061
 20
225.8991299646655
 30
0.0
 10
135.4243667296061
 20
223.6770419107795
 30
0.0
 10
135.4243667296061
 20
221.4549538568945
 30
0.0
 10
137.2244303081411
 20
219.6531677294805
 30
0.0
 10
139.4465183620266
 20
219.6531677294805
 30
0.0
 10
141.6668838670329
 20
219.6531677294805
 30
0.0
 10
143.4669474455679
 20
221.4549538568945
 30
0.0
 10
143.4669474455679
 20
223.6770419107795
 30
0.0
 10
143.4669474455679
 20
225.8991299646655
 30
0.0
 10
141.6668838670329
 20
227.6974709943215
 30
0.0
 10
139.4465183620266
 20
227.6974709943215
 30
0.0
  0
ARC
  5
4300
330
A
100
AcDbEntity
  8
モデル
100
AcDbCircle
 10
140.3924005663386
 20
312.3610386918054
 30
0.0
 40
2.989497591053134
100
AcDbArc
 50
262.3347202912697
 51
97.6652797087303
  0
LINE
  5
4330
102
{ACAD_REACTORS
330
43DE
102
}
330
A
100
AcDbEntity
  8
モデル
100
AcDbLine
 10
311.8598721492211
 20
175.2103336244541
 30
0.0
 11
347.8439182311309
 21
175.2103336244541
 31
0.0
  0
LINE
  5
4334
330
A
100
AcDbEntity
  8
モデル
100
AcDbLine
 10
347.851895190176
 20
163.2103336244541
 30
0.0
 11
311.851895190176
 21
163.2103336244541
 31
0.0
  0
DIMENSION
  5
4390
330
A
100
AcDbEntity
  8
寸法
100
AcDbDimension
  2
*D86
 10
341.2676314555126
 20
146.2487202960176
 30
0.0
 11
329.3035880942052
 21
146.2487202960176
 31
0.0
 70
   160
 71
     5
 42
23.92808672261486
 73
     0
 74
     0
 75
     0
 52
-90.0
  3
tfrom線あり
100
AcDbAlignedDimension
 13
317.3395447328977
 23
163.2103336244541
 33
0.0
 14
341.2676314555126
 24
163.2103336244541
 34
0.0
100
AcDbRotatedDimension
  0
CIRCLE
  5
43A3
330
A
100
AcDbEntity
  8
モデル
100
AcDbCircle
 10
317.3395447328977
 20
169.2103336244541
 30
0.0
 40
4.022151632420503
  0
CIRCLE
  5
43A4
330
A
100
AcDbEntity
  8
モデル
100
AcDbCircle
 10
317.3395447328977
 20
169.2103336244541
 30
0.0
 40
1.903708827644168
  0
CIRCLE
  5
43AD
330
A
100
AcDbEntity
  8
モデル
100
AcDbCircle
 10
342.3642456474543
 20
169.2103336244541
 30
0.0
 40
4.022151632420503
  0
CIRCLE
  5
43AE
330
A
100
AcDbEntity
  8
モデル
100
AcDbCircle
 10
342.3642456474543
 20
169.2103336244541
 30
0.0
 40
1.903708827644168
  0
CIRCLE
  5
43B4
330
A
100
AcDbEntity
  8
モデル
100
AcDbCircle
 10
329.851895190176
 20
169.2103336244541
 30
0.0
 40
1.903708827644168
  0
DIMENSION
  5
43B9
330
A
100
AcDbEntity
  8
寸法
100
AcDbDimension
  2
*D87
 10
347.851895190176
 20
131.4722956093153
 30
0.0
 11
329.851895190176
 21
138.9722956093153
 31
0.0
 70
    32
 71
     5
 42
36.0
 73
     0
 74
     0
 75
     0
  3
tfrom線あり
100
AcDbAlignedDimension
 13
311.851895190176
 23
163.5958008733624
 33
0.0
 14
347.851895190176
 24
163.2103336244541
 34
0.0
100
AcDbRotatedDimension
  0
DIMENSION
  5
43DC
102
{ACAD_REACTORS
330
43DE
102
}
102
{ACAD_XDICTIONARY
360
43DD
102
}
330
A
100
AcDbEntity
  8
寸法
100
AcDbDimension
  2
*D89
 10
367.9941192501768
 20
163.2103336244541
 30
0.0
 11
367.9941192501768
 21
169.2103336244541
 31
0.0
 70
   160
 71
     5
 42
12.0
 73
     0
 74
     0
 75
     0
  3
tfrom線あり
100
AcDbAlignedDimension
 13
347.8439182311309
 23
175.2103336244541
 33
0.0
 14
347.851895190176
 24
163.2103336244541
 34
0.0
 50
90.0
100
AcDbRotatedDimension
  0
LINE
  5
43EC
330
A
100
AcDbEntity
  8
モデル
100
AcDbLine
 10
311.8598721492211
 20
175.2103336244541
 30
0.0
 11
311.8598721492211
 21
163.2103336244541
 31
0.0
  0
LINE
  5
43F7
330
A
100
AcDbEntity
  8
モデル
100
AcDbLine
 10
347.843918231131
 20
175.2103336244541
 30
0.0
 11
347.843918231131
 21
163.2103336244541
 31
0.0
  0
ARC
  5
4430
330
A
100
AcDbEntity
  8
モデル
100
AcDbCircle
 10
147.1053866990688
 20
223.0556748209195
 30
0.0
 40
5.105182332264536
100
AcDbArc
 50
266.2155544279489
 51
338.2832513908297
  0
LINE
  5
4431
330
A
100
AcDbEntity
  8
モデル
100
AcDbLine
 10
151.8482258975827
 20
221.1666637085366
 30
0.0
 11
151.8482258975827
 21
225.3399260645647
 31
0.0
  0
TEXT
  5
44A0
330
A
100
AcDbEntity
  8
テンプレート
100
AcDbText
 10
199.4096069868995
 20
72.46185589519646
 30
0.0
 40
5.0
  1
　 加工は現物合わせの上行って下さい。
  7
ＭＳ ゴシック
100
AcDbText
  0
TEXT
  5
44A1
330
A
100
AcDbEntity
  8
テンプレート
100
AcDbText
 10
199.581850069108
 20
80.56563999133633
 30
0.0
 40
5.0
  1
※ 輸入製品の為、国内製品と比べ製品寸法の個体差に幅が有ります。
  7
ＭＳ ゴシック
100
AcDbText
  0
TEXT
  5
44AB
330
A
100
AcDbEntity
  8
テンプレート
100
AcDbText
 10
454.5190747782542
 20
52.977080524553
 30
0.0
 40
5.5
  1
受け2ヶ付
  7
ＭＳ ゴシック
100
AcDbText
  0
TEXT
  5
44AC
330
A
100
AcDbEntity
  8
テンプレート
100
AcDbText
 10
454.5190747782542
 20
44.80368244595037
 30
0.0
 40
5.5
  1
木製用ビス付
  7
ＭＳ ゴシック
100
AcDbText
  0
VIEWPORT
  5
349
330
B
100
AcDbEntity
 67
     1
  8
0
100
AcDbViewport
 10
202.5
 20
128.5
 30
0.0
 40
486.0
 41
308.4
 68
     1
 69
     1
 12
202.5
 22
128.5
 13
0.0
 23
0.0
 14
0.5
 24
0.5
 15
0.0
 25
0.0
 16
0.0
 26
0.0
 36
1.0
 17
0.0
 27
0.0
 37
0.0
 42
50.0
 43
0.0
 44
0.0
 45
308.4
 50
0.0
 51
0.0
 72
   100
 90
   557152
  1

281
     0
 71
     1
 74
     0
110
0.0
120
0.0
130
0.0
111
1.0
121
0.0
131
0.0
112
0.0
122
1.0
132
0.0
 79
     0
146
0.0
170
     0
 61
     5
348
26C
292
     1
282
     1
141
0.0
142
0.0
 63
   256
  0
VIEWPORT
  5
34A
330
B
100
AcDbEntity
 67
     1
  8
0
100
AcDbViewport
 10
202.5
 20
128.5
 30
0.0
 40
324.0
 41
205.6
 68
     2
 69
     2
 12
986.6781359294573
 22
1427.077061889956
 13
0.0
 23
0.0
 14
0.5
 24
0.5
 15
0.0
 25
0.0
 16
0.0
 26
0.0
 36
1.0
 17
0.0
 27
0.0
 37
0.0
 42
50.0
 43
0.0
 44
0.0
 45
2890.021615685494
 50
0.0
 51
0.0
 72
   100
 90
   557152
  1

281
     0
 71
     1
 74
     0
110
0.0
120
0.0
130
0.0
111
1.0
121
0.0
131
0.0
112
0.0
122
1.0
132
0.0
 79
     0
146
0.0
170
     0
 61
     5
348
26C
292
     1
282
     1
141
0.0
142
0.0
 63
   256
  0
ENDSEC
  0
SECTION
  2
OBJECTS
  0
DICTIONARY
  5
19
330
0
100
AcDbDictionary
281
     1
  3
ACAD_COLOR
350
674
  3
ACAD_DETAILVIEWSTYLE
350
12F4
  3
ACAD_GROUP
350
1A
  3
ACAD_IMAGE_VARS
350
27B
  3
ACAD_LAYOUT
350
1E
  3
ACAD_MATERIAL
350
263
  3
ACAD_MLEADERSTYLE
350
336
  3
ACAD_MLINESTYLE
350
1B
  3
ACAD_PLOTSETTINGS
350
22
  3
ACAD_PLOTSTYLENAME
350
1F
  3
ACAD_SCALELIST
350
241
  3
ACAD_SECTIONVIEWSTYLE
350
12F5
  3
ACAD_TABLESTYLE
350
278
  3
ACAD_VISUALSTYLE
350
267
  3
ACDB_RECOMPOSE_DATA
350
44C7
  3
AcDbVariableDictionary
350
330
  3
AcStStandard
350
12B9
  3
APPDATA
350
27A
  0
SUN
  5
10E8
330
15
100
AcDbSun
 90
        1
290
     0
 63
     7
421
 16777215
 40
1.0
291
     1
 91
  2455826
 92
 54000000
292
     0
 70
     2
 71
   256
280
     1
  0
DICTIONARY
  5
2E1
330
2
100
AcDbDictionary
280
     1
281
     1
  3
ACAD_LAYERSTATES
360
2E2
  3
ACLYDICTIONARY
360
3863
  0
DICTIONARY
  5
417C
330
417B
100
AcDbDictionary
280
     1
281
     1
  3
ACAD_DIMASSOC
360
417D
  0
DICTIONARY
  5
417F
330
417E
100
AcDbDictionary
280
     1
281
     1
  3
ACAD_DIMASSOC
360
4180
  0
DICTIONARY
  5
4182
330
4181
100
AcDbDictionary
280
     1
281
     1
  3
ACAD_DIMASSOC
360
4183
  0
DICTIONARY
  5
4185
330
4184
100
AcDbDictionary
280
     1
281
     1
  3
ACAD_DIMASSOC
360
4186
  0
DICTIONARY
  5
4188
330
4187
100
AcDbDictionary
280
     1
281
     1
  3
ACAD_DIMASSOC
360
4189
  0
DICTIONARY
  5
4191
330
4190
100
AcDbDictionary
280
     1
281
     1
  3
ACAD_DIMASSOC
360
4192
  0
DICTIONARY
  5
4289
330
4288
100
AcDbDictionary
280
     1
281
     1
  3
ACAD_DIMASSOC
360
428A
  0
DICTIONARY
  5
42C7
330
42C6
100
AcDbDictionary
280
     1
281
     1
  3
ACAD_DIMASSOC
360
42C8
  0
DICTIONARY
  5
43DD
330
43DC
100
AcDbDictionary
280
     1
281
     1
  3
ACAD_DIMASSOC
360
43DE
  0
DICTIONARY
  5
674
102
{ACAD_REACTORS
330
19
102
}
330
19
100
AcDbDictionary
281
     1
  0
DICTIONARY
  5
12F4
102
{ACAD_REACTORS
330
19
102
}
330
19
100
AcDbDictionary
281
     1
  0
DICTIONARY
  5
1A
102
{ACAD_REACTORS
330
19
102
}
330
19
100
AcDbDictionary
281
     1
  0
RASTERVARIABLES
  5
27B
102
{ACAD_REACTORS
330
19
102
}
330
19
100
AcDbRasterVariables
 90
        0
 70
     1
 71
     1
 72
     1
  0
DICTIONARY
  5
1E
102
{ACAD_REACTORS
330
19
102
}
330
19
100
AcDbDictionary
281
     1
  3
Layout1
350
21
  3
Layout2
350
12C4
  3
Model
350
20
  0
DICTIONARY
  5
263
102
{ACAD_REACTORS
330
19
102
}
330
19
100
AcDbDictionary
281
     1
  3
ByBlock
350
385B
  3
ByLayer
350
264
  3
Global
350
266
  0
DICTIONARY
  5
336
102
{ACAD_REACTORS
330
19
102
}
330
19
100
AcDbDictionary
281
     1
  3
Standard
350
425A
  0
DICTIONARY
  5
1B
102
{ACAD_REACTORS
330
19
102
}
330
19
100
AcDbDictionary
281
     1
  3
Standard
350
1C
  0
DICTIONARY
  5
22
102
{ACAD_REACTORS
330
19
102
}
330
19
100
AcDbDictionary
281
     1
  0
ACDBDICTIONARYWDFLT
  5
1F
102
{ACAD_REACTORS
330
19
102
}
330
19
100
AcDbDictionary
281
     1
  3
Normal
350
1D
100
AcDbDictionaryWithDefault
340
1D
  0
DICTIONARY
  5
241
102
{ACAD_REACTORS
330
19
102
}
330
19
100
AcDbDictionary
281
     1
  3
A0
350
242
  3
A1
350
243
  3
A2
350
244
  3
A3
350
245
  3
A4
350
246
  3
A5
350
247
  3
A6
350
248
  3
A7
350
249
  3
A8
350
24A
  3
A9
350
24B
  3
B0
350
24C
  3
B1
350
24D
  3
B2
350
24E
  3
B3
350
24F
  3
B4
350
250
  3
B5
350
251
  3
B6
350
252
  3
B7
350
253
  3
B8
350
254
  3
B9
350
255
  3
C0
350
256
  3
C1
350
257
  3
C2
350
258
  3
C3
350
259
  3
C4
350
25A
  3
C5
350
25B
  3
C6
350
25C
  3
C7
350
25D
  3
C8
350
25E
  3
C9
350
25F
  3
D0
350
260
  3
D1
350
261
  3
D2
350
262
  0
DICTIONARY
  5
12F5
102
{ACAD_REACTORS
330
19
102
}
330
19
100
AcDbDictionary
281
     1
  0
DICTIONARY
  5
278
102
{ACAD_REACTORS
330
19
102
}
330
19
100
AcDbDictionary
281
     1
  3
Standard
350
279
  0
DICTIONARY
  5
267
102
{ACAD_REACTORS
330
19
102
}
330
19
100
AcDbDictionary
281
     1
  3
2dWireframe
350
26C
  3
3D Hidden
350
26E
  3
3dWireframe
350
26D
  3
Basic
350
26F
  3
Brighten
350
273
  3
ColorChange
350
277
  3
Conceptual
350
271
  3
Dim
350
272
  3
EdgeColorOff
350
10E2
  3
Facepattern
350
276
  3
Flat
350
268
  3
FlatWithEdges
350
269
  3
Gouraud
350
26A
  3
GouraudWithEdges
350
26B
  3
Hidden
350
10DF
  3
JitterOff
350
10E0
  3
Linepattern
350
275
  3
OverhangOff
350
10E1
  3
Realistic
350
270
  3
Shaded
350
10E7
  3
Shaded with edges
350
10E6
  3
Shades of Gray
350
10E3
  3
Sketchy
350
10E4
  3
Thicken
350
274
  3
Wireframe
350
10DE
  3
X-Ray
350
10E5
  0
XRECORD
  5
44C7
102
{ACAD_REACTORS
330
19
102
}
330
19
100
AcDbXrecord
280
     1
 90
        1
330
279
  0
DICTIONARY
  5
330
102
{ACAD_REACTORS
330
19
102
}
330
19
100
AcDbDictionary
281
     1
  3
CANNOSCALE
350
331
  3
CMLEADERSTYLE
350
425F
  3
CTABLESTYLE
350
335
  3
XCLIPFRAME
350
109E
  0
DICTIONARY
  5
12B9
102
{ACAD_REACTORS
330
19
102
}
330
19
100
AcDbDictionary
281
     1
  0
DICTIONARY
  5
27A
102
{ACAD_REACTORS
330
19
102
}
330
19
100
AcDbDictionary
281
     1
  0
DICTIONARY
  5
2E2
102
{ACAD_REACTORS
330
2E1
102
}
330
2E1
100
AcDbDictionary
281
     1
  3
ARGON_LAYERP_6
350
10DB
  3
ARGON_LAYERP_7
350
DEA
  3
ARGON_LAYERP_8
350
C70
  3
ARGON_LAYERP_9
350
7AA
  0
DICTIONARY
  5
3863
102
{ACAD_REACTORS
330
2E1
102
}
330
2E1
100
AcDbDictionary
281
     1
1001
ACAD
1000
<All
  0
DIMASSOC
  5
417D
102
{ACAD_REACTORS
330
417C
102
}
330
417C
100
AcDbDimAssoc
330
417B
 90
        3
 70
     0
 71
     1
  1
AcDbOsnapPointRef
 72
     1
331
4113
 73
     0
 91
        0
 40
0.0
 10
0.0
 20
0.0
 30
0.0
 75
     0
  1
AcDbOsnapPointRef
 72
     1
331
4114
 73
     0
 91
        0
 40
0.0
 10
0.0
 20
0.0
 30
0.0
 75
     0
  0
DIMASSOC
  5
4180
102
{ACAD_REACTORS
330
417F
102
}
330
417F
100
AcDbDimAssoc
330
417E
 90
        3
 70
     0
 71
     1
  1
AcDbOsnapPointRef
 72
    13
331
4159
 73
     0
 91
        0
 40
0.0
 10
0.0
 20
0.0
 30
0.0
 75
     0
  1
AcDbOsnapPointRef
 72
     1
331
4159
 73
     0
 91
        0
 40
0.0
 10
0.0
 20
0.0
 30
0.0
 75
     0
  0
DIMASSOC
  5
4183
102
{ACAD_REACTORS
330
4182
102
}
330
4182
100
AcDbDimAssoc
330
4181
 90
        1
 70
     0
 71
     1
  1
AcDbOsnapPointRef
 72
    13
331
4159
 73
     0
 91
        0
 40
0.0
 10
0.0
 20
0.0
 30
0.0
 75
     0
  0
DIMASSOC
  5
4186
102
{ACAD_REACTORS
330
4185
102
}
330
4185
100
AcDbDimAssoc
330
4184
 90
        3
 70
     0
 71
     1
  1
AcDbOsnapPointRef
 72
    13
331
40DB
 73
     0
 91
        0
 40
0.0
 10
0.0
 20
0.0
 30
0.0
 75
     0
  1
AcDbOsnapPointRef
 72
     1
331
40DB
 73
     0
 91
        0
 40
0.0
 10
0.0
 20
0.0
 30
0.0
 75
     0
  0
DIMASSOC
  5
4189
102
{ACAD_REACTORS
330
4188
102
}
330
4188
100
AcDbDimAssoc
330
4187
 90
        3
 70
     0
 71
     1
  1
AcDbOsnapPointRef
 72
    13
331
40D2
 73
     0
 91
        0
 40
0.0
 10
0.0
 20
0.0
 30
0.0
 75
     0
  1
AcDbOsnapPointRef
 72
     1
331
40D3
 73
     0
 91
        0
 40
0.0
 10
0.0
 20
0.0
 30
0.0
 75
     0
  0
DIMASSOC
  5
4192
102
{ACAD_REACTORS
330
4191
102
}
330
4191
100
AcDbDimAssoc
330
4190
 90
        3
 70
     0
 71
     1
  1
AcDbOsnapPointRef
 72
     1
331
40C7
 73
     0
 91
        0
 40
0.0
 10
0.0
 20
0.0
 30
0.0
 75
     0
  1
AcDbOsnapPointRef
 72
     1
331
4113
 73
     0
 91
        0
 40
0.0
 10
0.0
 20
0.0
 30
0.0
 75
     0
  0
DIMASSOC
  5
428A
102
{ACAD_REACTORS
330
4289
102
}
330
4289
100
AcDbDimAssoc
330
4288
 90
        3
 70
     0
 71
     1
  1
AcDbOsnapPointRef
 72
     1
331
41EA
 73
     0
 91
        0
 40
0.0
 10
0.0
 20
0.0
 30
0.0
 75
     0
  1
AcDbOsnapPointRef
 72
     1
331
41E9
 73
     0
 91
        0
 40
0.0
 10
0.0
 20
0.0
 30
0.0
 75
     0
  0
DIMASSOC
  5
42C8
102
{ACAD_REACTORS
330
42C7
102
}
330
42C7
100
AcDbDimAssoc
330
42C6
 90
        3
 70
     0
 71
     1
  1
AcDbOsnapPointRef
 72
     1
331
4158
 73
     0
 91
        0
 40
0.0
 10
0.0
 20
0.0
 30
0.0
 75
     0
  1
AcDbOsnapPointRef
 72
    13
331
4158
 73
     0
 91
        0
 40
0.0
 10
0.0
 20
0.0
 30
0.0
 75
     0
  0
DIMASSOC
  5
43DE
102
{ACAD_REACTORS
330
43DD
102
}
330
43DD
100
AcDbDimAssoc
330
43DC
 90
        1
 70
     0
 71
     1
  1
AcDbOsnapPointRef
 72
     1
331
4330
 73
     0
 91
        0
 40
0.0
 10
0.0
 20
0.0
 30
0.0
 75
     0
  0
LAYOUT
  5
21
102
{ACAD_REACTORS
330
1E
102
}
330
1E
100
AcDbPlotSettings
  1

  2
none_device
  4
ISO_A3_(420.00_x_297.00_MM)
  6

 40
7.5
 41
20.0
 42
7.5
 43
20.0
 44
420.0
 45
297.0
 46
0.0
 47
0.0
 48
0.0
 49
0.0
140
0.0
141
0.0
142
1.0
143
1.0
 70
     0
 72
     1
 73
     0
 74
     0
  7

 75
     0
 76
     0
 77
     2
 78
   300
147
1.0
148
0.0
149
0.0
100
AcDbLayout
  1
Layout1
 70
     0
 71
     0
 10
-7.5
 20
-20.0
 11
412.5
 21
277.0
 12
0.0
 22
0.0
 32
0.0
 14
0.0
 24
0.0
 34
0.0
 15
0.0
 25
0.0
 35
0.0
146
0.0
 13
0.0
 23
0.0
 33
0.0
 16
0.0
 26
0.0
 36
0.0
 17
0.0
 27
0.0
 37
0.0
 76
     0
330
B
331
349
  0
LAYOUT
  5
12C4
102
{ACAD_REACTORS
330
1E
102
}
330
1E
100
AcDbPlotSettings
  1

  2
none_device
  4

  6

 40
0.0
 41
0.0
 42
0.0
 43
0.0
 44
0.0
 45
0.0
 46
0.0
 47
0.0
 48
0.0
 49
0.0
140
0.0
141
0.0
142
1.0
143
1.0
 70
   688
 72
     1
 73
     0
 74
     5
  7

 75
    16
 76
     0
 77
     2
 78
   300
147
1.0
148
0.0
149
0.0
100
AcDbLayout
  1
Layout2
 70
     1
 71
     2
 10
0.0
 20
0.0
 11
0.0
 21
0.0
 12
0.0
 22
0.0
 32
0.0
 14
0.0
 24
0.0
 34
0.0
 15
0.0
 25
0.0
 35
0.0
146
0.0
 13
0.0
 23
0.0
 33
0.0
 16
1.0
 26
0.0
 36
0.0
 17
0.0
 27
1.0
 37
0.0
 76
     0
330
12C3
  0
LAYOUT
  5
20
102
{ACAD_REACTORS
330
1E
102
}
330
1E
100
AcDbPlotSettings
  1

  2
none_device
  4
ISO_A3_(420.00_x_297.00_MM)
  6

 40
7.5
 41
20.0
 42
7.5
 43
20.0
 44
420.0
 45
297.0
 46
0.0
 47
0.0
 48
0.0
 49
0.0
140
0.0
141
0.0
142
1.0
143
1.0
 70
  1024
 72
     1
 73
     0
 74
     0
  7

 75
     0
 76
     0
 77
     2
 78
   300
147
1.0
148
0.0
149
0.0
100
AcDbLayout
  1
Model
 70
     0
 71
     1
 10
0.0
 20
0.0
 11
593.9999999999999
 21
420.0
 12
0.0
 22
0.0
 32
0.0
 14
0.0
 24
0.0
 34
0.0
 15
593.9999999999999
 25
420.0
 35
0.0
146
0.0
 13
0.0
 23
0.0
 33
0.0
 16
0.0
 26
0.0
 36
0.0
 17
0.0
 27
0.0
 37
0.0
 76
     0
330
A
331
15
  0
MATERIAL
  5
385B
102
{ACAD_REACTORS
330
263
102
}
330
263
100
AcDbMaterial
  1
ByBlock
 72
     1
 94
      127
  0
MATERIAL
  5
264
102
{ACAD_REACTORS
330
263
102
}
330
263
100
AcDbMaterial
  1
ByLayer
 72
     1
 94
      127
  0
MATERIAL
  5
266
102
{ACAD_REACTORS
330
263
102
}
330
263
100
AcDbMaterial
  1
Global
 72
     1
 94
      127
  0
MLEADERSTYLE
  5
425A
102
{ACAD_REACTORS
330
336
102
}
330
336
100
AcDbMLeaderStyle
170
     2
171
     1
172
     0
 90
        2
 40
0.0
 41
0.0
173
     1
 91
-1056964608
340
11
 92
       -2
290
     1
 42
2.0
291
     1
 43
8.0
  3
Standard
341
0
 44
4.0
300

342
17
174
     1
178
     6
175
     1
176
     0
 93
-1056964608
 45
4.0
292
     0
297
     0
 46
4.0
343
0
 94
-1056964608
 47
1.0
 49
1.0
140
1.0
293
     1
141
0.0
294
     1
177
     0
142
1.0
295
     0
296
     0
143
3.75
1001
ACAD_MLEADERVER
1070
     2
  0
MLINESTYLE
  5
1C
102
{ACAD_REACTORS
330
1B
102
}
330
1B
100
AcDbMlineStyle
  2
Standard
 70
     0
  3

 62
     0
 51
90.0
 52
90.0
 71
     2
 49
0.5
 62
   256
  6
BYLAYER
 49
-0.5
 62
   256
  6
BYLAYER
  0
ACDBPLACEHOLDER
  5
1D
102
{ACAD_REACTORS
330
1F
102
}
330
1F
  0
SCALE
  5
242
102
{ACAD_REACTORS
330
241
102
}
330
241
100
AcDbScale
 70
     0
300
1:1
140
1.0
141
1.0
290
     1
  0
SCALE
  5
243
102
{ACAD_REACTORS
330
241
102
}
330
241
100
AcDbScale
 70
     0
300
1:2
140
1.0
141
2.0
290
     0
  0
SCALE
  5
244
102
{ACAD_REACTORS
330
241
102
}
330
241
100
AcDbScale
 70
     0
300
1:4
140
1.0
141
4.0
290
     0
  0
SCALE
  5
245
102
{ACAD_REACTORS
330
241
102
}
330
241
100
AcDbScale
 70
     0
300
1:5
140
1.0
141
5.0
290
     0
  0
SCALE
  5
246
102
{ACAD_REACTORS
330
241
102
}
330
241
100
AcDbScale
 70
     0
300
1:8
140
1.0
141
8.0
290
     0
  0
SCALE
  5
247
102
{ACAD_REACTORS
330
241
102
}
330
241
100
AcDbScale
 70
     0
300
1:10
140
1.0
141
10.0
290
     0
  0
SCALE
  5
248
102
{ACAD_REACTORS
330
241
102
}
330
241
100
AcDbScale
 70
     0
300
1:16
140
1.0
141
16.0
290
     0
  0
SCALE
  5
249
102
{ACAD_REACTORS
330
241
102
}
330
241
100
AcDbScale
 70
     0
300
1:20
140
1.0
141
20.0
290
     0
  0
SCALE
  5
24A
102
{ACAD_REACTORS
330
241
102
}
330
241
100
AcDbScale
 70
     0
300
1:30
140
1.0
141
30.0
290
     0
  0
SCALE
  5
24B
102
{ACAD_REACTORS
330
241
102
}
330
241
100
AcDbScale
 70
     0
300
1:40
140
1.0
141
40.0
290
     0
  0
SCALE
  5
24C
102
{ACAD_REACTORS
330
241
102
}
330
241
100
AcDbScale
 70
     0
300
1:50
140
1.0
141
50.0
290
     0
  0
SCALE
  5
24D
102
{ACAD_REACTORS
330
241
102
}
330
241
100
AcDbScale
 70
     0
300
1:100
140
1.0
141
100.0
290
     0
  0
SCALE
  5
24E
102
{ACAD_REACTORS
330
241
102
}
330
241
100
AcDbScale
 70
     0
300
2:1
140
2.0
141
1.0
290
     0
  0
SCALE
  5
24F
102
{ACAD_REACTORS
330
241
102
}
330
241
100
AcDbScale
 70
     0
300
4:1
140
4.0
141
1.0
290
     0
  0
SCALE
  5
250
102
{ACAD_REACTORS
330
241
102
}
330
241
100
AcDbScale
 70
     0
300
8:1
140
8.0
141
1.0
290
     0
  0
SCALE
  5
251
102
{ACAD_REACTORS
330
241
102
}
330
241
100
AcDbScale
 70
     0
300
10:1
140
10.0
141
1.0
290
     0
  0
SCALE
  5
252
102
{ACAD_REACTORS
330
241
102
}
330
241
100
AcDbScale
 70
     0
300
100:1
140
100.0
141
1.0
290
     0
  0
SCALE
  5
253
102
{ACAD_REACTORS
330
241
102
}
330
241
100
AcDbScale
 70
     0
300
1/128" = 1'-0"
140
0.0078125
141
12.0
290
     0
  0
SCALE
  5
254
102
{ACAD_REACTORS
330
241
102
}
330
241
100
AcDbScale
 70
     0
300
1/64" = 1'-0"
140
0.015625
141
12.0
290
     0
  0
SCALE
  5
255
102
{ACAD_REACTORS
330
241
102
}
330
241
100
AcDbScale
 70
     0
300
1/32" = 1'-0"
140
0.03125
141
12.0
290
     0
  0
SCALE
  5
256
102
{ACAD_REACTORS
330
241
102
}
330
241
100
AcDbScale
 70
     0
300
1/16" = 1'-0"
140
0.0625
141
12.0
290
     0
  0
SCALE
  5
257
102
{ACAD_REACTORS
330
241
102
}
330
241
100
AcDbScale
 70
     0
300
3/32" = 1'-0"
140
0.09375
141
12.0
290
     0
  0
SCALE
  5
258
102
{ACAD_REACTORS
330
241
102
}
330
241
100
AcDbScale
 70
     0
300
1/8" = 1'-0"
140
0.125
141
12.0
290
     0
  0
SCALE
  5
259
102
{ACAD_REACTORS
330
241
102
}
330
241
100
AcDbScale
 70
     0
300
3/16" = 1'-0"
140
0.1875
141
12.0
290
     0
  0
SCALE
  5
25A
102
{ACAD_REACTORS
330
241
102
}
330
241
100
AcDbScale
 70
     0
300
1/4" = 1'-0"
140
0.25
141
12.0
290
     0
  0
SCALE
  5
25B
102
{ACAD_REACTORS
330
241
102
}
330
241
100
AcDbScale
 70
     0
300
3/8" = 1'-0"
140
0.375
141
12.0
290
     0
  0
SCALE
  5
25C
102
{ACAD_REACTORS
330
241
102
}
330
241
100
AcDbScale
 70
     0
300
1/2" = 1'-0"
140
0.5
141
12.0
290
     0
  0
SCALE
  5
25D
102
{ACAD_REACTORS
330
241
102
}
330
241
100
AcDbScale
 70
     0
300
3/4" = 1'-0"
140
0.75
141
12.0
290
     0
  0
SCALE
  5
25E
102
{ACAD_REACTORS
330
241
102
}
330
241
100
AcDbScale
 70
     0
300
1" = 1'-0"
140
1.0
141
12.0
290
     0
  0
SCALE
  5
25F
102
{ACAD_REACTORS
330
241
102
}
330
241
100
AcDbScale
 70
     0
300
1-1/2" = 1'-0"
140
1.5
141
12.0
290
     0
  0
SCALE
  5
260
102
{ACAD_REACTORS
330
241
102
}
330
241
100
AcDbScale
 70
     0
300
3" = 1'-0"
140
3.0
141
12.0
290
     0
  0
SCALE
  5
261
102
{ACAD_REACTORS
330
241
102
}
330
241
100
AcDbScale
 70
     0
300
6" = 1'-0"
140
6.0
141
12.0
290
     0
  0
SCALE
  5
262
102
{ACAD_REACTORS
330
241
102
}
330
241
100
AcDbScale
 70
     0
300
1'-0" = 1'-0"
140
12.0
141
12.0
290
     0
  0
TABLESTYLE
  5
279
102
{ACAD_REACTORS
330
278
102
}
102
{ACAD_XDICTIONARY
360
44C5
102
}
330
278
100
AcDbTableStyle
  3
Standard
 70
     0
 71
     0
 40
0.06
 41
0.06
280
     0
281
     0
  7
Standard
140
4.5
170
     2
 62
     0
 63
   257
283
     0
 90
        4
 91
        0
  1

274
    -2
284
     1
 64
     0
275
    -2
285
     1
 65
     0
276
    -2
286
     1
 66
     0
277
    -2
287
     1
 67
     0
278
    -2
288
     1
 68
     0
279
    -2
289
     1
 69
     0
  7
Standard
140
6.0
170
     5
 62
     0
 63
   257
283
     0
 90
        4
 91
        0
  1

274
    -2
284
     1
 64
     0
275
    -2
285
     1
 65
     0
276
    -2
286
     1
 66
     0
277
    -2
287
     1
 67
     0
278
    -2
288
     1
 68
     0
279
    -2
289
     1
 69
     0
  7
Standard
140
4.5
170
     5
 62
     0
 63
   257
283
     0
 90
        4
 91
        0
  1

274
    -2
284
     1
 64
     0
275
    -2
285
     1
 65
     0
276
    -2
286
     1
 66
     0
277
    -2
287
     1
 67
     0
278
    -2
288
     1
 68
     0
279
    -2
289
     1
 69
     0
  0
VISUALSTYLE
  5
26C
102
{ACAD_REACTORS
330
267
102
}
330
267
100
AcDbVisualStyle
  2
2dWireframe
 70
     4
 71
     0
 72
     2
 73
     0
 90
        0
 40
-0.6
 41
-30.0
 62
     5
 63
     7
421
 16777215
 74
     1
 91
        4
 64
     7
 65
   257
 75
     1
175
     1
 42
1.0
 92
        0
 66
   257
 43
1.0
 76
     1
 77
     6
 78
     2
 67
     7
 79
     5
170
     0
171
     0
290
     0
174
     0
 93
        1
 44
0.0
173
     0
291
     0
 45
0.0
  0
VISUALSTYLE
  5
26E
102
{ACAD_REACTORS
330
267
102
}
330
267
100
AcDbVisualStyle
  2
3D Hidden
 70
     6
 71
     1
 72
     2
 73
     2
 90
        0
 40
-0.6
 41
-30.0
 62
     5
 63
     7
421
 16777215
 74
     2
 91
        2
 64
     7
 65
   257
 75
     2
175
     1
 42
40.0
 92
        0
 66
   257
 43
1.0
 76
     1
 77
     6
 78
     2
 67
     7
 79
     3
170
     0
171
     0
290
     0
174
     0
 93
        1
 44
0.0
173
     0
291
     0
 45
0.0
  0
VISUALSTYLE
  5
26D
102
{ACAD_REACTORS
330
267
102
}
330
267
100
AcDbVisualStyle
  2
3dWireframe
 70
     5
 71
     0
 72
     2
 73
     0
 90
        0
 40
-0.6
 41
-30.0
 62
     5
 63
     7
421
 16777215
 74
     1
 91
        4
 64
     7
 65
   257
 75
     1
175
     1
 42
1.0
 92
        0
 66
   257
 43
1.0
 76
     1
 77
     6
 78
     2
 67
     7
 79
     5
170
     0
171
     0
290
     0
174
     0
 93
        1
 44
0.0
173
     0
291
     0
 45
0.0
  0
VISUALSTYLE
  5
26F
102
{ACAD_REACTORS
330
267
102
}
330
267
100
AcDbVisualStyle
  2
Basic
 70
     7
 71
     1
 72
     0
 73
     1
 90
        0
 40
-0.6
 41
-30.0
 62
     5
 63
     7
421
 16777215
 74
     0
 91
        4
 64
     7
 65
   257
 75
     1
175
     1
 42
1.0
 92
        8
 66
     7
 43
1.0
 76
     1
 77
     6
 78
     2
 67
     7
 79
     5
170
     0
171
     0
290
     0
174
     0
 93
        1
 44
0.0
173
     0
291
     1
 45
0.0
  0
VISUALSTYLE
  5
273
102
{ACAD_REACTORS
330
267
102
}
330
267
100
AcDbVisualStyle
  2
Brighten
 70
    12
 71
     2
 72
     2
 73
     0
 90
        0
 40
-0.6
 41
-30.0
 62
     5
 63
     7
421
 16777215
 74
     1
 91
        4
 64
     7
 65
   257
 75
     1
175
     1
 42
1.0
 92
        8
 66
     7
 43
1.0
 76
     1
 77
     6
 78
     2
 67
     7
 79
     5
170
     0
171
     0
290
     0
174
     0
 93
        1
 44
50.0
173
     0
291
     1
 45
0.0
  0
VISUALSTYLE
  5
277
102
{ACAD_REACTORS
330
267
102
}
330
267
100
AcDbVisualStyle
  2
ColorChange
 70
    16
 71
     2
 72
     2
 73
     3
 90
        0
 40
-0.6
 41
-30.0
 62
     5
 63
     8
421
  8421504
 74
     1
 91
        4
 64
     7
 65
   257
 75
     1
175
     1
 42
1.0
 92
        8
 66
     8
424
  8421504
 43
1.0
 76
     1
 77
     6
 78
     2
 67
     7
 79
     5
170
     0
171
     0
290
     0
174
     0
 93
        1
 44
0.0
173
     0
291
     1
 45
0.0
  0
VISUALSTYLE
  5
271
102
{ACAD_REACTORS
330
267
102
}
330
267
100
AcDbVisualStyle
  2
Conceptual
 70
     9
 71
     3
 72
     2
 73
     0
 90
        0
 40
-0.6
 41
-30.0
 62
     5
 63
     7
421
 16777215
 74
     2
 91
        2
 64
     7
 65
   257
 75
     1
175
     1
 42
40.0
 92
        8
 66
     7
 43
1.0
 76
     1
 77
     6
 78
     2
 67
     7
 79
     3
170
     0
171
     0
290
     0
174
     0
 93
        1
 44
0.0
173
     0
291
     0
 45
0.0
  0
VISUALSTYLE
  5
272
102
{ACAD_REACTORS
330
267
102
}
330
267
100
AcDbVisualStyle
  2
Dim
 70
    11
 71
     2
 72
     2
 73
     0
 90
        0
 40
-0.6
 41
-30.0
 62
     5
 63
     7
421
 16777215
 74
     1
 91
        4
 64
     7
 65
   257
 75
     1
175
     1
 42
1.0
 92
        8
 66
     7
 43
1.0
 76
     1
 77
     6
 78
     2
 67
     7
 79
     5
170
     0
171
     0
290
     0
174
     0
 93
        1
 44
-50.0
173
     0
291
     1
 45
0.0
  0
VISUALSTYLE
  5
10E2
102
{ACAD_REACTORS
330
267
102
}
330
267
100
AcDbVisualStyle
  2
EdgeColorOff
 70
    22
 71
     2
 72
     2
 73
     0
 90
        0
 40
0.6
 41
30.0
 62
     5
 63
     7
421
 16777215
 74
     1
 91
        4
 64
     7
 65
   257
 75
     1
175
     1
 42
1.0
 92
        8
 66
     7
 43
1.0
 76
     1
 77
     6
 78
     2
 67
     7
 79
     5
170
     0
171
     0
290
     0
174
     0
 93
        1
 44
0.0
173
     0
291
     1
 45
0.0
  0
VISUALSTYLE
  5
276
102
{ACAD_REACTORS
330
267
102
}
330
267
100
AcDbVisualStyle
  2
Facepattern
 70
    15
 71
     2
 72
     2
 73
     0
 90
        0
 40
-0.6
 41
-30.0
 62
     5
 63
     7
421
 16777215
 74
     1
 91
        4
 64
     7
 65
   257
 75
     1
175
     1
 42
1.0
 92
        8
 66
     7
 43
1.0
 76
     1
 77
     6
 78
     2
 67
     7
 79
     5
170
     0
171
     0
290
     0
174
     0
 93
        1
 44
0.0
173
     0
291
     1
 45
0.0
  0
VISUALSTYLE
  5
268
102
{ACAD_REACTORS
330
267
102
}
330
267
100
AcDbVisualStyle
  2
Flat
 70
     0
 71
     2
 72
     1
 73
     1
 90
        2
 40
-0.6
 41
30.0
 62
     5
 63
     7
421
 16777215
 74
     0
 91
        4
 64
     7
 65
   257
 75
     1
175
     1
 42
1.0
 92
        8
 66
     7
 43
1.0
 76
     1
 77
     6
 78
     2
 67
     7
 79
     5
170
     0
171
     0
290
     0
174
     0
 93
       13
 44
0.0
173
     0
291
     1
 45
0.0
  0
VISUALSTYLE
  5
269
102
{ACAD_REACTORS
330
267
102
}
330
267
100
AcDbVisualStyle
  2
FlatWithEdges
 70
     1
 71
     2
 72
     1
 73
     1
 90
        2
 40
-0.6
 41
30.0
 62
     5
 63
     7
421
 16777215
 74
     1
 91
        4
 64
     7
 65
   257
 75
     1
175
     1
 42
1.0
 92
        0
 66
   257
 43
1.0
 76
     1
 77
     6
 78
     2
 67
     7
 79
     5
170
     0
171
     0
290
     0
174
     0
 93
       13
 44
0.0
173
     0
291
     1
 45
0.0
  0
VISUALSTYLE
  5
26A
102
{ACAD_REACTORS
330
267
102
}
330
267
100
AcDbVisualStyle
  2
Gouraud
 70
     2
 71
     2
 72
     2
 73
     1
 90
        2
 40
-0.6
 41
30.0
 62
     5
 63
     7
421
 16777215
 74
     0
 91
        4
 64
     7
 65
   257
 75
     1
175
     1
 42
1.0
 92
        0
 66
     7
 43
1.0
 76
     1
 77
     6
 78
     2
 67
     7
 79
     5
170
     0
171
     0
290
     0
174
     0
 93
       13
 44
0.0
173
     0
291
     1
 45
0.0
  0
VISUALSTYLE
  5
26B
102
{ACAD_REACTORS
330
267
102
}
330
267
100
AcDbVisualStyle
  2
GouraudWithEdges
 70
     3
 71
     2
 72
     2
 73
     1
 90
        2
 40
-0.6
 41
30.0
 62
     5
 63
     7
421
 16777215
 74
     1
 91
        4
 64
     7
 65
   257
 75
     1
175
     1
 42
1.0
 92
        0
 66
   257
 43
1.0
 76
     1
 77
     6
 78
     2
 67
     7
 79
     5
170
     0
171
     0
290
     0
174
     0
 93
       13
 44
0.0
173
     0
291
     1
 45
0.0
  0
VISUALSTYLE
  5
10DF
102
{ACAD_REACTORS
330
267
102
}
330
267
100
AcDbVisualStyle
  2
Hidden
 70
     6
 71
     1
 72
     2
 73
     2
 90
        0
 40
0.6
 41
30.0
 62
     5
 63
     7
421
 16777215
 74
     2
 91
        2
 64
     7
 65
   257
 75
     2
175
     1
 42
40.0
 92
        0
 66
   257
 43
1.0
 76
     1
 77
     6
 78
     2
 67
     7
 79
     3
170
     0
171
     0
290
     0
174
     0
 93
        1
 44
0.0
173
     0
291
     0
 45
0.0
  0
VISUALSTYLE
  5
10E0
102
{ACAD_REACTORS
330
267
102
}
330
267
100
AcDbVisualStyle
  2
JitterOff
 70
    20
 71
     2
 72
     2
 73
     0
 90
        0
 40
0.6
 41
30.0
 62
     5
 63
     7
421
 16777215
 74
     1
 91
        4
 64
     7
 65
   257
 75
     1
175
     1
 42
1.0
 92
       10
 66
     7
 43
1.0
 76
     1
 77
     6
 78
     2
 67
     7
 79
     5
170
     0
171
     0
290
     0
174
     0
 93
        1
 44
0.0
173
     0
291
     1
 45
0.0
  0
VISUALSTYLE
  5
275
102
{ACAD_REACTORS
330
267
102
}
330
267
100
AcDbVisualStyle
  2
Linepattern
 70
    14
 71
     2
 72
     2
 73
     0
 90
        0
 40
-0.6
 41
-30.0
 62
     5
 63
     7
421
 16777215
 74
     1
 91
        4
 64
     7
 65
   257
 75
     7
175
     7
 42
1.0
 92
        8
 66
     7
 43
1.0
 76
     1
 77
     6
 78
     2
 67
     7
 79
     5
170
     0
171
     0
290
     0
174
     0
 93
        1
 44
0.0
173
     0
291
     1
 45
0.0
  0
VISUALSTYLE
  5
10E1
102
{ACAD_REACTORS
330
267
102
}
330
267
100
AcDbVisualStyle
  2
OverhangOff
 70
    21
 71
     2
 72
     2
 73
     0
 90
        0
 40
0.6
 41
30.0
 62
     5
 63
     7
421
 16777215
 74
     1
 91
        4
 64
     7
 65
   257
 75
     1
175
     1
 42
1.0
 92
        9
 66
     7
 43
1.0
 76
     1
 77
     6
 78
     2
 67
     7
 79
     5
170
     0
171
     0
290
     0
174
     0
 93
        1
 44
0.0
173
     0
291
     1
 45
0.0
  0
VISUALSTYLE
  5
270
102
{ACAD_REACTORS
330
267
102
}
330
267
100
AcDbVisualStyle
  2
Realistic
 70
     8
 71
     2
 72
     2
 73
     0
 90
        0
 40
-0.6
 41
-30.0
 62
     5
 63
     7
421
 16777215
 74
     1
 91
        0
 64
     7
 65
   257
 75
     1
175
     1
 42
1.0
 92
        8
 66
     8
424
  7895160
 43
1.0
 76
     1
 77
     6
 78
     2
 67
     7
 79
     5
170
     0
171
     0
290
     0
174
     0
 93
       13
 44
0.0
173
     0
291
     0
 45
0.0
  0
VISUALSTYLE
  5
10E7
102
{ACAD_REACTORS
330
267
102
}
330
267
100
AcDbVisualStyle
  2
Shaded
 70
    27
 71
     2
 72
     2
 73
     1
 90
        2
 40
0.6
 41
30.0
 62
     5
 63
     7
421
 16777215
 74
     0
 91
        4
 64
     7
 65
   257
 75
     1
175
     1
 42
1.0
 92
        8
 66
   257
 43
1.0
 76
     1
 77
     6
 78
     2
 67
     8
425
  7895160
 79
     3
170
     0
171
     0
290
     0
174
     0
 93
        5
 44
0.0
173
     0
291
     0
 45
0.0
  0
VISUALSTYLE
  5
10E6
102
{ACAD_REACTORS
330
267
102
}
330
267
100
AcDbVisualStyle
  2
Shaded with edges
 70
    26
 71
     2
 72
     2
 73
     1
 90
        2
 40
0.6
 41
30.0
 62
     5
 63
     7
421
 16777215
 74
     1
 91
       10
 64
     7
 65
   257
 75
     2
175
     1
 42
1.0
 92
        8
 66
   257
 43
1.0
 76
     1
 77
     6
 78
     2
 67
     7
 79
     3
170
     0
171
     0
290
     0
174
     0
 93
        5
 44
0.0
173
     0
291
     0
 45
0.0
  0
VISUALSTYLE
  5
10E3
102
{ACAD_REACTORS
330
267
102
}
330
267
100
AcDbVisualStyle
  2
Shades of Gray
 70
    23
 71
     2
 72
     2
 73
     3
 90
        0
 40
0.6
 41
30.0
 62
     5
 63
     7
421
 16777215
 74
     2
 91
        2
 64
     7
 65
     7
 75
     1
175
     1
 42
40.0
 92
        8
 66
     7
 43
1.0
 76
     1
 77
     6
 78
     2
 67
     7
 79
     3
170
     0
171
     0
290
     0
174
     0
 93
        1
 44
0.0
173
     0
291
     0
 45
0.0
  0
VISUALSTYLE
  5
10E4
102
{ACAD_REACTORS
330
267
102
}
330
267
100
AcDbVisualStyle
  2
Sketchy
 70
    24
 71
     1
 72
     2
 73
     2
 90
        0
 40
0.6
 41
30.0
 62
     5
 63
     7
421
 16777215
 74
     2
 91
        2
 64
     7
 65
     7
 75
     1
175
     1
 42
40.0
 92
       11
 66
     7
 43
1.0
 76
     1
 77
     6
 78
     2
 67
     7
 79
     6
170
     0
171
     0
290
     0
174
     0
 93
        1
 44
0.0
173
     0
291
     0
 45
0.0
  0
VISUALSTYLE
  5
274
102
{ACAD_REACTORS
330
267
102
}
330
267
100
AcDbVisualStyle
  2
Thicken
 70
    13
 71
     2
 72
     2
 73
     0
 90
        0
 40
-0.6
 41
-30.0
 62
     5
 63
     7
421
 16777215
 74
     1
 91
        4
 64
     7
 65
   257
 75
     1
175
     1
 42
1.0
 92
       12
 66
     7
 43
1.0
 76
     1
 77
     6
 78
     2
 67
     7
 79
     5
170
     0
171
     0
290
     0
174
     0
 93
        1
 44
0.0
173
     0
291
     1
 45
0.0
  0
VISUALSTYLE
  5
10DE
102
{ACAD_REACTORS
330
267
102
}
330
267
100
AcDbVisualStyle
  2
Wireframe
 70
     5
 71
     0
 72
     2
 73
     0
 90
        0
 40
0.6
 41
30.0
 62
     5
 63
     7
421
 16777215
 74
     1
 91
        4
 64
     7
 65
   257
 75
     1
175
     1
 42
1.0
 92
        0
 66
   257
 43
1.0
 76
     1
 77
     6
 78
     2
 67
     7
 79
     3
170
     0
171
     0
290
     0
174
     0
 93
        1
 44
0.0
173
     0
291
     0
 45
0.0
  0
VISUALSTYLE
  5
10E5
102
{ACAD_REACTORS
330
267
102
}
330
267
100
AcDbVisualStyle
  2
X-Ray
 70
    25
 71
     2
 72
     2
 73
     1
 90
        1
 40
0.5
 41
30.0
 62
     5
 63
     7
421
 16777215
 74
     1
 91
        0
 64
     7
 65
   257
 75
     1
175
     1
 42
1.0
 92
        8
 66
     7
 43
1.0
 76
     1
 77
     6
 78
     2
 67
     7
 79
     3
170
     0
171
     0
290
     0
174
     0
 93
       13
 44
0.0
173
     0
291
     0
 45
0.0
  0
DICTIONARYVAR
  5
331
102
{ACAD_REACTORS
330
330
102
}
330
330
100
DictionaryVariables
280
     0
  1
1:1
  0
DICTIONARYVAR
  5
425F
102
{ACAD_REACTORS
330
330
102
}
330
330
100
DictionaryVariables
280
     0
  1
Standard
  0
DICTIONARYVAR
  5
335
102
{ACAD_REACTORS
330
330
102
}
330
330
100
DictionaryVariables
280
     0
  1
Standard
  0
DICTIONARYVAR
  5
109E
102
{ACAD_REACTORS
330
330
102
}
330
330
100
DictionaryVariables
280
     0
  1
0
  0
XRECORD
  5
10DB
102
{ACAD_REACTORS
330
2E2
102
}
330
2E2
100
AcDbXrecord
280
     1
 91
    34815
301

290
     0
302
TFORMLOGO
330
14
 90
        8
 62
     7
370
    -3
331
13
  1
Color_7
440
 33554687
330
4A
 90
        0
 62
     7
370
    -3
331
13
  1
Color_7
440
 33554687
330
12CE
 90
        8
 62
     7
370
    13
331
13
  1
Color_7
440
 33554687
330
12CF
 90
        8
 62
     7
370
    20
331
13
  1
Color_7
440
 33554687
330
142A
 90
        8
 62
     7
370
    20
331
13
  1
Color_7
440
 33554687
330
1D5C
 90
        8
 62
     7
370
    20
331
13
  1
Color_7
440
 33554687
330
3848
 90
        9
 62
     4
370
    -3
331
13
  1
Color_4
440
 33554687
330
387B
 90
        8
 62
     7
370
    -3
331
13
  1
Color_7
440
 33554687
330
3B73
 90
        8
 62
     7
370
    -3
331
13
  1
Color_7
440
 33554687
  0
XRECORD
  5
DEA
102
{ACAD_REACTORS
330
2E2
102
}
330
2E2
100
AcDbXrecord
280
     1
 91
     1023
301

290
     0
302
テンプレート
330
14
 90
        8
 62
     7
370
    -3
331
13
  1
Color_7
330
4A
 90
        0
 62
     7
370
    -3
331
13
  1
Color_7
330
0
 90
        8
 62
     7
370
     9
331
13
  1
Color_7
330
12CE
 90
        9
 62
     7
370
    13
331
13
  1
Color_7
330
12CF
 90
        8
 62
     7
370
    20
331
13
  1
Color_7
330
142A
 90
        8
 62
     7
370
    20
331
13
  1
Color_7
330
0
 90
        8
 62
     7
370
    -3
331
13
  1
Color_7
330
0
 90
        8
 62
     7
370
    -3
331
13
  1
Color_7
330
0
 90
        8
 62
     7
370
    -3
331
13
  1
Color_7
330
0
 90
        8
 62
     7
370
    -3
331
13
  1
Color_7
  0
XRECORD
  5
C70
102
{ACAD_REACTORS
330
2E2
102
}
330
2E2
100
AcDbXrecord
280
     1
 91
     1023
301

290
     0
302
Defpoints
330
14
 90
        8
 62
     7
370
    -3
331
13
  1
Color_7
330
4A
 90
        0
 62
     7
370
    -3
331
13
  1
Color_7
330
0
 90
        8
 62
     7
370
    -3
331
13
  1
Color_7
330
0
 90
        8
 62
     7
370
    -3
331
13
  1
Color_7
330
0
 90
        8
 62
     7
370
    -3
331
13
  1
Color_7
330
0
 90
       12
 62
     7
370
    -3
331
13
  1
Color_7
330
0
 90
        8
 62
     7
370
    -3
331
13
  1
Color_7
  0
XRECORD
  5
7AA
102
{ACAD_REACTORS
330
2E2
102
}
330
2E2
100
AcDbXrecord
280
     1
 91
     1023
301

290
     0
302
レイヤー 1
330
14
 90
        9
 62
     7
370
    -3
331
13
  1
Color_7
330
4A
 90
        1
 62
     7
370
    -3
331
13
  1
Color_7
330
0
 90
        8
 62
     7
370
    -3
331
13
  1
Color_7
330
0
 90
        9
 62
     7
370
    -3
331
13
  1
Color_7
330
0
 90
        9
 62
     7
370
    -3
331
13
  1
Color_7
330
0
 90
       13
 62
     7
370
    -3
331
13
  1
Color_7
330
0
 90
        9
 62
     7
370
    -3
331
13
  1
Color_7
330
0
 90
        9
 62
     7
370
    -3
331
13
  1
Color_7
330
0
 90
        9
 62
     7
370
    -3
331
13
  1
Color_7
330
0
 90
        9
 62
     7
370
    -3
331
13
  1
Color_7
330
0
 90
        9
 62
     7
370
    -3
331
13
  1
Color_7
330
0
 90
        8
 62
     7
370
    -3
331
13
  1
Color_7
  0
DICTIONARY
  5
44C5
330
279
100
AcDbDictionary
280
     1
281
     1
  3
ACAD_ROUNDTRIP_2008_TABLESTYLE_CELLSTYLEMAP
360
44C6
  0
CELLSTYLEMAP
  5
44C6
102
{ACAD_REACTORS
330
44C5
102
}
330
44C5
100
AcDbCellStyleMap
 90
        3
300
CELLSTYLE
  1
TABLEFORMAT_BEGIN
 90
        5
170
     1
 91
        0
 92
    32768
 62
   257
 93
        1
300
CONTENTFORMAT
  1
CONTENTFORMAT_BEGIN
 90
        0
 91
        0
 92
        4
 93
        0
300

 40
0.0
140
1.0
 94
        5
 62
     0
340
17
144
6.0
309
CONTENTFORMAT_END
171
     1
301
MARGIN
  1
CELLMARGIN_BEGIN
 40
0.06
 40
0.06
 40
0.06
 40
0.06
 40
0.18
 40
0.18
309
CELLMARGIN_END
 94
        6
 95
        1
302
GRIDFORMAT
  1
GRIDFORMAT_BEGIN
 90
        0
 91
        1
 62
     0
 92
       -2
340
0
 93
        0
 40
0.045
309
GRIDFORMAT_END
 95
        2
302
GRIDFORMAT
  1
GRIDFORMAT_BEGIN
 90
        0
 91
        1
 62
     0
 92
       -2
340
0
 93
        0
 40
0.045
309
GRIDFORMAT_END
 95
        4
302
GRIDFORMAT
  1
GRIDFORMAT_BEGIN
 90
        0
 91
        1
 62
     0
 92
       -2
340
0
 93
        0
 40
0.045
309
GRIDFORMAT_END
 95
        8
302
GRIDFORMAT
  1
GRIDFORMAT_BEGIN
 90
        0
 91
        1
 62
     0
 92
       -2
340
0
 93
        0
 40
0.045
309
GRIDFORMAT_END
 95
       16
302
GRIDFORMAT
  1
GRIDFORMAT_BEGIN
 90
        0
 91
        1
 62
     0
 92
       -2
340
0
 93
        0
 40
0.045
309
GRIDFORMAT_END
 95
       32
302
GRIDFORMAT
  1
GRIDFORMAT_BEGIN
 90
        0
 91
        1
 62
     0
 92
       -2
340
0
 93
        0
 40
0.045
309
GRIDFORMAT_END
309
TABLEFORMAT_END
  1
CELLSTYLE_BEGIN
 90
        1
 91
        1
300
_TITLE
309
CELLSTYLE_END
300
CELLSTYLE
  1
TABLEFORMAT_BEGIN
 90
        5
170
     1
 91
        0
 92
        0
 62
   257
 93
        1
300
CONTENTFORMAT
  1
CONTENTFORMAT_BEGIN
 90
        0
 91
        0
 92
        4
 93
        0
300

 40
0.0
140
1.0
 94
        5
 62
     0
340
17
144
4.5
309
CONTENTFORMAT_END
171
     1
301
MARGIN
  1
CELLMARGIN_BEGIN
 40
0.06
 40
0.06
 40
0.06
 40
0.06
 40
0.18
 40
0.18
309
CELLMARGIN_END
 94
        6
 95
        1
302
GRIDFORMAT
  1
GRIDFORMAT_BEGIN
 90
        0
 91
        1
 62
     0
 92
       -2
340
0
 93
        0
 40
0.045
309
GRIDFORMAT_END
 95
        2
302
GRIDFORMAT
  1
GRIDFORMAT_BEGIN
 90
        0
 91
        1
 62
     0
 92
       -2
340
0
 93
        0
 40
0.045
309
GRIDFORMAT_END
 95
        4
302
GRIDFORMAT
  1
GRIDFORMAT_BEGIN
 90
        0
 91
        1
 62
     0
 92
       -2
340
0
 93
        0
 40
0.045
309
GRIDFORMAT_END
 95
        8
302
GRIDFORMAT
  1
GRIDFORMAT_BEGIN
 90
        0
 91
        1
 62
     0
 92
       -2
340
0
 93
        0
 40
0.045
309
GRIDFORMAT_END
 95
       16
302
GRIDFORMAT
  1
GRIDFORMAT_BEGIN
 90
        0
 91
        1
 62
     0
 92
       -2
340
0
 93
        0
 40
0.045
309
GRIDFORMAT_END
 95
       32
302
GRIDFORMAT
  1
GRIDFORMAT_BEGIN
 90
        0
 91
        1
 62
     0
 92
       -2
340
0
 93
        0
 40
0.045
309
GRIDFORMAT_END
309
TABLEFORMAT_END
  1
CELLSTYLE_BEGIN
 90
        2
 91
        1
300
_HEADER
309
CELLSTYLE_END
300
CELLSTYLE
  1
TABLEFORMAT_BEGIN
 90
        5
170
     1
 91
        0
 92
        0
 62
   257
 93
        1
300
CONTENTFORMAT
  1
CONTENTFORMAT_BEGIN
 90
        0
 91
        0
 92
        4
 93
        0
300

 40
0.0
140
1.0
 94
        2
 62
     0
340
17
144
4.5
309
CONTENTFORMAT_END
171
     1
301
MARGIN
  1
CELLMARGIN_BEGIN
 40
0.06
 40
0.06
 40
0.06
 40
0.06
 40
0.18
 40
0.18
309
CELLMARGIN_END
 94
        6
 95
        1
302
GRIDFORMAT
  1
GRIDFORMAT_BEGIN
 90
        0
 91
        1
 62
     0
 92
       -2
340
0
 93
        0
 40
0.045
309
GRIDFORMAT_END
 95
        2
302
GRIDFORMAT
  1
GRIDFORMAT_BEGIN
 90
        0
 91
        1
 62
     0
 92
       -2
340
0
 93
        0
 40
0.045
309
GRIDFORMAT_END
 95
        4
302
GRIDFORMAT
  1
GRIDFORMAT_BEGIN
 90
        0
 91
        1
 62
     0
 92
       -2
340
0
 93
        0
 40
0.045
309
GRIDFORMAT_END
 95
        8
302
GRIDFORMAT
  1
GRIDFORMAT_BEGIN
 90
        0
 91
        1
 62
     0
 92
       -2
340
0
 93
        0
 40
0.045
309
GRIDFORMAT_END
 95
       16
302
GRIDFORMAT
  1
GRIDFORMAT_BEGIN
 90
        0
 91
        1
 62
     0
 92
       -2
340
0
 93
        0
 40
0.045
309
GRIDFORMAT_END
 95
       32
302
GRIDFORMAT
  1
GRIDFORMAT_BEGIN
 90
        0
 91
        1
 62
     0
 92
       -2
340
0
 93
        0
 40
0.045
309
GRIDFORMAT_END
309
TABLEFORMAT_END
  1
CELLSTYLE_BEGIN
 90
        3
 91
        2
300
_DATA
309
CELLSTYLE_END
  0
ENDSEC
  0
EOF
