  0
SECTION
  2
HEADER
  9
$ACADVER
  1
AC1021
  9
$ACADMAINTVER
 70
    25
  9
$DWGCODEPAGE
  3
ANSI_932
  9
$LASTSAVEDBY
  1
tform
  9
$INSBASE
 10
0.0
 20
0.0
 30
0.0
  9
$EXTMIN
 10
0.0
 20
0.0
 30
0.0
  9
$EXTMAX
 10
630.0
 20
891.0
 30
0.0
  9
$LIMMIN
 10
0.0
 20
0.0
  9
$LIMMAX
 10
630.0
 20
891.0
  9
$ORTHOMODE
 70
     1
  9
$REGENMODE
 70
     1
  9
$FILLMODE
 70
     1
  9
$QTEXTMODE
 70
     0
  9
$MIRRTEXT
 70
     1
  9
$LTSCALE
 40
0.25
  9
$ATTMODE
 70
     1
  9
$TEXTSIZE
 40
2.5
  9
$TRACEWID
 40
1.0
  9
$TEXTSTYLE
  7
ＭＳ ゴシック
  9
$CLAYER
  8
寸法
  9
$CELTYPE
  6
ByLayer
  9
$CECOLOR
 62
   256
  9
$CELTSCALE
 40
1.0
  9
$DISPSILH
 70
     0
  9
$DIMSCALE
 40
1.0
  9
$DIMASZ
 40
2.0
  9
$DIMEXO
 40
6.0
  9
$DIMDLI
 40
8.0
  9
$DIMRND
 40
0.0
  9
$DIMDLE
 40
0.0
  9
$DIMEXE
 40
0.0
  9
$DIMTP
 40
0.0
  9
$DIMTM
 40
0.0
  9
$DIMTXT
 40
8.0
  9
$DIMCEN
 40
0.0
  9
$DIMTSZ
 40
0.0
  9
$DIMTOL
 70
     0
  9
$DIMLIM
 70
     0
  9
$DIMTIH
 70
     0
  9
$DIMTOH
 70
     0
  9
$DIMSE1
 70
     0
  9
$DIMSE2
 70
     0
  9
$DIMTAD
 70
     1
  9
$DIMZIN
 70
    11
  9
$DIMBLK
  1
DOT
  9
$DIMASO
 70
     1
  9
$DIMSHO
 70
     1
  9
$DIMPOST
  1
<>
  9
$DIMAPOST
  1
[]
  9
$DIMALT
 70
     0
  9
$DIMALTD
 70
     1
  9
$DIMALTF
 40
1.0
  9
$DIMLFAC
 40
1.0
  9
$DIMTOFL
 70
     0
  9
$DIMTVP
 40
0.0
  9
$DIMTIX
 70
     1
  9
$DIMSOXD
 70
     0
  9
$DIMSAH
 70
     0
  9
$DIMBLK1
  1

  9
$DIMBLK2
  1

  9
$DIMSTYLE
  2
tfrom線あり
  9
$DIMCLRD
 70
     0
  9
$DIMCLRE
 70
     0
  9
$DIMCLRT
 70
     0
  9
$DIMTFAC
 40
1.0
  9
$DIMGAP
 40
5.0
  9
$DIMJUST
 70
     0
  9
$DIMSD1
 70
     0
  9
$DIMSD2
 70
     0
  9
$DIMTOLJ
 70
     1
  9
$DIMTZIN
 70
    11
  9
$DIMALTZ
 70
    11
  9
$DIMALTTZ
 70
    11
  9
$DIMUPT
 70
     0
  9
$DIMDEC
 70
     0
  9
$DIMTDEC
 70
     1
  9
$DIMALTU
 70
     2
  9
$DIMALTTD
 70
     2
  9
$DIMTXSTY
  7
ＭＳ ゴシック
  9
$DIMAUNIT
 70
     0
  9
$DIMADEC
 70
     2
  9
$DIMALTRND
 40
0.0
  9
$DIMAZIN
 70
     0
  9
$DIMDSEP
 70
    46
  9
$DIMATFIT
 70
     0
  9
$DIMFRAC
 70
     2
  9
$DIMLDRBLK
  1
DOT
  9
$DIMLUNIT
 70
     2
  9
$DIMLWD
 70
    -2
  9
$DIMLWE
 70
    -2
  9
$DIMTMOVE
 70
     0
  9
$DIMFXL
 40
1.0
  9
$DIMFXLON
 70
     0
  9
$DIMJOGANG
 40
0.7853981633974483
  9
$DIMTFILL
 70
     0
  9
$DIMTFILLCLR
 70
     0
  9
$DIMARCSYM
 70
     0
  9
$DIMLTYPE
  6

  9
$DIMLTEX1
  6

  9
$DIMLTEX2
  6

  9
$LUNITS
 70
     2
  9
$LUPREC
 70
     0
  9
$SKETCHINC
 40
0.1
  9
$FILLETRAD
 40
0.0
  9
$AUNITS
 70
     0
  9
$AUPREC
 70
     0
  9
$MENU
  1
acad
  9
$ELEVATION
 40
0.0
  9
$PELEVATION
 40
0.0
  9
$THICKNESS
 40
0.0
  9
$LIMCHECK
 70
     0
  9
$CHAMFERA
 40
0.0
  9
$CHAMFERB
 40
0.0
  9
$CHAMFERC
 40
0.0
  9
$CHAMFERD
 40
0.0
  9
$SKPOLY
 70
     0
  9
$TDCREATE
 40
2447893.375
  9
$TDUCREATE
 40
0.0
  9
$TDUPDATE
 40
2459877.452567014
  9
$TDUUPDATE
 40
2459877.077567014
  9
$TDINDWG
 40
0.7743886343
  9
$TDUSRTIMER
 40
0.0018529167
  9
$USRTIMER
 70
     1
  9
$ANGBASE
 50
0.0
  9
$ANGDIR
 70
     0
  9
$PDMODE
 70
     1
  9
$PDSIZE
 40
-2.0
  9
$PLINEWID
 40
0.0
  9
$SPLFRAME
 70
     0
  9
$SPLINETYPE
 70
     6
  9
$SPLINESEGS
 70
     8
  9
$HANDSEED
  5
8C6E
  9
$SURFTAB1
 70
     6
  9
$SURFTAB2
 70
     6
  9
$SURFTYPE
 70
     6
  9
$SURFU
 70
     6
  9
$SURFV
 70
     6
  9
$UCSBASE
  2

  9
$UCSNAME
  2

  9
$UCSORG
 10
0.0
 20
0.0
 30
0.0
  9
$UCSXDIR
 10
1.0
 20
0.0
 30
0.0
  9
$UCSYDIR
 10
0.0
 20
1.0
 30
0.0
  9
$UCSORTHOREF
  2

  9
$UCSORTHOVIEW
 70
     0
  9
$UCSORGTOP
 10
0.0
 20
0.0
 30
0.0
  9
$UCSORGBOTTOM
 10
0.0
 20
0.0
 30
0.0
  9
$UCSORGLEFT
 10
0.0
 20
0.0
 30
0.0
  9
$UCSORGRIGHT
 10
0.0
 20
0.0
 30
0.0
  9
$UCSORGFRONT
 10
0.0
 20
0.0
 30
0.0
  9
$UCSORGBACK
 10
0.0
 20
0.0
 30
0.0
  9
$PUCSBASE
  2

  9
$PUCSNAME
  2

  9
$PUCSORG
 10
0.0
 20
0.0
 30
0.0
  9
$PUCSXDIR
 10
1.0
 20
0.0
 30
0.0
  9
$PUCSYDIR
 10
0.0
 20
1.0
 30
0.0
  9
$PUCSORTHOREF
  2

  9
$PUCSORTHOVIEW
 70
     0
  9
$PUCSORGTOP
 10
0.0
 20
0.0
 30
0.0
  9
$PUCSORGBOTTOM
 10
0.0
 20
0.0
 30
0.0
  9
$PUCSORGLEFT
 10
0.0
 20
0.0
 30
0.0
  9
$PUCSORGRIGHT
 10
0.0
 20
0.0
 30
0.0
  9
$PUCSORGFRONT
 10
0.0
 20
0.0
 30
0.0
  9
$PUCSORGBACK
 10
0.0
 20
0.0
 30
0.0
  9
$USERI1
 70
     0
  9
$USERI2
 70
     0
  9
$USERI3
 70
     0
  9
$USERI4
 70
     0
  9
$USERI5
 70
     0
  9
$USERR1
 40
0.0
  9
$USERR2
 40
0.0
  9
$USERR3
 40
0.0
  9
$USERR4
 40
0.0
  9
$USERR5
 40
0.0
  9
$WORLDVIEW
 70
     1
  9
$SHADEDGE
 70
     3
  9
$SHADEDIF
 70
    70
  9
$TILEMODE
 70
     1
  9
$MAXACTVP
 70
    64
  9
$PINSBASE
 10
0.0
 20
0.0
 30
0.0
  9
$PLIMCHECK
 70
     0
  9
$PEXTMIN
 10
0.0
 20
0.0
 30
0.0
  9
$PEXTMAX
 10
0.0
 20
0.0
 30
0.0
  9
$PLIMMIN
 10
-7.5
 20
-20.0
  9
$PLIMMAX
 10
412.5
 20
277.0
  9
$UNITMODE
 70
     0
  9
$VISRETAIN
 70
     0
  9
$PLINEGEN
 70
     1
  9
$PSLTSCALE
 70
     0
  9
$TREEDEPTH
 70
  3020
  9
$CMLSTYLE
  2
Standard
  9
$CMLJUST
 70
     0
  9
$CMLSCALE
 40
1.0
  9
$PROXYGRAPHICS
 70
     0
  9
$MEASUREMENT
 70
     1
  9
$CELWEIGHT
370
    -1
  9
$ENDCAPS
280
     0
  9
$JOINSTYLE
280
     0
  9
$LWDISPLAY
290
     1
  9
$INSUNITS
 70
     4
  9
$HYPERLINKBASE
  1

  9
$STYLESHEET
  1

  9
$XEDIT
290
     1
  9
$CEPSNTYPE
380
     0
  9
$PSTYLEMODE
290
     1
  9
$FINGERPRINTGUID
  2

  9
$VERSIONGUID
  2

  9
$EXTNAMES
290
     1
  9
$PSVPSCALE
 40
0.0
  9
$OLESTARTUP
290
     0
  9
$SORTENTS
280
   127
  9
$INDEXCTL
280
     0
  9
$HIDETEXT
280
     1
  9
$XCLIPFRAME
290
     0
  9
$HALOGAP
280
     0
  9
$OBSCOLOR
 70
   257
  9
$OBSLTYPE
280
     0
  9
$INTERSECTIONDISPLAY
280
     0
  9
$INTERSECTIONCOLOR
 70
   257
  9
$DIMASSOC
280
     2
  9
$PROJECTNAME
  1

  9
$CAMERADISPLAY
290
     0
  9
$LENSLENGTH
 40
50.0
  9
$CAMERAHEIGHT
 40
0.0
  9
$STEPSPERSEC
 40
2.0
  9
$STEPSIZE
 40
6.0
  9
$3DDWFPREC
 40
2.0
  9
$PSOLWIDTH
 40
0.25
  9
$PSOLHEIGHT
 40
4.0
  9
$LOFTANG1
 40
1.570796326794897
  9
$LOFTANG2
 40
1.570796326794897
  9
$LOFTMAG1
 40
0.0
  9
$LOFTMAG2
 40
0.0
  9
$LOFTPARAM
 70
     7
  9
$LOFTNORMALS
280
     1
  9
$LATITUDE
 40
37.795
  9
$LONGITUDE
 40
-122.394
  9
$NORTHDIRECTION
 40
0.0
  9
$TIMEZONE
 70
 -8000
  9
$LIGHTGLYPHDISPLAY
280
     1
  9
$TILEMODELIGHTSYNCH
280
     1
  9
$SOLIDHIST
280
     1
  9
$SHOWHIST
280
     1
  9
$DWFFRAME
280
     2
  9
$DGNFRAME
280
     2
  9
$REALWORLDSCALE
290
     1
  9
$INTERFERECOLOR
 62
   256
  9
$CSHADOW
280
     0
  9
$SHADOWPLANELOCATION
 40
0.0
  0
ENDSEC
  0
SECTION
  2
CLASSES
  0
CLASS
  1
LWPOLYLINE
  2
AcDbPolyline
  3
ObjectDBX Classes
 90
        0
 91
        1
280
     0
281
     1
  0
CLASS
  1
IMAGE
  2
AcDbRasterImage
  3
ISM
 90
      127
 91
        4
280
     0
281
     1
  0
CLASS
  1
OLE2FRAME
  2
AcDbOle2Frame
  3
ObjectDBX Classes
 90
        0
 91
        1
280
     0
281
     1
  0
CLASS
  1
HATCH
  2
AcDbHatch
  3
ObjectDBX Classes
 90
        0
 91
        1
280
     0
281
     1
  0
CLASS
  1
DICTIONARYVAR
  2
AcDbDictionaryVar
  3
ObjectDBX Classes
 90
        0
 91
        3
280
     0
281
     0
  0
CLASS
  1
RASTERVARIABLES
  2
AcDbRasterVariables
  3
ISM
 90
        0
 91
        3
280
     0
281
     0
  0
CLASS
  1
IMAGEDEF
  2
AcDbRasterImageDef
  3
ISM
 90
        0
 91
        3
280
     0
281
     0
  0
CLASS
  1
IMAGEDEF_REACTOR
  2
AcDbRasterImageDefReactor
  3
ISM
 90
        1
 91
        3
280
     0
281
     0
  0
CLASS
  1
IDBUFFER
  2
AcDbIdBuffer
  3
ObjectDBX Classes
 90
        0
 91
        3
280
     0
281
     0
  0
CLASS
  1
SPATIAL_FILTER
  2
AcDbSpatialFilter
  3
ObjectDBX Classes
 90
        0
 91
        3
280
     0
281
     0
  0
CLASS
  1
XRECORD
  2
AcDbXrecord
  3
ObjectDBX Classes
 90
        0
 91
        1
280
     0
281
     0
  0
CLASS
  1
SORTENTSTABLE
  2
AcDbSortentsTable
  3
ObjectDBX Classes
 90
        0
 91
        3
280
     0
281
     0
  0
CLASS
  1
LAYER_INDEX
  2
AcDbLayerIndex
  3
ObjectDBX Classes
 90
        0
 91
        3
280
     0
281
     0
  0
CLASS
  1
SPATIAL_INDEX
  2
AcDbSpatialIndex
  3
AutoCAD 2000
 90
        0
 91
        3
280
     0
281
     0
  0
CLASS
  1
OBJECT_PTR
  2
CAseDLPNTableRecord
  3
ASE-LPNTableRecord
 90
        1
 91
        3
280
     0
281
     0
  0
CLASS
  1
LAYOUT
  2
AcDbLayout
  3
ObjectDBX Classes
 90
        0
 91
        1
280
     0
281
     0
  0
CLASS
  1
PLOTSETTINGS
  2
AcDbPlotSettings
  3
ObjectDBX Classes
 90
        0
 91
        3
280
     0
281
     0
  0
CLASS
  1
ACDBDICTIONARYWDFLT
  2
AcDbDictionaryWithDefault
  3
ObjectDBX Classes
 90
        0
 91
        3
280
     0
281
     0
  0
CLASS
  1
ACDBPLACEHOLDER
  2
AcDbPlaceHolder
  3
ObjectDBX Classes
 90
        0
 91
        1
280
     0
281
     0
  0
CLASS
  1
SCALE
  2
AcDbScale
  3
ObjectDBX Classes
 90
     1153
 91
        3
280
     0
281
     0
  0
CLASS
  1
MATERIAL
  2
AcDbMaterial
  3
ObjectDBX Classes
 90
     1153
 91
        3
280
     0
281
     0
  0
CLASS
  1
VISUALSTYLE
  2
AcDbVisualStyle
  3
ObjectDBX Classes
 90
     4095
 91
        3
280
     0
281
     0
  0
CLASS
  1
TABLESTYLE
  2
AcDbTableStyle
  3
ObjectDBX Classes
 90
     4095
 91
        3
280
     0
281
     0
  0
CLASS
  1
DIMASSOC
  2
AcDbDimAssoc
  3
"AcDbDimAssoc|Product Desc:     AcDim ARX App For Dimension|Company:          Autodesk, Inc.|WEB Address:      www.autodesk.com"
 90
        0
 91
        3
280
     0
281
     0
  0
CLASS
  1
CELLSTYLEMAP
  2
AcDbCellStyleMap
  3
ObjectDBX Classes
 90
     1152
 91
        3
280
     0
281
     0
  0
CLASS
  1
SUN
  2
AcDbSun
  3
SCENEOE
 90
     1153
 91
        3
280
     0
281
     0
  0
CLASS
  1
MLEADERSTYLE
  2
AcDbMLeaderStyle
  3
ACDB_MLEADERSTYLE_CLASS
 90
     4095
 91
        3
280
     0
281
     0
  0
CLASS
  1
FIELD
  2
AcDbField
  3
ObjectDBX Classes
 90
     1152
 91
        3
280
     0
281
     0
  0
CLASS
  1
FIELDLIST
  2
AcDbFieldList
  3
ObjectDBX Classes
 90
     1152
 91
        3
280
     0
281
     0
  0
ENDSEC
  0
SECTION
  2
TABLES
  0
TABLE
  2
VPORT
  5
7
330
0
100
AcDbSymbolTable
 70
     1
  0
VPORT
  5
15
330
7
100
AcDbSymbolTableRecord
100
AcDbViewportTableRecord
  2
*ACTIVE
 70
     0
 10
0.0
 20
0.0
 11
1.0
 21
1.0
 12
315.0
 22
445.5
 13
0.0
 23
0.0
 14
1.0
 24
1.0
 15
0.0
 25
0.0
 16
0.0
 26
0.0
 36
1.0
 17
0.0
 27
0.0
 37
0.0
 40
908.82
 41
2.120713305898491
 42
50.0
 43
0.0
 44
0.0
 50
0.0
 51
0.0
 71
    16
 72
  2000
 73
     1
 74
     1
 75
     1
 76
     0
 77
     0
 78
     0
281
     0
 65
     1
110
0.0
120
0.0
130
0.0
111
1.0
121
0.0
131
0.0
112
0.0
122
1.0
132
0.0
 79
     0
146
0.0
348
26C
 60
     3
 61
     5
292
     1
282
     1
141
0.0
142
0.0
 63
   256
361
10E8
  0
ENDTAB
  0
TABLE
  2
LTYPE
  5
4
330
0
100
AcDbSymbolTable
 70
     3
  0
LTYPE
  5
11
330
4
100
AcDbSymbolTableRecord
100
AcDbLinetypeTableRecord
  2
ByBlock
 70
     0
  3

 72
    65
 73
     0
 40
0.0
  0
LTYPE
  5
12
330
4
100
AcDbSymbolTableRecord
100
AcDbLinetypeTableRecord
  2
ByLayer
 70
     0
  3
Solid line
 72
    65
 73
     0
 40
0.0
  0
LTYPE
  5
13
330
4
100
AcDbSymbolTableRecord
100
AcDbLinetypeTableRecord
  2
Continuous
 70
     0
  3
Solid line
 72
    65
 73
     0
 40
0.0
  0
LTYPE
  5
12C7
330
4
100
AcDbSymbolTableRecord
100
AcDbLinetypeTableRecord
  2
HIDDEN
 70
     0
  3
Hidden _ _ _ _ _ _ _ _ _ _ _ _ _ _ _ _ _ _ _ _ 
 72
    65
 73
     2
 40
9.524999999999999
 49
6.35
 74
     0
 49
-3.175
 74
     0
  0
LTYPE
  5
7831
330
4
100
AcDbSymbolTableRecord
100
AcDbLinetypeTableRecord
  2
CENTER
 70
     0
  3
 Center _____  _  _____  _  _____  _  _____  _ 
 72
    65
 73
     4
 40
50.8
 49
31.75
 74
     0
 49
-6.35
 74
     0
 49
6.35
 74
     0
 49
-6.35
 74
     0
  0
ENDTAB
  0
TABLE
  2
LAYER
  5
2
102
{ACAD_XDICTIONARY
360
2E1
102
}
330
0
100
AcDbSymbolTable
 70
    10
  0
LAYER
  5
14
330
2
100
AcDbSymbolTableRecord
100
AcDbLayerTableRecord
  2
0
 70
     0
 62
     7
  6
Continuous
370
    -3
390
1D
347
266
  0
LAYER
  5
1D5A
330
2
100
AcDbSymbolTableRecord
100
AcDbLayerTableRecord
  2
template
 70
     0
 62
     7
  6
Continuous
370
    20
390
1D
347
266
  0
LAYER
  5
1D5C
330
2
100
AcDbSymbolTableRecord
100
AcDbLayerTableRecord
  2
レイヤー 1
 70
     0
 62
     7
  6
Continuous
370
    20
390
1D
347
266
  0
LAYER
  5
3503
330
2
100
AcDbSymbolTableRecord
100
AcDbLayerTableRecord
  2
PRINT
 70
     0
 62
     4
  6
Continuous
290
     0
370
    -3
390
1D
347
266
1001
AcAecLayerStandard
1000

1000

  0
LAYER
  5
352F
330
2
100
AcDbSymbolTableRecord
100
AcDbLayerTableRecord
  2
モデル
 70
     0
 62
     7
  6
Continuous
370
    20
390
1D
347
266
1001
AcAecLayerStandard
1000

1000

  0
LAYER
  5
35BB
330
2
100
AcDbSymbolTableRecord
100
AcDbLayerTableRecord
  2
Defpoints
 70
     0
 62
     7
  6
Continuous
290
     0
370
    -3
390
1D
347
266
  0
LAYER
  5
35BF
330
2
100
AcDbSymbolTableRecord
100
AcDbLayerTableRecord
  2
寸法
 70
     0
 62
     3
  6
Continuous
370
    13
390
1D
347
266
1001
AcAecLayerStandard
1000

1000

  0
LAYER
  5
4B23
330
2
100
AcDbSymbolTableRecord
100
AcDbLayerTableRecord
  2
テンプレート
 70
     0
 62
     7
  6
Continuous
370
    20
390
1D
347
266
1001
AcAecLayerStandard
1000

1000

  0
LAYER
  5
7807
330
2
100
AcDbSymbolTableRecord
100
AcDbLayerTableRecord
  2
HIDDEN
 70
     0
 62
   252
  6
HIDDEN
370
    20
390
1D
347
266
1001
AcAecLayerStandard
1000

1000

  0
LAYER
  5
783B
330
2
100
AcDbSymbolTableRecord
100
AcDbLayerTableRecord
  2
CENTER
 70
     0
 62
   252
  6
CENTER
370
    20
390
1D
347
266
1001
AcAecLayerStandard
1000

1000

  0
ENDTAB
  0
TABLE
  2
STYLE
  5
3
330
0
100
AcDbSymbolTable
 70
     2
  0
STYLE
  5
17
330
3
100
AcDbSymbolTableRecord
100
AcDbTextStyleTableRecord
  2
Standard
 70
     0
 40
0.0
 41
1.0
 50
0.0
 71
     0
 42
2.5
  3
txt
  4
BIGFONT.SHX
  0
STYLE
  5
39
330
3
100
AcDbSymbolTableRecord
100
AcDbTextStyleTableRecord
  2
ＭＳ ゴシック
 70
     0
 40
0.0
 41
1.0
 50
0.0
 71
     0
 42
2.5
  3
msgothic.ttc
  4
ＭＳ ゴシック
1001
ACAD
1000
ＭＳ ゴシック
1071
        0
  0
ENDTAB
  0
TABLE
  2
VIEW
  5
5
330
0
100
AcDbSymbolTable
 70
     0
  0
ENDTAB
  0
TABLE
  2
UCS
  5
6
330
0
100
AcDbSymbolTable
 70
     0
  0
ENDTAB
  0
TABLE
  2
APPID
  5
8
330
0
100
AcDbSymbolTable
 70
     4
  0
APPID
  5
16
330
8
100
AcDbSymbolTableRecord
100
AcDbRegAppTableRecord
  2
ACAD
 70
     0
  0
APPID
  5
7AC
330
8
100
AcDbSymbolTableRecord
100
AcDbRegAppTableRecord
  2
AcAecLayerStandard
 70
     0
  0
APPID
  5
4E1E
330
8
100
AcDbSymbolTableRecord
100
AcDbRegAppTableRecord
  2
ACAD_MLEADERVER
 70
     0
  0
APPID
  5
8C46
330
8
100
AcDbSymbolTableRecord
100
AcDbRegAppTableRecord
  2
PLOTTRANSPARENCY
 70
     0
  0
ENDTAB
  0
TABLE
  2
DIMSTYLE
  5
9
330
0
100
AcDbSymbolTable
 70
     1
100
AcDbDimStyleTable
  0
DIMSTYLE
105
57
102
{ACAD_REACTORS
330
8B77
330
8B87
330
8BAD
330
8BBC
330
8C4A
330
8C59
102
}
330
9
100
AcDbSymbolTableRecord
100
AcDbDimStyleTableRecord
  2
tfrom線あり
 70
     0
  3
<>
  4
[]
 41
2.0
 42
6.0
 43
8.0
 44
0.0
 73
     0
 74
     0
 77
     1
 78
    11
140
8.0
141
0.0
143
1.0
147
5.0
171
     1
174
     1
178
     0
179
     2
271
     0
272
     1
276
     2
284
    11
285
    11
286
    11
289
     0
340
39
341
4E
342
4E
  0
ENDTAB
  0
TABLE
  2
BLOCK_RECORD
  5
1
330
0
100
AcDbSymbolTable
 70
    14
  0
BLOCK_RECORD
  5
A
330
1
100
AcDbSymbolTableRecord
100
AcDbBlockTableRecord
  2
*MODEL_SPACE
340
20
 70
     0
280
     1
281
     0
  0
BLOCK_RECORD
  5
B
330
1
100
AcDbSymbolTableRecord
100
AcDbBlockTableRecord
  2
*PAPER_SPACE
340
21
 70
     0
280
     1
281
     0
  0
BLOCK_RECORD
  5
4E
330
1
100
AcDbSymbolTableRecord
100
AcDbBlockTableRecord
  2
_DOT
340
0
102
{BLKREFS
331
8B80
331
8B81
331
8B90
331
8B91
331
8BA7
331
8BA8
331
8BB6
331
8BB7
331
8BC5
331
8BC6
331
8C54
331
8C53
331
8C63
331
8C62
102
}
 70
     0
280
     1
281
     0
  0
BLOCK_RECORD
  5
12C3
330
1
100
AcDbSymbolTableRecord
100
AcDbBlockTableRecord
  2
*Paper_Space1
340
12C4
 70
     0
280
     1
281
     0
  0
BLOCK_RECORD
  5
1D88
330
1
100
AcDbSymbolTableRecord
100
AcDbBlockTableRecord
  2
名称未設定-1
340
0
102
{BLKREFS
331
5DE4
102
}
 70
     1
280
     1
281
     0
  0
BLOCK_RECORD
  5
1D8B
330
1
100
AcDbSymbolTableRecord
100
AcDbBlockTableRecord
  2
block 2
340
0
102
{BLKREFS
331
1D8A
102
}
 70
     0
280
     1
281
     0
  0
BLOCK_RECORD
  5
1D8E
330
1
100
AcDbSymbolTableRecord
100
AcDbBlockTableRecord
  2
block 3
340
0
102
{BLKREFS
331
1D8D
102
}
 70
     0
280
     1
281
     0
  0
BLOCK_RECORD
  5
1D91
330
1
100
AcDbSymbolTableRecord
100
AcDbBlockTableRecord
  2
block 4
340
0
102
{BLKREFS
331
1D90
102
}
 70
     0
280
     1
281
     0
  0
BLOCK_RECORD
  5
1DA0
330
1
100
AcDbSymbolTableRecord
100
AcDbBlockTableRecord
  2
block 5
340
0
102
{BLKREFS
331
1D9F
102
}
 70
     0
280
     1
281
     0
  0
BLOCK_RECORD
  5
8B7A
330
1
100
AcDbSymbolTableRecord
100
AcDbBlockTableRecord
  2
*D7
340
0
 70
     0
280
     1
281
     0
  0
BLOCK_RECORD
  5
8B8A
330
1
100
AcDbSymbolTableRecord
100
AcDbBlockTableRecord
  2
*D8
340
0
 70
     0
280
     1
281
     0
  0
BLOCK_RECORD
  5
8BA1
330
1
100
AcDbSymbolTableRecord
100
AcDbBlockTableRecord
  2
*D9
340
0
 70
     0
280
     1
281
     0
  0
BLOCK_RECORD
  5
8BB0
330
1
100
AcDbSymbolTableRecord
100
AcDbBlockTableRecord
  2
*D10
340
0
 70
     0
280
     1
281
     0
  0
BLOCK_RECORD
  5
8BBF
330
1
100
AcDbSymbolTableRecord
100
AcDbBlockTableRecord
  2
*D11
340
0
 70
     0
280
     1
281
     0
  0
BLOCK_RECORD
  5
8C4D
330
1
100
AcDbSymbolTableRecord
100
AcDbBlockTableRecord
  2
*D12
340
0
 70
     0
280
     1
281
     0
  0
BLOCK_RECORD
  5
8C5C
330
1
100
AcDbSymbolTableRecord
100
AcDbBlockTableRecord
  2
*D13
340
0
 70
     0
280
     1
281
     0
  0
ENDTAB
  0
ENDSEC
  0
SECTION
  2
BLOCKS
  0
BLOCK
  5
D
330
A
100
AcDbEntity
  8
0
390
1D
100
AcDbBlockBegin
  2
*MODEL_SPACE
 70
     0
 10
0.0
 20
0.0
 30
0.0
  3
*MODEL_SPACE
  1
*MODEL_SPACE
  0
ENDBLK
  5
E
330
A
100
AcDbEntity
  8
0
390
1D
100
AcDbBlockEnd
  0
BLOCK
  5
F
330
B
100
AcDbEntity
 67
     1
  8
0
390
1D
100
AcDbBlockBegin
  2
*PAPER_SPACE
 70
     0
 10
0.0
 20
0.0
 30
0.0
  3
*PAPER_SPACE
  1
*PAPER_SPACE
  0
ENDBLK
  5
10
330
B
100
AcDbEntity
 67
     1
  8
0
390
1D
100
AcDbBlockEnd
  0
BLOCK
  5
7EEC
330
4E
100
AcDbEntity
  8
0
390
1D
100
AcDbBlockBegin
  2
_DOT
 70
     0
 10
0.0
 20
0.0
 30
0.0
  3
_DOT
  1
_DOT
  0
POLYLINE
  5
7EEE
330
4E
100
AcDbEntity
  8
0
  6
ByBlock
 62
     0
370
    -2
390
1D
100
AcDb2dPolyline
 66
     1
 10
0.0
 20
0.0
 30
0.0
 70
     1
 40
0.5
 41
0.5
  0
VERTEX
  5
7EEF
330
7EEE
100
AcDbEntity
  8
0
  6
ByBlock
 62
     0
370
    -2
390
1D
100
AcDbVertex
100
AcDb2dVertex
 10
-0.25
 20
0.0
 30
0.0
 42
1.0
  0
VERTEX
  5
7EF0
330
7EEE
100
AcDbEntity
  8
0
  6
ByBlock
 62
     0
370
    -2
390
1D
100
AcDbVertex
100
AcDb2dVertex
 10
0.25
 20
0.0
 30
0.0
 42
1.0
  0
SEQEND
  5
7EF1
330
7EEE
100
AcDbEntity
  8
0
390
1D
  0
LINE
  5
7EF2
330
4E
100
AcDbEntity
  8
0
  6
ByBlock
 62
     0
370
    -2
390
1D
100
AcDbLine
 10
-0.5
 20
0.0
 30
0.0
 11
-1.0
 21
0.0
 31
0.0
  0
ENDBLK
  5
7EF3
330
4E
100
AcDbEntity
  8
0
390
1D
100
AcDbBlockEnd
  0
BLOCK
  5
12C5
330
12C3
100
AcDbEntity
  8
0
100
AcDbBlockBegin
  2
*Paper_Space1
 70
     0
 10
0.0
 20
0.0
 30
0.0
  3
*Paper_Space1
  1
*Paper_Space83
  0
ENDBLK
  5
12C6
330
12C3
100
AcDbEntity
  8
0
100
AcDbBlockEnd
  0
BLOCK
  5
1D89
330
1D88
100
AcDbEntity
  8
0
100
AcDbBlockBegin
  2
名称未設定-1
 70
     0
 10
0.0
 20
0.0
 30
0.0
  3
名称未設定-1
  1
名称未設定-1
  0
INSERT
  5
1D8A
330
1D88
100
AcDbEntity
  8
レイヤー 1
100
AcDbBlockReference
  2
block 2
 10
0.0
 20
0.0
 30
0.0
  0
ENDBLK
  5
1DAF
330
1D88
100
AcDbEntity
  8
0
100
AcDbBlockEnd
  0
BLOCK
  5
1D8C
330
1D8B
100
AcDbEntity
  8
0
100
AcDbBlockBegin
  2
block 2
 70
     0
 10
0.0
 20
0.0
 30
0.0
  3
block 2
  1
block 2
  0
INSERT
  5
1D8D
330
1D8B
100
AcDbEntity
  8
レイヤー 1
100
AcDbBlockReference
  2
block 3
 10
0.0
 20
0.0
 30
0.0
  0
ENDBLK
  5
1DAE
330
1D8B
100
AcDbEntity
  8
0
100
AcDbBlockEnd
  0
BLOCK
  5
1D8F
330
1D8E
100
AcDbEntity
  8
0
100
AcDbBlockBegin
  2
block 3
 70
     0
 10
0.0
 20
0.0
 30
0.0
  3
block 3
  1
block 3
  0
INSERT
  5
1D90
330
1D8E
100
AcDbEntity
  8
レイヤー 1
100
AcDbBlockReference
  2
block 4
 10
0.0
 20
0.0
 30
0.0
  0
ENDBLK
  5
1DAD
330
1D8E
100
AcDbEntity
  8
0
100
AcDbBlockEnd
  0
BLOCK
  5
1D92
330
1D91
100
AcDbEntity
  8
0
100
AcDbBlockBegin
  2
block 4
 70
     0
 10
0.0
 20
0.0
 30
0.0
  3
block 4
  1
block 4
  0
POLYLINE
  5
1D93
330
1D91
100
AcDbEntity
  8
レイヤー 1
370
     0
100
AcDb2dPolyline
 66
     1
 10
0.0
 20
0.0
 30
0.0
  0
VERTEX
  5
1D94
330
1D93
100
AcDbEntity
  8
レイヤー 1
370
     0
100
AcDbVertex
100
AcDb2dVertex
 10
83.79545727667795
 20
167.6444858234922
 30
0.0
  0
VERTEX
  5
1D95
330
1D93
100
AcDbEntity
  8
レイヤー 1
370
     0
100
AcDbVertex
100
AcDb2dVertex
 10
83.79545727667795
 20
159.7968976406313
 30
0.0
  0
VERTEX
  5
1D96
330
1D93
100
AcDbEntity
  8
レイヤー 1
370
     0
100
AcDbVertex
100
AcDb2dVertex
 10
71.3631329975216
 20
159.7968976406313
 30
0.0
  0
VERTEX
  5
1D97
330
1D93
100
AcDbEntity
  8
レイヤー 1
370
     0
100
AcDbVertex
100
AcDb2dVertex
 10
71.3631329975216
 20
127.8027915271048
 30
0.0
  0
VERTEX
  5
1D98
330
1D93
100
AcDbEntity
  8
レイヤー 1
370
     0
100
AcDbVertex
100
AcDb2dVertex
 10
60.43011526263018
 20
127.8027915271048
 30
0.0
  0
VERTEX
  5
1D99
330
1D93
100
AcDbEntity
  8
レイヤー 1
370
     0
100
AcDbVertex
100
AcDb2dVertex
 10
60.43011526263018
 20
159.7968976406313
 30
0.0
  0
VERTEX
  5
1D9A
330
1D93
100
AcDbEntity
  8
レイヤー 1
370
     0
100
AcDbVertex
100
AcDb2dVertex
 10
48.21793273020759
 20
159.7968976406313
 30
0.0
  0
VERTEX
  5
1D9B
330
1D93
100
AcDbEntity
  8
レイヤー 1
370
     0
100
AcDbVertex
100
AcDb2dVertex
 10
48.21793273020759
 20
167.6444858234922
 30
0.0
  0
VERTEX
  5
1D9C
330
1D93
100
AcDbEntity
  8
レイヤー 1
370
     0
100
AcDbVertex
100
AcDb2dVertex
 10
83.79545727667795
 20
167.6444858234922
 30
0.0
  0
SEQEND
  5
1D9D
330
1D93
100
AcDbEntity
  8
レイヤー 1
370
     0
  0
HATCH
  5
1D9E
330
1D91
100
AcDbEntity
  8
レイヤー 1
 62
    18
420
        0
100
AcDbHatch
 10
0.0
 20
0.0
 30
0.0
210
0.0
220
0.0
230
1.0
  2
SOLID
 70
     1
 71
     0
 91
        1
 92
        1
 93
        8
 72
     1
 10
83.79545727667755
 20
167.6444858234922
 11
83.79545727667755
 21
159.7968976406313
 72
     1
 10
83.79545727667755
 20
159.7968976406313
 11
71.3631329975212
 21
159.7968976406313
 72
     1
 10
71.363132997521
 20
159.7968976406313
 11
71.363132997521
 21
127.8027915271048
 72
     1
 10
71.363132997521
 20
127.8027915271048
 11
60.43011526262958
 21
127.8027915271048
 72
     1
 10
60.4301152626299
 20
127.8027915271048
 11
60.4301152626299
 21
159.7968976406313
 72
     1
 10
60.4301152626299
 20
159.7968976406313
 11
48.21793273020731
 21
159.7968976406313
 72
     1
 10
48.21793273020694
 20
159.7968976406313
 11
48.21793273020694
 21
167.6444858234922
 72
     1
 10
48.21793273020694
 20
167.6444858234922
 11
83.7954572766773
 21
167.6444858234922
 97
        0
 75
     2
 76
     1
 98
        0
  0
INSERT
  5
1D9F
330
1D91
100
AcDbEntity
  8
レイヤー 1
100
AcDbBlockReference
  2
block 5
 10
-0.0000000000004547
 20
-0.0000000000000071
 30
0.0
  0
ENDBLK
  5
1DAC
330
1D91
100
AcDbEntity
  8
0
100
AcDbBlockEnd
  0
BLOCK
  5
1DA1
330
1DA0
100
AcDbEntity
  8
0
100
AcDbBlockBegin
  2
block 5
 70
     0
 10
0.0
 20
0.0
 30
0.0
  3
block 5
  1
block 5
  0
SPLINE
  5
1DA2
330
1DA0
100
AcDbEntity
  8
レイヤー 1
 62
    18
420
        0
370
     0
100
AcDbSpline
210
0.0
220
0.0
230
1.0
 70
    11
 71
     3
 72
    56
 73
    52
 74
     0
 42
0.000000001
 43
0.0000000001
 40
0.0
 40
0.0
 40
0.0
 40
0.0
 40
1.0
 40
1.0
 40
1.0
 40
2.0
 40
2.0
 40
2.0
 40
3.0
 40
3.0
 40
3.0
 40
4.0
 40
4.0
 40
4.0
 40
5.0
 40
5.0
 40
5.0
 40
6.0
 40
6.0
 40
6.0
 40
7.0
 40
7.0
 40
7.0
 40
8.0
 40
8.0
 40
8.0
 40
9.0
 40
9.0
 40
9.0
 40
10.0
 40
10.0
 40
10.0
 40
11.0
 40
11.0
 40
11.0
 40
12.0
 40
12.0
 40
12.0
 40
13.0
 40
13.0
 40
13.0
 40
14.0
 40
14.0
 40
14.0
 40
15.0
 40
15.0
 40
15.0
 40
16.0
 40
16.0
 40
16.0
 40
17.0
 40
17.0
 40
17.0
 40
17.0
 10
100.4504378777674
 20
166.69157178364
 30
0.0
 10
101.9848844191633
 20
167.1313385124438
 30
0.0
 10
103.9637485713365
 20
166.7649523658846
 30
0.0
 10
103.9637485713365
 20
166.7649523658846
 30
0.0
 10
103.9637485713365
 20
166.7649523658846
 30
0.0
 10
103.0132460999152
 20
163.911205638077
 30
0.0
 10
103.0132460999152
 20
163.911205638077
 30
0.0
 10
103.0132460999152
 20
163.911205638077
 30
0.0
 10
101.0674548862185
 20
164.3601018759394
 30
0.0
 10
99.57090442015988
 20
163.1805004036133
 30
0.0
 10
98.40508333886555
 20
162.258247733807
 30
0.0
 10
97.65301849830257
 20
159.804132345923
 30
0.0
 10
97.35984067909976
 20
158.8699940888517
 30
0.0
 10
97.35984067909976
 20
158.8699940888517
 30
0.0
 10
96.07137411762233
 20
154.9119212747295
 30
0.0
 10
96.07137411762233
 20
154.9119212747295
 30
0.0
 10
96.07137411762233
 20
154.9119212747295
 30
0.0
 10
100.3012651448475
 20
154.9119212747295
 30
0.0
 10
100.3012651448475
 20
154.9119212747295
 30
0.0
 10
100.3012651448475
 20
154.9119212747295
 30
0.0
 10
99.64152892419816
 20
152.4199098115079
 30
0.0
 10
99.64152892419816
 20
152.4199098115079
 30
0.0
 10
99.64152892419816
 20
152.4199098115079
 30
0.0
 10
95.38097652692659
 20
152.4199098115079
 30
0.0
 10
95.38097652692659
 20
152.4199098115079
 30
0.0
 10
95.38097652692659
 20
152.4199098115079
 30
0.0
 10
87.75353009079981
 20
127.8027915271048
 30
0.0
 10
87.75353009079981
 20
127.8027915271048
 30
0.0
 10
87.75353009079981
 20
127.8027915271048
 30
0.0
 10
85.36538832498036
 20
127.8027915271048
 30
0.0
 10
85.36538832498036
 20
127.8027915271048
 30
0.0
 10
85.36538832498036
 20
127.8027915271048
 30
0.0
 10
93.00006946639951
 20
152.4199098115079
 30
0.0
 10
93.00006946639951
 20
152.4199098115079
 30
0.0
 10
93.00006946639951
 20
152.4199098115079
 30
0.0
 10
89.85297266450152
 20
152.4199098115079
 30
0.0
 10
89.85297266450152
 20
152.4199098115079
 30
0.0
 10
89.85297266450152
 20
152.4199098115079
 30
0.0
 10
90.51270888515091
 20
154.9119212747295
 30
0.0
 10
90.51270888515091
 20
154.9119212747295
 30
0.0
 10
90.51270888515091
 20
154.9119212747295
 30
0.0
 10
93.69046705709525
 20
154.9119212747295
 30
0.0
 10
93.69046705709525
 20
154.9119212747295
 30
0.0
 10
93.69046705709525
 20
154.9119212747295
 30
0.0
 10
94.81598049462082
 20
158.3616699146644
 30
0.0
 10
94.81598049462082
 20
158.3616699146644
 30
0.0
 10
95.72376375384374
 20
161.2605474231013
 30
0.0
 10
96.49684369073066
 20
162.8139420021662
 30
0.0
 10
97.1565799113805
 20
163.9844139654337
 30
0.0
 10
97.81183750494438
 20
165.1523021053827
 30
0.0
 10
99.10478269350733
 20
166.3084769129547
 30
0.0
 10
100.4504378777674
 20
166.69157178364
 30
0.0
  0
HATCH
  5
1DA3
330
1DA0
100
AcDbEntity
  8
レイヤー 1
 62
    18
420
        0
100
AcDbHatch
 10
0.0
 20
0.0
 30
0.0
210
0.0
220
0.0
230
1.0
  2
SOLID
 70
     1
 71
     0
 91
        1
 92
        1
 93
        1
 72
     4
 94
        3
 73
     0
 74
     1
 95
       56
 96
       52
 40
0.0
 40
0.0
 40
0.0
 40
0.0
 40
1.0
 40
1.0
 40
1.0
 40
2.0
 40
2.0
 40
2.0
 40
3.0
 40
3.0
 40
3.0
 40
4.0
 40
4.0
 40
4.0
 40
5.0
 40
5.0
 40
5.0
 40
6.0
 40
6.0
 40
6.0
 40
7.0
 40
7.0
 40
7.0
 40
8.0
 40
8.0
 40
8.0
 40
9.0
 40
9.0
 40
9.0
 40
10.0
 40
10.0
 40
10.0
 40
11.0
 40
11.0
 40
11.0
 40
12.0
 40
12.0
 40
12.0
 40
13.0
 40
13.0
 40
13.0
 40
14.0
 40
14.0
 40
14.0
 40
15.0
 40
15.0
 40
15.0
 40
16.0
 40
16.0
 40
16.0
 40
17.0
 40
17.0
 40
17.0
 40
17.0
 10
100.4504378777674
 20
166.69157178364
 10
101.9848844191633
 20
167.1313385124438
 10
103.9637485713365
 20
166.7649523658846
 10
103.9637485713365
 20
166.7649523658846
 10
103.9637485713365
 20
166.7649523658846
 10
103.0132460999152
 20
163.911205638077
 10
103.0132460999152
 20
163.911205638077
 10
103.0132460999152
 20
163.911205638077
 10
101.0674548862185
 20
164.3601018759394
 10
99.57090442015988
 20
163.1805004036133
 10
98.40508333886555
 20
162.258247733807
 10
97.65301849830257
 20
159.804132345923
 10
97.35984067909976
 20
158.8699940888517
 10
97.35984067909976
 20
158.8699940888517
 10
96.07137411762233
 20
154.9119212747295
 10
96.07137411762233
 20
154.9119212747295
 10
96.07137411762233
 20
154.9119212747295
 10
100.3012651448475
 20
154.9119212747295
 10
100.3012651448475
 20
154.9119212747295
 10
100.3012651448475
 20
154.9119212747295
 10
99.64152892419816
 20
152.4199098115079
 10
99.64152892419816
 20
152.4199098115079
 10
99.64152892419816
 20
152.4199098115079
 10
95.38097652692659
 20
152.4199098115079
 10
95.38097652692659
 20
152.4199098115079
 10
95.38097652692659
 20
152.4199098115079
 10
87.75353009079981
 20
127.8027915271048
 10
87.75353009079981
 20
127.8027915271048
 10
87.75353009079981
 20
127.8027915271048
 10
85.36538832498036
 20
127.8027915271048
 10
85.36538832498036
 20
127.8027915271048
 10
85.36538832498036
 20
127.8027915271048
 10
93.00006946639951
 20
152.4199098115079
 10
93.00006946639951
 20
152.4199098115079
 10
93.00006946639951
 20
152.4199098115079
 10
89.85297266450152
 20
152.4199098115079
 10
89.85297266450152
 20
152.4199098115079
 10
89.85297266450152
 20
152.4199098115079
 10
90.51270888515091
 20
154.9119212747295
 10
90.51270888515091
 20
154.9119212747295
 10
90.51270888515091
 20
154.9119212747295
 10
93.69046705709525
 20
154.9119212747295
 10
93.69046705709525
 20
154.9119212747295
 10
93.69046705709525
 20
154.9119212747295
 10
94.81598049462082
 20
158.3616699146644
 10
94.81598049462082
 20
158.3616699146644
 10
95.72376375384374
 20
161.2605474231013
 10
96.49684369073066
 20
162.8139420021662
 10
97.1565799113805
 20
163.9844139654337
 10
97.81183750494438
 20
165.1523021053827
 10
99.10478269350733
 20
166.3084769129547
 10
100.4504378777674
 20
166.69157178364
 97
        0
 75
     2
 76
     1
 98
        0
  0
SPLINE
  5
1DA4
330
1DA0
100
AcDbEntity
  8
レイヤー 1
370
     0
100
AcDbSpline
210
0.0
220
0.0
230
1.0
 70
    11
 71
     3
 72
    38
 73
    34
 74
     0
 42
0.000000001
 43
0.0000000001
 40
0.0
 40
0.0
 40
0.0
 40
0.0
 40
1.0
 40
1.0
 40
1.0
 40
2.0
 40
2.0
 40
2.0
 40
3.0
 40
3.0
 40
3.0
 40
4.0
 40
4.0
 40
4.0
 40
5.0
 40
5.0
 40
5.0
 40
6.0
 40
6.0
 40
6.0
 40
7.0
 40
7.0
 40
7.0
 40
8.0
 40
8.0
 40
8.0
 40
9.0
 40
9.0
 40
9.0
 40
10.0
 40
10.0
 40
10.0
 40
11.0
 40
11.0
 40
11.0
 40
11.0
 10
126.377554584636
 20
154.8151140277308
 30
0.0
 10
126.377554584636
 20
154.8151140277308
 30
0.0
 10
128.8311532078563
 20
154.8151140277308
 30
0.0
 10
128.8311532078563
 20
154.8151140277308
 30
0.0
 10
128.8311532078563
 20
154.8151140277308
 30
0.0
 10
127.7345785914971
 20
151.3062819612468
 30
0.0
 10
127.7345785914971
 20
151.3062819612468
 30
0.0
 10
128.571392836906
 20
152.2922689395754
 30
0.0
 10
129.8860421413442
 20
153.604506675583
 30
0.0
 10
131.0163787157314
 20
154.2664822097754
 30
0.0
 10
132.7044766171327
 20
155.2500576196734
 30
0.0
 10
133.6642808525008
 20
155.3847609420097
 30
0.0
 10
134.7284715499351
 20
155.3565111403944
 30
0.0
 10
134.7284715499351
 20
155.3565111403944
 30
0.0
 10
133.6877075172549
 20
152.0345756272799
 30
0.0
 10
133.6877075172549
 20
152.0345756272799
 30
0.0
 10
133.011434827367
 20
152.3184516825359
 30
0.0
 10
130.930940291334
 20
151.7768823149844
 30
0.0
 10
129.739280976855
 20
150.9162968950455
 30
0.0
 10
128.66613302525
 20
150.1454562717016
 30
0.0
 10
127.9192358313239
 20
149.4857200510519
 30
0.0
 10
127.0393578639405
 20
147.8282835196966
 30
0.0
 10
126.164647543194
 20
146.1699857139017
 30
0.0
 10
125.4742499524985
 20
143.5262176944419
 30
0.0
 10
124.2822461282437
 20
139.6959580071401
 30
0.0
 10
124.2822461282437
 20
139.6959580071401
 30
0.0
 10
120.5753209406769
 20
127.8027915271048
 30
0.0
 10
120.5753209406769
 20
127.8027915271048
 30
0.0
 10
120.5753209406769
 20
127.8027915271048
 30
0.0
 10
118.1964809388044
 20
127.8027915271048
 30
0.0
 10
118.1964809388044
 20
127.8027915271048
 30
0.0
 10
118.1964809388044
 20
127.8027915271048
 30
0.0
 10
126.377554584636
 20
154.8151140277308
 30
0.0
 10
126.377554584636
 20
154.8151140277308
 30
0.0
  0
HATCH
  5
1DA5
330
1DA0
100
AcDbEntity
  8
レイヤー 1
 62
    18
420
        0
100
AcDbHatch
 10
0.0
 20
0.0
 30
0.0
210
0.0
220
0.0
230
1.0
  2
SOLID
 70
     1
 71
     0
 91
        1
 92
        1
 93
        1
 72
     4
 94
        3
 73
     0
 74
     1
 95
       38
 96
       34
 40
0.0
 40
0.0
 40
0.0
 40
0.0
 40
1.0
 40
1.0
 40
1.0
 40
2.0
 40
2.0
 40
2.0
 40
3.0
 40
3.0
 40
3.0
 40
4.0
 40
4.0
 40
4.0
 40
5.0
 40
5.0
 40
5.0
 40
6.0
 40
6.0
 40
6.0
 40
7.0
 40
7.0
 40
7.0
 40
8.0
 40
8.0
 40
8.0
 40
9.0
 40
9.0
 40
9.0
 40
10.0
 40
10.0
 40
10.0
 40
11.0
 40
11.0
 40
11.0
 40
11.0
 10
126.3775545846356
 20
154.8151140277308
 10
126.3775545846356
 20
154.8151140277308
 10
128.8311532078556
 20
154.8151140277308
 10
128.8311532078556
 20
154.8151140277308
 10
128.8311532078556
 20
154.8151140277308
 10
127.7345785914968
 20
151.3062819612468
 10
127.7345785914968
 20
151.3062819612468
 10
128.5713928369055
 20
152.2922689395754
 10
129.8860421413438
 20
153.604506675583
 10
131.0163787157308
 20
154.2664822097754
 10
132.7044766171321
 20
155.2500576196734
 10
133.6642808525003
 20
155.3847609420097
 10
134.7284715499345
 20
155.3565111403944
 10
134.7284715499345
 20
155.3565111403944
 10
133.6877075172542
 20
152.0345756272799
 10
133.6877075172542
 20
152.0345756272799
 10
133.0114348273664
 20
152.3184516825359
 10
130.9309402913336
 20
151.7768823149844
 10
129.7392809768544
 20
150.9162968950455
 10
128.6661330252496
 20
150.1454562717016
 10
127.9192358313235
 20
149.4857200510519
 10
127.03935786394
 20
147.8282835196966
 10
126.1646475431935
 20
146.1699857139017
 10
125.4742499524982
 20
143.5262176944419
 10
124.2822461282431
 20
139.6959580071401
 10
124.2822461282431
 20
139.6959580071401
 10
120.5753209406762
 20
127.8027915271048
 10
120.5753209406762
 20
127.8027915271048
 10
120.5753209406762
 20
127.8027915271048
 10
118.1964809388037
 20
127.8027915271048
 10
118.1964809388037
 20
127.8027915271048
 10
118.1964809388037
 20
127.8027915271048
 10
126.3775545846356
 20
154.8151140277308
 10
126.3775545846356
 20
154.8151140277308
 97
        0
 75
     2
 76
     1
 98
        0
  0
SPLINE
  5
1DA6
330
1DA0
100
AcDbEntity
  8
レイヤー 1
 62
    18
420
        0
370
     0
100
AcDbSpline
210
0.0
220
0.0
230
1.0
 70
    11
 71
     3
 72
   104
 73
   100
 74
     0
 42
0.000000001
 43
0.0000000001
 40
0.0
 40
0.0
 40
0.0
 40
0.0
 40
1.0
 40
1.0
 40
1.0
 40
2.0
 40
2.0
 40
2.0
 40
3.0
 40
3.0
 40
3.0
 40
4.0
 40
4.0
 40
4.0
 40
5.0
 40
5.0
 40
5.0
 40
6.0
 40
6.0
 40
6.0
 40
7.0
 40
7.0
 40
7.0
 40
8.0
 40
8.0
 40
8.0
 40
9.0
 40
9.0
 40
9.0
 40
10.0
 40
10.0
 40
10.0
 40
11.0
 40
11.0
 40
11.0
 40
12.0
 40
12.0
 40
12.0
 40
13.0
 40
13.0
 40
13.0
 40
14.0
 40
14.0
 40
14.0
 40
15.0
 40
15.0
 40
15.0
 40
16.0
 40
16.0
 40
16.0
 40
17.0
 40
17.0
 40
17.0
 40
18.0
 40
18.0
 40
18.0
 40
19.0
 40
19.0
 40
19.0
 40
20.0
 40
20.0
 40
20.0
 40
21.0
 40
21.0
 40
21.0
 40
22.0
 40
22.0
 40
22.0
 40
23.0
 40
23.0
 40
23.0
 40
24.0
 40
24.0
 40
24.0
 40
25.0
 40
25.0
 40
25.0
 40
26.0
 40
26.0
 40
26.0
 40
27.0
 40
27.0
 40
27.0
 40
28.0
 40
28.0
 40
28.0
 40
29.0
 40
29.0
 40
29.0
 40
30.0
 40
30.0
 40
30.0
 40
31.0
 40
31.0
 40
31.0
 40
32.0
 40
32.0
 40
32.0
 40
33.0
 40
33.0
 40
33.0
 40
33.0
 10
139.8926730891194
 20
154.8294111834263
 30
0.0
 10
139.8926730891194
 20
154.8294111834263
 30
0.0
 10
142.034490365244
 20
154.8294111834263
 30
0.0
 10
142.034490365244
 20
154.8294111834263
 30
0.0
 10
142.034490365244
 20
154.8294111834263
 30
0.0
 10
140.9516961399167
 20
151.3157559800812
 30
0.0
 10
140.9516961399167
 20
151.3157559800812
 30
0.0
 10
141.8928968473915
 20
152.7887075264977
 30
0.0
 10
142.7341897198858
 20
153.4484437471474
 30
0.0
 10
143.8552245303267
 20
154.2926649527359
 30
0.0
 10
144.9803934580768
 20
155.1296514530327
 30
0.0
 10
146.313990800184
 20
155.3044901642492
 30
0.0
 10
147.2410666068513
 20
155.3044901642492
 30
0.0
 10
148.3855280820467
 20
155.3044901642492
 30
0.0
 10
149.4969166187648
 20
155.0752189084569
 30
0.0
 10
150.0784491203085
 20
153.8172414621372
 30
0.0
 10
150.5228667310857
 20
152.833838307127
 30
0.0
 10
150.5414702589787
 20
152.7201500811143
 30
0.0
 10
150.4140016419342
 20
150.7765981809602
 30
0.0
 10
151.5818897818831
 20
152.7699317437168
 30
0.0
 10
152.4424752018222
 20
153.6256940267945
 30
0.0
 10
153.9038856707493
 20
154.4507949398263
 30
0.0
 10
155.4455669174372
 20
155.3044901642492
 30
0.0
 10
156.3392252758526
 20
155.3659851592288
 30
0.0
 10
157.374821661896
 20
155.2147453676543
 30
0.0
 10
158.9116797717224
 20
154.9877134254046
 30
0.0
 10
159.885953417674
 20
154.4390816074493
 30
0.0
 10
160.396516905404
 20
152.7816450760939
 30
0.0
 10
160.907080393134
 20
151.1219692311958
 30
0.0
 10
160.6328506116001
 20
150.2303779314354
 30
0.0
 10
159.9992971339111
 20
147.597634224801
 30
0.0
 10
159.7105979417938
 20
146.4014962832367
 30
0.0
 10
159.2947746424079
 20
144.9400858143094
 30
0.0
 10
158.7463150793405
 20
143.2092687007094
 30
0.0
 10
158.7463150793405
 20
143.2092687007094
 30
0.0
 10
153.9038856707493
 20
127.8027915271048
 30
0.0
 10
153.9038856707493
 20
127.8027915271048
 30
0.0
 10
153.9038856707493
 20
127.8027915271048
 30
0.0
 10
151.3882752878858
 20
127.8027915271048
 30
0.0
 10
151.3882752878858
 20
127.8027915271048
 30
0.0
 10
151.3882752878858
 20
127.8027915271048
 30
0.0
 10
155.625056510627
 20
141.2751908193897
 30
0.0
 10
155.625056510627
 20
141.2751908193897
 30
0.0
 10
156.509413105096
 20
144.0936252951782
 30
0.0
 10
157.1098936443086
 20
146.1506931664571
 30
0.0
 10
157.4220195011799
 20
147.4415712963654
 30
0.0
 10
157.8095929989504
 20
149.0530157726519
 30
0.0
 10
157.9656559273863
 20
149.5826995529385
 30
0.0
 10
157.7816877071109
 20
150.7529992613181
 30
0.0
 10
157.6111553680921
 20
151.8430281919372
 30
0.0
 10
157.0582171779392
 20
152.5547853887321
 30
0.0
 10
156.117016470464
 20
152.5547853887321
 30
0.0
 10
155.109669886036
 20
152.5547853887321
 30
0.0
 10
154.2962823053813
 20
152.4412694176073
 30
0.0
 10
153.1566439670473
 20
151.2945686288697
 30
0.0
 10
152.0170056287138
 20
150.1476955852443
 30
0.0
 10
151.0761494310145
 20
148.7930831468137
 30
0.0
 10
150.3337308641735
 20
147.2290087646991
 30
0.0
 10
149.5957909244185
 20
145.6683794803425
 30
0.0
 10
148.8530278478015
 20
143.6822806228776
 30
0.0
 10
148.0964843801535
 20
141.2751908193897
 30
0.0
 10
148.0964843801535
 20
141.2751908193897
 30
0.0
 10
143.8552245303267
 20
127.8027915271048
 30
0.0
 10
143.8552245303267
 20
127.8027915271048
 30
0.0
 10
143.8552245303267
 20
127.8027915271048
 30
0.0
 10
141.4860308021766
 20
127.8027915271048
 30
0.0
 10
141.4860308021766
 20
127.8027915271048
 30
0.0
 10
141.4860308021766
 20
127.8027915271048
 30
0.0
 10
146.3329388378529
 20
143.2092687007094
 30
0.0
 10
146.3329388378529
 20
143.2092687007094
 30
0.0
 10
146.8483254624439
 20
144.8408669988801
 30
0.0
 10
147.2314203331293
 20
146.1837661049335
 30
0.0
 10
147.4867020769943
 20
147.224185627838
 30
0.0
 10
147.9169947869636
 20
149.0197705792876
 30
0.0
 10
148.0306830129762
 20
150.2400242051577
 30
0.0
 10
147.7092553921584
 20
151.3157559800812
 30
0.0
 10
147.3874832615647
 20
152.3916600098926
 30
0.0
 10
146.824554287914
 20
152.6683013598569
 30
0.0
 10
145.8840425999902
 20
152.6683013598569
 30
0.0
 10
145.0989048209508
 20
152.6683013598569
 30
0.0
 10
144.3282364524948
 20
152.3275811915945
 30
0.0
 10
143.4531816219724
 20
151.6538923250251
 30
0.0
 10
142.3462717123393
 20
150.8074318058939
 30
0.0
 10
141.9018541015625
 20
150.1097995099067
 30
0.0
 10
141.3578731655803
 20
149.289521733736
 30
0.0
 10
140.6299240093231
 20
148.192602607601
 30
0.0
 10
140.2850697237509
 20
147.455696197173
 30
0.0
 10
139.6652966370934
 20
145.8385673095858
 30
0.0
 10
139.0506911970733
 20
144.2214384219986
 30
0.0
 10
138.4639910488927
 20
142.3252566160164
 30
0.0
 10
138.0571250036769
 20
141.0154304484394
 30
0.0
 10
138.0571250036769
 20
141.0154304484394
 30
0.0
 10
133.9009590684723
 20
127.8027915271048
 30
0.0
 10
133.9009590684723
 20
127.8027915271048
 30
0.0
 10
133.9009590684723
 20
127.8027915271048
 30
0.0
 10
131.4180771143092
 20
127.8027915271048
 30
0.0
 10
131.4180771143092
 20
127.8027915271048
 30
0.0
 10
131.4180771143092
 20
127.8027915271048
 30
0.0
 10
139.8926730891194
 20
154.8294111834263
 30
0.0
 10
139.8926730891194
 20
154.8294111834263
 30
0.0
  0
HATCH
  5
1DA7
330
1DA0
100
AcDbEntity
  8
レイヤー 1
 62
    18
420
        0
100
AcDbHatch
 10
0.0
 20
0.0
 30
0.0
210
0.0
220
0.0
230
1.0
  2
SOLID
 70
     1
 71
     0
 91
        1
 92
        1
 93
        1
 72
     4
 94
        3
 73
     0
 74
     1
 95
      104
 96
      100
 40
0.0
 40
0.0
 40
0.0
 40
0.0
 40
1.0
 40
1.0
 40
1.0
 40
2.0
 40
2.0
 40
2.0
 40
3.0
 40
3.0
 40
3.0
 40
4.0
 40
4.0
 40
4.0
 40
5.0
 40
5.0
 40
5.0
 40
6.0
 40
6.0
 40
6.0
 40
7.0
 40
7.0
 40
7.0
 40
8.0
 40
8.0
 40
8.0
 40
9.0
 40
9.0
 40
9.0
 40
10.0
 40
10.0
 40
10.0
 40
11.0
 40
11.0
 40
11.0
 40
12.0
 40
12.0
 40
12.0
 40
13.0
 40
13.0
 40
13.0
 40
14.0
 40
14.0
 40
14.0
 40
15.0
 40
15.0
 40
15.0
 40
16.0
 40
16.0
 40
16.0
 40
17.0
 40
17.0
 40
17.0
 40
18.0
 40
18.0
 40
18.0
 40
19.0
 40
19.0
 40
19.0
 40
20.0
 40
20.0
 40
20.0
 40
21.0
 40
21.0
 40
21.0
 40
22.0
 40
22.0
 40
22.0
 40
23.0
 40
23.0
 40
23.0
 40
24.0
 40
24.0
 40
24.0
 40
25.0
 40
25.0
 40
25.0
 40
26.0
 40
26.0
 40
26.0
 40
27.0
 40
27.0
 40
27.0
 40
28.0
 40
28.0
 40
28.0
 40
29.0
 40
29.0
 40
29.0
 40
30.0
 40
30.0
 40
30.0
 40
31.0
 40
31.0
 40
31.0
 40
32.0
 40
32.0
 40
32.0
 40
33.0
 40
33.0
 40
33.0
 40
33.0
 10
139.8926730891194
 20
154.8294111834263
 10
139.8926730891194
 20
154.8294111834263
 10
142.034490365244
 20
154.8294111834263
 10
142.034490365244
 20
154.8294111834263
 10
142.034490365244
 20
154.8294111834263
 10
140.9516961399167
 20
151.3157559800812
 10
140.9516961399167
 20
151.3157559800812
 10
141.8928968473915
 20
152.7887075264977
 10
142.7341897198858
 20
153.4484437471474
 10
143.8552245303267
 20
154.2926649527359
 10
144.9803934580768
 20
155.1296514530327
 10
146.313990800184
 20
155.3044901642492
 10
147.2410666068513
 20
155.3044901642492
 10
148.3855280820467
 20
155.3044901642492
 10
149.4969166187648
 20
155.0752189084569
 10
150.0784491203085
 20
153.8172414621372
 10
150.5228667310857
 20
152.833838307127
 10
150.5414702589787
 20
152.7201500811143
 10
150.4140016419342
 20
150.7765981809602
 10
151.5818897818831
 20
152.7699317437168
 10
152.4424752018222
 20
153.6256940267945
 10
153.9038856707493
 20
154.4507949398263
 10
155.4455669174372
 20
155.3044901642492
 10
156.3392252758526
 20
155.3659851592288
 10
157.374821661896
 20
155.2147453676543
 10
158.9116797717224
 20
154.9877134254046
 10
159.885953417674
 20
154.4390816074493
 10
160.396516905404
 20
152.7816450760939
 10
160.907080393134
 20
151.1219692311958
 10
160.6328506116001
 20
150.2303779314354
 10
159.9992971339111
 20
147.597634224801
 10
159.7105979417938
 20
146.4014962832367
 10
159.2947746424079
 20
144.9400858143094
 10
158.7463150793405
 20
143.2092687007094
 10
158.7463150793405
 20
143.2092687007094
 10
153.9038856707493
 20
127.8027915271048
 10
153.9038856707493
 20
127.8027915271048
 10
153.9038856707493
 20
127.8027915271048
 10
151.3882752878858
 20
127.8027915271048
 10
151.3882752878858
 20
127.8027915271048
 10
151.3882752878858
 20
127.8027915271048
 10
155.625056510627
 20
141.2751908193897
 10
155.625056510627
 20
141.2751908193897
 10
156.509413105096
 20
144.0936252951782
 10
157.1098936443086
 20
146.1506931664571
 10
157.4220195011799
 20
147.4415712963654
 10
157.8095929989504
 20
149.0530157726519
 10
157.9656559273863
 20
149.5826995529385
 10
157.7816877071109
 20
150.7529992613181
 10
157.6111553680921
 20
151.8430281919372
 10
157.0582171779392
 20
152.5547853887321
 10
156.117016470464
 20
152.5547853887321
 10
155.109669886036
 20
152.5547853887321
 10
154.2962823053813
 20
152.4412694176073
 10
153.1566439670473
 20
151.2945686288697
 10
152.0170056287138
 20
150.1476955852443
 10
151.0761494310145
 20
148.7930831468137
 10
150.3337308641735
 20
147.2290087646991
 10
149.5957909244185
 20
145.6683794803425
 10
148.8530278478015
 20
143.6822806228776
 10
148.0964843801535
 20
141.2751908193897
 10
148.0964843801535
 20
141.2751908193897
 10
143.8552245303267
 20
127.8027915271048
 10
143.8552245303267
 20
127.8027915271048
 10
143.8552245303267
 20
127.8027915271048
 10
141.4860308021766
 20
127.8027915271048
 10
141.4860308021766
 20
127.8027915271048
 10
141.4860308021766
 20
127.8027915271048
 10
146.3329388378529
 20
143.2092687007094
 10
146.3329388378529
 20
143.2092687007094
 10
146.8483254624439
 20
144.8408669988801
 10
147.2314203331293
 20
146.1837661049335
 10
147.4867020769943
 20
147.224185627838
 10
147.9169947869636
 20
149.0197705792876
 10
148.0306830129762
 20
150.2400242051577
 10
147.7092553921584
 20
151.3157559800812
 10
147.3874832615647
 20
152.3916600098926
 10
146.824554287914
 20
152.6683013598569
 10
145.8840425999902
 20
152.6683013598569
 10
145.0989048209508
 20
152.6683013598569
 10
144.3282364524948
 20
152.3275811915945
 10
143.4531816219724
 20
151.6538923250251
 10
142.3462717123393
 20
150.8074318058939
 10
141.9018541015625
 20
150.1097995099067
 10
141.3578731655803
 20
149.289521733736
 10
140.6299240093231
 20
148.192602607601
 10
140.2850697237509
 20
147.455696197173
 10
139.6652966370934
 20
145.8385673095858
 10
139.0506911970733
 20
144.2214384219986
 10
138.4639910488927
 20
142.3252566160164
 10
138.0571250036769
 20
141.0154304484394
 10
138.0571250036769
 20
141.0154304484394
 10
133.9009590684723
 20
127.8027915271048
 10
133.9009590684723
 20
127.8027915271048
 10
133.9009590684723
 20
127.8027915271048
 10
131.4180771143092
 20
127.8027915271048
 10
131.4180771143092
 20
127.8027915271048
 10
131.4180771143092
 20
127.8027915271048
 10
139.8926730891194
 20
154.8294111834263
 10
139.8926730891194
 20
154.8294111834263
 97
        0
 75
     2
 76
     1
 98
        0
  0
SPLINE
  5
1DA8
330
1DA0
100
AcDbEntity
  8
レイヤー 1
370
     0
100
AcDbSpline
210
0.0
220
0.0
230
1.0
 70
    11
 71
     3
 72
    29
 73
    25
 74
     0
 42
0.000000001
 43
0.0000000001
 40
0.0
 40
0.0
 40
0.0
 40
0.0
 40
1.0
 40
1.0
 40
1.0
 40
2.0
 40
2.0
 40
2.0
 40
3.0
 40
3.0
 40
3.0
 40
4.0
 40
4.0
 40
4.0
 40
5.0
 40
5.0
 40
5.0
 40
6.0
 40
6.0
 40
6.0
 40
7.0
 40
7.0
 40
7.0
 40
8.0
 40
8.0
 40
8.0
 40
8.0
 10
101.6420971922469
 20
132.8388354296931
 30
0.0
 10
101.630039350094
 20
134.7164137077823
 30
0.0
 10
102.2236296937908
 20
138.0598810818841
 30
0.0
 10
103.7487744712405
 20
142.5378191476827
 30
0.0
 10
105.819967243327
 20
148.5896501242061
 30
0.0
 10
107.0602024361932
 20
150.8074318058939
 30
0.0
 10
108.1522984254671
 20
151.8833358357054
 30
0.0
 10
109.741177511439
 20
153.4532668840085
 30
0.0
 10
111.8740375333931
 20
153.5290590346837
 30
0.0
 10
112.5075910110823
 20
153.4532668840085
 30
0.0
 10
113.4012493694975
 20
153.3490526768302
 30
0.0
 10
114.6683563248758
 20
152.7580461564518
 30
0.0
 10
114.7493161221879
 20
150.7838328862519
 30
0.0
 10
114.8106388622796
 20
149.0909118479895
 30
0.0
 10
114.3186789024427
 20
145.9191825971221
 30
0.0
 10
112.6164561002338
 20
140.9489400617108
 30
0.0
 10
110.6444821435766
 20
135.1746117095912
 30
0.0
 10
109.4669477299053
 20
132.8960240524753
 30
0.0
 10
108.5212683953448
 20
131.9072809959403
 30
0.0
 10
106.7346406980658
 20
130.0538184021569
 30
0.0
 10
104.8222669326213
 20
130.2336525051225
 30
0.0
 10
104.5408024457958
 20
130.2336525051225
 30
0.0
 10
104.1721769856939
 20
130.2336525051225
 30
0.0
 10
101.6465758193322
 20
130.6305277668397
 30
0.0
 10
101.6420971922469
 20
132.8388354296931
 30
0.0
  0
SPLINE
  5
1DA9
330
1DA0
100
AcDbEntity
  8
レイヤー 1
370
     0
100
AcDbSpline
210
0.0
220
0.0
230
1.0
 70
    11
 71
     3
 72
    32
 73
    28
 74
     0
 42
0.000000001
 43
0.0000000001
 40
0.0
 40
0.0
 40
0.0
 40
0.0
 40
1.0
 40
1.0
 40
1.0
 40
2.0
 40
2.0
 40
2.0
 40
3.0
 40
3.0
 40
3.0
 40
4.0
 40
4.0
 40
4.0
 40
5.0
 40
5.0
 40
5.0
 40
6.0
 40
6.0
 40
6.0
 40
7.0
 40
7.0
 40
7.0
 40
8.0
 40
8.0
 40
8.0
 40
9.0
 40
9.0
 40
9.0
 40
9.0
 10
106.2595617172429
 20
153.4105476718098
 30
0.0
 10
104.8222669326213
 20
151.5474388043041
 30
0.0
 10
103.7177685914188
 20
149.8758773721411
 30
0.0
 10
101.9232171692965
 20
144.6141795664062
 30
0.0
 10
100.2754269116635
 20
139.7999999594306
 30
0.0
 10
99.22777268346732
 20
136.3052927937542
 30
0.0
 10
99.06964269637689
 20
132.039572749846
 30
0.0
 10
98.94665270641765
 20
128.8673267343149
 30
0.0
 10
100.8807305877373
 20
127.8027915271048
 30
0.0
 10
103.7129454545577
 20
127.8027915271048
 30
0.0
 10
104.9352661390825
 20
127.8027915271048
 30
0.0
 10
108.0151835347002
 20
127.8827177950895
 30
0.0
 10
110.2045431598849
 20
130.5926316915021
 30
0.0
 10
111.7417457794874
 20
132.4984597712065
 30
0.0
 10
113.155269389579
 20
134.475256864725
 30
0.0
 10
115.0562743324223
 20
140.9489400617108
 30
0.0
 10
116.6361961642235
 20
146.3680788349845
 30
0.0
 10
117.7282921534974
 20
149.8639917848761
 30
0.0
 10
117.6480213757369
 20
151.8595646611754
 30
0.0
 10
117.6480213757369
 20
151.8595646611754
 30
0.0
 10
117.6480213757369
 20
151.8595646611754
 30
0.0
 10
117.6480213757369
 20
151.8595646611754
 30
0.0
 10
117.13229024137
 20
155.18150017429
 30
0.0
 10
114.7162431837115
 20
155.886194920681
 30
0.0
 10
113.3351034925446
 20
155.886194920681
 30
0.0
 10
111.9829026225447
 20
155.886194920681
 30
0.0
 10
108.3414342923792
 20
156.1251124501957
 30
0.0
 10
106.2595617172429
 20
153.4105476718098
 30
0.0
  0
HATCH
  5
1DAA
330
1DA0
100
AcDbEntity
  8
レイヤー 1
 62
    18
420
        0
100
AcDbHatch
 10
0.0
 20
0.0
 30
0.0
210
0.0
220
0.0
230
1.0
  2
SOLID
 70
     1
 71
     0
 91
        2
 92
        1
 93
        1
 72
     4
 94
        3
 73
     0
 74
     1
 95
       29
 96
       25
 40
0.0
 40
0.0
 40
0.0
 40
0.0
 40
1.0
 40
1.0
 40
1.0
 40
2.0
 40
2.0
 40
2.0
 40
3.0
 40
3.0
 40
3.0
 40
4.0
 40
4.0
 40
4.0
 40
5.0
 40
5.0
 40
5.0
 40
6.0
 40
6.0
 40
6.0
 40
7.0
 40
7.0
 40
7.0
 40
8.0
 40
8.0
 40
8.0
 40
8.0
 10
101.6420971922466
 20
132.8388354296931
 10
101.6300393500937
 20
134.7164137077823
 10
102.2236296937904
 20
138.0598810818841
 10
103.7487744712403
 20
142.5378191476827
 10
105.8199672433266
 20
148.5896501242061
 10
107.0602024361924
 20
150.8074318058939
 10
108.1522984254666
 20
151.8833358357054
 10
109.7411775114388
 20
153.4532668840085
 10
111.8740375333923
 20
153.5290590346837
 10
112.5075910110818
 20
153.4532668840085
 10
113.4012493694968
 20
153.3490526768302
 10
114.6683563248753
 20
152.7580461564518
 10
114.7493161221873
 20
150.7838328862519
 10
114.8106388622791
 20
149.0909118479895
 10
114.3186789024421
 20
145.9191825971221
 10
112.6164561002333
 20
140.9489400617108
 10
110.6444821435762
 20
135.1746117095912
 10
109.4669477299049
 20
132.8960240524753
 10
108.5212683953441
 20
131.9072809959403
 10
106.734640698065
 20
130.0538184021569
 10
104.822266932621
 20
130.2336525051225
 10
104.5408024457952
 20
130.2336525051225
 10
104.1721769856936
 20
130.2336525051225
 10
101.6465758193317
 20
130.6305277668397
 10
101.6420971922466
 20
132.8388354296931
 97
        0
 92
        1
 93
        1
 72
     4
 94
        3
 73
     0
 74
     1
 95
       32
 96
       28
 40
0.0
 40
0.0
 40
0.0
 40
0.0
 40
1.0
 40
1.0
 40
1.0
 40
2.0
 40
2.0
 40
2.0
 40
3.0
 40
3.0
 40
3.0
 40
4.0
 40
4.0
 40
4.0
 40
5.0
 40
5.0
 40
5.0
 40
6.0
 40
6.0
 40
6.0
 40
7.0
 40
7.0
 40
7.0
 40
8.0
 40
8.0
 40
8.0
 40
9.0
 40
9.0
 40
9.0
 40
9.0
 10
106.2595617172424
 20
153.4105476718098
 10
104.822266932621
 20
151.5474388043041
 10
103.717768591418
 20
149.8758773721411
 10
101.9232171692961
 20
144.6141795664062
 10
100.2754269116631
 20
139.7999999594306
 10
99.22777268346681
 20
136.3052927937542
 10
99.06964269637638
 20
132.039572749846
 10
98.94665270641735
 20
128.8673267343149
 10
100.8807305877367
 20
127.8027915271048
 10
103.712945454557
 20
127.8027915271048
 10
104.9352661390822
 20
127.8027915271048
 10
108.0151835346996
 20
127.8827177950895
 10
110.2045431598845
 20
130.5926316915021
 10
111.7417457794868
 20
132.4984597712065
 10
113.1552693895787
 20
134.475256864725
 10
115.0562743324217
 20
140.9489400617108
 10
116.6361961642228
 20
146.3680788349845
 10
117.728292153497
 20
149.8639917848761
 10
117.6480213757363
 20
151.8595646611754
 10
117.6480213757363
 20
151.8595646611754
 10
117.6480213757363
 20
151.8595646611754
 10
117.6480213757363
 20
151.8595646611754
 10
117.1322902413694
 20
155.18150017429
 10
114.716243183711
 20
155.886194920681
 10
113.335103492544
 20
155.886194920681
 10
111.9829026225443
 20
155.886194920681
 10
108.3414342923788
 20
156.1251124501957
 10
106.2595617172424
 20
153.4105476718098
 97
        0
 75
     2
 76
     1
 98
        0
  0
ENDBLK
  5
1DAB
330
1DA0
100
AcDbEntity
  8
0
100
AcDbBlockEnd
  0
BLOCK
  5
8B7B
330
8B7A
100
AcDbEntity
  8
0
100
AcDbBlockBegin
  2
*D7
 70
     1
 10
0.0
 20
0.0
 30
0.0
  3
*D7
  1

  0
LINE
  5
8B7D
330
8B7A
100
AcDbEntity
  8
寸法
 62
     0
370
    -2
100
AcDbLine
 10
479.8691639608132
 20
285.5454550623859
 30
0.0
 11
521.0149128172728
 21
285.5454550623859
 31
0.0
  0
LINE
  5
8B7E
330
8B7A
100
AcDbEntity
  8
寸法
 62
     0
370
    -2
100
AcDbLine
 10
479.8691639608134
 20
685.5454550623858
 30
0.0
 11
521.0149128172728
 21
685.5454550623858
 31
0.0
  0
LINE
  5
8B7F
330
8B7A
100
AcDbEntity
  8
寸法
 62
     0
370
    -2
100
AcDbLine
 10
521.0149128172728
 20
287.5454550623859
 30
0.0
 11
521.0149128172728
 21
683.5454550623858
 31
0.0
  0
INSERT
  5
8B80
330
8B7A
100
AcDbEntity
  8
寸法
 62
     0
370
    -2
100
AcDbBlockReference
  2
_DOT
 10
521.0149128172728
 20
285.5454550623859
 30
0.0
 41
2.0
 42
2.0
 43
2.0
 50
270.0
  0
INSERT
  5
8B81
330
8B7A
100
AcDbEntity
  8
寸法
 62
     0
370
    -2
100
AcDbBlockReference
  2
_DOT
 10
521.0149128172728
 20
685.5454550623858
 30
0.0
 41
2.0
 42
2.0
 43
2.0
 50
90.0
  0
MTEXT
  5
8B82
330
8B7A
100
AcDbEntity
  8
寸法
 62
     0
100
AcDbMText
 10
512.0149128172728
 20
485.5529114666263
 30
0.0
 40
8.0
 41
0.0
 46
0.0
 71
     5
 72
     1
  1
\A1;400
  7
ＭＳ ゴシック
 11
0.0
 21
1.0
 31
0.0
 73
     1
 44
1.0
  0
POINT
  5
8B83
330
8B7A
100
AcDbEntity
  8
Defpoints
 62
     0
100
AcDbPoint
 10
473.8691639608132
 20
285.5454550623859
 30
0.0
  0
POINT
  5
8B84
330
8B7A
100
AcDbEntity
  8
Defpoints
 62
     0
100
AcDbPoint
 10
473.8691639608134
 20
685.5454550623858
 30
0.0
  0
POINT
  5
8B85
330
8B7A
100
AcDbEntity
  8
Defpoints
 62
     0
100
AcDbPoint
 10
521.0149128172728
 20
685.5454550623858
 30
0.0
  0
ENDBLK
  5
8B7C
330
8B7A
100
AcDbEntity
  8
0
100
AcDbBlockEnd
  0
BLOCK
  5
8B8B
330
8B8A
100
AcDbEntity
  8
0
100
AcDbBlockBegin
  2
*D8
 70
     1
 10
0.0
 20
0.0
 30
0.0
  3
*D8
  1

  0
LINE
  5
8B8D
330
8B8A
100
AcDbEntity
  8
寸法
 62
     0
370
    -2
100
AcDbLine
 10
169.7882672372989
 20
698.0529114710222
 30
0.0
 11
205.0149128172728
 21
698.0529114710222
 31
0.0
  0
LINE
  5
8B8E
330
8B8A
100
AcDbEntity
  8
寸法
 62
     0
370
    -2
100
AcDbLine
 10
170.1266787572989
 20
273.0529114622306
 30
0.0
 11
205.0149128172728
 21
273.0529114622306
 31
0.0
  0
LINE
  5
8B8F
330
8B8A
100
AcDbEntity
  8
寸法
 62
     0
370
    -2
100
AcDbLine
 10
205.0149128172728
 20
696.0529114710222
 30
0.0
 11
205.0149128172728
 21
275.0529114622306
 31
0.0
  0
INSERT
  5
8B90
330
8B8A
100
AcDbEntity
  8
寸法
 62
     0
370
    -2
100
AcDbBlockReference
  2
_DOT
 10
205.0149128172728
 20
698.0529114710222
 30
0.0
 41
2.0
 42
2.0
 43
2.0
 50
90.0
  0
INSERT
  5
8B91
330
8B8A
100
AcDbEntity
  8
寸法
 62
     0
370
    -2
100
AcDbBlockReference
  2
_DOT
 10
205.0149128172728
 20
273.0529114622306
 30
0.0
 41
2.0
 42
2.0
 43
2.0
 50
270.0
  0
MTEXT
  5
8B92
330
8B8A
100
AcDbEntity
  8
寸法
 62
     0
100
AcDbMText
 10
196.0134122545617
 20
485.5529114666264
 30
0.0
 40
8.0
 41
0.0
 46
0.0
 71
     5
 72
     1
  1
\A1;425
  7
ＭＳ ゴシック
 11
6.687461042309663E-17
 21
1.0
 31
0.0
 73
     1
 44
1.0
  0
POINT
  5
8B93
330
8B8A
100
AcDbEntity
  8
Defpoints
 62
     0
100
AcDbPoint
 10
163.7882672372989
 20
698.0529114710222
 30
0.0
  0
POINT
  5
8B94
330
8B8A
100
AcDbEntity
  8
Defpoints
 62
     0
100
AcDbPoint
 10
164.1266787572989
 20
273.0529114622306
 30
0.0
  0
POINT
  5
8B95
330
8B8A
100
AcDbEntity
  8
Defpoints
 62
     0
100
AcDbPoint
 10
205.0149128172728
 20
273.0529114622306
 30
0.0
  0
ENDBLK
  5
8B8C
330
8B8A
100
AcDbEntity
  8
0
100
AcDbBlockEnd
  0
BLOCK
  5
8BA2
330
8BA1
100
AcDbEntity
  8
0
100
AcDbBlockBegin
  2
*D9
 70
     1
 10
0.0
 20
0.0
 30
0.0
  3
*D9
  1

  0
LINE
  5
8BA4
330
8BA1
100
AcDbEntity
  8
寸法
 62
     0
370
    -2
100
AcDbLine
 10
267.5052413140813
 20
704.0529114710222
 30
0.0
 11
267.5052413140813
 21
731.0
 31
0.0
  0
LINE
  5
8BA5
330
8BA1
100
AcDbEntity
  8
寸法
 62
     0
370
    -2
100
AcDbLine
 10
327.4394871401378
 20
704.0529114710222
 30
0.0
 11
327.4394871401378
 21
731.0
 31
0.0
  0
LINE
  5
8BA6
330
8BA1
100
AcDbEntity
  8
寸法
 62
     0
370
    -2
100
AcDbLine
 10
269.5052413140813
 20
731.0
 30
0.0
 11
325.4394871401378
 21
731.0
 31
0.0
  0
INSERT
  5
8BA7
330
8BA1
100
AcDbEntity
  8
寸法
 62
     0
370
    -2
100
AcDbBlockReference
  2
_DOT
 10
267.5052413140813
 20
731.0
 30
0.0
 41
2.0
 42
2.0
 43
2.0
 50
180.0
  0
INSERT
  5
8BA8
330
8BA1
100
AcDbEntity
  8
寸法
 62
     0
370
    -2
100
AcDbBlockReference
  2
_DOT
 10
327.4394871401378
 20
731.0
 30
0.0
 41
2.0
 42
2.0
 43
2.0
  0
MTEXT
  5
8BA9
330
8BA1
100
AcDbEntity
  8
寸法
 62
     0
100
AcDbMText
 10
297.4723642271096
 20
740.0
 30
0.0
 40
8.0
 41
0.0
 46
0.0
 71
     5
 72
     1
  1
\A1;60
  7
ＭＳ ゴシック
 73
     1
 44
1.0
  0
POINT
  5
8BAA
330
8BA1
100
AcDbEntity
  8
Defpoints
 62
     0
100
AcDbPoint
 10
267.5052413140813
 20
698.0529114710222
 30
0.0
  0
POINT
  5
8BAB
330
8BA1
100
AcDbEntity
  8
Defpoints
 62
     0
100
AcDbPoint
 10
327.4394871401378
 20
698.0529114710222
 30
0.0
  0
POINT
  5
8BAC
330
8BA1
100
AcDbEntity
  8
Defpoints
 62
     0
100
AcDbPoint
 10
327.4394871401378
 20
731.0
 30
0.0
  0
ENDBLK
  5
8BA3
330
8BA1
100
AcDbEntity
  8
0
100
AcDbBlockEnd
  0
BLOCK
  5
8BB1
330
8BB0
100
AcDbEntity
  8
0
100
AcDbBlockBegin
  2
*D10
 70
     1
 10
0.0
 20
0.0
 30
0.0
  3
*D10
  1

  0
LINE
  5
8BB3
330
8BB0
100
AcDbEntity
  8
寸法
 62
     0
370
    -2
100
AcDbLine
 10
138.9059973267643
 20
805.0
 30
0.0
 11
138.9059973267643
 21
826.0
 31
0.0
  0
LINE
  5
8BB4
330
8BB0
100
AcDbEntity
  8
寸法
 62
     0
370
    -2
100
AcDbLine
 10
163.9209101440374
 20
805.0
 30
0.0
 11
163.9209101440374
 21
826.0
 31
0.0
  0
LINE
  5
8BB5
330
8BB0
100
AcDbEntity
  8
寸法
 62
     0
370
    -2
100
AcDbLine
 10
140.9059973267643
 20
826.0
 30
0.0
 11
161.9209101440374
 21
826.0
 31
0.0
  0
INSERT
  5
8BB6
330
8BB0
100
AcDbEntity
  8
寸法
 62
     0
370
    -2
100
AcDbBlockReference
  2
_DOT
 10
138.9059973267643
 20
826.0
 30
0.0
 41
2.0
 42
2.0
 43
2.0
 50
180.0
  0
INSERT
  5
8BB7
330
8BB0
100
AcDbEntity
  8
寸法
 62
     0
370
    -2
100
AcDbBlockReference
  2
_DOT
 10
163.9209101440374
 20
826.0
 30
0.0
 41
2.0
 42
2.0
 43
2.0
  0
MTEXT
  5
8BB8
330
8BB0
100
AcDbEntity
  8
寸法
 62
     0
100
AcDbMText
 10
151.4134537354009
 20
835.001500562711
 30
0.0
 40
8.0
 41
0.0
 46
0.0
 71
     5
 72
     1
  1
\A1;25
  7
ＭＳ ゴシック
 73
     1
 44
1.0
  0
POINT
  5
8BB9
330
8BB0
100
AcDbEntity
  8
Defpoints
 62
     0
100
AcDbPoint
 10
138.9059973267643
 20
799.0
 30
0.0
  0
POINT
  5
8BBA
330
8BB0
100
AcDbEntity
  8
Defpoints
 62
     0
100
AcDbPoint
 10
163.9209101440374
 20
799.0
 30
0.0
  0
POINT
  5
8BBB
330
8BB0
100
AcDbEntity
  8
Defpoints
 62
     0
100
AcDbPoint
 10
163.9209101440374
 20
826.0
 30
0.0
  0
ENDBLK
  5
8BB2
330
8BB0
100
AcDbEntity
  8
0
100
AcDbBlockEnd
  0
BLOCK
  5
8BC0
330
8BBF
100
AcDbEntity
  8
0
100
AcDbBlockBegin
  2
*D11
 70
     1
 10
0.0
 20
0.0
 30
0.0
  3
*D11
  1

  0
LINE
  5
8BC2
330
8BBF
100
AcDbEntity
  8
寸法
 62
     0
370
    -2
100
AcDbLine
 10
132.9059973267643
 20
753.0
 30
0.0
 11
111.0
 21
753.0
 31
0.0
  0
LINE
  5
8BC3
330
8BBF
100
AcDbEntity
  8
寸法
 62
     0
370
    -2
100
AcDbLine
 10
132.9059973267643
 20
739.0
 30
0.0
 11
111.0
 21
739.0
 31
0.0
  0
LINE
  5
8BC4
330
8BBF
100
AcDbEntity
  8
寸法
 62
     0
370
    -2
100
AcDbLine
 10
111.0
 20
751.0
 30
0.0
 11
111.0
 21
741.0
 31
0.0
  0
INSERT
  5
8BC5
330
8BBF
100
AcDbEntity
  8
寸法
 62
     0
370
    -2
100
AcDbBlockReference
  2
_DOT
 10
111.0
 20
753.0
 30
0.0
 41
2.0
 42
2.0
 43
2.0
 50
90.0
  0
INSERT
  5
8BC6
330
8BBF
100
AcDbEntity
  8
寸法
 62
     0
370
    -2
100
AcDbBlockReference
  2
_DOT
 10
111.0
 20
739.0
 30
0.0
 41
2.0
 42
2.0
 43
2.0
 50
270.0
  0
MTEXT
  5
8BC7
330
8BBF
100
AcDbEntity
  8
寸法
 62
     0
100
AcDbMText
 10
101.998499437289
 20
746.0
 30
0.0
 40
8.0
 41
0.0
 46
0.0
 71
     5
 72
     1
  1
\A1;15
  7
ＭＳ ゴシック
 11
0.0
 21
1.0
 31
0.0
 73
     1
 44
1.0
  0
POINT
  5
8BC8
330
8BBF
100
AcDbEntity
  8
Defpoints
 62
     0
100
AcDbPoint
 10
138.9059973267643
 20
753.0
 30
0.0
  0
POINT
  5
8BC9
330
8BBF
100
AcDbEntity
  8
Defpoints
 62
     0
100
AcDbPoint
 10
138.9059973267643
 20
739.0
 30
0.0
  0
POINT
  5
8BCA
330
8BBF
100
AcDbEntity
  8
Defpoints
 62
     0
100
AcDbPoint
 10
111.0
 20
739.0
 30
0.0
  0
ENDBLK
  5
8BC1
330
8BBF
100
AcDbEntity
  8
0
100
AcDbBlockEnd
  0
BLOCK
  5
8C4E
330
8C4D
100
AcDbEntity
  8
0
100
AcDbBlockBegin
  2
*D12
 70
     1
 10
0.0
 20
0.0
 30
0.0
  3
*D12
  1

  0
LINE
  5
8C50
330
8C4D
100
AcDbEntity
  8
寸法
 62
     0
370
    -2
100
AcDbLine
 10
169.9209101440374
 20
799.0
 30
0.0
 11
194.0
 21
799.0
 31
0.0
  0
LINE
  5
8C51
330
8C4D
100
AcDbEntity
  8
寸法
 62
     0
370
    -2
100
AcDbLine
 10
169.9209101440373
 20
739.0
 30
0.0
 11
194.0
 21
739.0
 31
0.0
  0
LINE
  5
8C52
330
8C4D
100
AcDbEntity
  8
寸法
 62
     0
370
    -2
100
AcDbLine
 10
194.0
 20
797.0
 30
0.0
 11
194.0
 21
741.0
 31
0.0
  0
INSERT
  5
8C53
330
8C4D
100
AcDbEntity
  8
寸法
 62
     0
370
    -2
100
AcDbBlockReference
  2
_DOT
 10
194.0
 20
799.0
 30
0.0
 41
2.0
 42
2.0
 43
2.0
 50
90.0
  0
INSERT
  5
8C54
330
8C4D
100
AcDbEntity
  8
寸法
 62
     0
370
    -2
100
AcDbBlockReference
  2
_DOT
 10
194.0
 20
739.0
 30
0.0
 41
2.0
 42
2.0
 43
2.0
 50
270.0
  0
MTEXT
  5
8C55
330
8C4D
100
AcDbEntity
  8
寸法
 62
     0
100
AcDbMText
 10
185.0
 20
769.0
 30
0.0
 40
8.0
 41
0.0
 46
0.0
 71
     5
 72
     1
  1
\A1;60
  7
ＭＳ ゴシック
 11
0.0
 21
1.0
 31
0.0
 73
     1
 44
1.0
  0
POINT
  5
8C56
330
8C4D
100
AcDbEntity
  8
Defpoints
 62
     0
100
AcDbPoint
 10
163.9209101440374
 20
799.0
 30
0.0
  0
POINT
  5
8C57
330
8C4D
100
AcDbEntity
  8
Defpoints
 62
     0
100
AcDbPoint
 10
163.9209101440373
 20
739.0
 30
0.0
  0
POINT
  5
8C58
330
8C4D
100
AcDbEntity
  8
Defpoints
 62
     0
100
AcDbPoint
 10
194.0
 20
739.0
 30
0.0
  0
ENDBLK
  5
8C4F
330
8C4D
100
AcDbEntity
  8
0
100
AcDbBlockEnd
  0
BLOCK
  5
8C5D
330
8C5C
100
AcDbEntity
  8
0
100
AcDbBlockBegin
  2
*D13
 70
     1
 10
0.0
 20
0.0
 30
0.0
  3
*D13
  1

  0
LINE
  5
8C5F
330
8C5C
100
AcDbEntity
  8
寸法
 62
     0
370
    -2
100
AcDbLine
 10
132.9059973267643
 20
799.0
 30
0.0
 11
111.0
 21
799.0
 31
0.0
  0
LINE
  5
8C60
330
8C5C
100
AcDbEntity
  8
寸法
 62
     0
370
    -2
100
AcDbLine
 10
132.9059973267643
 20
753.0
 30
0.0
 11
111.0
 21
753.0
 31
0.0
  0
LINE
  5
8C61
330
8C5C
100
AcDbEntity
  8
寸法
 62
     0
370
    -2
100
AcDbLine
 10
111.0
 20
797.0
 30
0.0
 11
111.0
 21
755.0
 31
0.0
  0
INSERT
  5
8C62
330
8C5C
100
AcDbEntity
  8
寸法
 62
     0
370
    -2
100
AcDbBlockReference
  2
_DOT
 10
111.0
 20
799.0
 30
0.0
 41
2.0
 42
2.0
 43
2.0
 50
90.0
  0
INSERT
  5
8C63
330
8C5C
100
AcDbEntity
  8
寸法
 62
     0
370
    -2
100
AcDbBlockReference
  2
_DOT
 10
111.0
 20
753.0
 30
0.0
 41
2.0
 42
2.0
 43
2.0
 50
270.0
  0
MTEXT
  5
8C64
330
8C5C
100
AcDbEntity
  8
寸法
 62
     0
100
AcDbMText
 10
101.998499437289
 20
776.0
 30
0.0
 40
8.0
 41
0.0
 46
0.0
 71
     5
 72
     1
  1
\A1;45
  7
ＭＳ ゴシック
 11
0.0
 21
1.0
 31
0.0
 73
     1
 44
1.0
  0
POINT
  5
8C65
330
8C5C
100
AcDbEntity
  8
Defpoints
 62
     0
100
AcDbPoint
 10
138.9059973267643
 20
799.0
 30
0.0
  0
POINT
  5
8C66
330
8C5C
100
AcDbEntity
  8
Defpoints
 62
     0
100
AcDbPoint
 10
138.9059973267643
 20
753.0
 30
0.0
  0
POINT
  5
8C67
330
8C5C
100
AcDbEntity
  8
Defpoints
 62
     0
100
AcDbPoint
 10
111.0
 20
753.0
 30
0.0
  0
ENDBLK
  5
8C5E
330
8C5C
100
AcDbEntity
  8
0
100
AcDbBlockEnd
  0
ENDSEC
  0
SECTION
  2
ENTITIES
  0
LINE
  5
5DCF
330
A
100
AcDbEntity
  8
PRINT
 48
10.0
100
AcDbLine
 10
630.0
 20
445.5
 30
0.0
 11
607.0357106571605
 21
445.5
 31
0.0
  0
LINE
  5
5DD1
330
A
100
AcDbEntity
  8
template
100
AcDbLine
 10
607.0357106571605
 20
75.1728304731173
 30
0.0
 11
22.96428934283949
 21
75.1728304731173
 31
0.0
  0
LINE
  5
5DD2
330
A
100
AcDbEntity
  8
template
100
AcDbLine
 10
22.96428934283949
 20
39.33230525881191
 30
0.0
 11
607.0357106571605
 21
39.33230525881191
 31
0.0
  0
TEXT
  5
5DD3
330
A
100
AcDbEntity
  8
template
100
AcDbText
 10
27.09182549271145
 20
66.00805684099123
 30
0.0
 40
4.5
  1
材質
 50
360.0
  7
ＭＳ ゴシック
100
AcDbText
  0
TEXT
  5
5DD4
330
A
100
AcDbEntity
  8
template
100
AcDbText
 10
49.31708818892366
 20
79.69487344043324
 30
0.0
 40
7.5
  1
サテン
 50
360.0
  7
ＭＳ ゴシック
100
AcDbText
  0
TEXT
  5
5DD5
330
A
100
AcDbEntity
  8
template
100
AcDbText
 10
49.31708818892366
 20
61.54293722769069
 30
0.0
 40
7.5
  1
ステンレス
 50
360.0
  7
ＭＳ ゴシック
100
AcDbText
  0
TEXT
  5
5DD6
330
A
100
AcDbEntity
  8
template
100
AcDbText
 10
27.09182549271145
 20
102.5200525468829
 30
0.0
 40
4.5
  1
品名
 50
360.0
  7
ＭＳ ゴシック
100
AcDbText
  0
TEXT
  5
5DD7
330
A
100
AcDbEntity
  8
template
100
AcDbText
 10
27.09182549271145
 20
84.73215720298646
 30
0.0
 40
4.5
  1
仕上げ
 50
360.0
  7
ＭＳ ゴシック
100
AcDbText
  0
TEXT
  5
5DD8
330
A
100
AcDbEntity
  8
template
100
AcDbText
 10
417.2233910161081
 20
102.6727802978392
 30
0.0
 40
4.5
  1
品番
 50
360.0
  7
ＭＳ ゴシック
100
AcDbText
  0
TEXT
  5
5DD9
330
A
100
AcDbEntity
  8
template
100
AcDbText
 10
49.31708818892366
 20
97.39727588229454
 30
0.0
 40
7.5
  1
ドアハンドル(片面用ウッドアンカータイプ) - FORMANI,Arc -
 50
360.0
  7
ＭＳ ゴシック
100
AcDbText
  0
TEXT
  5
5DDA
330
A
100
AcDbEntity
  8
template
100
AcDbText
 10
432.1206843019063
 20
97.2605553000202
 30
0.0
 40
7.5
  1
FOR31-AR01C
 50
360.0
  7
ＭＳ ゴシック
100
AcDbText
  0
LINE
  5
5DDB
330
A
100
AcDbEntity
  8
template
100
AcDbLine
 10
607.0357106571605
 20
93.0031142780789
 30
0.0
 11
22.96428934284086
 21
93.00311427808043
 31
0.0
  0
LINE
  5
5DDC
330
A
100
AcDbEntity
  8
template
100
AcDbLine
 10
607.0357106571605
 20
111.0879723755984
 30
0.0
 11
22.96428934283949
 21
111.0879723755984
 31
0.0
  0
LINE
  5
5DDD
330
A
100
AcDbEntity
  8
PRINT
 48
20.0
100
AcDbLine
 10
315.0
 20
891.0
 30
0.0
 11
315.0
 21
868.0357106571622
 31
0.0
  0
LINE
  5
5DDE
330
A
100
AcDbEntity
  8
PRINT
 48
20.0
100
AcDbLine
 10
315.0
 20
0.0
 30
0.0
 11
315.0
 21
22.96428934283847
 31
0.0
  0
LINE
  5
5DDF
330
A
100
AcDbEntity
  8
PRINT
 48
20.0
100
AcDbLine
 10
0.0
 20
445.5
 30
0.0
 11
22.96428934283949
 21
445.5
 31
0.0
  0
LINE
  5
5DE0
330
A
100
AcDbEntity
  8
template
100
AcDbLine
 10
607.0357106571605
 20
93.33230525881191
 30
0.0
 11
607.0357106571605
 21
39.33230525881191
 31
0.0
  0
LINE
  5
5DE1
330
A
100
AcDbEntity
  8
template
100
AcDbLine
 10
22.96428934283949
 20
93.33230525881191
 30
0.0
 11
22.96428934283949
 21
39.33230525881191
 31
0.0
  0
TEXT
  5
5DE2
330
A
100
AcDbEntity
  8
template
100
AcDbText
 10
489.3973379300514
 20
24.77907585470626
 30
0.0
 40
7.5
  1
大洋金物株式会社  
 50
360.0
  7
ＭＳ ゴシック
100
AcDbText
  0
LINE
  5
5DE3
330
A
100
AcDbEntity
  8
template
100
AcDbLine
 10
412.0357106571605
 20
111.0879723755984
 30
0.0
 11
412.0357106571605
 21
57.08797237559844
 31
0.0
  0
INSERT
  5
5DE4
330
A
100
AcDbEntity
  8
template
100
AcDbBlockReference
  2
名称未設定-1
 10
559.5962368674709
 20
-11.46351630599111
 30
0.0
 41
0.2714625
 42
0.2714625
 43
0.2714625
 50
360.0
  0
LINE
  5
5DE6
330
A
100
AcDbEntity
  8
template
100
AcDbLine
 10
22.96428934283949
 20
445.5
 30
0.0
 11
22.96428934283949
 21
93.33230525881191
 31
0.0
  0
LINE
  5
5DE7
330
A
100
AcDbEntity
  8
template
100
AcDbLine
 10
22.96428934283949
 20
445.5
 30
0.0
 11
22.96428934283949
 21
868.0357106571622
 31
0.0
  0
LINE
  5
5DE8
330
A
100
AcDbEntity
  8
template
100
AcDbLine
 10
315.0
 20
868.0357106571622
 30
0.0
 11
22.96428934283949
 21
868.0357106571622
 31
0.0
  0
LINE
  5
5DE9
330
A
100
AcDbEntity
  8
template
100
AcDbLine
 10
315.0
 20
868.0357106571622
 30
0.0
 11
607.0357106571605
 21
868.0357106571622
 31
0.0
  0
LWPOLYLINE
  5
5DEA
330
A
100
AcDbEntity
  8
PRINT
  6
HIDDEN
 62
     4
 48
10.0
100
AcDbPolyline
 90
        4
 70
     1
 43
0.0
 10
630.0
 20
0.0
 10
0.0
 20
0.0
 10
0.0
 20
891.0
 10
630.0
 20
891.0
  0
TEXT
  5
5DEB
330
A
100
AcDbEntity
  8
template
100
AcDbText
 10
417.1867416725463
 20
66.7310146554832
 30
0.0
 40
4.5
  1
縮尺
 50
360.0
  7
ＭＳ ゴシック
100
AcDbText
  0
TEXT
  5
5DEC
330
A
100
AcDbEntity
  8
template
100
AcDbText
 10
432.1206843019063
 20
61.22179151753255
 30
0.0
 40
7.5
  1
1/3
 50
360.0
  7
ＭＳ ゴシック
100
AcDbText
  0
LINE
  5
5DED
330
A
100
AcDbEntity
  8
template
100
AcDbLine
 10
607.0357106571605
 20
445.5
 30
0.0
 11
607.0357106571605
 21
868.0357106571622
 31
0.0
  0
LINE
  5
5DEE
330
A
100
AcDbEntity
  8
template
100
AcDbLine
 10
607.0357106571605
 20
445.5
 30
0.0
 11
607.0357106571605
 21
93.33230525881191
 31
0.0
  0
LINE
  5
5DEF
330
A
100
AcDbEntity
  8
template
100
AcDbLine
 10
607.0357106571605
 20
57.16650716840917
 30
0.0
 11
22.96428934283949
 21
57.16650716840917
 31
0.0
  0
TEXT
  5
5DF0
330
A
100
AcDbEntity
  8
template
100
AcDbText
 10
27.09182549271145
 20
48.00173353628327
 30
0.0
 40
4.5
  1
備考
 50
360.0
  7
ＭＳ ゴシック
100
AcDbText
  0
TEXT
  5
5DF1
330
A
100
AcDbEntity
  8
template
100
AcDbText
 10
414.7340840904928
 20
84.56129846044496
 30
0.0
 40
4.5
  1
扉厚
 50
360.0
  7
ＭＳ ゴシック
100
AcDbText
  0
TEXT
  5
5E06
330
A
100
AcDbEntity
  8
モデル
100
AcDbText
 10
163.6138172274977
 20
132.0040375259053
 30
0.0
 40
7.5
  1
　 加工は現物合わせの上行って下さい。
  7
ＭＳ ゴシック
100
AcDbText
  0
TEXT
  5
5E07
330
A
100
AcDbEntity
  8
モデル
100
AcDbText
 10
163.8721818508102
 20
144.1597136701153
 30
0.0
 40
7.5
  1
※ 輸入製品の為、国内製品と比べ製品寸法の個体差に幅が有ります。
  7
ＭＳ ゴシック
100
AcDbText
  0
TEXT
  5
5E08
330
A
100
AcDbEntity
  8
template
100
AcDbText
 10
49.31708818892366
 20
44.55044262227545
 30
0.0
 40
7.5
  1
付属品: M8ボルト、タイコ、ウッドアンカー16x23、イモネジ
 50
360.0
  7
ＭＳ ゴシック
100
AcDbText
  0
MTEXT
  5
77EE
102
{ACAD_XDICTIONARY
360
77F0
102
}
330
A
100
AcDbEntity
  8
テンプレート
100
AcDbMText
 10
23.9862556965215
 20
34.90593949924049
 30
0.0
 40
6.0
 41
0.0
 46
6.0
 71
     1
 72
     1
  1
{20221024M}
  7
ＭＳ ゴシック
 73
     1
 44
1.0
1001
ACAD
1000
ACAD_MTEXT_DEFINED_HEIGHT_BEGIN
1070
    46
1040
6.0
1000
ACAD_MTEXT_DEFINED_HEIGHT_END
  0
TEXT
  5
7A38
330
A
100
AcDbEntity
  8
モデル
100
AcDbText
 10
163.8721818508102
 20
119.025744256029
 30
0.0
 40
7.5
  1
※ ご注文の際は、正確な扉厚の指示をしてください。
  7
ＭＳ ゴシック
100
AcDbText
  0
TEXT
  5
878E
330
A
100
AcDbEntity
  8
モデル
100
AcDbText
 10
163.8721818508102
 20
157.5170106950648
 30
0.0
 40
7.5
  1
　 下穴に対して、まっすぐにウッドアンカーを取り付けてください。
  7
ＭＳ ゴシック
100
AcDbText
  0
TEXT
  5
878F
330
A
100
AcDbEntity
  8
モデル
100
AcDbText
 10
164.1305464741227
 20
169.6726868392748
 30
0.0
 40
7.5
  1
※ ドアハンドルが取りつかなくなる為、
  7
ＭＳ ゴシック
100
AcDbText
  0
TEXT
  5
8790
330
A
100
AcDbEntity
  8
モデル
100
AcDbText
 10
164.1305464741227
 20
186.3106665922615
 30
0.0
 40
7.5
  1
※ 木割れ防止の為、下穴のふちに面取り加工を必ずして下さい。
  7
ＭＳ ゴシック
100
AcDbText
  0
SPLINE
  5
889C
330
A
100
AcDbEntity
  8
モデル
100
AcDbSpline
210
0.0
220
0.0
230
1.0
 70
     8
 71
     3
 72
     8
 73
     4
 74
     0
 42
0.000000001
 43
0.0000000001
 40
0.0
 40
0.0
 40
0.0
 40
0.0
 40
1.0
 40
1.0
 40
1.0
 40
1.0
 10
138.9059973267645
 20
285.5614012318107
 30
0.0
 10
138.9053084194687
 20
278.6537277769679
 30
0.0
 10
144.5040580123187
 20
273.0536003695262
 30
0.0
 10
151.4117314671617
 20
273.0529114622306
 30
0.0
  0
SPLINE
  5
889D
330
A
100
AcDbEntity
  8
モデル
100
AcDbSpline
210
0.0
220
0.0
230
1.0
 70
     8
 71
     3
 72
     8
 73
     4
 74
     0
 42
0.000000001
 43
0.0000000001
 40
1.0
 40
1.0
 40
1.0
 40
1.0
 40
2.0
 40
2.0
 40
2.0
 40
2.0
 10
151.4117314671617
 20
273.0529114622306
 30
0.0
 10
158.3194049220045
 20
273.051533647639
 30
0.0
 10
163.919532329446
 20
278.650283240489
 30
0.0
 10
163.9209101440375
 20
285.5579566953318
 30
0.0
  0
LINE
  5
889E
330
A
100
AcDbEntity
  8
モデル
100
AcDbLine
 10
163.9209101440375
 20
685.4817311375256
 30
0.0
 11
163.9209101440375
 21
285.6234028884314
 31
0.0
  0
LINE
  5
889F
330
A
100
AcDbEntity
  8
モデル
100
AcDbLine
 10
138.9059973267645
 20
685.4817311375256
 30
0.0
 11
138.9059973267645
 21
285.6234028884314
 31
0.0
  0
SPLINE
  5
88A0
330
A
100
AcDbEntity
  8
モデル
100
AcDbSpline
210
0.0
220
0.0
230
1.0
 70
     8
 71
     3
 72
     8
 73
     4
 74
     0
 42
0.000000001
 43
0.0000000001
 40
0.0
 40
0.0
 40
0.0
 40
0.0
 40
1.0
 40
1.0
 40
1.0
 40
1.0
 10
163.9209101440375
 20
685.5430438868506
 30
0.0
 10
163.9222879586292
 20
692.4503728880455
 30
0.0
 10
158.324227273075
 20
698.0511892027829
 30
0.0
 10
151.416553818232
 20
698.0529114710222
 30
0.0
  0
SPLINE
  5
88A1
330
A
100
AcDbEntity
  8
モデル
100
AcDbSpline
210
0.0
220
0.0
230
1.0
 70
     8
 71
     3
 72
     8
 73
     4
 74
     0
 42
0.000000001
 43
0.0000000001
 40
1.0
 40
1.0
 40
1.0
 40
1.0
 40
2.0
 40
2.0
 40
2.0
 40
2.0
 10
151.416553818232
 20
698.0529114710222
 30
0.0
 10
144.5088803633892
 20
698.0542892856139
 30
0.0
 10
138.9080640486519
 20
692.4562286000597
 30
0.0
 10
138.9059973267645
 20
685.5488995988648
 30
0.0
  0
LINE
  5
88A2
330
A
100
AcDbEntity
  8
モデル
100
AcDbLine
 10
317.5350669486272
 20
273.0529114622306
 30
0.0
 11
317.6618258910521
 21
273.1796704046551
 31
0.0
  0
LINE
  5
88A3
330
A
100
AcDbEntity
  8
モデル
100
AcDbLine
 10
317.6618258910521
 20
273.1796704046551
 30
0.0
 11
318.2969984177664
 21
273.1796704046551
 31
0.0
  0
LINE
  5
88A4
330
A
100
AcDbEntity
  8
モデル
100
AcDbLine
 10
318.2969984177664
 20
273.1796704046551
 30
0.0
 11
319.0589298869054
 21
273.3064293470796
 31
0.0
  0
LINE
  5
88A5
330
A
100
AcDbEntity
  8
モデル
100
AcDbLine
 10
319.0589298869054
 20
273.3064293470796
 30
0.0
 11
319.947620298469
 21
273.3064293470796
 31
0.0
  0
LINE
  5
88A6
330
A
100
AcDbEntity
  8
モデル
100
AcDbLine
 10
319.947620298469
 20
273.3064293470796
 30
0.0
 11
320.9637585597527
 21
273.3064293470796
 31
0.0
  0
LINE
  5
88A7
330
A
100
AcDbEntity
  8
モデル
100
AcDbLine
 10
320.9637585597527
 20
273.3064293470796
 30
0.0
 11
321.7250011215958
 21
273.1796704046551
 31
0.0
  0
LINE
  5
88A8
330
A
100
AcDbEntity
  8
モデル
100
AcDbLine
 10
321.7250011215958
 20
273.1796704046551
 30
0.0
 11
322.2334147058855
 21
273.1796704046551
 31
0.0
  0
LINE
  5
88A9
330
A
100
AcDbEntity
  8
モデル
100
AcDbLine
 10
322.2334147058855
 20
273.1796704046551
 30
0.0
 11
322.4869325907348
 21
273.0529114622306
 31
0.0
  0
LINE
  5
88AA
330
A
100
AcDbEntity
  8
モデル
100
AcDbLine
 10
317.5350669486272
 20
673.0379986537495
 30
0.0
 11
317.6618258910521
 21
673.0379986537495
 31
0.0
  0
LINE
  5
88AB
330
A
100
AcDbEntity
  8
モデル
100
AcDbLine
 10
317.6618258910521
 20
673.0379986537495
 30
0.0
 11
318.2969984177664
 21
673.1647575961739
 31
0.0
  0
LINE
  5
88AC
330
A
100
AcDbEntity
  8
モデル
100
AcDbLine
 10
318.2969984177664
 20
673.1647575961739
 30
0.0
 11
319.0589298869054
 21
673.2918609922461
 31
0.0
  0
LINE
  5
88AD
330
A
100
AcDbEntity
  8
モデル
100
AcDbLine
 10
319.0589298869054
 20
673.2918609922461
 30
0.0
 11
319.947620298469
 21
673.2918609922461
 31
0.0
  0
LINE
  5
88AE
330
A
100
AcDbEntity
  8
モデル
100
AcDbLine
 10
319.947620298469
 20
673.2918609922461
 30
0.0
 11
320.9637585597527
 21
673.2918609922461
 31
0.0
  0
LINE
  5
88AF
330
A
100
AcDbEntity
  8
モデル
100
AcDbLine
 10
320.9637585597527
 20
673.2918609922461
 30
0.0
 11
321.7250011215958
 21
673.1647575961739
 31
0.0
  0
LINE
  5
88B0
330
A
100
AcDbEntity
  8
モデル
100
AcDbLine
 10
321.7250011215958
 20
673.1647575961739
 30
0.0
 11
322.2334147058855
 21
673.0379986537495
 31
0.0
  0
LINE
  5
88B1
330
A
100
AcDbEntity
  8
モデル
100
AcDbLine
 10
322.2334147058855
 20
673.0379986537495
 30
0.0
 11
322.4869325907348
 21
673.0379986537495
 31
0.0
  0
LINE
  5
88B2
330
A
100
AcDbEntity
  8
モデル
100
AcDbLine
 10
327.4394871401378
 20
273.0529114622306
 30
0.0
 11
327.4394871401378
 21
298.0678242795034
 31
0.0
  0
LINE
  5
88B3
330
A
100
AcDbEntity
  8
モデル
100
AcDbLine
 10
317.5350669486272
 20
273.0529114622306
 30
0.0
 11
267.5052413140813
 21
273.0529114622306
 31
0.0
  0
LINE
  5
88B4
330
A
100
AcDbEntity
  8
モデル
100
AcDbLine
 10
267.5052413140813
 20
273.0529114622306
 30
0.0
 11
267.5052413140813
 21
285.6234028884314
 31
0.0
  0
LINE
  5
88B5
330
A
100
AcDbEntity
  8
モデル
100
AcDbLine
 10
267.5052413140813
 20
285.6234028884314
 30
0.0
 11
282.4889749974193
 21
298.0678242795034
 31
0.0
  0
LINE
  5
88B6
330
A
100
AcDbEntity
  8
モデル
100
AcDbLine
 10
282.4889749974193
 20
298.0678242795034
 30
0.0
 11
327.4394871401378
 21
298.0678242795034
 31
0.0
  0
LINE
  5
88B7
330
A
100
AcDbEntity
  8
モデル
100
AcDbLine
 10
322.4869325907348
 20
273.0529114622306
 30
0.0
 11
327.4394871401378
 21
273.0529114622306
 31
0.0
  0
LINE
  5
88B8
330
A
100
AcDbEntity
  8
モデル
100
AcDbLine
 10
267.5052413140813
 20
285.6234028884314
 30
0.0
 11
267.5052413140813
 21
685.4817311375256
 31
0.0
  0
LINE
  5
88B9
330
A
100
AcDbEntity
  8
モデル
100
AcDbLine
 10
267.5052413140813
 20
685.4817311375256
 30
0.0
 11
282.4889749974193
 21
673.0379986537495
 31
0.0
  0
LINE
  5
88BA
330
A
100
AcDbEntity
  8
モデル
100
AcDbLine
 10
282.4889749974193
 20
673.0379986537495
 30
0.0
 11
282.4889749974193
 21
298.0678242795034
 31
0.0
  0
LINE
  5
88BB
330
A
100
AcDbEntity
  8
モデル
100
AcDbLine
 10
327.4394871401378
 20
673.0379986537495
 30
0.0
 11
327.4394871401378
 21
698.0529114710222
 31
0.0
  0
LINE
  5
88BC
330
A
100
AcDbEntity
  8
モデル
100
AcDbLine
 10
267.5052413140813
 20
698.0529114710222
 30
0.0
 11
267.5052413140813
 21
685.4817311375256
 31
0.0
  0
LINE
  5
88BD
330
A
100
AcDbEntity
  8
モデル
100
AcDbLine
 10
327.4394871401378
 20
673.0379986537495
 30
0.0
 11
322.4869325907348
 21
673.0379986537495
 31
0.0
  0
LINE
  5
88BE
330
A
100
AcDbEntity
  8
モデル
100
AcDbLine
 10
317.5350669486272
 20
673.0379986537495
 30
0.0
 11
282.4889749974193
 21
673.0379986537495
 31
0.0
  0
LINE
  5
88BF
102
{ACAD_REACTORS
330
8BA0
102
}
330
A
100
AcDbEntity
  8
モデル
100
AcDbLine
 10
327.4394871401378
 20
698.0529114710222
 30
0.0
 11
267.5052413140813
 21
698.0529114710222
 31
0.0
  0
TEXT
  5
8A95
330
A
100
AcDbEntity
  8
モデル
100
AcDbText
 10
436.0247281907557
 20
261.1495539281099
 30
0.0
 40
7.5
  1
木製用下穴 ø14.5
  7
ＭＳ ゴシック
100
AcDbText
  0
CIRCLE
  5
8A97
102
{ACAD_REACTORS
330
8A9D
102
}
330
A
100
AcDbEntity
  8
モデル
100
AcDbCircle
 10
466.6191639608134
 20
685.5454550623858
 30
0.0
 40
7.25
  0
LINE
  5
8A98
330
A
100
AcDbEntity
  8
CENTER
100
AcDbLine
 10
457.0727705576865
 20
685.5454550623858
 30
0.0
 11
476.16555736394
 21
685.5454550623858
 31
0.0
  0
LINE
  5
8A99
330
A
100
AcDbEntity
  8
CENTER
100
AcDbLine
 10
466.6191639608134
 20
675.999061659259
 30
0.0
 11
466.6191639608134
 21
695.0918484655127
 31
0.0
  0
CIRCLE
  5
8A9A
102
{ACAD_REACTORS
330
8A9D
102
}
330
A
100
AcDbEntity
  8
モデル
100
AcDbCircle
 10
466.6191639608132
 20
285.5454550623859
 30
0.0
 40
7.25
  0
LINE
  5
8A9B
330
A
100
AcDbEntity
  8
CENTER
100
AcDbLine
 10
457.0727705576863
 20
285.5454550623859
 30
0.0
 11
476.1655573639399
 21
285.5454550623859
 31
0.0
  0
LINE
  5
8A9C
330
A
100
AcDbEntity
  8
CENTER
100
AcDbLine
 10
466.6191639608132
 20
295.0918484655127
 30
0.0
 11
466.6191639608132
 21
275.999061659259
 31
0.0
  0
HATCH
  5
8A9D
330
A
100
AcDbEntity
  8
寸法
100
AcDbHatch
 10
0.0
 20
0.0
 30
0.0
210
0.0
220
0.0
230
1.0
  2
ANSI31
 70
     0
 71
     1
 91
        2
 92
        1
 93
        1
 72
     2
 10
466.6191639608134
 20
685.5454550623858
 40
7.25
 50
0.0
 51
360.0
 73
     1
 97
        1
330
8A97
 92
        1
 93
        1
 72
     2
 10
466.6191639608132
 20
285.5454550623859
 40
7.25
 50
0.0
 51
360.0
 73
     1
 97
        1
330
8A9A
 75
     0
 76
     1
 52
0.0
 41
0.5
 77
     0
 78
     1
 53
45.0
 43
-9.787397401901217
 44
48.49929350963112
 45
-1.122532015133644
 46
1.122532015133644
 79
     0
 98
        1
 10
-9.787397401901217
 20
48.49929350963112
1001
ACAD
1010
0.0
1020
0.0
1030
0.0
  0
LINE
  5
8A9E
330
A
100
AcDbEntity
  8
モデル
100
AcDbLine
 10
368.4607354817946
 20
681.4896817802024
 30
0.0
 11
409.831057686925
 21
681.4896817802024
 31
0.0
  0
LINE
  5
8A9F
330
A
100
AcDbEntity
  8
モデル
100
AcDbLine
 10
368.4607354817946
 20
689.6012283445693
 30
0.0
 11
409.831057686925
 21
689.6012283445693
 31
0.0
  0
LINE
  5
8AA0
330
A
100
AcDbEntity
  8
モデル
100
AcDbLine
 10
409.831057686925
 20
689.6012283445693
 30
0.0
 11
409.831057686925
 21
681.4896817802024
 31
0.0
  0
LINE
  5
8AA1
330
A
100
AcDbEntity
  8
モデル
100
AcDbLine
 10
368.4607354817946
 20
689.6012283445693
 30
0.0
 11
368.4607354817946
 21
681.4896817802024
 31
0.0
  0
LINE
  5
8AA2
330
A
100
AcDbEntity
  8
モデル
100
AcDbLine
 10
446.224766092863
 20
694.548706064475
 30
0.0
 11
446.224766092863
 21
676.5422040602966
 31
0.0
  0
LINE
  5
8AA3
330
A
100
AcDbEntity
  8
モデル
100
AcDbLine
 10
446.224766092863
 20
694.548706064475
 30
0.0
 11
444.5767706583339
 21
693.758012626682
 31
0.0
  0
LINE
  5
8AA4
330
A
100
AcDbEntity
  8
モデル
100
AcDbLine
 10
444.5767706583339
 20
693.758012626682
 30
0.0
 11
442.8367919757408
 21
694.548706064475
 31
0.0
  0
LINE
  5
8AA5
330
A
100
AcDbEntity
  8
モデル
100
AcDbLine
 10
439.4488178586183
 20
694.548706064475
 30
0.0
 11
441.0968132931474
 21
693.758012626682
 31
0.0
  0
LINE
  5
8AA6
330
A
100
AcDbEntity
  8
モデル
100
AcDbLine
 10
441.0968132931474
 20
693.758012626682
 30
0.0
 11
442.8367919757408
 21
694.548706064475
 31
0.0
  0
LINE
  5
8AA7
330
A
100
AcDbEntity
  8
モデル
100
AcDbLine
 10
439.4488178586183
 20
694.548706064475
 30
0.0
 11
437.8008224240895
 21
693.758012626682
 31
0.0
  0
LINE
  5
8AA8
330
A
100
AcDbEntity
  8
モデル
100
AcDbLine
 10
437.8008224240895
 20
693.758012626682
 30
0.0
 11
436.0608437414962
 21
694.548706064475
 31
0.0
  0
LINE
  5
8AA9
330
A
100
AcDbEntity
  8
モデル
100
AcDbLine
 10
432.672869624374
 20
694.548706064475
 30
0.0
 11
434.3208650589028
 21
693.758012626682
 31
0.0
  0
LINE
  5
8AAA
330
A
100
AcDbEntity
  8
モデル
100
AcDbLine
 10
434.3208650589028
 20
693.758012626682
 30
0.0
 11
436.0608437414962
 21
694.548706064475
 31
0.0
  0
LINE
  5
8AAB
330
A
100
AcDbEntity
  8
モデル
100
AcDbLine
 10
432.672869624374
 20
694.548706064475
 30
0.0
 11
431.0248741898449
 21
693.758012626682
 31
0.0
  0
LINE
  5
8AAC
330
A
100
AcDbEntity
  8
モデル
100
AcDbLine
 10
431.0248741898449
 20
693.758012626682
 30
0.0
 11
429.2848955072515
 21
694.548706064475
 31
0.0
  0
LINE
  5
8AAD
330
A
100
AcDbEntity
  8
モデル
100
AcDbLine
 10
425.8969213901295
 20
694.548706064475
 30
0.0
 11
427.5449168246586
 21
693.758012626682
 31
0.0
  0
LINE
  5
8AAE
330
A
100
AcDbEntity
  8
モデル
100
AcDbLine
 10
427.5449168246586
 20
693.758012626682
 30
0.0
 11
429.2848955072515
 21
694.548706064475
 31
0.0
  0
LINE
  5
8AAF
330
A
100
AcDbEntity
  8
モデル
100
AcDbLine
 10
446.224766092863
 20
676.5422040602966
 30
0.0
 11
444.5767706583339
 21
677.3328974980897
 31
0.0
  0
LINE
  5
8AB0
330
A
100
AcDbEntity
  8
モデル
100
AcDbLine
 10
444.5767706583339
 20
677.3328974980897
 30
0.0
 11
442.8367919757408
 21
676.5422040602966
 31
0.0
  0
LINE
  5
8AB1
330
A
100
AcDbEntity
  8
モデル
100
AcDbLine
 10
439.4488178586183
 20
676.5422040602966
 30
0.0
 11
441.0968132931474
 21
677.3328974980897
 31
0.0
  0
LINE
  5
8AB2
330
A
100
AcDbEntity
  8
モデル
100
AcDbLine
 10
441.0968132931474
 20
677.3328974980897
 30
0.0
 11
442.8367919757408
 21
676.5422040602966
 31
0.0
  0
LINE
  5
8AB3
330
A
100
AcDbEntity
  8
モデル
100
AcDbLine
 10
439.4488178586183
 20
676.5422040602966
 30
0.0
 11
437.8008224240895
 21
677.3328974980897
 31
0.0
  0
LINE
  5
8AB4
330
A
100
AcDbEntity
  8
モデル
100
AcDbLine
 10
437.8008224240895
 20
677.3328974980897
 30
0.0
 11
436.0608437414962
 21
676.5422040602966
 31
0.0
  0
LINE
  5
8AB5
330
A
100
AcDbEntity
  8
モデル
100
AcDbLine
 10
432.672869624374
 20
676.5422040602966
 30
0.0
 11
434.3208650589028
 21
677.3328974980897
 31
0.0
  0
LINE
  5
8AB6
330
A
100
AcDbEntity
  8
モデル
100
AcDbLine
 10
434.3208650589028
 20
677.3328974980897
 30
0.0
 11
436.0608437414962
 21
676.5422040602966
 31
0.0
  0
LINE
  5
8AB7
330
A
100
AcDbEntity
  8
モデル
100
AcDbLine
 10
432.672869624374
 20
676.5422040602966
 30
0.0
 11
431.0248741898449
 21
677.3328974980897
 31
0.0
  0
LINE
  5
8AB8
330
A
100
AcDbEntity
  8
モデル
100
AcDbLine
 10
431.0248741898449
 20
677.3328974980897
 30
0.0
 11
429.2848955072515
 21
676.5422040602966
 31
0.0
  0
LINE
  5
8AB9
330
A
100
AcDbEntity
  8
モデル
100
AcDbLine
 10
425.8969213901295
 20
676.5422040602966
 30
0.0
 11
427.5449168246586
 21
677.3328974980897
 31
0.0
  0
LINE
  5
8ABA
330
A
100
AcDbEntity
  8
モデル
100
AcDbLine
 10
427.5449168246586
 20
677.3328974980897
 30
0.0
 11
429.2848955072515
 21
676.5422040602966
 31
0.0
  0
LINE
  5
8ABB
330
A
100
AcDbEntity
  8
モデル
100
AcDbLine
 10
425.8969213901295
 20
694.548706064475
 30
0.0
 11
425.8969213901295
 21
676.5422040602966
 31
0.0
  0
LINE
  5
8ABC
330
A
100
AcDbEntity
  8
モデル
100
AcDbLine
 10
444.5767706583339
 20
693.758012626682
 30
0.0
 11
442.8367919757408
 21
676.5422040602966
 31
0.0
  0
LINE
  5
8ABD
330
A
100
AcDbEntity
  8
モデル
100
AcDbLine
 10
446.224766092863
 20
694.548706064475
 30
0.0
 11
444.5767706583339
 21
677.3328974980897
 31
0.0
  0
LINE
  5
8ABE
330
A
100
AcDbEntity
  8
モデル
100
AcDbLine
 10
442.8367919757408
 20
694.548706064475
 30
0.0
 11
441.0968132931474
 21
677.3328974980897
 31
0.0
  0
LINE
  5
8ABF
330
A
100
AcDbEntity
  8
モデル
100
AcDbLine
 10
441.0968132931474
 20
693.758012626682
 30
0.0
 11
439.3568346105541
 21
676.5422040602966
 31
0.0
  0
LINE
  5
8AC0
330
A
100
AcDbEntity
  8
モデル
100
AcDbLine
 10
439.3568346105541
 20
694.548706064475
 30
0.0
 11
437.6168559279612
 21
677.3328974980897
 31
0.0
  0
LINE
  5
8AC1
330
A
100
AcDbEntity
  8
モデル
100
AcDbLine
 10
437.8008224240895
 20
693.758012626682
 30
0.0
 11
436.0608437414962
 21
676.5422040602966
 31
0.0
  0
LINE
  5
8AC2
330
A
100
AcDbEntity
  8
モデル
100
AcDbLine
 10
436.0608437414962
 20
694.548706064475
 30
0.0
 11
434.3208650589028
 21
677.3328974980897
 31
0.0
  0
LINE
  5
8AC3
330
A
100
AcDbEntity
  8
モデル
100
AcDbLine
 10
434.3208650589028
 20
693.758012626682
 30
0.0
 11
432.5808863763099
 21
676.5422040602966
 31
0.0
  0
LINE
  5
8AC4
330
A
100
AcDbEntity
  8
モデル
100
AcDbLine
 10
432.5808863763099
 20
694.548706064475
 30
0.0
 11
430.8409076937164
 21
677.3328974980897
 31
0.0
  0
LINE
  5
8AC5
330
A
100
AcDbEntity
  8
モデル
100
AcDbLine
 10
431.0248741898449
 20
693.758012626682
 30
0.0
 11
429.2848955072515
 21
676.5422040602966
 31
0.0
  0
LINE
  5
8AC6
330
A
100
AcDbEntity
  8
モデル
100
AcDbLine
 10
429.2848955072515
 20
694.548706064475
 30
0.0
 11
427.5449168246586
 21
677.3328974980897
 31
0.0
  0
LINE
  5
8AC7
330
A
100
AcDbEntity
  8
モデル
100
AcDbLine
 10
427.5449168246586
 20
693.758012626682
 30
0.0
 11
425.8049381420652
 21
676.5422040602966
 31
0.0
  0
LINE
  5
8AC8
330
A
100
AcDbEntity
  8
モデル
100
AcDbLine
 10
390.9818069391512
 20
689.6012283445693
 30
0.0
 11
390.1619838067995
 21
681.4896817802024
 31
0.0
  0
LINE
  5
8AC9
330
A
100
AcDbEntity
  8
モデル
100
AcDbLine
 10
408.0136607728268
 20
689.6012283445693
 30
0.0
 11
407.1938376404752
 21
681.4896817802024
 31
0.0
  0
LINE
  5
8ACA
330
A
100
AcDbEntity
  8
モデル
100
AcDbLine
 10
409.6081760206848
 20
689.6012283445693
 30
0.0
 11
408.8316924966318
 21
681.4896817802024
 31
0.0
  0
LINE
  5
8ACB
330
A
100
AcDbEntity
  8
モデル
100
AcDbLine
 10
406.1937677649249
 20
689.6012283445693
 30
0.0
 11
405.3739446325732
 21
681.4896817802024
 31
0.0
  0
LINE
  5
8ACC
330
A
100
AcDbEntity
  8
モデル
100
AcDbLine
 10
404.5337034076405
 20
689.6012283445693
 30
0.0
 11
403.7138802752887
 21
681.4896817802024
 31
0.0
  0
LINE
  5
8ACD
330
A
100
AcDbEntity
  8
モデル
100
AcDbLine
 10
402.7138103997385
 20
689.6012283445693
 30
0.0
 11
401.8939872673868
 21
681.4896817802024
 31
0.0
  0
LINE
  5
8ACE
330
A
100
AcDbEntity
  8
モデル
100
AcDbLine
 10
401.2377125385823
 20
689.6012283445693
 30
0.0
 11
400.4178894062305
 21
681.4896817802024
 31
0.0
  0
LINE
  5
8ACF
330
A
100
AcDbEntity
  8
モデル
100
AcDbLine
 10
399.4178195306803
 20
689.6012283445693
 30
0.0
 11
398.5979963983285
 21
681.4896817802024
 31
0.0
  0
LINE
  5
8AD0
330
A
100
AcDbEntity
  8
モデル
100
AcDbLine
 10
397.7577551733958
 20
689.6012283445693
 30
0.0
 11
396.9379320410441
 21
681.4896817802024
 31
0.0
  0
LINE
  5
8AD1
330
A
100
AcDbEntity
  8
モデル
100
AcDbLine
 10
395.9378621654939
 20
689.6012283445693
 30
0.0
 11
395.1180390331423
 21
681.4896817802024
 31
0.0
  0
LINE
  5
8AD2
330
A
100
AcDbEntity
  8
モデル
100
AcDbLine
 10
394.4617643043375
 20
689.6012283445693
 30
0.0
 11
393.6419411719859
 21
681.4896817802024
 31
0.0
  0
LINE
  5
8AD3
330
A
100
AcDbEntity
  8
モデル
100
AcDbLine
 10
392.6418712964359
 20
689.6012283445693
 30
0.0
 11
391.8220481640841
 21
681.4896817802024
 31
0.0
  0
LINE
  5
8AD4
330
A
100
AcDbEntity
  8
モデル
100
AcDbLine
 10
370.7516547895344
 20
689.6012283445693
 30
0.0
 11
369.9318316571827
 21
681.4896817802024
 31
0.0
  0
LINE
  5
8AD5
330
A
100
AcDbEntity
  8
モデル
100
AcDbLine
 10
387.78350862321
 20
689.6012283445693
 30
0.0
 11
386.9636854908583
 21
681.4896817802024
 31
0.0
  0
LINE
  5
8AD6
330
A
100
AcDbEntity
  8
モデル
100
AcDbLine
 10
389.378023871068
 20
689.6012283445693
 30
0.0
 11
388.601540347015
 21
681.4896817802024
 31
0.0
  0
LINE
  5
8AD7
330
A
100
AcDbEntity
  8
モデル
100
AcDbLine
 10
385.963615615308
 20
689.6012283445693
 30
0.0
 11
385.1437924829564
 21
681.4896817802024
 31
0.0
  0
LINE
  5
8AD8
330
A
100
AcDbEntity
  8
モデル
100
AcDbLine
 10
384.3035512580236
 20
689.6012283445693
 30
0.0
 11
383.483728125672
 21
681.4896817802024
 31
0.0
  0
LINE
  5
8AD9
330
A
100
AcDbEntity
  8
モデル
100
AcDbLine
 10
382.4836582501217
 20
689.6012283445693
 30
0.0
 11
381.66383511777
 21
681.4896817802024
 31
0.0
  0
LINE
  5
8ADA
330
A
100
AcDbEntity
  8
モデル
100
AcDbLine
 10
381.0075603889654
 20
689.6012283445693
 30
0.0
 11
380.1877372566138
 21
681.4896817802024
 31
0.0
  0
LINE
  5
8ADB
330
A
100
AcDbEntity
  8
モデル
100
AcDbLine
 10
379.1876673810634
 20
689.6012283445693
 30
0.0
 11
378.3678442487118
 21
681.4896817802024
 31
0.0
  0
LINE
  5
8ADC
330
A
100
AcDbEntity
  8
モデル
100
AcDbLine
 10
377.5276030237791
 20
689.6012283445693
 30
0.0
 11
376.7077798914273
 21
681.4896817802024
 31
0.0
  0
LINE
  5
8ADD
330
A
100
AcDbEntity
  8
モデル
100
AcDbLine
 10
375.7077100158771
 20
689.6012283445693
 30
0.0
 11
374.8878868835254
 21
681.4896817802024
 31
0.0
  0
LINE
  5
8ADE
330
A
100
AcDbEntity
  8
モデル
100
AcDbLine
 10
374.2316121547209
 20
689.6012283445693
 30
0.0
 11
373.4117890223691
 21
681.4896817802024
 31
0.0
  0
LINE
  5
8ADF
330
A
100
AcDbEntity
  8
モデル
100
AcDbLine
 10
372.4117191468191
 20
689.6012283445693
 30
0.0
 11
371.5918960144674
 21
681.4896817802024
 31
0.0
  0
LINE
  5
8AE0
330
A
100
AcDbEntity
  8
モデル
100
AcDbLine
 10
369.09159043225
 20
689.6012283445693
 30
0.0
 11
368.4607354817946
 21
683.3593828732154
 31
0.0
  0
LINE
  5
8AE1
330
A
100
AcDbEntity
  8
HIDDEN
  6
CENTER
100
AcDbLine
 10
319.947620298469
 20
273.3064293470796
 30
0.0
 11
319.947620298469
 21
262.186683009921
 31
0.0
  0
LINE
  5
8AE2
330
A
100
AcDbEntity
  8
モデル
100
AcDbLine
 10
319.947620298469
 20
260.144543414504
 30
0.0
 11
322.4887401898712
 21
258.39765328951
 31
0.0
  0
LINE
  5
8AE3
330
A
100
AcDbEntity
  8
モデル
100
AcDbLine
 10
322.4887401898712
 20
258.39765328951
 30
0.0
 11
319.947620298469
 21
258.39765328951
 31
0.0
  0
LINE
  5
8AE4
330
A
100
AcDbEntity
  8
モデル
100
AcDbLine
 10
322.4887401898712
 20
258.39765328951
 30
0.0
 11
322.4887401898712
 21
252.720111642321
 31
0.0
  0
LINE
  5
8AE5
330
A
100
AcDbEntity
  8
モデル
100
AcDbLine
 10
322.4887401898712
 20
252.720111642321
 30
0.0
 11
319.947620298469
 21
252.720111642321
 31
0.0
  0
LINE
  5
8AE6
330
A
100
AcDbEntity
  8
モデル
100
AcDbLine
 10
319.947620298469
 20
260.144543414504
 30
0.0
 11
317.4065004070669
 21
258.39765328951
 31
0.0
  0
LINE
  5
8AE7
330
A
100
AcDbEntity
  8
モデル
100
AcDbLine
 10
317.4065004070669
 20
258.39765328951
 30
0.0
 11
319.947620298469
 21
258.39765328951
 31
0.0
  0
LINE
  5
8AE8
330
A
100
AcDbEntity
  8
モデル
100
AcDbLine
 10
317.4065004070669
 20
258.39765328951
 30
0.0
 11
317.4065004070669
 21
252.720111642321
 31
0.0
  0
LINE
  5
8AE9
330
A
100
AcDbEntity
  8
モデル
100
AcDbLine
 10
322.4887401898712
 20
258.39765328951
 30
0.0
 11
317.4065004070669
 21
257.410280610166
 31
0.0
  0
LINE
  5
8AEA
330
A
100
AcDbEntity
  8
モデル
100
AcDbLine
 10
322.4887401898712
 20
257.1064736319059
 30
0.0
 11
317.4065004070669
 21
256.1191009525611
 31
0.0
  0
LINE
  5
8AEB
330
A
100
AcDbEntity
  8
モデル
100
AcDbLine
 10
322.4887401898712
 20
255.739342229736
 30
0.0
 11
317.4065004070669
 21
254.7519695503909
 31
0.0
  0
LINE
  5
8AEC
330
A
100
AcDbEntity
  8
モデル
100
AcDbLine
 10
322.4887401898712
 20
252.929127680832
 30
0.0
 11
321.4128854003023
 21
252.720111642321
 31
0.0
  0
LINE
  5
8AED
330
A
100
AcDbEntity
  8
モデル
100
AcDbLine
 10
317.4065004070669
 20
252.720111642321
 30
0.0
 11
319.947620298469
 21
252.720111642321
 31
0.0
  0
LINE
  5
8AEE
330
A
100
AcDbEntity
  8
モデル
100
AcDbLine
 10
322.4887401898712
 20
254.2962590830019
 30
0.0
 11
317.4065004070669
 21
253.308886403657
 31
0.0
  0
LINE
  5
8AEF
330
A
100
AcDbEntity
  8
HIDDEN
  6
CENTER
100
AcDbLine
 10
320.0149128172729
 20
671.2217585306864
 30
0.0
 11
320.0149128172729
 21
652.9173922947643
 31
0.0
  0
LINE
  5
8AF0
330
A
100
AcDbEntity
  8
モデル
100
AcDbLine
 10
320.0149128172729
 20
650.8752526993474
 30
0.0
 11
322.5560327086752
 21
649.1283625743533
 31
0.0
  0
LINE
  5
8AF1
330
A
100
AcDbEntity
  8
モデル
100
AcDbLine
 10
322.5560327086752
 20
649.1283625743533
 30
0.0
 11
320.0149128172729
 21
649.1283625743533
 31
0.0
  0
LINE
  5
8AF2
330
A
100
AcDbEntity
  8
モデル
100
AcDbLine
 10
322.5560327086752
 20
649.1283625743533
 30
0.0
 11
322.5560327086752
 21
643.4508209271644
 31
0.0
  0
LINE
  5
8AF3
330
A
100
AcDbEntity
  8
モデル
100
AcDbLine
 10
322.5560327086752
 20
643.4508209271644
 30
0.0
 11
320.0149128172729
 21
643.4508209271644
 31
0.0
  0
LINE
  5
8AF4
330
A
100
AcDbEntity
  8
モデル
100
AcDbLine
 10
320.0149128172729
 20
650.8752526993474
 30
0.0
 11
317.4737929258708
 21
649.1283625743533
 31
0.0
  0
LINE
  5
8AF5
330
A
100
AcDbEntity
  8
モデル
100
AcDbLine
 10
317.4737929258708
 20
649.1283625743533
 30
0.0
 11
320.0149128172729
 21
649.1283625743533
 31
0.0
  0
LINE
  5
8AF6
330
A
100
AcDbEntity
  8
モデル
100
AcDbLine
 10
317.4737929258708
 20
649.1283625743533
 30
0.0
 11
317.4737929258708
 21
643.4508209271644
 31
0.0
  0
LINE
  5
8AF7
330
A
100
AcDbEntity
  8
モデル
100
AcDbLine
 10
322.5560327086752
 20
649.1283625743533
 30
0.0
 11
317.4737929258708
 21
648.1409898950094
 31
0.0
  0
LINE
  5
8AF8
330
A
100
AcDbEntity
  8
モデル
100
AcDbLine
 10
322.5560327086752
 20
647.8371829167493
 30
0.0
 11
317.4737929258708
 21
646.8498102374044
 31
0.0
  0
LINE
  5
8AF9
330
A
100
AcDbEntity
  8
モデル
100
AcDbLine
 10
322.5560327086752
 20
646.4700515145794
 30
0.0
 11
317.4737929258708
 21
645.4826788352343
 31
0.0
  0
LINE
  5
8AFA
330
A
100
AcDbEntity
  8
モデル
100
AcDbLine
 10
322.5560327086752
 20
643.6598369656754
 30
0.0
 11
321.4801779191063
 21
643.4508209271644
 31
0.0
  0
LINE
  5
8AFB
330
A
100
AcDbEntity
  8
モデル
100
AcDbLine
 10
317.4737929258708
 20
643.4508209271644
 30
0.0
 11
320.0149128172729
 21
643.4508209271644
 31
0.0
  0
LINE
  5
8AFC
330
A
100
AcDbEntity
  8
モデル
100
AcDbLine
 10
322.5560327086752
 20
645.0269683678453
 30
0.0
 11
317.4737929258708
 21
644.0395956885004
 31
0.0
  0
LINE
  5
8AFD
330
A
100
AcDbEntity
  8
モデル
 48
2.0
100
AcDbLine
 10
337.4325768206819
 20
691.524854844786
 30
0.0
 11
340.3583142182094
 21
691.524854844786
 31
0.0
  0
LINE
  5
8AFE
330
A
100
AcDbEntity
  8
モデル
 48
2.0
100
AcDbLine
 10
340.3583142182094
 20
691.524854844786
 30
0.0
 11
342.2476678774528
 21
689.47148327717
 31
0.0
  0
LINE
  5
8AFF
330
A
100
AcDbEntity
  8
モデル
 48
2.0
100
AcDbLine
 10
342.2476678774528
 20
689.47148327717
 30
0.0
 11
346.6561597490208
 21
689.47148327717
 31
0.0
  0
LINE
  5
8B00
330
A
100
AcDbEntity
  8
モデル
 48
2.0
100
AcDbLine
 10
337.4325768206819
 20
691.524854844786
 30
0.0
 11
337.4325768206819
 21
685.5454550623858
 31
0.0
  0
LINE
  5
8B01
330
A
100
AcDbEntity
  8
モデル
 48
2.0
100
AcDbLine
 10
351.4712508057918
 20
691.524854844786
 30
0.0
 11
348.5455134082641
 21
691.524854844786
 31
0.0
  0
LINE
  5
8B02
330
A
100
AcDbEntity
  8
モデル
 48
2.0
100
AcDbLine
 10
348.5455134082641
 20
691.524854844786
 30
0.0
 11
346.6561597490208
 21
689.47148327717
 31
0.0
  0
LINE
  5
8B03
330
A
100
AcDbEntity
  8
モデル
 48
2.0
100
AcDbLine
 10
351.4712508057918
 20
691.524854844786
 30
0.0
 11
351.4712508057918
 21
685.5454550623858
 31
0.0
  0
LINE
  5
8B04
330
A
100
AcDbEntity
  8
モデル
 48
2.0
100
AcDbLine
 10
337.4325768206819
 20
679.5660552799858
 30
0.0
 11
340.3583142182094
 21
679.5660552799858
 31
0.0
  0
LINE
  5
8B05
330
A
100
AcDbEntity
  8
モデル
 48
2.0
100
AcDbLine
 10
340.3583142182094
 20
679.5660552799858
 30
0.0
 11
342.2476678774528
 21
681.6194268476017
 31
0.0
  0
LINE
  5
8B06
330
A
100
AcDbEntity
  8
モデル
 48
2.0
100
AcDbLine
 10
342.2476678774528
 20
681.6194268476017
 30
0.0
 11
346.6561597490208
 21
681.6194268476017
 31
0.0
  0
LINE
  5
8B07
330
A
100
AcDbEntity
  8
モデル
 48
2.0
100
AcDbLine
 10
337.4325768206819
 20
679.5660552799858
 30
0.0
 11
337.4325768206819
 21
685.5454550623858
 31
0.0
  0
LINE
  5
8B08
330
A
100
AcDbEntity
  8
モデル
 48
2.0
100
AcDbLine
 10
351.4712508057918
 20
679.5660552799858
 30
0.0
 11
348.5455134082641
 21
679.5660552799858
 31
0.0
  0
LINE
  5
8B09
330
A
100
AcDbEntity
  8
モデル
 48
2.0
100
AcDbLine
 10
348.5455134082641
 20
679.5660552799858
 30
0.0
 11
346.6561597490208
 21
681.6194268476017
 31
0.0
  0
LINE
  5
8B0A
330
A
100
AcDbEntity
  8
モデル
 48
2.0
100
AcDbLine
 10
351.4712508057918
 20
679.5660552799858
 30
0.0
 11
351.4712508057918
 21
685.5454550623858
 31
0.0
  0
LINE
  5
8B0B
330
A
100
AcDbEntity
  8
モデル
100
AcDbLine
 10
368.4618773186986
 20
281.3764115600342
 30
0.0
 11
409.8321995238291
 21
281.3764115600342
 31
0.0
  0
LINE
  5
8B0C
330
A
100
AcDbEntity
  8
モデル
100
AcDbLine
 10
368.4618773186986
 20
289.4879581244011
 30
0.0
 11
409.8321995238291
 21
289.4879581244011
 31
0.0
  0
LINE
  5
8B0D
330
A
100
AcDbEntity
  8
モデル
100
AcDbLine
 10
409.8321995238291
 20
289.4879581244011
 30
0.0
 11
409.8321995238291
 21
281.3764115600342
 31
0.0
  0
LINE
  5
8B0E
330
A
100
AcDbEntity
  8
モデル
100
AcDbLine
 10
368.4618773186986
 20
289.4879581244011
 30
0.0
 11
368.4618773186986
 21
281.3764115600342
 31
0.0
  0
LINE
  5
8B0F
330
A
100
AcDbEntity
  8
モデル
100
AcDbLine
 10
446.225907929767
 20
294.4354358443068
 30
0.0
 11
446.225907929767
 21
276.4289338401284
 31
0.0
  0
LINE
  5
8B10
330
A
100
AcDbEntity
  8
モデル
100
AcDbLine
 10
446.225907929767
 20
294.4354358443068
 30
0.0
 11
444.5779124952379
 21
293.6447424065137
 31
0.0
  0
LINE
  5
8B11
330
A
100
AcDbEntity
  8
モデル
100
AcDbLine
 10
444.5779124952379
 20
293.6447424065137
 30
0.0
 11
442.8379338126449
 21
294.4354358443068
 31
0.0
  0
LINE
  5
8B12
330
A
100
AcDbEntity
  8
モデル
100
AcDbLine
 10
439.4499596955225
 20
294.4354358443068
 30
0.0
 11
441.0979551300516
 21
293.6447424065137
 31
0.0
  0
LINE
  5
8B13
330
A
100
AcDbEntity
  8
モデル
100
AcDbLine
 10
441.0979551300516
 20
293.6447424065137
 30
0.0
 11
442.8379338126449
 21
294.4354358443068
 31
0.0
  0
LINE
  5
8B14
330
A
100
AcDbEntity
  8
モデル
100
AcDbLine
 10
439.4499596955225
 20
294.4354358443068
 30
0.0
 11
437.8019642609936
 21
293.6447424065137
 31
0.0
  0
LINE
  5
8B15
330
A
100
AcDbEntity
  8
モデル
100
AcDbLine
 10
437.8019642609936
 20
293.6447424065137
 30
0.0
 11
436.0619855784003
 21
294.4354358443068
 31
0.0
  0
LINE
  5
8B16
330
A
100
AcDbEntity
  8
モデル
100
AcDbLine
 10
432.6740114612782
 20
294.4354358443068
 30
0.0
 11
434.3220068958069
 21
293.6447424065137
 31
0.0
  0
LINE
  5
8B17
330
A
100
AcDbEntity
  8
モデル
100
AcDbLine
 10
434.3220068958069
 20
293.6447424065137
 30
0.0
 11
436.0619855784003
 21
294.4354358443068
 31
0.0
  0
LINE
  5
8B18
330
A
100
AcDbEntity
  8
モデル
100
AcDbLine
 10
432.6740114612782
 20
294.4354358443068
 30
0.0
 11
431.0260160267489
 21
293.6447424065137
 31
0.0
  0
LINE
  5
8B19
330
A
100
AcDbEntity
  8
モデル
100
AcDbLine
 10
431.0260160267489
 20
293.6447424065137
 30
0.0
 11
429.2860373441556
 21
294.4354358443068
 31
0.0
  0
LINE
  5
8B1A
330
A
100
AcDbEntity
  8
モデル
100
AcDbLine
 10
425.8980632270335
 20
294.4354358443068
 30
0.0
 11
427.5460586615627
 21
293.6447424065137
 31
0.0
  0
LINE
  5
8B1B
330
A
100
AcDbEntity
  8
モデル
100
AcDbLine
 10
427.5460586615627
 20
293.6447424065137
 30
0.0
 11
429.2860373441556
 21
294.4354358443068
 31
0.0
  0
LINE
  5
8B1C
330
A
100
AcDbEntity
  8
モデル
100
AcDbLine
 10
446.225907929767
 20
276.4289338401284
 30
0.0
 11
444.5779124952379
 21
277.2196272779214
 31
0.0
  0
LINE
  5
8B1D
330
A
100
AcDbEntity
  8
モデル
100
AcDbLine
 10
444.5779124952379
 20
277.2196272779214
 30
0.0
 11
442.8379338126449
 21
276.4289338401284
 31
0.0
  0
LINE
  5
8B1E
330
A
100
AcDbEntity
  8
モデル
100
AcDbLine
 10
439.4499596955225
 20
276.4289338401284
 30
0.0
 11
441.0979551300516
 21
277.2196272779214
 31
0.0
  0
LINE
  5
8B1F
330
A
100
AcDbEntity
  8
モデル
100
AcDbLine
 10
441.0979551300516
 20
277.2196272779214
 30
0.0
 11
442.8379338126449
 21
276.4289338401284
 31
0.0
  0
LINE
  5
8B20
330
A
100
AcDbEntity
  8
モデル
100
AcDbLine
 10
439.4499596955225
 20
276.4289338401284
 30
0.0
 11
437.8019642609936
 21
277.2196272779214
 31
0.0
  0
LINE
  5
8B21
330
A
100
AcDbEntity
  8
モデル
100
AcDbLine
 10
437.8019642609936
 20
277.2196272779214
 30
0.0
 11
436.0619855784003
 21
276.4289338401284
 31
0.0
  0
LINE
  5
8B22
330
A
100
AcDbEntity
  8
モデル
100
AcDbLine
 10
432.6740114612782
 20
276.4289338401284
 30
0.0
 11
434.3220068958069
 21
277.2196272779214
 31
0.0
  0
LINE
  5
8B23
330
A
100
AcDbEntity
  8
モデル
100
AcDbLine
 10
434.3220068958069
 20
277.2196272779214
 30
0.0
 11
436.0619855784003
 21
276.4289338401284
 31
0.0
  0
LINE
  5
8B24
330
A
100
AcDbEntity
  8
モデル
100
AcDbLine
 10
432.6740114612782
 20
276.4289338401284
 30
0.0
 11
431.0260160267489
 21
277.2196272779214
 31
0.0
  0
LINE
  5
8B25
330
A
100
AcDbEntity
  8
モデル
100
AcDbLine
 10
431.0260160267489
 20
277.2196272779214
 30
0.0
 11
429.2860373441556
 21
276.4289338401284
 31
0.0
  0
LINE
  5
8B26
330
A
100
AcDbEntity
  8
モデル
100
AcDbLine
 10
425.8980632270335
 20
276.4289338401284
 30
0.0
 11
427.5460586615627
 21
277.2196272779214
 31
0.0
  0
LINE
  5
8B27
330
A
100
AcDbEntity
  8
モデル
100
AcDbLine
 10
427.5460586615627
 20
277.2196272779214
 30
0.0
 11
429.2860373441556
 21
276.4289338401284
 31
0.0
  0
LINE
  5
8B28
330
A
100
AcDbEntity
  8
モデル
100
AcDbLine
 10
425.8980632270335
 20
294.4354358443068
 30
0.0
 11
425.8980632270335
 21
276.4289338401284
 31
0.0
  0
LINE
  5
8B29
330
A
100
AcDbEntity
  8
モデル
100
AcDbLine
 10
444.5779124952379
 20
293.6447424065137
 30
0.0
 11
442.8379338126449
 21
276.4289338401284
 31
0.0
  0
LINE
  5
8B2A
330
A
100
AcDbEntity
  8
モデル
100
AcDbLine
 10
446.225907929767
 20
294.4354358443068
 30
0.0
 11
444.5779124952379
 21
277.2196272779214
 31
0.0
  0
LINE
  5
8B2B
330
A
100
AcDbEntity
  8
モデル
100
AcDbLine
 10
442.8379338126449
 20
294.4354358443068
 30
0.0
 11
441.0979551300516
 21
277.2196272779214
 31
0.0
  0
LINE
  5
8B2C
330
A
100
AcDbEntity
  8
モデル
100
AcDbLine
 10
441.0979551300516
 20
293.6447424065137
 30
0.0
 11
439.3579764474582
 21
276.4289338401284
 31
0.0
  0
LINE
  5
8B2D
330
A
100
AcDbEntity
  8
モデル
100
AcDbLine
 10
439.3579764474582
 20
294.4354358443068
 30
0.0
 11
437.6179977648652
 21
277.2196272779214
 31
0.0
  0
LINE
  5
8B2E
330
A
100
AcDbEntity
  8
モデル
100
AcDbLine
 10
437.8019642609936
 20
293.6447424065137
 30
0.0
 11
436.0619855784003
 21
276.4289338401284
 31
0.0
  0
LINE
  5
8B2F
330
A
100
AcDbEntity
  8
モデル
100
AcDbLine
 10
436.0619855784003
 20
294.4354358443068
 30
0.0
 11
434.3220068958069
 21
277.2196272779214
 31
0.0
  0
LINE
  5
8B30
330
A
100
AcDbEntity
  8
モデル
100
AcDbLine
 10
434.3220068958069
 20
293.6447424065137
 30
0.0
 11
432.5820282132139
 21
276.4289338401284
 31
0.0
  0
LINE
  5
8B31
330
A
100
AcDbEntity
  8
モデル
100
AcDbLine
 10
432.5820282132139
 20
294.4354358443068
 30
0.0
 11
430.8420495306206
 21
277.2196272779214
 31
0.0
  0
LINE
  5
8B32
330
A
100
AcDbEntity
  8
モデル
100
AcDbLine
 10
431.0260160267489
 20
293.6447424065137
 30
0.0
 11
429.2860373441556
 21
276.4289338401284
 31
0.0
  0
LINE
  5
8B33
330
A
100
AcDbEntity
  8
モデル
100
AcDbLine
 10
429.2860373441556
 20
294.4354358443068
 30
0.0
 11
427.5460586615627
 21
277.2196272779214
 31
0.0
  0
LINE
  5
8B34
330
A
100
AcDbEntity
  8
モデル
100
AcDbLine
 10
427.5460586615627
 20
293.6447424065137
 30
0.0
 11
425.8060799789694
 21
276.4289338401284
 31
0.0
  0
LINE
  5
8B35
330
A
100
AcDbEntity
  8
モデル
100
AcDbLine
 10
390.9829487760553
 20
289.4879581244011
 30
0.0
 11
390.1631256437036
 21
281.3764115600342
 31
0.0
  0
LINE
  5
8B36
330
A
100
AcDbEntity
  8
モデル
100
AcDbLine
 10
408.0148026097309
 20
289.4879581244011
 30
0.0
 11
407.1949794773792
 21
281.3764115600342
 31
0.0
  0
LINE
  5
8B37
330
A
100
AcDbEntity
  8
モデル
100
AcDbLine
 10
409.6093178575888
 20
289.4879581244011
 30
0.0
 11
408.8328343335359
 21
281.3764115600342
 31
0.0
  0
LINE
  5
8B38
330
A
100
AcDbEntity
  8
モデル
100
AcDbLine
 10
406.1949096018291
 20
289.4879581244011
 30
0.0
 11
405.3750864694773
 21
281.3764115600342
 31
0.0
  0
LINE
  5
8B39
330
A
100
AcDbEntity
  8
モデル
100
AcDbLine
 10
404.5348452445446
 20
289.4879581244011
 30
0.0
 11
403.7150221121929
 21
281.3764115600342
 31
0.0
  0
LINE
  5
8B3A
330
A
100
AcDbEntity
  8
モデル
100
AcDbLine
 10
402.7149522366426
 20
289.4879581244011
 30
0.0
 11
401.8951291042908
 21
281.3764115600342
 31
0.0
  0
LINE
  5
8B3B
330
A
100
AcDbEntity
  8
モデル
100
AcDbLine
 10
401.2388543754863
 20
289.4879581244011
 30
0.0
 11
400.4190312431347
 21
281.3764115600342
 31
0.0
  0
LINE
  5
8B3C
330
A
100
AcDbEntity
  8
モデル
100
AcDbLine
 10
399.4189613675843
 20
289.4879581244011
 30
0.0
 11
398.5991382352327
 21
281.3764115600342
 31
0.0
  0
LINE
  5
8B3D
330
A
100
AcDbEntity
  8
モデル
100
AcDbLine
 10
397.7588970103
 20
289.4879581244011
 30
0.0
 11
396.9390738779482
 21
281.3764115600342
 31
0.0
  0
LINE
  5
8B3E
330
A
100
AcDbEntity
  8
モデル
100
AcDbLine
 10
395.939004002398
 20
289.4879581244011
 30
0.0
 11
395.1191808700463
 21
281.3764115600342
 31
0.0
  0
LINE
  5
8B3F
330
A
100
AcDbEntity
  8
モデル
100
AcDbLine
 10
394.4629061412415
 20
289.4879581244011
 30
0.0
 11
393.64308300889
 21
281.3764115600342
 31
0.0
  0
LINE
  5
8B40
330
A
100
AcDbEntity
  8
モデル
100
AcDbLine
 10
392.6430131333398
 20
289.4879581244011
 30
0.0
 11
391.8231900009881
 21
281.3764115600342
 31
0.0
  0
LINE
  5
8B41
330
A
100
AcDbEntity
  8
モデル
100
AcDbLine
 10
370.7527966264386
 20
289.4879581244011
 30
0.0
 11
369.9329734940868
 21
281.3764115600342
 31
0.0
  0
LINE
  5
8B42
330
A
100
AcDbEntity
  8
モデル
100
AcDbLine
 10
387.7846504601141
 20
289.4879581244011
 30
0.0
 11
386.9648273277624
 21
281.3764115600342
 31
0.0
  0
LINE
  5
8B43
330
A
100
AcDbEntity
  8
モデル
100
AcDbLine
 10
389.3791657079721
 20
289.4879581244011
 30
0.0
 11
388.6026821839191
 21
281.3764115600342
 31
0.0
  0
LINE
  5
8B44
330
A
100
AcDbEntity
  8
モデル
100
AcDbLine
 10
385.9647574522121
 20
289.4879581244011
 30
0.0
 11
385.1449343198606
 21
281.3764115600342
 31
0.0
  0
LINE
  5
8B45
330
A
100
AcDbEntity
  8
モデル
100
AcDbLine
 10
384.3046930949278
 20
289.4879581244011
 30
0.0
 11
383.4848699625761
 21
281.3764115600342
 31
0.0
  0
LINE
  5
8B46
330
A
100
AcDbEntity
  8
モデル
100
AcDbLine
 10
382.4848000870259
 20
289.4879581244011
 30
0.0
 11
381.6649769546741
 21
281.3764115600342
 31
0.0
  0
LINE
  5
8B47
330
A
100
AcDbEntity
  8
モデル
100
AcDbLine
 10
381.0087022258695
 20
289.4879581244011
 30
0.0
 11
380.1888790935178
 21
281.3764115600342
 31
0.0
  0
LINE
  5
8B48
330
A
100
AcDbEntity
  8
モデル
100
AcDbLine
 10
379.1888092179674
 20
289.4879581244011
 30
0.0
 11
378.3689860856158
 21
281.3764115600342
 31
0.0
  0
LINE
  5
8B49
330
A
100
AcDbEntity
  8
モデル
100
AcDbLine
 10
377.5287448606831
 20
289.4879581244011
 30
0.0
 11
376.7089217283315
 21
281.3764115600342
 31
0.0
  0
LINE
  5
8B4A
330
A
100
AcDbEntity
  8
モデル
100
AcDbLine
 10
375.7088518527812
 20
289.4879581244011
 30
0.0
 11
374.8890287204295
 21
281.3764115600342
 31
0.0
  0
LINE
  5
8B4B
330
A
100
AcDbEntity
  8
モデル
100
AcDbLine
 10
374.2327539916249
 20
289.4879581244011
 30
0.0
 11
373.4129308592733
 21
281.3764115600342
 31
0.0
  0
LINE
  5
8B4C
330
A
100
AcDbEntity
  8
モデル
100
AcDbLine
 10
372.412860983723
 20
289.4879581244011
 30
0.0
 11
371.5930378513713
 21
281.3764115600342
 31
0.0
  0
LINE
  5
8B4D
330
A
100
AcDbEntity
  8
モデル
100
AcDbLine
 10
369.0927322691541
 20
289.4879581244011
 30
0.0
 11
368.4618773186986
 21
283.2461126530471
 31
0.0
  0
LINE
  5
8B4E
330
A
100
AcDbEntity
  8
モデル
 48
2.0
100
AcDbLine
 10
337.4337186575859
 20
291.4115846246177
 30
0.0
 11
340.3594560551135
 21
291.4115846246177
 31
0.0
  0
LINE
  5
8B4F
330
A
100
AcDbEntity
  8
モデル
 48
2.0
100
AcDbLine
 10
340.3594560551135
 20
291.4115846246177
 30
0.0
 11
342.2488097143569
 21
289.3582130570017
 31
0.0
  0
LINE
  5
8B50
330
A
100
AcDbEntity
  8
モデル
 48
2.0
100
AcDbLine
 10
342.2488097143569
 20
289.3582130570017
 30
0.0
 11
346.6573015859249
 21
289.3582130570017
 31
0.0
  0
LINE
  5
8B51
330
A
100
AcDbEntity
  8
モデル
 48
2.0
100
AcDbLine
 10
337.4337186575859
 20
291.4115846246177
 30
0.0
 11
337.4337186575859
 21
285.4321848422176
 31
0.0
  0
LINE
  5
8B52
330
A
100
AcDbEntity
  8
モデル
 48
2.0
100
AcDbLine
 10
351.4723926426959
 20
291.4115846246177
 30
0.0
 11
348.5466552451682
 21
291.4115846246177
 31
0.0
  0
LINE
  5
8B53
330
A
100
AcDbEntity
  8
モデル
 48
2.0
100
AcDbLine
 10
348.5466552451682
 20
291.4115846246177
 30
0.0
 11
346.6573015859249
 21
289.3582130570017
 31
0.0
  0
LINE
  5
8B54
330
A
100
AcDbEntity
  8
モデル
 48
2.0
100
AcDbLine
 10
351.4723926426959
 20
291.4115846246177
 30
0.0
 11
351.4723926426959
 21
285.4321848422176
 31
0.0
  0
LINE
  5
8B55
330
A
100
AcDbEntity
  8
モデル
 48
2.0
100
AcDbLine
 10
337.4337186575859
 20
279.4527850598175
 30
0.0
 11
340.3594560551135
 21
279.4527850598175
 31
0.0
  0
LINE
  5
8B56
330
A
100
AcDbEntity
  8
モデル
 48
2.0
100
AcDbLine
 10
340.3594560551135
 20
279.4527850598175
 30
0.0
 11
342.2488097143569
 21
281.5061566274335
 31
0.0
  0
LINE
  5
8B57
330
A
100
AcDbEntity
  8
モデル
 48
2.0
100
AcDbLine
 10
342.2488097143569
 20
281.5061566274335
 30
0.0
 11
346.6573015859249
 21
281.5061566274335
 31
0.0
  0
LINE
  5
8B58
330
A
100
AcDbEntity
  8
モデル
 48
2.0
100
AcDbLine
 10
337.4337186575859
 20
279.4527850598175
 30
0.0
 11
337.4337186575859
 21
285.4321848422176
 31
0.0
  0
LINE
  5
8B59
330
A
100
AcDbEntity
  8
モデル
 48
2.0
100
AcDbLine
 10
351.4723926426959
 20
279.4527850598175
 30
0.0
 11
348.5466552451682
 21
279.4527850598175
 31
0.0
  0
LINE
  5
8B5A
330
A
100
AcDbEntity
  8
モデル
 48
2.0
100
AcDbLine
 10
348.5466552451682
 20
279.4527850598175
 30
0.0
 11
346.6573015859249
 21
281.5061566274335
 31
0.0
  0
LINE
  5
8B5B
330
A
100
AcDbEntity
  8
モデル
 48
2.0
100
AcDbLine
 10
351.4723926426959
 20
279.4527850598175
 30
0.0
 11
351.4723926426959
 21
285.4321848422176
 31
0.0
  0
DIMENSION
  5
8B77
330
A
100
AcDbEntity
  8
寸法
100
AcDbDimension
  2
*D7
 10
521.0149128172728
 20
685.5454550623858
 30
0.0
 11
521.0149128172728
 21
485.5529114666263
 31
0.0
 70
   160
 71
     5
 42
399.9999999999999
 73
     0
 74
     0
 75
     0
  3
tfrom線あり
100
AcDbAlignedDimension
 13
473.8691639608132
 23
285.5454550623859
 33
0.0
 14
473.8691639608134
 24
685.5454550623858
 34
0.0
 50
90.0
100
AcDbRotatedDimension
  0
DIMENSION
  5
8B87
330
A
100
AcDbEntity
  8
寸法
100
AcDbDimension
  2
*D8
 10
205.0149128172728
 20
273.0529114622306
 30
0.0
 11
196.0134122545617
 21
485.5529114666264
 31
0.0
 70
    32
 71
     5
 42
425.0000000087916
 73
     0
 74
     0
 75
     0
  3
tfrom線あり
100
AcDbAlignedDimension
 13
163.7882672372989
 23
698.0529114710222
 33
0.0
 14
164.1266787572989
 24
273.0529114622306
 34
0.0
 50
90.0
100
AcDbRotatedDimension
  0
LINE
  5
8B96
330
A
100
AcDbEntity
  8
モデル
100
AcDbLine
 10
138.9059973267643
 20
739.0
 30
0.0
 11
138.9059973267643
 21
799.0
 31
0.0
  0
LINE
  5
8B97
330
A
100
AcDbEntity
  8
モデル
100
AcDbLine
 10
163.9209101440373
 20
739.0
 30
0.0
 11
163.9209101440374
 21
799.0
 31
0.0
  0
LINE
  5
8B98
102
{ACAD_REACTORS
330
8BAF
330
8C4C
330
8C5B
102
}
330
A
100
AcDbEntity
  8
モデル
100
AcDbLine
 10
138.9059973267643
 20
799.0
 30
0.0
 11
163.9209101440374
 21
799.0
 31
0.0
  0
LINE
  5
8B9A
330
A
100
AcDbEntity
  8
寸法
100
AcDbLine
 10
151.4134537354009
 20
739.0
 30
0.0
 11
163.9209101440373
 21
739.0
 31
0.0
  0
LINE
  5
8B9B
102
{ACAD_REACTORS
330
8C4C
102
}
330
A
100
AcDbEntity
  8
モデル
100
AcDbLine
 10
163.9209101440373
 20
739.0
 30
0.0
 11
138.9059973267643
 21
739.0
 31
0.0
  0
SPLINE
  5
8B9C
330
A
100
AcDbEntity
  8
モデル
  6
HIDDEN
 48
2.5
100
AcDbSpline
210
0.0
220
0.0
230
1.0
 70
     8
 71
     3
 72
     8
 73
     4
 74
     0
 42
0.000000001
 43
0.0000000001
 40
0.0
 40
0.0
 40
0.0
 40
0.0
 40
1.0
 40
1.0
 40
1.0
 40
1.0
 10
163.9209101440372
 20
740.4901324158284
 30
0.0
 10
163.9222879586289
 20
747.3974614170234
 30
0.0
 10
158.3242272730748
 20
752.9982777317607
 30
0.0
 10
151.4165538182318
 20
753.0
 30
0.0
  0
SPLINE
  5
8B9D
330
A
100
AcDbEntity
  8
モデル
  6
HIDDEN
 48
2.5
100
AcDbSpline
210
0.0
220
0.0
230
1.0
 70
     8
 71
     3
 72
     8
 73
     4
 74
     0
 42
0.000000001
 43
0.0000000001
 40
1.0
 40
1.0
 40
1.0
 40
1.0
 40
2.0
 40
2.0
 40
2.0
 40
2.0
 10
151.4165538182318
 20
753.0
 30
0.0
 10
144.508880363389
 20
753.0013778145917
 30
0.0
 10
138.9080640486516
 20
747.4033171290375
 30
0.0
 10
138.9059973267643
 20
740.4959881278426
 30
0.0
  0
DIMENSION
  5
8BAD
102
{ACAD_REACTORS
330
8BAF
102
}
102
{ACAD_XDICTIONARY
360
8BAE
102
}
330
A
100
AcDbEntity
  8
寸法
100
AcDbDimension
  2
*D10
 10
163.9209101440374
 20
826.0
 30
0.0
 11
151.4134537354009
 21
835.001500562711
 31
0.0
 70
    32
 71
     5
 42
25.01491281727306
 73
     0
 74
     0
 75
     0
  3
tfrom線あり
100
AcDbAlignedDimension
 13
138.9059973267643
 23
799.0
 33
0.0
 14
163.9209101440374
 24
799.0
 34
0.0
100
AcDbRotatedDimension
  0
DIMENSION
  5
8BBC
330
A
100
AcDbEntity
  8
寸法
100
AcDbDimension
  2
*D11
 10
111.0
 20
739.0
 30
0.0
 11
101.998499437289
 21
746.0
 31
0.0
 70
    32
  1
15
 71
     5
 42
14.0
 73
     0
 74
     1
 75
     1
  3
tfrom線あり
100
AcDbAlignedDimension
 13
138.9059973267643
 23
753.0
 33
0.0
 14
138.9059973267643
 24
739.0
 34
0.0
 50
90.0
100
AcDbRotatedDimension
1001
ACAD
1000
DSTYLE
1002
{
1070
   172
1070
     1
1002
}
  0
TEXT
  5
8BE7
330
A
100
AcDbEntity
  8
モデル
100
AcDbText
 10
447.6548705764661
 20
718.8028010503939
 30
0.0
 40
7.5
  1
<切欠図>
  7
ＭＳ ゴシック
100
AcDbText
  0
LINE
  5
8BE8
330
A
100
AcDbEntity
  8
モデル
100
AcDbLine
 10
99.93497849298274
 20
93.00311427808023
 30
0.0
 11
99.93497849298274
 21
75.1728304731173
 31
0.0
  0
LINE
  5
8BE9
330
A
100
AcDbEntity
  8
モデル
100
AcDbLine
 10
198.0
 20
93.00311427808022
 30
0.0
 11
198.0
 21
75.17283047311729
 31
0.0
  0
TEXT
  5
8C04
330
A
100
AcDbEntity
  8
template
100
AcDbText
 10
107.4297861698137
 20
79.6472349005877
 30
0.0
 40
7.5
  1
PVDブラック
 50
360.0
  7
ＭＳ ゴシック
100
AcDbText
  0
DIMENSION
  5
8C4A
102
{ACAD_REACTORS
330
8C4C
102
}
102
{ACAD_XDICTIONARY
360
8C4B
102
}
330
A
100
AcDbEntity
  8
寸法
100
AcDbDimension
  2
*D12
 10
194.0
 20
739.0
 30
0.0
 11
185.0
 21
769.0
 31
0.0
 70
    32
 71
     5
 42
60.0
 73
     0
 74
     0
 75
     0
  3
tfrom線あり
100
AcDbAlignedDimension
 13
163.9209101440374
 23
799.0
 33
0.0
 14
163.9209101440373
 24
739.0
 34
0.0
 50
90.0
100
AcDbRotatedDimension
  0
DIMENSION
  5
8C59
102
{ACAD_REACTORS
330
8C5B
102
}
102
{ACAD_XDICTIONARY
360
8C5A
102
}
330
A
100
AcDbEntity
  8
寸法
100
AcDbDimension
  2
*D13
 10
111.0
 20
753.0
 30
0.0
 11
101.998499437289
 21
776.0
 31
0.0
 70
    32
  1
45
 71
     5
 42
46.0
 73
     0
 74
     0
 75
     0
  3
tfrom線あり
100
AcDbAlignedDimension
 13
138.9059973267643
 23
799.0
 33
0.0
 14
138.9059973267643
 24
753.0
 34
0.0
 50
90.0
100
AcDbRotatedDimension
  0
VIEWPORT
  5
349
330
B
100
AcDbEntity
 67
     1
  8
0
100
AcDbViewport
 10
202.5
 20
128.5
 30
0.0
 40
486.0
 41
308.4
 68
     1
 69
     1
 12
202.5
 22
128.5
 13
0.0
 23
0.0
 14
0.5
 24
0.5
 15
0.0
 25
0.0
 16
0.0
 26
0.0
 36
1.0
 17
0.0
 27
0.0
 37
0.0
 42
50.0
 43
0.0
 44
0.0
 45
308.4
 50
0.0
 51
0.0
 72
   100
 90
   557152
  1

281
     0
 71
     1
 74
     0
110
0.0
120
0.0
130
0.0
111
1.0
121
0.0
131
0.0
112
0.0
122
1.0
132
0.0
 79
     0
146
0.0
170
     0
 61
     5
348
26C
292
     1
282
     1
141
0.0
142
0.0
 63
   256
  0
VIEWPORT
  5
34A
330
B
100
AcDbEntity
 67
     1
  8
0
100
AcDbViewport
 10
202.5
 20
128.5
 30
0.0
 40
324.0
 41
205.6
 68
     2
 69
     2
 12
986.6781359294573
 22
1427.077061889956
 13
0.0
 23
0.0
 14
0.5
 24
0.5
 15
0.0
 25
0.0
 16
0.0
 26
0.0
 36
1.0
 17
0.0
 27
0.0
 37
0.0
 42
50.0
 43
0.0
 44
0.0
 45
2890.021615685494
 50
0.0
 51
0.0
 72
   100
 90
   557152
  1

281
     0
 71
     1
 74
     0
110
0.0
120
0.0
130
0.0
111
1.0
121
0.0
131
0.0
112
0.0
122
1.0
132
0.0
 79
     0
146
0.0
170
     0
 61
     5
348
26C
292
     1
282
     1
141
0.0
142
0.0
 63
   256
  0
ENDSEC
  0
SECTION
  2
OBJECTS
  0
DICTIONARY
  5
19
330
0
100
AcDbDictionary
281
     1
  3
ACAD_COLOR
350
674
  3
ACAD_DETAILVIEWSTYLE
350
12F4
  3
ACAD_FIELDLIST
350
77F2
  3
ACAD_GROUP
350
1A
  3
ACAD_IMAGE_VARS
350
27B
  3
ACAD_LAYOUT
350
1E
  3
ACAD_MATERIAL
350
263
  3
ACAD_MLEADERSTYLE
350
336
  3
ACAD_MLINESTYLE
350
1B
  3
ACAD_PLOTSETTINGS
350
22
  3
ACAD_PLOTSTYLENAME
350
1F
  3
ACAD_SCALELIST
350
241
  3
ACAD_SECTIONVIEWSTYLE
350
12F5
  3
ACAD_TABLESTYLE
350
278
  3
ACAD_VISUALSTYLE
350
267
  3
ACDB_RECOMPOSE_DATA
350
8C6D
  3
AcDbVariableDictionary
350
330
  3
AcStStandard
350
12B9
  3
APPDATA
350
27A
  3
DimOffsetDictionary
350
6218
  0
SUN
  5
10E8
330
15
100
AcDbSun
 90
        1
290
     0
 63
     7
421
 16777215
 40
1.0
291
     1
 91
  2455826
 92
 54000000
292
     0
 70
     2
 71
   256
280
     1
  0
DICTIONARY
  5
2E1
330
2
100
AcDbDictionary
280
     1
281
     1
  3
ACAD_LAYERSTATES
360
2E2
  3
ACLYDICTIONARY
360
7854
  0
DICTIONARY
  5
77F0
330
77EE
100
AcDbDictionary
280
     1
281
     1
  0
DICTIONARY
  5
8BAE
330
8BAD
100
AcDbDictionary
280
     1
281
     1
  3
ACAD_DIMASSOC
360
8BAF
  0
DICTIONARY
  5
8C4B
330
8C4A
100
AcDbDictionary
280
     1
281
     1
  3
ACAD_DIMASSOC
360
8C4C
  0
DICTIONARY
  5
8C5A
330
8C59
100
AcDbDictionary
280
     1
281
     1
  3
ACAD_DIMASSOC
360
8C5B
  0
DICTIONARY
  5
674
102
{ACAD_REACTORS
330
19
102
}
330
19
100
AcDbDictionary
281
     1
  0
DICTIONARY
  5
12F4
102
{ACAD_REACTORS
330
19
102
}
330
19
100
AcDbDictionary
281
     1
  0
FIELDLIST
  5
77F2
102
{ACAD_REACTORS
330
19
102
}
330
19
100
AcDbIdSet
 90
        1
330
77F3
100
AcDbFieldList
  0
DICTIONARY
  5
1A
102
{ACAD_REACTORS
330
19
102
}
330
19
100
AcDbDictionary
281
     1
  0
RASTERVARIABLES
  5
27B
102
{ACAD_REACTORS
330
19
102
}
330
19
100
AcDbRasterVariables
 90
        0
 70
     1
 71
     1
 72
     1
  0
DICTIONARY
  5
1E
102
{ACAD_REACTORS
330
19
102
}
330
19
100
AcDbDictionary
281
     1
  3
Layout1
350
21
  3
Layout2
350
12C4
  3
Model
350
20
  0
DICTIONARY
  5
263
102
{ACAD_REACTORS
330
19
102
}
330
19
100
AcDbDictionary
281
     1
  3
ByBlock
350
3540
  3
ByLayer
350
264
  3
Global
350
266
  0
DICTIONARY
  5
336
102
{ACAD_REACTORS
330
19
102
}
330
19
100
AcDbDictionary
281
     1
  3
Standard
350
44F0
  0
DICTIONARY
  5
1B
102
{ACAD_REACTORS
330
19
102
}
330
19
100
AcDbDictionary
281
     1
  3
Standard
350
1C
  0
DICTIONARY
  5
22
102
{ACAD_REACTORS
330
19
102
}
330
19
100
AcDbDictionary
281
     1
  0
ACDBDICTIONARYWDFLT
  5
1F
102
{ACAD_REACTORS
330
19
102
}
330
19
100
AcDbDictionary
281
     1
  3
Normal
350
1D
100
AcDbDictionaryWithDefault
340
1D
  0
DICTIONARY
  5
241
102
{ACAD_REACTORS
330
19
102
}
330
19
100
AcDbDictionary
281
     1
  3
A0
350
242
  3
A1
350
243
  3
A2
350
244
  3
A3
350
245
  3
A4
350
246
  3
A5
350
247
  3
A6
350
248
  3
A7
350
249
  3
A8
350
24A
  3
A9
350
24B
  3
B0
350
24C
  3
B1
350
24D
  3
B2
350
24E
  3
B3
350
24F
  3
B4
350
250
  3
B5
350
251
  3
B6
350
252
  3
B7
350
253
  3
B8
350
254
  3
B9
350
255
  3
C0
350
256
  3
C1
350
257
  3
C2
350
258
  3
C3
350
259
  3
C4
350
25A
  3
C5
350
25B
  3
C6
350
25C
  3
C7
350
25D
  3
C8
350
25E
  3
C9
350
25F
  3
D0
350
260
  3
D1
350
261
  3
D2
350
262
  0
DICTIONARY
  5
12F5
102
{ACAD_REACTORS
330
19
102
}
330
19
100
AcDbDictionary
281
     1
  0
DICTIONARY
  5
278
102
{ACAD_REACTORS
330
19
102
}
330
19
100
AcDbDictionary
281
     1
  3
Standard
350
279
  0
DICTIONARY
  5
267
102
{ACAD_REACTORS
330
19
102
}
330
19
100
AcDbDictionary
281
     1
  3
2dWireframe
350
26C
  3
3D Hidden
350
26E
  3
3dWireframe
350
26D
  3
Basic
350
26F
  3
Brighten
350
273
  3
ColorChange
350
277
  3
Conceptual
350
271
  3
Dim
350
272
  3
EdgeColorOff
350
10E2
  3
Facepattern
350
276
  3
Flat
350
268
  3
FlatWithEdges
350
269
  3
Gouraud
350
26A
  3
GouraudWithEdges
350
26B
  3
Hidden
350
10DF
  3
JitterOff
350
10E0
  3
Linepattern
350
275
  3
OverhangOff
350
10E1
  3
Realistic
350
270
  3
Shaded
350
10E7
  3
Shaded with edges
350
10E6
  3
Shades of Gray
350
10E3
  3
Sketchy
350
10E4
  3
Thicken
350
274
  3
Wireframe
350
10DE
  3
X-Ray
350
10E5
  0
XRECORD
  5
8C6D
102
{ACAD_REACTORS
330
19
102
}
330
19
100
AcDbXrecord
280
     1
 90
        1
330
279
  0
DICTIONARY
  5
330
102
{ACAD_REACTORS
330
19
102
}
330
19
100
AcDbDictionary
281
     1
  3
CANNOSCALE
350
331
  3
CMLEADERSTYLE
350
4A74
  3
CTABLESTYLE
350
335
  3
HPTRANSPARENCY
350
3A8D
  3
XCLIPFRAME
350
109E
  0
DICTIONARY
  5
12B9
102
{ACAD_REACTORS
330
19
102
}
330
19
100
AcDbDictionary
281
     1
  0
DICTIONARY
  5
27A
102
{ACAD_REACTORS
330
19
102
}
330
19
100
AcDbDictionary
281
     1
  0
DICTIONARY
  5
6218
102
{ACAD_REACTORS
330
19
102
}
330
19
100
AcDbDictionary
281
     1
  3
DIMRAILANGLE
350
7EF6
  3
DIMRAILFIRSTOFFSET
350
7EF4
  3
DIMRAILOFFSET
350
7EF5
  3
DIMRAILSENABLED
350
7EF7
  0
DICTIONARY
  5
2E2
102
{ACAD_REACTORS
330
2E1
102
}
330
2E1
100
AcDbDictionary
281
     1
  0
DICTIONARY
  5
7854
102
{ACAD_REACTORS
330
2E1
102
}
330
2E1
100
AcDbDictionary
281
     1
1001
ACAD
1000
<All
  0
DIMASSOC
  5
8BAF
102
{ACAD_REACTORS
330
8BAE
102
}
330
8BAE
100
AcDbDimAssoc
330
8BAD
 90
        3
 70
     0
 71
     1
  1
AcDbOsnapPointRef
 72
    13
331
8B98
 73
     0
 91
        0
 40
0.0
 10
0.0
 20
0.0
 30
0.0
 75
     0
  1
AcDbOsnapPointRef
 72
     1
331
8B98
 73
     0
 91
        0
 40
0.0
 10
0.0
 20
0.0
 30
0.0
 75
     0
  0
DIMASSOC
  5
8C4C
102
{ACAD_REACTORS
330
8C4B
102
}
330
8C4B
100
AcDbDimAssoc
330
8C4A
 90
        3
 70
     0
 71
     1
  1
AcDbOsnapPointRef
 72
     1
331
8B98
 73
     0
 91
        0
 40
0.0
 10
0.0
 20
0.0
 30
0.0
 75
     0
  1
AcDbOsnapPointRef
 72
    13
331
8B9B
 73
     0
 91
        0
 40
0.0
 10
0.0
 20
0.0
 30
0.0
 75
     0
  0
DIMASSOC
  5
8C5B
102
{ACAD_REACTORS
330
8C5A
102
}
330
8C5A
100
AcDbDimAssoc
330
8C59
 90
        1
 70
     0
 71
     1
  1
AcDbOsnapPointRef
 72
    13
331
8B98
 73
     0
 91
        0
 40
0.0
 10
0.0
 20
0.0
 30
0.0
 75
     0
  0
LAYOUT
  5
21
102
{ACAD_REACTORS
330
1E
102
}
330
1E
100
AcDbPlotSettings
  1

  2
none_device
  4
ISO_A3_(420.00_x_297.00_MM)
  6

 40
7.5
 41
20.0
 42
7.5
 43
20.0
 44
420.0
 45
297.0
 46
0.0
 47
0.0
 48
0.0
 49
0.0
140
0.0
141
0.0
142
1.0
143
1.0
 70
     0
 72
     1
 73
     0
 74
     0
  7

 75
     0
 76
     0
 77
     2
 78
   300
147
1.0
148
0.0
149
0.0
100
AcDbLayout
  1
Layout1
 70
     0
 71
     0
 10
-7.5
 20
-20.0
 11
412.5
 21
277.0
 12
0.0
 22
0.0
 32
0.0
 14
0.0
 24
0.0
 34
0.0
 15
0.0
 25
0.0
 35
0.0
146
0.0
 13
0.0
 23
0.0
 33
0.0
 16
0.0
 26
0.0
 36
0.0
 17
0.0
 27
0.0
 37
0.0
 76
     0
330
B
331
349
  0
LAYOUT
  5
12C4
102
{ACAD_REACTORS
330
1E
102
}
330
1E
100
AcDbPlotSettings
  1

  2
none_device
  4

  6

 40
0.0
 41
0.0
 42
0.0
 43
0.0
 44
0.0
 45
0.0
 46
0.0
 47
0.0
 48
0.0
 49
0.0
140
0.0
141
0.0
142
1.0
143
1.0
 70
   688
 72
     1
 73
     0
 74
     5
  7

 75
    16
 76
     0
 77
     2
 78
   300
147
1.0
148
0.0
149
0.0
100
AcDbLayout
  1
Layout2
 70
     1
 71
     2
 10
0.0
 20
0.0
 11
0.0
 21
0.0
 12
0.0
 22
0.0
 32
0.0
 14
0.0
 24
0.0
 34
0.0
 15
0.0
 25
0.0
 35
0.0
146
0.0
 13
0.0
 23
0.0
 33
0.0
 16
1.0
 26
0.0
 36
0.0
 17
0.0
 27
1.0
 37
0.0
 76
     0
330
12C3
  0
LAYOUT
  5
20
102
{ACAD_REACTORS
330
1E
102
}
330
1E
100
AcDbPlotSettings
  1

  2
none_device
  4
ISO_A3_(420.00_x_297.00_MM)
  6

 40
7.5
 41
20.0
 42
7.5
 43
20.0
 44
420.0
 45
297.0
 46
0.0
 47
0.0
 48
0.0
 49
0.0
140
0.0
141
0.0
142
1.0
143
1.0
 70
  1024
 72
     1
 73
     0
 74
     0
  7

 75
     0
 76
     0
 77
     2
 78
   300
147
1.0
148
0.0
149
0.0
100
AcDbLayout
  1
Model
 70
     0
 71
     1
 10
0.0
 20
0.0
 11
630.0
 21
891.0
 12
0.0
 22
0.0
 32
0.0
 14
0.0
 24
0.0
 34
0.0
 15
630.0
 25
891.0
 35
0.0
146
0.0
 13
0.0
 23
0.0
 33
0.0
 16
0.0
 26
0.0
 36
0.0
 17
0.0
 27
0.0
 37
0.0
 76
     0
330
A
331
15
  0
MATERIAL
  5
3540
102
{ACAD_REACTORS
330
263
102
}
330
263
100
AcDbMaterial
  1
ByBlock
 72
     1
 94
      127
  0
MATERIAL
  5
264
102
{ACAD_REACTORS
330
263
102
}
330
263
100
AcDbMaterial
  1
ByLayer
 72
     1
 94
      127
  0
MATERIAL
  5
266
102
{ACAD_REACTORS
330
263
102
}
330
263
100
AcDbMaterial
  1
Global
 72
     1
 94
      127
  0
MLEADERSTYLE
  5
44F0
102
{ACAD_REACTORS
330
336
102
}
330
336
100
AcDbMLeaderStyle
170
     2
171
     1
172
     0
 90
        2
 40
0.0
 41
0.0
173
     1
 91
-1056964608
340
11
 92
       -2
290
     1
 42
2.0
291
     1
 43
8.0
  3
Standard
341
0
 44
4.0
300

342
17
174
     1
178
     6
175
     1
176
     0
 93
-1056964608
 45
4.0
292
     0
297
     0
 46
4.0
343
0
 94
-1056964608
 47
1.0
 49
1.0
140
1.0
293
     1
141
0.0
294
     1
177
     0
142
1.0
295
     0
296
     0
143
3.75
1001
ACAD_MLEADERVER
1070
     2
  0
MLINESTYLE
  5
1C
102
{ACAD_REACTORS
330
1B
102
}
330
1B
100
AcDbMlineStyle
  2
Standard
 70
     0
  3

 62
     0
 51
90.0
 52
90.0
 71
     2
 49
0.5
 62
   256
  6
BYLAYER
 49
-0.5
 62
   256
  6
BYLAYER
  0
ACDBPLACEHOLDER
  5
1D
102
{ACAD_REACTORS
330
1F
102
}
330
1F
  0
SCALE
  5
242
102
{ACAD_REACTORS
330
241
102
}
330
241
100
AcDbScale
 70
     0
300
1:1
140
1.0
141
1.0
290
     1
  0
SCALE
  5
243
102
{ACAD_REACTORS
330
241
102
}
330
241
100
AcDbScale
 70
     0
300
1:2
140
1.0
141
2.0
290
     0
  0
SCALE
  5
244
102
{ACAD_REACTORS
330
241
102
}
330
241
100
AcDbScale
 70
     0
300
1:4
140
1.0
141
4.0
290
     0
  0
SCALE
  5
245
102
{ACAD_REACTORS
330
241
102
}
330
241
100
AcDbScale
 70
     0
300
1:5
140
1.0
141
5.0
290
     0
  0
SCALE
  5
246
102
{ACAD_REACTORS
330
241
102
}
330
241
100
AcDbScale
 70
     0
300
1:8
140
1.0
141
8.0
290
     0
  0
SCALE
  5
247
102
{ACAD_REACTORS
330
241
102
}
330
241
100
AcDbScale
 70
     0
300
1:10
140
1.0
141
10.0
290
     0
  0
SCALE
  5
248
102
{ACAD_REACTORS
330
241
102
}
330
241
100
AcDbScale
 70
     0
300
1:16
140
1.0
141
16.0
290
     0
  0
SCALE
  5
249
102
{ACAD_REACTORS
330
241
102
}
330
241
100
AcDbScale
 70
     0
300
1:20
140
1.0
141
20.0
290
     0
  0
SCALE
  5
24A
102
{ACAD_REACTORS
330
241
102
}
330
241
100
AcDbScale
 70
     0
300
1:30
140
1.0
141
30.0
290
     0
  0
SCALE
  5
24B
102
{ACAD_REACTORS
330
241
102
}
330
241
100
AcDbScale
 70
     0
300
1:40
140
1.0
141
40.0
290
     0
  0
SCALE
  5
24C
102
{ACAD_REACTORS
330
241
102
}
330
241
100
AcDbScale
 70
     0
300
1:50
140
1.0
141
50.0
290
     0
  0
SCALE
  5
24D
102
{ACAD_REACTORS
330
241
102
}
330
241
100
AcDbScale
 70
     0
300
1:100
140
1.0
141
100.0
290
     0
  0
SCALE
  5
24E
102
{ACAD_REACTORS
330
241
102
}
330
241
100
AcDbScale
 70
     0
300
2:1
140
2.0
141
1.0
290
     0
  0
SCALE
  5
24F
102
{ACAD_REACTORS
330
241
102
}
330
241
100
AcDbScale
 70
     0
300
4:1
140
4.0
141
1.0
290
     0
  0
SCALE
  5
250
102
{ACAD_REACTORS
330
241
102
}
330
241
100
AcDbScale
 70
     0
300
8:1
140
8.0
141
1.0
290
     0
  0
SCALE
  5
251
102
{ACAD_REACTORS
330
241
102
}
330
241
100
AcDbScale
 70
     0
300
10:1
140
10.0
141
1.0
290
     0
  0
SCALE
  5
252
102
{ACAD_REACTORS
330
241
102
}
330
241
100
AcDbScale
 70
     0
300
100:1
140
100.0
141
1.0
290
     0
  0
SCALE
  5
253
102
{ACAD_REACTORS
330
241
102
}
330
241
100
AcDbScale
 70
     0
300
1/128" = 1'-0"
140
0.0078125
141
12.0
290
     0
  0
SCALE
  5
254
102
{ACAD_REACTORS
330
241
102
}
330
241
100
AcDbScale
 70
     0
300
1/64" = 1'-0"
140
0.015625
141
12.0
290
     0
  0
SCALE
  5
255
102
{ACAD_REACTORS
330
241
102
}
330
241
100
AcDbScale
 70
     0
300
1/32" = 1'-0"
140
0.03125
141
12.0
290
     0
  0
SCALE
  5
256
102
{ACAD_REACTORS
330
241
102
}
330
241
100
AcDbScale
 70
     0
300
1/16" = 1'-0"
140
0.0625
141
12.0
290
     0
  0
SCALE
  5
257
102
{ACAD_REACTORS
330
241
102
}
330
241
100
AcDbScale
 70
     0
300
3/32" = 1'-0"
140
0.09375
141
12.0
290
     0
  0
SCALE
  5
258
102
{ACAD_REACTORS
330
241
102
}
330
241
100
AcDbScale
 70
     0
300
1/8" = 1'-0"
140
0.125
141
12.0
290
     0
  0
SCALE
  5
259
102
{ACAD_REACTORS
330
241
102
}
330
241
100
AcDbScale
 70
     0
300
3/16" = 1'-0"
140
0.1875
141
12.0
290
     0
  0
SCALE
  5
25A
102
{ACAD_REACTORS
330
241
102
}
330
241
100
AcDbScale
 70
     0
300
1/4" = 1'-0"
140
0.25
141
12.0
290
     0
  0
SCALE
  5
25B
102
{ACAD_REACTORS
330
241
102
}
330
241
100
AcDbScale
 70
     0
300
3/8" = 1'-0"
140
0.375
141
12.0
290
     0
  0
SCALE
  5
25C
102
{ACAD_REACTORS
330
241
102
}
330
241
100
AcDbScale
 70
     0
300
1/2" = 1'-0"
140
0.5
141
12.0
290
     0
  0
SCALE
  5
25D
102
{ACAD_REACTORS
330
241
102
}
330
241
100
AcDbScale
 70
     0
300
3/4" = 1'-0"
140
0.75
141
12.0
290
     0
  0
SCALE
  5
25E
102
{ACAD_REACTORS
330
241
102
}
330
241
100
AcDbScale
 70
     0
300
1" = 1'-0"
140
1.0
141
12.0
290
     0
  0
SCALE
  5
25F
102
{ACAD_REACTORS
330
241
102
}
330
241
100
AcDbScale
 70
     0
300
1-1/2" = 1'-0"
140
1.5
141
12.0
290
     0
  0
SCALE
  5
260
102
{ACAD_REACTORS
330
241
102
}
330
241
100
AcDbScale
 70
     0
300
3" = 1'-0"
140
3.0
141
12.0
290
     0
  0
SCALE
  5
261
102
{ACAD_REACTORS
330
241
102
}
330
241
100
AcDbScale
 70
     0
300
6" = 1'-0"
140
6.0
141
12.0
290
     0
  0
SCALE
  5
262
102
{ACAD_REACTORS
330
241
102
}
330
241
100
AcDbScale
 70
     0
300
1'-0" = 1'-0"
140
12.0
141
12.0
290
     0
  0
TABLESTYLE
  5
279
102
{ACAD_REACTORS
330
278
102
}
102
{ACAD_XDICTIONARY
360
8C6B
102
}
330
278
100
AcDbTableStyle
  3
Standard
 70
     0
 71
     0
 40
0.06
 41
0.06
280
     0
281
     0
  7
Standard
140
4.5
170
     2
 62
     0
 63
   257
283
     0
 90
        4
 91
        0
  1

274
    -2
284
     1
 64
     0
275
    -2
285
     1
 65
     0
276
    -2
286
     1
 66
     0
277
    -2
287
     1
 67
     0
278
    -2
288
     1
 68
     0
279
    -2
289
     1
 69
     0
  7
Standard
140
6.0
170
     5
 62
     0
 63
   257
283
     0
 90
        4
 91
        0
  1

274
    -2
284
     1
 64
     0
275
    -2
285
     1
 65
     0
276
    -2
286
     1
 66
     0
277
    -2
287
     1
 67
     0
278
    -2
288
     1
 68
     0
279
    -2
289
     1
 69
     0
  7
Standard
140
4.5
170
     5
 62
     0
 63
   257
283
     0
 90
        4
 91
        0
  1

274
    -2
284
     1
 64
     0
275
    -2
285
     1
 65
     0
276
    -2
286
     1
 66
     0
277
    -2
287
     1
 67
     0
278
    -2
288
     1
 68
     0
279
    -2
289
     1
 69
     0
  0
VISUALSTYLE
  5
26C
102
{ACAD_REACTORS
330
267
102
}
330
267
100
AcDbVisualStyle
  2
2dWireframe
 70
     4
 71
     0
 72
     2
 73
     0
 90
        0
 40
-0.6
 41
-30.0
 62
     5
 63
     7
421
 16777215
 74
     1
 91
        4
 64
     7
 65
   257
 75
     1
175
     1
 42
1.0
 92
        0
 66
   257
 43
1.0
 76
     1
 77
     6
 78
     2
 67
     7
 79
     5
170
     0
171
     0
290
     0
174
     0
 93
        1
 44
0.0
173
     0
291
     0
 45
0.0
  0
VISUALSTYLE
  5
26E
102
{ACAD_REACTORS
330
267
102
}
330
267
100
AcDbVisualStyle
  2
3D Hidden
 70
     6
 71
     1
 72
     2
 73
     2
 90
        0
 40
-0.6
 41
-30.0
 62
     5
 63
     7
421
 16777215
 74
     2
 91
        2
 64
     7
 65
   257
 75
     2
175
     1
 42
40.0
 92
        0
 66
   257
 43
1.0
 76
     1
 77
     6
 78
     2
 67
     7
 79
     3
170
     0
171
     0
290
     0
174
     0
 93
        1
 44
0.0
173
     0
291
     0
 45
0.0
  0
VISUALSTYLE
  5
26D
102
{ACAD_REACTORS
330
267
102
}
330
267
100
AcDbVisualStyle
  2
3dWireframe
 70
     5
 71
     0
 72
     2
 73
     0
 90
        0
 40
-0.6
 41
-30.0
 62
     5
 63
     7
421
 16777215
 74
     1
 91
        4
 64
     7
 65
   257
 75
     1
175
     1
 42
1.0
 92
        0
 66
   257
 43
1.0
 76
     1
 77
     6
 78
     2
 67
     7
 79
     5
170
     0
171
     0
290
     0
174
     0
 93
        1
 44
0.0
173
     0
291
     0
 45
0.0
  0
VISUALSTYLE
  5
26F
102
{ACAD_REACTORS
330
267
102
}
330
267
100
AcDbVisualStyle
  2
Basic
 70
     7
 71
     1
 72
     0
 73
     1
 90
        0
 40
-0.6
 41
-30.0
 62
     5
 63
     7
421
 16777215
 74
     0
 91
        4
 64
     7
 65
   257
 75
     1
175
     1
 42
1.0
 92
        8
 66
     7
 43
1.0
 76
     1
 77
     6
 78
     2
 67
     7
 79
     5
170
     0
171
     0
290
     0
174
     0
 93
        1
 44
0.0
173
     0
291
     1
 45
0.0
  0
VISUALSTYLE
  5
273
102
{ACAD_REACTORS
330
267
102
}
330
267
100
AcDbVisualStyle
  2
Brighten
 70
    12
 71
     2
 72
     2
 73
     0
 90
        0
 40
-0.6
 41
-30.0
 62
     5
 63
     7
421
 16777215
 74
     1
 91
        4
 64
     7
 65
   257
 75
     1
175
     1
 42
1.0
 92
        8
 66
     7
 43
1.0
 76
     1
 77
     6
 78
     2
 67
     7
 79
     5
170
     0
171
     0
290
     0
174
     0
 93
        1
 44
50.0
173
     0
291
     1
 45
0.0
  0
VISUALSTYLE
  5
277
102
{ACAD_REACTORS
330
267
102
}
330
267
100
AcDbVisualStyle
  2
ColorChange
 70
    16
 71
     2
 72
     2
 73
     3
 90
        0
 40
-0.6
 41
-30.0
 62
     5
 63
     8
421
  8421504
 74
     1
 91
        4
 64
     7
 65
   257
 75
     1
175
     1
 42
1.0
 92
        8
 66
     8
424
  8421504
 43
1.0
 76
     1
 77
     6
 78
     2
 67
     7
 79
     5
170
     0
171
     0
290
     0
174
     0
 93
        1
 44
0.0
173
     0
291
     1
 45
0.0
  0
VISUALSTYLE
  5
271
102
{ACAD_REACTORS
330
267
102
}
330
267
100
AcDbVisualStyle
  2
Conceptual
 70
     9
 71
     3
 72
     2
 73
     0
 90
        0
 40
-0.6
 41
-30.0
 62
     5
 63
     7
421
 16777215
 74
     2
 91
        2
 64
     7
 65
   257
 75
     1
175
     1
 42
40.0
 92
        8
 66
     7
 43
1.0
 76
     1
 77
     6
 78
     2
 67
     7
 79
     3
170
     0
171
     0
290
     0
174
     0
 93
        1
 44
0.0
173
     0
291
     0
 45
0.0
  0
VISUALSTYLE
  5
272
102
{ACAD_REACTORS
330
267
102
}
330
267
100
AcDbVisualStyle
  2
Dim
 70
    11
 71
     2
 72
     2
 73
     0
 90
        0
 40
-0.6
 41
-30.0
 62
     5
 63
     7
421
 16777215
 74
     1
 91
        4
 64
     7
 65
   257
 75
     1
175
     1
 42
1.0
 92
        8
 66
     7
 43
1.0
 76
     1
 77
     6
 78
     2
 67
     7
 79
     5
170
     0
171
     0
290
     0
174
     0
 93
        1
 44
-50.0
173
     0
291
     1
 45
0.0
  0
VISUALSTYLE
  5
10E2
102
{ACAD_REACTORS
330
267
102
}
330
267
100
AcDbVisualStyle
  2
EdgeColorOff
 70
    22
 71
     2
 72
     2
 73
     0
 90
        0
 40
0.6
 41
30.0
 62
     5
 63
     7
421
 16777215
 74
     1
 91
        4
 64
     7
 65
   257
 75
     1
175
     1
 42
1.0
 92
        8
 66
     7
 43
1.0
 76
     1
 77
     6
 78
     2
 67
     7
 79
     5
170
     0
171
     0
290
     0
174
     0
 93
        1
 44
0.0
173
     0
291
     1
 45
0.0
  0
VISUALSTYLE
  5
276
102
{ACAD_REACTORS
330
267
102
}
330
267
100
AcDbVisualStyle
  2
Facepattern
 70
    15
 71
     2
 72
     2
 73
     0
 90
        0
 40
-0.6
 41
-30.0
 62
     5
 63
     7
421
 16777215
 74
     1
 91
        4
 64
     7
 65
   257
 75
     1
175
     1
 42
1.0
 92
        8
 66
     7
 43
1.0
 76
     1
 77
     6
 78
     2
 67
     7
 79
     5
170
     0
171
     0
290
     0
174
     0
 93
        1
 44
0.0
173
     0
291
     1
 45
0.0
  0
VISUALSTYLE
  5
268
102
{ACAD_REACTORS
330
267
102
}
330
267
100
AcDbVisualStyle
  2
Flat
 70
     0
 71
     2
 72
     1
 73
     1
 90
        2
 40
-0.6
 41
30.0
 62
     5
 63
     7
421
 16777215
 74
     0
 91
        4
 64
     7
 65
   257
 75
     1
175
     1
 42
1.0
 92
        8
 66
     7
 43
1.0
 76
     1
 77
     6
 78
     2
 67
     7
 79
     5
170
     0
171
     0
290
     0
174
     0
 93
       13
 44
0.0
173
     0
291
     1
 45
0.0
  0
VISUALSTYLE
  5
269
102
{ACAD_REACTORS
330
267
102
}
330
267
100
AcDbVisualStyle
  2
FlatWithEdges
 70
     1
 71
     2
 72
     1
 73
     1
 90
        2
 40
-0.6
 41
30.0
 62
     5
 63
     7
421
 16777215
 74
     1
 91
        4
 64
     7
 65
   257
 75
     1
175
     1
 42
1.0
 92
        0
 66
   257
 43
1.0
 76
     1
 77
     6
 78
     2
 67
     7
 79
     5
170
     0
171
     0
290
     0
174
     0
 93
       13
 44
0.0
173
     0
291
     1
 45
0.0
  0
VISUALSTYLE
  5
26A
102
{ACAD_REACTORS
330
267
102
}
330
267
100
AcDbVisualStyle
  2
Gouraud
 70
     2
 71
     2
 72
     2
 73
     1
 90
        2
 40
-0.6
 41
30.0
 62
     5
 63
     7
421
 16777215
 74
     0
 91
        4
 64
     7
 65
   257
 75
     1
175
     1
 42
1.0
 92
        0
 66
     7
 43
1.0
 76
     1
 77
     6
 78
     2
 67
     7
 79
     5
170
     0
171
     0
290
     0
174
     0
 93
       13
 44
0.0
173
     0
291
     1
 45
0.0
  0
VISUALSTYLE
  5
26B
102
{ACAD_REACTORS
330
267
102
}
330
267
100
AcDbVisualStyle
  2
GouraudWithEdges
 70
     3
 71
     2
 72
     2
 73
     1
 90
        2
 40
-0.6
 41
30.0
 62
     5
 63
     7
421
 16777215
 74
     1
 91
        4
 64
     7
 65
   257
 75
     1
175
     1
 42
1.0
 92
        0
 66
   257
 43
1.0
 76
     1
 77
     6
 78
     2
 67
     7
 79
     5
170
     0
171
     0
290
     0
174
     0
 93
       13
 44
0.0
173
     0
291
     1
 45
0.0
  0
VISUALSTYLE
  5
10DF
102
{ACAD_REACTORS
330
267
102
}
330
267
100
AcDbVisualStyle
  2
Hidden
 70
     6
 71
     1
 72
     2
 73
     2
 90
        0
 40
0.6
 41
30.0
 62
     5
 63
     7
421
 16777215
 74
     2
 91
        2
 64
     7
 65
   257
 75
     2
175
     1
 42
40.0
 92
        0
 66
   257
 43
1.0
 76
     1
 77
     6
 78
     2
 67
     7
 79
     3
170
     0
171
     0
290
     0
174
     0
 93
        1
 44
0.0
173
     0
291
     0
 45
0.0
  0
VISUALSTYLE
  5
10E0
102
{ACAD_REACTORS
330
267
102
}
330
267
100
AcDbVisualStyle
  2
JitterOff
 70
    20
 71
     2
 72
     2
 73
     0
 90
        0
 40
0.6
 41
30.0
 62
     5
 63
     7
421
 16777215
 74
     1
 91
        4
 64
     7
 65
   257
 75
     1
175
     1
 42
1.0
 92
       10
 66
     7
 43
1.0
 76
     1
 77
     6
 78
     2
 67
     7
 79
     5
170
     0
171
     0
290
     0
174
     0
 93
        1
 44
0.0
173
     0
291
     1
 45
0.0
  0
VISUALSTYLE
  5
275
102
{ACAD_REACTORS
330
267
102
}
330
267
100
AcDbVisualStyle
  2
Linepattern
 70
    14
 71
     2
 72
     2
 73
     0
 90
        0
 40
-0.6
 41
-30.0
 62
     5
 63
     7
421
 16777215
 74
     1
 91
        4
 64
     7
 65
   257
 75
     7
175
     7
 42
1.0
 92
        8
 66
     7
 43
1.0
 76
     1
 77
     6
 78
     2
 67
     7
 79
     5
170
     0
171
     0
290
     0
174
     0
 93
        1
 44
0.0
173
     0
291
     1
 45
0.0
  0
VISUALSTYLE
  5
10E1
102
{ACAD_REACTORS
330
267
102
}
330
267
100
AcDbVisualStyle
  2
OverhangOff
 70
    21
 71
     2
 72
     2
 73
     0
 90
        0
 40
0.6
 41
30.0
 62
     5
 63
     7
421
 16777215
 74
     1
 91
        4
 64
     7
 65
   257
 75
     1
175
     1
 42
1.0
 92
        9
 66
     7
 43
1.0
 76
     1
 77
     6
 78
     2
 67
     7
 79
     5
170
     0
171
     0
290
     0
174
     0
 93
        1
 44
0.0
173
     0
291
     1
 45
0.0
  0
VISUALSTYLE
  5
270
102
{ACAD_REACTORS
330
267
102
}
330
267
100
AcDbVisualStyle
  2
Realistic
 70
     8
 71
     2
 72
     2
 73
     0
 90
        0
 40
-0.6
 41
-30.0
 62
     5
 63
     7
421
 16777215
 74
     1
 91
        0
 64
     7
 65
   257
 75
     1
175
     1
 42
1.0
 92
        8
 66
     8
424
  7895160
 43
1.0
 76
     1
 77
     6
 78
     2
 67
     7
 79
     5
170
     0
171
     0
290
     0
174
     0
 93
       13
 44
0.0
173
     0
291
     0
 45
0.0
  0
VISUALSTYLE
  5
10E7
102
{ACAD_REACTORS
330
267
102
}
330
267
100
AcDbVisualStyle
  2
Shaded
 70
    27
 71
     2
 72
     2
 73
     1
 90
        2
 40
0.6
 41
30.0
 62
     5
 63
     7
421
 16777215
 74
     0
 91
        4
 64
     7
 65
   257
 75
     1
175
     1
 42
1.0
 92
        8
 66
   257
 43
1.0
 76
     1
 77
     6
 78
     2
 67
     8
425
  7895160
 79
     3
170
     0
171
     0
290
     0
174
     0
 93
        5
 44
0.0
173
     0
291
     0
 45
0.0
  0
VISUALSTYLE
  5
10E6
102
{ACAD_REACTORS
330
267
102
}
330
267
100
AcDbVisualStyle
  2
Shaded with edges
 70
    26
 71
     2
 72
     2
 73
     1
 90
        2
 40
0.6
 41
30.0
 62
     5
 63
     7
421
 16777215
 74
     1
 91
       10
 64
     7
 65
   257
 75
     2
175
     1
 42
1.0
 92
        8
 66
   257
 43
1.0
 76
     1
 77
     6
 78
     2
 67
     7
 79
     3
170
     0
171
     0
290
     0
174
     0
 93
        5
 44
0.0
173
     0
291
     0
 45
0.0
  0
VISUALSTYLE
  5
10E3
102
{ACAD_REACTORS
330
267
102
}
330
267
100
AcDbVisualStyle
  2
Shades of Gray
 70
    23
 71
     2
 72
     2
 73
     3
 90
        0
 40
0.6
 41
30.0
 62
     5
 63
     7
421
 16777215
 74
     2
 91
        2
 64
     7
 65
     7
 75
     1
175
     1
 42
40.0
 92
        8
 66
     7
 43
1.0
 76
     1
 77
     6
 78
     2
 67
     7
 79
     3
170
     0
171
     0
290
     0
174
     0
 93
        1
 44
0.0
173
     0
291
     0
 45
0.0
  0
VISUALSTYLE
  5
10E4
102
{ACAD_REACTORS
330
267
102
}
330
267
100
AcDbVisualStyle
  2
Sketchy
 70
    24
 71
     1
 72
     2
 73
     2
 90
        0
 40
0.6
 41
30.0
 62
     5
 63
     7
421
 16777215
 74
     2
 91
        2
 64
     7
 65
     7
 75
     1
175
     1
 42
40.0
 92
       11
 66
     7
 43
1.0
 76
     1
 77
     6
 78
     2
 67
     7
 79
     6
170
     0
171
     0
290
     0
174
     0
 93
        1
 44
0.0
173
     0
291
     0
 45
0.0
  0
VISUALSTYLE
  5
274
102
{ACAD_REACTORS
330
267
102
}
330
267
100
AcDbVisualStyle
  2
Thicken
 70
    13
 71
     2
 72
     2
 73
     0
 90
        0
 40
-0.6
 41
-30.0
 62
     5
 63
     7
421
 16777215
 74
     1
 91
        4
 64
     7
 65
   257
 75
     1
175
     1
 42
1.0
 92
       12
 66
     7
 43
1.0
 76
     1
 77
     6
 78
     2
 67
     7
 79
     5
170
     0
171
     0
290
     0
174
     0
 93
        1
 44
0.0
173
     0
291
     1
 45
0.0
  0
VISUALSTYLE
  5
10DE
102
{ACAD_REACTORS
330
267
102
}
330
267
100
AcDbVisualStyle
  2
Wireframe
 70
     5
 71
     0
 72
     2
 73
     0
 90
        0
 40
0.6
 41
30.0
 62
     5
 63
     7
421
 16777215
 74
     1
 91
        4
 64
     7
 65
   257
 75
     1
175
     1
 42
1.0
 92
        0
 66
   257
 43
1.0
 76
     1
 77
     6
 78
     2
 67
     7
 79
     3
170
     0
171
     0
290
     0
174
     0
 93
        1
 44
0.0
173
     0
291
     0
 45
0.0
  0
VISUALSTYLE
  5
10E5
102
{ACAD_REACTORS
330
267
102
}
330
267
100
AcDbVisualStyle
  2
X-Ray
 70
    25
 71
     2
 72
     2
 73
     1
 90
        1
 40
0.5
 41
30.0
 62
     5
 63
     7
421
 16777215
 74
     1
 91
        0
 64
     7
 65
   257
 75
     1
175
     1
 42
1.0
 92
        8
 66
     7
 43
1.0
 76
     1
 77
     6
 78
     2
 67
     7
 79
     3
170
     0
171
     0
290
     0
174
     0
 93
       13
 44
0.0
173
     0
291
     0
 45
0.0
  0
DICTIONARYVAR
  5
331
102
{ACAD_REACTORS
330
330
102
}
330
330
100
DictionaryVariables
280
     0
  1
1:1
  0
DICTIONARYVAR
  5
4A74
102
{ACAD_REACTORS
330
330
102
}
330
330
100
DictionaryVariables
280
     0
  1
Standard
  0
DICTIONARYVAR
  5
335
102
{ACAD_REACTORS
330
330
102
}
330
330
100
DictionaryVariables
280
     0
  1
Standard
  0
DICTIONARYVAR
  5
3A8D
102
{ACAD_REACTORS
330
330
102
}
330
330
100
DictionaryVariables
280
     0
  1
ByLayer
  0
DICTIONARYVAR
  5
109E
102
{ACAD_REACTORS
330
330
102
}
330
330
100
DictionaryVariables
280
     0
  1
0
  0
DICTIONARYVAR
  5
7EF6
102
{ACAD_REACTORS
330
6218
102
}
330
6218
100
DictionaryVariables
280
     0
  1
0.261799
  0
DICTIONARYVAR
  5
7EF4
102
{ACAD_REACTORS
330
6218
102
}
330
6218
100
DictionaryVariables
280
     0
  1
0.400000
  0
DICTIONARYVAR
  5
7EF5
102
{ACAD_REACTORS
330
6218
102
}
330
6218
100
DictionaryVariables
280
     0
  1
0.250000
  0
DICTIONARYVAR
  5
7EF7
102
{ACAD_REACTORS
330
6218
102
}
330
6218
100
DictionaryVariables
280
     0
  1
1
  0
DICTIONARY
  5
8C6B
330
279
100
AcDbDictionary
280
     1
281
     1
  3
ACAD_ROUNDTRIP_2008_TABLESTYLE_CELLSTYLEMAP
360
8C6C
  0
CELLSTYLEMAP
  5
8C6C
102
{ACAD_REACTORS
330
8C6B
102
}
330
8C6B
100
AcDbCellStyleMap
 90
        3
300
CELLSTYLE
  1
TABLEFORMAT_BEGIN
 90
        5
170
     1
 91
        0
 92
    32768
 62
   257
 93
        1
300
CONTENTFORMAT
  1
CONTENTFORMAT_BEGIN
 90
        0
 91
        0
 92
        4
 93
        0
300

 40
0.0
140
1.0
 94
        5
 62
     0
340
17
144
6.0
309
CONTENTFORMAT_END
171
     1
301
MARGIN
  1
CELLMARGIN_BEGIN
 40
0.06
 40
0.06
 40
0.06
 40
0.06
 40
0.18
 40
0.18
309
CELLMARGIN_END
 94
        6
 95
        1
302
GRIDFORMAT
  1
GRIDFORMAT_BEGIN
 90
        0
 91
        1
 62
     0
 92
       -2
340
0
 93
        0
 40
0.045
309
GRIDFORMAT_END
 95
        2
302
GRIDFORMAT
  1
GRIDFORMAT_BEGIN
 90
        0
 91
        1
 62
     0
 92
       -2
340
0
 93
        0
 40
0.045
309
GRIDFORMAT_END
 95
        4
302
GRIDFORMAT
  1
GRIDFORMAT_BEGIN
 90
        0
 91
        1
 62
     0
 92
       -2
340
0
 93
        0
 40
0.045
309
GRIDFORMAT_END
 95
        8
302
GRIDFORMAT
  1
GRIDFORMAT_BEGIN
 90
        0
 91
        1
 62
     0
 92
       -2
340
0
 93
        0
 40
0.045
309
GRIDFORMAT_END
 95
       16
302
GRIDFORMAT
  1
GRIDFORMAT_BEGIN
 90
        0
 91
        1
 62
     0
 92
       -2
340
0
 93
        0
 40
0.045
309
GRIDFORMAT_END
 95
       32
302
GRIDFORMAT
  1
GRIDFORMAT_BEGIN
 90
        0
 91
        1
 62
     0
 92
       -2
340
0
 93
        0
 40
0.045
309
GRIDFORMAT_END
309
TABLEFORMAT_END
  1
CELLSTYLE_BEGIN
 90
        1
 91
        1
300
_TITLE
309
CELLSTYLE_END
300
CELLSTYLE
  1
TABLEFORMAT_BEGIN
 90
        5
170
     1
 91
        0
 92
        0
 62
   257
 93
        1
300
CONTENTFORMAT
  1
CONTENTFORMAT_BEGIN
 90
        0
 91
        0
 92
        4
 93
        0
300

 40
0.0
140
1.0
 94
        5
 62
     0
340
17
144
4.5
309
CONTENTFORMAT_END
171
     1
301
MARGIN
  1
CELLMARGIN_BEGIN
 40
0.06
 40
0.06
 40
0.06
 40
0.06
 40
0.18
 40
0.18
309
CELLMARGIN_END
 94
        6
 95
        1
302
GRIDFORMAT
  1
GRIDFORMAT_BEGIN
 90
        0
 91
        1
 62
     0
 92
       -2
340
0
 93
        0
 40
0.045
309
GRIDFORMAT_END
 95
        2
302
GRIDFORMAT
  1
GRIDFORMAT_BEGIN
 90
        0
 91
        1
 62
     0
 92
       -2
340
0
 93
        0
 40
0.045
309
GRIDFORMAT_END
 95
        4
302
GRIDFORMAT
  1
GRIDFORMAT_BEGIN
 90
        0
 91
        1
 62
     0
 92
       -2
340
0
 93
        0
 40
0.045
309
GRIDFORMAT_END
 95
        8
302
GRIDFORMAT
  1
GRIDFORMAT_BEGIN
 90
        0
 91
        1
 62
     0
 92
       -2
340
0
 93
        0
 40
0.045
309
GRIDFORMAT_END
 95
       16
302
GRIDFORMAT
  1
GRIDFORMAT_BEGIN
 90
        0
 91
        1
 62
     0
 92
       -2
340
0
 93
        0
 40
0.045
309
GRIDFORMAT_END
 95
       32
302
GRIDFORMAT
  1
GRIDFORMAT_BEGIN
 90
        0
 91
        1
 62
     0
 92
       -2
340
0
 93
        0
 40
0.045
309
GRIDFORMAT_END
309
TABLEFORMAT_END
  1
CELLSTYLE_BEGIN
 90
        2
 91
        1
300
_HEADER
309
CELLSTYLE_END
300
CELLSTYLE
  1
TABLEFORMAT_BEGIN
 90
        5
170
     1
 91
        0
 92
        0
 62
   257
 93
        1
300
CONTENTFORMAT
  1
CONTENTFORMAT_BEGIN
 90
        0
 91
        0
 92
        4
 93
        0
300

 40
0.0
140
1.0
 94
        2
 62
     0
340
17
144
4.5
309
CONTENTFORMAT_END
171
     1
301
MARGIN
  1
CELLMARGIN_BEGIN
 40
0.06
 40
0.06
 40
0.06
 40
0.06
 40
0.18
 40
0.18
309
CELLMARGIN_END
 94
        6
 95
        1
302
GRIDFORMAT
  1
GRIDFORMAT_BEGIN
 90
        0
 91
        1
 62
     0
 92
       -2
340
0
 93
        0
 40
0.045
309
GRIDFORMAT_END
 95
        2
302
GRIDFORMAT
  1
GRIDFORMAT_BEGIN
 90
        0
 91
        1
 62
     0
 92
       -2
340
0
 93
        0
 40
0.045
309
GRIDFORMAT_END
 95
        4
302
GRIDFORMAT
  1
GRIDFORMAT_BEGIN
 90
        0
 91
        1
 62
     0
 92
       -2
340
0
 93
        0
 40
0.045
309
GRIDFORMAT_END
 95
        8
302
GRIDFORMAT
  1
GRIDFORMAT_BEGIN
 90
        0
 91
        1
 62
     0
 92
       -2
340
0
 93
        0
 40
0.045
309
GRIDFORMAT_END
 95
       16
302
GRIDFORMAT
  1
GRIDFORMAT_BEGIN
 90
        0
 91
        1
 62
     0
 92
       -2
340
0
 93
        0
 40
0.045
309
GRIDFORMAT_END
 95
       32
302
GRIDFORMAT
  1
GRIDFORMAT_BEGIN
 90
        0
 91
        1
 62
     0
 92
       -2
340
0
 93
        0
 40
0.045
309
GRIDFORMAT_END
309
TABLEFORMAT_END
  1
CELLSTYLE_BEGIN
 90
        3
 91
        2
300
_DATA
309
CELLSTYLE_END
  0
ENDSEC
  0
EOF
