  0
SECTION
  2
HEADER
  9
$ACADVER
  1
AC1021
  9
$ACADMAINTVER
 70
    25
  9
$DWGCODEPAGE
  3
ANSI_932
  9
$LASTSAVEDBY
  1
howeNelson
  9
$INSBASE
 10
0.0
 20
0.0
 30
0.0
  9
$EXTMIN
 10
0.0
 20
0.0
 30
0.0
  9
$EXTMAX
 10
630.0
 20
891.0
 30
0.0
  9
$LIMMIN
 10
0.0
 20
0.0
  9
$LIMMAX
 10
630.0
 20
891.0
  9
$ORTHOMODE
 70
     0
  9
$REGENMODE
 70
     1
  9
$FILLMODE
 70
     1
  9
$QTEXTMODE
 70
     0
  9
$MIRRTEXT
 70
     1
  9
$LTSCALE
 40
0.25
  9
$ATTMODE
 70
     1
  9
$TEXTSIZE
 40
2.5
  9
$TRACEWID
 40
1.0
  9
$TEXTSTYLE
  7
ＭＳ ゴシック
  9
$CLAYER
  8
モデル
  9
$CELTYPE
  6
CENTER
  9
$CECOLOR
 62
   256
  9
$CELTSCALE
 40
1.0
  9
$DISPSILH
 70
     0
  9
$DIMSCALE
 40
1.0
  9
$DIMASZ
 40
2.0
  9
$DIMEXO
 40
6.0
  9
$DIMDLI
 40
8.0
  9
$DIMRND
 40
0.0
  9
$DIMDLE
 40
0.0
  9
$DIMEXE
 40
0.0
  9
$DIMTP
 40
0.0
  9
$DIMTM
 40
0.0
  9
$DIMTXT
 40
8.0
  9
$DIMCEN
 40
0.0
  9
$DIMTSZ
 40
0.0
  9
$DIMTOL
 70
     0
  9
$DIMLIM
 70
     0
  9
$DIMTIH
 70
     0
  9
$DIMTOH
 70
     0
  9
$DIMSE1
 70
     0
  9
$DIMSE2
 70
     0
  9
$DIMTAD
 70
     1
  9
$DIMZIN
 70
    11
  9
$DIMBLK
  1
DOT
  9
$DIMASO
 70
     1
  9
$DIMSHO
 70
     1
  9
$DIMPOST
  1
<>
  9
$DIMAPOST
  1
[]
  9
$DIMALT
 70
     0
  9
$DIMALTD
 70
     1
  9
$DIMALTF
 40
1.0
  9
$DIMLFAC
 40
1.0
  9
$DIMTOFL
 70
     0
  9
$DIMTVP
 40
0.0
  9
$DIMTIX
 70
     1
  9
$DIMSOXD
 70
     0
  9
$DIMSAH
 70
     0
  9
$DIMBLK1
  1

  9
$DIMBLK2
  1

  9
$DIMSTYLE
  2
tfrom線あり
  9
$DIMCLRD
 70
     0
  9
$DIMCLRE
 70
     0
  9
$DIMCLRT
 70
     0
  9
$DIMTFAC
 40
1.0
  9
$DIMGAP
 40
5.0
  9
$DIMJUST
 70
     0
  9
$DIMSD1
 70
     0
  9
$DIMSD2
 70
     0
  9
$DIMTOLJ
 70
     1
  9
$DIMTZIN
 70
    11
  9
$DIMALTZ
 70
    11
  9
$DIMALTTZ
 70
    11
  9
$DIMUPT
 70
     0
  9
$DIMDEC
 70
     0
  9
$DIMTDEC
 70
     1
  9
$DIMALTU
 70
     2
  9
$DIMALTTD
 70
     2
  9
$DIMTXSTY
  7
ＭＳ ゴシック
  9
$DIMAUNIT
 70
     0
  9
$DIMADEC
 70
     2
  9
$DIMALTRND
 40
0.0
  9
$DIMAZIN
 70
     0
  9
$DIMDSEP
 70
    46
  9
$DIMATFIT
 70
     0
  9
$DIMFRAC
 70
     2
  9
$DIMLDRBLK
  1
DOT
  9
$DIMLUNIT
 70
     2
  9
$DIMLWD
 70
    -2
  9
$DIMLWE
 70
    -2
  9
$DIMTMOVE
 70
     0
  9
$DIMFXL
 40
1.0
  9
$DIMFXLON
 70
     0
  9
$DIMJOGANG
 40
0.7853981633974483
  9
$DIMTFILL
 70
     0
  9
$DIMTFILLCLR
 70
     0
  9
$DIMARCSYM
 70
     0
  9
$DIMLTYPE
  6

  9
$DIMLTEX1
  6

  9
$DIMLTEX2
  6

  9
$LUNITS
 70
     2
  9
$LUPREC
 70
     0
  9
$SKETCHINC
 40
0.1
  9
$FILLETRAD
 40
0.0
  9
$AUNITS
 70
     0
  9
$AUPREC
 70
     0
  9
$MENU
  1
acad
  9
$ELEVATION
 40
0.0
  9
$PELEVATION
 40
0.0
  9
$THICKNESS
 40
0.0
  9
$LIMCHECK
 70
     0
  9
$CHAMFERA
 40
0.0
  9
$CHAMFERB
 40
0.0
  9
$CHAMFERC
 40
0.0
  9
$CHAMFERD
 40
0.0
  9
$SKPOLY
 70
     0
  9
$TDCREATE
 40
2447893.375
  9
$TDUCREATE
 40
0.0
  9
$TDUPDATE
 40
2458059.5677986
  9
$TDUUPDATE
 40
2458059.1927986
  9
$TDINDWG
 40
0.0301418866
  9
$TDUSRTIMER
 40
2458059.191957674
  9
$USRTIMER
 70
     1
  9
$ANGBASE
 50
0.0
  9
$ANGDIR
 70
     0
  9
$PDMODE
 70
     1
  9
$PDSIZE
 40
-2.0
  9
$PLINEWID
 40
0.0
  9
$SPLFRAME
 70
     0
  9
$SPLINETYPE
 70
     6
  9
$SPLINESEGS
 70
     8
  9
$HANDSEED
  5
A133
  9
$SURFTAB1
 70
     6
  9
$SURFTAB2
 70
     6
  9
$SURFTYPE
 70
     6
  9
$SURFU
 70
     6
  9
$SURFV
 70
     6
  9
$UCSBASE
  2

  9
$UCSNAME
  2

  9
$UCSORG
 10
0.0
 20
0.0
 30
0.0
  9
$UCSXDIR
 10
1.0
 20
0.0
 30
0.0
  9
$UCSYDIR
 10
0.0
 20
1.0
 30
0.0
  9
$UCSORTHOREF
  2

  9
$UCSORTHOVIEW
 70
     0
  9
$UCSORGTOP
 10
0.0
 20
0.0
 30
0.0
  9
$UCSORGBOTTOM
 10
0.0
 20
0.0
 30
0.0
  9
$UCSORGLEFT
 10
0.0
 20
0.0
 30
0.0
  9
$UCSORGRIGHT
 10
0.0
 20
0.0
 30
0.0
  9
$UCSORGFRONT
 10
0.0
 20
0.0
 30
0.0
  9
$UCSORGBACK
 10
0.0
 20
0.0
 30
0.0
  9
$PUCSBASE
  2

  9
$PUCSNAME
  2

  9
$PUCSORG
 10
0.0
 20
0.0
 30
0.0
  9
$PUCSXDIR
 10
1.0
 20
0.0
 30
0.0
  9
$PUCSYDIR
 10
0.0
 20
1.0
 30
0.0
  9
$PUCSORTHOREF
  2

  9
$PUCSORTHOVIEW
 70
     0
  9
$PUCSORGTOP
 10
0.0
 20
0.0
 30
0.0
  9
$PUCSORGBOTTOM
 10
0.0
 20
0.0
 30
0.0
  9
$PUCSORGLEFT
 10
0.0
 20
0.0
 30
0.0
  9
$PUCSORGRIGHT
 10
0.0
 20
0.0
 30
0.0
  9
$PUCSORGFRONT
 10
0.0
 20
0.0
 30
0.0
  9
$PUCSORGBACK
 10
0.0
 20
0.0
 30
0.0
  9
$USERI1
 70
     0
  9
$USERI2
 70
     0
  9
$USERI3
 70
     0
  9
$USERI4
 70
     0
  9
$USERI5
 70
     0
  9
$USERR1
 40
0.0
  9
$USERR2
 40
0.0
  9
$USERR3
 40
0.0
  9
$USERR4
 40
0.0
  9
$USERR5
 40
0.0
  9
$WORLDVIEW
 70
     1
  9
$SHADEDGE
 70
     3
  9
$SHADEDIF
 70
    70
  9
$TILEMODE
 70
     1
  9
$MAXACTVP
 70
    64
  9
$PINSBASE
 10
0.0
 20
0.0
 30
0.0
  9
$PLIMCHECK
 70
     0
  9
$PEXTMIN
 10
0.0
 20
0.0
 30
0.0
  9
$PEXTMAX
 10
0.0
 20
0.0
 30
0.0
  9
$PLIMMIN
 10
-7.5
 20
-20.0
  9
$PLIMMAX
 10
412.5
 20
277.0
  9
$UNITMODE
 70
     0
  9
$VISRETAIN
 70
     0
  9
$PLINEGEN
 70
     1
  9
$PSLTSCALE
 70
     0
  9
$TREEDEPTH
 70
  3020
  9
$CMLSTYLE
  2
Standard
  9
$CMLJUST
 70
     0
  9
$CMLSCALE
 40
1.0
  9
$PROXYGRAPHICS
 70
     0
  9
$MEASUREMENT
 70
     1
  9
$CELWEIGHT
370
    -1
  9
$ENDCAPS
280
     0
  9
$JOINSTYLE
280
     0
  9
$LWDISPLAY
290
     1
  9
$INSUNITS
 70
     4
  9
$HYPERLINKBASE
  1

  9
$STYLESHEET
  1

  9
$XEDIT
290
     1
  9
$CEPSNTYPE
380
     0
  9
$PSTYLEMODE
290
     1
  9
$FINGERPRINTGUID
  2

  9
$VERSIONGUID
  2

  9
$EXTNAMES
290
     1
  9
$PSVPSCALE
 40
0.0
  9
$OLESTARTUP
290
     0
  9
$SORTENTS
280
   127
  9
$INDEXCTL
280
     0
  9
$HIDETEXT
280
     1
  9
$XCLIPFRAME
290
     0
  9
$HALOGAP
280
     0
  9
$OBSCOLOR
 70
   257
  9
$OBSLTYPE
280
     0
  9
$INTERSECTIONDISPLAY
280
     0
  9
$INTERSECTIONCOLOR
 70
   257
  9
$DIMASSOC
280
     2
  9
$PROJECTNAME
  1

  9
$CAMERADISPLAY
290
     0
  9
$LENSLENGTH
 40
50.0
  9
$CAMERAHEIGHT
 40
0.0
  9
$STEPSPERSEC
 40
2.0
  9
$STEPSIZE
 40
6.0
  9
$3DDWFPREC
 40
2.0
  9
$PSOLWIDTH
 40
0.25
  9
$PSOLHEIGHT
 40
4.0
  9
$LOFTANG1
 40
1.570796326794897
  9
$LOFTANG2
 40
1.570796326794897
  9
$LOFTMAG1
 40
0.0
  9
$LOFTMAG2
 40
0.0
  9
$LOFTPARAM
 70
     7
  9
$LOFTNORMALS
280
     1
  9
$LATITUDE
 40
37.795
  9
$LONGITUDE
 40
-122.394
  9
$NORTHDIRECTION
 40
0.0
  9
$TIMEZONE
 70
 -8000
  9
$LIGHTGLYPHDISPLAY
280
     1
  9
$TILEMODELIGHTSYNCH
280
     1
  9
$SOLIDHIST
280
     1
  9
$SHOWHIST
280
     1
  9
$DWFFRAME
280
     2
  9
$DGNFRAME
280
     2
  9
$REALWORLDSCALE
290
     1
  9
$INTERFERECOLOR
 62
   256
  9
$CSHADOW
280
     0
  9
$SHADOWPLANELOCATION
 40
0.0
  0
ENDSEC
  0
SECTION
  2
CLASSES
  0
CLASS
  1
LWPOLYLINE
  2
AcDbPolyline
  3
ObjectDBX Classes
 90
        0
 91
        1
280
     0
281
     1
  0
CLASS
  1
IMAGE
  2
AcDbRasterImage
  3
ISM
 90
      127
 91
        7
280
     0
281
     1
  0
CLASS
  1
OLE2FRAME
  2
AcDbOle2Frame
  3
ObjectDBX Classes
 90
        0
 91
        1
280
     0
281
     1
  0
CLASS
  1
HATCH
  2
AcDbHatch
  3
ObjectDBX Classes
 90
        0
 91
        1
280
     0
281
     1
  0
CLASS
  1
DICTIONARYVAR
  2
AcDbDictionaryVar
  3
ObjectDBX Classes
 90
        0
 91
        6
280
     0
281
     0
  0
CLASS
  1
RASTERVARIABLES
  2
AcDbRasterVariables
  3
ISM
 90
        0
 91
        6
280
     0
281
     0
  0
CLASS
  1
IMAGEDEF
  2
AcDbRasterImageDef
  3
ISM
 90
        0
 91
        6
280
     0
281
     0
  0
CLASS
  1
IMAGEDEF_REACTOR
  2
AcDbRasterImageDefReactor
  3
ISM
 90
        1
 91
        6
280
     0
281
     0
  0
CLASS
  1
IDBUFFER
  2
AcDbIdBuffer
  3
ObjectDBX Classes
 90
        0
 91
        6
280
     0
281
     0
  0
CLASS
  1
SPATIAL_FILTER
  2
AcDbSpatialFilter
  3
ObjectDBX Classes
 90
        0
 91
        6
280
     0
281
     0
  0
CLASS
  1
XRECORD
  2
AcDbXrecord
  3
ObjectDBX Classes
 90
        0
 91
        1
280
     0
281
     0
  0
CLASS
  1
SORTENTSTABLE
  2
AcDbSortentsTable
  3
ObjectDBX Classes
 90
        0
 91
        6
280
     0
281
     0
  0
CLASS
  1
LAYER_INDEX
  2
AcDbLayerIndex
  3
ObjectDBX Classes
 90
        0
 91
        6
280
     0
281
     0
  0
CLASS
  1
SPATIAL_INDEX
  2
AcDbSpatialIndex
  3
AutoCAD 2000
 90
        0
 91
        6
280
     0
281
     0
  0
CLASS
  1
OBJECT_PTR
  2
CAseDLPNTableRecord
  3
ASE-LPNTableRecord
 90
        1
 91
        6
280
     0
281
     0
  0
CLASS
  1
LAYOUT
  2
AcDbLayout
  3
ObjectDBX Classes
 90
        0
 91
        1
280
     0
281
     0
  0
CLASS
  1
PLOTSETTINGS
  2
AcDbPlotSettings
  3
ObjectDBX Classes
 90
        0
 91
        6
280
     0
281
     0
  0
CLASS
  1
ACDBDICTIONARYWDFLT
  2
AcDbDictionaryWithDefault
  3
ObjectDBX Classes
 90
        0
 91
        6
280
     0
281
     0
  0
CLASS
  1
ACDBPLACEHOLDER
  2
AcDbPlaceHolder
  3
ObjectDBX Classes
 90
        0
 91
        1
280
     0
281
     0
  0
CLASS
  1
SCALE
  2
AcDbScale
  3
ObjectDBX Classes
 90
     1153
 91
        6
280
     0
281
     0
  0
CLASS
  1
MATERIAL
  2
AcDbMaterial
  3
ObjectDBX Classes
 90
     1153
 91
        6
280
     0
281
     0
  0
CLASS
  1
VISUALSTYLE
  2
AcDbVisualStyle
  3
ObjectDBX Classes
 90
     4095
 91
        6
280
     0
281
     0
  0
CLASS
  1
TABLESTYLE
  2
AcDbTableStyle
  3
ObjectDBX Classes
 90
     4095
 91
        6
280
     0
281
     0
  0
CLASS
  1
DIMASSOC
  2
AcDbDimAssoc
  3
"AcDbDimAssoc|Product Desc:     AcDim ARX App For Dimension|Company:          Autodesk, Inc.|WEB Address:      www.autodesk.com"
 90
        0
 91
        6
280
     0
281
     0
  0
CLASS
  1
CELLSTYLEMAP
  2
AcDbCellStyleMap
  3
ObjectDBX Classes
 90
     1152
 91
        6
280
     0
281
     0
  0
CLASS
  1
SUN
  2
AcDbSun
  3
SCENEOE
 90
     1153
 91
        6
280
     0
281
     0
  0
CLASS
  1
MLEADERSTYLE
  2
AcDbMLeaderStyle
  3
ACDB_MLEADERSTYLE_CLASS
 90
     4095
 91
        6
280
     0
281
     0
  0
CLASS
  1
FIELD
  2
AcDbField
  3
ObjectDBX Classes
 90
     1152
 91
        6
280
     0
281
     0
  0
CLASS
  1
FIELDLIST
  2
AcDbFieldList
  3
ObjectDBX Classes
 90
     1152
 91
        6
280
     0
281
     0
  0
ENDSEC
  0
SECTION
  2
TABLES
  0
TABLE
  2
VPORT
  5
7
330
0
100
AcDbSymbolTable
 70
     1
  0
VPORT
  5
15
330
7
100
AcDbSymbolTableRecord
100
AcDbViewportTableRecord
  2
*ACTIVE
 70
     0
 10
0.0
 20
0.0
 11
1.0
 21
1.0
 12
315.0
 22
445.5
 13
0.0
 23
0.0
 14
1.0
 24
1.0
 15
0.0
 25
0.0
 16
0.0
 26
0.0
 36
1.0
 17
0.0
 27
0.0
 37
0.0
 40
908.82
 41
2.178082191780822
 42
50.0
 43
0.0
 44
0.0
 50
0.0
 51
0.0
 71
    16
 72
  2000
 73
     1
 74
     1
 75
     0
 76
     0
 77
     0
 78
     0
281
     0
 65
     1
110
0.0
120
0.0
130
0.0
111
1.0
121
0.0
131
0.0
112
0.0
122
1.0
132
0.0
 79
     0
146
0.0
348
26C
 60
     3
 61
     5
292
     1
282
     1
141
0.0
142
0.0
 63
   256
361
10E8
  0
ENDTAB
  0
TABLE
  2
LTYPE
  5
4
330
0
100
AcDbSymbolTable
 70
     4
  0
LTYPE
  5
11
330
4
100
AcDbSymbolTableRecord
100
AcDbLinetypeTableRecord
  2
ByBlock
 70
     0
  3

 72
    65
 73
     0
 40
0.0
  0
LTYPE
  5
12
330
4
100
AcDbSymbolTableRecord
100
AcDbLinetypeTableRecord
  2
ByLayer
 70
     0
  3
Solid line
 72
    65
 73
     0
 40
0.0
  0
LTYPE
  5
13
330
4
100
AcDbSymbolTableRecord
100
AcDbLinetypeTableRecord
  2
Continuous
 70
     0
  3
Solid line
 72
    65
 73
     0
 40
0.0
  0
LTYPE
  5
12C7
330
4
100
AcDbSymbolTableRecord
100
AcDbLinetypeTableRecord
  2
HIDDEN
 70
     0
  3
Hidden _ _ _ _ _ _ _ _ _ _ _ _ _ _ _ _ _ _ _ _ 
 72
    65
 73
     2
 40
9.524999999999999
 49
6.35
 74
     0
 49
-3.175
 74
     0
  0
LTYPE
  5
A10E
330
4
100
AcDbSymbolTableRecord
100
AcDbLinetypeTableRecord
  2
CENTER
 70
     0
  3
 Center _____  _  _____  _  _____  _  _____  _ 
 72
    65
 73
     4
 40
50.8
 49
31.75
 74
     0
 49
-6.35
 74
     0
 49
6.35
 74
     0
 49
-6.35
 74
     0
  0
ENDTAB
  0
TABLE
  2
LAYER
  5
2
102
{ACAD_XDICTIONARY
360
2E1
102
}
330
0
100
AcDbSymbolTable
 70
    11
  0
LAYER
  5
14
330
2
100
AcDbSymbolTableRecord
100
AcDbLayerTableRecord
  2
0
 70
     0
 62
     7
  6
Continuous
370
    -3
390
1D
347
266
  0
LAYER
  5
1D5A
330
2
100
AcDbSymbolTableRecord
100
AcDbLayerTableRecord
  2
template
 70
     0
 62
     7
  6
Continuous
370
    20
390
1D
347
266
  0
LAYER
  5
1D5C
330
2
100
AcDbSymbolTableRecord
100
AcDbLayerTableRecord
  2
レイヤー 1
 70
     0
 62
     7
  6
Continuous
370
    20
390
1D
347
266
  0
LAYER
  5
3503
330
2
100
AcDbSymbolTableRecord
100
AcDbLayerTableRecord
  2
PRINT
 70
     0
 62
     4
  6
Continuous
290
     0
370
    -3
390
1D
347
266
1001
AcAecLayerStandard
1000

1000

  0
LAYER
  5
352F
330
2
100
AcDbSymbolTableRecord
100
AcDbLayerTableRecord
  2
モデル
 70
     0
 62
     7
  6
Continuous
370
    20
390
1D
347
266
1001
AcAecLayerStandard
1000

1000

  0
LAYER
  5
35BB
330
2
100
AcDbSymbolTableRecord
100
AcDbLayerTableRecord
  2
Defpoints
 70
     0
 62
     7
  6
Continuous
290
     0
370
    -3
390
1D
347
266
  0
LAYER
  5
35BF
330
2
100
AcDbSymbolTableRecord
100
AcDbLayerTableRecord
  2
寸法
 70
     0
 62
     3
  6
Continuous
370
    13
390
1D
347
266
1001
AcAecLayerStandard
1000

1000

  0
LAYER
  5
4B23
330
2
100
AcDbSymbolTableRecord
100
AcDbLayerTableRecord
  2
テンプレート
 70
     0
 62
     7
  6
Continuous
370
    20
390
1D
347
266
1001
AcAecLayerStandard
1000

1000

  0
ENDTAB
  0
TABLE
  2
STYLE
  5
3
330
0
100
AcDbSymbolTable
 70
     2
  0
STYLE
  5
17
330
3
100
AcDbSymbolTableRecord
100
AcDbTextStyleTableRecord
  2
Standard
 70
     0
 40
0.0
 41
1.0
 50
0.0
 71
     0
 42
2.5
  3
txt
  4
BIGFONT.SHX
  0
STYLE
  5
39
330
3
100
AcDbSymbolTableRecord
100
AcDbTextStyleTableRecord
  2
ＭＳ ゴシック
 70
     0
 40
0.0
 41
1.0
 50
0.0
 71
     0
 42
2.5
  3
msgothic.ttc
  4
ＭＳ ゴシック
1001
ACAD
1000
ＭＳ ゴシック
1071
        0
  0
ENDTAB
  0
TABLE
  2
VIEW
  5
5
330
0
100
AcDbSymbolTable
 70
     0
  0
ENDTAB
  0
TABLE
  2
UCS
  5
6
330
0
100
AcDbSymbolTable
 70
     0
  0
ENDTAB
  0
TABLE
  2
APPID
  5
8
330
0
100
AcDbSymbolTable
 70
     3
  0
APPID
  5
16
330
8
100
AcDbSymbolTableRecord
100
AcDbRegAppTableRecord
  2
ACAD
 70
     0
  0
APPID
  5
7AC
330
8
100
AcDbSymbolTableRecord
100
AcDbRegAppTableRecord
  2
AcAecLayerStandard
 70
     0
  0
APPID
  5
4E1E
330
8
100
AcDbSymbolTableRecord
100
AcDbRegAppTableRecord
  2
ACAD_MLEADERVER
 70
     0
  0
ENDTAB
  0
TABLE
  2
DIMSTYLE
  5
9
330
0
100
AcDbSymbolTable
 70
     2
100
AcDbDimStyleTable
  0
DIMSTYLE
105
18
330
9
100
AcDbSymbolTableRecord
100
AcDbDimStyleTableRecord
  2
Standard
 70
     0
178
     0
340
17
  0
DIMSTYLE
105
57
102
{ACAD_REACTORS
330
9F50
330
9F60
330
9F7C
330
9F8E
330
9F9D
330
9FAC
330
9FBE
330
9FCD
330
9FED
330
A011
102
}
330
9
100
AcDbSymbolTableRecord
100
AcDbDimStyleTableRecord
  2
tfrom線あり
 70
     0
  3
<>
  4
[]
 41
2.0
 42
6.0
 43
8.0
 44
0.0
 73
     0
 74
     0
 77
     1
 78
    11
140
8.0
141
0.0
143
1.0
147
5.0
171
     1
174
     1
178
     0
179
     2
271
     0
272
     1
276
     2
284
    11
285
    11
286
    11
289
     0
340
39
341
4E
342
4E
  0
ENDTAB
  0
TABLE
  2
BLOCK_RECORD
  5
1
330
0
100
AcDbSymbolTable
 70
   361
  0
BLOCK_RECORD
  5
A
102
{ACAD_XDICTIONARY
360
A08D
102
}
330
1
100
AcDbSymbolTableRecord
100
AcDbBlockTableRecord
  2
*MODEL_SPACE
340
20
 70
     0
280
     1
281
     0
  0
BLOCK_RECORD
  5
B
330
1
100
AcDbSymbolTableRecord
100
AcDbBlockTableRecord
  2
*PAPER_SPACE
340
21
 70
     0
280
     1
281
     0
  0
BLOCK_RECORD
  5
4E
330
1
100
AcDbSymbolTableRecord
100
AcDbBlockTableRecord
  2
_DOT
340
0
102
{BLKREFS
331
3734
331
3735
331
3742
331
3743
331
3751
331
3752
331
3760
331
3761
331
376F
331
3770
331
377E
331
377F
331
378D
331
378E
331
379C
331
379D
331
37AB
331
37AC
331
382D
331
382E
331
383C
331
383D
331
39FA
331
39FB
331
3A05
331
3A06
331
3A11
331
3A12
331
3A1D
331
3A1E
331
3A29
331
3A2A
331
3A35
331
3A36
331
3A41
331
3A42
331
3A4D
331
3A4E
331
3A59
331
3A5A
331
3A65
331
3A66
331
3A71
331
3A72
331
3CDA
331
3CDB
331
3CE9
331
3CEA
331
3CF6
331
3CF7
331
3D03
331
3D04
331
3D12
331
3D13
331
3D21
331
3D22
331
3D30
331
3D31
331
3D3D
331
3D3E
331
3F75
331
3F76
331
3F81
331
3F82
331
3F8D
331
3F8E
331
3F99
331
3F9A
331
3FA5
331
3FA6
331
3FB1
331
3FB2
331
3FBD
331
3FBE
331
3FC9
331
3FCA
331
3FE4
331
3FE5
331
3FF3
331
3FF4
331
4005
331
4006
331
42AA
331
42AB
331
43E0
331
43E1
331
43EC
331
43ED
331
43F8
331
43F9
331
4404
331
4405
331
441D
331
441E
331
442C
331
442D
331
443B
331
443C
331
4449
331
444A
331
4464
331
4465
331
4471
331
4472
331
464E
331
464F
331
465D
331
465E
331
466A
331
466B
331
4677
331
4678
331
4684
331
4685
331
47C5
331
47C6
331
47D1
331
47D2
331
47DD
331
47DE
331
47E9
331
47EA
331
47F5
331
47F6
331
491E
331
491F
331
492B
331
492C
331
4938
331
4939
331
4945
331
4946
331
4A49
331
4A4A
331
4A55
331
4A56
331
4A61
331
4A62
331
4A6D
331
4A6E
331
4C9D
331
4C9E
331
4CA9
331
4CAA
331
4CB5
331
4CB6
331
4CC1
331
4CC2
331
4D89
331
4D8A
331
4D95
331
4D96
331
4DA1
331
4DA2
331
4DAD
331
4DAE
331
4DFD
331
4DFE
331
4E5D
331
4E5E
331
4E69
331
4E6A
331
4E76
331
4E77
331
4EB6
331
4EB7
331
4EF4
331
4EF5
331
4F22
331
4F23
331
4F37
331
4F38
331
4F5E
331
4F5F
331
51AC
331
51AD
331
51B8
331
51B9
331
51C4
331
51C5
331
51D0
331
51D1
331
51DC
331
51DD
331
51E8
331
51E9
331
51F4
331
51F5
331
5200
331
5201
331
520C
331
520D
331
5218
331
5219
331
5224
331
5225
331
5230
331
5231
331
523C
331
523D
331
5248
331
5249
331
53B2
331
53B3
331
53C1
331
53C2
331
53CE
331
53CF
331
53DB
331
53DC
331
53E8
331
53E9
331
54EC
331
54ED
331
5501
331
5502
331
550F
331
5510
331
558D
331
558E
331
569B
331
569C
331
56A7
331
56A8
331
56B3
331
56B4
331
56C3
331
56C4
331
56D6
331
56D7
331
56E6
331
56E7
331
56F6
331
56F7
331
570F
331
5710
331
5739
331
573A
331
574B
331
574C
331
575A
331
575B
331
5794
331
5795
331
57A7
331
57A8
331
57B9
331
57BA
331
57D2
331
57D3
331
57E7
331
57E8
331
57FD
331
57FE
331
580C
331
580D
331
5821
331
5822
331
5838
331
5839
331
5846
331
5847
331
587F
331
5880
331
5891
331
5892
331
58A5
331
58A6
331
58B3
331
58B4
331
592C
331
592D
331
59C3
331
59C4
331
5A84
331
5A85
331
5B64
331
5B65
331
5B93
331
5B94
331
5BB7
331
5BB8
331
5CE2
331
5CE3
331
5D61
331
5D62
331
5D6E
331
5D6F
331
5D7D
331
5D7E
331
5D8D
331
5D8E
331
5DBD
331
5DBE
331
5ED8
331
5ED9
331
5EE4
331
5EE5
331
5EF0
331
5EF1
331
5EFC
331
5EFD
331
5F08
331
5F09
331
5F14
331
5F15
331
6008
331
6009
331
6017
331
6018
331
6024
331
6025
331
6070
331
6071
331
607D
331
607E
331
608C
331
608D
331
6164
331
6165
331
6179
331
617A
331
61E5
331
61E6
331
61F1
331
61F2
331
6204
331
6205
331
66E9
331
66EA
331
66F5
331
66F6
331
6701
331
6702
331
670D
331
670E
331
6719
331
671A
331
6725
331
6726
331
67D2
331
67D3
331
6821
331
6822
331
682F
331
6830
331
683C
331
683D
331
6865
331
6866
331
68B1
331
68B2
331
69AC
331
69AD
331
69B9
331
69BA
331
69C8
331
69C9
331
69F4
331
69F5
331
6A0A
331
6A0B
331
6AAD
331
6AAE
331
6B92
331
6B93
331
6B9F
331
6BA0
331
6BAE
331
6BAF
331
6BDA
331
6BDB
331
6BF0
331
6BF1
331
6C93
331
6C94
331
6E14
331
6E15
331
6E20
331
6E21
331
6E2C
331
6E2D
331
6E38
331
6E39
331
6E44
331
6E45
331
6E50
331
6E51
331
6F8C
331
6F8D
331
6F98
331
6F99
331
6FA4
331
6FA5
331
6FB0
331
6FB1
331
6FBC
331
6FBD
331
6FC8
331
6FC9
331
70E4
331
70E5
331
7118
331
7119
331
717C
331
717D
331
7189
331
718A
331
7199
331
719A
331
71AB
331
71AC
331
71BD
331
71BE
331
71CA
331
71CB
331
71DA
331
71DB
331
720C
331
720D
331
7218
331
7219
331
7224
331
7225
331
7230
331
7231
331
723C
331
723D
331
7248
331
7249
331
7254
331
7255
331
72FF
331
7300
331
734E
331
734F
331
735C
331
735D
331
7369
331
736A
331
7392
331
7393
331
73DE
331
73DF
331
7565
331
7566
331
7571
331
7572
331
757D
331
757E
331
7589
331
758A
331
7595
331
7596
331
75A1
331
75A2
331
76BF
331
76C0
331
773F
331
7740
331
7750
331
7751
331
775F
331
7760
331
7875
331
7876
331
7884
331
7885
331
789A
331
789B
331
7901
331
7902
331
7910
331
7911
331
793A
331
793B
331
794C
331
794D
331
7958
331
7959
331
7A51
331
7A52
331
7A60
331
7A61
331
7B26
331
7B27
331
7B35
331
7B36
331
7B44
331
7B45
331
7B53
331
7B54
331
7B60
331
7B61
331
7C23
331
7C24
331
7C32
331
7C33
331
7C41
331
7C42
331
7C50
331
7C51
331
7C5D
331
7C5E
331
7D26
331
7D27
331
7D35
331
7D36
331
7D44
331
7D45
331
7D53
331
7D54
331
7D60
331
7D61
331
7E09
331
7E0A
331
7E14
331
7E15
331
7E20
331
7E21
331
7E2D
331
7E2E
331
7E39
331
7E3A
331
7EE3
331
7EE4
331
7F04
331
7F05
331
7F16
331
7F17
331
7F2A
331
7F2B
331
7F3D
331
7F3E
331
7F52
331
7F53
331
7F95
331
7F96
331
81CD
331
81CE
331
81F8
331
81F9
331
82B1
331
82B2
331
82C0
331
82C1
331
82CF
331
82D0
331
8324
331
8325
331
833F
331
8340
331
8357
331
8358
331
846D
331
846E
331
847C
331
847D
331
848A
331
848B
331
8499
331
849A
331
853A
331
853B
331
8549
331
854A
331
86BC
331
86BD
331
86C8
331
86C9
331
86D4
331
86D5
331
86E0
331
86E1
331
86EC
331
86ED
331
86F8
331
86F9
331
879E
331
879F
331
8CE9
331
8CEA
331
8CF8
331
8CF9
331
8D0A
331
8D0B
331
8D3D
331
8D3E
331
8D4C
331
8D4D
331
8D5B
331
8D5C
331
931B
331
931C
331
9327
331
9328
331
9333
331
9334
331
933F
331
9340
331
934B
331
934C
331
9357
331
9358
331
9363
331
9364
331
9414
331
9415
331
9422
331
9423
331
9436
331
9437
331
95CC
331
95CD
331
95F3
331
95F4
331
9614
331
9615
331
9621
331
9622
331
962E
331
962F
331
963B
331
963C
331
964A
331
964B
331
9657
331
9658
331
97D9
331
97DA
331
97E5
331
97E6
331
97F1
331
97F2
331
97FD
331
97FE
331
9809
331
980A
331
9815
331
9816
331
9821
331
9822
331
982D
331
982E
331
98D6
331
98D7
331
98FD
331
98FE
331
991E
331
991F
331
992B
331
992C
331
9938
331
9939
331
9945
331
9946
331
9954
331
9955
331
9961
331
9962
331
9AAD
331
9AAE
331
9AB9
331
9ABA
331
9AC5
331
9AC6
331
9AD1
331
9AD2
331
9ADD
331
9ADE
331
9AE9
331
9AEA
331
9AF5
331
9AF6
331
9B01
331
9B02
331
9F5A
331
9F59
331
9F68
331
9F67
331
9F77
331
9F76
331
0
331
0
331
0
331
9F87
331
9F98
331
9F97
331
9FA7
331
9FA6
331
9FB7
331
0
331
9FC8
331
9FC7
331
0
331
0
331
0
331
9FD6
331
9FD7
331
9FE8
331
9FE7
331
9FF7
331
9FF6
331
A00C
331
A00B
331
A019
331
A018
102
}
 70
     0
280
     1
281
     0
  0
BLOCK_RECORD
  5
12C3
330
1
100
AcDbSymbolTableRecord
100
AcDbBlockTableRecord
  2
*Paper_Space1
340
12C4
 70
     0
280
     1
281
     0
  0
BLOCK_RECORD
  5
1D88
330
1
100
AcDbSymbolTableRecord
100
AcDbBlockTableRecord
  2
名称未設定-1
340
0
102
{BLKREFS
331
5DE4
102
}
 70
     1
280
     1
281
     0
  0
BLOCK_RECORD
  5
1D8B
330
1
100
AcDbSymbolTableRecord
100
AcDbBlockTableRecord
  2
block 2
340
0
102
{BLKREFS
331
1D8A
102
}
 70
     0
280
     1
281
     0
  0
BLOCK_RECORD
  5
1D8E
330
1
100
AcDbSymbolTableRecord
100
AcDbBlockTableRecord
  2
block 3
340
0
102
{BLKREFS
331
1D8D
102
}
 70
     0
280
     1
281
     0
  0
BLOCK_RECORD
  5
1D91
330
1
100
AcDbSymbolTableRecord
100
AcDbBlockTableRecord
  2
block 4
340
0
102
{BLKREFS
331
1D90
102
}
 70
     0
280
     1
281
     0
  0
BLOCK_RECORD
  5
1DA0
330
1
100
AcDbSymbolTableRecord
100
AcDbBlockTableRecord
  2
block 5
340
0
102
{BLKREFS
331
1D9F
102
}
 70
     0
280
     1
281
     0
  0
BLOCK_RECORD
  5
9F53
330
1
100
AcDbSymbolTableRecord
100
AcDbBlockTableRecord
  2
*D347
340
0
 70
     0
280
     1
281
     0
  0
BLOCK_RECORD
  5
9F61
330
1
100
AcDbSymbolTableRecord
100
AcDbBlockTableRecord
  2
*D348
340
0
 70
     0
280
     1
281
     0
  0
BLOCK_RECORD
  5
9F7F
330
1
100
AcDbSymbolTableRecord
100
AcDbBlockTableRecord
  2
*D350
340
0
 70
     0
280
     1
281
     0
  0
BLOCK_RECORD
  5
9F91
330
1
100
AcDbSymbolTableRecord
100
AcDbBlockTableRecord
  2
*D351
340
0
 70
     0
280
     1
281
     0
  0
BLOCK_RECORD
  5
9FA0
330
1
100
AcDbSymbolTableRecord
100
AcDbBlockTableRecord
  2
*D352
340
0
 70
     0
280
     1
281
     0
  0
BLOCK_RECORD
  5
9FAF
330
1
100
AcDbSymbolTableRecord
100
AcDbBlockTableRecord
  2
*D353
340
0
 70
     0
280
     1
281
     0
  0
BLOCK_RECORD
  5
9FC1
330
1
100
AcDbSymbolTableRecord
100
AcDbBlockTableRecord
  2
*D354
340
0
 70
     0
280
     1
281
     0
  0
BLOCK_RECORD
  5
9FD0
330
1
100
AcDbSymbolTableRecord
100
AcDbBlockTableRecord
  2
*D355
340
0
 70
     0
280
     1
281
     0
  0
BLOCK_RECORD
  5
9FF0
330
1
100
AcDbSymbolTableRecord
100
AcDbBlockTableRecord
  2
*D357
340
0
 70
     0
280
     1
281
     0
  0
BLOCK_RECORD
  5
A012
330
1
100
AcDbSymbolTableRecord
100
AcDbBlockTableRecord
  2
*D359
340
0
 70
     0
280
     1
281
     0
  0
ENDTAB
  0
ENDSEC
  0
SECTION
  2
BLOCKS
  0
BLOCK
  5
D
330
A
100
AcDbEntity
  8
0
390
1D
100
AcDbBlockBegin
  2
*MODEL_SPACE
 70
     0
 10
0.0
 20
0.0
 30
0.0
  3
*MODEL_SPACE
  1
*MODEL_SPACE
  0
ENDBLK
  5
E
330
A
100
AcDbEntity
  8
0
390
1D
100
AcDbBlockEnd
  0
BLOCK
  5
F
330
B
100
AcDbEntity
 67
     1
  8
0
390
1D
100
AcDbBlockBegin
  2
*PAPER_SPACE
 70
     0
 10
0.0
 20
0.0
 30
0.0
  3
*PAPER_SPACE
  1
*PAPER_SPACE
  0
ENDBLK
  5
10
330
B
100
AcDbEntity
 67
     1
  8
0
390
1D
100
AcDbBlockEnd
  0
BLOCK
  5
7EEC
330
4E
100
AcDbEntity
  8
0
390
1D
100
AcDbBlockBegin
  2
_DOT
 70
     0
 10
0.0
 20
0.0
 30
0.0
  3
_DOT
  1
_DOT
  0
POLYLINE
  5
7EEE
330
4E
100
AcDbEntity
  8
0
  6
ByBlock
 62
     0
370
    -2
390
1D
100
AcDb2dPolyline
 66
     1
 10
0.0
 20
0.0
 30
0.0
 70
     1
 40
0.5
 41
0.5
  0
VERTEX
  5
7EEF
330
7EEE
100
AcDbEntity
  8
0
  6
ByBlock
 62
     0
370
    -2
390
1D
100
AcDbVertex
100
AcDb2dVertex
 10
-0.25
 20
0.0
 30
0.0
 42
1.0
  0
VERTEX
  5
7EF0
330
7EEE
100
AcDbEntity
  8
0
  6
ByBlock
 62
     0
370
    -2
390
1D
100
AcDbVertex
100
AcDb2dVertex
 10
0.25
 20
0.0
 30
0.0
 42
1.0
  0
SEQEND
  5
7EF1
330
7EEE
100
AcDbEntity
  8
0
390
1D
  0
LINE
  5
7EF2
330
4E
100
AcDbEntity
  8
0
  6
ByBlock
 62
     0
370
    -2
390
1D
100
AcDbLine
 10
-0.5
 20
0.0
 30
0.0
 11
-1.0
 21
0.0
 31
0.0
  0
ENDBLK
  5
7EF3
330
4E
100
AcDbEntity
  8
0
390
1D
100
AcDbBlockEnd
  0
BLOCK
  5
12C5
330
12C3
100
AcDbEntity
  8
0
100
AcDbBlockBegin
  2
*Paper_Space1
 70
     0
 10
0.0
 20
0.0
 30
0.0
  3
*Paper_Space1
  1
*Paper_Space83
  0
ENDBLK
  5
12C6
330
12C3
100
AcDbEntity
  8
0
100
AcDbBlockEnd
  0
BLOCK
  5
1D89
330
1D88
100
AcDbEntity
  8
0
100
AcDbBlockBegin
  2
名称未設定-1
 70
     0
 10
0.0
 20
0.0
 30
0.0
  3
名称未設定-1
  1
名称未設定-1
  0
INSERT
  5
1D8A
330
1D88
100
AcDbEntity
  8
レイヤー 1
100
AcDbBlockReference
  2
block 2
 10
0.0
 20
0.0
 30
0.0
  0
ENDBLK
  5
1DAF
330
1D88
100
AcDbEntity
  8
0
100
AcDbBlockEnd
  0
BLOCK
  5
1D8C
330
1D8B
100
AcDbEntity
  8
0
100
AcDbBlockBegin
  2
block 2
 70
     0
 10
0.0
 20
0.0
 30
0.0
  3
block 2
  1
block 2
  0
INSERT
  5
1D8D
330
1D8B
100
AcDbEntity
  8
レイヤー 1
100
AcDbBlockReference
  2
block 3
 10
0.0
 20
0.0
 30
0.0
  0
ENDBLK
  5
1DAE
330
1D8B
100
AcDbEntity
  8
0
100
AcDbBlockEnd
  0
BLOCK
  5
1D8F
330
1D8E
100
AcDbEntity
  8
0
100
AcDbBlockBegin
  2
block 3
 70
     0
 10
0.0
 20
0.0
 30
0.0
  3
block 3
  1
block 3
  0
INSERT
  5
1D90
330
1D8E
100
AcDbEntity
  8
レイヤー 1
100
AcDbBlockReference
  2
block 4
 10
0.0
 20
0.0
 30
0.0
  0
ENDBLK
  5
1DAD
330
1D8E
100
AcDbEntity
  8
0
100
AcDbBlockEnd
  0
BLOCK
  5
1D92
330
1D91
100
AcDbEntity
  8
0
100
AcDbBlockBegin
  2
block 4
 70
     0
 10
0.0
 20
0.0
 30
0.0
  3
block 4
  1
block 4
  0
POLYLINE
  5
1D93
330
1D91
100
AcDbEntity
  8
レイヤー 1
370
     0
100
AcDb2dPolyline
 66
     1
 10
0.0
 20
0.0
 30
0.0
  0
VERTEX
  5
1D94
330
1D93
100
AcDbEntity
  8
レイヤー 1
370
     0
100
AcDbVertex
100
AcDb2dVertex
 10
83.79545727667795
 20
167.6444858234922
 30
0.0
  0
VERTEX
  5
1D95
330
1D93
100
AcDbEntity
  8
レイヤー 1
370
     0
100
AcDbVertex
100
AcDb2dVertex
 10
83.79545727667795
 20
159.7968976406313
 30
0.0
  0
VERTEX
  5
1D96
330
1D93
100
AcDbEntity
  8
レイヤー 1
370
     0
100
AcDbVertex
100
AcDb2dVertex
 10
71.3631329975216
 20
159.7968976406313
 30
0.0
  0
VERTEX
  5
1D97
330
1D93
100
AcDbEntity
  8
レイヤー 1
370
     0
100
AcDbVertex
100
AcDb2dVertex
 10
71.3631329975216
 20
127.8027915271048
 30
0.0
  0
VERTEX
  5
1D98
330
1D93
100
AcDbEntity
  8
レイヤー 1
370
     0
100
AcDbVertex
100
AcDb2dVertex
 10
60.43011526263018
 20
127.8027915271048
 30
0.0
  0
VERTEX
  5
1D99
330
1D93
100
AcDbEntity
  8
レイヤー 1
370
     0
100
AcDbVertex
100
AcDb2dVertex
 10
60.43011526263018
 20
159.7968976406313
 30
0.0
  0
VERTEX
  5
1D9A
330
1D93
100
AcDbEntity
  8
レイヤー 1
370
     0
100
AcDbVertex
100
AcDb2dVertex
 10
48.21793273020759
 20
159.7968976406313
 30
0.0
  0
VERTEX
  5
1D9B
330
1D93
100
AcDbEntity
  8
レイヤー 1
370
     0
100
AcDbVertex
100
AcDb2dVertex
 10
48.21793273020759
 20
167.6444858234922
 30
0.0
  0
VERTEX
  5
1D9C
330
1D93
100
AcDbEntity
  8
レイヤー 1
370
     0
100
AcDbVertex
100
AcDb2dVertex
 10
83.79545727667795
 20
167.6444858234922
 30
0.0
  0
SEQEND
  5
1D9D
330
1D93
100
AcDbEntity
  8
レイヤー 1
370
     0
  0
HATCH
  5
1D9E
330
1D91
100
AcDbEntity
  8
レイヤー 1
 62
    18
420
        0
100
AcDbHatch
 10
0.0
 20
0.0
 30
0.0
210
0.0
220
0.0
230
1.0
  2
SOLID
 70
     1
 71
     0
 91
        1
 92
        1
 93
        8
 72
     1
 10
83.79545727667755
 20
167.6444858234922
 11
83.79545727667755
 21
159.7968976406313
 72
     1
 10
83.79545727667755
 20
159.7968976406313
 11
71.3631329975212
 21
159.7968976406313
 72
     1
 10
71.363132997521
 20
159.7968976406313
 11
71.363132997521
 21
127.8027915271048
 72
     1
 10
71.363132997521
 20
127.8027915271048
 11
60.43011526262958
 21
127.8027915271048
 72
     1
 10
60.4301152626299
 20
127.8027915271048
 11
60.4301152626299
 21
159.7968976406313
 72
     1
 10
60.4301152626299
 20
159.7968976406313
 11
48.21793273020731
 21
159.7968976406313
 72
     1
 10
48.21793273020694
 20
159.7968976406313
 11
48.21793273020694
 21
167.6444858234922
 72
     1
 10
48.21793273020694
 20
167.6444858234922
 11
83.7954572766773
 21
167.6444858234922
 97
        0
 75
     2
 76
     1
 98
        0
  0
INSERT
  5
1D9F
330
1D91
100
AcDbEntity
  8
レイヤー 1
100
AcDbBlockReference
  2
block 5
 10
-0.0000000000004547
 20
-0.0000000000000071
 30
0.0
  0
ENDBLK
  5
1DAC
330
1D91
100
AcDbEntity
  8
0
100
AcDbBlockEnd
  0
BLOCK
  5
1DA1
330
1DA0
100
AcDbEntity
  8
0
100
AcDbBlockBegin
  2
block 5
 70
     0
 10
0.0
 20
0.0
 30
0.0
  3
block 5
  1
block 5
  0
SPLINE
  5
1DA2
330
1DA0
100
AcDbEntity
  8
レイヤー 1
 62
    18
420
        0
370
     0
100
AcDbSpline
210
0.0
220
0.0
230
1.0
 70
    11
 71
     3
 72
    56
 73
    52
 74
     0
 42
0.000000001
 43
0.0000000001
 40
0.0
 40
0.0
 40
0.0
 40
0.0
 40
1.0
 40
1.0
 40
1.0
 40
2.0
 40
2.0
 40
2.0
 40
3.0
 40
3.0
 40
3.0
 40
4.0
 40
4.0
 40
4.0
 40
5.0
 40
5.0
 40
5.0
 40
6.0
 40
6.0
 40
6.0
 40
7.0
 40
7.0
 40
7.0
 40
8.0
 40
8.0
 40
8.0
 40
9.0
 40
9.0
 40
9.0
 40
10.0
 40
10.0
 40
10.0
 40
11.0
 40
11.0
 40
11.0
 40
12.0
 40
12.0
 40
12.0
 40
13.0
 40
13.0
 40
13.0
 40
14.0
 40
14.0
 40
14.0
 40
15.0
 40
15.0
 40
15.0
 40
16.0
 40
16.0
 40
16.0
 40
17.0
 40
17.0
 40
17.0
 40
17.0
 10
100.4504378777674
 20
166.69157178364
 30
0.0
 10
101.9848844191633
 20
167.1313385124438
 30
0.0
 10
103.9637485713365
 20
166.7649523658846
 30
0.0
 10
103.9637485713365
 20
166.7649523658846
 30
0.0
 10
103.9637485713365
 20
166.7649523658846
 30
0.0
 10
103.0132460999152
 20
163.911205638077
 30
0.0
 10
103.0132460999152
 20
163.911205638077
 30
0.0
 10
103.0132460999152
 20
163.911205638077
 30
0.0
 10
101.0674548862185
 20
164.3601018759394
 30
0.0
 10
99.57090442015988
 20
163.1805004036133
 30
0.0
 10
98.40508333886555
 20
162.258247733807
 30
0.0
 10
97.65301849830257
 20
159.804132345923
 30
0.0
 10
97.35984067909976
 20
158.8699940888517
 30
0.0
 10
97.35984067909976
 20
158.8699940888517
 30
0.0
 10
96.07137411762233
 20
154.9119212747295
 30
0.0
 10
96.07137411762233
 20
154.9119212747295
 30
0.0
 10
96.07137411762233
 20
154.9119212747295
 30
0.0
 10
100.3012651448475
 20
154.9119212747295
 30
0.0
 10
100.3012651448475
 20
154.9119212747295
 30
0.0
 10
100.3012651448475
 20
154.9119212747295
 30
0.0
 10
99.64152892419816
 20
152.4199098115079
 30
0.0
 10
99.64152892419816
 20
152.4199098115079
 30
0.0
 10
99.64152892419816
 20
152.4199098115079
 30
0.0
 10
95.38097652692659
 20
152.4199098115079
 30
0.0
 10
95.38097652692659
 20
152.4199098115079
 30
0.0
 10
95.38097652692659
 20
152.4199098115079
 30
0.0
 10
87.75353009079981
 20
127.8027915271048
 30
0.0
 10
87.75353009079981
 20
127.8027915271048
 30
0.0
 10
87.75353009079981
 20
127.8027915271048
 30
0.0
 10
85.36538832498036
 20
127.8027915271048
 30
0.0
 10
85.36538832498036
 20
127.8027915271048
 30
0.0
 10
85.36538832498036
 20
127.8027915271048
 30
0.0
 10
93.00006946639951
 20
152.4199098115079
 30
0.0
 10
93.00006946639951
 20
152.4199098115079
 30
0.0
 10
93.00006946639951
 20
152.4199098115079
 30
0.0
 10
89.85297266450152
 20
152.4199098115079
 30
0.0
 10
89.85297266450152
 20
152.4199098115079
 30
0.0
 10
89.85297266450152
 20
152.4199098115079
 30
0.0
 10
90.51270888515091
 20
154.9119212747295
 30
0.0
 10
90.51270888515091
 20
154.9119212747295
 30
0.0
 10
90.51270888515091
 20
154.9119212747295
 30
0.0
 10
93.69046705709525
 20
154.9119212747295
 30
0.0
 10
93.69046705709525
 20
154.9119212747295
 30
0.0
 10
93.69046705709525
 20
154.9119212747295
 30
0.0
 10
94.81598049462082
 20
158.3616699146644
 30
0.0
 10
94.81598049462082
 20
158.3616699146644
 30
0.0
 10
95.72376375384374
 20
161.2605474231013
 30
0.0
 10
96.49684369073066
 20
162.8139420021662
 30
0.0
 10
97.1565799113805
 20
163.9844139654337
 30
0.0
 10
97.81183750494438
 20
165.1523021053827
 30
0.0
 10
99.10478269350733
 20
166.3084769129547
 30
0.0
 10
100.4504378777674
 20
166.69157178364
 30
0.0
  0
HATCH
  5
1DA3
330
1DA0
100
AcDbEntity
  8
レイヤー 1
 62
    18
420
        0
100
AcDbHatch
 10
0.0
 20
0.0
 30
0.0
210
0.0
220
0.0
230
1.0
  2
SOLID
 70
     1
 71
     0
 91
        1
 92
        1
 93
        1
 72
     4
 94
        3
 73
     0
 74
     1
 95
       56
 96
       52
 40
0.0
 40
0.0
 40
0.0
 40
0.0
 40
1.0
 40
1.0
 40
1.0
 40
2.0
 40
2.0
 40
2.0
 40
3.0
 40
3.0
 40
3.0
 40
4.0
 40
4.0
 40
4.0
 40
5.0
 40
5.0
 40
5.0
 40
6.0
 40
6.0
 40
6.0
 40
7.0
 40
7.0
 40
7.0
 40
8.0
 40
8.0
 40
8.0
 40
9.0
 40
9.0
 40
9.0
 40
10.0
 40
10.0
 40
10.0
 40
11.0
 40
11.0
 40
11.0
 40
12.0
 40
12.0
 40
12.0
 40
13.0
 40
13.0
 40
13.0
 40
14.0
 40
14.0
 40
14.0
 40
15.0
 40
15.0
 40
15.0
 40
16.0
 40
16.0
 40
16.0
 40
17.0
 40
17.0
 40
17.0
 40
17.0
 10
100.4504378777674
 20
166.69157178364
 10
101.9848844191633
 20
167.1313385124438
 10
103.9637485713365
 20
166.7649523658846
 10
103.9637485713365
 20
166.7649523658846
 10
103.9637485713365
 20
166.7649523658846
 10
103.0132460999152
 20
163.911205638077
 10
103.0132460999152
 20
163.911205638077
 10
103.0132460999152
 20
163.911205638077
 10
101.0674548862185
 20
164.3601018759394
 10
99.57090442015988
 20
163.1805004036133
 10
98.40508333886555
 20
162.258247733807
 10
97.65301849830257
 20
159.804132345923
 10
97.35984067909976
 20
158.8699940888517
 10
97.35984067909976
 20
158.8699940888517
 10
96.07137411762233
 20
154.9119212747295
 10
96.07137411762233
 20
154.9119212747295
 10
96.07137411762233
 20
154.9119212747295
 10
100.3012651448475
 20
154.9119212747295
 10
100.3012651448475
 20
154.9119212747295
 10
100.3012651448475
 20
154.9119212747295
 10
99.64152892419816
 20
152.4199098115079
 10
99.64152892419816
 20
152.4199098115079
 10
99.64152892419816
 20
152.4199098115079
 10
95.38097652692659
 20
152.4199098115079
 10
95.38097652692659
 20
152.4199098115079
 10
95.38097652692659
 20
152.4199098115079
 10
87.75353009079981
 20
127.8027915271048
 10
87.75353009079981
 20
127.8027915271048
 10
87.75353009079981
 20
127.8027915271048
 10
85.36538832498036
 20
127.8027915271048
 10
85.36538832498036
 20
127.8027915271048
 10
85.36538832498036
 20
127.8027915271048
 10
93.00006946639951
 20
152.4199098115079
 10
93.00006946639951
 20
152.4199098115079
 10
93.00006946639951
 20
152.4199098115079
 10
89.85297266450152
 20
152.4199098115079
 10
89.85297266450152
 20
152.4199098115079
 10
89.85297266450152
 20
152.4199098115079
 10
90.51270888515091
 20
154.9119212747295
 10
90.51270888515091
 20
154.9119212747295
 10
90.51270888515091
 20
154.9119212747295
 10
93.69046705709525
 20
154.9119212747295
 10
93.69046705709525
 20
154.9119212747295
 10
93.69046705709525
 20
154.9119212747295
 10
94.81598049462082
 20
158.3616699146644
 10
94.81598049462082
 20
158.3616699146644
 10
95.72376375384374
 20
161.2605474231013
 10
96.49684369073066
 20
162.8139420021662
 10
97.1565799113805
 20
163.9844139654337
 10
97.81183750494438
 20
165.1523021053827
 10
99.10478269350733
 20
166.3084769129547
 10
100.4504378777674
 20
166.69157178364
 97
        0
 75
     2
 76
     1
 98
        0
  0
SPLINE
  5
1DA4
330
1DA0
100
AcDbEntity
  8
レイヤー 1
370
     0
100
AcDbSpline
210
0.0
220
0.0
230
1.0
 70
    11
 71
     3
 72
    38
 73
    34
 74
     0
 42
0.000000001
 43
0.0000000001
 40
0.0
 40
0.0
 40
0.0
 40
0.0
 40
1.0
 40
1.0
 40
1.0
 40
2.0
 40
2.0
 40
2.0
 40
3.0
 40
3.0
 40
3.0
 40
4.0
 40
4.0
 40
4.0
 40
5.0
 40
5.0
 40
5.0
 40
6.0
 40
6.0
 40
6.0
 40
7.0
 40
7.0
 40
7.0
 40
8.0
 40
8.0
 40
8.0
 40
9.0
 40
9.0
 40
9.0
 40
10.0
 40
10.0
 40
10.0
 40
11.0
 40
11.0
 40
11.0
 40
11.0
 10
126.377554584636
 20
154.8151140277308
 30
0.0
 10
126.377554584636
 20
154.8151140277308
 30
0.0
 10
128.8311532078563
 20
154.8151140277308
 30
0.0
 10
128.8311532078563
 20
154.8151140277308
 30
0.0
 10
128.8311532078563
 20
154.8151140277308
 30
0.0
 10
127.7345785914971
 20
151.3062819612468
 30
0.0
 10
127.7345785914971
 20
151.3062819612468
 30
0.0
 10
128.571392836906
 20
152.2922689395754
 30
0.0
 10
129.8860421413442
 20
153.604506675583
 30
0.0
 10
131.0163787157314
 20
154.2664822097754
 30
0.0
 10
132.7044766171327
 20
155.2500576196734
 30
0.0
 10
133.6642808525008
 20
155.3847609420097
 30
0.0
 10
134.7284715499351
 20
155.3565111403944
 30
0.0
 10
134.7284715499351
 20
155.3565111403944
 30
0.0
 10
133.6877075172549
 20
152.0345756272799
 30
0.0
 10
133.6877075172549
 20
152.0345756272799
 30
0.0
 10
133.011434827367
 20
152.3184516825359
 30
0.0
 10
130.930940291334
 20
151.7768823149844
 30
0.0
 10
129.739280976855
 20
150.9162968950455
 30
0.0
 10
128.66613302525
 20
150.1454562717016
 30
0.0
 10
127.9192358313239
 20
149.4857200510519
 30
0.0
 10
127.0393578639405
 20
147.8282835196966
 30
0.0
 10
126.164647543194
 20
146.1699857139017
 30
0.0
 10
125.4742499524985
 20
143.5262176944419
 30
0.0
 10
124.2822461282437
 20
139.6959580071401
 30
0.0
 10
124.2822461282437
 20
139.6959580071401
 30
0.0
 10
120.5753209406769
 20
127.8027915271048
 30
0.0
 10
120.5753209406769
 20
127.8027915271048
 30
0.0
 10
120.5753209406769
 20
127.8027915271048
 30
0.0
 10
118.1964809388044
 20
127.8027915271048
 30
0.0
 10
118.1964809388044
 20
127.8027915271048
 30
0.0
 10
118.1964809388044
 20
127.8027915271048
 30
0.0
 10
126.377554584636
 20
154.8151140277308
 30
0.0
 10
126.377554584636
 20
154.8151140277308
 30
0.0
  0
HATCH
  5
1DA5
330
1DA0
100
AcDbEntity
  8
レイヤー 1
 62
    18
420
        0
100
AcDbHatch
 10
0.0
 20
0.0
 30
0.0
210
0.0
220
0.0
230
1.0
  2
SOLID
 70
     1
 71
     0
 91
        1
 92
        1
 93
        1
 72
     4
 94
        3
 73
     0
 74
     1
 95
       38
 96
       34
 40
0.0
 40
0.0
 40
0.0
 40
0.0
 40
1.0
 40
1.0
 40
1.0
 40
2.0
 40
2.0
 40
2.0
 40
3.0
 40
3.0
 40
3.0
 40
4.0
 40
4.0
 40
4.0
 40
5.0
 40
5.0
 40
5.0
 40
6.0
 40
6.0
 40
6.0
 40
7.0
 40
7.0
 40
7.0
 40
8.0
 40
8.0
 40
8.0
 40
9.0
 40
9.0
 40
9.0
 40
10.0
 40
10.0
 40
10.0
 40
11.0
 40
11.0
 40
11.0
 40
11.0
 10
126.3775545846356
 20
154.8151140277308
 10
126.3775545846356
 20
154.8151140277308
 10
128.8311532078556
 20
154.8151140277308
 10
128.8311532078556
 20
154.8151140277308
 10
128.8311532078556
 20
154.8151140277308
 10
127.7345785914968
 20
151.3062819612468
 10
127.7345785914968
 20
151.3062819612468
 10
128.5713928369055
 20
152.2922689395754
 10
129.8860421413438
 20
153.604506675583
 10
131.0163787157308
 20
154.2664822097754
 10
132.7044766171321
 20
155.2500576196734
 10
133.6642808525003
 20
155.3847609420097
 10
134.7284715499345
 20
155.3565111403944
 10
134.7284715499345
 20
155.3565111403944
 10
133.6877075172542
 20
152.0345756272799
 10
133.6877075172542
 20
152.0345756272799
 10
133.0114348273664
 20
152.3184516825359
 10
130.9309402913336
 20
151.7768823149844
 10
129.7392809768544
 20
150.9162968950455
 10
128.6661330252496
 20
150.1454562717016
 10
127.9192358313235
 20
149.4857200510519
 10
127.03935786394
 20
147.8282835196966
 10
126.1646475431935
 20
146.1699857139017
 10
125.4742499524982
 20
143.5262176944419
 10
124.2822461282431
 20
139.6959580071401
 10
124.2822461282431
 20
139.6959580071401
 10
120.5753209406762
 20
127.8027915271048
 10
120.5753209406762
 20
127.8027915271048
 10
120.5753209406762
 20
127.8027915271048
 10
118.1964809388037
 20
127.8027915271048
 10
118.1964809388037
 20
127.8027915271048
 10
118.1964809388037
 20
127.8027915271048
 10
126.3775545846356
 20
154.8151140277308
 10
126.3775545846356
 20
154.8151140277308
 97
        0
 75
     2
 76
     1
 98
        0
  0
SPLINE
  5
1DA6
330
1DA0
100
AcDbEntity
  8
レイヤー 1
 62
    18
420
        0
370
     0
100
AcDbSpline
210
0.0
220
0.0
230
1.0
 70
    11
 71
     3
 72
   104
 73
   100
 74
     0
 42
0.000000001
 43
0.0000000001
 40
0.0
 40
0.0
 40
0.0
 40
0.0
 40
1.0
 40
1.0
 40
1.0
 40
2.0
 40
2.0
 40
2.0
 40
3.0
 40
3.0
 40
3.0
 40
4.0
 40
4.0
 40
4.0
 40
5.0
 40
5.0
 40
5.0
 40
6.0
 40
6.0
 40
6.0
 40
7.0
 40
7.0
 40
7.0
 40
8.0
 40
8.0
 40
8.0
 40
9.0
 40
9.0
 40
9.0
 40
10.0
 40
10.0
 40
10.0
 40
11.0
 40
11.0
 40
11.0
 40
12.0
 40
12.0
 40
12.0
 40
13.0
 40
13.0
 40
13.0
 40
14.0
 40
14.0
 40
14.0
 40
15.0
 40
15.0
 40
15.0
 40
16.0
 40
16.0
 40
16.0
 40
17.0
 40
17.0
 40
17.0
 40
18.0
 40
18.0
 40
18.0
 40
19.0
 40
19.0
 40
19.0
 40
20.0
 40
20.0
 40
20.0
 40
21.0
 40
21.0
 40
21.0
 40
22.0
 40
22.0
 40
22.0
 40
23.0
 40
23.0
 40
23.0
 40
24.0
 40
24.0
 40
24.0
 40
25.0
 40
25.0
 40
25.0
 40
26.0
 40
26.0
 40
26.0
 40
27.0
 40
27.0
 40
27.0
 40
28.0
 40
28.0
 40
28.0
 40
29.0
 40
29.0
 40
29.0
 40
30.0
 40
30.0
 40
30.0
 40
31.0
 40
31.0
 40
31.0
 40
32.0
 40
32.0
 40
32.0
 40
33.0
 40
33.0
 40
33.0
 40
33.0
 10
139.8926730891194
 20
154.8294111834263
 30
0.0
 10
139.8926730891194
 20
154.8294111834263
 30
0.0
 10
142.034490365244
 20
154.8294111834263
 30
0.0
 10
142.034490365244
 20
154.8294111834263
 30
0.0
 10
142.034490365244
 20
154.8294111834263
 30
0.0
 10
140.9516961399167
 20
151.3157559800812
 30
0.0
 10
140.9516961399167
 20
151.3157559800812
 30
0.0
 10
141.8928968473915
 20
152.7887075264977
 30
0.0
 10
142.7341897198858
 20
153.4484437471474
 30
0.0
 10
143.8552245303267
 20
154.2926649527359
 30
0.0
 10
144.9803934580768
 20
155.1296514530327
 30
0.0
 10
146.313990800184
 20
155.3044901642492
 30
0.0
 10
147.2410666068513
 20
155.3044901642492
 30
0.0
 10
148.3855280820467
 20
155.3044901642492
 30
0.0
 10
149.4969166187648
 20
155.0752189084569
 30
0.0
 10
150.0784491203085
 20
153.8172414621372
 30
0.0
 10
150.5228667310857
 20
152.833838307127
 30
0.0
 10
150.5414702589787
 20
152.7201500811143
 30
0.0
 10
150.4140016419342
 20
150.7765981809602
 30
0.0
 10
151.5818897818831
 20
152.7699317437168
 30
0.0
 10
152.4424752018222
 20
153.6256940267945
 30
0.0
 10
153.9038856707493
 20
154.4507949398263
 30
0.0
 10
155.4455669174372
 20
155.3044901642492
 30
0.0
 10
156.3392252758526
 20
155.3659851592288
 30
0.0
 10
157.374821661896
 20
155.2147453676543
 30
0.0
 10
158.9116797717224
 20
154.9877134254046
 30
0.0
 10
159.885953417674
 20
154.4390816074493
 30
0.0
 10
160.396516905404
 20
152.7816450760939
 30
0.0
 10
160.907080393134
 20
151.1219692311958
 30
0.0
 10
160.6328506116001
 20
150.2303779314354
 30
0.0
 10
159.9992971339111
 20
147.597634224801
 30
0.0
 10
159.7105979417938
 20
146.4014962832367
 30
0.0
 10
159.2947746424079
 20
144.9400858143094
 30
0.0
 10
158.7463150793405
 20
143.2092687007094
 30
0.0
 10
158.7463150793405
 20
143.2092687007094
 30
0.0
 10
153.9038856707493
 20
127.8027915271048
 30
0.0
 10
153.9038856707493
 20
127.8027915271048
 30
0.0
 10
153.9038856707493
 20
127.8027915271048
 30
0.0
 10
151.3882752878858
 20
127.8027915271048
 30
0.0
 10
151.3882752878858
 20
127.8027915271048
 30
0.0
 10
151.3882752878858
 20
127.8027915271048
 30
0.0
 10
155.625056510627
 20
141.2751908193897
 30
0.0
 10
155.625056510627
 20
141.2751908193897
 30
0.0
 10
156.509413105096
 20
144.0936252951782
 30
0.0
 10
157.1098936443086
 20
146.1506931664571
 30
0.0
 10
157.4220195011799
 20
147.4415712963654
 30
0.0
 10
157.8095929989504
 20
149.0530157726519
 30
0.0
 10
157.9656559273863
 20
149.5826995529385
 30
0.0
 10
157.7816877071109
 20
150.7529992613181
 30
0.0
 10
157.6111553680921
 20
151.8430281919372
 30
0.0
 10
157.0582171779392
 20
152.5547853887321
 30
0.0
 10
156.117016470464
 20
152.5547853887321
 30
0.0
 10
155.109669886036
 20
152.5547853887321
 30
0.0
 10
154.2962823053813
 20
152.4412694176073
 30
0.0
 10
153.1566439670473
 20
151.2945686288697
 30
0.0
 10
152.0170056287138
 20
150.1476955852443
 30
0.0
 10
151.0761494310145
 20
148.7930831468137
 30
0.0
 10
150.3337308641735
 20
147.2290087646991
 30
0.0
 10
149.5957909244185
 20
145.6683794803425
 30
0.0
 10
148.8530278478015
 20
143.6822806228776
 30
0.0
 10
148.0964843801535
 20
141.2751908193897
 30
0.0
 10
148.0964843801535
 20
141.2751908193897
 30
0.0
 10
143.8552245303267
 20
127.8027915271048
 30
0.0
 10
143.8552245303267
 20
127.8027915271048
 30
0.0
 10
143.8552245303267
 20
127.8027915271048
 30
0.0
 10
141.4860308021766
 20
127.8027915271048
 30
0.0
 10
141.4860308021766
 20
127.8027915271048
 30
0.0
 10
141.4860308021766
 20
127.8027915271048
 30
0.0
 10
146.3329388378529
 20
143.2092687007094
 30
0.0
 10
146.3329388378529
 20
143.2092687007094
 30
0.0
 10
146.8483254624439
 20
144.8408669988801
 30
0.0
 10
147.2314203331293
 20
146.1837661049335
 30
0.0
 10
147.4867020769943
 20
147.224185627838
 30
0.0
 10
147.9169947869636
 20
149.0197705792876
 30
0.0
 10
148.0306830129762
 20
150.2400242051577
 30
0.0
 10
147.7092553921584
 20
151.3157559800812
 30
0.0
 10
147.3874832615647
 20
152.3916600098926
 30
0.0
 10
146.824554287914
 20
152.6683013598569
 30
0.0
 10
145.8840425999902
 20
152.6683013598569
 30
0.0
 10
145.0989048209508
 20
152.6683013598569
 30
0.0
 10
144.3282364524948
 20
152.3275811915945
 30
0.0
 10
143.4531816219724
 20
151.6538923250251
 30
0.0
 10
142.3462717123393
 20
150.8074318058939
 30
0.0
 10
141.9018541015625
 20
150.1097995099067
 30
0.0
 10
141.3578731655803
 20
149.289521733736
 30
0.0
 10
140.6299240093231
 20
148.192602607601
 30
0.0
 10
140.2850697237509
 20
147.455696197173
 30
0.0
 10
139.6652966370934
 20
145.8385673095858
 30
0.0
 10
139.0506911970733
 20
144.2214384219986
 30
0.0
 10
138.4639910488927
 20
142.3252566160164
 30
0.0
 10
138.0571250036769
 20
141.0154304484394
 30
0.0
 10
138.0571250036769
 20
141.0154304484394
 30
0.0
 10
133.9009590684723
 20
127.8027915271048
 30
0.0
 10
133.9009590684723
 20
127.8027915271048
 30
0.0
 10
133.9009590684723
 20
127.8027915271048
 30
0.0
 10
131.4180771143092
 20
127.8027915271048
 30
0.0
 10
131.4180771143092
 20
127.8027915271048
 30
0.0
 10
131.4180771143092
 20
127.8027915271048
 30
0.0
 10
139.8926730891194
 20
154.8294111834263
 30
0.0
 10
139.8926730891194
 20
154.8294111834263
 30
0.0
  0
HATCH
  5
1DA7
330
1DA0
100
AcDbEntity
  8
レイヤー 1
 62
    18
420
        0
100
AcDbHatch
 10
0.0
 20
0.0
 30
0.0
210
0.0
220
0.0
230
1.0
  2
SOLID
 70
     1
 71
     0
 91
        1
 92
        1
 93
        1
 72
     4
 94
        3
 73
     0
 74
     1
 95
      104
 96
      100
 40
0.0
 40
0.0
 40
0.0
 40
0.0
 40
1.0
 40
1.0
 40
1.0
 40
2.0
 40
2.0
 40
2.0
 40
3.0
 40
3.0
 40
3.0
 40
4.0
 40
4.0
 40
4.0
 40
5.0
 40
5.0
 40
5.0
 40
6.0
 40
6.0
 40
6.0
 40
7.0
 40
7.0
 40
7.0
 40
8.0
 40
8.0
 40
8.0
 40
9.0
 40
9.0
 40
9.0
 40
10.0
 40
10.0
 40
10.0
 40
11.0
 40
11.0
 40
11.0
 40
12.0
 40
12.0
 40
12.0
 40
13.0
 40
13.0
 40
13.0
 40
14.0
 40
14.0
 40
14.0
 40
15.0
 40
15.0
 40
15.0
 40
16.0
 40
16.0
 40
16.0
 40
17.0
 40
17.0
 40
17.0
 40
18.0
 40
18.0
 40
18.0
 40
19.0
 40
19.0
 40
19.0
 40
20.0
 40
20.0
 40
20.0
 40
21.0
 40
21.0
 40
21.0
 40
22.0
 40
22.0
 40
22.0
 40
23.0
 40
23.0
 40
23.0
 40
24.0
 40
24.0
 40
24.0
 40
25.0
 40
25.0
 40
25.0
 40
26.0
 40
26.0
 40
26.0
 40
27.0
 40
27.0
 40
27.0
 40
28.0
 40
28.0
 40
28.0
 40
29.0
 40
29.0
 40
29.0
 40
30.0
 40
30.0
 40
30.0
 40
31.0
 40
31.0
 40
31.0
 40
32.0
 40
32.0
 40
32.0
 40
33.0
 40
33.0
 40
33.0
 40
33.0
 10
139.8926730891194
 20
154.8294111834263
 10
139.8926730891194
 20
154.8294111834263
 10
142.034490365244
 20
154.8294111834263
 10
142.034490365244
 20
154.8294111834263
 10
142.034490365244
 20
154.8294111834263
 10
140.9516961399167
 20
151.3157559800812
 10
140.9516961399167
 20
151.3157559800812
 10
141.8928968473915
 20
152.7887075264977
 10
142.7341897198858
 20
153.4484437471474
 10
143.8552245303267
 20
154.2926649527359
 10
144.9803934580768
 20
155.1296514530327
 10
146.313990800184
 20
155.3044901642492
 10
147.2410666068513
 20
155.3044901642492
 10
148.3855280820467
 20
155.3044901642492
 10
149.4969166187648
 20
155.0752189084569
 10
150.0784491203085
 20
153.8172414621372
 10
150.5228667310857
 20
152.833838307127
 10
150.5414702589787
 20
152.7201500811143
 10
150.4140016419342
 20
150.7765981809602
 10
151.5818897818831
 20
152.7699317437168
 10
152.4424752018222
 20
153.6256940267945
 10
153.9038856707493
 20
154.4507949398263
 10
155.4455669174372
 20
155.3044901642492
 10
156.3392252758526
 20
155.3659851592288
 10
157.374821661896
 20
155.2147453676543
 10
158.9116797717224
 20
154.9877134254046
 10
159.885953417674
 20
154.4390816074493
 10
160.396516905404
 20
152.7816450760939
 10
160.907080393134
 20
151.1219692311958
 10
160.6328506116001
 20
150.2303779314354
 10
159.9992971339111
 20
147.597634224801
 10
159.7105979417938
 20
146.4014962832367
 10
159.2947746424079
 20
144.9400858143094
 10
158.7463150793405
 20
143.2092687007094
 10
158.7463150793405
 20
143.2092687007094
 10
153.9038856707493
 20
127.8027915271048
 10
153.9038856707493
 20
127.8027915271048
 10
153.9038856707493
 20
127.8027915271048
 10
151.3882752878858
 20
127.8027915271048
 10
151.3882752878858
 20
127.8027915271048
 10
151.3882752878858
 20
127.8027915271048
 10
155.625056510627
 20
141.2751908193897
 10
155.625056510627
 20
141.2751908193897
 10
156.509413105096
 20
144.0936252951782
 10
157.1098936443086
 20
146.1506931664571
 10
157.4220195011799
 20
147.4415712963654
 10
157.8095929989504
 20
149.0530157726519
 10
157.9656559273863
 20
149.5826995529385
 10
157.7816877071109
 20
150.7529992613181
 10
157.6111553680921
 20
151.8430281919372
 10
157.0582171779392
 20
152.5547853887321
 10
156.117016470464
 20
152.5547853887321
 10
155.109669886036
 20
152.5547853887321
 10
154.2962823053813
 20
152.4412694176073
 10
153.1566439670473
 20
151.2945686288697
 10
152.0170056287138
 20
150.1476955852443
 10
151.0761494310145
 20
148.7930831468137
 10
150.3337308641735
 20
147.2290087646991
 10
149.5957909244185
 20
145.6683794803425
 10
148.8530278478015
 20
143.6822806228776
 10
148.0964843801535
 20
141.2751908193897
 10
148.0964843801535
 20
141.2751908193897
 10
143.8552245303267
 20
127.8027915271048
 10
143.8552245303267
 20
127.8027915271048
 10
143.8552245303267
 20
127.8027915271048
 10
141.4860308021766
 20
127.8027915271048
 10
141.4860308021766
 20
127.8027915271048
 10
141.4860308021766
 20
127.8027915271048
 10
146.3329388378529
 20
143.2092687007094
 10
146.3329388378529
 20
143.2092687007094
 10
146.8483254624439
 20
144.8408669988801
 10
147.2314203331293
 20
146.1837661049335
 10
147.4867020769943
 20
147.224185627838
 10
147.9169947869636
 20
149.0197705792876
 10
148.0306830129762
 20
150.2400242051577
 10
147.7092553921584
 20
151.3157559800812
 10
147.3874832615647
 20
152.3916600098926
 10
146.824554287914
 20
152.6683013598569
 10
145.8840425999902
 20
152.6683013598569
 10
145.0989048209508
 20
152.6683013598569
 10
144.3282364524948
 20
152.3275811915945
 10
143.4531816219724
 20
151.6538923250251
 10
142.3462717123393
 20
150.8074318058939
 10
141.9018541015625
 20
150.1097995099067
 10
141.3578731655803
 20
149.289521733736
 10
140.6299240093231
 20
148.192602607601
 10
140.2850697237509
 20
147.455696197173
 10
139.6652966370934
 20
145.8385673095858
 10
139.0506911970733
 20
144.2214384219986
 10
138.4639910488927
 20
142.3252566160164
 10
138.0571250036769
 20
141.0154304484394
 10
138.0571250036769
 20
141.0154304484394
 10
133.9009590684723
 20
127.8027915271048
 10
133.9009590684723
 20
127.8027915271048
 10
133.9009590684723
 20
127.8027915271048
 10
131.4180771143092
 20
127.8027915271048
 10
131.4180771143092
 20
127.8027915271048
 10
131.4180771143092
 20
127.8027915271048
 10
139.8926730891194
 20
154.8294111834263
 10
139.8926730891194
 20
154.8294111834263
 97
        0
 75
     2
 76
     1
 98
        0
  0
SPLINE
  5
1DA8
330
1DA0
100
AcDbEntity
  8
レイヤー 1
370
     0
100
AcDbSpline
210
0.0
220
0.0
230
1.0
 70
    11
 71
     3
 72
    29
 73
    25
 74
     0
 42
0.000000001
 43
0.0000000001
 40
0.0
 40
0.0
 40
0.0
 40
0.0
 40
1.0
 40
1.0
 40
1.0
 40
2.0
 40
2.0
 40
2.0
 40
3.0
 40
3.0
 40
3.0
 40
4.0
 40
4.0
 40
4.0
 40
5.0
 40
5.0
 40
5.0
 40
6.0
 40
6.0
 40
6.0
 40
7.0
 40
7.0
 40
7.0
 40
8.0
 40
8.0
 40
8.0
 40
8.0
 10
101.6420971922469
 20
132.8388354296931
 30
0.0
 10
101.630039350094
 20
134.7164137077823
 30
0.0
 10
102.2236296937908
 20
138.0598810818841
 30
0.0
 10
103.7487744712405
 20
142.5378191476827
 30
0.0
 10
105.819967243327
 20
148.5896501242061
 30
0.0
 10
107.0602024361932
 20
150.8074318058939
 30
0.0
 10
108.1522984254671
 20
151.8833358357054
 30
0.0
 10
109.741177511439
 20
153.4532668840085
 30
0.0
 10
111.8740375333931
 20
153.5290590346837
 30
0.0
 10
112.5075910110823
 20
153.4532668840085
 30
0.0
 10
113.4012493694975
 20
153.3490526768302
 30
0.0
 10
114.6683563248758
 20
152.7580461564518
 30
0.0
 10
114.7493161221879
 20
150.7838328862519
 30
0.0
 10
114.8106388622796
 20
149.0909118479895
 30
0.0
 10
114.3186789024427
 20
145.9191825971221
 30
0.0
 10
112.6164561002338
 20
140.9489400617108
 30
0.0
 10
110.6444821435766
 20
135.1746117095912
 30
0.0
 10
109.4669477299053
 20
132.8960240524753
 30
0.0
 10
108.5212683953448
 20
131.9072809959403
 30
0.0
 10
106.7346406980658
 20
130.0538184021569
 30
0.0
 10
104.8222669326213
 20
130.2336525051225
 30
0.0
 10
104.5408024457958
 20
130.2336525051225
 30
0.0
 10
104.1721769856939
 20
130.2336525051225
 30
0.0
 10
101.6465758193322
 20
130.6305277668397
 30
0.0
 10
101.6420971922469
 20
132.8388354296931
 30
0.0
  0
SPLINE
  5
1DA9
330
1DA0
100
AcDbEntity
  8
レイヤー 1
370
     0
100
AcDbSpline
210
0.0
220
0.0
230
1.0
 70
    11
 71
     3
 72
    32
 73
    28
 74
     0
 42
0.000000001
 43
0.0000000001
 40
0.0
 40
0.0
 40
0.0
 40
0.0
 40
1.0
 40
1.0
 40
1.0
 40
2.0
 40
2.0
 40
2.0
 40
3.0
 40
3.0
 40
3.0
 40
4.0
 40
4.0
 40
4.0
 40
5.0
 40
5.0
 40
5.0
 40
6.0
 40
6.0
 40
6.0
 40
7.0
 40
7.0
 40
7.0
 40
8.0
 40
8.0
 40
8.0
 40
9.0
 40
9.0
 40
9.0
 40
9.0
 10
106.2595617172429
 20
153.4105476718098
 30
0.0
 10
104.8222669326213
 20
151.5474388043041
 30
0.0
 10
103.7177685914188
 20
149.8758773721411
 30
0.0
 10
101.9232171692965
 20
144.6141795664062
 30
0.0
 10
100.2754269116635
 20
139.7999999594306
 30
0.0
 10
99.22777268346732
 20
136.3052927937542
 30
0.0
 10
99.06964269637689
 20
132.039572749846
 30
0.0
 10
98.94665270641765
 20
128.8673267343149
 30
0.0
 10
100.8807305877373
 20
127.8027915271048
 30
0.0
 10
103.7129454545577
 20
127.8027915271048
 30
0.0
 10
104.9352661390825
 20
127.8027915271048
 30
0.0
 10
108.0151835347002
 20
127.8827177950895
 30
0.0
 10
110.2045431598849
 20
130.5926316915021
 30
0.0
 10
111.7417457794874
 20
132.4984597712065
 30
0.0
 10
113.155269389579
 20
134.475256864725
 30
0.0
 10
115.0562743324223
 20
140.9489400617108
 30
0.0
 10
116.6361961642235
 20
146.3680788349845
 30
0.0
 10
117.7282921534974
 20
149.8639917848761
 30
0.0
 10
117.6480213757369
 20
151.8595646611754
 30
0.0
 10
117.6480213757369
 20
151.8595646611754
 30
0.0
 10
117.6480213757369
 20
151.8595646611754
 30
0.0
 10
117.6480213757369
 20
151.8595646611754
 30
0.0
 10
117.13229024137
 20
155.18150017429
 30
0.0
 10
114.7162431837115
 20
155.886194920681
 30
0.0
 10
113.3351034925446
 20
155.886194920681
 30
0.0
 10
111.9829026225447
 20
155.886194920681
 30
0.0
 10
108.3414342923792
 20
156.1251124501957
 30
0.0
 10
106.2595617172429
 20
153.4105476718098
 30
0.0
  0
HATCH
  5
1DAA
330
1DA0
100
AcDbEntity
  8
レイヤー 1
 62
    18
420
        0
100
AcDbHatch
 10
0.0
 20
0.0
 30
0.0
210
0.0
220
0.0
230
1.0
  2
SOLID
 70
     1
 71
     0
 91
        2
 92
        1
 93
        1
 72
     4
 94
        3
 73
     0
 74
     1
 95
       29
 96
       25
 40
0.0
 40
0.0
 40
0.0
 40
0.0
 40
1.0
 40
1.0
 40
1.0
 40
2.0
 40
2.0
 40
2.0
 40
3.0
 40
3.0
 40
3.0
 40
4.0
 40
4.0
 40
4.0
 40
5.0
 40
5.0
 40
5.0
 40
6.0
 40
6.0
 40
6.0
 40
7.0
 40
7.0
 40
7.0
 40
8.0
 40
8.0
 40
8.0
 40
8.0
 10
101.6420971922466
 20
132.8388354296931
 10
101.6300393500937
 20
134.7164137077823
 10
102.2236296937904
 20
138.0598810818841
 10
103.7487744712403
 20
142.5378191476827
 10
105.8199672433266
 20
148.5896501242061
 10
107.0602024361924
 20
150.8074318058939
 10
108.1522984254666
 20
151.8833358357054
 10
109.7411775114388
 20
153.4532668840085
 10
111.8740375333923
 20
153.5290590346837
 10
112.5075910110818
 20
153.4532668840085
 10
113.4012493694968
 20
153.3490526768302
 10
114.6683563248753
 20
152.7580461564518
 10
114.7493161221873
 20
150.7838328862519
 10
114.8106388622791
 20
149.0909118479895
 10
114.3186789024421
 20
145.9191825971221
 10
112.6164561002333
 20
140.9489400617108
 10
110.6444821435762
 20
135.1746117095912
 10
109.4669477299049
 20
132.8960240524753
 10
108.5212683953441
 20
131.9072809959403
 10
106.734640698065
 20
130.0538184021569
 10
104.822266932621
 20
130.2336525051225
 10
104.5408024457952
 20
130.2336525051225
 10
104.1721769856936
 20
130.2336525051225
 10
101.6465758193317
 20
130.6305277668397
 10
101.6420971922466
 20
132.8388354296931
 97
        0
 92
        1
 93
        1
 72
     4
 94
        3
 73
     0
 74
     1
 95
       32
 96
       28
 40
0.0
 40
0.0
 40
0.0
 40
0.0
 40
1.0
 40
1.0
 40
1.0
 40
2.0
 40
2.0
 40
2.0
 40
3.0
 40
3.0
 40
3.0
 40
4.0
 40
4.0
 40
4.0
 40
5.0
 40
5.0
 40
5.0
 40
6.0
 40
6.0
 40
6.0
 40
7.0
 40
7.0
 40
7.0
 40
8.0
 40
8.0
 40
8.0
 40
9.0
 40
9.0
 40
9.0
 40
9.0
 10
106.2595617172424
 20
153.4105476718098
 10
104.822266932621
 20
151.5474388043041
 10
103.717768591418
 20
149.8758773721411
 10
101.9232171692961
 20
144.6141795664062
 10
100.2754269116631
 20
139.7999999594306
 10
99.22777268346681
 20
136.3052927937542
 10
99.06964269637638
 20
132.039572749846
 10
98.94665270641735
 20
128.8673267343149
 10
100.8807305877367
 20
127.8027915271048
 10
103.712945454557
 20
127.8027915271048
 10
104.9352661390822
 20
127.8027915271048
 10
108.0151835346996
 20
127.8827177950895
 10
110.2045431598845
 20
130.5926316915021
 10
111.7417457794868
 20
132.4984597712065
 10
113.1552693895787
 20
134.475256864725
 10
115.0562743324217
 20
140.9489400617108
 10
116.6361961642228
 20
146.3680788349845
 10
117.728292153497
 20
149.8639917848761
 10
117.6480213757363
 20
151.8595646611754
 10
117.6480213757363
 20
151.8595646611754
 10
117.6480213757363
 20
151.8595646611754
 10
117.6480213757363
 20
151.8595646611754
 10
117.1322902413694
 20
155.18150017429
 10
114.716243183711
 20
155.886194920681
 10
113.335103492544
 20
155.886194920681
 10
111.9829026225443
 20
155.886194920681
 10
108.3414342923788
 20
156.1251124501957
 10
106.2595617172424
 20
153.4105476718098
 97
        0
 75
     2
 76
     1
 98
        0
  0
ENDBLK
  5
1DAB
330
1DA0
100
AcDbEntity
  8
0
100
AcDbBlockEnd
  0
BLOCK
  5
9F54
330
9F53
100
AcDbEntity
  8
0
100
AcDbBlockBegin
  2
*D347
 70
     1
 10
0.0
 20
0.0
 30
0.0
  3
*D347
  1

  0
LINE
  5
9F56
330
9F53
100
AcDbEntity
  8
寸法
 62
     0
370
    -2
100
AcDbLine
 10
461.5579017933226
 20
561.1390143670305
 30
0.0
 11
499.8849614306814
 21
561.1390143670305
 31
0.0
  0
LINE
  5
9F57
330
9F53
100
AcDbEntity
  8
寸法
 62
     0
370
    -2
100
AcDbLine
 10
461.5579017933226
 20
503.6715109213596
 30
0.0
 11
499.8849614306814
 21
503.6715109213596
 31
0.0
  0
LINE
  5
9F58
330
9F53
100
AcDbEntity
  8
寸法
 62
     0
370
    -2
100
AcDbLine
 10
499.8849614306814
 20
559.1390143670305
 30
0.0
 11
499.8849614306814
 21
505.6715109213596
 31
0.0
  0
INSERT
  5
9F59
330
9F53
100
AcDbEntity
  8
寸法
 62
     0
370
    -2
100
AcDbBlockReference
  2
_DOT
 10
499.8849614306814
 20
561.1390143670305
 30
0.0
 41
2.0
 42
2.0
 43
2.0
 50
90.0
  0
INSERT
  5
9F5A
330
9F53
100
AcDbEntity
  8
寸法
 62
     0
370
    -2
100
AcDbBlockReference
  2
_DOT
 10
499.8849614306814
 20
503.6715109213596
 30
0.0
 41
2.0
 42
2.0
 43
2.0
 50
270.0
  0
MTEXT
  5
9F5B
330
9F53
100
AcDbEntity
  8
寸法
 62
     0
100
AcDbMText
 10
490.8849614306814
 20
532.4052626441951
 30
0.0
 40
8.0
 41
0.0
 46
0.0
 71
     5
 72
     1
  1
\A1;57.5
  7
ＭＳ ゴシック
 11
0.0
 21
1.0
 31
0.0
 73
     1
 44
1.0
  0
POINT
  5
9F5C
330
9F53
100
AcDbEntity
  8
Defpoints
 62
     0
100
AcDbPoint
 10
455.5579017933226
 20
561.1390143670305
 30
0.0
  0
POINT
  5
9F5D
330
9F53
100
AcDbEntity
  8
Defpoints
 62
     0
100
AcDbPoint
 10
455.5579017933226
 20
503.6715109213596
 30
0.0
  0
POINT
  5
9F5E
330
9F53
100
AcDbEntity
  8
Defpoints
 62
     0
100
AcDbPoint
 10
499.8849614306814
 20
503.6715109213596
 30
0.0
  0
ENDBLK
  5
9F55
330
9F53
100
AcDbEntity
  8
0
100
AcDbBlockEnd
  0
BLOCK
  5
9F62
330
9F61
100
AcDbEntity
  8
0
100
AcDbBlockBegin
  2
*D348
 70
     1
 10
0.0
 20
0.0
 30
0.0
  3
*D348
  1

  0
LINE
  5
9F64
330
9F61
100
AcDbEntity
  8
寸法
 62
     0
370
    -2
100
AcDbLine
 10
461.5579017933226
 20
554.905176516751
 30
0.0
 11
478.2589207195543
 21
554.905176516751
 31
0.0
  0
LINE
  5
9F65
330
9F61
100
AcDbEntity
  8
寸法
 62
     0
370
    -2
100
AcDbLine
 10
461.5579017933226
 20
509.905176516751
 30
0.0
 11
478.2589207195543
 21
509.905176516751
 31
0.0
  0
LINE
  5
9F66
330
9F61
100
AcDbEntity
  8
寸法
 62
     0
370
    -2
100
AcDbLine
 10
478.2589207195543
 20
552.905176516751
 30
0.0
 11
478.2589207195543
 21
511.905176516751
 31
0.0
  0
INSERT
  5
9F67
330
9F61
100
AcDbEntity
  8
寸法
 62
     0
370
    -2
100
AcDbBlockReference
  2
_DOT
 10
478.2589207195543
 20
554.905176516751
 30
0.0
 41
2.0
 42
2.0
 43
2.0
 50
90.0
  0
INSERT
  5
9F68
330
9F61
100
AcDbEntity
  8
寸法
 62
     0
370
    -2
100
AcDbBlockReference
  2
_DOT
 10
478.2589207195543
 20
509.905176516751
 30
0.0
 41
2.0
 42
2.0
 43
2.0
 50
270.0
  0
MTEXT
  5
9F69
330
9F61
100
AcDbEntity
  8
寸法
 62
     0
100
AcDbMText
 10
469.2589207195543
 20
532.405176516751
 30
0.0
 40
8.0
 41
0.0
 46
0.0
 71
     5
 72
     1
  1
\A1;45
  7
ＭＳ ゴシック
 11
0.0
 21
1.0
 31
0.0
 73
     1
 44
1.0
  0
POINT
  5
9F6A
330
9F61
100
AcDbEntity
  8
Defpoints
 62
     0
100
AcDbPoint
 10
455.5579017933226
 20
554.905176516751
 30
0.0
  0
POINT
  5
9F6B
330
9F61
100
AcDbEntity
  8
Defpoints
 62
     0
100
AcDbPoint
 10
455.5579017933226
 20
509.905176516751
 30
0.0
  0
POINT
  5
9F6C
330
9F61
100
AcDbEntity
  8
Defpoints
 62
     0
100
AcDbPoint
 10
478.2589207195543
 20
509.905176516751
 30
0.0
  0
ENDBLK
  5
9F63
330
9F61
100
AcDbEntity
  8
0
100
AcDbBlockEnd
  0
BLOCK
  5
9F80
330
9F7F
100
AcDbEntity
  8
0
100
AcDbBlockBegin
  2
*D350
 70
     1
 10
0.0
 20
0.0
 30
0.0
  3
*D350
  1

  0
LINE
  5
9F82
330
9F7F
100
AcDbEntity
  8
寸法
 62
     0
370
    -2
100
AcDbLine
 10
169.8867029895914
 20
442.4233298888109
 30
0.0
 11
169.8867029895914
 21
439.8890143670305
 31
0.0
  0
LINE
  5
9F83
330
9F7F
100
AcDbEntity
  8
寸法
 62
     0
370
    -2
100
AcDbLine
 10
192.8737732698149
 20
442.4233298888109
 30
0.0
 11
192.8737732698149
 21
439.8890143670305
 31
0.0
  0
LINE
  5
9F84
330
9F7F
100
AcDbEntity
  8
寸法
 62
     0
370
    -2
100
AcDbLine
 10
169.8867029895914
 20
439.8890143670305
 30
0.0
 11
143.4949779879907
 21
439.8890143670305
 31
0.0
  0
LINE
  5
9F85
330
9F7F
100
AcDbEntity
  8
寸法
 62
     0
370
    -2
100
AcDbLine
 10
171.8867029895914
 20
439.8890143670305
 30
0.0
 11
190.8737732698149
 21
439.8890143670305
 31
0.0
  0
LINE
  5
9F86
330
9F7F
100
AcDbEntity
  8
寸法
 62
     0
370
    -2
100
AcDbLine
 10
171.8867029895914
 20
439.8890143670305
 30
0.0
 11
173.8867029895914
 21
439.8890143670305
 31
0.0
  0
INSERT
  5
9F87
330
9F7F
100
AcDbEntity
  8
寸法
 62
     0
370
    -2
100
AcDbBlockReference
  2
_DOT
 10
169.8867029895914
 20
439.8890143670305
 30
0.0
 41
2.0
 42
2.0
 43
2.0
 50
180.0
  0
INSERT
  5
9F88
330
9F7F
100
AcDbEntity
  8
寸法
 62
     0
370
    -2
100
AcDbBlockReference
  2
_DOT
 10
192.8737732698149
 20
439.8890143670305
 30
0.0
 41
2.0
 42
2.0
 43
2.0
  0
MTEXT
  5
9F89
330
9F7F
100
AcDbEntity
  8
寸法
 62
     0
100
AcDbMText
 10
153.1429779879907
 20
448.8890143670305
 30
0.0
 40
8.0
 41
0.0
 46
0.0
 71
     5
 72
     1
  1
\A1;23
  7
ＭＳ ゴシック
 73
     1
 44
1.0
  0
POINT
  5
9F8A
330
9F7F
100
AcDbEntity
  8
Defpoints
 62
     0
100
AcDbPoint
 10
169.8867029895914
 20
436.4233298888109
 30
0.0
  0
POINT
  5
9F8B
330
9F7F
100
AcDbEntity
  8
Defpoints
 62
     0
100
AcDbPoint
 10
192.8737732698149
 20
436.4233298888109
 30
0.0
  0
POINT
  5
9F8C
330
9F7F
100
AcDbEntity
  8
Defpoints
 62
     0
100
AcDbPoint
 10
192.8737732698149
 20
439.8890143670305
 30
0.0
  0
ENDBLK
  5
9F81
330
9F7F
100
AcDbEntity
  8
0
100
AcDbBlockEnd
  0
BLOCK
  5
9F92
330
9F91
100
AcDbEntity
  8
0
100
AcDbBlockBegin
  2
*D351
 70
     1
 10
0.0
 20
0.0
 30
0.0
  3
*D351
  1

  0
LINE
  5
9F94
330
9F91
100
AcDbEntity
  8
寸法
 62
     0
370
    -2
100
AcDbLine
 10
164.5527657902443
 20
750.43431399932
 30
0.0
 11
164.5527657902443
 21
761.8778132418649
 31
0.0
  0
LINE
  5
9F95
330
9F91
100
AcDbEntity
  8
寸法
 62
     0
370
    -2
100
AcDbLine
 10
198.2724783070117
 20
750.43431399932
 30
0.0
 11
198.2724783070117
 21
761.8778132418649
 31
0.0
  0
LINE
  5
9F96
330
9F91
100
AcDbEntity
  8
寸法
 62
     0
370
    -2
100
AcDbLine
 10
166.5527657902443
 20
761.8778132418649
 30
0.0
 11
196.2724783070117
 21
761.8778132418649
 31
0.0
  0
INSERT
  5
9F97
330
9F91
100
AcDbEntity
  8
寸法
 62
     0
370
    -2
100
AcDbBlockReference
  2
_DOT
 10
164.5527657902443
 20
761.8778132418649
 30
0.0
 41
2.0
 42
2.0
 43
2.0
 50
180.0
  0
INSERT
  5
9F98
330
9F91
100
AcDbEntity
  8
寸法
 62
     0
370
    -2
100
AcDbBlockReference
  2
_DOT
 10
198.2724783070117
 20
761.8778132418649
 30
0.0
 41
2.0
 42
2.0
 43
2.0
  0
MTEXT
  5
9F99
330
9F91
100
AcDbEntity
  8
寸法
 62
     0
100
AcDbMText
 10
181.412622048628
 20
770.8778132418649
 30
0.0
 40
8.0
 41
0.0
 46
0.0
 71
     5
 72
     1
  1
\A1;34
  7
ＭＳ ゴシック
 73
     1
 44
1.0
  0
POINT
  5
9F9A
330
9F91
100
AcDbEntity
  8
Defpoints
 62
     0
100
AcDbPoint
 10
164.5527657902443
 20
744.43431399932
 30
0.0
  0
POINT
  5
9F9B
330
9F91
100
AcDbEntity
  8
Defpoints
 62
     0
100
AcDbPoint
 10
198.2724783070117
 20
744.43431399932
 30
0.0
  0
POINT
  5
9F9C
330
9F91
100
AcDbEntity
  8
Defpoints
 62
     0
100
AcDbPoint
 10
198.2724783070117
 20
761.8778132418649
 30
0.0
  0
ENDBLK
  5
9F93
330
9F91
100
AcDbEntity
  8
0
100
AcDbBlockEnd
  0
BLOCK
  5
9FA1
330
9FA0
100
AcDbEntity
  8
0
100
AcDbBlockBegin
  2
*D352
 70
     1
 10
0.0
 20
0.0
 30
0.0
  3
*D352
  1

  0
LINE
  5
9FA3
330
9FA0
100
AcDbEntity
  8
寸法
 62
     0
370
    -2
100
AcDbLine
 10
204.2724783070117
 20
744.43431399932
 30
0.0
 11
225.948489340636
 21
744.43431399932
 31
0.0
  0
LINE
  5
9FA4
330
9FA0
100
AcDbEntity
  8
寸法
 62
     0
370
    -2
100
AcDbLine
 10
187.4126220486553
 20
676.8702194126588
 30
0.0
 11
225.948489340636
 21
676.8702194126588
 31
0.0
  0
LINE
  5
9FA5
330
9FA0
100
AcDbEntity
  8
寸法
 62
     0
370
    -2
100
AcDbLine
 10
225.948489340636
 20
742.43431399932
 30
0.0
 11
225.948489340636
 21
678.8702194126588
 31
0.0
  0
INSERT
  5
9FA6
330
9FA0
100
AcDbEntity
  8
寸法
 62
     0
370
    -2
100
AcDbBlockReference
  2
_DOT
 10
225.948489340636
 20
744.43431399932
 30
0.0
 41
2.0
 42
2.0
 43
2.0
 50
90.0
  0
INSERT
  5
9FA7
330
9FA0
100
AcDbEntity
  8
寸法
 62
     0
370
    -2
100
AcDbBlockReference
  2
_DOT
 10
225.948489340636
 20
676.8702194126588
 30
0.0
 41
2.0
 42
2.0
 43
2.0
 50
270.0
  0
MTEXT
  5
9FA8
330
9FA0
100
AcDbEntity
  8
寸法
 62
     0
100
AcDbMText
 10
216.948489340636
 20
710.6522667059894
 30
0.0
 40
8.0
 41
0.0
 46
0.0
 71
     5
 72
     1
  1
\A1;68
  7
ＭＳ ゴシック
 11
0.0
 21
1.0
 31
0.0
 73
     1
 44
1.0
  0
POINT
  5
9FA9
330
9FA0
100
AcDbEntity
  8
Defpoints
 62
     0
100
AcDbPoint
 10
198.2724783070117
 20
744.43431399932
 30
0.0
  0
POINT
  5
9FAA
330
9FA0
100
AcDbEntity
  8
Defpoints
 62
     0
100
AcDbPoint
 10
181.4126220486553
 20
676.8702194126588
 30
0.0
  0
POINT
  5
9FAB
330
9FA0
100
AcDbEntity
  8
Defpoints
 62
     0
100
AcDbPoint
 10
225.948489340636
 20
676.8702194126588
 30
0.0
  0
ENDBLK
  5
9FA2
330
9FA0
100
AcDbEntity
  8
0
100
AcDbBlockEnd
  0
BLOCK
  5
9FB0
330
9FAF
100
AcDbEntity
  8
0
100
AcDbBlockBegin
  2
*D353
 70
     1
 10
0.0
 20
0.0
 30
0.0
  3
*D353
  1

  0
LINE
  5
9FB2
330
9FAF
100
AcDbEntity
  8
寸法
 62
     0
370
    -2
100
AcDbLine
 10
395.9311833278491
 20
445.8890143670305
 30
0.0
 11
395.9311833278491
 21
439.8890143670305
 31
0.0
  0
LINE
  5
9FB3
330
9FAF
100
AcDbEntity
  8
寸法
 62
     0
370
    -2
100
AcDbLine
 10
408.9488297160831
 20
445.8890143670305
 30
0.0
 11
408.9488297160831
 21
439.8890143670305
 31
0.0
  0
LINE
  5
9FB4
330
9FAF
100
AcDbEntity
  8
寸法
 62
     0
370
    -2
100
AcDbLine
 10
395.9311833278491
 20
439.8890143670305
 30
0.0
 11
373.1631833278491
 21
439.8890143670305
 31
0.0
  0
LINE
  5
9FB5
330
9FAF
100
AcDbEntity
  8
寸法
 62
     0
370
    -2
100
AcDbLine
 10
397.9311833278491
 20
439.8890143670305
 30
0.0
 11
406.9488297160831
 21
439.8890143670305
 31
0.0
  0
LINE
  5
9FB6
330
9FAF
100
AcDbEntity
  8
寸法
 62
     0
370
    -2
100
AcDbLine
 10
397.9311833278491
 20
439.8890143670305
 30
0.0
 11
399.9311833278491
 21
439.8890143670305
 31
0.0
  0
INSERT
  5
9FB7
330
9FAF
100
AcDbEntity
  8
寸法
 62
     0
370
    -2
100
AcDbBlockReference
  2
_DOT
 10
395.9311833278491
 20
439.8890143670305
 30
0.0
 41
2.0
 42
2.0
 43
2.0
 50
180.0
  0
INSERT
  5
9FB8
330
9FAF
100
AcDbEntity
  8
寸法
 62
     0
370
    -2
100
AcDbBlockReference
  2
_DOT
 10
408.9488297160831
 20
439.8890143670305
 30
0.0
 41
2.0
 42
2.0
 43
2.0
  0
MTEXT
  5
9FB9
330
9FAF
100
AcDbEntity
  8
寸法
 62
     0
100
AcDbMText
 10
382.5471833278491
 20
448.8890143670305
 30
0.0
 40
8.0
 41
0.0
 46
0.0
 71
     5
 72
     1
  1
\A1;13
  7
ＭＳ ゴシック
 73
     1
 44
1.0
  0
POINT
  5
9FBA
330
9FAF
100
AcDbEntity
  8
Defpoints
 62
     0
100
AcDbPoint
 10
395.9311833278491
 20
439.8890143670305
 30
0.0
  0
POINT
  5
9FBB
330
9FAF
100
AcDbEntity
  8
Defpoints
 62
     0
100
AcDbPoint
 10
408.9488297160831
 20
439.8890143670305
 30
0.0
  0
POINT
  5
9FBC
330
9FAF
100
AcDbEntity
  8
Defpoints
 62
     0
100
AcDbPoint
 10
408.9488297160831
 20
439.8890143670305
 30
0.0
  0
ENDBLK
  5
9FB1
330
9FAF
100
AcDbEntity
  8
0
100
AcDbBlockEnd
  0
BLOCK
  5
9FC2
330
9FC1
100
AcDbEntity
  8
0
100
AcDbBlockBegin
  2
*D354
 70
     1
 10
0.0
 20
0.0
 30
0.0
  3
*D354
  1

  0
LINE
  5
9FC4
330
9FC1
100
AcDbEntity
  8
寸法
 62
     0
370
    -2
100
AcDbLine
 10
204.8207578057225
 20
532.405176516751
 30
0.0
 11
225.948489340636
 21
532.405176516751
 31
0.0
  0
LINE
  5
9FC5
330
9FC1
100
AcDbEntity
  8
寸法
 62
     0
370
    -2
100
AcDbLine
 10
204.8207578057225
 20
347.3977425029077
 30
0.0
 11
225.948489340636
 21
347.3977425029077
 31
0.0
  0
LINE
  5
9FC6
330
9FC1
100
AcDbEntity
  8
寸法
 62
     0
370
    -2
100
AcDbLine
 10
225.948489340636
 20
530.405176516751
 30
0.0
 11
225.948489340636
 21
349.3977425029077
 31
0.0
  0
INSERT
  5
9FC7
330
9FC1
100
AcDbEntity
  8
寸法
 62
     0
370
    -2
100
AcDbBlockReference
  2
_DOT
 10
225.948489340636
 20
532.405176516751
 30
0.0
 41
2.0
 42
2.0
 43
2.0
 50
90.0
  0
INSERT
  5
9FC8
330
9FC1
100
AcDbEntity
  8
寸法
 62
     0
370
    -2
100
AcDbBlockReference
  2
_DOT
 10
225.948489340636
 20
347.3977425029077
 30
0.0
 41
2.0
 42
2.0
 43
2.0
 50
270.0
  0
MTEXT
  5
9FC9
330
9FC1
100
AcDbEntity
  8
寸法
 62
     0
100
AcDbMText
 10
216.948489340636
 20
439.9014595098294
 30
0.0
 40
8.0
 41
0.0
 46
0.0
 71
     5
 72
     1
  1
\A1;185
  7
ＭＳ ゴシック
 11
0.0
 21
1.0
 31
0.0
 73
     1
 44
1.0
  0
POINT
  5
9FCA
330
9FC1
100
AcDbEntity
  8
Defpoints
 62
     0
100
AcDbPoint
 10
198.8207578057225
 20
532.405176516751
 30
0.0
  0
POINT
  5
9FCB
330
9FC1
100
AcDbEntity
  8
Defpoints
 62
     0
100
AcDbPoint
 10
198.8207578057225
 20
347.3977425029077
 30
0.0
  0
POINT
  5
9FCC
330
9FC1
100
AcDbEntity
  8
Defpoints
 62
     0
100
AcDbPoint
 10
225.948489340636
 20
347.3977425029077
 30
0.0
  0
ENDBLK
  5
9FC3
330
9FC1
100
AcDbEntity
  8
0
100
AcDbBlockEnd
  0
BLOCK
  5
9FD1
330
9FD0
100
AcDbEntity
  8
0
100
AcDbBlockBegin
  2
*D355
 70
     1
 10
0.0
 20
0.0
 30
0.0
  3
*D355
  1

  0
LINE
  5
9FD3
330
9FD0
100
AcDbEntity
  8
寸法
 62
     0
370
    -2
100
AcDbLine
 10
158.5527657902443
 20
744.43431399932
 30
0.0
 11
146.8196035621299
 21
744.43431399932
 31
0.0
  0
LINE
  5
9FD4
330
9FD0
100
AcDbEntity
  8
寸法
 62
     0
370
    -2
100
AcDbLine
 10
160.6085385649729
 20
739.9313403173326
 30
0.0
 11
146.8196035621299
 21
739.9313403173326
 31
0.0
  0
LINE
  5
9FD5
330
9FD0
100
AcDbEntity
  8
寸法
 62
     0
370
    -2
100
AcDbLine
 10
146.8196035621299
 20
742.43431399932
 30
0.0
 11
146.8196035621299
 21
741.9313403173326
 31
0.0
  0
INSERT
  5
9FD6
330
9FD0
100
AcDbEntity
  8
寸法
 62
     0
370
    -2
100
AcDbBlockReference
  2
_DOT
 10
146.8196035621299
 20
744.43431399932
 30
0.0
 41
2.0
 42
2.0
 43
2.0
 50
90.0
  0
INSERT
  5
9FD7
330
9FD0
100
AcDbEntity
  8
寸法
 62
     0
370
    -2
100
AcDbBlockReference
  2
_DOT
 10
146.8196035621299
 20
739.9313403173326
 30
0.0
 41
2.0
 42
2.0
 43
2.0
 50
270.0
  0
MTEXT
  5
9FD8
330
9FD0
100
AcDbEntity
  8
寸法
 62
     0
100
AcDbMText
 10
137.8196035621299
 20
742.1828271583263
 30
0.0
 40
8.0
 41
0.0
 46
0.0
 71
     5
 72
     1
  1
\A1;4.5
  7
ＭＳ ゴシック
 11
0.0
 21
1.0
 31
0.0
 73
     1
 44
1.0
  0
POINT
  5
9FD9
330
9FD0
100
AcDbEntity
  8
Defpoints
 62
     0
100
AcDbPoint
 10
164.5527657902443
 20
744.43431399932
 30
0.0
  0
POINT
  5
9FDA
330
9FD0
100
AcDbEntity
  8
Defpoints
 62
     0
100
AcDbPoint
 10
166.6085385649729
 20
739.9313403173326
 30
0.0
  0
POINT
  5
9FDB
330
9FD0
100
AcDbEntity
  8
Defpoints
 62
     0
100
AcDbPoint
 10
146.8196035621299
 20
739.9313403173326
 30
0.0
  0
ENDBLK
  5
9FD2
330
9FD0
100
AcDbEntity
  8
0
100
AcDbBlockEnd
  0
BLOCK
  5
9FF1
330
9FF0
100
AcDbEntity
  8
0
100
AcDbBlockBegin
  2
*D357
 70
     1
 10
0.0
 20
0.0
 30
0.0
  3
*D357
  1

  0
LINE
  5
9FF3
330
9FF0
100
AcDbEntity
  8
寸法
 62
     0
370
    -2
100
AcDbLine
 10
154.6085385649729
 20
739.9313403173326
 30
0.0
 11
146.8196035621299
 21
739.9313403173326
 31
0.0
  0
LINE
  5
9FF4
330
9FF0
100
AcDbEntity
  8
寸法
 62
     0
370
    -2
100
AcDbLine
 10
166.3548103058185
 20
676.4313403173326
 30
0.0
 11
146.8196035621299
 21
676.4313403173326
 31
0.0
  0
LINE
  5
9FF5
330
9FF0
100
AcDbEntity
  8
寸法
 62
     0
370
    -2
100
AcDbLine
 10
146.8196035621299
 20
737.9313403173326
 30
0.0
 11
146.8196035621299
 21
678.4313403173326
 31
0.0
  0
INSERT
  5
9FF6
330
9FF0
100
AcDbEntity
  8
寸法
 62
     0
370
    -2
100
AcDbBlockReference
  2
_DOT
 10
146.8196035621299
 20
739.9313403173326
 30
0.0
 41
2.0
 42
2.0
 43
2.0
 50
90.0
  0
INSERT
  5
9FF7
330
9FF0
100
AcDbEntity
  8
寸法
 62
     0
370
    -2
100
AcDbBlockReference
  2
_DOT
 10
146.8196035621299
 20
676.4313403173326
 30
0.0
 41
2.0
 42
2.0
 43
2.0
 50
270.0
  0
MTEXT
  5
9FF8
330
9FF0
100
AcDbEntity
  8
寸法
 62
     0
100
AcDbMText
 10
137.8196035621299
 20
708.1813403173326
 30
0.0
 40
8.0
 41
0.0
 46
0.0
 71
     5
 72
     1
  1
\A1;63.5
  7
ＭＳ ゴシック
 11
0.0
 21
1.0
 31
0.0
 73
     1
 44
1.0
  0
POINT
  5
9FF9
330
9FF0
100
AcDbEntity
  8
Defpoints
 62
     0
100
AcDbPoint
 10
160.6085385649729
 20
739.9313403173326
 30
0.0
  0
POINT
  5
9FFA
330
9FF0
100
AcDbEntity
  8
Defpoints
 62
     0
100
AcDbPoint
 10
172.3548103058185
 20
676.4313403173326
 30
0.0
  0
POINT
  5
9FFB
330
9FF0
100
AcDbEntity
  8
Defpoints
 62
     0
100
AcDbPoint
 10
146.8196035621299
 20
676.4313403173326
 30
0.0
  0
ENDBLK
  5
9FF2
330
9FF0
100
AcDbEntity
  8
0
100
AcDbBlockEnd
  0
BLOCK
  5
A013
330
A012
100
AcDbEntity
  8
0
100
AcDbBlockBegin
  2
*D359
 70
     1
 10
0.0
 20
0.0
 30
0.0
  3
*D359
  1

  0
LINE
  5
A015
330
A012
100
AcDbEntity
  8
寸法
 62
     0
370
    -2
100
AcDbLine
 10
187.4126220486281
 20
561.1390143670305
 30
0.0
 11
252.1388028032782
 21
561.1390143670305
 31
0.0
  0
LINE
  5
A016
330
A012
100
AcDbEntity
  8
寸法
 62
     0
370
    -2
100
AcDbLine
 10
187.4126220486281
 20
318.6390143670304
 30
0.0
 11
252.1388028032782
 21
318.6390143670304
 31
0.0
  0
LINE
  5
A017
330
A012
100
AcDbEntity
  8
寸法
 62
     0
370
    -2
100
AcDbLine
 10
252.1388028032782
 20
559.1390143670305
 30
0.0
 11
252.1388028032782
 21
320.6390143670304
 31
0.0
  0
INSERT
  5
A018
330
A012
100
AcDbEntity
  8
寸法
 62
     0
370
    -2
100
AcDbBlockReference
  2
_DOT
 10
252.1388028032782
 20
561.1390143670305
 30
0.0
 41
2.0
 42
2.0
 43
2.0
 50
90.0
  0
INSERT
  5
A019
330
A012
100
AcDbEntity
  8
寸法
 62
     0
370
    -2
100
AcDbBlockReference
  2
_DOT
 10
252.1388028032782
 20
318.6390143670304
 30
0.0
 41
2.0
 42
2.0
 43
2.0
 50
270.0
  0
MTEXT
  5
A01A
330
A012
100
AcDbEntity
  8
寸法
 62
     0
100
AcDbMText
 10
243.1388028032782
 20
439.8890143670305
 30
0.0
 40
8.0
 41
0.0
 46
0.0
 71
     5
 72
     1
  1
\A1;242.5
  7
ＭＳ ゴシック
 11
1.172029254862020E-16
 21
1.0
 31
0.0
 73
     1
 44
1.0
  0
POINT
  5
A01B
330
A012
100
AcDbEntity
  8
Defpoints
 62
     0
100
AcDbPoint
 10
181.4126220486281
 20
561.1390143670305
 30
0.0
  0
POINT
  5
A01C
330
A012
100
AcDbEntity
  8
Defpoints
 62
     0
100
AcDbPoint
 10
181.4126220486281
 20
318.6390143670304
 30
0.0
  0
POINT
  5
A01D
330
A012
100
AcDbEntity
  8
Defpoints
 62
     0
100
AcDbPoint
 10
252.1388028032782
 20
318.6390143670304
 30
0.0
  0
ENDBLK
  5
A014
330
A012
100
AcDbEntity
  8
0
100
AcDbBlockEnd
  0
ENDSEC
  0
SECTION
  2
ENTITIES
  0
LINE
  5
5DCF
330
A
100
AcDbEntity
  8
PRINT
 48
10.0
100
AcDbLine
 10
630.0
 20
445.5
 30
0.0
 11
607.0357106571605
 21
445.5
 31
0.0
  0
LINE
  5
5DD1
330
A
100
AcDbEntity
  8
template
100
AcDbLine
 10
607.0357106571605
 20
75.1728304731173
 30
0.0
 11
22.96428934283949
 21
75.1728304731173
 31
0.0
  0
LINE
  5
5DD2
330
A
100
AcDbEntity
  8
template
100
AcDbLine
 10
22.96428934283949
 20
39.33230525881191
 30
0.0
 11
607.0357106571605
 21
39.33230525881191
 31
0.0
  0
TEXT
  5
5DD3
330
A
100
AcDbEntity
  8
template
100
AcDbText
 10
27.09182549271145
 20
66.00805684099123
 30
0.0
 40
4.5
  1
材質
 50
360.0
  7
ＭＳ ゴシック
100
AcDbText
  0
TEXT
  5
5DD6
330
A
100
AcDbEntity
  8
template
100
AcDbText
 10
27.09182549271145
 20
102.5200525468829
 30
0.0
 40
4.5
  1
品名
 50
360.0
  7
ＭＳ ゴシック
100
AcDbText
  0
TEXT
  5
5DD7
330
A
100
AcDbEntity
  8
template
100
AcDbText
 10
27.09182549271145
 20
84.73215720298646
 30
0.0
 40
4.5
  1
仕上げ
 50
360.0
  7
ＭＳ ゴシック
100
AcDbText
  0
TEXT
  5
5DD8
330
A
100
AcDbEntity
  8
template
100
AcDbText
 10
417.2233910161081
 20
102.6727802978392
 30
0.0
 40
4.5
  1
品番
 50
360.0
  7
ＭＳ ゴシック
100
AcDbText
  0
LINE
  5
5DDB
330
A
100
AcDbEntity
  8
template
100
AcDbLine
 10
607.0357106571605
 20
93.0031142780789
 30
0.0
 11
22.96428934284086
 21
93.00311427808043
 31
0.0
  0
LINE
  5
5DDC
330
A
100
AcDbEntity
  8
template
100
AcDbLine
 10
607.0357106571605
 20
111.0879723755984
 30
0.0
 11
22.96428934283949
 21
111.0879723755984
 31
0.0
  0
LINE
  5
5DDD
330
A
100
AcDbEntity
  8
PRINT
 48
20.0
100
AcDbLine
 10
315.0
 20
891.0
 30
0.0
 11
315.0
 21
868.0357106571622
 31
0.0
  0
LINE
  5
5DDE
330
A
100
AcDbEntity
  8
PRINT
 48
20.0
100
AcDbLine
 10
315.0
 20
0.0
 30
0.0
 11
315.0
 21
22.96428934283847
 31
0.0
  0
LINE
  5
5DDF
330
A
100
AcDbEntity
  8
PRINT
 48
20.0
100
AcDbLine
 10
0.0
 20
445.5
 30
0.0
 11
22.96428934283949
 21
445.5
 31
0.0
  0
LINE
  5
5DE0
330
A
100
AcDbEntity
  8
template
100
AcDbLine
 10
607.0357106571605
 20
93.33230525881191
 30
0.0
 11
607.0357106571605
 21
39.33230525881191
 31
0.0
  0
LINE
  5
5DE1
330
A
100
AcDbEntity
  8
template
100
AcDbLine
 10
22.96428934283949
 20
93.33230525881191
 30
0.0
 11
22.96428934283949
 21
39.33230525881191
 31
0.0
  0
TEXT
  5
5DE2
330
A
100
AcDbEntity
  8
template
100
AcDbText
 10
489.3973379300514
 20
24.77907585470626
 30
0.0
 40
7.5
  1
大洋金物株式会社  
 50
360.0
  7
ＭＳ ゴシック
100
AcDbText
  0
LINE
  5
5DE3
330
A
100
AcDbEntity
  8
template
100
AcDbLine
 10
412.0357106571605
 20
111.0879723755984
 30
0.0
 11
412.0357106571605
 21
57.08797237559844
 31
0.0
  0
INSERT
  5
5DE4
330
A
100
AcDbEntity
  8
template
100
AcDbBlockReference
  2
名称未設定-1
 10
559.5962368674709
 20
-11.46351630599111
 30
0.0
 41
0.2714625
 42
0.2714625
 43
0.2714625
 50
360.0
  0
LINE
  5
5DE6
330
A
100
AcDbEntity
  8
template
100
AcDbLine
 10
22.96428934283949
 20
445.5
 30
0.0
 11
22.96428934283949
 21
93.33230525881191
 31
0.0
  0
LINE
  5
5DE7
330
A
100
AcDbEntity
  8
template
100
AcDbLine
 10
22.96428934283949
 20
445.5
 30
0.0
 11
22.96428934283949
 21
868.0357106571622
 31
0.0
  0
LINE
  5
5DE8
330
A
100
AcDbEntity
  8
template
100
AcDbLine
 10
315.0
 20
868.0357106571622
 30
0.0
 11
22.96428934283949
 21
868.0357106571622
 31
0.0
  0
LINE
  5
5DE9
330
A
100
AcDbEntity
  8
template
100
AcDbLine
 10
315.0
 20
868.0357106571622
 30
0.0
 11
607.0357106571605
 21
868.0357106571622
 31
0.0
  0
LWPOLYLINE
  5
5DEA
330
A
100
AcDbEntity
  8
PRINT
  6
HIDDEN
 62
     4
 48
10.0
100
AcDbPolyline
 90
        4
 70
     1
 43
0.0
 10
630.0
 20
0.0
 10
0.0
 20
0.0
 10
0.0
 20
891.0
 10
630.0
 20
891.0
  0
TEXT
  5
5DEB
330
A
100
AcDbEntity
  8
template
100
AcDbText
 10
417.1867416725463
 20
66.7310146554832
 30
0.0
 40
4.5
  1
縮尺
 50
360.0
  7
ＭＳ ゴシック
100
AcDbText
  0
TEXT
  5
5DEC
330
A
100
AcDbEntity
  8
template
100
AcDbText
 10
432.1206843019063
 20
61.22179151753255
 30
0.0
 40
7.5
  1
1/3
 50
360.0
  7
ＭＳ ゴシック
100
AcDbText
  0
LINE
  5
5DED
330
A
100
AcDbEntity
  8
template
100
AcDbLine
 10
607.0357106571605
 20
445.5
 30
0.0
 11
607.0357106571605
 21
868.0357106571622
 31
0.0
  0
LINE
  5
5DEE
330
A
100
AcDbEntity
  8
template
100
AcDbLine
 10
607.0357106571605
 20
445.5
 30
0.0
 11
607.0357106571605
 21
93.33230525881191
 31
0.0
  0
LINE
  5
5DEF
330
A
100
AcDbEntity
  8
template
100
AcDbLine
 10
607.0357106571605
 20
57.16650716840917
 30
0.0
 11
22.96428934283949
 21
57.16650716840917
 31
0.0
  0
TEXT
  5
5DF0
330
A
100
AcDbEntity
  8
template
100
AcDbText
 10
27.09182549271145
 20
48.00173353628327
 30
0.0
 40
4.5
  1
備考
 50
360.0
  7
ＭＳ ゴシック
100
AcDbText
  0
TEXT
  5
5DF1
330
A
100
AcDbEntity
  8
template
100
AcDbText
 10
414.7340840904928
 20
84.56129846044496
 30
0.0
 40
4.5
  1
扉厚
 50
360.0
  7
ＭＳ ゴシック
100
AcDbText
  0
MTEXT
  5
77EE
102
{ACAD_XDICTIONARY
360
77F0
102
}
330
A
100
AcDbEntity
  8
テンプレート
100
AcDbMText
 10
23.9862556965215
 20
34.90593949924049
 30
0.0
 40
6.0
 41
0.0
 46
8.0
 71
     1
 72
     1
  1
{20171101N}
  7
ＭＳ ゴシック
 73
     1
 44
1.0
1001
ACAD
1000
ACAD_MTEXT_DEFINED_HEIGHT_BEGIN
1070
    46
1040
8.0
1000
ACAD_MTEXT_DEFINED_HEIGHT_END
  0
TEXT
  5
9B72
330
A
100
AcDbEntity
  8
モデル
100
AcDbText
 10
172.0975415718867
 20
121.0822193138697
 30
0.0
 40
7.5
  1
　 加工は現物合わせの上行って下さい。
  7
ＭＳ ゴシック
100
AcDbText
  0
TEXT
  5
9B73
330
A
100
AcDbEntity
  8
モデル
100
AcDbText
 10
172.3559061951992
 20
133.2378954580798
 30
0.0
 40
7.5
  1
※ 輸入製品の為、国内製品と比べ製品寸法の個体差に幅が有ります。
  7
ＭＳ ゴシック
100
AcDbText
  0
TEXT
  5
9B78
330
A
100
AcDbEntity
  8
template
100
AcDbText
 10
49.31708818892321
 20
97.39727588229421
 30
0.0
 40
7.5
  1
ドアハンドル(片面用直止めタイプ) - FORMANI,Bosco -
 50
360.0
  7
ＭＳ ゴシック
100
AcDbText
  0
TEXT
  5
9B7A
330
A
100
AcDbEntity
  8
template
100
AcDbText
 10
49.31708818892321
 20
61.54293722769053
 30
0.0
 40
7.5
  1
ステンレス/ウッド、真鍮/ウッド、ステンレス/大理石、真鍮/大理石
 50
360.0
  7
ＭＳ ゴシック
100
AcDbText
  0
TEXT
  5
9B7B
330
A
100
AcDbEntity
  8
template
100
AcDbText
 10
50.02703294111097
 20
44.5504426222753
 30
0.0
 40
7.5
  1
付属品: 木製用ビス
 50
360.0
  7
ＭＳ ゴシック
100
AcDbText
  0
TEXT
  5
9B7C
330
A
100
AcDbEntity
  8
template
100
AcDbText
 10
432.1206843019058
 20
97.26055530002004
 30
0.0
 40
7.5
  1
FOR31-BC185
 50
360.0
  7
ＭＳ ゴシック
100
AcDbText
  0
SPLINE
  5
9D50
330
A
100
AcDbEntity
  8
モデル
100
AcDbSpline
210
0.0
220
0.0
230
1.0
 70
     8
 71
     3
 72
     8
 73
     4
 74
     0
 42
0.000000001
 43
0.0000000001
 40
0.0
 40
0.0
 40
0.0
 40
0.0
 40
1.0
 40
1.0
 40
1.0
 40
1.0
 10
416.3368418580319
 20
356.3994384346858
 30
0.0
 10
426.5270965163068
 20
356.6219917498501
 30
0.0
 10
436.6856562752084
 20
357.6238261778654
 30
0.0
 10
446.7232931028055
 20
359.3952954450093
 30
0.0
  0
SPLINE
  5
9D51
330
A
100
AcDbEntity
  8
モデル
100
AcDbSpline
210
0.0
220
0.0
230
1.0
 70
     8
 71
     3
 72
     8
 73
     4
 74
     0
 42
0.000000001
 43
0.0000000001
 40
0.0
 40
0.0
 40
0.0
 40
0.0
 40
1.0
 40
1.0
 40
1.0
 40
1.0
 10
416.34683264153
 20
338.3808881409946
 30
0.0
 10
415.0879939207707
 20
338.3808881409946
 30
0.0
 10
414.0592877302435
 20
337.3762976347729
 30
0.0
 10
414.0293153797492
 20
336.1178034237895
 30
0.0
  0
SPLINE
  5
9D52
330
A
100
AcDbEntity
  8
モデル
100
AcDbSpline
210
0.0
220
0.0
230
1.0
 70
     8
 71
     3
 72
     8
 73
     4
 74
     0
 42
0.000000001
 43
0.0000000001
 40
0.0
 40
0.0
 40
0.0
 40
0.0
 40
1.0
 40
1.0
 40
1.0
 40
1.0
 10
414.0293153797492
 20
358.6787151113532
 30
0.0
 10
414.0585987106919
 20
357.419876390594
 30
0.0
 10
415.0873049012193
 20
356.4149413745966
 30
0.0
 10
416.3461436219785
 20
356.4149413745966
 30
0.0
  0
SPLINE
  5
9D53
330
A
100
AcDbEntity
  8
モデル
100
AcDbSpline
210
0.0
220
0.0
230
1.0
 70
     8
 71
     3
 72
     8
 73
     4
 74
     0
 42
0.000000001
 43
0.0000000001
 40
0.0
 40
0.0
 40
0.0
 40
0.0
 40
1.0
 40
1.0
 40
1.0
 40
1.0
 10
390.6264218001397
 20
337.5402842880519
 30
0.0
 10
390.6660404243562
 20
337.4710378231169
 30
0.0
 10
390.7397655163766
 20
337.4283186109182
 30
0.0
 10
390.8193472745854
 20
337.4283186109182
 30
0.0
  0
SPLINE
  5
9D54
330
A
100
AcDbEntity
  8
モデル
100
AcDbSpline
210
0.0
220
0.0
230
1.0
 70
     8
 71
     3
 72
     8
 73
     4
 74
     0
 42
0.000000001
 43
0.0000000001
 40
0.0
 40
0.0
 40
0.0
 40
0.0
 40
1.0
 40
1.0
 40
1.0
 40
1.0
 10
390.8196917843613
 20
357.3671663948972
 30
0.0
 10
390.7397655163766
 20
357.3671663948972
 30
0.0
 10
390.6660404243562
 20
357.3244471826985
 30
0.0
 10
390.6264218001397
 20
357.2552007177635
 30
0.0
  0
SPLINE
  5
9D55
330
A
100
AcDbEntity
  8
モデル
100
AcDbSpline
210
0.0
220
0.0
230
1.0
 70
     8
 71
     3
 72
     8
 73
     4
 74
     0
 42
0.000000001
 43
0.0000000001
 40
0.0
 40
0.0
 40
0.0
 40
0.0
 40
1.0
 40
1.0
 40
1.0
 40
1.0
 10
390.6119523895561
 20
357.298264439738
 30
0.0
 10
387.1217238509652
 20
351.183215919356
 30
0.0
 10
387.1210348314137
 20
343.6794484927396
 30
0.0
 10
390.6102298406772
 20
337.5640554625818
 30
0.0
  0
SPLINE
  5
9D56
330
A
100
AcDbEntity
  8
モデル
100
AcDbSpline
210
0.0
220
0.0
230
1.0
 70
     8
 71
     3
 72
     8
 73
     4
 74
     0
 42
0.000000001
 43
0.0000000001
 40
0.0
 40
0.0
 40
0.0
 40
0.0
 40
1.0
 40
1.0
 40
1.0
 40
1.0
 10
391.5497079992733
 20
337.1427200067831
 30
0.0
 10
391.5497079992733
 20
337.2653654869666
 30
0.0
 10
391.4501446740683
 20
337.3649288121717
 30
0.0
 10
391.3274991938849
 20
337.3649288121717
 30
0.0
  0
SPLINE
  5
9D57
330
A
100
AcDbEntity
  8
モデル
100
AcDbSpline
210
0.0
220
0.0
230
1.0
 70
     8
 71
     3
 72
     8
 73
     4
 74
     0
 42
0.000000001
 43
0.0000000001
 40
0.0
 40
0.0
 40
0.0
 40
0.0
 40
1.0
 40
1.0
 40
1.0
 40
1.0
 10
391.3274991938849
 20
357.4309007034195
 30
0.0
 10
391.4501446740683
 20
357.4309007034195
 30
0.0
 10
391.5497079992733
 20
357.5301195188488
 30
0.0
 10
391.5497079992733
 20
357.6531095088081
 30
0.0
  0
SPLINE
  5
9D58
330
A
100
AcDbEntity
  8
モデル
100
AcDbSpline
210
0.0
220
0.0
230
1.0
 70
     8
 71
     3
 72
     8
 73
     4
 74
     0
 42
0.000000001
 43
0.0000000001
 40
0.0
 40
0.0
 40
0.0
 40
0.0
 40
1.0
 40
1.0
 40
1.0
 40
1.0
 10
413.0264474224066
 20
334.6508807984494
 30
0.0
 10
413.6224493345339
 20
334.9144307769335
 30
0.0
 10
414.0131234202868
 20
335.4987193566838
 30
0.0
 10
414.0282818504218
 20
336.1505318524902
 30
0.0
  0
SPLINE
  5
9D59
330
A
100
AcDbEntity
  8
モデル
100
AcDbSpline
210
0.0
220
0.0
230
1.0
 70
     8
 71
     3
 72
     8
 73
     4
 74
     0
 42
0.000000001
 43
0.0000000001
 40
0.0
 40
0.0
 40
0.0
 40
0.0
 40
1.0
 40
1.0
 40
1.0
 40
1.0
 10
414.0282818504218
 20
358.7083429520717
 30
0.0
 10
414.0131234202868
 20
359.3601554478781
 30
0.0
 10
413.6227938443096
 20
359.9444440276284
 30
0.0
 10
413.0267919321824
 20
360.2079940061124
 30
0.0
  0
SPLINE
  5
9D5A
330
A
100
AcDbEntity
  8
モデル
100
AcDbSpline
210
0.0
220
0.0
230
1.0
 70
     8
 71
     3
 72
     8
 73
     4
 74
     0
 42
0.000000001
 43
0.0000000001
 40
0.0
 40
0.0
 40
0.0
 40
0.0
 40
1.0
 40
1.0
 40
1.0
 40
1.0
 10
394.0019285833905
 20
361.0510094274857
 30
0.0
 10
393.5471756793396
 20
360.8959800283774
 30
0.0
 10
393.0965568925982
 20
360.7288927871162
 30
0.0
 10
392.6507612427179
 20
360.5494031939264
 30
0.0
  0
SPLINE
  5
9D5B
330
A
100
AcDbEntity
  8
モデル
100
AcDbSpline
210
0.0
220
0.0
230
1.0
 70
     8
 71
     3
 72
     8
 73
     4
 74
     0
 42
0.000000001
 43
0.0000000001
 40
0.0
 40
0.0
 40
0.0
 40
0.0
 40
1.0
 40
1.0
 40
1.0
 40
1.0
 10
413.0364382059047
 20
360.2083385158882
 30
0.0
 10
412.3367388512626
 20
360.5177082945532
 30
0.0
 10
411.6236036153646
 20
360.7967612129481
 30
0.0
 10
410.899444066641
 20
361.043774722194
 30
0.0
  0
SPLINE
  5
9D5C
330
A
100
AcDbEntity
  8
モデル
100
AcDbSpline
210
0.0
220
0.0
230
1.0
 70
     8
 71
     3
 72
     8
 73
     4
 74
     0
 42
0.000000001
 43
0.0000000001
 40
0.0
 40
0.0
 40
0.0
 40
0.0
 40
1.0
 40
1.0
 40
1.0
 40
1.0
 10
392.643871047202
 20
334.3125721986176
 30
0.0
 10
399.2060932565673
 20
331.6663926107273
 30
0.0
 10
406.5599989307125
 20
331.7876600518075
 30
0.0
 10
413.0316150690435
 20
334.6488137397947
 30
0.0
  0
SPLINE
  5
9D5D
330
A
100
AcDbEntity
  8
モデル
100
AcDbSpline
210
0.0
220
0.0
230
1.0
 70
     8
 71
     3
 72
     8
 73
     4
 74
     0
 42
0.000000001
 43
0.0000000001
 40
0.0
 40
0.0
 40
0.0
 40
0.0
 40
1.0
 40
1.0
 40
1.0
 40
1.0
 10
391.6130977980199
 20
335.8728569731985
 30
0.0
 10
391.6130977980199
 20
335.1862489900367
 30
0.0
 10
392.0299546267333
 20
334.5685429620341
 30
0.0
 10
392.6666086924046
 20
334.311883179066
 30
0.0
  0
SPLINE
  5
9D5E
330
A
100
AcDbEntity
  8
モデル
100
AcDbSpline
210
0.0
220
0.0
230
1.0
 70
     8
 71
     3
 72
     8
 73
     4
 74
     0
 42
0.000000001
 43
0.0000000001
 40
0.0
 40
0.0
 40
0.0
 40
0.0
 40
1.0
 40
1.0
 40
1.0
 40
1.0
 10
392.6669532021804
 20
360.5473361352717
 30
0.0
 10
392.030299136509
 20
360.2906763523035
 30
0.0
 10
391.6134423077957
 20
359.6733148340768
 30
0.0
 10
391.6130977980199
 20
358.986706850915
 30
0.0
  0
SPLINE
  5
9D5F
330
A
100
AcDbEntity
  8
モデル
100
AcDbSpline
210
0.0
220
0.0
230
1.0
 70
     8
 71
     3
 72
     8
 73
     4
 74
     0
 42
0.000000001
 43
0.0000000001
 40
0.0
 40
0.0
 40
0.0
 40
0.0
 40
1.0
 40
1.0
 40
1.0
 40
1.0
 10
408.8854399173366
 20
363.8129443000435
 30
0.0
 10
408.8850954075608
 20
362.5544500890601
 30
0.0
 10
409.6664435790665
 20
361.4279031222067
 30
0.0
 10
410.845356031841
 20
360.9872751189634
 30
0.0
  0
SPLINE
  5
9D60
330
A
100
AcDbEntity
  8
モデル
100
AcDbSpline
210
0.0
220
0.0
230
1.0
 70
     8
 71
     3
 72
     8
 73
     4
 74
     0
 42
0.000000001
 43
0.0000000001
 40
0.0
 40
0.0
 40
0.0
 40
0.0
 40
1.0
 40
1.0
 40
1.0
 40
1.0
 10
393.9881481923587
 20
360.9938208047035
 30
0.0
 10
395.1577588811867
 20
361.4389274350321
 30
0.0
 10
395.9311833278491
 20
362.5603067552487
 30
0.0
 10
395.9311833278491
 20
363.8119107707162
 30
0.0
  0
SPLINE
  5
9D61
330
A
100
AcDbEntity
  8
モデル
100
AcDbSpline
210
0.0
220
0.0
230
1.0
 70
     8
 71
     3
 72
     8
 73
     4
 74
     0
 42
0.000000001
 43
0.0000000001
 40
0.0
 40
0.0
 40
0.0
 40
0.0
 40
1.0
 40
1.0
 40
1.0
 40
1.0
 10
395.9311833278491
 20
516.0221863836523
 30
0.0
 10
395.9311833278491
 20
517.2806805946357
 30
0.0
 10
395.1498351563434
 20
518.4070553066013
 30
0.0
 10
393.9709227035689
 20
518.8475110549566
 30
0.0
  0
SPLINE
  5
9D62
330
A
100
AcDbEntity
  8
モデル
100
AcDbSpline
210
0.0
220
0.0
230
1.0
 70
     8
 71
     3
 72
     8
 73
     4
 74
     0
 42
0.000000001
 43
0.0000000001
 40
0.0
 40
0.0
 40
0.0
 40
0.0
 40
1.0
 40
1.0
 40
1.0
 40
1.0
 10
410.8281305430512
 20
518.8409653692163
 30
0.0
 10
409.6585198542232
 20
518.395514229112
 30
0.0
 10
408.8854399173366
 20
517.2741349088956
 30
0.0
 10
408.8854399173366
 20
516.022530893428
 30
0.0
  0
SPLINE
  5
9D63
330
A
100
AcDbEntity
  8
モデル
100
AcDbSpline
210
0.0
220
0.0
230
1.0
 70
     8
 71
     3
 72
     8
 73
     4
 74
     0
 42
0.000000001
 43
0.0000000001
 40
0.0
 40
0.0
 40
0.0
 40
0.0
 40
1.0
 40
1.0
 40
1.0
 40
1.0
 10
446.75981113904
 20
520.3700720090878
 30
0.0
 10
436.7225188212186
 20
522.1434360799985
 30
0.0
 10
426.5643035720927
 20
523.1468208020049
 30
0.0
 10
416.3740489138179
 20
523.371441175824
 30
0.0
  0
SPLINE
  5
9D64
330
A
100
AcDbEntity
  8
モデル
100
AcDbSpline
210
0.0
220
0.0
230
1.0
 70
     8
 71
     3
 72
     8
 73
     4
 74
     0
 42
0.000000001
 43
0.0000000001
 40
0.0
 40
0.0
 40
0.0
 40
0.0
 40
1.0
 40
1.0
 40
1.0
 40
1.0
 10
416.34683264153
 20
523.4198447993233
 30
0.0
 10
415.0879939207707
 20
523.4200170542113
 30
0.0
 10
414.0592877302435
 20
522.4152542931017
 30
0.0
 10
414.0293153797492
 20
521.1567600821184
 30
0.0
  0
SPLINE
  5
9D65
330
A
100
AcDbEntity
  8
モデル
100
AcDbSpline
210
0.0
220
0.0
230
1.0
 70
     8
 71
     3
 72
     8
 73
     4
 74
     0
 42
0.000000001
 43
0.0000000001
 40
0.0
 40
0.0
 40
0.0
 40
0.0
 40
1.0
 40
1.0
 40
1.0
 40
1.0
 10
414.0293153797492
 20
543.6542819709355
 30
0.0
 10
414.0585987106919
 20
542.3956155050641
 30
0.0
 10
415.0873049012193
 20
541.3906804890669
 30
0.0
 10
416.3461436219785
 20
541.3905082341789
 30
0.0
  0
SPLINE
  5
9D66
330
A
100
AcDbEntity
  8
モデル
100
AcDbSpline
210
0.0
220
0.0
230
1.0
 70
     8
 71
     3
 72
     8
 73
     4
 74
     0
 42
0.000000001
 43
0.0000000001
 40
0.0
 40
0.0
 40
0.0
 40
0.0
 40
1.0
 40
1.0
 40
1.0
 40
1.0
 10
390.6264218001397
 20
522.516023402522
 30
0.0
 10
390.6660404243562
 20
522.446776937587
 30
0.0
 10
390.7397655163766
 20
522.4038854705004
 30
0.0
 10
390.8193472745854
 20
522.4038854705004
 30
0.0
  0
SPLINE
  5
9D67
330
A
100
AcDbEntity
  8
モデル
100
AcDbSpline
210
0.0
220
0.0
230
1.0
 70
     8
 71
     3
 72
     8
 73
     4
 74
     0
 42
0.000000001
 43
0.0000000001
 40
0.0
 40
0.0
 40
0.0
 40
0.0
 40
1.0
 40
1.0
 40
1.0
 40
1.0
 10
390.8196917843613
 20
542.4064675630018
 30
0.0
 10
390.7397655163766
 20
542.4064675630018
 30
0.0
 10
390.6660404243562
 20
542.363748350803
 30
0.0
 10
390.6264218001397
 20
542.2943296309802
 30
0.0
  0
SPLINE
  5
9D68
330
A
100
AcDbEntity
  8
モデル
100
AcDbSpline
210
0.0
220
0.0
230
1.0
 70
     8
 71
     3
 72
     8
 73
     4
 74
     0
 42
0.000000001
 43
0.0000000001
 40
0.0
 40
0.0
 40
0.0
 40
0.0
 40
1.0
 40
1.0
 40
1.0
 40
1.0
 10
390.6119523895561
 20
542.2738312993204
 30
0.0
 10
387.1217238509652
 20
536.1589550338263
 30
0.0
 10
387.1210348314137
 20
528.6551876072099
 30
0.0
 10
390.6102298406772
 20
522.5397945770519
 30
0.0
  0
SPLINE
  5
9D69
330
A
100
AcDbEntity
  8
モデル
100
AcDbSpline
210
0.0
220
0.0
230
1.0
 70
     8
 71
     3
 72
     8
 73
     4
 74
     0
 42
0.000000001
 43
0.0000000001
 40
0.0
 40
0.0
 40
0.0
 40
0.0
 40
1.0
 40
1.0
 40
1.0
 40
1.0
 10
391.5497079992733
 20
522.1816766651118
 30
0.0
 10
391.5497079992733
 20
522.3043221452954
 30
0.0
 10
391.4501446740683
 20
522.4038854705004
 30
0.0
 10
391.3274991938849
 20
522.4038854705004
 30
0.0
  0
SPLINE
  5
9D6A
330
A
100
AcDbEntity
  8
モデル
100
AcDbSpline
210
0.0
220
0.0
230
1.0
 70
     8
 71
     3
 72
     8
 73
     4
 74
     0
 42
0.000000001
 43
0.0000000001
 40
0.0
 40
0.0
 40
0.0
 40
0.0
 40
1.0
 40
1.0
 40
1.0
 40
1.0
 10
391.3274991938849
 20
542.4064675630018
 30
0.0
 10
391.4501446740683
 20
542.4064675630018
 30
0.0
 10
391.5497079992733
 20
542.5058586333189
 30
0.0
 10
391.5497079992733
 20
542.6286763683902
 30
0.0
  0
SPLINE
  5
9D6B
330
A
100
AcDbEntity
  8
モデル
100
AcDbSpline
210
0.0
220
0.0
230
1.0
 70
     8
 71
     3
 72
     8
 73
     4
 74
     0
 42
0.000000001
 43
0.0000000001
 40
0.0
 40
0.0
 40
0.0
 40
0.0
 40
1.0
 40
1.0
 40
1.0
 40
1.0
 10
413.0264474224066
 20
519.6266199129195
 30
0.0
 10
413.6224493345339
 20
519.8901698914037
 30
0.0
 10
414.0131234202868
 20
520.4742862162661
 30
0.0
 10
414.0282818504218
 20
521.1259264571845
 30
0.0
  0
SPLINE
  5
9D6C
330
A
100
AcDbEntity
  8
モデル
100
AcDbSpline
210
0.0
220
0.0
230
1.0
 70
     8
 71
     3
 72
     8
 73
     4
 74
     0
 42
0.000000001
 43
0.0000000001
 40
0.0
 40
0.0
 40
0.0
 40
0.0
 40
1.0
 40
1.0
 40
1.0
 40
1.0
 10
414.0282818504218
 20
543.6840820665418
 30
0.0
 10
414.0131234202868
 20
544.3357223074604
 30
0.0
 10
413.6227938443096
 20
544.9198386323226
 30
0.0
 10
413.0267919321824
 20
545.1835608656947
 30
0.0
  0
SPLINE
  5
9D6D
330
A
100
AcDbEntity
  8
モデル
100
AcDbSpline
210
0.0
220
0.0
230
1.0
 70
     8
 71
     3
 72
     8
 73
     4
 74
     0
 42
0.000000001
 43
0.0000000001
 40
0.0
 40
0.0
 40
0.0
 40
0.0
 40
1.0
 40
1.0
 40
1.0
 40
1.0
 10
413.0364382059047
 20
545.1839053754704
 30
0.0
 10
406.5655110871252
 20
548.046437102561
 30
0.0
 10
399.2116054129801
 20
548.1690825827443
 30
0.0
 10
392.6486941840632
 20
545.5241087790691
 30
0.0
  0
SPLINE
  5
9D6E
330
A
100
AcDbEntity
  8
モデル
100
AcDbSpline
210
0.0
220
0.0
230
1.0
 70
     8
 71
     3
 72
     8
 73
     4
 74
     0
 42
0.000000001
 43
0.0000000001
 40
0.0
 40
0.0
 40
0.0
 40
0.0
 40
1.0
 40
1.0
 40
1.0
 40
1.0
 10
410.8780844605417
 20
518.7837767464343
 30
0.0
 10
411.6081006754537
 20
519.0321682947833
 30
0.0
 10
412.3267480677646
 20
519.3127715071694
 30
0.0
 10
413.0319595788193
 20
519.6245528542647
 30
0.0
  0
SPLINE
  5
9D6F
330
A
100
AcDbEntity
  8
モデル
100
AcDbSpline
210
0.0
220
0.0
230
1.0
 70
     8
 71
     3
 72
     8
 73
     4
 74
     0
 42
0.000000001
 43
0.0000000001
 40
0.0
 40
0.0
 40
0.0
 40
0.0
 40
1.0
 40
1.0
 40
1.0
 40
1.0
 10
392.643871047202
 20
519.2883113130879
 30
0.0
 10
393.0841545406695
 20
519.1107165236649
 30
0.0
 10
393.5289166612224
 20
518.9453518312828
 30
0.0
 10
393.9781574088606
 20
518.7918727261656
 30
0.0
  0
SPLINE
  5
9D70
330
A
100
AcDbEntity
  8
モデル
100
AcDbSpline
210
0.0
220
0.0
230
1.0
 70
     8
 71
     3
 72
     8
 73
     4
 74
     0
 42
0.000000001
 43
0.0000000001
 40
0.0
 40
0.0
 40
0.0
 40
0.0
 40
1.0
 40
1.0
 40
1.0
 40
1.0
 10
391.6130977980199
 20
520.8484238327808
 30
0.0
 10
391.6130977980199
 20
520.161815849619
 30
0.0
 10
392.0299546267333
 20
519.5442820765045
 30
0.0
 10
392.6666086924046
 20
519.2874500386483
 30
0.0
  0
SPLINE
  5
9D71
330
A
100
AcDbEntity
  8
モデル
100
AcDbSpline
210
0.0
220
0.0
230
1.0
 70
     8
 71
     3
 72
     8
 73
     4
 74
     0
 42
0.000000001
 43
0.0000000001
 40
0.0
 40
0.0
 40
0.0
 40
0.0
 40
1.0
 40
1.0
 40
1.0
 40
1.0
 10
392.6669532021804
 20
545.5229029948539
 30
0.0
 10
392.030299136509
 20
545.2664154667737
 30
0.0
 10
391.6134423077957
 20
544.648709438771
 30
0.0
 10
391.6130977980199
 20
543.9622737104974
 30
0.0
  0
SPLINE
  5
9D72
330
A
100
AcDbEntity
  8
モデル
100
AcDbSpline
210
0.0
220
0.0
230
1.0
 70
     8
 71
     3
 72
     8
 73
     4
 74
     0
 42
0.000000001
 43
0.0000000001
 40
0.0
 40
0.0
 40
0.0
 40
0.0
 40
1.0
 40
1.0
 40
1.0
 40
1.0
 10
451.4000133092386
 20
560.5633385316753
 30
0.0
 10
451.1629905834909
 20
560.5321603969655
 30
0.0
 10
450.9859125587316
 20
560.330277668349
 30
0.0
 10
450.9859125587316
 20
560.0911878839465
 30
0.0
  0
SPLINE
  5
9D73
330
A
100
AcDbEntity
  8
モデル
100
AcDbSpline
210
0.0
220
0.0
230
1.0
 70
     8
 71
     3
 72
     8
 73
     4
 74
     0
 42
0.000000001
 43
0.0000000001
 40
0.0
 40
0.0
 40
0.0
 40
0.0
 40
1.0
 40
1.0
 40
1.0
 40
1.0
 10
450.9859125587316
 20
504.7191651495557
 30
0.0
 10
450.9859125587316
 20
504.4802476200409
 30
0.0
 10
451.1629905834909
 20
504.2781926365365
 30
0.0
 10
451.3996687994628
 20
504.2470145018269
 30
0.0
  0
SPLINE
  5
9D74
330
A
100
AcDbEntity
  8
モデル
100
AcDbSpline
210
0.0
220
0.0
230
1.0
 70
     8
 71
     3
 72
     8
 73
     4
 74
     0
 42
0.000000001
 43
0.0000000001
 40
0.0
 40
0.0
 40
0.0
 40
0.0
 40
1.0
 40
1.0
 40
1.0
 40
1.0
 10
450.9859125587316
 20
517.3556114708713
 30
0.0
 10
450.9859125587316
 20
518.4909434370074
 30
0.0
 10
450.2231679151189
 20
519.4845096304036
 30
0.0
 10
449.1269378085354
 20
519.7783764691578
 30
0.0
  0
SPLINE
  5
9D75
330
A
100
AcDbEntity
  8
モデル
100
AcDbSpline
210
0.0
220
0.0
230
1.0
 70
     8
 71
     3
 72
     8
 73
     4
 74
     0
 42
0.000000001
 43
0.0000000001
 40
0.0
 40
0.0
 40
0.0
 40
0.0
 40
1.0
 40
1.0
 40
1.0
 40
1.0
 10
449.1262487889838
 20
545.0318043094564
 30
0.0
 10
450.2228234053431
 20
545.3254988933227
 30
0.0
 10
450.9855680489558
 20
546.3190650867189
 30
0.0
 10
450.9859125587316
 20
547.4542247979673
 30
0.0
  0
SPLINE
  5
9D76
330
A
100
AcDbEntity
  8
モデル
100
AcDbSpline
210
0.0
220
0.0
230
1.0
 70
     8
 71
     3
 72
     8
 73
     4
 74
     0
 42
0.000000001
 43
0.0000000001
 40
0.0
 40
0.0
 40
0.0
 40
0.0
 40
1.0
 40
1.0
 40
1.0
 40
1.0
 10
446.7312168276488
 20
521.1657173362889
 30
0.0
 10
446.7312168276488
 20
520.7202661961846
 30
0.0
 10
447.03025131304
 20
520.3302811299834
 30
0.0
 10
447.4605440230093
 20
520.2150426099795
 30
0.0
  0
SPLINE
  5
9D77
330
A
100
AcDbEntity
  8
モデル
100
AcDbSpline
210
0.0
220
0.0
230
1.0
 70
     8
 71
     3
 72
     8
 73
     4
 74
     0
 42
0.000000001
 43
0.0000000001
 40
0.0
 40
0.0
 40
0.0
 40
0.0
 40
1.0
 40
1.0
 40
1.0
 40
1.0
 10
447.4608885327851
 20
544.5954826784107
 30
0.0
 10
447.0305958228157
 20
544.4800719035188
 30
0.0
 10
446.7312168276488
 20
544.0902590922055
 30
0.0
 10
446.7312168276488
 20
543.644807952101
 30
0.0
  0
SPLINE
  5
9D78
330
A
100
AcDbEntity
  8
モデル
100
AcDbSpline
210
0.0
220
0.0
230
1.0
 70
     8
 71
     3
 72
     8
 73
     4
 74
     0
 42
0.000000001
 43
0.0000000001
 40
0.0
 40
0.0
 40
0.0
 40
0.0
 40
1.0
 40
1.0
 40
1.0
 40
1.0
 10
450.9859125587316
 20
319.6802084912269
 30
0.0
 10
450.9859125587316
 20
319.4411187068244
 30
0.0
 10
451.1629905834909
 20
319.2392359782078
 30
0.0
 10
451.3996687994628
 20
319.2078855886104
 30
0.0
  0
SPLINE
  5
9D79
330
A
100
AcDbEntity
  8
モデル
100
AcDbSpline
210
0.0
220
0.0
230
1.0
 70
     8
 71
     3
 72
     8
 73
     4
 74
     0
 42
0.000000001
 43
0.0000000001
 40
0.0
 40
0.0
 40
0.0
 40
0.0
 40
1.0
 40
1.0
 40
1.0
 40
1.0
 10
451.4000133092386
 20
375.587599417205
 30
0.0
 10
451.1629905834909
 20
375.5565935373833
 30
0.0
 10
450.9859125587316
 20
375.3547108087668
 30
0.0
 10
450.9859125587316
 20
375.1156210243643
 30
0.0
  0
SPLINE
  5
9D7A
330
A
100
AcDbEntity
  8
モデル
100
AcDbSpline
210
0.0
220
0.0
230
1.0
 70
     8
 71
     3
 72
     8
 73
     4
 74
     0
 42
0.000000001
 43
0.0000000001
 40
0.0
 40
0.0
 40
0.0
 40
0.0
 40
1.0
 40
1.0
 40
1.0
 40
1.0
 10
450.9859125587316
 20
332.3164825576546
 30
0.0
 10
450.9859125587316
 20
333.451642268903
 30
0.0
 10
450.2231679151189
 20
334.4455529720749
 30
0.0
 10
449.1269378085354
 20
334.7394198108291
 30
0.0
  0
SPLINE
  5
9D7B
330
A
100
AcDbEntity
  8
モデル
100
AcDbSpline
210
0.0
220
0.0
230
1.0
 70
     8
 71
     3
 72
     8
 73
     4
 74
     0
 42
0.000000001
 43
0.0000000001
 40
0.0
 40
0.0
 40
0.0
 40
0.0
 40
1.0
 40
1.0
 40
1.0
 40
1.0
 10
449.1262487889838
 20
360.0560651949863
 30
0.0
 10
450.2228234053431
 20
360.3499320337405
 30
0.0
 10
450.9855680489558
 20
361.3434982271366
 30
0.0
 10
450.9859125587316
 20
362.478657938385
 30
0.0
  0
SPLINE
  5
9D7C
330
A
100
AcDbEntity
  8
モデル
100
AcDbSpline
210
0.0
220
0.0
230
1.0
 70
     8
 71
     3
 72
     8
 73
     4
 74
     0
 42
0.000000001
 43
0.0000000001
 40
0.0
 40
0.0
 40
0.0
 40
0.0
 40
1.0
 40
1.0
 40
1.0
 40
1.0
 10
446.7312168276488
 20
336.1901504767067
 30
0.0
 10
446.7312168276488
 20
335.7446993366023
 30
0.0
 10
447.03025131304
 20
335.354714270401
 30
0.0
 10
447.4605440230093
 20
335.2393034955093
 30
0.0
  0
SPLINE
  5
9D7D
330
A
100
AcDbEntity
  8
モデル
100
AcDbSpline
210
0.0
220
0.0
230
1.0
 70
     8
 71
     3
 72
     8
 73
     4
 74
     0
 42
0.000000001
 43
0.0000000001
 40
0.0
 40
0.0
 40
0.0
 40
0.0
 40
1.0
 40
1.0
 40
1.0
 40
1.0
 10
447.4608885327851
 20
359.6199158188284
 30
0.0
 10
447.0305958228157
 20
359.5045050439367
 30
0.0
 10
446.7312168276488
 20
359.1145199777354
 30
0.0
 10
446.7312168276488
 20
358.669068837631
 30
0.0
  0
LINE
  5
9D7E
330
A
100
AcDbEntity
  8
モデル
100
AcDbLine
 10
403.9324228707151
 20
513.3868588536993
 30
0.0
 11
403.9324228707151
 21
366.3843652665862
 31
0.0
  0
LINE
  5
9D7F
330
A
100
AcDbEntity
  8
モデル
100
AcDbLine
 10
400.9479346829928
 20
366.3843652665862
 30
0.0
 11
400.9479346829928
 21
513.3868588536993
 31
0.0
  0
LINE
  5
9D80
330
A
100
AcDbEntity
  8
モデル
100
AcDbLine
 10
395.9311833278491
 20
513.3868588536993
 30
0.0
 11
395.9311833278491
 21
366.3843652665862
 31
0.0
  0
LINE
  5
9D81
330
A
100
AcDbEntity
  8
モデル
100
AcDbLine
 10
400.9479346829928
 20
366.3843652665862
 30
0.0
 11
396.1216972338643
 21
366.3843652665862
 31
0.0
  0
LINE
  5
9D82
330
A
100
AcDbEntity
  8
モデル
100
AcDbLine
 10
400.9479346829928
 20
366.3843652665862
 30
0.0
 11
400.9479346829928
 21
513.3868588536993
 31
0.0
  0
LINE
  5
9D83
330
A
100
AcDbEntity
  8
モデル
100
AcDbLine
 10
400.9479346829928
 20
513.3868588536993
 30
0.0
 11
396.1216972338643
 21
513.3868588536993
 31
0.0
  0
LINE
  5
9D84
330
A
100
AcDbEntity
  8
モデル
100
AcDbLine
 10
408.9488297160831
 20
513.3868588536993
 30
0.0
 11
408.9488297160831
 21
513.3868588536993
 31
0.0
  0
LINE
  5
9D85
330
A
100
AcDbEntity
  8
モデル
100
AcDbLine
 10
403.9324228707151
 20
513.3868588536993
 30
0.0
 11
408.7583158100678
 21
513.3868588536993
 31
0.0
  0
LINE
  5
9D86
330
A
100
AcDbEntity
  8
モデル
100
AcDbLine
 10
403.9324228707151
 20
507.9894241963007
 30
0.0
 11
403.9324228707151
 21
372.9882731588229
 31
0.0
  0
LINE
  5
9D87
330
A
100
AcDbEntity
  8
モデル
100
AcDbLine
 10
403.9324228707151
 20
513.3868588536993
 30
0.0
 11
403.9324228707151
 21
513.3868588536993
 31
0.0
  0
LINE
  5
9D88
330
A
100
AcDbEntity
  8
モデル
100
AcDbLine
 10
408.9488297160831
 20
366.3843652665862
 30
0.0
 11
408.9488297160831
 21
513.3868588536993
 31
0.0
  0
LINE
  5
9D89
330
A
100
AcDbEntity
  8
モデル
100
AcDbLine
 10
408.9488297160831
 20
513.3868588536993
 30
0.0
 11
408.7583158100678
 21
513.3868588536993
 31
0.0
  0
LINE
  5
9D8A
330
A
100
AcDbEntity
  8
モデル
100
AcDbLine
 10
446.7312168276488
 20
359.3994295623188
 30
0.0
 11
446.7312168276488
 21
335.3963999532724
 31
0.0
  0
LINE
  5
9D8B
330
A
100
AcDbEntity
  8
モデル
100
AcDbLine
 10
416.3147932323809
 20
338.3808881409946
 30
0.0
 11
416.3147932323809
 21
356.4149413745966
 31
0.0
  0
LINE
  5
9D8C
330
A
100
AcDbEntity
  8
モデル
100
AcDbLine
 10
416.3147932323809
 20
338.3808881409946
 30
0.0
 11
423.9983947619629
 21
338.0632501277105
 31
0.0
  0
LINE
  5
9D8D
330
A
100
AcDbEntity
  8
モデル
100
AcDbLine
 10
423.9983947619629
 20
338.0632501277105
 30
0.0
 11
431.6182619830225
 21
337.4917084096646
 31
0.0
  0
LINE
  5
9D8E
330
A
100
AcDbEntity
  8
モデル
100
AcDbLine
 10
431.6182619830225
 20
337.4917084096646
 30
0.0
 11
439.1747394053358
 21
336.6028731881106
 31
0.0
  0
LINE
  5
9D8F
330
A
100
AcDbEntity
  8
モデル
100
AcDbLine
 10
439.1747394053358
 20
336.6028731881106
 30
0.0
 11
446.7312168276488
 21
335.3963999532724
 31
0.0
  0
LINE
  5
9D90
330
A
100
AcDbEntity
  8
モデル
100
AcDbLine
 10
391.6130977980199
 20
358.954667441766
 30
0.0
 11
391.6130977980199
 21
335.8408175640494
 31
0.0
  0
LINE
  5
9D91
330
A
100
AcDbEntity
  8
モデル
100
AcDbLine
 10
390.8513866837345
 20
357.4309007034195
 30
0.0
 11
391.3591940932581
 21
357.4309007034195
 31
0.0
  0
LINE
  5
9D92
330
A
100
AcDbEntity
  8
モデル
100
AcDbLine
 10
390.8513866837345
 20
337.4283186109182
 30
0.0
 11
391.3591940932581
 21
337.4283186109182
 31
0.0
  0
LINE
  5
9D93
330
A
100
AcDbEntity
  8
モデル
100
AcDbLine
 10
410.8536242664601
 20
357.9387081129431
 30
0.0
 11
410.8536242664601
 21
360.9869306091876
 31
0.0
  0
LINE
  5
9D94
330
A
100
AcDbEntity
  8
モデル
100
AcDbLine
 10
394.026388777472
 20
357.9387081129431
 30
0.0
 11
395.8044037303561
 21
358.6373739382577
 31
0.0
  0
LINE
  5
9D95
330
A
100
AcDbEntity
  8
モデル
100
AcDbLine
 10
395.8044037303561
 20
358.6373739382577
 30
0.0
 11
397.8997121867484
 21
359.2089156563036
 31
0.0
  0
LINE
  5
9D96
330
A
100
AcDbEntity
  8
モデル
100
AcDbLine
 10
397.8997121867484
 20
359.2089156563036
 30
0.0
 11
400.1221447504095
 21
359.5262091598118
 31
0.0
  0
LINE
  5
9D97
330
A
100
AcDbEntity
  8
モデル
100
AcDbLine
 10
400.1221447504095
 20
359.5262091598118
 30
0.0
 11
402.4717014213393
 21
359.6533332670806
 31
0.0
  0
LINE
  5
9D98
330
A
100
AcDbEntity
  8
モデル
100
AcDbLine
 10
402.4717014213393
 20
359.6533332670806
 30
0.0
 11
404.8212580922692
 21
359.5262091598118
 31
0.0
  0
LINE
  5
9D99
330
A
100
AcDbEntity
  8
モデル
100
AcDbLine
 10
404.8212580922692
 20
359.5262091598118
 30
0.0
 11
407.0436906559303
 21
359.1451813477813
 31
0.0
  0
LINE
  5
9D9A
330
A
100
AcDbEntity
  8
モデル
100
AcDbLine
 10
407.0436906559303
 20
359.1451813477813
 30
0.0
 11
409.075609313576
 21
358.6373739382577
 31
0.0
  0
LINE
  5
9D9B
330
A
100
AcDbEntity
  8
モデル
100
AcDbLine
 10
409.075609313576
 20
358.6373739382577
 30
0.0
 11
410.8536242664601
 21
357.9387081129431
 31
0.0
  0
LINE
  5
9D9C
330
A
100
AcDbEntity
  8
モデル
100
AcDbLine
 10
394.026388777472
 20
360.9869306091876
 30
0.0
 11
394.026388777472
 21
357.9387081129431
 31
0.0
  0
LINE
  5
9D9D
330
A
100
AcDbEntity
  8
モデル
100
AcDbLine
 10
409.0122195148296
 20
361.0503204079341
 30
0.0
 11
409.3298575281137
 21
360.16148518638
 31
0.0
  0
LINE
  5
9D9E
330
A
100
AcDbEntity
  8
モデル
100
AcDbLine
 10
409.3298575281137
 20
360.16148518638
 30
0.0
 11
409.7742751388907
 21
359.3356952537965
 31
0.0
  0
LINE
  5
9D9F
330
A
100
AcDbEntity
  8
モデル
100
AcDbLine
 10
409.7742751388907
 20
359.3356952537965
 30
0.0
 11
410.3458168569366
 21
358.5739841395112
 31
0.0
  0
LINE
  5
9DA0
330
A
100
AcDbEntity
  8
モデル
100
AcDbLine
 10
410.3458168569366
 20
358.5739841395112
 30
0.0
 11
410.8536242664601
 21
357.9387081129431
 31
0.0
  0
LINE
  5
9DA1
330
A
100
AcDbEntity
  8
モデル
100
AcDbLine
 10
394.026388777472
 20
357.9387081129431
 30
0.0
 11
394.5341961869956
 21
358.6373739382577
 31
0.0
  0
LINE
  5
9DA2
330
A
100
AcDbEntity
  8
モデル
100
AcDbLine
 10
394.5341961869956
 20
358.6373739382577
 30
0.0
 11
395.042348106295
 21
359.3994295623188
 31
0.0
  0
LINE
  5
9DA3
330
A
100
AcDbEntity
  8
モデル
100
AcDbLine
 10
395.042348106295
 20
359.3994295623188
 30
0.0
 11
395.486765717072
 21
360.16148518638
 31
0.0
  0
LINE
  5
9DA4
330
A
100
AcDbEntity
  8
モデル
100
AcDbLine
 10
395.486765717072
 20
360.16148518638
 30
0.0
 11
395.8044037303561
 21
361.0503204079341
 31
0.0
  0
LINE
  5
9DA5
330
A
100
AcDbEntity
  8
モデル
100
AcDbLine
 10
408.9488297160831
 20
362.0028899380105
 30
0.0
 11
409.0122195148296
 21
361.0503204079341
 31
0.0
  0
LINE
  5
9DA6
330
A
100
AcDbEntity
  8
モデル
100
AcDbLine
 10
395.8044037303561
 20
361.0503204079341
 30
0.0
 11
395.9311833278491
 21
362.0028899380105
 31
0.0
  0
LINE
  5
9DA7
330
A
100
AcDbEntity
  8
モデル
100
AcDbLine
 10
408.9488297160831
 20
366.3843652665862
 30
0.0
 11
408.9488297160831
 21
366.3843652665862
 31
0.0
  0
LINE
  5
9DA8
330
A
100
AcDbEntity
  8
モデル
100
AcDbLine
 10
408.9488297160831
 20
366.3843652665862
 30
0.0
 11
408.9488297160831
 21
362.0028899380105
 31
0.0
  0
LINE
  5
9DA9
330
A
100
AcDbEntity
  8
モデル
100
AcDbLine
 10
395.9311833278491
 20
362.0028899380105
 30
0.0
 11
395.9311833278491
 21
366.3843652665862
 31
0.0
  0
LINE
  5
9DAA
330
A
100
AcDbEntity
  8
モデル
100
AcDbLine
 10
393.9626544689497
 20
521.8959058060891
 30
0.0
 11
393.9626544689497
 21
518.7844657659859
 31
0.0
  0
LINE
  5
9DAB
330
A
100
AcDbEntity
  8
モデル
100
AcDbLine
 10
410.8536242664601
 20
521.8959058060891
 30
0.0
 11
409.0122195148296
 21
521.1974122356623
 31
0.0
  0
LINE
  5
9DAC
330
A
100
AcDbEntity
  8
モデル
100
AcDbLine
 10
409.0122195148296
 20
521.1974122356623
 30
0.0
 11
406.9803008571838
 21
520.6258705176165
 31
0.0
  0
LINE
  5
9DAD
330
A
100
AcDbEntity
  8
モデル
100
AcDbLine
 10
406.9803008571838
 20
520.6258705176165
 30
0.0
 11
404.6941339850003
 21
520.2448427055858
 31
0.0
  0
LINE
  5
9DAE
330
A
100
AcDbEntity
  8
モデル
100
AcDbLine
 10
404.6941339850003
 20
520.2448427055858
 30
0.0
 11
402.4083116225928
 21
520.1178908532049
 31
0.0
  0
LINE
  5
9DAF
330
A
100
AcDbEntity
  8
モデル
100
AcDbLine
 10
402.4083116225928
 20
520.1178908532049
 30
0.0
 11
400.058754951663
 21
520.2448427055858
 31
0.0
  0
LINE
  5
9DB0
330
A
100
AcDbEntity
  8
モデル
100
AcDbLine
 10
400.058754951663
 20
520.2448427055858
 30
0.0
 11
397.7729325892553
 21
520.6258705176165
 31
0.0
  0
LINE
  5
9DB1
330
A
100
AcDbEntity
  8
モデル
100
AcDbLine
 10
397.7729325892553
 20
520.6258705176165
 30
0.0
 11
395.7406694218338
 21
521.1974122356623
 31
0.0
  0
LINE
  5
9DB2
330
A
100
AcDbEntity
  8
モデル
100
AcDbLine
 10
395.7406694218338
 20
521.1974122356623
 30
0.0
 11
393.9626544689497
 21
521.8959058060891
 31
0.0
  0
LINE
  5
9DB3
330
A
100
AcDbEntity
  8
モデル
100
AcDbLine
 10
410.8536242664601
 20
518.7844657659859
 30
0.0
 11
410.8536242664601
 21
521.8959058060891
 31
0.0
  0
LINE
  5
9DB4
330
A
100
AcDbEntity
  8
モデル
100
AcDbLine
 10
395.8044037303561
 20
518.7209037123514
 30
0.0
 11
395.486765717072
 21
519.6099111887936
 31
0.0
  0
LINE
  5
9DB5
330
A
100
AcDbEntity
  8
モデル
100
AcDbLine
 10
395.486765717072
 20
519.6099111887936
 30
0.0
 11
395.042348106295
 21
520.435356611601
 31
0.0
  0
LINE
  5
9DB6
330
A
100
AcDbEntity
  8
モデル
100
AcDbLine
 10
395.042348106295
 20
520.435356611601
 30
0.0
 11
394.5341961869956
 21
521.1974122356623
 31
0.0
  0
LINE
  5
9DB7
330
A
100
AcDbEntity
  8
モデル
100
AcDbLine
 10
394.5341961869956
 20
521.1974122356623
 30
0.0
 11
393.9626544689497
 21
521.8959058060891
 31
0.0
  0
LINE
  5
9DB8
330
A
100
AcDbEntity
  8
モデル
100
AcDbLine
 10
410.8536242664601
 20
521.8959058060891
 30
0.0
 11
410.28242705819
 21
521.1974122356623
 31
0.0
  0
LINE
  5
9DB9
330
A
100
AcDbEntity
  8
モデル
100
AcDbLine
 10
410.28242705819
 20
521.1974122356623
 30
0.0
 11
409.7742751388907
 21
520.435356611601
 31
0.0
  0
LINE
  5
9DBA
330
A
100
AcDbEntity
  8
モデル
100
AcDbLine
 10
409.7742751388907
 20
520.435356611601
 30
0.0
 11
409.3298575281137
 21
519.6099111887936
 31
0.0
  0
LINE
  5
9DBB
330
A
100
AcDbEntity
  8
モデル
100
AcDbLine
 10
409.3298575281137
 20
519.6099111887936
 30
0.0
 11
409.0122195148296
 21
518.7209037123514
 31
0.0
  0
LINE
  5
9DBC
330
A
100
AcDbEntity
  8
モデル
100
AcDbLine
 10
395.9311833278491
 20
517.8318962359094
 30
0.0
 11
395.8044037303561
 21
518.7209037123514
 31
0.0
  0
LINE
  5
9DBD
330
A
100
AcDbEntity
  8
モデル
100
AcDbLine
 10
409.0122195148296
 20
518.7209037123514
 30
0.0
 11
408.9488297160831
 21
517.8318962359094
 31
0.0
  0
LINE
  5
9DBE
330
A
100
AcDbEntity
  8
モデル
100
AcDbLine
 10
395.9311833278491
 20
517.8318962359094
 30
0.0
 11
395.9311833278491
 21
513.3868588536993
 31
0.0
  0
LINE
  5
9DBF
330
A
100
AcDbEntity
  8
モデル
100
AcDbLine
 10
408.9488297160831
 20
513.3868588536993
 30
0.0
 11
408.9488297160831
 21
517.8318962359094
 31
0.0
  0
LINE
  5
9DC0
330
A
100
AcDbEntity
  8
モデル
100
AcDbLine
 10
446.7312168276488
 20
544.3749964219012
 30
0.0
 11
446.7312168276488
 21
520.435356611601
 31
0.0
  0
LINE
  5
9DC1
330
A
100
AcDbEntity
  8
モデル
100
AcDbLine
 10
416.3147932323809
 20
523.4198447993233
 30
0.0
 11
416.3147932323809
 21
541.3905082341789
 31
0.0
  0
LINE
  5
9DC2
330
A
100
AcDbEntity
  8
モデル
100
AcDbLine
 10
446.7312168276488
 20
544.3749964219012
 30
0.0
 11
439.1747394053358
 21
543.2319129858095
 31
0.0
  0
LINE
  5
9DC3
330
A
100
AcDbEntity
  8
モデル
100
AcDbLine
 10
439.1747394053358
 20
543.2319129858095
 30
0.0
 11
431.6182619830225
 21
542.3429055093675
 31
0.0
  0
LINE
  5
9DC4
330
A
100
AcDbEntity
  8
モデル
100
AcDbLine
 10
431.6182619830225
 20
542.3429055093675
 30
0.0
 11
423.9983947619629
 21
541.707973992575
 31
0.0
  0
LINE
  5
9DC5
330
A
100
AcDbEntity
  8
モデル
100
AcDbLine
 10
423.9983947619629
 20
541.707973992575
 30
0.0
 11
416.3147932323809
 21
541.3905082341789
 31
0.0
  0
LINE
  5
9DC6
330
A
100
AcDbEntity
  8
モデル
100
AcDbLine
 10
391.6130977980199
 20
543.930406556236
 30
0.0
 11
391.6130977980199
 21
520.879946477266
 31
0.0
  0
LINE
  5
9DC7
330
A
100
AcDbEntity
  8
モデル
100
AcDbLine
 10
390.8513866837345
 20
542.4064675630018
 30
0.0
 11
391.3591940932581
 21
542.4064675630018
 31
0.0
  0
LINE
  5
9DC8
330
A
100
AcDbEntity
  8
モデル
100
AcDbLine
 10
390.8513866837345
 20
522.4038854705004
 30
0.0
 11
391.3591940932581
 21
522.4038854705004
 31
0.0
  0
LINE
  5
9DC9
102
{ACAD_REACTORS
330
9F52
102
}
330
A
100
AcDbEntity
  8
モデル
100
AcDbLine
 10
451.4303301695087
 20
504.179318330883
 30
0.0
 11
455.5579017933226
 21
503.6715109213596
 31
0.0
  0
LINE
  5
9DCA
330
A
100
AcDbEntity
  8
モデル
100
AcDbLine
 10
455.5579017933226
 20
503.6715109213596
 30
0.0
 11
455.5579017933226
 21
508.6879177667274
 31
0.0
  0
LINE
  5
9DCB
330
A
100
AcDbEntity
  8
モデル
100
AcDbLine
 10
455.5579017933226
 20
508.6879177667274
 30
0.0
 11
455.5579017933226
 21
520.9435085309005
 31
0.0
  0
LINE
  5
9DCC
330
A
100
AcDbEntity
  8
モデル
100
AcDbLine
 10
455.5579017933226
 20
520.9435085309005
 30
0.0
 11
455.5579017933226
 21
543.8668445026017
 31
0.0
  0
LINE
  5
9DCD
330
A
100
AcDbEntity
  8
モデル
100
AcDbLine
 10
455.5579017933226
 20
543.8668445026017
 30
0.0
 11
455.5579017933226
 21
556.1224352667748
 31
0.0
  0
LINE
  5
9DCE
102
{ACAD_REACTORS
330
9F52
102
}
330
A
100
AcDbEntity
  8
モデル
100
AcDbLine
 10
455.5579017933226
 20
556.1224352667748
 30
0.0
 11
455.5579017933226
 21
561.1390143670305
 31
0.0
  0
LINE
  5
9DCF
330
A
100
AcDbEntity
  8
モデル
100
AcDbLine
 10
455.5579017933226
 20
561.1390143670305
 30
0.0
 11
451.4303301695087
 21
560.631034702619
 31
0.0
  0
LINE
  5
9DD0
330
A
100
AcDbEntity
  8
モデル
100
AcDbLine
 10
450.9859125587316
 20
560.1228827833197
 30
0.0
 11
450.9859125587316
 21
555.9319213607594
 31
0.0
  0
LINE
  5
9DD1
330
A
100
AcDbEntity
  8
モデル
100
AcDbLine
 10
450.9859125587316
 20
555.9319213607594
 30
0.0
 11
450.9859125587316
 21
543.1685231870629
 31
0.0
  0
LINE
  5
9DD2
330
A
100
AcDbEntity
  8
モデル
100
AcDbLine
 10
450.9859125587316
 20
543.1685231870629
 30
0.0
 11
450.9859125587316
 21
521.6418298464394
 31
0.0
  0
LINE
  5
9DD3
330
A
100
AcDbEntity
  8
モデル
100
AcDbLine
 10
450.9859125587316
 20
521.6418298464394
 30
0.0
 11
450.9859125587316
 21
508.8784316727426
 31
0.0
  0
LINE
  5
9DD4
330
A
100
AcDbEntity
  8
モデル
100
AcDbLine
 10
450.9859125587316
 20
508.8784316727426
 30
0.0
 11
450.9859125587316
 21
504.6874702501823
 31
0.0
  0
LINE
  5
9DD5
330
A
100
AcDbEntity
  8
モデル
100
AcDbLine
 10
447.49327245171
 20
544.628900126663
 30
0.0
 11
449.1441632973252
 21
545.0734899923277
 31
0.0
  0
LINE
  5
9DD6
330
A
100
AcDbEntity
  8
モデル
100
AcDbLine
 10
447.49327245171
 20
520.1814529068392
 30
0.0
 11
449.1441632973252
 21
519.7368630411745
 31
0.0
  0
LINE
  5
9DD7
330
A
100
AcDbEntity
  8
モデル
100
AcDbLine
 10
455.5579017933226
 20
318.632209753255
 30
0.0
 11
455.5579017933226
 21
323.7123509071453
 31
0.0
  0
LINE
  5
9DD8
330
A
100
AcDbEntity
  8
モデル
100
AcDbLine
 10
455.5579017933226
 20
323.7123509071453
 30
0.0
 11
455.5579017933226
 21
335.9042073627959
 31
0.0
  0
LINE
  5
9DD9
330
A
100
AcDbEntity
  8
モデル
100
AcDbLine
 10
455.5579017933226
 20
335.9042073627959
 30
0.0
 11
455.5579017933226
 21
358.8912776430195
 31
0.0
  0
LINE
  5
9DDA
330
A
100
AcDbEntity
  8
モデル
100
AcDbLine
 10
455.5579017933226
 20
358.8912776430195
 30
0.0
 11
455.5579017933226
 21
371.0834786084459
 31
0.0
  0
LINE
  5
9DDB
330
A
100
AcDbEntity
  8
モデル
100
AcDbLine
 10
455.5579017933226
 20
371.0834786084459
 30
0.0
 11
455.5579017933226
 21
376.1632752525604
 31
0.0
  0
LINE
  5
9DDC
330
A
100
AcDbEntity
  8
モデル
100
AcDbLine
 10
455.5579017933226
 20
376.1632752525604
 30
0.0
 11
451.4303301695087
 21
375.5917335345146
 31
0.0
  0
LINE
  5
9DDD
330
A
100
AcDbEntity
  8
モデル
100
AcDbLine
 10
451.4303301695087
 20
319.2037514713008
 30
0.0
 11
455.5579017933226
 21
318.632209753255
 31
0.0
  0
LINE
  5
9DDE
330
A
100
AcDbEntity
  8
モデル
100
AcDbLine
 10
450.9859125587316
 20
375.083926124991
 30
0.0
 11
450.9859125587316
 21
370.8929647024306
 31
0.0
  0
LINE
  5
9DDF
330
A
100
AcDbEntity
  8
モデル
100
AcDbLine
 10
450.9859125587316
 20
370.8929647024306
 30
0.0
 11
450.9859125587316
 21
358.1929563274807
 31
0.0
  0
LINE
  5
9DE0
330
A
100
AcDbEntity
  8
モデル
100
AcDbLine
 10
450.9859125587316
 20
358.1929563274807
 30
0.0
 11
450.9859125587316
 21
336.6028731881106
 31
0.0
  0
LINE
  5
9DE1
330
A
100
AcDbEntity
  8
モデル
100
AcDbLine
 10
450.9859125587316
 20
336.6028731881106
 30
0.0
 11
450.9859125587316
 21
323.9028648131606
 31
0.0
  0
LINE
  5
9DE2
330
A
100
AcDbEntity
  8
モデル
100
AcDbLine
 10
450.9859125587316
 20
323.9028648131606
 30
0.0
 11
450.9859125587316
 21
319.7119033906002
 31
0.0
  0
LINE
  5
9DE3
330
A
100
AcDbEntity
  8
モデル
100
AcDbLine
 10
447.49327245171
 20
359.5899434683341
 30
0.0
 11
449.1441632973252
 21
360.0343610791112
 31
0.0
  0
LINE
  5
9DE4
330
A
100
AcDbEntity
  8
モデル
100
AcDbLine
 10
447.49327245171
 20
335.2058860472571
 30
0.0
 11
449.1441632973252
 21
334.76146843648
 31
0.0
  0
LINE
  5
9DE5
330
A
100
AcDbEntity
  8
モデル
100
AcDbLine
 10
403.9324228707151
 20
366.3843652665862
 30
0.0
 11
408.9488297160831
 21
366.3843652665862
 31
0.0
  0
SPLINE
  5
9DE7
330
A
100
AcDbEntity
  8
モデル
100
AcDbSpline
210
0.0
220
0.0
230
1.0
 70
     8
 71
     3
 72
     8
 73
     4
 74
     0
 42
0.000000001
 43
0.0000000001
 40
0.0
 40
0.0
 40
0.0
 40
0.0
 40
1.0
 40
1.0
 40
1.0
 40
1.0
 10
190.0357017368062
 20
357.9724700709711
 30
0.0
 10
185.0194671463261
 20
362.0755815007035
 30
0.0
 10
177.8071549900333
 20
362.0762705202551
 30
0.0
 10
172.7902313800015
 20
357.9741926198501
 30
0.0
  0
SPLINE
  5
9DE8
330
A
100
AcDbEntity
  8
モデル
100
AcDbSpline
210
0.0
220
0.0
230
1.0
 70
     8
 71
     3
 72
     8
 73
     4
 74
     0
 42
0.000000001
 43
0.0000000001
 40
0.0
 40
0.0
 40
0.0
 40
0.0
 40
1.0
 40
1.0
 40
1.0
 40
1.0
 10
188.873153498382
 20
362.0349293471595
 30
0.0
 10
188.873153498382
 20
361.1161217751111
 30
0.0
 10
189.2917328759743
 20
360.247612630329
 30
0.0
 10
190.0103802682852
 20
359.6750373829558
 30
0.0
  0
SPLINE
  5
9DE9
330
A
100
AcDbEntity
  8
モデル
100
AcDbSpline
210
0.0
220
0.0
230
1.0
 70
     8
 71
     3
 72
     8
 73
     4
 74
     0
 42
0.000000001
 43
0.0000000001
 40
0.0
 40
0.0
 40
0.0
 40
0.0
 40
1.0
 40
1.0
 40
1.0
 40
1.0
 10
172.7494069715697
 20
359.67469287318
 30
0.0
 10
173.4682266187684
 20
360.2469236107774
 30
0.0
 10
173.8869782512486
 20
361.1154327555595
 30
0.0
 10
173.8871505061365
 20
362.0338958178321
 30
0.0
  0
SPLINE
  5
9DEA
330
A
100
AcDbEntity
  8
モデル
100
AcDbSpline
210
0.0
220
0.0
230
1.0
 70
     8
 71
     3
 72
     8
 73
     4
 74
     0
 42
0.000000001
 43
0.0000000001
 40
0.0
 40
0.0
 40
0.0
 40
0.0
 40
1.0
 40
1.0
 40
1.0
 40
1.0
 10
172.7690440287901
 20
521.8778190428598
 30
0.0
 10
177.7913075403466
 20
517.7545537912431
 30
0.0
 10
185.0270463613936
 20
517.7531757521399
 30
0.0
 10
190.0508601669412
 20
521.8745461999895
 30
0.0
  0
SPLINE
  5
9DEB
330
A
100
AcDbEntity
  8
モデル
100
AcDbSpline
210
0.0
220
0.0
230
1.0
 70
     8
 71
     3
 72
     8
 73
     4
 74
     0
 42
0.000000001
 43
0.0000000001
 40
0.0
 40
0.0
 40
0.0
 40
0.0
 40
1.0
 40
1.0
 40
1.0
 40
1.0
 10
190.0107247780609
 20
520.1599210458521
 30
0.0
 10
189.2920773857501
 20
519.5876903082547
 30
0.0
 10
188.8733257532699
 20
518.7191811634725
 30
0.0
 10
188.873153498382
 20
517.8005458463119
 30
0.0
  0
SPLINE
  5
9DEC
330
A
100
AcDbEntity
  8
モデル
100
AcDbSpline
210
0.0
220
0.0
230
1.0
 70
     8
 71
     3
 72
     8
 73
     4
 74
     0
 42
0.000000001
 43
0.0000000001
 40
0.0
 40
0.0
 40
0.0
 40
0.0
 40
1.0
 40
1.0
 40
1.0
 40
1.0
 10
173.8871505061365
 20
517.7995123169846
 30
0.0
 10
173.8873227610244
 20
518.718319889033
 30
0.0
 10
173.46891563832
 20
519.587001288703
 30
0.0
 10
172.7502682460092
 20
520.1594042811885
 30
0.0
  0
SPLINE
  5
9DED
330
A
100
AcDbEntity
  8
モデル
100
AcDbSpline
210
0.0
220
0.0
230
1.0
 70
     8
 71
     3
 72
    17
 73
    13
 74
     0
 42
0.000000001
 43
0.0000000001
 40
0.0
 40
0.0
 40
0.0
 40
0.0
 40
1.0
 40
1.0
 40
1.0
 40
2.0
 40
2.0
 40
2.0
 40
3.0
 40
3.0
 40
3.0
 40
4.0
 40
4.0
 40
4.0
 40
4.0
 10
181.4108994997491
 20
522.4038854705004
 30
0.0
 10
186.9342524802012
 20
522.4033687058368
 30
0.0
 10
191.4123628008876
 20
526.8802732423078
 30
0.0
 10
191.4132240753271
 20
532.4036262227601
 30
0.0
 10
191.4140853497665
 20
537.9269792032121
 30
0.0
 10
186.9371808132954
 20
542.4054340336743
 30
0.0
 10
181.4138278328433
 20
542.4064675630018
 30
0.0
 10
175.8904748523913
 20
542.4075010923291
 30
0.0
 10
171.4120200219289
 20
537.9309410656338
 30
0.0
 10
171.4106419828257
 20
532.4075880851817
 30
0.0
 10
171.4092639437226
 20
526.8842351047297
 30
0.0
 10
175.8856517155301
 20
522.4056080193793
 30
0.0
 10
181.4090046959822
 20
522.4038854705004
 30
0.0
  0
SPLINE
  5
9DEE
330
A
100
AcDbEntity
  8
モデル
100
AcDbSpline
210
0.0
220
0.0
230
1.0
 70
     8
 71
     3
 72
     8
 73
     4
 74
     0
 42
0.000000001
 43
0.0000000001
 40
0.0
 40
0.0
 40
0.0
 40
0.0
 40
1.0
 40
1.0
 40
1.0
 40
1.0
 10
169.0665974683086
 20
543.8866538147099
 30
0.0
 10
163.049045214477
 20
537.4162434605944
 30
0.0
 10
163.0480116851495
 20
527.3975546706658
 30
0.0
 10
169.064358154766
 20
520.9261107872228
 30
0.0
  0
SPLINE
  5
9DEF
330
A
100
AcDbEntity
  8
モデル
100
AcDbSpline
210
0.0
220
0.0
230
1.0
 70
     8
 71
     3
 72
     8
 73
     4
 74
     0
 42
0.000000001
 43
0.0000000001
 40
0.0
 40
0.0
 40
0.0
 40
0.0
 40
1.0
 40
1.0
 40
1.0
 40
1.0
 10
169.0371418824781
 20
543.8981948921992
 30
0.0
 10
172.2076653491303
 20
547.3066023590386
 30
0.0
 10
174.3630907613989
 20
551.5328760336181
 30
0.0
 10
175.2601942175721
 20
556.1007311508995
 30
0.0
  0
SPLINE
  5
9DF0
330
A
100
AcDbEntity
  8
モデル
100
AcDbSpline
210
0.0
220
0.0
230
1.0
 70
     8
 71
     3
 72
     8
 73
     4
 74
     0
 42
0.000000001
 43
0.0000000001
 40
0.0
 40
0.0
 40
0.0
 40
0.0
 40
1.0
 40
1.0
 40
1.0
 40
1.0
 10
187.5619492917018
 20
556.110205169734
 30
0.0
 10
188.4575024538839
 20
551.5420055426766
 30
0.0
 10
190.6112053172737
 20
547.3148705936576
 30
0.0
 10
193.7803507448226
 20
543.9052573426029
 30
0.0
  0
SPLINE
  5
9DF1
330
A
100
AcDbEntity
  8
モデル
100
AcDbSpline
210
0.0
220
0.0
230
1.0
 70
     8
 71
     3
 72
     8
 73
     4
 74
     0
 42
0.000000001
 43
0.0000000001
 40
0.0
 40
0.0
 40
0.0
 40
0.0
 40
1.0
 40
1.0
 40
1.0
 40
1.0
 10
193.7562350605169
 20
520.9224934345768
 30
0.0
 10
199.7746485887881
 20
527.392387024029
 30
0.0
 10
199.776371137667
 20
537.4110758139575
 30
0.0
 10
193.7605414327143
 20
543.8832087169521
 30
0.0
  0
SPLINE
  5
9DF2
330
A
100
AcDbEntity
  8
モデル
100
AcDbSpline
210
0.0
220
0.0
230
1.0
 70
     8
 71
     3
 72
     8
 73
     4
 74
     0
 42
0.000000001
 43
0.0000000001
 40
0.0
 40
0.0
 40
0.0
 40
0.0
 40
1.0
 40
1.0
 40
1.0
 40
1.0
 10
193.7853461365717
 20
520.9104355924239
 30
0.0
 10
191.7179429720188
 20
518.6876585189873
 30
0.0
 10
190.0729087925922
 20
516.1065912787221
 30
0.0
 10
188.9310311407157
 20
513.2940134691223
 30
0.0
  0
SPLINE
  5
9DF3
330
A
100
AcDbEntity
  8
モデル
100
AcDbSpline
210
0.0
220
0.0
230
1.0
 70
     8
 71
     3
 72
     8
 73
     4
 74
     0
 42
0.000000001
 43
0.0000000001
 40
0.0
 40
0.0
 40
0.0
 40
0.0
 40
1.0
 40
1.0
 40
1.0
 40
1.0
 10
173.8955909956435
 20
513.2874677833822
 30
0.0
 10
172.7540578535429
 20
516.1010791223096
 30
0.0
 10
171.109368183892
 20
518.6831798919018
 30
0.0
 10
169.0419650193392
 20
520.9069904946662
 30
0.0
  0
SPLINE
  5
9DF4
330
A
100
AcDbEntity
  8
モデル
100
AcDbSpline
210
0.0
220
0.0
230
1.0
 70
     8
 71
     3
 72
     8
 73
     4
 74
     0
 42
0.000000001
 43
0.0000000001
 40
0.0
 40
0.0
 40
0.0
 40
0.0
 40
1.0
 40
1.0
 40
1.0
 40
1.0
 10
193.7562350605169
 20
335.9469265749946
 30
0.0
 10
199.7746485887881
 20
342.4168201644467
 30
0.0
 10
199.776371137667
 20
352.4355089543751
 30
0.0
 10
193.7605414327143
 20
358.9074696024819
 30
0.0
  0
SPLINE
  5
9DF5
330
A
100
AcDbEntity
  8
モデル
100
AcDbSpline
210
0.0
220
0.0
230
1.0
 70
     8
 71
     3
 72
     8
 73
     4
 74
     0
 42
0.000000001
 43
0.0000000001
 40
0.0
 40
0.0
 40
0.0
 40
0.0
 40
1.0
 40
1.0
 40
1.0
 40
1.0
 10
193.7853461365717
 20
335.9348687328418
 30
0.0
 10
190.6151671796953
 20
332.5262890111145
 30
0.0
 10
188.4600862772024
 20
328.2994985718713
 30
0.0
 10
187.563327330805
 20
323.7316434545899
 30
0.0
  0
SPLINE
  5
9DF6
330
A
100
AcDbEntity
  8
モデル
100
AcDbSpline
210
0.0
220
0.0
230
1.0
 70
     8
 71
     3
 72
     8
 73
     4
 74
     0
 42
0.000000001
 43
0.0000000001
 40
0.0
 40
0.0
 40
0.0
 40
0.0
 40
1.0
 40
1.0
 40
1.0
 40
1.0
 10
175.2617445115633
 20
323.7271648275045
 30
0.0
 10
174.3658468396053
 20
328.2950199447859
 30
0.0
 10
172.2116272115519
 20
332.5221548938049
 30
0.0
 10
169.0419650193392
 20
335.9314236350838
 30
0.0
  0
SPLINE
  5
9DF7
330
A
100
AcDbEntity
  8
モデル
100
AcDbSpline
210
0.0
220
0.0
230
1.0
 70
     8
 71
     3
 72
     8
 73
     4
 74
     0
 42
0.000000001
 43
0.0000000001
 40
0.0
 40
0.0
 40
0.0
 40
0.0
 40
1.0
 40
1.0
 40
1.0
 40
1.0
 10
169.0665974683086
 20
358.9109147002399
 30
0.0
 10
163.049045214477
 20
352.440676601012
 30
0.0
 10
163.0480116851495
 20
342.4219878110836
 30
0.0
 10
169.064358154766
 20
335.9503716727526
 30
0.0
  0
SPLINE
  5
9DF8
330
A
100
AcDbEntity
  8
モデル
100
AcDbSpline
210
0.0
220
0.0
230
1.0
 70
     8
 71
     3
 72
     8
 73
     4
 74
     0
 42
0.000000001
 43
0.0000000001
 40
0.0
 40
0.0
 40
0.0
 40
0.0
 40
1.0
 40
1.0
 40
1.0
 40
1.0
 10
169.0371418824781
 20
358.9226280326169
 30
0.0
 10
171.1047173019188
 20
361.145060596278
 30
0.0
 10
172.7499237362333
 20
363.7261278365429
 30
0.0
 10
173.8921458978856
 20
366.538361136367
 30
0.0
  0
SPLINE
  5
9DF9
330
A
100
AcDbEntity
  8
モデル
100
AcDbSpline
210
0.0
220
0.0
230
1.0
 70
     8
 71
     3
 72
     8
 73
     4
 74
     0
 42
0.000000001
 43
0.0000000001
 40
0.0
 40
0.0
 40
0.0
 40
0.0
 40
1.0
 40
1.0
 40
1.0
 40
1.0
 10
188.9282750625093
 20
366.5473183905377
 30
0.0
 10
190.06980820461
 20
363.7337070516104
 30
0.0
 10
191.7144978742609
 20
361.1516062820181
 30
0.0
 10
193.7820732937016
 20
358.9277956792539
 30
0.0
  0
LINE
  5
9DFA
330
A
100
AcDbEntity
  8
モデル
100
AcDbLine
 10
188.873153498382
 20
366.3843652665862
 30
0.0
 11
189.0636674043973
 21
375.5917335345146
 31
0.0
  0
LINE
  5
9DFB
330
A
100
AcDbEntity
  8
モデル
100
AcDbLine
 10
189.0636674043973
 20
375.5917335345146
 30
0.0
 11
189.5082572700621
 21
384.7357120036965
 31
0.0
  0
LINE
  5
9DFC
330
A
100
AcDbEntity
  8
モデル
100
AcDbLine
 10
189.5082572700621
 20
384.7357120036965
 30
0.0
 11
190.1431887868546
 21
393.8796904728784
 31
0.0
  0
LINE
  5
9DFD
330
A
100
AcDbEntity
  8
モデル
100
AcDbLine
 10
190.1431887868546
 20
393.8796904728784
 30
0.0
 11
190.9686342096622
 21
403.0240134518361
 31
0.0
  0
LINE
  5
9DFE
330
A
100
AcDbEntity
  8
モデル
100
AcDbLine
 10
190.9686342096622
 20
403.0240134518361
 30
0.0
 11
191.7306898337233
 21
412.2313817197645
 31
0.0
  0
LINE
  5
9DFF
330
A
100
AcDbEntity
  8
モデル
100
AcDbLine
 10
191.7306898337233
 20
412.2313817197645
 30
0.0
 11
192.3656213505157
 21
421.4387499876929
 31
0.0
  0
LINE
  5
9E00
330
A
100
AcDbEntity
  8
モデル
100
AcDbLine
 10
192.3656213505157
 20
421.4387499876929
 30
0.0
 11
192.7466491625462
 21
430.6464627653971
 31
0.0
  0
LINE
  5
9E01
330
A
100
AcDbEntity
  8
モデル
100
AcDbLine
 10
192.7466491625462
 20
430.6464627653971
 30
0.0
 11
192.8737732698149
 21
439.9175653418478
 31
0.0
  0
LINE
  5
9E02
330
A
100
AcDbEntity
  8
モデル
100
AcDbLine
 10
192.8737732698149
 20
439.9175653418478
 30
0.0
 11
192.7466491625462
 21
449.1883234085228
 31
0.0
  0
LINE
  5
9E03
330
A
100
AcDbEntity
  8
モデル
100
AcDbLine
 10
192.7466491625462
 20
449.1883234085228
 30
0.0
 11
192.3656213505157
 21
458.395863931339
 31
0.0
  0
LINE
  5
9E04
330
A
100
AcDbEntity
  8
モデル
100
AcDbLine
 10
192.3656213505157
 20
458.395863931339
 30
0.0
 11
191.7306898337233
 21
467.6034044541553
 31
0.0
  0
LINE
  5
9E05
330
A
100
AcDbEntity
  8
モデル
100
AcDbLine
 10
191.7306898337233
 20
467.6034044541553
 30
0.0
 11
190.9686342096622
 21
476.7473829233372
 31
0.0
  0
LINE
  5
9E06
330
A
100
AcDbEntity
  8
モデル
100
AcDbLine
 10
190.9686342096622
 20
476.7473829233372
 30
0.0
 11
190.1431887868546
 21
485.8913613925192
 31
0.0
  0
LINE
  5
9E07
330
A
100
AcDbEntity
  8
モデル
100
AcDbLine
 10
190.1431887868546
 20
485.8913613925192
 30
0.0
 11
189.5082572700621
 21
495.0353398617012
 31
0.0
  0
LINE
  5
9E08
330
A
100
AcDbEntity
  8
モデル
100
AcDbLine
 10
189.5082572700621
 20
495.0353398617012
 30
0.0
 11
189.0636674043973
 21
504.2428803845175
 31
0.0
  0
LINE
  5
9E09
330
A
100
AcDbEntity
  8
モデル
100
AcDbLine
 10
189.0636674043973
 20
504.2428803845175
 30
0.0
 11
188.873153498382
 21
513.3868588536993
 31
0.0
  0
LINE
  5
9E0A
330
A
100
AcDbEntity
  8
モデル
100
AcDbLine
 10
174.0776644121518
 20
366.3843652665862
 30
0.0
 11
188.6826395923667
 21
366.3843652665862
 31
0.0
  0
LINE
  5
9E0B
330
A
100
AcDbEntity
  8
モデル
100
AcDbLine
 10
188.6826395923667
 20
513.3868588536993
 30
0.0
 11
174.0776644121518
 21
513.3868588536993
 31
0.0
  0
LINE
  5
9E0C
330
A
100
AcDbEntity
  8
モデル
100
AcDbLine
 10
173.8871505061365
 20
513.3868588536993
 30
0.0
 11
173.6966366001212
 21
504.2428803845175
 31
0.0
  0
LINE
  5
9E0D
330
A
100
AcDbEntity
  8
モデル
100
AcDbLine
 10
173.6966366001212
 20
504.2428803845175
 30
0.0
 11
173.3156087880907
 21
495.0353398617012
 31
0.0
  0
LINE
  5
9E0E
330
A
100
AcDbEntity
  8
モデル
100
AcDbLine
 10
173.3156087880907
 20
495.0353398617012
 30
0.0
 11
172.5537254189175
 21
485.8913613925192
 31
0.0
  0
LINE
  5
9E0F
330
A
100
AcDbEntity
  8
モデル
100
AcDbLine
 10
172.5537254189175
 20
485.8913613925192
 30
0.0
 11
171.7281077412219
 21
476.7473829233372
 31
0.0
  0
LINE
  5
9E10
330
A
100
AcDbEntity
  8
モデル
100
AcDbLine
 10
171.7281077412219
 20
476.7473829233372
 30
0.0
 11
170.9662243720487
 21
467.6034044541553
 31
0.0
  0
LINE
  5
9E11
330
A
100
AcDbEntity
  8
モデル
100
AcDbLine
 10
170.9662243720487
 20
467.6034044541553
 30
0.0
 11
170.3946826540028
 21
458.395863931339
 31
0.0
  0
LINE
  5
9E12
330
A
100
AcDbEntity
  8
モデル
100
AcDbLine
 10
170.3946826540028
 20
458.395863931339
 30
0.0
 11
170.0136548419723
 21
449.1249336097762
 31
0.0
  0
LINE
  5
9E13
330
A
100
AcDbEntity
  8
モデル
100
AcDbLine
 10
170.0136548419723
 20
449.1249336097762
 30
0.0
 11
169.8867029895914
 21
439.9175653418478
 31
0.0
  0
LINE
  5
9E14
330
A
100
AcDbEntity
  8
モデル
100
AcDbLine
 10
169.8867029895914
 20
439.9175653418478
 30
0.0
 11
170.0136548419723
 21
430.6464627653971
 31
0.0
  0
LINE
  5
9E15
330
A
100
AcDbEntity
  8
モデル
100
AcDbLine
 10
170.0136548419723
 20
430.6464627653971
 30
0.0
 11
170.3946826540028
 21
421.4387499876929
 31
0.0
  0
LINE
  5
9E16
330
A
100
AcDbEntity
  8
モデル
100
AcDbLine
 10
170.3946826540028
 20
421.4387499876929
 30
0.0
 11
170.9662243720487
 21
412.2313817197645
 31
0.0
  0
LINE
  5
9E17
330
A
100
AcDbEntity
  8
モデル
100
AcDbLine
 10
170.9662243720487
 20
412.2313817197645
 30
0.0
 11
171.7281077412219
 21
403.0240134518361
 31
0.0
  0
LINE
  5
9E18
330
A
100
AcDbEntity
  8
モデル
100
AcDbLine
 10
171.7281077412219
 20
403.0240134518361
 30
0.0
 11
172.5537254189175
 21
393.8796904728784
 31
0.0
  0
LINE
  5
9E19
330
A
100
AcDbEntity
  8
モデル
100
AcDbLine
 10
172.5537254189175
 20
393.8796904728784
 30
0.0
 11
173.3156087880907
 21
384.7357120036965
 31
0.0
  0
LINE
  5
9E1A
330
A
100
AcDbEntity
  8
モデル
100
AcDbLine
 10
173.3156087880907
 20
384.7357120036965
 30
0.0
 11
173.6966366001212
 21
375.5917335345146
 31
0.0
  0
LINE
  5
9E1B
330
A
100
AcDbEntity
  8
モデル
100
AcDbLine
 10
173.6966366001212
 20
375.5917335345146
 30
0.0
 11
173.8871505061365
 21
366.3843652665862
 31
0.0
  0
LINE
  5
9E1C
330
A
100
AcDbEntity
  8
モデル
100
AcDbLine
 10
173.8871505061365
 20
366.3843652665862
 30
0.0
 11
173.8871505061365
 21
366.3843652665862
 31
0.0
  0
LINE
  5
9E1D
330
A
100
AcDbEntity
  8
モデル
100
AcDbLine
 10
181.3802381297032
 20
513.3868588536993
 30
0.0
 11
181.3802381297032
 21
513.3868588536993
 31
0.0
  0
LINE
  5
9E1E
330
A
100
AcDbEntity
  8
モデル
100
AcDbLine
 10
188.873153498382
 20
513.3868588536993
 30
0.0
 11
188.873153498382
 21
513.3868588536993
 31
0.0
  0
SPLINE
  5
9E1F
330
A
100
AcDbEntity
  8
モデル
100
AcDbSpline
210
0.0
220
0.0
230
1.0
 70
     8
 71
     3
 72
     8
 73
     4
 74
     0
 42
0.000000001
 43
0.0000000001
 40
0.0
 40
0.0
 40
0.0
 40
0.0
 40
1.0
 40
1.0
 40
1.0
 40
1.0
 10
181.4108994997491
 20
337.4283186109182
 30
0.0
 10
186.9342524802012
 20
337.4276295913666
 30
0.0
 10
191.4123628008876
 20
341.9048786376136
 30
0.0
 10
191.4132240753271
 20
347.4280593631778
 30
0.0
  0
SPLINE
  5
9E20
330
A
100
AcDbEntity
  8
モデル
100
AcDbSpline
210
0.0
220
0.0
230
1.0
 70
     8
 71
     3
 72
    11
 73
     7
 74
     0
 42
0.000000001
 43
0.0000000001
 40
1.0
 40
1.0
 40
1.0
 40
1.0
 40
2.0
 40
2.0
 40
2.0
 40
3.0
 40
3.0
 40
3.0
 40
3.0
 10
191.4132240753271
 20
347.4280593631778
 30
0.0
 10
191.4140853497665
 20
352.9515845985177
 30
0.0
 10
186.9371808132954
 20
357.4298671740921
 30
0.0
 10
181.4138278328433
 20
357.4309007034195
 30
0.0
 10
175.8904748523913
 20
357.4319342327469
 30
0.0
 10
171.4120200219289
 20
352.9553742060515
 30
0.0
 10
171.4106419828257
 20
347.4318489707115
 30
0.0
  0
SPLINE
  5
9E21
330
A
100
AcDbEntity
  8
モデル
100
AcDbSpline
210
0.0
220
0.0
230
1.0
 70
     8
 71
     3
 72
     8
 73
     4
 74
     0
 42
0.000000001
 43
0.0000000001
 40
3.0
 40
3.0
 40
3.0
 40
3.0
 40
4.0
 40
4.0
 40
4.0
 40
4.0
 10
171.4106419828257
 20
347.4318489707115
 30
0.0
 10
171.4092639437226
 20
341.9086682451473
 30
0.0
 10
175.8856517155301
 20
337.4300411597972
 30
0.0
 10
181.4090046959822
 20
337.4283186109182
 30
0.0
  0
SPLINE
  5
9E22
330
A
100
AcDbEntity
  8
モデル
100
AcDbSpline
210
0.0
220
0.0
230
1.0
 70
     8
 71
     3
 72
     8
 73
     4
 74
     0
 42
0.000000001
 43
0.0000000001
 40
0.0
 40
0.0
 40
0.0
 40
0.0
 40
1.0
 40
1.0
 40
1.0
 40
1.0
 10
172.7716278521085
 20
359.7129334582933
 30
0.0
 10
167.4158788775812
 20
355.9453745501864
 30
0.0
 10
165.1183431827967
 20
349.1423400075395
 30
0.0
 10
167.0937622372119
 20
342.8991338505613
 30
0.0
  0
SPLINE
  5
9E23
330
A
100
AcDbEntity
  8
モデル
100
AcDbSpline
210
0.0
220
0.0
230
1.0
 70
     8
 71
     3
 72
     8
 73
     4
 74
     0
 42
0.000000001
 43
0.0000000001
 40
1.0
 40
1.0
 40
1.0
 40
1.0
 40
2.0
 40
2.0
 40
2.0
 40
2.0
 10
167.0937622372119
 20
342.8991338505613
 30
0.0
 10
169.0690090367392
 20
336.6562722033589
 30
0.0
 10
174.8617686618638
 20
332.4126007851017
 30
0.0
 10
181.4098659704217
 20
332.4119117655501
 30
0.0
  0
SPLINE
  5
9E24
330
A
100
AcDbEntity
  8
モデル
100
AcDbSpline
210
0.0
220
0.0
230
1.0
 70
     8
 71
     3
 72
     8
 73
     4
 74
     0
 42
0.000000001
 43
0.0000000001
 40
2.0
 40
2.0
 40
2.0
 40
2.0
 40
3.0
 40
3.0
 40
3.0
 40
3.0
 10
181.4098659704217
 20
332.4119117655501
 30
0.0
 10
187.9579632789795
 20
332.4108782362227
 30
0.0
 10
193.7517564334315
 20
336.6524825958252
 30
0.0
 10
195.7287257818379
 20
342.8949997332518
 30
0.0
  0
SPLINE
  5
9E25
330
A
100
AcDbEntity
  8
モデル
100
AcDbSpline
210
0.0
220
0.0
230
1.0
 70
     8
 71
     3
 72
     8
 73
     4
 74
     0
 42
0.000000001
 43
0.0000000001
 40
3.0
 40
3.0
 40
3.0
 40
3.0
 40
4.0
 40
4.0
 40
4.0
 40
4.0
 10
195.7287257818379
 20
342.8949997332518
 30
0.0
 10
197.705867385132
 20
349.1375168706783
 30
0.0
 10
195.4103987490022
 20
355.9415849426527
 30
0.0
 10
190.0558555586902
 20
359.7105218898628
 30
0.0
  0
LINE
  5
9E26
330
A
100
AcDbEntity
  8
モデル
100
AcDbLine
 10
172.7442393249328
 20
359.6533332670806
 30
0.0
 11
172.7442393249328
 21
359.5899434683341
 31
0.0
  0
LINE
  5
9E27
330
A
100
AcDbEntity
  8
モデル
100
AcDbLine
 10
172.7442393249328
 20
359.5899434683341
 30
0.0
 11
172.7442393249328
 21
359.2089156563036
 31
0.0
  0
LINE
  5
9E28
330
A
100
AcDbEntity
  8
モデル
100
AcDbLine
 10
172.7442393249328
 20
359.2089156563036
 30
0.0
 11
172.7442393249328
 21
358.7007637370042
 31
0.0
  0
LINE
  5
9E29
330
A
100
AcDbEntity
  8
モデル
100
AcDbLine
 10
172.7442393249328
 20
358.7007637370042
 30
0.0
 11
172.7442393249328
 21
357.9387081129431
 31
0.0
  0
LINE
  5
9E2A
330
A
100
AcDbEntity
  8
モデル
100
AcDbLine
 10
190.0162369344737
 20
357.9387081129431
 30
0.0
 11
190.0162369344737
 21
359.6533332670806
 31
0.0
  0
LINE
  5
9E2B
330
A
100
AcDbEntity
  8
モデル
100
AcDbLine
 10
190.0162369344737
 20
357.9387081129431
 30
0.0
 11
189.5716470688087
 21
358.6373739382577
 31
0.0
  0
LINE
  5
9E2C
330
A
100
AcDbEntity
  8
モデル
100
AcDbLine
 10
189.5716470688087
 20
358.6373739382577
 30
0.0
 11
189.2541813104126
 21
359.3994295623188
 31
0.0
  0
LINE
  5
9E2D
330
A
100
AcDbEntity
  8
モデル
100
AcDbLine
 10
189.2541813104126
 20
359.3994295623188
 30
0.0
 11
189.0002776056508
 21
360.16148518638
 31
0.0
  0
LINE
  5
9E2E
330
A
100
AcDbEntity
  8
モデル
100
AcDbLine
 10
189.0002776056508
 20
360.16148518638
 30
0.0
 11
188.873153498382
 21
361.0503204079341
 31
0.0
  0
LINE
  5
9E2F
330
A
100
AcDbEntity
  8
モデル
100
AcDbLine
 10
172.7442393249328
 20
357.9387081129431
 30
0.0
 11
173.1886569357098
 21
358.6373739382577
 31
0.0
  0
LINE
  5
9E30
330
A
100
AcDbEntity
  8
モデル
100
AcDbLine
 10
173.1886569357098
 20
358.6373739382577
 30
0.0
 11
173.5696847477403
 21
359.3994295623188
 31
0.0
  0
LINE
  5
9E31
330
A
100
AcDbEntity
  8
モデル
100
AcDbLine
 10
173.5696847477403
 20
359.3994295623188
 30
0.0
 11
173.8237607073901
 21
360.16148518638
 31
0.0
  0
LINE
  5
9E32
330
A
100
AcDbEntity
  8
モデル
100
AcDbLine
 10
173.8237607073901
 20
360.16148518638
 30
0.0
 11
173.8871505061365
 21
361.0503204079341
 31
0.0
  0
LINE
  5
9E33
330
A
100
AcDbEntity
  8
モデル
100
AcDbLine
 10
188.873153498382
 20
361.0503204079341
 30
0.0
 11
188.873153498382
 21
362.0028899380105
 31
0.0
  0
LINE
  5
9E34
330
A
100
AcDbEntity
  8
モデル
100
AcDbLine
 10
173.8871505061365
 20
362.0028899380105
 30
0.0
 11
173.8871505061365
 21
361.0503204079341
 31
0.0
  0
LINE
  5
9E35
330
A
100
AcDbEntity
  8
モデル
100
AcDbLine
 10
173.8871505061365
 20
362.0028899380105
 30
0.0
 11
173.8871505061365
 21
366.3843652665862
 31
0.0
  0
LINE
  5
9E36
330
A
100
AcDbEntity
  8
モデル
100
AcDbLine
 10
173.8871505061365
 20
366.3843652665862
 30
0.0
 11
188.873153498382
 21
366.3843652665862
 31
0.0
  0
LINE
  5
9E37
330
A
100
AcDbEntity
  8
モデル
100
AcDbLine
 10
188.873153498382
 20
366.3843652665862
 30
0.0
 11
188.873153498382
 21
362.0028899380105
 31
0.0
  0
LINE
  5
9E38
330
A
100
AcDbEntity
  8
モデル
100
AcDbLine
 10
172.7442393249328
 20
521.8959058060891
 30
0.0
 11
172.7442393249328
 21
520.1178908532049
 31
0.0
  0
LINE
  5
9E39
330
A
100
AcDbEntity
  8
モデル
100
AcDbLine
 10
190.0162369344737
 20
520.1178908532049
 30
0.0
 11
190.0162369344737
 21
520.2448427055858
 31
0.0
  0
LINE
  5
9E3A
330
A
100
AcDbEntity
  8
モデル
100
AcDbLine
 10
190.0162369344737
 20
520.2448427055858
 30
0.0
 11
190.0162369344737
 21
520.6258705176165
 31
0.0
  0
LINE
  5
9E3B
330
A
100
AcDbEntity
  8
モデル
100
AcDbLine
 10
190.0162369344737
 20
520.6258705176165
 30
0.0
 11
190.0162369344737
 21
521.1974122356623
 31
0.0
  0
LINE
  5
9E3C
330
A
100
AcDbEntity
  8
モデル
100
AcDbLine
 10
190.0162369344737
 20
521.1974122356623
 30
0.0
 11
190.0162369344737
 21
521.8959058060891
 31
0.0
  0
LINE
  5
9E3D
330
A
100
AcDbEntity
  8
モデル
100
AcDbLine
 10
190.0162369344737
 20
521.8959058060891
 30
0.0
 11
189.5716470688087
 21
521.1974122356623
 31
0.0
  0
LINE
  5
9E3E
330
A
100
AcDbEntity
  8
モデル
100
AcDbLine
 10
189.5716470688087
 20
521.1974122356623
 30
0.0
 11
189.2541813104126
 21
520.435356611601
 31
0.0
  0
LINE
  5
9E3F
330
A
100
AcDbEntity
  8
モデル
100
AcDbLine
 10
189.2541813104126
 20
520.435356611601
 30
0.0
 11
189.0002776056508
 21
519.6099111887936
 31
0.0
  0
LINE
  5
9E40
330
A
100
AcDbEntity
  8
モデル
100
AcDbLine
 10
189.0002776056508
 20
519.6099111887936
 30
0.0
 11
188.873153498382
 21
518.7209037123514
 31
0.0
  0
LINE
  5
9E41
330
A
100
AcDbEntity
  8
モデル
100
AcDbLine
 10
173.8871505061365
 20
518.7209037123514
 30
0.0
 11
173.7601986537557
 21
519.6099111887936
 31
0.0
  0
LINE
  5
9E42
330
A
100
AcDbEntity
  8
モデル
100
AcDbLine
 10
173.7601986537557
 20
519.6099111887936
 30
0.0
 11
173.5696847477403
 21
520.435356611601
 31
0.0
  0
LINE
  5
9E43
330
A
100
AcDbEntity
  8
モデル
100
AcDbLine
 10
173.5696847477403
 20
520.435356611601
 30
0.0
 11
173.1886569357098
 21
521.1974122356623
 31
0.0
  0
LINE
  5
9E44
330
A
100
AcDbEntity
  8
モデル
100
AcDbLine
 10
173.1886569357098
 20
521.1974122356623
 30
0.0
 11
172.7442393249328
 21
521.8959058060891
 31
0.0
  0
LINE
  5
9E45
330
A
100
AcDbEntity
  8
モデル
100
AcDbLine
 10
173.8871505061365
 20
518.7209037123514
 30
0.0
 11
173.8871505061365
 21
517.8318962359094
 31
0.0
  0
LINE
  5
9E46
330
A
100
AcDbEntity
  8
モデル
100
AcDbLine
 10
188.873153498382
 20
517.8318962359094
 30
0.0
 11
188.873153498382
 21
518.7209037123514
 31
0.0
  0
LINE
  5
9E47
330
A
100
AcDbEntity
  8
モデル
100
AcDbLine
 10
188.873153498382
 20
517.8318962359094
 30
0.0
 11
188.873153498382
 21
513.3868588536993
 31
0.0
  0
LINE
  5
9E48
330
A
100
AcDbEntity
  8
モデル
100
AcDbLine
 10
188.873153498382
 20
513.3868588536993
 30
0.0
 11
173.8871505061365
 21
513.3868588536993
 31
0.0
  0
LINE
  5
9E49
330
A
100
AcDbEntity
  8
モデル
100
AcDbLine
 10
173.8871505061365
 20
513.3868588536993
 30
0.0
 11
173.8871505061365
 21
517.8318962359094
 31
0.0
  0
SPLINE
  5
9E4A
330
A
100
AcDbEntity
  8
モデル
100
AcDbSpline
210
0.0
220
0.0
230
1.0
 70
     8
 71
     3
 72
     8
 73
     4
 74
     0
 42
0.000000001
 43
0.0000000001
 40
0.0
 40
0.0
 40
0.0
 40
0.0
 40
1.0
 40
1.0
 40
1.0
 40
1.0
 10
190.0522382060444
 20
520.1218527156266
 30
0.0
 10
195.4079871805716
 20
523.8890671139577
 30
0.0
 10
197.7055228753563
 20
530.6921016566048
 30
0.0
 10
195.7304483307167
 20
536.9351355586948
 30
0.0
  0
SPLINE
  5
9E4B
330
A
100
AcDbEntity
  8
モデル
100
AcDbSpline
210
0.0
220
0.0
230
1.0
 70
     8
 71
     3
 72
    11
 73
     7
 74
     0
 42
0.000000001
 43
0.0000000001
 40
1.0
 40
1.0
 40
1.0
 40
1.0
 40
2.0
 40
2.0
 40
2.0
 40
3.0
 40
3.0
 40
3.0
 40
3.0
 10
195.7304483307167
 20
536.9351355586948
 30
0.0
 10
193.7552015311895
 20
543.1781694607853
 30
0.0
 10
187.9627864158406
 20
547.4218408790423
 30
0.0
 10
181.4148613621707
 20
547.4230466632578
 30
0.0
 10
174.8669363085008
 20
547.424252447473
 30
0.0
 10
169.0729708991609
 20
543.1828203427585
 30
0.0
 10
167.0953125312029
 20
536.9406477151076
 30
0.0
  0
SPLINE
  5
9E4C
330
A
100
AcDbEntity
  8
モデル
100
AcDbSpline
210
0.0
220
0.0
230
1.0
 70
     8
 71
     3
 72
     8
 73
     4
 74
     0
 42
0.000000001
 43
0.0000000001
 40
3.0
 40
3.0
 40
3.0
 40
3.0
 40
4.0
 40
4.0
 40
4.0
 40
4.0
 10
167.0953125312029
 20
536.9406477151076
 30
0.0
 10
165.1178264181329
 20
530.6984750874569
 30
0.0
 10
167.4126060347112
 20
523.8945792703703
 30
0.0
 10
172.7669769701353
 20
520.1251255584966
 30
0.0
  0
SPLINE
  5
9E4D
330
A
100
AcDbEntity
  8
モデル
100
AcDbSpline
210
0.0
220
0.0
230
1.0
 70
     8
 71
     3
 72
     8
 73
     4
 74
     0
 42
0.000000001
 43
0.0000000001
 40
0.0
 40
0.0
 40
0.0
 40
0.0
 40
1.0
 40
1.0
 40
1.0
 40
1.0
 10
181.4115885193007
 20
551.1058561665188
 30
0.0
 10
183.4981119764102
 20
551.1056839116309
 30
0.0
 10
185.1898272304572
 20
552.7970546559022
 30
0.0
 10
185.1901717402329
 20
554.8835781130115
 30
0.0
  0
SPLINE
  5
9E4E
330
A
100
AcDbEntity
  8
モデル
100
AcDbSpline
210
0.0
220
0.0
230
1.0
 70
     8
 71
     3
 72
     8
 73
     4
 74
     0
 42
0.000000001
 43
0.0000000001
 40
1.0
 40
1.0
 40
1.0
 40
1.0
 40
2.0
 40
2.0
 40
2.0
 40
2.0
 10
185.1901717402329
 20
554.8835781130115
 30
0.0
 10
185.1905162500088
 20
556.9702738250089
 30
0.0
 10
183.4993177606254
 20
558.6619890790562
 30
0.0
 10
181.4126220486281
 20
558.6625058437198
 30
0.0
  0
SPLINE
  5
9E4F
330
A
100
AcDbEntity
  8
モデル
100
AcDbSpline
210
0.0
220
0.0
230
1.0
 70
     8
 71
     3
 72
     8
 73
     4
 74
     0
 42
0.000000001
 43
0.0000000001
 40
2.0
 40
2.0
 40
2.0
 40
2.0
 40
3.0
 40
3.0
 40
3.0
 40
3.0
 10
181.4126220486281
 20
558.6625058437198
 30
0.0
 10
179.3260985915185
 20
558.6628503534955
 30
0.0
 10
177.6342110825835
 20
556.9716518641121
 30
0.0
 10
177.6336943179199
 20
554.8851284070026
 30
0.0
  0
SPLINE
  5
9E50
330
A
100
AcDbEntity
  8
モデル
100
AcDbSpline
210
0.0
220
0.0
230
1.0
 70
     8
 71
     3
 72
     8
 73
     4
 74
     0
 42
0.000000001
 43
0.0000000001
 40
3.0
 40
3.0
 40
3.0
 40
3.0
 40
4.0
 40
4.0
 40
4.0
 40
4.0
 10
177.6336943179199
 20
554.8851284070026
 30
0.0
 10
177.6331775532561
 20
552.7984326950052
 30
0.0
 10
179.3242037877517
 20
551.1065451860704
 30
0.0
 10
181.4108994997491
 20
551.1058561665188
 30
0.0
  0
SPLINE
  5
9E51
330
A
100
AcDbEntity
  8
モデル
100
AcDbSpline
210
0.0
220
0.0
230
1.0
 70
     8
 71
     3
 72
     8
 73
     4
 74
     0
 42
0.000000001
 43
0.0000000001
 40
0.0
 40
0.0
 40
0.0
 40
0.0
 40
1.0
 40
1.0
 40
1.0
 40
1.0
 10
181.4117607741886
 20
552.4394535086258
 30
0.0
 10
182.7618945855338
 20
552.4392812537378
 30
0.0
 10
183.8565743981261
 20
553.5336165565543
 30
0.0
 10
183.8567466530139
 20
554.8839226227874
 30
0.0
  0
SPLINE
  5
9E52
330
A
100
AcDbEntity
  8
モデル
100
AcDbSpline
210
0.0
220
0.0
230
1.0
 70
     8
 71
     3
 72
     8
 73
     4
 74
     0
 42
0.000000001
 43
0.0000000001
 40
1.0
 40
1.0
 40
1.0
 40
1.0
 40
2.0
 40
2.0
 40
2.0
 40
2.0
 10
183.8567466530139
 20
554.8839226227874
 30
0.0
 10
183.8569189079019
 20
556.2340564341325
 30
0.0
 10
182.7625836050853
 20
557.3287362467249
 30
0.0
 10
181.4124497937402
 20
557.3289085016129
 30
0.0
  0
SPLINE
  5
9E53
330
A
100
AcDbEntity
  8
モデル
100
AcDbSpline
210
0.0
220
0.0
230
1.0
 70
     8
 71
     3
 72
     8
 73
     4
 74
     0
 42
0.000000001
 43
0.0000000001
 40
2.0
 40
2.0
 40
2.0
 40
2.0
 40
3.0
 40
3.0
 40
3.0
 40
3.0
 10
181.4124497937402
 20
557.3289085016129
 30
0.0
 10
180.0623159823949
 20
557.3292530113886
 30
0.0
 10
178.9674639149148
 20
556.2349177085721
 30
0.0
 10
178.9672916600268
 20
554.884783897227
 30
0.0
  0
SPLINE
  5
9E54
330
A
100
AcDbEntity
  8
モデル
100
AcDbSpline
210
0.0
220
0.0
230
1.0
 70
     8
 71
     3
 72
     8
 73
     4
 74
     0
 42
0.000000001
 43
0.0000000001
 40
3.0
 40
3.0
 40
3.0
 40
3.0
 40
4.0
 40
4.0
 40
4.0
 40
4.0
 10
178.9672916600268
 20
554.884783897227
 30
0.0
 10
178.966947150251
 20
553.5346500858816
 30
0.0
 10
180.0611101981797
 20
552.4397980184015
 30
0.0
 10
181.4112440095249
 20
552.4394535086258
 30
0.0
  0
SPLINE
  5
9E55
102
{ACAD_REACTORS
102
}
330
A
100
AcDbEntity
  8
モデル
100
AcDbSpline
210
0.0
220
0.0
230
1.0
 70
     8
 71
     3
 72
     8
 73
     4
 74
     0
 42
0.000000001
 43
0.0000000001
 40
0.0
 40
0.0
 40
0.0
 40
0.0
 40
1.0
 40
1.0
 40
1.0
 40
1.0
 10
187.549719194661
 20
556.087984289195
 30
0.0
 10
186.9743878690814
 20
559.0221740496511
 30
0.0
 10
184.402622392763
 20
561.1386698572549
 30
0.0
 10
181.4126220486281
 20
561.1390143670305
 30
0.0
  0
SPLINE
  5
9E56
330
A
100
AcDbEntity
  8
モデル
100
AcDbSpline
210
0.0
220
0.0
230
1.0
 70
     8
 71
     3
 72
     8
 73
     4
 74
     0
 42
0.000000001
 43
0.0000000001
 40
1.0
 40
1.0
 40
1.0
 40
1.0
 40
2.0
 40
2.0
 40
2.0
 40
2.0
 10
181.4126220486281
 20
561.1390143670305
 30
0.0
 10
178.4224494496052
 20
561.1391866219185
 30
0.0
 10
175.850339463511
 20
559.0232075789784
 30
0.0
 10
175.2743191183798
 20
556.0891900734102
 30
0.0
  0
SPLINE
  5
9E57
330
A
100
AcDbEntity
  8
モデル
100
AcDbSpline
210
0.0
220
0.0
230
1.0
 70
     8
 71
     3
 72
     8
 73
     4
 74
     0
 42
0.000000001
 43
0.0000000001
 40
0.0
 40
0.0
 40
0.0
 40
0.0
 40
1.0
 40
1.0
 40
1.0
 40
1.0
 10
181.4122775388523
 20
328.6653679537668
 30
0.0
 10
179.3257540817427
 20
328.6653679537668
 30
0.0
 10
177.6340388276957
 20
326.9741694643834
 30
0.0
 10
177.6336943179199
 20
324.887473752386
 30
0.0
  0
SPLINE
  5
9E58
330
A
100
AcDbEntity
  8
モデル
100
AcDbSpline
210
0.0
220
0.0
230
1.0
 70
     8
 71
     3
 72
     8
 73
     4
 74
     0
 42
0.000000001
 43
0.0000000001
 40
1.0
 40
1.0
 40
1.0
 40
1.0
 40
2.0
 40
2.0
 40
2.0
 40
2.0
 10
177.6336943179199
 20
324.887473752386
 30
0.0
 10
177.6333498081441
 20
322.8011225501645
 30
0.0
 10
179.3245482975275
 20
321.1092350412295
 30
0.0
 10
181.4112440095249
 20
321.1088905314537
 30
0.0
  0
SPLINE
  5
9E59
330
A
100
AcDbEntity
  8
モデル
100
AcDbSpline
210
0.0
220
0.0
230
1.0
 70
     8
 71
     3
 72
    11
 73
     7
 74
     0
 42
0.000000001
 43
0.0000000001
 40
2.0
 40
2.0
 40
2.0
 40
2.0
 40
3.0
 40
3.0
 40
3.0
 40
4.0
 40
4.0
 40
4.0
 40
4.0
 10
181.4112440095249
 20
321.1088905314537
 30
0.0
 10
183.4977674666344
 20
321.1085460216779
 30
0.0
 10
185.1896549755694
 20
322.7994000012854
 30
0.0
 10
185.1901717402329
 20
324.8860957132828
 30
0.0
 10
185.1906885048967
 20
326.9727914252802
 30
0.0
 10
183.4996622704012
 20
328.6646789342152
 30
0.0
 10
181.4129665584039
 20
328.6653679537668
 30
0.0
  0
SPLINE
  5
9E5A
330
A
100
AcDbEntity
  8
モデル
100
AcDbSpline
210
0.0
220
0.0
230
1.0
 70
     8
 71
     3
 72
     8
 73
     4
 74
     0
 42
0.000000001
 43
0.0000000001
 40
0.0
 40
0.0
 40
0.0
 40
0.0
 40
1.0
 40
1.0
 40
1.0
 40
1.0
 10
181.4122775388523
 20
327.3317706116599
 30
0.0
 10
180.0619714726192
 20
327.3317706116599
 30
0.0
 10
178.9674639149148
 20
326.2376075637312
 30
0.0
 10
178.9672916600268
 20
324.887473752386
 30
0.0
  0
SPLINE
  5
9E5B
330
A
100
AcDbEntity
  8
モデル
100
AcDbSpline
210
0.0
220
0.0
230
1.0
 70
     8
 71
     3
 72
     8
 73
     4
 74
     0
 42
0.000000001
 43
0.0000000001
 40
1.0
 40
1.0
 40
1.0
 40
1.0
 40
2.0
 40
2.0
 40
2.0
 40
2.0
 10
178.9672916600268
 20
324.887473752386
 30
0.0
 10
178.966947150251
 20
323.5373399410408
 30
0.0
 10
180.0612824530676
 20
322.4424878735606
 30
0.0
 10
181.4114162644128
 20
322.4421433637848
 30
0.0
  0
SPLINE
  5
9E5C
330
A
100
AcDbEntity
  8
モデル
100
AcDbSpline
210
0.0
220
0.0
230
1.0
 70
     8
 71
     3
 72
    11
 73
     7
 74
     0
 42
0.000000001
 43
0.0000000001
 40
2.0
 40
2.0
 40
2.0
 40
2.0
 40
3.0
 40
3.0
 40
3.0
 40
4.0
 40
4.0
 40
4.0
 40
4.0
 10
181.4114162644128
 20
322.4421433637848
 30
0.0
 10
182.761550075758
 20
322.4421433637848
 30
0.0
 10
183.8564021432381
 20
323.5363064117134
 30
0.0
 10
183.8567466530139
 20
324.8864402230586
 30
0.0
 10
183.8570911627897
 20
326.2365740344038
 30
0.0
 10
182.7627558599731
 20
327.3314261018841
 30
0.0
 10
181.4126220486281
 20
327.3317706116599
 30
0.0
  0
SPLINE
  5
9E5D
330
A
100
AcDbEntity
  8
モデル
100
AcDbSpline
210
0.0
220
0.0
230
1.0
 70
     8
 71
     3
 72
     8
 73
     4
 74
     0
 42
0.000000001
 43
0.0000000001
 40
0.0
 40
0.0
 40
0.0
 40
0.0
 40
1.0
 40
1.0
 40
1.0
 40
1.0
 10
175.273974608604
 20
323.6837565957542
 30
0.0
 10
175.8491336792956
 20
320.7495668352983
 30
0.0
 10
178.4207269007262
 20
318.6328987728066
 30
0.0
 10
181.4107272448612
 20
318.632209753255
 30
0.0
  0
SPLINE
  5
9E5E
330
A
100
AcDbEntity
  8
モデル
100
AcDbSpline
210
0.0
220
0.0
230
1.0
 70
     8
 71
     3
 72
     8
 73
     4
 74
     0
 42
0.000000001
 43
0.0000000001
 40
1.0
 40
1.0
 40
1.0
 40
1.0
 40
2.0
 40
2.0
 40
2.0
 40
2.0
 10
181.4107272448612
 20
318.632209753255
 30
0.0
 10
184.4007275889961
 20
318.6318652434792
 30
0.0
 10
186.9730098299782
 20
320.7474997766435
 30
0.0
 10
187.5493746848852
 20
323.6813450273236
 30
0.0
  0
SPLINE
  5
9EE7
330
A
100
AcDbEntity
  8
モデル
100
AcDbSpline
210
0.0
220
0.0
230
1.0
 70
     8
 71
     3
 72
     8
 73
     4
 74
     0
 42
0.000000001
 43
0.0000000001
 40
0.0
 40
0.0
 40
0.0
 40
0.0
 40
1.0
 40
1.0
 40
1.0
 40
1.0
 10
170.1635165944438
 20
702.9057275857467
 30
0.0
 10
171.4221830603151
 20
702.9350109166894
 30
0.0
 10
172.4271180763124
 20
703.9637171072168
 30
0.0
 10
172.4272903312003
 20
705.2225558279761
 30
0.0
  0
SPLINE
  5
9EE9
330
A
100
AcDbEntity
  8
モデル
100
AcDbSpline
210
0.0
220
0.0
230
1.0
 70
     8
 71
     3
 72
     8
 73
     4
 74
     0
 42
0.000000001
 43
0.0000000001
 40
0.0
 40
0.0
 40
0.0
 40
0.0
 40
1.0
 40
1.0
 40
1.0
 40
1.0
 10
171.4113310023774
 20
679.6961039903588
 30
0.0
 10
171.4113310023774
 20
679.616177722374
 30
0.0
 10
171.4540502145762
 20
679.5424526303536
 30
0.0
 10
171.523468934399
 20
679.5028340061372
 30
0.0
  0
SPLINE
  5
9EEA
102
{ACAD_REACTORS
102
}
330
A
100
AcDbEntity
  8
モデル
100
AcDbSpline
210
0.0
220
0.0
230
1.0
 70
     8
 71
     3
 72
     8
 73
     4
 74
     0
 42
0.000000001
 43
0.0000000001
 40
0.0
 40
0.0
 40
0.0
 40
0.0
 40
0.50008959156631
 40
0.50008959156631
 40
0.50008959156631
 40
0.50008959156631
 10
171.5439672660589
 20
679.4883645955535
 30
0.0
 10
174.6019532401483
 20
677.7429376312166
 30
0.0
 10
178.007286448601
 20
676.8702082079599
 30
0.0
 10
181.4126220486007
 20
676.8702194126588
 30
0.0
  0
SPLINE
  5
9EEC
330
A
100
AcDbEntity
  8
モデル
100
AcDbSpline
210
0.0
220
0.0
230
1.0
 70
     8
 71
     3
 72
     8
 73
     4
 74
     0
 42
0.000000001
 43
0.0000000001
 40
0.0
 40
0.0
 40
0.0
 40
0.0
 40
1.0
 40
1.0
 40
1.0
 40
1.0
 10
171.4113310023774
 20
680.2039113998824
 30
0.0
 10
171.4113310023774
 20
680.3265568800657
 30
0.0
 10
171.3119399320601
 20
680.4261202052708
 30
0.0
 10
171.1891221969888
 20
680.4261202052708
 30
0.0
  0
SPLINE
  5
9EEE
330
A
100
AcDbEntity
  8
モデル
100
AcDbSpline
210
0.0
220
0.0
230
1.0
 70
     8
 71
     3
 72
     8
 73
     4
 74
     0
 42
0.000000001
 43
0.0000000001
 40
0.0
 40
0.0
 40
0.0
 40
0.0
 40
1.0
 40
1.0
 40
1.0
 40
1.0
 10
170.1337164988374
 20
702.9046940564192
 30
0.0
 10
169.4820762579188
 20
702.8895356262842
 30
0.0
 10
168.8979599330567
 20
702.4992060503071
 30
0.0
 10
168.6342376996845
 20
701.9032041381797
 30
0.0
  0
SPLINE
  5
9EEF
102
{ACAD_REACTORS
102
}
330
A
100
AcDbEntity
  8
モデル
100
AcDbSpline
210
0.0
220
0.0
230
1.0
 70
     8
 71
     3
 72
     8
 73
     4
 74
     0
 42
0.000000001
 43
0.0000000001
 40
0.0
 40
0.0
 40
0.0
 40
0.0
 40
1.0
 40
1.0
 40
1.0
 40
1.0
 10
168.6338931899088
 20
701.9128504119021
 30
0.0
 10
165.7713614628183
 20
695.4419232931227
 30
0.0
 10
165.6487159826349
 20
688.0880176189776
 30
0.0
 10
168.2936897863101
 20
681.5251063900605
 30
0.0
  0
SPLINE
  5
9EF3
330
A
100
AcDbEntity
  8
モデル
100
AcDbSpline
210
0.0
220
0.0
230
1.0
 70
     8
 71
     3
 72
     8
 73
     4
 74
     0
 42
0.000000001
 43
0.0000000001
 40
0.0
 40
0.0
 40
0.0
 40
0.0
 40
1.0
 40
1.0
 40
1.0
 40
1.0
 10
168.2948955705253
 20
681.5433654081778
 30
0.0
 10
168.5513830986056
 20
680.9067113425065
 30
0.0
 10
169.1690891266082
 20
680.489854513793
 30
0.0
 10
169.8555248548819
 20
680.4895100040173
 30
0.0
  0
SPLINE
  5
9EF4
330
A
100
AcDbEntity
  8
モデル
100
AcDbSpline
210
0.0
220
0.0
230
1.0
 70
     8
 71
     3
 72
     8
 73
     4
 74
     0
 42
0.000000001
 43
0.0000000001
 40
0.0
 40
0.0
 40
0.0
 40
0.0
 40
1.0
 40
1.0
 40
1.0
 40
1.0
 10
165.1284416255995
 20
740.276425515236
 30
0.0
 10
165.1596197603093
 20
740.0394027894883
 30
0.0
 10
165.3615024889256
 20
739.862324764729
 30
0.0
 10
165.6005922733283
 20
739.862324764729
 30
0.0
  0
SPLINE
  5
9EF7
330
A
100
AcDbEntity
  8
モデル
100
AcDbSpline
210
0.0
220
0.0
230
1.0
 70
     8
 71
     3
 72
     8
 73
     4
 74
     0
 42
0.000000001
 43
0.0000000001
 40
0.0
 40
0.0
 40
0.0
 40
0.0
 40
1.0
 40
1.0
 40
1.0
 40
1.0
 10
168.7859942559228
 20
738.0026609949814
 30
0.0
 10
168.4922996720566
 20
739.0992356113406
 30
0.0
 10
167.4987334786604
 20
739.8619802549533
 30
0.0
 10
166.3635737674119
 20
739.862324764729
 30
0.0
  0
SPLINE
  5
9EF9
330
A
100
AcDbEntity
  8
モデル
100
AcDbSpline
210
0.0
220
0.0
230
1.0
 70
     8
 71
     3
 72
     8
 73
     4
 74
     0
 42
0.000000001
 43
0.0000000001
 40
0.0
 40
0.0
 40
0.0
 40
0.0
 40
1.0
 40
1.0
 40
1.0
 40
1.0
 10
169.2223158869685
 20
736.3373007387827
 30
0.0
 10
169.3377266618602
 20
735.9070080288132
 30
0.0
 10
169.7275394731737
 20
735.6076290336464
 30
0.0
 10
170.172990613278
 20
735.6076290336464
 30
0.0
  0
LINE
  5
9F1B
330
A
100
AcDbEntity
  8
モデル
100
AcDbLine
 10
169.442802143478
 20
735.6076290336464
 30
0.0
 11
181.4126220486281
 21
735.6076290336464
 31
0.0
  0
LINE
  5
9F1C
330
A
100
AcDbEntity
  8
モデル
100
AcDbLine
 10
181.4126220486281
 20
705.1912054383783
 30
0.0
 11
172.4272903312003
 21
705.1912054383783
 31
0.0
  0
LINE
  5
9F1D
330
A
100
AcDbEntity
  8
モデル
100
AcDbLine
 10
169.442802143478
 20
735.6076290336464
 30
0.0
 11
170.5858855795698
 21
728.0511516113334
 31
0.0
  0
LINE
  5
9F1E
330
A
100
AcDbEntity
  8
モデル
100
AcDbLine
 10
170.5858855795698
 20
728.0511516113334
 30
0.0
 11
171.4748930560118
 21
720.4946741890199
 31
0.0
  0
LINE
  5
9F1F
330
A
100
AcDbEntity
  8
モデル
100
AcDbLine
 10
171.4748930560118
 20
720.4946741890199
 30
0.0
 11
172.1098245728042
 21
712.8748069679605
 31
0.0
  0
LINE
  5
9F20
330
A
100
AcDbEntity
  8
モデル
100
AcDbLine
 10
172.1098245728042
 20
712.8748069679605
 30
0.0
 11
172.4272903312003
 21
705.1912054383783
 31
0.0
  0
LINE
  5
9F21
330
A
100
AcDbEntity
  8
モデル
100
AcDbLine
 10
169.887392009143
 20
680.4895100040173
 30
0.0
 11
181.4126220486281
 21
680.4895100040173
 31
0.0
  0
LINE
  5
9F22
330
A
100
AcDbEntity
  8
モデル
100
AcDbLine
 10
171.4113310023774
 20
679.727798889732
 30
0.0
 11
171.4113310023774
 21
680.2356062992556
 31
0.0
  0
LINE
  5
9F29
102
{ACAD_REACTORS
330
9F90
330
9FCF
102
}
330
A
100
AcDbEntity
  8
モデル
100
AcDbLine
 10
181.4126220486281
 20
744.43431399932
 30
0.0
 11
164.5527657902443
 21
744.43431399932
 31
0.0
  0
LINE
  5
9F2A
330
A
100
AcDbEntity
  8
モデル
100
AcDbLine
 10
164.5527657902443
 20
744.43431399932
 30
0.0
 11
165.0607454546558
 21
740.306742375506
 31
0.0
  0
LINE
  5
9F2B
330
A
100
AcDbEntity
  8
モデル
100
AcDbLine
 10
165.5688973739551
 20
739.862324764729
 30
0.0
 11
181.4126220486281
 21
739.862324764729
 31
0.0
  0
LINE
  5
9F30
330
A
100
AcDbEntity
  8
モデル
100
AcDbLine
 10
169.1888984387163
 20
736.3696846577075
 30
0.0
 11
168.7443085730513
 21
738.0205755033226
 31
0.0
  0
SPLINE
  5
9F34
330
A
100
AcDbEntity
  8
モデル
100
AcDbSpline
210
0.0
220
0.0
230
1.0
 70
     8
 71
     3
 72
     8
 73
     4
 74
     0
 42
0.000000001
 43
0.0000000001
 40
0.0
 40
0.0
 40
0.0
 40
0.0
 40
1.0
 40
1.0
 40
1.0
 40
1.0
 10
192.6617275028123
 20
702.9057275857467
 30
0.0
 10
191.4030610369409
 20
702.9350109166894
 30
0.0
 10
190.3981260209437
 20
703.9637171072168
 30
0.0
 10
190.3979537660557
 20
705.2225558279761
 30
0.0
  0
SPLINE
  5
9F35
330
A
100
AcDbEntity
  8
モデル
100
AcDbSpline
210
0.0
220
0.0
230
1.0
 70
     8
 71
     3
 72
     8
 73
     4
 74
     0
 42
0.000000001
 43
0.0000000001
 40
0.0
 40
0.0
 40
0.0
 40
0.0
 40
1.0
 40
1.0
 40
1.0
 40
1.0
 10
191.4139130948786
 20
679.6961039903588
 30
0.0
 10
191.4139130948786
 20
679.616177722374
 30
0.0
 10
191.3711938826798
 20
679.5424526303536
 30
0.0
 10
191.301775162857
 20
679.5028340061372
 30
0.0
  0
SPLINE
  5
9F36
330
A
100
AcDbEntity
  8
モデル
100
AcDbSpline
210
0.0
220
0.0
230
1.0
 70
     8
 71
     3
 72
     8
 73
     4
 74
     0
 42
0.000000001
 43
0.0000000001
 40
0.0
 40
0.0
 40
0.0
 40
0.0
 40
1.0
 40
1.0
 40
1.0
 40
1.0
 10
191.4139130948786
 20
680.2039113998824
 30
0.0
 10
191.4139130948786
 20
680.3265568800657
 30
0.0
 10
191.5133041651959
 20
680.4261202052708
 30
0.0
 10
191.6361219002672
 20
680.4261202052708
 30
0.0
  0
SPLINE
  5
9F37
330
A
100
AcDbEntity
  8
モデル
100
AcDbSpline
210
0.0
220
0.0
230
1.0
 70
     8
 71
     3
 72
     8
 73
     4
 74
     0
 42
0.000000001
 43
0.0000000001
 40
0.0
 40
0.0
 40
0.0
 40
0.0
 40
1.0
 40
1.0
 40
1.0
 40
1.0
 10
192.6915275984186
 20
702.9046940564192
 30
0.0
 10
193.3431678393372
 20
702.8895356262842
 30
0.0
 10
193.9272841641994
 20
702.4992060503071
 30
0.0
 10
194.1910063975715
 20
701.9032041381797
 30
0.0
  0
SPLINE
  5
9F38
102
{ACAD_REACTORS
102
}
330
A
100
AcDbEntity
  8
モデル
100
AcDbSpline
210
0.0
220
0.0
230
1.0
 70
     8
 71
     3
 72
     8
 73
     4
 74
     0
 42
0.000000001
 43
0.0000000001
 40
0.0
 40
0.0
 40
0.0
 40
0.0
 40
1.0
 40
1.0
 40
1.0
 40
1.0
 10
194.1913509073472
 20
701.9128504119021
 30
0.0
 10
197.0538826344377
 20
695.4419232931227
 30
0.0
 10
197.1765281146211
 20
688.0880176189776
 30
0.0
 10
194.5315543109459
 20
681.5251063900605
 30
0.0
  0
SPLINE
  5
9F39
330
A
100
AcDbEntity
  8
モデル
100
AcDbSpline
210
0.0
220
0.0
230
1.0
 70
     8
 71
     3
 72
     8
 73
     4
 74
     0
 42
0.000000001
 43
0.0000000001
 40
0.0
 40
0.0
 40
0.0
 40
0.0
 40
1.0
 40
1.0
 40
1.0
 40
1.0
 10
194.5303485267307
 20
681.5433654081778
 30
0.0
 10
194.2738609986504
 20
680.9067113425065
 30
0.0
 10
193.6561549706478
 20
680.489854513793
 30
0.0
 10
192.9697192423741
 20
680.4895100040173
 30
0.0
  0
SPLINE
  5
9F3A
330
A
100
AcDbEntity
  8
モデル
100
AcDbSpline
210
0.0
220
0.0
230
1.0
 70
     8
 71
     3
 72
     8
 73
     4
 74
     0
 42
0.000000001
 43
0.0000000001
 40
0.0
 40
0.0
 40
0.0
 40
0.0
 40
1.0
 40
1.0
 40
1.0
 40
1.0
 10
197.6968024716565
 20
740.276425515236
 30
0.0
 10
197.6656243369467
 20
740.0394027894883
 30
0.0
 10
197.4637416083305
 20
739.862324764729
 30
0.0
 10
197.2246518239277
 20
739.862324764729
 30
0.0
  0
SPLINE
  5
9F3B
330
A
100
AcDbEntity
  8
モデル
100
AcDbSpline
210
0.0
220
0.0
230
1.0
 70
     8
 71
     3
 72
     8
 73
     4
 74
     0
 42
0.000000001
 43
0.0000000001
 40
0.0
 40
0.0
 40
0.0
 40
0.0
 40
1.0
 40
1.0
 40
1.0
 40
1.0
 10
194.0392498413332
 20
738.0026609949814
 30
0.0
 10
194.3329444251995
 20
739.0992356113406
 30
0.0
 10
195.3265106185956
 20
739.8619802549533
 30
0.0
 10
196.4616703298441
 20
739.862324764729
 30
0.0
  0
SPLINE
  5
9F3C
330
A
100
AcDbEntity
  8
モデル
100
AcDbSpline
210
0.0
220
0.0
230
1.0
 70
     8
 71
     3
 72
     8
 73
     4
 74
     0
 42
0.000000001
 43
0.0000000001
 40
0.0
 40
0.0
 40
0.0
 40
0.0
 40
1.0
 40
1.0
 40
1.0
 40
1.0
 10
193.6029282102875
 20
736.3373007387827
 30
0.0
 10
193.4875174353958
 20
735.9070080288132
 30
0.0
 10
193.0977046240823
 20
735.6076290336464
 30
0.0
 10
192.652253483978
 20
735.6076290336464
 30
0.0
  0
LINE
  5
9F3D
330
A
100
AcDbEntity
  8
モデル
100
AcDbLine
 10
193.382441953778
 20
735.6076290336464
 30
0.0
 11
192.2393585176862
 21
728.0511516113334
 31
0.0
  0
LINE
  5
9F3E
330
A
100
AcDbEntity
  8
モデル
100
AcDbLine
 10
192.2393585176862
 20
728.0511516113334
 30
0.0
 11
191.3503510412443
 21
720.4946741890199
 31
0.0
  0
LINE
  5
9F3F
330
A
100
AcDbEntity
  8
モデル
100
AcDbLine
 10
191.3503510412443
 20
720.4946741890199
 30
0.0
 11
190.7154195244518
 21
712.8748069679605
 31
0.0
  0
LINE
  5
9F40
330
A
100
AcDbEntity
  8
モデル
100
AcDbLine
 10
190.7154195244518
 20
712.8748069679605
 30
0.0
 11
190.3979537660557
 21
705.1912054383783
 31
0.0
  0
LINE
  5
9F41
330
A
100
AcDbEntity
  8
モデル
100
AcDbLine
 10
191.4139130948786
 20
679.727798889732
 30
0.0
 11
191.4139130948786
 21
680.2356062992556
 31
0.0
  0
LINE
  5
9F42
330
A
100
AcDbEntity
  8
モデル
100
AcDbLine
 10
181.4126220486279
 20
744.43431399932
 30
0.0
 11
198.2724783070117
 21
744.43431399932
 31
0.0
  0
LINE
  5
9F43
102
{ACAD_REACTORS
330
9F90
330
9F9F
102
}
330
A
100
AcDbEntity
  8
モデル
100
AcDbLine
 10
198.2724783070117
 20
744.43431399932
 30
0.0
 11
197.7644986426002
 21
740.306742375506
 31
0.0
  0
LINE
  5
9F44
330
A
100
AcDbEntity
  8
モデル
100
AcDbLine
 10
197.2563467233009
 20
739.862324764729
 30
0.0
 11
181.4126220486279
 21
739.862324764729
 31
0.0
  0
LINE
  5
9F45
330
A
100
AcDbEntity
  8
モデル
100
AcDbLine
 10
193.6363456585398
 20
736.3696846577075
 30
0.0
 11
194.0809355242047
 21
738.0205755033226
 31
0.0
  0
LINE
  5
9F46
330
A
100
AcDbEntity
  8
モデル
100
AcDbLine
 10
193.382441953778
 20
735.6076290336464
 30
0.0
 11
181.4126220486279
 21
735.6076290336464
 31
0.0
  0
LINE
  5
9F47
330
A
100
AcDbEntity
  8
モデル
100
AcDbLine
 10
181.4126220486279
 20
705.1912054383783
 30
0.0
 11
190.3979537660557
 21
705.1912054383783
 31
0.0
  0
LINE
  5
9F48
330
A
100
AcDbEntity
  8
モデル
100
AcDbLine
 10
192.937852088113
 20
680.4895100040173
 30
0.0
 11
181.4126220486279
 21
680.4895100040173
 31
0.0
  0
SPLINE
  5
9F49
102
{ACAD_REACTORS
330
9F9F
102
}
330
A
100
AcDbEntity
  8
モデル
100
AcDbSpline
210
0.0
220
0.0
230
1.0
 70
     8
 71
     3
 72
     8
 73
     4
 74
     0
 42
0.000000001
 43
0.0000000001
 40
0.0
 40
0.0
 40
0.0
 40
0.0
 40
0.50008959156631
 40
0.50008959156631
 40
0.50008959156631
 40
0.50008959156631
 10
191.2812768311971
 20
679.4883645955535
 30
0.0
 10
188.2232908571077
 20
677.7429376312166
 30
0.0
 10
184.817957648655
 20
676.8702082079599
 30
0.0
 10
181.4126220486553
 20
676.8702194126588
 30
0.0
  0
DIMENSION
  5
9F50
102
{ACAD_REACTORS
330
9F52
102
}
102
{ACAD_XDICTIONARY
360
9F51
102
}
330
A
100
AcDbEntity
  8
寸法
100
AcDbDimension
  2
*D347
 10
499.8849614306814
 20
503.6715109213596
 30
0.0
 11
499.8849614306814
 21
532.4052626441951
 31
0.0
 70
   160
 71
     5
 42
57.4675034456709
 73
     0
 74
     0
 75
     0
  3
tfrom線あり
100
AcDbAlignedDimension
 13
455.5579017933226
 23
561.1390143670305
 33
0.0
 14
455.5579017933226
 24
503.6715109213596
 34
0.0
 50
90.0
100
AcDbRotatedDimension
1001
ACAD
1000
DSTYLE
1002
{
1070
   271
1070
     1
1070
   144
1040
1.0
1002
}
  0
DIMENSION
  5
9F60
330
A
100
AcDbEntity
  8
寸法
100
AcDbDimension
  2
*D348
 10
478.2589207195543
 20
509.905176516751
 30
0.0
 11
469.2589207195543
 21
532.405176516751
 31
0.0
 70
    32
 71
     5
 42
45.0
 73
     0
 74
     0
 75
     0
  3
tfrom線あり
100
AcDbAlignedDimension
 13
455.5579017933226
 23
554.905176516751
 33
0.0
 14
455.5579017933226
 24
509.905176516751
 34
0.0
 50
90.0
100
AcDbRotatedDimension
1001
ACAD
1000
DSTYLE
1002
{
1070
   144
1040
1.0
1002
}
  0
DIMENSION
  5
9F7C
102
{ACAD_REACTORS
330
9F7E
102
}
102
{ACAD_XDICTIONARY
360
9F7D
102
}
330
A
100
AcDbEntity
  8
寸法
100
AcDbDimension
  2
*D350
 10
192.8737732698149
 20
439.8890143670305
 30
0.0
 11
153.1429779879907
 21
439.8890143670305
 31
0.0
 70
   160
 71
     5
 42
22.98707028022352
 73
     0
 74
     1
 75
     1
  3
tfrom線あり
100
AcDbAlignedDimension
 13
169.8867029895914
 23
436.4233298888109
 33
0.0
 14
192.8737732698149
 24
436.4233298888109
 34
0.0
100
AcDbRotatedDimension
1001
ACAD
1000
DSTYLE
1002
{
1070
   172
1070
     1
1070
   144
1040
1.0
1002
}
  0
DIMENSION
  5
9F8E
102
{ACAD_REACTORS
330
9F90
102
}
102
{ACAD_XDICTIONARY
360
9F8F
102
}
330
A
100
AcDbEntity
  8
寸法
100
AcDbDimension
  2
*D351
 10
198.2724783070117
 20
761.8778132418649
 30
0.0
 11
181.412622048628
 21
770.8778132418649
 31
0.0
 70
    32
 71
     5
 42
33.71971251676746
 73
     0
 74
     0
 75
     0
  3
tfrom線あり
100
AcDbAlignedDimension
 13
164.5527657902443
 23
744.43431399932
 33
0.0
 14
198.2724783070117
 24
744.43431399932
 34
0.0
100
AcDbRotatedDimension
1001
ACAD
1000
DSTYLE
1002
{
1070
   144
1040
1.0
1002
}
  0
DIMENSION
  5
9F9D
102
{ACAD_REACTORS
330
9F9F
102
}
102
{ACAD_XDICTIONARY
360
9F9E
102
}
330
A
100
AcDbEntity
  8
寸法
100
AcDbDimension
  2
*D352
 10
225.948489340636
 20
676.8702194126588
 30
0.0
 11
216.948489340636
 21
710.6522667059894
 31
0.0
 70
    32
 71
     5
 42
67.56409458666121
 73
     0
 74
     0
 75
     0
  3
tfrom線あり
100
AcDbAlignedDimension
 13
198.2724783070117
 23
744.43431399932
 33
0.0
 14
181.4126220486553
 24
676.8702194126588
 34
0.0
 50
90.0
100
AcDbRotatedDimension
1001
ACAD
1000
DSTYLE
1002
{
1070
   144
1040
1.0
1002
}
  0
DIMENSION
  5
9FAC
102
{ACAD_XDICTIONARY
360
9FAD
102
}
330
A
100
AcDbEntity
  8
寸法
100
AcDbDimension
  2
*D353
 10
408.9488297160831
 20
439.8890143670305
 30
0.0
 11
382.5471833278491
 21
439.8890143670305
 31
0.0
 70
   160
 71
     5
 42
13.01764638823397
 73
     0
 74
     1
 75
     1
  3
tfrom線あり
100
AcDbAlignedDimension
 13
395.9311833278491
 23
439.8890143670305
 33
0.0
 14
408.9488297160831
 24
439.8890143670305
 34
0.0
100
AcDbRotatedDimension
1001
ACAD
1000
DSTYLE
1002
{
1070
   172
1070
     1
1070
   144
1040
1.0
1002
}
  0
DIMENSION
  5
9FBE
102
{ACAD_XDICTIONARY
360
9FBF
102
}
330
A
100
AcDbEntity
  8
寸法
100
AcDbDimension
  2
*D354
 10
225.948489340636
 20
347.3977425029077
 30
0.0
 11
225.948489340636
 21
439.9014595098294
 31
0.0
 70
   160
 71
     5
 42
185.0074340138433
 73
     0
 74
     0
 75
     0
  3
tfrom線あり
100
AcDbAlignedDimension
 13
198.8207578057225
 23
532.405176516751
 33
0.0
 14
198.8207578057225
 24
347.3977425029077
 34
0.0
 50
90.0
100
AcDbRotatedDimension
1001
ACAD
1000
DSTYLE
1002
{
1070
   144
1040
1.0
1002
}
  0
DIMENSION
  5
9FCD
102
{ACAD_REACTORS
330
9FCF
102
}
102
{ACAD_XDICTIONARY
360
9FCE
102
}
330
A
100
AcDbEntity
  8
寸法
100
AcDbDimension
  2
*D355
 10
146.8196035621299
 20
739.9313403173326
 30
0.0
 11
137.8196035621299
 21
742.1828271583263
 31
0.0
 70
    32
 71
     5
 42
4.502973681987442
 73
     0
 74
     1
 75
     1
  3
tfrom線あり
100
AcDbAlignedDimension
 13
164.5527657902443
 23
744.43431399932
 33
0.0
 14
166.6085385649729
 24
739.9313403173326
 34
0.0
 50
90.0
100
AcDbRotatedDimension
1001
ACAD
1000
DSTYLE
1002
{
1070
   271
1070
     1
1070
   172
1070
     1
1070
   144
1040
1.0
1002
}
  0
DIMENSION
  5
9FED
102
{ACAD_XDICTIONARY
360
9FEE
102
}
330
A
100
AcDbEntity
  8
寸法
100
AcDbDimension
  2
*D357
 10
146.8196035621299
 20
676.4313403173326
 30
0.0
 11
137.8196035621299
 21
708.1813403173326
 31
0.0
 70
    32
 71
     5
 42
63.5
 73
     0
 74
     0
 75
     0
  3
tfrom線あり
100
AcDbAlignedDimension
 13
160.6085385649729
 23
739.9313403173326
 33
0.0
 14
172.3548103058185
 24
676.4313403173326
 34
0.0
 50
90.0
100
AcDbRotatedDimension
1001
ACAD
1000
DSTYLE
1002
{
1070
   271
1070
     1
1070
   144
1040
1.0
1002
}
  0
DIMENSION
  5
A011
330
A
100
AcDbEntity
  8
寸法
100
AcDbDimension
  2
*D359
 10
252.1388028032782
 20
318.6390143670304
 30
0.0
 11
243.1388028032782
 21
439.8890143670305
 31
0.0
 70
    32
 71
     5
 42
242.5000000000001
 73
     0
 74
     0
 75
     0
  3
tfrom線あり
100
AcDbAlignedDimension
 13
181.4126220486281
 23
561.1390143670305
 33
0.0
 14
181.4126220486281
 24
318.6390143670304
 34
0.0
 50
90.0
100
AcDbRotatedDimension
1001
ACAD
1000
DSTYLE
1002
{
1070
   271
1070
     1
1070
   144
1040
1.0
1002
}
  0
TEXT
  5
A068
330
A
100
AcDbEntity
  8
テンプレート
100
AcDbText
 10
50.96671039684398
 20
77.48847976048229
 30
0.0
 40
5.0
  1
ブラスブ/ラック、ブラス/マーブル
  7
ＭＳ ゴシック
100
AcDbText
  0
TEXT
  5
A069
330
A
100
AcDbEntity
  8
テンプレート
100
AcDbText
 10
50.96671039684398
 20
85.65080514445151
 30
0.0
 40
5.0
  1
サテン/ブラック、サテン/マーブル、ポリッシュ/ブラック、ポリッシュ/マーブル、
  7
ＭＳ ゴシック
100
AcDbText
  0
LINE
  5
A07D
102
{ACAD_REACTORS
330
A0B5
102
}
330
A
100
AcDbEntity
  8
モデル
100
AcDbLine
 10
436.2417360236879
 20
554.905176516751
 30
0.0
 11
434.3702658013827
 21
555.8096928177446
 31
0.0
  0
LINE
  5
A07E
102
{ACAD_REACTORS
330
A0B5
102
}
330
A
100
AcDbEntity
  8
モデル
100
AcDbLine
 10
434.3702658013827
 20
555.8096928177446
 30
0.0
 11
421.4036506896971
 21
555.8096928177446
 31
0.0
  0
LINE
  5
A07F
102
{ACAD_REACTORS
330
A0B5
102
}
330
A
100
AcDbEntity
  8
モデル
100
AcDbLine
 10
421.4036506896971
 20
556.0619986582934
 30
0.0
 11
421.4036506896971
 21
554.905176516751
 31
0.0
  0
LINE
  5
A080
102
{ACAD_REACTORS
330
A0B5
102
}
330
A
100
AcDbEntity
  8
モデル
100
AcDbLine
 10
421.4036506896971
 20
556.0619986582934
 30
0.0
 11
421.4036506896971
 21
556.9766021971072
 31
0.0
  0
LINE
  5
A081
102
{ACAD_REACTORS
330
A0B5
102
}
330
A
100
AcDbEntity
  8
モデル
100
AcDbLine
 10
421.4036506896971
 20
556.9766021971072
 30
0.0
 11
420.9172823142089
 21
556.9766021971072
 31
0.0
  0
LINE
  5
A082
102
{ACAD_REACTORS
330
A0B5
102
}
330
A
100
AcDbEntity
  8
モデル
100
AcDbLine
 10
420.9172823142089
 20
556.9766021971072
 30
0.0
 11
420.9172823142089
 21
554.905176516751
 31
0.0
  0
LINE
  5
A083
102
{ACAD_REACTORS
330
A0B5
102
}
330
A
100
AcDbEntity
  8
モデル
100
AcDbLine
 10
421.4036506896971
 20
553.7483543752086
 30
0.0
 11
421.4036506896971
 21
552.8337508363948
 31
0.0
  0
LINE
  5
A084
102
{ACAD_REACTORS
330
A0B5
102
}
330
A
100
AcDbEntity
  8
モデル
100
AcDbLine
 10
421.4036506896971
 20
552.8337508363948
 30
0.0
 11
420.9172823142089
 21
552.8337508363948
 31
0.0
  0
LINE
  5
A085
102
{ACAD_REACTORS
330
A0B5
102
}
330
A
100
AcDbEntity
  8
モデル
100
AcDbLine
 10
420.9172823142089
 20
552.8337508363948
 30
0.0
 11
420.9172823142089
 21
554.905176516751
 31
0.0
  0
LINE
  5
A086
102
{ACAD_REACTORS
330
A0B5
102
}
330
A
100
AcDbEntity
  8
モデル
100
AcDbLine
 10
421.4036506896971
 20
553.7483543752086
 30
0.0
 11
421.4036506896971
 21
554.905176516751
 31
0.0
  0
LINE
  5
A089
102
{ACAD_REACTORS
330
A0B5
102
}
330
A
100
AcDbEntity
  8
モデル
100
AcDbLine
 10
436.2417360236879
 20
554.905176516751
 30
0.0
 11
434.3702658013827
 21
554.0006602157574
 31
0.0
  0
LINE
  5
A08A
102
{ACAD_REACTORS
330
A0B5
102
}
330
A
100
AcDbEntity
  8
モデル
100
AcDbLine
 10
434.3702658013827
 20
554.0006602157574
 30
0.0
 11
421.4036506896971
 21
554.0006602157574
 31
0.0
  0
LINE
  5
A098
102
{ACAD_REACTORS
330
A0B5
102
}
330
A
100
AcDbEntity
  8
モデル
100
AcDbLine
 10
424.3076302409563
 20
553.8161594141962
 30
0.0
 11
423.7240277346099
 21
555.9941936193057
 31
0.0
1001
ACAD
1010
0.0
1020
0.0
1030
0.0
  0
LINE
  5
A09A
102
{ACAD_REACTORS
330
A0B5
102
}
330
A
100
AcDbEntity
  8
モデル
100
AcDbLine
 10
425.2937308027969
 20
553.8161594141962
 30
0.0
 11
424.7101282964505
 21
555.9941936193057
 31
0.0
1001
ACAD
1010
0.0
1020
0.0
1030
0.0
  0
LINE
  5
A09C
102
{ACAD_REACTORS
330
A0B5
102
}
330
A
100
AcDbEntity
  8
モデル
100
AcDbLine
 10
426.2798313646375
 20
553.8161594141962
 30
0.0
 11
425.6962288582911
 21
555.9941936193057
 31
0.0
1001
ACAD
1010
0.0
1020
0.0
1030
0.0
  0
LINE
  5
A09E
102
{ACAD_REACTORS
330
A0B5
102
}
330
A
100
AcDbEntity
  8
モデル
100
AcDbLine
 10
427.2659319264782
 20
553.8161594141962
 30
0.0
 11
426.6823294201317
 21
555.9941936193057
 31
0.0
1001
ACAD
1010
0.0
1020
0.0
1030
0.0
  0
LINE
  5
A0A0
102
{ACAD_REACTORS
330
A0B5
102
}
330
A
100
AcDbEntity
  8
モデル
100
AcDbLine
 10
428.2520324883188
 20
553.8161594141962
 30
0.0
 11
427.6684299819723
 21
555.9941936193057
 31
0.0
1001
ACAD
1010
0.0
1020
0.0
1030
0.0
  0
LINE
  5
A0A2
102
{ACAD_REACTORS
330
A0B5
102
}
330
A
100
AcDbEntity
  8
モデル
100
AcDbLine
 10
429.2381330501594
 20
553.8161594141962
 30
0.0
 11
428.6545305438129
 21
555.9941936193057
 31
0.0
1001
ACAD
1010
0.0
1020
0.0
1030
0.0
  0
LINE
  5
A0A4
102
{ACAD_REACTORS
330
A0B5
102
}
330
A
100
AcDbEntity
  8
モデル
100
AcDbLine
 10
430.224233612
 20
553.8161594141962
 30
0.0
 11
429.6406311056535
 21
555.9941936193057
 31
0.0
1001
ACAD
1010
0.0
1020
0.0
1030
0.0
  0
LINE
  5
A0A6
102
{ACAD_REACTORS
330
A0B5
102
}
330
A
100
AcDbEntity
  8
モデル
100
AcDbLine
 10
431.2103341738406
 20
553.8161594141962
 30
0.0
 11
430.6267316674941
 21
555.9941936193057
 31
0.0
1001
ACAD
1010
0.0
1020
0.0
1030
0.0
  0
LINE
  5
A0A8
102
{ACAD_REACTORS
330
A0B5
102
}
330
A
100
AcDbEntity
  8
モデル
100
AcDbLine
 10
432.1964347356812
 20
553.8161594141962
 30
0.0
 11
431.6128322293347
 21
555.9941936193057
 31
0.0
1001
ACAD
1010
0.0
1020
0.0
1030
0.0
  0
LINE
  5
A0AA
102
{ACAD_REACTORS
330
A0B5
102
}
330
A
100
AcDbEntity
  8
モデル
100
AcDbLine
 10
433.1825352975218
 20
553.8161594141962
 30
0.0
 11
432.5989327911753
 21
555.9941936193057
 31
0.0
1001
ACAD
1010
0.0
1020
0.0
1030
0.0
  0
LINE
  5
A0AC
102
{ACAD_REACTORS
330
A0B5
102
}
330
A
100
AcDbEntity
  8
モデル
100
AcDbLine
 10
434.1686358593624
 20
553.8161594141962
 30
0.0
 11
433.5850333530159
 21
555.9941936193057
 31
0.0
1001
ACAD
1010
0.0
1020
0.0
1030
0.0
  0
LINE
  5
A0AE
102
{ACAD_REACTORS
330
A0B5
102
}
330
A
100
AcDbEntity
  8
モデル
100
AcDbLine
 10
435.0644493621048
 20
554.1531153060168
 30
0.0
 11
434.6014618614915
 21
555.8810081815751
 31
0.0
1001
ACAD
1010
0.0
1020
0.0
1030
0.0
  0
LINE
  5
A0B0
102
{ACAD_REACTORS
330
A0B5
102
}
330
A
100
AcDbEntity
  8
モデル
100
AcDbLine
 10
435.9374873033851
 20
554.5750707503846
 30
0.0
 11
435.7342660209595
 21
555.3335029015765
 31
0.0
1001
ACAD
1010
0.0
1020
0.0
1030
0.0
  0
LINE
  5
A0B6
102
{ACAD_REACTORS
330
A0CF
102
}
330
A
100
AcDbEntity
  8
モデル
100
AcDbLine
 10
436.2417360236879
 20
509.905176516751
 30
0.0
 11
434.3702658013827
 21
510.8096928177446
 31
0.0
  0
LINE
  5
A0B7
102
{ACAD_REACTORS
330
A0CF
102
}
330
A
100
AcDbEntity
  8
モデル
100
AcDbLine
 10
434.3702658013827
 20
510.8096928177446
 30
0.0
 11
421.4036506896971
 21
510.8096928177446
 31
0.0
  0
LINE
  5
A0B8
102
{ACAD_REACTORS
330
A0CF
102
}
330
A
100
AcDbEntity
  8
モデル
100
AcDbLine
 10
421.4036506896971
 20
511.0619986582934
 30
0.0
 11
421.4036506896971
 21
509.905176516751
 31
0.0
  0
LINE
  5
A0B9
102
{ACAD_REACTORS
330
A0CF
102
}
330
A
100
AcDbEntity
  8
モデル
100
AcDbLine
 10
421.4036506896971
 20
511.0619986582934
 30
0.0
 11
421.4036506896971
 21
511.9766021971072
 31
0.0
  0
LINE
  5
A0BA
102
{ACAD_REACTORS
330
A0CF
102
}
330
A
100
AcDbEntity
  8
モデル
100
AcDbLine
 10
421.4036506896971
 20
511.9766021971072
 30
0.0
 11
420.9172823142089
 21
511.9766021971072
 31
0.0
  0
LINE
  5
A0BB
102
{ACAD_REACTORS
330
A0CF
102
}
330
A
100
AcDbEntity
  8
モデル
100
AcDbLine
 10
420.9172823142089
 20
511.9766021971072
 30
0.0
 11
420.9172823142089
 21
509.905176516751
 31
0.0
  0
LINE
  5
A0BC
102
{ACAD_REACTORS
330
A0CF
102
}
330
A
100
AcDbEntity
  8
モデル
100
AcDbLine
 10
421.4036506896971
 20
508.7483543752086
 30
0.0
 11
421.4036506896971
 21
507.8337508363948
 31
0.0
  0
LINE
  5
A0BD
102
{ACAD_REACTORS
330
A0CF
102
}
330
A
100
AcDbEntity
  8
モデル
100
AcDbLine
 10
421.4036506896971
 20
507.8337508363948
 30
0.0
 11
420.9172823142089
 21
507.8337508363948
 31
0.0
  0
LINE
  5
A0BE
102
{ACAD_REACTORS
330
A0CF
102
}
330
A
100
AcDbEntity
  8
モデル
100
AcDbLine
 10
420.9172823142089
 20
507.8337508363948
 30
0.0
 11
420.9172823142089
 21
509.905176516751
 31
0.0
  0
LINE
  5
A0BF
102
{ACAD_REACTORS
330
A0CF
102
}
330
A
100
AcDbEntity
  8
モデル
100
AcDbLine
 10
421.4036506896971
 20
508.7483543752086
 30
0.0
 11
421.4036506896971
 21
509.905176516751
 31
0.0
  0
LINE
  5
A0C0
102
{ACAD_REACTORS
330
A0CF
102
}
330
A
100
AcDbEntity
  8
モデル
100
AcDbLine
 10
436.2417360236879
 20
509.905176516751
 30
0.0
 11
434.3702658013827
 21
509.0006602157574
 31
0.0
  0
LINE
  5
A0C1
102
{ACAD_REACTORS
330
A0CF
102
}
330
A
100
AcDbEntity
  8
モデル
100
AcDbLine
 10
434.3702658013827
 20
509.0006602157574
 30
0.0
 11
421.4036506896971
 21
509.0006602157574
 31
0.0
  0
LINE
  5
A0C2
102
{ACAD_REACTORS
330
A0CF
102
}
330
A
100
AcDbEntity
  8
モデル
100
AcDbLine
 10
425.2937308027969
 20
508.8161594141962
 30
0.0
 11
424.7101282964505
 21
510.9941936193057
 31
0.0
1001
ACAD
1010
0.0
1020
0.0
1030
0.0
  0
LINE
  5
A0C3
102
{ACAD_REACTORS
330
A0CF
102
}
330
A
100
AcDbEntity
  8
モデル
100
AcDbLine
 10
426.2798313646375
 20
508.8161594141962
 30
0.0
 11
425.6962288582911
 21
510.9941936193057
 31
0.0
1001
ACAD
1010
0.0
1020
0.0
1030
0.0
  0
LINE
  5
A0C4
102
{ACAD_REACTORS
330
A0CF
102
}
330
A
100
AcDbEntity
  8
モデル
100
AcDbLine
 10
427.2659319264782
 20
508.8161594141962
 30
0.0
 11
426.6823294201317
 21
510.9941936193057
 31
0.0
1001
ACAD
1010
0.0
1020
0.0
1030
0.0
  0
LINE
  5
A0C5
102
{ACAD_REACTORS
330
A0CF
102
}
330
A
100
AcDbEntity
  8
モデル
100
AcDbLine
 10
428.2520324883188
 20
508.8161594141962
 30
0.0
 11
427.6684299819723
 21
510.9941936193057
 31
0.0
1001
ACAD
1010
0.0
1020
0.0
1030
0.0
  0
LINE
  5
A0C6
102
{ACAD_REACTORS
330
A0CF
102
}
330
A
100
AcDbEntity
  8
モデル
100
AcDbLine
 10
429.2381330501594
 20
508.8161594141962
 30
0.0
 11
428.6545305438129
 21
510.9941936193057
 31
0.0
1001
ACAD
1010
0.0
1020
0.0
1030
0.0
  0
LINE
  5
A0C7
102
{ACAD_REACTORS
330
A0CF
102
}
330
A
100
AcDbEntity
  8
モデル
100
AcDbLine
 10
430.224233612
 20
508.8161594141962
 30
0.0
 11
429.6406311056535
 21
510.9941936193057
 31
0.0
1001
ACAD
1010
0.0
1020
0.0
1030
0.0
  0
LINE
  5
A0C8
102
{ACAD_REACTORS
330
A0CF
102
}
330
A
100
AcDbEntity
  8
モデル
100
AcDbLine
 10
431.2103341738406
 20
508.8161594141962
 30
0.0
 11
430.6267316674941
 21
510.9941936193057
 31
0.0
1001
ACAD
1010
0.0
1020
0.0
1030
0.0
  0
LINE
  5
A0C9
102
{ACAD_REACTORS
330
A0CF
102
}
330
A
100
AcDbEntity
  8
モデル
100
AcDbLine
 10
432.1964347356812
 20
508.8161594141962
 30
0.0
 11
431.6128322293347
 21
510.9941936193057
 31
0.0
1001
ACAD
1010
0.0
1020
0.0
1030
0.0
  0
LINE
  5
A0CA
102
{ACAD_REACTORS
330
A0CF
102
}
330
A
100
AcDbEntity
  8
モデル
100
AcDbLine
 10
433.1825352975218
 20
508.8161594141962
 30
0.0
 11
432.5989327911753
 21
510.9941936193057
 31
0.0
1001
ACAD
1010
0.0
1020
0.0
1030
0.0
  0
LINE
  5
A0CB
102
{ACAD_REACTORS
330
A0CF
102
}
330
A
100
AcDbEntity
  8
モデル
100
AcDbLine
 10
434.1686358593624
 20
508.8161594141962
 30
0.0
 11
433.5850333530159
 21
510.9941936193057
 31
0.0
1001
ACAD
1010
0.0
1020
0.0
1030
0.0
  0
LINE
  5
A0CC
102
{ACAD_REACTORS
330
A0CF
102
}
330
A
100
AcDbEntity
  8
モデル
100
AcDbLine
 10
435.0644493621048
 20
509.1531153060168
 30
0.0
 11
434.6014618614915
 21
510.8810081815751
 31
0.0
1001
ACAD
1010
0.0
1020
0.0
1030
0.0
  0
LINE
  5
A0CD
102
{ACAD_REACTORS
330
A0CF
102
}
330
A
100
AcDbEntity
  8
モデル
100
AcDbLine
 10
435.9374873033851
 20
509.5750707503846
 30
0.0
 11
435.7342660209595
 21
510.3335029015765
 31
0.0
1001
ACAD
1010
0.0
1020
0.0
1030
0.0
  0
LINE
  5
A0CE
102
{ACAD_REACTORS
330
A0CF
102
}
330
A
100
AcDbEntity
  8
モデル
100
AcDbLine
 10
424.3076302409563
 20
508.8161594141962
 30
0.0
 11
423.7240277346099
 21
510.9941936193057
 31
0.0
1001
ACAD
1010
0.0
1020
0.0
1030
0.0
  0
LINE
  5
A0D0
102
{ACAD_REACTORS
330
A102
102
}
330
A
100
AcDbEntity
  8
モデル
100
AcDbLine
 10
436.2417360236879
 20
324.8977425029076
 30
0.0
 11
434.3702658013827
 21
325.8022588039012
 31
0.0
  0
LINE
  5
A0D1
102
{ACAD_REACTORS
330
A102
102
}
330
A
100
AcDbEntity
  8
モデル
100
AcDbLine
 10
434.3702658013827
 20
325.8022588039012
 30
0.0
 11
421.4036506896971
 21
325.8022588039012
 31
0.0
  0
LINE
  5
A0D2
102
{ACAD_REACTORS
330
A102
102
}
330
A
100
AcDbEntity
  8
モデル
100
AcDbLine
 10
421.4036506896971
 20
326.05456464445
 30
0.0
 11
421.4036506896971
 21
324.8977425029076
 31
0.0
  0
LINE
  5
A0D3
102
{ACAD_REACTORS
330
A102
102
}
330
A
100
AcDbEntity
  8
モデル
100
AcDbLine
 10
421.4036506896971
 20
326.05456464445
 30
0.0
 11
421.4036506896971
 21
326.9691681832638
 31
0.0
  0
LINE
  5
A0D4
102
{ACAD_REACTORS
330
A102
102
}
330
A
100
AcDbEntity
  8
モデル
100
AcDbLine
 10
421.4036506896971
 20
326.9691681832638
 30
0.0
 11
420.9172823142089
 21
326.9691681832638
 31
0.0
  0
LINE
  5
A0D5
102
{ACAD_REACTORS
330
A102
102
}
330
A
100
AcDbEntity
  8
モデル
100
AcDbLine
 10
420.9172823142089
 20
326.9691681832638
 30
0.0
 11
420.9172823142089
 21
324.8977425029076
 31
0.0
  0
LINE
  5
A0D6
102
{ACAD_REACTORS
330
A102
102
}
330
A
100
AcDbEntity
  8
モデル
100
AcDbLine
 10
421.4036506896971
 20
323.7409203613652
 30
0.0
 11
421.4036506896971
 21
322.8263168225513
 31
0.0
  0
LINE
  5
A0D7
102
{ACAD_REACTORS
330
A102
102
}
330
A
100
AcDbEntity
  8
モデル
100
AcDbLine
 10
421.4036506896971
 20
322.8263168225513
 30
0.0
 11
420.9172823142089
 21
322.8263168225513
 31
0.0
  0
LINE
  5
A0D8
102
{ACAD_REACTORS
330
A102
102
}
330
A
100
AcDbEntity
  8
モデル
100
AcDbLine
 10
420.9172823142089
 20
322.8263168225513
 30
0.0
 11
420.9172823142089
 21
324.8977425029076
 31
0.0
  0
LINE
  5
A0D9
102
{ACAD_REACTORS
330
A102
102
}
330
A
100
AcDbEntity
  8
モデル
100
AcDbLine
 10
421.4036506896971
 20
323.7409203613652
 30
0.0
 11
421.4036506896971
 21
324.8977425029076
 31
0.0
  0
LINE
  5
A0DA
102
{ACAD_REACTORS
330
A102
102
}
330
A
100
AcDbEntity
  8
モデル
100
AcDbLine
 10
436.2417360236879
 20
324.8977425029076
 30
0.0
 11
434.3702658013827
 21
323.993226201914
 31
0.0
  0
LINE
  5
A0DB
102
{ACAD_REACTORS
330
A102
102
}
330
A
100
AcDbEntity
  8
モデル
100
AcDbLine
 10
434.3702658013827
 20
323.993226201914
 30
0.0
 11
421.4036506896971
 21
323.993226201914
 31
0.0
  0
LINE
  5
A0DC
102
{ACAD_REACTORS
330
A102
102
}
330
A
100
AcDbEntity
  8
モデル
100
AcDbLine
 10
425.2937308027969
 20
323.8087254003528
 30
0.0
 11
424.7101282964505
 21
325.9867596054623
 31
0.0
1001
ACAD
1010
0.0
1020
0.0
1030
0.0
  0
LINE
  5
A0DD
102
{ACAD_REACTORS
330
A102
102
}
330
A
100
AcDbEntity
  8
モデル
100
AcDbLine
 10
426.2798313646375
 20
323.8087254003528
 30
0.0
 11
425.6962288582911
 21
325.9867596054623
 31
0.0
1001
ACAD
1010
0.0
1020
0.0
1030
0.0
  0
LINE
  5
A0DE
102
{ACAD_REACTORS
330
A102
102
}
330
A
100
AcDbEntity
  8
モデル
100
AcDbLine
 10
427.2659319264782
 20
323.8087254003528
 30
0.0
 11
426.6823294201317
 21
325.9867596054623
 31
0.0
1001
ACAD
1010
0.0
1020
0.0
1030
0.0
  0
LINE
  5
A0DF
102
{ACAD_REACTORS
330
A102
102
}
330
A
100
AcDbEntity
  8
モデル
100
AcDbLine
 10
428.2520324883188
 20
323.8087254003528
 30
0.0
 11
427.6684299819723
 21
325.9867596054623
 31
0.0
1001
ACAD
1010
0.0
1020
0.0
1030
0.0
  0
LINE
  5
A0E0
102
{ACAD_REACTORS
330
A102
102
}
330
A
100
AcDbEntity
  8
モデル
100
AcDbLine
 10
429.2381330501594
 20
323.8087254003528
 30
0.0
 11
428.6545305438129
 21
325.9867596054623
 31
0.0
1001
ACAD
1010
0.0
1020
0.0
1030
0.0
  0
LINE
  5
A0E1
102
{ACAD_REACTORS
330
A102
102
}
330
A
100
AcDbEntity
  8
モデル
100
AcDbLine
 10
430.224233612
 20
323.8087254003528
 30
0.0
 11
429.6406311056535
 21
325.9867596054623
 31
0.0
1001
ACAD
1010
0.0
1020
0.0
1030
0.0
  0
LINE
  5
A0E2
102
{ACAD_REACTORS
330
A102
102
}
330
A
100
AcDbEntity
  8
モデル
100
AcDbLine
 10
431.2103341738406
 20
323.8087254003528
 30
0.0
 11
430.6267316674941
 21
325.9867596054623
 31
0.0
1001
ACAD
1010
0.0
1020
0.0
1030
0.0
  0
LINE
  5
A0E3
102
{ACAD_REACTORS
330
A102
102
}
330
A
100
AcDbEntity
  8
モデル
100
AcDbLine
 10
432.1964347356812
 20
323.8087254003528
 30
0.0
 11
431.6128322293347
 21
325.9867596054623
 31
0.0
1001
ACAD
1010
0.0
1020
0.0
1030
0.0
  0
LINE
  5
A0E4
102
{ACAD_REACTORS
330
A102
102
}
330
A
100
AcDbEntity
  8
モデル
100
AcDbLine
 10
433.1825352975218
 20
323.8087254003528
 30
0.0
 11
432.5989327911753
 21
325.9867596054623
 31
0.0
1001
ACAD
1010
0.0
1020
0.0
1030
0.0
  0
LINE
  5
A0E5
102
{ACAD_REACTORS
330
A102
102
}
330
A
100
AcDbEntity
  8
モデル
100
AcDbLine
 10
434.1686358593624
 20
323.8087254003528
 30
0.0
 11
433.5850333530159
 21
325.9867596054623
 31
0.0
1001
ACAD
1010
0.0
1020
0.0
1030
0.0
  0
LINE
  5
A0E6
102
{ACAD_REACTORS
330
A102
102
}
330
A
100
AcDbEntity
  8
モデル
100
AcDbLine
 10
435.0644493621048
 20
324.1456812921734
 30
0.0
 11
434.6014618614915
 21
325.8735741677317
 31
0.0
1001
ACAD
1010
0.0
1020
0.0
1030
0.0
  0
LINE
  5
A0E7
102
{ACAD_REACTORS
330
A102
102
}
330
A
100
AcDbEntity
  8
モデル
100
AcDbLine
 10
435.9374873033851
 20
324.5676367365412
 30
0.0
 11
435.7342660209595
 21
325.3260688877331
 31
0.0
1001
ACAD
1010
0.0
1020
0.0
1030
0.0
  0
LINE
  5
A0E8
102
{ACAD_REACTORS
330
A102
102
}
330
A
100
AcDbEntity
  8
モデル
100
AcDbLine
 10
424.3076302409563
 20
323.8087254003528
 30
0.0
 11
423.7240277346099
 21
325.9867596054623
 31
0.0
1001
ACAD
1010
0.0
1020
0.0
1030
0.0
  0
LINE
  5
A0E9
102
{ACAD_REACTORS
330
A103
102
}
330
A
100
AcDbEntity
  8
モデル
100
AcDbLine
 10
436.2417360236879
 20
369.8977425029076
 30
0.0
 11
434.3702658013827
 21
370.8022588039012
 31
0.0
  0
LINE
  5
A0EA
102
{ACAD_REACTORS
330
A103
102
}
330
A
100
AcDbEntity
  8
モデル
100
AcDbLine
 10
434.3702658013827
 20
370.8022588039012
 30
0.0
 11
421.4036506896971
 21
370.8022588039012
 31
0.0
  0
LINE
  5
A0EB
102
{ACAD_REACTORS
330
A103
102
}
330
A
100
AcDbEntity
  8
モデル
100
AcDbLine
 10
421.4036506896971
 20
371.05456464445
 30
0.0
 11
421.4036506896971
 21
369.8977425029076
 31
0.0
  0
LINE
  5
A0EC
102
{ACAD_REACTORS
330
A103
102
}
330
A
100
AcDbEntity
  8
モデル
100
AcDbLine
 10
421.4036506896971
 20
371.05456464445
 30
0.0
 11
421.4036506896971
 21
371.9691681832638
 31
0.0
  0
LINE
  5
A0ED
102
{ACAD_REACTORS
330
A103
102
}
330
A
100
AcDbEntity
  8
モデル
100
AcDbLine
 10
421.4036506896971
 20
371.9691681832638
 30
0.0
 11
420.9172823142089
 21
371.9691681832638
 31
0.0
  0
LINE
  5
A0EE
102
{ACAD_REACTORS
330
A103
102
}
330
A
100
AcDbEntity
  8
モデル
100
AcDbLine
 10
420.9172823142089
 20
371.9691681832638
 30
0.0
 11
420.9172823142089
 21
369.8977425029076
 31
0.0
  0
LINE
  5
A0EF
102
{ACAD_REACTORS
330
A103
102
}
330
A
100
AcDbEntity
  8
モデル
100
AcDbLine
 10
421.4036506896971
 20
368.7409203613652
 30
0.0
 11
421.4036506896971
 21
367.8263168225513
 31
0.0
  0
LINE
  5
A0F0
102
{ACAD_REACTORS
330
A103
102
}
330
A
100
AcDbEntity
  8
モデル
100
AcDbLine
 10
421.4036506896971
 20
367.8263168225513
 30
0.0
 11
420.9172823142089
 21
367.8263168225513
 31
0.0
  0
LINE
  5
A0F1
102
{ACAD_REACTORS
330
A103
102
}
330
A
100
AcDbEntity
  8
モデル
100
AcDbLine
 10
420.9172823142089
 20
367.8263168225513
 30
0.0
 11
420.9172823142089
 21
369.8977425029076
 31
0.0
  0
LINE
  5
A0F2
102
{ACAD_REACTORS
330
A103
102
}
330
A
100
AcDbEntity
  8
モデル
100
AcDbLine
 10
421.4036506896971
 20
368.7409203613652
 30
0.0
 11
421.4036506896971
 21
369.8977425029076
 31
0.0
  0
LINE
  5
A0F3
102
{ACAD_REACTORS
330
A103
102
}
330
A
100
AcDbEntity
  8
モデル
100
AcDbLine
 10
436.2417360236879
 20
369.8977425029076
 30
0.0
 11
434.3702658013827
 21
368.993226201914
 31
0.0
  0
LINE
  5
A0F4
102
{ACAD_REACTORS
330
A103
102
}
330
A
100
AcDbEntity
  8
モデル
100
AcDbLine
 10
434.3702658013827
 20
368.993226201914
 30
0.0
 11
421.4036506896971
 21
368.993226201914
 31
0.0
  0
LINE
  5
A0F5
102
{ACAD_REACTORS
330
A103
102
}
330
A
100
AcDbEntity
  8
モデル
100
AcDbLine
 10
425.2937308027969
 20
368.8087254003528
 30
0.0
 11
424.7101282964505
 21
370.9867596054623
 31
0.0
1001
ACAD
1010
0.0
1020
0.0
1030
0.0
  0
LINE
  5
A0F6
102
{ACAD_REACTORS
330
A103
102
}
330
A
100
AcDbEntity
  8
モデル
100
AcDbLine
 10
426.2798313646375
 20
368.8087254003528
 30
0.0
 11
425.6962288582911
 21
370.9867596054623
 31
0.0
1001
ACAD
1010
0.0
1020
0.0
1030
0.0
  0
LINE
  5
A0F7
102
{ACAD_REACTORS
330
A103
102
}
330
A
100
AcDbEntity
  8
モデル
100
AcDbLine
 10
427.2659319264782
 20
368.8087254003528
 30
0.0
 11
426.6823294201317
 21
370.9867596054623
 31
0.0
1001
ACAD
1010
0.0
1020
0.0
1030
0.0
  0
LINE
  5
A0F8
102
{ACAD_REACTORS
330
A103
102
}
330
A
100
AcDbEntity
  8
モデル
100
AcDbLine
 10
428.2520324883188
 20
368.8087254003528
 30
0.0
 11
427.6684299819723
 21
370.9867596054623
 31
0.0
1001
ACAD
1010
0.0
1020
0.0
1030
0.0
  0
LINE
  5
A0F9
102
{ACAD_REACTORS
330
A103
102
}
330
A
100
AcDbEntity
  8
モデル
100
AcDbLine
 10
429.2381330501594
 20
368.8087254003528
 30
0.0
 11
428.6545305438129
 21
370.9867596054623
 31
0.0
1001
ACAD
1010
0.0
1020
0.0
1030
0.0
  0
LINE
  5
A0FA
102
{ACAD_REACTORS
330
A103
102
}
330
A
100
AcDbEntity
  8
モデル
100
AcDbLine
 10
430.224233612
 20
368.8087254003528
 30
0.0
 11
429.6406311056535
 21
370.9867596054623
 31
0.0
1001
ACAD
1010
0.0
1020
0.0
1030
0.0
  0
LINE
  5
A0FB
102
{ACAD_REACTORS
330
A103
102
}
330
A
100
AcDbEntity
  8
モデル
100
AcDbLine
 10
431.2103341738406
 20
368.8087254003528
 30
0.0
 11
430.6267316674941
 21
370.9867596054623
 31
0.0
1001
ACAD
1010
0.0
1020
0.0
1030
0.0
  0
LINE
  5
A0FC
102
{ACAD_REACTORS
330
A103
102
}
330
A
100
AcDbEntity
  8
モデル
100
AcDbLine
 10
432.1964347356812
 20
368.8087254003528
 30
0.0
 11
431.6128322293347
 21
370.9867596054623
 31
0.0
1001
ACAD
1010
0.0
1020
0.0
1030
0.0
  0
LINE
  5
A0FD
102
{ACAD_REACTORS
330
A103
102
}
330
A
100
AcDbEntity
  8
モデル
100
AcDbLine
 10
433.1825352975218
 20
368.8087254003528
 30
0.0
 11
432.5989327911753
 21
370.9867596054623
 31
0.0
1001
ACAD
1010
0.0
1020
0.0
1030
0.0
  0
LINE
  5
A0FE
102
{ACAD_REACTORS
330
A103
102
}
330
A
100
AcDbEntity
  8
モデル
100
AcDbLine
 10
434.1686358593624
 20
368.8087254003528
 30
0.0
 11
433.5850333530159
 21
370.9867596054623
 31
0.0
1001
ACAD
1010
0.0
1020
0.0
1030
0.0
  0
LINE
  5
A0FF
102
{ACAD_REACTORS
330
A103
102
}
330
A
100
AcDbEntity
  8
モデル
100
AcDbLine
 10
435.0644493621048
 20
369.1456812921734
 30
0.0
 11
434.6014618614915
 21
370.8735741677317
 31
0.0
1001
ACAD
1010
0.0
1020
0.0
1030
0.0
  0
LINE
  5
A100
102
{ACAD_REACTORS
330
A103
102
}
330
A
100
AcDbEntity
  8
モデル
100
AcDbLine
 10
435.9374873033851
 20
369.5676367365412
 30
0.0
 11
435.7342660209595
 21
370.3260688877331
 31
0.0
1001
ACAD
1010
0.0
1020
0.0
1030
0.0
  0
LINE
  5
A101
102
{ACAD_REACTORS
330
A103
102
}
330
A
100
AcDbEntity
  8
モデル
100
AcDbLine
 10
424.3076302409563
 20
368.8087254003528
 30
0.0
 11
423.7240277346099
 21
370.9867596054623
 31
0.0
1001
ACAD
1010
0.0
1020
0.0
1030
0.0
  0
LINE
  5
A10C
330
A
100
AcDbEntity
  8
モデル
  6
CENTER
 48
0.5
100
AcDbLine
 10
439.1137343297706
 20
554.905176516751
 30
0.0
 11
447.677551035781
 21
554.905176516751
 31
0.0
  0
LINE
  5
A10F
330
A
100
AcDbEntity
  8
モデル
  6
CENTER
 48
0.5
100
AcDbLine
 10
439.1137343297706
 20
509.905176516751
 30
0.0
 11
447.677551035781
 21
509.905176516751
 31
0.0
  0
LINE
  5
A110
330
A
100
AcDbEntity
  8
モデル
  6
CENTER
 48
0.5
100
AcDbLine
 10
439.1137343297706
 20
324.8977425029076
 30
0.0
 11
447.677551035781
 21
324.8977425029076
 31
0.0
  0
LINE
  5
A111
330
A
100
AcDbEntity
  8
モデル
  6
CENTER
 48
0.5
100
AcDbLine
 10
439.1137343297706
 20
369.8977425029076
 30
0.0
 11
447.677551035781
 21
369.8977425029076
 31
0.0
  0
VIEWPORT
  5
349
330
B
100
AcDbEntity
 67
     1
  8
0
100
AcDbViewport
 10
202.5
 20
128.5
 30
0.0
 40
486.0
 41
308.4
 68
     1
 69
     1
 12
202.5
 22
128.5
 13
0.0
 23
0.0
 14
0.5
 24
0.5
 15
0.0
 25
0.0
 16
0.0
 26
0.0
 36
1.0
 17
0.0
 27
0.0
 37
0.0
 42
50.0
 43
0.0
 44
0.0
 45
308.4
 50
0.0
 51
0.0
 72
   100
 90
   557152
  1

281
     0
 71
     1
 74
     0
110
0.0
120
0.0
130
0.0
111
1.0
121
0.0
131
0.0
112
0.0
122
1.0
132
0.0
 79
     0
146
0.0
170
     0
 61
     5
348
26C
292
     1
282
     1
141
0.0
142
0.0
 63
   256
  0
VIEWPORT
  5
34A
330
B
100
AcDbEntity
 67
     1
  8
0
100
AcDbViewport
 10
202.5
 20
128.5
 30
0.0
 40
324.0
 41
205.6
 68
     2
 69
     2
 12
986.6781359294573
 22
1427.077061889956
 13
0.0
 23
0.0
 14
0.5
 24
0.5
 15
0.0
 25
0.0
 16
0.0
 26
0.0
 36
1.0
 17
0.0
 27
0.0
 37
0.0
 42
50.0
 43
0.0
 44
0.0
 45
2890.021615685494
 50
0.0
 51
0.0
 72
   100
 90
   557152
  1

281
     0
 71
     1
 74
     0
110
0.0
120
0.0
130
0.0
111
1.0
121
0.0
131
0.0
112
0.0
122
1.0
132
0.0
 79
     0
146
0.0
170
     0
 61
     5
348
26C
292
     1
282
     1
141
0.0
142
0.0
 63
   256
  0
ENDSEC
  0
SECTION
  2
OBJECTS
  0
DICTIONARY
  5
19
330
0
100
AcDbDictionary
281
     1
  3
ACAD_COLOR
350
674
  3
ACAD_DETAILVIEWSTYLE
350
12F4
  3
ACAD_FIELDLIST
350
77F2
  3
ACAD_GROUP
350
1A
  3
ACAD_IMAGE_VARS
350
27B
  3
ACAD_LAYOUT
350
1E
  3
ACAD_MATERIAL
350
263
  3
ACAD_MLEADERSTYLE
350
336
  3
ACAD_MLINESTYLE
350
1B
  3
ACAD_PLOTSETTINGS
350
22
  3
ACAD_PLOTSTYLENAME
350
1F
  3
ACAD_SCALELIST
350
241
  3
ACAD_SECTIONVIEWSTYLE
350
12F5
  3
ACAD_TABLESTYLE
350
278
  3
ACAD_VISUALSTYLE
350
267
  3
ACDB_RECOMPOSE_DATA
350
A132
  3
AcDbVariableDictionary
350
330
  3
AcStStandard
350
12B9
  3
APPDATA
350
27A
  3
DimOffsetDictionary
350
6218
  0
SUN
  5
10E8
330
15
100
AcDbSun
 90
        1
290
     0
 63
     7
421
 16777215
 40
1.0
291
     1
 91
  2455826
 92
 54000000
292
     0
 70
     2
 71
   256
280
     1
  0
DICTIONARY
  5
2E1
330
2
100
AcDbDictionary
280
     1
281
     1
  3
ACAD_LAYERSTATES
360
2E2
  3
ACLYDICTIONARY
360
7854
  0
DICTIONARY
  5
A08D
330
A
100
AcDbDictionary
280
     1
281
     1
  3
ACAD_SORTENTS
360
A08E
  0
DICTIONARY
  5
77F0
330
77EE
100
AcDbDictionary
280
     1
281
     1
  3
ACAD_FIELD
360
77F4
  0
DICTIONARY
  5
9F51
330
9F50
100
AcDbDictionary
280
     1
281
     1
  3
ACAD_DIMASSOC
360
9F52
  0
DICTIONARY
  5
9F7D
330
9F7C
100
AcDbDictionary
280
     1
281
     1
  3
ACAD_DIMASSOC
360
9F7E
  0
DICTIONARY
  5
9F8F
330
9F8E
100
AcDbDictionary
280
     1
281
     1
  3
ACAD_DIMASSOC
360
9F90
  0
DICTIONARY
  5
9F9E
330
9F9D
100
AcDbDictionary
280
     1
281
     1
  3
ACAD_DIMASSOC
360
9F9F
  0
DICTIONARY
  5
9FAD
330
9FAC
100
AcDbDictionary
280
     1
281
     1
  0
DICTIONARY
  5
9FBF
330
9FBE
100
AcDbDictionary
280
     1
281
     1
  0
DICTIONARY
  5
9FCE
330
9FCD
100
AcDbDictionary
280
     1
281
     1
  3
ACAD_DIMASSOC
360
9FCF
  0
DICTIONARY
  5
9FEE
330
9FED
100
AcDbDictionary
280
     1
281
     1
  0
DICTIONARY
  5
674
102
{ACAD_REACTORS
330
19
102
}
330
19
100
AcDbDictionary
281
     1
  0
DICTIONARY
  5
12F4
102
{ACAD_REACTORS
330
19
102
}
330
19
100
AcDbDictionary
281
     1
  0
FIELDLIST
  5
77F2
102
{ACAD_REACTORS
330
19
102
}
330
19
100
AcDbIdSet
 90
        2
330
77F3
330
77EF
100
AcDbFieldList
  0
DICTIONARY
  5
1A
102
{ACAD_REACTORS
330
19
102
}
330
19
100
AcDbDictionary
281
     1
  3
*A3
350
A0B5
  3
*A4
350
A0CF
  3
*A5
350
A102
  3
*A6
350
A103
  0
RASTERVARIABLES
  5
27B
102
{ACAD_REACTORS
330
19
102
}
330
19
100
AcDbRasterVariables
 90
        0
 70
     1
 71
     1
 72
     1
  0
DICTIONARY
  5
1E
102
{ACAD_REACTORS
330
19
102
}
330
19
100
AcDbDictionary
281
     1
  3
Layout1
350
21
  3
Layout2
350
12C4
  3
Model
350
20
  0
DICTIONARY
  5
263
102
{ACAD_REACTORS
330
19
102
}
330
19
100
AcDbDictionary
281
     1
  3
ByBlock
350
3540
  3
ByLayer
350
264
  3
Global
350
266
  0
DICTIONARY
  5
336
102
{ACAD_REACTORS
330
19
102
}
330
19
100
AcDbDictionary
281
     1
  3
Standard
350
44F0
  0
DICTIONARY
  5
1B
102
{ACAD_REACTORS
330
19
102
}
330
19
100
AcDbDictionary
281
     1
  3
Standard
350
1C
  0
DICTIONARY
  5
22
102
{ACAD_REACTORS
330
19
102
}
330
19
100
AcDbDictionary
281
     1
  0
ACDBDICTIONARYWDFLT
  5
1F
102
{ACAD_REACTORS
330
19
102
}
330
19
100
AcDbDictionary
281
     1
  3
Normal
350
1D
100
AcDbDictionaryWithDefault
340
1D
  0
DICTIONARY
  5
241
102
{ACAD_REACTORS
330
19
102
}
330
19
100
AcDbDictionary
281
     1
  3
A0
350
242
  3
A1
350
243
  3
A2
350
244
  3
A3
350
245
  3
A4
350
246
  3
A5
350
247
  3
A6
350
248
  3
A7
350
249
  3
A8
350
24A
  3
A9
350
24B
  3
B0
350
24C
  3
B1
350
24D
  3
B2
350
24E
  3
B3
350
24F
  3
B4
350
250
  3
B5
350
251
  3
B6
350
252
  3
B7
350
253
  3
B8
350
254
  3
B9
350
255
  3
C0
350
256
  3
C1
350
257
  3
C2
350
258
  3
C3
350
259
  3
C4
350
25A
  3
C5
350
25B
  3
C6
350
25C
  3
C7
350
25D
  3
C8
350
25E
  3
C9
350
25F
  3
D0
350
260
  3
D1
350
261
  3
D2
350
262
  0
DICTIONARY
  5
12F5
102
{ACAD_REACTORS
330
19
102
}
330
19
100
AcDbDictionary
281
     1
  0
DICTIONARY
  5
278
102
{ACAD_REACTORS
330
19
102
}
330
19
100
AcDbDictionary
281
     1
  3
Standard
350
279
  0
DICTIONARY
  5
267
102
{ACAD_REACTORS
330
19
102
}
330
19
100
AcDbDictionary
281
     1
  3
2dWireframe
350
26C
  3
3D Hidden
350
26E
  3
3dWireframe
350
26D
  3
Basic
350
26F
  3
Brighten
350
273
  3
ColorChange
350
277
  3
Conceptual
350
271
  3
Dim
350
272
  3
EdgeColorOff
350
10E2
  3
Facepattern
350
276
  3
Flat
350
268
  3
FlatWithEdges
350
269
  3
Gouraud
350
26A
  3
GouraudWithEdges
350
26B
  3
Hidden
350
10DF
  3
JitterOff
350
10E0
  3
Linepattern
350
275
  3
OverhangOff
350
10E1
  3
Realistic
350
270
  3
Shaded
350
10E7
  3
Shaded with edges
350
10E6
  3
Shades of Gray
350
10E3
  3
Sketchy
350
10E4
  3
Thicken
350
274
  3
Wireframe
350
10DE
  3
X-Ray
350
10E5
  0
XRECORD
  5
A132
102
{ACAD_REACTORS
330
19
102
}
330
19
100
AcDbXrecord
280
     1
 90
        1
330
279
  0
DICTIONARY
  5
330
102
{ACAD_REACTORS
330
19
102
}
330
19
100
AcDbDictionary
281
     1
  3
CANNOSCALE
350
331
  3
CMLEADERSTYLE
350
4A74
  3
CTABLESTYLE
350
335
  3
HPTRANSPARENCY
350
3A8D
  3
XCLIPFRAME
350
109E
  0
DICTIONARY
  5
12B9
102
{ACAD_REACTORS
330
19
102
}
330
19
100
AcDbDictionary
281
     1
  0
DICTIONARY
  5
27A
102
{ACAD_REACTORS
330
19
102
}
330
19
100
AcDbDictionary
281
     1
  0
DICTIONARY
  5
6218
102
{ACAD_REACTORS
330
19
102
}
330
19
100
AcDbDictionary
281
     1
  3
DIMRAILANGLE
350
7EF6
  3
DIMRAILFIRSTOFFSET
350
7EF4
  3
DIMRAILOFFSET
350
7EF5
  3
DIMRAILSENABLED
350
7EF7
  0
DICTIONARY
  5
2E2
102
{ACAD_REACTORS
330
2E1
102
}
330
2E1
100
AcDbDictionary
281
     1
  0
DICTIONARY
  5
7854
102
{ACAD_REACTORS
330
2E1
102
}
330
2E1
100
AcDbDictionary
281
     1
1001
ACAD
1000
<All
  0
SORTENTSTABLE
  5
A08E
102
{ACAD_REACTORS
330
A08D
102
}
330
A08D
100
AcDbSortentsTable
330
A
331
A07D
  5
A082
331
A07E
  5
A083
331
A07F
  5
A084
331
A080
  5
A085
331
A081
  5
A086
331
A082
  5
A087
331
A083
  5
A088
331
A084
  5
A089
331
A085
  5
A08A
331
A086
  5
A08B
331
0
  5
A08C
331
0
  5
A08F
331
A089
  5
A090
331
A08A
  5
A091
331
0
  5
A092
331
0
  5
A07D
331
0
  5
A07E
331
0
  5
A07F
331
0
  5
A080
331
0
  5
A081
  0
DICTIONARY
  5
77F4
102
{ACAD_REACTORS
330
77F0
102
}
330
77F0
100
AcDbDictionary
280
     1
281
     1
  3
TEXT
360
77EF
  0
DIMASSOC
  5
9F52
102
{ACAD_REACTORS
330
9F51
102
}
330
9F51
100
AcDbDimAssoc
330
9F50
 90
        3
 70
     0
 71
     1
  1
AcDbOsnapPointRef
 72
     1
331
9DCE
 73
     0
 91
        0
 40
0.0
 10
0.0
 20
0.0
 30
0.0
 75
     0
  1
AcDbOsnapPointRef
 72
     1
331
9DC9
 73
     0
 91
        0
 40
0.0
 10
0.0
 20
0.0
 30
0.0
 75
     0
  0
DIMASSOC
  5
9F7E
102
{ACAD_REACTORS
330
9F7D
102
}
330
9F7D
100
AcDbDimAssoc
330
9F7C
 90
        0
 70
     0
 71
     1
  0
DIMASSOC
  5
9F90
102
{ACAD_REACTORS
330
9F8F
102
}
330
9F8F
100
AcDbDimAssoc
330
9F8E
 90
        3
 70
     0
 71
     1
  1
AcDbOsnapPointRef
 72
     1
331
9F29
 73
     0
 91
        0
 40
0.0
 10
0.0
 20
0.0
 30
0.0
 75
     0
  1
AcDbOsnapPointRef
 72
    13
331
9F43
 73
     0
 91
        0
 40
0.0
 10
0.0
 20
0.0
 30
0.0
 75
     0
  0
DIMASSOC
  5
9F9F
102
{ACAD_REACTORS
330
9F9E
102
}
330
9F9E
100
AcDbDimAssoc
330
9F9D
 90
        3
 70
     0
 71
     1
  1
AcDbOsnapPointRef
 72
    13
331
9F43
 73
     0
 91
        0
 40
0.0
 10
0.0
 20
0.0
 30
0.0
 75
     0
  1
AcDbOsnapPointRef
 72
     1
331
9F49
 73
     0
 91
        0
 40
0.0
 10
0.0
 20
0.0
 30
0.0
 75
     0
  0
DIMASSOC
  5
9FCF
102
{ACAD_REACTORS
330
9FCE
102
}
330
9FCE
100
AcDbDimAssoc
330
9FCD
 90
        1
 70
     0
 71
     1
  1
AcDbOsnapPointRef
 72
     1
331
9F29
 73
     0
 91
        0
 40
0.0
 10
0.0
 20
0.0
 30
0.0
 75
     0
  0
GROUP
  5
A0B5
102
{ACAD_REACTORS
330
1A
102
}
330
1A
100
AcDbGroup
300

 70
     1
 71
     1
340
A07D
340
A07E
340
A07F
340
A080
340
A081
340
A082
340
A083
340
A084
340
A085
340
A086
340
A089
340
A08A
340
A09A
340
A09C
340
A09E
340
A0A0
340
A0A2
340
A0A4
340
A0A6
340
A0A8
340
A0AA
340
A0AC
340
A0AE
340
A0B0
340
A098
  0
GROUP
  5
A0CF
102
{ACAD_REACTORS
330
1A
102
}
330
1A
100
AcDbGroup
300

 70
     1
 71
     1
340
A0B6
340
A0B7
340
A0B8
340
A0B9
340
A0BA
340
A0BB
340
A0BC
340
A0BD
340
A0BE
340
A0BF
340
A0C0
340
A0C1
340
A0C2
340
A0C3
340
A0C4
340
A0C5
340
A0C6
340
A0C7
340
A0C8
340
A0C9
340
A0CA
340
A0CB
340
A0CC
340
A0CD
340
A0CE
  0
GROUP
  5
A102
102
{ACAD_REACTORS
330
1A
102
}
330
1A
100
AcDbGroup
300

 70
     1
 71
     1
340
A0D0
340
A0D1
340
A0D2
340
A0D3
340
A0D4
340
A0D5
340
A0D6
340
A0D7
340
A0D8
340
A0D9
340
A0DA
340
A0DB
340
A0DC
340
A0DD
340
A0DE
340
A0DF
340
A0E0
340
A0E1
340
A0E2
340
A0E3
340
A0E4
340
A0E5
340
A0E6
340
A0E7
340
A0E8
  0
GROUP
  5
A103
102
{ACAD_REACTORS
330
1A
102
}
330
1A
100
AcDbGroup
300

 70
     1
 71
     1
340
A0E9
340
A0EA
340
A0EB
340
A0EC
340
A0ED
340
A0EE
340
A0EF
340
A0F0
340
A0F1
340
A0F2
340
A0F3
340
A0F4
340
A0F5
340
A0F6
340
A0F7
340
A0F8
340
A0F9
340
A0FA
340
A0FB
340
A0FC
340
A0FD
340
A0FE
340
A0FF
340
A100
340
A101
  0
LAYOUT
  5
21
102
{ACAD_REACTORS
330
1E
102
}
330
1E
100
AcDbPlotSettings
  1

  2
none_device
  4
ISO_A3_(420.00_x_297.00_MM)
  6

 40
7.5
 41
20.0
 42
7.5
 43
20.0
 44
420.0
 45
297.0
 46
0.0
 47
0.0
 48
0.0
 49
0.0
140
0.0
141
0.0
142
1.0
143
1.0
 70
     0
 72
     1
 73
     0
 74
     0
  7

 75
     0
 76
     0
 77
     2
 78
   300
147
1.0
148
0.0
149
0.0
100
AcDbLayout
  1
Layout1
 70
     0
 71
     0
 10
-7.5
 20
-20.0
 11
412.5
 21
277.0
 12
0.0
 22
0.0
 32
0.0
 14
0.0
 24
0.0
 34
0.0
 15
0.0
 25
0.0
 35
0.0
146
0.0
 13
0.0
 23
0.0
 33
0.0
 16
0.0
 26
0.0
 36
0.0
 17
0.0
 27
0.0
 37
0.0
 76
     0
330
B
331
349
  0
LAYOUT
  5
12C4
102
{ACAD_REACTORS
330
1E
102
}
330
1E
100
AcDbPlotSettings
  1

  2
none_device
  4

  6

 40
0.0
 41
0.0
 42
0.0
 43
0.0
 44
0.0
 45
0.0
 46
0.0
 47
0.0
 48
0.0
 49
0.0
140
0.0
141
0.0
142
1.0
143
1.0
 70
   688
 72
     1
 73
     0
 74
     5
  7

 75
    16
 76
     0
 77
     2
 78
   300
147
1.0
148
0.0
149
0.0
100
AcDbLayout
  1
Layout2
 70
     1
 71
     2
 10
0.0
 20
0.0
 11
0.0
 21
0.0
 12
0.0
 22
0.0
 32
0.0
 14
0.0
 24
0.0
 34
0.0
 15
0.0
 25
0.0
 35
0.0
146
0.0
 13
0.0
 23
0.0
 33
0.0
 16
1.0
 26
0.0
 36
0.0
 17
0.0
 27
1.0
 37
0.0
 76
     0
330
12C3
  0
LAYOUT
  5
20
102
{ACAD_REACTORS
330
1E
102
}
330
1E
100
AcDbPlotSettings
  1

  2
none_device
  4
ISO_A3_(420.00_x_297.00_MM)
  6

 40
7.5
 41
20.0
 42
7.5
 43
20.0
 44
420.0
 45
297.0
 46
0.0
 47
0.0
 48
0.0
 49
0.0
140
0.0
141
0.0
142
1.0
143
1.0
 70
  1024
 72
     1
 73
     0
 74
     0
  7

 75
     0
 76
     0
 77
     2
 78
   300
147
1.0
148
0.0
149
0.0
100
AcDbLayout
  1
Model
 70
     0
 71
     1
 10
0.0
 20
0.0
 11
630.0
 21
891.0
 12
0.0
 22
0.0
 32
0.0
 14
0.0
 24
0.0
 34
0.0
 15
630.0
 25
891.0
 35
0.0
146
0.0
 13
0.0
 23
0.0
 33
0.0
 16
0.0
 26
0.0
 36
0.0
 17
0.0
 27
0.0
 37
0.0
 76
     0
330
A
331
15
  0
MATERIAL
  5
3540
102
{ACAD_REACTORS
330
263
102
}
330
263
100
AcDbMaterial
  1
ByBlock
 72
     1
 94
      127
  0
MATERIAL
  5
264
102
{ACAD_REACTORS
330
263
102
}
330
263
100
AcDbMaterial
  1
ByLayer
 72
     1
 94
      127
  0
MATERIAL
  5
266
102
{ACAD_REACTORS
330
263
102
}
330
263
100
AcDbMaterial
  1
Global
 72
     1
 94
      127
  0
MLEADERSTYLE
  5
44F0
102
{ACAD_REACTORS
330
336
102
}
330
336
100
AcDbMLeaderStyle
170
     2
171
     1
172
     0
 90
        2
 40
0.0
 41
0.0
173
     1
 91
-1056964608
340
11
 92
       -2
290
     1
 42
2.0
291
     1
 43
8.0
  3
Standard
341
0
 44
4.0
300

342
17
174
     1
178
     6
175
     1
176
     0
 93
-1056964608
 45
4.0
292
     0
297
     0
 46
4.0
343
0
 94
-1056964608
 47
1.0
 49
1.0
140
1.0
293
     1
141
0.0
294
     1
177
     0
142
1.0
295
     0
296
     0
143
3.75
1001
ACAD_MLEADERVER
1070
     2
  0
MLINESTYLE
  5
1C
102
{ACAD_REACTORS
330
1B
102
}
330
1B
100
AcDbMlineStyle
  2
Standard
 70
     0
  3

 62
     0
 51
90.0
 52
90.0
 71
     2
 49
0.5
 62
   256
  6
BYLAYER
 49
-0.5
 62
   256
  6
BYLAYER
  0
ACDBPLACEHOLDER
  5
1D
102
{ACAD_REACTORS
330
1F
102
}
330
1F
  0
SCALE
  5
242
102
{ACAD_REACTORS
330
241
102
}
330
241
100
AcDbScale
 70
     0
300
1:1
140
1.0
141
1.0
290
     1
  0
SCALE
  5
243
102
{ACAD_REACTORS
330
241
102
}
330
241
100
AcDbScale
 70
     0
300
1:2
140
1.0
141
2.0
290
     0
  0
SCALE
  5
244
102
{ACAD_REACTORS
330
241
102
}
330
241
100
AcDbScale
 70
     0
300
1:4
140
1.0
141
4.0
290
     0
  0
SCALE
  5
245
102
{ACAD_REACTORS
330
241
102
}
330
241
100
AcDbScale
 70
     0
300
1:5
140
1.0
141
5.0
290
     0
  0
SCALE
  5
246
102
{ACAD_REACTORS
330
241
102
}
330
241
100
AcDbScale
 70
     0
300
1:8
140
1.0
141
8.0
290
     0
  0
SCALE
  5
247
102
{ACAD_REACTORS
330
241
102
}
330
241
100
AcDbScale
 70
     0
300
1:10
140
1.0
141
10.0
290
     0
  0
SCALE
  5
248
102
{ACAD_REACTORS
330
241
102
}
330
241
100
AcDbScale
 70
     0
300
1:16
140
1.0
141
16.0
290
     0
  0
SCALE
  5
249
102
{ACAD_REACTORS
330
241
102
}
330
241
100
AcDbScale
 70
     0
300
1:20
140
1.0
141
20.0
290
     0
  0
SCALE
  5
24A
102
{ACAD_REACTORS
330
241
102
}
330
241
100
AcDbScale
 70
     0
300
1:30
140
1.0
141
30.0
290
     0
  0
SCALE
  5
24B
102
{ACAD_REACTORS
330
241
102
}
330
241
100
AcDbScale
 70
     0
300
1:40
140
1.0
141
40.0
290
     0
  0
SCALE
  5
24C
102
{ACAD_REACTORS
330
241
102
}
330
241
100
AcDbScale
 70
     0
300
1:50
140
1.0
141
50.0
290
     0
  0
SCALE
  5
24D
102
{ACAD_REACTORS
330
241
102
}
330
241
100
AcDbScale
 70
     0
300
1:100
140
1.0
141
100.0
290
     0
  0
SCALE
  5
24E
102
{ACAD_REACTORS
330
241
102
}
330
241
100
AcDbScale
 70
     0
300
2:1
140
2.0
141
1.0
290
     0
  0
SCALE
  5
24F
102
{ACAD_REACTORS
330
241
102
}
330
241
100
AcDbScale
 70
     0
300
4:1
140
4.0
141
1.0
290
     0
  0
SCALE
  5
250
102
{ACAD_REACTORS
330
241
102
}
330
241
100
AcDbScale
 70
     0
300
8:1
140
8.0
141
1.0
290
     0
  0
SCALE
  5
251
102
{ACAD_REACTORS
330
241
102
}
330
241
100
AcDbScale
 70
     0
300
10:1
140
10.0
141
1.0
290
     0
  0
SCALE
  5
252
102
{ACAD_REACTORS
330
241
102
}
330
241
100
AcDbScale
 70
     0
300
100:1
140
100.0
141
1.0
290
     0
  0
SCALE
  5
253
102
{ACAD_REACTORS
330
241
102
}
330
241
100
AcDbScale
 70
     0
300
1/128" = 1'-0"
140
0.0078125
141
12.0
290
     0
  0
SCALE
  5
254
102
{ACAD_REACTORS
330
241
102
}
330
241
100
AcDbScale
 70
     0
300
1/64" = 1'-0"
140
0.015625
141
12.0
290
     0
  0
SCALE
  5
255
102
{ACAD_REACTORS
330
241
102
}
330
241
100
AcDbScale
 70
     0
300
1/32" = 1'-0"
140
0.03125
141
12.0
290
     0
  0
SCALE
  5
256
102
{ACAD_REACTORS
330
241
102
}
330
241
100
AcDbScale
 70
     0
300
1/16" = 1'-0"
140
0.0625
141
12.0
290
     0
  0
SCALE
  5
257
102
{ACAD_REACTORS
330
241
102
}
330
241
100
AcDbScale
 70
     0
300
3/32" = 1'-0"
140
0.09375
141
12.0
290
     0
  0
SCALE
  5
258
102
{ACAD_REACTORS
330
241
102
}
330
241
100
AcDbScale
 70
     0
300
1/8" = 1'-0"
140
0.125
141
12.0
290
     0
  0
SCALE
  5
259
102
{ACAD_REACTORS
330
241
102
}
330
241
100
AcDbScale
 70
     0
300
3/16" = 1'-0"
140
0.1875
141
12.0
290
     0
  0
SCALE
  5
25A
102
{ACAD_REACTORS
330
241
102
}
330
241
100
AcDbScale
 70
     0
300
1/4" = 1'-0"
140
0.25
141
12.0
290
     0
  0
SCALE
  5
25B
102
{ACAD_REACTORS
330
241
102
}
330
241
100
AcDbScale
 70
     0
300
3/8" = 1'-0"
140
0.375
141
12.0
290
     0
  0
SCALE
  5
25C
102
{ACAD_REACTORS
330
241
102
}
330
241
100
AcDbScale
 70
     0
300
1/2" = 1'-0"
140
0.5
141
12.0
290
     0
  0
SCALE
  5
25D
102
{ACAD_REACTORS
330
241
102
}
330
241
100
AcDbScale
 70
     0
300
3/4" = 1'-0"
140
0.75
141
12.0
290
     0
  0
SCALE
  5
25E
102
{ACAD_REACTORS
330
241
102
}
330
241
100
AcDbScale
 70
     0
300
1" = 1'-0"
140
1.0
141
12.0
290
     0
  0
SCALE
  5
25F
102
{ACAD_REACTORS
330
241
102
}
330
241
100
AcDbScale
 70
     0
300
1-1/2" = 1'-0"
140
1.5
141
12.0
290
     0
  0
SCALE
  5
260
102
{ACAD_REACTORS
330
241
102
}
330
241
100
AcDbScale
 70
     0
300
3" = 1'-0"
140
3.0
141
12.0
290
     0
  0
SCALE
  5
261
102
{ACAD_REACTORS
330
241
102
}
330
241
100
AcDbScale
 70
     0
300
6" = 1'-0"
140
6.0
141
12.0
290
     0
  0
SCALE
  5
262
102
{ACAD_REACTORS
330
241
102
}
330
241
100
AcDbScale
 70
     0
300
1'-0" = 1'-0"
140
12.0
141
12.0
290
     0
  0
TABLESTYLE
  5
279
102
{ACAD_REACTORS
330
278
102
}
102
{ACAD_XDICTIONARY
360
A130
102
}
330
278
100
AcDbTableStyle
  3
Standard
 70
     0
 71
     0
 40
0.06
 41
0.06
280
     0
281
     0
  7
Standard
140
4.5
170
     2
 62
     0
 63
   257
283
     0
 90
        4
 91
        0
  1

274
    -2
284
     1
 64
     0
275
    -2
285
     1
 65
     0
276
    -2
286
     1
 66
     0
277
    -2
287
     1
 67
     0
278
    -2
288
     1
 68
     0
279
    -2
289
     1
 69
     0
  7
Standard
140
6.0
170
     5
 62
     0
 63
   257
283
     0
 90
        4
 91
        0
  1

274
    -2
284
     1
 64
     0
275
    -2
285
     1
 65
     0
276
    -2
286
     1
 66
     0
277
    -2
287
     1
 67
     0
278
    -2
288
     1
 68
     0
279
    -2
289
     1
 69
     0
  7
Standard
140
4.5
170
     5
 62
     0
 63
   257
283
     0
 90
        4
 91
        0
  1

274
    -2
284
     1
 64
     0
275
    -2
285
     1
 65
     0
276
    -2
286
     1
 66
     0
277
    -2
287
     1
 67
     0
278
    -2
288
     1
 68
     0
279
    -2
289
     1
 69
     0
  0
VISUALSTYLE
  5
26C
102
{ACAD_REACTORS
330
267
102
}
330
267
100
AcDbVisualStyle
  2
2dWireframe
 70
     4
 71
     0
 72
     2
 73
     0
 90
        0
 40
-0.6
 41
-30.0
 62
     5
 63
     7
421
 16777215
 74
     1
 91
        4
 64
     7
 65
   257
 75
     1
175
     1
 42
1.0
 92
        0
 66
   257
 43
1.0
 76
     1
 77
     6
 78
     2
 67
     7
 79
     5
170
     0
171
     0
290
     0
174
     0
 93
        1
 44
0.0
173
     0
291
     0
 45
0.0
  0
VISUALSTYLE
  5
26E
102
{ACAD_REACTORS
330
267
102
}
330
267
100
AcDbVisualStyle
  2
3D Hidden
 70
     6
 71
     1
 72
     2
 73
     2
 90
        0
 40
-0.6
 41
-30.0
 62
     5
 63
     7
421
 16777215
 74
     2
 91
        2
 64
     7
 65
   257
 75
     2
175
     1
 42
40.0
 92
        0
 66
   257
 43
1.0
 76
     1
 77
     6
 78
     2
 67
     7
 79
     3
170
     0
171
     0
290
     0
174
     0
 93
        1
 44
0.0
173
     0
291
     0
 45
0.0
  0
VISUALSTYLE
  5
26D
102
{ACAD_REACTORS
330
267
102
}
330
267
100
AcDbVisualStyle
  2
3dWireframe
 70
     5
 71
     0
 72
     2
 73
     0
 90
        0
 40
-0.6
 41
-30.0
 62
     5
 63
     7
421
 16777215
 74
     1
 91
        4
 64
     7
 65
   257
 75
     1
175
     1
 42
1.0
 92
        0
 66
   257
 43
1.0
 76
     1
 77
     6
 78
     2
 67
     7
 79
     5
170
     0
171
     0
290
     0
174
     0
 93
        1
 44
0.0
173
     0
291
     0
 45
0.0
  0
VISUALSTYLE
  5
26F
102
{ACAD_REACTORS
330
267
102
}
330
267
100
AcDbVisualStyle
  2
Basic
 70
     7
 71
     1
 72
     0
 73
     1
 90
        0
 40
-0.6
 41
-30.0
 62
     5
 63
     7
421
 16777215
 74
     0
 91
        4
 64
     7
 65
   257
 75
     1
175
     1
 42
1.0
 92
        8
 66
     7
 43
1.0
 76
     1
 77
     6
 78
     2
 67
     7
 79
     5
170
     0
171
     0
290
     0
174
     0
 93
        1
 44
0.0
173
     0
291
     1
 45
0.0
  0
VISUALSTYLE
  5
273
102
{ACAD_REACTORS
330
267
102
}
330
267
100
AcDbVisualStyle
  2
Brighten
 70
    12
 71
     2
 72
     2
 73
     0
 90
        0
 40
-0.6
 41
-30.0
 62
     5
 63
     7
421
 16777215
 74
     1
 91
        4
 64
     7
 65
   257
 75
     1
175
     1
 42
1.0
 92
        8
 66
     7
 43
1.0
 76
     1
 77
     6
 78
     2
 67
     7
 79
     5
170
     0
171
     0
290
     0
174
     0
 93
        1
 44
50.0
173
     0
291
     1
 45
0.0
  0
VISUALSTYLE
  5
277
102
{ACAD_REACTORS
330
267
102
}
330
267
100
AcDbVisualStyle
  2
ColorChange
 70
    16
 71
     2
 72
     2
 73
     3
 90
        0
 40
-0.6
 41
-30.0
 62
     5
 63
     8
421
  8421504
 74
     1
 91
        4
 64
     7
 65
   257
 75
     1
175
     1
 42
1.0
 92
        8
 66
     8
424
  8421504
 43
1.0
 76
     1
 77
     6
 78
     2
 67
     7
 79
     5
170
     0
171
     0
290
     0
174
     0
 93
        1
 44
0.0
173
     0
291
     1
 45
0.0
  0
VISUALSTYLE
  5
271
102
{ACAD_REACTORS
330
267
102
}
330
267
100
AcDbVisualStyle
  2
Conceptual
 70
     9
 71
     3
 72
     2
 73
     0
 90
        0
 40
-0.6
 41
-30.0
 62
     5
 63
     7
421
 16777215
 74
     2
 91
        2
 64
     7
 65
   257
 75
     1
175
     1
 42
40.0
 92
        8
 66
     7
 43
1.0
 76
     1
 77
     6
 78
     2
 67
     7
 79
     3
170
     0
171
     0
290
     0
174
     0
 93
        1
 44
0.0
173
     0
291
     0
 45
0.0
  0
VISUALSTYLE
  5
272
102
{ACAD_REACTORS
330
267
102
}
330
267
100
AcDbVisualStyle
  2
Dim
 70
    11
 71
     2
 72
     2
 73
     0
 90
        0
 40
-0.6
 41
-30.0
 62
     5
 63
     7
421
 16777215
 74
     1
 91
        4
 64
     7
 65
   257
 75
     1
175
     1
 42
1.0
 92
        8
 66
     7
 43
1.0
 76
     1
 77
     6
 78
     2
 67
     7
 79
     5
170
     0
171
     0
290
     0
174
     0
 93
        1
 44
-50.0
173
     0
291
     1
 45
0.0
  0
VISUALSTYLE
  5
10E2
102
{ACAD_REACTORS
330
267
102
}
330
267
100
AcDbVisualStyle
  2
EdgeColorOff
 70
    22
 71
     2
 72
     2
 73
     0
 90
        0
 40
0.6
 41
30.0
 62
     5
 63
     7
421
 16777215
 74
     1
 91
        4
 64
     7
 65
   257
 75
     1
175
     1
 42
1.0
 92
        8
 66
     7
 43
1.0
 76
     1
 77
     6
 78
     2
 67
     7
 79
     5
170
     0
171
     0
290
     0
174
     0
 93
        1
 44
0.0
173
     0
291
     1
 45
0.0
  0
VISUALSTYLE
  5
276
102
{ACAD_REACTORS
330
267
102
}
330
267
100
AcDbVisualStyle
  2
Facepattern
 70
    15
 71
     2
 72
     2
 73
     0
 90
        0
 40
-0.6
 41
-30.0
 62
     5
 63
     7
421
 16777215
 74
     1
 91
        4
 64
     7
 65
   257
 75
     1
175
     1
 42
1.0
 92
        8
 66
     7
 43
1.0
 76
     1
 77
     6
 78
     2
 67
     7
 79
     5
170
     0
171
     0
290
     0
174
     0
 93
        1
 44
0.0
173
     0
291
     1
 45
0.0
  0
VISUALSTYLE
  5
268
102
{ACAD_REACTORS
330
267
102
}
330
267
100
AcDbVisualStyle
  2
Flat
 70
     0
 71
     2
 72
     1
 73
     1
 90
        2
 40
-0.6
 41
30.0
 62
     5
 63
     7
421
 16777215
 74
     0
 91
        4
 64
     7
 65
   257
 75
     1
175
     1
 42
1.0
 92
        8
 66
     7
 43
1.0
 76
     1
 77
     6
 78
     2
 67
     7
 79
     5
170
     0
171
     0
290
     0
174
     0
 93
       13
 44
0.0
173
     0
291
     1
 45
0.0
  0
VISUALSTYLE
  5
269
102
{ACAD_REACTORS
330
267
102
}
330
267
100
AcDbVisualStyle
  2
FlatWithEdges
 70
     1
 71
     2
 72
     1
 73
     1
 90
        2
 40
-0.6
 41
30.0
 62
     5
 63
     7
421
 16777215
 74
     1
 91
        4
 64
     7
 65
   257
 75
     1
175
     1
 42
1.0
 92
        0
 66
   257
 43
1.0
 76
     1
 77
     6
 78
     2
 67
     7
 79
     5
170
     0
171
     0
290
     0
174
     0
 93
       13
 44
0.0
173
     0
291
     1
 45
0.0
  0
VISUALSTYLE
  5
26A
102
{ACAD_REACTORS
330
267
102
}
330
267
100
AcDbVisualStyle
  2
Gouraud
 70
     2
 71
     2
 72
     2
 73
     1
 90
        2
 40
-0.6
 41
30.0
 62
     5
 63
     7
421
 16777215
 74
     0
 91
        4
 64
     7
 65
   257
 75
     1
175
     1
 42
1.0
 92
        0
 66
     7
 43
1.0
 76
     1
 77
     6
 78
     2
 67
     7
 79
     5
170
     0
171
     0
290
     0
174
     0
 93
       13
 44
0.0
173
     0
291
     1
 45
0.0
  0
VISUALSTYLE
  5
26B
102
{ACAD_REACTORS
330
267
102
}
330
267
100
AcDbVisualStyle
  2
GouraudWithEdges
 70
     3
 71
     2
 72
     2
 73
     1
 90
        2
 40
-0.6
 41
30.0
 62
     5
 63
     7
421
 16777215
 74
     1
 91
        4
 64
     7
 65
   257
 75
     1
175
     1
 42
1.0
 92
        0
 66
   257
 43
1.0
 76
     1
 77
     6
 78
     2
 67
     7
 79
     5
170
     0
171
     0
290
     0
174
     0
 93
       13
 44
0.0
173
     0
291
     1
 45
0.0
  0
VISUALSTYLE
  5
10DF
102
{ACAD_REACTORS
330
267
102
}
330
267
100
AcDbVisualStyle
  2
Hidden
 70
     6
 71
     1
 72
     2
 73
     2
 90
        0
 40
0.6
 41
30.0
 62
     5
 63
     7
421
 16777215
 74
     2
 91
        2
 64
     7
 65
   257
 75
     2
175
     1
 42
40.0
 92
        0
 66
   257
 43
1.0
 76
     1
 77
     6
 78
     2
 67
     7
 79
     3
170
     0
171
     0
290
     0
174
     0
 93
        1
 44
0.0
173
     0
291
     0
 45
0.0
  0
VISUALSTYLE
  5
10E0
102
{ACAD_REACTORS
330
267
102
}
330
267
100
AcDbVisualStyle
  2
JitterOff
 70
    20
 71
     2
 72
     2
 73
     0
 90
        0
 40
0.6
 41
30.0
 62
     5
 63
     7
421
 16777215
 74
     1
 91
        4
 64
     7
 65
   257
 75
     1
175
     1
 42
1.0
 92
       10
 66
     7
 43
1.0
 76
     1
 77
     6
 78
     2
 67
     7
 79
     5
170
     0
171
     0
290
     0
174
     0
 93
        1
 44
0.0
173
     0
291
     1
 45
0.0
  0
VISUALSTYLE
  5
275
102
{ACAD_REACTORS
330
267
102
}
330
267
100
AcDbVisualStyle
  2
Linepattern
 70
    14
 71
     2
 72
     2
 73
     0
 90
        0
 40
-0.6
 41
-30.0
 62
     5
 63
     7
421
 16777215
 74
     1
 91
        4
 64
     7
 65
   257
 75
     7
175
     7
 42
1.0
 92
        8
 66
     7
 43
1.0
 76
     1
 77
     6
 78
     2
 67
     7
 79
     5
170
     0
171
     0
290
     0
174
     0
 93
        1
 44
0.0
173
     0
291
     1
 45
0.0
  0
VISUALSTYLE
  5
10E1
102
{ACAD_REACTORS
330
267
102
}
330
267
100
AcDbVisualStyle
  2
OverhangOff
 70
    21
 71
     2
 72
     2
 73
     0
 90
        0
 40
0.6
 41
30.0
 62
     5
 63
     7
421
 16777215
 74
     1
 91
        4
 64
     7
 65
   257
 75
     1
175
     1
 42
1.0
 92
        9
 66
     7
 43
1.0
 76
     1
 77
     6
 78
     2
 67
     7
 79
     5
170
     0
171
     0
290
     0
174
     0
 93
        1
 44
0.0
173
     0
291
     1
 45
0.0
  0
VISUALSTYLE
  5
270
102
{ACAD_REACTORS
330
267
102
}
330
267
100
AcDbVisualStyle
  2
Realistic
 70
     8
 71
     2
 72
     2
 73
     0
 90
        0
 40
-0.6
 41
-30.0
 62
     5
 63
     7
421
 16777215
 74
     1
 91
        0
 64
     7
 65
   257
 75
     1
175
     1
 42
1.0
 92
        8
 66
     8
424
  7895160
 43
1.0
 76
     1
 77
     6
 78
     2
 67
     7
 79
     5
170
     0
171
     0
290
     0
174
     0
 93
       13
 44
0.0
173
     0
291
     0
 45
0.0
  0
VISUALSTYLE
  5
10E7
102
{ACAD_REACTORS
330
267
102
}
330
267
100
AcDbVisualStyle
  2
Shaded
 70
    27
 71
     2
 72
     2
 73
     1
 90
        2
 40
0.6
 41
30.0
 62
     5
 63
     7
421
 16777215
 74
     0
 91
        4
 64
     7
 65
   257
 75
     1
175
     1
 42
1.0
 92
        8
 66
   257
 43
1.0
 76
     1
 77
     6
 78
     2
 67
     8
425
  7895160
 79
     3
170
     0
171
     0
290
     0
174
     0
 93
        5
 44
0.0
173
     0
291
     0
 45
0.0
  0
VISUALSTYLE
  5
10E6
102
{ACAD_REACTORS
330
267
102
}
330
267
100
AcDbVisualStyle
  2
Shaded with edges
 70
    26
 71
     2
 72
     2
 73
     1
 90
        2
 40
0.6
 41
30.0
 62
     5
 63
     7
421
 16777215
 74
     1
 91
       10
 64
     7
 65
   257
 75
     2
175
     1
 42
1.0
 92
        8
 66
   257
 43
1.0
 76
     1
 77
     6
 78
     2
 67
     7
 79
     3
170
     0
171
     0
290
     0
174
     0
 93
        5
 44
0.0
173
     0
291
     0
 45
0.0
  0
VISUALSTYLE
  5
10E3
102
{ACAD_REACTORS
330
267
102
}
330
267
100
AcDbVisualStyle
  2
Shades of Gray
 70
    23
 71
     2
 72
     2
 73
     3
 90
        0
 40
0.6
 41
30.0
 62
     5
 63
     7
421
 16777215
 74
     2
 91
        2
 64
     7
 65
     7
 75
     1
175
     1
 42
40.0
 92
        8
 66
     7
 43
1.0
 76
     1
 77
     6
 78
     2
 67
     7
 79
     3
170
     0
171
     0
290
     0
174
     0
 93
        1
 44
0.0
173
     0
291
     0
 45
0.0
  0
VISUALSTYLE
  5
10E4
102
{ACAD_REACTORS
330
267
102
}
330
267
100
AcDbVisualStyle
  2
Sketchy
 70
    24
 71
     1
 72
     2
 73
     2
 90
        0
 40
0.6
 41
30.0
 62
     5
 63
     7
421
 16777215
 74
     2
 91
        2
 64
     7
 65
     7
 75
     1
175
     1
 42
40.0
 92
       11
 66
     7
 43
1.0
 76
     1
 77
     6
 78
     2
 67
     7
 79
     6
170
     0
171
     0
290
     0
174
     0
 93
        1
 44
0.0
173
     0
291
     0
 45
0.0
  0
VISUALSTYLE
  5
274
102
{ACAD_REACTORS
330
267
102
}
330
267
100
AcDbVisualStyle
  2
Thicken
 70
    13
 71
     2
 72
     2
 73
     0
 90
        0
 40
-0.6
 41
-30.0
 62
     5
 63
     7
421
 16777215
 74
     1
 91
        4
 64
     7
 65
   257
 75
     1
175
     1
 42
1.0
 92
       12
 66
     7
 43
1.0
 76
     1
 77
     6
 78
     2
 67
     7
 79
     5
170
     0
171
     0
290
     0
174
     0
 93
        1
 44
0.0
173
     0
291
     1
 45
0.0
  0
VISUALSTYLE
  5
10DE
102
{ACAD_REACTORS
330
267
102
}
330
267
100
AcDbVisualStyle
  2
Wireframe
 70
     5
 71
     0
 72
     2
 73
     0
 90
        0
 40
0.6
 41
30.0
 62
     5
 63
     7
421
 16777215
 74
     1
 91
        4
 64
     7
 65
   257
 75
     1
175
     1
 42
1.0
 92
        0
 66
   257
 43
1.0
 76
     1
 77
     6
 78
     2
 67
     7
 79
     3
170
     0
171
     0
290
     0
174
     0
 93
        1
 44
0.0
173
     0
291
     0
 45
0.0
  0
VISUALSTYLE
  5
10E5
102
{ACAD_REACTORS
330
267
102
}
330
267
100
AcDbVisualStyle
  2
X-Ray
 70
    25
 71
     2
 72
     2
 73
     1
 90
        1
 40
0.5
 41
30.0
 62
     5
 63
     7
421
 16777215
 74
     1
 91
        0
 64
     7
 65
   257
 75
     1
175
     1
 42
1.0
 92
        8
 66
     7
 43
1.0
 76
     1
 77
     6
 78
     2
 67
     7
 79
     3
170
     0
171
     0
290
     0
174
     0
 93
       13
 44
0.0
173
     0
291
     0
 45
0.0
  0
DICTIONARYVAR
  5
331
102
{ACAD_REACTORS
330
330
102
}
330
330
100
DictionaryVariables
280
     0
  1
1:1
  0
DICTIONARYVAR
  5
4A74
102
{ACAD_REACTORS
330
330
102
}
330
330
100
DictionaryVariables
280
     0
  1
Standard
  0
DICTIONARYVAR
  5
335
102
{ACAD_REACTORS
330
330
102
}
330
330
100
DictionaryVariables
280
     0
  1
Standard
  0
DICTIONARYVAR
  5
3A8D
102
{ACAD_REACTORS
330
330
102
}
330
330
100
DictionaryVariables
280
     0
  1
ByLayer
  0
DICTIONARYVAR
  5
109E
102
{ACAD_REACTORS
330
330
102
}
330
330
100
DictionaryVariables
280
     0
  1
0
  0
DICTIONARYVAR
  5
7EF6
102
{ACAD_REACTORS
330
6218
102
}
330
6218
100
DictionaryVariables
280
     0
  1
0.261799
  0
DICTIONARYVAR
  5
7EF4
102
{ACAD_REACTORS
330
6218
102
}
330
6218
100
DictionaryVariables
280
     0
  1
0.400000
  0
DICTIONARYVAR
  5
7EF5
102
{ACAD_REACTORS
330
6218
102
}
330
6218
100
DictionaryVariables
280
     0
  1
0.250000
  0
DICTIONARYVAR
  5
7EF7
102
{ACAD_REACTORS
330
6218
102
}
330
6218
100
DictionaryVariables
280
     0
  1
1
  0
FIELD
  5
77EF
102
{ACAD_REACTORS
330
77F4
102
}
330
77F4
100
AcDbField
  1
_text
  2
{%<\_FldIdx 0>%N}
 90
        1
360
77F3
 97
        0
 91
       63
 92
        0
 94
        8
 95
        2
 96
        0
300

 93
        1
  6
ACFD_FIELDTEXT_CHECKSUM
 93
        2
 90
        2
140
4455.0
 94
        0
300

302

304
ACVALUE_END
  7
ACFD_FIELD_VALUE
 93
        6
 90
        4
  1
{20171101N}
 94
        0
300

302

304
ACVALUE_END
301
{20171101N}
 98
       11
  0
DICTIONARY
  5
A130
330
279
100
AcDbDictionary
280
     1
281
     1
  3
ACAD_ROUNDTRIP_2008_TABLESTYLE_CELLSTYLEMAP
360
A131
  0
FIELD
  5
77F3
330
77EF
100
AcDbField
  1
AcVar
  2
\AcVar Date \f "yyyyMMdd"
 90
        0
 97
        0
 91
       63
 92
        0
 94
        8
 95
        2
 96
        0
300

 93
        1
  6
Variable
 93
        2
 90
        4
  1
Date
 94
        0
300

302

304
ACVALUE_END
  7
ACFD_FIELD_VALUE
 93
        6
 90
        8
 92
       16
310
E1070B00000001000D00250025000000
 94
        0
300
yyyyMMdd
302

304
ACVALUE_END
301
20171101
 98
        8
  0
CELLSTYLEMAP
  5
A131
102
{ACAD_REACTORS
330
A130
102
}
330
A130
100
AcDbCellStyleMap
 90
        3
300
CELLSTYLE
  1
TABLEFORMAT_BEGIN
 90
        5
170
     1
 91
        0
 92
    32768
 62
   257
 93
        1
300
CONTENTFORMAT
  1
CONTENTFORMAT_BEGIN
 90
        0
 91
        0
 92
        4
 93
        0
300

 40
0.0
140
1.0
 94
        5
 62
     0
340
17
144
6.0
309
CONTENTFORMAT_END
171
     1
301
MARGIN
  1
CELLMARGIN_BEGIN
 40
0.06
 40
0.06
 40
0.06
 40
0.06
 40
0.18
 40
0.18
309
CELLMARGIN_END
 94
        6
 95
        1
302
GRIDFORMAT
  1
GRIDFORMAT_BEGIN
 90
        0
 91
        1
 62
     0
 92
       -2
340
0
 93
        0
 40
0.045
309
GRIDFORMAT_END
 95
        2
302
GRIDFORMAT
  1
GRIDFORMAT_BEGIN
 90
        0
 91
        1
 62
     0
 92
       -2
340
0
 93
        0
 40
0.045
309
GRIDFORMAT_END
 95
        4
302
GRIDFORMAT
  1
GRIDFORMAT_BEGIN
 90
        0
 91
        1
 62
     0
 92
       -2
340
0
 93
        0
 40
0.045
309
GRIDFORMAT_END
 95
        8
302
GRIDFORMAT
  1
GRIDFORMAT_BEGIN
 90
        0
 91
        1
 62
     0
 92
       -2
340
0
 93
        0
 40
0.045
309
GRIDFORMAT_END
 95
       16
302
GRIDFORMAT
  1
GRIDFORMAT_BEGIN
 90
        0
 91
        1
 62
     0
 92
       -2
340
0
 93
        0
 40
0.045
309
GRIDFORMAT_END
 95
       32
302
GRIDFORMAT
  1
GRIDFORMAT_BEGIN
 90
        0
 91
        1
 62
     0
 92
       -2
340
0
 93
        0
 40
0.045
309
GRIDFORMAT_END
309
TABLEFORMAT_END
  1
CELLSTYLE_BEGIN
 90
        1
 91
        1
300
_TITLE
309
CELLSTYLE_END
300
CELLSTYLE
  1
TABLEFORMAT_BEGIN
 90
        5
170
     1
 91
        0
 92
        0
 62
   257
 93
        1
300
CONTENTFORMAT
  1
CONTENTFORMAT_BEGIN
 90
        0
 91
        0
 92
        4
 93
        0
300

 40
0.0
140
1.0
 94
        5
 62
     0
340
17
144
4.5
309
CONTENTFORMAT_END
171
     1
301
MARGIN
  1
CELLMARGIN_BEGIN
 40
0.06
 40
0.06
 40
0.06
 40
0.06
 40
0.18
 40
0.18
309
CELLMARGIN_END
 94
        6
 95
        1
302
GRIDFORMAT
  1
GRIDFORMAT_BEGIN
 90
        0
 91
        1
 62
     0
 92
       -2
340
0
 93
        0
 40
0.045
309
GRIDFORMAT_END
 95
        2
302
GRIDFORMAT
  1
GRIDFORMAT_BEGIN
 90
        0
 91
        1
 62
     0
 92
       -2
340
0
 93
        0
 40
0.045
309
GRIDFORMAT_END
 95
        4
302
GRIDFORMAT
  1
GRIDFORMAT_BEGIN
 90
        0
 91
        1
 62
     0
 92
       -2
340
0
 93
        0
 40
0.045
309
GRIDFORMAT_END
 95
        8
302
GRIDFORMAT
  1
GRIDFORMAT_BEGIN
 90
        0
 91
        1
 62
     0
 92
       -2
340
0
 93
        0
 40
0.045
309
GRIDFORMAT_END
 95
       16
302
GRIDFORMAT
  1
GRIDFORMAT_BEGIN
 90
        0
 91
        1
 62
     0
 92
       -2
340
0
 93
        0
 40
0.045
309
GRIDFORMAT_END
 95
       32
302
GRIDFORMAT
  1
GRIDFORMAT_BEGIN
 90
        0
 91
        1
 62
     0
 92
       -2
340
0
 93
        0
 40
0.045
309
GRIDFORMAT_END
309
TABLEFORMAT_END
  1
CELLSTYLE_BEGIN
 90
        2
 91
        1
300
_HEADER
309
CELLSTYLE_END
300
CELLSTYLE
  1
TABLEFORMAT_BEGIN
 90
        5
170
     1
 91
        0
 92
        0
 62
   257
 93
        1
300
CONTENTFORMAT
  1
CONTENTFORMAT_BEGIN
 90
        0
 91
        0
 92
        4
 93
        0
300

 40
0.0
140
1.0
 94
        2
 62
     0
340
17
144
4.5
309
CONTENTFORMAT_END
171
     1
301
MARGIN
  1
CELLMARGIN_BEGIN
 40
0.06
 40
0.06
 40
0.06
 40
0.06
 40
0.18
 40
0.18
309
CELLMARGIN_END
 94
        6
 95
        1
302
GRIDFORMAT
  1
GRIDFORMAT_BEGIN
 90
        0
 91
        1
 62
     0
 92
       -2
340
0
 93
        0
 40
0.045
309
GRIDFORMAT_END
 95
        2
302
GRIDFORMAT
  1
GRIDFORMAT_BEGIN
 90
        0
 91
        1
 62
     0
 92
       -2
340
0
 93
        0
 40
0.045
309
GRIDFORMAT_END
 95
        4
302
GRIDFORMAT
  1
GRIDFORMAT_BEGIN
 90
        0
 91
        1
 62
     0
 92
       -2
340
0
 93
        0
 40
0.045
309
GRIDFORMAT_END
 95
        8
302
GRIDFORMAT
  1
GRIDFORMAT_BEGIN
 90
        0
 91
        1
 62
     0
 92
       -2
340
0
 93
        0
 40
0.045
309
GRIDFORMAT_END
 95
       16
302
GRIDFORMAT
  1
GRIDFORMAT_BEGIN
 90
        0
 91
        1
 62
     0
 92
       -2
340
0
 93
        0
 40
0.045
309
GRIDFORMAT_END
 95
       32
302
GRIDFORMAT
  1
GRIDFORMAT_BEGIN
 90
        0
 91
        1
 62
     0
 92
       -2
340
0
 93
        0
 40
0.045
309
GRIDFORMAT_END
309
TABLEFORMAT_END
  1
CELLSTYLE_BEGIN
 90
        3
 91
        2
300
_DATA
309
CELLSTYLE_END
  0
ENDSEC
  0
EOF
