  0
SECTION
  2
HEADER
  9
$ACADVER
  1
AC1021
  9
$ACADMAINTVER
 70
    25
  9
$DWGCODEPAGE
  3
ANSI_932
  9
$LASTSAVEDBY
  1
howeNelson
  9
$INSBASE
 10
0.0
 20
0.0
 30
0.0
  9
$EXTMIN
 10
0.0
 20
0.0
 30
0.0
  9
$EXTMAX
 10
1271.601960725826
 20
940.0077293786337
 30
0.0
  9
$LIMMIN
 10
0.0
 20
0.0
  9
$LIMMAX
 10
630.0
 20
891.0
  9
$ORTHOMODE
 70
     0
  9
$REGENMODE
 70
     1
  9
$FILLMODE
 70
     1
  9
$QTEXTMODE
 70
     0
  9
$MIRRTEXT
 70
     1
  9
$LTSCALE
 40
0.25
  9
$ATTMODE
 70
     1
  9
$TEXTSIZE
 40
2.5
  9
$TRACEWID
 40
1.0
  9
$TEXTSTYLE
  7
ＭＳ ゴシック
  9
$CLAYER
  8
寸法
  9
$CELTYPE
  6
ByLayer
  9
$CECOLOR
 62
   256
  9
$CELTSCALE
 40
1.0
  9
$DISPSILH
 70
     0
  9
$DIMSCALE
 40
1.0
  9
$DIMASZ
 40
2.0
  9
$DIMEXO
 40
6.0
  9
$DIMDLI
 40
8.0
  9
$DIMRND
 40
0.0
  9
$DIMDLE
 40
0.0
  9
$DIMEXE
 40
0.0
  9
$DIMTP
 40
0.0
  9
$DIMTM
 40
0.0
  9
$DIMTXT
 40
8.0
  9
$DIMCEN
 40
0.0
  9
$DIMTSZ
 40
0.0
  9
$DIMTOL
 70
     0
  9
$DIMLIM
 70
     0
  9
$DIMTIH
 70
     0
  9
$DIMTOH
 70
     0
  9
$DIMSE1
 70
     0
  9
$DIMSE2
 70
     0
  9
$DIMTAD
 70
     1
  9
$DIMZIN
 70
    11
  9
$DIMBLK
  1
DOT
  9
$DIMASO
 70
     1
  9
$DIMSHO
 70
     1
  9
$DIMPOST
  1
<>
  9
$DIMAPOST
  1
[]
  9
$DIMALT
 70
     0
  9
$DIMALTD
 70
     1
  9
$DIMALTF
 40
1.0
  9
$DIMLFAC
 40
1.0
  9
$DIMTOFL
 70
     0
  9
$DIMTVP
 40
0.0
  9
$DIMTIX
 70
     1
  9
$DIMSOXD
 70
     0
  9
$DIMSAH
 70
     0
  9
$DIMBLK1
  1

  9
$DIMBLK2
  1

  9
$DIMSTYLE
  2
tfrom線あり
  9
$DIMCLRD
 70
     0
  9
$DIMCLRE
 70
     0
  9
$DIMCLRT
 70
     0
  9
$DIMTFAC
 40
1.0
  9
$DIMGAP
 40
5.0
  9
$DIMJUST
 70
     0
  9
$DIMSD1
 70
     0
  9
$DIMSD2
 70
     0
  9
$DIMTOLJ
 70
     1
  9
$DIMTZIN
 70
    11
  9
$DIMALTZ
 70
    11
  9
$DIMALTTZ
 70
    11
  9
$DIMUPT
 70
     0
  9
$DIMDEC
 70
     0
  9
$DIMTDEC
 70
     1
  9
$DIMALTU
 70
     2
  9
$DIMALTTD
 70
     2
  9
$DIMTXSTY
  7
ＭＳ ゴシック
  9
$DIMAUNIT
 70
     0
  9
$DIMADEC
 70
     2
  9
$DIMALTRND
 40
0.0
  9
$DIMAZIN
 70
     0
  9
$DIMDSEP
 70
    46
  9
$DIMATFIT
 70
     0
  9
$DIMFRAC
 70
     2
  9
$DIMLDRBLK
  1
DOT
  9
$DIMLUNIT
 70
     2
  9
$DIMLWD
 70
    -2
  9
$DIMLWE
 70
    -2
  9
$DIMTMOVE
 70
     0
  9
$DIMFXL
 40
1.0
  9
$DIMFXLON
 70
     0
  9
$DIMJOGANG
 40
0.7853981633974483
  9
$DIMTFILL
 70
     0
  9
$DIMTFILLCLR
 70
     0
  9
$DIMARCSYM
 70
     0
  9
$DIMLTYPE
  6

  9
$DIMLTEX1
  6

  9
$DIMLTEX2
  6

  9
$LUNITS
 70
     2
  9
$LUPREC
 70
     0
  9
$SKETCHINC
 40
0.1
  9
$FILLETRAD
 40
0.0
  9
$AUNITS
 70
     0
  9
$AUPREC
 70
     0
  9
$MENU
  1
acad
  9
$ELEVATION
 40
0.0
  9
$PELEVATION
 40
0.0
  9
$THICKNESS
 40
0.0
  9
$LIMCHECK
 70
     0
  9
$CHAMFERA
 40
0.0
  9
$CHAMFERB
 40
0.0
  9
$CHAMFERC
 40
0.0
  9
$CHAMFERD
 40
0.0
  9
$SKPOLY
 70
     0
  9
$TDCREATE
 40
2447893.375
  9
$TDUCREATE
 40
0.0
  9
$TDUPDATE
 40
2457960.424728484
  9
$TDUUPDATE
 40
2457960.049728484
  9
$TDINDWG
 40
0.0443071181
  9
$TDUSRTIMER
 40
2457960.049463032
  9
$USRTIMER
 70
     1
  9
$ANGBASE
 50
0.0
  9
$ANGDIR
 70
     0
  9
$PDMODE
 70
     1
  9
$PDSIZE
 40
-2.0
  9
$PLINEWID
 40
0.0
  9
$SPLFRAME
 70
     0
  9
$SPLINETYPE
 70
     6
  9
$SPLINESEGS
 70
     8
  9
$HANDSEED
  5
A9C1
  9
$SURFTAB1
 70
     6
  9
$SURFTAB2
 70
     6
  9
$SURFTYPE
 70
     6
  9
$SURFU
 70
     6
  9
$SURFV
 70
     6
  9
$UCSBASE
  2

  9
$UCSNAME
  2

  9
$UCSORG
 10
0.0
 20
0.0
 30
0.0
  9
$UCSXDIR
 10
1.0
 20
0.0
 30
0.0
  9
$UCSYDIR
 10
0.0
 20
1.0
 30
0.0
  9
$UCSORTHOREF
  2

  9
$UCSORTHOVIEW
 70
     0
  9
$UCSORGTOP
 10
0.0
 20
0.0
 30
0.0
  9
$UCSORGBOTTOM
 10
0.0
 20
0.0
 30
0.0
  9
$UCSORGLEFT
 10
0.0
 20
0.0
 30
0.0
  9
$UCSORGRIGHT
 10
0.0
 20
0.0
 30
0.0
  9
$UCSORGFRONT
 10
0.0
 20
0.0
 30
0.0
  9
$UCSORGBACK
 10
0.0
 20
0.0
 30
0.0
  9
$PUCSBASE
  2

  9
$PUCSNAME
  2

  9
$PUCSORG
 10
0.0
 20
0.0
 30
0.0
  9
$PUCSXDIR
 10
1.0
 20
0.0
 30
0.0
  9
$PUCSYDIR
 10
0.0
 20
1.0
 30
0.0
  9
$PUCSORTHOREF
  2

  9
$PUCSORTHOVIEW
 70
     0
  9
$PUCSORGTOP
 10
0.0
 20
0.0
 30
0.0
  9
$PUCSORGBOTTOM
 10
0.0
 20
0.0
 30
0.0
  9
$PUCSORGLEFT
 10
0.0
 20
0.0
 30
0.0
  9
$PUCSORGRIGHT
 10
0.0
 20
0.0
 30
0.0
  9
$PUCSORGFRONT
 10
0.0
 20
0.0
 30
0.0
  9
$PUCSORGBACK
 10
0.0
 20
0.0
 30
0.0
  9
$USERI1
 70
     0
  9
$USERI2
 70
     0
  9
$USERI3
 70
     0
  9
$USERI4
 70
     0
  9
$USERI5
 70
     0
  9
$USERR1
 40
0.0
  9
$USERR2
 40
0.0
  9
$USERR3
 40
0.0
  9
$USERR4
 40
0.0
  9
$USERR5
 40
0.0
  9
$WORLDVIEW
 70
     1
  9
$SHADEDGE
 70
     3
  9
$SHADEDIF
 70
    70
  9
$TILEMODE
 70
     1
  9
$MAXACTVP
 70
    64
  9
$PINSBASE
 10
0.0
 20
0.0
 30
0.0
  9
$PLIMCHECK
 70
     0
  9
$PEXTMIN
 10
0.0
 20
0.0
 30
0.0
  9
$PEXTMAX
 10
0.0
 20
0.0
 30
0.0
  9
$PLIMMIN
 10
-7.5
 20
-20.0
  9
$PLIMMAX
 10
412.5
 20
277.0
  9
$UNITMODE
 70
     0
  9
$VISRETAIN
 70
     0
  9
$PLINEGEN
 70
     1
  9
$PSLTSCALE
 70
     0
  9
$TREEDEPTH
 70
  3020
  9
$CMLSTYLE
  2
Standard
  9
$CMLJUST
 70
     0
  9
$CMLSCALE
 40
1.0
  9
$PROXYGRAPHICS
 70
     0
  9
$MEASUREMENT
 70
     1
  9
$CELWEIGHT
370
    -1
  9
$ENDCAPS
280
     0
  9
$JOINSTYLE
280
     0
  9
$LWDISPLAY
290
     1
  9
$INSUNITS
 70
     4
  9
$HYPERLINKBASE
  1

  9
$STYLESHEET
  1

  9
$XEDIT
290
     1
  9
$CEPSNTYPE
380
     0
  9
$PSTYLEMODE
290
     1
  9
$FINGERPRINTGUID
  2

  9
$VERSIONGUID
  2

  9
$EXTNAMES
290
     1
  9
$PSVPSCALE
 40
0.0
  9
$OLESTARTUP
290
     0
  9
$SORTENTS
280
   127
  9
$INDEXCTL
280
     0
  9
$HIDETEXT
280
     1
  9
$XCLIPFRAME
290
     0
  9
$HALOGAP
280
     0
  9
$OBSCOLOR
 70
   257
  9
$OBSLTYPE
280
     0
  9
$INTERSECTIONDISPLAY
280
     0
  9
$INTERSECTIONCOLOR
 70
   257
  9
$DIMASSOC
280
     2
  9
$PROJECTNAME
  1

  9
$CAMERADISPLAY
290
     0
  9
$LENSLENGTH
 40
50.0
  9
$CAMERAHEIGHT
 40
0.0
  9
$STEPSPERSEC
 40
2.0
  9
$STEPSIZE
 40
6.0
  9
$3DDWFPREC
 40
2.0
  9
$PSOLWIDTH
 40
0.25
  9
$PSOLHEIGHT
 40
4.0
  9
$LOFTANG1
 40
1.570796326794897
  9
$LOFTANG2
 40
1.570796326794897
  9
$LOFTMAG1
 40
0.0
  9
$LOFTMAG2
 40
0.0
  9
$LOFTPARAM
 70
     7
  9
$LOFTNORMALS
280
     1
  9
$LATITUDE
 40
37.795
  9
$LONGITUDE
 40
-122.394
  9
$NORTHDIRECTION
 40
0.0
  9
$TIMEZONE
 70
 -8000
  9
$LIGHTGLYPHDISPLAY
280
     1
  9
$TILEMODELIGHTSYNCH
280
     1
  9
$SOLIDHIST
280
     1
  9
$SHOWHIST
280
     1
  9
$DWFFRAME
280
     2
  9
$DGNFRAME
280
     2
  9
$REALWORLDSCALE
290
     1
  9
$INTERFERECOLOR
 62
   256
  9
$CSHADOW
280
     0
  9
$SHADOWPLANELOCATION
 40
0.0
  0
ENDSEC
  0
SECTION
  2
CLASSES
  0
CLASS
  1
LWPOLYLINE
  2
AcDbPolyline
  3
ObjectDBX Classes
 90
        0
 91
        1
280
     0
281
     1
  0
CLASS
  1
IMAGE
  2
AcDbRasterImage
  3
ISM
 90
      127
 91
       12
280
     0
281
     1
  0
CLASS
  1
OLE2FRAME
  2
AcDbOle2Frame
  3
ObjectDBX Classes
 90
        0
 91
        1
280
     0
281
     1
  0
CLASS
  1
HATCH
  2
AcDbHatch
  3
ObjectDBX Classes
 90
        0
 91
        1
280
     0
281
     1
  0
CLASS
  1
DICTIONARYVAR
  2
AcDbDictionaryVar
  3
ObjectDBX Classes
 90
        0
 91
       11
280
     0
281
     0
  0
CLASS
  1
RASTERVARIABLES
  2
AcDbRasterVariables
  3
ISM
 90
        0
 91
       11
280
     0
281
     0
  0
CLASS
  1
IMAGEDEF
  2
AcDbRasterImageDef
  3
ISM
 90
        0
 91
       11
280
     0
281
     0
  0
CLASS
  1
IMAGEDEF_REACTOR
  2
AcDbRasterImageDefReactor
  3
ISM
 90
        1
 91
       11
280
     0
281
     0
  0
CLASS
  1
IDBUFFER
  2
AcDbIdBuffer
  3
ObjectDBX Classes
 90
        0
 91
       11
280
     0
281
     0
  0
CLASS
  1
SPATIAL_FILTER
  2
AcDbSpatialFilter
  3
ObjectDBX Classes
 90
        0
 91
       11
280
     0
281
     0
  0
CLASS
  1
XRECORD
  2
AcDbXrecord
  3
ObjectDBX Classes
 90
        0
 91
        1
280
     0
281
     0
  0
CLASS
  1
SORTENTSTABLE
  2
AcDbSortentsTable
  3
ObjectDBX Classes
 90
        0
 91
       11
280
     0
281
     0
  0
CLASS
  1
LAYER_INDEX
  2
AcDbLayerIndex
  3
ObjectDBX Classes
 90
        0
 91
       11
280
     0
281
     0
  0
CLASS
  1
SPATIAL_INDEX
  2
AcDbSpatialIndex
  3
AutoCAD 2000
 90
        0
 91
       11
280
     0
281
     0
  0
CLASS
  1
OBJECT_PTR
  2
CAseDLPNTableRecord
  3
ASE-LPNTableRecord
 90
        1
 91
       11
280
     0
281
     0
  0
CLASS
  1
LAYOUT
  2
AcDbLayout
  3
ObjectDBX Classes
 90
        0
 91
        1
280
     0
281
     0
  0
CLASS
  1
PLOTSETTINGS
  2
AcDbPlotSettings
  3
ObjectDBX Classes
 90
        0
 91
       11
280
     0
281
     0
  0
CLASS
  1
ACDBDICTIONARYWDFLT
  2
AcDbDictionaryWithDefault
  3
ObjectDBX Classes
 90
        0
 91
       11
280
     0
281
     0
  0
CLASS
  1
ACDBPLACEHOLDER
  2
AcDbPlaceHolder
  3
ObjectDBX Classes
 90
        0
 91
        1
280
     0
281
     0
  0
CLASS
  1
SCALE
  2
AcDbScale
  3
ObjectDBX Classes
 90
     1153
 91
       11
280
     0
281
     0
  0
CLASS
  1
MATERIAL
  2
AcDbMaterial
  3
ObjectDBX Classes
 90
     1153
 91
       11
280
     0
281
     0
  0
CLASS
  1
VISUALSTYLE
  2
AcDbVisualStyle
  3
ObjectDBX Classes
 90
     4095
 91
       11
280
     0
281
     0
  0
CLASS
  1
TABLESTYLE
  2
AcDbTableStyle
  3
ObjectDBX Classes
 90
     4095
 91
       11
280
     0
281
     0
  0
CLASS
  1
DIMASSOC
  2
AcDbDimAssoc
  3
"AcDbDimAssoc|Product Desc:     AcDim ARX App For Dimension|Company:          Autodesk, Inc.|WEB Address:      www.autodesk.com"
 90
        0
 91
       11
280
     0
281
     0
  0
CLASS
  1
CELLSTYLEMAP
  2
AcDbCellStyleMap
  3
ObjectDBX Classes
 90
     1152
 91
       11
280
     0
281
     0
  0
CLASS
  1
SUN
  2
AcDbSun
  3
SCENEOE
 90
     1153
 91
       11
280
     0
281
     0
  0
CLASS
  1
MLEADERSTYLE
  2
AcDbMLeaderStyle
  3
ACDB_MLEADERSTYLE_CLASS
 90
     4095
 91
       11
280
     0
281
     0
  0
CLASS
  1
FIELD
  2
AcDbField
  3
ObjectDBX Classes
 90
     1152
 91
       10
280
     0
281
     0
  0
CLASS
  1
FIELDLIST
  2
AcDbFieldList
  3
ObjectDBX Classes
 90
     1152
 91
       10
280
     0
281
     0
  0
ENDSEC
  0
SECTION
  2
TABLES
  0
TABLE
  2
VPORT
  5
7
330
0
100
AcDbSymbolTable
 70
     1
  0
VPORT
  5
15
330
7
100
AcDbSymbolTableRecord
100
AcDbViewportTableRecord
  2
*ACTIVE
 70
     0
 10
0.0
 20
0.0
 11
1.0
 21
1.0
 12
315.0
 22
445.5
 13
0.0
 23
0.0
 14
1.0
 24
1.0
 15
0.0
 25
0.0
 16
0.0
 26
0.0
 36
1.0
 17
0.0
 27
0.0
 37
0.0
 40
908.82
 41
2.227272727272727
 42
50.0
 43
0.0
 44
0.0
 50
0.0
 51
0.0
 71
    16
 72
  2000
 73
     1
 74
     1
 75
     0
 76
     0
 77
     0
 78
     0
281
     0
 65
     1
110
0.0
120
0.0
130
0.0
111
1.0
121
0.0
131
0.0
112
0.0
122
1.0
132
0.0
 79
     0
146
0.0
348
9EA7
 60
     3
 61
     5
292
     1
282
     1
141
0.0
142
0.0
 63
   256
361
10E8
  0
ENDTAB
  0
TABLE
  2
LTYPE
  5
4
330
0
100
AcDbSymbolTable
 70
     3
  0
LTYPE
  5
11
330
4
100
AcDbSymbolTableRecord
100
AcDbLinetypeTableRecord
  2
ByBlock
 70
     0
  3

 72
    65
 73
     0
 40
0.0
  0
LTYPE
  5
12
330
4
100
AcDbSymbolTableRecord
100
AcDbLinetypeTableRecord
  2
ByLayer
 70
     0
  3
Solid line
 72
    65
 73
     0
 40
0.0
  0
LTYPE
  5
13
330
4
100
AcDbSymbolTableRecord
100
AcDbLinetypeTableRecord
  2
Continuous
 70
     0
  3
Solid line
 72
    65
 73
     0
 40
0.0
  0
LTYPE
  5
12C7
330
4
100
AcDbSymbolTableRecord
100
AcDbLinetypeTableRecord
  2
HIDDEN
 70
     0
  3
Hidden _ _ _ _ _ _ _ _ _ _ _ _ _ _ _ _ _ _ _ _ 
 72
    65
 73
     2
 40
9.524999999999999
 49
6.35
 74
     0
 49
-3.175
 74
     0
  0
LTYPE
  5
7831
330
4
100
AcDbSymbolTableRecord
100
AcDbLinetypeTableRecord
  2
CENTER
 70
     0
  3
 Center _____  _  _____  _  _____  _  _____  _ 
 72
    65
 73
     4
 40
50.8
 49
31.75
 74
     0
 49
-6.35
 74
     0
 49
6.35
 74
     0
 49
-6.35
 74
     0
  0
ENDTAB
  0
TABLE
  2
LAYER
  5
2
102
{ACAD_XDICTIONARY
360
2E1
102
}
330
0
100
AcDbSymbolTable
 70
    10
  0
LAYER
  5
14
330
2
100
AcDbSymbolTableRecord
100
AcDbLayerTableRecord
  2
0
 70
     0
 62
     7
  6
Continuous
370
    -3
390
1D
347
266
  0
LAYER
  5
1D5A
330
2
100
AcDbSymbolTableRecord
100
AcDbLayerTableRecord
  2
template
 70
     0
 62
     7
  6
Continuous
370
    20
390
1D
347
266
  0
LAYER
  5
1D5C
330
2
100
AcDbSymbolTableRecord
100
AcDbLayerTableRecord
  2
レイヤー 1
 70
     0
 62
     7
  6
Continuous
370
    20
390
1D
347
266
  0
LAYER
  5
3503
330
2
100
AcDbSymbolTableRecord
100
AcDbLayerTableRecord
  2
PRINT
 70
     0
 62
     4
  6
Continuous
290
     0
370
    -3
390
1D
347
266
1001
AcAecLayerStandard
1000

1000

  0
LAYER
  5
352F
330
2
100
AcDbSymbolTableRecord
100
AcDbLayerTableRecord
  2
モデル
 70
     0
 62
     7
  6
Continuous
370
    20
390
1D
347
266
1001
AcAecLayerStandard
1000

1000

  0
LAYER
  5
35BB
330
2
100
AcDbSymbolTableRecord
100
AcDbLayerTableRecord
  2
Defpoints
 70
     0
 62
     7
  6
Continuous
290
     0
370
    -3
390
1D
347
266
  0
LAYER
  5
35BF
330
2
100
AcDbSymbolTableRecord
100
AcDbLayerTableRecord
  2
寸法
 70
     0
 62
     3
  6
Continuous
370
    13
390
1D
347
266
1001
AcAecLayerStandard
1000

1000

  0
LAYER
  5
4B23
330
2
100
AcDbSymbolTableRecord
100
AcDbLayerTableRecord
  2
テンプレート
 70
     0
 62
     7
  6
Continuous
370
    20
390
1D
347
266
1001
AcAecLayerStandard
1000

1000

  0
LAYER
  5
7807
330
2
100
AcDbSymbolTableRecord
100
AcDbLayerTableRecord
  2
HIDDEN
 70
     0
 62
   252
  6
HIDDEN
370
    20
390
1D
347
266
1001
AcAecLayerStandard
1000

1000

  0
LAYER
  5
783B
330
2
100
AcDbSymbolTableRecord
100
AcDbLayerTableRecord
  2
CENTER
 70
     0
 62
   252
  6
CENTER
370
    20
390
1D
347
266
1001
AcAecLayerStandard
1000

1000

  0
ENDTAB
  0
TABLE
  2
STYLE
  5
3
330
0
100
AcDbSymbolTable
 70
     2
  0
STYLE
  5
17
330
3
100
AcDbSymbolTableRecord
100
AcDbTextStyleTableRecord
  2
Standard
 70
     0
 40
0.0
 41
1.0
 50
0.0
 71
     0
 42
2.5
  3
txt
  4
BIGFONT.SHX
  0
STYLE
  5
39
330
3
100
AcDbSymbolTableRecord
100
AcDbTextStyleTableRecord
  2
ＭＳ ゴシック
 70
     0
 40
0.0
 41
1.0
 50
0.0
 71
     0
 42
2.5
  3
msgothic.ttc
  4
ＭＳ ゴシック
1001
ACAD
1000
ＭＳ ゴシック
1071
        0
  0
ENDTAB
  0
TABLE
  2
VIEW
  5
5
330
0
100
AcDbSymbolTable
 70
     0
  0
ENDTAB
  0
TABLE
  2
UCS
  5
6
330
0
100
AcDbSymbolTable
 70
     0
  0
ENDTAB
  0
TABLE
  2
APPID
  5
8
330
0
100
AcDbSymbolTable
 70
     3
  0
APPID
  5
16
330
8
100
AcDbSymbolTableRecord
100
AcDbRegAppTableRecord
  2
ACAD
 70
     0
  0
APPID
  5
7AC
330
8
100
AcDbSymbolTableRecord
100
AcDbRegAppTableRecord
  2
AcAecLayerStandard
 70
     0
  0
APPID
  5
4E1E
330
8
100
AcDbSymbolTableRecord
100
AcDbRegAppTableRecord
  2
ACAD_MLEADERVER
 70
     0
  0
ENDTAB
  0
TABLE
  2
DIMSTYLE
  5
9
330
0
100
AcDbSymbolTable
 70
     2
100
AcDbDimStyleTable
  0
DIMSTYLE
105
18
330
9
100
AcDbSymbolTableRecord
100
AcDbDimStyleTableRecord
  2
Standard
 70
     0
178
     0
340
17
  0
DIMSTYLE
105
57
102
{ACAD_REACTORS
330
A66A
330
A679
330
A6C5
330
A717
330
A726
330
A7AC
330
A7BC
330
A7CB
330
A7DD
330
A84F
330
A85F
330
A99D
102
}
330
9
100
AcDbSymbolTableRecord
100
AcDbDimStyleTableRecord
  2
tfrom線あり
 70
     0
  3
<>
  4
[]
 41
2.0
 42
6.0
 43
8.0
 44
0.0
 73
     0
 74
     0
 77
     1
 78
    11
140
8.0
141
0.0
143
1.0
147
5.0
171
     1
174
     1
178
     0
179
     2
271
     0
272
     1
276
     2
284
    11
285
    11
286
    11
289
     0
340
39
341
4E
342
4E
  0
ENDTAB
  0
TABLE
  2
BLOCK_RECORD
  5
1
330
0
100
AcDbSymbolTable
 70
    38
  0
BLOCK_RECORD
  5
A
330
1
100
AcDbSymbolTableRecord
100
AcDbBlockTableRecord
  2
*MODEL_SPACE
340
20
 70
     0
280
     1
281
     0
  0
BLOCK_RECORD
  5
B
330
1
100
AcDbSymbolTableRecord
100
AcDbBlockTableRecord
  2
*PAPER_SPACE
340
21
 70
     0
280
     1
281
     0
  0
BLOCK_RECORD
  5
4E
330
1
100
AcDbSymbolTableRecord
100
AcDbBlockTableRecord
  2
_DOT
340
0
102
{BLKREFS
331
A14E
331
A14F
331
A15A
331
A15B
331
A166
331
A167
331
A172
331
A173
331
A17E
331
A17F
331
A18A
331
A18B
331
A196
331
A197
331
A1A2
331
A1A3
331
A1AE
331
A1AF
331
A1BA
331
A1BB
331
A64F
331
A650
331
A65E
331
A65F
331
A673
331
A674
331
A680
331
A681
331
A6CE
331
A6CF
331
A6E1
331
A6E2
331
A6F1
331
A6F2
331
A700
331
A701
331
A70F
331
A710
331
A720
331
A721
331
A72D
331
A72E
331
A77C
331
A77D
331
A79B
331
A79C
331
A7B5
331
A7B6
331
A7C5
331
A7C6
331
A7D4
331
A7D5
331
A7E6
331
A7E7
331
A834
331
A835
331
A858
331
A859
331
A868
331
A869
331
A9A6
331
A9A7
102
}
 70
     0
280
     1
281
     0
  0
BLOCK_RECORD
  5
12C3
330
1
100
AcDbSymbolTableRecord
100
AcDbBlockTableRecord
  2
*Paper_Space1
340
12C4
 70
     0
280
     1
281
     0
  0
BLOCK_RECORD
  5
1D88
330
1
100
AcDbSymbolTableRecord
100
AcDbBlockTableRecord
  2
名称未設定-1
340
0
102
{BLKREFS
331
A078
102
}
 70
     1
280
     1
281
     0
  0
BLOCK_RECORD
  5
1D8B
330
1
100
AcDbSymbolTableRecord
100
AcDbBlockTableRecord
  2
block 2
340
0
102
{BLKREFS
331
1D8A
102
}
 70
     0
280
     1
281
     0
  0
BLOCK_RECORD
  5
1D8E
330
1
100
AcDbSymbolTableRecord
100
AcDbBlockTableRecord
  2
block 3
340
0
102
{BLKREFS
331
1D8D
102
}
 70
     0
280
     1
281
     0
  0
BLOCK_RECORD
  5
1D91
330
1
100
AcDbSymbolTableRecord
100
AcDbBlockTableRecord
  2
block 4
340
0
102
{BLKREFS
331
1D90
102
}
 70
     0
280
     1
281
     0
  0
BLOCK_RECORD
  5
1DA0
330
1
100
AcDbSymbolTableRecord
100
AcDbBlockTableRecord
  2
block 5
340
0
102
{BLKREFS
331
1D9F
102
}
 70
     0
280
     1
281
     0
  0
BLOCK_RECORD
  5
A148
330
1
100
AcDbSymbolTableRecord
100
AcDbBlockTableRecord
  2
*D7
340
0
 70
     0
280
     1
281
     0
  0
BLOCK_RECORD
  5
A154
330
1
100
AcDbSymbolTableRecord
100
AcDbBlockTableRecord
  2
*D8
340
0
 70
     0
280
     1
281
     0
  0
BLOCK_RECORD
  5
A160
330
1
100
AcDbSymbolTableRecord
100
AcDbBlockTableRecord
  2
*D9
340
0
 70
     0
280
     1
281
     0
  0
BLOCK_RECORD
  5
A16C
330
1
100
AcDbSymbolTableRecord
100
AcDbBlockTableRecord
  2
*D10
340
0
 70
     0
280
     1
281
     0
  0
BLOCK_RECORD
  5
A178
330
1
100
AcDbSymbolTableRecord
100
AcDbBlockTableRecord
  2
*D11
340
0
 70
     0
280
     1
281
     0
  0
BLOCK_RECORD
  5
A184
330
1
100
AcDbSymbolTableRecord
100
AcDbBlockTableRecord
  2
*D12
340
0
 70
     0
280
     1
281
     0
  0
BLOCK_RECORD
  5
A190
330
1
100
AcDbSymbolTableRecord
100
AcDbBlockTableRecord
  2
*D13
340
0
 70
     0
280
     1
281
     0
  0
BLOCK_RECORD
  5
A19C
330
1
100
AcDbSymbolTableRecord
100
AcDbBlockTableRecord
  2
*D14
340
0
 70
     0
280
     1
281
     0
  0
BLOCK_RECORD
  5
A1A8
330
1
100
AcDbSymbolTableRecord
100
AcDbBlockTableRecord
  2
*D15
340
0
 70
     0
280
     1
281
     0
  0
BLOCK_RECORD
  5
A1B4
330
1
100
AcDbSymbolTableRecord
100
AcDbBlockTableRecord
  2
*D16
340
0
 70
     0
280
     1
281
     0
  0
BLOCK_RECORD
  5
A649
330
1
100
AcDbSymbolTableRecord
100
AcDbBlockTableRecord
  2
*D17
340
0
 70
     0
280
     1
281
     0
  0
BLOCK_RECORD
  5
A658
330
1
100
AcDbSymbolTableRecord
100
AcDbBlockTableRecord
  2
*D18
340
0
 70
     0
280
     1
281
     0
  0
BLOCK_RECORD
  5
A66D
330
1
100
AcDbSymbolTableRecord
100
AcDbBlockTableRecord
  2
*D19
340
0
 70
     0
280
     1
281
     0
  0
BLOCK_RECORD
  5
A67A
330
1
100
AcDbSymbolTableRecord
100
AcDbBlockTableRecord
  2
*D20
340
0
 70
     0
280
     1
281
     0
  0
BLOCK_RECORD
  5
A6C8
330
1
100
AcDbSymbolTableRecord
100
AcDbBlockTableRecord
  2
*D21
340
0
 70
     0
280
     1
281
     0
  0
BLOCK_RECORD
  5
A6DB
330
1
100
AcDbSymbolTableRecord
100
AcDbBlockTableRecord
  2
*D22
340
0
 70
     0
280
     1
281
     0
  0
BLOCK_RECORD
  5
A6EB
330
1
100
AcDbSymbolTableRecord
100
AcDbBlockTableRecord
  2
*D23
340
0
 70
     0
280
     1
281
     0
  0
BLOCK_RECORD
  5
A6FA
330
1
100
AcDbSymbolTableRecord
100
AcDbBlockTableRecord
  2
*D24
340
0
 70
     0
280
     1
281
     0
  0
BLOCK_RECORD
  5
A709
330
1
100
AcDbSymbolTableRecord
100
AcDbBlockTableRecord
  2
*D25
340
0
 70
     0
280
     1
281
     0
  0
BLOCK_RECORD
  5
A71A
330
1
100
AcDbSymbolTableRecord
100
AcDbBlockTableRecord
  2
*D26
340
0
 70
     0
280
     1
281
     0
  0
BLOCK_RECORD
  5
A727
330
1
100
AcDbSymbolTableRecord
100
AcDbBlockTableRecord
  2
*D27
340
0
 70
     0
280
     1
281
     0
  0
BLOCK_RECORD
  5
A777
330
1
100
AcDbSymbolTableRecord
100
AcDbBlockTableRecord
  2
*D28
340
0
 70
     0
280
     1
281
     0
  0
BLOCK_RECORD
  5
A795
330
1
100
AcDbSymbolTableRecord
100
AcDbBlockTableRecord
  2
*D29
340
0
 70
     0
280
     1
281
     0
  0
BLOCK_RECORD
  5
A7AF
330
1
100
AcDbSymbolTableRecord
100
AcDbBlockTableRecord
  2
*D30
340
0
 70
     0
280
     1
281
     0
  0
BLOCK_RECORD
  5
A7BF
330
1
100
AcDbSymbolTableRecord
100
AcDbBlockTableRecord
  2
*D31
340
0
 70
     0
280
     1
281
     0
  0
BLOCK_RECORD
  5
A7CE
330
1
100
AcDbSymbolTableRecord
100
AcDbBlockTableRecord
  2
*D32
340
0
 70
     0
280
     1
281
     0
  0
BLOCK_RECORD
  5
A7E0
330
1
100
AcDbSymbolTableRecord
100
AcDbBlockTableRecord
  2
*D33
340
0
 70
     0
280
     1
281
     0
  0
BLOCK_RECORD
  5
A82F
330
1
100
AcDbSymbolTableRecord
100
AcDbBlockTableRecord
  2
*D34
340
0
 70
     0
280
     1
281
     0
  0
BLOCK_RECORD
  5
A852
330
1
100
AcDbSymbolTableRecord
100
AcDbBlockTableRecord
  2
*D35
340
0
 70
     0
280
     1
281
     0
  0
BLOCK_RECORD
  5
A862
330
1
100
AcDbSymbolTableRecord
100
AcDbBlockTableRecord
  2
*D36
340
0
 70
     0
280
     1
281
     0
  0
BLOCK_RECORD
  5
A9A0
330
1
100
AcDbSymbolTableRecord
100
AcDbBlockTableRecord
  2
*D37
340
0
 70
     0
280
     1
281
     0
  0
ENDTAB
  0
ENDSEC
  0
SECTION
  2
BLOCKS
  0
BLOCK
  5
D
330
A
100
AcDbEntity
  8
0
390
1D
100
AcDbBlockBegin
  2
*MODEL_SPACE
 70
     0
 10
0.0
 20
0.0
 30
0.0
  3
*MODEL_SPACE
  1
*MODEL_SPACE
  0
ENDBLK
  5
E
330
A
100
AcDbEntity
  8
0
390
1D
100
AcDbBlockEnd
  0
BLOCK
  5
F
330
B
100
AcDbEntity
 67
     1
  8
0
390
1D
100
AcDbBlockBegin
  2
*PAPER_SPACE
 70
     0
 10
0.0
 20
0.0
 30
0.0
  3
*PAPER_SPACE
  1
*PAPER_SPACE
  0
ENDBLK
  5
10
330
B
100
AcDbEntity
 67
     1
  8
0
390
1D
100
AcDbBlockEnd
  0
BLOCK
  5
7EEC
330
4E
100
AcDbEntity
  8
0
390
1D
100
AcDbBlockBegin
  2
_DOT
 70
     0
 10
0.0
 20
0.0
 30
0.0
  3
_DOT
  1
_DOT
  0
POLYLINE
  5
7EEE
330
4E
100
AcDbEntity
  8
0
  6
ByBlock
 62
     0
370
    -2
390
1D
100
AcDb2dPolyline
 66
     1
 10
0.0
 20
0.0
 30
0.0
 70
     1
 40
0.5
 41
0.5
  0
VERTEX
  5
7EEF
330
7EEE
100
AcDbEntity
  8
0
  6
ByBlock
 62
     0
370
    -2
390
1D
100
AcDbVertex
100
AcDb2dVertex
 10
-0.25
 20
0.0
 30
0.0
 42
1.0
  0
VERTEX
  5
7EF0
330
7EEE
100
AcDbEntity
  8
0
  6
ByBlock
 62
     0
370
    -2
390
1D
100
AcDbVertex
100
AcDb2dVertex
 10
0.25
 20
0.0
 30
0.0
 42
1.0
  0
SEQEND
  5
7EF1
330
7EEE
100
AcDbEntity
  8
0
390
1D
  0
LINE
  5
7EF2
330
4E
100
AcDbEntity
  8
0
  6
ByBlock
 62
     0
370
    -2
390
1D
100
AcDbLine
 10
-0.5
 20
0.0
 30
0.0
 11
-1.0
 21
0.0
 31
0.0
  0
ENDBLK
  5
7EF3
330
4E
100
AcDbEntity
  8
0
390
1D
100
AcDbBlockEnd
  0
BLOCK
  5
12C5
330
12C3
100
AcDbEntity
  8
0
100
AcDbBlockBegin
  2
*Paper_Space1
 70
     0
 10
0.0
 20
0.0
 30
0.0
  3
*Paper_Space1
  1
*Paper_Space83
  0
ENDBLK
  5
12C6
330
12C3
100
AcDbEntity
  8
0
100
AcDbBlockEnd
  0
BLOCK
  5
1D89
330
1D88
100
AcDbEntity
  8
0
100
AcDbBlockBegin
  2
名称未設定-1
 70
     0
 10
0.0
 20
0.0
 30
0.0
  3
名称未設定-1
  1
名称未設定-1
  0
INSERT
  5
1D8A
330
1D88
100
AcDbEntity
  8
レイヤー 1
100
AcDbBlockReference
  2
block 2
 10
0.0
 20
0.0
 30
0.0
  0
ENDBLK
  5
1DAF
330
1D88
100
AcDbEntity
  8
0
100
AcDbBlockEnd
  0
BLOCK
  5
1D8C
330
1D8B
100
AcDbEntity
  8
0
100
AcDbBlockBegin
  2
block 2
 70
     0
 10
0.0
 20
0.0
 30
0.0
  3
block 2
  1
block 2
  0
INSERT
  5
1D8D
330
1D8B
100
AcDbEntity
  8
レイヤー 1
100
AcDbBlockReference
  2
block 3
 10
0.0
 20
0.0
 30
0.0
  0
ENDBLK
  5
1DAE
330
1D8B
100
AcDbEntity
  8
0
100
AcDbBlockEnd
  0
BLOCK
  5
1D8F
330
1D8E
100
AcDbEntity
  8
0
100
AcDbBlockBegin
  2
block 3
 70
     0
 10
0.0
 20
0.0
 30
0.0
  3
block 3
  1
block 3
  0
INSERT
  5
1D90
330
1D8E
100
AcDbEntity
  8
レイヤー 1
100
AcDbBlockReference
  2
block 4
 10
0.0
 20
0.0
 30
0.0
  0
ENDBLK
  5
1DAD
330
1D8E
100
AcDbEntity
  8
0
100
AcDbBlockEnd
  0
BLOCK
  5
1D92
330
1D91
100
AcDbEntity
  8
0
100
AcDbBlockBegin
  2
block 4
 70
     0
 10
0.0
 20
0.0
 30
0.0
  3
block 4
  1
block 4
  0
POLYLINE
  5
1D93
330
1D91
100
AcDbEntity
  8
レイヤー 1
370
     0
100
AcDb2dPolyline
 66
     1
 10
0.0
 20
0.0
 30
0.0
  0
VERTEX
  5
1D94
330
1D93
100
AcDbEntity
  8
レイヤー 1
370
     0
100
AcDbVertex
100
AcDb2dVertex
 10
83.79545727667795
 20
167.6444858234922
 30
0.0
  0
VERTEX
  5
1D95
330
1D93
100
AcDbEntity
  8
レイヤー 1
370
     0
100
AcDbVertex
100
AcDb2dVertex
 10
83.79545727667795
 20
159.7968976406313
 30
0.0
  0
VERTEX
  5
1D96
330
1D93
100
AcDbEntity
  8
レイヤー 1
370
     0
100
AcDbVertex
100
AcDb2dVertex
 10
71.3631329975216
 20
159.7968976406313
 30
0.0
  0
VERTEX
  5
1D97
330
1D93
100
AcDbEntity
  8
レイヤー 1
370
     0
100
AcDbVertex
100
AcDb2dVertex
 10
71.3631329975216
 20
127.8027915271048
 30
0.0
  0
VERTEX
  5
1D98
330
1D93
100
AcDbEntity
  8
レイヤー 1
370
     0
100
AcDbVertex
100
AcDb2dVertex
 10
60.43011526263018
 20
127.8027915271048
 30
0.0
  0
VERTEX
  5
1D99
330
1D93
100
AcDbEntity
  8
レイヤー 1
370
     0
100
AcDbVertex
100
AcDb2dVertex
 10
60.43011526263018
 20
159.7968976406313
 30
0.0
  0
VERTEX
  5
1D9A
330
1D93
100
AcDbEntity
  8
レイヤー 1
370
     0
100
AcDbVertex
100
AcDb2dVertex
 10
48.21793273020759
 20
159.7968976406313
 30
0.0
  0
VERTEX
  5
1D9B
330
1D93
100
AcDbEntity
  8
レイヤー 1
370
     0
100
AcDbVertex
100
AcDb2dVertex
 10
48.21793273020759
 20
167.6444858234922
 30
0.0
  0
VERTEX
  5
1D9C
330
1D93
100
AcDbEntity
  8
レイヤー 1
370
     0
100
AcDbVertex
100
AcDb2dVertex
 10
83.79545727667795
 20
167.6444858234922
 30
0.0
  0
SEQEND
  5
1D9D
330
1D93
100
AcDbEntity
  8
レイヤー 1
370
     0
  0
HATCH
  5
1D9E
330
1D91
100
AcDbEntity
  8
レイヤー 1
 62
    18
420
        0
100
AcDbHatch
 10
0.0
 20
0.0
 30
0.0
210
0.0
220
0.0
230
1.0
  2
SOLID
 70
     1
 71
     0
 91
        1
 92
        1
 93
        8
 72
     1
 10
83.79545727667755
 20
167.6444858234922
 11
83.79545727667755
 21
159.7968976406313
 72
     1
 10
83.79545727667755
 20
159.7968976406313
 11
71.3631329975212
 21
159.7968976406313
 72
     1
 10
71.363132997521
 20
159.7968976406313
 11
71.363132997521
 21
127.8027915271048
 72
     1
 10
71.363132997521
 20
127.8027915271048
 11
60.43011526262958
 21
127.8027915271048
 72
     1
 10
60.4301152626299
 20
127.8027915271048
 11
60.4301152626299
 21
159.7968976406313
 72
     1
 10
60.4301152626299
 20
159.7968976406313
 11
48.21793273020731
 21
159.7968976406313
 72
     1
 10
48.21793273020694
 20
159.7968976406313
 11
48.21793273020694
 21
167.6444858234922
 72
     1
 10
48.21793273020694
 20
167.6444858234922
 11
83.7954572766773
 21
167.6444858234922
 97
        0
 75
     2
 76
     1
 98
        0
  0
INSERT
  5
1D9F
330
1D91
100
AcDbEntity
  8
レイヤー 1
100
AcDbBlockReference
  2
block 5
 10
-0.0000000000004547
 20
-0.0000000000000071
 30
0.0
  0
ENDBLK
  5
1DAC
330
1D91
100
AcDbEntity
  8
0
100
AcDbBlockEnd
  0
BLOCK
  5
1DA1
330
1DA0
100
AcDbEntity
  8
0
100
AcDbBlockBegin
  2
block 5
 70
     0
 10
0.0
 20
0.0
 30
0.0
  3
block 5
  1
block 5
  0
SPLINE
  5
1DA2
330
1DA0
100
AcDbEntity
  8
レイヤー 1
 62
    18
420
        0
370
     0
100
AcDbSpline
210
0.0
220
0.0
230
1.0
 70
    11
 71
     3
 72
    56
 73
    52
 74
     0
 42
0.000000001
 43
0.0000000001
 40
0.0
 40
0.0
 40
0.0
 40
0.0
 40
1.0
 40
1.0
 40
1.0
 40
2.0
 40
2.0
 40
2.0
 40
3.0
 40
3.0
 40
3.0
 40
4.0
 40
4.0
 40
4.0
 40
5.0
 40
5.0
 40
5.0
 40
6.0
 40
6.0
 40
6.0
 40
7.0
 40
7.0
 40
7.0
 40
8.0
 40
8.0
 40
8.0
 40
9.0
 40
9.0
 40
9.0
 40
10.0
 40
10.0
 40
10.0
 40
11.0
 40
11.0
 40
11.0
 40
12.0
 40
12.0
 40
12.0
 40
13.0
 40
13.0
 40
13.0
 40
14.0
 40
14.0
 40
14.0
 40
15.0
 40
15.0
 40
15.0
 40
16.0
 40
16.0
 40
16.0
 40
17.0
 40
17.0
 40
17.0
 40
17.0
 10
100.4504378777674
 20
166.69157178364
 30
0.0
 10
101.9848844191633
 20
167.1313385124438
 30
0.0
 10
103.9637485713365
 20
166.7649523658846
 30
0.0
 10
103.9637485713365
 20
166.7649523658846
 30
0.0
 10
103.9637485713365
 20
166.7649523658846
 30
0.0
 10
103.0132460999152
 20
163.911205638077
 30
0.0
 10
103.0132460999152
 20
163.911205638077
 30
0.0
 10
103.0132460999152
 20
163.911205638077
 30
0.0
 10
101.0674548862185
 20
164.3601018759394
 30
0.0
 10
99.57090442015988
 20
163.1805004036133
 30
0.0
 10
98.40508333886555
 20
162.258247733807
 30
0.0
 10
97.65301849830257
 20
159.804132345923
 30
0.0
 10
97.35984067909976
 20
158.8699940888517
 30
0.0
 10
97.35984067909976
 20
158.8699940888517
 30
0.0
 10
96.07137411762233
 20
154.9119212747295
 30
0.0
 10
96.07137411762233
 20
154.9119212747295
 30
0.0
 10
96.07137411762233
 20
154.9119212747295
 30
0.0
 10
100.3012651448475
 20
154.9119212747295
 30
0.0
 10
100.3012651448475
 20
154.9119212747295
 30
0.0
 10
100.3012651448475
 20
154.9119212747295
 30
0.0
 10
99.64152892419816
 20
152.4199098115079
 30
0.0
 10
99.64152892419816
 20
152.4199098115079
 30
0.0
 10
99.64152892419816
 20
152.4199098115079
 30
0.0
 10
95.38097652692659
 20
152.4199098115079
 30
0.0
 10
95.38097652692659
 20
152.4199098115079
 30
0.0
 10
95.38097652692659
 20
152.4199098115079
 30
0.0
 10
87.75353009079981
 20
127.8027915271048
 30
0.0
 10
87.75353009079981
 20
127.8027915271048
 30
0.0
 10
87.75353009079981
 20
127.8027915271048
 30
0.0
 10
85.36538832498036
 20
127.8027915271048
 30
0.0
 10
85.36538832498036
 20
127.8027915271048
 30
0.0
 10
85.36538832498036
 20
127.8027915271048
 30
0.0
 10
93.00006946639951
 20
152.4199098115079
 30
0.0
 10
93.00006946639951
 20
152.4199098115079
 30
0.0
 10
93.00006946639951
 20
152.4199098115079
 30
0.0
 10
89.85297266450152
 20
152.4199098115079
 30
0.0
 10
89.85297266450152
 20
152.4199098115079
 30
0.0
 10
89.85297266450152
 20
152.4199098115079
 30
0.0
 10
90.51270888515091
 20
154.9119212747295
 30
0.0
 10
90.51270888515091
 20
154.9119212747295
 30
0.0
 10
90.51270888515091
 20
154.9119212747295
 30
0.0
 10
93.69046705709525
 20
154.9119212747295
 30
0.0
 10
93.69046705709525
 20
154.9119212747295
 30
0.0
 10
93.69046705709525
 20
154.9119212747295
 30
0.0
 10
94.81598049462082
 20
158.3616699146644
 30
0.0
 10
94.81598049462082
 20
158.3616699146644
 30
0.0
 10
95.72376375384374
 20
161.2605474231013
 30
0.0
 10
96.49684369073066
 20
162.8139420021662
 30
0.0
 10
97.1565799113805
 20
163.9844139654337
 30
0.0
 10
97.81183750494438
 20
165.1523021053827
 30
0.0
 10
99.10478269350733
 20
166.3084769129547
 30
0.0
 10
100.4504378777674
 20
166.69157178364
 30
0.0
  0
HATCH
  5
1DA3
330
1DA0
100
AcDbEntity
  8
レイヤー 1
 62
    18
420
        0
100
AcDbHatch
 10
0.0
 20
0.0
 30
0.0
210
0.0
220
0.0
230
1.0
  2
SOLID
 70
     1
 71
     0
 91
        1
 92
        1
 93
        1
 72
     4
 94
        3
 73
     0
 74
     1
 95
       56
 96
       52
 40
0.0
 40
0.0
 40
0.0
 40
0.0
 40
1.0
 40
1.0
 40
1.0
 40
2.0
 40
2.0
 40
2.0
 40
3.0
 40
3.0
 40
3.0
 40
4.0
 40
4.0
 40
4.0
 40
5.0
 40
5.0
 40
5.0
 40
6.0
 40
6.0
 40
6.0
 40
7.0
 40
7.0
 40
7.0
 40
8.0
 40
8.0
 40
8.0
 40
9.0
 40
9.0
 40
9.0
 40
10.0
 40
10.0
 40
10.0
 40
11.0
 40
11.0
 40
11.0
 40
12.0
 40
12.0
 40
12.0
 40
13.0
 40
13.0
 40
13.0
 40
14.0
 40
14.0
 40
14.0
 40
15.0
 40
15.0
 40
15.0
 40
16.0
 40
16.0
 40
16.0
 40
17.0
 40
17.0
 40
17.0
 40
17.0
 10
100.4504378777674
 20
166.69157178364
 10
101.9848844191633
 20
167.1313385124438
 10
103.9637485713365
 20
166.7649523658846
 10
103.9637485713365
 20
166.7649523658846
 10
103.9637485713365
 20
166.7649523658846
 10
103.0132460999152
 20
163.911205638077
 10
103.0132460999152
 20
163.911205638077
 10
103.0132460999152
 20
163.911205638077
 10
101.0674548862185
 20
164.3601018759394
 10
99.57090442015988
 20
163.1805004036133
 10
98.40508333886555
 20
162.258247733807
 10
97.65301849830257
 20
159.804132345923
 10
97.35984067909976
 20
158.8699940888517
 10
97.35984067909976
 20
158.8699940888517
 10
96.07137411762233
 20
154.9119212747295
 10
96.07137411762233
 20
154.9119212747295
 10
96.07137411762233
 20
154.9119212747295
 10
100.3012651448475
 20
154.9119212747295
 10
100.3012651448475
 20
154.9119212747295
 10
100.3012651448475
 20
154.9119212747295
 10
99.64152892419816
 20
152.4199098115079
 10
99.64152892419816
 20
152.4199098115079
 10
99.64152892419816
 20
152.4199098115079
 10
95.38097652692659
 20
152.4199098115079
 10
95.38097652692659
 20
152.4199098115079
 10
95.38097652692659
 20
152.4199098115079
 10
87.75353009079981
 20
127.8027915271048
 10
87.75353009079981
 20
127.8027915271048
 10
87.75353009079981
 20
127.8027915271048
 10
85.36538832498036
 20
127.8027915271048
 10
85.36538832498036
 20
127.8027915271048
 10
85.36538832498036
 20
127.8027915271048
 10
93.00006946639951
 20
152.4199098115079
 10
93.00006946639951
 20
152.4199098115079
 10
93.00006946639951
 20
152.4199098115079
 10
89.85297266450152
 20
152.4199098115079
 10
89.85297266450152
 20
152.4199098115079
 10
89.85297266450152
 20
152.4199098115079
 10
90.51270888515091
 20
154.9119212747295
 10
90.51270888515091
 20
154.9119212747295
 10
90.51270888515091
 20
154.9119212747295
 10
93.69046705709525
 20
154.9119212747295
 10
93.69046705709525
 20
154.9119212747295
 10
93.69046705709525
 20
154.9119212747295
 10
94.81598049462082
 20
158.3616699146644
 10
94.81598049462082
 20
158.3616699146644
 10
95.72376375384374
 20
161.2605474231013
 10
96.49684369073066
 20
162.8139420021662
 10
97.1565799113805
 20
163.9844139654337
 10
97.81183750494438
 20
165.1523021053827
 10
99.10478269350733
 20
166.3084769129547
 10
100.4504378777674
 20
166.69157178364
 97
        0
 75
     2
 76
     1
 98
        0
  0
SPLINE
  5
1DA4
330
1DA0
100
AcDbEntity
  8
レイヤー 1
370
     0
100
AcDbSpline
210
0.0
220
0.0
230
1.0
 70
    11
 71
     3
 72
    38
 73
    34
 74
     0
 42
0.000000001
 43
0.0000000001
 40
0.0
 40
0.0
 40
0.0
 40
0.0
 40
1.0
 40
1.0
 40
1.0
 40
2.0
 40
2.0
 40
2.0
 40
3.0
 40
3.0
 40
3.0
 40
4.0
 40
4.0
 40
4.0
 40
5.0
 40
5.0
 40
5.0
 40
6.0
 40
6.0
 40
6.0
 40
7.0
 40
7.0
 40
7.0
 40
8.0
 40
8.0
 40
8.0
 40
9.0
 40
9.0
 40
9.0
 40
10.0
 40
10.0
 40
10.0
 40
11.0
 40
11.0
 40
11.0
 40
11.0
 10
126.377554584636
 20
154.8151140277308
 30
0.0
 10
126.377554584636
 20
154.8151140277308
 30
0.0
 10
128.8311532078563
 20
154.8151140277308
 30
0.0
 10
128.8311532078563
 20
154.8151140277308
 30
0.0
 10
128.8311532078563
 20
154.8151140277308
 30
0.0
 10
127.7345785914971
 20
151.3062819612468
 30
0.0
 10
127.7345785914971
 20
151.3062819612468
 30
0.0
 10
128.571392836906
 20
152.2922689395754
 30
0.0
 10
129.8860421413442
 20
153.604506675583
 30
0.0
 10
131.0163787157314
 20
154.2664822097754
 30
0.0
 10
132.7044766171327
 20
155.2500576196734
 30
0.0
 10
133.6642808525008
 20
155.3847609420097
 30
0.0
 10
134.7284715499351
 20
155.3565111403944
 30
0.0
 10
134.7284715499351
 20
155.3565111403944
 30
0.0
 10
133.6877075172549
 20
152.0345756272799
 30
0.0
 10
133.6877075172549
 20
152.0345756272799
 30
0.0
 10
133.011434827367
 20
152.3184516825359
 30
0.0
 10
130.930940291334
 20
151.7768823149844
 30
0.0
 10
129.739280976855
 20
150.9162968950455
 30
0.0
 10
128.66613302525
 20
150.1454562717016
 30
0.0
 10
127.9192358313239
 20
149.4857200510519
 30
0.0
 10
127.0393578639405
 20
147.8282835196966
 30
0.0
 10
126.164647543194
 20
146.1699857139017
 30
0.0
 10
125.4742499524985
 20
143.5262176944419
 30
0.0
 10
124.2822461282437
 20
139.6959580071401
 30
0.0
 10
124.2822461282437
 20
139.6959580071401
 30
0.0
 10
120.5753209406769
 20
127.8027915271048
 30
0.0
 10
120.5753209406769
 20
127.8027915271048
 30
0.0
 10
120.5753209406769
 20
127.8027915271048
 30
0.0
 10
118.1964809388044
 20
127.8027915271048
 30
0.0
 10
118.1964809388044
 20
127.8027915271048
 30
0.0
 10
118.1964809388044
 20
127.8027915271048
 30
0.0
 10
126.377554584636
 20
154.8151140277308
 30
0.0
 10
126.377554584636
 20
154.8151140277308
 30
0.0
  0
HATCH
  5
1DA5
330
1DA0
100
AcDbEntity
  8
レイヤー 1
 62
    18
420
        0
100
AcDbHatch
 10
0.0
 20
0.0
 30
0.0
210
0.0
220
0.0
230
1.0
  2
SOLID
 70
     1
 71
     0
 91
        1
 92
        1
 93
        1
 72
     4
 94
        3
 73
     0
 74
     1
 95
       38
 96
       34
 40
0.0
 40
0.0
 40
0.0
 40
0.0
 40
1.0
 40
1.0
 40
1.0
 40
2.0
 40
2.0
 40
2.0
 40
3.0
 40
3.0
 40
3.0
 40
4.0
 40
4.0
 40
4.0
 40
5.0
 40
5.0
 40
5.0
 40
6.0
 40
6.0
 40
6.0
 40
7.0
 40
7.0
 40
7.0
 40
8.0
 40
8.0
 40
8.0
 40
9.0
 40
9.0
 40
9.0
 40
10.0
 40
10.0
 40
10.0
 40
11.0
 40
11.0
 40
11.0
 40
11.0
 10
126.3775545846356
 20
154.8151140277308
 10
126.3775545846356
 20
154.8151140277308
 10
128.8311532078556
 20
154.8151140277308
 10
128.8311532078556
 20
154.8151140277308
 10
128.8311532078556
 20
154.8151140277308
 10
127.7345785914968
 20
151.3062819612468
 10
127.7345785914968
 20
151.3062819612468
 10
128.5713928369055
 20
152.2922689395754
 10
129.8860421413438
 20
153.604506675583
 10
131.0163787157308
 20
154.2664822097754
 10
132.7044766171321
 20
155.2500576196734
 10
133.6642808525003
 20
155.3847609420097
 10
134.7284715499345
 20
155.3565111403944
 10
134.7284715499345
 20
155.3565111403944
 10
133.6877075172542
 20
152.0345756272799
 10
133.6877075172542
 20
152.0345756272799
 10
133.0114348273664
 20
152.3184516825359
 10
130.9309402913336
 20
151.7768823149844
 10
129.7392809768544
 20
150.9162968950455
 10
128.6661330252496
 20
150.1454562717016
 10
127.9192358313235
 20
149.4857200510519
 10
127.03935786394
 20
147.8282835196966
 10
126.1646475431935
 20
146.1699857139017
 10
125.4742499524982
 20
143.5262176944419
 10
124.2822461282431
 20
139.6959580071401
 10
124.2822461282431
 20
139.6959580071401
 10
120.5753209406762
 20
127.8027915271048
 10
120.5753209406762
 20
127.8027915271048
 10
120.5753209406762
 20
127.8027915271048
 10
118.1964809388037
 20
127.8027915271048
 10
118.1964809388037
 20
127.8027915271048
 10
118.1964809388037
 20
127.8027915271048
 10
126.3775545846356
 20
154.8151140277308
 10
126.3775545846356
 20
154.8151140277308
 97
        0
 75
     2
 76
     1
 98
        0
  0
SPLINE
  5
1DA6
330
1DA0
100
AcDbEntity
  8
レイヤー 1
 62
    18
420
        0
370
     0
100
AcDbSpline
210
0.0
220
0.0
230
1.0
 70
    11
 71
     3
 72
   104
 73
   100
 74
     0
 42
0.000000001
 43
0.0000000001
 40
0.0
 40
0.0
 40
0.0
 40
0.0
 40
1.0
 40
1.0
 40
1.0
 40
2.0
 40
2.0
 40
2.0
 40
3.0
 40
3.0
 40
3.0
 40
4.0
 40
4.0
 40
4.0
 40
5.0
 40
5.0
 40
5.0
 40
6.0
 40
6.0
 40
6.0
 40
7.0
 40
7.0
 40
7.0
 40
8.0
 40
8.0
 40
8.0
 40
9.0
 40
9.0
 40
9.0
 40
10.0
 40
10.0
 40
10.0
 40
11.0
 40
11.0
 40
11.0
 40
12.0
 40
12.0
 40
12.0
 40
13.0
 40
13.0
 40
13.0
 40
14.0
 40
14.0
 40
14.0
 40
15.0
 40
15.0
 40
15.0
 40
16.0
 40
16.0
 40
16.0
 40
17.0
 40
17.0
 40
17.0
 40
18.0
 40
18.0
 40
18.0
 40
19.0
 40
19.0
 40
19.0
 40
20.0
 40
20.0
 40
20.0
 40
21.0
 40
21.0
 40
21.0
 40
22.0
 40
22.0
 40
22.0
 40
23.0
 40
23.0
 40
23.0
 40
24.0
 40
24.0
 40
24.0
 40
25.0
 40
25.0
 40
25.0
 40
26.0
 40
26.0
 40
26.0
 40
27.0
 40
27.0
 40
27.0
 40
28.0
 40
28.0
 40
28.0
 40
29.0
 40
29.0
 40
29.0
 40
30.0
 40
30.0
 40
30.0
 40
31.0
 40
31.0
 40
31.0
 40
32.0
 40
32.0
 40
32.0
 40
33.0
 40
33.0
 40
33.0
 40
33.0
 10
139.8926730891194
 20
154.8294111834263
 30
0.0
 10
139.8926730891194
 20
154.8294111834263
 30
0.0
 10
142.034490365244
 20
154.8294111834263
 30
0.0
 10
142.034490365244
 20
154.8294111834263
 30
0.0
 10
142.034490365244
 20
154.8294111834263
 30
0.0
 10
140.9516961399167
 20
151.3157559800812
 30
0.0
 10
140.9516961399167
 20
151.3157559800812
 30
0.0
 10
141.8928968473915
 20
152.7887075264977
 30
0.0
 10
142.7341897198858
 20
153.4484437471474
 30
0.0
 10
143.8552245303267
 20
154.2926649527359
 30
0.0
 10
144.9803934580768
 20
155.1296514530327
 30
0.0
 10
146.313990800184
 20
155.3044901642492
 30
0.0
 10
147.2410666068513
 20
155.3044901642492
 30
0.0
 10
148.3855280820467
 20
155.3044901642492
 30
0.0
 10
149.4969166187648
 20
155.0752189084569
 30
0.0
 10
150.0784491203085
 20
153.8172414621372
 30
0.0
 10
150.5228667310857
 20
152.833838307127
 30
0.0
 10
150.5414702589787
 20
152.7201500811143
 30
0.0
 10
150.4140016419342
 20
150.7765981809602
 30
0.0
 10
151.5818897818831
 20
152.7699317437168
 30
0.0
 10
152.4424752018222
 20
153.6256940267945
 30
0.0
 10
153.9038856707493
 20
154.4507949398263
 30
0.0
 10
155.4455669174372
 20
155.3044901642492
 30
0.0
 10
156.3392252758526
 20
155.3659851592288
 30
0.0
 10
157.374821661896
 20
155.2147453676543
 30
0.0
 10
158.9116797717224
 20
154.9877134254046
 30
0.0
 10
159.885953417674
 20
154.4390816074493
 30
0.0
 10
160.396516905404
 20
152.7816450760939
 30
0.0
 10
160.907080393134
 20
151.1219692311958
 30
0.0
 10
160.6328506116001
 20
150.2303779314354
 30
0.0
 10
159.9992971339111
 20
147.597634224801
 30
0.0
 10
159.7105979417938
 20
146.4014962832367
 30
0.0
 10
159.2947746424079
 20
144.9400858143094
 30
0.0
 10
158.7463150793405
 20
143.2092687007094
 30
0.0
 10
158.7463150793405
 20
143.2092687007094
 30
0.0
 10
153.9038856707493
 20
127.8027915271048
 30
0.0
 10
153.9038856707493
 20
127.8027915271048
 30
0.0
 10
153.9038856707493
 20
127.8027915271048
 30
0.0
 10
151.3882752878858
 20
127.8027915271048
 30
0.0
 10
151.3882752878858
 20
127.8027915271048
 30
0.0
 10
151.3882752878858
 20
127.8027915271048
 30
0.0
 10
155.625056510627
 20
141.2751908193897
 30
0.0
 10
155.625056510627
 20
141.2751908193897
 30
0.0
 10
156.509413105096
 20
144.0936252951782
 30
0.0
 10
157.1098936443086
 20
146.1506931664571
 30
0.0
 10
157.4220195011799
 20
147.4415712963654
 30
0.0
 10
157.8095929989504
 20
149.0530157726519
 30
0.0
 10
157.9656559273863
 20
149.5826995529385
 30
0.0
 10
157.7816877071109
 20
150.7529992613181
 30
0.0
 10
157.6111553680921
 20
151.8430281919372
 30
0.0
 10
157.0582171779392
 20
152.5547853887321
 30
0.0
 10
156.117016470464
 20
152.5547853887321
 30
0.0
 10
155.109669886036
 20
152.5547853887321
 30
0.0
 10
154.2962823053813
 20
152.4412694176073
 30
0.0
 10
153.1566439670473
 20
151.2945686288697
 30
0.0
 10
152.0170056287138
 20
150.1476955852443
 30
0.0
 10
151.0761494310145
 20
148.7930831468137
 30
0.0
 10
150.3337308641735
 20
147.2290087646991
 30
0.0
 10
149.5957909244185
 20
145.6683794803425
 30
0.0
 10
148.8530278478015
 20
143.6822806228776
 30
0.0
 10
148.0964843801535
 20
141.2751908193897
 30
0.0
 10
148.0964843801535
 20
141.2751908193897
 30
0.0
 10
143.8552245303267
 20
127.8027915271048
 30
0.0
 10
143.8552245303267
 20
127.8027915271048
 30
0.0
 10
143.8552245303267
 20
127.8027915271048
 30
0.0
 10
141.4860308021766
 20
127.8027915271048
 30
0.0
 10
141.4860308021766
 20
127.8027915271048
 30
0.0
 10
141.4860308021766
 20
127.8027915271048
 30
0.0
 10
146.3329388378529
 20
143.2092687007094
 30
0.0
 10
146.3329388378529
 20
143.2092687007094
 30
0.0
 10
146.8483254624439
 20
144.8408669988801
 30
0.0
 10
147.2314203331293
 20
146.1837661049335
 30
0.0
 10
147.4867020769943
 20
147.224185627838
 30
0.0
 10
147.9169947869636
 20
149.0197705792876
 30
0.0
 10
148.0306830129762
 20
150.2400242051577
 30
0.0
 10
147.7092553921584
 20
151.3157559800812
 30
0.0
 10
147.3874832615647
 20
152.3916600098926
 30
0.0
 10
146.824554287914
 20
152.6683013598569
 30
0.0
 10
145.8840425999902
 20
152.6683013598569
 30
0.0
 10
145.0989048209508
 20
152.6683013598569
 30
0.0
 10
144.3282364524948
 20
152.3275811915945
 30
0.0
 10
143.4531816219724
 20
151.6538923250251
 30
0.0
 10
142.3462717123393
 20
150.8074318058939
 30
0.0
 10
141.9018541015625
 20
150.1097995099067
 30
0.0
 10
141.3578731655803
 20
149.289521733736
 30
0.0
 10
140.6299240093231
 20
148.192602607601
 30
0.0
 10
140.2850697237509
 20
147.455696197173
 30
0.0
 10
139.6652966370934
 20
145.8385673095858
 30
0.0
 10
139.0506911970733
 20
144.2214384219986
 30
0.0
 10
138.4639910488927
 20
142.3252566160164
 30
0.0
 10
138.0571250036769
 20
141.0154304484394
 30
0.0
 10
138.0571250036769
 20
141.0154304484394
 30
0.0
 10
133.9009590684723
 20
127.8027915271048
 30
0.0
 10
133.9009590684723
 20
127.8027915271048
 30
0.0
 10
133.9009590684723
 20
127.8027915271048
 30
0.0
 10
131.4180771143092
 20
127.8027915271048
 30
0.0
 10
131.4180771143092
 20
127.8027915271048
 30
0.0
 10
131.4180771143092
 20
127.8027915271048
 30
0.0
 10
139.8926730891194
 20
154.8294111834263
 30
0.0
 10
139.8926730891194
 20
154.8294111834263
 30
0.0
  0
HATCH
  5
1DA7
330
1DA0
100
AcDbEntity
  8
レイヤー 1
 62
    18
420
        0
100
AcDbHatch
 10
0.0
 20
0.0
 30
0.0
210
0.0
220
0.0
230
1.0
  2
SOLID
 70
     1
 71
     0
 91
        1
 92
        1
 93
        1
 72
     4
 94
        3
 73
     0
 74
     1
 95
      104
 96
      100
 40
0.0
 40
0.0
 40
0.0
 40
0.0
 40
1.0
 40
1.0
 40
1.0
 40
2.0
 40
2.0
 40
2.0
 40
3.0
 40
3.0
 40
3.0
 40
4.0
 40
4.0
 40
4.0
 40
5.0
 40
5.0
 40
5.0
 40
6.0
 40
6.0
 40
6.0
 40
7.0
 40
7.0
 40
7.0
 40
8.0
 40
8.0
 40
8.0
 40
9.0
 40
9.0
 40
9.0
 40
10.0
 40
10.0
 40
10.0
 40
11.0
 40
11.0
 40
11.0
 40
12.0
 40
12.0
 40
12.0
 40
13.0
 40
13.0
 40
13.0
 40
14.0
 40
14.0
 40
14.0
 40
15.0
 40
15.0
 40
15.0
 40
16.0
 40
16.0
 40
16.0
 40
17.0
 40
17.0
 40
17.0
 40
18.0
 40
18.0
 40
18.0
 40
19.0
 40
19.0
 40
19.0
 40
20.0
 40
20.0
 40
20.0
 40
21.0
 40
21.0
 40
21.0
 40
22.0
 40
22.0
 40
22.0
 40
23.0
 40
23.0
 40
23.0
 40
24.0
 40
24.0
 40
24.0
 40
25.0
 40
25.0
 40
25.0
 40
26.0
 40
26.0
 40
26.0
 40
27.0
 40
27.0
 40
27.0
 40
28.0
 40
28.0
 40
28.0
 40
29.0
 40
29.0
 40
29.0
 40
30.0
 40
30.0
 40
30.0
 40
31.0
 40
31.0
 40
31.0
 40
32.0
 40
32.0
 40
32.0
 40
33.0
 40
33.0
 40
33.0
 40
33.0
 10
139.8926730891194
 20
154.8294111834263
 10
139.8926730891194
 20
154.8294111834263
 10
142.034490365244
 20
154.8294111834263
 10
142.034490365244
 20
154.8294111834263
 10
142.034490365244
 20
154.8294111834263
 10
140.9516961399167
 20
151.3157559800812
 10
140.9516961399167
 20
151.3157559800812
 10
141.8928968473915
 20
152.7887075264977
 10
142.7341897198858
 20
153.4484437471474
 10
143.8552245303267
 20
154.2926649527359
 10
144.9803934580768
 20
155.1296514530327
 10
146.313990800184
 20
155.3044901642492
 10
147.2410666068513
 20
155.3044901642492
 10
148.3855280820467
 20
155.3044901642492
 10
149.4969166187648
 20
155.0752189084569
 10
150.0784491203085
 20
153.8172414621372
 10
150.5228667310857
 20
152.833838307127
 10
150.5414702589787
 20
152.7201500811143
 10
150.4140016419342
 20
150.7765981809602
 10
151.5818897818831
 20
152.7699317437168
 10
152.4424752018222
 20
153.6256940267945
 10
153.9038856707493
 20
154.4507949398263
 10
155.4455669174372
 20
155.3044901642492
 10
156.3392252758526
 20
155.3659851592288
 10
157.374821661896
 20
155.2147453676543
 10
158.9116797717224
 20
154.9877134254046
 10
159.885953417674
 20
154.4390816074493
 10
160.396516905404
 20
152.7816450760939
 10
160.907080393134
 20
151.1219692311958
 10
160.6328506116001
 20
150.2303779314354
 10
159.9992971339111
 20
147.597634224801
 10
159.7105979417938
 20
146.4014962832367
 10
159.2947746424079
 20
144.9400858143094
 10
158.7463150793405
 20
143.2092687007094
 10
158.7463150793405
 20
143.2092687007094
 10
153.9038856707493
 20
127.8027915271048
 10
153.9038856707493
 20
127.8027915271048
 10
153.9038856707493
 20
127.8027915271048
 10
151.3882752878858
 20
127.8027915271048
 10
151.3882752878858
 20
127.8027915271048
 10
151.3882752878858
 20
127.8027915271048
 10
155.625056510627
 20
141.2751908193897
 10
155.625056510627
 20
141.2751908193897
 10
156.509413105096
 20
144.0936252951782
 10
157.1098936443086
 20
146.1506931664571
 10
157.4220195011799
 20
147.4415712963654
 10
157.8095929989504
 20
149.0530157726519
 10
157.9656559273863
 20
149.5826995529385
 10
157.7816877071109
 20
150.7529992613181
 10
157.6111553680921
 20
151.8430281919372
 10
157.0582171779392
 20
152.5547853887321
 10
156.117016470464
 20
152.5547853887321
 10
155.109669886036
 20
152.5547853887321
 10
154.2962823053813
 20
152.4412694176073
 10
153.1566439670473
 20
151.2945686288697
 10
152.0170056287138
 20
150.1476955852443
 10
151.0761494310145
 20
148.7930831468137
 10
150.3337308641735
 20
147.2290087646991
 10
149.5957909244185
 20
145.6683794803425
 10
148.8530278478015
 20
143.6822806228776
 10
148.0964843801535
 20
141.2751908193897
 10
148.0964843801535
 20
141.2751908193897
 10
143.8552245303267
 20
127.8027915271048
 10
143.8552245303267
 20
127.8027915271048
 10
143.8552245303267
 20
127.8027915271048
 10
141.4860308021766
 20
127.8027915271048
 10
141.4860308021766
 20
127.8027915271048
 10
141.4860308021766
 20
127.8027915271048
 10
146.3329388378529
 20
143.2092687007094
 10
146.3329388378529
 20
143.2092687007094
 10
146.8483254624439
 20
144.8408669988801
 10
147.2314203331293
 20
146.1837661049335
 10
147.4867020769943
 20
147.224185627838
 10
147.9169947869636
 20
149.0197705792876
 10
148.0306830129762
 20
150.2400242051577
 10
147.7092553921584
 20
151.3157559800812
 10
147.3874832615647
 20
152.3916600098926
 10
146.824554287914
 20
152.6683013598569
 10
145.8840425999902
 20
152.6683013598569
 10
145.0989048209508
 20
152.6683013598569
 10
144.3282364524948
 20
152.3275811915945
 10
143.4531816219724
 20
151.6538923250251
 10
142.3462717123393
 20
150.8074318058939
 10
141.9018541015625
 20
150.1097995099067
 10
141.3578731655803
 20
149.289521733736
 10
140.6299240093231
 20
148.192602607601
 10
140.2850697237509
 20
147.455696197173
 10
139.6652966370934
 20
145.8385673095858
 10
139.0506911970733
 20
144.2214384219986
 10
138.4639910488927
 20
142.3252566160164
 10
138.0571250036769
 20
141.0154304484394
 10
138.0571250036769
 20
141.0154304484394
 10
133.9009590684723
 20
127.8027915271048
 10
133.9009590684723
 20
127.8027915271048
 10
133.9009590684723
 20
127.8027915271048
 10
131.4180771143092
 20
127.8027915271048
 10
131.4180771143092
 20
127.8027915271048
 10
131.4180771143092
 20
127.8027915271048
 10
139.8926730891194
 20
154.8294111834263
 10
139.8926730891194
 20
154.8294111834263
 97
        0
 75
     2
 76
     1
 98
        0
  0
SPLINE
  5
1DA8
330
1DA0
100
AcDbEntity
  8
レイヤー 1
370
     0
100
AcDbSpline
210
0.0
220
0.0
230
1.0
 70
    11
 71
     3
 72
    29
 73
    25
 74
     0
 42
0.000000001
 43
0.0000000001
 40
0.0
 40
0.0
 40
0.0
 40
0.0
 40
1.0
 40
1.0
 40
1.0
 40
2.0
 40
2.0
 40
2.0
 40
3.0
 40
3.0
 40
3.0
 40
4.0
 40
4.0
 40
4.0
 40
5.0
 40
5.0
 40
5.0
 40
6.0
 40
6.0
 40
6.0
 40
7.0
 40
7.0
 40
7.0
 40
8.0
 40
8.0
 40
8.0
 40
8.0
 10
101.6420971922469
 20
132.8388354296931
 30
0.0
 10
101.630039350094
 20
134.7164137077823
 30
0.0
 10
102.2236296937908
 20
138.0598810818841
 30
0.0
 10
103.7487744712405
 20
142.5378191476827
 30
0.0
 10
105.819967243327
 20
148.5896501242061
 30
0.0
 10
107.0602024361932
 20
150.8074318058939
 30
0.0
 10
108.1522984254671
 20
151.8833358357054
 30
0.0
 10
109.741177511439
 20
153.4532668840085
 30
0.0
 10
111.8740375333931
 20
153.5290590346837
 30
0.0
 10
112.5075910110823
 20
153.4532668840085
 30
0.0
 10
113.4012493694975
 20
153.3490526768302
 30
0.0
 10
114.6683563248758
 20
152.7580461564518
 30
0.0
 10
114.7493161221879
 20
150.7838328862519
 30
0.0
 10
114.8106388622796
 20
149.0909118479895
 30
0.0
 10
114.3186789024427
 20
145.9191825971221
 30
0.0
 10
112.6164561002338
 20
140.9489400617108
 30
0.0
 10
110.6444821435766
 20
135.1746117095912
 30
0.0
 10
109.4669477299053
 20
132.8960240524753
 30
0.0
 10
108.5212683953448
 20
131.9072809959403
 30
0.0
 10
106.7346406980658
 20
130.0538184021569
 30
0.0
 10
104.8222669326213
 20
130.2336525051225
 30
0.0
 10
104.5408024457958
 20
130.2336525051225
 30
0.0
 10
104.1721769856939
 20
130.2336525051225
 30
0.0
 10
101.6465758193322
 20
130.6305277668397
 30
0.0
 10
101.6420971922469
 20
132.8388354296931
 30
0.0
  0
SPLINE
  5
1DA9
330
1DA0
100
AcDbEntity
  8
レイヤー 1
370
     0
100
AcDbSpline
210
0.0
220
0.0
230
1.0
 70
    11
 71
     3
 72
    32
 73
    28
 74
     0
 42
0.000000001
 43
0.0000000001
 40
0.0
 40
0.0
 40
0.0
 40
0.0
 40
1.0
 40
1.0
 40
1.0
 40
2.0
 40
2.0
 40
2.0
 40
3.0
 40
3.0
 40
3.0
 40
4.0
 40
4.0
 40
4.0
 40
5.0
 40
5.0
 40
5.0
 40
6.0
 40
6.0
 40
6.0
 40
7.0
 40
7.0
 40
7.0
 40
8.0
 40
8.0
 40
8.0
 40
9.0
 40
9.0
 40
9.0
 40
9.0
 10
106.2595617172429
 20
153.4105476718098
 30
0.0
 10
104.8222669326213
 20
151.5474388043041
 30
0.0
 10
103.7177685914188
 20
149.8758773721411
 30
0.0
 10
101.9232171692965
 20
144.6141795664062
 30
0.0
 10
100.2754269116635
 20
139.7999999594306
 30
0.0
 10
99.22777268346732
 20
136.3052927937542
 30
0.0
 10
99.06964269637689
 20
132.039572749846
 30
0.0
 10
98.94665270641765
 20
128.8673267343149
 30
0.0
 10
100.8807305877373
 20
127.8027915271048
 30
0.0
 10
103.7129454545577
 20
127.8027915271048
 30
0.0
 10
104.9352661390825
 20
127.8027915271048
 30
0.0
 10
108.0151835347002
 20
127.8827177950895
 30
0.0
 10
110.2045431598849
 20
130.5926316915021
 30
0.0
 10
111.7417457794874
 20
132.4984597712065
 30
0.0
 10
113.155269389579
 20
134.475256864725
 30
0.0
 10
115.0562743324223
 20
140.9489400617108
 30
0.0
 10
116.6361961642235
 20
146.3680788349845
 30
0.0
 10
117.7282921534974
 20
149.8639917848761
 30
0.0
 10
117.6480213757369
 20
151.8595646611754
 30
0.0
 10
117.6480213757369
 20
151.8595646611754
 30
0.0
 10
117.6480213757369
 20
151.8595646611754
 30
0.0
 10
117.6480213757369
 20
151.8595646611754
 30
0.0
 10
117.13229024137
 20
155.18150017429
 30
0.0
 10
114.7162431837115
 20
155.886194920681
 30
0.0
 10
113.3351034925446
 20
155.886194920681
 30
0.0
 10
111.9829026225447
 20
155.886194920681
 30
0.0
 10
108.3414342923792
 20
156.1251124501957
 30
0.0
 10
106.2595617172429
 20
153.4105476718098
 30
0.0
  0
HATCH
  5
1DAA
330
1DA0
100
AcDbEntity
  8
レイヤー 1
 62
    18
420
        0
100
AcDbHatch
 10
0.0
 20
0.0
 30
0.0
210
0.0
220
0.0
230
1.0
  2
SOLID
 70
     1
 71
     0
 91
        2
 92
        1
 93
        1
 72
     4
 94
        3
 73
     0
 74
     1
 95
       29
 96
       25
 40
0.0
 40
0.0
 40
0.0
 40
0.0
 40
1.0
 40
1.0
 40
1.0
 40
2.0
 40
2.0
 40
2.0
 40
3.0
 40
3.0
 40
3.0
 40
4.0
 40
4.0
 40
4.0
 40
5.0
 40
5.0
 40
5.0
 40
6.0
 40
6.0
 40
6.0
 40
7.0
 40
7.0
 40
7.0
 40
8.0
 40
8.0
 40
8.0
 40
8.0
 10
101.6420971922466
 20
132.8388354296931
 10
101.6300393500937
 20
134.7164137077823
 10
102.2236296937904
 20
138.0598810818841
 10
103.7487744712403
 20
142.5378191476827
 10
105.8199672433266
 20
148.5896501242061
 10
107.0602024361924
 20
150.8074318058939
 10
108.1522984254666
 20
151.8833358357054
 10
109.7411775114388
 20
153.4532668840085
 10
111.8740375333923
 20
153.5290590346837
 10
112.5075910110818
 20
153.4532668840085
 10
113.4012493694968
 20
153.3490526768302
 10
114.6683563248753
 20
152.7580461564518
 10
114.7493161221873
 20
150.7838328862519
 10
114.8106388622791
 20
149.0909118479895
 10
114.3186789024421
 20
145.9191825971221
 10
112.6164561002333
 20
140.9489400617108
 10
110.6444821435762
 20
135.1746117095912
 10
109.4669477299049
 20
132.8960240524753
 10
108.5212683953441
 20
131.9072809959403
 10
106.734640698065
 20
130.0538184021569
 10
104.822266932621
 20
130.2336525051225
 10
104.5408024457952
 20
130.2336525051225
 10
104.1721769856936
 20
130.2336525051225
 10
101.6465758193317
 20
130.6305277668397
 10
101.6420971922466
 20
132.8388354296931
 97
        0
 92
        1
 93
        1
 72
     4
 94
        3
 73
     0
 74
     1
 95
       32
 96
       28
 40
0.0
 40
0.0
 40
0.0
 40
0.0
 40
1.0
 40
1.0
 40
1.0
 40
2.0
 40
2.0
 40
2.0
 40
3.0
 40
3.0
 40
3.0
 40
4.0
 40
4.0
 40
4.0
 40
5.0
 40
5.0
 40
5.0
 40
6.0
 40
6.0
 40
6.0
 40
7.0
 40
7.0
 40
7.0
 40
8.0
 40
8.0
 40
8.0
 40
9.0
 40
9.0
 40
9.0
 40
9.0
 10
106.2595617172424
 20
153.4105476718098
 10
104.822266932621
 20
151.5474388043041
 10
103.717768591418
 20
149.8758773721411
 10
101.9232171692961
 20
144.6141795664062
 10
100.2754269116631
 20
139.7999999594306
 10
99.22777268346681
 20
136.3052927937542
 10
99.06964269637638
 20
132.039572749846
 10
98.94665270641735
 20
128.8673267343149
 10
100.8807305877367
 20
127.8027915271048
 10
103.712945454557
 20
127.8027915271048
 10
104.9352661390822
 20
127.8027915271048
 10
108.0151835346996
 20
127.8827177950895
 10
110.2045431598845
 20
130.5926316915021
 10
111.7417457794868
 20
132.4984597712065
 10
113.1552693895787
 20
134.475256864725
 10
115.0562743324217
 20
140.9489400617108
 10
116.6361961642228
 20
146.3680788349845
 10
117.728292153497
 20
149.8639917848761
 10
117.6480213757363
 20
151.8595646611754
 10
117.6480213757363
 20
151.8595646611754
 10
117.6480213757363
 20
151.8595646611754
 10
117.6480213757363
 20
151.8595646611754
 10
117.1322902413694
 20
155.18150017429
 10
114.716243183711
 20
155.886194920681
 10
113.335103492544
 20
155.886194920681
 10
111.9829026225443
 20
155.886194920681
 10
108.3414342923788
 20
156.1251124501957
 10
106.2595617172424
 20
153.4105476718098
 97
        0
 75
     2
 76
     1
 98
        0
  0
ENDBLK
  5
1DAB
330
1DA0
100
AcDbEntity
  8
0
100
AcDbBlockEnd
  0
BLOCK
  5
A149
330
A148
100
AcDbEntity
  8
0
100
AcDbBlockBegin
  2
*D7
 70
     1
 10
0.0
 20
0.0
 30
0.0
  3
*D7
  1

  0
LINE
  5
A14B
330
A148
100
AcDbEntity
  8
寸法
 62
     0
370
    -2
100
AcDbLine
 10
-265.6473907106684
 20
497.7281601238509
 30
0.0
 11
-238.9204248546613
 21
497.7281601238509
 31
0.0
  0
LINE
  5
A14C
330
A148
100
AcDbEntity
  8
寸法
 62
     0
370
    -2
100
AcDbLine
 10
-265.6473907106684
 20
515.7281601238509
 30
0.0
 11
-238.9204248546613
 21
515.7281601238509
 31
0.0
  0
LINE
  5
A14D
330
A148
100
AcDbEntity
  8
寸法
 62
     0
370
    -2
100
AcDbLine
 10
-238.9204248546613
 20
499.7281601238509
 30
0.0
 11
-238.9204248546613
 21
513.7281601238509
 31
0.0
  0
INSERT
  5
A14E
330
A148
100
AcDbEntity
  8
寸法
 62
     0
370
    -2
100
AcDbBlockReference
  2
_DOT
 10
-238.9204248546613
 20
497.7281601238509
 30
0.0
 41
2.0
 42
2.0
 43
2.0
 50
270.0
  0
INSERT
  5
A14F
330
A148
100
AcDbEntity
  8
寸法
 62
     0
370
    -2
100
AcDbBlockReference
  2
_DOT
 10
-238.9204248546613
 20
515.7281601238509
 30
0.0
 41
2.0
 42
2.0
 43
2.0
 50
90.0
  0
MTEXT
  5
A150
330
A148
100
AcDbEntity
  8
寸法
 62
     0
100
AcDbMText
 10
-247.9204248546613
 20
506.7281601238509
 30
0.0
 40
8.0
 41
0.0
 46
0.0
 71
     5
 72
     1
  1
\A1;18
  7
ＭＳ ゴシック
 11
0.0
 21
1.0
 31
0.0
 73
     1
 44
1.0
  0
POINT
  5
A151
330
A148
100
AcDbEntity
  8
Defpoints
 62
     0
100
AcDbPoint
 10
-271.6473907106684
 20
497.7281601238509
 30
0.0
  0
POINT
  5
A152
330
A148
100
AcDbEntity
  8
Defpoints
 62
     0
100
AcDbPoint
 10
-271.6473907106684
 20
515.7281601238509
 30
0.0
  0
POINT
  5
A153
330
A148
100
AcDbEntity
  8
Defpoints
 62
     0
100
AcDbPoint
 10
-238.9204248546613
 20
515.7281601238509
 30
0.0
  0
ENDBLK
  5
A14A
330
A148
100
AcDbEntity
  8
0
100
AcDbBlockEnd
  0
BLOCK
  5
A155
330
A154
100
AcDbEntity
  8
0
100
AcDbBlockBegin
  2
*D8
 70
     1
 10
0.0
 20
0.0
 30
0.0
  3
*D8
  1

  0
LINE
  5
A157
330
A154
100
AcDbEntity
  8
寸法
 62
     0
370
    -2
100
AcDbLine
 10
-144.7711457386186
 20
506.7281601238509
 30
0.0
 11
-93.13754287278444
 21
506.7281601238509
 31
0.0
  0
LINE
  5
A158
330
A154
100
AcDbEntity
  8
寸法
 62
     0
370
    -2
100
AcDbLine
 10
-143.7672387774502
 20
306.7281601258539
 30
0.0
 11
-93.13754287278437
 21
306.7281601258539
 31
0.0
  0
LINE
  5
A159
330
A154
100
AcDbEntity
  8
寸法
 62
     0
370
    -2
100
AcDbLine
 10
-93.13754287278444
 20
504.7281601238509
 30
0.0
 11
-93.13754287278437
 21
308.7281601258539
 31
0.0
  0
INSERT
  5
A15A
330
A154
100
AcDbEntity
  8
寸法
 62
     0
370
    -2
100
AcDbBlockReference
  2
_DOT
 10
-93.13754287278444
 20
506.7281601238509
 30
0.0
 41
2.0
 42
2.0
 43
2.0
 50
90.00000000000001
  0
INSERT
  5
A15B
330
A154
100
AcDbEntity
  8
寸法
 62
     0
370
    -2
100
AcDbBlockReference
  2
_DOT
 10
-93.13754287278437
 20
306.7281601258539
 30
0.0
 41
2.0
 42
2.0
 43
2.0
 50
270.0
  0
MTEXT
  5
A15C
330
A154
100
AcDbEntity
  8
寸法
 62
     0
100
AcDbMText
 10
-102.1375428727844
 20
406.7281601248524
 30
0.0
 40
8.0
 41
0.0
 46
0.0
 71
     5
 72
     1
  1
\A1;200
  7
ＭＳ ゴシック
 11
-3.552713678836082E-16
 21
1.0
 31
0.0
 73
     1
 44
1.0
  0
POINT
  5
A15D
330
A154
100
AcDbEntity
  8
Defpoints
 62
     0
100
AcDbPoint
 10
-150.7711457386186
 20
506.7281601238509
 30
0.0
  0
POINT
  5
A15E
330
A154
100
AcDbEntity
  8
Defpoints
 62
     0
100
AcDbPoint
 10
-149.7672387774502
 20
306.7281601258539
 30
0.0
  0
POINT
  5
A15F
330
A154
100
AcDbEntity
  8
Defpoints
 62
     0
100
AcDbPoint
 10
-93.13754287278437
 20
306.7281601258539
 30
0.0
  0
ENDBLK
  5
A156
330
A154
100
AcDbEntity
  8
0
100
AcDbBlockEnd
  0
BLOCK
  5
A161
330
A160
100
AcDbEntity
  8
0
100
AcDbBlockBegin
  2
*D9
 70
     1
 10
0.0
 20
0.0
 30
0.0
  3
*D9
  1

  0
LINE
  5
A163
330
A160
100
AcDbEntity
  8
寸法
 62
     0
370
    -2
100
AcDbLine
 10
-552.6627530130801
 20
820.569885087637
 30
0.0
 11
-552.6627530130801
 21
832.2079678278901
 31
0.0
  0
LINE
  5
A164
330
A160
100
AcDbEntity
  8
寸法
 62
     0
370
    -2
100
AcDbLine
 10
-570.6627530130801
 20
820.569885087637
 30
0.0
 11
-570.6627530130801
 21
832.2079678278901
 31
0.0
  0
LINE
  5
A165
330
A160
100
AcDbEntity
  8
寸法
 62
     0
370
    -2
100
AcDbLine
 10
-554.6627530130801
 20
832.2079678278901
 30
0.0
 11
-568.6627530130801
 21
832.2079678278901
 31
0.0
  0
INSERT
  5
A166
330
A160
100
AcDbEntity
  8
寸法
 62
     0
370
    -2
100
AcDbBlockReference
  2
_DOT
 10
-552.6627530130801
 20
832.2079678278901
 30
0.0
 41
2.0
 42
2.0
 43
2.0
  0
INSERT
  5
A167
330
A160
100
AcDbEntity
  8
寸法
 62
     0
370
    -2
100
AcDbBlockReference
  2
_DOT
 10
-570.6627530130801
 20
832.2079678278901
 30
0.0
 41
2.0
 42
2.0
 43
2.0
 50
180.0
  0
MTEXT
  5
A168
330
A160
100
AcDbEntity
  8
寸法
 62
     0
100
AcDbMText
 10
-561.6627530130801
 20
841.2079678278901
 30
0.0
 40
8.0
 41
0.0
 46
0.0
 71
     5
 72
     1
  1
\A1;18
  7
ＭＳ ゴシック
 73
     1
 44
1.0
  0
POINT
  5
A169
330
A160
100
AcDbEntity
  8
Defpoints
 62
     0
100
AcDbPoint
 10
-552.6627530130801
 20
814.569885087637
 30
0.0
  0
POINT
  5
A16A
330
A160
100
AcDbEntity
  8
Defpoints
 62
     0
100
AcDbPoint
 10
-570.6627530130801
 20
814.569885087637
 30
0.0
  0
POINT
  5
A16B
330
A160
100
AcDbEntity
  8
Defpoints
 62
     0
100
AcDbPoint
 10
-570.6627530130801
 20
832.2079678278901
 30
0.0
  0
ENDBLK
  5
A162
330
A160
100
AcDbEntity
  8
0
100
AcDbBlockEnd
  0
BLOCK
  5
A16D
330
A16C
100
AcDbEntity
  8
0
100
AcDbBlockBegin
  2
*D10
 70
     1
 10
0.0
 20
0.0
 30
0.0
  3
*D10
  1

  0
LINE
  5
A16F
330
A16C
100
AcDbEntity
  8
寸法
 62
     0
370
    -2
100
AcDbLine
 10
-576.6627530130801
 20
804.569885087637
 30
0.0
 11
-593.0523244187308
 21
804.569885087637
 31
0.0
  0
LINE
  5
A170
330
A16C
100
AcDbEntity
  8
寸法
 62
     0
370
    -2
100
AcDbLine
 10
-576.6627530130801
 20
814.569885087637
 30
0.0
 11
-593.0523244187308
 21
814.569885087637
 31
0.0
  0
LINE
  5
A171
330
A16C
100
AcDbEntity
  8
寸法
 62
     0
370
    -2
100
AcDbLine
 10
-593.0523244187308
 20
806.569885087637
 30
0.0
 11
-593.0523244187308
 21
812.569885087637
 31
0.0
  0
INSERT
  5
A172
330
A16C
100
AcDbEntity
  8
寸法
 62
     0
370
    -2
100
AcDbBlockReference
  2
_DOT
 10
-593.0523244187308
 20
804.569885087637
 30
0.0
 41
2.0
 42
2.0
 43
2.0
 50
270.0
  0
INSERT
  5
A173
330
A16C
100
AcDbEntity
  8
寸法
 62
     0
370
    -2
100
AcDbBlockReference
  2
_DOT
 10
-593.0523244187308
 20
814.569885087637
 30
0.0
 41
2.0
 42
2.0
 43
2.0
 50
90.0
  0
MTEXT
  5
A174
330
A16C
100
AcDbEntity
  8
寸法
 62
     0
100
AcDbMText
 10
-602.0523244187308
 20
809.569885087637
 30
0.0
 40
8.0
 41
0.0
 46
0.0
 71
     5
 72
     1
  1
\A1;10
  7
ＭＳ ゴシック
 11
0.0
 21
1.0
 31
0.0
 73
     1
 44
1.0
  0
POINT
  5
A175
330
A16C
100
AcDbEntity
  8
Defpoints
 62
     0
100
AcDbPoint
 10
-570.6627530130801
 20
804.569885087637
 30
0.0
  0
POINT
  5
A176
330
A16C
100
AcDbEntity
  8
Defpoints
 62
     0
100
AcDbPoint
 10
-570.6627530130801
 20
814.569885087637
 30
0.0
  0
POINT
  5
A177
330
A16C
100
AcDbEntity
  8
Defpoints
 62
     0
100
AcDbPoint
 10
-593.0523244187308
 20
814.569885087637
 30
0.0
  0
ENDBLK
  5
A16E
330
A16C
100
AcDbEntity
  8
0
100
AcDbBlockEnd
  0
BLOCK
  5
A179
330
A178
100
AcDbEntity
  8
0
100
AcDbBlockBegin
  2
*D11
 70
     1
 10
0.0
 20
0.0
 30
0.0
  3
*D11
  1

  0
LINE
  5
A17B
330
A178
100
AcDbEntity
  8
寸法
 62
     0
370
    -2
100
AcDbLine
 10
-567.6624622025475
 20
674.0095122576718
 30
0.0
 11
-588.0177423018259
 21
674.0095122576718
 31
0.0
  0
LINE
  5
A17C
330
A178
100
AcDbEntity
  8
寸法
 62
     0
370
    -2
100
AcDbLine
 10
-567.6624622025475
 20
651.0095122576718
 30
0.0
 11
-588.0177423018259
 21
651.0095122576718
 31
0.0
  0
LINE
  5
A17D
330
A178
100
AcDbEntity
  8
寸法
 62
     0
370
    -2
100
AcDbLine
 10
-588.0177423018259
 20
672.0095122576718
 30
0.0
 11
-588.0177423018259
 21
653.0095122576718
 31
0.0
  0
INSERT
  5
A17E
330
A178
100
AcDbEntity
  8
寸法
 62
     0
370
    -2
100
AcDbBlockReference
  2
_DOT
 10
-588.0177423018259
 20
674.0095122576718
 30
0.0
 41
2.0
 42
2.0
 43
2.0
 50
90.0
  0
INSERT
  5
A17F
330
A178
100
AcDbEntity
  8
寸法
 62
     0
370
    -2
100
AcDbBlockReference
  2
_DOT
 10
-588.0177423018259
 20
651.0095122576718
 30
0.0
 41
2.0
 42
2.0
 43
2.0
 50
270.0
  0
MTEXT
  5
A180
330
A178
100
AcDbEntity
  8
寸法
 62
     0
100
AcDbMText
 10
-597.0177423018259
 20
662.5095122576718
 30
0.0
 40
8.0
 41
0.0
 46
0.0
 71
     5
 72
     1
  1
\A1;23
  7
ＭＳ ゴシック
 11
0.0
 21
1.0
 31
0.0
 73
     1
 44
1.0
  0
POINT
  5
A181
330
A178
100
AcDbEntity
  8
Defpoints
 62
     0
100
AcDbPoint
 10
-561.6624622025475
 20
674.0095122576718
 30
0.0
  0
POINT
  5
A182
330
A178
100
AcDbEntity
  8
Defpoints
 62
     0
100
AcDbPoint
 10
-561.6624622025475
 20
651.0095122576718
 30
0.0
  0
POINT
  5
A183
330
A178
100
AcDbEntity
  8
Defpoints
 62
     0
100
AcDbPoint
 10
-588.0177423018259
 20
651.0095122576718
 30
0.0
  0
ENDBLK
  5
A17A
330
A178
100
AcDbEntity
  8
0
100
AcDbBlockEnd
  0
BLOCK
  5
A185
330
A184
100
AcDbEntity
  8
0
100
AcDbBlockBegin
  2
*D12
 70
     1
 10
0.0
 20
0.0
 30
0.0
  3
*D12
  1

  0
LINE
  5
A187
330
A184
100
AcDbEntity
  8
寸法
 62
     0
370
    -2
100
AcDbLine
 10
-414.5229361723114
 20
521.3909519701468
 30
0.0
 11
-414.5229361723114
 21
535.6735938691061
 31
0.0
  0
LINE
  5
A188
330
A184
100
AcDbEntity
  8
寸法
 62
     0
370
    -2
100
AcDbLine
 10
-376.5229361723114
 20
521.7412509598839
 30
0.0
 11
-376.5229361723114
 21
535.6735938691061
 31
0.0
  0
LINE
  5
A189
330
A184
100
AcDbEntity
  8
寸法
 62
     0
370
    -2
100
AcDbLine
 10
-412.5229361723114
 20
535.6735938691061
 30
0.0
 11
-378.5229361723114
 21
535.6735938691061
 31
0.0
  0
INSERT
  5
A18A
330
A184
100
AcDbEntity
  8
寸法
 62
     0
370
    -2
100
AcDbBlockReference
  2
_DOT
 10
-414.5229361723114
 20
535.6735938691061
 30
0.0
 41
2.0
 42
2.0
 43
2.0
 50
180.0
  0
INSERT
  5
A18B
330
A184
100
AcDbEntity
  8
寸法
 62
     0
370
    -2
100
AcDbBlockReference
  2
_DOT
 10
-376.5229361723114
 20
535.6735938691061
 30
0.0
 41
2.0
 42
2.0
 43
2.0
  0
MTEXT
  5
A18C
330
A184
100
AcDbEntity
  8
寸法
 62
     0
100
AcDbMText
 10
-396.0229361723114
 20
544.6735938691061
 30
0.0
 40
8.0
 41
0.0
 46
0.0
 71
     5
 72
     1
  1
\A1;38
  7
ＭＳ ゴシック
 73
     1
 44
1.0
  0
POINT
  5
A18D
330
A184
100
AcDbEntity
  8
Defpoints
 62
     0
100
AcDbPoint
 10
-414.5229361723114
 20
515.3909519701468
 30
0.0
  0
POINT
  5
A18E
330
A184
100
AcDbEntity
  8
Defpoints
 62
     0
100
AcDbPoint
 10
-376.5229361723114
 20
515.7412509598839
 30
0.0
  0
POINT
  5
A18F
330
A184
100
AcDbEntity
  8
Defpoints
 62
     0
100
AcDbPoint
 10
-376.5229361723114
 20
535.6735938691061
 30
0.0
  0
ENDBLK
  5
A186
330
A184
100
AcDbEntity
  8
0
100
AcDbBlockEnd
  0
BLOCK
  5
A191
330
A190
100
AcDbEntity
  8
0
100
AcDbBlockBegin
  2
*D13
 70
     1
 10
0.0
 20
0.0
 30
0.0
  3
*D13
  1

  0
LINE
  5
A193
330
A190
100
AcDbEntity
  8
寸法
 62
     0
370
    -2
100
AcDbLine
 10
-555.6624622025475
 20
651.0095122576718
 30
0.0
 11
-515.8019274506779
 21
651.0095122576718
 31
0.0
  0
LINE
  5
A194
330
A190
100
AcDbEntity
  8
寸法
 62
     0
370
    -2
100
AcDbLine
 10
-546.6493713665142
 20
710.0095122576718
 30
0.0
 11
-515.8019274506779
 21
710.0095122576718
 31
0.0
  0
LINE
  5
A195
330
A190
100
AcDbEntity
  8
寸法
 62
     0
370
    -2
100
AcDbLine
 10
-515.8019274506779
 20
653.0095122576718
 30
0.0
 11
-515.8019274506779
 21
708.0095122576718
 31
0.0
  0
INSERT
  5
A196
330
A190
100
AcDbEntity
  8
寸法
 62
     0
370
    -2
100
AcDbBlockReference
  2
_DOT
 10
-515.8019274506779
 20
651.0095122576718
 30
0.0
 41
2.0
 42
2.0
 43
2.0
 50
270.0
  0
INSERT
  5
A197
330
A190
100
AcDbEntity
  8
寸法
 62
     0
370
    -2
100
AcDbBlockReference
  2
_DOT
 10
-515.8019274506779
 20
710.0095122576718
 30
0.0
 41
2.0
 42
2.0
 43
2.0
 50
90.0
  0
MTEXT
  5
A198
330
A190
100
AcDbEntity
  8
寸法
 62
     0
100
AcDbMText
 10
-524.8019274506779
 20
680.5095122576718
 30
0.0
 40
8.0
 41
0.0
 46
0.0
 71
     5
 72
     1
  1
\A1;59
  7
ＭＳ ゴシック
 11
0.0
 21
1.0
 31
0.0
 73
     1
 44
1.0
  0
POINT
  5
A199
330
A190
100
AcDbEntity
  8
Defpoints
 62
     0
100
AcDbPoint
 10
-561.6624622025475
 20
651.0095122576718
 30
0.0
  0
POINT
  5
A19A
330
A190
100
AcDbEntity
  8
Defpoints
 62
     0
100
AcDbPoint
 10
-552.6493713665142
 20
710.0095122576718
 30
0.0
  0
POINT
  5
A19B
330
A190
100
AcDbEntity
  8
Defpoints
 62
     0
100
AcDbPoint
 10
-515.8019274506779
 20
710.0095122576718
 30
0.0
  0
ENDBLK
  5
A192
330
A190
100
AcDbEntity
  8
0
100
AcDbBlockEnd
  0
BLOCK
  5
A19D
330
A19C
100
AcDbEntity
  8
0
100
AcDbBlockBegin
  2
*D14
 70
     1
 10
0.0
 20
0.0
 30
0.0
  3
*D14
  1

  0
LINE
  5
A19F
330
A19C
100
AcDbEntity
  8
寸法
 62
     0
370
    -2
100
AcDbLine
 10
-576.6755530385809
 20
710.0095122576718
 30
0.0
 11
-588.0177423018259
 21
710.0095122576718
 31
0.0
  0
LINE
  5
A1A0
330
A19C
100
AcDbEntity
  8
寸法
 62
     0
370
    -2
100
AcDbLine
 10
-575.6624622025475
 20
674.0095122576718
 30
0.0
 11
-588.0177423018259
 21
674.0095122576718
 31
0.0
  0
LINE
  5
A1A1
330
A19C
100
AcDbEntity
  8
寸法
 62
     0
370
    -2
100
AcDbLine
 10
-588.0177423018259
 20
708.0095122576718
 30
0.0
 11
-588.0177423018259
 21
676.0095122576718
 31
0.0
  0
INSERT
  5
A1A2
330
A19C
100
AcDbEntity
  8
寸法
 62
     0
370
    -2
100
AcDbBlockReference
  2
_DOT
 10
-588.0177423018259
 20
710.0095122576718
 30
0.0
 41
2.0
 42
2.0
 43
2.0
 50
90.0
  0
INSERT
  5
A1A3
330
A19C
100
AcDbEntity
  8
寸法
 62
     0
370
    -2
100
AcDbBlockReference
  2
_DOT
 10
-588.0177423018259
 20
674.0095122576718
 30
0.0
 41
2.0
 42
2.0
 43
2.0
 50
270.0
  0
MTEXT
  5
A1A4
330
A19C
100
AcDbEntity
  8
寸法
 62
     0
100
AcDbMText
 10
-597.0177423018259
 20
692.0095122576718
 30
0.0
 40
8.0
 41
0.0
 46
0.0
 71
     5
 72
     1
  1
\A1;36
  7
ＭＳ ゴシック
 11
0.0
 21
1.0
 31
0.0
 73
     1
 44
1.0
  0
POINT
  5
A1A5
330
A19C
100
AcDbEntity
  8
Defpoints
 62
     0
100
AcDbPoint
 10
-570.6755530385809
 20
710.0095122576718
 30
0.0
  0
POINT
  5
A1A6
330
A19C
100
AcDbEntity
  8
Defpoints
 62
     0
100
AcDbPoint
 10
-569.6624622025475
 20
674.0095122576718
 30
0.0
  0
POINT
  5
A1A7
330
A19C
100
AcDbEntity
  8
Defpoints
 62
     0
100
AcDbPoint
 10
-588.0177423018259
 20
674.0095122576718
 30
0.0
  0
ENDBLK
  5
A19E
330
A19C
100
AcDbEntity
  8
0
100
AcDbBlockEnd
  0
BLOCK
  5
A1A9
330
A1A8
100
AcDbEntity
  8
0
100
AcDbBlockBegin
  2
*D15
 70
     1
 10
0.0
 20
0.0
 30
0.0
  3
*D15
  1

  0
LINE
  5
A1AB
330
A1A8
100
AcDbEntity
  8
寸法
 62
     0
370
    -2
100
AcDbLine
 10
-433.6768810896966
 20
580.894439769484
 30
0.0
 11
-433.6768810896966
 21
603.1362550944443
 31
0.0
  0
LINE
  5
A1AC
330
A1A8
100
AcDbEntity
  8
寸法
 62
     0
370
    -2
100
AcDbLine
 10
-414.5229361723114
 20
580.894439769484
 30
0.0
 11
-414.5229361723114
 21
603.1362550944443
 31
0.0
  0
LINE
  5
A1AD
330
A1A8
100
AcDbEntity
  8
寸法
 62
     0
370
    -2
100
AcDbLine
 10
-431.6768810896966
 20
603.1362550944443
 30
0.0
 11
-416.5229361723114
 21
603.1362550944443
 31
0.0
  0
INSERT
  5
A1AE
330
A1A8
100
AcDbEntity
  8
寸法
 62
     0
370
    -2
100
AcDbBlockReference
  2
_DOT
 10
-433.6768810896966
 20
603.1362550944443
 30
0.0
 41
2.0
 42
2.0
 43
2.0
 50
180.0
  0
INSERT
  5
A1AF
330
A1A8
100
AcDbEntity
  8
寸法
 62
     0
370
    -2
100
AcDbBlockReference
  2
_DOT
 10
-414.5229361723114
 20
603.1362550944443
 30
0.0
 41
2.0
 42
2.0
 43
2.0
  0
MTEXT
  5
A1B0
330
A1A8
100
AcDbEntity
  8
寸法
 62
     0
100
AcDbMText
 10
-424.099908631004
 20
612.1362550944443
 30
0.0
 40
8.0
 41
0.0
 46
0.0
 71
     5
 72
     1
  1
\A1;19
  7
ＭＳ ゴシック
 73
     1
 44
1.0
  0
POINT
  5
A1B1
330
A1A8
100
AcDbEntity
  8
Defpoints
 62
     0
100
AcDbPoint
 10
-433.6768810896966
 20
574.894439769484
 30
0.0
  0
POINT
  5
A1B2
330
A1A8
100
AcDbEntity
  8
Defpoints
 62
     0
100
AcDbPoint
 10
-414.5229361723114
 20
574.894439769484
 30
0.0
  0
POINT
  5
A1B3
330
A1A8
100
AcDbEntity
  8
Defpoints
 62
     0
100
AcDbPoint
 10
-414.5229361723114
 20
603.1362550944443
 30
0.0
  0
ENDBLK
  5
A1AA
330
A1A8
100
AcDbEntity
  8
0
100
AcDbBlockEnd
  0
BLOCK
  5
A1B5
330
A1B4
100
AcDbEntity
  8
0
100
AcDbBlockBegin
  2
*D16
 70
     1
 10
0.0
 20
0.0
 30
0.0
  3
*D16
  1

  0
LINE
  5
A1B7
330
A1B4
100
AcDbEntity
  8
寸法
 62
     0
370
    -2
100
AcDbLine
 10
-544.1137943330106
 20
588.9789754830574
 30
0.0
 11
-515.8019274506779
 21
588.9789754830574
 31
0.0
  0
LINE
  5
A1B8
330
A1B4
100
AcDbEntity
  8
寸法
 62
     0
370
    -2
100
AcDbLine
 10
-544.1137943330106
 20
223.9789754830574
 30
0.0
 11
-515.8019274506779
 21
223.9789754830574
 31
0.0
  0
LINE
  5
A1B9
330
A1B4
100
AcDbEntity
  8
寸法
 62
     0
370
    -2
100
AcDbLine
 10
-515.8019274506779
 20
586.9789754830574
 30
0.0
 11
-515.8019274506779
 21
225.9789754830574
 31
0.0
  0
INSERT
  5
A1BA
330
A1B4
100
AcDbEntity
  8
寸法
 62
     0
370
    -2
100
AcDbBlockReference
  2
_DOT
 10
-515.8019274506779
 20
588.9789754830574
 30
0.0
 41
2.0
 42
2.0
 43
2.0
 50
90.0
  0
INSERT
  5
A1BB
330
A1B4
100
AcDbEntity
  8
寸法
 62
     0
370
    -2
100
AcDbBlockReference
  2
_DOT
 10
-515.8019274506779
 20
223.9789754830574
 30
0.0
 41
2.0
 42
2.0
 43
2.0
 50
270.0
  0
MTEXT
  5
A1BC
330
A1B4
100
AcDbEntity
  8
寸法
 62
     0
100
AcDbMText
 10
-524.8019274506779
 20
406.4789754830574
 30
0.0
 40
8.0
 41
0.0
 46
0.0
 71
     5
 72
     1
  1
\A1;365
  7
ＭＳ ゴシック
 11
0.0
 21
1.0
 31
0.0
 73
     1
 44
1.0
  0
POINT
  5
A1BD
330
A1B4
100
AcDbEntity
  8
Defpoints
 62
     0
100
AcDbPoint
 10
-550.1137943330106
 20
588.9789754830574
 30
0.0
  0
POINT
  5
A1BE
330
A1B4
100
AcDbEntity
  8
Defpoints
 62
     0
100
AcDbPoint
 10
-550.1137943330106
 20
223.9789754830574
 30
0.0
  0
POINT
  5
A1BF
330
A1B4
100
AcDbEntity
  8
Defpoints
 62
     0
100
AcDbPoint
 10
-515.8019274506779
 20
223.9789754830574
 30
0.0
  0
ENDBLK
  5
A1B6
330
A1B4
100
AcDbEntity
  8
0
100
AcDbBlockEnd
  0
BLOCK
  5
A64A
330
A649
100
AcDbEntity
  8
0
100
AcDbBlockBegin
  2
*D17
 70
     1
 10
0.0
 20
0.0
 30
0.0
  3
*D17
  1

  0
LINE
  5
A64C
330
A649
100
AcDbEntity
  8
寸法
 62
     0
370
    -2
100
AcDbLine
 10
1353.234213299805
 20
845.7777489098837
 30
0.0
 11
1446.973244333005
 21
845.7777489098837
 31
0.0
  0
LINE
  5
A64D
330
A649
100
AcDbEntity
  8
寸法
 62
     0
370
    -2
100
AcDbLine
 10
1353.234213299805
 20
345.7777489098837
 30
0.0
 11
1446.973244333005
 21
345.7777489098837
 31
0.0
  0
LINE
  5
A64E
330
A649
100
AcDbEntity
  8
寸法
 62
     0
370
    -2
100
AcDbLine
 10
1446.973244333005
 20
843.7777489098837
 30
0.0
 11
1446.973244333005
 21
347.7777489098837
 31
0.0
  0
INSERT
  5
A64F
330
A649
100
AcDbEntity
  8
寸法
 62
     0
370
    -2
100
AcDbBlockReference
  2
_DOT
 10
1446.973244333005
 20
845.7777489098837
 30
0.0
 41
2.0
 42
2.0
 43
2.0
 50
90.0
  0
INSERT
  5
A650
330
A649
100
AcDbEntity
  8
寸法
 62
     0
370
    -2
100
AcDbBlockReference
  2
_DOT
 10
1446.973244333005
 20
345.7777489098837
 30
0.0
 41
2.0
 42
2.0
 43
2.0
 50
270.0
  0
MTEXT
  5
A651
330
A649
100
AcDbEntity
  8
寸法
 62
     0
100
AcDbMText
 10
1437.973244333005
 20
595.7777489098837
 30
0.0
 40
8.0
 41
0.0
 46
0.0
 71
     5
 72
     1
  1
\A1;500
  7
ＭＳ ゴシック
 11
0.0
 21
1.0
 31
0.0
 73
     1
 44
1.0
  0
POINT
  5
A652
330
A649
100
AcDbEntity
  8
Defpoints
 62
     0
100
AcDbPoint
 10
1347.234213299805
 20
845.7777489098837
 30
0.0
  0
POINT
  5
A653
330
A649
100
AcDbEntity
  8
Defpoints
 62
     0
100
AcDbPoint
 10
1347.234213299805
 20
345.7777489098837
 30
0.0
  0
POINT
  5
A654
330
A649
100
AcDbEntity
  8
Defpoints
 62
     0
100
AcDbPoint
 10
1446.973244333005
 20
345.7777489098837
 30
0.0
  0
ENDBLK
  5
A64B
330
A649
100
AcDbEntity
  8
0
100
AcDbBlockEnd
  0
BLOCK
  5
A659
330
A658
100
AcDbEntity
  8
0
100
AcDbBlockBegin
  2
*D18
 70
     1
 10
0.0
 20
0.0
 30
0.0
  3
*D18
  1

  0
LINE
  5
A65B
330
A658
100
AcDbEntity
  8
寸法
 62
     0
370
    -2
100
AcDbLine
 10
1290.855972838037
 20
114.0826078103564
 30
0.0
 11
1348.203147168639
 21
114.0826078103564
 31
0.0
  0
LINE
  5
A65C
330
A658
100
AcDbEntity
  8
寸法
 62
     0
370
    -2
100
AcDbLine
 10
1290.855972838037
 20
614.0826078094744
 30
0.0
 11
1348.203147168639
 21
614.0826078094744
 31
0.0
  0
LINE
  5
A65D
330
A658
100
AcDbEntity
  8
寸法
 62
     0
370
    -2
100
AcDbLine
 10
1348.203147168639
 20
116.0826078103564
 30
0.0
 11
1348.203147168639
 21
612.0826078094744
 31
0.0
  0
INSERT
  5
A65E
330
A658
100
AcDbEntity
  8
寸法
 62
     0
370
    -2
100
AcDbBlockReference
  2
_DOT
 10
1348.203147168639
 20
114.0826078103564
 30
0.0
 41
2.0
 42
2.0
 43
2.0
 50
270.0
  0
INSERT
  5
A65F
330
A658
100
AcDbEntity
  8
寸法
 62
     0
370
    -2
100
AcDbBlockReference
  2
_DOT
 10
1348.203147168639
 20
614.0826078094744
 30
0.0
 41
2.0
 42
2.0
 43
2.0
 50
90.0
  0
MTEXT
  5
A660
330
A658
100
AcDbEntity
  8
寸法
 62
     0
100
AcDbMText
 10
1339.203147168639
 20
364.0826078099154
 30
0.0
 40
8.0
 41
0.0
 46
0.0
 71
     5
 72
     1
  1
\A1;500
  7
ＭＳ ゴシック
 11
0.0
 21
1.0
 31
0.0
 73
     1
 44
1.0
  0
POINT
  5
A661
330
A658
100
AcDbEntity
  8
Defpoints
 62
     0
100
AcDbPoint
 10
1284.855972838037
 20
114.0826078103564
 30
0.0
  0
POINT
  5
A662
330
A658
100
AcDbEntity
  8
Defpoints
 62
     0
100
AcDbPoint
 10
1284.855972838037
 20
614.0826078094744
 30
0.0
  0
POINT
  5
A663
330
A658
100
AcDbEntity
  8
Defpoints
 62
     0
100
AcDbPoint
 10
1348.203147168639
 20
614.0826078094744
 30
0.0
  0
ENDBLK
  5
A65A
330
A658
100
AcDbEntity
  8
0
100
AcDbBlockEnd
  0
BLOCK
  5
A66E
330
A66D
100
AcDbEntity
  8
0
100
AcDbBlockBegin
  2
*D19
 70
     1
 10
0.0
 20
0.0
 30
0.0
  3
*D19
  1

  0
LINE
  5
A670
330
A66D
100
AcDbEntity
  8
寸法
 62
     0
370
    -2
100
AcDbLine
 10
117.5128905730749
 20
578.8394381085715
 30
0.0
 11
166.0407867504268
 21
578.8394381085715
 31
0.0
  0
LINE
  5
A671
330
A66D
100
AcDbEntity
  8
寸法
 62
     0
370
    -2
100
AcDbLine
 10
117.5128905730749
 20
219.2029016674207
 30
0.0
 11
166.0407867504268
 21
219.2029016674207
 31
0.0
  0
LINE
  5
A672
330
A66D
100
AcDbEntity
  8
寸法
 62
     0
370
    -2
100
AcDbLine
 10
166.0407867504268
 20
576.8394381085715
 30
0.0
 11
166.0407867504268
 21
221.2029016674207
 31
0.0
  0
INSERT
  5
A673
330
A66D
100
AcDbEntity
  8
寸法
 62
     0
370
    -2
100
AcDbBlockReference
  2
_DOT
 10
166.0407867504268
 20
578.8394381085715
 30
0.0
 41
2.0
 42
2.0
 43
2.0
 50
90.0
  0
INSERT
  5
A674
330
A66D
100
AcDbEntity
  8
寸法
 62
     0
370
    -2
100
AcDbBlockReference
  2
_DOT
 10
166.0407867504268
 20
219.2029016674207
 30
0.0
 41
2.0
 42
2.0
 43
2.0
 50
270.0
  0
MTEXT
  5
A675
330
A66D
100
AcDbEntity
  8
寸法
 62
     0
100
AcDbMText
 10
157.0407867504268
 20
399.0211698879961
 30
0.0
 40
8.0
 41
0.0
 46
0.0
 71
     5
 72
     1
  1
\A1;589
  7
ＭＳ ゴシック
 11
7.902898218200032E-17
 21
1.0
 31
0.0
 73
     1
 44
1.0
  0
POINT
  5
A676
330
A66D
100
AcDbEntity
  8
Defpoints
 62
     0
100
AcDbPoint
 10
111.5128905730749
 20
578.8394381085715
 30
0.0
  0
POINT
  5
A677
330
A66D
100
AcDbEntity
  8
Defpoints
 62
     0
100
AcDbPoint
 10
111.5128905730749
 20
219.2029016674207
 30
0.0
  0
POINT
  5
A678
330
A66D
100
AcDbEntity
  8
Defpoints
 62
     0
100
AcDbPoint
 10
166.0407867504268
 20
219.2029016674207
 30
0.0
  0
ENDBLK
  5
A66F
330
A66D
100
AcDbEntity
  8
0
100
AcDbBlockEnd
  0
BLOCK
  5
A67B
330
A67A
100
AcDbEntity
  8
0
100
AcDbBlockBegin
  2
*D20
 70
     1
 10
0.0
 20
0.0
 30
0.0
  3
*D20
  1

  0
LINE
  5
A67D
330
A67A
100
AcDbEntity
  8
寸法
 62
     0
370
    -2
100
AcDbLine
 10
536.894594734016
 20
534.3259384686634
 30
0.0
 11
571.0728464443584
 21
534.3259384686634
 31
0.0
  0
LINE
  5
A67E
330
A67A
100
AcDbEntity
  8
寸法
 62
     0
370
    -2
100
AcDbLine
 10
536.894594734016
 20
263.716745816846
 30
0.0
 11
571.0728464443584
 21
263.716745816846
 31
0.0
  0
LINE
  5
A67F
330
A67A
100
AcDbEntity
  8
寸法
 62
     0
370
    -2
100
AcDbLine
 10
571.0728464443584
 20
532.3259384686634
 30
0.0
 11
571.0728464443584
 21
265.716745816846
 31
0.0
  0
INSERT
  5
A680
330
A67A
100
AcDbEntity
  8
寸法
 62
     0
370
    -2
100
AcDbBlockReference
  2
_DOT
 10
571.0728464443584
 20
534.3259384686634
 30
0.0
 41
2.0
 42
2.0
 43
2.0
 50
90.0
  0
INSERT
  5
A681
330
A67A
100
AcDbEntity
  8
寸法
 62
     0
370
    -2
100
AcDbBlockReference
  2
_DOT
 10
571.0728464443584
 20
263.716745816846
 30
0.0
 41
2.0
 42
2.0
 43
2.0
 50
270.0
  0
MTEXT
  5
A682
330
A67A
100
AcDbEntity
  8
寸法
 62
     0
100
AcDbMText
 10
562.0728464443584
 20
400.0386147058715
 30
0.0
 40
8.0
 41
0.0
 46
0.0
 71
     5
 72
     1
  1
\A1;500
  7
ＭＳ ゴシック
 11
0.0
 21
1.0
 31
0.0
 73
     1
 44
1.0
  0
POINT
  5
A683
330
A67A
100
AcDbEntity
  8
Defpoints
 62
     0
100
AcDbPoint
 10
530.894594734016
 20
534.3259384686634
 30
0.0
  0
POINT
  5
A684
330
A67A
100
AcDbEntity
  8
Defpoints
 62
     0
100
AcDbPoint
 10
530.894594734016
 20
263.716745816846
 30
0.0
  0
POINT
  5
A685
330
A67A
100
AcDbEntity
  8
Defpoints
 62
     0
100
AcDbPoint
 10
571.0728464443584
 20
263.716745816846
 30
0.0
  0
ENDBLK
  5
A67C
330
A67A
100
AcDbEntity
  8
0
100
AcDbBlockEnd
  0
BLOCK
  5
A6C9
330
A6C8
100
AcDbEntity
  8
0
100
AcDbBlockBegin
  2
*D21
 70
     1
 10
0.0
 20
0.0
 30
0.0
  3
*D21
  1

  0
LINE
  5
A6CB
330
A6C8
100
AcDbEntity
  8
寸法
 62
     0
370
    -2
100
AcDbLine
 10
478.7660450439801
 20
546.8354555684149
 30
0.0
 11
495.5764043293696
 21
546.8354555684149
 31
0.0
  0
LINE
  5
A6CC
330
A6C8
100
AcDbEntity
  8
寸法
 62
     0
370
    -2
100
AcDbLine
 10
478.7660450439801
 20
521.8164213689117
 30
0.0
 11
495.5764043293696
 21
521.8164213689117
 31
0.0
  0
LINE
  5
A6CD
330
A6C8
100
AcDbEntity
  8
寸法
 62
     0
370
    -2
100
AcDbLine
 10
495.5764043293696
 20
544.8354555684149
 30
0.0
 11
495.5764043293696
 21
523.8164213689117
 31
0.0
  0
INSERT
  5
A6CE
330
A6C8
100
AcDbEntity
  8
寸法
 62
     0
370
    -2
100
AcDbBlockReference
  2
_DOT
 10
495.5764043293696
 20
546.8354555684149
 30
0.0
 41
2.0
 42
2.0
 43
2.0
 50
90.0
  0
INSERT
  5
A6CF
330
A6C8
100
AcDbEntity
  8
寸法
 62
     0
370
    -2
100
AcDbBlockReference
  2
_DOT
 10
495.5764043293696
 20
521.8164213689117
 30
0.0
 41
2.0
 42
2.0
 43
2.0
 50
270.0
  0
MTEXT
  5
A6D0
330
A6C8
100
AcDbEntity
  8
寸法
 62
     0
100
AcDbMText
 10
486.5764043293696
 20
534.3259384686633
 30
0.0
 40
8.0
 41
0.0
 46
0.0
 71
     5
 72
     1
  1
\A1;25
  7
ＭＳ ゴシック
 11
0.0
 21
1.0
 31
0.0
 73
     1
 44
1.0
  0
POINT
  5
A6D1
330
A6C8
100
AcDbEntity
  8
Defpoints
 62
     0
100
AcDbPoint
 10
472.7660450439801
 20
546.8354555684149
 30
0.0
  0
POINT
  5
A6D2
330
A6C8
100
AcDbEntity
  8
Defpoints
 62
     0
100
AcDbPoint
 10
472.7660450439801
 20
521.8164213689117
 30
0.0
  0
POINT
  5
A6D3
330
A6C8
100
AcDbEntity
  8
Defpoints
 62
     0
100
AcDbPoint
 10
495.5764043293696
 20
521.8164213689117
 30
0.0
  0
ENDBLK
  5
A6CA
330
A6C8
100
AcDbEntity
  8
0
100
AcDbBlockEnd
  0
BLOCK
  5
A6DC
330
A6DB
100
AcDbEntity
  8
0
100
AcDbBlockBegin
  2
*D22
 70
     1
 10
0.0
 20
0.0
 30
0.0
  3
*D22
  1

  0
LINE
  5
A6DE
330
A6DB
100
AcDbEntity
  8
寸法
 62
     0
370
    -2
100
AcDbLine
 10
1441.11595028745
 20
95.57309071060476
 30
0.0
 11
1441.11595028745
 21
70.84572357169904
 31
0.0
  0
LINE
  5
A6DF
330
A6DB
100
AcDbEntity
  8
寸法
 62
     0
370
    -2
100
AcDbLine
 10
1431.083118446439
 20
95.57309071060476
 30
0.0
 11
1431.083118446439
 21
70.84572357169904
 31
0.0
  0
LINE
  5
A6E0
330
A6DB
100
AcDbEntity
  8
寸法
 62
     0
370
    -2
100
AcDbLine
 10
1439.11595028745
 20
70.84572357169904
 30
0.0
 11
1433.083118446439
 21
70.84572357169904
 31
0.0
  0
INSERT
  5
A6E1
330
A6DB
100
AcDbEntity
  8
寸法
 62
     0
370
    -2
100
AcDbBlockReference
  2
_DOT
 10
1441.11595028745
 20
70.84572357169904
 30
0.0
 41
2.0
 42
2.0
 43
2.0
  0
INSERT
  5
A6E2
330
A6DB
100
AcDbEntity
  8
寸法
 62
     0
370
    -2
100
AcDbBlockReference
  2
_DOT
 10
1431.083118446439
 20
70.84572357169904
 30
0.0
 41
2.0
 42
2.0
 43
2.0
 50
180.0
  0
MTEXT
  5
A6E3
330
A6DB
100
AcDbEntity
  8
寸法
 62
     0
100
AcDbMText
 10
1436.099534366945
 20
79.84572357169904
 30
0.0
 40
8.0
 41
0.0
 46
0.0
 71
     5
 72
     1
  1
\A1;10
  7
ＭＳ ゴシック
 73
     1
 44
1.0
  0
POINT
  5
A6E4
330
A6DB
100
AcDbEntity
  8
Defpoints
 62
     0
100
AcDbPoint
 10
1441.11595028745
 20
101.5730907106048
 30
0.0
  0
POINT
  5
A6E5
330
A6DB
100
AcDbEntity
  8
Defpoints
 62
     0
100
AcDbPoint
 10
1431.083118446439
 20
101.5730907106048
 30
0.0
  0
POINT
  5
A6E6
330
A6DB
100
AcDbEntity
  8
Defpoints
 62
     0
100
AcDbPoint
 10
1431.083118446439
 20
70.84572357169904
 30
0.0
  0
ENDBLK
  5
A6DD
330
A6DB
100
AcDbEntity
  8
0
100
AcDbBlockEnd
  0
BLOCK
  5
A6EC
330
A6EB
100
AcDbEntity
  8
0
100
AcDbBlockBegin
  2
*D23
 70
     1
 10
0.0
 20
0.0
 30
0.0
  3
*D23
  1

  0
LINE
  5
A6EE
330
A6EB
100
AcDbEntity
  8
寸法
 62
     0
370
    -2
100
AcDbLine
 10
1224.911852424869
 20
95.57309071060476
 30
0.0
 11
1224.911852424869
 21
43.15863537122451
 31
0.0
  0
LINE
  5
A6EF
330
A6EB
100
AcDbEntity
  8
寸法
 62
     0
370
    -2
100
AcDbLine
 10
1284.855972838037
 20
95.57309071060476
 30
0.0
 11
1284.855972838037
 21
43.15863537122451
 31
0.0
  0
LINE
  5
A6F0
330
A6EB
100
AcDbEntity
  8
寸法
 62
     0
370
    -2
100
AcDbLine
 10
1226.911852424869
 20
43.15863537122451
 30
0.0
 11
1282.855972838037
 21
43.15863537122451
 31
0.0
  0
INSERT
  5
A6F1
330
A6EB
100
AcDbEntity
  8
寸法
 62
     0
370
    -2
100
AcDbBlockReference
  2
_DOT
 10
1224.911852424869
 20
43.15863537122451
 30
0.0
 41
2.0
 42
2.0
 43
2.0
 50
180.0
  0
INSERT
  5
A6F2
330
A6EB
100
AcDbEntity
  8
寸法
 62
     0
370
    -2
100
AcDbBlockReference
  2
_DOT
 10
1284.855972838037
 20
43.15863537122451
 30
0.0
 41
2.0
 42
2.0
 43
2.0
  0
MTEXT
  5
A6F3
330
A6EB
100
AcDbEntity
  8
寸法
 62
     0
100
AcDbMText
 10
1254.883912631453
 20
52.15863537122451
 30
0.0
 40
8.0
 41
0.0
 46
0.0
 71
     5
 72
     1
  1
\A1;60
  7
ＭＳ ゴシック
 73
     1
 44
1.0
  0
POINT
  5
A6F4
330
A6EB
100
AcDbEntity
  8
Defpoints
 62
     0
100
AcDbPoint
 10
1224.911852424869
 20
101.5730907106048
 30
0.0
  0
POINT
  5
A6F5
330
A6EB
100
AcDbEntity
  8
Defpoints
 62
     0
100
AcDbPoint
 10
1284.855972838037
 20
101.5730907106048
 30
0.0
  0
POINT
  5
A6F6
330
A6EB
100
AcDbEntity
  8
Defpoints
 62
     0
100
AcDbPoint
 10
1284.855972838037
 20
43.15863537122451
 30
0.0
  0
ENDBLK
  5
A6ED
330
A6EB
100
AcDbEntity
  8
0
100
AcDbBlockEnd
  0
BLOCK
  5
A6FB
330
A6FA
100
AcDbEntity
  8
0
100
AcDbBlockBegin
  2
*D24
 70
     1
 10
0.0
 20
0.0
 30
0.0
  3
*D24
  1

  0
LINE
  5
A6FD
330
A6FA
100
AcDbEntity
  8
寸法
 62
     0
370
    -2
100
AcDbLine
 10
1228.976386112811
 20
65.98171449496587
 30
0.0
 11
1228.976386112811
 21
43.15863537122451
 31
0.0
  0
LINE
  5
A6FE
330
A6FA
100
AcDbEntity
  8
寸法
 62
     0
370
    -2
100
AcDbLine
 10
1252.979114635129
 20
95.57309071060476
 30
0.0
 11
1252.979114635129
 21
43.15863537122451
 31
0.0
  0
LINE
  5
A6FF
330
A6FA
100
AcDbEntity
  8
寸法
 62
     0
370
    -2
100
AcDbLine
 10
1230.976386112811
 20
43.15863537122451
 30
0.0
 11
1250.979114635129
 21
43.15863537122451
 31
0.0
  0
INSERT
  5
A700
330
A6FA
100
AcDbEntity
  8
寸法
 62
     0
370
    -2
100
AcDbBlockReference
  2
_DOT
 10
1228.976386112811
 20
43.15863537122451
 30
0.0
 41
2.0
 42
2.0
 43
2.0
 50
180.0
  0
INSERT
  5
A701
330
A6FA
100
AcDbEntity
  8
寸法
 62
     0
370
    -2
100
AcDbBlockReference
  2
_DOT
 10
1252.979114635129
 20
43.15863537122451
 30
0.0
 41
2.0
 42
2.0
 43
2.0
  0
MTEXT
  5
A702
330
A6FA
100
AcDbEntity
  8
寸法
 62
     0
100
AcDbMText
 10
1240.97775037397
 20
52.15863537122451
 30
0.0
 40
8.0
 41
0.0
 46
0.0
 71
     5
 72
     1
  1
\A1;24
  7
ＭＳ ゴシック
 73
     1
 44
1.0
  0
POINT
  5
A703
330
A6FA
100
AcDbEntity
  8
Defpoints
 62
     0
100
AcDbPoint
 10
1228.976386112811
 20
71.98171449496587
 30
0.0
  0
POINT
  5
A704
330
A6FA
100
AcDbEntity
  8
Defpoints
 62
     0
100
AcDbPoint
 10
1252.979114635129
 20
101.5730907106048
 30
0.0
  0
POINT
  5
A705
330
A6FA
100
AcDbEntity
  8
Defpoints
 62
     0
100
AcDbPoint
 10
1252.979114635129
 20
43.15863537122451
 30
0.0
  0
ENDBLK
  5
A6FC
330
A6FA
100
AcDbEntity
  8
0
100
AcDbBlockEnd
  0
BLOCK
  5
A70A
330
A709
100
AcDbEntity
  8
0
100
AcDbBlockBegin
  2
*D25
 70
     1
 10
0.0
 20
0.0
 30
0.0
  3
*D25
  1

  0
LINE
  5
A70C
330
A709
100
AcDbEntity
  8
寸法
 62
     0
370
    -2
100
AcDbLine
 10
1073.893808642678
 20
63.56876366004917
 30
0.0
 11
1073.893808642678
 21
43.15863537122451
 31
0.0
  0
LINE
  5
A70D
330
A709
100
AcDbEntity
  8
寸法
 62
     0
370
    -2
100
AcDbLine
 10
1079.862795816545
 20
63.56876366004917
 30
0.0
 11
1079.862795816545
 21
43.15863537122451
 31
0.0
  0
LINE
  5
A70E
330
A709
100
AcDbEntity
  8
寸法
 62
     0
370
    -2
100
AcDbLine
 10
1075.893808642678
 20
43.15863537122451
 30
0.0
 11
1077.862795816545
 21
43.15863537122451
 31
0.0
  0
INSERT
  5
A70F
330
A709
100
AcDbEntity
  8
寸法
 62
     0
370
    -2
100
AcDbBlockReference
  2
_DOT
 10
1073.893808642678
 20
43.15863537122451
 30
0.0
 41
2.0
 42
2.0
 43
2.0
 50
180.0
  0
INSERT
  5
A710
330
A709
100
AcDbEntity
  8
寸法
 62
     0
370
    -2
100
AcDbBlockReference
  2
_DOT
 10
1079.862795816545
 20
43.15863537122451
 30
0.0
 41
2.0
 42
2.0
 43
2.0
  0
MTEXT
  5
A711
330
A709
100
AcDbEntity
  8
寸法
 62
     0
100
AcDbMText
 10
1076.878302229612
 20
52.15863537122451
 30
0.0
 40
8.0
 41
0.0
 46
0.0
 71
     5
 72
     1
  1
\A1;6
  7
ＭＳ ゴシック
 73
     1
 44
1.0
  0
POINT
  5
A712
330
A709
100
AcDbEntity
  8
Defpoints
 62
     0
100
AcDbPoint
 10
1073.893808642678
 20
69.56876366004917
 30
0.0
  0
POINT
  5
A713
330
A709
100
AcDbEntity
  8
Defpoints
 62
     0
100
AcDbPoint
 10
1079.862795816545
 20
69.56876366004917
 30
0.0
  0
POINT
  5
A714
330
A709
100
AcDbEntity
  8
Defpoints
 62
     0
100
AcDbPoint
 10
1079.862795816545
 20
43.15863537122451
 30
0.0
  0
ENDBLK
  5
A70B
330
A709
100
AcDbEntity
  8
0
100
AcDbBlockEnd
  0
BLOCK
  5
A71B
330
A71A
100
AcDbEntity
  8
0
100
AcDbBlockBegin
  2
*D26
 70
     1
 10
0.0
 20
0.0
 30
0.0
  3
*D26
  1

  0
LINE
  5
A71D
330
A71A
100
AcDbEntity
  8
寸法
 62
     0
370
    -2
100
AcDbLine
 10
95.54586021828118
 20
546.8354555684149
 30
0.0
 11
62.20270626817205
 21
546.8354555684149
 31
0.0
  0
LINE
  5
A71E
330
A71A
100
AcDbEntity
  8
寸法
 62
     0
370
    -2
100
AcDbLine
 10
95.54207060389172
 20
521.8164213689117
 30
0.0
 11
62.20270626817205
 21
521.8164213689117
 31
0.0
  0
LINE
  5
A71F
330
A71A
100
AcDbEntity
  8
寸法
 62
     0
370
    -2
100
AcDbLine
 10
62.20270626817205
 20
544.8354555684149
 30
0.0
 11
62.20270626817205
 21
523.8164213689117
 31
0.0
  0
INSERT
  5
A720
330
A71A
100
AcDbEntity
  8
寸法
 62
     0
370
    -2
100
AcDbBlockReference
  2
_DOT
 10
62.20270626817205
 20
546.8354555684149
 30
0.0
 41
2.0
 42
2.0
 43
2.0
 50
90.0
  0
INSERT
  5
A721
330
A71A
100
AcDbEntity
  8
寸法
 62
     0
370
    -2
100
AcDbBlockReference
  2
_DOT
 10
62.20270626817205
 20
521.8164213689117
 30
0.0
 41
2.0
 42
2.0
 43
2.0
 50
270.0
  0
MTEXT
  5
A722
330
A71A
100
AcDbEntity
  8
寸法
 62
     0
100
AcDbMText
 10
53.20270626817205
 20
534.3259384686634
 30
0.0
 40
8.0
 41
0.0
 46
0.0
 71
     5
 72
     1
  1
\A1;25
  7
ＭＳ ゴシック
 11
0.0
 21
1.0
 31
0.0
 73
     1
 44
1.0
  0
POINT
  5
A723
330
A71A
100
AcDbEntity
  8
Defpoints
 62
     0
100
AcDbPoint
 10
101.5458602182812
 20
546.8354555684149
 30
0.0
  0
POINT
  5
A724
330
A71A
100
AcDbEntity
  8
Defpoints
 62
     0
100
AcDbPoint
 10
101.5420706038917
 20
521.8164213689117
 30
0.0
  0
POINT
  5
A725
330
A71A
100
AcDbEntity
  8
Defpoints
 62
     0
100
AcDbPoint
 10
62.20270626817205
 20
521.8164213689117
 30
0.0
  0
ENDBLK
  5
A71C
330
A71A
100
AcDbEntity
  8
0
100
AcDbBlockEnd
  0
BLOCK
  5
A728
330
A727
100
AcDbEntity
  8
0
100
AcDbBlockBegin
  2
*D27
 70
     1
 10
0.0
 20
0.0
 30
0.0
  3
*D27
  1

  0
LINE
  5
A72A
330
A727
100
AcDbEntity
  8
寸法
 62
     0
370
    -2
100
AcDbLine
 10
260.6264808693406
 20
582.4264872736547
 30
0.0
 11
260.6264808693406
 21
603.9973033064787
 31
0.0
  0
LINE
  5
A72B
330
A727
100
AcDbEntity
  8
寸法
 62
     0
370
    -2
100
AcDbLine
 10
279.6264808693406
 20
582.4264872736547
 30
0.0
 11
279.6264808693406
 21
603.9973033064787
 31
0.0
  0
LINE
  5
A72C
330
A727
100
AcDbEntity
  8
寸法
 62
     0
370
    -2
100
AcDbLine
 10
262.6264808693406
 20
603.9973033064787
 30
0.0
 11
277.6264808693406
 21
603.9973033064787
 31
0.0
  0
INSERT
  5
A72D
330
A727
100
AcDbEntity
  8
寸法
 62
     0
370
    -2
100
AcDbBlockReference
  2
_DOT
 10
260.6264808693406
 20
603.9973033064787
 30
0.0
 41
2.0
 42
2.0
 43
2.0
 50
180.0
  0
INSERT
  5
A72E
330
A727
100
AcDbEntity
  8
寸法
 62
     0
370
    -2
100
AcDbBlockReference
  2
_DOT
 10
279.6264808693406
 20
603.9973033064787
 30
0.0
 41
2.0
 42
2.0
 43
2.0
  0
MTEXT
  5
A72F
330
A727
100
AcDbEntity
  8
寸法
 62
     0
100
AcDbMText
 10
270.1264808693406
 20
612.9973033064787
 30
0.0
 40
8.0
 41
0.0
 46
0.0
 71
     5
 72
     1
  1
\A1;19
  7
ＭＳ ゴシック
 73
     1
 44
1.0
  0
POINT
  5
A730
330
A727
100
AcDbEntity
  8
Defpoints
 62
     0
100
AcDbPoint
 10
260.6264808693406
 20
576.4264872736547
 30
0.0
  0
POINT
  5
A731
330
A727
100
AcDbEntity
  8
Defpoints
 62
     0
100
AcDbPoint
 10
279.6264808693406
 20
576.4264872736547
 30
0.0
  0
POINT
  5
A732
330
A727
100
AcDbEntity
  8
Defpoints
 62
     0
100
AcDbPoint
 10
279.6264808693406
 20
603.9973033064787
 30
0.0
  0
ENDBLK
  5
A729
330
A727
100
AcDbEntity
  8
0
100
AcDbBlockEnd
  0
BLOCK
  5
A778
330
A777
100
AcDbEntity
  8
0
100
AcDbBlockBegin
  2
*D28
 70
     1
 10
0.0
 20
0.0
 30
0.0
  3
*D28
  1

  0
LINE
  5
A779
330
A777
100
AcDbEntity
  8
寸法
 62
     0
370
    -2
100
AcDbLine
 10
4.06453368794223
 20
540.5444022218383
 30
0.0
 11
4.06453368794223
 21
562.1152182546621
 31
0.0
  0
LINE
  5
A77A
330
A777
100
AcDbEntity
  8
寸法
 62
     0
370
    -2
100
AcDbLine
 10
23.06453368794223
 20
540.5444022218383
 30
0.0
 11
23.06453368794223
 21
562.1152182546621
 31
0.0
  0
LINE
  5
A77B
330
A777
100
AcDbEntity
  8
寸法
 62
     0
370
    -2
100
AcDbLine
 10
6.06453368794223
 20
562.1152182546621
 30
0.0
 11
21.06453368794223
 21
562.1152182546621
 31
0.0
  0
INSERT
  5
A77C
330
A777
100
AcDbEntity
  8
寸法
 62
     0
370
    -2
100
AcDbBlockReference
  2
_DOT
 10
4.06453368794223
 20
562.1152182546621
 30
0.0
 41
2.0
 42
2.0
 43
2.0
 50
180.0
  0
INSERT
  5
A77D
330
A777
100
AcDbEntity
  8
寸法
 62
     0
370
    -2
100
AcDbBlockReference
  2
_DOT
 10
23.06453368794223
 20
562.1152182546621
 30
0.0
 41
2.0
 42
2.0
 43
2.0
  0
MTEXT
  5
A77E
330
A777
100
AcDbEntity
  8
寸法
 62
     0
100
AcDbMText
 10
13.56453368794223
 20
571.1152182546621
 30
0.0
 40
8.0
 41
0.0
 46
0.0
 71
     5
 72
     1
  1
\A1;19
  7
ＭＳ ゴシック
 73
     1
 44
1.0
  0
POINT
  5
A77F
330
A777
100
AcDbEntity
  8
Defpoints
 62
     0
100
AcDbPoint
 10
4.06453368794223
 20
534.5444022218383
 30
0.0
  0
POINT
  5
A780
330
A777
100
AcDbEntity
  8
Defpoints
 62
     0
100
AcDbPoint
 10
23.06453368794223
 20
534.5444022218383
 30
0.0
  0
POINT
  5
A781
330
A777
100
AcDbEntity
  8
Defpoints
 62
     0
100
AcDbPoint
 10
23.06453368794223
 20
562.1152182546621
 30
0.0
  0
ENDBLK
  5
A782
330
A777
100
AcDbEntity
  8
0
100
AcDbBlockEnd
  0
BLOCK
  5
A796
330
A795
100
AcDbEntity
  8
0
100
AcDbBlockBegin
  2
*D29
 70
     1
 10
0.0
 20
0.0
 30
0.0
  3
*D29
  1

  0
LINE
  5
A798
330
A795
100
AcDbEntity
  8
寸法
 62
     0
370
    -2
100
AcDbLine
 10
1714.917690497784
 20
1053.525821541238
 30
0.0
 11
1714.917690497784
 21
1075.096637574062
 31
0.0
  0
LINE
  5
A799
330
A795
100
AcDbEntity
  8
寸法
 62
     0
370
    -2
100
AcDbLine
 10
1733.917690497784
 20
1053.525821541238
 30
0.0
 11
1733.917690497784
 21
1075.096637574062
 31
0.0
  0
LINE
  5
A79A
330
A795
100
AcDbEntity
  8
寸法
 62
     0
370
    -2
100
AcDbLine
 10
1716.917690497784
 20
1075.096637574062
 30
0.0
 11
1731.917690497784
 21
1075.096637574062
 31
0.0
  0
INSERT
  5
A79B
330
A795
100
AcDbEntity
  8
寸法
 62
     0
370
    -2
100
AcDbBlockReference
  2
_DOT
 10
1714.917690497784
 20
1075.096637574062
 30
0.0
 41
2.0
 42
2.0
 43
2.0
 50
180.0
  0
INSERT
  5
A79C
330
A795
100
AcDbEntity
  8
寸法
 62
     0
370
    -2
100
AcDbBlockReference
  2
_DOT
 10
1733.917690497784
 20
1075.096637574062
 30
0.0
 41
2.0
 42
2.0
 43
2.0
  0
MTEXT
  5
A79D
330
A795
100
AcDbEntity
  8
寸法
 62
     0
100
AcDbMText
 10
1724.417690497784
 20
1084.096637574062
 30
0.0
 40
8.0
 41
0.0
 46
0.0
 71
     5
 72
     1
  1
\A1;19
  7
ＭＳ ゴシック
 73
     1
 44
1.0
  0
POINT
  5
A79E
330
A795
100
AcDbEntity
  8
Defpoints
 62
     0
100
AcDbPoint
 10
1714.917690497784
 20
1047.525821541238
 30
0.0
  0
POINT
  5
A79F
330
A795
100
AcDbEntity
  8
Defpoints
 62
     0
100
AcDbPoint
 10
1733.917690497784
 20
1047.525821541238
 30
0.0
  0
POINT
  5
A7A0
330
A795
100
AcDbEntity
  8
Defpoints
 62
     0
100
AcDbPoint
 10
1733.917690497784
 20
1075.096637574062
 30
0.0
  0
ENDBLK
  5
A797
330
A795
100
AcDbEntity
  8
0
100
AcDbBlockEnd
  0
BLOCK
  5
A7B0
330
A7AF
100
AcDbEntity
  8
0
100
AcDbBlockBegin
  2
*D30
 70
     1
 10
0.0
 20
0.0
 30
0.0
  3
*D30
  1

  0
LINE
  5
A7B2
330
A7AF
100
AcDbEntity
  8
寸法
 62
     0
370
    -2
100
AcDbLine
 10
120.0553773180327
 20
695.5416439558946
 30
0.0
 11
137.8566654543554
 21
695.5416439558946
 31
0.0
  0
LINE
  5
A7B3
330
A7AF
100
AcDbEntity
  8
寸法
 62
     0
370
    -2
100
AcDbLine
 10
120.0553773180327
 20
671.5389154335764
 30
0.0
 11
137.8566654543554
 21
671.5389154335764
 31
0.0
  0
LINE
  5
A7B4
330
A7AF
100
AcDbEntity
  8
寸法
 62
     0
370
    -2
100
AcDbLine
 10
137.8566654543554
 20
693.5416439558946
 30
0.0
 11
137.8566654543554
 21
673.5389154335764
 31
0.0
  0
INSERT
  5
A7B5
330
A7AF
100
AcDbEntity
  8
寸法
 62
     0
370
    -2
100
AcDbBlockReference
  2
_DOT
 10
137.8566654543554
 20
695.5416439558946
 30
0.0
 41
2.0
 42
2.0
 43
2.0
 50
90.0
  0
INSERT
  5
A7B6
330
A7AF
100
AcDbEntity
  8
寸法
 62
     0
370
    -2
100
AcDbBlockReference
  2
_DOT
 10
137.8566654543554
 20
671.5389154335764
 30
0.0
 41
2.0
 42
2.0
 43
2.0
 50
270.0
  0
MTEXT
  5
A7B7
330
A7AF
100
AcDbEntity
  8
寸法
 62
     0
100
AcDbMText
 10
128.8566654543554
 20
683.5402796947355
 30
0.0
 40
8.0
 41
0.0
 46
0.0
 71
     5
 72
     1
  1
\A1;24
  7
ＭＳ ゴシック
 11
0.0
 21
1.0
 31
0.0
 73
     1
 44
1.0
  0
POINT
  5
A7B8
330
A7AF
100
AcDbEntity
  8
Defpoints
 62
     0
100
AcDbPoint
 10
114.0553773180327
 20
695.5416439558946
 30
0.0
  0
POINT
  5
A7B9
330
A7AF
100
AcDbEntity
  8
Defpoints
 62
     0
100
AcDbPoint
 10
114.0553773180327
 20
671.5389154335764
 30
0.0
  0
POINT
  5
A7BA
330
A7AF
100
AcDbEntity
  8
Defpoints
 62
     0
100
AcDbPoint
 10
137.8566654543554
 20
671.5389154335764
 30
0.0
  0
ENDBLK
  5
A7B1
330
A7AF
100
AcDbEntity
  8
0
100
AcDbBlockEnd
  0
BLOCK
  5
A7C0
330
A7BF
100
AcDbEntity
  8
0
100
AcDbBlockBegin
  2
*D31
 70
     1
 10
0.0
 20
0.0
 30
0.0
  3
*D31
  1

  0
LINE
  5
A7C2
330
A7BF
100
AcDbEntity
  8
寸法
 62
     0
370
    -2
100
AcDbLine
 10
120.0553773180327
 20
727.418502158803
 30
0.0
 11
166.9503580638345
 21
727.418502158803
 31
0.0
  0
LINE
  5
A7C3
330
A7BF
100
AcDbEntity
  8
寸法
 62
     0
370
    -2
100
AcDbLine
 10
120.0553773180327
 20
667.4743817456342
 30
0.0
 11
166.9503580638345
 21
667.4743817456342
 31
0.0
  0
LINE
  5
A7C4
330
A7BF
100
AcDbEntity
  8
寸法
 62
     0
370
    -2
100
AcDbLine
 10
166.9503580638345
 20
725.418502158803
 30
0.0
 11
166.9503580638345
 21
669.4743817456342
 31
0.0
  0
INSERT
  5
A7C5
330
A7BF
100
AcDbEntity
  8
寸法
 62
     0
370
    -2
100
AcDbBlockReference
  2
_DOT
 10
166.9503580638345
 20
727.418502158803
 30
0.0
 41
2.0
 42
2.0
 43
2.0
 50
90.0
  0
INSERT
  5
A7C6
330
A7BF
100
AcDbEntity
  8
寸法
 62
     0
370
    -2
100
AcDbBlockReference
  2
_DOT
 10
166.9503580638345
 20
667.4743817456342
 30
0.0
 41
2.0
 42
2.0
 43
2.0
 50
270.0
  0
MTEXT
  5
A7C7
330
A7BF
100
AcDbEntity
  8
寸法
 62
     0
100
AcDbMText
 10
157.9503580638345
 20
697.4464419522186
 30
0.0
 40
8.0
 41
0.0
 46
0.0
 71
     5
 72
     1
  1
\A1;60
  7
ＭＳ ゴシック
 11
0.0
 21
1.0
 31
0.0
 73
     1
 44
1.0
  0
POINT
  5
A7C8
330
A7BF
100
AcDbEntity
  8
Defpoints
 62
     0
100
AcDbPoint
 10
114.0553773180327
 20
727.418502158803
 30
0.0
  0
POINT
  5
A7C9
330
A7BF
100
AcDbEntity
  8
Defpoints
 62
     0
100
AcDbPoint
 10
114.0553773180327
 20
667.4743817456342
 30
0.0
  0
POINT
  5
A7CA
330
A7BF
100
AcDbEntity
  8
Defpoints
 62
     0
100
AcDbPoint
 10
166.9503580638345
 20
667.4743817456342
 30
0.0
  0
ENDBLK
  5
A7C1
330
A7BF
100
AcDbEntity
  8
0
100
AcDbBlockEnd
  0
BLOCK
  5
A7CF
330
A7CE
100
AcDbEntity
  8
0
100
AcDbBlockBegin
  2
*D32
 70
     1
 10
0.0
 20
0.0
 30
0.0
  3
*D32
  1

  0
LINE
  5
A7D1
330
A7CE
100
AcDbEntity
  8
寸法
 62
     0
370
    -2
100
AcDbLine
 10
105.5439033992077
 20
584.8394381085715
 30
0.0
 11
105.5439033992077
 21
602.0250291244057
 31
0.0
  0
LINE
  5
A7D2
330
A7CE
100
AcDbEntity
  8
寸法
 62
     0
370
    -2
100
AcDbLine
 10
111.5128905730749
 20
584.8394381085715
 30
0.0
 11
111.5128905730749
 21
602.0250291244057
 31
0.0
  0
LINE
  5
A7D3
330
A7CE
100
AcDbEntity
  8
寸法
 62
     0
370
    -2
100
AcDbLine
 10
107.5439033992077
 20
602.0250291244057
 30
0.0
 11
109.5128905730749
 21
602.0250291244057
 31
0.0
  0
INSERT
  5
A7D4
330
A7CE
100
AcDbEntity
  8
寸法
 62
     0
370
    -2
100
AcDbBlockReference
  2
_DOT
 10
105.5439033992077
 20
602.0250291244057
 30
0.0
 41
2.0
 42
2.0
 43
2.0
 50
180.0
  0
INSERT
  5
A7D5
330
A7CE
100
AcDbEntity
  8
寸法
 62
     0
370
    -2
100
AcDbBlockReference
  2
_DOT
 10
111.5128905730749
 20
602.0250291244057
 30
0.0
 41
2.0
 42
2.0
 43
2.0
  0
MTEXT
  5
A7D6
330
A7CE
100
AcDbEntity
  8
寸法
 62
     0
100
AcDbMText
 10
108.5283969861414
 20
611.0250291244057
 30
0.0
 40
8.0
 41
0.0
 46
0.0
 71
     5
 72
     1
  1
\A1;6
  7
ＭＳ ゴシック
 73
     1
 44
1.0
  0
POINT
  5
A7D7
330
A7CE
100
AcDbEntity
  8
Defpoints
 62
     0
100
AcDbPoint
 10
105.5439033992077
 20
578.8394381085715
 30
0.0
  0
POINT
  5
A7D8
330
A7CE
100
AcDbEntity
  8
Defpoints
 62
     0
100
AcDbPoint
 10
111.5128905730749
 20
578.8394381085715
 30
0.0
  0
POINT
  5
A7D9
330
A7CE
100
AcDbEntity
  8
Defpoints
 62
     0
100
AcDbPoint
 10
111.5128905730749
 20
602.0250291244057
 30
0.0
  0
ENDBLK
  5
A7D0
330
A7CE
100
AcDbEntity
  8
0
100
AcDbBlockEnd
  0
BLOCK
  5
A7E1
330
A7E0
100
AcDbEntity
  8
0
100
AcDbBlockBegin
  2
*D33
 70
     1
 10
0.0
 20
0.0
 30
0.0
  3
*D33
  1

  0
LINE
  5
A7E3
330
A7E0
100
AcDbEntity
  8
寸法
 62
     0
370
    -2
100
AcDbLine
 10
89.03634311852943
 20
661.4743817456342
 30
0.0
 11
89.03634311852943
 21
643.2380503182544
 31
0.0
  0
LINE
  5
A7E4
330
A7E0
100
AcDbEntity
  8
寸法
 62
     0
370
    -2
100
AcDbLine
 10
114.0553773180327
 20
661.4743817456342
 30
0.0
 11
114.0553773180327
 21
643.2380503182544
 31
0.0
  0
LINE
  5
A7E5
330
A7E0
100
AcDbEntity
  8
寸法
 62
     0
370
    -2
100
AcDbLine
 10
91.03634311852943
 20
643.2380503182544
 30
0.0
 11
112.0553773180327
 21
643.2380503182544
 31
0.0
  0
INSERT
  5
A7E6
330
A7E0
100
AcDbEntity
  8
寸法
 62
     0
370
    -2
100
AcDbBlockReference
  2
_DOT
 10
89.03634311852943
 20
643.2380503182544
 30
0.0
 41
2.0
 42
2.0
 43
2.0
 50
180.0
  0
INSERT
  5
A7E7
330
A7E0
100
AcDbEntity
  8
寸法
 62
     0
370
    -2
100
AcDbBlockReference
  2
_DOT
 10
114.0553773180327
 20
643.2380503182544
 30
0.0
 41
2.0
 42
2.0
 43
2.0
  0
MTEXT
  5
A7E8
330
A7E0
100
AcDbEntity
  8
寸法
 62
     0
100
AcDbMText
 10
101.5458602182811
 20
652.2380503182544
 30
0.0
 40
8.0
 41
0.0
 46
0.0
 71
     5
 72
     1
  1
\A1;25
  7
ＭＳ ゴシック
 73
     1
 44
1.0
  0
POINT
  5
A7E9
330
A7E0
100
AcDbEntity
  8
Defpoints
 62
     0
100
AcDbPoint
 10
89.03634311852943
 20
667.4743817456342
 30
0.0
  0
POINT
  5
A7EA
330
A7E0
100
AcDbEntity
  8
Defpoints
 62
     0
100
AcDbPoint
 10
114.0553773180327
 20
667.4743817456342
 30
0.0
  0
POINT
  5
A7EB
330
A7E0
100
AcDbEntity
  8
Defpoints
 62
     0
100
AcDbPoint
 10
114.0553773180327
 20
643.2380503182544
 30
0.0
  0
ENDBLK
  5
A7E2
330
A7E0
100
AcDbEntity
  8
0
100
AcDbBlockEnd
  0
BLOCK
  5
A830
330
A82F
100
AcDbEntity
  8
0
100
AcDbBlockBegin
  2
*D34
 70
     1
 10
0.0
 20
0.0
 30
0.0
  3
*D34
  1

  0
LINE
  5
A831
330
A82F
100
AcDbEntity
  8
寸法
 62
     0
370
    -2
100
AcDbLine
 10
128.0469429867585
 20
26.01903419950315
 30
0.0
 11
144.857302272148
 21
26.01903419950315
 31
0.0
  0
LINE
  5
A832
330
A82F
100
AcDbEntity
  8
寸法
 62
     0
370
    -2
100
AcDbLine
 10
128.0469429867585
 20
0.9999999999999997
 30
0.0
 11
144.857302272148
 21
0.9999999999999986
 31
0.0
  0
LINE
  5
A833
330
A82F
100
AcDbEntity
  8
寸法
 62
     0
370
    -2
100
AcDbLine
 10
144.857302272148
 20
24.01903419950315
 30
0.0
 11
144.857302272148
 21
2.999999999999999
 31
0.0
  0
INSERT
  5
A834
330
A82F
100
AcDbEntity
  8
寸法
 62
     0
370
    -2
100
AcDbBlockReference
  2
_DOT
 10
144.857302272148
 20
26.01903419950315
 30
0.0
 41
2.0
 42
2.0
 43
2.0
 50
90.0
  0
INSERT
  5
A835
330
A82F
100
AcDbEntity
  8
寸法
 62
     0
370
    -2
100
AcDbBlockReference
  2
_DOT
 10
144.857302272148
 20
0.9999999999999986
 30
0.0
 41
2.0
 42
2.0
 43
2.0
 50
270.0
  0
MTEXT
  5
A836
330
A82F
100
AcDbEntity
  8
寸法
 62
     0
100
AcDbMText
 10
135.857302272148
 20
13.50951709975158
 30
0.0
 40
8.0
 41
0.0
 46
0.0
 71
     5
 72
     1
  1
\A1;25
  7
ＭＳ ゴシック
 11
0.0
 21
1.0
 31
0.0
 73
     1
 44
1.0
  0
POINT
  5
A837
330
A82F
100
AcDbEntity
  8
Defpoints
 62
     0
100
AcDbPoint
 10
122.0469429867585
 20
26.01903419950315
 30
0.0
  0
POINT
  5
A838
330
A82F
100
AcDbEntity
  8
Defpoints
 62
     0
100
AcDbPoint
 10
122.0469429867585
 20
1.0
 30
0.0
  0
POINT
  5
A839
330
A82F
100
AcDbEntity
  8
Defpoints
 62
     0
100
AcDbPoint
 10
144.857302272148
 20
0.9999999999999986
 30
0.0
  0
ENDBLK
  5
A83A
330
A82F
100
AcDbEntity
  8
0
100
AcDbBlockEnd
  0
BLOCK
  5
A853
330
A852
100
AcDbEntity
  8
0
100
AcDbBlockBegin
  2
*D35
 70
     1
 10
0.0
 20
0.0
 30
0.0
  3
*D35
  1

  0
LINE
  5
A855
330
A852
100
AcDbEntity
  8
寸法
 62
     0
370
    -2
100
AcDbLine
 10
89.03634311852943
 20
818.0481807149198
 30
0.0
 11
89.03634311852943
 21
829.8017595073079
 31
0.0
  0
LINE
  5
A856
330
A852
100
AcDbEntity
  8
寸法
 62
     0
370
    -2
100
AcDbLine
 10
114.0553773180325
 20
818.0481807149198
 30
0.0
 11
114.0553773180325
 21
829.8017595073079
 31
0.0
  0
LINE
  5
A857
330
A852
100
AcDbEntity
  8
寸法
 62
     0
370
    -2
100
AcDbLine
 10
91.03634311852943
 20
829.8017595073079
 30
0.0
 11
112.0553773180325
 21
829.8017595073079
 31
0.0
  0
INSERT
  5
A858
330
A852
100
AcDbEntity
  8
寸法
 62
     0
370
    -2
100
AcDbBlockReference
  2
_DOT
 10
89.03634311852943
 20
829.8017595073079
 30
0.0
 41
2.0
 42
2.0
 43
2.0
 50
180.0
  0
INSERT
  5
A859
330
A852
100
AcDbEntity
  8
寸法
 62
     0
370
    -2
100
AcDbBlockReference
  2
_DOT
 10
114.0553773180325
 20
829.8017595073079
 30
0.0
 41
2.0
 42
2.0
 43
2.0
  0
MTEXT
  5
A85A
330
A852
100
AcDbEntity
  8
寸法
 62
     0
100
AcDbMText
 10
101.5458602182809
 20
838.8017595073079
 30
0.0
 40
8.0
 41
0.0
 46
0.0
 71
     5
 72
     1
  1
\A1;25
  7
ＭＳ ゴシック
 73
     1
 44
1.0
  0
POINT
  5
A85B
330
A852
100
AcDbEntity
  8
Defpoints
 62
     0
100
AcDbPoint
 10
89.03634311852943
 20
812.0481807149198
 30
0.0
  0
POINT
  5
A85C
330
A852
100
AcDbEntity
  8
Defpoints
 62
     0
100
AcDbPoint
 10
114.0553773180325
 20
812.0481807149198
 30
0.0
  0
POINT
  5
A85D
330
A852
100
AcDbEntity
  8
Defpoints
 62
     0
100
AcDbPoint
 10
114.0553773180325
 20
829.8017595073079
 30
0.0
  0
ENDBLK
  5
A854
330
A852
100
AcDbEntity
  8
0
100
AcDbBlockEnd
  0
BLOCK
  5
A863
330
A862
100
AcDbEntity
  8
0
100
AcDbBlockBegin
  2
*D36
 70
     1
 10
0.0
 20
0.0
 30
0.0
  3
*D36
  1

  0
LINE
  5
A865
330
A862
100
AcDbEntity
  8
寸法
 62
     0
370
    -2
100
AcDbLine
 10
120.0553773180325
 20
812.0481807149198
 30
0.0
 11
140.2346800796715
 21
812.0481807149198
 31
0.0
  0
LINE
  5
A866
330
A862
100
AcDbEntity
  8
寸法
 62
     0
370
    -2
100
AcDbLine
 10
120.0553773180325
 20
802.0153488739087
 30
0.0
 11
140.2346800796715
 21
802.0153488739087
 31
0.0
  0
LINE
  5
A867
330
A862
100
AcDbEntity
  8
寸法
 62
     0
370
    -2
100
AcDbLine
 10
140.2346800796715
 20
810.0481807149198
 30
0.0
 11
140.2346800796715
 21
804.0153488739087
 31
0.0
  0
INSERT
  5
A868
330
A862
100
AcDbEntity
  8
寸法
 62
     0
370
    -2
100
AcDbBlockReference
  2
_DOT
 10
140.2346800796715
 20
812.0481807149198
 30
0.0
 41
2.0
 42
2.0
 43
2.0
 50
90.0
  0
INSERT
  5
A869
330
A862
100
AcDbEntity
  8
寸法
 62
     0
370
    -2
100
AcDbBlockReference
  2
_DOT
 10
140.2346800796715
 20
802.0153488739087
 30
0.0
 41
2.0
 42
2.0
 43
2.0
 50
270.0
  0
MTEXT
  5
A86A
330
A862
100
AcDbEntity
  8
寸法
 62
     0
100
AcDbMText
 10
131.2346800796715
 20
807.0317647944142
 30
0.0
 40
8.0
 41
0.0
 46
0.0
 71
     5
 72
     1
  1
\A1;10
  7
ＭＳ ゴシック
 11
0.0
 21
1.0
 31
0.0
 73
     1
 44
1.0
  0
POINT
  5
A86B
330
A862
100
AcDbEntity
  8
Defpoints
 62
     0
100
AcDbPoint
 10
114.0553773180325
 20
812.0481807149198
 30
0.0
  0
POINT
  5
A86C
330
A862
100
AcDbEntity
  8
Defpoints
 62
     0
100
AcDbPoint
 10
114.0553773180325
 20
802.0153488739087
 30
0.0
  0
POINT
  5
A86D
330
A862
100
AcDbEntity
  8
Defpoints
 62
     0
100
AcDbPoint
 10
140.2346800796715
 20
802.0153488739087
 30
0.0
  0
ENDBLK
  5
A864
330
A862
100
AcDbEntity
  8
0
100
AcDbBlockEnd
  0
BLOCK
  5
A9A1
330
A9A0
100
AcDbEntity
  8
0
100
AcDbBlockBegin
  2
*D37
 70
     1
 10
0.0
 20
0.0
 30
0.0
  3
*D37
  1

  0
LINE
  5
A9A3
330
A9A0
100
AcDbEntity
  8
寸法
 62
     0
370
    -2
100
AcDbLine
 10
260.6264808693406
 20
215.6158525023374
 30
0.0
 11
260.6264808693406
 21
192.3158779704001
 31
0.0
  0
LINE
  5
A9A4
330
A9A0
100
AcDbEntity
  8
寸法
 62
     0
370
    -2
100
AcDbLine
 10
284.6292093916588
 20
245.2072287179764
 30
0.0
 11
284.6292093916588
 21
192.3158779704001
 31
0.0
  0
LINE
  5
A9A5
330
A9A0
100
AcDbEntity
  8
寸法
 62
     0
370
    -2
100
AcDbLine
 10
262.6264808693406
 20
192.3158779704001
 30
0.0
 11
282.6292093916588
 21
192.3158779704001
 31
0.0
  0
INSERT
  5
A9A6
330
A9A0
100
AcDbEntity
  8
寸法
 62
     0
370
    -2
100
AcDbBlockReference
  2
_DOT
 10
260.6264808693406
 20
192.3158779704001
 30
0.0
 41
2.0
 42
2.0
 43
2.0
 50
180.0
  0
INSERT
  5
A9A7
330
A9A0
100
AcDbEntity
  8
寸法
 62
     0
370
    -2
100
AcDbBlockReference
  2
_DOT
 10
284.6292093916588
 20
192.3158779704001
 30
0.0
 41
2.0
 42
2.0
 43
2.0
  0
MTEXT
  5
A9A8
330
A9A0
100
AcDbEntity
  8
寸法
 62
     0
100
AcDbMText
 10
272.6278451304997
 20
201.3158779704001
 30
0.0
 40
8.0
 41
0.0
 46
0.0
 71
     5
 72
     1
  1
\A1;24
  7
ＭＳ ゴシック
 73
     1
 44
1.0
  0
POINT
  5
A9A9
330
A9A0
100
AcDbEntity
  8
Defpoints
 62
     0
100
AcDbPoint
 10
260.6264808693406
 20
221.6158525023374
 30
0.0
  0
POINT
  5
A9AA
330
A9A0
100
AcDbEntity
  8
Defpoints
 62
     0
100
AcDbPoint
 10
284.6292093916588
 20
251.2072287179764
 30
0.0
  0
POINT
  5
A9AB
330
A9A0
100
AcDbEntity
  8
Defpoints
 62
     0
100
AcDbPoint
 10
284.6292093916588
 20
192.3158779704001
 30
0.0
  0
ENDBLK
  5
A9A2
330
A9A0
100
AcDbEntity
  8
0
100
AcDbBlockEnd
  0
ENDSEC
  0
SECTION
  2
ENTITIES
  0
LINE
  5
A068
330
A
100
AcDbEntity
  8
PRINT
 48
10.0
100
AcDbLine
 10
630.0
 20
445.5
 30
0.0
 11
607.035710657161
 21
445.5
 31
0.0
  0
LINE
  5
A069
330
A
100
AcDbEntity
  8
template
100
AcDbLine
 10
607.035710657161
 20
75.1728304731173
 30
0.0
 11
22.96428934283904
 21
75.1728304731173
 31
0.0
  0
LINE
  5
A06A
330
A
100
AcDbEntity
  8
template
100
AcDbLine
 10
22.96428934283904
 20
39.33230525881191
 30
0.0
 11
607.035710657161
 21
39.33230525881191
 31
0.0
  0
TEXT
  5
A06B
330
A
100
AcDbEntity
  8
template
100
AcDbText
 10
27.091825492711
 20
66.00805684099123
 30
0.0
 40
4.5
  1
材質
 50
360.0
  7
ＭＳ ゴシック
100
AcDbText
  0
TEXT
  5
A06C
330
A
100
AcDbEntity
  8
template
100
AcDbText
 10
27.091825492711
 20
102.5200525468829
 30
0.0
 40
4.5
  1
品名
 50
360.0
  7
ＭＳ ゴシック
100
AcDbText
  0
TEXT
  5
A06D
330
A
100
AcDbEntity
  8
template
100
AcDbText
 10
27.091825492711
 20
84.73215720298646
 30
0.0
 40
4.5
  1
仕上げ
 50
360.0
  7
ＭＳ ゴシック
100
AcDbText
  0
TEXT
  5
A06E
330
A
100
AcDbEntity
  8
template
100
AcDbText
 10
417.2233910161085
 20
102.6727802978392
 30
0.0
 40
4.5
  1
品番
 50
360.0
  7
ＭＳ ゴシック
100
AcDbText
  0
LINE
  5
A06F
330
A
100
AcDbEntity
  8
template
100
AcDbLine
 10
607.035710657161
 20
93.0031142780789
 30
0.0
 11
22.96428934284086
 21
93.00311427808043
 31
0.0
  0
LINE
  5
A070
330
A
100
AcDbEntity
  8
template
100
AcDbLine
 10
607.035710657161
 20
111.0879723755984
 30
0.0
 11
22.96428934283904
 21
111.0879723755984
 31
0.0
  0
LINE
  5
A071
330
A
100
AcDbEntity
  8
PRINT
 48
20.0
100
AcDbLine
 10
315.0
 20
891.0
 30
0.0
 11
315.0
 21
868.0357106571623
 31
0.0
  0
LINE
  5
A072
330
A
100
AcDbEntity
  8
PRINT
 48
20.0
100
AcDbLine
 10
315.0
 20
0.0
 30
0.0
 11
315.0
 21
22.96428934283847
 31
0.0
  0
LINE
  5
A073
330
A
100
AcDbEntity
  8
PRINT
 48
20.0
100
AcDbLine
 10
0.0
 20
445.5
 30
0.0
 11
22.96428934283904
 21
445.5
 31
0.0
  0
LINE
  5
A074
330
A
100
AcDbEntity
  8
template
100
AcDbLine
 10
607.035710657161
 20
93.33230525881191
 30
0.0
 11
607.035710657161
 21
39.33230525881191
 31
0.0
  0
LINE
  5
A075
330
A
100
AcDbEntity
  8
template
100
AcDbLine
 10
22.96428934283904
 20
93.33230525881191
 30
0.0
 11
22.96428934283904
 21
39.33230525881191
 31
0.0
  0
TEXT
  5
A076
330
A
100
AcDbEntity
  8
template
100
AcDbText
 10
489.3973379300514
 20
24.77907585470626
 30
0.0
 40
7.5
  1
大洋金物株式会社  
 50
360.0
  7
ＭＳ ゴシック
100
AcDbText
  0
LINE
  5
A077
330
A
100
AcDbEntity
  8
template
100
AcDbLine
 10
412.035710657161
 20
111.0879723755984
 30
0.0
 11
412.035710657161
 21
57.08797237559844
 31
0.0
  0
INSERT
  5
A078
330
A
100
AcDbEntity
  8
template
100
AcDbBlockReference
  2
名称未設定-1
 10
559.5962368674709
 20
-11.46351630599111
 30
0.0
 41
0.2714625
 42
0.2714625
 43
0.2714625
 50
360.0
  0
LINE
  5
A079
330
A
100
AcDbEntity
  8
template
100
AcDbLine
 10
22.96428934283904
 20
445.5
 30
0.0
 11
22.96428934283904
 21
93.33230525881191
 31
0.0
  0
LINE
  5
A07A
330
A
100
AcDbEntity
  8
template
100
AcDbLine
 10
22.96428934283904
 20
445.5
 30
0.0
 11
22.96428934283904
 21
868.0357106571623
 31
0.0
  0
LINE
  5
A07B
330
A
100
AcDbEntity
  8
template
100
AcDbLine
 10
315.0
 20
868.0357106571623
 30
0.0
 11
22.96428934283904
 21
868.0357106571623
 31
0.0
  0
LINE
  5
A07C
330
A
100
AcDbEntity
  8
template
100
AcDbLine
 10
315.0
 20
868.0357106571623
 30
0.0
 11
607.035710657161
 21
868.0357106571623
 31
0.0
  0
LWPOLYLINE
  5
A07D
330
A
100
AcDbEntity
  8
PRINT
  6
HIDDEN
 48
10.0
100
AcDbPolyline
 90
        4
 70
     1
 43
0.0
 10
630.0
 20
0.0
 10
0.0
 20
0.0
 10
0.0
 20
891.0
 10
630.0
 20
891.0
  0
TEXT
  5
A07E
330
A
100
AcDbEntity
  8
template
100
AcDbText
 10
417.1867416725463
 20
66.7310146554832
 30
0.0
 40
4.5
  1
縮尺
 50
360.0
  7
ＭＳ ゴシック
100
AcDbText
  0
TEXT
  5
A07F
330
A
100
AcDbEntity
  8
template
100
AcDbText
 10
432.1206843019063
 20
61.22179151753255
 30
0.0
 40
7.5
  1
1/3
 50
360.0
  7
ＭＳ ゴシック
100
AcDbText
  0
LINE
  5
A080
330
A
100
AcDbEntity
  8
template
100
AcDbLine
 10
607.035710657161
 20
445.5
 30
0.0
 11
607.035710657161
 21
868.0357106571623
 31
0.0
  0
LINE
  5
A081
330
A
100
AcDbEntity
  8
template
100
AcDbLine
 10
607.035710657161
 20
445.5
 30
0.0
 11
607.035710657161
 21
93.33230525881191
 31
0.0
  0
LINE
  5
A082
330
A
100
AcDbEntity
  8
template
100
AcDbLine
 10
607.035710657161
 20
57.16650716840917
 30
0.0
 11
22.96428934283904
 21
57.16650716840917
 31
0.0
  0
TEXT
  5
A083
330
A
100
AcDbEntity
  8
template
100
AcDbText
 10
27.091825492711
 20
48.00173353628327
 30
0.0
 40
4.5
  1
備考
 50
360.0
  7
ＭＳ ゴシック
100
AcDbText
  0
TEXT
  5
A084
330
A
100
AcDbEntity
  8
template
100
AcDbText
 10
414.7340840904926
 20
84.56129846044496
 30
0.0
 40
4.5
  1
扉厚
 50
360.0
  7
ＭＳ ゴシック
100
AcDbText
  0
MTEXT
  5
A085
102
{ACAD_XDICTIONARY
360
A086
102
}
330
A
100
AcDbEntity
  8
テンプレート
100
AcDbMText
 10
23.98625569652177
 20
34.9059394992405
 30
0.0
 40
6.0
 41
0.0
 46
8.0
 71
     1
 72
     1
  1
{20170725N}
  7
ＭＳ ゴシック
 73
     1
 44
1.0
1001
ACAD
1000
ACAD_MTEXT_DEFINED_HEIGHT_BEGIN
1070
    46
1040
8.0
1000
ACAD_MTEXT_DEFINED_HEIGHT_END
  0
TEXT
  5
A13F
330
A
100
AcDbEntity
  8
モデル
100
AcDbText
 10
163.6138172274987
 20
154.6706019307455
 30
0.0
 40
7.5
  1
　 加工は現物合わせの上行って下さい。
  7
ＭＳ ゴシック
100
AcDbText
  0
TEXT
  5
A140
330
A
100
AcDbEntity
  8
モデル
100
AcDbText
 10
163.8721818508102
 20
166.8262780749546
 30
0.0
 40
7.5
  1
※ 輸入製品の為、国内製品と比べ製品寸法の個体差に幅が有ります。
  7
ＭＳ ゴシック
100
AcDbText
  0
TEXT
  5
A141
330
A
100
AcDbEntity
  8
モデル
100
AcDbText
 10
163.6138172274987
 20
127.4126351013837
 30
0.0
 40
7.5
  1
　 指示をしてください。
  7
ＭＳ ゴシック
100
AcDbText
  0
TEXT
  5
A142
330
A
100
AcDbEntity
  8
モデル
100
AcDbText
 10
163.8721818508102
 20
139.5683112455939
 30
0.0
 40
7.5
  1
※ ご注文の際は、正確な扉厚または、ガラス厚(19、15、12、10、8ミリ)の
  7
ＭＳ ゴシック
100
AcDbText
  0
TEXT
  5
A143
330
A
100
AcDbEntity
  8
template
100
AcDbText
 10
49.31708818892366
 20
97.3972758822942
 30
0.0
 40
7.5
  1
ドアハンドル(片面用裏面化粧ナットタイプ) - FORMANI,Tense -
 50
360.0
  7
ＭＳ ゴシック
100
AcDbText
  0
TEXT
  5
A144
330
A
100
AcDbEntity
  8
template
100
AcDbText
 10
432.1206843019063
 20
97.26055530002003
 30
0.0
 40
7.5
  1
FOR31-TE500B
 50
360.0
  7
ＭＳ ゴシック
100
AcDbText
  0
TEXT
  5
A145
330
A
100
AcDbEntity
  8
template
100
AcDbText
 10
49.31708818892366
 20
79.69487344043324
 30
0.0
 40
7.5
  1
ブラック
 50
360.0
  7
ＭＳ ゴシック
100
AcDbText
  0
TEXT
  5
A146
330
A
100
AcDbEntity
  8
template
100
AcDbText
 10
49.31708818892366
 20
61.54293722769052
 30
0.0
 40
7.5
  1
ステンレス
 50
360.0
  7
ＭＳ ゴシック
100
AcDbText
  0
TEXT
  5
A147
330
A
100
AcDbEntity
  8
template
100
AcDbText
 10
50.02703294111052
 20
44.55044262227528
 30
0.0
 40
7.5
  1
付属品: M8ボルト、化粧ナット、イモネジ、ガラス用付属品セット(パッキン、チューブ)
 50
360.0
  7
ＭＳ ゴシック
100
AcDbText
  0
HATCH
  5
A408
330
A
100
AcDbEntity
  8
レイヤー 1
100
AcDbHatch
 10
0.0
 20
0.0
 30
0.0
210
0.0
220
0.0
230
1.0
  2
SOLID
 70
     1
 71
     0
 91
        1
 92
        1
 93
        1
 72
     4
 94
        3
 73
     0
 74
     1
 95
       14
 96
       10
 40
0.0
 40
0.0
 40
0.0
 40
0.0
 40
1.0
 40
1.0
 40
1.0
 40
2.0
 40
2.0
 40
2.0
 40
3.0
 40
3.0
 40
3.0
 40
3.0
 10
852.2015701008261
 20
46.30802234738377
 10
852.2015701008261
 20
46.30802234738377
 10
852.2015701008261
 20
46.30802234738377
 10
852.2015701008261
 20
46.30802234738377
 10
852.2015701008261
 20
46.30802234738377
 10
852.2015701008261
 20
51.88810047238377
 10
852.2015701008261
 20
51.88810047238377
 10
852.2015701008261
 20
51.88810047238377
 10
852.2015701008261
 20
46.30802234738377
 10
852.2015701008261
 20
46.30802234738377
 97
        0
 75
     2
 76
     1
 98
        0
  0
HATCH
  5
A40B
330
A
100
AcDbEntity
  8
レイヤー 1
100
AcDbHatch
 10
0.0
 20
0.0
 30
0.0
210
0.0
220
0.0
230
1.0
  2
SOLID
 70
     1
 71
     0
 91
        1
 92
        1
 93
        1
 72
     4
 94
        3
 73
     0
 74
     1
 95
       11
 96
        7
 40
0.0
 40
0.0
 40
0.0
 40
0.0
 40
1.0
 40
1.0
 40
1.0
 40
2.0
 40
2.0
 40
2.0
 40
2.0
 10
852.2015701008261
 20
46.30802234738377
 10
852.2015701008261
 20
46.30802234738377
 10
852.9217849445761
 20
51.88810047238377
 10
852.9217849445761
 20
51.88810047238377
 10
852.9217849445761
 20
51.88810047238377
 10
852.2015701008261
 20
46.30802234738377
 10
852.2015701008261
 20
46.30802234738377
 97
        0
 75
     2
 76
     1
 98
        0
  0
HATCH
  5
A40E
330
A
100
AcDbEntity
  8
レイヤー 1
100
AcDbHatch
 10
0.0
 20
0.0
 30
0.0
210
0.0
220
0.0
230
1.0
  2
SOLID
 70
     1
 71
     0
 91
        1
 92
        1
 93
        1
 72
     4
 94
        3
 73
     0
 74
     1
 95
       11
 96
        7
 40
0.0
 40
0.0
 40
0.0
 40
0.0
 40
1.0
 40
1.0
 40
1.0
 40
2.0
 40
2.0
 40
2.0
 40
2.0
 10
852.2015701008261
 20
46.30802234738377
 10
852.2015701008261
 20
46.30802234738377
 10
852.9217849445761
 20
46.30802234738377
 10
852.9217849445761
 20
46.30802234738377
 10
852.9217849445761
 20
46.30802234738377
 10
852.2015701008261
 20
46.30802234738377
 10
852.2015701008261
 20
46.30802234738377
 97
        0
 75
     2
 76
     1
 98
        0
  0
HATCH
  5
A412
330
A
100
AcDbEntity
  8
レイヤー 1
100
AcDbHatch
 10
0.0
 20
0.0
 30
0.0
210
0.0
220
0.0
230
1.0
  2
SOLID
 70
     1
 71
     0
 91
        1
 92
        1
 93
        1
 72
     4
 94
        3
 73
     0
 74
     1
 95
       14
 96
       10
 40
0.0
 40
0.0
 40
0.0
 40
0.0
 40
1.0
 40
1.0
 40
1.0
 40
2.0
 40
2.0
 40
2.0
 40
3.0
 40
3.0
 40
3.0
 40
3.0
 10
859.2215896320761
 20
51.88810047238377
 10
859.2215896320761
 20
51.88810047238377
 10
859.2215896320761
 20
51.88810047238377
 10
859.2215896320761
 20
51.88810047238377
 10
859.2215896320761
 20
51.88810047238377
 10
859.2215896320761
 20
46.30802234738377
 10
859.2215896320761
 20
46.30802234738377
 10
859.2215896320761
 20
46.30802234738377
 10
859.2215896320761
 20
51.88810047238377
 10
859.2215896320761
 20
51.88810047238377
 97
        0
 75
     2
 76
     1
 98
        0
  0
HATCH
  5
A415
330
A
100
AcDbEntity
  8
レイヤー 1
100
AcDbHatch
 10
0.0
 20
0.0
 30
0.0
210
0.0
220
0.0
230
1.0
  2
SOLID
 70
     1
 71
     0
 91
        1
 92
        1
 93
        1
 72
     4
 94
        3
 73
     0
 74
     1
 95
       11
 96
        7
 40
0.0
 40
0.0
 40
0.0
 40
0.0
 40
1.0
 40
1.0
 40
1.0
 40
2.0
 40
2.0
 40
2.0
 40
2.0
 10
859.2215896320761
 20
51.88810047238377
 10
859.2215896320761
 20
51.88810047238377
 10
858.5018630695761
 20
46.30802234738377
 10
858.5018630695761
 20
46.30802234738377
 10
858.5018630695761
 20
46.30802234738377
 10
859.2215896320761
 20
51.88810047238377
 10
859.2215896320761
 20
51.88810047238377
 97
        0
 75
     2
 76
     1
 98
        0
  0
HATCH
  5
A418
330
A
100
AcDbEntity
  8
レイヤー 1
100
AcDbHatch
 10
0.0
 20
0.0
 30
0.0
210
0.0
220
0.0
230
1.0
  2
SOLID
 70
     1
 71
     0
 91
        1
 92
        1
 93
        1
 72
     4
 94
        3
 73
     0
 74
     1
 95
       11
 96
        7
 40
0.0
 40
0.0
 40
0.0
 40
0.0
 40
1.0
 40
1.0
 40
1.0
 40
2.0
 40
2.0
 40
2.0
 40
2.0
 10
859.2215896320761
 20
51.88810047238377
 10
859.2215896320761
 20
51.88810047238377
 10
858.5018630695761
 20
51.88810047238377
 10
858.5018630695761
 20
51.88810047238377
 10
858.5018630695761
 20
51.88810047238377
 10
859.2215896320761
 20
51.88810047238377
 10
859.2215896320761
 20
51.88810047238377
 97
        0
 75
     2
 76
     1
 98
        0
  0
HATCH
  5
A41C
330
A
100
AcDbEntity
  8
レイヤー 1
100
AcDbHatch
 10
0.0
 20
0.0
 30
0.0
210
0.0
220
0.0
230
1.0
  2
SOLID
 70
     1
 71
     0
 91
        1
 92
        1
 93
        1
 72
     4
 94
        3
 73
     0
 74
     1
 95
       14
 96
       10
 40
0.0
 40
0.0
 40
0.0
 40
0.0
 40
1.0
 40
1.0
 40
1.0
 40
2.0
 40
2.0
 40
2.0
 40
3.0
 40
3.0
 40
3.0
 40
3.0
 10
907.2816482258261
 20
908.1478660973837
 10
907.2816482258261
 20
908.1478660973837
 10
907.2816482258261
 20
908.1478660973837
 10
907.2816482258261
 20
908.1478660973837
 10
907.2816482258261
 20
908.1478660973837
 10
913.0414138508261
 20
908.1478660973837
 10
913.0414138508261
 20
908.1478660973837
 10
913.0414138508261
 20
908.1478660973837
 10
907.2816482258261
 20
908.1478660973837
 10
907.2816482258261
 20
908.1478660973837
 97
        0
 75
     2
 76
     1
 98
        0
  0
HATCH
  5
A41F
330
A
100
AcDbEntity
  8
レイヤー 1
100
AcDbHatch
 10
0.0
 20
0.0
 30
0.0
210
0.0
220
0.0
230
1.0
  2
SOLID
 70
     1
 71
     0
 91
        1
 92
        1
 93
        1
 72
     4
 94
        3
 73
     0
 74
     1
 95
       11
 96
        7
 40
0.0
 40
0.0
 40
0.0
 40
0.0
 40
1.0
 40
1.0
 40
1.0
 40
2.0
 40
2.0
 40
2.0
 40
2.0
 10
907.2816482258261
 20
908.1478660973837
 10
907.2816482258261
 20
908.1478660973837
 10
913.0414138508261
 20
907.4276512536337
 10
913.0414138508261
 20
907.4276512536337
 10
913.0414138508261
 20
907.4276512536337
 10
907.2816482258261
 20
908.1478660973837
 10
907.2816482258261
 20
908.1478660973837
 97
        0
 75
     2
 76
     1
 98
        0
  0
HATCH
  5
A422
330
A
100
AcDbEntity
  8
レイヤー 1
100
AcDbHatch
 10
0.0
 20
0.0
 30
0.0
210
0.0
220
0.0
230
1.0
  2
SOLID
 70
     1
 71
     0
 91
        1
 92
        1
 93
        1
 72
     4
 94
        3
 73
     0
 74
     1
 95
       11
 96
        7
 40
0.0
 40
0.0
 40
0.0
 40
0.0
 40
1.0
 40
1.0
 40
1.0
 40
2.0
 40
2.0
 40
2.0
 40
2.0
 10
907.2816482258261
 20
908.1478660973837
 10
907.2816482258261
 20
908.1478660973837
 10
907.2816482258261
 20
907.4276512536337
 10
907.2816482258261
 20
907.4276512536337
 10
907.2816482258261
 20
907.4276512536337
 10
907.2816482258261
 20
908.1478660973837
 10
907.2816482258261
 20
908.1478660973837
 97
        0
 75
     2
 76
     1
 98
        0
  0
HATCH
  5
A426
330
A
100
AcDbEntity
  8
レイヤー 1
100
AcDbHatch
 10
0.0
 20
0.0
 30
0.0
210
0.0
220
0.0
230
1.0
  2
SOLID
 70
     1
 71
     0
 91
        1
 92
        1
 93
        1
 72
     4
 94
        3
 73
     0
 74
     1
 95
       14
 96
       10
 40
0.0
 40
0.0
 40
0.0
 40
0.0
 40
1.0
 40
1.0
 40
1.0
 40
2.0
 40
2.0
 40
2.0
 40
3.0
 40
3.0
 40
3.0
 40
3.0
 10
913.0414138508261
 20
74.74747547238377
 10
913.0414138508261
 20
74.74747547238377
 10
913.0414138508261
 20
74.74747547238377
 10
913.0414138508261
 20
74.74747547238377
 10
913.0414138508261
 20
74.74747547238377
 10
907.2816482258261
 20
74.74747547238377
 10
907.2816482258261
 20
74.74747547238377
 10
907.2816482258261
 20
74.74747547238377
 10
913.0414138508261
 20
74.74747547238377
 10
913.0414138508261
 20
74.74747547238377
 97
        0
 75
     2
 76
     1
 98
        0
  0
HATCH
  5
A429
330
A
100
AcDbEntity
  8
レイヤー 1
100
AcDbHatch
 10
0.0
 20
0.0
 30
0.0
210
0.0
220
0.0
230
1.0
  2
SOLID
 70
     1
 71
     0
 91
        1
 92
        1
 93
        1
 72
     4
 94
        3
 73
     0
 74
     1
 95
       11
 96
        7
 40
0.0
 40
0.0
 40
0.0
 40
0.0
 40
1.0
 40
1.0
 40
1.0
 40
2.0
 40
2.0
 40
2.0
 40
2.0
 10
913.0414138508261
 20
74.74747547238377
 10
913.0414138508261
 20
74.74747547238377
 10
907.2816482258261
 20
75.46817859738377
 10
907.2816482258261
 20
75.46817859738377
 10
907.2816482258261
 20
75.46817859738377
 10
913.0414138508261
 20
74.74747547238377
 10
913.0414138508261
 20
74.74747547238377
 97
        0
 75
     2
 76
     1
 98
        0
  0
HATCH
  5
A42C
330
A
100
AcDbEntity
  8
レイヤー 1
100
AcDbHatch
 10
0.0
 20
0.0
 30
0.0
210
0.0
220
0.0
230
1.0
  2
SOLID
 70
     1
 71
     0
 91
        1
 92
        1
 93
        1
 72
     4
 94
        3
 73
     0
 74
     1
 95
       11
 96
        7
 40
0.0
 40
0.0
 40
0.0
 40
0.0
 40
1.0
 40
1.0
 40
1.0
 40
2.0
 40
2.0
 40
2.0
 40
2.0
 10
913.0414138508261
 20
74.74747547238377
 10
913.0414138508261
 20
74.74747547238377
 10
913.0414138508261
 20
75.46817859738377
 10
913.0414138508261
 20
75.46817859738377
 10
913.0414138508261
 20
75.46817859738377
 10
913.0414138508261
 20
74.74747547238377
 10
913.0414138508261
 20
74.74747547238377
 97
        0
 75
     2
 76
     1
 98
        0
  0
HATCH
  5
A430
330
A
100
AcDbEntity
  8
レイヤー 1
100
AcDbHatch
 10
0.0
 20
0.0
 30
0.0
210
0.0
220
0.0
230
1.0
  2
SOLID
 70
     1
 71
     0
 91
        1
 92
        1
 93
        1
 72
     4
 94
        3
 73
     0
 74
     1
 95
       14
 96
       10
 40
0.0
 40
0.0
 40
0.0
 40
0.0
 40
1.0
 40
1.0
 40
1.0
 40
2.0
 40
2.0
 40
2.0
 40
3.0
 40
3.0
 40
3.0
 40
3.0
 10
963.2621169758261
 20
46.30802234738377
 10
963.2621169758261
 20
46.30802234738377
 10
963.2621169758261
 20
46.30802234738377
 10
963.2621169758261
 20
46.30802234738377
 10
963.2621169758261
 20
46.30802234738377
 10
963.2621169758261
 20
51.88810047238377
 10
963.2621169758261
 20
51.88810047238377
 10
963.2621169758261
 20
51.88810047238377
 10
963.2621169758261
 20
46.30802234738377
 10
963.2621169758261
 20
46.30802234738377
 97
        0
 75
     2
 76
     1
 98
        0
  0
HATCH
  5
A433
330
A
100
AcDbEntity
  8
レイヤー 1
100
AcDbHatch
 10
0.0
 20
0.0
 30
0.0
210
0.0
220
0.0
230
1.0
  2
SOLID
 70
     1
 71
     0
 91
        1
 92
        1
 93
        1
 72
     4
 94
        3
 73
     0
 74
     1
 95
       11
 96
        7
 40
0.0
 40
0.0
 40
0.0
 40
0.0
 40
1.0
 40
1.0
 40
1.0
 40
2.0
 40
2.0
 40
2.0
 40
2.0
 10
963.2621169758261
 20
46.30802234738377
 10
963.2621169758261
 20
46.30802234738377
 10
963.9818435383261
 20
51.88810047238377
 10
963.9818435383261
 20
51.88810047238377
 10
963.9818435383261
 20
51.88810047238377
 10
963.2621169758261
 20
46.30802234738377
 10
963.2621169758261
 20
46.30802234738377
 97
        0
 75
     2
 76
     1
 98
        0
  0
HATCH
  5
A436
330
A
100
AcDbEntity
  8
レイヤー 1
100
AcDbHatch
 10
0.0
 20
0.0
 30
0.0
210
0.0
220
0.0
230
1.0
  2
SOLID
 70
     1
 71
     0
 91
        1
 92
        1
 93
        1
 72
     4
 94
        3
 73
     0
 74
     1
 95
       11
 96
        7
 40
0.0
 40
0.0
 40
0.0
 40
0.0
 40
1.0
 40
1.0
 40
1.0
 40
2.0
 40
2.0
 40
2.0
 40
2.0
 10
963.2621169758261
 20
46.30802234738377
 10
963.2621169758261
 20
46.30802234738377
 10
963.9818435383261
 20
46.30802234738377
 10
963.9818435383261
 20
46.30802234738377
 10
963.9818435383261
 20
46.30802234738377
 10
963.2621169758261
 20
46.30802234738377
 10
963.2621169758261
 20
46.30802234738377
 97
        0
 75
     2
 76
     1
 98
        0
  0
HATCH
  5
A43A
330
A
100
AcDbEntity
  8
レイヤー 1
100
AcDbHatch
 10
0.0
 20
0.0
 30
0.0
210
0.0
220
0.0
230
1.0
  2
SOLID
 70
     1
 71
     0
 91
        1
 92
        1
 93
        1
 72
     4
 94
        3
 73
     0
 74
     1
 95
       14
 96
       10
 40
0.0
 40
0.0
 40
0.0
 40
0.0
 40
1.0
 40
1.0
 40
1.0
 40
2.0
 40
2.0
 40
2.0
 40
3.0
 40
3.0
 40
3.0
 40
3.0
 10
996.0218826008261
 20
51.88810047238377
 10
996.0218826008261
 20
51.88810047238377
 10
996.0218826008261
 20
51.88810047238377
 10
996.0218826008261
 20
51.88810047238377
 10
996.0218826008261
 20
51.88810047238377
 10
996.0218826008261
 20
46.30802234738377
 10
996.0218826008261
 20
46.30802234738377
 10
996.0218826008261
 20
46.30802234738377
 10
996.0218826008261
 20
51.88810047238377
 10
996.0218826008261
 20
51.88810047238377
 97
        0
 75
     2
 76
     1
 98
        0
  0
HATCH
  5
A43D
330
A
100
AcDbEntity
  8
レイヤー 1
100
AcDbHatch
 10
0.0
 20
0.0
 30
0.0
210
0.0
220
0.0
230
1.0
  2
SOLID
 70
     1
 71
     0
 91
        1
 92
        1
 93
        1
 72
     4
 94
        3
 73
     0
 74
     1
 95
       11
 96
        7
 40
0.0
 40
0.0
 40
0.0
 40
0.0
 40
1.0
 40
1.0
 40
1.0
 40
2.0
 40
2.0
 40
2.0
 40
2.0
 10
996.0218826008261
 20
51.88810047238377
 10
996.0218826008261
 20
51.88810047238377
 10
995.3021560383261
 20
46.30802234738377
 10
995.3021560383261
 20
46.30802234738377
 10
995.3021560383261
 20
46.30802234738377
 10
996.0218826008261
 20
51.88810047238377
 10
996.0218826008261
 20
51.88810047238377
 97
        0
 75
     2
 76
     1
 98
        0
  0
HATCH
  5
A440
330
A
100
AcDbEntity
  8
レイヤー 1
100
AcDbHatch
 10
0.0
 20
0.0
 30
0.0
210
0.0
220
0.0
230
1.0
  2
SOLID
 70
     1
 71
     0
 91
        1
 92
        1
 93
        1
 72
     4
 94
        3
 73
     0
 74
     1
 95
       11
 96
        7
 40
0.0
 40
0.0
 40
0.0
 40
0.0
 40
1.0
 40
1.0
 40
1.0
 40
2.0
 40
2.0
 40
2.0
 40
2.0
 10
996.0218826008261
 20
51.88810047238377
 10
996.0218826008261
 20
51.88810047238377
 10
995.3021560383261
 20
51.88810047238377
 10
995.3021560383261
 20
51.88810047238377
 10
995.3021560383261
 20
51.88810047238377
 10
996.0218826008261
 20
51.88810047238377
 10
996.0218826008261
 20
51.88810047238377
 97
        0
 75
     2
 76
     1
 98
        0
  0
HATCH
  5
A444
330
A
100
AcDbEntity
  8
レイヤー 1
100
AcDbHatch
 10
0.0
 20
0.0
 30
0.0
210
0.0
220
0.0
230
1.0
  2
SOLID
 70
     1
 71
     0
 91
        1
 92
        1
 93
        1
 72
     4
 94
        3
 73
     0
 74
     1
 95
       14
 96
       10
 40
0.0
 40
0.0
 40
0.0
 40
0.0
 40
1.0
 40
1.0
 40
1.0
 40
2.0
 40
2.0
 40
2.0
 40
3.0
 40
3.0
 40
3.0
 40
3.0
 10
957.6820388508261
 20
20.92813953488377
 10
957.6820388508261
 20
20.92813953488377
 10
957.6820388508261
 20
20.92813953488377
 10
957.6820388508261
 20
20.92813953488377
 10
957.6820388508261
 20
20.92813953488377
 10
957.6820388508261
 20
26.68790515988377
 10
957.6820388508261
 20
26.68790515988377
 10
957.6820388508261
 20
26.68790515988377
 10
957.6820388508261
 20
20.92813953488377
 10
957.6820388508261
 20
20.92813953488377
 97
        0
 75
     2
 76
     1
 98
        0
  0
HATCH
  5
A447
330
A
100
AcDbEntity
  8
レイヤー 1
100
AcDbHatch
 10
0.0
 20
0.0
 30
0.0
210
0.0
220
0.0
230
1.0
  2
SOLID
 70
     1
 71
     0
 91
        1
 92
        1
 93
        1
 72
     4
 94
        3
 73
     0
 74
     1
 95
       11
 96
        7
 40
0.0
 40
0.0
 40
0.0
 40
0.0
 40
1.0
 40
1.0
 40
1.0
 40
2.0
 40
2.0
 40
2.0
 40
2.0
 10
957.6820388508261
 20
20.92813953488377
 10
957.6820388508261
 20
20.92813953488377
 10
958.4017654133261
 20
26.68790515988377
 10
958.4017654133261
 20
26.68790515988377
 10
958.4017654133261
 20
26.68790515988377
 10
957.6820388508261
 20
20.92813953488377
 10
957.6820388508261
 20
20.92813953488377
 97
        0
 75
     2
 76
     1
 98
        0
  0
HATCH
  5
A44A
330
A
100
AcDbEntity
  8
レイヤー 1
100
AcDbHatch
 10
0.0
 20
0.0
 30
0.0
210
0.0
220
0.0
230
1.0
  2
SOLID
 70
     1
 71
     0
 91
        1
 92
        1
 93
        1
 72
     4
 94
        3
 73
     0
 74
     1
 95
       11
 96
        7
 40
0.0
 40
0.0
 40
0.0
 40
0.0
 40
1.0
 40
1.0
 40
1.0
 40
2.0
 40
2.0
 40
2.0
 40
2.0
 10
957.6820388508261
 20
20.92813953488377
 10
957.6820388508261
 20
20.92813953488377
 10
958.4017654133261
 20
20.92813953488377
 10
958.4017654133261
 20
20.92813953488377
 10
958.4017654133261
 20
20.92813953488377
 10
957.6820388508261
 20
20.92813953488377
 10
957.6820388508261
 20
20.92813953488377
 97
        0
 75
     2
 76
     1
 98
        0
  0
HATCH
  5
A44E
330
A
100
AcDbEntity
  8
レイヤー 1
100
AcDbHatch
 10
0.0
 20
0.0
 30
0.0
210
0.0
220
0.0
230
1.0
  2
SOLID
 70
     1
 71
     0
 91
        1
 92
        1
 93
        1
 72
     4
 94
        3
 73
     0
 74
     1
 95
       14
 96
       10
 40
0.0
 40
0.0
 40
0.0
 40
0.0
 40
1.0
 40
1.0
 40
1.0
 40
2.0
 40
2.0
 40
2.0
 40
3.0
 40
3.0
 40
3.0
 40
3.0
 10
1041.382234163326
 20
26.68790515988377
 10
1041.382234163326
 20
26.68790515988377
 10
1041.382234163326
 20
26.68790515988377
 10
1041.382234163326
 20
26.68790515988377
 10
1041.382234163326
 20
26.68790515988377
 10
1041.382234163326
 20
20.92813953488377
 10
1041.382234163326
 20
20.92813953488377
 10
1041.382234163326
 20
20.92813953488377
 10
1041.382234163326
 20
26.68790515988377
 10
1041.382234163326
 20
26.68790515988377
 97
        0
 75
     2
 76
     1
 98
        0
  0
HATCH
  5
A451
330
A
100
AcDbEntity
  8
レイヤー 1
100
AcDbHatch
 10
0.0
 20
0.0
 30
0.0
210
0.0
220
0.0
230
1.0
  2
SOLID
 70
     1
 71
     0
 91
        1
 92
        1
 93
        1
 72
     4
 94
        3
 73
     0
 74
     1
 95
       11
 96
        7
 40
0.0
 40
0.0
 40
0.0
 40
0.0
 40
1.0
 40
1.0
 40
1.0
 40
2.0
 40
2.0
 40
2.0
 40
2.0
 10
1041.382234163326
 20
26.68790515988377
 10
1041.382234163326
 20
26.68790515988377
 10
1040.661531038326
 20
20.92813953488377
 10
1040.661531038326
 20
20.92813953488377
 10
1040.661531038326
 20
20.92813953488377
 10
1041.382234163326
 20
26.68790515988377
 10
1041.382234163326
 20
26.68790515988377
 97
        0
 75
     2
 76
     1
 98
        0
  0
HATCH
  5
A454
330
A
100
AcDbEntity
  8
レイヤー 1
100
AcDbHatch
 10
0.0
 20
0.0
 30
0.0
210
0.0
220
0.0
230
1.0
  2
SOLID
 70
     1
 71
     0
 91
        1
 92
        1
 93
        1
 72
     4
 94
        3
 73
     0
 74
     1
 95
       11
 96
        7
 40
0.0
 40
0.0
 40
0.0
 40
0.0
 40
1.0
 40
1.0
 40
1.0
 40
2.0
 40
2.0
 40
2.0
 40
2.0
 10
1041.382234163326
 20
26.68790515988377
 10
1041.382234163326
 20
26.68790515988377
 10
1040.661531038326
 20
26.68790515988377
 10
1040.661531038326
 20
26.68790515988377
 10
1040.661531038326
 20
26.68790515988377
 10
1041.382234163326
 20
26.68790515988377
 10
1041.382234163326
 20
26.68790515988377
 97
        0
 75
     2
 76
     1
 98
        0
  0
HATCH
  5
A458
330
A
100
AcDbEntity
  8
レイヤー 1
100
AcDbHatch
 10
0.0
 20
0.0
 30
0.0
210
0.0
220
0.0
230
1.0
  2
SOLID
 70
     1
 71
     0
 91
        1
 92
        1
 93
        1
 72
     4
 94
        3
 73
     0
 74
     1
 95
       14
 96
       10
 40
0.0
 40
0.0
 40
0.0
 40
0.0
 40
1.0
 40
1.0
 40
1.0
 40
2.0
 40
2.0
 40
2.0
 40
3.0
 40
3.0
 40
3.0
 40
3.0
 10
1059.561921663326
 20
137.9281395348838
 10
1059.561921663326
 20
137.9281395348838
 10
1059.561921663326
 20
137.9281395348838
 10
1059.561921663326
 20
137.9281395348838
 10
1059.561921663326
 20
137.9281395348838
 10
1053.802156038326
 20
137.9281395348838
 10
1053.802156038326
 20
137.9281395348838
 10
1053.802156038326
 20
137.9281395348838
 10
1059.561921663326
 20
137.9281395348838
 10
1059.561921663326
 20
137.9281395348838
 97
        0
 75
     2
 76
     1
 98
        0
  0
HATCH
  5
A45B
330
A
100
AcDbEntity
  8
レイヤー 1
100
AcDbHatch
 10
0.0
 20
0.0
 30
0.0
210
0.0
220
0.0
230
1.0
  2
SOLID
 70
     1
 71
     0
 91
        1
 92
        1
 93
        1
 72
     4
 94
        3
 73
     0
 74
     1
 95
       11
 96
        7
 40
0.0
 40
0.0
 40
0.0
 40
0.0
 40
1.0
 40
1.0
 40
1.0
 40
2.0
 40
2.0
 40
2.0
 40
2.0
 10
1059.561921663326
 20
137.9281395348838
 10
1059.561921663326
 20
137.9281395348838
 10
1053.802156038326
 20
138.6478660973838
 10
1053.802156038326
 20
138.6478660973838
 10
1053.802156038326
 20
138.6478660973838
 10
1059.561921663326
 20
137.9281395348838
 10
1059.561921663326
 20
137.9281395348838
 97
        0
 75
     2
 76
     1
 98
        0
  0
HATCH
  5
A45E
330
A
100
AcDbEntity
  8
レイヤー 1
100
AcDbHatch
 10
0.0
 20
0.0
 30
0.0
210
0.0
220
0.0
230
1.0
  2
SOLID
 70
     1
 71
     0
 91
        1
 92
        1
 93
        1
 72
     4
 94
        3
 73
     0
 74
     1
 95
       11
 96
        7
 40
0.0
 40
0.0
 40
0.0
 40
0.0
 40
1.0
 40
1.0
 40
1.0
 40
2.0
 40
2.0
 40
2.0
 40
2.0
 10
1059.561921663326
 20
137.9281395348838
 10
1059.561921663326
 20
137.9281395348838
 10
1059.561921663326
 20
138.6478660973838
 10
1059.561921663326
 20
138.6478660973838
 10
1059.561921663326
 20
138.6478660973838
 10
1059.561921663326
 20
137.9281395348838
 10
1059.561921663326
 20
137.9281395348838
 97
        0
 75
     2
 76
     1
 98
        0
  0
HATCH
  5
A462
330
A
100
AcDbEntity
  8
レイヤー 1
100
AcDbHatch
 10
0.0
 20
0.0
 30
0.0
210
0.0
220
0.0
230
1.0
  2
SOLID
 70
     1
 71
     0
 91
        1
 92
        1
 93
        1
 72
     4
 94
        3
 73
     0
 74
     1
 95
       14
 96
       10
 40
0.0
 40
0.0
 40
0.0
 40
0.0
 40
1.0
 40
1.0
 40
1.0
 40
2.0
 40
2.0
 40
2.0
 40
3.0
 40
3.0
 40
3.0
 40
3.0
 10
1053.802156038326
 20
845.1478660973837
 10
1053.802156038326
 20
845.1478660973837
 10
1053.802156038326
 20
845.1478660973837
 10
1053.802156038326
 20
845.1478660973837
 10
1053.802156038326
 20
845.1478660973837
 10
1059.561921663326
 20
845.1478660973837
 10
1059.561921663326
 20
845.1478660973837
 10
1059.561921663326
 20
845.1478660973837
 10
1053.802156038326
 20
845.1478660973837
 10
1053.802156038326
 20
845.1478660973837
 97
        0
 75
     2
 76
     1
 98
        0
  0
HATCH
  5
A465
330
A
100
AcDbEntity
  8
レイヤー 1
100
AcDbHatch
 10
0.0
 20
0.0
 30
0.0
210
0.0
220
0.0
230
1.0
  2
SOLID
 70
     1
 71
     0
 91
        1
 92
        1
 93
        1
 72
     4
 94
        3
 73
     0
 74
     1
 95
       11
 96
        7
 40
0.0
 40
0.0
 40
0.0
 40
0.0
 40
1.0
 40
1.0
 40
1.0
 40
2.0
 40
2.0
 40
2.0
 40
2.0
 10
1053.802156038326
 20
845.1478660973837
 10
1053.802156038326
 20
845.1478660973837
 10
1059.561921663326
 20
844.4276512536337
 10
1059.561921663326
 20
844.4276512536337
 10
1059.561921663326
 20
844.4276512536337
 10
1053.802156038326
 20
845.1478660973837
 10
1053.802156038326
 20
845.1478660973837
 97
        0
 75
     2
 76
     1
 98
        0
  0
HATCH
  5
A468
330
A
100
AcDbEntity
  8
レイヤー 1
100
AcDbHatch
 10
0.0
 20
0.0
 30
0.0
210
0.0
220
0.0
230
1.0
  2
SOLID
 70
     1
 71
     0
 91
        1
 92
        1
 93
        1
 72
     4
 94
        3
 73
     0
 74
     1
 95
       11
 96
        7
 40
0.0
 40
0.0
 40
0.0
 40
0.0
 40
1.0
 40
1.0
 40
1.0
 40
2.0
 40
2.0
 40
2.0
 40
2.0
 10
1053.802156038326
 20
845.1478660973837
 10
1053.802156038326
 20
845.1478660973837
 10
1053.802156038326
 20
844.4276512536337
 10
1053.802156038326
 20
844.4276512536337
 10
1053.802156038326
 20
844.4276512536337
 10
1053.802156038326
 20
845.1478660973837
 10
1053.802156038326
 20
845.1478660973837
 97
        0
 75
     2
 76
     1
 98
        0
  0
HATCH
  5
A46C
330
A
100
AcDbEntity
  8
レイヤー 1
100
AcDbHatch
 10
0.0
 20
0.0
 30
0.0
210
0.0
220
0.0
230
1.0
  2
SOLID
 70
     1
 71
     0
 91
        1
 92
        1
 93
        1
 72
     4
 94
        3
 73
     0
 74
     1
 95
       14
 96
       10
 40
0.0
 40
0.0
 40
0.0
 40
0.0
 40
1.0
 40
1.0
 40
1.0
 40
2.0
 40
2.0
 40
2.0
 40
3.0
 40
3.0
 40
3.0
 40
3.0
 10
1239.741609163326
 20
94.00724109738377
 10
1239.741609163326
 20
94.00724109738377
 10
1239.741609163326
 20
94.00724109738377
 10
1239.741609163326
 20
94.00724109738377
 10
1239.741609163326
 20
94.00724109738377
 10
1239.741609163326
 20
88.24747547238377
 10
1239.741609163326
 20
88.24747547238377
 10
1239.741609163326
 20
88.24747547238377
 10
1239.741609163326
 20
94.00724109738377
 10
1239.741609163326
 20
94.00724109738377
 97
        0
 75
     2
 76
     1
 98
        0
  0
HATCH
  5
A46F
330
A
100
AcDbEntity
  8
レイヤー 1
100
AcDbHatch
 10
0.0
 20
0.0
 30
0.0
210
0.0
220
0.0
230
1.0
  2
SOLID
 70
     1
 71
     0
 91
        1
 92
        1
 93
        1
 72
     4
 94
        3
 73
     0
 74
     1
 95
       11
 96
        7
 40
0.0
 40
0.0
 40
0.0
 40
0.0
 40
1.0
 40
1.0
 40
1.0
 40
2.0
 40
2.0
 40
2.0
 40
2.0
 10
1239.741609163326
 20
94.00724109738377
 10
1239.741609163326
 20
94.00724109738377
 10
1239.021882600826
 20
88.24747547238377
 10
1239.021882600826
 20
88.24747547238377
 10
1239.021882600826
 20
88.24747547238377
 10
1239.741609163326
 20
94.00724109738377
 10
1239.741609163326
 20
94.00724109738377
 97
        0
 75
     2
 76
     1
 98
        0
  0
HATCH
  5
A472
330
A
100
AcDbEntity
  8
レイヤー 1
100
AcDbHatch
 10
0.0
 20
0.0
 30
0.0
210
0.0
220
0.0
230
1.0
  2
SOLID
 70
     1
 71
     0
 91
        1
 92
        1
 93
        1
 72
     4
 94
        3
 73
     0
 74
     1
 95
       11
 96
        7
 40
0.0
 40
0.0
 40
0.0
 40
0.0
 40
1.0
 40
1.0
 40
1.0
 40
2.0
 40
2.0
 40
2.0
 40
2.0
 10
1239.741609163326
 20
94.00724109738377
 10
1239.741609163326
 20
94.00724109738377
 10
1239.021882600826
 20
94.00724109738377
 10
1239.021882600826
 20
94.00724109738377
 10
1239.021882600826
 20
94.00724109738377
 10
1239.741609163326
 20
94.00724109738377
 10
1239.741609163326
 20
94.00724109738377
 97
        0
 75
     2
 76
     1
 98
        0
  0
HATCH
  5
A476
330
A
100
AcDbEntity
  8
レイヤー 1
100
AcDbHatch
 10
0.0
 20
0.0
 30
0.0
210
0.0
220
0.0
230
1.0
  2
SOLID
 70
     1
 71
     0
 91
        1
 92
        1
 93
        1
 72
     4
 94
        3
 73
     0
 74
     1
 95
       14
 96
       10
 40
0.0
 40
0.0
 40
0.0
 40
0.0
 40
1.0
 40
1.0
 40
1.0
 40
2.0
 40
2.0
 40
2.0
 40
3.0
 40
3.0
 40
3.0
 40
3.0
 10
1226.961335725826
 20
88.24747547238377
 10
1226.961335725826
 20
88.24747547238377
 10
1226.961335725826
 20
88.24747547238377
 10
1226.961335725826
 20
88.24747547238377
 10
1226.961335725826
 20
88.24747547238377
 10
1226.961335725826
 20
94.00724109738377
 10
1226.961335725826
 20
94.00724109738377
 10
1226.961335725826
 20
94.00724109738377
 10
1226.961335725826
 20
88.24747547238377
 10
1226.961335725826
 20
88.24747547238377
 97
        0
 75
     2
 76
     1
 98
        0
  0
HATCH
  5
A479
330
A
100
AcDbEntity
  8
レイヤー 1
100
AcDbHatch
 10
0.0
 20
0.0
 30
0.0
210
0.0
220
0.0
230
1.0
  2
SOLID
 70
     1
 71
     0
 91
        1
 92
        1
 93
        1
 72
     4
 94
        3
 73
     0
 74
     1
 95
       11
 96
        7
 40
0.0
 40
0.0
 40
0.0
 40
0.0
 40
1.0
 40
1.0
 40
1.0
 40
2.0
 40
2.0
 40
2.0
 40
2.0
 10
1226.961335725826
 20
88.24747547238377
 10
1226.961335725826
 20
88.24747547238377
 10
1227.682038850826
 20
94.00724109738377
 10
1227.682038850826
 20
94.00724109738377
 10
1227.682038850826
 20
94.00724109738377
 10
1226.961335725826
 20
88.24747547238377
 10
1226.961335725826
 20
88.24747547238377
 97
        0
 75
     2
 76
     1
 98
        0
  0
HATCH
  5
A47C
330
A
100
AcDbEntity
  8
レイヤー 1
100
AcDbHatch
 10
0.0
 20
0.0
 30
0.0
210
0.0
220
0.0
230
1.0
  2
SOLID
 70
     1
 71
     0
 91
        1
 92
        1
 93
        1
 72
     4
 94
        3
 73
     0
 74
     1
 95
       11
 96
        7
 40
0.0
 40
0.0
 40
0.0
 40
0.0
 40
1.0
 40
1.0
 40
1.0
 40
2.0
 40
2.0
 40
2.0
 40
2.0
 10
1226.961335725826
 20
88.24747547238377
 10
1226.961335725826
 20
88.24747547238377
 10
1227.682038850826
 20
88.24747547238377
 10
1227.682038850826
 20
88.24747547238377
 10
1227.682038850826
 20
88.24747547238377
 10
1226.961335725826
 20
88.24747547238377
 10
1226.961335725826
 20
88.24747547238377
 97
        0
 75
     2
 76
     1
 98
        0
  0
HATCH
  5
A480
330
A
100
AcDbEntity
  8
レイヤー 1
100
AcDbHatch
 10
0.0
 20
0.0
 30
0.0
210
0.0
220
0.0
230
1.0
  2
SOLID
 70
     1
 71
     0
 91
        1
 92
        1
 93
        1
 72
     4
 94
        3
 73
     0
 74
     1
 95
       14
 96
       10
 40
0.0
 40
0.0
 40
0.0
 40
0.0
 40
1.0
 40
1.0
 40
1.0
 40
2.0
 40
2.0
 40
2.0
 40
3.0
 40
3.0
 40
3.0
 40
3.0
 10
1271.601960725826
 20
120.1078270348838
 10
1271.601960725826
 20
120.1078270348838
 10
1271.601960725826
 20
120.1078270348838
 10
1271.601960725826
 20
120.1078270348838
 10
1271.601960725826
 20
120.1078270348838
 10
1266.021882600826
 20
120.1078270348838
 10
1266.021882600826
 20
120.1078270348838
 10
1266.021882600826
 20
120.1078270348838
 10
1271.601960725826
 20
120.1078270348838
 10
1271.601960725826
 20
120.1078270348838
 97
        0
 75
     2
 76
     1
 98
        0
  0
HATCH
  5
A483
330
A
100
AcDbEntity
  8
レイヤー 1
100
AcDbHatch
 10
0.0
 20
0.0
 30
0.0
210
0.0
220
0.0
230
1.0
  2
SOLID
 70
     1
 71
     0
 91
        1
 92
        1
 93
        1
 72
     4
 94
        3
 73
     0
 74
     1
 95
       11
 96
        7
 40
0.0
 40
0.0
 40
0.0
 40
0.0
 40
1.0
 40
1.0
 40
1.0
 40
2.0
 40
2.0
 40
2.0
 40
2.0
 10
1271.601960725826
 20
120.1078270348838
 10
1271.601960725826
 20
120.1078270348838
 10
1266.021882600826
 20
120.8275535973838
 10
1266.021882600826
 20
120.8275535973838
 10
1266.021882600826
 20
120.8275535973838
 10
1271.601960725826
 20
120.1078270348838
 10
1271.601960725826
 20
120.1078270348838
 97
        0
 75
     2
 76
     1
 98
        0
  0
HATCH
  5
A486
330
A
100
AcDbEntity
  8
レイヤー 1
100
AcDbHatch
 10
0.0
 20
0.0
 30
0.0
210
0.0
220
0.0
230
1.0
  2
SOLID
 70
     1
 71
     0
 91
        1
 92
        1
 93
        1
 72
     4
 94
        3
 73
     0
 74
     1
 95
       11
 96
        7
 40
0.0
 40
0.0
 40
0.0
 40
0.0
 40
1.0
 40
1.0
 40
1.0
 40
2.0
 40
2.0
 40
2.0
 40
2.0
 10
1271.601960725826
 20
120.1078270348838
 10
1271.601960725826
 20
120.1078270348838
 10
1271.601960725826
 20
120.8275535973838
 10
1271.601960725826
 20
120.8275535973838
 10
1271.601960725826
 20
120.8275535973838
 10
1271.601960725826
 20
120.1078270348838
 10
1271.601960725826
 20
120.1078270348838
 97
        0
 75
     2
 76
     1
 98
        0
  0
HATCH
  5
A48A
330
A
100
AcDbEntity
  8
レイヤー 1
100
AcDbHatch
 10
0.0
 20
0.0
 30
0.0
210
0.0
220
0.0
230
1.0
  2
SOLID
 70
     1
 71
     0
 91
        1
 92
        1
 93
        1
 72
     4
 94
        3
 73
     0
 74
     1
 95
       14
 96
       10
 40
0.0
 40
0.0
 40
0.0
 40
0.0
 40
1.0
 40
1.0
 40
1.0
 40
2.0
 40
2.0
 40
2.0
 40
3.0
 40
3.0
 40
3.0
 40
3.0
 10
1266.021882600826
 20
154.1273582848838
 10
1266.021882600826
 20
154.1273582848838
 10
1266.021882600826
 20
154.1273582848838
 10
1266.021882600826
 20
154.1273582848838
 10
1266.021882600826
 20
154.1273582848838
 10
1271.601960725826
 20
154.1273582848838
 10
1271.601960725826
 20
154.1273582848838
 10
1271.601960725826
 20
154.1273582848838
 10
1266.021882600826
 20
154.1273582848838
 10
1266.021882600826
 20
154.1273582848838
 97
        0
 75
     2
 76
     1
 98
        0
  0
HATCH
  5
A48D
330
A
100
AcDbEntity
  8
レイヤー 1
100
AcDbHatch
 10
0.0
 20
0.0
 30
0.0
210
0.0
220
0.0
230
1.0
  2
SOLID
 70
     1
 71
     0
 91
        1
 92
        1
 93
        1
 72
     4
 94
        3
 73
     0
 74
     1
 95
       11
 96
        7
 40
0.0
 40
0.0
 40
0.0
 40
0.0
 40
1.0
 40
1.0
 40
1.0
 40
2.0
 40
2.0
 40
2.0
 40
2.0
 10
1266.021882600826
 20
154.1273582848838
 10
1266.021882600826
 20
154.1273582848838
 10
1271.601960725826
 20
153.4076317223838
 10
1271.601960725826
 20
153.4076317223838
 10
1271.601960725826
 20
153.4076317223838
 10
1266.021882600826
 20
154.1273582848838
 10
1266.021882600826
 20
154.1273582848838
 97
        0
 75
     2
 76
     1
 98
        0
  0
HATCH
  5
A490
330
A
100
AcDbEntity
  8
レイヤー 1
100
AcDbHatch
 10
0.0
 20
0.0
 30
0.0
210
0.0
220
0.0
230
1.0
  2
SOLID
 70
     1
 71
     0
 91
        1
 92
        1
 93
        1
 72
     4
 94
        3
 73
     0
 74
     1
 95
       11
 96
        7
 40
0.0
 40
0.0
 40
0.0
 40
0.0
 40
1.0
 40
1.0
 40
1.0
 40
2.0
 40
2.0
 40
2.0
 40
2.0
 10
1266.021882600826
 20
154.1273582848838
 10
1266.021882600826
 20
154.1273582848838
 10
1266.021882600826
 20
153.4076317223838
 10
1266.021882600826
 20
153.4076317223838
 10
1266.021882600826
 20
153.4076317223838
 10
1266.021882600826
 20
154.1273582848838
 10
1266.021882600826
 20
154.1273582848838
 97
        0
 75
     2
 76
     1
 98
        0
  0
HATCH
  5
A494
330
A
100
AcDbEntity
  8
レイヤー 1
100
AcDbHatch
 10
0.0
 20
0.0
 30
0.0
210
0.0
220
0.0
230
1.0
  2
SOLID
 70
     1
 71
     0
 91
        1
 92
        1
 93
        1
 72
     4
 94
        3
 73
     0
 74
     1
 95
       14
 96
       10
 40
0.0
 40
0.0
 40
0.0
 40
0.0
 40
1.0
 40
1.0
 40
1.0
 40
2.0
 40
2.0
 40
2.0
 40
3.0
 40
3.0
 40
3.0
 40
3.0
 10
797.6615310383261
 20
862.7875145348837
 10
797.6615310383261
 20
862.7875145348837
 10
797.6615310383261
 20
862.7875145348837
 10
797.6615310383261
 20
862.7875145348837
 10
797.6615310383261
 20
862.7875145348837
 10
803.2416091633261
 20
862.7875145348837
 10
803.2416091633261
 20
862.7875145348837
 10
803.2416091633261
 20
862.7875145348837
 10
797.6615310383261
 20
862.7875145348837
 10
797.6615310383261
 20
862.7875145348837
 97
        0
 75
     2
 76
     1
 98
        0
  0
HATCH
  5
A497
330
A
100
AcDbEntity
  8
レイヤー 1
100
AcDbHatch
 10
0.0
 20
0.0
 30
0.0
210
0.0
220
0.0
230
1.0
  2
SOLID
 70
     1
 71
     0
 91
        1
 92
        1
 93
        1
 72
     4
 94
        3
 73
     0
 74
     1
 95
       11
 96
        7
 40
0.0
 40
0.0
 40
0.0
 40
0.0
 40
1.0
 40
1.0
 40
1.0
 40
2.0
 40
2.0
 40
2.0
 40
2.0
 10
797.6615310383261
 20
862.7875145348837
 10
797.6615310383261
 20
862.7875145348837
 10
803.2416091633261
 20
862.0677879723837
 10
803.2416091633261
 20
862.0677879723837
 10
803.2416091633261
 20
862.0677879723837
 10
797.6615310383261
 20
862.7875145348837
 10
797.6615310383261
 20
862.7875145348837
 97
        0
 75
     2
 76
     1
 98
        0
  0
HATCH
  5
A49A
330
A
100
AcDbEntity
  8
レイヤー 1
100
AcDbHatch
 10
0.0
 20
0.0
 30
0.0
210
0.0
220
0.0
230
1.0
  2
SOLID
 70
     1
 71
     0
 91
        1
 92
        1
 93
        1
 72
     4
 94
        3
 73
     0
 74
     1
 95
       11
 96
        7
 40
0.0
 40
0.0
 40
0.0
 40
0.0
 40
1.0
 40
1.0
 40
1.0
 40
2.0
 40
2.0
 40
2.0
 40
2.0
 10
797.6615310383261
 20
862.7875145348837
 10
797.6615310383261
 20
862.7875145348837
 10
797.6615310383261
 20
862.0677879723837
 10
797.6615310383261
 20
862.0677879723837
 10
797.6615310383261
 20
862.0677879723837
 10
797.6615310383261
 20
862.7875145348837
 10
797.6615310383261
 20
862.7875145348837
 97
        0
 75
     2
 76
     1
 98
        0
  0
HATCH
  5
A49E
330
A
100
AcDbEntity
  8
レイヤー 1
100
AcDbHatch
 10
0.0
 20
0.0
 30
0.0
210
0.0
220
0.0
230
1.0
  2
SOLID
 70
     1
 71
     0
 91
        1
 92
        1
 93
        1
 72
     4
 94
        3
 73
     0
 74
     1
 95
       14
 96
       10
 40
0.0
 40
0.0
 40
0.0
 40
0.0
 40
1.0
 40
1.0
 40
1.0
 40
2.0
 40
2.0
 40
2.0
 40
3.0
 40
3.0
 40
3.0
 40
3.0
 10
803.2416091633261
 20
828.7679832848837
 10
803.2416091633261
 20
828.7679832848837
 10
803.2416091633261
 20
828.7679832848837
 10
803.2416091633261
 20
828.7679832848837
 10
803.2416091633261
 20
828.7679832848837
 10
797.6615310383261
 20
828.7679832848837
 10
797.6615310383261
 20
828.7679832848837
 10
797.6615310383261
 20
828.7679832848837
 10
803.2416091633261
 20
828.7679832848837
 10
803.2416091633261
 20
828.7679832848837
 97
        0
 75
     2
 76
     1
 98
        0
  0
HATCH
  5
A4A1
330
A
100
AcDbEntity
  8
レイヤー 1
100
AcDbHatch
 10
0.0
 20
0.0
 30
0.0
210
0.0
220
0.0
230
1.0
  2
SOLID
 70
     1
 71
     0
 91
        1
 92
        1
 93
        1
 72
     4
 94
        3
 73
     0
 74
     1
 95
       11
 96
        7
 40
0.0
 40
0.0
 40
0.0
 40
0.0
 40
1.0
 40
1.0
 40
1.0
 40
2.0
 40
2.0
 40
2.0
 40
2.0
 10
803.2416091633261
 20
828.7679832848837
 10
803.2416091633261
 20
828.7679832848837
 10
797.6615310383261
 20
829.4877098473837
 10
797.6615310383261
 20
829.4877098473837
 10
797.6615310383261
 20
829.4877098473837
 10
803.2416091633261
 20
828.7679832848837
 10
803.2416091633261
 20
828.7679832848837
 97
        0
 75
     2
 76
     1
 98
        0
  0
HATCH
  5
A4A4
330
A
100
AcDbEntity
  8
レイヤー 1
100
AcDbHatch
 10
0.0
 20
0.0
 30
0.0
210
0.0
220
0.0
230
1.0
  2
SOLID
 70
     1
 71
     0
 91
        1
 92
        1
 93
        1
 72
     4
 94
        3
 73
     0
 74
     1
 95
       11
 96
        7
 40
0.0
 40
0.0
 40
0.0
 40
0.0
 40
1.0
 40
1.0
 40
1.0
 40
2.0
 40
2.0
 40
2.0
 40
2.0
 10
803.2416091633261
 20
828.7679832848837
 10
803.2416091633261
 20
828.7679832848837
 10
803.2416091633261
 20
829.4877098473837
 10
803.2416091633261
 20
829.4877098473837
 10
803.2416091633261
 20
829.4877098473837
 10
803.2416091633261
 20
828.7679832848837
 10
803.2416091633261
 20
828.7679832848837
 97
        0
 75
     2
 76
     1
 98
        0
  0
HATCH
  5
A4A8
330
A
100
AcDbEntity
  8
レイヤー 1
100
AcDbHatch
 10
0.0
 20
0.0
 30
0.0
210
0.0
220
0.0
230
1.0
  2
SOLID
 70
     1
 71
     0
 91
        1
 92
        1
 93
        1
 72
     4
 94
        3
 73
     0
 74
     1
 95
       14
 96
       10
 40
0.0
 40
0.0
 40
0.0
 40
0.0
 40
1.0
 40
1.0
 40
1.0
 40
2.0
 40
2.0
 40
2.0
 40
3.0
 40
3.0
 40
3.0
 40
3.0
 10
963.2621169758261
 20
934.4276512536337
 10
963.2621169758261
 20
934.4276512536337
 10
963.2621169758261
 20
934.4276512536337
 10
963.2621169758261
 20
934.4276512536337
 10
963.2621169758261
 20
934.4276512536337
 10
963.2621169758261
 20
940.0077293786337
 10
963.2621169758261
 20
940.0077293786337
 10
963.2621169758261
 20
940.0077293786337
 10
963.2621169758261
 20
934.4276512536337
 10
963.2621169758261
 20
934.4276512536337
 97
        0
 75
     2
 76
     1
 98
        0
  0
HATCH
  5
A4AB
330
A
100
AcDbEntity
  8
レイヤー 1
100
AcDbHatch
 10
0.0
 20
0.0
 30
0.0
210
0.0
220
0.0
230
1.0
  2
SOLID
 70
     1
 71
     0
 91
        1
 92
        1
 93
        1
 72
     4
 94
        3
 73
     0
 74
     1
 95
       11
 96
        7
 40
0.0
 40
0.0
 40
0.0
 40
0.0
 40
1.0
 40
1.0
 40
1.0
 40
2.0
 40
2.0
 40
2.0
 40
2.0
 10
963.2621169758261
 20
934.4276512536337
 10
963.2621169758261
 20
934.4276512536337
 10
963.9818435383261
 20
940.0077293786337
 10
963.9818435383261
 20
940.0077293786337
 10
963.9818435383261
 20
940.0077293786337
 10
963.2621169758261
 20
934.4276512536337
 10
963.2621169758261
 20
934.4276512536337
 97
        0
 75
     2
 76
     1
 98
        0
  0
HATCH
  5
A4AE
330
A
100
AcDbEntity
  8
レイヤー 1
100
AcDbHatch
 10
0.0
 20
0.0
 30
0.0
210
0.0
220
0.0
230
1.0
  2
SOLID
 70
     1
 71
     0
 91
        1
 92
        1
 93
        1
 72
     4
 94
        3
 73
     0
 74
     1
 95
       11
 96
        7
 40
0.0
 40
0.0
 40
0.0
 40
0.0
 40
1.0
 40
1.0
 40
1.0
 40
2.0
 40
2.0
 40
2.0
 40
2.0
 10
963.2621169758261
 20
934.4276512536337
 10
963.2621169758261
 20
934.4276512536337
 10
963.9818435383261
 20
934.4276512536337
 10
963.9818435383261
 20
934.4276512536337
 10
963.9818435383261
 20
934.4276512536337
 10
963.2621169758261
 20
934.4276512536337
 10
963.2621169758261
 20
934.4276512536337
 97
        0
 75
     2
 76
     1
 98
        0
  0
HATCH
  5
A4B2
330
A
100
AcDbEntity
  8
レイヤー 1
100
AcDbHatch
 10
0.0
 20
0.0
 30
0.0
210
0.0
220
0.0
230
1.0
  2
SOLID
 70
     1
 71
     0
 91
        1
 92
        1
 93
        1
 72
     4
 94
        3
 73
     0
 74
     1
 95
       14
 96
       10
 40
0.0
 40
0.0
 40
0.0
 40
0.0
 40
1.0
 40
1.0
 40
1.0
 40
2.0
 40
2.0
 40
2.0
 40
3.0
 40
3.0
 40
3.0
 40
3.0
 10
988.8216872883261
 20
940.0077293786337
 10
988.8216872883261
 20
940.0077293786337
 10
988.8216872883261
 20
940.0077293786337
 10
988.8216872883261
 20
940.0077293786337
 10
988.8216872883261
 20
940.0077293786337
 10
988.8216872883261
 20
934.4276512536337
 10
988.8216872883261
 20
934.4276512536337
 10
988.8216872883261
 20
934.4276512536337
 10
988.8216872883261
 20
940.0077293786337
 10
988.8216872883261
 20
940.0077293786337
 97
        0
 75
     2
 76
     1
 98
        0
  0
HATCH
  5
A4B5
330
A
100
AcDbEntity
  8
レイヤー 1
100
AcDbHatch
 10
0.0
 20
0.0
 30
0.0
210
0.0
220
0.0
230
1.0
  2
SOLID
 70
     1
 71
     0
 91
        1
 92
        1
 93
        1
 72
     4
 94
        3
 73
     0
 74
     1
 95
       11
 96
        7
 40
0.0
 40
0.0
 40
0.0
 40
0.0
 40
1.0
 40
1.0
 40
1.0
 40
2.0
 40
2.0
 40
2.0
 40
2.0
 10
988.8216872883261
 20
940.0077293786337
 10
988.8216872883261
 20
940.0077293786337
 10
988.1019607258261
 20
934.4276512536337
 10
988.1019607258261
 20
934.4276512536337
 10
988.1019607258261
 20
934.4276512536337
 10
988.8216872883261
 20
940.0077293786337
 10
988.8216872883261
 20
940.0077293786337
 97
        0
 75
     2
 76
     1
 98
        0
  0
HATCH
  5
A4B8
330
A
100
AcDbEntity
  8
レイヤー 1
100
AcDbHatch
 10
0.0
 20
0.0
 30
0.0
210
0.0
220
0.0
230
1.0
  2
SOLID
 70
     1
 71
     0
 91
        1
 92
        1
 93
        1
 72
     4
 94
        3
 73
     0
 74
     1
 95
       11
 96
        7
 40
0.0
 40
0.0
 40
0.0
 40
0.0
 40
1.0
 40
1.0
 40
1.0
 40
2.0
 40
2.0
 40
2.0
 40
2.0
 10
988.8216872883261
 20
940.0077293786337
 10
988.8216872883261
 20
940.0077293786337
 10
988.1019607258261
 20
940.0077293786337
 10
988.1019607258261
 20
940.0077293786337
 10
988.1019607258261
 20
940.0077293786337
 10
988.8216872883261
 20
940.0077293786337
 10
988.8216872883261
 20
940.0077293786337
 97
        0
 75
     2
 76
     1
 98
        0
  0
SPLINE
  5
A4BB
330
A
100
AcDbEntity
  8
モデル
100
AcDbSpline
210
0.0
220
0.0
230
1.0
 70
     8
 71
     3
 72
     8
 73
     4
 74
     0
 42
0.000000001
 43
0.0000000001
 40
0.0
 40
0.0
 40
0.0
 40
0.0
 40
1.0
 40
1.0
 40
1.0
 40
1.0
 10
101.5420706038917
 20
251.2072287179763
 30
0.0
 10
108.4505376359568
 20
251.2065396971782
 30
0.0
 10
114.0519322140424
 20
256.8062117232685
 30
0.0
 10
114.0529657452396
 20
263.7143342449346
 30
0.0
  0
SPLINE
  5
A4BC
330
A
100
AcDbEntity
  8
モデル
100
AcDbSpline
210
0.0
220
0.0
230
1.0
 70
     8
 71
     3
 72
     8
 73
     4
 74
     0
 42
0.000000001
 43
0.0000000001
 40
1.0
 40
1.0
 40
1.0
 40
1.0
 40
2.0
 40
2.0
 40
2.0
 40
2.0
 10
114.0529657452396
 20
263.7143342449346
 30
0.0
 10
114.0539992764366
 20
270.6231457873988
 30
0.0
 10
108.4543272503463
 20
276.2248848758833
 30
0.0
 10
101.5458602182812
 20
276.2262629174795
 30
0.0
  0
SPLINE
  5
A4BD
330
A
100
AcDbEntity
  8
モデル
100
AcDbSpline
210
0.0
220
0.0
230
1.0
 70
     8
 71
     3
 72
     8
 73
     4
 74
     0
 42
0.000000001
 43
0.0000000001
 40
2.0
 40
2.0
 40
2.0
 40
2.0
 40
3.0
 40
3.0
 40
3.0
 40
3.0
 10
101.5458602182812
 20
276.2262629174795
 30
0.0
 10
94.63704867581691
 20
276.2276409590757
 30
0.0
 10
89.0356540977316
 20
270.6279689329855
 30
0.0
 10
89.0339315457361
 20
263.7198464113193
 30
0.0
  0
SPLINE
  5
A4BE
330
A
100
AcDbEntity
  8
モデル
100
AcDbSpline
210
0.0
220
0.0
230
1.0
 70
     8
 71
     3
 72
     8
 73
     4
 74
     0
 42
0.000000001
 43
0.0000000001
 40
3.0
 40
3.0
 40
3.0
 40
3.0
 40
4.0
 40
4.0
 40
4.0
 40
4.0
 10
89.0339315457361
 20
263.7198464113193
 30
0.0
 10
89.03220899374105
 20
256.8110348688551
 30
0.0
 10
94.63119199903326
 20
251.2092957803706
 30
0.0
 10
101.5396590310984
 20
251.2072287179763
 30
0.0
  0
SPLINE
  5
A4BF
102
{ACAD_REACTORS
330
A719
102
}
330
A
100
AcDbEntity
  8
モデル
100
AcDbSpline
210
0.0
220
0.0
230
1.0
 70
     8
 71
     3
 72
     8
 73
     4
 74
     0
 42
0.000000001
 43
0.0000000001
 40
0.0
 40
0.0
 40
0.0
 40
0.0
 40
1.0
 40
1.0
 40
1.0
 40
1.0
 10
101.5420706038917
 20
521.8164213689117
 30
0.0
 10
108.4505376359568
 20
521.8157323481137
 30
0.0
 10
114.0519322140424
 20
527.4154043742038
 30
0.0
 10
114.0529657452396
 20
534.3242159166681
 30
0.0
  0
SPLINE
  5
A4C0
102
{ACAD_REACTORS
330
A719
102
}
330
A
100
AcDbEntity
  8
モデル
100
AcDbSpline
210
0.0
220
0.0
230
1.0
 70
     8
 71
     3
 72
     8
 73
     4
 74
     0
 42
0.000000001
 43
0.0000000001
 40
1.0
 40
1.0
 40
1.0
 40
1.0
 40
2.0
 40
2.0
 40
2.0
 40
2.0
 10
114.0529657452396
 20
534.3242159166681
 30
0.0
 10
114.0539992764366
 20
541.2326829487332
 30
0.0
 10
108.4543272503463
 20
546.8340775268188
 30
0.0
 10
101.5458602182812
 20
546.8354555684149
 30
0.0
  0
SPLINE
  5
A4C1
330
A
100
AcDbEntity
  8
モデル
100
AcDbSpline
210
0.0
220
0.0
230
1.0
 70
     8
 71
     3
 72
    11
 73
     7
 74
     0
 42
0.000000001
 43
0.0000000001
 40
2.0
 40
2.0
 40
2.0
 40
2.0
 40
3.0
 40
3.0
 40
3.0
 40
4.0
 40
4.0
 40
4.0
 40
4.0
 10
101.5458602182812
 20
546.8354555684149
 30
0.0
 10
94.63704867581691
 20
546.8368336100111
 30
0.0
 10
89.0356540977316
 20
541.2375060943199
 30
0.0
 10
89.0339315457361
 20
534.3290390622548
 30
0.0
 10
89.03220899374105
 20
527.4205720301895
 30
0.0
 10
94.63119199903326
 20
521.818488431306
 30
0.0
 10
101.5396590310984
 20
521.8164213689117
 30
0.0
  0
LINE
  5
A4C2
330
A
100
AcDbEntity
  8
モデル
100
AcDbLine
 10
105.5439033992077
 20
221.6158525023374
 30
0.0
 11
105.5439033992077
 21
219.2029016674207
 31
0.0
  0
LINE
  5
A4C3
330
A
100
AcDbEntity
  8
モデル
100
AcDbLine
 10
105.5439033992077
 20
219.2029016674207
 30
0.0
 11
111.5128905730749
 21
219.2029016674207
 31
0.0
  0
LINE
  5
A4C4
330
A
100
AcDbEntity
  8
モデル
100
AcDbLine
 10
111.5128905730749
 20
219.2029016674207
 30
0.0
 11
111.5128905730749
 21
221.6158525023374
 31
0.0
  0
LINE
  5
A4C5
330
A
100
AcDbEntity
  8
モデル
100
AcDbLine
 10
111.5128905730749
 20
221.6158525023374
 30
0.0
 11
105.5439033992077
 21
221.6158525023374
 31
0.0
  0
LINE
  5
A4C6
330
A
100
AcDbEntity
  8
モデル
100
AcDbLine
 10
105.5439033992077
 20
546.2005229029735
 30
0.0
 11
105.5439033992077
 21
576.4264872736547
 31
0.0
  0
LINE
  5
A4C7
330
A
100
AcDbEntity
  8
モデル
100
AcDbLine
 10
105.5439033992077
 20
576.4264872736547
 30
0.0
 11
111.5128905730749
 21
576.4264872736547
 31
0.0
  0
LINE
  5
A4C8
102
{ACAD_REACTORS
330
A66C
330
A7CD
102
}
330
A
100
AcDbEntity
  8
モデル
100
AcDbLine
 10
111.5128905730749
 20
576.4264872736547
 30
0.0
 11
111.5128905730749
 21
578.8394381085715
 31
0.0
  0
LINE
  5
A4C9
102
{ACAD_REACTORS
330
A7CD
102
}
330
A
100
AcDbEntity
  8
モデル
100
AcDbLine
 10
111.5128905730749
 20
578.8394381085715
 30
0.0
 11
105.5439033992077
 21
578.8394381085715
 31
0.0
  0
LINE
  5
A4CA
330
A
100
AcDbEntity
  8
モデル
100
AcDbLine
 10
105.5439033992077
 20
578.8394381085715
 30
0.0
 11
105.5439033992077
 21
576.4264872736547
 31
0.0
  0
LINE
  5
A4CB
330
A
100
AcDbEntity
  8
モデル
100
AcDbLine
 10
105.5439033992077
 20
522.4513540343531
 30
0.0
 11
105.5439033992077
 21
406.0574224075108
 31
0.0
  0
LINE
  5
A4CC
330
A
100
AcDbEntity
  8
モデル
100
AcDbLine
 10
105.5439033992077
 20
251.8418168730187
 30
0.0
 11
105.5439033992077
 21
221.6158525023374
 31
0.0
  0
LINE
  5
A4CD
330
A
100
AcDbEntity
  8
モデル
100
AcDbLine
 10
111.5128905730749
 20
576.4264872736547
 30
0.0
 11
111.5128905730749
 21
541.8824295613337
 31
0.0
  0
LINE
  5
A4CE
330
A
100
AcDbEntity
  8
モデル
100
AcDbLine
 10
111.5128905730749
 20
526.8962272028418
 30
0.0
 11
111.5128905730749
 21
401.4467380837764
 31
0.0
  0
LINE
  5
A4CF
330
A
100
AcDbEntity
  8
モデル
100
AcDbLine
 10
111.5128905730749
 20
256.2866900415074
 30
0.0
 11
111.5128905730749
 21
221.6158525023374
 31
0.0
  0
LINE
  5
A4D0
330
A
100
AcDbEntity
  8
モデル
100
AcDbLine
 10
316.5060675945672
 20
251.2072287179763
 30
0.0
 11
316.5060675945672
 21
276.2262629174795
 31
0.0
  0
LINE
  5
A4D1
330
A
100
AcDbEntity
  8
モデル
100
AcDbLine
 10
256.5619471813984
 20
251.2072287179763
 30
0.0
 11
256.5619471813984
 21
276.2262629174795
 31
0.0
  0
LINE
  5
A4D2
330
A
100
AcDbEntity
  8
モデル
100
AcDbLine
 10
316.5060675945672
 20
251.2072287179763
 30
0.0
 11
284.6292093916588
 21
251.2072287179763
 31
0.0
  0
LINE
  5
A4D3
330
A
100
AcDbEntity
  8
モデル
100
AcDbLine
 10
260.6264808693406
 20
251.2072287179763
 30
0.0
 11
256.5619471813984
 21
251.2072287179763
 31
0.0
  0
LINE
  5
A4D4
330
A
100
AcDbEntity
  8
モデル
100
AcDbLine
 10
316.5060675945672
 20
276.2262629174795
 30
0.0
 11
284.6292093916588
 21
276.2262629174795
 31
0.0
  0
LINE
  5
A4D5
330
A
100
AcDbEntity
  8
モデル
100
AcDbLine
 10
260.6264808693406
 20
276.2262629174795
 30
0.0
 11
256.5619471813984
 21
276.2262629174795
 31
0.0
  0
LINE
  5
A4D8
330
A
100
AcDbEntity
  8
モデル
100
AcDbLine
 10
316.5060675945672
 20
521.8164213689117
 30
0.0
 11
316.5060675945672
 21
546.8354555684149
 31
0.0
  0
LINE
  5
A4D9
330
A
100
AcDbEntity
  8
モデル
100
AcDbLine
 10
256.5619471813984
 20
521.8164213689117
 30
0.0
 11
256.5619471813984
 21
546.8354555684149
 31
0.0
  0
LINE
  5
A4DA
330
A
100
AcDbEntity
  8
モデル
100
AcDbLine
 10
316.5060675945672
 20
521.8164213689117
 30
0.0
 11
284.6292093916588
 21
521.8164213689117
 31
0.0
  0
LINE
  5
A4DC
330
A
100
AcDbEntity
  8
モデル
100
AcDbLine
 10
316.5060675945672
 20
546.8354555684149
 30
0.0
 11
284.6292093916588
 21
546.8354555684149
 31
0.0
  0
LINE
  5
A4E0
102
{ACAD_REACTORS
330
A99F
102
}
330
A
100
AcDbEntity
  8
モデル
100
AcDbLine
 10
260.6264808693406
 20
221.6158525023374
 30
0.0
 11
279.5490590473296
 21
219.2029016674207
 31
0.0
  0
LINE
  5
A4E1
330
A
100
AcDbEntity
  8
モデル
100
AcDbLine
 10
279.5490590473296
 20
219.2029016674207
 30
0.0
 11
284.6292093916588
 21
251.2072287179763
 31
0.0
  0
LINE
  5
A4E2
330
A
100
AcDbEntity
  8
モデル
100
AcDbLine
 10
284.6292093916588
 20
546.8354555684149
 30
0.0
 11
279.5490590473296
 21
578.8394381085715
 31
0.0
  0
LINE
  5
A4E3
330
A
100
AcDbEntity
  8
モデル
100
AcDbLine
 10
279.5490590473296
 20
578.8394381085715
 30
0.0
 11
260.6264808693406
 21
576.4264872736547
 31
0.0
  0
LINE
  5
A4E5
330
A
100
AcDbEntity
  8
モデル
100
AcDbLine
 10
284.6292093916588
 20
276.2262629174795
 30
0.0
 11
284.6292093916588
 21
391.6101398537201
 31
0.0
  0
LINE
  5
A4E7
330
A
100
AcDbEntity
  8
モデル
100
AcDbLine
 10
260.6264808693406
 20
576.4264872736547
 30
0.0
 11
260.6264808693406
 21
546.8354555684149
 31
0.0
  0
LINE
  5
A4E8
330
A
100
AcDbEntity
  8
モデル
100
AcDbLine
 10
260.6264808693406
 20
521.8164213689117
 30
0.0
 11
260.6264808693406
 21
408.1544052767059
 31
0.0
  0
LINE
  5
A4E9
330
A
100
AcDbEntity
  8
モデル
100
AcDbLine
 10
260.6264808693406
 20
251.2072287179763
 30
0.0
 11
260.6264808693406
 21
221.6158525023374
 31
0.0
  0
LINE
  5
A4EA
330
A
100
AcDbEntity
  8
モデル
100
AcDbLine
 10
462.733213202969
 20
276.2262629174795
 30
0.0
 11
462.733213202969
 21
251.2072287179763
 31
0.0
  0
LINE
  5
A4EB
330
A
100
AcDbEntity
  8
モデル
100
AcDbLine
 10
462.733213202969
 20
276.2262629174795
 30
0.0
 11
472.7660450439801
 21
276.2262629174795
 31
0.0
  0
LINE
  5
A4EC
330
A
100
AcDbEntity
  8
モデル
100
AcDbLine
 10
472.7660450439801
 20
276.2262629174795
 30
0.0
 11
472.7660450439801
 21
251.2072287179763
 31
0.0
  0
LINE
  5
A4ED
330
A
100
AcDbEntity
  8
モデル
100
AcDbLine
 10
472.7660450439801
 20
251.2072287179763
 30
0.0
 11
462.733213202969
 21
251.2072287179763
 31
0.0
  0
LINE
  5
A4EE
330
A
100
AcDbEntity
  8
モデル
100
AcDbLine
 10
462.733213202969
 20
546.8354555684149
 30
0.0
 11
462.733213202969
 21
521.8164213689117
 31
0.0
  0
LINE
  5
A4EF
102
{ACAD_REACTORS
330
A6C7
102
}
330
A
100
AcDbEntity
  8
モデル
100
AcDbLine
 10
462.733213202969
 20
546.8354555684149
 30
0.0
 11
472.7660450439801
 21
546.8354555684149
 31
0.0
  0
LINE
  5
A4F0
102
{ACAD_REACTORS
330
A6C7
102
}
330
A
100
AcDbEntity
  8
モデル
100
AcDbLine
 10
472.7660450439801
 20
546.8354555684149
 30
0.0
 11
472.7660450439801
 21
521.8164213689117
 31
0.0
  0
LINE
  5
A4F1
330
A
100
AcDbEntity
  8
モデル
100
AcDbLine
 10
472.7660450439801
 20
521.8164213689117
 30
0.0
 11
462.733213202969
 21
521.8164213689117
 31
0.0
  0
LINE
  5
A4F2
330
A
100
AcDbEntity
  8
モデル
100
AcDbLine
 10
344.2248936412287
 20
267.7168560610486
 30
0.0
 11
346.2568159748012
 21
267.7168560610486
 31
0.0
  0
LINE
  5
A4F3
330
A
100
AcDbEntity
  8
モデル
100
AcDbLine
 10
344.2248936412287
 20
259.970195228105
 30
0.0
 11
346.2568159748012
 21
259.970195228105
 31
0.0
  0
LINE
  5
A4F4
330
A
100
AcDbEntity
  8
モデル
100
AcDbLine
 10
346.2568159748012
 20
259.970195228105
 30
0.0
 11
346.2568159748012
 21
259.7159465536092
 31
0.0
  0
LINE
  5
A4F5
330
A
100
AcDbEntity
  8
モデル
100
AcDbLine
 10
346.2568159748012
 20
259.7159465536092
 30
0.0
 11
344.2248936412287
 21
259.7159465536092
 31
0.0
  0
LINE
  5
A4F6
330
A
100
AcDbEntity
  8
モデル
100
AcDbLine
 10
343.7170853130356
 20
260.2237548818027
 30
0.0
 11
343.7170853130356
 21
260.4780035562985
 31
0.0
  0
LINE
  5
A4F7
330
A
100
AcDbEntity
  8
モデル
100
AcDbLine
 10
344.2248936412287
 20
259.970195228105
 30
0.0
 11
344.2248936412287
 21
267.7168560610486
 31
0.0
  0
LINE
  5
A4F8
330
A
100
AcDbEntity
  8
モデル
100
AcDbLine
 10
344.2248936412287
 20
259.7159465536092
 30
0.0
 11
343.7170853130356
 21
260.2237548818027
 31
0.0
  0
LINE
  5
A4F9
330
A
100
AcDbEntity
  8
モデル
100
AcDbLine
 10
343.7170853130356
 20
260.4780035562985
 30
0.0
 11
344.2248936412287
 21
259.970195228105
 31
0.0
  0
LINE
  5
A4FA
330
A
100
AcDbEntity
  8
モデル
100
AcDbLine
 10
344.2248936412287
 20
267.7168560610486
 30
0.0
 11
343.7170853130356
 21
267.2090477328551
 31
0.0
  0
LINE
  5
A4FB
330
A
100
AcDbEntity
  8
モデル
100
AcDbLine
 10
343.7170853130356
 20
267.2090477328551
 30
0.0
 11
343.7170853130356
 21
260.4780035562985
 31
0.0
  0
LINE
  5
A4FC
330
A
100
AcDbEntity
  8
モデル
100
AcDbLine
 10
442.907431233488
 20
259.7159465536092
 30
0.0
 11
346.2568159748012
 21
259.7159465536092
 31
0.0
  0
LINE
  5
A4FD
330
A
100
AcDbEntity
  8
モデル
100
AcDbLine
 10
442.907431233488
 20
267.7168560610486
 30
0.0
 11
346.2568159748012
 21
267.7168560610486
 31
0.0
  0
LINE
  5
A4FE
330
A
100
AcDbEntity
  8
モデル
100
AcDbLine
 10
344.2248936412287
 20
538.326393222383
 30
0.0
 11
346.2568159748012
 21
538.326393222383
 31
0.0
  0
LINE
  5
A4FF
330
A
100
AcDbEntity
  8
モデル
100
AcDbLine
 10
346.2568159748012
 20
538.326393222383
 30
0.0
 11
346.2568159748012
 21
538.0724890582862
 31
0.0
  0
LINE
  5
A500
330
A
100
AcDbEntity
  8
モデル
100
AcDbLine
 10
346.2568159748012
 20
538.0724890582862
 30
0.0
 11
344.2248936412287
 21
538.0724890582862
 31
0.0
  0
LINE
  5
A501
330
A
100
AcDbEntity
  8
モデル
100
AcDbLine
 10
343.7170853130356
 20
537.5643362196937
 30
0.0
 11
343.7170853130356
 21
537.8185848941895
 31
0.0
  0
LINE
  5
A502
330
A
100
AcDbEntity
  8
モデル
100
AcDbLine
 10
344.2248936412287
 20
530.3254837149436
 30
0.0
 11
344.2248936412287
 21
538.0724890582862
 31
0.0
  0
LINE
  5
A503
330
A
100
AcDbEntity
  8
モデル
100
AcDbLine
 10
343.7170853130356
 20
537.8185848941895
 30
0.0
 11
344.2248936412287
 21
538.326393222383
 31
0.0
  0
LINE
  5
A504
330
A
100
AcDbEntity
  8
モデル
100
AcDbLine
 10
343.7170853130356
 20
530.8332920431371
 30
0.0
 11
344.2248936412287
 21
530.3254837149436
 31
0.0
  0
LINE
  5
A505
330
A
100
AcDbEntity
  8
モデル
100
AcDbLine
 10
344.2248936412287
 20
538.0724890582862
 30
0.0
 11
343.7170853130356
 21
537.5643362196937
 31
0.0
  0
LINE
  5
A506
330
A
100
AcDbEntity
  8
モデル
100
AcDbLine
 10
343.7170853130356
 20
537.5643362196937
 30
0.0
 11
343.7170853130356
 21
530.8332920431371
 31
0.0
  0
LINE
  5
A507
330
A
100
AcDbEntity
  8
モデル
100
AcDbLine
 10
344.2248936412287
 20
538.326393222383
 30
0.0
 11
344.2248936412287
 21
538.326393222383
 31
0.0
  0
LINE
  5
A508
330
A
100
AcDbEntity
  8
モデル
100
AcDbLine
 10
344.2248936412287
 20
530.3254837149436
 30
0.0
 11
344.2248936412287
 21
530.3254837149436
 31
0.0
  0
LINE
  5
A509
330
A
100
AcDbEntity
  8
モデル
100
AcDbLine
 10
344.2248936412287
 20
530.3254837149436
 30
0.0
 11
442.907431233488
 21
530.3254837149436
 31
0.0
  0
LINE
  5
A50A
330
A
100
AcDbEntity
  8
モデル
100
AcDbLine
 10
442.907431233488
 20
538.326393222383
 30
0.0
 11
344.2248936412287
 21
538.326393222383
 31
0.0
  0
DIMENSION
  5
A66A
102
{ACAD_REACTORS
330
A66C
102
}
102
{ACAD_XDICTIONARY
360
A66B
102
}
330
A
100
AcDbEntity
  8
寸法
100
AcDbDimension
  2
*D19
 10
166.0407867504268
 20
219.2029016674207
 30
0.0
 11
166.0407867504268
 21
399.0211698879961
 31
0.0
 70
   160
  1
589
 71
     5
 42
359.6365364411507
 73
     0
 74
     0
 75
     0
  3
tfrom線あり
100
AcDbAlignedDimension
 13
111.5128905730749
 23
578.8394381085715
 33
0.0
 14
111.5128905730749
 24
219.2029016674207
 34
0.0
 50
90.0
100
AcDbRotatedDimension
1001
ACAD
1000
DSTYLE
1002
{
1070
   144
1040
1.0
1002
}
  0
DIMENSION
  5
A679
330
A
100
AcDbEntity
  8
寸法
100
AcDbDimension
  2
*D20
 10
571.0728464443584
 20
263.716745816846
 30
0.0
 11
571.0728464443584
 21
400.0386147058715
 31
0.0
 70
   160
  1
500
 71
     5
 42
270.6091926518174
 73
     0
 74
     0
 75
     0
  3
tfrom線あり
100
AcDbAlignedDimension
 13
530.894594734016
 23
534.3259384686634
 33
0.0
 14
530.894594734016
 24
263.716745816846
 34
0.0
 50
90.0
100
AcDbRotatedDimension
1001
ACAD
1000
DSTYLE
1002
{
1070
   144
1040
1.0
1002
}
  0
LINE
  5
A6C0
330
A
100
AcDbEntity
  8
CENTER
100
AcDbLine
 10
511.8018079277624
 20
534.3259384686634
 30
0.0
 11
530.894594734016
 21
534.3259384686634
 31
0.0
  0
LINE
  5
A6C1
330
A
100
AcDbEntity
  8
CENTER
100
AcDbLine
 10
521.348201330889
 20
524.7795450655364
 30
0.0
 11
521.348201330889
 21
543.8723318717904
 31
0.0
  0
CIRCLE
  5
A6C2
102
{ACAD_REACTORS
330
A6C3
102
}
330
A
100
AcDbEntity
  8
モデル
100
AcDbCircle
 10
521.348201330889
 20
534.3259384686634
 30
0.0
 40
5.5
  0
HATCH
  5
A6C3
330
A
100
AcDbEntity
  8
モデル
100
AcDbHatch
 10
0.0
 20
0.0
 30
0.0
210
0.0
220
0.0
230
1.0
  2
ANSI31
 70
     0
 71
     1
 91
        1
 92
        1
 93
        1
 72
     2
 10
521.348201330889
 20
534.3259384686634
 40
5.5
 50
0.0
 51
360.0
 73
     1
 97
        1
330
A6C2
 75
     0
 76
     1
 52
0.0
 41
1.0
 77
     0
 78
     1
 53
45.0
 43
20.21957130300211
 44
-630.5534973229088
 45
-2.245064030267288
 46
2.245064030267288
 79
     0
 98
        1
 10
20.21957130300211
 20
-630.5534973229088
1001
ACAD
1010
0.0
1020
0.0
1030
0.0
  0
TEXT
  5
A6C4
330
A
100
AcDbEntity
  8
モデル
100
AcDbText
 10
500.0676146010589
 20
572.219394387053
 30
0.0
 40
8.0
  1
<切欠図>
  7
ＭＳ ゴシック
100
AcDbText
  0
DIMENSION
  5
A6C5
102
{ACAD_REACTORS
330
A6C7
102
}
102
{ACAD_XDICTIONARY
360
A6C6
102
}
330
A
100
AcDbEntity
  8
寸法
100
AcDbDimension
  2
*D21
 10
495.5764043293696
 20
521.8164213689117
 30
0.0
 11
486.5764043293696
 21
534.3259384686633
 31
0.0
 70
    32
 71
     5
 42
25.01903419950315
 73
     0
 74
     0
 75
     0
  3
tfrom線あり
100
AcDbAlignedDimension
 13
472.7660450439801
 23
546.8354555684149
 33
0.0
 14
472.7660450439801
 24
521.8164213689117
 34
0.0
 50
90.0
100
AcDbRotatedDimension
1001
ACAD
1000
DSTYLE
1002
{
1070
   144
1040
1.0
1002
}
  0
LINE
  5
A6D4
330
A
100
AcDbEntity
  8
CENTER
100
AcDbLine
 10
511.8018079277624
 20
263.716745816846
 30
0.0
 11
530.894594734016
 21
263.716745816846
 31
0.0
  0
LINE
  5
A6D5
330
A
100
AcDbEntity
  8
CENTER
100
AcDbLine
 10
521.348201330889
 20
273.263139219973
 30
0.0
 11
521.348201330889
 21
254.170352413719
 31
0.0
  0
CIRCLE
  5
A6D6
102
{ACAD_REACTORS
330
A6D7
102
}
330
A
100
AcDbEntity
  8
モデル
100
AcDbCircle
 10
521.348201330889
 20
263.716745816846
 30
0.0
 40
5.5
  0
HATCH
  5
A6D7
330
A
100
AcDbEntity
  8
モデル
100
AcDbHatch
 10
0.0
 20
0.0
 30
0.0
210
0.0
220
0.0
230
1.0
  2
ANSI31
 70
     0
 71
     1
 91
        1
 92
        1
 93
        1
 72
     2
 10
521.348201330889
 20
263.716745816846
 40
5.5
 50
0.0
 51
360.0
 73
     1
 97
        1
330
A6D6
 75
     0
 76
     1
 52
0.0
 41
1.0
 77
     0
 78
     1
 53
315.0
 43
20.21957130300211
 44
1428.596181608418
 45
-2.245064030267288
 46
-2.245064030267288
 79
     0
 98
        1
 10
20.21957130300211
 20
1428.596181608418
1001
ACAD
1010
0.0
1020
0.0
1030
0.0
  0
DIMENSION
  5
A717
102
{ACAD_REACTORS
330
A719
102
}
102
{ACAD_XDICTIONARY
360
A718
102
}
330
A
100
AcDbEntity
  8
寸法
100
AcDbDimension
  2
*D26
 10
62.20270626817205
 20
521.8164213689117
 30
0.0
 11
62.20270626817205
 21
534.3259384686634
 31
0.0
 70
   160
 71
     5
 42
25.01903419950315
 73
     0
 74
     0
 75
     0
  3
tfrom線あり
100
AcDbAlignedDimension
 13
101.5458602182812
 23
546.8354555684149
 33
0.0
 14
101.5420706038917
 24
521.8164213689117
 34
0.0
 50
90.0
100
AcDbRotatedDimension
1001
ACAD
1000
DSTYLE
1002
{
1070
   144
1040
1.0
1002
}
  0
DIMENSION
  5
A726
330
A
100
AcDbEntity
  8
寸法
100
AcDbDimension
  2
*D27
 10
279.6264808693406
 20
603.9973033064787
 30
0.0
 11
270.1264808693406
 21
612.9973033064787
 31
0.0
 70
    32
 71
     5
 42
19.0
 73
     0
 74
     0
 75
     0
  3
tfrom線あり
100
AcDbAlignedDimension
 13
260.6264808693406
 23
576.4264872736547
 33
0.0
 14
279.6264808693406
 24
576.4264872736547
 34
0.0
100
AcDbRotatedDimension
1001
ACAD
1000
DSTYLE
1002
{
1070
   144
1040
1.0
1002
}
  0
LINE
  5
A786
102
{ACAD_REACTORS
330
A7BE
102
}
330
A
100
AcDbEntity
  8
モデル
100
AcDbLine
 10
114.0553773180327
 20
727.418502158803
 30
0.0
 11
89.03634311852943
 21
727.418502158803
 31
0.0
  0
LINE
  5
A787
330
A
100
AcDbEntity
  8
モデル
100
AcDbLine
 10
114.0553773180327
 20
667.4743817456342
 30
0.0
 11
89.03634311852943
 21
667.4743817456342
 31
0.0
  0
LINE
  5
A788
330
A
100
AcDbEntity
  8
モデル
100
AcDbLine
 10
114.0553773180327
 20
727.418502158803
 30
0.0
 11
114.0553773180327
 21
695.5416439558946
 31
0.0
  0
LINE
  5
A789
102
{ACAD_REACTORS
330
A7AE
330
A7BE
330
A7DF
102
}
330
A
100
AcDbEntity
  8
モデル
100
AcDbLine
 10
114.0553773180327
 20
671.5389154335764
 30
0.0
 11
114.0553773180327
 21
667.4743817456342
 31
0.0
  0
LINE
  5
A78B
102
{ACAD_REACTORS
330
A7DF
102
}
330
A
100
AcDbEntity
  8
モデル
100
AcDbLine
 10
89.03634311852943
 20
727.418502158803
 30
0.0
 11
89.03634311852943
 21
667.4743817456342
 31
0.0
  0
LINE
  5
A78C
102
{ACAD_REACTORS
330
A7AE
102
}
330
A
100
AcDbEntity
  8
モデル
100
AcDbLine
 10
105.5439033992077
 20
695.5416439558946
 30
0.0
 11
114.0553773180327
 21
695.5416439558946
 31
0.0
  0
LINE
  5
A78D
330
A
100
AcDbEntity
  8
モデル
100
AcDbLine
 10
114.0553773180327
 20
671.5389154335764
 30
0.0
 11
105.5439033992077
 21
671.5389154335764
 31
0.0
  0
LINE
  5
A7A3
330
A
100
AcDbEntity
  8
モデル
100
AcDbLine
 10
105.5439033992077
 20
690.4614936115654
 30
0.0
 11
111.5128905730749
 21
690.4614936115654
 31
0.0
  0
LINE
  5
A7A7
330
A
100
AcDbEntity
  8
モデル
100
AcDbLine
 10
111.5128905730749
 20
671.5389154335764
 30
0.0
 11
111.5128905730749
 21
695.5416439558946
 31
0.0
  0
LINE
  5
A7A8
330
A
100
AcDbEntity
  8
モデル
100
AcDbLine
 10
105.5439033992077
 20
671.5389154335764
 30
0.0
 11
105.5439033992077
 21
695.5416439558946
 31
0.0
  0
DIMENSION
  5
A7AC
102
{ACAD_REACTORS
330
A7AE
102
}
102
{ACAD_XDICTIONARY
360
A7AD
102
}
330
A
100
AcDbEntity
  8
寸法
100
AcDbDimension
  2
*D30
 10
137.8566654543554
 20
671.5389154335764
 30
0.0
 11
128.8566654543554
 21
683.5402796947355
 31
0.0
 70
    32
 71
     5
 42
24.00272852231819
 73
     0
 74
     0
 75
     0
  3
tfrom線あり
100
AcDbAlignedDimension
 13
114.0553773180327
 23
695.5416439558946
 33
0.0
 14
114.0553773180327
 24
671.5389154335764
 34
0.0
 50
90.0
100
AcDbRotatedDimension
1001
ACAD
1000
DSTYLE
1002
{
1070
   144
1040
1.0
1002
}
  0
DIMENSION
  5
A7BC
102
{ACAD_REACTORS
330
A7BE
102
}
102
{ACAD_XDICTIONARY
360
A7BD
102
}
330
A
100
AcDbEntity
  8
寸法
100
AcDbDimension
  2
*D31
 10
166.9503580638345
 20
667.4743817456342
 30
0.0
 11
157.9503580638345
 21
697.4464419522186
 31
0.0
 70
    32
 71
     5
 42
59.94412041316878
 73
     0
 74
     0
 75
     0
  3
tfrom線あり
100
AcDbAlignedDimension
 13
114.0553773180327
 23
727.418502158803
 33
0.0
 14
114.0553773180327
 24
667.4743817456342
 34
0.0
 50
90.0
100
AcDbRotatedDimension
1001
ACAD
1000
DSTYLE
1002
{
1070
   144
1040
1.0
1002
}
  0
DIMENSION
  5
A7CB
102
{ACAD_REACTORS
330
A7CD
102
}
102
{ACAD_XDICTIONARY
360
A7CC
102
}
330
A
100
AcDbEntity
  8
寸法
100
AcDbDimension
  2
*D32
 10
111.5128905730749
 20
602.0250291244057
 30
0.0
 11
108.5283969861414
 21
602.0250291244057
 31
0.0
 70
   160
 71
     5
 42
5.968987173867163
 73
     0
 74
     0
 75
     0
  3
tfrom線あり
100
AcDbAlignedDimension
 13
105.5439033992077
 23
578.8394381085715
 33
0.0
 14
111.5128905730749
 24
578.8394381085715
 34
0.0
100
AcDbRotatedDimension
1001
ACAD
1000
DSTYLE
1002
{
1070
   144
1040
1.0
1002
}
  0
LINE
  5
A7DB
330
A
100
AcDbEntity
  8
HIDDEN
 48
4.0
100
AcDbLine
 10
105.5439033992077
 20
546.2005229029735
 30
0.0
 11
105.5439033992077
 21
522.4513540343531
 31
0.0
  0
LINE
  5
A7DC
330
A
100
AcDbEntity
  8
HIDDEN
 48
4.0
100
AcDbLine
 10
105.5439033992077
 20
251.8691606623521
 30
0.0
 11
105.5439033992077
 21
275.6183295309725
 31
0.0
  0
DIMENSION
  5
A7DD
102
{ACAD_REACTORS
330
A7DF
102
}
102
{ACAD_XDICTIONARY
360
A7DE
102
}
330
A
100
AcDbEntity
  8
寸法
100
AcDbDimension
  2
*D33
 10
114.0553773180327
 20
643.2380503182544
 30
0.0
 11
101.5458602182811
 21
652.2380503182544
 31
0.0
 70
    32
 71
     5
 42
25.01903419950327
 73
     0
 74
     0
 75
     0
  3
tfrom線あり
100
AcDbAlignedDimension
 13
89.03634311852943
 23
667.4743817456342
 33
0.0
 14
114.0553773180327
 24
667.4743817456342
 34
0.0
100
AcDbRotatedDimension
1001
ACAD
1000
DSTYLE
1002
{
1070
   144
1040
1.0
1002
}
  0
LINE
  5
A83E
102
{ACAD_REACTORS
330
A861
102
}
330
A
100
AcDbEntity
  8
モデル
100
AcDbLine
 10
89.03634311852943
 20
802.0153488739087
 30
0.0
 11
114.0553773180325
 21
802.0153488739087
 31
0.0
  0
LINE
  5
A83F
102
{ACAD_REACTORS
330
A851
102
}
330
A
100
AcDbEntity
  8
モデル
100
AcDbLine
 10
89.03634311852943
 20
802.0153488739087
 30
0.0
 11
89.03634311852943
 21
812.0481807149198
 31
0.0
  0
LINE
  5
A840
102
{ACAD_REACTORS
330
A851
102
}
330
A
100
AcDbEntity
  8
モデル
100
AcDbLine
 10
89.03634311852943
 20
812.0481807149198
 30
0.0
 11
114.0553773180325
 21
812.0481807149198
 31
0.0
  0
LINE
  5
A841
102
{ACAD_REACTORS
330
A861
102
}
330
A
100
AcDbEntity
  8
モデル
100
AcDbLine
 10
114.0553773180325
 20
812.0481807149198
 30
0.0
 11
114.0553773180325
 21
802.0153488739087
 31
0.0
  0
LINE
  5
A842
330
A
100
AcDbEntity
  8
モデル
100
AcDbLine
 10
97.54540546456133
 20
741.2309589177695
 30
0.0
 11
97.54540546456133
 21
743.2628812513418
 31
0.0
  0
LINE
  5
A843
330
A
100
AcDbEntity
  8
モデル
100
AcDbLine
 10
97.54540546456133
 20
743.2628812513418
 30
0.0
 11
97.79930962865797
 21
743.2628812513418
 31
0.0
  0
LINE
  5
A844
330
A
100
AcDbEntity
  8
モデル
100
AcDbLine
 10
97.79930962865797
 20
743.2628812513418
 30
0.0
 11
97.79930962865797
 21
741.2309589177695
 31
0.0
  0
LINE
  5
A845
330
A
100
AcDbEntity
  8
モデル
100
AcDbLine
 10
98.30746246725062
 20
740.7231505895762
 30
0.0
 11
98.0532137927546
 21
740.7231505895762
 31
0.0
  0
LINE
  5
A846
330
A
100
AcDbEntity
  8
モデル
100
AcDbLine
 10
105.5463149720006
 20
741.2309589177695
 30
0.0
 11
97.79930962865797
 21
741.2309589177695
 31
0.0
  0
LINE
  5
A847
330
A
100
AcDbEntity
  8
モデル
100
AcDbLine
 10
98.0532137927546
 20
740.7231505895762
 30
0.0
 11
97.54540546456133
 21
741.2309589177695
 31
0.0
  0
LINE
  5
A848
330
A
100
AcDbEntity
  8
モデル
100
AcDbLine
 10
105.0385066438071
 20
740.7231505895762
 30
0.0
 11
105.5463149720006
 21
741.2309589177695
 31
0.0
  0
LINE
  5
A849
330
A
100
AcDbEntity
  8
モデル
100
AcDbLine
 10
97.79930962865797
 20
741.2309589177695
 30
0.0
 11
98.30746246725062
 21
740.7231505895762
 31
0.0
  0
LINE
  5
A84A
330
A
100
AcDbEntity
  8
モデル
100
AcDbLine
 10
98.30746246725062
 20
740.7231505895762
 30
0.0
 11
105.0385066438071
 21
740.7231505895762
 31
0.0
  0
LINE
  5
A84B
330
A
100
AcDbEntity
  8
モデル
100
AcDbLine
 10
97.54540546456133
 20
741.2309589177695
 30
0.0
 11
97.54540546456133
 21
741.2309589177695
 31
0.0
  0
LINE
  5
A84C
330
A
100
AcDbEntity
  8
モデル
100
AcDbLine
 10
105.5463149720006
 20
741.2309589177695
 30
0.0
 11
105.5463149720006
 21
741.2309589177695
 31
0.0
  0
LINE
  5
A84D
330
A
100
AcDbEntity
  8
モデル
100
AcDbLine
 10
105.5463149720006
 20
741.2309589177695
 30
0.0
 11
105.5463149720006
 21
761.218353063803
 31
0.0
  0
LINE
  5
A84E
330
A
100
AcDbEntity
  8
モデル
100
AcDbLine
 10
97.54540546456133
 20
793.9705687903261
 30
0.0
 11
97.54540546456133
 21
776.4579375218975
 31
0.0
  0
DIMENSION
  5
A84F
102
{ACAD_REACTORS
330
A851
102
}
102
{ACAD_XDICTIONARY
360
A850
102
}
330
A
100
AcDbEntity
  8
寸法
100
AcDbDimension
  2
*D35
 10
114.0553773180325
 20
829.8017595073079
 30
0.0
 11
101.5458602182809
 21
838.8017595073079
 31
0.0
 70
    32
 71
     5
 42
25.01903419950304
 73
     0
 74
     0
 75
     0
 52
-270.0
  3
tfrom線あり
100
AcDbAlignedDimension
 13
89.03634311852943
 23
812.0481807149198
 33
0.0
 14
114.0553773180325
 24
812.0481807149198
 34
0.0
 50
180.0
100
AcDbRotatedDimension
1001
ACAD
1000
DSTYLE
1002
{
1070
   144
1040
1.0
1002
}
  0
DIMENSION
  5
A85F
102
{ACAD_REACTORS
330
A861
102
}
102
{ACAD_XDICTIONARY
360
A860
102
}
330
A
100
AcDbEntity
  8
寸法
100
AcDbDimension
  2
*D36
 10
140.2346800796715
 20
802.0153488739087
 30
0.0
 11
140.2346800796715
 21
807.0317647944142
 31
0.0
 70
   160
 71
     5
 42
10.0328318410111
 73
     0
 74
     0
 75
     0
  3
tfrom線あり
100
AcDbAlignedDimension
 13
114.0553773180325
 23
812.0481807149198
 33
0.0
 14
114.0553773180325
 24
802.0153488739087
 34
0.0
 50
90.0
100
AcDbRotatedDimension
1001
ACAD
1000
DSTYLE
1002
{
1070
   144
1040
1.0
1002
}
  0
LINE
  5
A8B9
330
A
100
AcDbEntity
  8
寸法
  6
CENTER
 48
0.5
100
AcDbLine
 10
467.5897927778324
 20
518.5385085339204
 30
0.0
 11
467.5897927778324
 21
500.2341422979974
 31
0.0
  0
LINE
  5
A8BA
330
A
100
AcDbEntity
  8
モデル
100
AcDbLine
 10
467.5897927778324
 20
498.1920027025817
 30
0.0
 11
465.0486728864298
 21
496.4451125775876
 31
0.0
  0
LINE
  5
A8BB
330
A
100
AcDbEntity
  8
モデル
100
AcDbLine
 10
465.0486728864298
 20
496.4451125775876
 30
0.0
 11
467.5897927778324
 21
496.4451125775876
 31
0.0
  0
LINE
  5
A8BC
330
A
100
AcDbEntity
  8
モデル
100
AcDbLine
 10
465.0486728864298
 20
496.4451125775876
 30
0.0
 11
465.0486728864298
 21
490.7675709303985
 31
0.0
  0
LINE
  5
A8BD
330
A
100
AcDbEntity
  8
モデル
100
AcDbLine
 10
465.0486728864298
 20
490.7675709303985
 30
0.0
 11
467.5897927778324
 21
490.7675709303985
 31
0.0
  0
LINE
  5
A8BE
330
A
100
AcDbEntity
  8
モデル
100
AcDbLine
 10
467.5897927778324
 20
498.1920027025817
 30
0.0
 11
470.130912669234
 21
496.4451125775876
 31
0.0
  0
LINE
  5
A8BF
330
A
100
AcDbEntity
  8
モデル
100
AcDbLine
 10
470.130912669234
 20
496.4451125775876
 30
0.0
 11
467.5897927778324
 21
496.4451125775876
 31
0.0
  0
LINE
  5
A8C0
330
A
100
AcDbEntity
  8
モデル
100
AcDbLine
 10
470.130912669234
 20
496.4451125775876
 30
0.0
 11
470.130912669234
 21
490.7675709303985
 31
0.0
  0
LINE
  5
A8C1
330
A
100
AcDbEntity
  8
モデル
100
AcDbLine
 10
470.130912669234
 20
490.7675709303985
 30
0.0
 11
467.5897927778324
 21
490.7675709303985
 31
0.0
  0
LINE
  5
A8C2
330
A
100
AcDbEntity
  8
モデル
100
AcDbLine
 10
465.0486728864298
 20
496.4451125775876
 30
0.0
 11
470.130912669234
 21
495.4577398982426
 31
0.0
  0
LINE
  5
A8C3
330
A
100
AcDbEntity
  8
モデル
100
AcDbLine
 10
465.0486728864298
 20
495.1539329199827
 30
0.0
 11
470.130912669234
 21
494.1665602406375
 31
0.0
  0
LINE
  5
A8C4
330
A
100
AcDbEntity
  8
モデル
100
AcDbLine
 10
465.0486728864298
 20
493.7868015178135
 30
0.0
 11
470.130912669234
 21
492.7994288384685
 31
0.0
  0
LINE
  5
A8C5
330
A
100
AcDbEntity
  8
モデル
100
AcDbLine
 10
465.0486728864298
 20
492.3437183710784
 30
0.0
 11
470.130912669234
 21
491.3563456917335
 31
0.0
  0
LINE
  5
A8C6
330
A
100
AcDbEntity
  8
モデル
100
AcDbLine
 10
465.0486728864298
 20
490.9765869689085
 30
0.0
 11
466.1245276760001
 21
490.7675709303985
 31
0.0
  0
LINE
  5
A8C7
330
A
100
AcDbEntity
  8
寸法
  6
CENTER
 48
0.5
100
AcDbLine
 10
467.5897927778324
 20
244.5612376710044
 30
0.0
 11
467.5897927778324
 21
226.2568714350815
 31
0.0
  0
LINE
  5
A8C8
330
A
100
AcDbEntity
  8
モデル
100
AcDbLine
 10
467.5897927778324
 20
224.2147318396657
 30
0.0
 11
465.0486728864298
 21
222.4678417146716
 31
0.0
  0
LINE
  5
A8C9
330
A
100
AcDbEntity
  8
モデル
100
AcDbLine
 10
465.0486728864298
 20
222.4678417146716
 30
0.0
 11
467.5897927778324
 21
222.4678417146716
 31
0.0
  0
LINE
  5
A8CA
330
A
100
AcDbEntity
  8
モデル
100
AcDbLine
 10
465.0486728864298
 20
222.4678417146716
 30
0.0
 11
465.0486728864298
 21
216.7903000674825
 31
0.0
  0
LINE
  5
A8CB
330
A
100
AcDbEntity
  8
モデル
100
AcDbLine
 10
465.0486728864298
 20
216.7903000674825
 30
0.0
 11
467.5897927778324
 21
216.7903000674825
 31
0.0
  0
LINE
  5
A8CC
330
A
100
AcDbEntity
  8
モデル
100
AcDbLine
 10
467.5897927778324
 20
224.2147318396657
 30
0.0
 11
470.130912669234
 21
222.4678417146716
 31
0.0
  0
LINE
  5
A8CD
330
A
100
AcDbEntity
  8
モデル
100
AcDbLine
 10
470.130912669234
 20
222.4678417146716
 30
0.0
 11
467.5897927778324
 21
222.4678417146716
 31
0.0
  0
LINE
  5
A8CE
330
A
100
AcDbEntity
  8
モデル
100
AcDbLine
 10
470.130912669234
 20
222.4678417146716
 30
0.0
 11
470.130912669234
 21
216.7903000674825
 31
0.0
  0
LINE
  5
A8CF
330
A
100
AcDbEntity
  8
モデル
100
AcDbLine
 10
470.130912669234
 20
216.7903000674825
 30
0.0
 11
467.5897927778324
 21
216.7903000674825
 31
0.0
  0
LINE
  5
A8D0
330
A
100
AcDbEntity
  8
モデル
100
AcDbLine
 10
465.0486728864298
 20
222.4678417146716
 30
0.0
 11
470.130912669234
 21
221.4804690353266
 31
0.0
  0
LINE
  5
A8D1
330
A
100
AcDbEntity
  8
モデル
100
AcDbLine
 10
465.0486728864298
 20
221.1766620570667
 30
0.0
 11
470.130912669234
 21
220.1892893777215
 31
0.0
  0
LINE
  5
A8D2
330
A
100
AcDbEntity
  8
モデル
100
AcDbLine
 10
465.0486728864298
 20
219.8095306548975
 30
0.0
 11
470.130912669234
 21
218.8221579755526
 31
0.0
  0
LINE
  5
A8D3
330
A
100
AcDbEntity
  8
モデル
100
AcDbLine
 10
465.0486728864298
 20
218.3664475081624
 30
0.0
 11
470.130912669234
 21
217.3790748288175
 31
0.0
  0
LINE
  5
A8D4
330
A
100
AcDbEntity
  8
モデル
100
AcDbLine
 10
465.0486728864298
 20
216.9993161059925
 30
0.0
 11
466.1245276760001
 21
216.7903000674825
 31
0.0
  0
TEXT
  5
A909
330
A
100
AcDbEntity
  8
template
100
AcDbText
 10
498.0342154173532
 20
219.7435013406844
 30
0.0
 40
8.0
  1
木製用下穴　ø9
 50
360.0
  7
ＭＳ ゴシック
100
AcDbText
  0
TEXT
  5
A90A
330
A
100
AcDbEntity
  8
template
100
AcDbText
 10
485.0296380083837
 20
203.9110910086706
 30
0.0
 40
8.0
  1
ガラス用下穴　ø15
 50
360.0
  7
ＭＳ ゴシック
100
AcDbText
  0
SPLINE
  5
A912
330
A
100
AcDbEntity
  8
寸法
100
AcDbSpline
210
0.0
220
0.0
230
1.0
 70
  1064
 71
     3
 72
    10
 73
     6
 74
     4
 42
0.000000001
 43
0.0000000001
 44
0.0
 40
0.0
 40
0.0
 40
0.0
 40
0.0
 40
17.75235166016112
 40
34.35147860046874
 40
51.54549315378625
 40
51.54549315378625
 40
51.54549315378625
 40
51.54549315378625
 10
85.14912865435008
 20
400.414484637454
 30
0.0
 10
90.45277574405407
 20
405.1682563254301
 30
0.0
 10
100.7155354614194
 20
414.3669861352667
 30
0.0
 10
115.311742093775
 20
393.8660342225784
 30
0.0
 10
124.5103701857387
 20
404.332439790995
 30
0.0
 10
129.1906496239085
 20
409.6577668162502
 30
0.0
 11
85.14912865435008
 21
400.414484637454
 31
0.0
 11
100.9170806064139
 21
408.5703218540389
 31
0.0
 11
115.0538651151614
 21
399.8707621563483
 31
0.0
 11
129.1906496239085
 21
409.6577668162502
 31
0.0
  0
LINE
  5
A915
330
A
100
AcDbEntity
  8
モデル
100
AcDbLine
 10
284.6292093916588
 20
400.8534220325163
 30
0.0
 11
284.6292093916588
 21
521.8164213689117
 31
0.0
  0
LINE
  5
A917
330
A
100
AcDbEntity
  8
モデル
100
AcDbLine
 10
111.5128905730749
 20
392.2034559049804
 30
0.0
 11
111.5128905730749
 21
271.2728923999992
 31
0.0
  0
LINE
  5
A918
330
A
100
AcDbEntity
  8
モデル
100
AcDbLine
 10
105.5439033992077
 20
396.8141402287146
 30
0.0
 11
105.5439033992077
 21
275.5909857416391
 31
0.0
  0
SPLINE
  5
A919
330
A
100
AcDbEntity
  8
寸法
100
AcDbSpline
210
0.0
220
0.0
230
1.0
 70
  1064
 71
     3
 72
    10
 73
     6
 74
     4
 42
0.000000001
 43
0.0000000001
 44
0.0
 40
0.0
 40
0.0
 40
0.0
 40
0.0
 40
17.75235166016107
 40
34.3514786004686
 40
51.54549315378607
 40
51.54549315378607
 40
51.54549315378607
 40
51.54549315378607
 10
85.14912865435008
 20
391.1712024586578
 30
0.0
 10
90.45277574405405
 20
395.9249741466338
 30
0.0
 10
100.7155354614194
 20
405.1237039564704
 30
0.0
 10
115.3117420937751
 20
384.6227520437824
 30
0.0
 10
124.5103701857387
 20
395.0891576121987
 30
0.0
 10
129.1906496239085
 20
400.414484637454
 30
0.0
 11
85.14912865435008
 21
391.1712024586578
 31
0.0
 11
100.9170806064139
 21
399.3270396752426
 31
0.0
 11
115.0538651151614
 21
390.6274799775521
 31
0.0
 11
129.1906496239085
 21
400.414484637454
 31
0.0
  0
SPLINE
  5
A91B
330
A
100
AcDbEntity
  8
寸法
100
AcDbSpline
210
0.0
220
0.0
230
1.0
 70
  1064
 71
     3
 72
    10
 73
     6
 74
     4
 42
0.000000001
 43
0.0000000001
 44
0.0
 40
0.0
 40
0.0
 40
0.0
 40
0.0
 40
17.75235166016121
 40
34.35147860046882
 40
51.54549315378623
 40
51.54549315378623
 40
51.54549315378623
 40
51.54549315378623
 10
249.9537354599147
 20
400.414484637454
 30
0.0
 10
255.2573825496187
 20
405.1682563254301
 30
0.0
 10
265.5201422669842
 20
414.3669861352669
 30
0.0
 10
280.1163488993396
 20
393.8660342225784
 30
0.0
 10
289.3149769913033
 20
404.332439790995
 30
0.0
 10
293.9952564294731
 20
409.6577668162502
 30
0.0
 11
249.9537354599147
 21
400.414484637454
 31
0.0
 11
265.7216874119786
 21
408.5703218540389
 31
0.0
 11
279.8584719207261
 21
399.8707621563483
 31
0.0
 11
293.9952564294731
 21
409.6577668162502
 31
0.0
  0
SPLINE
  5
A91C
330
A
100
AcDbEntity
  8
寸法
100
AcDbSpline
210
0.0
220
0.0
230
1.0
 70
  1064
 71
     3
 72
    10
 73
     6
 74
     4
 42
0.000000001
 43
0.0000000001
 44
0.0
 40
0.0
 40
0.0
 40
0.0
 40
0.0
 40
17.75235166016115
 40
34.35147860046868
 40
51.54549315378605
 40
51.54549315378605
 40
51.54549315378605
 40
51.54549315378605
 10
249.9537354599147
 20
391.1712024586578
 30
0.0
 10
255.2573825496187
 20
395.9249741466339
 30
0.0
 10
265.5201422669841
 20
405.1237039564703
 30
0.0
 10
280.1163488993398
 20
384.6227520437824
 30
0.0
 10
289.3149769913033
 20
395.0891576121987
 30
0.0
 10
293.9952564294731
 20
400.414484637454
 30
0.0
 11
249.9537354599147
 21
391.1712024586578
 31
0.0
 11
265.7216874119786
 21
399.3270396752426
 31
0.0
 11
279.8584719207261
 21
390.6274799775521
 31
0.0
 11
293.9952564294731
 21
400.414484637454
 31
0.0
  0
SPLINE
  5
A91F
330
A
100
AcDbEntity
  8
寸法
100
AcDbSpline
210
0.0
220
0.0
230
1.0
 70
  1064
 71
     3
 72
    10
 73
     6
 74
     4
 42
0.000000001
 43
0.0000000001
 44
0.0
 40
0.0
 40
0.0
 40
0.0
 40
0.0
 40
17.75235166016116
 40
34.35147860046878
 40
51.54549315378617
 40
51.54549315378617
 40
51.54549315378617
 40
51.54549315378617
 10
78.74625271685
 20
769.7063963493579
 30
0.0
 10
84.04989980655398
 20
774.4601680373339
 30
0.0
 10
94.31265952391931
 20
783.6588978471706
 30
0.0
 10
108.908866156275
 20
763.1579459344825
 30
0.0
 10
118.1074942482386
 20
773.6243515028989
 30
0.0
 10
122.7877736864084
 20
778.9496785281541
 30
0.0
 11
78.74625271685
 21
769.7063963493579
 31
0.0
 11
94.51420466891386
 21
777.8622335659428
 31
0.0
 11
108.6509891776614
 21
769.1626738682522
 31
0.0
 11
122.7877736864084
 21
778.9496785281541
 31
0.0
  0
SPLINE
  5
A920
330
A
100
AcDbEntity
  8
寸法
100
AcDbSpline
210
0.0
220
0.0
230
1.0
 70
  1064
 71
     3
 72
    10
 73
     6
 74
     4
 42
0.000000001
 43
0.0000000001
 44
0.0
 40
0.0
 40
0.0
 40
0.0
 40
0.0
 40
17.7523516601611
 40
34.35147860046867
 40
51.54549315378605
 40
51.54549315378605
 40
51.54549315378605
 40
51.54549315378605
 10
78.74625271685
 20
760.4631141705617
 30
0.0
 10
84.04989980655398
 20
765.2168858585377
 30
0.0
 10
94.31265952391927
 20
774.4156156683741
 30
0.0
 10
108.9088661562751
 20
753.9146637556864
 30
0.0
 10
118.1074942482386
 20
764.3810693241026
 30
0.0
 10
122.7877736864084
 20
769.7063963493579
 30
0.0
 11
78.74625271685
 21
760.4631141705617
 31
0.0
 11
94.51420466891386
 21
768.6189513871465
 31
0.0
 11
108.6509891776614
 21
759.919391689456
 31
0.0
 11
122.7877736864084
 21
769.7063963493579
 31
0.0
  0
LINE
  5
A923
330
A
100
AcDbEntity
  8
モデル
100
AcDbLine
 10
105.5463149720006
 20
770.4616352425992
 30
0.0
 11
105.5463149720006
 21
793.9705687903261
 31
0.0
  0
LINE
  5
A926
330
A
100
AcDbEntity
  8
モデル
100
AcDbLine
 10
97.54540546456133
 20
767.2146553431011
 30
0.0
 11
97.54540546456133
 21
741.2309589177695
 31
0.0
  0
LINE
  5
A92A
330
A
100
AcDbEntity
  8
モデル
100
AcDbLine
 10
260.6264808693406
 20
398.9111230979096
 30
0.0
 11
260.6264808693406
 21
276.2262629174795
 31
0.0
  0
LINE
  5
A94F
330
A
100
AcDbEntity
  8
モデル
 48
4.0
100
AcDbLine
 10
260.6264808693406
 20
546.8354555684149
 30
0.0
 11
260.6264808693406
 21
521.8164213689117
 31
0.0
  0
LINE
  5
A950
330
A
100
AcDbEntity
  8
モデル
 48
4.0
100
AcDbLine
 10
284.6292093916588
 20
546.8354555684149
 30
0.0
 11
284.6292093916588
 21
521.8164213689117
 31
0.0
  0
LINE
  5
A951
330
A
100
AcDbEntity
  8
モデル
 48
4.0
100
AcDbLine
 10
260.6264808693406
 20
276.2262629174795
 30
0.0
 11
260.6264808693406
 21
251.2072287179764
 31
0.0
  0
LINE
  5
A952
102
{ACAD_REACTORS
330
A99F
102
}
330
A
100
AcDbEntity
  8
モデル
 48
4.0
100
AcDbLine
 10
284.6292093916588
 20
276.2262629174795
 30
0.0
 11
284.6292093916588
 21
251.2072287179764
 31
0.0
  0
LINE
  5
A96E
330
A
100
AcDbEntity
  8
モデル
100
AcDbLine
 10
260.6264808693406
 20
546.8354555684149
 30
0.0
 11
256.5619471813984
 21
546.8354555684149
 31
0.0
  0
LINE
  5
A96F
330
A
100
AcDbEntity
  8
モデル
100
AcDbLine
 10
260.6264808693406
 20
521.8164213689117
 30
0.0
 11
256.5619471813984
 21
521.8164213689117
 31
0.0
  0
LINE
  5
A98B
330
A
100
AcDbEntity
  8
モデル
100
AcDbLine
 10
442.907431233488
 20
538.326393222383
 30
0.0
 11
442.907431233488
 21
530.3254837149436
 31
0.0
  0
LINE
  5
A98C
330
A
100
AcDbEntity
  8
モデル
100
AcDbLine
 10
442.907431233488
 20
267.7168560610486
 30
0.0
 11
442.907431233488
 21
259.7159465536092
 31
0.0
  0
LINE
  5
A993
330
A
100
AcDbEntity
  8
モデル
100
AcDbLine
 10
105.5463149720006
 20
793.9705687903261
 30
0.0
 11
97.54540546456133
 21
793.9705687903261
 31
0.0
  0
DIMENSION
  5
A99D
102
{ACAD_REACTORS
330
A99F
102
}
102
{ACAD_XDICTIONARY
360
A99E
102
}
330
A
100
AcDbEntity
  8
寸法
100
AcDbDimension
  2
*D37
 10
284.6292093916588
 20
192.3158779704001
 30
0.0
 11
272.6278451304997
 21
201.3158779704001
 31
0.0
 70
    32
 71
     5
 42
24.00272852231819
 73
     0
 74
     0
 75
     0
  3
tfrom線あり
100
AcDbAlignedDimension
 13
260.6264808693406
 23
221.6158525023374
 33
0.0
 14
284.6292093916588
 24
251.2072287179764
 34
0.0
100
AcDbRotatedDimension
1001
ACAD
1000
DSTYLE
1002
{
1070
   144
1040
1.0
1002
}
  0
VIEWPORT
  5
349
330
B
100
AcDbEntity
 67
     1
  8
0
100
AcDbViewport
 10
202.5
 20
128.5
 30
0.0
 40
486.0
 41
308.4
 68
     1
 69
     1
 12
202.5
 22
128.5
 13
0.0
 23
0.0
 14
0.5
 24
0.5
 15
0.0
 25
0.0
 16
0.0
 26
0.0
 36
1.0
 17
0.0
 27
0.0
 37
0.0
 42
50.0
 43
0.0
 44
0.0
 45
308.4
 50
0.0
 51
0.0
 72
   100
 90
   557152
  1

281
     0
 71
     1
 74
     0
110
0.0
120
0.0
130
0.0
111
1.0
121
0.0
131
0.0
112
0.0
122
1.0
132
0.0
 79
     0
146
0.0
170
     0
 61
     5
348
26C
292
     1
282
     1
141
0.0
142
0.0
 63
   256
  0
VIEWPORT
  5
34A
330
B
100
AcDbEntity
 67
     1
  8
0
100
AcDbViewport
 10
202.5
 20
128.5
 30
0.0
 40
324.0
 41
205.6
 68
     2
 69
     2
 12
986.6781359294573
 22
1427.077061889956
 13
0.0
 23
0.0
 14
0.5
 24
0.5
 15
0.0
 25
0.0
 16
0.0
 26
0.0
 36
1.0
 17
0.0
 27
0.0
 37
0.0
 42
50.0
 43
0.0
 44
0.0
 45
2890.021615685494
 50
0.0
 51
0.0
 72
   100
 90
   557152
  1

281
     0
 71
     1
 74
     0
110
0.0
120
0.0
130
0.0
111
1.0
121
0.0
131
0.0
112
0.0
122
1.0
132
0.0
 79
     0
146
0.0
170
     0
 61
     5
348
26C
292
     1
282
     1
141
0.0
142
0.0
 63
   256
  0
ENDSEC
  0
SECTION
  2
OBJECTS
  0
DICTIONARY
  5
19
330
0
100
AcDbDictionary
281
     1
  3
ACAD_COLOR
350
674
  3
ACAD_DETAILVIEWSTYLE
350
12F4
  3
ACAD_FIELDLIST
350
77F2
  3
ACAD_GROUP
350
1A
  3
ACAD_IMAGE_VARS
350
27B
  3
ACAD_LAYOUT
350
1E
  3
ACAD_MATERIAL
350
263
  3
ACAD_MLEADERSTYLE
350
336
  3
ACAD_MLINESTYLE
350
1B
  3
ACAD_PLOTSETTINGS
350
22
  3
ACAD_PLOTSTYLENAME
350
1F
  3
ACAD_SCALELIST
350
241
  3
ACAD_SECTIONVIEWSTYLE
350
12F5
  3
ACAD_TABLESTYLE
350
278
  3
ACAD_VISUALSTYLE
350
267
  3
ACDB_RECOMPOSE_DATA
350
A9C0
  3
AcDbVariableDictionary
350
330
  3
AcStStandard
350
12B9
  3
APPDATA
350
27A
  3
CENTERLINE
350
9EAC
  3
DimOffsetDictionary
350
6218
  0
SUN
  5
10E8
330
15
100
AcDbSun
 90
        1
290
     0
 63
     7
421
 16777215
 40
1.0
291
     1
 91
  2455826
 92
 54000000
292
     0
 70
     2
 71
   256
280
     1
  0
DICTIONARY
  5
2E1
330
2
100
AcDbDictionary
280
     1
281
     1
  3
ACAD_LAYERSTATES
360
2E2
  3
ACLYDICTIONARY
360
7854
  0
DICTIONARY
  5
A086
330
A085
100
AcDbDictionary
280
     1
281
     1
  3
ACAD_FIELD
360
A087
  0
DICTIONARY
  5
A66B
330
A66A
100
AcDbDictionary
280
     1
281
     1
  3
ACAD_DIMASSOC
360
A66C
  0
DICTIONARY
  5
A6C6
330
A6C5
100
AcDbDictionary
280
     1
281
     1
  3
ACAD_DIMASSOC
360
A6C7
  0
DICTIONARY
  5
A718
330
A717
100
AcDbDictionary
280
     1
281
     1
  3
ACAD_DIMASSOC
360
A719
  0
DICTIONARY
  5
A7AD
330
A7AC
100
AcDbDictionary
280
     1
281
     1
  3
ACAD_DIMASSOC
360
A7AE
  0
DICTIONARY
  5
A7BD
330
A7BC
100
AcDbDictionary
280
     1
281
     1
  3
ACAD_DIMASSOC
360
A7BE
  0
DICTIONARY
  5
A7CC
330
A7CB
100
AcDbDictionary
280
     1
281
     1
  3
ACAD_DIMASSOC
360
A7CD
  0
DICTIONARY
  5
A7DE
330
A7DD
100
AcDbDictionary
280
     1
281
     1
  3
ACAD_DIMASSOC
360
A7DF
  0
DICTIONARY
  5
A850
330
A84F
100
AcDbDictionary
280
     1
281
     1
  3
ACAD_DIMASSOC
360
A851
  0
DICTIONARY
  5
A860
330
A85F
100
AcDbDictionary
280
     1
281
     1
  3
ACAD_DIMASSOC
360
A861
  0
DICTIONARY
  5
A99E
330
A99D
100
AcDbDictionary
280
     1
281
     1
  3
ACAD_DIMASSOC
360
A99F
  0
DICTIONARY
  5
674
102
{ACAD_REACTORS
330
19
102
}
330
19
100
AcDbDictionary
281
     1
  0
DICTIONARY
  5
12F4
102
{ACAD_REACTORS
330
19
102
}
330
19
100
AcDbDictionary
281
     1
  0
FIELDLIST
  5
77F2
102
{ACAD_REACTORS
330
19
102
}
330
19
100
AcDbIdSet
 90
        1
330
A088
100
AcDbFieldList
  0
DICTIONARY
  5
1A
102
{ACAD_REACTORS
330
19
102
}
330
19
100
AcDbDictionary
281
     1
  0
RASTERVARIABLES
  5
27B
102
{ACAD_REACTORS
330
19
102
}
330
19
100
AcDbRasterVariables
 90
        0
 70
     1
 71
     1
 72
     1
  0
DICTIONARY
  5
1E
102
{ACAD_REACTORS
330
19
102
}
330
19
100
AcDbDictionary
281
     1
  3
Layout1
350
21
  3
Layout2
350
12C4
  3
Model
350
20
  0
DICTIONARY
  5
263
102
{ACAD_REACTORS
330
19
102
}
330
19
100
AcDbDictionary
281
     1
  3
ByBlock
350
3540
  3
ByLayer
350
264
  3
Global
350
266
  0
DICTIONARY
  5
336
102
{ACAD_REACTORS
330
19
102
}
330
19
100
AcDbDictionary
281
     1
  3
Standard
350
44F0
  0
DICTIONARY
  5
1B
102
{ACAD_REACTORS
330
19
102
}
330
19
100
AcDbDictionary
281
     1
  3
Standard
350
1C
  0
DICTIONARY
  5
22
102
{ACAD_REACTORS
330
19
102
}
330
19
100
AcDbDictionary
281
     1
  0
ACDBDICTIONARYWDFLT
  5
1F
102
{ACAD_REACTORS
330
19
102
}
330
19
100
AcDbDictionary
281
     1
  3
Normal
350
1D
100
AcDbDictionaryWithDefault
340
1D
  0
DICTIONARY
  5
241
102
{ACAD_REACTORS
330
19
102
}
330
19
100
AcDbDictionary
281
     1
  3
A0
350
242
  3
A1
350
243
  3
A2
350
244
  3
A3
350
245
  3
A4
350
246
  3
A5
350
247
  3
A6
350
248
  3
A7
350
249
  3
A8
350
24A
  3
A9
350
24B
  3
B0
350
24C
  3
B1
350
24D
  3
B2
350
24E
  3
B3
350
24F
  3
B4
350
250
  3
B5
350
251
  3
B6
350
252
  3
B7
350
253
  3
B8
350
254
  3
B9
350
255
  3
C0
350
256
  3
C1
350
257
  3
C2
350
258
  3
C3
350
259
  3
C4
350
25A
  3
C5
350
25B
  3
C6
350
25C
  3
C7
350
25D
  3
C8
350
25E
  3
C9
350
25F
  3
D0
350
260
  3
D1
350
261
  3
D2
350
262
  0
DICTIONARY
  5
12F5
102
{ACAD_REACTORS
330
19
102
}
330
19
100
AcDbDictionary
281
     1
  0
DICTIONARY
  5
278
102
{ACAD_REACTORS
330
19
102
}
330
19
100
AcDbDictionary
281
     1
  3
Standard
350
279
  0
DICTIONARY
  5
267
102
{ACAD_REACTORS
330
19
102
}
330
19
100
AcDbDictionary
281
     1
  3
*A1
350
9EA7
  3
2dWireframe
350
26C
  3
3D Hidden
350
26E
  3
3dWireframe
350
26D
  3
Basic
350
26F
  3
Brighten
350
273
  3
ColorChange
350
277
  3
Conceptual
350
271
  3
Dim
350
272
  3
EdgeColorOff
350
10E2
  3
Facepattern
350
276
  3
Flat
350
268
  3
FlatWithEdges
350
269
  3
Gouraud
350
26A
  3
GouraudWithEdges
350
26B
  3
Hidden
350
10DF
  3
JitterOff
350
10E0
  3
Linepattern
350
275
  3
OverhangOff
350
10E1
  3
Realistic
350
270
  3
Shaded
350
10E7
  3
Shaded with edges
350
10E6
  3
Shades of Gray
350
10E3
  3
Sketchy
350
10E4
  3
Thicken
350
274
  3
Wireframe
350
10DE
  3
X-Ray
350
10E5
  0
XRECORD
  5
A9C0
102
{ACAD_REACTORS
330
19
102
}
330
19
100
AcDbXrecord
280
     1
 90
        1
330
279
  0
DICTIONARY
  5
330
102
{ACAD_REACTORS
330
19
102
}
330
19
100
AcDbDictionary
281
     1
  3
CANNOSCALE
350
331
  3
CMLEADERSTYLE
350
4A74
  3
CTABLESTYLE
350
335
  3
HPTRANSPARENCY
350
3A8D
  3
XCLIPFRAME
350
109E
  0
DICTIONARY
  5
12B9
102
{ACAD_REACTORS
330
19
102
}
330
19
100
AcDbDictionary
281
     1
  0
DICTIONARY
  5
27A
102
{ACAD_REACTORS
330
19
102
}
330
19
100
AcDbDictionary
281
     1
  0
DICTIONARY
  5
9EAC
102
{ACAD_REACTORS
330
19
102
}
330
19
100
AcDbDictionary
281
     1
  3
CLEXTENSION
350
9EAD
  0
DICTIONARY
  5
6218
102
{ACAD_REACTORS
330
19
102
}
330
19
100
AcDbDictionary
281
     1
  3
DIMRAILANGLE
350
9EAA
  3
DIMRAILFIRSTOFFSET
350
9EA8
  3
DIMRAILOFFSET
350
9EA9
  3
DIMRAILSENABLED
350
9EAB
  0
DICTIONARY
  5
2E2
102
{ACAD_REACTORS
330
2E1
102
}
330
2E1
100
AcDbDictionary
281
     1
  0
DICTIONARY
  5
7854
102
{ACAD_REACTORS
330
2E1
102
}
330
2E1
100
AcDbDictionary
281
     1
1001
ACAD
1000
<All
  0
DICTIONARY
  5
A087
102
{ACAD_REACTORS
330
A086
102
}
330
A086
100
AcDbDictionary
280
     1
281
     1
  3
TEXT
360
A088
  0
DIMASSOC
  5
A66C
102
{ACAD_REACTORS
330
A66B
102
}
330
A66B
100
AcDbDimAssoc
330
A66A
 90
        1
 70
     0
 71
     1
  1
AcDbOsnapPointRef
 72
     1
331
A4C8
 73
     0
 91
        0
 40
0.0
 10
0.0
 20
0.0
 30
0.0
 75
     0
  0
DIMASSOC
  5
A6C7
102
{ACAD_REACTORS
330
A6C6
102
}
330
A6C6
100
AcDbDimAssoc
330
A6C5
 90
        3
 70
     0
 71
     1
  1
AcDbOsnapPointRef
 72
     1
331
A4EF
 73
     0
 91
        0
 40
0.0
 10
0.0
 20
0.0
 30
0.0
 75
     0
  1
AcDbOsnapPointRef
 72
     1
331
A4F0
 73
     0
 91
        0
 40
0.0
 10
0.0
 20
0.0
 30
0.0
 75
     0
  0
DIMASSOC
  5
A719
102
{ACAD_REACTORS
330
A718
102
}
330
A718
100
AcDbDimAssoc
330
A717
 90
        3
 70
     0
 71
     1
  1
AcDbOsnapPointRef
 72
     1
331
A4C0
 73
     0
 91
        0
 40
0.0
 10
0.0
 20
0.0
 30
0.0
 75
     0
  1
AcDbOsnapPointRef
 72
    13
331
A4BF
 73
     0
 91
        0
 40
0.0
 10
0.0
 20
0.0
 30
0.0
 75
     0
  0
DIMASSOC
  5
A7AE
102
{ACAD_REACTORS
330
A7AD
102
}
330
A7AD
100
AcDbDimAssoc
330
A7AC
 90
        3
 70
     0
 71
     1
  1
AcDbOsnapPointRef
 72
     1
331
A78C
 73
     0
 91
        0
 40
0.0
 10
0.0
 20
0.0
 30
0.0
 75
     0
  1
AcDbOsnapPointRef
 72
    13
331
A789
 73
     0
 91
        0
 40
0.0
 10
0.0
 20
0.0
 30
0.0
 75
     0
  0
DIMASSOC
  5
A7BE
102
{ACAD_REACTORS
330
A7BD
102
}
330
A7BD
100
AcDbDimAssoc
330
A7BC
 90
        3
 70
     0
 71
     1
  1
AcDbOsnapPointRef
 72
    13
331
A786
 73
     0
 91
        0
 40
0.0
 10
0.0
 20
0.0
 30
0.0
 75
     0
  1
AcDbOsnapPointRef
 72
     1
331
A789
 73
     0
 91
        0
 40
0.0
 10
0.0
 20
0.0
 30
0.0
 75
     0
  0
DIMASSOC
  5
A7CD
102
{ACAD_REACTORS
330
A7CC
102
}
330
A7CC
100
AcDbDimAssoc
330
A7CB
 90
        3
 70
     0
 71
     1
  1
AcDbOsnapPointRef
 72
     1
331
A4C9
 73
     0
 91
        0
 40
0.0
 10
0.0
 20
0.0
 30
0.0
 75
     0
  1
AcDbOsnapPointRef
 72
     1
331
A4C8
 73
     0
 91
        0
 40
0.0
 10
0.0
 20
0.0
 30
0.0
 75
     0
  0
DIMASSOC
  5
A7DF
102
{ACAD_REACTORS
330
A7DE
102
}
330
A7DE
100
AcDbDimAssoc
330
A7DD
 90
        3
 70
     0
 71
     1
  1
AcDbOsnapPointRef
 72
     1
331
A78B
 73
     0
 91
        0
 40
0.0
 10
0.0
 20
0.0
 30
0.0
 75
     0
  1
AcDbOsnapPointRef
 72
     1
331
A789
 73
     0
 91
        0
 40
0.0
 10
0.0
 20
0.0
 30
0.0
 75
     0
  0
DIMASSOC
  5
A851
102
{ACAD_REACTORS
330
A850
102
}
330
A850
100
AcDbDimAssoc
330
A84F
 90
        3
 70
     0
 71
     1
  1
AcDbOsnapPointRef
 72
     1
331
A83F
 73
     0
 91
        0
 40
0.0
 10
0.0
 20
0.0
 30
0.0
 75
     0
  1
AcDbOsnapPointRef
 72
     1
331
A840
 73
     0
 91
        0
 40
0.0
 10
0.0
 20
0.0
 30
0.0
 75
     0
  0
DIMASSOC
  5
A861
102
{ACAD_REACTORS
330
A860
102
}
330
A860
100
AcDbDimAssoc
330
A85F
 90
        3
 70
     0
 71
     1
  1
AcDbOsnapPointRef
 72
    13
331
A841
 73
     0
 91
        0
 40
0.0
 10
0.0
 20
0.0
 30
0.0
 75
     0
  1
AcDbOsnapPointRef
 72
     1
331
A83E
 73
     0
 91
        0
 40
0.0
 10
0.0
 20
0.0
 30
0.0
 75
     0
  0
DIMASSOC
  5
A99F
102
{ACAD_REACTORS
330
A99E
102
}
330
A99E
100
AcDbDimAssoc
330
A99D
 90
        3
 70
     0
 71
     1
  1
AcDbOsnapPointRef
 72
    13
331
A4E0
 73
     0
 91
        0
 40
0.0
 10
0.0
 20
0.0
 30
0.0
 75
     0
  1
AcDbOsnapPointRef
 72
     1
331
A952
 73
     0
 91
        0
 40
0.0
 10
0.0
 20
0.0
 30
0.0
 75
     0
  0
LAYOUT
  5
21
102
{ACAD_REACTORS
330
1E
102
}
330
1E
100
AcDbPlotSettings
  1

  2
none_device
  4
ISO_A3_(420.00_x_297.00_MM)
  6

 40
7.5
 41
20.0
 42
7.5
 43
20.0
 44
420.0
 45
297.0
 46
0.0
 47
0.0
 48
0.0
 49
0.0
140
0.0
141
0.0
142
1.0
143
1.0
 70
     0
 72
     1
 73
     0
 74
     0
  7

 75
     0
 76
     0
 77
     2
 78
   300
147
1.0
148
0.0
149
0.0
100
AcDbLayout
  1
Layout1
 70
     0
 71
     0
 10
-7.5
 20
-20.0
 11
412.5
 21
277.0
 12
0.0
 22
0.0
 32
0.0
 14
0.0
 24
0.0
 34
0.0
 15
0.0
 25
0.0
 35
0.0
146
0.0
 13
0.0
 23
0.0
 33
0.0
 16
0.0
 26
0.0
 36
0.0
 17
0.0
 27
0.0
 37
0.0
 76
     0
330
B
331
349
  0
LAYOUT
  5
12C4
102
{ACAD_REACTORS
330
1E
102
}
330
1E
100
AcDbPlotSettings
  1

  2
none_device
  4

  6

 40
0.0
 41
0.0
 42
0.0
 43
0.0
 44
0.0
 45
0.0
 46
0.0
 47
0.0
 48
0.0
 49
0.0
140
0.0
141
0.0
142
1.0
143
1.0
 70
   688
 72
     1
 73
     0
 74
     5
  7

 75
    16
 76
     0
 77
     2
 78
   300
147
1.0
148
0.0
149
0.0
100
AcDbLayout
  1
Layout2
 70
     1
 71
     2
 10
0.0
 20
0.0
 11
0.0
 21
0.0
 12
0.0
 22
0.0
 32
0.0
 14
0.0
 24
0.0
 34
0.0
 15
0.0
 25
0.0
 35
0.0
146
0.0
 13
0.0
 23
0.0
 33
0.0
 16
1.0
 26
0.0
 36
0.0
 17
0.0
 27
1.0
 37
0.0
 76
     0
330
12C3
  0
LAYOUT
  5
20
102
{ACAD_REACTORS
330
1E
102
}
330
1E
100
AcDbPlotSettings
  1

  2
none_device
  4
ISO_A3_(420.00_x_297.00_MM)
  6

 40
7.5
 41
20.0
 42
7.5
 43
20.0
 44
420.0
 45
297.0
 46
0.0
 47
0.0
 48
0.0
 49
0.0
140
0.0
141
0.0
142
1.0
143
1.0
 70
  1024
 72
     1
 73
     0
 74
     0
  7

 75
     0
 76
     0
 77
     2
 78
   300
147
1.0
148
0.0
149
0.0
100
AcDbLayout
  1
Model
 70
     0
 71
     1
 10
0.0
 20
0.0
 11
630.0
 21
891.0
 12
0.0
 22
0.0
 32
0.0
 14
0.0
 24
0.0
 34
0.0
 15
1271.601960725826
 25
940.0077293786337
 35
0.0
146
0.0
 13
0.0
 23
0.0
 33
0.0
 16
0.0
 26
0.0
 36
0.0
 17
0.0
 27
0.0
 37
0.0
 76
     0
330
A
331
15
  0
MATERIAL
  5
3540
102
{ACAD_REACTORS
330
263
102
}
330
263
100
AcDbMaterial
  1
ByBlock
 72
     1
 94
      127
  0
MATERIAL
  5
264
102
{ACAD_REACTORS
330
263
102
}
330
263
100
AcDbMaterial
  1
ByLayer
 72
     1
 94
      127
  0
MATERIAL
  5
266
102
{ACAD_REACTORS
330
263
102
}
330
263
100
AcDbMaterial
  1
Global
 72
     1
 94
      127
  0
MLEADERSTYLE
  5
44F0
102
{ACAD_REACTORS
330
336
102
}
330
336
100
AcDbMLeaderStyle
170
     2
171
     1
172
     0
 90
        2
 40
0.0
 41
0.0
173
     1
 91
-1056964608
340
11
 92
       -2
290
     1
 42
2.0
291
     1
 43
8.0
  3
Standard
341
0
 44
4.0
300

342
17
174
     1
178
     6
175
     1
176
     0
 93
-1056964608
 45
4.0
292
     0
297
     0
 46
4.0
343
0
 94
-1056964608
 47
1.0
 49
1.0
140
1.0
293
     1
141
0.0
294
     1
177
     0
142
1.0
295
     0
296
     0
143
3.75
1001
ACAD_MLEADERVER
1070
     2
  0
MLINESTYLE
  5
1C
102
{ACAD_REACTORS
330
1B
102
}
330
1B
100
AcDbMlineStyle
  2
Standard
 70
     0
  3

 62
     0
 51
90.0
 52
90.0
 71
     2
 49
0.5
 62
   256
  6
BYLAYER
 49
-0.5
 62
   256
  6
BYLAYER
  0
ACDBPLACEHOLDER
  5
1D
102
{ACAD_REACTORS
330
1F
102
}
330
1F
  0
SCALE
  5
242
102
{ACAD_REACTORS
330
241
102
}
330
241
100
AcDbScale
 70
     0
300
1:1
140
1.0
141
1.0
290
     1
  0
SCALE
  5
243
102
{ACAD_REACTORS
330
241
102
}
330
241
100
AcDbScale
 70
     0
300
1:2
140
1.0
141
2.0
290
     0
  0
SCALE
  5
244
102
{ACAD_REACTORS
330
241
102
}
330
241
100
AcDbScale
 70
     0
300
1:4
140
1.0
141
4.0
290
     0
  0
SCALE
  5
245
102
{ACAD_REACTORS
330
241
102
}
330
241
100
AcDbScale
 70
     0
300
1:5
140
1.0
141
5.0
290
     0
  0
SCALE
  5
246
102
{ACAD_REACTORS
330
241
102
}
330
241
100
AcDbScale
 70
     0
300
1:8
140
1.0
141
8.0
290
     0
  0
SCALE
  5
247
102
{ACAD_REACTORS
330
241
102
}
330
241
100
AcDbScale
 70
     0
300
1:10
140
1.0
141
10.0
290
     0
  0
SCALE
  5
248
102
{ACAD_REACTORS
330
241
102
}
330
241
100
AcDbScale
 70
     0
300
1:16
140
1.0
141
16.0
290
     0
  0
SCALE
  5
249
102
{ACAD_REACTORS
330
241
102
}
330
241
100
AcDbScale
 70
     0
300
1:20
140
1.0
141
20.0
290
     0
  0
SCALE
  5
24A
102
{ACAD_REACTORS
330
241
102
}
330
241
100
AcDbScale
 70
     0
300
1:30
140
1.0
141
30.0
290
     0
  0
SCALE
  5
24B
102
{ACAD_REACTORS
330
241
102
}
330
241
100
AcDbScale
 70
     0
300
1:40
140
1.0
141
40.0
290
     0
  0
SCALE
  5
24C
102
{ACAD_REACTORS
330
241
102
}
330
241
100
AcDbScale
 70
     0
300
1:50
140
1.0
141
50.0
290
     0
  0
SCALE
  5
24D
102
{ACAD_REACTORS
330
241
102
}
330
241
100
AcDbScale
 70
     0
300
1:100
140
1.0
141
100.0
290
     0
  0
SCALE
  5
24E
102
{ACAD_REACTORS
330
241
102
}
330
241
100
AcDbScale
 70
     0
300
2:1
140
2.0
141
1.0
290
     0
  0
SCALE
  5
24F
102
{ACAD_REACTORS
330
241
102
}
330
241
100
AcDbScale
 70
     0
300
4:1
140
4.0
141
1.0
290
     0
  0
SCALE
  5
250
102
{ACAD_REACTORS
330
241
102
}
330
241
100
AcDbScale
 70
     0
300
8:1
140
8.0
141
1.0
290
     0
  0
SCALE
  5
251
102
{ACAD_REACTORS
330
241
102
}
330
241
100
AcDbScale
 70
     0
300
10:1
140
10.0
141
1.0
290
     0
  0
SCALE
  5
252
102
{ACAD_REACTORS
330
241
102
}
330
241
100
AcDbScale
 70
     0
300
100:1
140
100.0
141
1.0
290
     0
  0
SCALE
  5
253
102
{ACAD_REACTORS
330
241
102
}
330
241
100
AcDbScale
 70
     0
300
1/128" = 1'-0"
140
0.0078125
141
12.0
290
     0
  0
SCALE
  5
254
102
{ACAD_REACTORS
330
241
102
}
330
241
100
AcDbScale
 70
     0
300
1/64" = 1'-0"
140
0.015625
141
12.0
290
     0
  0
SCALE
  5
255
102
{ACAD_REACTORS
330
241
102
}
330
241
100
AcDbScale
 70
     0
300
1/32" = 1'-0"
140
0.03125
141
12.0
290
     0
  0
SCALE
  5
256
102
{ACAD_REACTORS
330
241
102
}
330
241
100
AcDbScale
 70
     0
300
1/16" = 1'-0"
140
0.0625
141
12.0
290
     0
  0
SCALE
  5
257
102
{ACAD_REACTORS
330
241
102
}
330
241
100
AcDbScale
 70
     0
300
3/32" = 1'-0"
140
0.09375
141
12.0
290
     0
  0
SCALE
  5
258
102
{ACAD_REACTORS
330
241
102
}
330
241
100
AcDbScale
 70
     0
300
1/8" = 1'-0"
140
0.125
141
12.0
290
     0
  0
SCALE
  5
259
102
{ACAD_REACTORS
330
241
102
}
330
241
100
AcDbScale
 70
     0
300
3/16" = 1'-0"
140
0.1875
141
12.0
290
     0
  0
SCALE
  5
25A
102
{ACAD_REACTORS
330
241
102
}
330
241
100
AcDbScale
 70
     0
300
1/4" = 1'-0"
140
0.25
141
12.0
290
     0
  0
SCALE
  5
25B
102
{ACAD_REACTORS
330
241
102
}
330
241
100
AcDbScale
 70
     0
300
3/8" = 1'-0"
140
0.375
141
12.0
290
     0
  0
SCALE
  5
25C
102
{ACAD_REACTORS
330
241
102
}
330
241
100
AcDbScale
 70
     0
300
1/2" = 1'-0"
140
0.5
141
12.0
290
     0
  0
SCALE
  5
25D
102
{ACAD_REACTORS
330
241
102
}
330
241
100
AcDbScale
 70
     0
300
3/4" = 1'-0"
140
0.75
141
12.0
290
     0
  0
SCALE
  5
25E
102
{ACAD_REACTORS
330
241
102
}
330
241
100
AcDbScale
 70
     0
300
1" = 1'-0"
140
1.0
141
12.0
290
     0
  0
SCALE
  5
25F
102
{ACAD_REACTORS
330
241
102
}
330
241
100
AcDbScale
 70
     0
300
1-1/2" = 1'-0"
140
1.5
141
12.0
290
     0
  0
SCALE
  5
260
102
{ACAD_REACTORS
330
241
102
}
330
241
100
AcDbScale
 70
     0
300
3" = 1'-0"
140
3.0
141
12.0
290
     0
  0
SCALE
  5
261
102
{ACAD_REACTORS
330
241
102
}
330
241
100
AcDbScale
 70
     0
300
6" = 1'-0"
140
6.0
141
12.0
290
     0
  0
SCALE
  5
262
102
{ACAD_REACTORS
330
241
102
}
330
241
100
AcDbScale
 70
     0
300
1'-0" = 1'-0"
140
12.0
141
12.0
290
     0
  0
TABLESTYLE
  5
279
102
{ACAD_REACTORS
330
278
102
}
102
{ACAD_XDICTIONARY
360
A9BE
102
}
330
278
100
AcDbTableStyle
  3
Standard
 70
     0
 71
     0
 40
0.06
 41
0.06
280
     0
281
     0
  7
Standard
140
4.5
170
     2
 62
     0
 63
   257
283
     0
 90
        4
 91
        0
  1

274
    -2
284
     1
 64
     0
275
    -2
285
     1
 65
     0
276
    -2
286
     1
 66
     0
277
    -2
287
     1
 67
     0
278
    -2
288
     1
 68
     0
279
    -2
289
     1
 69
     0
  7
Standard
140
6.0
170
     5
 62
     0
 63
   257
283
     0
 90
        4
 91
        0
  1

274
    -2
284
     1
 64
     0
275
    -2
285
     1
 65
     0
276
    -2
286
     1
 66
     0
277
    -2
287
     1
 67
     0
278
    -2
288
     1
 68
     0
279
    -2
289
     1
 69
     0
  7
Standard
140
4.5
170
     5
 62
     0
 63
   257
283
     0
 90
        4
 91
        0
  1

274
    -2
284
     1
 64
     0
275
    -2
285
     1
 65
     0
276
    -2
286
     1
 66
     0
277
    -2
287
     1
 67
     0
278
    -2
288
     1
 68
     0
279
    -2
289
     1
 69
     0
  0
VISUALSTYLE
  5
9EA7
102
{ACAD_REACTORS
330
267
102
}
330
267
100
AcDbVisualStyle
  2
*
 70
    10
 71
     0
 72
     2
 73
     0
 90
        0
 40
-0.6
 41
-30.0
 62
     5
 63
     7
421
 16777215
 74
     1
 91
        4
 64
     7
 65
   257
 75
     1
175
     1
 42
1.0
 92
        8
 66
     7
 43
1.0
 76
     1
 77
     6
 78
     2
 67
     7
 79
     5
170
     0
171
     0
290
     0
174
     0
 93
        1
 44
0.0
173
     0
291
     0
 45
0.0
  0
VISUALSTYLE
  5
26C
102
{ACAD_REACTORS
330
267
102
}
330
267
100
AcDbVisualStyle
  2
2dWireframe
 70
     4
 71
     0
 72
     2
 73
     0
 90
        0
 40
-0.6
 41
-30.0
 62
     5
 63
     7
421
 16777215
 74
     1
 91
        4
 64
     7
 65
   257
 75
     1
175
     1
 42
1.0
 92
        0
 66
   257
 43
1.0
 76
     1
 77
     6
 78
     2
 67
     7
 79
     5
170
     0
171
     0
290
     0
174
     0
 93
        1
 44
0.0
173
     0
291
     0
 45
0.0
  0
VISUALSTYLE
  5
26E
102
{ACAD_REACTORS
330
267
102
}
330
267
100
AcDbVisualStyle
  2
3D Hidden
 70
     6
 71
     1
 72
     2
 73
     2
 90
        0
 40
-0.6
 41
-30.0
 62
     5
 63
     7
421
 16777215
 74
     2
 91
        2
 64
     7
 65
   257
 75
     2
175
     1
 42
40.0
 92
        0
 66
   257
 43
1.0
 76
     1
 77
     6
 78
     2
 67
     7
 79
     3
170
     0
171
     0
290
     0
174
     0
 93
        1
 44
0.0
173
     0
291
     0
 45
0.0
  0
VISUALSTYLE
  5
26D
102
{ACAD_REACTORS
330
267
102
}
330
267
100
AcDbVisualStyle
  2
3dWireframe
 70
     5
 71
     0
 72
     2
 73
     0
 90
        0
 40
-0.6
 41
-30.0
 62
     5
 63
     7
421
 16777215
 74
     1
 91
        4
 64
     7
 65
   257
 75
     1
175
     1
 42
1.0
 92
        0
 66
   257
 43
1.0
 76
     1
 77
     6
 78
     2
 67
     7
 79
     5
170
     0
171
     0
290
     0
174
     0
 93
        1
 44
0.0
173
     0
291
     0
 45
0.0
  0
VISUALSTYLE
  5
26F
102
{ACAD_REACTORS
330
267
102
}
330
267
100
AcDbVisualStyle
  2
Basic
 70
     7
 71
     1
 72
     0
 73
     1
 90
        0
 40
-0.6
 41
-30.0
 62
     5
 63
     7
421
 16777215
 74
     0
 91
        4
 64
     7
 65
   257
 75
     1
175
     1
 42
1.0
 92
        8
 66
     7
 43
1.0
 76
     1
 77
     6
 78
     2
 67
     7
 79
     5
170
     0
171
     0
290
     0
174
     0
 93
        1
 44
0.0
173
     0
291
     1
 45
0.0
  0
VISUALSTYLE
  5
273
102
{ACAD_REACTORS
330
267
102
}
330
267
100
AcDbVisualStyle
  2
Brighten
 70
    12
 71
     2
 72
     2
 73
     0
 90
        0
 40
-0.6
 41
-30.0
 62
     5
 63
     7
421
 16777215
 74
     1
 91
        4
 64
     7
 65
   257
 75
     1
175
     1
 42
1.0
 92
        8
 66
     7
 43
1.0
 76
     1
 77
     6
 78
     2
 67
     7
 79
     5
170
     0
171
     0
290
     0
174
     0
 93
        1
 44
50.0
173
     0
291
     1
 45
0.0
  0
VISUALSTYLE
  5
277
102
{ACAD_REACTORS
330
267
102
}
330
267
100
AcDbVisualStyle
  2
ColorChange
 70
    16
 71
     2
 72
     2
 73
     3
 90
        0
 40
-0.6
 41
-30.0
 62
     5
 63
     8
421
  8421504
 74
     1
 91
        4
 64
     7
 65
   257
 75
     1
175
     1
 42
1.0
 92
        8
 66
     8
424
  8421504
 43
1.0
 76
     1
 77
     6
 78
     2
 67
     7
 79
     5
170
     0
171
     0
290
     0
174
     0
 93
        1
 44
0.0
173
     0
291
     1
 45
0.0
  0
VISUALSTYLE
  5
271
102
{ACAD_REACTORS
330
267
102
}
330
267
100
AcDbVisualStyle
  2
Conceptual
 70
     9
 71
     3
 72
     2
 73
     0
 90
        0
 40
-0.6
 41
-30.0
 62
     5
 63
     7
421
 16777215
 74
     2
 91
        2
 64
     7
 65
   257
 75
     1
175
     1
 42
40.0
 92
        8
 66
     7
 43
1.0
 76
     1
 77
     6
 78
     2
 67
     7
 79
     3
170
     0
171
     0
290
     0
174
     0
 93
        1
 44
0.0
173
     0
291
     0
 45
0.0
  0
VISUALSTYLE
  5
272
102
{ACAD_REACTORS
330
267
102
}
330
267
100
AcDbVisualStyle
  2
Dim
 70
    11
 71
     2
 72
     2
 73
     0
 90
        0
 40
-0.6
 41
-30.0
 62
     5
 63
     7
421
 16777215
 74
     1
 91
        4
 64
     7
 65
   257
 75
     1
175
     1
 42
1.0
 92
        8
 66
     7
 43
1.0
 76
     1
 77
     6
 78
     2
 67
     7
 79
     5
170
     0
171
     0
290
     0
174
     0
 93
        1
 44
-50.0
173
     0
291
     1
 45
0.0
  0
VISUALSTYLE
  5
10E2
102
{ACAD_REACTORS
330
267
102
}
330
267
100
AcDbVisualStyle
  2
EdgeColorOff
 70
    22
 71
     2
 72
     2
 73
     0
 90
        0
 40
0.6
 41
30.0
 62
     5
 63
     7
421
 16777215
 74
     1
 91
        4
 64
     7
 65
   257
 75
     1
175
     1
 42
1.0
 92
        8
 66
     7
 43
1.0
 76
     1
 77
     6
 78
     2
 67
     7
 79
     5
170
     0
171
     0
290
     0
174
     0
 93
        1
 44
0.0
173
     0
291
     1
 45
0.0
  0
VISUALSTYLE
  5
276
102
{ACAD_REACTORS
330
267
102
}
330
267
100
AcDbVisualStyle
  2
Facepattern
 70
    15
 71
     2
 72
     2
 73
     0
 90
        0
 40
-0.6
 41
-30.0
 62
     5
 63
     7
421
 16777215
 74
     1
 91
        4
 64
     7
 65
   257
 75
     1
175
     1
 42
1.0
 92
        8
 66
     7
 43
1.0
 76
     1
 77
     6
 78
     2
 67
     7
 79
     5
170
     0
171
     0
290
     0
174
     0
 93
        1
 44
0.0
173
     0
291
     1
 45
0.0
  0
VISUALSTYLE
  5
268
102
{ACAD_REACTORS
330
267
102
}
330
267
100
AcDbVisualStyle
  2
Flat
 70
     0
 71
     2
 72
     1
 73
     1
 90
        2
 40
-0.6
 41
30.0
 62
     5
 63
     7
421
 16777215
 74
     0
 91
        4
 64
     7
 65
   257
 75
     1
175
     1
 42
1.0
 92
        8
 66
     7
 43
1.0
 76
     1
 77
     6
 78
     2
 67
     7
 79
     5
170
     0
171
     0
290
     0
174
     0
 93
       13
 44
0.0
173
     0
291
     1
 45
0.0
  0
VISUALSTYLE
  5
269
102
{ACAD_REACTORS
330
267
102
}
330
267
100
AcDbVisualStyle
  2
FlatWithEdges
 70
     1
 71
     2
 72
     1
 73
     1
 90
        2
 40
-0.6
 41
30.0
 62
     5
 63
     7
421
 16777215
 74
     1
 91
        4
 64
     7
 65
   257
 75
     1
175
     1
 42
1.0
 92
        0
 66
   257
 43
1.0
 76
     1
 77
     6
 78
     2
 67
     7
 79
     5
170
     0
171
     0
290
     0
174
     0
 93
       13
 44
0.0
173
     0
291
     1
 45
0.0
  0
VISUALSTYLE
  5
26A
102
{ACAD_REACTORS
330
267
102
}
330
267
100
AcDbVisualStyle
  2
Gouraud
 70
     2
 71
     2
 72
     2
 73
     1
 90
        2
 40
-0.6
 41
30.0
 62
     5
 63
     7
421
 16777215
 74
     0
 91
        4
 64
     7
 65
   257
 75
     1
175
     1
 42
1.0
 92
        0
 66
     7
 43
1.0
 76
     1
 77
     6
 78
     2
 67
     7
 79
     5
170
     0
171
     0
290
     0
174
     0
 93
       13
 44
0.0
173
     0
291
     1
 45
0.0
  0
VISUALSTYLE
  5
26B
102
{ACAD_REACTORS
330
267
102
}
330
267
100
AcDbVisualStyle
  2
GouraudWithEdges
 70
     3
 71
     2
 72
     2
 73
     1
 90
        2
 40
-0.6
 41
30.0
 62
     5
 63
     7
421
 16777215
 74
     1
 91
        4
 64
     7
 65
   257
 75
     1
175
     1
 42
1.0
 92
        0
 66
   257
 43
1.0
 76
     1
 77
     6
 78
     2
 67
     7
 79
     5
170
     0
171
     0
290
     0
174
     0
 93
       13
 44
0.0
173
     0
291
     1
 45
0.0
  0
VISUALSTYLE
  5
10DF
102
{ACAD_REACTORS
330
267
102
}
330
267
100
AcDbVisualStyle
  2
Hidden
 70
     6
 71
     1
 72
     2
 73
     2
 90
        0
 40
0.6
 41
30.0
 62
     5
 63
     7
421
 16777215
 74
     2
 91
        2
 64
     7
 65
   257
 75
     2
175
     1
 42
40.0
 92
        0
 66
   257
 43
1.0
 76
     1
 77
     6
 78
     2
 67
     7
 79
     3
170
     0
171
     0
290
     0
174
     0
 93
        1
 44
0.0
173
     0
291
     0
 45
0.0
  0
VISUALSTYLE
  5
10E0
102
{ACAD_REACTORS
330
267
102
}
330
267
100
AcDbVisualStyle
  2
JitterOff
 70
    20
 71
     2
 72
     2
 73
     0
 90
        0
 40
0.6
 41
30.0
 62
     5
 63
     7
421
 16777215
 74
     1
 91
        4
 64
     7
 65
   257
 75
     1
175
     1
 42
1.0
 92
       10
 66
     7
 43
1.0
 76
     1
 77
     6
 78
     2
 67
     7
 79
     5
170
     0
171
     0
290
     0
174
     0
 93
        1
 44
0.0
173
     0
291
     1
 45
0.0
  0
VISUALSTYLE
  5
275
102
{ACAD_REACTORS
330
267
102
}
330
267
100
AcDbVisualStyle
  2
Linepattern
 70
    14
 71
     2
 72
     2
 73
     0
 90
        0
 40
-0.6
 41
-30.0
 62
     5
 63
     7
421
 16777215
 74
     1
 91
        4
 64
     7
 65
   257
 75
     7
175
     7
 42
1.0
 92
        8
 66
     7
 43
1.0
 76
     1
 77
     6
 78
     2
 67
     7
 79
     5
170
     0
171
     0
290
     0
174
     0
 93
        1
 44
0.0
173
     0
291
     1
 45
0.0
  0
VISUALSTYLE
  5
10E1
102
{ACAD_REACTORS
330
267
102
}
330
267
100
AcDbVisualStyle
  2
OverhangOff
 70
    21
 71
     2
 72
     2
 73
     0
 90
        0
 40
0.6
 41
30.0
 62
     5
 63
     7
421
 16777215
 74
     1
 91
        4
 64
     7
 65
   257
 75
     1
175
     1
 42
1.0
 92
        9
 66
     7
 43
1.0
 76
     1
 77
     6
 78
     2
 67
     7
 79
     5
170
     0
171
     0
290
     0
174
     0
 93
        1
 44
0.0
173
     0
291
     1
 45
0.0
  0
VISUALSTYLE
  5
270
102
{ACAD_REACTORS
330
267
102
}
330
267
100
AcDbVisualStyle
  2
Realistic
 70
     8
 71
     2
 72
     2
 73
     0
 90
        0
 40
-0.6
 41
-30.0
 62
     5
 63
     7
421
 16777215
 74
     1
 91
        0
 64
     7
 65
   257
 75
     1
175
     1
 42
1.0
 92
        8
 66
     8
424
  7895160
 43
1.0
 76
     1
 77
     6
 78
     2
 67
     7
 79
     5
170
     0
171
     0
290
     0
174
     0
 93
       13
 44
0.0
173
     0
291
     0
 45
0.0
  0
VISUALSTYLE
  5
10E7
102
{ACAD_REACTORS
330
267
102
}
330
267
100
AcDbVisualStyle
  2
Shaded
 70
    27
 71
     2
 72
     2
 73
     1
 90
        2
 40
0.6
 41
30.0
 62
     5
 63
     7
421
 16777215
 74
     0
 91
        4
 64
     7
 65
   257
 75
     1
175
     1
 42
1.0
 92
        8
 66
   257
 43
1.0
 76
     1
 77
     6
 78
     2
 67
     8
425
  7895160
 79
     3
170
     0
171
     0
290
     0
174
     0
 93
        5
 44
0.0
173
     0
291
     0
 45
0.0
  0
VISUALSTYLE
  5
10E6
102
{ACAD_REACTORS
330
267
102
}
330
267
100
AcDbVisualStyle
  2
Shaded with edges
 70
    26
 71
     2
 72
     2
 73
     1
 90
        2
 40
0.6
 41
30.0
 62
     5
 63
     7
421
 16777215
 74
     1
 91
       10
 64
     7
 65
   257
 75
     2
175
     1
 42
1.0
 92
        8
 66
   257
 43
1.0
 76
     1
 77
     6
 78
     2
 67
     7
 79
     3
170
     0
171
     0
290
     0
174
     0
 93
        5
 44
0.0
173
     0
291
     0
 45
0.0
  0
VISUALSTYLE
  5
10E3
102
{ACAD_REACTORS
330
267
102
}
330
267
100
AcDbVisualStyle
  2
Shades of Gray
 70
    23
 71
     2
 72
     2
 73
     3
 90
        0
 40
0.6
 41
30.0
 62
     5
 63
     7
421
 16777215
 74
     2
 91
        2
 64
     7
 65
     7
 75
     1
175
     1
 42
40.0
 92
        8
 66
     7
 43
1.0
 76
     1
 77
     6
 78
     2
 67
     7
 79
     3
170
     0
171
     0
290
     0
174
     0
 93
        1
 44
0.0
173
     0
291
     0
 45
0.0
  0
VISUALSTYLE
  5
10E4
102
{ACAD_REACTORS
330
267
102
}
330
267
100
AcDbVisualStyle
  2
Sketchy
 70
    24
 71
     1
 72
     2
 73
     2
 90
        0
 40
0.6
 41
30.0
 62
     5
 63
     7
421
 16777215
 74
     2
 91
        2
 64
     7
 65
     7
 75
     1
175
     1
 42
40.0
 92
       11
 66
     7
 43
1.0
 76
     1
 77
     6
 78
     2
 67
     7
 79
     6
170
     0
171
     0
290
     0
174
     0
 93
        1
 44
0.0
173
     0
291
     0
 45
0.0
  0
VISUALSTYLE
  5
274
102
{ACAD_REACTORS
330
267
102
}
330
267
100
AcDbVisualStyle
  2
Thicken
 70
    13
 71
     2
 72
     2
 73
     0
 90
        0
 40
-0.6
 41
-30.0
 62
     5
 63
     7
421
 16777215
 74
     1
 91
        4
 64
     7
 65
   257
 75
     1
175
     1
 42
1.0
 92
       12
 66
     7
 43
1.0
 76
     1
 77
     6
 78
     2
 67
     7
 79
     5
170
     0
171
     0
290
     0
174
     0
 93
        1
 44
0.0
173
     0
291
     1
 45
0.0
  0
VISUALSTYLE
  5
10DE
102
{ACAD_REACTORS
330
267
102
}
330
267
100
AcDbVisualStyle
  2
Wireframe
 70
     5
 71
     0
 72
     2
 73
     0
 90
        0
 40
0.6
 41
30.0
 62
     5
 63
     7
421
 16777215
 74
     1
 91
        4
 64
     7
 65
   257
 75
     1
175
     1
 42
1.0
 92
        0
 66
   257
 43
1.0
 76
     1
 77
     6
 78
     2
 67
     7
 79
     3
170
     0
171
     0
290
     0
174
     0
 93
        1
 44
0.0
173
     0
291
     0
 45
0.0
  0
VISUALSTYLE
  5
10E5
102
{ACAD_REACTORS
330
267
102
}
330
267
100
AcDbVisualStyle
  2
X-Ray
 70
    25
 71
     2
 72
     2
 73
     1
 90
        1
 40
0.5
 41
30.0
 62
     5
 63
     7
421
 16777215
 74
     1
 91
        0
 64
     7
 65
   257
 75
     1
175
     1
 42
1.0
 92
        8
 66
     7
 43
1.0
 76
     1
 77
     6
 78
     2
 67
     7
 79
     3
170
     0
171
     0
290
     0
174
     0
 93
       13
 44
0.0
173
     0
291
     0
 45
0.0
  0
DICTIONARYVAR
  5
331
102
{ACAD_REACTORS
330
330
102
}
330
330
100
DictionaryVariables
280
     0
  1
1:1
  0
DICTIONARYVAR
  5
4A74
102
{ACAD_REACTORS
330
330
102
}
330
330
100
DictionaryVariables
280
     0
  1
Standard
  0
DICTIONARYVAR
  5
335
102
{ACAD_REACTORS
330
330
102
}
330
330
100
DictionaryVariables
280
     0
  1
Standard
  0
DICTIONARYVAR
  5
3A8D
102
{ACAD_REACTORS
330
330
102
}
330
330
100
DictionaryVariables
280
     0
  1
ByLayer
  0
DICTIONARYVAR
  5
109E
102
{ACAD_REACTORS
330
330
102
}
330
330
100
DictionaryVariables
280
     0
  1
0
  0
DICTIONARYVAR
  5
9EAD
102
{ACAD_REACTORS
330
9EAC
102
}
330
9EAC
100
DictionaryVariables
280
     0
  1
0.250000
  0
DICTIONARYVAR
  5
9EAA
102
{ACAD_REACTORS
330
6218
102
}
330
6218
100
DictionaryVariables
280
     0
  1
0.261799
  0
DICTIONARYVAR
  5
9EA8
102
{ACAD_REACTORS
330
6218
102
}
330
6218
100
DictionaryVariables
280
     0
  1
0.400000
  0
DICTIONARYVAR
  5
9EA9
102
{ACAD_REACTORS
330
6218
102
}
330
6218
100
DictionaryVariables
280
     0
  1
0.250000
  0
DICTIONARYVAR
  5
9EAB
102
{ACAD_REACTORS
330
6218
102
}
330
6218
100
DictionaryVariables
280
     0
  1
1
  0
FIELD
  5
A088
102
{ACAD_REACTORS
330
A087
102
}
330
A087
100
AcDbField
  1
_text
  2
{%<\_FldIdx 0>%N}
 90
        1
360
A089
 97
        0
 91
       63
 92
        0
 94
        8
 95
        2
 96
        0
300

 93
        1
  6
ACFD_FIELDTEXT_CHECKSUM
 93
        2
 90
        2
140
4543.0
 94
        0
300

302

304
ACVALUE_END
  7
ACFD_FIELD_VALUE
 93
        6
 90
        4
  1
{20170725N}
 94
        0
300

302

304
ACVALUE_END
301
{20170725N}
 98
       11
  0
DICTIONARY
  5
A9BE
330
279
100
AcDbDictionary
280
     1
281
     1
  3
ACAD_ROUNDTRIP_2008_TABLESTYLE_CELLSTYLEMAP
360
A9BF
  0
FIELD
  5
A089
330
A088
100
AcDbField
  1
AcVar
  2
\AcVar Date \f "yyyyMMdd"
 90
        0
 97
        0
 91
       63
 92
        0
 94
        8
 95
        2
 96
        0
300

 93
        1
  6
Variable
 93
        2
 90
        4
  1
Date
 94
        0
300

302

304
ACVALUE_END
  7
ACFD_FIELD_VALUE
 93
        6
 90
        8
 92
       16
310
E1070700000019000A000B0024000000
 94
        0
300
yyyyMMdd
302

304
ACVALUE_END
301
20170725
 98
        8
  0
CELLSTYLEMAP
  5
A9BF
102
{ACAD_REACTORS
330
A9BE
102
}
330
A9BE
100
AcDbCellStyleMap
 90
        3
300
CELLSTYLE
  1
TABLEFORMAT_BEGIN
 90
        5
170
     1
 91
        0
 92
    32768
 62
   257
 93
        1
300
CONTENTFORMAT
  1
CONTENTFORMAT_BEGIN
 90
        0
 91
        0
 92
        4
 93
        0
300

 40
0.0
140
1.0
 94
        5
 62
     0
340
17
144
6.0
309
CONTENTFORMAT_END
171
     1
301
MARGIN
  1
CELLMARGIN_BEGIN
 40
0.06
 40
0.06
 40
0.06
 40
0.06
 40
0.18
 40
0.18
309
CELLMARGIN_END
 94
        6
 95
        1
302
GRIDFORMAT
  1
GRIDFORMAT_BEGIN
 90
        0
 91
        1
 62
     0
 92
       -2
340
0
 93
        0
 40
0.045
309
GRIDFORMAT_END
 95
        2
302
GRIDFORMAT
  1
GRIDFORMAT_BEGIN
 90
        0
 91
        1
 62
     0
 92
       -2
340
0
 93
        0
 40
0.045
309
GRIDFORMAT_END
 95
        4
302
GRIDFORMAT
  1
GRIDFORMAT_BEGIN
 90
        0
 91
        1
 62
     0
 92
       -2
340
0
 93
        0
 40
0.045
309
GRIDFORMAT_END
 95
        8
302
GRIDFORMAT
  1
GRIDFORMAT_BEGIN
 90
        0
 91
        1
 62
     0
 92
       -2
340
0
 93
        0
 40
0.045
309
GRIDFORMAT_END
 95
       16
302
GRIDFORMAT
  1
GRIDFORMAT_BEGIN
 90
        0
 91
        1
 62
     0
 92
       -2
340
0
 93
        0
 40
0.045
309
GRIDFORMAT_END
 95
       32
302
GRIDFORMAT
  1
GRIDFORMAT_BEGIN
 90
        0
 91
        1
 62
     0
 92
       -2
340
0
 93
        0
 40
0.045
309
GRIDFORMAT_END
309
TABLEFORMAT_END
  1
CELLSTYLE_BEGIN
 90
        1
 91
        1
300
_TITLE
309
CELLSTYLE_END
300
CELLSTYLE
  1
TABLEFORMAT_BEGIN
 90
        5
170
     1
 91
        0
 92
        0
 62
   257
 93
        1
300
CONTENTFORMAT
  1
CONTENTFORMAT_BEGIN
 90
        0
 91
        0
 92
        4
 93
        0
300

 40
0.0
140
1.0
 94
        5
 62
     0
340
17
144
4.5
309
CONTENTFORMAT_END
171
     1
301
MARGIN
  1
CELLMARGIN_BEGIN
 40
0.06
 40
0.06
 40
0.06
 40
0.06
 40
0.18
 40
0.18
309
CELLMARGIN_END
 94
        6
 95
        1
302
GRIDFORMAT
  1
GRIDFORMAT_BEGIN
 90
        0
 91
        1
 62
     0
 92
       -2
340
0
 93
        0
 40
0.045
309
GRIDFORMAT_END
 95
        2
302
GRIDFORMAT
  1
GRIDFORMAT_BEGIN
 90
        0
 91
        1
 62
     0
 92
       -2
340
0
 93
        0
 40
0.045
309
GRIDFORMAT_END
 95
        4
302
GRIDFORMAT
  1
GRIDFORMAT_BEGIN
 90
        0
 91
        1
 62
     0
 92
       -2
340
0
 93
        0
 40
0.045
309
GRIDFORMAT_END
 95
        8
302
GRIDFORMAT
  1
GRIDFORMAT_BEGIN
 90
        0
 91
        1
 62
     0
 92
       -2
340
0
 93
        0
 40
0.045
309
GRIDFORMAT_END
 95
       16
302
GRIDFORMAT
  1
GRIDFORMAT_BEGIN
 90
        0
 91
        1
 62
     0
 92
       -2
340
0
 93
        0
 40
0.045
309
GRIDFORMAT_END
 95
       32
302
GRIDFORMAT
  1
GRIDFORMAT_BEGIN
 90
        0
 91
        1
 62
     0
 92
       -2
340
0
 93
        0
 40
0.045
309
GRIDFORMAT_END
309
TABLEFORMAT_END
  1
CELLSTYLE_BEGIN
 90
        2
 91
        1
300
_HEADER
309
CELLSTYLE_END
300
CELLSTYLE
  1
TABLEFORMAT_BEGIN
 90
        5
170
     1
 91
        0
 92
        0
 62
   257
 93
        1
300
CONTENTFORMAT
  1
CONTENTFORMAT_BEGIN
 90
        0
 91
        0
 92
        4
 93
        0
300

 40
0.0
140
1.0
 94
        2
 62
     0
340
17
144
4.5
309
CONTENTFORMAT_END
171
     1
301
MARGIN
  1
CELLMARGIN_BEGIN
 40
0.06
 40
0.06
 40
0.06
 40
0.06
 40
0.18
 40
0.18
309
CELLMARGIN_END
 94
        6
 95
        1
302
GRIDFORMAT
  1
GRIDFORMAT_BEGIN
 90
        0
 91
        1
 62
     0
 92
       -2
340
0
 93
        0
 40
0.045
309
GRIDFORMAT_END
 95
        2
302
GRIDFORMAT
  1
GRIDFORMAT_BEGIN
 90
        0
 91
        1
 62
     0
 92
       -2
340
0
 93
        0
 40
0.045
309
GRIDFORMAT_END
 95
        4
302
GRIDFORMAT
  1
GRIDFORMAT_BEGIN
 90
        0
 91
        1
 62
     0
 92
       -2
340
0
 93
        0
 40
0.045
309
GRIDFORMAT_END
 95
        8
302
GRIDFORMAT
  1
GRIDFORMAT_BEGIN
 90
        0
 91
        1
 62
     0
 92
       -2
340
0
 93
        0
 40
0.045
309
GRIDFORMAT_END
 95
       16
302
GRIDFORMAT
  1
GRIDFORMAT_BEGIN
 90
        0
 91
        1
 62
     0
 92
       -2
340
0
 93
        0
 40
0.045
309
GRIDFORMAT_END
 95
       32
302
GRIDFORMAT
  1
GRIDFORMAT_BEGIN
 90
        0
 91
        1
 62
     0
 92
       -2
340
0
 93
        0
 40
0.045
309
GRIDFORMAT_END
309
TABLEFORMAT_END
  1
CELLSTYLE_BEGIN
 90
        3
 91
        2
300
_DATA
309
CELLSTYLE_END
  0
ENDSEC
  0
EOF
