  0
SECTION
  2
HEADER
  9
$ACADVER
  1
AC1021
  9
$ACADMAINTVER
 70
    25
  9
$DWGCODEPAGE
  3
ANSI_932
  9
$LASTSAVEDBY
  1
howeNelson
  9
$INSBASE
 10
0.0
 20
0.0
 30
0.0
  9
$EXTMIN
 10
0.0
 20
0.0
 30
0.0
  9
$EXTMAX
 10
593.9999999999999
 20
420.0
 30
0.0
  9
$LIMMIN
 10
0.0
 20
0.0
  9
$LIMMAX
 10
593.9999999999999
 20
420.0
  9
$ORTHOMODE
 70
     0
  9
$REGENMODE
 70
     1
  9
$FILLMODE
 70
     1
  9
$QTEXTMODE
 70
     0
  9
$MIRRTEXT
 70
     1
  9
$LTSCALE
 40
0.5
  9
$ATTMODE
 70
     1
  9
$TEXTSIZE
 40
2.5
  9
$TRACEWID
 40
1.0
  9
$TEXTSTYLE
  7
ＭＳ ゴシック
  9
$CLAYER
  8
寸法
  9
$CELTYPE
  6
ByLayer
  9
$CECOLOR
 62
   256
  9
$CELTSCALE
 40
1.0
  9
$DISPSILH
 70
     0
  9
$DIMSCALE
 40
1.0
  9
$DIMASZ
 40
2.0
  9
$DIMEXO
 40
5.0
  9
$DIMDLI
 40
0.9999999999999999
  9
$DIMRND
 40
0.0
  9
$DIMDLE
 40
0.0
  9
$DIMEXE
 40
0.0
  9
$DIMTP
 40
0.0
  9
$DIMTM
 40
0.0
  9
$DIMTXT
 40
5.0
  9
$DIMCEN
 40
0.0
  9
$DIMTSZ
 40
0.0
  9
$DIMTOL
 70
     0
  9
$DIMLIM
 70
     0
  9
$DIMTIH
 70
     0
  9
$DIMTOH
 70
     0
  9
$DIMSE1
 70
     0
  9
$DIMSE2
 70
     0
  9
$DIMTAD
 70
     1
  9
$DIMZIN
 70
    11
  9
$DIMBLK
  1
DOT
  9
$DIMASO
 70
     1
  9
$DIMSHO
 70
     1
  9
$DIMPOST
  1
<>
  9
$DIMAPOST
  1
[]
  9
$DIMALT
 70
     0
  9
$DIMALTD
 70
     1
  9
$DIMALTF
 40
1.0
  9
$DIMLFAC
 40
1.0
  9
$DIMTOFL
 70
     0
  9
$DIMTVP
 40
0.0
  9
$DIMTIX
 70
     1
  9
$DIMSOXD
 70
     0
  9
$DIMSAH
 70
     0
  9
$DIMBLK1
  1

  9
$DIMBLK2
  1

  9
$DIMSTYLE
  2
tfrom線あり
  9
$DIMCLRD
 70
     0
  9
$DIMCLRE
 70
     0
  9
$DIMCLRT
 70
     0
  9
$DIMTFAC
 40
1.0
  9
$DIMGAP
 40
3.0
  9
$DIMJUST
 70
     0
  9
$DIMSD1
 70
     0
  9
$DIMSD2
 70
     0
  9
$DIMTOLJ
 70
     1
  9
$DIMTZIN
 70
    11
  9
$DIMALTZ
 70
    11
  9
$DIMALTTZ
 70
    11
  9
$DIMUPT
 70
     0
  9
$DIMDEC
 70
     0
  9
$DIMTDEC
 70
     1
  9
$DIMALTU
 70
     2
  9
$DIMALTTD
 70
     2
  9
$DIMTXSTY
  7
ＭＳ ゴシック
  9
$DIMAUNIT
 70
     0
  9
$DIMADEC
 70
     2
  9
$DIMALTRND
 40
0.0
  9
$DIMAZIN
 70
     0
  9
$DIMDSEP
 70
    46
  9
$DIMATFIT
 70
     0
  9
$DIMFRAC
 70
     2
  9
$DIMLDRBLK
  1
DOT
  9
$DIMLUNIT
 70
     2
  9
$DIMLWD
 70
    -2
  9
$DIMLWE
 70
    -2
  9
$DIMTMOVE
 70
     0
  9
$DIMFXL
 40
1.0
  9
$DIMFXLON
 70
     0
  9
$DIMJOGANG
 40
0.7853981633974483
  9
$DIMTFILL
 70
     0
  9
$DIMTFILLCLR
 70
     0
  9
$DIMARCSYM
 70
     0
  9
$DIMLTYPE
  6

  9
$DIMLTEX1
  6

  9
$DIMLTEX2
  6

  9
$LUNITS
 70
     2
  9
$LUPREC
 70
     0
  9
$SKETCHINC
 40
0.1
  9
$FILLETRAD
 40
0.0
  9
$AUNITS
 70
     0
  9
$AUPREC
 70
     0
  9
$MENU
  1
acad
  9
$ELEVATION
 40
0.0
  9
$PELEVATION
 40
0.0
  9
$THICKNESS
 40
0.0
  9
$LIMCHECK
 70
     0
  9
$CHAMFERA
 40
0.0
  9
$CHAMFERB
 40
0.0
  9
$CHAMFERC
 40
0.0
  9
$CHAMFERD
 40
0.0
  9
$SKPOLY
 70
     0
  9
$TDCREATE
 40
2447893.375
  9
$TDUCREATE
 40
0.0
  9
$TDUPDATE
 40
2457494.412695509
  9
$TDUUPDATE
 40
2457494.037695509
  9
$TDINDWG
 40
0.7087169907
  9
$TDUSRTIMER
 40
2457494.03712309
  9
$USRTIMER
 70
     1
  9
$ANGBASE
 50
0.0
  9
$ANGDIR
 70
     0
  9
$PDMODE
 70
     1
  9
$PDSIZE
 40
-2.0
  9
$PLINEWID
 40
0.0
  9
$SPLFRAME
 70
     0
  9
$SPLINETYPE
 70
     6
  9
$SPLINESEGS
 70
     8
  9
$HANDSEED
  5
45B2
  9
$SURFTAB1
 70
     6
  9
$SURFTAB2
 70
     6
  9
$SURFTYPE
 70
     6
  9
$SURFU
 70
     6
  9
$SURFV
 70
     6
  9
$UCSBASE
  2

  9
$UCSNAME
  2

  9
$UCSORG
 10
0.0
 20
0.0
 30
0.0
  9
$UCSXDIR
 10
1.0
 20
0.0
 30
0.0
  9
$UCSYDIR
 10
0.0
 20
1.0
 30
0.0
  9
$UCSORTHOREF
  2

  9
$UCSORTHOVIEW
 70
     0
  9
$UCSORGTOP
 10
0.0
 20
0.0
 30
0.0
  9
$UCSORGBOTTOM
 10
0.0
 20
0.0
 30
0.0
  9
$UCSORGLEFT
 10
0.0
 20
0.0
 30
0.0
  9
$UCSORGRIGHT
 10
0.0
 20
0.0
 30
0.0
  9
$UCSORGFRONT
 10
0.0
 20
0.0
 30
0.0
  9
$UCSORGBACK
 10
0.0
 20
0.0
 30
0.0
  9
$PUCSBASE
  2

  9
$PUCSNAME
  2

  9
$PUCSORG
 10
0.0
 20
0.0
 30
0.0
  9
$PUCSXDIR
 10
1.0
 20
0.0
 30
0.0
  9
$PUCSYDIR
 10
0.0
 20
1.0
 30
0.0
  9
$PUCSORTHOREF
  2

  9
$PUCSORTHOVIEW
 70
     0
  9
$PUCSORGTOP
 10
0.0
 20
0.0
 30
0.0
  9
$PUCSORGBOTTOM
 10
0.0
 20
0.0
 30
0.0
  9
$PUCSORGLEFT
 10
0.0
 20
0.0
 30
0.0
  9
$PUCSORGRIGHT
 10
0.0
 20
0.0
 30
0.0
  9
$PUCSORGFRONT
 10
0.0
 20
0.0
 30
0.0
  9
$PUCSORGBACK
 10
0.0
 20
0.0
 30
0.0
  9
$USERI1
 70
     0
  9
$USERI2
 70
     0
  9
$USERI3
 70
     0
  9
$USERI4
 70
     0
  9
$USERI5
 70
     0
  9
$USERR1
 40
0.0
  9
$USERR2
 40
0.0
  9
$USERR3
 40
0.0
  9
$USERR4
 40
0.0
  9
$USERR5
 40
0.0
  9
$WORLDVIEW
 70
     1
  9
$SHADEDGE
 70
     3
  9
$SHADEDIF
 70
    70
  9
$TILEMODE
 70
     1
  9
$MAXACTVP
 70
    64
  9
$PINSBASE
 10
0.0
 20
0.0
 30
0.0
  9
$PLIMCHECK
 70
     0
  9
$PEXTMIN
 10
0.0
 20
0.0
 30
0.0
  9
$PEXTMAX
 10
0.0
 20
0.0
 30
0.0
  9
$PLIMMIN
 10
-95.87226993865028
 20
-25.69999999999999
  9
$PLIMMAX
 10
201.1277300613497
 20
184.3
  9
$UNITMODE
 70
     0
  9
$VISRETAIN
 70
     0
  9
$PLINEGEN
 70
     1
  9
$PSLTSCALE
 70
     0
  9
$TREEDEPTH
 70
  3020
  9
$CMLSTYLE
  2
Standard
  9
$CMLJUST
 70
     0
  9
$CMLSCALE
 40
1.0
  9
$PROXYGRAPHICS
 70
     0
  9
$MEASUREMENT
 70
     1
  9
$CELWEIGHT
370
    -1
  9
$ENDCAPS
280
     0
  9
$JOINSTYLE
280
     0
  9
$LWDISPLAY
290
     1
  9
$INSUNITS
 70
     4
  9
$HYPERLINKBASE
  1

  9
$STYLESHEET
  1

  9
$XEDIT
290
     1
  9
$CEPSNTYPE
380
     0
  9
$PSTYLEMODE
290
     1
  9
$FINGERPRINTGUID
  2

  9
$VERSIONGUID
  2

  9
$EXTNAMES
290
     1
  9
$PSVPSCALE
 40
0.0
  9
$OLESTARTUP
290
     0
  9
$SORTENTS
280
   127
  9
$INDEXCTL
280
     0
  9
$HIDETEXT
280
     1
  9
$XCLIPFRAME
290
     0
  9
$HALOGAP
280
     0
  9
$OBSCOLOR
 70
   257
  9
$OBSLTYPE
280
     0
  9
$INTERSECTIONDISPLAY
280
     0
  9
$INTERSECTIONCOLOR
 70
   257
  9
$DIMASSOC
280
     2
  9
$PROJECTNAME
  1

  9
$CAMERADISPLAY
290
     0
  9
$LENSLENGTH
 40
50.0
  9
$CAMERAHEIGHT
 40
0.0
  9
$STEPSPERSEC
 40
2.0
  9
$STEPSIZE
 40
6.0
  9
$3DDWFPREC
 40
2.0
  9
$PSOLWIDTH
 40
0.25
  9
$PSOLHEIGHT
 40
4.0
  9
$LOFTANG1
 40
1.570796326794897
  9
$LOFTANG2
 40
1.570796326794897
  9
$LOFTMAG1
 40
0.0
  9
$LOFTMAG2
 40
0.0
  9
$LOFTPARAM
 70
     7
  9
$LOFTNORMALS
280
     1
  9
$LATITUDE
 40
37.795
  9
$LONGITUDE
 40
-122.394
  9
$NORTHDIRECTION
 40
0.0
  9
$TIMEZONE
 70
 -8000
  9
$LIGHTGLYPHDISPLAY
280
     1
  9
$TILEMODELIGHTSYNCH
280
     1
  9
$SOLIDHIST
280
     1
  9
$SHOWHIST
280
     1
  9
$DWFFRAME
280
     2
  9
$DGNFRAME
280
     2
  9
$REALWORLDSCALE
290
     1
  9
$INTERFERECOLOR
 62
   256
  9
$CSHADOW
280
     0
  9
$SHADOWPLANELOCATION
 40
0.0
  0
ENDSEC
  0
SECTION
  2
CLASSES
  0
CLASS
  1
LWPOLYLINE
  2
AcDbPolyline
  3
ObjectDBX Classes
 90
        0
 91
        1
280
     0
281
     1
  0
CLASS
  1
IMAGE
  2
AcDbRasterImage
  3
ISM
 90
      127
 91
       13
280
     0
281
     1
  0
CLASS
  1
OLE2FRAME
  2
AcDbOle2Frame
  3
ObjectDBX Classes
 90
        0
 91
        1
280
     0
281
     1
  0
CLASS
  1
HATCH
  2
AcDbHatch
  3
ObjectDBX Classes
 90
        0
 91
        1
280
     0
281
     1
  0
CLASS
  1
DICTIONARYVAR
  2
AcDbDictionaryVar
  3
ObjectDBX Classes
 90
        0
 91
       12
280
     0
281
     0
  0
CLASS
  1
RASTERVARIABLES
  2
AcDbRasterVariables
  3
ISM
 90
        0
 91
       12
280
     0
281
     0
  0
CLASS
  1
IMAGEDEF
  2
AcDbRasterImageDef
  3
ISM
 90
        0
 91
       12
280
     0
281
     0
  0
CLASS
  1
IMAGEDEF_REACTOR
  2
AcDbRasterImageDefReactor
  3
ISM
 90
        1
 91
       12
280
     0
281
     0
  0
CLASS
  1
IDBUFFER
  2
AcDbIdBuffer
  3
ObjectDBX Classes
 90
        0
 91
       12
280
     0
281
     0
  0
CLASS
  1
SPATIAL_FILTER
  2
AcDbSpatialFilter
  3
ObjectDBX Classes
 90
        0
 91
       12
280
     0
281
     0
  0
CLASS
  1
XRECORD
  2
AcDbXrecord
  3
ObjectDBX Classes
 90
        0
 91
        1
280
     0
281
     0
  0
CLASS
  1
SORTENTSTABLE
  2
AcDbSortentsTable
  3
ObjectDBX Classes
 90
        0
 91
       12
280
     0
281
     0
  0
CLASS
  1
LAYER_INDEX
  2
AcDbLayerIndex
  3
ObjectDBX Classes
 90
        0
 91
       12
280
     0
281
     0
  0
CLASS
  1
SPATIAL_INDEX
  2
AcDbSpatialIndex
  3
AutoCAD 2000
 90
        0
 91
       12
280
     0
281
     0
  0
CLASS
  1
OBJECT_PTR
  2
CAseDLPNTableRecord
  3
ASE-LPNTableRecord
 90
        1
 91
       12
280
     0
281
     0
  0
CLASS
  1
LAYOUT
  2
AcDbLayout
  3
ObjectDBX Classes
 90
        0
 91
        1
280
     0
281
     0
  0
CLASS
  1
PLOTSETTINGS
  2
AcDbPlotSettings
  3
ObjectDBX Classes
 90
        0
 91
       12
280
     0
281
     0
  0
CLASS
  1
ACDBDICTIONARYWDFLT
  2
AcDbDictionaryWithDefault
  3
ObjectDBX Classes
 90
        0
 91
       12
280
     0
281
     0
  0
CLASS
  1
ACDBPLACEHOLDER
  2
AcDbPlaceHolder
  3
ObjectDBX Classes
 90
        0
 91
        1
280
     0
281
     0
  0
CLASS
  1
SCALE
  2
AcDbScale
  3
ObjectDBX Classes
 90
     1153
 91
       12
280
     0
281
     0
  0
CLASS
  1
MATERIAL
  2
AcDbMaterial
  3
ObjectDBX Classes
 90
     1153
 91
       12
280
     0
281
     0
  0
CLASS
  1
VISUALSTYLE
  2
AcDbVisualStyle
  3
ObjectDBX Classes
 90
     4095
 91
       12
280
     0
281
     0
  0
CLASS
  1
TABLESTYLE
  2
AcDbTableStyle
  3
ObjectDBX Classes
 90
     4095
 91
       12
280
     0
281
     0
  0
CLASS
  1
DIMASSOC
  2
AcDbDimAssoc
  3
"AcDbDimAssoc|Product Desc:     AcDim ARX App For Dimension|Company:          Autodesk, Inc.|WEB Address:      www.autodesk.com"
 90
        0
 91
       12
280
     0
281
     0
  0
CLASS
  1
CELLSTYLEMAP
  2
AcDbCellStyleMap
  3
ObjectDBX Classes
 90
     1152
 91
       12
280
     0
281
     0
  0
CLASS
  1
SUN
  2
AcDbSun
  3
SCENEOE
 90
     1153
 91
       12
280
     0
281
     0
  0
CLASS
  1
MLEADERSTYLE
  2
AcDbMLeaderStyle
  3
ACDB_MLEADERSTYLE_CLASS
 90
     4095
 91
       12
280
     0
281
     0
  0
ENDSEC
  0
SECTION
  2
TABLES
  0
TABLE
  2
VPORT
  5
7
330
0
100
AcDbSymbolTable
 70
     1
  0
VPORT
  5
15
330
7
100
AcDbSymbolTableRecord
100
AcDbViewportTableRecord
  2
*ACTIVE
 70
     0
 10
0.0
 20
0.0
 11
1.0
 21
1.0
 12
296.9999999999999
 22
210.0
 13
0.0
 23
0.0
 14
1.0
 24
1.0
 15
0.0
 25
0.0
 16
0.0
 26
0.0
 36
1.0
 17
0.0
 27
0.0
 37
0.0
 40
428.4
 41
2.429403202328967
 42
50.0
 43
0.0
 44
0.0
 50
0.0
 51
0.0
 71
    16
 72
  2000
 73
     1
 74
     1
 75
     0
 76
     0
 77
     0
 78
     0
281
     0
 65
     1
110
0.0
120
0.0
130
0.0
111
1.0
121
0.0
131
0.0
112
0.0
122
1.0
132
0.0
 79
     0
146
0.0
348
26C
 60
     3
 61
     5
292
     1
282
     1
141
0.0
142
0.0
 63
   256
361
10E8
  0
ENDTAB
  0
TABLE
  2
LTYPE
  5
4
330
0
100
AcDbSymbolTable
 70
     3
  0
LTYPE
  5
11
330
4
100
AcDbSymbolTableRecord
100
AcDbLinetypeTableRecord
  2
ByBlock
 70
     0
  3

 72
    65
 73
     0
 40
0.0
  0
LTYPE
  5
12
330
4
100
AcDbSymbolTableRecord
100
AcDbLinetypeTableRecord
  2
ByLayer
 70
     0
  3
Solid line
 72
    65
 73
     0
 40
0.0
  0
LTYPE
  5
13
330
4
100
AcDbSymbolTableRecord
100
AcDbLinetypeTableRecord
  2
Continuous
 70
     0
  3
Solid line
 72
    65
 73
     0
 40
0.0
  0
LTYPE
  5
88D
330
4
100
AcDbSymbolTableRecord
100
AcDbLinetypeTableRecord
  2
CENTER
 70
     0
  3
----------  --  ----------  --  
 72
    65
 73
     4
 40
20.0
 49
12.5
 74
     0
 49
-2.5
 74
     0
 49
2.5
 74
     0
 49
-2.5
 74
     0
  0
LTYPE
  5
12C7
330
4
100
AcDbSymbolTableRecord
100
AcDbLinetypeTableRecord
  2
HIDDEN
 70
     0
  3
Hidden _ _ _ _ _ _ _ _ _ _ _ _ _ _ _ _ _ _ _ _ 
 72
    65
 73
     2
 40
9.524999999999999
 49
6.35
 74
     0
 49
-3.175
 74
     0
  0
ENDTAB
  0
TABLE
  2
LAYER
  5
2
102
{ACAD_XDICTIONARY
360
2E1
102
}
330
0
100
AcDbSymbolTable
 70
     8
  0
LAYER
  5
14
330
2
100
AcDbSymbolTableRecord
100
AcDbLayerTableRecord
  2
0
 70
     0
 62
     7
  6
Continuous
370
    -3
390
1D
347
266
  0
LAYER
  5
4A
330
2
100
AcDbSymbolTableRecord
100
AcDbLayerTableRecord
  2
Defpoints
 70
     0
 62
     7
  6
Continuous
290
     0
370
    -3
390
1D
347
266
  0
LAYER
  5
12CE
330
2
100
AcDbSymbolTableRecord
100
AcDbLayerTableRecord
  2
寸法
 70
     0
 62
     7
  6
Continuous
370
    13
390
1D
347
266
1001
AcAecLayerStandard
1000

1000

  0
LAYER
  5
12CF
330
2
100
AcDbSymbolTableRecord
100
AcDbLayerTableRecord
  2
モデル
 70
     0
 62
     7
  6
Continuous
370
    20
390
1D
347
266
1001
AcAecLayerStandard
1000

1000

  0
LAYER
  5
142A
330
2
100
AcDbSymbolTableRecord
100
AcDbLayerTableRecord
  2
テンプレート
 70
     0
 62
     7
  6
Continuous
370
    20
390
1D
347
266
1001
AcAecLayerStandard
1000

1000

  0
LAYER
  5
1D5C
330
2
100
AcDbSymbolTableRecord
100
AcDbLayerTableRecord
  2
TFORMLOGO
 70
     0
 62
     7
  6
Continuous
370
    20
390
1D
347
266
  0
LAYER
  5
3848
330
2
100
AcDbSymbolTableRecord
100
AcDbLayerTableRecord
  2
PRINT BORDER
 70
     0
 62
    -4
  6
Continuous
370
    -3
390
1D
347
266
1001
AcAecLayerStandard
1000

1000

  0
LAYER
  5
387B
330
2
100
AcDbSymbolTableRecord
100
AcDbLayerTableRecord
  2
レイヤー 2
 70
     0
 62
     7
  6
Continuous
370
    -3
390
1D
347
266
  0
ENDTAB
  0
TABLE
  2
STYLE
  5
3
330
0
100
AcDbSymbolTable
 70
     2
  0
STYLE
  5
17
330
3
100
AcDbSymbolTableRecord
100
AcDbTextStyleTableRecord
  2
Standard
 70
     0
 40
0.0
 41
1.0
 50
0.0
 71
     0
 42
2.5
  3
txt
  4
BIGFONT.SHX
  0
STYLE
  5
39
330
3
100
AcDbSymbolTableRecord
100
AcDbTextStyleTableRecord
  2
ＭＳ ゴシック
 70
     0
 40
0.0
 41
1.0
 50
0.0
 71
     0
 42
2.5
  3
msgothic.ttc
  4
ＭＳ ゴシック
1001
ACAD
1000
ＭＳ ゴシック
1071
        0
  0
ENDTAB
  0
TABLE
  2
VIEW
  5
5
330
0
100
AcDbSymbolTable
 70
     0
  0
ENDTAB
  0
TABLE
  2
UCS
  5
6
330
0
100
AcDbSymbolTable
 70
     0
  0
ENDTAB
  0
TABLE
  2
APPID
  5
8
330
0
100
AcDbSymbolTable
 70
     3
  0
APPID
  5
16
330
8
100
AcDbSymbolTableRecord
100
AcDbRegAppTableRecord
  2
ACAD
 70
     0
  0
APPID
  5
7AC
330
8
100
AcDbSymbolTableRecord
100
AcDbRegAppTableRecord
  2
AcAecLayerStandard
 70
     0
  0
APPID
  5
447D
330
8
100
AcDbSymbolTableRecord
100
AcDbRegAppTableRecord
  2
ACAD_MLEADERVER
 70
     0
  0
ENDTAB
  0
TABLE
  2
DIMSTYLE
  5
9
330
0
100
AcDbSymbolTable
 70
     2
100
AcDbDimStyleTable
  0
DIMSTYLE
105
18
330
9
100
AcDbSymbolTableRecord
100
AcDbDimStyleTableRecord
  2
Standard
 70
     0
178
     0
340
17
  0
DIMSTYLE
105
57
102
{ACAD_REACTORS
330
3FD0
330
3FD1
330
3FD2
330
3FD6
330
40A9
330
40AA
330
40AB
330
40AC
330
40DD
330
41FB
330
420B
330
421A
330
4234
330
424E
330
425B
330
427C
330
4292
330
429F
330
42C3
330
42D0
330
42DD
330
43FE
102
}
330
9
100
AcDbSymbolTableRecord
100
AcDbDimStyleTableRecord
  2
tfrom線あり
 70
     0
  3
<>
  4
[]
 41
2.0
 42
5.0
 43
0.9999999999999999
 44
0.0
 73
     0
 74
     0
 77
     1
 78
    11
140
5.0
141
0.0
143
1.0
147
3.0
171
     1
174
     1
178
     0
179
     2
271
     0
272
     1
276
     2
284
    11
285
    11
286
    11
289
     0
340
39
341
4E
342
4E
  0
ENDTAB
  0
TABLE
  2
BLOCK_RECORD
  5
1
330
0
100
AcDbSymbolTable
 70
    99
  0
BLOCK_RECORD
  5
A
102
{ACAD_XDICTIONARY
360
4326
102
}
330
1
100
AcDbSymbolTableRecord
100
AcDbBlockTableRecord
  2
*MODEL_SPACE
340
20
 70
     0
280
     1
281
     0
  0
BLOCK_RECORD
  5
B
330
1
100
AcDbSymbolTableRecord
100
AcDbBlockTableRecord
  2
*PAPER_SPACE
340
21
 70
     0
280
     1
281
     0
  0
BLOCK_RECORD
  5
4E
330
1
100
AcDbSymbolTableRecord
100
AcDbBlockTableRecord
  2
_DOT
340
0
102
{BLKREFS
331
37E4
331
37E5
331
37F0
331
37F1
331
37FC
331
37FD
331
3808
331
3809
331
3814
331
3815
331
3820
331
3821
331
382C
331
382D
331
3838
331
3839
331
3964
331
3965
331
3973
331
3974
331
3982
331
3983
331
3991
331
3992
331
399E
331
399F
331
39AD
331
39AE
331
39BC
331
39BD
331
39CB
331
39CC
331
39E7
331
39E8
331
39F6
331
39F7
331
3AE6
331
3AE7
331
3AF2
331
3AF3
331
3AFE
331
3AFF
331
3B0A
331
3B0B
331
3B16
331
3B17
331
3B22
331
3B23
331
3B2E
331
3B2F
331
3B3A
331
3B3B
331
3B46
331
3B47
331
3B52
331
3B53
331
3BDF
331
3BE0
331
3BEE
331
3BEF
331
3BFD
331
3BFE
331
3C0C
331
3C0D
331
3C19
331
3C1A
331
3C26
331
3C27
331
3C35
331
3C36
331
3C54
331
3C55
331
3C63
331
3C64
331
3C72
331
3C73
331
3CEB
331
3CEC
331
3CF7
331
3CF8
331
3D03
331
3D04
331
3D0F
331
3D10
331
3D1B
331
3D1C
331
3D27
331
3D28
331
3D33
331
3D34
331
3D3F
331
3D40
331
3D4B
331
3D4C
331
3D57
331
3D58
331
3E18
331
3E19
331
3E27
331
3E28
331
3E36
331
3E37
331
3E45
331
3E46
331
3E52
331
3E53
331
3E5F
331
3E60
331
3E6E
331
3E6F
331
3E8D
331
3E8E
331
3E9C
331
3E9D
331
3EAB
331
3EAC
331
3F33
331
3F34
331
3F40
331
3F41
331
3F4D
331
3F4E
331
3F5A
331
3F5B
331
3F69
331
3F6A
331
3F77
331
3F78
331
3FE1
331
3FE2
331
3FED
331
3FEE
331
3FF9
331
3FFA
331
4005
331
4006
331
4011
331
4012
331
401C
331
401D
331
404F
331
4050
331
405D
331
405E
331
406B
331
406C
331
40B3
331
40B4
331
40BF
331
40C0
331
40CB
331
40CC
331
40D7
331
40D8
331
40E6
331
40E7
331
41AA
331
41AB
331
4204
331
4205
331
4214
331
4215
331
4223
331
4224
331
423B
331
423C
331
4248
331
4249
331
4255
331
4256
331
4264
331
4265
331
4283
331
4284
331
4299
331
429A
331
42A6
331
42A7
331
42CA
331
42CB
331
42D7
331
42D8
331
42E4
331
42E5
102
}
 70
     0
280
     1
281
     0
  0
BLOCK_RECORD
  5
12C3
330
1
100
AcDbSymbolTableRecord
100
AcDbBlockTableRecord
  2
*Paper_Space1
340
12C4
 70
     0
280
     1
281
     0
  0
BLOCK_RECORD
  5
1D88
330
1
100
AcDbSymbolTableRecord
100
AcDbBlockTableRecord
  2
名称未設定-1
340
0
102
{BLKREFS
331
36E3
102
}
 70
     1
280
     1
281
     0
  0
BLOCK_RECORD
  5
1D8B
330
1
100
AcDbSymbolTableRecord
100
AcDbBlockTableRecord
  2
block 2
340
0
102
{BLKREFS
331
1D8A
102
}
 70
     0
280
     1
281
     0
  0
BLOCK_RECORD
  5
1D8E
330
1
100
AcDbSymbolTableRecord
100
AcDbBlockTableRecord
  2
block 3
340
0
102
{BLKREFS
331
1D8D
102
}
 70
     0
280
     1
281
     0
  0
BLOCK_RECORD
  5
1D91
330
1
100
AcDbSymbolTableRecord
100
AcDbBlockTableRecord
  2
block 4
340
0
102
{BLKREFS
331
1D90
102
}
 70
     0
280
     1
281
     0
  0
BLOCK_RECORD
  5
1DA0
330
1
100
AcDbSymbolTableRecord
100
AcDbBlockTableRecord
  2
block 5
340
0
102
{BLKREFS
331
1D9F
102
}
 70
     0
280
     1
281
     0
  0
BLOCK_RECORD
  5
37DF
330
1
100
AcDbSymbolTableRecord
100
AcDbBlockTableRecord
  2
*D7
340
0
 70
     0
280
     1
281
     0
  0
BLOCK_RECORD
  5
37EA
330
1
100
AcDbSymbolTableRecord
100
AcDbBlockTableRecord
  2
*D8
340
0
 70
     0
280
     1
281
     0
  0
BLOCK_RECORD
  5
37F6
330
1
100
AcDbSymbolTableRecord
100
AcDbBlockTableRecord
  2
*D9
340
0
 70
     0
280
     1
281
     0
  0
BLOCK_RECORD
  5
3802
330
1
100
AcDbSymbolTableRecord
100
AcDbBlockTableRecord
  2
*D10
340
0
 70
     0
280
     1
281
     0
  0
BLOCK_RECORD
  5
380E
330
1
100
AcDbSymbolTableRecord
100
AcDbBlockTableRecord
  2
*D11
340
0
 70
     0
280
     1
281
     0
  0
BLOCK_RECORD
  5
381A
330
1
100
AcDbSymbolTableRecord
100
AcDbBlockTableRecord
  2
*D12
340
0
 70
     0
280
     1
281
     0
  0
BLOCK_RECORD
  5
3826
330
1
100
AcDbSymbolTableRecord
100
AcDbBlockTableRecord
  2
*D13
340
0
 70
     0
280
     1
281
     0
  0
BLOCK_RECORD
  5
3832
330
1
100
AcDbSymbolTableRecord
100
AcDbBlockTableRecord
  2
*D14
340
0
 70
     0
280
     1
281
     0
  0
BLOCK_RECORD
  5
395F
330
1
100
AcDbSymbolTableRecord
100
AcDbBlockTableRecord
  2
*D15
340
0
 70
     0
280
     1
281
     0
  0
BLOCK_RECORD
  5
396E
330
1
100
AcDbSymbolTableRecord
100
AcDbBlockTableRecord
  2
*D16
340
0
 70
     0
280
     1
281
     0
  0
BLOCK_RECORD
  5
397D
330
1
100
AcDbSymbolTableRecord
100
AcDbBlockTableRecord
  2
*D17
340
0
 70
     0
280
     1
281
     0
  0
BLOCK_RECORD
  5
398C
330
1
100
AcDbSymbolTableRecord
100
AcDbBlockTableRecord
  2
*D18
340
0
 70
     0
280
     1
281
     0
  0
BLOCK_RECORD
  5
3999
330
1
100
AcDbSymbolTableRecord
100
AcDbBlockTableRecord
  2
*D19
340
0
 70
     0
280
     1
281
     0
  0
BLOCK_RECORD
  5
39A8
330
1
100
AcDbSymbolTableRecord
100
AcDbBlockTableRecord
  2
*D20
340
0
 70
     0
280
     1
281
     0
  0
BLOCK_RECORD
  5
39B7
330
1
100
AcDbSymbolTableRecord
100
AcDbBlockTableRecord
  2
*D21
340
0
 70
     0
280
     1
281
     0
  0
BLOCK_RECORD
  5
39C6
330
1
100
AcDbSymbolTableRecord
100
AcDbBlockTableRecord
  2
*D22
340
0
 70
     0
280
     1
281
     0
  0
BLOCK_RECORD
  5
39E2
330
1
100
AcDbSymbolTableRecord
100
AcDbBlockTableRecord
  2
*D23
340
0
 70
     0
280
     1
281
     0
  0
BLOCK_RECORD
  5
39F1
330
1
100
AcDbSymbolTableRecord
100
AcDbBlockTableRecord
  2
*D24
340
0
 70
     0
280
     1
281
     0
  0
BLOCK_RECORD
  5
3AE0
330
1
100
AcDbSymbolTableRecord
100
AcDbBlockTableRecord
  2
*D25
340
0
 70
     0
280
     1
281
     0
  0
BLOCK_RECORD
  5
3AEC
330
1
100
AcDbSymbolTableRecord
100
AcDbBlockTableRecord
  2
*D26
340
0
 70
     0
280
     1
281
     0
  0
BLOCK_RECORD
  5
3AF8
330
1
100
AcDbSymbolTableRecord
100
AcDbBlockTableRecord
  2
*D27
340
0
 70
     0
280
     1
281
     0
  0
BLOCK_RECORD
  5
3B04
330
1
100
AcDbSymbolTableRecord
100
AcDbBlockTableRecord
  2
*D28
340
0
 70
     0
280
     1
281
     0
  0
BLOCK_RECORD
  5
3B10
330
1
100
AcDbSymbolTableRecord
100
AcDbBlockTableRecord
  2
*D29
340
0
 70
     0
280
     1
281
     0
  0
BLOCK_RECORD
  5
3B1C
330
1
100
AcDbSymbolTableRecord
100
AcDbBlockTableRecord
  2
*D30
340
0
 70
     0
280
     1
281
     0
  0
BLOCK_RECORD
  5
3B28
330
1
100
AcDbSymbolTableRecord
100
AcDbBlockTableRecord
  2
*D31
340
0
 70
     0
280
     1
281
     0
  0
BLOCK_RECORD
  5
3B34
330
1
100
AcDbSymbolTableRecord
100
AcDbBlockTableRecord
  2
*D32
340
0
 70
     0
280
     1
281
     0
  0
BLOCK_RECORD
  5
3B40
330
1
100
AcDbSymbolTableRecord
100
AcDbBlockTableRecord
  2
*D33
340
0
 70
     0
280
     1
281
     0
  0
BLOCK_RECORD
  5
3B4C
330
1
100
AcDbSymbolTableRecord
100
AcDbBlockTableRecord
  2
*D34
340
0
 70
     0
280
     1
281
     0
  0
BLOCK_RECORD
  5
3BDA
330
1
100
AcDbSymbolTableRecord
100
AcDbBlockTableRecord
  2
*D35
340
0
 70
     0
280
     1
281
     0
  0
BLOCK_RECORD
  5
3BE9
330
1
100
AcDbSymbolTableRecord
100
AcDbBlockTableRecord
  2
*D36
340
0
 70
     0
280
     1
281
     0
  0
BLOCK_RECORD
  5
3BF8
330
1
100
AcDbSymbolTableRecord
100
AcDbBlockTableRecord
  2
*D37
340
0
 70
     0
280
     1
281
     0
  0
BLOCK_RECORD
  5
3C07
330
1
100
AcDbSymbolTableRecord
100
AcDbBlockTableRecord
  2
*D38
340
0
 70
     0
280
     1
281
     0
  0
BLOCK_RECORD
  5
3C14
330
1
100
AcDbSymbolTableRecord
100
AcDbBlockTableRecord
  2
*D39
340
0
 70
     0
280
     1
281
     0
  0
BLOCK_RECORD
  5
3C21
330
1
100
AcDbSymbolTableRecord
100
AcDbBlockTableRecord
  2
*D40
340
0
 70
     0
280
     1
281
     0
  0
BLOCK_RECORD
  5
3C30
330
1
100
AcDbSymbolTableRecord
100
AcDbBlockTableRecord
  2
*D41
340
0
 70
     0
280
     1
281
     0
  0
BLOCK_RECORD
  5
3C4F
330
1
100
AcDbSymbolTableRecord
100
AcDbBlockTableRecord
  2
*D42
340
0
 70
     0
280
     1
281
     0
  0
BLOCK_RECORD
  5
3C5E
330
1
100
AcDbSymbolTableRecord
100
AcDbBlockTableRecord
  2
*D43
340
0
 70
     0
280
     1
281
     0
  0
BLOCK_RECORD
  5
3C6D
330
1
100
AcDbSymbolTableRecord
100
AcDbBlockTableRecord
  2
*D44
340
0
 70
     0
280
     1
281
     0
  0
BLOCK_RECORD
  5
3CE5
330
1
100
AcDbSymbolTableRecord
100
AcDbBlockTableRecord
  2
*D45
340
0
 70
     0
280
     1
281
     0
  0
BLOCK_RECORD
  5
3CF1
330
1
100
AcDbSymbolTableRecord
100
AcDbBlockTableRecord
  2
*D46
340
0
 70
     0
280
     1
281
     0
  0
BLOCK_RECORD
  5
3CFD
330
1
100
AcDbSymbolTableRecord
100
AcDbBlockTableRecord
  2
*D47
340
0
 70
     0
280
     1
281
     0
  0
BLOCK_RECORD
  5
3D09
330
1
100
AcDbSymbolTableRecord
100
AcDbBlockTableRecord
  2
*D48
340
0
 70
     0
280
     1
281
     0
  0
BLOCK_RECORD
  5
3D15
330
1
100
AcDbSymbolTableRecord
100
AcDbBlockTableRecord
  2
*D49
340
0
 70
     0
280
     1
281
     0
  0
BLOCK_RECORD
  5
3D21
330
1
100
AcDbSymbolTableRecord
100
AcDbBlockTableRecord
  2
*D50
340
0
 70
     0
280
     1
281
     0
  0
BLOCK_RECORD
  5
3D2D
330
1
100
AcDbSymbolTableRecord
100
AcDbBlockTableRecord
  2
*D51
340
0
 70
     0
280
     1
281
     0
  0
BLOCK_RECORD
  5
3D39
330
1
100
AcDbSymbolTableRecord
100
AcDbBlockTableRecord
  2
*D52
340
0
 70
     0
280
     1
281
     0
  0
BLOCK_RECORD
  5
3D45
330
1
100
AcDbSymbolTableRecord
100
AcDbBlockTableRecord
  2
*D53
340
0
 70
     0
280
     1
281
     0
  0
BLOCK_RECORD
  5
3D51
330
1
100
AcDbSymbolTableRecord
100
AcDbBlockTableRecord
  2
*D54
340
0
 70
     0
280
     1
281
     0
  0
BLOCK_RECORD
  5
3E13
330
1
100
AcDbSymbolTableRecord
100
AcDbBlockTableRecord
  2
*D55
340
0
 70
     0
280
     1
281
     0
  0
BLOCK_RECORD
  5
3E22
330
1
100
AcDbSymbolTableRecord
100
AcDbBlockTableRecord
  2
*D56
340
0
 70
     0
280
     1
281
     0
  0
BLOCK_RECORD
  5
3E31
330
1
100
AcDbSymbolTableRecord
100
AcDbBlockTableRecord
  2
*D57
340
0
 70
     0
280
     1
281
     0
  0
BLOCK_RECORD
  5
3E40
330
1
100
AcDbSymbolTableRecord
100
AcDbBlockTableRecord
  2
*D58
340
0
 70
     0
280
     1
281
     0
  0
BLOCK_RECORD
  5
3E4D
330
1
100
AcDbSymbolTableRecord
100
AcDbBlockTableRecord
  2
*D59
340
0
 70
     0
280
     1
281
     0
  0
BLOCK_RECORD
  5
3E5A
330
1
100
AcDbSymbolTableRecord
100
AcDbBlockTableRecord
  2
*D60
340
0
 70
     0
280
     1
281
     0
  0
BLOCK_RECORD
  5
3E69
330
1
100
AcDbSymbolTableRecord
100
AcDbBlockTableRecord
  2
*D61
340
0
 70
     0
280
     1
281
     0
  0
BLOCK_RECORD
  5
3E88
330
1
100
AcDbSymbolTableRecord
100
AcDbBlockTableRecord
  2
*D62
340
0
 70
     0
280
     1
281
     0
  0
BLOCK_RECORD
  5
3E97
330
1
100
AcDbSymbolTableRecord
100
AcDbBlockTableRecord
  2
*D63
340
0
 70
     0
280
     1
281
     0
  0
BLOCK_RECORD
  5
3EA6
330
1
100
AcDbSymbolTableRecord
100
AcDbBlockTableRecord
  2
*D64
340
0
 70
     0
280
     1
281
     0
  0
BLOCK_RECORD
  5
3F2E
330
1
100
AcDbSymbolTableRecord
100
AcDbBlockTableRecord
  2
*D65
340
0
 70
     0
280
     1
281
     0
  0
BLOCK_RECORD
  5
3F3B
330
1
100
AcDbSymbolTableRecord
100
AcDbBlockTableRecord
  2
*D66
340
0
 70
     0
280
     1
281
     0
  0
BLOCK_RECORD
  5
3F48
330
1
100
AcDbSymbolTableRecord
100
AcDbBlockTableRecord
  2
*D67
340
0
 70
     0
280
     1
281
     0
  0
BLOCK_RECORD
  5
3F55
330
1
100
AcDbSymbolTableRecord
100
AcDbBlockTableRecord
  2
*D68
340
0
 70
     0
280
     1
281
     0
  0
BLOCK_RECORD
  5
3F64
330
1
100
AcDbSymbolTableRecord
100
AcDbBlockTableRecord
  2
*D69
340
0
 70
     0
280
     1
281
     0
  0
BLOCK_RECORD
  5
3F73
330
1
100
AcDbSymbolTableRecord
100
AcDbBlockTableRecord
  2
*D70
340
0
 70
     0
280
     1
281
     0
  0
BLOCK_RECORD
  5
3FDB
330
1
100
AcDbSymbolTableRecord
100
AcDbBlockTableRecord
  2
*D71
340
0
 70
     0
280
     1
281
     0
  0
BLOCK_RECORD
  5
3FE7
330
1
100
AcDbSymbolTableRecord
100
AcDbBlockTableRecord
  2
*D72
340
0
 70
     0
280
     1
281
     0
  0
BLOCK_RECORD
  5
3FF3
330
1
100
AcDbSymbolTableRecord
100
AcDbBlockTableRecord
  2
*D73
340
0
 70
     0
280
     1
281
     0
  0
BLOCK_RECORD
  5
3FFF
330
1
100
AcDbSymbolTableRecord
100
AcDbBlockTableRecord
  2
*D74
340
0
 70
     0
280
     1
281
     0
  0
BLOCK_RECORD
  5
400B
330
1
100
AcDbSymbolTableRecord
100
AcDbBlockTableRecord
  2
*D75
340
0
 70
     0
280
     1
281
     0
  0
BLOCK_RECORD
  5
4017
330
1
100
AcDbSymbolTableRecord
100
AcDbBlockTableRecord
  2
*D76
340
0
 70
     0
280
     1
281
     0
  0
BLOCK_RECORD
  5
4049
330
1
100
AcDbSymbolTableRecord
100
AcDbBlockTableRecord
  2
*D77
340
0
 70
     0
280
     1
281
     0
  0
BLOCK_RECORD
  5
4057
330
1
100
AcDbSymbolTableRecord
100
AcDbBlockTableRecord
  2
*D78
340
0
 70
     0
280
     1
281
     0
  0
BLOCK_RECORD
  5
4065
330
1
100
AcDbSymbolTableRecord
100
AcDbBlockTableRecord
  2
*D79
340
0
 70
     0
280
     1
281
     0
  0
BLOCK_RECORD
  5
40AD
330
1
100
AcDbSymbolTableRecord
100
AcDbBlockTableRecord
  2
*D80
340
0
 70
     0
280
     1
281
     0
  0
BLOCK_RECORD
  5
40B9
330
1
100
AcDbSymbolTableRecord
100
AcDbBlockTableRecord
  2
*D81
340
0
 70
     0
280
     1
281
     0
  0
BLOCK_RECORD
  5
40C5
330
1
100
AcDbSymbolTableRecord
100
AcDbBlockTableRecord
  2
*D82
340
0
 70
     0
280
     1
281
     0
  0
BLOCK_RECORD
  5
40D1
330
1
100
AcDbSymbolTableRecord
100
AcDbBlockTableRecord
  2
*D83
340
0
 70
     0
280
     1
281
     0
  0
BLOCK_RECORD
  5
40E0
330
1
100
AcDbSymbolTableRecord
100
AcDbBlockTableRecord
  2
*D84
340
0
 70
     0
280
     1
281
     0
  0
BLOCK_RECORD
  5
41A3
330
1
100
AcDbSymbolTableRecord
100
AcDbBlockTableRecord
  2
*D85
340
0
 70
     0
280
     1
281
     0
  0
BLOCK_RECORD
  5
41FE
330
1
100
AcDbSymbolTableRecord
100
AcDbBlockTableRecord
  2
*D86
340
0
 70
     0
280
     1
281
     0
  0
BLOCK_RECORD
  5
420E
330
1
100
AcDbSymbolTableRecord
100
AcDbBlockTableRecord
  2
*D87
340
0
 70
     0
280
     1
281
     0
  0
BLOCK_RECORD
  5
421D
330
1
100
AcDbSymbolTableRecord
100
AcDbBlockTableRecord
  2
*D88
340
0
 70
     0
280
     1
281
     0
  0
BLOCK_RECORD
  5
4235
330
1
100
AcDbSymbolTableRecord
100
AcDbBlockTableRecord
  2
*D89
340
0
 70
     0
280
     1
281
     0
  0
BLOCK_RECORD
  5
4242
330
1
100
AcDbSymbolTableRecord
100
AcDbBlockTableRecord
  2
*D90
340
0
 70
     0
280
     1
281
     0
  0
BLOCK_RECORD
  5
424F
330
1
100
AcDbSymbolTableRecord
100
AcDbBlockTableRecord
  2
*D91
340
0
 70
     0
280
     1
281
     0
  0
BLOCK_RECORD
  5
425E
330
1
100
AcDbSymbolTableRecord
100
AcDbBlockTableRecord
  2
*D92
340
0
 70
     0
280
     1
281
     0
  0
BLOCK_RECORD
  5
427D
330
1
100
AcDbSymbolTableRecord
100
AcDbBlockTableRecord
  2
*D93
340
0
 70
     0
280
     1
281
     0
  0
BLOCK_RECORD
  5
4293
330
1
100
AcDbSymbolTableRecord
100
AcDbBlockTableRecord
  2
*D94
340
0
 70
     0
280
     1
281
     0
  0
BLOCK_RECORD
  5
42A0
330
1
100
AcDbSymbolTableRecord
100
AcDbBlockTableRecord
  2
*D95
340
0
 70
     0
280
     1
281
     0
  0
BLOCK_RECORD
  5
42C4
330
1
100
AcDbSymbolTableRecord
100
AcDbBlockTableRecord
  2
*D96
340
0
 70
     0
280
     1
281
     0
  0
BLOCK_RECORD
  5
42D1
330
1
100
AcDbSymbolTableRecord
100
AcDbBlockTableRecord
  2
*D97
340
0
 70
     0
280
     1
281
     0
  0
BLOCK_RECORD
  5
42DE
330
1
100
AcDbSymbolTableRecord
100
AcDbBlockTableRecord
  2
*D98
340
0
 70
     0
280
     1
281
     0
  0
ENDTAB
  0
ENDSEC
  0
SECTION
  2
BLOCKS
  0
BLOCK
  5
D
330
A
100
AcDbEntity
  8
0
390
1D
100
AcDbBlockBegin
  2
*MODEL_SPACE
 70
     0
 10
0.0
 20
0.0
 30
0.0
  3
*MODEL_SPACE
  1
*MODEL_SPACE
  0
ENDBLK
  5
E
330
A
100
AcDbEntity
  8
0
390
1D
100
AcDbBlockEnd
  0
BLOCK
  5
F
330
B
100
AcDbEntity
 67
     1
  8
0
390
1D
100
AcDbBlockBegin
  2
*PAPER_SPACE
 70
     0
 10
0.0
 20
0.0
 30
0.0
  3
*PAPER_SPACE
  1
*PAPER_SPACE
  0
ENDBLK
  5
10
330
B
100
AcDbEntity
 67
     1
  8
0
390
1D
100
AcDbBlockEnd
  0
BLOCK
  5
42B5
330
4E
100
AcDbEntity
  8
0
390
1D
100
AcDbBlockBegin
  2
_DOT
 70
     0
 10
0.0
 20
0.0
 30
0.0
  3
_DOT
  1
_DOT
  0
POLYLINE
  5
42B7
330
4E
100
AcDbEntity
  8
0
  6
ByBlock
 62
     0
370
    -2
390
1D
100
AcDb2dPolyline
 66
     1
 10
0.0
 20
0.0
 30
0.0
 70
     1
 40
0.5
 41
0.5
  0
VERTEX
  5
42B8
330
42B7
100
AcDbEntity
  8
0
  6
ByBlock
 62
     0
370
    -2
390
1D
100
AcDbVertex
100
AcDb2dVertex
 10
-0.25
 20
0.0
 30
0.0
 42
1.0
  0
VERTEX
  5
42B9
330
42B7
100
AcDbEntity
  8
0
  6
ByBlock
 62
     0
370
    -2
390
1D
100
AcDbVertex
100
AcDb2dVertex
 10
0.25
 20
0.0
 30
0.0
 42
1.0
  0
SEQEND
  5
42BA
330
42B7
100
AcDbEntity
  8
0
390
1D
  0
LINE
  5
42BB
330
4E
100
AcDbEntity
  8
0
  6
ByBlock
 62
     0
370
    -2
390
1D
100
AcDbLine
 10
-0.5
 20
0.0
 30
0.0
 11
-1.0
 21
0.0
 31
0.0
  0
ENDBLK
  5
42BC
330
4E
100
AcDbEntity
  8
0
390
1D
100
AcDbBlockEnd
  0
BLOCK
  5
12C5
330
12C3
100
AcDbEntity
  8
0
100
AcDbBlockBegin
  2
*Paper_Space1
 70
     0
 10
0.0
 20
0.0
 30
0.0
  3
*Paper_Space1
  1
*Paper_Space83
  0
ENDBLK
  5
12C6
330
12C3
100
AcDbEntity
  8
0
100
AcDbBlockEnd
  0
BLOCK
  5
1D89
330
1D88
100
AcDbEntity
  8
0
100
AcDbBlockBegin
  2
名称未設定-1
 70
     0
 10
0.0
 20
0.0
 30
0.0
  3
名称未設定-1
  1
名称未設定-1
  0
INSERT
  5
1D8A
330
1D88
100
AcDbEntity
  8
TFORMLOGO
100
AcDbBlockReference
  2
block 2
 10
0.0
 20
0.0
 30
0.0
  0
ENDBLK
  5
1DAF
330
1D88
100
AcDbEntity
  8
0
100
AcDbBlockEnd
  0
BLOCK
  5
1D8C
330
1D8B
100
AcDbEntity
  8
0
100
AcDbBlockBegin
  2
block 2
 70
     0
 10
0.0
 20
0.0
 30
0.0
  3
block 2
  1
block 2
  0
INSERT
  5
1D8D
330
1D8B
100
AcDbEntity
  8
TFORMLOGO
100
AcDbBlockReference
  2
block 3
 10
0.0
 20
0.0
 30
0.0
  0
ENDBLK
  5
1DAE
330
1D8B
100
AcDbEntity
  8
0
100
AcDbBlockEnd
  0
BLOCK
  5
1D8F
330
1D8E
100
AcDbEntity
  8
0
100
AcDbBlockBegin
  2
block 3
 70
     0
 10
0.0
 20
0.0
 30
0.0
  3
block 3
  1
block 3
  0
INSERT
  5
1D90
330
1D8E
100
AcDbEntity
  8
TFORMLOGO
100
AcDbBlockReference
  2
block 4
 10
0.0
 20
0.0
 30
0.0
  0
ENDBLK
  5
1DAD
330
1D8E
100
AcDbEntity
  8
0
100
AcDbBlockEnd
  0
BLOCK
  5
1D92
330
1D91
100
AcDbEntity
  8
0
100
AcDbBlockBegin
  2
block 4
 70
     0
 10
0.0
 20
0.0
 30
0.0
  3
block 4
  1
block 4
  0
POLYLINE
  5
1D93
330
1D91
100
AcDbEntity
  8
TFORMLOGO
370
     0
100
AcDb2dPolyline
 66
     1
 10
0.0
 20
0.0
 30
0.0
  0
VERTEX
  5
1D94
330
1D93
100
AcDbEntity
  8
TFORMLOGO
370
     0
100
AcDbVertex
100
AcDb2dVertex
 10
83.79545727667795
 20
167.6444858234922
 30
0.0
  0
VERTEX
  5
1D95
330
1D93
100
AcDbEntity
  8
TFORMLOGO
370
     0
100
AcDbVertex
100
AcDb2dVertex
 10
83.79545727667795
 20
159.7968976406313
 30
0.0
  0
VERTEX
  5
1D96
330
1D93
100
AcDbEntity
  8
TFORMLOGO
370
     0
100
AcDbVertex
100
AcDb2dVertex
 10
71.3631329975216
 20
159.7968976406313
 30
0.0
  0
VERTEX
  5
1D97
330
1D93
100
AcDbEntity
  8
TFORMLOGO
370
     0
100
AcDbVertex
100
AcDb2dVertex
 10
71.3631329975216
 20
127.8027915271048
 30
0.0
  0
VERTEX
  5
1D98
330
1D93
100
AcDbEntity
  8
TFORMLOGO
370
     0
100
AcDbVertex
100
AcDb2dVertex
 10
60.43011526263018
 20
127.8027915271048
 30
0.0
  0
VERTEX
  5
1D99
330
1D93
100
AcDbEntity
  8
TFORMLOGO
370
     0
100
AcDbVertex
100
AcDb2dVertex
 10
60.43011526263018
 20
159.7968976406313
 30
0.0
  0
VERTEX
  5
1D9A
330
1D93
100
AcDbEntity
  8
TFORMLOGO
370
     0
100
AcDbVertex
100
AcDb2dVertex
 10
48.21793273020759
 20
159.7968976406313
 30
0.0
  0
VERTEX
  5
1D9B
330
1D93
100
AcDbEntity
  8
TFORMLOGO
370
     0
100
AcDbVertex
100
AcDb2dVertex
 10
48.21793273020759
 20
167.6444858234922
 30
0.0
  0
VERTEX
  5
1D9C
330
1D93
100
AcDbEntity
  8
TFORMLOGO
370
     0
100
AcDbVertex
100
AcDb2dVertex
 10
83.79545727667795
 20
167.6444858234922
 30
0.0
  0
SEQEND
  5
1D9D
330
1D93
100
AcDbEntity
  8
TFORMLOGO
370
     0
  0
HATCH
  5
1D9E
330
1D91
100
AcDbEntity
  8
TFORMLOGO
 62
   250
420
  2234388
100
AcDbHatch
 10
0.0
 20
0.0
 30
0.0
210
0.0
220
0.0
230
1.0
  2
SOLID
 70
     1
 71
     0
 91
        1
 92
        1
 93
        8
 72
     1
 10
83.79545727667795
 20
167.6444858234922
 11
83.79545727667795
 21
159.7968976406313
 72
     1
 10
83.79545727667795
 20
159.7968976406313
 11
71.3631329975216
 21
159.7968976406313
 72
     1
 10
71.3631329975216
 20
159.7968976406313
 11
71.3631329975216
 21
127.8027915271048
 72
     1
 10
71.3631329975216
 20
127.8027915271048
 11
60.43011526263018
 21
127.8027915271048
 72
     1
 10
60.43011526263018
 20
127.8027915271048
 11
60.43011526263018
 21
159.7968976406313
 72
     1
 10
60.43011526263018
 20
159.7968976406313
 11
48.21793273020759
 21
159.7968976406313
 72
     1
 10
48.21793273020759
 20
159.7968976406313
 11
48.21793273020759
 21
167.6444858234922
 72
     1
 10
48.21793273020759
 20
167.6444858234922
 11
83.79545727667795
 21
167.6444858234922
 97
        0
 75
     2
 76
     1
 98
        0
  0
INSERT
  5
1D9F
330
1D91
100
AcDbEntity
  8
TFORMLOGO
100
AcDbBlockReference
  2
block 5
 10
0.0
 20
0.0
 30
0.0
  0
ENDBLK
  5
1DAC
330
1D91
100
AcDbEntity
  8
0
100
AcDbBlockEnd
  0
BLOCK
  5
1DA1
330
1DA0
100
AcDbEntity
  8
0
100
AcDbBlockBegin
  2
block 5
 70
     0
 10
0.0
 20
0.0
 30
0.0
  3
block 5
  1
block 5
  0
SPLINE
  5
1DA2
330
1DA0
100
AcDbEntity
  8
TFORMLOGO
370
     0
100
AcDbSpline
210
0.0
220
0.0
230
1.0
 70
    11
 71
     3
 72
    56
 73
    52
 74
     0
 42
0.000000001
 43
0.0000000001
 40
0.0
 40
0.0
 40
0.0
 40
0.0
 40
1.0
 40
1.0
 40
1.0
 40
2.0
 40
2.0
 40
2.0
 40
3.0
 40
3.0
 40
3.0
 40
4.0
 40
4.0
 40
4.0
 40
5.0
 40
5.0
 40
5.0
 40
6.0
 40
6.0
 40
6.0
 40
7.0
 40
7.0
 40
7.0
 40
8.0
 40
8.0
 40
8.0
 40
9.0
 40
9.0
 40
9.0
 40
10.0
 40
10.0
 40
10.0
 40
11.0
 40
11.0
 40
11.0
 40
12.0
 40
12.0
 40
12.0
 40
13.0
 40
13.0
 40
13.0
 40
14.0
 40
14.0
 40
14.0
 40
15.0
 40
15.0
 40
15.0
 40
16.0
 40
16.0
 40
16.0
 40
17.0
 40
17.0
 40
17.0
 40
17.0
 10
100.4504378777679
 20
166.69157178364
 30
0.0
 10
101.9848844191641
 20
167.1313385124438
 30
0.0
 10
103.9637485713373
 20
166.7649523658846
 30
0.0
 10
103.9637485713373
 20
166.7649523658846
 30
0.0
 10
103.9637485713373
 20
166.7649523658846
 30
0.0
 10
103.0132460999156
 20
163.911205638077
 30
0.0
 10
103.0132460999156
 20
163.911205638077
 30
0.0
 10
103.0132460999156
 20
163.911205638077
 30
0.0
 10
101.0674548862189
 20
164.3601018759394
 30
0.0
 10
99.57090442016032
 20
163.1805004036133
 30
0.0
 10
98.40508333886608
 20
162.258247733807
 30
0.0
 10
97.65301849830304
 20
159.804132345923
 30
0.0
 10
97.3598406791005
 20
158.8699940888517
 30
0.0
 10
97.3598406791005
 20
158.8699940888517
 30
0.0
 10
96.07137411762282
 20
154.9119212747295
 30
0.0
 10
96.07137411762282
 20
154.9119212747295
 30
0.0
 10
96.07137411762282
 20
154.9119212747295
 30
0.0
 10
100.3012651448482
 20
154.9119212747295
 30
0.0
 10
100.3012651448482
 20
154.9119212747295
 30
0.0
 10
100.3012651448482
 20
154.9119212747295
 30
0.0
 10
99.64152892419852
 20
152.4199098115079
 30
0.0
 10
99.64152892419852
 20
152.4199098115079
 30
0.0
 10
99.64152892419852
 20
152.4199098115079
 30
0.0
 10
95.38097652692731
 20
152.4199098115079
 30
0.0
 10
95.38097652692731
 20
152.4199098115079
 30
0.0
 10
95.38097652692731
 20
152.4199098115079
 30
0.0
 10
87.75353009080013
 20
127.8027915271048
 30
0.0
 10
87.75353009080013
 20
127.8027915271048
 30
0.0
 10
87.75353009080013
 20
127.8027915271048
 30
0.0
 10
85.36538832498108
 20
127.8027915271048
 30
0.0
 10
85.36538832498108
 20
127.8027915271048
 30
0.0
 10
85.36538832498108
 20
127.8027915271048
 30
0.0
 10
93.00006946639998
 20
152.4199098115079
 30
0.0
 10
93.00006946639998
 20
152.4199098115079
 30
0.0
 10
93.00006946639998
 20
152.4199098115079
 30
0.0
 10
89.85297266450198
 20
152.4199098115079
 30
0.0
 10
89.85297266450198
 20
152.4199098115079
 30
0.0
 10
89.85297266450198
 20
152.4199098115079
 30
0.0
 10
90.51270888515164
 20
154.9119212747295
 30
0.0
 10
90.51270888515164
 20
154.9119212747295
 30
0.0
 10
90.51270888515164
 20
154.9119212747295
 30
0.0
 10
93.6904670570955
 20
154.9119212747295
 30
0.0
 10
93.6904670570955
 20
154.9119212747295
 30
0.0
 10
93.6904670570955
 20
154.9119212747295
 30
0.0
 10
94.81598049462158
 20
158.3616699146644
 30
0.0
 10
94.81598049462158
 20
158.3616699146644
 30
0.0
 10
95.7237637538445
 20
161.2605474231013
 30
0.0
 10
96.4968436907311
 20
162.8139420021662
 30
0.0
 10
97.15657991138076
 20
163.9844139654337
 30
0.0
 10
97.81183750494507
 20
165.1523021053827
 30
0.0
 10
99.1047826935081
 20
166.3084769129547
 30
0.0
 10
100.4504378777679
 20
166.69157178364
 30
0.0
  0
HATCH
  5
1DA3
330
1DA0
100
AcDbEntity
  8
TFORMLOGO
 62
   250
420
  2234388
100
AcDbHatch
 10
0.0
 20
0.0
 30
0.0
210
0.0
220
0.0
230
1.0
  2
SOLID
 70
     1
 71
     0
 91
        1
 92
        1
 93
        1
 72
     4
 94
        3
 73
     0
 74
     1
 95
       56
 96
       52
 40
0.0
 40
0.0
 40
0.0
 40
0.0
 40
1.0
 40
1.0
 40
1.0
 40
2.0
 40
2.0
 40
2.0
 40
3.0
 40
3.0
 40
3.0
 40
4.0
 40
4.0
 40
4.0
 40
5.0
 40
5.0
 40
5.0
 40
6.0
 40
6.0
 40
6.0
 40
7.0
 40
7.0
 40
7.0
 40
8.0
 40
8.0
 40
8.0
 40
9.0
 40
9.0
 40
9.0
 40
10.0
 40
10.0
 40
10.0
 40
11.0
 40
11.0
 40
11.0
 40
12.0
 40
12.0
 40
12.0
 40
13.0
 40
13.0
 40
13.0
 40
14.0
 40
14.0
 40
14.0
 40
15.0
 40
15.0
 40
15.0
 40
16.0
 40
16.0
 40
16.0
 40
17.0
 40
17.0
 40
17.0
 40
17.0
 10
100.4504378777679
 20
166.69157178364
 10
101.9848844191641
 20
167.1313385124438
 10
103.9637485713373
 20
166.7649523658846
 10
103.9637485713373
 20
166.7649523658846
 10
103.9637485713373
 20
166.7649523658846
 10
103.0132460999156
 20
163.911205638077
 10
103.0132460999156
 20
163.911205638077
 10
103.0132460999156
 20
163.911205638077
 10
101.0674548862189
 20
164.3601018759394
 10
99.57090442016032
 20
163.1805004036133
 10
98.40508333886608
 20
162.258247733807
 10
97.65301849830304
 20
159.804132345923
 10
97.3598406791005
 20
158.8699940888517
 10
97.3598406791005
 20
158.8699940888517
 10
96.07137411762282
 20
154.9119212747295
 10
96.07137411762282
 20
154.9119212747295
 10
96.07137411762282
 20
154.9119212747295
 10
100.3012651448482
 20
154.9119212747295
 10
100.3012651448482
 20
154.9119212747295
 10
100.3012651448482
 20
154.9119212747295
 10
99.64152892419852
 20
152.4199098115079
 10
99.64152892419852
 20
152.4199098115079
 10
99.64152892419852
 20
152.4199098115079
 10
95.38097652692731
 20
152.4199098115079
 10
95.38097652692731
 20
152.4199098115079
 10
95.38097652692731
 20
152.4199098115079
 10
87.75353009080013
 20
127.8027915271048
 10
87.75353009080013
 20
127.8027915271048
 10
87.75353009080013
 20
127.8027915271048
 10
85.36538832498108
 20
127.8027915271048
 10
85.36538832498108
 20
127.8027915271048
 10
85.36538832498108
 20
127.8027915271048
 10
93.00006946639998
 20
152.4199098115079
 10
93.00006946639998
 20
152.4199098115079
 10
93.00006946639998
 20
152.4199098115079
 10
89.85297266450198
 20
152.4199098115079
 10
89.85297266450198
 20
152.4199098115079
 10
89.85297266450198
 20
152.4199098115079
 10
90.51270888515164
 20
154.9119212747295
 10
90.51270888515164
 20
154.9119212747295
 10
90.51270888515164
 20
154.9119212747295
 10
93.6904670570955
 20
154.9119212747295
 10
93.6904670570955
 20
154.9119212747295
 10
93.6904670570955
 20
154.9119212747295
 10
94.81598049462158
 20
158.3616699146644
 10
94.81598049462158
 20
158.3616699146644
 10
95.7237637538445
 20
161.2605474231013
 10
96.4968436907311
 20
162.8139420021662
 10
97.15657991138076
 20
163.9844139654337
 10
97.81183750494507
 20
165.1523021053827
 10
99.1047826935081
 20
166.3084769129547
 10
100.4504378777679
 20
166.69157178364
 97
        0
 75
     2
 76
     1
 98
        0
  0
SPLINE
  5
1DA4
330
1DA0
100
AcDbEntity
  8
TFORMLOGO
370
     0
100
AcDbSpline
210
0.0
220
0.0
230
1.0
 70
    11
 71
     3
 72
    38
 73
    34
 74
     0
 42
0.000000001
 43
0.0000000001
 40
0.0
 40
0.0
 40
0.0
 40
0.0
 40
1.0
 40
1.0
 40
1.0
 40
2.0
 40
2.0
 40
2.0
 40
3.0
 40
3.0
 40
3.0
 40
4.0
 40
4.0
 40
4.0
 40
5.0
 40
5.0
 40
5.0
 40
6.0
 40
6.0
 40
6.0
 40
7.0
 40
7.0
 40
7.0
 40
8.0
 40
8.0
 40
8.0
 40
9.0
 40
9.0
 40
9.0
 40
10.0
 40
10.0
 40
10.0
 40
11.0
 40
11.0
 40
11.0
 40
11.0
 10
126.377554584636
 20
154.8151140277308
 30
0.0
 10
126.377554584636
 20
154.8151140277308
 30
0.0
 10
128.8311532078563
 20
154.8151140277308
 30
0.0
 10
128.8311532078563
 20
154.8151140277308
 30
0.0
 10
128.8311532078563
 20
154.8151140277308
 30
0.0
 10
127.7345785914971
 20
151.3062819612468
 30
0.0
 10
127.7345785914971
 20
151.3062819612468
 30
0.0
 10
128.571392836906
 20
152.2922689395754
 30
0.0
 10
129.8860421413442
 20
153.604506675583
 30
0.0
 10
131.0163787157314
 20
154.2664822097754
 30
0.0
 10
132.7044766171327
 20
155.2500576196734
 30
0.0
 10
133.6642808525008
 20
155.3847609420097
 30
0.0
 10
134.7284715499351
 20
155.3565111403944
 30
0.0
 10
134.7284715499351
 20
155.3565111403944
 30
0.0
 10
133.6877075172549
 20
152.0345756272799
 30
0.0
 10
133.6877075172549
 20
152.0345756272799
 30
0.0
 10
133.011434827367
 20
152.3184516825359
 30
0.0
 10
130.930940291334
 20
151.7768823149844
 30
0.0
 10
129.739280976855
 20
150.9162968950455
 30
0.0
 10
128.66613302525
 20
150.1454562717016
 30
0.0
 10
127.9192358313239
 20
149.4857200510519
 30
0.0
 10
127.0393578639405
 20
147.8282835196966
 30
0.0
 10
126.164647543194
 20
146.1699857139017
 30
0.0
 10
125.4742499524985
 20
143.5262176944419
 30
0.0
 10
124.2822461282437
 20
139.6959580071401
 30
0.0
 10
124.2822461282437
 20
139.6959580071401
 30
0.0
 10
120.5753209406769
 20
127.8027915271048
 30
0.0
 10
120.5753209406769
 20
127.8027915271048
 30
0.0
 10
120.5753209406769
 20
127.8027915271048
 30
0.0
 10
118.1964809388044
 20
127.8027915271048
 30
0.0
 10
118.1964809388044
 20
127.8027915271048
 30
0.0
 10
118.1964809388044
 20
127.8027915271048
 30
0.0
 10
126.377554584636
 20
154.8151140277308
 30
0.0
 10
126.377554584636
 20
154.8151140277308
 30
0.0
  0
HATCH
  5
1DA5
330
1DA0
100
AcDbEntity
  8
TFORMLOGO
 62
   250
420
  2234388
100
AcDbHatch
 10
0.0
 20
0.0
 30
0.0
210
0.0
220
0.0
230
1.0
  2
SOLID
 70
     1
 71
     0
 91
        1
 92
        1
 93
        1
 72
     4
 94
        3
 73
     0
 74
     1
 95
       38
 96
       34
 40
0.0
 40
0.0
 40
0.0
 40
0.0
 40
1.0
 40
1.0
 40
1.0
 40
2.0
 40
2.0
 40
2.0
 40
3.0
 40
3.0
 40
3.0
 40
4.0
 40
4.0
 40
4.0
 40
5.0
 40
5.0
 40
5.0
 40
6.0
 40
6.0
 40
6.0
 40
7.0
 40
7.0
 40
7.0
 40
8.0
 40
8.0
 40
8.0
 40
9.0
 40
9.0
 40
9.0
 40
10.0
 40
10.0
 40
10.0
 40
11.0
 40
11.0
 40
11.0
 40
11.0
 10
126.377554584636
 20
154.8151140277308
 10
126.377554584636
 20
154.8151140277308
 10
128.8311532078563
 20
154.8151140277308
 10
128.8311532078563
 20
154.8151140277308
 10
128.8311532078563
 20
154.8151140277308
 10
127.7345785914971
 20
151.3062819612468
 10
127.7345785914971
 20
151.3062819612468
 10
128.571392836906
 20
152.2922689395754
 10
129.8860421413442
 20
153.604506675583
 10
131.0163787157314
 20
154.2664822097754
 10
132.7044766171327
 20
155.2500576196734
 10
133.6642808525008
 20
155.3847609420097
 10
134.7284715499351
 20
155.3565111403944
 10
134.7284715499351
 20
155.3565111403944
 10
133.6877075172549
 20
152.0345756272799
 10
133.6877075172549
 20
152.0345756272799
 10
133.011434827367
 20
152.3184516825359
 10
130.930940291334
 20
151.7768823149844
 10
129.739280976855
 20
150.9162968950455
 10
128.66613302525
 20
150.1454562717016
 10
127.9192358313239
 20
149.4857200510519
 10
127.0393578639405
 20
147.8282835196966
 10
126.164647543194
 20
146.1699857139017
 10
125.4742499524985
 20
143.5262176944419
 10
124.2822461282437
 20
139.6959580071401
 10
124.2822461282437
 20
139.6959580071401
 10
120.5753209406769
 20
127.8027915271048
 10
120.5753209406769
 20
127.8027915271048
 10
120.5753209406769
 20
127.8027915271048
 10
118.1964809388044
 20
127.8027915271048
 10
118.1964809388044
 20
127.8027915271048
 10
118.1964809388044
 20
127.8027915271048
 10
126.377554584636
 20
154.8151140277308
 10
126.377554584636
 20
154.8151140277308
 97
        0
 75
     2
 76
     1
 98
        0
  0
SPLINE
  5
1DA6
330
1DA0
100
AcDbEntity
  8
TFORMLOGO
370
     0
100
AcDbSpline
210
0.0
220
0.0
230
1.0
 70
    11
 71
     3
 72
   104
 73
   100
 74
     0
 42
0.000000001
 43
0.0000000001
 40
0.0
 40
0.0
 40
0.0
 40
0.0
 40
1.0
 40
1.0
 40
1.0
 40
2.0
 40
2.0
 40
2.0
 40
3.0
 40
3.0
 40
3.0
 40
4.0
 40
4.0
 40
4.0
 40
5.0
 40
5.0
 40
5.0
 40
6.0
 40
6.0
 40
6.0
 40
7.0
 40
7.0
 40
7.0
 40
8.0
 40
8.0
 40
8.0
 40
9.0
 40
9.0
 40
9.0
 40
10.0
 40
10.0
 40
10.0
 40
11.0
 40
11.0
 40
11.0
 40
12.0
 40
12.0
 40
12.0
 40
13.0
 40
13.0
 40
13.0
 40
14.0
 40
14.0
 40
14.0
 40
15.0
 40
15.0
 40
15.0
 40
16.0
 40
16.0
 40
16.0
 40
17.0
 40
17.0
 40
17.0
 40
18.0
 40
18.0
 40
18.0
 40
19.0
 40
19.0
 40
19.0
 40
20.0
 40
20.0
 40
20.0
 40
21.0
 40
21.0
 40
21.0
 40
22.0
 40
22.0
 40
22.0
 40
23.0
 40
23.0
 40
23.0
 40
24.0
 40
24.0
 40
24.0
 40
25.0
 40
25.0
 40
25.0
 40
26.0
 40
26.0
 40
26.0
 40
27.0
 40
27.0
 40
27.0
 40
28.0
 40
28.0
 40
28.0
 40
29.0
 40
29.0
 40
29.0
 40
30.0
 40
30.0
 40
30.0
 40
31.0
 40
31.0
 40
31.0
 40
32.0
 40
32.0
 40
32.0
 40
33.0
 40
33.0
 40
33.0
 40
33.0
 10
139.8926730891197
 20
154.8294111834263
 30
0.0
 10
139.8926730891197
 20
154.8294111834263
 30
0.0
 10
142.0344903652445
 20
154.8294111834263
 30
0.0
 10
142.0344903652445
 20
154.8294111834263
 30
0.0
 10
142.0344903652445
 20
154.8294111834263
 30
0.0
 10
140.9516961399171
 20
151.3157559800812
 30
0.0
 10
140.9516961399171
 20
151.3157559800812
 30
0.0
 10
141.8928968473923
 20
152.7887075264977
 30
0.0
 10
142.7341897198865
 20
153.4484437471474
 30
0.0
 10
143.8552245303272
 20
154.2926649527359
 30
0.0
 10
144.9803934580775
 20
155.1296514530327
 30
0.0
 10
146.3139908001845
 20
155.3044901642492
 30
0.0
 10
147.241066606852
 20
155.3044901642492
 30
0.0
 10
148.3855280820469
 20
155.3044901642492
 30
0.0
 10
149.4969166187653
 20
155.0752189084569
 30
0.0
 10
150.0784491203092
 20
153.8172414621372
 30
0.0
 10
150.5228667310863
 20
152.833838307127
 30
0.0
 10
150.5414702589793
 20
152.7201500811143
 30
0.0
 10
150.4140016419347
 20
150.7765981809602
 30
0.0
 10
151.5818897818837
 20
152.7699317437168
 30
0.0
 10
152.4424752018226
 20
153.6256940267945
 30
0.0
 10
153.9038856707499
 20
154.4507949398263
 30
0.0
 10
155.4455669174378
 20
155.3044901642492
 30
0.0
 10
156.339225275853
 20
155.3659851592288
 30
0.0
 10
157.3748216618963
 20
155.2147453676543
 30
0.0
 10
158.911679771723
 20
154.9877134254046
 30
0.0
 10
159.8859534176746
 20
154.4390816074493
 30
0.0
 10
160.3965169054045
 20
152.7816450760939
 30
0.0
 10
160.9070803931344
 20
151.1219692311958
 30
0.0
 10
160.6328506116007
 20
150.2303779314354
 30
0.0
 10
159.9992971339115
 20
147.597634224801
 30
0.0
 10
159.7105979417943
 20
146.4014962832367
 30
0.0
 10
159.2947746424084
 20
144.9400858143094
 30
0.0
 10
158.7463150793409
 20
143.2092687007094
 30
0.0
 10
158.7463150793409
 20
143.2092687007094
 30
0.0
 10
153.9038856707499
 20
127.8027915271048
 30
0.0
 10
153.9038856707499
 20
127.8027915271048
 30
0.0
 10
153.9038856707499
 20
127.8027915271048
 30
0.0
 10
151.3882752878863
 20
127.8027915271048
 30
0.0
 10
151.3882752878863
 20
127.8027915271048
 30
0.0
 10
151.3882752878863
 20
127.8027915271048
 30
0.0
 10
155.6250565106276
 20
141.2751908193897
 30
0.0
 10
155.6250565106276
 20
141.2751908193897
 30
0.0
 10
156.5094131050963
 20
144.0936252951782
 30
0.0
 10
157.109893644309
 20
146.1506931664571
 30
0.0
 10
157.4220195011804
 20
147.4415712963654
 30
0.0
 10
157.8095929989511
 20
149.0530157726519
 30
0.0
 10
157.9656559273867
 20
149.5826995529385
 30
0.0
 10
157.7816877071116
 20
150.7529992613181
 30
0.0
 10
157.6111553680925
 20
151.8430281919372
 30
0.0
 10
157.0582171779396
 20
152.5547853887321
 30
0.0
 10
156.1170164704645
 20
152.5547853887321
 30
0.0
 10
155.1096698860365
 20
152.5547853887321
 30
0.0
 10
154.2962823053817
 20
152.4412694176073
 30
0.0
 10
153.156643967048
 20
151.2945686288697
 30
0.0
 10
152.0170056287143
 20
150.1476955852443
 30
0.0
 10
151.076149431015
 20
148.7930831468137
 30
0.0
 10
150.3337308641742
 20
147.2290087646991
 30
0.0
 10
149.5957909244188
 20
145.6683794803425
 30
0.0
 10
148.8530278478023
 20
143.6822806228776
 30
0.0
 10
148.0964843801539
 20
141.2751908193897
 30
0.0
 10
148.0964843801539
 20
141.2751908193897
 30
0.0
 10
143.8552245303272
 20
127.8027915271048
 30
0.0
 10
143.8552245303272
 20
127.8027915271048
 30
0.0
 10
143.8552245303272
 20
127.8027915271048
 30
0.0
 10
141.486030802177
 20
127.8027915271048
 30
0.0
 10
141.486030802177
 20
127.8027915271048
 30
0.0
 10
141.486030802177
 20
127.8027915271048
 30
0.0
 10
146.3329388378533
 20
143.2092687007094
 30
0.0
 10
146.3329388378533
 20
143.2092687007094
 30
0.0
 10
146.8483254624444
 20
144.8408669988801
 30
0.0
 10
147.2314203331297
 20
146.1837661049335
 30
0.0
 10
147.4867020769946
 20
147.224185627838
 30
0.0
 10
147.9169947869641
 20
149.0197705792876
 30
0.0
 10
148.0306830129768
 20
150.2400242051577
 30
0.0
 10
147.709255392159
 20
151.3157559800812
 30
0.0
 10
147.3874832615654
 20
152.3916600098926
 30
0.0
 10
146.8245542879144
 20
152.6683013598569
 30
0.0
 10
145.8840425999909
 20
152.6683013598569
 30
0.0
 10
145.0989048209514
 20
152.6683013598569
 30
0.0
 10
144.3282364524954
 20
152.3275811915945
 30
0.0
 10
143.4531816219731
 20
151.6538923250251
 30
0.0
 10
142.34627171234
 20
150.8074318058939
 30
0.0
 10
141.901854101563
 20
150.1097995099067
 30
0.0
 10
141.3578731655808
 20
149.289521733736
 30
0.0
 10
140.6299240093235
 20
148.192602607601
 30
0.0
 10
140.2850697237515
 20
147.455696197173
 30
0.0
 10
139.6652966370942
 20
145.8385673095858
 30
0.0
 10
139.0506911970739
 20
144.2214384219986
 30
0.0
 10
138.463991048893
 20
142.3252566160164
 30
0.0
 10
138.0571250036777
 20
141.0154304484394
 30
0.0
 10
138.0571250036777
 20
141.0154304484394
 30
0.0
 10
133.9009590684727
 20
127.8027915271048
 30
0.0
 10
133.9009590684727
 20
127.8027915271048
 30
0.0
 10
133.9009590684727
 20
127.8027915271048
 30
0.0
 10
131.4180771143097
 20
127.8027915271048
 30
0.0
 10
131.4180771143097
 20
127.8027915271048
 30
0.0
 10
131.4180771143097
 20
127.8027915271048
 30
0.0
 10
139.8926730891197
 20
154.8294111834263
 30
0.0
 10
139.8926730891197
 20
154.8294111834263
 30
0.0
  0
HATCH
  5
1DA7
330
1DA0
100
AcDbEntity
  8
TFORMLOGO
 62
   250
420
  2234388
100
AcDbHatch
 10
0.0
 20
0.0
 30
0.0
210
0.0
220
0.0
230
1.0
  2
SOLID
 70
     1
 71
     0
 91
        1
 92
        1
 93
        1
 72
     4
 94
        3
 73
     0
 74
     1
 95
      104
 96
      100
 40
0.0
 40
0.0
 40
0.0
 40
0.0
 40
1.0
 40
1.0
 40
1.0
 40
2.0
 40
2.0
 40
2.0
 40
3.0
 40
3.0
 40
3.0
 40
4.0
 40
4.0
 40
4.0
 40
5.0
 40
5.0
 40
5.0
 40
6.0
 40
6.0
 40
6.0
 40
7.0
 40
7.0
 40
7.0
 40
8.0
 40
8.0
 40
8.0
 40
9.0
 40
9.0
 40
9.0
 40
10.0
 40
10.0
 40
10.0
 40
11.0
 40
11.0
 40
11.0
 40
12.0
 40
12.0
 40
12.0
 40
13.0
 40
13.0
 40
13.0
 40
14.0
 40
14.0
 40
14.0
 40
15.0
 40
15.0
 40
15.0
 40
16.0
 40
16.0
 40
16.0
 40
17.0
 40
17.0
 40
17.0
 40
18.0
 40
18.0
 40
18.0
 40
19.0
 40
19.0
 40
19.0
 40
20.0
 40
20.0
 40
20.0
 40
21.0
 40
21.0
 40
21.0
 40
22.0
 40
22.0
 40
22.0
 40
23.0
 40
23.0
 40
23.0
 40
24.0
 40
24.0
 40
24.0
 40
25.0
 40
25.0
 40
25.0
 40
26.0
 40
26.0
 40
26.0
 40
27.0
 40
27.0
 40
27.0
 40
28.0
 40
28.0
 40
28.0
 40
29.0
 40
29.0
 40
29.0
 40
30.0
 40
30.0
 40
30.0
 40
31.0
 40
31.0
 40
31.0
 40
32.0
 40
32.0
 40
32.0
 40
33.0
 40
33.0
 40
33.0
 40
33.0
 10
139.8926730891197
 20
154.8294111834263
 10
139.8926730891197
 20
154.8294111834263
 10
142.0344903652445
 20
154.8294111834263
 10
142.0344903652445
 20
154.8294111834263
 10
142.0344903652445
 20
154.8294111834263
 10
140.9516961399171
 20
151.3157559800812
 10
140.9516961399171
 20
151.3157559800812
 10
141.8928968473923
 20
152.7887075264977
 10
142.7341897198865
 20
153.4484437471474
 10
143.8552245303272
 20
154.2926649527359
 10
144.9803934580775
 20
155.1296514530327
 10
146.3139908001845
 20
155.3044901642492
 10
147.241066606852
 20
155.3044901642492
 10
148.3855280820469
 20
155.3044901642492
 10
149.4969166187653
 20
155.0752189084569
 10
150.0784491203092
 20
153.8172414621372
 10
150.5228667310863
 20
152.833838307127
 10
150.5414702589793
 20
152.7201500811143
 10
150.4140016419347
 20
150.7765981809602
 10
151.5818897818837
 20
152.7699317437168
 10
152.4424752018226
 20
153.6256940267945
 10
153.9038856707499
 20
154.4507949398263
 10
155.4455669174378
 20
155.3044901642492
 10
156.339225275853
 20
155.3659851592288
 10
157.3748216618963
 20
155.2147453676543
 10
158.911679771723
 20
154.9877134254046
 10
159.8859534176746
 20
154.4390816074493
 10
160.3965169054045
 20
152.7816450760939
 10
160.9070803931344
 20
151.1219692311958
 10
160.6328506116007
 20
150.2303779314354
 10
159.9992971339115
 20
147.597634224801
 10
159.7105979417943
 20
146.4014962832367
 10
159.2947746424084
 20
144.9400858143094
 10
158.7463150793409
 20
143.2092687007094
 10
158.7463150793409
 20
143.2092687007094
 10
153.9038856707499
 20
127.8027915271048
 10
153.9038856707499
 20
127.8027915271048
 10
153.9038856707499
 20
127.8027915271048
 10
151.3882752878863
 20
127.8027915271048
 10
151.3882752878863
 20
127.8027915271048
 10
151.3882752878863
 20
127.8027915271048
 10
155.6250565106276
 20
141.2751908193897
 10
155.6250565106276
 20
141.2751908193897
 10
156.5094131050963
 20
144.0936252951782
 10
157.109893644309
 20
146.1506931664571
 10
157.4220195011804
 20
147.4415712963654
 10
157.8095929989511
 20
149.0530157726519
 10
157.9656559273867
 20
149.5826995529385
 10
157.7816877071116
 20
150.7529992613181
 10
157.6111553680925
 20
151.8430281919372
 10
157.0582171779396
 20
152.5547853887321
 10
156.1170164704645
 20
152.5547853887321
 10
155.1096698860365
 20
152.5547853887321
 10
154.2962823053817
 20
152.4412694176073
 10
153.156643967048
 20
151.2945686288697
 10
152.0170056287143
 20
150.1476955852443
 10
151.076149431015
 20
148.7930831468137
 10
150.3337308641742
 20
147.2290087646991
 10
149.5957909244188
 20
145.6683794803425
 10
148.8530278478023
 20
143.6822806228776
 10
148.0964843801539
 20
141.2751908193897
 10
148.0964843801539
 20
141.2751908193897
 10
143.8552245303272
 20
127.8027915271048
 10
143.8552245303272
 20
127.8027915271048
 10
143.8552245303272
 20
127.8027915271048
 10
141.486030802177
 20
127.8027915271048
 10
141.486030802177
 20
127.8027915271048
 10
141.486030802177
 20
127.8027915271048
 10
146.3329388378533
 20
143.2092687007094
 10
146.3329388378533
 20
143.2092687007094
 10
146.8483254624444
 20
144.8408669988801
 10
147.2314203331297
 20
146.1837661049335
 10
147.4867020769946
 20
147.224185627838
 10
147.9169947869641
 20
149.0197705792876
 10
148.0306830129768
 20
150.2400242051577
 10
147.709255392159
 20
151.3157559800812
 10
147.3874832615654
 20
152.3916600098926
 10
146.8245542879144
 20
152.6683013598569
 10
145.8840425999909
 20
152.6683013598569
 10
145.0989048209514
 20
152.6683013598569
 10
144.3282364524954
 20
152.3275811915945
 10
143.4531816219731
 20
151.6538923250251
 10
142.34627171234
 20
150.8074318058939
 10
141.901854101563
 20
150.1097995099067
 10
141.3578731655808
 20
149.289521733736
 10
140.6299240093235
 20
148.192602607601
 10
140.2850697237515
 20
147.455696197173
 10
139.6652966370942
 20
145.8385673095858
 10
139.0506911970739
 20
144.2214384219986
 10
138.463991048893
 20
142.3252566160164
 10
138.0571250036777
 20
141.0154304484394
 10
138.0571250036777
 20
141.0154304484394
 10
133.9009590684727
 20
127.8027915271048
 10
133.9009590684727
 20
127.8027915271048
 10
133.9009590684727
 20
127.8027915271048
 10
131.4180771143097
 20
127.8027915271048
 10
131.4180771143097
 20
127.8027915271048
 10
131.4180771143097
 20
127.8027915271048
 10
139.8926730891197
 20
154.8294111834263
 10
139.8926730891197
 20
154.8294111834263
 97
        0
 75
     2
 76
     1
 98
        0
  0
SPLINE
  5
1DA8
330
1DA0
100
AcDbEntity
  8
TFORMLOGO
370
     0
100
AcDbSpline
210
0.0
220
0.0
230
1.0
 70
    11
 71
     3
 72
    29
 73
    25
 74
     0
 42
0.000000001
 43
0.0000000001
 40
0.0
 40
0.0
 40
0.0
 40
0.0
 40
1.0
 40
1.0
 40
1.0
 40
2.0
 40
2.0
 40
2.0
 40
3.0
 40
3.0
 40
3.0
 40
4.0
 40
4.0
 40
4.0
 40
5.0
 40
5.0
 40
5.0
 40
6.0
 40
6.0
 40
6.0
 40
7.0
 40
7.0
 40
7.0
 40
8.0
 40
8.0
 40
8.0
 40
8.0
 10
101.6420971922469
 20
132.8388354296931
 30
0.0
 10
101.630039350094
 20
134.7164137077823
 30
0.0
 10
102.2236296937908
 20
138.0598810818841
 30
0.0
 10
103.7487744712405
 20
142.5378191476827
 30
0.0
 10
105.819967243327
 20
148.5896501242061
 30
0.0
 10
107.0602024361932
 20
150.8074318058939
 30
0.0
 10
108.1522984254671
 20
151.8833358357054
 30
0.0
 10
109.741177511439
 20
153.4532668840085
 30
0.0
 10
111.8740375333931
 20
153.5290590346837
 30
0.0
 10
112.5075910110823
 20
153.4532668840085
 30
0.0
 10
113.4012493694975
 20
153.3490526768302
 30
0.0
 10
114.6683563248758
 20
152.7580461564518
 30
0.0
 10
114.7493161221879
 20
150.7838328862519
 30
0.0
 10
114.8106388622796
 20
149.0909118479895
 30
0.0
 10
114.3186789024427
 20
145.9191825971221
 30
0.0
 10
112.6164561002338
 20
140.9489400617108
 30
0.0
 10
110.6444821435766
 20
135.1746117095912
 30
0.0
 10
109.4669477299053
 20
132.8960240524753
 30
0.0
 10
108.5212683953448
 20
131.9072809959403
 30
0.0
 10
106.7346406980658
 20
130.0538184021569
 30
0.0
 10
104.8222669326213
 20
130.2336525051225
 30
0.0
 10
104.5408024457958
 20
130.2336525051225
 30
0.0
 10
104.1721769856939
 20
130.2336525051225
 30
0.0
 10
101.6465758193322
 20
130.6305277668397
 30
0.0
 10
101.6420971922469
 20
132.8388354296931
 30
0.0
  0
SPLINE
  5
1DA9
330
1DA0
100
AcDbEntity
  8
TFORMLOGO
370
     0
100
AcDbSpline
210
0.0
220
0.0
230
1.0
 70
    11
 71
     3
 72
    32
 73
    28
 74
     0
 42
0.000000001
 43
0.0000000001
 40
0.0
 40
0.0
 40
0.0
 40
0.0
 40
1.0
 40
1.0
 40
1.0
 40
2.0
 40
2.0
 40
2.0
 40
3.0
 40
3.0
 40
3.0
 40
4.0
 40
4.0
 40
4.0
 40
5.0
 40
5.0
 40
5.0
 40
6.0
 40
6.0
 40
6.0
 40
7.0
 40
7.0
 40
7.0
 40
8.0
 40
8.0
 40
8.0
 40
9.0
 40
9.0
 40
9.0
 40
9.0
 10
106.2595617172429
 20
153.4105476718098
 30
0.0
 10
104.8222669326213
 20
151.5474388043041
 30
0.0
 10
103.7177685914188
 20
149.8758773721411
 30
0.0
 10
101.9232171692965
 20
144.6141795664062
 30
0.0
 10
100.2754269116635
 20
139.7999999594306
 30
0.0
 10
99.22777268346732
 20
136.3052927937542
 30
0.0
 10
99.06964269637689
 20
132.039572749846
 30
0.0
 10
98.94665270641765
 20
128.8673267343149
 30
0.0
 10
100.8807305877373
 20
127.8027915271048
 30
0.0
 10
103.7129454545577
 20
127.8027915271048
 30
0.0
 10
104.9352661390825
 20
127.8027915271048
 30
0.0
 10
108.0151835347002
 20
127.8827177950895
 30
0.0
 10
110.2045431598849
 20
130.5926316915021
 30
0.0
 10
111.7417457794874
 20
132.4984597712065
 30
0.0
 10
113.155269389579
 20
134.475256864725
 30
0.0
 10
115.0562743324223
 20
140.9489400617108
 30
0.0
 10
116.6361961642235
 20
146.3680788349845
 30
0.0
 10
117.7282921534974
 20
149.8639917848761
 30
0.0
 10
117.6480213757369
 20
151.8595646611754
 30
0.0
 10
117.6480213757369
 20
151.8595646611754
 30
0.0
 10
117.6480213757369
 20
151.8595646611754
 30
0.0
 10
117.6480213757369
 20
151.8595646611754
 30
0.0
 10
117.13229024137
 20
155.18150017429
 30
0.0
 10
114.7162431837115
 20
155.886194920681
 30
0.0
 10
113.3351034925446
 20
155.886194920681
 30
0.0
 10
111.9829026225447
 20
155.886194920681
 30
0.0
 10
108.3414342923792
 20
156.1251124501957
 30
0.0
 10
106.2595617172429
 20
153.4105476718098
 30
0.0
  0
HATCH
  5
1DAA
330
1DA0
100
AcDbEntity
  8
TFORMLOGO
 62
   250
420
  2234388
100
AcDbHatch
 10
0.0
 20
0.0
 30
0.0
210
0.0
220
0.0
230
1.0
  2
SOLID
 70
     1
 71
     0
 91
        2
 92
        1
 93
        1
 72
     4
 94
        3
 73
     0
 74
     1
 95
       29
 96
       25
 40
0.0
 40
0.0
 40
0.0
 40
0.0
 40
1.0
 40
1.0
 40
1.0
 40
2.0
 40
2.0
 40
2.0
 40
3.0
 40
3.0
 40
3.0
 40
4.0
 40
4.0
 40
4.0
 40
5.0
 40
5.0
 40
5.0
 40
6.0
 40
6.0
 40
6.0
 40
7.0
 40
7.0
 40
7.0
 40
8.0
 40
8.0
 40
8.0
 40
8.0
 10
101.6420971922469
 20
132.8388354296931
 10
101.630039350094
 20
134.7164137077823
 10
102.2236296937908
 20
138.0598810818841
 10
103.7487744712405
 20
142.5378191476827
 10
105.819967243327
 20
148.5896501242061
 10
107.0602024361932
 20
150.8074318058939
 10
108.1522984254671
 20
151.8833358357054
 10
109.741177511439
 20
153.4532668840085
 10
111.8740375333931
 20
153.5290590346837
 10
112.5075910110823
 20
153.4532668840085
 10
113.4012493694975
 20
153.3490526768302
 10
114.6683563248758
 20
152.7580461564518
 10
114.7493161221879
 20
150.7838328862519
 10
114.8106388622796
 20
149.0909118479895
 10
114.3186789024427
 20
145.9191825971221
 10
112.6164561002338
 20
140.9489400617108
 10
110.6444821435766
 20
135.1746117095912
 10
109.4669477299053
 20
132.8960240524753
 10
108.5212683953448
 20
131.9072809959403
 10
106.7346406980658
 20
130.0538184021569
 10
104.8222669326213
 20
130.2336525051225
 10
104.5408024457958
 20
130.2336525051225
 10
104.1721769856939
 20
130.2336525051225
 10
101.6465758193322
 20
130.6305277668397
 10
101.6420971922469
 20
132.8388354296931
 97
        0
 92
        1
 93
        1
 72
     4
 94
        3
 73
     0
 74
     1
 95
       32
 96
       28
 40
0.0
 40
0.0
 40
0.0
 40
0.0
 40
1.0
 40
1.0
 40
1.0
 40
2.0
 40
2.0
 40
2.0
 40
3.0
 40
3.0
 40
3.0
 40
4.0
 40
4.0
 40
4.0
 40
5.0
 40
5.0
 40
5.0
 40
6.0
 40
6.0
 40
6.0
 40
7.0
 40
7.0
 40
7.0
 40
8.0
 40
8.0
 40
8.0
 40
9.0
 40
9.0
 40
9.0
 40
9.0
 10
106.2595617172429
 20
153.4105476718098
 10
104.8222669326213
 20
151.5474388043041
 10
103.7177685914188
 20
149.8758773721411
 10
101.9232171692965
 20
144.6141795664062
 10
100.2754269116635
 20
139.7999999594306
 10
99.22777268346732
 20
136.3052927937542
 10
99.06964269637689
 20
132.039572749846
 10
98.94665270641765
 20
128.8673267343149
 10
100.8807305877373
 20
127.8027915271048
 10
103.7129454545577
 20
127.8027915271048
 10
104.9352661390825
 20
127.8027915271048
 10
108.0151835347002
 20
127.8827177950895
 10
110.2045431598849
 20
130.5926316915021
 10
111.7417457794874
 20
132.4984597712065
 10
113.155269389579
 20
134.475256864725
 10
115.0562743324223
 20
140.9489400617108
 10
116.6361961642235
 20
146.3680788349845
 10
117.7282921534974
 20
149.8639917848761
 10
117.6480213757369
 20
151.8595646611754
 10
117.6480213757369
 20
151.8595646611754
 10
117.6480213757369
 20
151.8595646611754
 10
117.6480213757369
 20
151.8595646611754
 10
117.13229024137
 20
155.18150017429
 10
114.7162431837115
 20
155.886194920681
 10
113.3351034925446
 20
155.886194920681
 10
111.9829026225447
 20
155.886194920681
 10
108.3414342923792
 20
156.1251124501957
 10
106.2595617172429
 20
153.4105476718098
 97
        0
 75
     2
 76
     1
 98
        0
  0
ENDBLK
  5
1DAB
330
1DA0
100
AcDbEntity
  8
0
100
AcDbBlockEnd
  0
BLOCK
  5
37E0
330
37DF
100
AcDbEntity
  8
0
100
AcDbBlockBegin
  2
*D7
 70
     1
 10
0.0
 20
0.0
 30
0.0
  3
*D7
  1
*D156
  0
LINE
  5
37E2
330
37DF
100
AcDbEntity
  8
寸法
 62
     0
370
    -2
100
AcDbLine
 10
202.2957663671774
 20
349.3799946242279
 30
0.0
 11
200.389510035032
 21
349.3799946242279
 31
0.0
  0
LINE
  5
37E3
330
37DF
100
AcDbEntity
  8
寸法
 62
     0
370
    -2
100
AcDbLine
 10
202.2957663671774
 20
347.4048052429969
 30
0.0
 11
200.389510035032
 21
347.4048052429969
 31
0.0
  0
INSERT
  5
37E4
330
37DF
100
AcDbEntity
  8
寸法
 62
     0
370
    -2
100
AcDbBlockReference
  2
_DOT
 10
200.389510035032
 20
349.3799946242279
 30
0.0
 41
2.0
 42
2.0
 43
2.0
 50
90.0
  0
INSERT
  5
37E5
330
37DF
100
AcDbEntity
  8
寸法
 62
     0
370
    -2
100
AcDbBlockReference
  2
_DOT
 10
200.389510035032
 20
347.4048052429969
 30
0.0
 41
2.0
 42
2.0
 43
2.0
 50
270.0
  0
MTEXT
  5
37E6
330
37DF
100
AcDbEntity
  8
寸法
 62
     0
100
AcDbMText
 10
192.889510035032
 20
348.3923999336124
 30
0.0
 40
5.0
 41
0.0
 46
0.0
 71
     5
 72
     1
  1
\A1;2
  7
ＭＳ ゴシック
 11
0.0
 21
1.0
 31
0.0
 73
     1
 44
1.0
  0
POINT
  5
37E7
330
37DF
100
AcDbEntity
  8
Defpoints
 62
     0
100
AcDbPoint
 10
207.2957663671774
 20
349.3799946242279
 30
0.0
  0
POINT
  5
37E8
330
37DF
100
AcDbEntity
  8
Defpoints
 62
     0
100
AcDbPoint
 10
207.2957663671774
 20
347.4048052429969
 30
0.0
  0
POINT
  5
37E9
330
37DF
100
AcDbEntity
  8
Defpoints
 62
     0
100
AcDbPoint
 10
200.389510035032
 20
347.4048052429969
 30
0.0
  0
ENDBLK
  5
37E1
330
37DF
100
AcDbEntity
  8
0
100
AcDbBlockEnd
  0
BLOCK
  5
37EB
330
37EA
100
AcDbEntity
  8
0
100
AcDbBlockBegin
  2
*D8
 70
     1
 10
0.0
 20
0.0
 30
0.0
  3
*D8
  1
*D157
  0
LINE
  5
37ED
330
37EA
100
AcDbEntity
  8
寸法
 62
     0
370
    -2
100
AcDbLine
 10
315.5889840782232
 20
306.1991393259359
 30
0.0
 11
328.2278845989873
 21
306.1991393259359
 31
0.0
  0
LINE
  5
37EE
330
37EA
100
AcDbEntity
  8
寸法
 62
     0
370
    -2
100
AcDbLine
 10
315.7302330862998
 20
322.8504451560839
 30
0.0
 11
328.2278845989873
 21
322.8504451560839
 31
0.0
  0
LINE
  5
37EF
330
37EA
100
AcDbEntity
  8
寸法
 62
     0
370
    -2
100
AcDbLine
 10
328.2278845989873
 20
308.1991393259359
 30
0.0
 11
328.2278845989873
 21
320.8504451560839
 31
0.0
  0
INSERT
  5
37F0
330
37EA
100
AcDbEntity
  8
寸法
 62
     0
370
    -2
100
AcDbBlockReference
  2
_DOT
 10
328.2278845989873
 20
306.1991393259359
 30
0.0
 41
2.0
 42
2.0
 43
2.0
 50
270.0
  0
INSERT
  5
37F1
330
37EA
100
AcDbEntity
  8
寸法
 62
     0
370
    -2
100
AcDbBlockReference
  2
_DOT
 10
328.2278845989873
 20
322.8504451560839
 30
0.0
 41
2.0
 42
2.0
 43
2.0
 50
90.0
  0
MTEXT
  5
37F2
330
37EA
100
AcDbEntity
  8
寸法
 62
     0
100
AcDbMText
 10
320.7278845989873
 20
314.5247922410099
 30
0.0
 40
5.0
 41
0.0
 46
0.0
 71
     5
 72
     1
  1
\A1;17
  7
ＭＳ ゴシック
 11
0.0
 21
1.0
 31
0.0
 73
     1
 44
1.0
  0
POINT
  5
37F3
330
37EA
100
AcDbEntity
  8
Defpoints
 62
     0
100
AcDbPoint
 10
310.5889840782232
 20
306.1991393259359
 30
0.0
  0
POINT
  5
37F4
330
37EA
100
AcDbEntity
  8
Defpoints
 62
     0
100
AcDbPoint
 10
310.7302330862998
 20
322.8504451560839
 30
0.0
  0
POINT
  5
37F5
330
37EA
100
AcDbEntity
  8
Defpoints
 62
     0
100
AcDbPoint
 10
328.2278845989873
 20
322.8504451560839
 30
0.0
  0
ENDBLK
  5
37EC
330
37EA
100
AcDbEntity
  8
0
100
AcDbBlockEnd
  0
BLOCK
  5
37F7
330
37F6
100
AcDbEntity
  8
0
100
AcDbBlockBegin
  2
*D9
 70
     1
 10
0.0
 20
0.0
 30
0.0
  3
*D9
  1
*D158
  0
LINE
  5
37F9
330
37F6
100
AcDbEntity
  8
寸法
 62
     0
370
    -2
100
AcDbLine
 10
315.5889840782232
 20
306.1991393259359
 30
0.0
 11
349.1700500172429
 21
306.1991393259359
 31
0.0
  0
LINE
  5
37FA
330
37F6
100
AcDbEntity
  8
寸法
 62
     0
370
    -2
100
AcDbLine
 10
239.1066654855546
 20
349.3799946242279
 30
0.0
 11
349.1700500172429
 21
349.3799946242279
 31
0.0
  0
LINE
  5
37FB
330
37F6
100
AcDbEntity
  8
寸法
 62
     0
370
    -2
100
AcDbLine
 10
349.1700500172429
 20
308.1991393259359
 30
0.0
 11
349.1700500172429
 21
347.3799946242279
 31
0.0
  0
INSERT
  5
37FC
330
37F6
100
AcDbEntity
  8
寸法
 62
     0
370
    -2
100
AcDbBlockReference
  2
_DOT
 10
349.1700500172429
 20
306.1991393259359
 30
0.0
 41
2.0
 42
2.0
 43
2.0
 50
270.0
  0
INSERT
  5
37FD
330
37F6
100
AcDbEntity
  8
寸法
 62
     0
370
    -2
100
AcDbBlockReference
  2
_DOT
 10
349.1700500172429
 20
349.3799946242279
 30
0.0
 41
2.0
 42
2.0
 43
2.0
 50
90.0
  0
MTEXT
  5
37FE
330
37F6
100
AcDbEntity
  8
寸法
 62
     0
100
AcDbMText
 10
341.6700500172429
 20
327.7895669750819
 30
0.0
 40
5.0
 41
0.0
 46
0.0
 71
     5
 72
     1
  1
\A1;43
  7
ＭＳ ゴシック
 11
0.0
 21
1.0
 31
0.0
 73
     1
 44
1.0
  0
POINT
  5
37FF
330
37F6
100
AcDbEntity
  8
Defpoints
 62
     0
100
AcDbPoint
 10
310.5889840782232
 20
306.1991393259359
 30
0.0
  0
POINT
  5
3800
330
37F6
100
AcDbEntity
  8
Defpoints
 62
     0
100
AcDbPoint
 10
234.1066654855546
 20
349.3799946242279
 30
0.0
  0
POINT
  5
3801
330
37F6
100
AcDbEntity
  8
Defpoints
 62
     0
100
AcDbPoint
 10
349.1700500172429
 20
349.3799946242279
 30
0.0
  0
ENDBLK
  5
37F8
330
37F6
100
AcDbEntity
  8
0
100
AcDbBlockEnd
  0
BLOCK
  5
3803
330
3802
100
AcDbEntity
  8
0
100
AcDbBlockBegin
  2
*D10
 70
     1
 10
0.0
 20
0.0
 30
0.0
  3
*D10
  1
*D159
  0
LINE
  5
3805
330
3802
100
AcDbEntity
  8
寸法
 62
     0
370
    -2
100
AcDbLine
 10
311.4353297607628
 20
301.7641353582419
 30
0.0
 11
311.4353297607628
 21
289.5478334957879
 31
0.0
  0
LINE
  5
3806
330
3802
100
AcDbEntity
  8
寸法
 62
     0
370
    -2
100
AcDbLine
 10
214.633824591636
 20
301.1991393259359
 30
0.0
 11
214.633824591636
 21
289.5478334957879
 31
0.0
  0
LINE
  5
3807
330
3802
100
AcDbEntity
  8
寸法
 62
     0
370
    -2
100
AcDbLine
 10
309.4353297607628
 20
289.5478334957879
 30
0.0
 11
216.633824591636
 21
289.5478334957879
 31
0.0
  0
INSERT
  5
3808
330
3802
100
AcDbEntity
  8
寸法
 62
     0
370
    -2
100
AcDbBlockReference
  2
_DOT
 10
311.4353297607628
 20
289.5478334957879
 30
0.0
 41
2.0
 42
2.0
 43
2.0
  0
INSERT
  5
3809
330
3802
100
AcDbEntity
  8
寸法
 62
     0
370
    -2
100
AcDbBlockReference
  2
_DOT
 10
214.633824591636
 20
289.5478334957879
 30
0.0
 41
2.0
 42
2.0
 43
2.0
 50
180.0
  0
MTEXT
  5
380A
330
3802
100
AcDbEntity
  8
寸法
 62
     0
100
AcDbMText
 10
263.0345771761994
 20
297.0478334957879
 30
0.0
 40
5.0
 41
0.0
 46
0.0
 71
     5
 72
     1
  1
\A1;97
  7
ＭＳ ゴシック
 73
     1
 44
1.0
  0
POINT
  5
380B
330
3802
100
AcDbEntity
  8
Defpoints
 62
     0
100
AcDbPoint
 10
311.4353297607628
 20
306.7641353582419
 30
0.0
  0
POINT
  5
380C
330
3802
100
AcDbEntity
  8
Defpoints
 62
     0
100
AcDbPoint
 10
214.633824591636
 20
306.1991393259359
 30
0.0
  0
POINT
  5
380D
330
3802
100
AcDbEntity
  8
Defpoints
 62
     0
100
AcDbPoint
 10
214.633824591636
 20
289.5478334957879
 30
0.0
  0
ENDBLK
  5
3804
330
3802
100
AcDbEntity
  8
0
100
AcDbBlockEnd
  0
BLOCK
  5
380F
330
380E
100
AcDbEntity
  8
0
100
AcDbBlockBegin
  2
*D11
 70
     1
 10
0.0
 20
0.0
 30
0.0
  3
*D11
  1
*D160
  0
LINE
  5
3811
330
380E
100
AcDbEntity
  8
寸法
 62
     0
370
    -2
100
AcDbLine
 10
209.633824591636
 20
306.1991393259359
 30
0.0
 11
200.389510035032
 21
306.1991393259359
 31
0.0
  0
LINE
  5
3812
330
380E
100
AcDbEntity
  8
寸法
 62
     0
370
    -2
100
AcDbLine
 10
202.2957663671774
 20
347.4048052429969
 30
0.0
 11
200.389510035032
 21
347.4048052429969
 31
0.0
  0
LINE
  5
3813
330
380E
100
AcDbEntity
  8
寸法
 62
     0
370
    -2
100
AcDbLine
 10
200.389510035032
 20
308.1991393259359
 30
0.0
 11
200.389510035032
 21
345.4048052429969
 31
0.0
  0
INSERT
  5
3814
330
380E
100
AcDbEntity
  8
寸法
 62
     0
370
    -2
100
AcDbBlockReference
  2
_DOT
 10
200.389510035032
 20
306.1991393259359
 30
0.0
 41
2.0
 42
2.0
 43
2.0
 50
270.0
  0
INSERT
  5
3815
330
380E
100
AcDbEntity
  8
寸法
 62
     0
370
    -2
100
AcDbBlockReference
  2
_DOT
 10
200.389510035032
 20
347.4048052429969
 30
0.0
 41
2.0
 42
2.0
 43
2.0
 50
90.0
  0
MTEXT
  5
3816
330
380E
100
AcDbEntity
  8
寸法
 62
     0
100
AcDbMText
 10
192.889510035032
 20
326.8019722844664
 30
0.0
 40
5.0
 41
0.0
 46
0.0
 71
     5
 72
     1
  1
\A1;41
  7
ＭＳ ゴシック
 11
0.0
 21
1.0
 31
0.0
 73
     1
 44
1.0
  0
POINT
  5
3817
330
380E
100
AcDbEntity
  8
Defpoints
 62
     0
100
AcDbPoint
 10
214.633824591636
 20
306.1991393259359
 30
0.0
  0
POINT
  5
3818
330
380E
100
AcDbEntity
  8
Defpoints
 62
     0
100
AcDbPoint
 10
207.2957663671774
 20
347.4048052429969
 30
0.0
  0
POINT
  5
3819
330
380E
100
AcDbEntity
  8
Defpoints
 62
     0
100
AcDbPoint
 10
200.389510035032
 20
347.4048052429969
 30
0.0
  0
ENDBLK
  5
3810
330
380E
100
AcDbEntity
  8
0
100
AcDbBlockEnd
  0
BLOCK
  5
381B
330
381A
100
AcDbEntity
  8
0
100
AcDbBlockBegin
  2
*D12
 70
     1
 10
0.0
 20
0.0
 30
0.0
  3
*D12
  1
*D161
  0
LINE
  5
381D
330
381A
100
AcDbEntity
  8
寸法
 62
     0
370
    -2
100
AcDbLine
 10
202.2957663671774
 20
256.24751856733
 30
0.0
 11
190.6444605370293
 21
256.24751856733
 31
0.0
  0
LINE
  5
381E
330
381A
100
AcDbEntity
  8
寸法
 62
     0
370
    -2
100
AcDbLine
 10
202.2957663671774
 20
109.490947541839
 30
0.0
 11
190.6444605370293
 21
109.490947541839
 31
0.0
  0
LINE
  5
381F
330
381A
100
AcDbEntity
  8
寸法
 62
     0
370
    -2
100
AcDbLine
 10
190.6444605370293
 20
254.24751856733
 30
0.0
 11
190.6444605370293
 21
111.490947541839
 31
0.0
  0
INSERT
  5
3820
330
381A
100
AcDbEntity
  8
寸法
 62
     0
370
    -2
100
AcDbBlockReference
  2
_DOT
 10
190.6444605370293
 20
256.24751856733
 30
0.0
 41
2.0
 42
2.0
 43
2.0
 50
90.0
  0
INSERT
  5
3821
330
381A
100
AcDbEntity
  8
寸法
 62
     0
370
    -2
100
AcDbBlockReference
  2
_DOT
 10
190.6444605370293
 20
109.490947541839
 30
0.0
 41
2.0
 42
2.0
 43
2.0
 50
270.0
  0
MTEXT
  5
3822
330
381A
100
AcDbEntity
  8
寸法
 62
     0
100
AcDbMText
 10
183.1444605370293
 20
182.8692330545845
 30
0.0
 40
5.0
 41
0.0
 46
0.0
 71
     5
 72
     1
  1
\A1;147
  7
ＭＳ ゴシック
 11
0.0
 21
1.0
 31
0.0
 73
     1
 44
1.0
  0
POINT
  5
3823
330
381A
100
AcDbEntity
  8
Defpoints
 62
     0
100
AcDbPoint
 10
207.2957663671774
 20
256.24751856733
 30
0.0
  0
POINT
  5
3824
330
381A
100
AcDbEntity
  8
Defpoints
 62
     0
100
AcDbPoint
 10
207.2957663671774
 20
109.490947541839
 30
0.0
  0
POINT
  5
3825
330
381A
100
AcDbEntity
  8
Defpoints
 62
     0
100
AcDbPoint
 10
190.6444605370293
 20
109.490947541839
 30
0.0
  0
ENDBLK
  5
381C
330
381A
100
AcDbEntity
  8
0
100
AcDbBlockEnd
  0
BLOCK
  5
3827
330
3826
100
AcDbEntity
  8
0
100
AcDbBlockBegin
  2
*D13
 70
     1
 10
0.0
 20
0.0
 30
0.0
  3
*D13
  1
*D162
  0
LINE
  5
3829
330
3826
100
AcDbEntity
  8
寸法
 62
     0
370
    -2
100
AcDbLine
 10
207.2957663671774
 20
104.490947541839
 30
0.0
 11
207.2957663671774
 21
94.18180669859589
 31
0.0
  0
LINE
  5
382A
330
3826
100
AcDbEntity
  8
寸法
 62
     0
370
    -2
100
AcDbLine
 10
234.1066654855546
 20
104.490947541839
 30
0.0
 11
234.1066654855546
 21
94.18180669859589
 31
0.0
  0
LINE
  5
382B
330
3826
100
AcDbEntity
  8
寸法
 62
     0
370
    -2
100
AcDbLine
 10
209.2957663671774
 20
94.18180669859589
 30
0.0
 11
232.1066654855546
 21
94.18180669859589
 31
0.0
  0
INSERT
  5
382C
330
3826
100
AcDbEntity
  8
寸法
 62
     0
370
    -2
100
AcDbBlockReference
  2
_DOT
 10
207.2957663671774
 20
94.18180669859589
 30
0.0
 41
2.0
 42
2.0
 43
2.0
 50
180.0
  0
INSERT
  5
382D
330
3826
100
AcDbEntity
  8
寸法
 62
     0
370
    -2
100
AcDbBlockReference
  2
_DOT
 10
234.1066654855546
 20
94.18180669859589
 30
0.0
 41
2.0
 42
2.0
 43
2.0
  0
MTEXT
  5
382E
330
3826
100
AcDbEntity
  8
寸法
 62
     0
100
AcDbMText
 10
220.701215926366
 20
101.6818066985959
 30
0.0
 40
5.0
 41
0.0
 46
0.0
 71
     5
 72
     1
  1
\A1;27
  7
ＭＳ ゴシック
 73
     1
 44
1.0
  0
POINT
  5
382F
330
3826
100
AcDbEntity
  8
Defpoints
 62
     0
100
AcDbPoint
 10
207.2957663671774
 20
109.490947541839
 30
0.0
  0
POINT
  5
3830
330
3826
100
AcDbEntity
  8
Defpoints
 62
     0
100
AcDbPoint
 10
234.1066654855546
 20
109.490947541839
 30
0.0
  0
POINT
  5
3831
330
3826
100
AcDbEntity
  8
Defpoints
 62
     0
100
AcDbPoint
 10
234.1066654855546
 20
94.18180669859589
 30
0.0
  0
ENDBLK
  5
3828
330
3826
100
AcDbEntity
  8
0
100
AcDbBlockEnd
  0
BLOCK
  5
3833
330
3832
100
AcDbEntity
  8
0
100
AcDbBlockBegin
  2
*D14
 70
     1
 10
0.0
 20
0.0
 30
0.0
  3
*D14
  1
*D163
  0
LINE
  5
3835
330
3832
100
AcDbEntity
  8
寸法
 62
     0
370
    -2
100
AcDbLine
 10
316.4353297607628
 20
204.1760143216588
 30
0.0
 11
328.086635590911
 21
204.1760143216588
 31
0.0
  0
LINE
  5
3836
330
3832
100
AcDbEntity
  8
寸法
 62
     0
370
    -2
100
AcDbLine
 10
239.1066654855546
 20
256.24751856733
 30
0.0
 11
328.086635590911
 21
256.24751856733
 31
0.0
  0
LINE
  5
3837
330
3832
100
AcDbEntity
  8
寸法
 62
     0
370
    -2
100
AcDbLine
 10
328.086635590911
 20
206.1760143216588
 30
0.0
 11
328.086635590911
 21
254.24751856733
 31
0.0
  0
INSERT
  5
3838
330
3832
100
AcDbEntity
  8
寸法
 62
     0
370
    -2
100
AcDbBlockReference
  2
_DOT
 10
328.086635590911
 20
204.1760143216588
 30
0.0
 41
2.0
 42
2.0
 43
2.0
 50
270.0
  0
INSERT
  5
3839
330
3832
100
AcDbEntity
  8
寸法
 62
     0
370
    -2
100
AcDbBlockReference
  2
_DOT
 10
328.086635590911
 20
256.24751856733
 30
0.0
 41
2.0
 42
2.0
 43
2.0
 50
90.0
  0
MTEXT
  5
383A
330
3832
100
AcDbEntity
  8
寸法
 62
     0
100
AcDbMText
 10
320.586635590911
 20
230.2117664444944
 30
0.0
 40
5.0
 41
0.0
 46
0.0
 71
     5
 72
     1
  1
\A1;52
  7
ＭＳ ゴシック
 11
0.0
 21
1.0
 31
0.0
 73
     1
 44
1.0
  0
POINT
  5
383B
330
3832
100
AcDbEntity
  8
Defpoints
 62
     0
100
AcDbPoint
 10
311.4353297607628
 20
204.1760143216588
 30
0.0
  0
POINT
  5
383C
330
3832
100
AcDbEntity
  8
Defpoints
 62
     0
100
AcDbPoint
 10
234.1066654855546
 20
256.24751856733
 30
0.0
  0
POINT
  5
383D
330
3832
100
AcDbEntity
  8
Defpoints
 62
     0
100
AcDbPoint
 10
328.086635590911
 20
256.24751856733
 30
0.0
  0
ENDBLK
  5
3834
330
3832
100
AcDbEntity
  8
0
100
AcDbBlockEnd
  0
BLOCK
  5
3960
330
395F
100
AcDbEntity
  8
0
100
AcDbBlockBegin
  2
*D15
 70
     1
 10
0.0
 20
0.0
 30
0.0
  3
*D15
  1
*D40
  0
LINE
  5
3961
330
395F
100
AcDbEntity
  8
寸法
 62
     0
370
    -2
100
AcDbLine
 10
14.74478791698148
 20
224.0104347839655
 30
0.0
 11
9.999999999999986
 21
224.0104347839655
 31
0.0
  0
LINE
  5
3962
330
395F
100
AcDbEntity
  8
寸法
 62
     0
370
    -2
100
AcDbLine
 10
14.74478791698148
 20
219.3526626152015
 30
0.0
 11
9.999999999999986
 21
219.3526626152015
 31
0.0
  0
LINE
  5
3963
330
395F
100
AcDbEntity
  8
寸法
 62
     0
370
    -2
100
AcDbLine
 10
9.999999999999986
 20
222.0104347839655
 30
0.0
 11
9.999999999999986
 21
221.3526626152015
 31
0.0
  0
INSERT
  5
3964
330
395F
100
AcDbEntity
  8
寸法
 62
     0
370
    -2
100
AcDbBlockReference
  2
_DOT
 10
9.999999999999986
 20
224.0104347839655
 30
0.0
 41
2.0
 42
2.0
 43
2.0
 50
90.0
  0
INSERT
  5
3965
330
395F
100
AcDbEntity
  8
寸法
 62
     0
370
    -2
100
AcDbBlockReference
  2
_DOT
 10
9.999999999999986
 20
219.3526626152015
 30
0.0
 41
2.0
 42
2.0
 43
2.0
 50
270.0
  0
MTEXT
  5
3966
330
395F
100
AcDbEntity
  8
寸法
 62
     0
100
AcDbMText
 10
2.499999999999986
 20
221.6357466385695
 30
0.0
 40
5.0
 41
0.0
 46
0.0
 71
     5
 72
     1
  1
\A1;5
  7
ＭＳ ゴシック
 11
0.0
 21
1.0
 31
0.0
 73
     1
 44
1.0
  0
POINT
  5
3967
330
395F
100
AcDbEntity
  8
Defpoints
 62
     0
100
AcDbPoint
 10
19.74478791698148
 20
224.0104347839655
 30
0.0
  0
POINT
  5
3968
330
395F
100
AcDbEntity
  8
Defpoints
 62
     0
100
AcDbPoint
 10
19.74478791698148
 20
219.3526626152015
 30
0.0
  0
POINT
  5
3969
330
395F
100
AcDbEntity
  8
Defpoints
 62
     0
100
AcDbPoint
 10
9.999999999999986
 20
219.3526626152015
 30
0.0
  0
ENDBLK
  5
396A
330
395F
100
AcDbEntity
  8
0
100
AcDbBlockEnd
  0
BLOCK
  5
396F
330
396E
100
AcDbEntity
  8
0
100
AcDbBlockBegin
  2
*D16
 70
     1
 10
0.0
 20
0.0
 30
0.0
  3
*D16
  1
*D41
  0
LINE
  5
3970
330
396E
100
AcDbEntity
  8
寸法
 62
     0
370
    -2
100
AcDbLine
 10
29.98417784932528
 20
164.3206710295212
 30
0.0
 11
9.999999999999984
 21
164.3206710295212
 31
0.0
  0
LINE
  5
3971
330
396E
100
AcDbEntity
  8
寸法
 62
     0
370
    -2
100
AcDbLine
 10
29.98417784932528
 20
184.2161105817494
 30
0.0
 11
9.999999999999986
 21
184.2161105817494
 31
0.0
  0
LINE
  5
3972
330
396E
100
AcDbEntity
  8
寸法
 62
     0
370
    -2
100
AcDbLine
 10
9.999999999999984
 20
166.3206710295212
 30
0.0
 11
9.999999999999986
 21
182.2161105817494
 31
0.0
  0
INSERT
  5
3973
330
396E
100
AcDbEntity
  8
寸法
 62
     0
370
    -2
100
AcDbBlockReference
  2
_DOT
 10
9.999999999999984
 20
164.3206710295212
 30
0.0
 41
2.0
 42
2.0
 43
2.0
 50
270.0
  0
INSERT
  5
3974
330
396E
100
AcDbEntity
  8
寸法
 62
     0
370
    -2
100
AcDbBlockReference
  2
_DOT
 10
9.999999999999986
 20
184.2161105817494
 30
0.0
 41
2.0
 42
2.0
 43
2.0
 50
90.0
  0
MTEXT
  5
3975
330
396E
100
AcDbEntity
  8
寸法
 62
     0
100
AcDbMText
 10
2.499999999999986
 20
174.2683908056353
 30
0.0
 40
5.0
 41
0.0
 46
0.0
 71
     5
 72
     1
  1
\A1;20
  7
ＭＳ ゴシック
 11
8.928462398315330E-17
 21
1.0
 31
0.0
 73
     1
 44
1.0
  0
POINT
  5
3976
330
396E
100
AcDbEntity
  8
Defpoints
 62
     0
100
AcDbPoint
 10
34.98417784932528
 20
164.3206710295212
 30
0.0
  0
POINT
  5
3977
330
396E
100
AcDbEntity
  8
Defpoints
 62
     0
100
AcDbPoint
 10
34.98417784932528
 20
184.2161105817494
 30
0.0
  0
POINT
  5
3978
330
396E
100
AcDbEntity
  8
Defpoints
 62
     0
100
AcDbPoint
 10
9.999999999999986
 20
184.2161105817494
 30
0.0
  0
ENDBLK
  5
3979
330
396E
100
AcDbEntity
  8
0
100
AcDbBlockEnd
  0
BLOCK
  5
397E
330
397D
100
AcDbEntity
  8
0
100
AcDbBlockBegin
  2
*D17
 70
     1
 10
0.0
 20
0.0
 30
0.0
  3
*D17
  1
*D42
  0
LINE
  5
397F
330
397D
100
AcDbEntity
  8
寸法
 62
     0
370
    -2
100
AcDbLine
 10
134.4682658059849
 20
161.8597080771391
 30
0.0
 11
134.4682658059849
 21
145.2942155193206
 31
0.0
  0
LINE
  5
3980
330
397D
100
AcDbEntity
  8
寸法
 62
     0
370
    -2
100
AcDbLine
 10
34.56215337397478
 20
159.7426955048717
 30
0.0
 11
34.56215337397478
 21
145.2942155193206
 31
0.0
  0
LINE
  5
3981
330
397D
100
AcDbEntity
  8
寸法
 62
     0
370
    -2
100
AcDbLine
 10
132.4682658059849
 20
145.2942155193206
 30
0.0
 11
36.56215337397478
 21
145.2942155193206
 31
0.0
  0
INSERT
  5
3982
330
397D
100
AcDbEntity
  8
寸法
 62
     0
370
    -2
100
AcDbBlockReference
  2
_DOT
 10
134.4682658059849
 20
145.2942155193206
 30
0.0
 41
2.0
 42
2.0
 43
2.0
  0
INSERT
  5
3983
330
397D
100
AcDbEntity
  8
寸法
 62
     0
370
    -2
100
AcDbBlockReference
  2
_DOT
 10
34.56215337397478
 20
145.2942155193206
 30
0.0
 41
2.0
 42
2.0
 43
2.0
 50
180.0
  0
MTEXT
  5
3984
330
397D
100
AcDbEntity
  8
寸法
 62
     0
100
AcDbMText
 10
84.51520958997983
 20
152.7942155193206
 30
0.0
 40
5.0
 41
0.0
 46
0.0
 71
     5
 72
     1
  1
\A1;100
  7
ＭＳ ゴシック
 73
     1
 44
1.0
  0
POINT
  5
3985
330
397D
100
AcDbEntity
  8
Defpoints
 62
     0
100
AcDbPoint
 10
134.4682658059849
 20
166.8597080771391
 30
0.0
  0
POINT
  5
3986
330
397D
100
AcDbEntity
  8
Defpoints
 62
     0
100
AcDbPoint
 10
34.56215337397478
 20
164.7426955048717
 30
0.0
  0
POINT
  5
3987
330
397D
100
AcDbEntity
  8
Defpoints
 62
     0
100
AcDbPoint
 10
34.56215337397478
 20
145.2942155193206
 30
0.0
  0
ENDBLK
  5
3988
330
397D
100
AcDbEntity
  8
0
100
AcDbBlockEnd
  0
BLOCK
  5
398D
330
398C
100
AcDbEntity
  8
0
100
AcDbBlockBegin
  2
*D18
 70
     1
 10
0.0
 20
0.0
 30
0.0
  3
*D18
  1
*D43
  0
LINE
  5
398E
330
398C
100
AcDbEntity
  8
寸法
 62
     0
370
    -2
100
AcDbLine
 10
29.98417784932528
 20
184.2161105817494
 30
0.0
 11
9.999999999999984
 21
184.2161105817494
 31
0.0
  0
LINE
  5
398F
330
398C
100
AcDbEntity
  8
寸法
 62
     0
370
    -2
100
AcDbLine
 10
14.74478791698148
 20
219.3526626152015
 30
0.0
 11
9.999999999999986
 21
219.3526626152015
 31
0.0
  0
LINE
  5
3990
330
398C
100
AcDbEntity
  8
寸法
 62
     0
370
    -2
100
AcDbLine
 10
9.999999999999984
 20
186.2161105817494
 30
0.0
 11
9.999999999999986
 21
217.3526626152015
 31
0.0
  0
INSERT
  5
3991
330
398C
100
AcDbEntity
  8
寸法
 62
     0
370
    -2
100
AcDbBlockReference
  2
_DOT
 10
9.999999999999984
 20
184.2161105817494
 30
0.0
 41
2.0
 42
2.0
 43
2.0
 50
270.0
  0
INSERT
  5
3992
330
398C
100
AcDbEntity
  8
寸法
 62
     0
370
    -2
100
AcDbBlockReference
  2
_DOT
 10
9.999999999999986
 20
219.3526626152015
 30
0.0
 41
2.0
 42
2.0
 43
2.0
 50
90.0
  0
MTEXT
  5
3993
330
398C
100
AcDbEntity
  8
寸法
 62
     0
100
AcDbMText
 10
2.499999999999986
 20
201.7843865984755
 30
0.0
 40
5.0
 41
0.0
 46
0.0
 71
     5
 72
     1
  1
\A1;35
  7
ＭＳ ゴシック
 11
5.055580973651175E-17
 21
1.0
 31
0.0
 73
     1
 44
1.0
  0
POINT
  5
3994
330
398C
100
AcDbEntity
  8
Defpoints
 62
     0
100
AcDbPoint
 10
34.98417784932528
 20
184.2161105817494
 30
0.0
  0
POINT
  5
3995
330
398C
100
AcDbEntity
  8
Defpoints
 62
     0
100
AcDbPoint
 10
19.74478791698148
 20
219.3526626152015
 30
0.0
  0
POINT
  5
3996
330
398C
100
AcDbEntity
  8
Defpoints
 62
     0
100
AcDbPoint
 10
9.999999999999986
 20
219.3526626152015
 30
0.0
  0
ENDBLK
  5
3997
330
398C
100
AcDbEntity
  8
0
100
AcDbBlockEnd
  0
BLOCK
  5
399A
330
3999
100
AcDbEntity
  8
0
100
AcDbBlockBegin
  2
*D19
 70
     1
 10
0.0
 20
0.0
 30
0.0
  3
*D19
  1
*D44
  0
LINE
  5
399B
330
3999
100
AcDbEntity
  8
寸法
 62
     0
370
    -2
100
AcDbLine
 10
39.72088538776438
 20
17.8237685643322
 30
0.0
 11
9.999999999999982
 21
17.8237685643322
 31
0.0
  0
LINE
  5
399C
330
3999
100
AcDbEntity
  8
寸法
 62
     0
370
    -2
100
AcDbLine
 10
39.72088538776438
 20
68.20192514080222
 30
0.0
 11
9.999999999999986
 21
68.20192514080222
 31
0.0
  0
LINE
  5
399D
330
3999
100
AcDbEntity
  8
寸法
 62
     0
370
    -2
100
AcDbLine
 10
9.999999999999982
 20
19.8237685643322
 30
0.0
 11
9.999999999999986
 21
66.20192514080222
 31
0.0
  0
INSERT
  5
399E
330
3999
100
AcDbEntity
  8
寸法
 62
     0
370
    -2
100
AcDbBlockReference
  2
_DOT
 10
9.999999999999982
 20
17.8237685643322
 30
0.0
 41
2.0
 42
2.0
 43
2.0
 50
270.0
  0
INSERT
  5
399F
330
3999
100
AcDbEntity
  8
寸法
 62
     0
370
    -2
100
AcDbBlockReference
  2
_DOT
 10
9.999999999999986
 20
68.20192514080222
 30
0.0
 41
2.0
 42
2.0
 43
2.0
 50
90.0
  0
MTEXT
  5
39A0
330
3999
100
AcDbEntity
  8
寸法
 62
     0
100
AcDbMText
 10
2.499999999999984
 20
43.01284685256721
 30
0.0
 40
5.0
 41
0.0
 46
0.0
 71
     5
 72
     1
  1
\A1;50
  7
ＭＳ ゴシック
 11
7.052091462314159E-17
 21
1.0
 31
0.0
 73
     1
 44
1.0
  0
POINT
  5
39A1
330
3999
100
AcDbEntity
  8
Defpoints
 62
     0
100
AcDbPoint
 10
44.72088538776438
 20
17.8237685643322
 30
0.0
  0
POINT
  5
39A2
330
3999
100
AcDbEntity
  8
Defpoints
 62
     0
100
AcDbPoint
 10
44.72088538776438
 20
68.20192514080222
 30
0.0
  0
POINT
  5
39A3
330
3999
100
AcDbEntity
  8
Defpoints
 62
     0
100
AcDbPoint
 10
9.999999999999986
 20
68.20192514080222
 30
0.0
  0
ENDBLK
  5
39A4
330
3999
100
AcDbEntity
  8
0
100
AcDbBlockEnd
  0
BLOCK
  5
39A9
330
39A8
100
AcDbEntity
  8
0
100
AcDbBlockBegin
  2
*D20
 70
     1
 10
0.0
 20
0.0
 30
0.0
  3
*D20
  1
*D45
  0
LINE
  5
39AA
330
39A8
100
AcDbEntity
  8
寸法
 62
     0
370
    -2
100
AcDbLine
 10
139.4682658059849
 20
50.4215216741176
 30
0.0
 11
156.8315585182279
 21
50.4215216741176
 31
0.0
  0
LINE
  5
39AB
330
39A8
100
AcDbEntity
  8
寸法
 62
     0
370
    -2
100
AcDbLine
 10
139.4682658059849
 20
35.6041562171234
 30
0.0
 11
156.8315585182279
 21
35.6041562171234
 31
0.0
  0
LINE
  5
39AC
330
39A8
100
AcDbEntity
  8
寸法
 62
     0
370
    -2
100
AcDbLine
 10
156.8315585182279
 20
48.4215216741176
 30
0.0
 11
156.8315585182279
 21
37.6041562171234
 31
0.0
  0
INSERT
  5
39AD
330
39A8
100
AcDbEntity
  8
寸法
 62
     0
370
    -2
100
AcDbBlockReference
  2
_DOT
 10
156.8315585182279
 20
50.4215216741176
 30
0.0
 41
2.0
 42
2.0
 43
2.0
 50
90.0
  0
INSERT
  5
39AE
330
39A8
100
AcDbEntity
  8
寸法
 62
     0
370
    -2
100
AcDbBlockReference
  2
_DOT
 10
156.8315585182279
 20
35.6041562171234
 30
0.0
 41
2.0
 42
2.0
 43
2.0
 50
270.0
  0
MTEXT
  5
39AF
330
39A8
100
AcDbEntity
  8
寸法
 62
     0
100
AcDbMText
 10
149.3315585182279
 20
43.26831551848721
 30
0.0
 40
5.0
 41
0.0
 46
0.0
 71
     5
 72
     1
  1
\A1;15
  7
ＭＳ ゴシック
 11
0.0
 21
1.0
 31
0.0
 73
     1
 44
1.0
  0
POINT
  5
39B0
330
39A8
100
AcDbEntity
  8
Defpoints
 62
     0
100
AcDbPoint
 10
134.4682658059849
 20
50.4215216741176
 30
0.0
  0
POINT
  5
39B1
330
39A8
100
AcDbEntity
  8
Defpoints
 62
     0
100
AcDbPoint
 10
134.4682658059849
 20
35.6041562171234
 30
0.0
  0
POINT
  5
39B2
330
39A8
100
AcDbEntity
  8
Defpoints
 62
     0
100
AcDbPoint
 10
156.8315585182279
 20
35.6041562171234
 30
0.0
  0
ENDBLK
  5
39B3
330
39A8
100
AcDbEntity
  8
0
100
AcDbBlockEnd
  0
BLOCK
  5
39B8
330
39B7
100
AcDbEntity
  8
0
100
AcDbBlockBegin
  2
*D21
 70
     1
 10
0.0
 20
0.0
 30
0.0
  3
*D21
  1
*D46
  0
LINE
  5
39B9
330
39B7
100
AcDbEntity
  8
寸法
 62
     0
370
    -2
100
AcDbLine
 10
139.4682658059849
 20
166.8597080771391
 30
0.0
 11
173.677299873684
 21
166.8597080771391
 31
0.0
  0
LINE
  5
39BA
330
39B7
100
AcDbEntity
  8
寸法
 62
     0
370
    -2
100
AcDbLine
 10
74.69870540742588
 20
224.0104347839655
 30
0.0
 11
173.677299873684
 21
224.0104347839655
 31
0.0
  0
LINE
  5
39BB
330
39B7
100
AcDbEntity
  8
寸法
 62
     0
370
    -2
100
AcDbLine
 10
173.677299873684
 20
168.8597080771391
 30
0.0
 11
173.677299873684
 21
222.0104347839655
 31
0.0
  0
INSERT
  5
39BC
330
39B7
100
AcDbEntity
  8
寸法
 62
     0
370
    -2
100
AcDbBlockReference
  2
_DOT
 10
173.677299873684
 20
166.8597080771391
 30
0.0
 41
2.0
 42
2.0
 43
2.0
 50
270.0
  0
INSERT
  5
39BD
330
39B7
100
AcDbEntity
  8
寸法
 62
     0
370
    -2
100
AcDbBlockReference
  2
_DOT
 10
173.677299873684
 20
224.0104347839655
 30
0.0
 41
2.0
 42
2.0
 43
2.0
 50
90.0
  0
MTEXT
  5
39BE
330
39B7
100
AcDbEntity
  8
寸法
 62
     0
100
AcDbMText
 10
166.177299873684
 20
195.4350714305523
 30
0.0
 40
5.0
 41
0.0
 46
0.0
 71
     5
 72
     1
  1
\A1;57
  7
ＭＳ ゴシック
 11
0.0
 21
1.0
 31
0.0
 73
     1
 44
1.0
  0
POINT
  5
39BF
330
39B7
100
AcDbEntity
  8
Defpoints
 62
     0
100
AcDbPoint
 10
134.4682658059849
 20
166.8597080771391
 30
0.0
  0
POINT
  5
39C0
330
39B7
100
AcDbEntity
  8
Defpoints
 62
     0
100
AcDbPoint
 10
69.69870540742588
 20
224.0104347839655
 30
0.0
  0
POINT
  5
39C1
330
39B7
100
AcDbEntity
  8
Defpoints
 62
     0
100
AcDbPoint
 10
173.677299873684
 20
224.0104347839655
 30
0.0
  0
ENDBLK
  5
39C2
330
39B7
100
AcDbEntity
  8
0
100
AcDbBlockEnd
  0
BLOCK
  5
39C7
330
39C6
100
AcDbEntity
  8
0
100
AcDbBlockBegin
  2
*D22
 70
     1
 10
0.0
 20
0.0
 30
0.0
  3
*D22
  1
*D47
  0
LINE
  5
39C8
330
39C6
100
AcDbEntity
  8
寸法
 62
     0
370
    -2
100
AcDbLine
 10
74.69870540742588
 20
224.0104347839655
 30
0.0
 11
153.1098097798007
 21
224.0104347839655
 31
0.0
  0
LINE
  5
39C9
330
39C6
100
AcDbEntity
  8
寸法
 62
     0
370
    -2
100
AcDbLine
 10
139.4682658059849
 20
181.6770735341324
 30
0.0
 11
153.1098097798007
 21
181.6770735341324
 31
0.0
  0
LINE
  5
39CA
330
39C6
100
AcDbEntity
  8
寸法
 62
     0
370
    -2
100
AcDbLine
 10
153.1098097798007
 20
222.0104347839655
 30
0.0
 11
153.1098097798007
 21
183.6770735341324
 31
0.0
  0
INSERT
  5
39CB
330
39C6
100
AcDbEntity
  8
寸法
 62
     0
370
    -2
100
AcDbBlockReference
  2
_DOT
 10
153.1098097798007
 20
224.0104347839655
 30
0.0
 41
2.0
 42
2.0
 43
2.0
 50
90.0
  0
INSERT
  5
39CC
330
39C6
100
AcDbEntity
  8
寸法
 62
     0
370
    -2
100
AcDbBlockReference
  2
_DOT
 10
153.1098097798007
 20
181.6770735341324
 30
0.0
 41
2.0
 42
2.0
 43
2.0
 50
270.0
  0
MTEXT
  5
39CD
330
39C6
100
AcDbEntity
  8
寸法
 62
     0
100
AcDbMText
 10
145.6098097798007
 20
202.843754159049
 30
0.0
 40
5.0
 41
0.0
 46
0.0
 71
     5
 72
     1
  1
\A1;42
  7
ＭＳ ゴシック
 11
0.0
 21
1.0
 31
0.0
 73
     1
 44
1.0
  0
POINT
  5
39CE
330
39C6
100
AcDbEntity
  8
Defpoints
 62
     0
100
AcDbPoint
 10
69.69870540742588
 20
224.0104347839655
 30
0.0
  0
POINT
  5
39CF
330
39C6
100
AcDbEntity
  8
Defpoints
 62
     0
100
AcDbPoint
 10
134.4682658059849
 20
181.6770735341324
 30
0.0
  0
POINT
  5
39D0
330
39C6
100
AcDbEntity
  8
Defpoints
 62
     0
100
AcDbPoint
 10
153.1098097798007
 20
181.6770735341324
 30
0.0
  0
ENDBLK
  5
39D1
330
39C6
100
AcDbEntity
  8
0
100
AcDbBlockEnd
  0
BLOCK
  5
39E3
330
39E2
100
AcDbEntity
  8
0
100
AcDbBlockBegin
  2
*D23
 70
     1
 10
0.0
 20
0.0
 30
0.0
  3
*D23
  1
*D51
  0
LINE
  5
39E4
330
39E2
100
AcDbEntity
  8
寸法
 62
     0
370
    -2
100
AcDbLine
 10
63.72088538776438
 20
37.80096543350609
 30
0.0
 11
63.72088538776438
 21
0.5108464693973076
 31
0.0
  0
LINE
  5
39E5
330
39E2
100
AcDbEntity
  8
寸法
 62
     0
370
    -2
100
AcDbLine
 10
25.88395212166938
 20
37.80096543350609
 30
0.0
 11
25.88395212166938
 21
0.5108464693973076
 31
0.0
  0
LINE
  5
39E6
330
39E2
100
AcDbEntity
  8
寸法
 62
     0
370
    -2
100
AcDbLine
 10
61.72088538776438
 20
0.5108464693973076
 30
0.0
 11
27.88395212166938
 21
0.5108464693973076
 31
0.0
  0
INSERT
  5
39E7
330
39E2
100
AcDbEntity
  8
寸法
 62
     0
370
    -2
100
AcDbBlockReference
  2
_DOT
 10
63.72088538776438
 20
0.5108464693973076
 30
0.0
 41
2.0
 42
2.0
 43
2.0
  0
INSERT
  5
39E8
330
39E2
100
AcDbEntity
  8
寸法
 62
     0
370
    -2
100
AcDbBlockReference
  2
_DOT
 10
25.88395212166938
 20
0.5108464693973076
 30
0.0
 41
2.0
 42
2.0
 43
2.0
 50
180.0
  0
MTEXT
  5
39E9
330
39E2
100
AcDbEntity
  8
寸法
 62
     0
100
AcDbMText
 10
44.80241875471688
 20
8.010846469397308
 30
0.0
 40
5.0
 41
0.0
 46
0.0
 71
     5
 72
     1
  1
\A1;38
  7
ＭＳ ゴシック
 73
     1
 44
1.0
  0
POINT
  5
39EA
330
39E2
100
AcDbEntity
  8
Defpoints
 62
     0
100
AcDbPoint
 10
63.72088538776438
 20
42.80096543350609
 30
0.0
  0
POINT
  5
39EB
330
39E2
100
AcDbEntity
  8
Defpoints
 62
     0
100
AcDbPoint
 10
25.88395212166938
 20
42.80096543350609
 30
0.0
  0
POINT
  5
39EC
330
39E2
100
AcDbEntity
  8
Defpoints
 62
     0
100
AcDbPoint
 10
25.88395212166938
 20
0.5108464693973076
 30
0.0
  0
ENDBLK
  5
39ED
330
39E2
100
AcDbEntity
  8
0
100
AcDbBlockEnd
  0
BLOCK
  5
39F2
330
39F1
100
AcDbEntity
  8
0
100
AcDbBlockBegin
  2
*D24
 70
     1
 10
0.0
 20
0.0
 30
0.0
  3
*D24
  1
*D52
  0
LINE
  5
39F3
330
39F1
100
AcDbEntity
  8
寸法
 62
     0
370
    -2
100
AcDbLine
 10
314.8282422312282
 20
12.8237527504389
 30
0.0
 11
314.8282422312282
 21
0.5
 31
0.0
  0
LINE
  5
39F4
330
39F1
100
AcDbEntity
  8
寸法
 62
     0
370
    -2
100
AcDbLine
 10
310.1704700624643
 20
12.8237527504389
 30
0.0
 11
310.1704700624643
 21
0.5
 31
0.0
  0
LINE
  5
39F5
330
39F1
100
AcDbEntity
  8
寸法
 62
     0
370
    -2
100
AcDbLine
 10
312.8282422312282
 20
0.5
 30
0.0
 11
312.1704700624643
 21
0.5
 31
0.0
  0
INSERT
  5
39F6
330
39F1
100
AcDbEntity
  8
寸法
 62
     0
370
    -2
100
AcDbBlockReference
  2
_DOT
 10
314.8282422312282
 20
0.5
 30
0.0
 41
2.0
 42
2.0
 43
2.0
  0
INSERT
  5
39F7
330
39F1
100
AcDbEntity
  8
寸法
 62
     0
370
    -2
100
AcDbBlockReference
  2
_DOT
 10
310.1704700624643
 20
0.5
 30
0.0
 41
2.0
 42
2.0
 43
2.0
 50
180.0
  0
MTEXT
  5
39F8
330
39F1
100
AcDbEntity
  8
寸法
 62
     0
100
AcDbMText
 10
312.4993561468462
 20
8.0
 30
0.0
 40
5.0
 41
0.0
 46
0.0
 71
     5
 72
     1
  1
\A1;5
  7
ＭＳ ゴシック
 73
     1
 44
1.0
  0
POINT
  5
39F9
330
39F1
100
AcDbEntity
  8
Defpoints
 62
     0
100
AcDbPoint
 10
314.8282422312282
 20
17.8237527504389
 30
0.0
  0
POINT
  5
39FA
330
39F1
100
AcDbEntity
  8
Defpoints
 62
     0
100
AcDbPoint
 10
310.1704700624643
 20
17.8237527504389
 30
0.0
  0
POINT
  5
39FB
330
39F1
100
AcDbEntity
  8
Defpoints
 62
     0
100
AcDbPoint
 10
310.1704700624643
 20
0.5
 30
0.0
  0
ENDBLK
  5
39FC
330
39F1
100
AcDbEntity
  8
0
100
AcDbBlockEnd
  0
BLOCK
  5
3AE1
330
3AE0
100
AcDbEntity
  8
0
100
AcDbBlockBegin
  2
*D25
 70
     1
 10
0.0
 20
0.0
 30
0.0
  3
*D25
  1
*D26
  0
LINE
  5
3AE3
330
3AE0
100
AcDbEntity
  8
寸法
 62
     0
370
    -2
100
AcDbLine
 10
141.8419307741243
 20
350.9532919268227
 30
0.0
 11
137.0971428571428
 21
350.9532919268227
 31
0.0
  0
LINE
  5
3AE4
330
3AE0
100
AcDbEntity
  8
寸法
 62
     0
370
    -2
100
AcDbLine
 10
141.8419307741243
 20
346.2955197580586
 30
0.0
 11
137.0971428571428
 21
346.2955197580586
 31
0.0
  0
LINE
  5
3AE5
330
3AE0
100
AcDbEntity
  8
寸法
 62
     0
370
    -2
100
AcDbLine
 10
137.0971428571428
 20
348.9532919268227
 30
0.0
 11
137.0971428571428
 21
348.2955197580586
 31
0.0
  0
INSERT
  5
3AE6
330
3AE0
100
AcDbEntity
  8
寸法
 62
     0
370
    -2
100
AcDbBlockReference
  2
_DOT
 10
137.0971428571428
 20
350.9532919268227
 30
0.0
 41
2.0
 42
2.0
 43
2.0
 50
90.0
  0
INSERT
  5
3AE7
330
3AE0
100
AcDbEntity
  8
寸法
 62
     0
370
    -2
100
AcDbBlockReference
  2
_DOT
 10
137.0971428571428
 20
346.2955197580586
 30
0.0
 41
2.0
 42
2.0
 43
2.0
 50
270.0
  0
MTEXT
  5
3AE8
330
3AE0
100
AcDbEntity
  8
寸法
 62
     0
100
AcDbMText
 10
129.5971428571428
 20
348.5786037814266
 30
0.0
 40
5.0
 41
0.0
 46
0.0
 71
     5
 72
     1
  1
\A1;5
  7
ＭＳ ゴシック
 11
0.0
 21
1.0
 31
0.0
 73
     1
 44
1.0
  0
POINT
  5
3AE9
330
3AE0
100
AcDbEntity
  8
Defpoints
 62
     0
100
AcDbPoint
 10
146.8419307741243
 20
350.9532919268227
 30
0.0
  0
POINT
  5
3AEA
330
3AE0
100
AcDbEntity
  8
Defpoints
 62
     0
100
AcDbPoint
 10
146.8419307741243
 20
346.2955197580586
 30
0.0
  0
POINT
  5
3AEB
330
3AE0
100
AcDbEntity
  8
Defpoints
 62
     0
100
AcDbPoint
 10
137.0971428571428
 20
346.2955197580586
 30
0.0
  0
ENDBLK
  5
3AE2
330
3AE0
100
AcDbEntity
  8
0
100
AcDbBlockEnd
  0
BLOCK
  5
3AED
330
3AEC
100
AcDbEntity
  8
0
100
AcDbBlockBegin
  2
*D26
 70
     1
 10
0.0
 20
0.0
 30
0.0
  3
*D26
  1
*D27
  0
LINE
  5
3AEF
330
3AEC
100
AcDbEntity
  8
寸法
 62
     0
370
    -2
100
AcDbLine
 10
157.0813207064681
 20
291.2635281723783
 30
0.0
 11
137.0971428571428
 21
291.2635281723783
 31
0.0
  0
LINE
  5
3AF0
330
3AEC
100
AcDbEntity
  8
寸法
 62
     0
370
    -2
100
AcDbLine
 10
157.0813207064681
 20
311.1589677246066
 30
0.0
 11
137.0971428571428
 21
311.1589677246066
 31
0.0
  0
LINE
  5
3AF1
330
3AEC
100
AcDbEntity
  8
寸法
 62
     0
370
    -2
100
AcDbLine
 10
137.0971428571428
 20
293.2635281723783
 30
0.0
 11
137.0971428571428
 21
309.1589677246066
 31
0.0
  0
INSERT
  5
3AF2
330
3AEC
100
AcDbEntity
  8
寸法
 62
     0
370
    -2
100
AcDbBlockReference
  2
_DOT
 10
137.0971428571428
 20
291.2635281723783
 30
0.0
 41
2.0
 42
2.0
 43
2.0
 50
270.0
  0
INSERT
  5
3AF3
330
3AEC
100
AcDbEntity
  8
寸法
 62
     0
370
    -2
100
AcDbBlockReference
  2
_DOT
 10
137.0971428571428
 20
311.1589677246066
 30
0.0
 41
2.0
 42
2.0
 43
2.0
 50
90.0
  0
MTEXT
  5
3AF4
330
3AEC
100
AcDbEntity
  8
寸法
 62
     0
100
AcDbMText
 10
129.5971428571428
 20
301.2112479484924
 30
0.0
 40
5.0
 41
0.0
 46
0.0
 71
     5
 72
     1
  1
\A1;20
  7
ＭＳ ゴシック
 11
0.0
 21
1.0
 31
0.0
 73
     1
 44
1.0
  0
POINT
  5
3AF5
330
3AEC
100
AcDbEntity
  8
Defpoints
 62
     0
100
AcDbPoint
 10
162.0813207064681
 20
291.2635281723783
 30
0.0
  0
POINT
  5
3AF6
330
3AEC
100
AcDbEntity
  8
Defpoints
 62
     0
100
AcDbPoint
 10
162.0813207064681
 20
311.1589677246066
 30
0.0
  0
POINT
  5
3AF7
330
3AEC
100
AcDbEntity
  8
Defpoints
 62
     0
100
AcDbPoint
 10
137.0971428571428
 20
311.1589677246066
 30
0.0
  0
ENDBLK
  5
3AEE
330
3AEC
100
AcDbEntity
  8
0
100
AcDbBlockEnd
  0
BLOCK
  5
3AF9
330
3AF8
100
AcDbEntity
  8
0
100
AcDbBlockBegin
  2
*D27
 70
     1
 10
0.0
 20
0.0
 30
0.0
  3
*D27
  1
*D28
  0
LINE
  5
3AFB
330
3AF8
100
AcDbEntity
  8
寸法
 62
     0
370
    -2
100
AcDbLine
 10
261.5654086631278
 20
288.8025652199963
 30
0.0
 11
261.5654086631278
 21
272.2370726621778
 31
0.0
  0
LINE
  5
3AFC
330
3AF8
100
AcDbEntity
  8
寸法
 62
     0
370
    -2
100
AcDbLine
 10
161.6592962311176
 20
286.6855526477289
 30
0.0
 11
161.6592962311176
 21
272.2370726621778
 31
0.0
  0
LINE
  5
3AFD
330
3AF8
100
AcDbEntity
  8
寸法
 62
     0
370
    -2
100
AcDbLine
 10
259.5654086631278
 20
272.2370726621778
 30
0.0
 11
163.6592962311176
 21
272.2370726621778
 31
0.0
  0
INSERT
  5
3AFE
330
3AF8
100
AcDbEntity
  8
寸法
 62
     0
370
    -2
100
AcDbBlockReference
  2
_DOT
 10
261.5654086631278
 20
272.2370726621778
 30
0.0
 41
2.0
 42
2.0
 43
2.0
  0
INSERT
  5
3AFF
330
3AF8
100
AcDbEntity
  8
寸法
 62
     0
370
    -2
100
AcDbBlockReference
  2
_DOT
 10
161.6592962311176
 20
272.2370726621778
 30
0.0
 41
2.0
 42
2.0
 43
2.0
 50
180.0
  0
MTEXT
  5
3B00
330
3AF8
100
AcDbEntity
  8
寸法
 62
     0
100
AcDbMText
 10
211.6123524471227
 20
279.7370726621778
 30
0.0
 40
5.0
 41
0.0
 46
0.0
 71
     5
 72
     1
  1
\A1;100
  7
ＭＳ ゴシック
 73
     1
 44
1.0
  0
POINT
  5
3B01
330
3AF8
100
AcDbEntity
  8
Defpoints
 62
     0
100
AcDbPoint
 10
261.5654086631278
 20
293.8025652199963
 30
0.0
  0
POINT
  5
3B02
330
3AF8
100
AcDbEntity
  8
Defpoints
 62
     0
100
AcDbPoint
 10
161.6592962311176
 20
291.6855526477289
 30
0.0
  0
POINT
  5
3B03
330
3AF8
100
AcDbEntity
  8
Defpoints
 62
     0
100
AcDbPoint
 10
161.6592962311176
 20
272.2370726621778
 30
0.0
  0
ENDBLK
  5
3AFA
330
3AF8
100
AcDbEntity
  8
0
100
AcDbBlockEnd
  0
BLOCK
  5
3B05
330
3B04
100
AcDbEntity
  8
0
100
AcDbBlockBegin
  2
*D28
 70
     1
 10
0.0
 20
0.0
 30
0.0
  3
*D28
  1
*D29
  0
LINE
  5
3B07
330
3B04
100
AcDbEntity
  8
寸法
 62
     0
370
    -2
100
AcDbLine
 10
157.0813207064681
 20
311.1589677246066
 30
0.0
 11
137.0971428571428
 21
311.1589677246066
 31
0.0
  0
LINE
  5
3B08
330
3B04
100
AcDbEntity
  8
寸法
 62
     0
370
    -2
100
AcDbLine
 10
141.8419307741243
 20
346.2955197580586
 30
0.0
 11
137.0971428571428
 21
346.2955197580586
 31
0.0
  0
LINE
  5
3B09
330
3B04
100
AcDbEntity
  8
寸法
 62
     0
370
    -2
100
AcDbLine
 10
137.0971428571428
 20
313.1589677246066
 30
0.0
 11
137.0971428571428
 21
344.2955197580586
 31
0.0
  0
INSERT
  5
3B0A
330
3B04
100
AcDbEntity
  8
寸法
 62
     0
370
    -2
100
AcDbBlockReference
  2
_DOT
 10
137.0971428571428
 20
311.1589677246066
 30
0.0
 41
2.0
 42
2.0
 43
2.0
 50
270.0
  0
INSERT
  5
3B0B
330
3B04
100
AcDbEntity
  8
寸法
 62
     0
370
    -2
100
AcDbBlockReference
  2
_DOT
 10
137.0971428571428
 20
346.2955197580586
 30
0.0
 41
2.0
 42
2.0
 43
2.0
 50
90.0
  0
MTEXT
  5
3B0C
330
3B04
100
AcDbEntity
  8
寸法
 62
     0
100
AcDbMText
 10
129.5971428571428
 20
328.7272437413326
 30
0.0
 40
5.0
 41
0.0
 46
0.0
 71
     5
 72
     1
  1
\A1;35
  7
ＭＳ ゴシック
 11
0.0
 21
1.0
 31
0.0
 73
     1
 44
1.0
  0
POINT
  5
3B0D
330
3B04
100
AcDbEntity
  8
Defpoints
 62
     0
100
AcDbPoint
 10
162.0813207064681
 20
311.1589677246066
 30
0.0
  0
POINT
  5
3B0E
330
3B04
100
AcDbEntity
  8
Defpoints
 62
     0
100
AcDbPoint
 10
146.8419307741243
 20
346.2955197580586
 30
0.0
  0
POINT
  5
3B0F
330
3B04
100
AcDbEntity
  8
Defpoints
 62
     0
100
AcDbPoint
 10
137.0971428571428
 20
346.2955197580586
 30
0.0
  0
ENDBLK
  5
3B06
330
3B04
100
AcDbEntity
  8
0
100
AcDbBlockEnd
  0
BLOCK
  5
3B11
330
3B10
100
AcDbEntity
  8
0
100
AcDbBlockBegin
  2
*D29
 70
     1
 10
0.0
 20
0.0
 30
0.0
  3
*D29
  1
*D30
  0
LINE
  5
3B13
330
3B10
100
AcDbEntity
  8
寸法
 62
     0
370
    -2
100
AcDbLine
 10
166.8180282449072
 20
144.7666257071893
 30
0.0
 11
137.0971428571428
 21
144.7666257071893
 31
0.0
  0
LINE
  5
3B14
330
3B10
100
AcDbEntity
  8
寸法
 62
     0
370
    -2
100
AcDbLine
 10
166.8180282449072
 20
195.1447822836593
 30
0.0
 11
137.0971428571428
 21
195.1447822836593
 31
0.0
  0
LINE
  5
3B15
330
3B10
100
AcDbEntity
  8
寸法
 62
     0
370
    -2
100
AcDbLine
 10
137.0971428571428
 20
146.7666257071893
 30
0.0
 11
137.0971428571428
 21
193.1447822836593
 31
0.0
  0
INSERT
  5
3B16
330
3B10
100
AcDbEntity
  8
寸法
 62
     0
370
    -2
100
AcDbBlockReference
  2
_DOT
 10
137.0971428571428
 20
144.7666257071893
 30
0.0
 41
2.0
 42
2.0
 43
2.0
 50
270.0
  0
INSERT
  5
3B17
330
3B10
100
AcDbEntity
  8
寸法
 62
     0
370
    -2
100
AcDbBlockReference
  2
_DOT
 10
137.0971428571428
 20
195.1447822836593
 30
0.0
 41
2.0
 42
2.0
 43
2.0
 50
90.0
  0
MTEXT
  5
3B18
330
3B10
100
AcDbEntity
  8
寸法
 62
     0
100
AcDbMText
 10
129.5971428571428
 20
169.9557039954243
 30
0.0
 40
5.0
 41
0.0
 46
0.0
 71
     5
 72
     1
  1
\A1;50
  7
ＭＳ ゴシック
 11
0.0
 21
1.0
 31
0.0
 73
     1
 44
1.0
  0
POINT
  5
3B19
330
3B10
100
AcDbEntity
  8
Defpoints
 62
     0
100
AcDbPoint
 10
171.8180282449072
 20
144.7666257071893
 30
0.0
  0
POINT
  5
3B1A
330
3B10
100
AcDbEntity
  8
Defpoints
 62
     0
100
AcDbPoint
 10
171.8180282449072
 20
195.1447822836593
 30
0.0
  0
POINT
  5
3B1B
330
3B10
100
AcDbEntity
  8
Defpoints
 62
     0
100
AcDbPoint
 10
137.0971428571428
 20
195.1447822836593
 30
0.0
  0
ENDBLK
  5
3B12
330
3B10
100
AcDbEntity
  8
0
100
AcDbBlockEnd
  0
BLOCK
  5
3B1D
330
3B1C
100
AcDbEntity
  8
0
100
AcDbBlockBegin
  2
*D30
 70
     1
 10
0.0
 20
0.0
 30
0.0
  3
*D30
  1
*D31
  0
LINE
  5
3B1F
330
3B1C
100
AcDbEntity
  8
寸法
 62
     0
370
    -2
100
AcDbLine
 10
266.5654086631278
 20
177.3643788169747
 30
0.0
 11
283.9287013753707
 21
177.3643788169747
 31
0.0
  0
LINE
  5
3B20
330
3B1C
100
AcDbEntity
  8
寸法
 62
     0
370
    -2
100
AcDbLine
 10
266.5654086631278
 20
162.5470133599805
 30
0.0
 11
283.9287013753707
 21
162.5470133599805
 31
0.0
  0
LINE
  5
3B21
330
3B1C
100
AcDbEntity
  8
寸法
 62
     0
370
    -2
100
AcDbLine
 10
283.9287013753707
 20
175.3643788169747
 30
0.0
 11
283.9287013753707
 21
164.5470133599805
 31
0.0
  0
INSERT
  5
3B22
330
3B1C
100
AcDbEntity
  8
寸法
 62
     0
370
    -2
100
AcDbBlockReference
  2
_DOT
 10
283.9287013753707
 20
177.3643788169747
 30
0.0
 41
2.0
 42
2.0
 43
2.0
 50
90.0
  0
INSERT
  5
3B23
330
3B1C
100
AcDbEntity
  8
寸法
 62
     0
370
    -2
100
AcDbBlockReference
  2
_DOT
 10
283.9287013753707
 20
162.5470133599805
 30
0.0
 41
2.0
 42
2.0
 43
2.0
 50
270.0
  0
MTEXT
  5
3B24
330
3B1C
100
AcDbEntity
  8
寸法
 62
     0
100
AcDbMText
 10
276.4287013753707
 20
170.2111726613443
 30
0.0
 40
5.0
 41
0.0
 46
0.0
 71
     5
 72
     1
  1
\A1;15
  7
ＭＳ ゴシック
 11
0.0
 21
1.0
 31
0.0
 73
     1
 44
1.0
  0
POINT
  5
3B25
330
3B1C
100
AcDbEntity
  8
Defpoints
 62
     0
100
AcDbPoint
 10
261.5654086631278
 20
177.3643788169747
 30
0.0
  0
POINT
  5
3B26
330
3B1C
100
AcDbEntity
  8
Defpoints
 62
     0
100
AcDbPoint
 10
261.5654086631278
 20
162.5470133599805
 30
0.0
  0
POINT
  5
3B27
330
3B1C
100
AcDbEntity
  8
Defpoints
 62
     0
100
AcDbPoint
 10
283.9287013753707
 20
162.5470133599805
 30
0.0
  0
ENDBLK
  5
3B1E
330
3B1C
100
AcDbEntity
  8
0
100
AcDbBlockEnd
  0
BLOCK
  5
3B29
330
3B28
100
AcDbEntity
  8
0
100
AcDbBlockBegin
  2
*D31
 70
     1
 10
0.0
 20
0.0
 30
0.0
  3
*D31
  1
*D32
  0
LINE
  5
3B2B
330
3B28
100
AcDbEntity
  8
寸法
 62
     0
370
    -2
100
AcDbLine
 10
266.5654086631278
 20
293.8025652199963
 30
0.0
 11
300.7744427308268
 21
293.8025652199963
 31
0.0
  0
LINE
  5
3B2C
330
3B28
100
AcDbEntity
  8
寸法
 62
     0
370
    -2
100
AcDbLine
 10
201.7958482645687
 20
350.9532919268227
 30
0.0
 11
300.7744427308268
 21
350.9532919268227
 31
0.0
  0
LINE
  5
3B2D
330
3B28
100
AcDbEntity
  8
寸法
 62
     0
370
    -2
100
AcDbLine
 10
300.7744427308268
 20
295.8025652199963
 30
0.0
 11
300.7744427308268
 21
348.9532919268227
 31
0.0
  0
INSERT
  5
3B2E
330
3B28
100
AcDbEntity
  8
寸法
 62
     0
370
    -2
100
AcDbBlockReference
  2
_DOT
 10
300.7744427308268
 20
293.8025652199963
 30
0.0
 41
2.0
 42
2.0
 43
2.0
 50
270.0
  0
INSERT
  5
3B2F
330
3B28
100
AcDbEntity
  8
寸法
 62
     0
370
    -2
100
AcDbBlockReference
  2
_DOT
 10
300.7744427308268
 20
350.9532919268227
 30
0.0
 41
2.0
 42
2.0
 43
2.0
 50
90.0
  0
MTEXT
  5
3B30
330
3B28
100
AcDbEntity
  8
寸法
 62
     0
100
AcDbMText
 10
293.2744427308268
 20
322.3779285734095
 30
0.0
 40
5.0
 41
0.0
 46
0.0
 71
     5
 72
     1
  1
\A1;57
  7
ＭＳ ゴシック
 11
0.0
 21
1.0
 31
0.0
 73
     1
 44
1.0
  0
POINT
  5
3B31
330
3B28
100
AcDbEntity
  8
Defpoints
 62
     0
100
AcDbPoint
 10
261.5654086631278
 20
293.8025652199963
 30
0.0
  0
POINT
  5
3B32
330
3B28
100
AcDbEntity
  8
Defpoints
 62
     0
100
AcDbPoint
 10
196.7958482645687
 20
350.9532919268227
 30
0.0
  0
POINT
  5
3B33
330
3B28
100
AcDbEntity
  8
Defpoints
 62
     0
100
AcDbPoint
 10
300.7744427308268
 20
350.9532919268227
 30
0.0
  0
ENDBLK
  5
3B2A
330
3B28
100
AcDbEntity
  8
0
100
AcDbBlockEnd
  0
BLOCK
  5
3B35
330
3B34
100
AcDbEntity
  8
0
100
AcDbBlockBegin
  2
*D32
 70
     1
 10
0.0
 20
0.0
 30
0.0
  3
*D32
  1
*D33
  0
LINE
  5
3B37
330
3B34
100
AcDbEntity
  8
寸法
 62
     0
370
    -2
100
AcDbLine
 10
201.7958482645687
 20
350.9532919268227
 30
0.0
 11
280.2069526369435
 21
350.9532919268227
 31
0.0
  0
LINE
  5
3B38
330
3B34
100
AcDbEntity
  8
寸法
 62
     0
370
    -2
100
AcDbLine
 10
266.5654086631278
 20
308.6199306769895
 30
0.0
 11
280.2069526369435
 21
308.6199306769895
 31
0.0
  0
LINE
  5
3B39
330
3B34
100
AcDbEntity
  8
寸法
 62
     0
370
    -2
100
AcDbLine
 10
280.2069526369435
 20
348.9532919268227
 30
0.0
 11
280.2069526369435
 21
310.6199306769895
 31
0.0
  0
INSERT
  5
3B3A
330
3B34
100
AcDbEntity
  8
寸法
 62
     0
370
    -2
100
AcDbBlockReference
  2
_DOT
 10
280.2069526369435
 20
350.9532919268227
 30
0.0
 41
2.0
 42
2.0
 43
2.0
 50
90.0
  0
INSERT
  5
3B3B
330
3B34
100
AcDbEntity
  8
寸法
 62
     0
370
    -2
100
AcDbBlockReference
  2
_DOT
 10
280.2069526369435
 20
308.6199306769895
 30
0.0
 41
2.0
 42
2.0
 43
2.0
 50
270.0
  0
MTEXT
  5
3B3C
330
3B34
100
AcDbEntity
  8
寸法
 62
     0
100
AcDbMText
 10
272.7069526369435
 20
329.7866113019061
 30
0.0
 40
5.0
 41
0.0
 46
0.0
 71
     5
 72
     1
  1
\A1;42
  7
ＭＳ ゴシック
 11
0.0
 21
1.0
 31
0.0
 73
     1
 44
1.0
  0
POINT
  5
3B3D
330
3B34
100
AcDbEntity
  8
Defpoints
 62
     0
100
AcDbPoint
 10
196.7958482645687
 20
350.9532919268227
 30
0.0
  0
POINT
  5
3B3E
330
3B34
100
AcDbEntity
  8
Defpoints
 62
     0
100
AcDbPoint
 10
261.5654086631278
 20
308.6199306769895
 30
0.0
  0
POINT
  5
3B3F
330
3B34
100
AcDbEntity
  8
Defpoints
 62
     0
100
AcDbPoint
 10
280.2069526369435
 20
308.6199306769895
 30
0.0
  0
ENDBLK
  5
3B36
330
3B34
100
AcDbEntity
  8
0
100
AcDbBlockEnd
  0
BLOCK
  5
3B41
330
3B40
100
AcDbEntity
  8
0
100
AcDbBlockBegin
  2
*D33
 70
     1
 10
0.0
 20
0.0
 30
0.0
  3
*D33
  1
*D34
  0
LINE
  5
3B43
330
3B40
100
AcDbEntity
  8
寸法
 62
     0
370
    -2
100
AcDbLine
 10
190.8180282449072
 20
164.7438225763632
 30
0.0
 11
190.8180282449072
 21
127.4537036122544
 31
0.0
  0
LINE
  5
3B44
330
3B40
100
AcDbEntity
  8
寸法
 62
     0
370
    -2
100
AcDbLine
 10
152.9810949788122
 20
164.7438225763632
 30
0.0
 11
152.9810949788122
 21
127.4537036122544
 31
0.0
  0
LINE
  5
3B45
330
3B40
100
AcDbEntity
  8
寸法
 62
     0
370
    -2
100
AcDbLine
 10
188.8180282449072
 20
127.4537036122544
 30
0.0
 11
154.9810949788122
 21
127.4537036122544
 31
0.0
  0
INSERT
  5
3B46
330
3B40
100
AcDbEntity
  8
寸法
 62
     0
370
    -2
100
AcDbBlockReference
  2
_DOT
 10
190.8180282449072
 20
127.4537036122544
 30
0.0
 41
2.0
 42
2.0
 43
2.0
  0
INSERT
  5
3B47
330
3B40
100
AcDbEntity
  8
寸法
 62
     0
370
    -2
100
AcDbBlockReference
  2
_DOT
 10
152.9810949788122
 20
127.4537036122544
 30
0.0
 41
2.0
 42
2.0
 43
2.0
 50
180.0
  0
MTEXT
  5
3B48
330
3B40
100
AcDbEntity
  8
寸法
 62
     0
100
AcDbMText
 10
171.8995616118597
 20
134.9537036122544
 30
0.0
 40
5.0
 41
0.0
 46
0.0
 71
     5
 72
     1
  1
\A1;38
  7
ＭＳ ゴシック
 73
     1
 44
1.0
  0
POINT
  5
3B49
330
3B40
100
AcDbEntity
  8
Defpoints
 62
     0
100
AcDbPoint
 10
190.8180282449072
 20
169.7438225763632
 30
0.0
  0
POINT
  5
3B4A
330
3B40
100
AcDbEntity
  8
Defpoints
 62
     0
100
AcDbPoint
 10
152.9810949788122
 20
169.7438225763632
 30
0.0
  0
POINT
  5
3B4B
330
3B40
100
AcDbEntity
  8
Defpoints
 62
     0
100
AcDbPoint
 10
152.9810949788122
 20
127.4537036122544
 30
0.0
  0
ENDBLK
  5
3B42
330
3B40
100
AcDbEntity
  8
0
100
AcDbBlockEnd
  0
BLOCK
  5
3B4D
330
3B4C
100
AcDbEntity
  8
0
100
AcDbBlockBegin
  2
*D34
 70
     1
 10
0.0
 20
0.0
 30
0.0
  3
*D34
  1
*D35
  0
LINE
  5
3B4F
330
3B4C
100
AcDbEntity
  8
寸法
 62
     0
370
    -2
100
AcDbLine
 10
431.4339565169425
 20
139.766609893296
 30
0.0
 11
431.4339565169425
 21
127.4428571428571
 31
0.0
  0
LINE
  5
3B50
330
3B4C
100
AcDbEntity
  8
寸法
 62
     0
370
    -2
100
AcDbLine
 10
426.7761843481786
 20
139.766609893296
 30
0.0
 11
426.7761843481786
 21
127.4428571428571
 31
0.0
  0
LINE
  5
3B51
330
3B4C
100
AcDbEntity
  8
寸法
 62
     0
370
    -2
100
AcDbLine
 10
429.4339565169425
 20
127.4428571428571
 30
0.0
 11
428.7761843481786
 21
127.4428571428571
 31
0.0
  0
INSERT
  5
3B52
330
3B4C
100
AcDbEntity
  8
寸法
 62
     0
370
    -2
100
AcDbBlockReference
  2
_DOT
 10
431.4339565169425
 20
127.4428571428571
 30
0.0
 41
2.0
 42
2.0
 43
2.0
  0
INSERT
  5
3B53
330
3B4C
100
AcDbEntity
  8
寸法
 62
     0
370
    -2
100
AcDbBlockReference
  2
_DOT
 10
426.7761843481786
 20
127.4428571428571
 30
0.0
 41
2.0
 42
2.0
 43
2.0
 50
180.0
  0
MTEXT
  5
3B54
330
3B4C
100
AcDbEntity
  8
寸法
 62
     0
100
AcDbMText
 10
429.1050704325605
 20
134.9428571428571
 30
0.0
 40
5.0
 41
0.0
 46
0.0
 71
     5
 72
     1
  1
\A1;5
  7
ＭＳ ゴシック
 73
     1
 44
1.0
  0
POINT
  5
3B55
330
3B4C
100
AcDbEntity
  8
Defpoints
 62
     0
100
AcDbPoint
 10
431.4339565169425
 20
144.766609893296
 30
0.0
  0
POINT
  5
3B56
330
3B4C
100
AcDbEntity
  8
Defpoints
 62
     0
100
AcDbPoint
 10
426.7761843481786
 20
144.766609893296
 30
0.0
  0
POINT
  5
3B57
330
3B4C
100
AcDbEntity
  8
Defpoints
 62
     0
100
AcDbPoint
 10
426.7761843481786
 20
127.4428571428571
 30
0.0
  0
ENDBLK
  5
3B4E
330
3B4C
100
AcDbEntity
  8
0
100
AcDbBlockEnd
  0
BLOCK
  5
3BDB
330
3BDA
100
AcDbEntity
  8
0
100
AcDbBlockBegin
  2
*D35
 70
     1
 10
0.0
 20
0.0
 30
0.0
  3
*D35
  1
*D16
  0
LINE
  5
3BDC
330
3BDA
100
AcDbEntity
  8
寸法
 62
     0
370
    -2
100
AcDbLine
 10
25.57317123366258
 20
247.0066959944616
 30
0.0
 11
25.57317123366258
 21
258.1589706413739
 31
0.0
  0
LINE
  5
3BDD
330
3BDA
100
AcDbEntity
  8
寸法
 62
     0
370
    -2
100
AcDbLine
 10
77.22207682102433
 20
247.0066959944616
 30
0.0
 11
77.22207682102433
 21
258.1589706413739
 31
0.0
  0
LINE
  5
3BDE
330
3BDA
100
AcDbEntity
  8
寸法
 62
     0
370
    -2
100
AcDbLine
 10
27.57317123366258
 20
258.1589706413739
 30
0.0
 11
75.22207682102433
 21
258.1589706413739
 31
0.0
  0
INSERT
  5
3BDF
330
3BDA
100
AcDbEntity
  8
寸法
 62
     0
370
    -2
100
AcDbBlockReference
  2
_DOT
 10
25.57317123366258
 20
258.1589706413739
 30
0.0
 41
2.0
 42
2.0
 43
2.0
 50
180.0
  0
INSERT
  5
3BE0
330
3BDA
100
AcDbEntity
  8
寸法
 62
     0
370
    -2
100
AcDbBlockReference
  2
_DOT
 10
77.22207682102433
 20
258.1589706413739
 30
0.0
 41
2.0
 42
2.0
 43
2.0
  0
MTEXT
  5
3BE1
330
3BDA
100
AcDbEntity
  8
寸法
 62
     0
100
AcDbMText
 10
51.39762402734345
 20
265.6589706413739
 30
0.0
 40
5.0
 41
0.0
 46
0.0
 71
     5
 72
     1
  1
\A1;52
  7
ＭＳ ゴシック
 73
     1
 44
1.0
  0
POINT
  5
3BE2
330
3BDA
100
AcDbEntity
  8
Defpoints
 62
     0
100
AcDbPoint
 10
25.57317123366258
 20
242.0066959944616
 30
0.0
  0
POINT
  5
3BE3
330
3BDA
100
AcDbEntity
  8
Defpoints
 62
     0
100
AcDbPoint
 10
77.22207682102433
 20
242.0066959944616
 30
0.0
  0
POINT
  5
3BE4
330
3BDA
100
AcDbEntity
  8
Defpoints
 62
     0
100
AcDbPoint
 10
77.22207682102433
 20
258.1589706413739
 30
0.0
  0
ENDBLK
  5
3BE5
330
3BDA
100
AcDbEntity
  8
0
100
AcDbBlockEnd
  0
BLOCK
  5
3BEA
330
3BE9
100
AcDbEntity
  8
0
100
AcDbBlockBegin
  2
*D36
 70
     1
 10
0.0
 20
0.0
 30
0.0
  3
*D36
  1
*D17
  0
LINE
  5
3BEB
330
3BE9
100
AcDbEntity
  8
寸法
 62
     0
370
    -2
100
AcDbLine
 10
20.57317123366258
 20
242.0066959944616
 30
0.0
 11
10.00000000000003
 21
242.0066959944616
 31
0.0
  0
LINE
  5
3BEC
330
3BE9
100
AcDbEntity
  8
寸法
 62
     0
370
    -2
100
AcDbLine
 10
21.20879177000657
 20
236.0794053018885
 30
0.0
 11
10.00000000000003
 21
236.0794053018885
 31
0.0
  0
LINE
  5
3BED
330
3BE9
100
AcDbEntity
  8
寸法
 62
     0
370
    -2
100
AcDbLine
 10
10.00000000000003
 20
240.0066959944616
 30
0.0
 11
10.00000000000003
 21
238.0794053018885
 31
0.0
  0
INSERT
  5
3BEE
330
3BE9
100
AcDbEntity
  8
寸法
 62
     0
370
    -2
100
AcDbBlockReference
  2
_DOT
 10
10.00000000000003
 20
242.0066959944616
 30
0.0
 41
2.0
 42
2.0
 43
2.0
 50
90.0
  0
INSERT
  5
3BEF
330
3BE9
100
AcDbEntity
  8
寸法
 62
     0
370
    -2
100
AcDbBlockReference
  2
_DOT
 10
10.00000000000003
 20
236.0794053018885
 30
0.0
 41
2.0
 42
2.0
 43
2.0
 50
270.0
  0
MTEXT
  5
3BF0
330
3BE9
100
AcDbEntity
  8
寸法
 62
     0
100
AcDbMText
 10
2.500000000000028
 20
239.043050648175
 30
0.0
 40
5.0
 41
0.0
 46
0.0
 71
     5
 72
     1
  1
\A1;6
  7
ＭＳ ゴシック
 11
0.0
 21
1.0
 31
0.0
 73
     1
 44
1.0
  0
POINT
  5
3BF1
330
3BE9
100
AcDbEntity
  8
Defpoints
 62
     0
100
AcDbPoint
 10
25.57317123366258
 20
242.0066959944616
 30
0.0
  0
POINT
  5
3BF2
330
3BE9
100
AcDbEntity
  8
Defpoints
 62
     0
100
AcDbPoint
 10
26.20879177000657
 20
236.0794053018885
 30
0.0
  0
POINT
  5
3BF3
330
3BE9
100
AcDbEntity
  8
Defpoints
 62
     0
100
AcDbPoint
 10
10.00000000000003
 20
236.0794053018885
 30
0.0
  0
ENDBLK
  5
3BF4
330
3BE9
100
AcDbEntity
  8
0
100
AcDbBlockEnd
  0
BLOCK
  5
3BF9
330
3BF8
100
AcDbEntity
  8
0
100
AcDbBlockBegin
  2
*D37
 70
     1
 10
0.0
 20
0.0
 30
0.0
  3
*D37
  1
*D18
  0
LINE
  5
3BFA
330
3BF8
100
AcDbEntity
  8
寸法
 62
     0
370
    -2
100
AcDbLine
 10
177.4704170842699
 20
195.4393096000927
 30
0.0
 11
198.2931473290717
 21
195.4393096000927
 31
0.0
  0
LINE
  5
3BFB
330
3BF8
100
AcDbEntity
  8
寸法
 62
     0
370
    -2
100
AcDbLine
 10
177.4686945353909
 20
179.3524256192906
 30
0.0
 11
198.2931473290717
 21
179.3524256192906
 31
0.0
  0
LINE
  5
3BFC
330
3BF8
100
AcDbEntity
  8
寸法
 62
     0
370
    -2
100
AcDbLine
 10
198.2931473290717
 20
193.4393096000927
 30
0.0
 11
198.2931473290717
 21
181.3524256192906
 31
0.0
  0
INSERT
  5
3BFD
330
3BF8
100
AcDbEntity
  8
寸法
 62
     0
370
    -2
100
AcDbBlockReference
  2
_DOT
 10
198.2931473290717
 20
195.4393096000927
 30
0.0
 41
2.0
 42
2.0
 43
2.0
 50
90.0
  0
INSERT
  5
3BFE
330
3BF8
100
AcDbEntity
  8
寸法
 62
     0
370
    -2
100
AcDbBlockReference
  2
_DOT
 10
198.2931473290717
 20
179.3524256192906
 30
0.0
 41
2.0
 42
2.0
 43
2.0
 50
270.0
  0
MTEXT
  5
3BFF
330
3BF8
100
AcDbEntity
  8
寸法
 62
     0
100
AcDbMText
 10
190.7931473290717
 20
187.3958676096917
 30
0.0
 40
5.0
 41
0.0
 46
0.0
 71
     5
 72
     1
  1
\A1;16
  7
ＭＳ ゴシック
 11
0.0
 21
1.0
 31
0.0
 73
     1
 44
1.0
  0
POINT
  5
3C00
330
3BF8
100
AcDbEntity
  8
Defpoints
 62
     0
100
AcDbPoint
 10
172.4704170842699
 20
195.4393096000927
 30
0.0
  0
POINT
  5
3C01
330
3BF8
100
AcDbEntity
  8
Defpoints
 62
     0
100
AcDbPoint
 10
172.4686945353909
 20
179.3524256192906
 30
0.0
  0
POINT
  5
3C02
330
3BF8
100
AcDbEntity
  8
Defpoints
 62
     0
100
AcDbPoint
 10
198.2931473290717
 20
179.3524256192906
 30
0.0
  0
ENDBLK
  5
3C03
330
3BF8
100
AcDbEntity
  8
0
100
AcDbBlockEnd
  0
BLOCK
  5
3C08
330
3C07
100
AcDbEntity
  8
0
100
AcDbBlockBegin
  2
*D38
 70
     1
 10
0.0
 20
0.0
 30
0.0
  3
*D38
  1
*D19
  0
LINE
  5
3C09
330
3C07
100
AcDbEntity
  8
寸法
 62
     0
370
    -2
100
AcDbLine
 10
43.35332076250292
 20
174.3524256192906
 30
0.0
 11
43.3533207625029
 21
143.4882222725964
 31
0.0
  0
LINE
  5
3C0A
330
3C07
100
AcDbEntity
  8
寸法
 62
     0
370
    -2
100
AcDbLine
 10
173.3161885838495
 20
174.3524256192906
 30
0.0
 11
173.3161885838495
 21
143.4882222725964
 31
0.0
  0
LINE
  5
3C0B
330
3C07
100
AcDbEntity
  8
寸法
 62
     0
370
    -2
100
AcDbLine
 10
45.3533207625029
 20
143.4882222725964
 30
0.0
 11
171.3161885838495
 21
143.4882222725964
 31
0.0
  0
INSERT
  5
3C0C
330
3C07
100
AcDbEntity
  8
寸法
 62
     0
370
    -2
100
AcDbBlockReference
  2
_DOT
 10
43.3533207625029
 20
143.4882222725964
 30
0.0
 41
2.0
 42
2.0
 43
2.0
 50
180.0
  0
INSERT
  5
3C0D
330
3C07
100
AcDbEntity
  8
寸法
 62
     0
370
    -2
100
AcDbBlockReference
  2
_DOT
 10
173.3161885838495
 20
143.4882222725964
 30
0.0
 41
2.0
 42
2.0
 43
2.0
  0
MTEXT
  5
3C0E
330
3C07
100
AcDbEntity
  8
寸法
 62
     0
100
AcDbMText
 10
108.3347546731762
 20
150.9882222725964
 30
0.0
 40
5.0
 41
0.0
 46
0.0
 71
     5
 72
     1
  1
\A1;130
  7
ＭＳ ゴシック
 73
     1
 44
1.0
  0
POINT
  5
3C0F
330
3C07
100
AcDbEntity
  8
Defpoints
 62
     0
100
AcDbPoint
 10
43.35332076250292
 20
179.3524256192906
 30
0.0
  0
POINT
  5
3C10
330
3C07
100
AcDbEntity
  8
Defpoints
 62
     0
100
AcDbPoint
 10
173.3161885838495
 20
179.3524256192906
 30
0.0
  0
POINT
  5
3C11
330
3C07
100
AcDbEntity
  8
Defpoints
 62
     0
100
AcDbPoint
 10
173.3161885838495
 20
143.4882222725964
 30
0.0
  0
ENDBLK
  5
3C12
330
3C07
100
AcDbEntity
  8
0
100
AcDbBlockEnd
  0
BLOCK
  5
3C15
330
3C14
100
AcDbEntity
  8
0
100
AcDbBlockBegin
  2
*D39
 70
     1
 10
0.0
 20
0.0
 30
0.0
  3
*D39
  1
*D20
  0
LINE
  5
3C16
330
3C14
100
AcDbEntity
  8
寸法
 62
     0
370
    -2
100
AcDbLine
 10
46.50269950896121
 20
69.67414061748563
 30
0.0
 11
10.00000000000003
 21
69.67414061748563
 31
0.0
  0
LINE
  5
3C17
330
3C14
100
AcDbEntity
  8
寸法
 62
     0
370
    -2
100
AcDbLine
 10
46.50269950896121
 20
17.67414061748565
 30
0.0
 11
10.00000000000003
 21
17.67414061748565
 31
0.0
  0
LINE
  5
3C18
330
3C14
100
AcDbEntity
  8
寸法
 62
     0
370
    -2
100
AcDbLine
 10
10.00000000000003
 20
67.67414061748563
 30
0.0
 11
10.00000000000003
 21
19.67414061748565
 31
0.0
  0
INSERT
  5
3C19
330
3C14
100
AcDbEntity
  8
寸法
 62
     0
370
    -2
100
AcDbBlockReference
  2
_DOT
 10
10.00000000000003
 20
69.67414061748563
 30
0.0
 41
2.0
 42
2.0
 43
2.0
 50
90.0
  0
INSERT
  5
3C1A
330
3C14
100
AcDbEntity
  8
寸法
 62
     0
370
    -2
100
AcDbBlockReference
  2
_DOT
 10
10.00000000000003
 20
17.67414061748565
 30
0.0
 41
2.0
 42
2.0
 43
2.0
 50
270.0
  0
MTEXT
  5
3C1B
330
3C14
100
AcDbEntity
  8
寸法
 62
     0
100
AcDbMText
 10
2.500000000000028
 20
43.67414061748563
 30
0.0
 40
5.0
 41
0.0
 46
0.0
 71
     5
 72
     1
  1
\A1;52
  7
ＭＳ ゴシック
 11
6.832141690000965E-17
 21
1.0
 31
0.0
 73
     1
 44
1.0
  0
POINT
  5
3C1C
330
3C14
100
AcDbEntity
  8
Defpoints
 62
     0
100
AcDbPoint
 10
51.50269950896121
 20
69.67414061748563
 30
0.0
  0
POINT
  5
3C1D
330
3C14
100
AcDbEntity
  8
Defpoints
 62
     0
100
AcDbPoint
 10
51.50269950896121
 20
17.67414061748565
 30
0.0
  0
POINT
  5
3C1E
330
3C14
100
AcDbEntity
  8
Defpoints
 62
     0
100
AcDbPoint
 10
10.00000000000003
 20
17.67414061748565
 30
0.0
  0
ENDBLK
  5
3C1F
330
3C14
100
AcDbEntity
  8
0
100
AcDbBlockEnd
  0
BLOCK
  5
3C22
330
3C21
100
AcDbEntity
  8
0
100
AcDbBlockBegin
  2
*D40
 70
     1
 10
0.0
 20
0.0
 30
0.0
  3
*D40
  1
*D21
  0
LINE
  5
3C23
330
3C21
100
AcDbEntity
  8
寸法
 62
     0
370
    -2
100
AcDbLine
 10
32.34623342581521
 20
38.67414061748563
 30
0.0
 11
32.34623342581521
 21
0.5
 31
0.0
  0
LINE
  5
3C24
330
3C21
100
AcDbEntity
  8
寸法
 62
     0
370
    -2
100
AcDbLine
 10
70.44729207999262
 20
38.67414061748563
 30
0.0
 11
70.44729207999262
 21
0.5
 31
0.0
  0
LINE
  5
3C25
330
3C21
100
AcDbEntity
  8
寸法
 62
     0
370
    -2
100
AcDbLine
 10
34.34623342581521
 20
0.5
 30
0.0
 11
68.44729207999262
 21
0.5
 31
0.0
  0
INSERT
  5
3C26
330
3C21
100
AcDbEntity
  8
寸法
 62
     0
370
    -2
100
AcDbBlockReference
  2
_DOT
 10
32.34623342581521
 20
0.5
 30
0.0
 41
2.0
 42
2.0
 43
2.0
 50
180.0
  0
INSERT
  5
3C27
330
3C21
100
AcDbEntity
  8
寸法
 62
     0
370
    -2
100
AcDbBlockReference
  2
_DOT
 10
70.44729207999262
 20
0.5
 30
0.0
 41
2.0
 42
2.0
 43
2.0
  0
MTEXT
  5
3C28
330
3C21
100
AcDbEntity
  8
寸法
 62
     0
100
AcDbMText
 10
51.39676275290392
 20
8.0
 30
0.0
 40
5.0
 41
0.0
 46
0.0
 71
     5
 72
     1
  1
\A1;38
  7
ＭＳ ゴシック
 73
     1
 44
1.0
  0
POINT
  5
3C29
330
3C21
100
AcDbEntity
  8
Defpoints
 62
     0
100
AcDbPoint
 10
32.34623342581521
 20
43.67414061748563
 30
0.0
  0
POINT
  5
3C2A
330
3C21
100
AcDbEntity
  8
Defpoints
 62
     0
100
AcDbPoint
 10
70.44729207999262
 20
43.67414061748563
 30
0.0
  0
POINT
  5
3C2B
330
3C21
100
AcDbEntity
  8
Defpoints
 62
     0
100
AcDbPoint
 10
70.44729207999262
 20
0.5
 30
0.0
  0
ENDBLK
  5
3C2C
330
3C21
100
AcDbEntity
  8
0
100
AcDbBlockEnd
  0
BLOCK
  5
3C31
330
3C30
100
AcDbEntity
  8
0
100
AcDbBlockBegin
  2
*D41
 70
     1
 10
0.0
 20
0.0
 30
0.0
  3
*D41
  1
*D23
  0
LINE
  5
3C32
330
3C30
100
AcDbEntity
  8
寸法
 62
     0
370
    -2
100
AcDbLine
 10
177.4686945353909
 20
179.3524256192906
 30
0.0
 11
217.0165546742531
 21
179.3524256192906
 31
0.0
  0
LINE
  5
3C33
330
3C30
100
AcDbEntity
  8
寸法
 62
     0
370
    -2
100
AcDbLine
 10
82.22207682102433
 20
242.0066959944616
 30
0.0
 11
217.0165546742531
 21
242.0066959944616
 31
0.0
  0
LINE
  5
3C34
330
3C30
100
AcDbEntity
  8
寸法
 62
     0
370
    -2
100
AcDbLine
 10
217.0165546742531
 20
181.3524256192906
 30
0.0
 11
217.0165546742531
 21
240.0066959944616
 31
0.0
  0
INSERT
  5
3C35
330
3C30
100
AcDbEntity
  8
寸法
 62
     0
370
    -2
100
AcDbBlockReference
  2
_DOT
 10
217.0165546742531
 20
179.3524256192906
 30
0.0
 41
2.0
 42
2.0
 43
2.0
 50
270.0
  0
INSERT
  5
3C36
330
3C30
100
AcDbEntity
  8
寸法
 62
     0
370
    -2
100
AcDbBlockReference
  2
_DOT
 10
217.0165546742531
 20
242.0066959944616
 30
0.0
 41
2.0
 42
2.0
 43
2.0
 50
90.0
  0
MTEXT
  5
3C37
330
3C30
100
AcDbEntity
  8
寸法
 62
     0
100
AcDbMText
 10
209.5165546742531
 20
210.6795608068761
 30
0.0
 40
5.0
 41
0.0
 46
0.0
 71
     5
 72
     1
  1
\A1;63
  7
ＭＳ ゴシック
 11
0.0
 21
1.0
 31
0.0
 73
     1
 44
1.0
  0
POINT
  5
3C38
330
3C30
100
AcDbEntity
  8
Defpoints
 62
     0
100
AcDbPoint
 10
172.4686945353909
 20
179.3524256192906
 30
0.0
  0
POINT
  5
3C39
330
3C30
100
AcDbEntity
  8
Defpoints
 62
     0
100
AcDbPoint
 10
77.22207682102433
 20
242.0066959944616
 30
0.0
  0
POINT
  5
3C3A
330
3C30
100
AcDbEntity
  8
Defpoints
 62
     0
100
AcDbPoint
 10
217.0165546742531
 20
242.0066959944616
 30
0.0
  0
ENDBLK
  5
3C3B
330
3C30
100
AcDbEntity
  8
0
100
AcDbBlockEnd
  0
BLOCK
  5
3C50
330
3C4F
100
AcDbEntity
  8
0
100
AcDbBlockBegin
  2
*D42
 70
     1
 10
0.0
 20
0.0
 30
0.0
  3
*D42
  1
*D25
  0
LINE
  5
3C51
330
3C4F
100
AcDbEntity
  8
寸法
 62
     0
370
    -2
100
AcDbLine
 10
282.2008533256959
 20
12.60493310365254
 30
0.0
 11
282.2008533256959
 21
0.6695257147134583
 31
0.0
  0
LINE
  5
3C52
330
3C4F
100
AcDbEntity
  8
寸法
 62
     0
370
    -2
100
AcDbLine
 10
276.273562633123
 20
12.60493310365254
 30
0.0
 11
276.273562633123
 21
0.6695257147134583
 31
0.0
  0
LINE
  5
3C53
330
3C4F
100
AcDbEntity
  8
寸法
 62
     0
370
    -2
100
AcDbLine
 10
280.2008533256959
 20
0.6695257147134583
 30
0.0
 11
278.273562633123
 21
0.6695257147134583
 31
0.0
  0
INSERT
  5
3C54
330
3C4F
100
AcDbEntity
  8
寸法
 62
     0
370
    -2
100
AcDbBlockReference
  2
_DOT
 10
282.2008533256959
 20
0.6695257147134583
 30
0.0
 41
2.0
 42
2.0
 43
2.0
  0
INSERT
  5
3C55
330
3C4F
100
AcDbEntity
  8
寸法
 62
     0
370
    -2
100
AcDbBlockReference
  2
_DOT
 10
276.273562633123
 20
0.6695257147134583
 30
0.0
 41
2.0
 42
2.0
 43
2.0
 50
180.0
  0
MTEXT
  5
3C56
330
3C4F
100
AcDbEntity
  8
寸法
 62
     0
100
AcDbMText
 10
279.2372079794095
 20
8.169525714713458
 30
0.0
 40
5.0
 41
0.0
 46
0.0
 71
     5
 72
     1
  1
\A1;6
  7
ＭＳ ゴシック
 73
     1
 44
1.0
  0
POINT
  5
3C57
330
3C4F
100
AcDbEntity
  8
Defpoints
 62
     0
100
AcDbPoint
 10
282.2008533256959
 20
17.60493310365254
 30
0.0
  0
POINT
  5
3C58
330
3C4F
100
AcDbEntity
  8
Defpoints
 62
     0
100
AcDbPoint
 10
276.273562633123
 20
17.60493310365254
 30
0.0
  0
POINT
  5
3C59
330
3C4F
100
AcDbEntity
  8
Defpoints
 62
     0
100
AcDbPoint
 10
276.273562633123
 20
0.6695257147134583
 30
0.0
  0
ENDBLK
  5
3C5A
330
3C4F
100
AcDbEntity
  8
0
100
AcDbBlockEnd
  0
BLOCK
  5
3C5F
330
3C5E
100
AcDbEntity
  8
0
100
AcDbBlockBegin
  2
*D43
 70
     1
 10
0.0
 20
0.0
 30
0.0
  3
*D43
  1
*D26
  0
LINE
  5
3C60
330
3C5E
100
AcDbEntity
  8
寸法
 62
     0
370
    -2
100
AcDbLine
 10
16.20879177000657
 20
236.0794053018885
 30
0.0
 11
10.00000000000003
 21
236.0794053018885
 31
0.0
  0
LINE
  5
3C61
330
3C5E
100
AcDbEntity
  8
寸法
 62
     0
370
    -2
100
AcDbLine
 10
38.35332076250292
 20
179.3524256192906
 30
0.0
 11
10.00000000000003
 21
179.3524256192906
 31
0.0
  0
LINE
  5
3C62
330
3C5E
100
AcDbEntity
  8
寸法
 62
     0
370
    -2
100
AcDbLine
 10
10.00000000000003
 20
234.0794053018885
 30
0.0
 11
10.00000000000003
 21
181.3524256192906
 31
0.0
  0
INSERT
  5
3C63
330
3C5E
100
AcDbEntity
  8
寸法
 62
     0
370
    -2
100
AcDbBlockReference
  2
_DOT
 10
10.00000000000003
 20
236.0794053018885
 30
0.0
 41
2.0
 42
2.0
 43
2.0
 50
90.0
  0
INSERT
  5
3C64
330
3C5E
100
AcDbEntity
  8
寸法
 62
     0
370
    -2
100
AcDbBlockReference
  2
_DOT
 10
10.00000000000003
 20
179.3524256192906
 30
0.0
 41
2.0
 42
2.0
 43
2.0
 50
270.0
  0
MTEXT
  5
3C65
330
3C5E
100
AcDbEntity
  8
寸法
 62
     0
100
AcDbMText
 10
2.50000000000003
 20
207.7159154605896
 30
0.0
 40
5.0
 41
0.0
 46
0.0
 71
     5
 72
     1
  1
\A1;57
  7
ＭＳ ゴシック
 11
6.262828902012500E-17
 21
1.0
 31
0.0
 73
     1
 44
1.0
  0
POINT
  5
3C66
330
3C5E
100
AcDbEntity
  8
Defpoints
 62
     0
100
AcDbPoint
 10
21.20879177000657
 20
236.0794053018885
 30
0.0
  0
POINT
  5
3C67
330
3C5E
100
AcDbEntity
  8
Defpoints
 62
     0
100
AcDbPoint
 10
43.35332076250292
 20
179.3524256192906
 30
0.0
  0
POINT
  5
3C68
330
3C5E
100
AcDbEntity
  8
Defpoints
 62
     0
100
AcDbPoint
 10
10.00000000000003
 20
179.3524256192906
 30
0.0
  0
ENDBLK
  5
3C69
330
3C5E
100
AcDbEntity
  8
0
100
AcDbBlockEnd
  0
BLOCK
  5
3C6E
330
3C6D
100
AcDbEntity
  8
0
100
AcDbBlockBegin
  2
*D44
 70
     1
 10
0.0
 20
0.0
 30
0.0
  3
*D44
  1
*D27
  0
LINE
  5
3C6F
330
3C6D
100
AcDbEntity
  8
寸法
 62
     0
370
    -2
100
AcDbLine
 10
178.3161885838495
 20
51.50484782133263
 30
0.0
 11
198.2931473290717
 21
51.50484782133263
 31
0.0
  0
LINE
  5
3C70
330
3C6D
100
AcDbEntity
  8
寸法
 62
     0
370
    -2
100
AcDbLine
 10
178.3161885838495
 20
35.84343341363864
 30
0.0
 11
198.2931473290717
 21
35.84343341363864
 31
0.0
  0
LINE
  5
3C71
330
3C6D
100
AcDbEntity
  8
寸法
 62
     0
370
    -2
100
AcDbLine
 10
198.2931473290717
 20
49.50484782133263
 30
0.0
 11
198.2931473290717
 21
37.84343341363864
 31
0.0
  0
INSERT
  5
3C72
330
3C6D
100
AcDbEntity
  8
寸法
 62
     0
370
    -2
100
AcDbBlockReference
  2
_DOT
 10
198.2931473290717
 20
51.50484782133263
 30
0.0
 41
2.0
 42
2.0
 43
2.0
 50
90.0
  0
INSERT
  5
3C73
330
3C6D
100
AcDbEntity
  8
寸法
 62
     0
370
    -2
100
AcDbBlockReference
  2
_DOT
 10
198.2931473290717
 20
35.84343341363864
 30
0.0
 41
2.0
 42
2.0
 43
2.0
 50
270.0
  0
MTEXT
  5
3C74
330
3C6D
100
AcDbEntity
  8
寸法
 62
     0
100
AcDbMText
 10
190.7931473290717
 20
43.67414061748563
 30
0.0
 40
5.0
 41
0.0
 46
0.0
 71
     5
 72
     1
  1
\A1;16
  7
ＭＳ ゴシック
 11
0.0
 21
1.0
 31
0.0
 73
     1
 44
1.0
  0
POINT
  5
3C75
330
3C6D
100
AcDbEntity
  8
Defpoints
 62
     0
100
AcDbPoint
 10
173.3161885838495
 20
51.50484782133263
 30
0.0
  0
POINT
  5
3C76
330
3C6D
100
AcDbEntity
  8
Defpoints
 62
     0
100
AcDbPoint
 10
173.3161885838495
 20
35.84343341363864
 30
0.0
  0
POINT
  5
3C77
330
3C6D
100
AcDbEntity
  8
Defpoints
 62
     0
100
AcDbPoint
 10
198.2931473290717
 20
35.84343341363864
 30
0.0
  0
ENDBLK
  5
3C78
330
3C6D
100
AcDbEntity
  8
0
100
AcDbBlockEnd
  0
BLOCK
  5
3CE6
330
3CE5
100
AcDbEntity
  8
0
100
AcDbBlockBegin
  2
*D45
 70
     1
 10
0.0
 20
0.0
 30
0.0
  3
*D45
  1
*D46
  0
LINE
  5
3CE8
330
3CE5
100
AcDbEntity
  8
寸法
 62
     0
370
    -2
100
AcDbLine
 10
150.921742662234
 20
365.2066959944615
 30
0.0
 11
150.921742662234
 21
376.3589706413738
 31
0.0
  0
LINE
  5
3CE9
330
3CE5
100
AcDbEntity
  8
寸法
 62
     0
370
    -2
100
AcDbLine
 10
202.5706482495957
 20
365.2066959944615
 30
0.0
 11
202.5706482495957
 21
376.3589706413738
 31
0.0
  0
LINE
  5
3CEA
330
3CE5
100
AcDbEntity
  8
寸法
 62
     0
370
    -2
100
AcDbLine
 10
152.921742662234
 20
376.3589706413738
 30
0.0
 11
200.5706482495957
 21
376.3589706413738
 31
0.0
  0
INSERT
  5
3CEB
330
3CE5
100
AcDbEntity
  8
寸法
 62
     0
370
    -2
100
AcDbBlockReference
  2
_DOT
 10
150.921742662234
 20
376.3589706413738
 30
0.0
 41
2.0
 42
2.0
 43
2.0
 50
180.0
  0
INSERT
  5
3CEC
330
3CE5
100
AcDbEntity
  8
寸法
 62
     0
370
    -2
100
AcDbBlockReference
  2
_DOT
 10
202.5706482495957
 20
376.3589706413738
 30
0.0
 41
2.0
 42
2.0
 43
2.0
  0
MTEXT
  5
3CED
330
3CE5
100
AcDbEntity
  8
寸法
 62
     0
100
AcDbMText
 10
176.7461954559149
 20
383.8589706413738
 30
0.0
 40
5.0
 41
0.0
 46
0.0
 71
     5
 72
     1
  1
\A1;52
  7
ＭＳ ゴシック
 73
     1
 44
1.0
  0
POINT
  5
3CEE
330
3CE5
100
AcDbEntity
  8
Defpoints
 62
     0
100
AcDbPoint
 10
150.921742662234
 20
360.2066959944615
 30
0.0
  0
POINT
  5
3CEF
330
3CE5
100
AcDbEntity
  8
Defpoints
 62
     0
100
AcDbPoint
 10
202.5706482495957
 20
360.2066959944615
 30
0.0
  0
POINT
  5
3CF0
330
3CE5
100
AcDbEntity
  8
Defpoints
 62
     0
100
AcDbPoint
 10
202.5706482495957
 20
376.3589706413738
 30
0.0
  0
ENDBLK
  5
3CE7
330
3CE5
100
AcDbEntity
  8
0
100
AcDbBlockEnd
  0
BLOCK
  5
3CF2
330
3CF1
100
AcDbEntity
  8
0
100
AcDbBlockBegin
  2
*D46
 70
     1
 10
0.0
 20
0.0
 30
0.0
  3
*D46
  1
*D47
  0
LINE
  5
3CF4
330
3CF1
100
AcDbEntity
  8
寸法
 62
     0
370
    -2
100
AcDbLine
 10
145.921742662234
 20
360.2066959944615
 30
0.0
 11
135.3485714285714
 21
360.2066959944615
 31
0.0
  0
LINE
  5
3CF5
330
3CF1
100
AcDbEntity
  8
寸法
 62
     0
370
    -2
100
AcDbLine
 10
146.557363198578
 20
354.2794053018885
 30
0.0
 11
135.3485714285714
 21
354.2794053018885
 31
0.0
  0
LINE
  5
3CF6
330
3CF1
100
AcDbEntity
  8
寸法
 62
     0
370
    -2
100
AcDbLine
 10
135.3485714285714
 20
358.2066959944615
 30
0.0
 11
135.3485714285714
 21
356.2794053018885
 31
0.0
  0
INSERT
  5
3CF7
330
3CF1
100
AcDbEntity
  8
寸法
 62
     0
370
    -2
100
AcDbBlockReference
  2
_DOT
 10
135.3485714285714
 20
360.2066959944615
 30
0.0
 41
2.0
 42
2.0
 43
2.0
 50
90.0
  0
INSERT
  5
3CF8
330
3CF1
100
AcDbEntity
  8
寸法
 62
     0
370
    -2
100
AcDbBlockReference
  2
_DOT
 10
135.3485714285714
 20
354.2794053018885
 30
0.0
 41
2.0
 42
2.0
 43
2.0
 50
270.0
  0
MTEXT
  5
3CF9
330
3CF1
100
AcDbEntity
  8
寸法
 62
     0
100
AcDbMText
 10
127.8485714285714
 20
357.243050648175
 30
0.0
 40
5.0
 41
0.0
 46
0.0
 71
     5
 72
     1
  1
\A1;6
  7
ＭＳ ゴシック
 11
0.0
 21
1.0
 31
0.0
 73
     1
 44
1.0
  0
POINT
  5
3CFA
330
3CF1
100
AcDbEntity
  8
Defpoints
 62
     0
100
AcDbPoint
 10
150.921742662234
 20
360.2066959944615
 30
0.0
  0
POINT
  5
3CFB
330
3CF1
100
AcDbEntity
  8
Defpoints
 62
     0
100
AcDbPoint
 10
151.557363198578
 20
354.2794053018885
 30
0.0
  0
POINT
  5
3CFC
330
3CF1
100
AcDbEntity
  8
Defpoints
 62
     0
100
AcDbPoint
 10
135.3485714285714
 20
354.2794053018885
 30
0.0
  0
ENDBLK
  5
3CF3
330
3CF1
100
AcDbEntity
  8
0
100
AcDbBlockEnd
  0
BLOCK
  5
3CFE
330
3CFD
100
AcDbEntity
  8
0
100
AcDbBlockBegin
  2
*D47
 70
     1
 10
0.0
 20
0.0
 30
0.0
  3
*D47
  1
*D48
  0
LINE
  5
3D00
330
3CFD
100
AcDbEntity
  8
寸法
 62
     0
370
    -2
100
AcDbLine
 10
302.8189885128413
 20
313.6393096000927
 30
0.0
 11
323.6417187576431
 21
313.6393096000927
 31
0.0
  0
LINE
  5
3D01
330
3CFD
100
AcDbEntity
  8
寸法
 62
     0
370
    -2
100
AcDbLine
 10
302.8172659639623
 20
297.5524256192906
 30
0.0
 11
323.6417187576431
 21
297.5524256192906
 31
0.0
  0
LINE
  5
3D02
330
3CFD
100
AcDbEntity
  8
寸法
 62
     0
370
    -2
100
AcDbLine
 10
323.6417187576431
 20
311.6393096000927
 30
0.0
 11
323.6417187576431
 21
299.5524256192906
 31
0.0
  0
INSERT
  5
3D03
330
3CFD
100
AcDbEntity
  8
寸法
 62
     0
370
    -2
100
AcDbBlockReference
  2
_DOT
 10
323.6417187576431
 20
313.6393096000927
 30
0.0
 41
2.0
 42
2.0
 43
2.0
 50
90.0
  0
INSERT
  5
3D04
330
3CFD
100
AcDbEntity
  8
寸法
 62
     0
370
    -2
100
AcDbBlockReference
  2
_DOT
 10
323.6417187576431
 20
297.5524256192906
 30
0.0
 41
2.0
 42
2.0
 43
2.0
 50
270.0
  0
MTEXT
  5
3D05
330
3CFD
100
AcDbEntity
  8
寸法
 62
     0
100
AcDbMText
 10
316.1417187576431
 20
305.5958676096917
 30
0.0
 40
5.0
 41
0.0
 46
0.0
 71
     5
 72
     1
  1
\A1;16
  7
ＭＳ ゴシック
 11
0.0
 21
1.0
 31
0.0
 73
     1
 44
1.0
  0
POINT
  5
3D06
330
3CFD
100
AcDbEntity
  8
Defpoints
 62
     0
100
AcDbPoint
 10
297.8189885128413
 20
313.6393096000927
 30
0.0
  0
POINT
  5
3D07
330
3CFD
100
AcDbEntity
  8
Defpoints
 62
     0
100
AcDbPoint
 10
297.8172659639623
 20
297.5524256192906
 30
0.0
  0
POINT
  5
3D08
330
3CFD
100
AcDbEntity
  8
Defpoints
 62
     0
100
AcDbPoint
 10
323.6417187576431
 20
297.5524256192906
 30
0.0
  0
ENDBLK
  5
3CFF
330
3CFD
100
AcDbEntity
  8
0
100
AcDbBlockEnd
  0
BLOCK
  5
3D0A
330
3D09
100
AcDbEntity
  8
0
100
AcDbBlockBegin
  2
*D48
 70
     1
 10
0.0
 20
0.0
 30
0.0
  3
*D48
  1
*D49
  0
LINE
  5
3D0C
330
3D09
100
AcDbEntity
  8
寸法
 62
     0
370
    -2
100
AcDbLine
 10
168.7018921910743
 20
292.5524256192906
 30
0.0
 11
168.7018921910743
 21
261.6882222725964
 31
0.0
  0
LINE
  5
3D0D
330
3D09
100
AcDbEntity
  8
寸法
 62
     0
370
    -2
100
AcDbLine
 10
298.6647600124209
 20
292.5524256192906
 30
0.0
 11
298.6647600124209
 21
261.6882222725964
 31
0.0
  0
LINE
  5
3D0E
330
3D09
100
AcDbEntity
  8
寸法
 62
     0
370
    -2
100
AcDbLine
 10
170.7018921910743
 20
261.6882222725964
 30
0.0
 11
296.6647600124209
 21
261.6882222725964
 31
0.0
  0
INSERT
  5
3D0F
330
3D09
100
AcDbEntity
  8
寸法
 62
     0
370
    -2
100
AcDbBlockReference
  2
_DOT
 10
168.7018921910743
 20
261.6882222725964
 30
0.0
 41
2.0
 42
2.0
 43
2.0
 50
180.0
  0
INSERT
  5
3D10
330
3D09
100
AcDbEntity
  8
寸法
 62
     0
370
    -2
100
AcDbBlockReference
  2
_DOT
 10
298.6647600124209
 20
261.6882222725964
 30
0.0
 41
2.0
 42
2.0
 43
2.0
  0
MTEXT
  5
3D11
330
3D09
100
AcDbEntity
  8
寸法
 62
     0
100
AcDbMText
 10
233.6833261017476
 20
269.1882222725964
 30
0.0
 40
5.0
 41
0.0
 46
0.0
 71
     5
 72
     1
  1
\A1;130
  7
ＭＳ ゴシック
 73
     1
 44
1.0
  0
POINT
  5
3D12
330
3D09
100
AcDbEntity
  8
Defpoints
 62
     0
100
AcDbPoint
 10
168.7018921910743
 20
297.5524256192906
 30
0.0
  0
POINT
  5
3D13
330
3D09
100
AcDbEntity
  8
Defpoints
 62
     0
100
AcDbPoint
 10
298.6647600124209
 20
297.5524256192906
 30
0.0
  0
POINT
  5
3D14
330
3D09
100
AcDbEntity
  8
Defpoints
 62
     0
100
AcDbPoint
 10
298.6647600124209
 20
261.6882222725964
 30
0.0
  0
ENDBLK
  5
3D0B
330
3D09
100
AcDbEntity
  8
0
100
AcDbBlockEnd
  0
BLOCK
  5
3D16
330
3D15
100
AcDbEntity
  8
0
100
AcDbBlockBegin
  2
*D49
 70
     1
 10
0.0
 20
0.0
 30
0.0
  3
*D49
  1
*D50
  0
LINE
  5
3D18
330
3D15
100
AcDbEntity
  8
寸法
 62
     0
370
    -2
100
AcDbLine
 10
171.8512709375326
 20
187.8741406174856
 30
0.0
 11
135.3485714285714
 21
187.8741406174856
 31
0.0
  0
LINE
  5
3D19
330
3D15
100
AcDbEntity
  8
寸法
 62
     0
370
    -2
100
AcDbLine
 10
171.8512709375326
 20
135.8741406174856
 30
0.0
 11
135.3485714285714
 21
135.8741406174856
 31
0.0
  0
LINE
  5
3D1A
330
3D15
100
AcDbEntity
  8
寸法
 62
     0
370
    -2
100
AcDbLine
 10
135.3485714285714
 20
185.8741406174856
 30
0.0
 11
135.3485714285714
 21
137.8741406174856
 31
0.0
  0
INSERT
  5
3D1B
330
3D15
100
AcDbEntity
  8
寸法
 62
     0
370
    -2
100
AcDbBlockReference
  2
_DOT
 10
135.3485714285714
 20
187.8741406174856
 30
0.0
 41
2.0
 42
2.0
 43
2.0
 50
90.0
  0
INSERT
  5
3D1C
330
3D15
100
AcDbEntity
  8
寸法
 62
     0
370
    -2
100
AcDbBlockReference
  2
_DOT
 10
135.3485714285714
 20
135.8741406174856
 30
0.0
 41
2.0
 42
2.0
 43
2.0
 50
270.0
  0
MTEXT
  5
3D1D
330
3D15
100
AcDbEntity
  8
寸法
 62
     0
100
AcDbMText
 10
127.8485714285714
 20
161.8741406174856
 30
0.0
 40
5.0
 41
0.0
 46
0.0
 71
     5
 72
     1
  1
\A1;52
  7
ＭＳ ゴシック
 11
0.0
 21
1.0
 31
0.0
 73
     1
 44
1.0
  0
POINT
  5
3D1E
330
3D15
100
AcDbEntity
  8
Defpoints
 62
     0
100
AcDbPoint
 10
176.8512709375326
 20
187.8741406174856
 30
0.0
  0
POINT
  5
3D1F
330
3D15
100
AcDbEntity
  8
Defpoints
 62
     0
100
AcDbPoint
 10
176.8512709375326
 20
135.8741406174856
 30
0.0
  0
POINT
  5
3D20
330
3D15
100
AcDbEntity
  8
Defpoints
 62
     0
100
AcDbPoint
 10
135.3485714285714
 20
135.8741406174856
 30
0.0
  0
ENDBLK
  5
3D17
330
3D15
100
AcDbEntity
  8
0
100
AcDbBlockEnd
  0
BLOCK
  5
3D22
330
3D21
100
AcDbEntity
  8
0
100
AcDbBlockBegin
  2
*D50
 70
     1
 10
0.0
 20
0.0
 30
0.0
  3
*D50
  1
*D51
  0
LINE
  5
3D24
330
3D21
100
AcDbEntity
  8
寸法
 62
     0
370
    -2
100
AcDbLine
 10
157.6948048543866
 20
156.8741406174856
 30
0.0
 11
157.6948048543866
 21
118.7
 31
0.0
  0
LINE
  5
3D25
330
3D21
100
AcDbEntity
  8
寸法
 62
     0
370
    -2
100
AcDbLine
 10
195.795863508564
 20
156.8741406174856
 30
0.0
 11
195.795863508564
 21
118.7
 31
0.0
  0
LINE
  5
3D26
330
3D21
100
AcDbEntity
  8
寸法
 62
     0
370
    -2
100
AcDbLine
 10
159.6948048543866
 20
118.7
 30
0.0
 11
193.795863508564
 21
118.7
 31
0.0
  0
INSERT
  5
3D27
330
3D21
100
AcDbEntity
  8
寸法
 62
     0
370
    -2
100
AcDbBlockReference
  2
_DOT
 10
157.6948048543866
 20
118.7
 30
0.0
 41
2.0
 42
2.0
 43
2.0
 50
180.0
  0
INSERT
  5
3D28
330
3D21
100
AcDbEntity
  8
寸法
 62
     0
370
    -2
100
AcDbBlockReference
  2
_DOT
 10
195.795863508564
 20
118.7
 30
0.0
 41
2.0
 42
2.0
 43
2.0
  0
MTEXT
  5
3D29
330
3D21
100
AcDbEntity
  8
寸法
 62
     0
100
AcDbMText
 10
176.7453341814753
 20
126.2
 30
0.0
 40
5.0
 41
0.0
 46
0.0
 71
     5
 72
     1
  1
\A1;38
  7
ＭＳ ゴシック
 73
     1
 44
1.0
  0
POINT
  5
3D2A
330
3D21
100
AcDbEntity
  8
Defpoints
 62
     0
100
AcDbPoint
 10
157.6948048543866
 20
161.8741406174856
 30
0.0
  0
POINT
  5
3D2B
330
3D21
100
AcDbEntity
  8
Defpoints
 62
     0
100
AcDbPoint
 10
195.795863508564
 20
161.8741406174856
 30
0.0
  0
POINT
  5
3D2C
330
3D21
100
AcDbEntity
  8
Defpoints
 62
     0
100
AcDbPoint
 10
195.795863508564
 20
118.7
 30
0.0
  0
ENDBLK
  5
3D23
330
3D21
100
AcDbEntity
  8
0
100
AcDbBlockEnd
  0
BLOCK
  5
3D2E
330
3D2D
100
AcDbEntity
  8
0
100
AcDbBlockBegin
  2
*D51
 70
     1
 10
0.0
 20
0.0
 30
0.0
  3
*D51
  1
*D52
  0
LINE
  5
3D30
330
3D2D
100
AcDbEntity
  8
寸法
 62
     0
370
    -2
100
AcDbLine
 10
302.8172659639623
 20
297.5524256192906
 30
0.0
 11
342.3651261028245
 21
297.5524256192906
 31
0.0
  0
LINE
  5
3D31
330
3D2D
100
AcDbEntity
  8
寸法
 62
     0
370
    -2
100
AcDbLine
 10
207.5706482495957
 20
360.2066959944615
 30
0.0
 11
342.3651261028245
 21
360.2066959944615
 31
0.0
  0
LINE
  5
3D32
330
3D2D
100
AcDbEntity
  8
寸法
 62
     0
370
    -2
100
AcDbLine
 10
342.3651261028245
 20
299.5524256192906
 30
0.0
 11
342.3651261028245
 21
358.2066959944615
 31
0.0
  0
INSERT
  5
3D33
330
3D2D
100
AcDbEntity
  8
寸法
 62
     0
370
    -2
100
AcDbBlockReference
  2
_DOT
 10
342.3651261028245
 20
297.5524256192906
 30
0.0
 41
2.0
 42
2.0
 43
2.0
 50
270.0
  0
INSERT
  5
3D34
330
3D2D
100
AcDbEntity
  8
寸法
 62
     0
370
    -2
100
AcDbBlockReference
  2
_DOT
 10
342.3651261028245
 20
360.2066959944615
 30
0.0
 41
2.0
 42
2.0
 43
2.0
 50
90.0
  0
MTEXT
  5
3D35
330
3D2D
100
AcDbEntity
  8
寸法
 62
     0
100
AcDbMText
 10
334.8651261028245
 20
328.879560806876
 30
0.0
 40
5.0
 41
0.0
 46
0.0
 71
     5
 72
     1
  1
\A1;63
  7
ＭＳ ゴシック
 11
0.0
 21
1.0
 31
0.0
 73
     1
 44
1.0
  0
POINT
  5
3D36
330
3D2D
100
AcDbEntity
  8
Defpoints
 62
     0
100
AcDbPoint
 10
297.8172659639623
 20
297.5524256192906
 30
0.0
  0
POINT
  5
3D37
330
3D2D
100
AcDbEntity
  8
Defpoints
 62
     0
100
AcDbPoint
 10
202.5706482495957
 20
360.2066959944615
 30
0.0
  0
POINT
  5
3D38
330
3D2D
100
AcDbEntity
  8
Defpoints
 62
     0
100
AcDbPoint
 10
342.3651261028245
 20
360.2066959944615
 30
0.0
  0
ENDBLK
  5
3D2F
330
3D2D
100
AcDbEntity
  8
0
100
AcDbBlockEnd
  0
BLOCK
  5
3D3A
330
3D39
100
AcDbEntity
  8
0
100
AcDbBlockBegin
  2
*D52
 70
     1
 10
0.0
 20
0.0
 30
0.0
  3
*D52
  1
*D53
  0
LINE
  5
3D3C
330
3D39
100
AcDbEntity
  8
寸法
 62
     0
370
    -2
100
AcDbLine
 10
407.5494247542673
 20
130.8049331036525
 30
0.0
 11
407.5494247542673
 21
118.8695257147134
 31
0.0
  0
LINE
  5
3D3D
330
3D39
100
AcDbEntity
  8
寸法
 62
     0
370
    -2
100
AcDbLine
 10
401.6221340616944
 20
130.8049331036525
 30
0.0
 11
401.6221340616944
 21
118.8695257147134
 31
0.0
  0
LINE
  5
3D3E
330
3D39
100
AcDbEntity
  8
寸法
 62
     0
370
    -2
100
AcDbLine
 10
405.5494247542673
 20
118.8695257147134
 30
0.0
 11
403.6221340616944
 21
118.8695257147134
 31
0.0
  0
INSERT
  5
3D3F
330
3D39
100
AcDbEntity
  8
寸法
 62
     0
370
    -2
100
AcDbBlockReference
  2
_DOT
 10
407.5494247542673
 20
118.8695257147134
 30
0.0
 41
2.0
 42
2.0
 43
2.0
  0
INSERT
  5
3D40
330
3D39
100
AcDbEntity
  8
寸法
 62
     0
370
    -2
100
AcDbBlockReference
  2
_DOT
 10
401.6221340616944
 20
118.8695257147134
 30
0.0
 41
2.0
 42
2.0
 43
2.0
 50
180.0
  0
MTEXT
  5
3D41
330
3D39
100
AcDbEntity
  8
寸法
 62
     0
100
AcDbMText
 10
404.5857794079809
 20
126.3695257147134
 30
0.0
 40
5.0
 41
0.0
 46
0.0
 71
     5
 72
     1
  1
\A1;6
  7
ＭＳ ゴシック
 73
     1
 44
1.0
  0
POINT
  5
3D42
330
3D39
100
AcDbEntity
  8
Defpoints
 62
     0
100
AcDbPoint
 10
407.5494247542673
 20
135.8049331036525
 30
0.0
  0
POINT
  5
3D43
330
3D39
100
AcDbEntity
  8
Defpoints
 62
     0
100
AcDbPoint
 10
401.6221340616944
 20
135.8049331036525
 30
0.0
  0
POINT
  5
3D44
330
3D39
100
AcDbEntity
  8
Defpoints
 62
     0
100
AcDbPoint
 10
401.6221340616944
 20
118.8695257147134
 30
0.0
  0
ENDBLK
  5
3D3B
330
3D39
100
AcDbEntity
  8
0
100
AcDbBlockEnd
  0
BLOCK
  5
3D46
330
3D45
100
AcDbEntity
  8
0
100
AcDbBlockBegin
  2
*D53
 70
     1
 10
0.0
 20
0.0
 30
0.0
  3
*D53
  1
*D54
  0
LINE
  5
3D48
330
3D45
100
AcDbEntity
  8
寸法
 62
     0
370
    -2
100
AcDbLine
 10
141.557363198578
 20
354.2794053018885
 30
0.0
 11
135.3485714285714
 21
354.2794053018885
 31
0.0
  0
LINE
  5
3D49
330
3D45
100
AcDbEntity
  8
寸法
 62
     0
370
    -2
100
AcDbLine
 10
163.7018921910743
 20
297.5524256192906
 30
0.0
 11
135.3485714285714
 21
297.5524256192906
 31
0.0
  0
LINE
  5
3D4A
330
3D45
100
AcDbEntity
  8
寸法
 62
     0
370
    -2
100
AcDbLine
 10
135.3485714285714
 20
352.2794053018885
 30
0.0
 11
135.3485714285714
 21
299.5524256192906
 31
0.0
  0
INSERT
  5
3D4B
330
3D45
100
AcDbEntity
  8
寸法
 62
     0
370
    -2
100
AcDbBlockReference
  2
_DOT
 10
135.3485714285714
 20
354.2794053018885
 30
0.0
 41
2.0
 42
2.0
 43
2.0
 50
90.0
  0
INSERT
  5
3D4C
330
3D45
100
AcDbEntity
  8
寸法
 62
     0
370
    -2
100
AcDbBlockReference
  2
_DOT
 10
135.3485714285714
 20
297.5524256192906
 30
0.0
 41
2.0
 42
2.0
 43
2.0
 50
270.0
  0
MTEXT
  5
3D4D
330
3D45
100
AcDbEntity
  8
寸法
 62
     0
100
AcDbMText
 10
127.8485714285714
 20
325.9159154605895
 30
0.0
 40
5.0
 41
0.0
 46
0.0
 71
     5
 72
     1
  1
\A1;57
  7
ＭＳ ゴシック
 11
0.0
 21
1.0
 31
0.0
 73
     1
 44
1.0
  0
POINT
  5
3D4E
330
3D45
100
AcDbEntity
  8
Defpoints
 62
     0
100
AcDbPoint
 10
146.557363198578
 20
354.2794053018885
 30
0.0
  0
POINT
  5
3D4F
330
3D45
100
AcDbEntity
  8
Defpoints
 62
     0
100
AcDbPoint
 10
168.7018921910743
 20
297.5524256192906
 30
0.0
  0
POINT
  5
3D50
330
3D45
100
AcDbEntity
  8
Defpoints
 62
     0
100
AcDbPoint
 10
135.3485714285714
 20
297.5524256192906
 30
0.0
  0
ENDBLK
  5
3D47
330
3D45
100
AcDbEntity
  8
0
100
AcDbBlockEnd
  0
BLOCK
  5
3D52
330
3D51
100
AcDbEntity
  8
0
100
AcDbBlockBegin
  2
*D54
 70
     1
 10
0.0
 20
0.0
 30
0.0
  3
*D54
  1
*D55
  0
LINE
  5
3D54
330
3D51
100
AcDbEntity
  8
寸法
 62
     0
370
    -2
100
AcDbLine
 10
303.6647600124209
 20
169.7048478213326
 30
0.0
 11
323.6417187576431
 21
169.7048478213326
 31
0.0
  0
LINE
  5
3D55
330
3D51
100
AcDbEntity
  8
寸法
 62
     0
370
    -2
100
AcDbLine
 10
303.6647600124209
 20
154.0434334136386
 30
0.0
 11
323.6417187576431
 21
154.0434334136386
 31
0.0
  0
LINE
  5
3D56
330
3D51
100
AcDbEntity
  8
寸法
 62
     0
370
    -2
100
AcDbLine
 10
323.6417187576431
 20
167.7048478213326
 30
0.0
 11
323.6417187576431
 21
156.0434334136386
 31
0.0
  0
INSERT
  5
3D57
330
3D51
100
AcDbEntity
  8
寸法
 62
     0
370
    -2
100
AcDbBlockReference
  2
_DOT
 10
323.6417187576431
 20
169.7048478213326
 30
0.0
 41
2.0
 42
2.0
 43
2.0
 50
90.0
  0
INSERT
  5
3D58
330
3D51
100
AcDbEntity
  8
寸法
 62
     0
370
    -2
100
AcDbBlockReference
  2
_DOT
 10
323.6417187576431
 20
154.0434334136386
 30
0.0
 41
2.0
 42
2.0
 43
2.0
 50
270.0
  0
MTEXT
  5
3D59
330
3D51
100
AcDbEntity
  8
寸法
 62
     0
100
AcDbMText
 10
316.1417187576431
 20
161.8741406174856
 30
0.0
 40
5.0
 41
0.0
 46
0.0
 71
     5
 72
     1
  1
\A1;16
  7
ＭＳ ゴシック
 11
0.0
 21
1.0
 31
0.0
 73
     1
 44
1.0
  0
POINT
  5
3D5A
330
3D51
100
AcDbEntity
  8
Defpoints
 62
     0
100
AcDbPoint
 10
298.6647600124209
 20
169.7048478213326
 30
0.0
  0
POINT
  5
3D5B
330
3D51
100
AcDbEntity
  8
Defpoints
 62
     0
100
AcDbPoint
 10
298.6647600124209
 20
154.0434334136386
 30
0.0
  0
POINT
  5
3D5C
330
3D51
100
AcDbEntity
  8
Defpoints
 62
     0
100
AcDbPoint
 10
323.6417187576431
 20
154.0434334136386
 30
0.0
  0
ENDBLK
  5
3D53
330
3D51
100
AcDbEntity
  8
0
100
AcDbBlockEnd
  0
BLOCK
  5
3E14
330
3E13
100
AcDbEntity
  8
0
100
AcDbBlockBegin
  2
*D55
 70
     1
 10
0.0
 20
0.0
 30
0.0
  3
*D55
  1
*D46
  0
LINE
  5
3E15
330
3E13
100
AcDbEntity
  8
寸法
 62
     0
370
    -2
100
AcDbLine
 10
25.57317123366262
 20
247.0066959944615
 30
0.0
 11
25.57317123366262
 21
258.1589706413738
 31
0.0
  0
LINE
  5
3E16
330
3E13
100
AcDbEntity
  8
寸法
 62
     0
370
    -2
100
AcDbLine
 10
77.22207682102432
 20
247.0066959944615
 30
0.0
 11
77.22207682102432
 21
258.1589706413738
 31
0.0
  0
LINE
  5
3E17
330
3E13
100
AcDbEntity
  8
寸法
 62
     0
370
    -2
100
AcDbLine
 10
27.57317123366262
 20
258.1589706413738
 30
0.0
 11
75.22207682102432
 21
258.1589706413738
 31
0.0
  0
INSERT
  5
3E18
330
3E13
100
AcDbEntity
  8
寸法
 62
     0
370
    -2
100
AcDbBlockReference
  2
_DOT
 10
25.57317123366262
 20
258.1589706413738
 30
0.0
 41
2.0
 42
2.0
 43
2.0
 50
180.0
  0
INSERT
  5
3E19
330
3E13
100
AcDbEntity
  8
寸法
 62
     0
370
    -2
100
AcDbBlockReference
  2
_DOT
 10
77.22207682102432
 20
258.1589706413738
 30
0.0
 41
2.0
 42
2.0
 43
2.0
  0
MTEXT
  5
3E1A
330
3E13
100
AcDbEntity
  8
寸法
 62
     0
100
AcDbMText
 10
51.39762402734347
 20
265.6589706413738
 30
0.0
 40
5.0
 41
0.0
 46
0.0
 71
     5
 72
     1
  1
\A1;52
  7
ＭＳ ゴシック
 73
     1
 44
1.0
  0
POINT
  5
3E1B
330
3E13
100
AcDbEntity
  8
Defpoints
 62
     0
100
AcDbPoint
 10
25.57317123366262
 20
242.0066959944615
 30
0.0
  0
POINT
  5
3E1C
330
3E13
100
AcDbEntity
  8
Defpoints
 62
     0
100
AcDbPoint
 10
77.22207682102432
 20
242.0066959944615
 30
0.0
  0
POINT
  5
3E1D
330
3E13
100
AcDbEntity
  8
Defpoints
 62
     0
100
AcDbPoint
 10
77.22207682102432
 20
258.1589706413738
 30
0.0
  0
ENDBLK
  5
3E1E
330
3E13
100
AcDbEntity
  8
0
100
AcDbBlockEnd
  0
BLOCK
  5
3E23
330
3E22
100
AcDbEntity
  8
0
100
AcDbBlockBegin
  2
*D56
 70
     1
 10
0.0
 20
0.0
 30
0.0
  3
*D56
  1
*D47
  0
LINE
  5
3E24
330
3E22
100
AcDbEntity
  8
寸法
 62
     0
370
    -2
100
AcDbLine
 10
20.57317123366262
 20
242.0066959944615
 30
0.0
 11
10.00000000000001
 21
242.0066959944615
 31
0.0
  0
LINE
  5
3E25
330
3E22
100
AcDbEntity
  8
寸法
 62
     0
370
    -2
100
AcDbLine
 10
21.20879177000661
 20
236.0794053018885
 30
0.0
 11
10.00000000000001
 21
236.0794053018885
 31
0.0
  0
LINE
  5
3E26
330
3E22
100
AcDbEntity
  8
寸法
 62
     0
370
    -2
100
AcDbLine
 10
10.00000000000001
 20
240.0066959944615
 30
0.0
 11
10.00000000000001
 21
238.0794053018885
 31
0.0
  0
INSERT
  5
3E27
330
3E22
100
AcDbEntity
  8
寸法
 62
     0
370
    -2
100
AcDbBlockReference
  2
_DOT
 10
10.00000000000001
 20
242.0066959944615
 30
0.0
 41
2.0
 42
2.0
 43
2.0
 50
90.0
  0
INSERT
  5
3E28
330
3E22
100
AcDbEntity
  8
寸法
 62
     0
370
    -2
100
AcDbBlockReference
  2
_DOT
 10
10.00000000000001
 20
236.0794053018885
 30
0.0
 41
2.0
 42
2.0
 43
2.0
 50
270.0
  0
MTEXT
  5
3E29
330
3E22
100
AcDbEntity
  8
寸法
 62
     0
100
AcDbMText
 10
2.500000000000014
 20
239.043050648175
 30
0.0
 40
5.0
 41
0.0
 46
0.0
 71
     5
 72
     1
  1
\A1;6
  7
ＭＳ ゴシック
 11
0.0
 21
1.0
 31
0.0
 73
     1
 44
1.0
  0
POINT
  5
3E2A
330
3E22
100
AcDbEntity
  8
Defpoints
 62
     0
100
AcDbPoint
 10
25.57317123366262
 20
242.0066959944615
 30
0.0
  0
POINT
  5
3E2B
330
3E22
100
AcDbEntity
  8
Defpoints
 62
     0
100
AcDbPoint
 10
26.20879177000661
 20
236.0794053018885
 30
0.0
  0
POINT
  5
3E2C
330
3E22
100
AcDbEntity
  8
Defpoints
 62
     0
100
AcDbPoint
 10
10.00000000000001
 20
236.0794053018885
 30
0.0
  0
ENDBLK
  5
3E2D
330
3E22
100
AcDbEntity
  8
0
100
AcDbBlockEnd
  0
BLOCK
  5
3E32
330
3E31
100
AcDbEntity
  8
0
100
AcDbBlockBegin
  2
*D57
 70
     1
 10
0.0
 20
0.0
 30
0.0
  3
*D57
  1
*D48
  0
LINE
  5
3E33
330
3E31
100
AcDbEntity
  8
寸法
 62
     0
370
    -2
100
AcDbLine
 10
177.4704170842699
 20
195.4393096000927
 30
0.0
 11
198.2931473290717
 21
195.4393096000927
 31
0.0
  0
LINE
  5
3E34
330
3E31
100
AcDbEntity
  8
寸法
 62
     0
370
    -2
100
AcDbLine
 10
177.4686945353909
 20
179.3524256192906
 30
0.0
 11
198.2931473290717
 21
179.3524256192906
 31
0.0
  0
LINE
  5
3E35
330
3E31
100
AcDbEntity
  8
寸法
 62
     0
370
    -2
100
AcDbLine
 10
198.2931473290717
 20
193.4393096000927
 30
0.0
 11
198.2931473290717
 21
181.3524256192906
 31
0.0
  0
INSERT
  5
3E36
330
3E31
100
AcDbEntity
  8
寸法
 62
     0
370
    -2
100
AcDbBlockReference
  2
_DOT
 10
198.2931473290717
 20
195.4393096000927
 30
0.0
 41
2.0
 42
2.0
 43
2.0
 50
90.0
  0
INSERT
  5
3E37
330
3E31
100
AcDbEntity
  8
寸法
 62
     0
370
    -2
100
AcDbBlockReference
  2
_DOT
 10
198.2931473290717
 20
179.3524256192906
 30
0.0
 41
2.0
 42
2.0
 43
2.0
 50
270.0
  0
MTEXT
  5
3E38
330
3E31
100
AcDbEntity
  8
寸法
 62
     0
100
AcDbMText
 10
190.7931473290717
 20
187.3958676096917
 30
0.0
 40
5.0
 41
0.0
 46
0.0
 71
     5
 72
     1
  1
\A1;16
  7
ＭＳ ゴシック
 11
0.0
 21
1.0
 31
0.0
 73
     1
 44
1.0
  0
POINT
  5
3E39
330
3E31
100
AcDbEntity
  8
Defpoints
 62
     0
100
AcDbPoint
 10
172.4704170842699
 20
195.4393096000927
 30
0.0
  0
POINT
  5
3E3A
330
3E31
100
AcDbEntity
  8
Defpoints
 62
     0
100
AcDbPoint
 10
172.4686945353909
 20
179.3524256192906
 30
0.0
  0
POINT
  5
3E3B
330
3E31
100
AcDbEntity
  8
Defpoints
 62
     0
100
AcDbPoint
 10
198.2931473290717
 20
179.3524256192906
 30
0.0
  0
ENDBLK
  5
3E3C
330
3E31
100
AcDbEntity
  8
0
100
AcDbBlockEnd
  0
BLOCK
  5
3E41
330
3E40
100
AcDbEntity
  8
0
100
AcDbBlockBegin
  2
*D58
 70
     1
 10
0.0
 20
0.0
 30
0.0
  3
*D58
  1
*D49
  0
LINE
  5
3E42
330
3E40
100
AcDbEntity
  8
寸法
 62
     0
370
    -2
100
AcDbLine
 10
43.35332076250292
 20
174.3524256192906
 30
0.0
 11
43.3533207625029
 21
143.4882222725964
 31
0.0
  0
LINE
  5
3E43
330
3E40
100
AcDbEntity
  8
寸法
 62
     0
370
    -2
100
AcDbLine
 10
173.3161885838495
 20
174.3524256192906
 30
0.0
 11
173.3161885838495
 21
143.4882222725964
 31
0.0
  0
LINE
  5
3E44
330
3E40
100
AcDbEntity
  8
寸法
 62
     0
370
    -2
100
AcDbLine
 10
45.3533207625029
 20
143.4882222725964
 30
0.0
 11
171.3161885838495
 21
143.4882222725964
 31
0.0
  0
INSERT
  5
3E45
330
3E40
100
AcDbEntity
  8
寸法
 62
     0
370
    -2
100
AcDbBlockReference
  2
_DOT
 10
43.3533207625029
 20
143.4882222725964
 30
0.0
 41
2.0
 42
2.0
 43
2.0
 50
180.0
  0
INSERT
  5
3E46
330
3E40
100
AcDbEntity
  8
寸法
 62
     0
370
    -2
100
AcDbBlockReference
  2
_DOT
 10
173.3161885838495
 20
143.4882222725964
 30
0.0
 41
2.0
 42
2.0
 43
2.0
  0
MTEXT
  5
3E47
330
3E40
100
AcDbEntity
  8
寸法
 62
     0
100
AcDbMText
 10
108.3347546731762
 20
150.9882222725964
 30
0.0
 40
5.0
 41
0.0
 46
0.0
 71
     5
 72
     1
  1
\A1;130
  7
ＭＳ ゴシック
 73
     1
 44
1.0
  0
POINT
  5
3E48
330
3E40
100
AcDbEntity
  8
Defpoints
 62
     0
100
AcDbPoint
 10
43.35332076250292
 20
179.3524256192906
 30
0.0
  0
POINT
  5
3E49
330
3E40
100
AcDbEntity
  8
Defpoints
 62
     0
100
AcDbPoint
 10
173.3161885838495
 20
179.3524256192906
 30
0.0
  0
POINT
  5
3E4A
330
3E40
100
AcDbEntity
  8
Defpoints
 62
     0
100
AcDbPoint
 10
173.3161885838495
 20
143.4882222725964
 30
0.0
  0
ENDBLK
  5
3E4B
330
3E40
100
AcDbEntity
  8
0
100
AcDbBlockEnd
  0
BLOCK
  5
3E4E
330
3E4D
100
AcDbEntity
  8
0
100
AcDbBlockBegin
  2
*D59
 70
     1
 10
0.0
 20
0.0
 30
0.0
  3
*D59
  1
*D50
  0
LINE
  5
3E4F
330
3E4D
100
AcDbEntity
  8
寸法
 62
     0
370
    -2
100
AcDbLine
 10
46.50269950896121
 20
69.6741406174856
 30
0.0
 11
10.00000000000002
 21
69.6741406174856
 31
0.0
  0
LINE
  5
3E50
330
3E4D
100
AcDbEntity
  8
寸法
 62
     0
370
    -2
100
AcDbLine
 10
46.50269950896121
 20
17.67414061748561
 30
0.0
 11
10.00000000000001
 21
17.67414061748561
 31
0.0
  0
LINE
  5
3E51
330
3E4D
100
AcDbEntity
  8
寸法
 62
     0
370
    -2
100
AcDbLine
 10
10.00000000000002
 20
67.6741406174856
 30
0.0
 11
10.00000000000001
 21
19.67414061748561
 31
0.0
  0
INSERT
  5
3E52
330
3E4D
100
AcDbEntity
  8
寸法
 62
     0
370
    -2
100
AcDbBlockReference
  2
_DOT
 10
10.00000000000002
 20
69.6741406174856
 30
0.0
 41
2.0
 42
2.0
 43
2.0
 50
90.0
  0
INSERT
  5
3E53
330
3E4D
100
AcDbEntity
  8
寸法
 62
     0
370
    -2
100
AcDbBlockReference
  2
_DOT
 10
10.00000000000001
 20
17.67414061748561
 30
0.0
 41
2.0
 42
2.0
 43
2.0
 50
270.0
  0
MTEXT
  5
3E54
330
3E4D
100
AcDbEntity
  8
寸法
 62
     0
100
AcDbMText
 10
2.500000000000014
 20
43.67414061748561
 30
0.0
 40
5.0
 41
0.0
 46
0.0
 71
     5
 72
     1
  1
\A1;52
  7
ＭＳ ゴシック
 11
6.832141690000964E-17
 21
1.0
 31
0.0
 73
     1
 44
1.0
  0
POINT
  5
3E55
330
3E4D
100
AcDbEntity
  8
Defpoints
 62
     0
100
AcDbPoint
 10
51.50269950896121
 20
69.6741406174856
 30
0.0
  0
POINT
  5
3E56
330
3E4D
100
AcDbEntity
  8
Defpoints
 62
     0
100
AcDbPoint
 10
51.50269950896121
 20
17.67414061748561
 30
0.0
  0
POINT
  5
3E57
330
3E4D
100
AcDbEntity
  8
Defpoints
 62
     0
100
AcDbPoint
 10
10.00000000000001
 20
17.67414061748561
 30
0.0
  0
ENDBLK
  5
3E58
330
3E4D
100
AcDbEntity
  8
0
100
AcDbBlockEnd
  0
BLOCK
  5
3E5B
330
3E5A
100
AcDbEntity
  8
0
100
AcDbBlockBegin
  2
*D60
 70
     1
 10
0.0
 20
0.0
 30
0.0
  3
*D60
  1
*D51
  0
LINE
  5
3E5C
330
3E5A
100
AcDbEntity
  8
寸法
 62
     0
370
    -2
100
AcDbLine
 10
32.34623342581521
 20
38.67414061748561
 30
0.0
 11
32.34623342581521
 21
0.5
 31
0.0
  0
LINE
  5
3E5D
330
3E5A
100
AcDbEntity
  8
寸法
 62
     0
370
    -2
100
AcDbLine
 10
70.44729207999261
 20
38.67414061748561
 30
0.0
 11
70.44729207999261
 21
0.5
 31
0.0
  0
LINE
  5
3E5E
330
3E5A
100
AcDbEntity
  8
寸法
 62
     0
370
    -2
100
AcDbLine
 10
34.34623342581521
 20
0.5
 30
0.0
 11
68.44729207999261
 21
0.5
 31
0.0
  0
INSERT
  5
3E5F
330
3E5A
100
AcDbEntity
  8
寸法
 62
     0
370
    -2
100
AcDbBlockReference
  2
_DOT
 10
32.34623342581521
 20
0.5
 30
0.0
 41
2.0
 42
2.0
 43
2.0
 50
180.0
  0
INSERT
  5
3E60
330
3E5A
100
AcDbEntity
  8
寸法
 62
     0
370
    -2
100
AcDbBlockReference
  2
_DOT
 10
70.44729207999261
 20
0.5
 30
0.0
 41
2.0
 42
2.0
 43
2.0
  0
MTEXT
  5
3E61
330
3E5A
100
AcDbEntity
  8
寸法
 62
     0
100
AcDbMText
 10
51.39676275290391
 20
8.0
 30
0.0
 40
5.0
 41
0.0
 46
0.0
 71
     5
 72
     1
  1
\A1;38
  7
ＭＳ ゴシック
 73
     1
 44
1.0
  0
POINT
  5
3E62
330
3E5A
100
AcDbEntity
  8
Defpoints
 62
     0
100
AcDbPoint
 10
32.34623342581521
 20
43.67414061748561
 30
0.0
  0
POINT
  5
3E63
330
3E5A
100
AcDbEntity
  8
Defpoints
 62
     0
100
AcDbPoint
 10
70.44729207999261
 20
43.67414061748561
 30
0.0
  0
POINT
  5
3E64
330
3E5A
100
AcDbEntity
  8
Defpoints
 62
     0
100
AcDbPoint
 10
70.44729207999261
 20
0.5
 30
0.0
  0
ENDBLK
  5
3E65
330
3E5A
100
AcDbEntity
  8
0
100
AcDbBlockEnd
  0
BLOCK
  5
3E6A
330
3E69
100
AcDbEntity
  8
0
100
AcDbBlockBegin
  2
*D61
 70
     1
 10
0.0
 20
0.0
 30
0.0
  3
*D61
  1
*D52
  0
LINE
  5
3E6B
330
3E69
100
AcDbEntity
  8
寸法
 62
     0
370
    -2
100
AcDbLine
 10
177.4686945353909
 20
179.3524256192906
 30
0.0
 11
217.0165546742531
 21
179.3524256192906
 31
0.0
  0
LINE
  5
3E6C
330
3E69
100
AcDbEntity
  8
寸法
 62
     0
370
    -2
100
AcDbLine
 10
82.22207682102432
 20
242.0066959944615
 30
0.0
 11
217.0165546742531
 21
242.0066959944615
 31
0.0
  0
LINE
  5
3E6D
330
3E69
100
AcDbEntity
  8
寸法
 62
     0
370
    -2
100
AcDbLine
 10
217.0165546742531
 20
181.3524256192906
 30
0.0
 11
217.0165546742531
 21
240.0066959944615
 31
0.0
  0
INSERT
  5
3E6E
330
3E69
100
AcDbEntity
  8
寸法
 62
     0
370
    -2
100
AcDbBlockReference
  2
_DOT
 10
217.0165546742531
 20
179.3524256192906
 30
0.0
 41
2.0
 42
2.0
 43
2.0
 50
270.0
  0
INSERT
  5
3E6F
330
3E69
100
AcDbEntity
  8
寸法
 62
     0
370
    -2
100
AcDbBlockReference
  2
_DOT
 10
217.0165546742531
 20
242.0066959944615
 30
0.0
 41
2.0
 42
2.0
 43
2.0
 50
90.0
  0
MTEXT
  5
3E70
330
3E69
100
AcDbEntity
  8
寸法
 62
     0
100
AcDbMText
 10
209.5165546742531
 20
210.6795608068761
 30
0.0
 40
5.0
 41
0.0
 46
0.0
 71
     5
 72
     1
  1
\A1;63
  7
ＭＳ ゴシック
 11
0.0
 21
1.0
 31
0.0
 73
     1
 44
1.0
  0
POINT
  5
3E71
330
3E69
100
AcDbEntity
  8
Defpoints
 62
     0
100
AcDbPoint
 10
172.4686945353909
 20
179.3524256192906
 30
0.0
  0
POINT
  5
3E72
330
3E69
100
AcDbEntity
  8
Defpoints
 62
     0
100
AcDbPoint
 10
77.22207682102432
 20
242.0066959944615
 30
0.0
  0
POINT
  5
3E73
330
3E69
100
AcDbEntity
  8
Defpoints
 62
     0
100
AcDbPoint
 10
217.0165546742531
 20
242.0066959944615
 30
0.0
  0
ENDBLK
  5
3E74
330
3E69
100
AcDbEntity
  8
0
100
AcDbBlockEnd
  0
BLOCK
  5
3E89
330
3E88
100
AcDbEntity
  8
0
100
AcDbBlockBegin
  2
*D62
 70
     1
 10
0.0
 20
0.0
 30
0.0
  3
*D62
  1
*D53
  0
LINE
  5
3E8A
330
3E88
100
AcDbEntity
  8
寸法
 62
     0
370
    -2
100
AcDbLine
 10
282.2008533256959
 20
12.6049331036525
 30
0.0
 11
282.2008533256959
 21
0.6695257147134015
 31
0.0
  0
LINE
  5
3E8B
330
3E88
100
AcDbEntity
  8
寸法
 62
     0
370
    -2
100
AcDbLine
 10
276.273562633123
 20
12.6049331036525
 30
0.0
 11
276.273562633123
 21
0.6695257147134015
 31
0.0
  0
LINE
  5
3E8C
330
3E88
100
AcDbEntity
  8
寸法
 62
     0
370
    -2
100
AcDbLine
 10
280.2008533256959
 20
0.6695257147134015
 30
0.0
 11
278.273562633123
 21
0.6695257147134015
 31
0.0
  0
INSERT
  5
3E8D
330
3E88
100
AcDbEntity
  8
寸法
 62
     0
370
    -2
100
AcDbBlockReference
  2
_DOT
 10
282.2008533256959
 20
0.6695257147134015
 30
0.0
 41
2.0
 42
2.0
 43
2.0
  0
INSERT
  5
3E8E
330
3E88
100
AcDbEntity
  8
寸法
 62
     0
370
    -2
100
AcDbBlockReference
  2
_DOT
 10
276.273562633123
 20
0.6695257147134015
 30
0.0
 41
2.0
 42
2.0
 43
2.0
 50
180.0
  0
MTEXT
  5
3E8F
330
3E88
100
AcDbEntity
  8
寸法
 62
     0
100
AcDbMText
 10
279.2372079794095
 20
8.169525714713401
 30
0.0
 40
5.0
 41
0.0
 46
0.0
 71
     5
 72
     1
  1
\A1;6
  7
ＭＳ ゴシック
 73
     1
 44
1.0
  0
POINT
  5
3E90
330
3E88
100
AcDbEntity
  8
Defpoints
 62
     0
100
AcDbPoint
 10
282.2008533256959
 20
17.6049331036525
 30
0.0
  0
POINT
  5
3E91
330
3E88
100
AcDbEntity
  8
Defpoints
 62
     0
100
AcDbPoint
 10
276.273562633123
 20
17.6049331036525
 30
0.0
  0
POINT
  5
3E92
330
3E88
100
AcDbEntity
  8
Defpoints
 62
     0
100
AcDbPoint
 10
276.273562633123
 20
0.6695257147134015
 30
0.0
  0
ENDBLK
  5
3E93
330
3E88
100
AcDbEntity
  8
0
100
AcDbBlockEnd
  0
BLOCK
  5
3E98
330
3E97
100
AcDbEntity
  8
0
100
AcDbBlockBegin
  2
*D63
 70
     1
 10
0.0
 20
0.0
 30
0.0
  3
*D63
  1
*D54
  0
LINE
  5
3E99
330
3E97
100
AcDbEntity
  8
寸法
 62
     0
370
    -2
100
AcDbLine
 10
16.20879177000661
 20
236.0794053018885
 30
0.0
 11
10.00000000000002
 21
236.0794053018885
 31
0.0
  0
LINE
  5
3E9A
330
3E97
100
AcDbEntity
  8
寸法
 62
     0
370
    -2
100
AcDbLine
 10
38.35332076250292
 20
179.3524256192906
 30
0.0
 11
10.00000000000001
 21
179.3524256192906
 31
0.0
  0
LINE
  5
3E9B
330
3E97
100
AcDbEntity
  8
寸法
 62
     0
370
    -2
100
AcDbLine
 10
10.00000000000002
 20
234.0794053018885
 30
0.0
 11
10.00000000000001
 21
181.3524256192906
 31
0.0
  0
INSERT
  5
3E9C
330
3E97
100
AcDbEntity
  8
寸法
 62
     0
370
    -2
100
AcDbBlockReference
  2
_DOT
 10
10.00000000000002
 20
236.0794053018885
 30
0.0
 41
2.0
 42
2.0
 43
2.0
 50
90.0
  0
INSERT
  5
3E9D
330
3E97
100
AcDbEntity
  8
寸法
 62
     0
370
    -2
100
AcDbBlockReference
  2
_DOT
 10
10.00000000000001
 20
179.3524256192906
 30
0.0
 41
2.0
 42
2.0
 43
2.0
 50
270.0
  0
MTEXT
  5
3E9E
330
3E97
100
AcDbEntity
  8
寸法
 62
     0
100
AcDbMText
 10
2.500000000000016
 20
207.7159154605896
 30
0.0
 40
5.0
 41
0.0
 46
0.0
 71
     5
 72
     1
  1
\A1;57
  7
ＭＳ ゴシック
 11
6.262828902012500E-17
 21
1.0
 31
0.0
 73
     1
 44
1.0
  0
POINT
  5
3E9F
330
3E97
100
AcDbEntity
  8
Defpoints
 62
     0
100
AcDbPoint
 10
21.20879177000661
 20
236.0794053018885
 30
0.0
  0
POINT
  5
3EA0
330
3E97
100
AcDbEntity
  8
Defpoints
 62
     0
100
AcDbPoint
 10
43.35332076250292
 20
179.3524256192906
 30
0.0
  0
POINT
  5
3EA1
330
3E97
100
AcDbEntity
  8
Defpoints
 62
     0
100
AcDbPoint
 10
10.00000000000001
 20
179.3524256192906
 30
0.0
  0
ENDBLK
  5
3EA2
330
3E97
100
AcDbEntity
  8
0
100
AcDbBlockEnd
  0
BLOCK
  5
3EA7
330
3EA6
100
AcDbEntity
  8
0
100
AcDbBlockBegin
  2
*D64
 70
     1
 10
0.0
 20
0.0
 30
0.0
  3
*D64
  1
*D55
  0
LINE
  5
3EA8
330
3EA6
100
AcDbEntity
  8
寸法
 62
     0
370
    -2
100
AcDbLine
 10
178.3161885838495
 20
51.5048478213326
 30
0.0
 11
198.2931473290717
 21
51.5048478213326
 31
0.0
  0
LINE
  5
3EA9
330
3EA6
100
AcDbEntity
  8
寸法
 62
     0
370
    -2
100
AcDbLine
 10
178.3161885838495
 20
35.84343341363861
 30
0.0
 11
198.2931473290717
 21
35.84343341363861
 31
0.0
  0
LINE
  5
3EAA
330
3EA6
100
AcDbEntity
  8
寸法
 62
     0
370
    -2
100
AcDbLine
 10
198.2931473290717
 20
49.5048478213326
 30
0.0
 11
198.2931473290717
 21
37.84343341363861
 31
0.0
  0
INSERT
  5
3EAB
330
3EA6
100
AcDbEntity
  8
寸法
 62
     0
370
    -2
100
AcDbBlockReference
  2
_DOT
 10
198.2931473290717
 20
51.5048478213326
 30
0.0
 41
2.0
 42
2.0
 43
2.0
 50
90.0
  0
INSERT
  5
3EAC
330
3EA6
100
AcDbEntity
  8
寸法
 62
     0
370
    -2
100
AcDbBlockReference
  2
_DOT
 10
198.2931473290717
 20
35.84343341363861
 30
0.0
 41
2.0
 42
2.0
 43
2.0
 50
270.0
  0
MTEXT
  5
3EAD
330
3EA6
100
AcDbEntity
  8
寸法
 62
     0
100
AcDbMText
 10
190.7931473290717
 20
43.67414061748561
 30
0.0
 40
5.0
 41
0.0
 46
0.0
 71
     5
 72
     1
  1
\A1;16
  7
ＭＳ ゴシック
 11
0.0
 21
1.0
 31
0.0
 73
     1
 44
1.0
  0
POINT
  5
3EAE
330
3EA6
100
AcDbEntity
  8
Defpoints
 62
     0
100
AcDbPoint
 10
173.3161885838495
 20
51.5048478213326
 30
0.0
  0
POINT
  5
3EAF
330
3EA6
100
AcDbEntity
  8
Defpoints
 62
     0
100
AcDbPoint
 10
173.3161885838495
 20
35.84343341363861
 30
0.0
  0
POINT
  5
3EB0
330
3EA6
100
AcDbEntity
  8
Defpoints
 62
     0
100
AcDbPoint
 10
198.2931473290717
 20
35.84343341363861
 30
0.0
  0
ENDBLK
  5
3EB1
330
3EA6
100
AcDbEntity
  8
0
100
AcDbBlockEnd
  0
BLOCK
  5
3F2F
330
3F2E
100
AcDbEntity
  8
0
100
AcDbBlockBegin
  2
*D65
 70
     1
 10
0.0
 20
0.0
 30
0.0
  3
*D65
  1
*D15
  0
LINE
  5
3F30
330
3F2E
100
AcDbEntity
  8
寸法
 62
     0
370
    -2
100
AcDbLine
 10
80.14102719890235
 20
160.6936539508511
 30
0.0
 11
9.999999999999984
 21
160.6936539508511
 31
0.0
  0
LINE
  5
3F31
330
3F2E
100
AcDbEntity
  8
寸法
 62
     0
370
    -2
100
AcDbLine
 10
80.14102719890245
 20
60.36207194573279
 30
0.0
 11
9.999999999999979
 21
60.3620719457328
 31
0.0
  0
LINE
  5
3F32
330
3F2E
100
AcDbEntity
  8
寸法
 62
     0
370
    -2
100
AcDbLine
 10
9.999999999999984
 20
158.6936539508511
 30
0.0
 11
9.999999999999979
 21
62.3620719457328
 31
0.0
  0
INSERT
  5
3F33
330
3F2E
100
AcDbEntity
  8
寸法
 62
     0
370
    -2
100
AcDbBlockReference
  2
_DOT
 10
9.999999999999984
 20
160.6936539508511
 30
0.0
 41
2.0
 42
2.0
 43
2.0
 50
90.0
  0
INSERT
  5
3F34
330
3F2E
100
AcDbEntity
  8
寸法
 62
     0
370
    -2
100
AcDbBlockReference
  2
_DOT
 10
9.999999999999979
 20
60.3620719457328
 30
0.0
 41
2.0
 42
2.0
 43
2.0
 50
270.0
  0
MTEXT
  5
3F35
330
3F2E
100
AcDbEntity
  8
寸法
 62
     0
100
AcDbMText
 10
2.499999999999982
 20
110.527862948292
 30
0.0
 40
5.0
 41
0.0
 46
0.0
 71
     5
 72
     1
  1
\A1;100
  7
ＭＳ ゴシック
 11
5.311458677018463E-17
 21
1.0
 31
0.0
 73
     1
 44
1.0
  0
POINT
  5
3F36
330
3F2E
100
AcDbEntity
  8
Defpoints
 62
     0
100
AcDbPoint
 10
85.14102719890235
 20
160.6936539508511
 30
0.0
  0
POINT
  5
3F37
330
3F2E
100
AcDbEntity
  8
Defpoints
 62
     0
100
AcDbPoint
 10
85.14102719890245
 20
60.36207194573279
 30
0.0
  0
POINT
  5
3F38
330
3F2E
100
AcDbEntity
  8
Defpoints
 62
     0
100
AcDbPoint
 10
9.999999999999979
 20
60.3620719457328
 30
0.0
  0
ENDBLK
  5
3F39
330
3F2E
100
AcDbEntity
  8
0
100
AcDbBlockEnd
  0
BLOCK
  5
3F3C
330
3F3B
100
AcDbEntity
  8
0
100
AcDbBlockBegin
  2
*D66
 70
     1
 10
0.0
 20
0.0
 30
0.0
  3
*D66
  1
*D16
  0
LINE
  5
3F3D
330
3F3B
100
AcDbEntity
  8
寸法
 62
     0
370
    -2
100
AcDbLine
 10
435.4506250705995
 20
115.5295854971709
 30
0.0
 11
435.4506250705995
 21
195.4064589600731
 31
0.0
  0
LINE
  5
3F3E
330
3F3B
100
AcDbEntity
  8
寸法
 62
     0
370
    -2
100
AcDbLine
 10
35.45062507059941
 20
115.5295854971709
 30
0.0
 11
35.45062507059941
 21
195.4064589600731
 31
0.0
  0
LINE
  5
3F3F
330
3F3B
100
AcDbEntity
  8
寸法
 62
     0
370
    -2
100
AcDbLine
 10
433.4506250705995
 20
195.4064589600731
 30
0.0
 11
37.45062507059941
 21
195.4064589600731
 31
0.0
  0
INSERT
  5
3F40
330
3F3B
100
AcDbEntity
  8
寸法
 62
     0
370
    -2
100
AcDbBlockReference
  2
_DOT
 10
435.4506250705995
 20
195.4064589600731
 30
0.0
 41
2.0
 42
2.0
 43
2.0
  0
INSERT
  5
3F41
330
3F3B
100
AcDbEntity
  8
寸法
 62
     0
370
    -2
100
AcDbBlockReference
  2
_DOT
 10
35.45062507059941
 20
195.4064589600731
 30
0.0
 41
2.0
 42
2.0
 43
2.0
 50
180.0
  0
MTEXT
  5
3F42
330
3F3B
100
AcDbEntity
  8
寸法
 62
     0
100
AcDbMText
 10
235.4506250705994
 20
202.9064589600731
 30
0.0
 40
5.0
 41
0.0
 46
0.0
 71
     5
 72
     1
  1
\A1;400
  7
ＭＳ ゴシック
 73
     1
 44
1.0
  0
POINT
  5
3F43
330
3F3B
100
AcDbEntity
  8
Defpoints
 62
     0
100
AcDbPoint
 10
435.4506250705995
 20
110.5295854971709
 30
0.0
  0
POINT
  5
3F44
330
3F3B
100
AcDbEntity
  8
Defpoints
 62
     0
100
AcDbPoint
 10
35.45062507059941
 20
110.5295854971709
 30
0.0
  0
POINT
  5
3F45
330
3F3B
100
AcDbEntity
  8
Defpoints
 62
     0
100
AcDbPoint
 10
35.45062507059941
 20
195.4064589600731
 30
0.0
  0
ENDBLK
  5
3F46
330
3F3B
100
AcDbEntity
  8
0
100
AcDbBlockEnd
  0
BLOCK
  5
3F49
330
3F48
100
AcDbEntity
  8
0
100
AcDbBlockBegin
  2
*D67
 70
     1
 10
0.0
 20
0.0
 30
0.0
  3
*D67
  1
*D17
  0
LINE
  5
3F4A
330
3F48
100
AcDbEntity
  8
寸法
 62
     0
370
    -2
100
AcDbLine
 10
70.95928227825306
 20
91.64839582245432
 30
0.0
 11
70.95928227825306
 21
37.43859425587462
 31
0.0
  0
LINE
  5
3F4B
330
3F48
100
AcDbEntity
  8
寸法
 62
     0
370
    -2
100
AcDbLine
 10
398.9592822782531
 20
92.2210872062663
 30
0.0
 11
398.9592822782531
 21
37.43859425587462
 31
0.0
  0
LINE
  5
3F4C
330
3F48
100
AcDbEntity
  8
寸法
 62
     0
370
    -2
100
AcDbLine
 10
72.95928227825306
 20
37.43859425587462
 30
0.0
 11
396.9592822782531
 21
37.43859425587462
 31
0.0
  0
INSERT
  5
3F4D
330
3F48
100
AcDbEntity
  8
寸法
 62
     0
370
    -2
100
AcDbBlockReference
  2
_DOT
 10
70.95928227825306
 20
37.43859425587462
 30
0.0
 41
2.0
 42
2.0
 43
2.0
 50
180.0
  0
INSERT
  5
3F4E
330
3F48
100
AcDbEntity
  8
寸法
 62
     0
370
    -2
100
AcDbBlockReference
  2
_DOT
 10
398.9592822782531
 20
37.43859425587462
 30
0.0
 41
2.0
 42
2.0
 43
2.0
  0
MTEXT
  5
3F4F
330
3F48
100
AcDbEntity
  8
寸法
 62
     0
100
AcDbMText
 10
234.9592822782531
 20
44.93859425587462
 30
0.0
 40
5.0
 41
0.0
 46
0.0
 71
     5
 72
     1
  1
\A1;328
  7
ＭＳ ゴシック
 73
     1
 44
1.0
  0
POINT
  5
3F50
330
3F48
100
AcDbEntity
  8
Defpoints
 62
     0
100
AcDbPoint
 10
70.95928227825306
 20
96.64839582245432
 30
0.0
  0
POINT
  5
3F51
330
3F48
100
AcDbEntity
  8
Defpoints
 62
     0
100
AcDbPoint
 10
398.9592822782531
 20
97.2210872062663
 30
0.0
  0
POINT
  5
3F52
330
3F48
100
AcDbEntity
  8
Defpoints
 62
     0
100
AcDbPoint
 10
398.9592822782531
 20
37.43859425587462
 30
0.0
  0
ENDBLK
  5
3F53
330
3F48
100
AcDbEntity
  8
0
100
AcDbBlockEnd
  0
BLOCK
  5
3F56
330
3F55
100
AcDbEntity
  8
0
100
AcDbBlockBegin
  2
*D68
 70
     1
 10
0.0
 20
0.0
 30
0.0
  3
*D68
  1
*D18
  0
LINE
  5
3F57
330
3F55
100
AcDbEntity
  8
寸法
 62
     0
370
    -2
100
AcDbLine
 10
43.01953946118388
 20
105.3159894361772
 30
0.0
 11
43.01953946118385
 21
0.5
 31
0.0
  0
LINE
  5
3F58
330
3F55
100
AcDbEntity
  8
寸法
 62
     0
370
    -2
100
AcDbLine
 10
427.019539461184
 20
105.3159894361772
 30
0.0
 11
427.019539461184
 21
0.5
 31
0.0
  0
LINE
  5
3F59
330
3F55
100
AcDbEntity
  8
寸法
 62
     0
370
    -2
100
AcDbLine
 10
45.01953946118385
 20
0.5
 30
0.0
 11
425.019539461184
 21
0.5
 31
0.0
  0
INSERT
  5
3F5A
330
3F55
100
AcDbEntity
  8
寸法
 62
     0
370
    -2
100
AcDbBlockReference
  2
_DOT
 10
43.01953946118385
 20
0.5
 30
0.0
 41
2.0
 42
2.0
 43
2.0
 50
180.0
  0
INSERT
  5
3F5B
330
3F55
100
AcDbEntity
  8
寸法
 62
     0
370
    -2
100
AcDbBlockReference
  2
_DOT
 10
427.019539461184
 20
0.5
 30
0.0
 41
2.0
 42
2.0
 43
2.0
  0
MTEXT
  5
3F5C
330
3F55
100
AcDbEntity
  8
寸法
 62
     0
100
AcDbMText
 10
235.0195394611839
 20
8.0
 30
0.0
 40
5.0
 41
0.0
 46
0.0
 71
     5
 72
     1
  1
\A1;384
  7
ＭＳ ゴシック
 73
     1
 44
1.0
  0
POINT
  5
3F5D
330
3F55
100
AcDbEntity
  8
Defpoints
 62
     0
100
AcDbPoint
 10
43.01953946118388
 20
110.3159894361772
 30
0.0
  0
POINT
  5
3F5E
330
3F55
100
AcDbEntity
  8
Defpoints
 62
     0
100
AcDbPoint
 10
427.019539461184
 20
110.3159894361772
 30
0.0
  0
POINT
  5
3F5F
330
3F55
100
AcDbEntity
  8
Defpoints
 62
     0
100
AcDbPoint
 10
427.019539461184
 20
0.5
 30
0.0
  0
ENDBLK
  5
3F60
330
3F55
100
AcDbEntity
  8
0
100
AcDbBlockEnd
  0
BLOCK
  5
3F65
330
3F64
100
AcDbEntity
  8
0
100
AcDbBlockBegin
  2
*D69
 70
     1
 10
0.0
 20
0.0
 30
0.0
  3
*D69
  1
*D19
  0
LINE
  5
3F66
330
3F64
100
AcDbEntity
  8
寸法
 62
     0
370
    -2
100
AcDbLine
 10
379.279469280232
 20
135.7166952056288
 30
0.0
 11
460.0038367915923
 21
135.7166952056288
 31
0.0
  0
LINE
  5
3F67
330
3F64
100
AcDbEntity
  8
寸法
 62
     0
370
    -2
100
AcDbLine
 10
379.0675957681175
 20
85.3390306909551
 30
0.0
 11
460.0038367915923
 21
85.3390306909551
 31
0.0
  0
LINE
  5
3F68
330
3F64
100
AcDbEntity
  8
寸法
 62
     0
370
    -2
100
AcDbLine
 10
460.0038367915923
 20
133.7166952056288
 30
0.0
 11
460.0038367915923
 21
87.3390306909551
 31
0.0
  0
INSERT
  5
3F69
330
3F64
100
AcDbEntity
  8
寸法
 62
     0
370
    -2
100
AcDbBlockReference
  2
_DOT
 10
460.0038367915923
 20
135.7166952056288
 30
0.0
 41
2.0
 42
2.0
 43
2.0
 50
90.0
  0
INSERT
  5
3F6A
330
3F64
100
AcDbEntity
  8
寸法
 62
     0
370
    -2
100
AcDbBlockReference
  2
_DOT
 10
460.0038367915923
 20
85.3390306909551
 30
0.0
 41
2.0
 42
2.0
 43
2.0
 50
270.0
  0
MTEXT
  5
3F6B
330
3F64
100
AcDbEntity
  8
寸法
 62
     0
100
AcDbMText
 10
452.5038367915923
 20
110.527862948292
 30
0.0
 40
5.0
 41
0.0
 46
0.0
 71
     5
 72
     1
  1
\A1;50
  7
ＭＳ ゴシック
 11
0.0
 21
1.0
 31
0.0
 73
     1
 44
1.0
  0
POINT
  5
3F6C
330
3F64
100
AcDbEntity
  8
Defpoints
 62
     0
100
AcDbPoint
 10
374.279469280232
 20
135.7166952056288
 30
0.0
  0
POINT
  5
3F6D
330
3F64
100
AcDbEntity
  8
Defpoints
 62
     0
100
AcDbPoint
 10
374.0675957681175
 20
85.3390306909551
 30
0.0
  0
POINT
  5
3F6E
330
3F64
100
AcDbEntity
  8
Defpoints
 62
     0
100
AcDbPoint
 10
460.0038367915923
 20
85.3390306909551
 30
0.0
  0
ENDBLK
  5
3F6F
330
3F64
100
AcDbEntity
  8
0
100
AcDbBlockEnd
  0
BLOCK
  5
3F74
330
3F73
100
AcDbEntity
  8
0
100
AcDbBlockBegin
  2
*D70
 70
     1
 10
0.0
 20
0.0
 30
0.0
  3
*D70
  1
*D20
  0
LINE
  5
3F75
330
3F73
100
AcDbEntity
  8
寸法
 62
     0
370
    -2
100
AcDbLine
 10
521.8088905694256
 20
165.2699069266219
 30
0.0
 11
521.8088905694256
 21
180.1653464788501
 31
0.0
  0
LINE
  5
3F76
330
3F73
100
AcDbEntity
  8
寸法
 62
     0
370
    -2
100
AcDbLine
 10
520.1173475702665
 20
165.2699069266219
 30
0.0
 11
520.1173475702665
 21
180.1653464788501
 31
0.0
  0
INSERT
  5
3F77
330
3F73
100
AcDbEntity
  8
寸法
 62
     0
370
    -2
100
AcDbBlockReference
  2
_DOT
 10
521.8088905694256
 20
180.1653464788501
 30
0.0
 41
2.0
 42
2.0
 43
2.0
  0
INSERT
  5
3F78
330
3F73
100
AcDbEntity
  8
寸法
 62
     0
370
    -2
100
AcDbBlockReference
  2
_DOT
 10
520.1173475702665
 20
180.1653464788501
 30
0.0
 41
2.0
 42
2.0
 43
2.0
 50
180.0
  0
MTEXT
  5
3F79
330
3F73
100
AcDbEntity
  8
寸法
 62
     0
100
AcDbMText
 10
520.963119069846
 20
187.6653464788501
 30
0.0
 40
5.0
 41
0.0
 46
0.0
 71
     5
 72
     1
  1
\A1;2
  7
ＭＳ ゴシック
 73
     1
 44
1.0
  0
POINT
  5
3F7A
330
3F73
100
AcDbEntity
  8
Defpoints
 62
     0
100
AcDbPoint
 10
521.8088905694256
 20
160.2699069266219
 30
0.0
  0
POINT
  5
3F7B
330
3F73
100
AcDbEntity
  8
Defpoints
 62
     0
100
AcDbPoint
 10
520.1173475702665
 20
160.2699069266219
 30
0.0
  0
POINT
  5
3F7C
330
3F73
100
AcDbEntity
  8
Defpoints
 62
     0
100
AcDbPoint
 10
520.1173475702665
 20
180.1653464788501
 30
0.0
  0
ENDBLK
  5
3F7D
330
3F73
100
AcDbEntity
  8
0
100
AcDbBlockEnd
  0
BLOCK
  5
3FDC
330
3FDB
100
AcDbEntity
  8
0
100
AcDbBlockBegin
  2
*D71
 70
     1
 10
0.0
 20
0.0
 30
0.0
  3
*D71
  1
*D73
  0
LINE
  5
3FDE
330
3FDB
100
AcDbEntity
  8
寸法
 62
     0
370
    -2
100
AcDbLine
 10
106.9729644239342
 20
355.7144869769137
 30
0.0
 11
50.94751976774609
 21
355.7144869769137
 31
0.0
  0
LINE
  5
3FDF
330
3FDB
100
AcDbEntity
  8
寸法
 62
     0
370
    -2
100
AcDbLine
 10
106.9729644239343
 20
255.3829049717954
 30
0.0
 11
50.94751976774609
 21
255.3829049717954
 31
0.0
  0
LINE
  5
3FE0
330
3FDB
100
AcDbEntity
  8
寸法
 62
     0
370
    -2
100
AcDbLine
 10
50.94751976774609
 20
353.7144869769137
 30
0.0
 11
50.94751976774609
 21
257.3829049717954
 31
0.0
  0
INSERT
  5
3FE1
330
3FDB
100
AcDbEntity
  8
寸法
 62
     0
370
    -2
100
AcDbBlockReference
  2
_DOT
 10
50.94751976774609
 20
355.7144869769137
 30
0.0
 41
2.0
 42
2.0
 43
2.0
 50
90.0
  0
INSERT
  5
3FE2
330
3FDB
100
AcDbEntity
  8
寸法
 62
     0
370
    -2
100
AcDbBlockReference
  2
_DOT
 10
50.94751976774609
 20
255.3829049717954
 30
0.0
 41
2.0
 42
2.0
 43
2.0
 50
270.0
  0
MTEXT
  5
3FE3
330
3FDB
100
AcDbEntity
  8
寸法
 62
     0
100
AcDbMText
 10
43.44751976774609
 20
305.5486959743545
 30
0.0
 40
5.0
 41
0.0
 46
0.0
 71
     5
 72
     1
  1
\A1;100
  7
ＭＳ ゴシック
 11
7.081944902691286E-17
 21
1.0
 31
0.0
 73
     1
 44
1.0
  0
POINT
  5
3FE4
330
3FDB
100
AcDbEntity
  8
Defpoints
 62
     0
100
AcDbPoint
 10
111.9729644239342
 20
355.7144869769137
 30
0.0
  0
POINT
  5
3FE5
330
3FDB
100
AcDbEntity
  8
Defpoints
 62
     0
100
AcDbPoint
 10
111.9729644239343
 20
255.3829049717954
 30
0.0
  0
POINT
  5
3FE6
330
3FDB
100
AcDbEntity
  8
Defpoints
 62
     0
100
AcDbPoint
 10
50.94751976774609
 20
255.3829049717954
 30
0.0
  0
ENDBLK
  5
3FDD
330
3FDB
100
AcDbEntity
  8
0
100
AcDbBlockEnd
  0
BLOCK
  5
3FE8
330
3FE7
100
AcDbEntity
  8
0
100
AcDbBlockBegin
  2
*D72
 70
     1
 10
0.0
 20
0.0
 30
0.0
  3
*D72
  1
*D74
  0
LINE
  5
3FEA
330
3FE7
100
AcDbEntity
  8
寸法
 62
     0
370
    -2
100
AcDbLine
 10
471.702387754313
 20
328.9644632719223
 30
0.0
 11
471.702387754313
 21
354.9599087413102
 31
0.0
  0
LINE
  5
3FEB
330
3FE7
100
AcDbEntity
  8
寸法
 62
     0
370
    -2
100
AcDbLine
 10
71.70238775431301
 20
328.9644632719223
 30
0.0
 11
71.70238775431301
 21
354.9599087413102
 31
0.0
  0
LINE
  5
3FEC
330
3FE7
100
AcDbEntity
  8
寸法
 62
     0
370
    -2
100
AcDbLine
 10
469.702387754313
 20
354.9599087413102
 30
0.0
 11
73.70238775431301
 21
354.9599087413102
 31
0.0
  0
INSERT
  5
3FED
330
3FE7
100
AcDbEntity
  8
寸法
 62
     0
370
    -2
100
AcDbBlockReference
  2
_DOT
 10
471.702387754313
 20
354.9599087413102
 30
0.0
 41
2.0
 42
2.0
 43
2.0
  0
INSERT
  5
3FEE
330
3FE7
100
AcDbEntity
  8
寸法
 62
     0
370
    -2
100
AcDbBlockReference
  2
_DOT
 10
71.70238775431301
 20
354.9599087413102
 30
0.0
 41
2.0
 42
2.0
 43
2.0
 50
180.0
  0
MTEXT
  5
3FEF
330
3FE7
100
AcDbEntity
  8
寸法
 62
     0
100
AcDbMText
 10
271.702387754313
 20
360.4599087413102
 30
0.0
 40
5.0
 41
0.0
 46
0.0
 71
     5
 72
     1
  1
\A1;400
  7
ＭＳ ゴシック
 73
     1
 44
1.0
  0
POINT
  5
3FF0
330
3FE7
100
AcDbEntity
  8
Defpoints
 62
     0
100
AcDbPoint
 10
471.702387754313
 20
323.9644632719223
 30
0.0
  0
POINT
  5
3FF1
330
3FE7
100
AcDbEntity
  8
Defpoints
 62
     0
100
AcDbPoint
 10
71.70238775431301
 20
323.9644632719223
 30
0.0
  0
POINT
  5
3FF2
330
3FE7
100
AcDbEntity
  8
Defpoints
 62
     0
100
AcDbPoint
 10
71.70238775431301
 20
354.9599087413102
 30
0.0
  0
ENDBLK
  5
3FE9
330
3FE7
100
AcDbEntity
  8
0
100
AcDbBlockEnd
  0
BLOCK
  5
3FF4
330
3FF3
100
AcDbEntity
  8
0
100
AcDbBlockBegin
  2
*D73
 70
     1
 10
0.0
 20
0.0
 30
0.0
  3
*D73
  1
*D75
  0
LINE
  5
3FF6
330
3FF3
100
AcDbEntity
  8
寸法
 62
     0
370
    -2
100
AcDbLine
 10
107.2110449619666
 20
240.3143782591505
 30
0.0
 11
107.2110449619666
 21
221.1524425404368
 31
0.0
  0
LINE
  5
3FF7
330
3FF3
100
AcDbEntity
  8
寸法
 62
     0
370
    -2
100
AcDbLine
 10
435.2110449619666
 20
240.8870696429624
 30
0.0
 11
435.2110449619665
 21
221.1524425404368
 31
0.0
  0
LINE
  5
3FF8
330
3FF3
100
AcDbEntity
  8
寸法
 62
     0
370
    -2
100
AcDbLine
 10
109.2110449619666
 20
221.1524425404368
 30
0.0
 11
433.2110449619665
 21
221.1524425404368
 31
0.0
  0
INSERT
  5
3FF9
330
3FF3
100
AcDbEntity
  8
寸法
 62
     0
370
    -2
100
AcDbBlockReference
  2
_DOT
 10
107.2110449619666
 20
221.1524425404368
 30
0.0
 41
2.0
 42
2.0
 43
2.0
 50
180.0
  0
INSERT
  5
3FFA
330
3FF3
100
AcDbEntity
  8
寸法
 62
     0
370
    -2
100
AcDbBlockReference
  2
_DOT
 10
435.2110449619665
 20
221.1524425404368
 30
0.0
 41
2.0
 42
2.0
 43
2.0
  0
MTEXT
  5
3FFB
330
3FF3
100
AcDbEntity
  8
寸法
 62
     0
100
AcDbMText
 10
271.2110449619664
 20
226.6524425404368
 30
0.0
 40
5.0
 41
0.0
 46
0.0
 71
     5
 72
     1
  1
\A1;328
  7
ＭＳ ゴシック
 73
     1
 44
1.0
  0
POINT
  5
3FFC
330
3FF3
100
AcDbEntity
  8
Defpoints
 62
     0
100
AcDbPoint
 10
107.2110449619666
 20
245.3143782591505
 30
0.0
  0
POINT
  5
3FFD
330
3FF3
100
AcDbEntity
  8
Defpoints
 62
     0
100
AcDbPoint
 10
435.2110449619666
 20
245.8870696429624
 30
0.0
  0
POINT
  5
3FFE
330
3FF3
100
AcDbEntity
  8
Defpoints
 62
     0
100
AcDbPoint
 10
435.2110449619666
 20
221.1524425404368
 30
0.0
  0
ENDBLK
  5
3FF5
330
3FF3
100
AcDbEntity
  8
0
100
AcDbBlockEnd
  0
BLOCK
  5
4000
330
3FFF
100
AcDbEntity
  8
0
100
AcDbBlockBegin
  2
*D74
 70
     1
 10
0.0
 20
0.0
 30
0.0
  3
*D74
  1
*D76
  0
LINE
  5
4002
330
3FFF
100
AcDbEntity
  8
寸法
 62
     0
370
    -2
100
AcDbLine
 10
124.2713021448975
 20
237.2128363261174
 30
0.0
 11
124.2713021448975
 21
231.123988196332
 31
0.0
  0
LINE
  5
4003
330
3FFF
100
AcDbEntity
  8
寸法
 62
     0
370
    -2
100
AcDbLine
 10
418.2713021448975
 20
237.2128363261174
 30
0.0
 11
418.2713021448975
 21
231.123988196332
 31
0.0
  0
LINE
  5
4004
330
3FFF
100
AcDbEntity
  8
寸法
 62
     0
370
    -2
100
AcDbLine
 10
126.2713021448975
 20
231.123988196332
 30
0.0
 11
416.2713021448975
 21
231.123988196332
 31
0.0
  0
INSERT
  5
4005
330
3FFF
100
AcDbEntity
  8
寸法
 62
     0
370
    -2
100
AcDbBlockReference
  2
_DOT
 10
124.2713021448975
 20
231.123988196332
 30
0.0
 41
2.0
 42
2.0
 43
2.0
 50
180.0
  0
INSERT
  5
4006
330
3FFF
100
AcDbEntity
  8
寸法
 62
     0
370
    -2
100
AcDbBlockReference
  2
_DOT
 10
418.2713021448975
 20
231.123988196332
 30
0.0
 41
2.0
 42
2.0
 43
2.0
  0
MTEXT
  5
4007
330
3FFF
100
AcDbEntity
  8
寸法
 62
     0
100
AcDbMText
 10
271.2713021448975
 20
236.623988196332
 30
0.0
 40
5.0
 41
0.0
 46
0.0
 71
     5
 72
     1
  1
\A1;294
  7
ＭＳ ゴシック
 73
     1
 44
1.0
  0
POINT
  5
4008
330
3FFF
100
AcDbEntity
  8
Defpoints
 62
     0
100
AcDbPoint
 10
124.2713021448975
 20
242.2128363261174
 30
0.0
  0
POINT
  5
4009
330
3FFF
100
AcDbEntity
  8
Defpoints
 62
     0
100
AcDbPoint
 10
418.2713021448975
 20
242.2128363261174
 30
0.0
  0
POINT
  5
400A
330
3FFF
100
AcDbEntity
  8
Defpoints
 62
     0
100
AcDbPoint
 10
418.2713021448975
 20
231.123988196332
 30
0.0
  0
ENDBLK
  5
4001
330
3FFF
100
AcDbEntity
  8
0
100
AcDbBlockEnd
  0
BLOCK
  5
400C
330
400B
100
AcDbEntity
  8
0
100
AcDbBlockBegin
  2
*D75
 70
     1
 10
0.0
 20
0.0
 30
0.0
  3
*D75
  1
*D77
  0
LINE
  5
400E
330
400B
100
AcDbEntity
  8
寸法
 62
     0
370
    -2
100
AcDbLine
 10
472.8379277236298
 20
331.1214906404215
 30
0.0
 11
486.4238098739543
 21
331.1214906404215
 31
0.0
  0
LINE
  5
400F
330
400B
100
AcDbEntity
  8
寸法
 62
     0
370
    -2
100
AcDbLine
 10
472.6260542115153
 20
280.7438261257479
 30
0.0
 11
486.4238098739543
 21
280.7438261257479
 31
0.0
  0
LINE
  5
4010
330
400B
100
AcDbEntity
  8
寸法
 62
     0
370
    -2
100
AcDbLine
 10
486.4238098739543
 20
329.1214906404215
 30
0.0
 11
486.4238098739543
 21
282.7438261257479
 31
0.0
  0
INSERT
  5
4011
330
400B
100
AcDbEntity
  8
寸法
 62
     0
370
    -2
100
AcDbBlockReference
  2
_DOT
 10
486.4238098739543
 20
331.1214906404215
 30
0.0
 41
2.0
 42
2.0
 43
2.0
 50
90.0
  0
INSERT
  5
4012
330
400B
100
AcDbEntity
  8
寸法
 62
     0
370
    -2
100
AcDbBlockReference
  2
_DOT
 10
486.4238098739543
 20
280.7438261257479
 30
0.0
 41
2.0
 42
2.0
 43
2.0
 50
270.0
  0
MTEXT
  5
4013
330
400B
100
AcDbEntity
  8
寸法
 62
     0
100
AcDbMText
 10
478.9238098739543
 20
305.9326583830847
 30
0.0
 40
5.0
 41
0.0
 46
0.0
 71
     5
 72
     1
  1
\A1;50
  7
ＭＳ ゴシック
 11
0.0
 21
1.0
 31
0.0
 73
     1
 44
1.0
  0
POINT
  5
4014
330
400B
100
AcDbEntity
  8
Defpoints
 62
     0
100
AcDbPoint
 10
467.8379277236298
 20
331.1214906404215
 30
0.0
  0
POINT
  5
4015
330
400B
100
AcDbEntity
  8
Defpoints
 62
     0
100
AcDbPoint
 10
467.6260542115153
 20
280.7438261257479
 30
0.0
  0
POINT
  5
4016
330
400B
100
AcDbEntity
  8
Defpoints
 62
     0
100
AcDbPoint
 10
486.4238098739543
 20
280.7438261257479
 30
0.0
  0
ENDBLK
  5
400D
330
400B
100
AcDbEntity
  8
0
100
AcDbBlockEnd
  0
BLOCK
  5
4018
330
4017
100
AcDbEntity
  8
0
100
AcDbBlockBegin
  2
*D76
 70
     1
 10
0.0
 20
0.0
 30
0.0
  3
*D76
  1
*D78
  0
LINE
  5
401A
330
4017
100
AcDbEntity
  8
寸法
 62
     0
370
    -2
100
AcDbLine
 10
66.62639590928521
 20
379.9663770602946
 30
0.0
 11
51.73095635705684
 21
379.9663770602946
 31
0.0
  0
LINE
  5
401B
330
4017
100
AcDbEntity
  8
寸法
 62
     0
370
    -2
100
AcDbLine
 10
66.62639590928521
 20
378.2748340611355
 30
0.0
 11
51.73095635705684
 21
378.2748340611355
 31
0.0
  0
INSERT
  5
401C
330
4017
100
AcDbEntity
  8
寸法
 62
     0
370
    -2
100
AcDbBlockReference
  2
_DOT
 10
51.73095635705684
 20
379.9663770602946
 30
0.0
 41
2.0
 42
2.0
 43
2.0
 50
90.0
  0
INSERT
  5
401D
330
4017
100
AcDbEntity
  8
寸法
 62
     0
370
    -2
100
AcDbBlockReference
  2
_DOT
 10
51.73095635705684
 20
378.2748340611355
 30
0.0
 41
2.0
 42
2.0
 43
2.0
 50
270.0
  0
MTEXT
  5
401E
330
4017
100
AcDbEntity
  8
寸法
 62
     0
100
AcDbMText
 10
46.23095635705684
 20
379.120605560715
 30
0.0
 40
5.0
 41
0.0
 46
0.0
 71
     5
 72
     1
  1
\A1;2
  7
ＭＳ ゴシック
 11
0.0
 21
1.0
 31
0.0
 73
     1
 44
1.0
  0
POINT
  5
401F
330
4017
100
AcDbEntity
  8
Defpoints
 62
     0
100
AcDbPoint
 10
71.62639590928521
 20
379.9663770602946
 30
0.0
  0
POINT
  5
4020
330
4017
100
AcDbEntity
  8
Defpoints
 62
     0
100
AcDbPoint
 10
71.62639590928521
 20
378.2748340611355
 30
0.0
  0
POINT
  5
4021
330
4017
100
AcDbEntity
  8
Defpoints
 62
     0
100
AcDbPoint
 10
51.73095635705684
 20
378.2748340611355
 30
0.0
  0
ENDBLK
  5
4019
330
4017
100
AcDbEntity
  8
0
100
AcDbBlockEnd
  0
BLOCK
  5
404A
330
4049
100
AcDbEntity
  8
0
100
AcDbBlockBegin
  2
*D77
 70
     1
 10
0.0
 20
0.0
 30
0.0
  3
*D77
  1
*D77
  0
LINE
  5
404C
330
4049
100
AcDbEntity
  8
寸法
 62
     0
370
    -2
100
AcDbLine
 10
473.5196240098851
 20
265.9326583830847
 30
0.0
 11
501.3605598806557
 21
265.9326583830847
 31
0.0
  0
LINE
  5
404D
330
4049
100
AcDbEntity
  8
寸法
 62
     0
370
    -2
100
AcDbLine
 10
473.5196240098851
 20
345.9326583830847
 30
0.0
 11
501.3605598806557
 21
345.9326583830847
 31
0.0
  0
LINE
  5
404E
330
4049
100
AcDbEntity
  8
寸法
 62
     0
370
    -2
100
AcDbLine
 10
501.3605598806557
 20
267.9326583830847
 30
0.0
 11
501.3605598806557
 21
343.9326583830847
 31
0.0
  0
INSERT
  5
404F
330
4049
100
AcDbEntity
  8
寸法
 62
     0
370
    -2
100
AcDbBlockReference
  2
_DOT
 10
501.3605598806557
 20
265.9326583830847
 30
0.0
 41
2.0
 42
2.0
 43
2.0
 50
270.0
  0
INSERT
  5
4050
330
4049
100
AcDbEntity
  8
寸法
 62
     0
370
    -2
100
AcDbBlockReference
  2
_DOT
 10
501.3605598806557
 20
345.9326583830847
 30
0.0
 41
2.0
 42
2.0
 43
2.0
 50
90.0
  0
MTEXT
  5
4051
330
4049
100
AcDbEntity
  8
寸法
 62
     0
100
AcDbMText
 10
493.8605598806557
 20
305.9326583830847
 30
0.0
 40
5.0
 41
0.0
 46
0.0
 71
     5
 72
     1
  1
\A1;80
  7
ＭＳ ゴシック
 11
0.0
 21
1.0
 31
0.0
 73
     1
 44
1.0
  0
POINT
  5
4052
330
4049
100
AcDbEntity
  8
Defpoints
 62
     0
100
AcDbPoint
 10
468.5196240098851
 20
265.9326583830847
 30
0.0
  0
POINT
  5
4053
330
4049
100
AcDbEntity
  8
Defpoints
 62
     0
100
AcDbPoint
 10
468.5196240098851
 20
345.9326583830847
 30
0.0
  0
POINT
  5
4054
330
4049
100
AcDbEntity
  8
Defpoints
 62
     0
100
AcDbPoint
 10
501.3605598806557
 20
345.9326583830847
 30
0.0
  0
ENDBLK
  5
404B
330
4049
100
AcDbEntity
  8
0
100
AcDbBlockEnd
  0
BLOCK
  5
4058
330
4057
100
AcDbEntity
  8
0
100
AcDbBlockBegin
  2
*D78
 70
     1
 10
0.0
 20
0.0
 30
0.0
  3
*D78
  1
*D78
  0
LINE
  5
405A
330
4057
100
AcDbEntity
  8
寸法
 62
     0
370
    -2
100
AcDbLine
 10
473.5196240098851
 20
345.9326583830847
 30
0.0
 11
501.3605598806557
 21
345.9326583830847
 31
0.0
  0
LINE
  5
405B
330
4057
100
AcDbEntity
  8
寸法
 62
     0
370
    -2
100
AcDbLine
 10
436.2850332712487
 20
355.9326583830847
 30
0.0
 11
501.3605598806557
 21
355.9326583830847
 31
0.0
  0
LINE
  5
405C
330
4057
100
AcDbEntity
  8
寸法
 62
     0
370
    -2
100
AcDbLine
 10
501.3605598806557
 20
347.9326583830847
 30
0.0
 11
501.3605598806557
 21
353.9326583830847
 31
0.0
  0
INSERT
  5
405D
330
4057
100
AcDbEntity
  8
寸法
 62
     0
370
    -2
100
AcDbBlockReference
  2
_DOT
 10
501.3605598806557
 20
345.9326583830847
 30
0.0
 41
2.0
 42
2.0
 43
2.0
 50
270.0
  0
INSERT
  5
405E
330
4057
100
AcDbEntity
  8
寸法
 62
     0
370
    -2
100
AcDbBlockReference
  2
_DOT
 10
501.3605598806557
 20
355.9326583830847
 30
0.0
 41
2.0
 42
2.0
 43
2.0
 50
90.0
  0
MTEXT
  5
405F
330
4057
100
AcDbEntity
  8
寸法
 62
     0
100
AcDbMText
 10
493.8605598806557
 20
350.9326583830847
 30
0.0
 40
5.0
 41
0.0
 46
0.0
 71
     5
 72
     1
  1
\A1;10
  7
ＭＳ ゴシック
 11
0.0
 21
1.0
 31
0.0
 73
     1
 44
1.0
  0
POINT
  5
4060
330
4057
100
AcDbEntity
  8
Defpoints
 62
     0
100
AcDbPoint
 10
468.5196240098851
 20
345.9326583830847
 30
0.0
  0
POINT
  5
4061
330
4057
100
AcDbEntity
  8
Defpoints
 62
     0
100
AcDbPoint
 10
431.2850332712487
 20
355.9326583830847
 30
0.0
  0
POINT
  5
4062
330
4057
100
AcDbEntity
  8
Defpoints
 62
     0
100
AcDbPoint
 10
501.3605598806557
 20
355.9326583830847
 30
0.0
  0
ENDBLK
  5
4059
330
4057
100
AcDbEntity
  8
0
100
AcDbBlockEnd
  0
BLOCK
  5
4066
330
4065
100
AcDbEntity
  8
0
100
AcDbBlockBegin
  2
*D79
 70
     1
 10
0.0
 20
0.0
 30
0.0
  3
*D79
  1
*D79
  0
LINE
  5
4068
330
4065
100
AcDbEntity
  8
寸法
 62
     0
370
    -2
100
AcDbLine
 10
473.5196240098851
 20
265.9326583830847
 30
0.0
 11
501.3605598806557
 21
265.9326583830847
 31
0.0
  0
LINE
  5
4069
330
4065
100
AcDbEntity
  8
寸法
 62
     0
370
    -2
100
AcDbLine
 10
440.2784274107553
 20
255.9326583830847
 30
0.0
 11
501.3605598806557
 21
255.9326583830847
 31
0.0
  0
LINE
  5
406A
330
4065
100
AcDbEntity
  8
寸法
 62
     0
370
    -2
100
AcDbLine
 10
501.3605598806557
 20
263.9326583830847
 30
0.0
 11
501.3605598806557
 21
257.9326583830847
 31
0.0
  0
INSERT
  5
406B
330
4065
100
AcDbEntity
  8
寸法
 62
     0
370
    -2
100
AcDbBlockReference
  2
_DOT
 10
501.3605598806557
 20
265.9326583830847
 30
0.0
 41
2.0
 42
2.0
 43
2.0
 50
90.0
  0
INSERT
  5
406C
330
4065
100
AcDbEntity
  8
寸法
 62
     0
370
    -2
100
AcDbBlockReference
  2
_DOT
 10
501.3605598806557
 20
255.9326583830847
 30
0.0
 41
2.0
 42
2.0
 43
2.0
 50
270.0
  0
MTEXT
  5
406D
330
4065
100
AcDbEntity
  8
寸法
 62
     0
100
AcDbMText
 10
493.8605598806557
 20
260.9326583830847
 30
0.0
 40
5.0
 41
0.0
 46
0.0
 71
     5
 72
     1
  1
\A1;10
  7
ＭＳ ゴシック
 11
0.0
 21
1.0
 31
0.0
 73
     1
 44
1.0
  0
POINT
  5
406E
330
4065
100
AcDbEntity
  8
Defpoints
 62
     0
100
AcDbPoint
 10
468.5196240098851
 20
265.9326583830847
 30
0.0
  0
POINT
  5
406F
330
4065
100
AcDbEntity
  8
Defpoints
 62
     0
100
AcDbPoint
 10
435.2784274107553
 20
255.9326583830847
 30
0.0
  0
POINT
  5
4070
330
4065
100
AcDbEntity
  8
Defpoints
 62
     0
100
AcDbPoint
 10
501.3605598806557
 20
255.9326583830847
 30
0.0
  0
ENDBLK
  5
4067
330
4065
100
AcDbEntity
  8
0
100
AcDbBlockEnd
  0
BLOCK
  5
40AE
330
40AD
100
AcDbEntity
  8
0
100
AcDbBlockBegin
  2
*D80
 70
     1
 10
0.0
 20
0.0
 30
0.0
  3
*D80
  1
*D80
  0
LINE
  5
40B0
330
40AD
100
AcDbEntity
  8
寸法
 62
     0
370
    -2
100
AcDbLine
 10
70.56066579840117
 20
319.7668535789682
 30
0.0
 11
56.97478364807672
 21
319.7668535789682
 31
0.0
  0
LINE
  5
40B1
330
40AD
100
AcDbEntity
  8
寸法
 62
     0
370
    -2
100
AcDbLine
 10
70.77253931051567
 20
269.3891890642944
 30
0.0
 11
56.97478364807675
 21
269.3891890642944
 31
0.0
  0
LINE
  5
40B2
330
40AD
100
AcDbEntity
  8
寸法
 62
     0
370
    -2
100
AcDbLine
 10
56.97478364807672
 20
317.7668535789682
 30
0.0
 11
56.97478364807675
 21
271.3891890642944
 31
0.0
  0
INSERT
  5
40B3
330
40AD
100
AcDbEntity
  8
寸法
 62
     0
370
    -2
100
AcDbBlockReference
  2
_DOT
 10
56.97478364807672
 20
319.7668535789682
 30
0.0
 41
2.0
 42
2.0
 43
2.0
 50
90.00000000000001
  0
INSERT
  5
40B4
330
40AD
100
AcDbEntity
  8
寸法
 62
     0
370
    -2
100
AcDbBlockReference
  2
_DOT
 10
56.97478364807675
 20
269.3891890642944
 30
0.0
 41
2.0
 42
2.0
 43
2.0
 50
270.0
  0
MTEXT
  5
40B5
330
40AD
100
AcDbEntity
  8
寸法
 62
     0
100
AcDbMText
 10
51.47478364807674
 20
294.5780213216313
 30
0.0
 40
5.0
 41
0.0
 46
0.0
 71
     5
 72
     1
  1
\A1;50
  7
ＭＳ ゴシック
 11
-4.231296205999015E-16
 21
1.0
 31
0.0
 73
     1
 44
1.0
  0
POINT
  5
40B6
330
40AD
100
AcDbEntity
  8
Defpoints
 62
     0
100
AcDbPoint
 10
75.56066579840117
 20
319.7668535789682
 30
0.0
  0
POINT
  5
40B7
330
40AD
100
AcDbEntity
  8
Defpoints
 62
     0
100
AcDbPoint
 10
75.77253931051567
 20
269.3891890642944
 30
0.0
  0
POINT
  5
40B8
330
40AD
100
AcDbEntity
  8
Defpoints
 62
     0
100
AcDbPoint
 10
56.97478364807675
 20
269.3891890642944
 30
0.0
  0
ENDBLK
  5
40AF
330
40AD
100
AcDbEntity
  8
0
100
AcDbBlockEnd
  0
BLOCK
  5
40BA
330
40B9
100
AcDbEntity
  8
0
100
AcDbBlockBegin
  2
*D81
 70
     1
 10
0.0
 20
0.0
 30
0.0
  3
*D81
  1
*D81
  0
LINE
  5
40BC
330
40B9
100
AcDbEntity
  8
寸法
 62
     0
370
    -2
100
AcDbLine
 10
68.26569022537029
 20
254.5780213216313
 30
0.0
 11
40.42475435459974
 21
254.5780213216313
 31
0.0
  0
LINE
  5
40BD
330
40B9
100
AcDbEntity
  8
寸法
 62
     0
370
    -2
100
AcDbLine
 10
68.26569022537029
 20
334.5780213216313
 30
0.0
 11
40.42475435459971
 21
334.5780213216313
 31
0.0
  0
LINE
  5
40BE
330
40B9
100
AcDbEntity
  8
寸法
 62
     0
370
    -2
100
AcDbLine
 10
40.42475435459974
 20
256.5780213216313
 30
0.0
 11
40.42475435459971
 21
332.5780213216313
 31
0.0
  0
INSERT
  5
40BF
330
40B9
100
AcDbEntity
  8
寸法
 62
     0
370
    -2
100
AcDbBlockReference
  2
_DOT
 10
40.42475435459974
 20
254.5780213216313
 30
0.0
 41
2.0
 42
2.0
 43
2.0
 50
270.0
  0
INSERT
  5
40C0
330
40B9
100
AcDbEntity
  8
寸法
 62
     0
370
    -2
100
AcDbBlockReference
  2
_DOT
 10
40.42475435459971
 20
334.5780213216313
 30
0.0
 41
2.0
 42
2.0
 43
2.0
 50
90.00000000000001
  0
MTEXT
  5
40C1
330
40B9
100
AcDbEntity
  8
寸法
 62
     0
100
AcDbMText
 10
34.92475435459973
 20
294.5780213216313
 30
0.0
 40
5.0
 41
0.0
 46
0.0
 71
     5
 72
     1
  1
\A1;80
  7
ＭＳ ゴシック
 11
-3.552713678800501E-16
 21
1.0
 31
0.0
 73
     1
 44
1.0
  0
POINT
  5
40C2
330
40B9
100
AcDbEntity
  8
Defpoints
 62
     0
100
AcDbPoint
 10
73.26569022537029
 20
254.5780213216313
 30
0.0
  0
POINT
  5
40C3
330
40B9
100
AcDbEntity
  8
Defpoints
 62
     0
100
AcDbPoint
 10
73.26569022537029
 20
334.5780213216313
 30
0.0
  0
POINT
  5
40C4
330
40B9
100
AcDbEntity
  8
Defpoints
 62
     0
100
AcDbPoint
 10
40.42475435459971
 20
334.5780213216313
 30
0.0
  0
ENDBLK
  5
40BB
330
40B9
100
AcDbEntity
  8
0
100
AcDbBlockEnd
  0
BLOCK
  5
40C6
330
40C5
100
AcDbEntity
  8
0
100
AcDbBlockBegin
  2
*D82
 70
     1
 10
0.0
 20
0.0
 30
0.0
  3
*D82
  1
*D82
  0
LINE
  5
40C8
330
40C5
100
AcDbEntity
  8
寸法
 62
     0
370
    -2
100
AcDbLine
 10
68.26569022537029
 20
334.5780213216313
 30
0.0
 11
40.42475435459972
 21
334.5780213216313
 31
0.0
  0
LINE
  5
40C9
330
40C5
100
AcDbEntity
  8
寸法
 62
     0
370
    -2
100
AcDbLine
 10
105.5002809640067
 20
344.5780213216313
 30
0.0
 11
40.42475435459971
 21
344.5780213216313
 31
0.0
  0
LINE
  5
40CA
330
40C5
100
AcDbEntity
  8
寸法
 62
     0
370
    -2
100
AcDbLine
 10
40.42475435459972
 20
336.5780213216313
 30
0.0
 11
40.42475435459971
 21
342.5780213216313
 31
0.0
  0
INSERT
  5
40CB
330
40C5
100
AcDbEntity
  8
寸法
 62
     0
370
    -2
100
AcDbBlockReference
  2
_DOT
 10
40.42475435459972
 20
334.5780213216313
 30
0.0
 41
2.0
 42
2.0
 43
2.0
 50
270.0000000000001
  0
INSERT
  5
40CC
330
40C5
100
AcDbEntity
  8
寸法
 62
     0
370
    -2
100
AcDbBlockReference
  2
_DOT
 10
40.42475435459971
 20
344.5780213216313
 30
0.0
 41
2.0
 42
2.0
 43
2.0
 50
90.00000000000004
  0
MTEXT
  5
40CD
330
40C5
100
AcDbEntity
  8
寸法
 62
     0
100
AcDbMText
 10
34.92475435459971
 20
339.5780213216313
 30
0.0
 40
5.0
 41
0.0
 46
0.0
 71
     5
 72
     1
  1
\A1;10
  7
ＭＳ ゴシック
 11
-7.105427357601043E-16
 21
1.0
 31
0.0
 73
     1
 44
1.0
  0
POINT
  5
40CE
330
40C5
100
AcDbEntity
  8
Defpoints
 62
     0
100
AcDbPoint
 10
73.26569022537029
 20
334.5780213216313
 30
0.0
  0
POINT
  5
40CF
330
40C5
100
AcDbEntity
  8
Defpoints
 62
     0
100
AcDbPoint
 10
110.5002809640067
 20
344.5780213216313
 30
0.0
  0
POINT
  5
40D0
330
40C5
100
AcDbEntity
  8
Defpoints
 62
     0
100
AcDbPoint
 10
40.42475435459971
 20
344.5780213216312
 30
0.0
  0
ENDBLK
  5
40C7
330
40C5
100
AcDbEntity
  8
0
100
AcDbBlockEnd
  0
BLOCK
  5
40D2
330
40D1
100
AcDbEntity
  8
0
100
AcDbBlockBegin
  2
*D83
 70
     1
 10
0.0
 20
0.0
 30
0.0
  3
*D83
  1
*D83
  0
LINE
  5
40D4
330
40D1
100
AcDbEntity
  8
寸法
 62
     0
370
    -2
100
AcDbLine
 10
68.26569022537029
 20
254.5780213216313
 30
0.0
 11
40.42475435459972
 21
254.5780213216313
 31
0.0
  0
LINE
  5
40D5
330
40D1
100
AcDbEntity
  8
寸法
 62
     0
370
    -2
100
AcDbLine
 10
101.5068868245001
 20
244.5780213216313
 30
0.0
 11
40.42475435459971
 21
244.5780213216313
 31
0.0
  0
LINE
  5
40D6
330
40D1
100
AcDbEntity
  8
寸法
 62
     0
370
    -2
100
AcDbLine
 10
40.42475435459972
 20
252.5780213216313
 30
0.0
 11
40.42475435459971
 21
246.5780213216313
 31
0.0
  0
INSERT
  5
40D7
330
40D1
100
AcDbEntity
  8
寸法
 62
     0
370
    -2
100
AcDbBlockReference
  2
_DOT
 10
40.42475435459972
 20
254.5780213216313
 30
0.0
 41
2.0
 42
2.0
 43
2.0
 50
89.99999999999996
  0
INSERT
  5
40D8
330
40D1
100
AcDbEntity
  8
寸法
 62
     0
370
    -2
100
AcDbBlockReference
  2
_DOT
 10
40.42475435459971
 20
244.5780213216313
 30
0.0
 41
2.0
 42
2.0
 43
2.0
 50
269.9999999999999
  0
MTEXT
  5
40D9
330
40D1
100
AcDbEntity
  8
寸法
 62
     0
100
AcDbMText
 10
34.92475435459971
 20
249.5780213216313
 30
0.0
 40
5.0
 41
0.0
 46
0.0
 71
     5
 72
     1
  1
\A1;10
  7
ＭＳ ゴシック
 11
7.105427357601022E-16
 21
1.0
 31
0.0
 73
     1
 44
1.0
  0
POINT
  5
40DA
330
40D1
100
AcDbEntity
  8
Defpoints
 62
     0
100
AcDbPoint
 10
73.26569022537029
 20
254.5780213216313
 30
0.0
  0
POINT
  5
40DB
330
40D1
100
AcDbEntity
  8
Defpoints
 62
     0
100
AcDbPoint
 10
106.5068868245001
 20
244.5780213216313
 30
0.0
  0
POINT
  5
40DC
330
40D1
100
AcDbEntity
  8
Defpoints
 62
     0
100
AcDbPoint
 10
40.42475435459971
 20
244.5780213216313
 30
0.0
  0
ENDBLK
  5
40D3
330
40D1
100
AcDbEntity
  8
0
100
AcDbBlockEnd
  0
BLOCK
  5
40E1
330
40E0
100
AcDbEntity
  8
0
100
AcDbBlockBegin
  2
*D84
 70
     1
 10
0.0
 20
0.0
 30
0.0
  3
*D84
  1
*D84
  0
LINE
  5
40E3
330
40E0
100
AcDbEntity
  8
寸法
 62
     0
370
    -2
100
AcDbLine
 10
443.4893805780212
 20
244.4122303190722
 30
0.0
 11
492.6513353859583
 21
244.4122303190722
 31
0.0
  0
LINE
  5
40E4
330
40E0
100
AcDbEntity
  8
寸法
 62
     0
370
    -2
100
AcDbLine
 10
444.2748628668367
 20
344.7369221286746
 30
0.0
 11
492.6513353859583
 21
344.7369221286746
 31
0.0
  0
LINE
  5
40E5
330
40E0
100
AcDbEntity
  8
寸法
 62
     0
370
    -2
100
AcDbLine
 10
492.6513353859583
 20
246.4122303190722
 30
0.0
 11
492.6513353859583
 21
342.7369221286746
 31
0.0
  0
INSERT
  5
40E6
330
40E0
100
AcDbEntity
  8
寸法
 62
     0
370
    -2
100
AcDbBlockReference
  2
_DOT
 10
492.6513353859583
 20
244.4122303190722
 30
0.0
 41
2.0
 42
2.0
 43
2.0
 50
270.0
  0
INSERT
  5
40E7
330
40E0
100
AcDbEntity
  8
寸法
 62
     0
370
    -2
100
AcDbBlockReference
  2
_DOT
 10
492.6513353859583
 20
344.7369221286746
 30
0.0
 41
2.0
 42
2.0
 43
2.0
 50
90.0
  0
MTEXT
  5
40E8
330
40E0
100
AcDbEntity
  8
寸法
 62
     0
100
AcDbMText
 10
487.1513353859583
 20
294.5745762238734
 30
0.0
 40
5.0
 41
0.0
 46
0.0
 71
     5
 72
     1
  1
\A1;100
  7
ＭＳ ゴシック
 11
0.0
 21
1.0
 31
0.0
 73
     1
 44
1.0
  0
POINT
  5
40E9
330
40E0
100
AcDbEntity
  8
Defpoints
 62
     0
100
AcDbPoint
 10
438.4893805780212
 20
244.4122303190722
 30
0.0
  0
POINT
  5
40EA
330
40E0
100
AcDbEntity
  8
Defpoints
 62
     0
100
AcDbPoint
 10
439.2748628668367
 20
344.7369221286746
 30
0.0
  0
POINT
  5
40EB
330
40E0
100
AcDbEntity
  8
Defpoints
 62
     0
100
AcDbPoint
 10
492.6513353859583
 20
344.7369221286746
 30
0.0
  0
ENDBLK
  5
40E2
330
40E0
100
AcDbEntity
  8
0
100
AcDbBlockEnd
  0
BLOCK
  5
41A4
330
41A3
100
AcDbEntity
  8
0
100
AcDbBlockBegin
  2
*D85
 70
     1
 10
0.0
 20
0.0
 30
0.0
  3
*D85
  1
*D85
  0
LINE
  5
41A6
330
41A3
100
AcDbEntity
  8
寸法
 62
     0
370
    -2
100
AcDbLine
 10
536.1170949746662
 20
268.8954424549318
 30
0.0
 11
531.3303441307576
 21
268.8954424549318
 31
0.0
  0
LINE
  5
41A7
330
41A3
100
AcDbEntity
  8
寸法
 62
     0
370
    -2
100
AcDbLine
 10
536.1170949746662
 20
262.9698743112377
 30
0.0
 11
531.3303441307576
 21
262.9698743112377
 31
0.0
  0
LINE
  5
41A8
330
41A3
100
AcDbEntity
  8
寸法
 62
     0
370
    -2
100
AcDbLine
 10
531.3303441307576
 20
270.8954424549318
 30
0.0
 11
531.3303441307576
 21
272.8954424549318
 31
0.0
  0
LINE
  5
41A9
330
41A3
100
AcDbEntity
  8
寸法
 62
     0
370
    -2
100
AcDbLine
 10
531.3303441307576
 20
260.9698743112377
 30
0.0
 11
531.3303441307576
 21
258.9698743112377
 31
0.0
  0
INSERT
  5
41AA
330
41A3
100
AcDbEntity
  8
寸法
 62
     0
370
    -2
100
AcDbBlockReference
  2
_DOT
 10
531.3303441307576
 20
268.8954424549318
 30
0.0
 41
2.0
 42
2.0
 43
2.0
 50
270.0
  0
INSERT
  5
41AB
330
41A3
100
AcDbEntity
  8
寸法
 62
     0
370
    -2
100
AcDbBlockReference
  2
_DOT
 10
531.3303441307576
 20
262.9698743112377
 30
0.0
 41
2.0
 42
2.0
 43
2.0
 50
90.0
  0
MTEXT
  5
41AC
330
41A3
100
AcDbEntity
  8
寸法
 62
     0
100
AcDbMText
 10
523.8303441307576
 20
265.9326583830847
 30
0.0
 40
5.0
 41
0.0
 46
0.0
 71
     5
 72
     1
  1
\A1;6
  7
ＭＳ ゴシック
 11
0.0
 21
1.0
 31
0.0
 73
     1
 44
1.0
  0
POINT
  5
41AD
330
41A3
100
AcDbEntity
  8
Defpoints
 62
     0
100
AcDbPoint
 10
541.1170949746662
 20
268.8954424549318
 30
0.0
  0
POINT
  5
41AE
330
41A3
100
AcDbEntity
  8
Defpoints
 62
     0
100
AcDbPoint
 10
541.1170949746662
 20
262.9698743112377
 30
0.0
  0
POINT
  5
41AF
330
41A3
100
AcDbEntity
  8
Defpoints
 62
     0
100
AcDbPoint
 10
531.3303441307576
 20
262.9698743112377
 30
0.0
  0
ENDBLK
  5
41A5
330
41A3
100
AcDbEntity
  8
0
100
AcDbBlockEnd
  0
BLOCK
  5
41FF
330
41FE
100
AcDbEntity
  8
0
100
AcDbBlockBegin
  2
*D86
 70
     1
 10
0.0
 20
0.0
 30
0.0
  3
*D86
  1
*D86
  0
LINE
  5
4201
330
41FE
100
AcDbEntity
  8
寸法
 62
     0
370
    -2
100
AcDbLine
 10
442.0543358098067
 20
207.2991609472346
 30
0.0
 11
496.970754472511
 21
207.2991609472346
 31
0.0
  0
LINE
  5
4202
330
41FE
100
AcDbEntity
  8
寸法
 62
     0
370
    -2
100
AcDbLine
 10
464.3112753640415
 20
197.1437052379493
 30
0.0
 11
496.970754472511
 21
197.1437052379493
 31
0.0
  0
LINE
  5
4203
330
41FE
100
AcDbEntity
  8
寸法
 62
     0
370
    -2
100
AcDbLine
 10
496.970754472511
 20
205.2991609472346
 30
0.0
 11
496.970754472511
 21
199.1437052379493
 31
0.0
  0
INSERT
  5
4204
330
41FE
100
AcDbEntity
  8
寸法
 62
     0
370
    -2
100
AcDbBlockReference
  2
_DOT
 10
496.970754472511
 20
207.2991609472346
 30
0.0
 41
2.0
 42
2.0
 43
2.0
 50
90.0
  0
INSERT
  5
4205
330
41FE
100
AcDbEntity
  8
寸法
 62
     0
370
    -2
100
AcDbBlockReference
  2
_DOT
 10
496.970754472511
 20
197.1437052379493
 30
0.0
 41
2.0
 42
2.0
 43
2.0
 50
270.0
  0
MTEXT
  5
4206
330
41FE
100
AcDbEntity
  8
寸法
 62
     0
100
AcDbMText
 10
491.470754472511
 20
202.2214330925919
 30
0.0
 40
5.0
 41
0.0
 46
0.0
 71
     5
 72
     1
  1
\A1;10
  7
ＭＳ ゴシック
 11
0.0
 21
1.0
 31
0.0
 73
     1
 44
1.0
  0
POINT
  5
4207
330
41FE
100
AcDbEntity
  8
Defpoints
 62
     0
100
AcDbPoint
 10
437.0543358098067
 20
207.2991609472346
 30
0.0
  0
POINT
  5
4208
330
41FE
100
AcDbEntity
  8
Defpoints
 62
     0
100
AcDbPoint
 10
459.3112753640415
 20
197.1437052379493
 30
0.0
  0
POINT
  5
4209
330
41FE
100
AcDbEntity
  8
Defpoints
 62
     0
100
AcDbPoint
 10
496.970754472511
 20
197.1437052379493
 30
0.0
  0
ENDBLK
  5
4200
330
41FE
100
AcDbEntity
  8
0
100
AcDbBlockEnd
  0
BLOCK
  5
420F
330
420E
100
AcDbEntity
  8
0
100
AcDbBlockBegin
  2
*D87
 70
     1
 10
0.0
 20
0.0
 30
0.0
  3
*D87
  1
*D87
  0
LINE
  5
4211
330
420E
100
AcDbEntity
  8
寸法
 62
     0
370
    -2
100
AcDbLine
 10
464.3112753640415
 20
197.1437052379493
 30
0.0
 11
496.970754472511
 21
197.1437052379493
 31
0.0
  0
LINE
  5
4212
330
420E
100
AcDbEntity
  8
寸法
 62
     0
370
    -2
100
AcDbLine
 10
464.3112753640415
 20
117.1402601401913
 30
0.0
 11
496.970754472511
 21
117.1402601401913
 31
0.0
  0
LINE
  5
4213
330
420E
100
AcDbEntity
  8
寸法
 62
     0
370
    -2
100
AcDbLine
 10
496.970754472511
 20
195.1437052379493
 30
0.0
 11
496.970754472511
 21
119.1402601401913
 31
0.0
  0
INSERT
  5
4214
330
420E
100
AcDbEntity
  8
寸法
 62
     0
370
    -2
100
AcDbBlockReference
  2
_DOT
 10
496.970754472511
 20
197.1437052379493
 30
0.0
 41
2.0
 42
2.0
 43
2.0
 50
90.0
  0
INSERT
  5
4215
330
420E
100
AcDbEntity
  8
寸法
 62
     0
370
    -2
100
AcDbBlockReference
  2
_DOT
 10
496.970754472511
 20
117.1402601401913
 30
0.0
 41
2.0
 42
2.0
 43
2.0
 50
270.0
  0
MTEXT
  5
4216
330
420E
100
AcDbEntity
  8
寸法
 62
     0
100
AcDbMText
 10
491.470754472511
 20
157.1419826890703
 30
0.0
 40
5.0
 41
0.0
 46
0.0
 71
     5
 72
     1
  1
\A1;80
  7
ＭＳ ゴシック
 11
0.0
 21
1.0
 31
0.0
 73
     1
 44
1.0
  0
POINT
  5
4217
330
420E
100
AcDbEntity
  8
Defpoints
 62
     0
100
AcDbPoint
 10
459.3112753640415
 20
197.1437052379493
 30
0.0
  0
POINT
  5
4218
330
420E
100
AcDbEntity
  8
Defpoints
 62
     0
100
AcDbPoint
 10
459.3112753640415
 20
117.1402601401913
 30
0.0
  0
POINT
  5
4219
330
420E
100
AcDbEntity
  8
Defpoints
 62
     0
100
AcDbPoint
 10
496.970754472511
 20
117.1402601401913
 30
0.0
  0
ENDBLK
  5
4210
330
420E
100
AcDbEntity
  8
0
100
AcDbBlockEnd
  0
BLOCK
  5
421E
330
421D
100
AcDbEntity
  8
0
100
AcDbBlockBegin
  2
*D88
 70
     1
 10
0.0
 20
0.0
 30
0.0
  3
*D88
  1
*D88
  0
LINE
  5
4220
330
421D
100
AcDbEntity
  8
寸法
 62
     0
370
    -2
100
AcDbLine
 10
464.3112753640415
 20
117.1402601401913
 30
0.0
 11
496.970754472511
 21
117.1402601401913
 31
0.0
  0
LINE
  5
4221
330
421D
100
AcDbEntity
  8
寸法
 62
     0
370
    -2
100
AcDbLine
 10
464.3112753640415
 20
107.0203217026029
 30
0.0
 11
496.970754472511
 21
107.0203217026029
 31
0.0
  0
LINE
  5
4222
330
421D
100
AcDbEntity
  8
寸法
 62
     0
370
    -2
100
AcDbLine
 10
496.970754472511
 20
115.1402601401913
 30
0.0
 11
496.970754472511
 21
109.0203217026029
 31
0.0
  0
INSERT
  5
4223
330
421D
100
AcDbEntity
  8
寸法
 62
     0
370
    -2
100
AcDbBlockReference
  2
_DOT
 10
496.970754472511
 20
117.1402601401913
 30
0.0
 41
2.0
 42
2.0
 43
2.0
 50
90.0
  0
INSERT
  5
4224
330
421D
100
AcDbEntity
  8
寸法
 62
     0
370
    -2
100
AcDbBlockReference
  2
_DOT
 10
496.970754472511
 20
107.0203217026029
 30
0.0
 41
2.0
 42
2.0
 43
2.0
 50
270.0
  0
MTEXT
  5
4225
330
421D
100
AcDbEntity
  8
寸法
 62
     0
100
AcDbMText
 10
491.470754472511
 20
112.5802909213971
 30
0.0
 40
5.0
 41
0.0
 46
0.0
 71
     5
 72
     1
  1
\A1;10
  7
ＭＳ ゴシック
 11
0.0
 21
1.0
 31
0.0
 73
     1
 44
1.0
  0
POINT
  5
4226
330
421D
100
AcDbEntity
  8
Defpoints
 62
     0
100
AcDbPoint
 10
459.3112753640415
 20
117.1402601401913
 30
0.0
  0
POINT
  5
4227
330
421D
100
AcDbEntity
  8
Defpoints
 62
     0
100
AcDbPoint
 10
459.3112753640415
 20
107.0203217026029
 30
0.0
  0
POINT
  5
4228
330
421D
100
AcDbEntity
  8
Defpoints
 62
     0
100
AcDbPoint
 10
496.970754472511
 20
107.0203217026029
 30
0.0
  0
ENDBLK
  5
421F
330
421D
100
AcDbEntity
  8
0
100
AcDbBlockEnd
  0
BLOCK
  5
4236
330
4235
100
AcDbEntity
  8
0
100
AcDbBlockBegin
  2
*D89
 70
     1
 10
0.0
 20
0.0
 30
0.0
  3
*D89
  1
*D89
  0
LINE
  5
4238
330
4235
100
AcDbEntity
  8
寸法
 62
     0
370
    -2
100
AcDbLine
 10
451.2206953937591
 20
107.0203217026029
 30
0.0
 11
514.6315464025391
 21
107.0203217026029
 31
0.0
  0
LINE
  5
4239
330
4235
100
AcDbEntity
  8
寸法
 62
     0
370
    -2
100
AcDbLine
 10
501.970754472511
 20
126.0203217026029
 30
0.0
 11
514.6315464025391
 21
126.0203217026029
 31
0.0
  0
LINE
  5
423A
330
4235
100
AcDbEntity
  8
寸法
 62
     0
370
    -2
100
AcDbLine
 10
514.6315464025391
 20
109.0203217026029
 30
0.0
 11
514.6315464025391
 21
124.0203217026029
 31
0.0
  0
INSERT
  5
423B
330
4235
100
AcDbEntity
  8
寸法
 62
     0
370
    -2
100
AcDbBlockReference
  2
_DOT
 10
514.6315464025391
 20
107.0203217026029
 30
0.0
 41
2.0
 42
2.0
 43
2.0
 50
270.0
  0
INSERT
  5
423C
330
4235
100
AcDbEntity
  8
寸法
 62
     0
370
    -2
100
AcDbBlockReference
  2
_DOT
 10
514.6315464025391
 20
126.0203217026029
 30
0.0
 41
2.0
 42
2.0
 43
2.0
 50
90.0
  0
MTEXT
  5
423D
330
4235
100
AcDbEntity
  8
寸法
 62
     0
100
AcDbMText
 10
509.1315464025391
 20
116.5203217026029
 30
0.0
 40
5.0
 41
0.0
 46
0.0
 71
     5
 72
     1
  1
\A1;19
  7
ＭＳ ゴシック
 11
0.0
 21
1.0
 31
0.0
 73
     1
 44
1.0
  0
POINT
  5
423E
330
4235
100
AcDbEntity
  8
Defpoints
 62
     0
100
AcDbPoint
 10
446.2206953937591
 20
107.0203217026029
 30
0.0
  0
POINT
  5
423F
330
4235
100
AcDbEntity
  8
Defpoints
 62
     0
100
AcDbPoint
 10
496.970754472511
 20
126.0203217026029
 30
0.0
  0
POINT
  5
4240
330
4235
100
AcDbEntity
  8
Defpoints
 62
     0
100
AcDbPoint
 10
514.6315464025391
 20
126.0203217026029
 30
0.0
  0
ENDBLK
  5
4237
330
4235
100
AcDbEntity
  8
0
100
AcDbBlockEnd
  0
BLOCK
  5
4243
330
4242
100
AcDbEntity
  8
0
100
AcDbBlockBegin
  2
*D90
 70
     1
 10
0.0
 20
0.0
 30
0.0
  3
*D90
  1
*D90
  0
LINE
  5
4245
330
4242
100
AcDbEntity
  8
寸法
 62
     0
370
    -2
100
AcDbLine
 10
464.3112753640415
 20
184.4769380905738
 30
0.0
 11
515.2833764173979
 21
184.4769380905738
 31
0.0
  0
LINE
  5
4246
330
4242
100
AcDbEntity
  8
寸法
 62
     0
370
    -2
100
AcDbLine
 10
464.3112753640415
 20
165.4769380905738
 30
0.0
 11
515.2833764173979
 21
165.4769380905738
 31
0.0
  0
LINE
  5
4247
330
4242
100
AcDbEntity
  8
寸法
 62
     0
370
    -2
100
AcDbLine
 10
515.2833764173979
 20
182.4769380905738
 30
0.0
 11
515.2833764173979
 21
167.4769380905738
 31
0.0
  0
INSERT
  5
4248
330
4242
100
AcDbEntity
  8
寸法
 62
     0
370
    -2
100
AcDbBlockReference
  2
_DOT
 10
515.2833764173979
 20
184.4769380905738
 30
0.0
 41
2.0
 42
2.0
 43
2.0
 50
90.0
  0
INSERT
  5
4249
330
4242
100
AcDbEntity
  8
寸法
 62
     0
370
    -2
100
AcDbBlockReference
  2
_DOT
 10
515.2833764173979
 20
165.4769380905738
 30
0.0
 41
2.0
 42
2.0
 43
2.0
 50
270.0
  0
MTEXT
  5
424A
330
4242
100
AcDbEntity
  8
寸法
 62
     0
100
AcDbMText
 10
507.7833764173979
 20
174.9769380905738
 30
0.0
 40
5.0
 41
0.0
 46
0.0
 71
     5
 72
     1
  1
\A1;19
  7
ＭＳ ゴシック
 11
0.0
 21
1.0
 31
0.0
 73
     1
 44
1.0
  0
POINT
  5
424B
330
4242
100
AcDbEntity
  8
Defpoints
 62
     0
100
AcDbPoint
 10
459.3112753640415
 20
184.4769380905738
 30
0.0
  0
POINT
  5
424C
330
4242
100
AcDbEntity
  8
Defpoints
 62
     0
100
AcDbPoint
 10
459.3112753640415
 20
165.4769380905738
 30
0.0
  0
POINT
  5
424D
330
4242
100
AcDbEntity
  8
Defpoints
 62
     0
100
AcDbPoint
 10
515.2833764173979
 20
165.4769380905738
 30
0.0
  0
ENDBLK
  5
4244
330
4242
100
AcDbEntity
  8
0
100
AcDbBlockEnd
  0
BLOCK
  5
4250
330
424F
100
AcDbEntity
  8
0
100
AcDbBlockBegin
  2
*D91
 70
     1
 10
0.0
 20
0.0
 30
0.0
  3
*D91
  1
*D91
  0
LINE
  5
4252
330
424F
100
AcDbEntity
  8
寸法
 62
     0
370
    -2
100
AcDbLine
 10
442.0543358098067
 20
207.2991609472346
 30
0.0
 11
514.6315464025391
 21
207.2991609472346
 31
0.0
  0
LINE
  5
4253
330
424F
100
AcDbEntity
  8
寸法
 62
     0
370
    -2
100
AcDbLine
 10
501.970754472511
 20
191.2991609472346
 30
0.0
 11
514.6315464025391
 21
191.2991609472346
 31
0.0
  0
LINE
  5
4254
330
424F
100
AcDbEntity
  8
寸法
 62
     0
370
    -2
100
AcDbLine
 10
514.6315464025391
 20
205.2991609472346
 30
0.0
 11
514.6315464025391
 21
193.2991609472346
 31
0.0
  0
INSERT
  5
4255
330
424F
100
AcDbEntity
  8
寸法
 62
     0
370
    -2
100
AcDbBlockReference
  2
_DOT
 10
514.6315464025391
 20
207.2991609472346
 30
0.0
 41
2.0
 42
2.0
 43
2.0
 50
90.0
  0
INSERT
  5
4256
330
424F
100
AcDbEntity
  8
寸法
 62
     0
370
    -2
100
AcDbBlockReference
  2
_DOT
 10
514.6315464025391
 20
191.2991609472346
 30
0.0
 41
2.0
 42
2.0
 43
2.0
 50
270.0
  0
MTEXT
  5
4257
330
424F
100
AcDbEntity
  8
寸法
 62
     0
100
AcDbMText
 10
509.1315464025391
 20
199.2991609472346
 30
0.0
 40
5.0
 41
0.0
 46
0.0
 71
     5
 72
     1
  1
\A1;16
  7
ＭＳ ゴシック
 11
0.0
 21
1.0
 31
0.0
 73
     1
 44
1.0
  0
POINT
  5
4258
330
424F
100
AcDbEntity
  8
Defpoints
 62
     0
100
AcDbPoint
 10
437.0543358098067
 20
207.2991609472346
 30
0.0
  0
POINT
  5
4259
330
424F
100
AcDbEntity
  8
Defpoints
 62
     0
100
AcDbPoint
 10
496.970754472511
 20
191.2991609472346
 30
0.0
  0
POINT
  5
425A
330
424F
100
AcDbEntity
  8
Defpoints
 62
     0
100
AcDbPoint
 10
514.6315464025391
 20
191.2991609472346
 30
0.0
  0
ENDBLK
  5
4251
330
424F
100
AcDbEntity
  8
0
100
AcDbBlockEnd
  0
BLOCK
  5
425F
330
425E
100
AcDbEntity
  8
0
100
AcDbBlockBegin
  2
*D92
 70
     1
 10
0.0
 20
0.0
 30
0.0
  3
*D92
  1
*D92
  0
LINE
  5
4261
330
425E
100
AcDbEntity
  8
寸法
 62
     0
370
    -2
100
AcDbLine
 10
501.970754472511
 20
126.0203217026029
 30
0.0
 11
514.6315464025391
 21
126.0203217026029
 31
0.0
  0
LINE
  5
4262
330
425E
100
AcDbEntity
  8
寸法
 62
     0
370
    -2
100
AcDbLine
 10
501.970754472511
 20
191.2991609472346
 30
0.0
 11
514.6315464025391
 21
191.2991609472346
 31
0.0
  0
LINE
  5
4263
330
425E
100
AcDbEntity
  8
寸法
 62
     0
370
    -2
100
AcDbLine
 10
514.6315464025391
 20
128.0203217026029
 30
0.0
 11
514.6315464025391
 21
189.2991609472346
 31
0.0
  0
INSERT
  5
4264
330
425E
100
AcDbEntity
  8
寸法
 62
     0
370
    -2
100
AcDbBlockReference
  2
_DOT
 10
514.6315464025391
 20
126.0203217026029
 30
0.0
 41
2.0
 42
2.0
 43
2.0
 50
270.0
  0
INSERT
  5
4265
330
425E
100
AcDbEntity
  8
寸法
 62
     0
370
    -2
100
AcDbBlockReference
  2
_DOT
 10
514.6315464025391
 20
191.2991609472346
 30
0.0
 41
2.0
 42
2.0
 43
2.0
 50
90.0
  0
MTEXT
  5
4266
330
425E
100
AcDbEntity
  8
寸法
 62
     0
100
AcDbMText
 10
509.1315464025391
 20
158.6597413249187
 30
0.0
 40
5.0
 41
0.0
 46
0.0
 71
     5
 72
     1
  1
\A1;65
  7
ＭＳ ゴシック
 11
0.0
 21
1.0
 31
0.0
 73
     1
 44
1.0
  0
POINT
  5
4267
330
425E
100
AcDbEntity
  8
Defpoints
 62
     0
100
AcDbPoint
 10
496.970754472511
 20
126.0203217026029
 30
0.0
  0
POINT
  5
4268
330
425E
100
AcDbEntity
  8
Defpoints
 62
     0
100
AcDbPoint
 10
496.970754472511
 20
191.2991609472346
 30
0.0
  0
POINT
  5
4269
330
425E
100
AcDbEntity
  8
Defpoints
 62
     0
100
AcDbPoint
 10
514.6315464025391
 20
191.2991609472346
 30
0.0
  0
ENDBLK
  5
4260
330
425E
100
AcDbEntity
  8
0
100
AcDbBlockEnd
  0
BLOCK
  5
427E
330
427D
100
AcDbEntity
  8
0
100
AcDbBlockBegin
  2
*D93
 70
     1
 10
0.0
 20
0.0
 30
0.0
  3
*D93
  1
*D93
  0
LINE
  5
4280
330
427D
100
AcDbEntity
  8
寸法
 62
     0
370
    -2
100
AcDbLine
 10
71.22872142893587
 20
130.091006214759
 30
0.0
 11
71.22872142893587
 21
86.5580947851482
 31
0.0
  0
LINE
  5
4281
330
427D
100
AcDbEntity
  8
寸法
 62
     0
370
    -2
100
AcDbLine
 10
124.2287214289359
 20
104.4769128525176
 30
0.0
 11
124.2287214289359
 21
86.5580947851482
 31
0.0
  0
LINE
  5
4282
330
427D
100
AcDbEntity
  8
寸法
 62
     0
370
    -2
100
AcDbLine
 10
73.22872142893587
 20
86.5580947851482
 30
0.0
 11
122.2287214289359
 21
86.5580947851482
 31
0.0
  0
INSERT
  5
4283
330
427D
100
AcDbEntity
  8
寸法
 62
     0
370
    -2
100
AcDbBlockReference
  2
_DOT
 10
71.22872142893587
 20
86.5580947851482
 30
0.0
 41
2.0
 42
2.0
 43
2.0
 50
180.0
  0
INSERT
  5
4284
330
427D
100
AcDbEntity
  8
寸法
 62
     0
370
    -2
100
AcDbBlockReference
  2
_DOT
 10
124.2287214289359
 20
86.5580947851482
 30
0.0
 41
2.0
 42
2.0
 43
2.0
  0
MTEXT
  5
4285
330
427D
100
AcDbEntity
  8
寸法
 62
     0
100
AcDbMText
 10
97.72872142893588
 20
92.0580947851482
 30
0.0
 40
5.0
 41
0.0
 46
0.0
 71
     5
 72
     1
  1
\A1;53
  7
ＭＳ ゴシック
 73
     1
 44
1.0
  0
POINT
  5
4286
330
427D
100
AcDbEntity
  8
Defpoints
 62
     0
100
AcDbPoint
 10
71.22872142893587
 20
135.091006214759
 30
0.0
  0
POINT
  5
4287
330
427D
100
AcDbEntity
  8
Defpoints
 62
     0
100
AcDbPoint
 10
124.2287214289359
 20
109.4769128525176
 30
0.0
  0
POINT
  5
4288
330
427D
100
AcDbEntity
  8
Defpoints
 62
     0
100
AcDbPoint
 10
124.2287214289359
 20
86.5580947851482
 30
0.0
  0
ENDBLK
  5
427F
330
427D
100
AcDbEntity
  8
0
100
AcDbBlockEnd
  0
BLOCK
  5
4294
330
4293
100
AcDbEntity
  8
0
100
AcDbBlockBegin
  2
*D94
 70
     1
 10
0.0
 20
0.0
 30
0.0
  3
*D94
  1
*D94
  0
LINE
  5
4296
330
4293
100
AcDbEntity
  8
寸法
 62
     0
370
    -2
100
AcDbLine
 10
124.2287214289359
 20
104.4769128525176
 30
0.0
 11
124.2287214289359
 21
86.5580947851482
 31
0.0
  0
LINE
  5
4297
330
4293
100
AcDbEntity
  8
寸法
 62
     0
370
    -2
100
AcDbLine
 10
418.2287214289358
 20
104.4769128525176
 30
0.0
 11
418.2287214289358
 21
86.5580947851482
 31
0.0
  0
LINE
  5
4298
330
4293
100
AcDbEntity
  8
寸法
 62
     0
370
    -2
100
AcDbLine
 10
126.2287214289359
 20
86.5580947851482
 30
0.0
 11
416.2287214289358
 21
86.5580947851482
 31
0.0
  0
INSERT
  5
4299
330
4293
100
AcDbEntity
  8
寸法
 62
     0
370
    -2
100
AcDbBlockReference
  2
_DOT
 10
124.2287214289359
 20
86.5580947851482
 30
0.0
 41
2.0
 42
2.0
 43
2.0
 50
180.0
  0
INSERT
  5
429A
330
4293
100
AcDbEntity
  8
寸法
 62
     0
370
    -2
100
AcDbBlockReference
  2
_DOT
 10
418.2287214289358
 20
86.5580947851482
 30
0.0
 41
2.0
 42
2.0
 43
2.0
  0
MTEXT
  5
429B
330
4293
100
AcDbEntity
  8
寸法
 62
     0
100
AcDbMText
 10
271.2287214289358
 20
92.0580947851482
 30
0.0
 40
5.0
 41
0.0
 46
0.0
 71
     5
 72
     1
  1
\A1;294
  7
ＭＳ ゴシック
 73
     1
 44
1.0
  0
POINT
  5
429C
330
4293
100
AcDbEntity
  8
Defpoints
 62
     0
100
AcDbPoint
 10
124.2287214289359
 20
109.4769128525176
 30
0.0
  0
POINT
  5
429D
330
4293
100
AcDbEntity
  8
Defpoints
 62
     0
100
AcDbPoint
 10
418.2287214289358
 20
109.4769128525176
 30
0.0
  0
POINT
  5
429E
330
4293
100
AcDbEntity
  8
Defpoints
 62
     0
100
AcDbPoint
 10
418.2287214289358
 20
86.5580947851482
 30
0.0
  0
ENDBLK
  5
4295
330
4293
100
AcDbEntity
  8
0
100
AcDbBlockEnd
  0
BLOCK
  5
42A1
330
42A0
100
AcDbEntity
  8
0
100
AcDbBlockBegin
  2
*D95
 70
     1
 10
0.0
 20
0.0
 30
0.0
  3
*D95
  1
*D95
  0
LINE
  5
42A3
330
42A0
100
AcDbEntity
  8
寸法
 62
     0
370
    -2
100
AcDbLine
 10
418.2287214289358
 20
104.4769128525176
 30
0.0
 11
418.2287214289358
 21
86.5580947851482
 31
0.0
  0
LINE
  5
42A4
330
42A0
100
AcDbEntity
  8
寸法
 62
     0
370
    -2
100
AcDbLine
 10
471.2287214289358
 20
138.748123599603
 30
0.0
 11
471.2287214289358
 21
86.5580947851482
 31
0.0
  0
LINE
  5
42A5
330
42A0
100
AcDbEntity
  8
寸法
 62
     0
370
    -2
100
AcDbLine
 10
420.2287214289358
 20
86.5580947851482
 30
0.0
 11
469.2287214289358
 21
86.5580947851482
 31
0.0
  0
INSERT
  5
42A6
330
42A0
100
AcDbEntity
  8
寸法
 62
     0
370
    -2
100
AcDbBlockReference
  2
_DOT
 10
418.2287214289358
 20
86.5580947851482
 30
0.0
 41
2.0
 42
2.0
 43
2.0
 50
180.0
  0
INSERT
  5
42A7
330
42A0
100
AcDbEntity
  8
寸法
 62
     0
370
    -2
100
AcDbBlockReference
  2
_DOT
 10
471.2287214289358
 20
86.5580947851482
 30
0.0
 41
2.0
 42
2.0
 43
2.0
  0
MTEXT
  5
42A8
330
42A0
100
AcDbEntity
  8
寸法
 62
     0
100
AcDbMText
 10
444.7287214289358
 20
92.0580947851482
 30
0.0
 40
5.0
 41
0.0
 46
0.0
 71
     5
 72
     1
  1
\A1;53
  7
ＭＳ ゴシック
 73
     1
 44
1.0
  0
POINT
  5
42A9
330
42A0
100
AcDbEntity
  8
Defpoints
 62
     0
100
AcDbPoint
 10
418.2287214289358
 20
109.4769128525176
 30
0.0
  0
POINT
  5
42AA
330
42A0
100
AcDbEntity
  8
Defpoints
 62
     0
100
AcDbPoint
 10
471.2287214289358
 20
143.748123599603
 30
0.0
  0
POINT
  5
42AB
330
42A0
100
AcDbEntity
  8
Defpoints
 62
     0
100
AcDbPoint
 10
471.2287214289358
 20
86.5580947851482
 30
0.0
  0
ENDBLK
  5
42A2
330
42A0
100
AcDbEntity
  8
0
100
AcDbBlockEnd
  0
BLOCK
  5
42C5
330
42C4
100
AcDbEntity
  8
0
100
AcDbBlockBegin
  2
*D96
 70
     1
 10
0.0
 20
0.0
 30
0.0
  3
*D96
  1
*D96
  0
LINE
  5
42C7
330
42C4
100
AcDbEntity
  8
寸法
 62
     0
370
    -2
100
AcDbLine
 10
71.22872142893587
 20
82.34029080297881
 30
0.0
 11
71.22872142893587
 21
69.79012419493799
 31
0.0
  0
LINE
  5
42C8
330
42C4
100
AcDbEntity
  8
寸法
 62
     0
370
    -2
100
AcDbLine
 10
103.2287214289359
 20
82.34029080297881
 30
0.0
 11
103.2287214289359
 21
69.79012419493799
 31
0.0
  0
LINE
  5
42C9
330
42C4
100
AcDbEntity
  8
寸法
 62
     0
370
    -2
100
AcDbLine
 10
73.22872142893587
 20
69.79012419493799
 30
0.0
 11
101.2287214289359
 21
69.79012419493799
 31
0.0
  0
INSERT
  5
42CA
330
42C4
100
AcDbEntity
  8
寸法
 62
     0
370
    -2
100
AcDbBlockReference
  2
_DOT
 10
71.22872142893587
 20
69.79012419493799
 30
0.0
 41
2.0
 42
2.0
 43
2.0
 50
180.0
  0
INSERT
  5
42CB
330
42C4
100
AcDbEntity
  8
寸法
 62
     0
370
    -2
100
AcDbBlockReference
  2
_DOT
 10
103.2287214289359
 20
69.79012419493799
 30
0.0
 41
2.0
 42
2.0
 43
2.0
  0
MTEXT
  5
42CC
330
42C4
100
AcDbEntity
  8
寸法
 62
     0
100
AcDbMText
 10
87.22872142893588
 20
75.29012419493799
 30
0.0
 40
5.0
 41
0.0
 46
0.0
 71
     5
 72
     1
  1
\A1;32
  7
ＭＳ ゴシック
 73
     1
 44
1.0
  0
POINT
  5
42CD
330
42C4
100
AcDbEntity
  8
Defpoints
 62
     0
100
AcDbPoint
 10
71.22872142893587
 20
87.34029080297881
 30
0.0
  0
POINT
  5
42CE
330
42C4
100
AcDbEntity
  8
Defpoints
 62
     0
100
AcDbPoint
 10
103.2287214289359
 20
87.34029080297881
 30
0.0
  0
POINT
  5
42CF
330
42C4
100
AcDbEntity
  8
Defpoints
 62
     0
100
AcDbPoint
 10
103.2287214289359
 20
69.79012419493799
 30
0.0
  0
ENDBLK
  5
42C6
330
42C4
100
AcDbEntity
  8
0
100
AcDbBlockEnd
  0
BLOCK
  5
42D2
330
42D1
100
AcDbEntity
  8
0
100
AcDbBlockBegin
  2
*D97
 70
     1
 10
0.0
 20
0.0
 30
0.0
  3
*D97
  1
*D97
  0
LINE
  5
42D4
330
42D1
100
AcDbEntity
  8
寸法
 62
     0
370
    -2
100
AcDbLine
 10
103.2287214289359
 20
82.34029080297881
 30
0.0
 11
103.2287214289359
 21
69.79012419493799
 31
0.0
  0
LINE
  5
42D5
330
42D1
100
AcDbEntity
  8
寸法
 62
     0
370
    -2
100
AcDbLine
 10
439.2287214289358
 20
82.34029080297881
 30
0.0
 11
439.2287214289358
 21
69.79012419493799
 31
0.0
  0
LINE
  5
42D6
330
42D1
100
AcDbEntity
  8
寸法
 62
     0
370
    -2
100
AcDbLine
 10
105.2287214289359
 20
69.79012419493799
 30
0.0
 11
437.2287214289358
 21
69.79012419493799
 31
0.0
  0
INSERT
  5
42D7
330
42D1
100
AcDbEntity
  8
寸法
 62
     0
370
    -2
100
AcDbBlockReference
  2
_DOT
 10
103.2287214289359
 20
69.79012419493799
 30
0.0
 41
2.0
 42
2.0
 43
2.0
 50
180.0
  0
INSERT
  5
42D8
330
42D1
100
AcDbEntity
  8
寸法
 62
     0
370
    -2
100
AcDbBlockReference
  2
_DOT
 10
439.2287214289358
 20
69.79012419493799
 30
0.0
 41
2.0
 42
2.0
 43
2.0
  0
MTEXT
  5
42D9
330
42D1
100
AcDbEntity
  8
寸法
 62
     0
100
AcDbMText
 10
271.2287214289358
 20
75.29012419493799
 30
0.0
 40
5.0
 41
0.0
 46
0.0
 71
     5
 72
     1
  1
\A1;336
  7
ＭＳ ゴシック
 73
     1
 44
1.0
  0
POINT
  5
42DA
330
42D1
100
AcDbEntity
  8
Defpoints
 62
     0
100
AcDbPoint
 10
103.2287214289359
 20
87.34029080297881
 30
0.0
  0
POINT
  5
42DB
330
42D1
100
AcDbEntity
  8
Defpoints
 62
     0
100
AcDbPoint
 10
439.2287214289358
 20
87.34029080297881
 30
0.0
  0
POINT
  5
42DC
330
42D1
100
AcDbEntity
  8
Defpoints
 62
     0
100
AcDbPoint
 10
439.2287214289358
 20
69.79012419493799
 30
0.0
  0
ENDBLK
  5
42D3
330
42D1
100
AcDbEntity
  8
0
100
AcDbBlockEnd
  0
BLOCK
  5
42DF
330
42DE
100
AcDbEntity
  8
0
100
AcDbBlockBegin
  2
*D98
 70
     1
 10
0.0
 20
0.0
 30
0.0
  3
*D98
  1
*D98
  0
LINE
  5
42E1
330
42DE
100
AcDbEntity
  8
寸法
 62
     0
370
    -2
100
AcDbLine
 10
439.2287214289358
 20
82.34029080297881
 30
0.0
 11
439.2287214289358
 21
69.79012419493799
 31
0.0
  0
LINE
  5
42E2
330
42DE
100
AcDbEntity
  8
寸法
 62
     0
370
    -2
100
AcDbLine
 10
471.2287214289358
 20
82.34029080297881
 30
0.0
 11
471.2287214289358
 21
69.79012419493799
 31
0.0
  0
LINE
  5
42E3
330
42DE
100
AcDbEntity
  8
寸法
 62
     0
370
    -2
100
AcDbLine
 10
441.2287214289358
 20
69.79012419493799
 30
0.0
 11
469.2287214289358
 21
69.79012419493799
 31
0.0
  0
INSERT
  5
42E4
330
42DE
100
AcDbEntity
  8
寸法
 62
     0
370
    -2
100
AcDbBlockReference
  2
_DOT
 10
439.2287214289358
 20
69.79012419493799
 30
0.0
 41
2.0
 42
2.0
 43
2.0
 50
180.0
  0
INSERT
  5
42E5
330
42DE
100
AcDbEntity
  8
寸法
 62
     0
370
    -2
100
AcDbBlockReference
  2
_DOT
 10
471.2287214289358
 20
69.79012419493799
 30
0.0
 41
2.0
 42
2.0
 43
2.0
  0
MTEXT
  5
42E6
330
42DE
100
AcDbEntity
  8
寸法
 62
     0
100
AcDbMText
 10
455.2287214289358
 20
75.29012419493799
 30
0.0
 40
5.0
 41
0.0
 46
0.0
 71
     5
 72
     1
  1
\A1;32
  7
ＭＳ ゴシック
 73
     1
 44
1.0
  0
POINT
  5
42E7
330
42DE
100
AcDbEntity
  8
Defpoints
 62
     0
100
AcDbPoint
 10
439.2287214289358
 20
87.34029080297881
 30
0.0
  0
POINT
  5
42E8
330
42DE
100
AcDbEntity
  8
Defpoints
 62
     0
100
AcDbPoint
 10
471.2287214289358
 20
87.34029080297881
 30
0.0
  0
POINT
  5
42E9
330
42DE
100
AcDbEntity
  8
Defpoints
 62
     0
100
AcDbPoint
 10
471.2287214289358
 20
69.79012419493799
 30
0.0
  0
ENDBLK
  5
42E0
330
42DE
100
AcDbEntity
  8
0
100
AcDbBlockEnd
  0
ENDSEC
  0
SECTION
  2
ENTITIES
  0
LINE
  5
36CD
330
A
100
AcDbEntity
  8
PRINT BORDER
100
AcDbLine
 10
296.9999999999999
 20
0.0
 30
0.0
 11
296.9999999999999
 21
15.30952622855898
 31
0.0
  0
LINE
  5
36CE
330
A
100
AcDbEntity
  8
テンプレート
100
AcDbLine
 10
437.9999999999999
 20
38.27810890422097
 30
0.0
 11
15.30952622855898
 21
38.27810890422097
 31
0.0
  0
LINE
  5
36CF
330
A
100
AcDbEntity
  8
テンプレート
100
AcDbLine
 10
15.30952622855898
 20
26.22153683920783
 30
0.0
 11
578.6904737714407
 21
26.22153683920783
 31
0.0
  0
TEXT
  5
36D0
330
A
100
AcDbEntity
  8
テンプレート
100
AcDbText
 10
18.06121699514119
 20
32.16825981613692
 30
0.0
 40
3.5
  1
材質
  7
ＭＳ ゴシック
100
AcDbText
  0
TEXT
  5
36D3
330
A
100
AcDbEntity
  8
テンプレート
100
AcDbText
 10
18.06121699514119
 20
56.50959028673083
 30
0.0
 40
3.5
  1
品名
  7
ＭＳ ゴシック
100
AcDbText
  0
TEXT
  5
36D4
330
A
100
AcDbEntity
  8
テンプレート
100
AcDbText
 10
18.06121699514119
 20
44.65099339080098
 30
0.0
 40
3.5
  1
仕上げ
  7
ＭＳ ゴシック
100
AcDbText
  0
TEXT
  5
36D5
330
A
100
AcDbEntity
  8
テンプレート
100
AcDbText
 10
298.8233485179306
 20
56.58523052309897
 30
0.0
 40
3.5
  1
品番
  7
ＭＳ ゴシック
100
AcDbText
  0
TEXT
  5
36D6
330
A
100
AcDbEntity
  8
テンプレート
100
AcDbText
 10
36.7528253083583
 20
53.09440584367189
 30
0.0
 40
5.5
  1
ポスト口 - FORMANI,Basic -
  7
ＭＳ ゴシック
100
AcDbText
  0
LINE
  5
36D8
330
A
100
AcDbEntity
  8
テンプレート
100
AcDbLine
 10
437.9999999999999
 20
50.16496477419605
 30
0.0
 11
15.30952622855898
 21
50.16496477419605
 31
0.0
  0
LINE
  5
36D9
330
A
100
AcDbEntity
  8
テンプレート
100
AcDbLine
 10
578.6904737714411
 20
62.22153683920783
 30
0.0
 11
15.30952622855898
 21
62.22153683920783
 31
0.0
  0
LINE
  5
36DA
330
A
100
AcDbEntity
  8
PRINT BORDER
100
AcDbLine
 10
593.9999999999999
 20
210.0
 30
0.0
 11
578.6904737714411
 21
210.0
 31
0.0
  0
LINE
  5
36DB
330
A
100
AcDbEntity
  8
PRINT BORDER
100
AcDbLine
 10
0.0
 20
210.0
 30
0.0
 11
15.30952622855898
 21
210.0
 31
0.0
  0
LINE
  5
36DC
330
A
100
AcDbEntity
  8
PRINT BORDER
100
AcDbLine
 10
296.9999999999999
 20
420.0
 30
0.0
 11
296.9999999999999
 21
404.690473771441
 31
0.0
  0
LINE
  5
36DD
330
A
100
AcDbEntity
  8
テンプレート
100
AcDbLine
 10
578.6904737714411
 20
62.22153683920783
 30
0.0
 11
578.6904737714411
 21
26.22153683920783
 31
0.0
  0
LINE
  5
36DE
330
A
100
AcDbEntity
  8
テンプレート
100
AcDbLine
 10
15.30952622855898
 20
62.22153683920783
 30
0.0
 11
15.30952622855898
 21
26.22153683920783
 31
0.0
  0
TEXT
  5
36DF
330
A
100
AcDbEntity
  8
テンプレート
100
AcDbText
 10
440.0887524673468
 20
56.58523052309897
 30
0.0
 40
3.5
  1
備考
  7
ＭＳ ゴシック
100
AcDbText
  0
TEXT
  5
36E0
330
A
100
AcDbEntity
  8
テンプレート
100
AcDbText
 10
494.9733384955217
 20
16.51938390313694
 30
0.0
 40
5.5
  1
大洋金物株式会社  
  7
ＭＳ ゴシック
100
AcDbText
  0
LINE
  5
36E1
330
A
100
AcDbEntity
  8
テンプレート
100
AcDbLine
 10
437.9999999999999
 20
62.22153683920783
 30
0.0
 11
437.9999999999999
 21
26.22153683920783
 31
0.0
  0
LINE
  5
36E2
330
A
100
AcDbEntity
  8
テンプレート
100
AcDbLine
 10
296.9999999999999
 20
62.22153683920783
 30
0.0
 11
296.9999999999999
 21
26.22153683920783
 31
0.0
  0
INSERT
  5
36E3
330
A
100
AcDbEntity
  8
テンプレート
100
AcDbBlockReference
  2
名称未設定-1
 10
548.3945198859805
 20
-7.642344203993161
 30
0.0
 41
0.180975
 42
0.180975
 43
0.180975
  0
TEXT
  5
36E4
330
A
100
AcDbEntity
  8
テンプレート
100
AcDbText
 10
18.42255191974346
 20
18.90483678917599
 30
0.0
 40
4.0
  1
20150101XX
  7
ＭＳ ゴシック
100
AcDbText
  0
LINE
  5
36E5
330
A
100
AcDbEntity
  8
テンプレート
100
AcDbLine
 10
15.30952622855898
 20
210.0
 30
0.0
 11
15.30952622855898
 21
26.22153683920783
 31
0.0
  0
LINE
  5
36E6
330
A
100
AcDbEntity
  8
テンプレート
100
AcDbLine
 10
15.30952622855898
 20
210.0
 30
0.0
 11
15.30952622855898
 21
404.690473771441
 31
0.0
  0
LINE
  5
36E7
330
A
100
AcDbEntity
  8
テンプレート
100
AcDbLine
 10
296.9999999999999
 20
404.690473771441
 30
0.0
 11
15.30952622855887
 21
404.690473771441
 31
0.0
  0
LINE
  5
36E8
330
A
100
AcDbEntity
  8
テンプレート
100
AcDbLine
 10
296.9999999999999
 20
404.690473771441
 30
0.0
 11
578.6904737714411
 21
404.690473771441
 31
0.0
  0
LINE
  5
36E9
330
A
100
AcDbEntity
  8
テンプレート
100
AcDbLine
 10
578.6904737714411
 20
210.0
 30
0.0
 11
578.6904737714411
 21
404.690473771441
 31
0.0
  0
LINE
  5
36EA
330
A
100
AcDbEntity
  8
テンプレート
100
AcDbLine
 10
578.6904737714411
 20
210.0
 30
0.0
 11
578.6904737714411
 21
26.22153683920783
 31
0.0
  0
LWPOLYLINE
  5
36EB
330
A
100
AcDbEntity
  8
PRINT BORDER
  6
HIDDEN
 48
3.0
100
AcDbPolyline
 90
        4
 70
     1
 43
0.0
 10
0.0
 20
0.0
 10
0.0
 20
420.0
 10
593.9999999999999
 20
420.0
 10
593.9999999999999
 20
0.0
  0
TEXT
  5
36EC
330
A
100
AcDbEntity
  8
テンプレート
100
AcDbText
 10
298.7989156222221
 20
32.62405342819488
 30
0.0
 40
3.5
  1
縮尺
  7
ＭＳ ゴシック
100
AcDbText
  0
TEXT
  5
36ED
330
A
100
AcDbEntity
  8
テンプレート
100
AcDbText
 10
313.0171205424464
 20
28.29362070227194
 30
0.0
 40
5.5
  1
1/2
  7
ＭＳ ゴシック
100
AcDbText
  0
TEXT
  5
37DE
330
A
100
AcDbEntity
  8
テンプレート
100
AcDbText
 10
298.8233485179306
 20
44.52865845808583
 30
0.0
 40
3.5
  1
扉厚
  7
ＭＳ ゴシック
100
AcDbText
  0
POLYLINE
  5
3F83
330
A
100
AcDbEntity
  8
モデル
100
AcDb2dPolyline
 66
     1
 10
0.0
 20
0.0
 30
0.0
  0
VERTEX
  5
3F84
330
3F83
100
AcDbEntity
  8
モデル
100
AcDbVertex
100
AcDb2dVertex
 10
551.2766882628952
 20
257.5408053934784
 30
0.0
  0
VERTEX
  5
3F85
330
3F83
100
AcDbEntity
  8
モデル
100
AcDbVertex
100
AcDb2dVertex
 10
541.1170949746662
 20
257.5408053934784
 30
0.0
  0
SEQEND
  5
3F86
330
3F83
100
AcDbEntity
  8
モデル
  0
POLYLINE
  5
3F87
330
A
100
AcDbEntity
  8
モデル
100
AcDb2dPolyline
 66
     1
 10
0.0
 20
0.0
 30
0.0
  0
VERTEX
  5
3F88
330
3F87
100
AcDbEntity
  8
モデル
100
AcDbVertex
100
AcDb2dVertex
 10
551.2766882628952
 20
251.6152372497843
 30
0.0
  0
VERTEX
  5
3F89
330
3F87
100
AcDbEntity
  8
モデル
100
AcDbVertex
100
AcDb2dVertex
 10
541.1170949746662
 20
251.6152372497843
 30
0.0
  0
VERTEX
  5
3F8A
330
3F87
100
AcDbEntity
  8
モデル
100
AcDbVertex
100
AcDb2dVertex
 10
541.1170949746662
 20
257.5408053934784
 30
0.0
  0
SEQEND
  5
3F8B
330
3F87
100
AcDbEntity
  8
モデル
  0
POLYLINE
  5
3F8C
330
A
100
AcDbEntity
  8
モデル
100
AcDb2dPolyline
 66
     1
 10
0.0
 20
0.0
 30
0.0
  0
VERTEX
  5
3F8D
330
3F8C
100
AcDbEntity
  8
モデル
100
AcDbVertex
100
AcDb2dVertex
 10
550.0054471902073
 20
319.3431065547391
 30
0.0
  0
VERTEX
  5
3F8E
330
3F8C
100
AcDbEntity
  8
モデル
100
AcDbVertex
100
AcDb2dVertex
 10
550.0054471902073
 20
297.3289318813638
 30
0.0
  0
SEQEND
  5
3F8F
330
3F8C
100
AcDbEntity
  8
モデル
  0
POLYLINE
  5
3F90
330
A
100
AcDbEntity
  8
モデル
100
AcDb2dPolyline
 66
     1
 10
0.0
 20
0.0
 30
0.0
  0
VERTEX
  5
4115
330
3F90
100
AcDbEntity
  8
モデル
100
AcDbVertex
100
AcDb2dVertex
 10
550.0054471902073
 20
324.4246257477324
 30
0.0
  0
VERTEX
  5
4116
330
3F90
100
AcDbEntity
  8
モデル
100
AcDbVertex
100
AcDb2dVertex
 10
550.0054471902073
 20
331.6186823475423
 30
0.0
  0
SEQEND
  5
4118
330
3F90
100
AcDbEntity
  8
モデル
  0
POLYLINE
  5
3F94
330
A
100
AcDbEntity
  8
モデル
100
AcDb2dPolyline
 66
     1
 10
0.0
 20
0.0
 30
0.0
  0
VERTEX
  5
3F95
330
3F94
100
AcDbEntity
  8
モデル
100
AcDbVertex
100
AcDb2dVertex
 10
551.2766882628952
 20
301.9867040501281
 30
0.0
  0
VERTEX
  5
3F96
330
3F94
100
AcDbEntity
  8
モデル
100
AcDbVertex
100
AcDb2dVertex
 10
550.0054471902073
 20
301.9867040501281
 30
0.0
  0
VERTEX
  5
3F97
330
3F94
100
AcDbEntity
  8
モデル
100
AcDbVertex
100
AcDb2dVertex
 10
550.0054471902073
 20
319.7668535789682
 30
0.0
  0
VERTEX
  5
3F98
330
3F94
100
AcDbEntity
  8
モデル
100
AcDbVertex
100
AcDb2dVertex
 10
549.5817001659781
 20
320.6143476274268
 30
0.0
  0
SEQEND
  5
3F99
330
3F94
100
AcDbEntity
  8
モデル
  0
POLYLINE
  5
3F9A
330
A
100
AcDbEntity
  8
モデル
100
AcDb2dPolyline
 66
     1
 10
0.0
 20
0.0
 30
0.0
  0
VERTEX
  5
3F9B
330
3F9A
100
AcDbEntity
  8
モデル
100
AcDbVertex
100
AcDb2dVertex
 10
550.0054471902073
 20
321.8821436023568
 30
0.0
  0
VERTEX
  5
3F9C
330
3F9A
100
AcDbEntity
  8
モデル
100
AcDbVertex
100
AcDb2dVertex
 10
550.0054471902073
 20
319.7668535789682
 30
0.0
  0
SEQEND
  5
3F9D
330
3F9A
100
AcDbEntity
  8
モデル
  0
POLYLINE
  5
3F9E
330
A
100
AcDbEntity
  8
モデル
100
AcDb2dPolyline
 66
     1
 10
0.0
 20
0.0
 30
0.0
  0
VERTEX
  5
3F9F
330
3F9E
100
AcDbEntity
  8
モデル
100
AcDbVertex
100
AcDb2dVertex
 10
550.0054471902073
 20
297.3289318813638
 30
0.0
  0
VERTEX
  5
3FA0
330
3F9E
100
AcDbEntity
  8
モデル
100
AcDbVertex
100
AcDb2dVertex
 10
550.0054471902073
 20
267.6976460651352
 30
0.0
  0
VERTEX
  5
3FA1
330
3F9E
100
AcDbEntity
  8
モデル
100
AcDbVertex
100
AcDb2dVertex
 10
551.2766882628952
 20
267.6976460651352
 30
0.0
  0
SEQEND
  5
3FA2
330
3F9E
100
AcDbEntity
  8
モデル
  0
POLYLINE
  5
3FA3
330
A
100
AcDbEntity
  8
モデル
100
AcDb2dPolyline
 66
     1
 10
0.0
 20
0.0
 30
0.0
  0
VERTEX
  5
3FA4
330
3FA3
100
AcDbEntity
  8
モデル
100
AcDbVertex
100
AcDb2dVertex
 10
550.0054471902073
 20
301.9867040501281
 30
0.0
  0
VERTEX
  5
3FA5
330
3FA3
100
AcDbEntity
  8
モデル
100
AcDbVertex
100
AcDb2dVertex
 10
550.0054471902073
 20
297.3289318813638
 30
0.0
  0
SEQEND
  5
3FA6
330
3FA3
100
AcDbEntity
  8
モデル
  0
SPLINE
  5
3FA7
330
A
100
AcDbEntity
  8
モデル
100
AcDbSpline
210
0.0
220
0.0
230
1.0
 70
     8
 71
     3
 72
    17
 73
    13
 74
     0
 42
0.000000001
 43
0.0000000001
 40
0.0
 40
0.0
 40
0.0
 40
0.0
 40
1.0
 40
1.0
 40
1.0
 40
2.0
 40
2.0
 40
2.0
 40
3.0
 40
3.0
 40
3.0
 40
4.0
 40
4.0
 40
4.0
 40
4.0
 10
551.7004352871242
 20
322.0957396633505
 30
0.0
 10
551.7004352871242
 20
323.5943571880639
 30
0.0
 10
550.6531255687042
 20
324.8862688472994
 30
0.0
 10
549.1889590215702
 20
325.1997727432739
 30
0.0
 10
547.7213473766782
 20
325.5132766392483
 30
0.0
 10
546.2365102429973
 20
324.7588002302548
 30
0.0
 10
545.6267279398381
 20
323.391096420344
 30
0.0
 10
545.0135005389203
 20
322.0233926104331
 30
0.0
 10
545.4406926609082
 20
320.4145319574652
 30
0.0
 10
546.6533670717102
 20
319.5325869314267
 30
0.0
 10
547.8625963847552
 20
318.6471968076306
 30
0.0
 10
549.5231335040922
 20
318.7298791538217
 30
0.0
 10
550.6427902754302
 20
319.7289575036308
 30
0.0
  0
POLYLINE
  5
3FA8
330
A
100
AcDbEntity
  8
モデル
100
AcDb2dPolyline
 66
     1
 10
0.0
 20
0.0
 30
0.0
  0
VERTEX
  5
3FA9
330
3FA8
100
AcDbEntity
  8
モデル
100
AcDbVertex
100
AcDb2dVertex
 10
550.0054471902073
 20
301.9867040501281
 30
0.0
  0
VERTEX
  5
3FAA
330
3FA8
100
AcDbEntity
  8
モデル
100
AcDbVertex
100
AcDb2dVertex
 10
551.2766882628952
 20
301.9867040501281
 30
0.0
  0
SEQEND
  5
3FAB
330
3FA8
100
AcDbEntity
  8
モデル
  0
SPLINE
  5
3FAC
330
A
100
AcDbEntity
  8
モデル
100
AcDbSpline
210
0.0
220
0.0
230
1.0
 70
    11
 71
     3
 72
    17
 73
    13
 74
     0
 42
0.000000001
 43
0.0000000001
 40
0.0
 40
0.0
 40
0.0
 40
0.0
 40
1.0
 40
1.0
 40
1.0
 40
2.0
 40
2.0
 40
2.0
 40
3.0
 40
3.0
 40
3.0
 40
4.0
 40
4.0
 40
4.0
 40
4.0
 10
548.5240551542832
 20
324.0008787235031
 30
0.0
 10
547.4733003381053
 20
324.0008787235031
 30
0.0
 10
546.6189160941311
 20
323.1464944795285
 30
0.0
 10
546.6189160941311
 20
322.0957396633505
 30
0.0
 10
546.6189160941311
 20
321.0415397494141
 30
0.0
 10
547.4733003381053
 20
320.1906006031976
 30
0.0
 10
548.5240551542832
 20
320.1906006031976
 30
0.0
 10
549.5782550682203
 20
320.1906006031976
 30
0.0
 10
550.4291942144363
 20
321.0415397494141
 30
0.0
 10
550.4291942144363
 20
322.0957396633505
 30
0.0
 10
550.4291942144363
 20
323.1464944795285
 30
0.0
 10
549.5782550682203
 20
324.0008787235031
 30
0.0
 10
548.5240551542832
 20
324.0008787235031
 30
0.0
  0
POLYLINE
  5
3FAD
330
A
100
AcDbEntity
  8
モデル
100
AcDb2dPolyline
 66
     1
 10
0.0
 20
0.0
 30
0.0
  0
VERTEX
  5
4113
330
3FAD
100
AcDbEntity
  8
モデル
100
AcDbVertex
100
AcDb2dVertex
 10
550.0054471902073
 20
324.0008787235031
 30
0.0
  0
VERTEX
  5
4114
330
3FAD
100
AcDbEntity
  8
モデル
100
AcDbVertex
100
AcDb2dVertex
 10
550.0054471902073
 20
331.6186823475423
 30
0.0
  0
SEQEND
  5
4117
330
3FAD
100
AcDbEntity
  8
モデル
  0
POLYLINE
  5
3FB2
330
A
100
AcDbEntity
  8
モデル
100
AcDb2dPolyline
 66
     1
 10
0.0
 20
0.0
 30
0.0
  0
VERTEX
  5
3FB3
330
3FB2
100
AcDbEntity
  8
モデル
100
AcDbVertex
100
AcDb2dVertex
 10
551.2766882628952
 20
244.4122303190722
 30
0.0
  0
VERTEX
  5
3FB4
330
3FB2
100
AcDbEntity
  8
モデル
100
AcDbVertex
100
AcDb2dVertex
 10
551.2766882628952
 20
344.3200652999612
 30
0.0
  0
VERTEX
  5
3FB5
330
3FB2
100
AcDbEntity
  8
モデル
100
AcDbVertex
100
AcDb2dVertex
 10
552.9682312620542
 20
344.3200652999612
 30
0.0
  0
VERTEX
  5
3FB6
330
3FB2
100
AcDbEntity
  8
モデル
100
AcDbVertex
100
AcDb2dVertex
 10
552.9682312620542
 20
244.4122303190722
 30
0.0
  0
VERTEX
  5
3FB7
330
3FB2
100
AcDbEntity
  8
モデル
100
AcDbVertex
100
AcDb2dVertex
 10
551.2766882628952
 20
244.4122303190722
 30
0.0
  0
SEQEND
  5
3FB8
330
3FB2
100
AcDbEntity
  8
モデル
  0
SPLINE
  5
3FB9
330
A
100
AcDbEntity
  8
モデル
100
AcDbSpline
210
0.0
220
0.0
230
1.0
 70
     8
 71
     3
 72
    11
 73
     7
 74
     0
 42
0.000000001
 43
0.0000000001
 40
0.0
 40
0.0
 40
0.0
 40
0.0
 40
1.0
 40
1.0
 40
1.0
 40
2.0
 40
2.0
 40
2.0
 40
2.0
 10
121.3927898826159
 20
344.7438123241905
 30
0.0
 10
93.68903626196706
 20
344.7438123241905
 30
0.0
 10
71.22872142893587
 20
322.2852200400384
 30
0.0
 10
71.22872142893587
 20
294.5797438705102
 30
0.0
 10
71.22872142893587
 20
266.8742677009824
 30
0.0
 10
93.68903626196706
 20
244.4122303190722
 30
0.0
 10
121.3927898826159
 20
244.4122303190722
 30
0.0
  0
SPLINE
  5
3FBA
330
A
100
AcDbEntity
  8
モデル
100
AcDbSpline
210
0.0
220
0.0
230
1.0
 70
     8
 71
     3
 72
    11
 73
     7
 74
     0
 42
0.000000001
 43
0.0000000001
 40
0.0
 40
0.0
 40
0.0
 40
0.0
 40
1.0
 40
1.0
 40
1.0
 40
2.0
 40
2.0
 40
2.0
 40
2.0
 10
421.5365967517542
 20
244.4122303190722
 30
0.0
 10
449.2420729212821
 20
244.4122303190722
 30
0.0
 10
471.702387754313
 20
266.8742677009824
 30
0.0
 10
471.702387754313
 20
294.5797438705102
 30
0.0
 10
471.702387754313
 20
322.2852200400384
 30
0.0
 10
449.2420729212821
 20
344.7438123241905
 30
0.0
 10
421.5365967517542
 20
344.7438123241905
 30
0.0
  0
POLYLINE
  5
3FBB
330
A
100
AcDbEntity
  8
モデル
100
AcDb2dPolyline
 66
     1
 10
0.0
 20
0.0
 30
0.0
  0
VERTEX
  5
3FBC
330
3FBB
100
AcDbEntity
  8
モデル
100
AcDbVertex
100
AcDb2dVertex
 10
421.3247232396396
 20
244.4122303190722
 30
0.0
  0
VERTEX
  5
3FBD
330
3FBB
100
AcDbEntity
  8
モデル
100
AcDbVertex
100
AcDb2dVertex
 10
121.1826389193803
 20
244.4122303190722
 30
0.0
  0
SEQEND
  5
3FBE
330
3FBB
100
AcDbEntity
  8
モデル
  0
POLYLINE
  5
3FBF
330
A
100
AcDbEntity
  8
モデル
100
AcDb2dPolyline
 66
     1
 10
0.0
 20
0.0
 30
0.0
  0
VERTEX
  5
3FC0
330
3FBF
100
AcDbEntity
  8
モデル
100
AcDbVertex
100
AcDb2dVertex
 10
132.3998772193037
 20
319.7668535789682
 30
0.0
  0
VERTEX
  5
3FC1
330
3FBF
100
AcDbEntity
  8
モデル
100
AcDbVertex
100
AcDb2dVertex
 10
410.5312319639456
 20
319.7668535789682
 30
0.0
  0
SEQEND
  5
3FC2
330
3FBF
100
AcDbEntity
  8
モデル
  0
POLYLINE
  5
3FC3
330
A
100
AcDbEntity
  8
モデル
100
AcDb2dPolyline
 66
     1
 10
0.0
 20
0.0
 30
0.0
  0
VERTEX
  5
3FC4
330
3FC3
100
AcDbEntity
  8
モデル
100
AcDbVertex
100
AcDb2dVertex
 10
410.3193584518311
 20
269.3891890642944
 30
0.0
  0
VERTEX
  5
3FC5
330
3FC3
100
AcDbEntity
  8
モデル
100
AcDbVertex
100
AcDb2dVertex
 10
132.1880037071889
 20
269.3891890642944
 30
0.0
  0
SEQEND
  5
3FC6
330
3FC3
100
AcDbEntity
  8
モデル
  0
POLYLINE
  5
3FC7
330
A
100
AcDbEntity
  8
モデル
100
AcDb2dPolyline
 66
     1
 10
0.0
 20
0.0
 30
0.0
  0
VERTEX
  5
3FC8
330
3FC7
100
AcDbEntity
  8
モデル
100
AcDbVertex
100
AcDb2dVertex
 10
121.3927898826159
 20
344.7438123241905
 30
0.0
  0
VERTEX
  5
3FC9
330
3FC7
100
AcDbEntity
  8
モデル
100
AcDbVertex
100
AcDb2dVertex
 10
422.3220790405696
 20
344.7369221286746
 30
0.0
  0
SEQEND
  5
3FCA
330
3FC7
100
AcDbEntity
  8
モデル
  0
SPLINE
  5
3FCB
330
A
100
AcDbEntity
  8
モデル
100
AcDbSpline
210
0.0
220
0.0
230
1.0
 70
     8
 71
     3
 72
    11
 73
     7
 74
     0
 42
0.000000001
 43
0.0000000001
 40
0.0
 40
0.0
 40
0.0
 40
0.0
 40
1.0
 40
1.0
 40
1.0
 40
2.0
 40
2.0
 40
2.0
 40
2.0
 10
410.5312319639456
 20
269.3891890642944
 30
0.0
 10
424.4408141617159
 20
269.3891890642944
 30
0.0
 10
435.7183416724036
 20
280.668439123861
 30
0.0
 10
435.7183416724036
 20
294.5797438705102
 30
0.0
 10
435.7183416724036
 20
308.4910486171597
 30
0.0
 10
424.4408141617159
 20
319.7668535789682
 30
0.0
 10
410.5312319639456
 20
319.7668535789682
 30
0.0
  0
SPLINE
  5
3FCC
330
A
100
AcDbEntity
  8
モデル
100
AcDbSpline
210
0.0
220
0.0
230
1.0
 70
     8
 71
     3
 72
    11
 73
     7
 74
     0
 42
0.000000001
 43
0.0000000001
 40
0.0
 40
0.0
 40
0.0
 40
0.0
 40
1.0
 40
1.0
 40
1.0
 40
2.0
 40
2.0
 40
2.0
 40
2.0
 10
132.3998772193037
 20
319.7668535789682
 30
0.0
 10
118.4885724726542
 20
319.7668535789682
 30
0.0
 10
107.2110449619666
 20
308.4910486171597
 30
0.0
 10
107.2110449619666
 20
294.5797438705102
 30
0.0
 10
107.2110449619666
 20
280.668439123861
 30
0.0
 10
118.4885724726542
 20
269.3891890642944
 30
0.0
 10
132.3998772193037
 20
269.3891890642944
 30
0.0
  0
DIMENSION
  5
3FD0
330
A
100
AcDbEntity
  8
寸法
100
AcDbDimension
  2
*D72
 10
71.70238775431301
 20
354.9599087413102
 30
0.0
 11
271.702387754313
 21
354.9599087413102
 31
0.0
 70
   160
 71
     5
 42
400.0
 73
     0
 74
     0
 75
     0
  3
tfrom線あり
100
AcDbAlignedDimension
 13
471.702387754313
 23
323.9644632719223
 33
0.0
 14
71.70238775431301
 24
323.9644632719223
 34
0.0
100
AcDbRotatedDimension
  0
DIMENSION
  5
3FD1
330
A
100
AcDbEntity
  8
寸法
100
AcDbDimension
  2
*D73
 10
435.2110449619665
 20
221.1524425404368
 30
0.0
 11
271.2110449619664
 21
221.1524425404368
 31
0.0
 70
   160
 71
     5
 42
328.0
 73
     0
 74
     0
 75
     0
  3
tfrom線あり
100
AcDbAlignedDimension
 13
107.2110449619666
 23
245.3143782591505
 33
0.0
 14
435.2110449619666
 24
245.8870696429624
 34
0.0
100
AcDbRotatedDimension
  0
DIMENSION
  5
3FD2
330
A
100
AcDbEntity
  8
寸法
100
AcDbDimension
  2
*D74
 10
418.2713021448975
 20
231.123988196332
 30
0.0
 11
271.2713021448975
 21
231.123988196332
 31
0.0
 70
   160
 71
     5
 42
294.0
 73
     0
 74
     0
 75
     0
  3
tfrom線あり
100
AcDbAlignedDimension
 13
124.2713021448975
 23
242.2128363261174
 33
0.0
 14
418.2713021448975
 24
242.2128363261174
 34
0.0
100
AcDbRotatedDimension
1001
ACAD
1000
DSTYLE
1002
{
1070
   147
1040
3.0
1002
}
  0
DIMENSION
  5
3FD6
102
{ACAD_XDICTIONARY
360
3FD7
102
}
330
A
100
AcDbEntity
  8
寸法
100
AcDbDimension
  2
*D76
 10
51.73095635705684
 20
378.2748340611355
 30
0.0
 11
46.23095635705684
 21
379.120605560715
 31
0.0
 70
    32
 71
     5
 42
1.691542999159083
 73
     0
 74
     1
 75
     1
  3
tfrom線あり
100
AcDbAlignedDimension
 13
71.62639590928521
 23
379.9663770602946
 33
0.0
 14
71.62639590928521
 24
378.2748340611355
 34
0.0
 50
90.0
100
AcDbRotatedDimension
  0
CIRCLE
  5
3FD9
330
A
100
AcDbEntity
  8
モデル
  6
HIDDEN
100
AcDbCircle
 10
418.2713021448975
 20
254.5780213216313
 30
0.0
 40
2.999748751501102
  0
DIMENSION
  5
40A9
330
A
100
AcDbEntity
  8
寸法
100
AcDbDimension
  2
*D80
 10
56.97478364807675
 20
269.3891890642944
 30
0.0
 11
56.97478364807674
 21
294.5780213216313
 31
0.0
 70
   160
 71
     5
 42
50.37766451467371
 73
     0
 74
     0
 75
     0
 52
-90.0
  3
tfrom線あり
100
AcDbAlignedDimension
 13
75.56066579840117
 23
319.7668535789682
 33
0.0
 14
75.77253931051567
 24
269.3891890642944
 34
0.0
 50
90.00000000000001
100
AcDbRotatedDimension
  0
DIMENSION
  5
40AA
330
A
100
AcDbEntity
  8
寸法
100
AcDbDimension
  2
*D81
 10
40.42475435459971
 20
334.5780213216313
 30
0.0
 11
34.92475435459973
 21
294.5780213216313
 31
0.0
 70
    32
 71
     5
 42
80.0
 73
     0
 74
     0
 75
     0
 52
-90.0
  3
tfrom線あり
100
AcDbAlignedDimension
 13
73.26569022537029
 23
254.5780213216313
 33
0.0
 14
73.26569022537029
 24
334.5780213216313
 34
0.0
 50
90.00000000000001
100
AcDbRotatedDimension
  0
DIMENSION
  5
40AB
330
A
100
AcDbEntity
  8
寸法
100
AcDbDimension
  2
*D82
 10
40.42475435459971
 20
344.5780213216313
 30
0.0
 11
40.42475435459971
 21
339.5780213216313
 31
0.0
 70
   160
 71
     5
 42
9.999999999999986
 73
     0
 74
     0
 75
     0
 52
-90.0
  3
tfrom線あり
100
AcDbAlignedDimension
 13
73.26569022537029
 23
334.5780213216313
 33
0.0
 14
110.5002809640067
 24
344.5780213216313
 34
0.0
 50
90.00000000000001
100
AcDbRotatedDimension
  0
DIMENSION
  5
40AC
330
A
100
AcDbEntity
  8
寸法
100
AcDbDimension
  2
*D83
 10
40.42475435459971
 20
244.5780213216313
 30
0.0
 11
40.42475435459971
 21
249.5780213216313
 31
0.0
 70
   160
 71
     5
 42
9.999999999999988
 73
     0
 74
     0
 75
     0
  3
tfrom線あり
100
AcDbAlignedDimension
 13
73.26569022537029
 23
254.5780213216313
 33
0.0
 14
106.5068868245001
 24
244.5780213216313
 34
0.0
 50
-90.00000000000001
100
AcDbRotatedDimension
  0
DIMENSION
  5
40DD
330
A
100
AcDbEntity
  8
寸法
100
AcDbDimension
  2
*D84
 10
492.6513353859583
 20
344.7369221286746
 30
0.0
 11
492.6513353859583
 21
294.5745762238734
 31
0.0
 70
   160
 71
     5
 42
100.3246918096024
 73
     0
 74
     0
 75
     0
  3
tfrom線あり
100
AcDbAlignedDimension
 13
438.4893805780212
 23
244.4122303190722
 33
0.0
 14
439.2748628668367
 24
344.7369221286746
 34
0.0
 50
90.0
100
AcDbRotatedDimension
  0
POLYLINE
  5
410A
330
A
100
AcDbEntity
  8
モデル
100
AcDb2dPolyline
 66
     1
 10
0.0
 20
0.0
 30
0.0
  0
VERTEX
  5
410B
330
410A
100
AcDbEntity
  8
モデル
100
AcDbVertex
100
AcDb2dVertex
 10
551.2766882628952
 20
331.6186823475423
 30
0.0
  0
VERTEX
  5
410C
330
410A
100
AcDbEntity
  8
モデル
100
AcDbVertex
100
AcDb2dVertex
 10
541.1170949746662
 20
331.6186823475423
 30
0.0
  0
SEQEND
  5
410D
330
410A
100
AcDbEntity
  8
モデル
  0
POLYLINE
  5
410E
330
A
100
AcDbEntity
  8
モデル
100
AcDb2dPolyline
 66
     1
 10
0.0
 20
0.0
 30
0.0
  0
VERTEX
  5
410F
330
410E
100
AcDbEntity
  8
モデル
100
AcDbVertex
100
AcDb2dVertex
 10
551.2766882628952
 20
337.5442504912364
 30
0.0
  0
VERTEX
  5
4110
330
410E
100
AcDbEntity
  8
モデル
100
AcDbVertex
100
AcDb2dVertex
 10
541.1170949746662
 20
337.5442504912364
 30
0.0
  0
VERTEX
  5
4111
330
410E
100
AcDbEntity
  8
モデル
100
AcDbVertex
100
AcDb2dVertex
 10
541.1170949746662
 20
331.6186823475423
 30
0.0
  0
SEQEND
  5
4112
330
410E
100
AcDbEntity
  8
モデル
  0
CIRCLE
  5
4119
330
A
100
AcDbEntity
  8
モデル
  6
HIDDEN
100
AcDbCircle
 10
124.2360600141225
 20
254.5780213216313
 30
0.0
 40
2.999748751501102
  0
CIRCLE
  5
411A
330
A
100
AcDbEntity
  8
モデル
  6
HIDDEN
100
AcDbCircle
 10
418.2713021448975
 20
334.5814664193892
 30
0.0
 40
2.999748751501102
  0
CIRCLE
  5
411B
330
A
100
AcDbEntity
  8
モデル
  6
HIDDEN
100
AcDbCircle
 10
124.2360600141225
 20
334.5814664193892
 30
0.0
 40
2.999748751501102
  0
SPLINE
  5
4188
330
A
100
AcDbEntity
  8
モデル
  6
HIDDEN
100
AcDbSpline
210
0.0
220
0.0
230
1.0
 70
     8
 71
     3
 72
    11
 73
     7
 74
     0
 42
0.000000001
 43
0.0000000001
 40
0.0
 40
0.0
 40
0.0
 40
0.0
 40
1.0
 40
1.0
 40
1.0
 40
2.0
 40
2.0
 40
2.0
 40
2.0
 10
121.3927898826159
 20
207.3060511427505
 30
0.0
 10
93.68903626196706
 20
207.3060511427505
 30
0.0
 10
71.22872142893587
 20
184.8474588585984
 30
0.0
 10
71.22872142893587
 20
157.1419826890703
 30
0.0
 10
71.22872142893587
 20
129.4365065195425
 30
0.0
 10
93.68903626196706
 20
106.9744691376322
 30
0.0
 10
121.3927898826159
 20
106.9744691376322
 30
0.0
  0
SPLINE
  5
4189
330
A
100
AcDbEntity
  8
モデル
  6
HIDDEN
100
AcDbSpline
210
0.0
220
0.0
230
1.0
 70
     8
 71
     3
 72
    11
 73
     7
 74
     0
 42
0.000000001
 43
0.0000000001
 40
0.0
 40
0.0
 40
0.0
 40
0.0
 40
1.0
 40
1.0
 40
1.0
 40
2.0
 40
2.0
 40
2.0
 40
2.0
 10
421.5365967517542
 20
106.9744691376322
 30
0.0
 10
449.2420729212821
 20
106.9744691376322
 30
0.0
 10
471.702387754313
 20
129.4365065195425
 30
0.0
 10
471.702387754313
 20
157.1419826890703
 30
0.0
 10
471.702387754313
 20
184.8474588585984
 30
0.0
 10
449.2420729212821
 20
207.3060511427505
 30
0.0
 10
421.5365967517542
 20
207.3060511427505
 30
0.0
  0
POLYLINE
  5
418A
330
A
100
AcDbEntity
  8
モデル
  6
HIDDEN
100
AcDb2dPolyline
 66
     1
 10
0.0
 20
0.0
 30
0.0
  0
VERTEX
  5
418B
330
418A
100
AcDbEntity
  8
モデル
  6
HIDDEN
100
AcDbVertex
100
AcDb2dVertex
 10
421.3247232396396
 20
106.9744691376322
 30
0.0
  0
VERTEX
  5
418C
330
418A
100
AcDbEntity
  8
モデル
  6
HIDDEN
100
AcDbVertex
100
AcDb2dVertex
 10
121.1826389193803
 20
106.9744691376322
 30
0.0
  0
SEQEND
  5
418D
330
418A
100
AcDbEntity
  8
モデル
  6
HIDDEN
  0
POLYLINE
  5
4196
330
A
100
AcDbEntity
  8
モデル
  6
HIDDEN
100
AcDb2dPolyline
 66
     1
 10
0.0
 20
0.0
 30
0.0
  0
VERTEX
  5
4197
330
4196
100
AcDbEntity
  8
モデル
  6
HIDDEN
100
AcDbVertex
100
AcDb2dVertex
 10
121.3927898826159
 20
207.3060511427505
 30
0.0
  0
VERTEX
  5
4198
330
4196
100
AcDbEntity
  8
モデル
  6
HIDDEN
100
AcDbVertex
100
AcDb2dVertex
 10
422.3220790405696
 20
207.2991609472346
 30
0.0
  0
SEQEND
  5
4199
330
4196
100
AcDbEntity
  8
モデル
  6
HIDDEN
  0
CIRCLE
  5
419C
102
{ACAD_REACTORS
330
4325
102
}
330
A
100
AcDbEntity
  8
モデル
100
AcDbCircle
 10
418.2713021448975
 20
117.1402601401913
 30
0.0
 40
5.0
  0
CIRCLE
  5
419D
102
{ACAD_REACTORS
330
4325
102
}
330
A
100
AcDbEntity
  8
モデル
100
AcDbCircle
 10
124.2360600141225
 20
117.1402601401913
 30
0.0
 40
5.0
  0
CIRCLE
  5
419E
102
{ACAD_REACTORS
330
4325
102
}
330
A
100
AcDbEntity
  8
モデル
100
AcDbCircle
 10
418.2713021448975
 20
197.1437052379493
 30
0.0
 40
5.0
  0
CIRCLE
  5
419F
102
{ACAD_REACTORS
330
4325
102
}
330
A
100
AcDbEntity
  8
モデル
100
AcDbCircle
 10
124.2360600141225
 20
197.1437052379493
 30
0.0
 40
5.0
  0
TEXT
  5
41EA
330
A
100
AcDbEntity
  8
テンプレート
100
AcDbText
 10
40.92453740345488
 20
208.3196004685348
 30
0.0
 40
5.5
  1
<切欠図>
  7
ＭＳ ゴシック
100
AcDbText
  0
DIMENSION
  5
41FB
330
A
100
AcDbEntity
  8
寸法
100
AcDbDimension
  2
*D86
 10
496.970754472511
 20
197.1437052379493
 30
0.0
 11
496.970754472511
 21
202.2214330925919
 31
0.0
 70
   160
 71
     5
 42
10.15545570928532
 73
     0
 74
     0
 75
     0
  3
tfrom線あり
100
AcDbAlignedDimension
 13
437.0543358098067
 23
207.2991609472346
 33
0.0
 14
459.3112753640415
 24
197.1437052379493
 34
0.0
 50
90.0
100
AcDbRotatedDimension
  0
DIMENSION
  5
420B
330
A
100
AcDbEntity
  8
寸法
100
AcDbDimension
  2
*D87
 10
496.970754472511
 20
117.1402601401913
 30
0.0
 11
491.470754472511
 21
157.1419826890703
 31
0.0
 70
    32
 71
     5
 42
80.00344509775799
 73
     0
 74
     0
 75
     0
  3
tfrom線あり
100
AcDbAlignedDimension
 13
459.3112753640415
 23
197.1437052379493
 33
0.0
 14
459.3112753640415
 24
117.1402601401913
 34
0.0
 50
90.0
100
AcDbRotatedDimension
  0
DIMENSION
  5
421A
330
A
100
AcDbEntity
  8
寸法
100
AcDbDimension
  2
*D88
 10
496.970754472511
 20
107.0203217026029
 30
0.0
 11
496.970754472511
 21
112.5802909213971
 31
0.0
 70
   160
 71
     5
 42
10.1199384375884
 73
     0
 74
     0
 75
     0
  3
tfrom線あり
100
AcDbAlignedDimension
 13
459.3112753640415
 23
117.1402601401913
 33
0.0
 14
459.3112753640415
 24
107.0203217026029
 34
0.0
 50
90.0
100
AcDbRotatedDimension
  0
DIMENSION
  5
4234
330
A
100
AcDbEntity
  8
寸法
100
AcDbDimension
  2
*D89
 10
514.6315464025391
 20
126.0203217026029
 30
0.0
 11
509.1315464025391
 21
116.5203217026029
 31
0.0
 70
    32
 71
     5
 42
19.0
 73
     0
 74
     0
 75
     0
  3
tfrom線あり
100
AcDbAlignedDimension
 13
446.2206953937591
 23
107.0203217026029
 33
0.0
 14
496.970754472511
 24
126.0203217026029
 34
0.0
 50
90.0
100
AcDbRotatedDimension
  0
DIMENSION
  5
424E
330
A
100
AcDbEntity
  8
寸法
100
AcDbDimension
  2
*D91
 10
514.6315464025391
 20
191.2991609472346
 30
0.0
 11
509.1315464025391
 21
199.2991609472346
 31
0.0
 70
    32
 71
     5
 42
16.0
 73
     0
 74
     0
 75
     0
  3
tfrom線あり
100
AcDbAlignedDimension
 13
437.0543358098067
 23
207.2991609472346
 33
0.0
 14
496.970754472511
 24
191.2991609472346
 34
0.0
 50
90.0
100
AcDbRotatedDimension
  0
DIMENSION
  5
425B
102
{ACAD_REACTORS
330
425D
102
}
102
{ACAD_XDICTIONARY
360
425C
102
}
330
A
100
AcDbEntity
  8
寸法
100
AcDbDimension
  2
*D92
 10
514.6315464025391
 20
191.2991609472346
 30
0.0
 11
509.1315464025391
 21
158.6597413249187
 31
0.0
 70
    32
 71
     5
 42
65.27883924463171
 73
     0
 74
     0
 75
     0
  3
tfrom線あり
100
AcDbAlignedDimension
 13
496.970754472511
 23
126.0203217026029
 33
0.0
 14
496.970754472511
 24
191.2991609472346
 34
0.0
 50
90.0
100
AcDbRotatedDimension
  0
LINE
  5
427A
102
{ACAD_REACTORS
330
430C
102
}
330
A
100
AcDbEntity
  8
モデル
100
AcDbLine
 10
439.2287214289358
 20
126.0203217026029
 30
0.0
 11
103.2287214289358
 21
126.0203217026029
 31
0.0
  0
LINE
  5
427B
102
{ACAD_REACTORS
330
430C
102
}
330
A
100
AcDbEntity
  8
モデル
100
AcDbLine
 10
439.2287214289358
 20
191.2991609472346
 30
0.0
 11
103.2287214289358
 21
191.2991609472346
 31
0.0
  0
DIMENSION
  5
427C
330
A
100
AcDbEntity
  8
寸法
100
AcDbDimension
  2
*D93
 10
124.2287214289359
 20
86.5580947851482
 30
0.0
 11
97.72872142893588
 21
92.0580947851482
 31
0.0
 70
    32
 71
     5
 42
53.00000000000003
 73
     0
 74
     0
 75
     0
  3
tfrom線あり
100
AcDbAlignedDimension
 13
71.22872142893587
 23
135.091006214759
 33
0.0
 14
124.2287214289359
 24
109.4769128525176
 34
0.0
100
AcDbRotatedDimension
  0
TEXT
  5
4289
330
A
100
AcDbEntity
  8
テンプレート
100
AcDbText
 10
313.6458301704381
 20
53.09440584367189
 30
0.0
 40
5.5
  1
FOR32-BS01
  7
ＭＳ ゴシック
100
AcDbText
  0
DIMENSION
  5
4292
330
A
100
AcDbEntity
  8
寸法
100
AcDbDimension
  2
*D94
 10
418.2287214289358
 20
86.5580947851482
 30
0.0
 11
271.2287214289358
 21
92.0580947851482
 31
0.0
 70
    32
 71
     5
 42
293.9999999999999
 73
     0
 74
     0
 75
     0
  3
tfrom線あり
100
AcDbAlignedDimension
 13
124.2287214289359
 23
109.4769128525176
 33
0.0
 14
418.2287214289358
 24
109.4769128525176
 34
0.0
100
AcDbRotatedDimension
  0
DIMENSION
  5
429F
330
A
100
AcDbEntity
  8
寸法
100
AcDbDimension
  2
*D95
 10
471.2287214289358
 20
86.5580947851482
 30
0.0
 11
444.7287214289358
 21
92.0580947851482
 31
0.0
 70
    32
 71
     5
 42
53.0
 73
     0
 74
     0
 75
     0
  3
tfrom線あり
100
AcDbAlignedDimension
 13
418.2287214289358
 23
109.4769128525176
 33
0.0
 14
471.2287214289358
 24
143.748123599603
 34
0.0
100
AcDbRotatedDimension
  0
DIMENSION
  5
42C3
330
A
100
AcDbEntity
  8
寸法
100
AcDbDimension
  2
*D96
 10
103.2287214289359
 20
69.79012419493799
 30
0.0
 11
87.22872142893588
 21
75.29012419493799
 31
0.0
 70
    32
 71
     5
 42
32.00000000000003
 73
     0
 74
     0
 75
     0
  3
tfrom線あり
100
AcDbAlignedDimension
 13
71.22872142893587
 23
87.34029080297881
 33
0.0
 14
103.2287214289359
 24
87.34029080297881
 34
0.0
100
AcDbRotatedDimension
  0
DIMENSION
  5
42D0
330
A
100
AcDbEntity
  8
寸法
100
AcDbDimension
  2
*D97
 10
439.2287214289358
 20
69.79012419493799
 30
0.0
 11
271.2287214289358
 21
75.29012419493799
 31
0.0
 70
    32
 71
     5
 42
335.9999999999999
 73
     0
 74
     0
 75
     0
  3
tfrom線あり
100
AcDbAlignedDimension
 13
103.2287214289359
 23
87.34029080297881
 33
0.0
 14
439.2287214289358
 24
87.34029080297881
 34
0.0
100
AcDbRotatedDimension
  0
DIMENSION
  5
42DD
330
A
100
AcDbEntity
  8
寸法
100
AcDbDimension
  2
*D98
 10
471.2287214289358
 20
69.79012419493799
 30
0.0
 11
455.2287214289358
 21
75.29012419493799
 31
0.0
 70
    32
 71
     5
 42
32.0
 73
     0
 74
     0
 75
     0
  3
tfrom線あり
100
AcDbAlignedDimension
 13
439.2287214289358
 23
87.34029080297881
 33
0.0
 14
471.2287214289358
 24
87.34029080297881
 34
0.0
100
AcDbRotatedDimension
  0
LINE
  5
42FE
102
{ACAD_REACTORS
330
430C
102
}
330
A
100
AcDbEntity
  8
モデル
100
AcDbLine
 10
439.2287214289358
 20
126.0203217026029
 30
0.0
 11
439.2287214289358
 21
191.2991609472346
 31
0.0
  0
LINE
  5
42FF
102
{ACAD_REACTORS
330
430C
102
}
330
A
100
AcDbEntity
  8
モデル
100
AcDbLine
 10
103.2287214289359
 20
126.0203217026029
 30
0.0
 11
103.2287214289359
 21
191.2991609472346
 31
0.0
  0
HATCH
  5
430C
330
A
100
AcDbEntity
  8
モデル
100
AcDbHatch
 10
0.0
 20
0.0
 30
0.0
210
0.0
220
0.0
230
1.0
  2
ANSI31
 70
     0
 71
     1
 91
        1
 92
        1
 93
        4
 72
     1
 10
439.2287214289358
 20
191.2991609472346
 11
103.2287214289358
 21
191.2991609472346
 72
     1
 10
103.2287214289359
 20
126.0203217026029
 11
103.2287214289359
 21
191.2991609472346
 72
     1
 10
439.2287214289358
 20
126.0203217026029
 11
103.2287214289358
 21
126.0203217026029
 72
     1
 10
439.2287214289358
 20
126.0203217026029
 11
439.2287214289358
 21
191.2991609472346
 97
        4
330
427B
330
42FF
330
427A
330
42FE
 75
     0
 76
     1
 52
0.0
 41
1.0
 77
     0
 78
     1
 53
45.0
 43
0.0
 44
0.4155660958881526
 45
-2.245064030267288
 46
2.245064030267288
 79
     0
 98
        1
 10
0.0
 20
0.4155660958881526
1001
ACAD
1010
0.0
1020
0.0
1030
0.0
  0
HATCH
  5
4325
330
A
100
AcDbEntity
  8
寸法
100
AcDbHatch
 10
0.0
 20
0.0
 30
0.0
210
0.0
220
0.0
230
1.0
  2
ANSI31
 70
     0
 71
     1
 91
        4
 92
        1
 93
        1
 72
     2
 10
418.2713021448975
 20
197.1437052379493
 40
5.0
 50
0.0
 51
360.0
 73
     1
 97
        1
330
419E
 92
        1
 93
        1
 72
     2
 10
124.2360600141225
 20
197.1437052379493
 40
5.0
 50
0.0
 51
360.0
 73
     1
 97
        1
330
419F
 92
        1
 93
        1
 72
     2
 10
124.2360600141225
 20
117.1402601401913
 40
5.0
 50
0.0
 51
360.0
 73
     1
 97
        1
330
419D
 92
        1
 93
        1
 72
     2
 10
418.2713021448975
 20
117.1402601401913
 40
5.0
 50
0.0
 51
360.0
 73
     1
 97
        1
330
419C
 75
     0
 76
     1
 52
0.0
 41
1.0
 77
     0
 78
     1
 53
45.0
 43
0.0
 44
0.4155660958881526
 45
-2.245064030267288
 46
2.245064030267288
 79
     0
 98
        1
 10
0.0
 20
0.4155660958881526
1001
ACAD
1010
0.0
1020
0.0
1030
0.0
  0
TEXT
  5
4360
330
A
100
AcDbEntity
  8
テンプレート
100
AcDbText
 10
36.7528253083583
 20
41.03783377866012
 30
0.0
 40
5.5
  1
サテン・ポリッシュ
  7
ＭＳ ゴシック
100
AcDbText
  0
TEXT
  5
4361
330
A
100
AcDbEntity
  8
テンプレート
100
AcDbText
 10
36.7528253083583
 20
29.15097790868504
 30
0.0
 40
5.5
  1
ステンレス
  7
ＭＳ ゴシック
100
AcDbText
  0
TEXT
  5
436E
330
A
100
AcDbEntity
  8
テンプレート
100
AcDbText
 10
454.6458301704381
 20
54.55450507695569
 30
0.0
 40
5.5
  1
M4x60カットビス　4本付
  7
ＭＳ ゴシック
100
AcDbText
  0
MTEXT
  5
43CB
330
A
100
AcDbEntity
  8
寸法
100
AcDbMText
 10
479.073331385376
 20
90.76737317233014
 30
0.0
 40
4.5
 41
96.33553499016978
 46
38.89333333333334
 71
     1
 72
     5
  1
{※ 輸入製品の為、国内製品と比べ製品寸法の個体差に幅が有ります。\P加工は現物合わせの上行って下さい。}
  7
ＭＳ ゴシック
 73
     1
 44
1.0
1001
ACAD
1000
ACAD_MTEXT_DEFINED_HEIGHT_BEGIN
1070
    46
1040
38.89333333333334
1000
ACAD_MTEXT_DEFINED_HEIGHT_END
  0
MTEXT
  5
43FD
102
{ACAD_REACTORS
330
43FE
102
}
330
A
100
AcDbEntity
  8
寸法
 62
     0
100
AcDbMText
 10
444.2277755412479
 20
216.8505254381368
 30
0.0
 40
5.0
 41
0.0
 46
5.05
 71
     7
 72
     1
  1
{ø10}
  7
ＭＳ ゴシック
 73
     1
 44
1.0
1001
ACAD
1000
ACAD_MTEXT_DEFINED_HEIGHT_BEGIN
1070
    46
1040
5.05
1000
ACAD_MTEXT_DEFINED_HEIGHT_END
  0
LEADER
  5
43FE
102
{ACAD_XDICTIONARY
360
43FF
102
}
330
A
100
AcDbEntity
  8
寸法
100
AcDbLeader
  3
tfrom線あり
 73
     0
 74
     0
 40
5.05
 41
9.315000000000001
 76
     3
 10
422.458985248069
 20
199.875611207673
 30
0.0
 10
440.5653572266666
 20
213.8505254381368
 30
0.0
 10
441.2277755412479
 20
213.8505254381368
 30
0.0
340
43FD
  0
LINE
  5
4513
330
A
100
AcDbEntity
  8
モデル
100
AcDbLine
 10
271.228721428936
 20
378.2748340611355
 30
0.0
 11
471.228721428936
 21
378.2748340611355
 31
0.0
  0
LINE
  5
4514
330
A
100
AcDbEntity
  8
モデル
100
AcDbLine
 10
465.7973845710216
 20
390.1259703485236
 30
0.0
 11
459.7978870680193
 21
390.1259703485236
 31
0.0
  0
LINE
  5
4515
330
A
100
AcDbEntity
  8
モデル
100
AcDbLine
 10
459.7978870680193
 20
379.9663770602946
 30
0.0
 11
459.7978870680193
 21
390.1259703485236
 31
0.0
  0
LINE
  5
4516
330
A
100
AcDbEntity
  8
モデル
100
AcDbLine
 10
465.7973845710216
 20
379.9663770602946
 30
0.0
 11
465.7973845710216
 21
390.1259703485236
 31
0.0
  0
LINE
  5
4517
330
A
100
AcDbEntity
  8
モデル
100
AcDbLine
 10
471.228721428936
 20
379.9663770602946
 30
0.0
 11
270.7680200581431
 21
379.9663770602946
 31
0.0
  0
LINE
  5
4518
330
A
100
AcDbEntity
  8
モデル
100
AcDbLine
 10
388.6819536133037
 20
385.8884827907617
 30
0.0
 11
383.928166452054
 21
385.8884827907617
 31
0.0
  0
LINE
  5
4519
330
A
100
AcDbEntity
  8
モデル
100
AcDbLine
 10
412.5300863138139
 20
379.9663770602946
 30
0.0
 11
412.5300863138139
 21
387.1955530561125
 31
0.0
  0
LINE
  5
451A
330
A
100
AcDbEntity
  8
モデル
100
AcDbLine
 10
471.228721428936
 20
378.2748340611355
 30
0.0
 11
471.228721428936
 21
379.9663770602946
 31
0.0
  0
LINE
  5
451B
330
A
100
AcDbEntity
  8
モデル
100
AcDbLine
 10
383.928166452054
 20
387.1955530561125
 30
0.0
 11
383.928166452054
 21
379.9663770602946
 31
0.0
  0
LINE
  5
451C
330
A
100
AcDbEntity
  8
モデル
100
AcDbLine
 10
360.9273880636769
 20
387.1955530561125
 30
0.0
 11
360.9273880636769
 21
379.9663770602946
 31
0.0
  0
LINE
  5
451D
330
A
100
AcDbEntity
  8
モデル
100
AcDbLine
 10
360.9273880636769
 20
379.9663770602946
 30
0.0
 11
271.228721428936
 21
379.9663770602946
 31
0.0
  0
LINE
  5
451E
330
A
100
AcDbEntity
  8
モデル
100
AcDbLine
 10
362.2434440693072
 20
387.1955530561125
 30
0.0
 11
362.2434440693072
 21
379.9663770602946
 31
0.0
  0
LINE
  5
451F
330
A
100
AcDbEntity
  8
モデル
100
AcDbLine
 10
363.5939484884412
 20
387.1955530561125
 30
0.0
 11
363.5939484884412
 21
379.9663770602946
 31
0.0
  0
LINE
  5
4520
330
A
100
AcDbEntity
  8
モデル
100
AcDbLine
 10
365.0795033494887
 20
387.1955530561125
 30
0.0
 11
365.0795033494887
 21
379.9663770602946
 31
0.0
  0
LINE
  5
4521
330
A
100
AcDbEntity
  8
モデル
100
AcDbLine
 10
366.4300077686229
 20
387.1955530561125
 30
0.0
 11
366.4300077686229
 21
379.9663770602946
 31
0.0
  0
LINE
  5
4522
330
A
100
AcDbEntity
  8
モデル
100
AcDbLine
 10
367.7805121877568
 20
387.1955530561125
 30
0.0
 11
367.7805121877568
 21
379.9663770602946
 31
0.0
  0
LINE
  5
4523
330
A
100
AcDbEntity
  8
モデル
100
AcDbLine
 10
369.131016606891
 20
387.1955530561125
 30
0.0
 11
369.131016606891
 21
379.9663770602946
 31
0.0
  0
LINE
  5
4524
330
A
100
AcDbEntity
  8
モデル
100
AcDbLine
 10
370.6165714679385
 20
387.1955530561125
 30
0.0
 11
370.6165714679385
 21
379.9663770602946
 31
0.0
  0
LINE
  5
4525
330
A
100
AcDbEntity
  8
モデル
100
AcDbLine
 10
371.9670758870726
 20
387.1955530561125
 30
0.0
 11
371.9670758870726
 21
379.9663770602946
 31
0.0
  0
LINE
  5
4526
330
A
100
AcDbEntity
  8
モデル
100
AcDbLine
 10
373.3175803062067
 20
387.1955530561125
 30
0.0
 11
373.3175803062067
 21
379.9663770602946
 31
0.0
  0
LINE
  5
4527
330
A
100
AcDbEntity
  8
モデル
100
AcDbLine
 10
374.6680847253408
 20
387.1955530561125
 30
0.0
 11
374.6680847253408
 21
379.9663770602946
 31
0.0
  0
LINE
  5
4528
330
A
100
AcDbEntity
  8
モデル
100
AcDbLine
 10
376.1536395863882
 20
387.1955530561125
 30
0.0
 11
376.1536395863882
 21
379.9663770602946
 31
0.0
  0
LINE
  5
4529
330
A
100
AcDbEntity
  8
モデル
100
AcDbLine
 10
377.5041440055222
 20
387.1955530561125
 30
0.0
 11
377.5041440055222
 21
379.9663770602946
 31
0.0
  0
LINE
  5
452A
330
A
100
AcDbEntity
  8
モデル
100
AcDbLine
 10
378.5845475408296
 20
387.1955530561125
 30
0.0
 11
378.5845475408296
 21
379.9663770602946
 31
0.0
  0
LINE
  5
452B
330
A
100
AcDbEntity
  8
モデル
100
AcDbLine
 10
379.9350519599636
 20
387.1955530561125
 30
0.0
 11
379.9350519599636
 21
379.9663770602946
 31
0.0
  0
LINE
  5
452C
330
A
100
AcDbEntity
  8
モデル
100
AcDbLine
 10
381.4206068210111
 20
387.1955530561125
 30
0.0
 11
381.4206068210111
 21
379.9663770602946
 31
0.0
  0
LINE
  5
452D
330
A
100
AcDbEntity
  8
モデル
100
AcDbLine
 10
382.7711112401453
 20
387.1955530561125
 30
0.0
 11
382.7711112401453
 21
379.9663770602946
 31
0.0
  0
LINE
  5
452E
330
A
100
AcDbEntity
  8
モデル
100
AcDbLine
 10
388.6819536133037
 20
379.9663770602946
 30
0.0
 11
388.6819536133037
 21
387.1955530561125
 31
0.0
  0
LINE
  5
452F
330
A
100
AcDbEntity
  8
モデル
100
AcDbLine
 10
388.6819536133037
 20
387.1955530561125
 30
0.0
 11
412.5300863138139
 21
387.1955530561125
 31
0.0
  0
LINE
  5
4530
330
A
100
AcDbEntity
  8
モデル
100
AcDbLine
 10
400.6060199635588
 20
387.1955530561125
 30
0.0
 11
400.6060199635588
 21
379.9663770602946
 31
0.0
  0
LINE
  5
4531
330
A
100
AcDbEntity
  8
モデル
100
AcDbLine
 10
383.928166452054
 20
387.1955530561125
 30
0.0
 11
360.9273880636769
 21
387.1955530561125
 31
0.0
  0
LINE
  5
4532
330
A
100
AcDbEntity
  8
モデル
100
AcDbLine
 10
360.9273880636769
 20
385.8884827907617
 30
0.0
 11
266.2434609754918
 21
385.8884827907617
 31
0.0
  0
LINE
  5
4533
330
A
100
AcDbEntity
  8
モデル
100
AcDbLine
 10
76.66005828685027
 20
390.1259703485236
 30
0.0
 11
82.65955578985248
 21
390.1259703485236
 31
0.0
  0
LINE
  5
4534
330
A
100
AcDbEntity
  8
モデル
100
AcDbLine
 10
71.22872142893587
 20
378.2748340611355
 30
0.0
 11
71.22872142893587
 21
379.9663770602946
 31
0.0
  0
LINE
  5
4535
330
A
100
AcDbEntity
  8
モデル
100
AcDbLine
 10
82.65955578985248
 20
379.9663770602946
 30
0.0
 11
82.65955578985248
 21
390.1259703485236
 31
0.0
  0
LINE
  5
4536
330
A
100
AcDbEntity
  8
モデル
100
AcDbLine
 10
76.66005828685027
 20
379.9663770602946
 30
0.0
 11
76.66005828685027
 21
390.1259703485236
 31
0.0
  0
LINE
  5
4537
330
A
100
AcDbEntity
  8
モデル
100
AcDbLine
 10
271.228721428936
 20
378.2748340611355
 30
0.0
 11
71.22872142893587
 21
378.2748340611355
 31
0.0
  0
LINE
  5
4538
330
A
100
AcDbEntity
  8
モデル
100
AcDbLine
 10
181.5300547941951
 20
379.9663770602946
 30
0.0
 11
271.228721428936
 21
379.9663770602946
 31
0.0
  0
LINE
  5
4539
330
A
100
AcDbEntity
  8
モデル
100
AcDbLine
 10
71.22872142893587
 20
379.9663770602946
 30
0.0
 11
271.6894227997287
 21
379.9663770602946
 31
0.0
  0
LINE
  5
453A
330
A
100
AcDbEntity
  8
モデル
100
AcDbLine
 10
159.6863316177266
 20
387.1955530561125
 30
0.0
 11
159.6863316177266
 21
379.9663770602946
 31
0.0
  0
LINE
  5
453B
330
A
100
AcDbEntity
  8
モデル
100
AcDbLine
 10
161.0368360368607
 20
387.1955530561125
 30
0.0
 11
161.0368360368607
 21
379.9663770602946
 31
0.0
  0
LINE
  5
453C
330
A
100
AcDbEntity
  8
モデル
100
AcDbLine
 10
162.5223908979082
 20
387.1955530561125
 30
0.0
 11
162.5223908979082
 21
379.9663770602946
 31
0.0
  0
LINE
  5
453D
330
A
100
AcDbEntity
  8
モデル
100
AcDbLine
 10
163.8728953170423
 20
387.1955530561125
 30
0.0
 11
163.8728953170423
 21
379.9663770602946
 31
0.0
  0
LINE
  5
453E
330
A
100
AcDbEntity
  8
モデル
100
AcDbLine
 10
164.9532988523496
 20
387.1955530561125
 30
0.0
 11
164.9532988523496
 21
379.9663770602946
 31
0.0
  0
LINE
  5
453F
330
A
100
AcDbEntity
  8
モデル
100
AcDbLine
 10
166.3038032714837
 20
387.1955530561125
 30
0.0
 11
166.3038032714837
 21
379.9663770602946
 31
0.0
  0
LINE
  5
4540
330
A
100
AcDbEntity
  8
モデル
100
AcDbLine
 10
167.7893581325312
 20
387.1955530561125
 30
0.0
 11
167.7893581325312
 21
379.9663770602946
 31
0.0
  0
LINE
  5
4541
330
A
100
AcDbEntity
  8
モデル
100
AcDbLine
 10
169.1398625516653
 20
387.1955530561125
 30
0.0
 11
169.1398625516653
 21
379.9663770602946
 31
0.0
  0
LINE
  5
4542
330
A
100
AcDbEntity
  8
モデル
100
AcDbLine
 10
170.4903669707993
 20
387.1955530561125
 30
0.0
 11
170.4903669707993
 21
379.9663770602946
 31
0.0
  0
LINE
  5
4543
330
A
100
AcDbEntity
  8
モデル
100
AcDbLine
 10
171.8408713899334
 20
387.1955530561125
 30
0.0
 11
171.8408713899334
 21
379.9663770602946
 31
0.0
  0
LINE
  5
4544
330
A
100
AcDbEntity
  8
モデル
100
AcDbLine
 10
158.5292764058178
 20
387.1955530561125
 30
0.0
 11
158.5292764058178
 21
379.9663770602946
 31
0.0
  0
LINE
  5
4545
330
A
100
AcDbEntity
  8
モデル
100
AcDbLine
 10
173.3264262509809
 20
387.1955530561125
 30
0.0
 11
173.3264262509809
 21
379.9663770602946
 31
0.0
  0
LINE
  5
4546
330
A
100
AcDbEntity
  8
モデル
100
AcDbLine
 10
180.2139987885647
 20
387.1955530561125
 30
0.0
 11
180.2139987885647
 21
379.9663770602946
 31
0.0
  0
LINE
  5
4547
330
A
100
AcDbEntity
  8
モデル
100
AcDbLine
 10
174.676930670115
 20
387.1955530561125
 30
0.0
 11
174.676930670115
 21
379.9663770602946
 31
0.0
  0
LINE
  5
4548
330
A
100
AcDbEntity
  8
モデル
100
AcDbLine
 10
176.027435089249
 20
387.1955530561125
 30
0.0
 11
176.027435089249
 21
379.9663770602946
 31
0.0
  0
LINE
  5
4549
330
A
100
AcDbEntity
  8
モデル
100
AcDbLine
 10
177.3779395083831
 20
387.1955530561125
 30
0.0
 11
177.3779395083831
 21
379.9663770602946
 31
0.0
  0
LINE
  5
454A
330
A
100
AcDbEntity
  8
モデル
100
AcDbLine
 10
181.5300547941951
 20
387.1955530561125
 30
0.0
 11
181.5300547941951
 21
379.9663770602946
 31
0.0
  0
LINE
  5
454B
330
A
100
AcDbEntity
  8
モデル
100
AcDbLine
 10
178.8634943694306
 20
387.1955530561125
 30
0.0
 11
178.8634943694306
 21
379.9663770602946
 31
0.0
  0
LINE
  5
454C
330
A
100
AcDbEntity
  8
モデル
100
AcDbLine
 10
153.7754892445682
 20
379.9663770602946
 30
0.0
 11
153.7754892445682
 21
387.1955530561125
 31
0.0
  0
LINE
  5
454D
330
A
100
AcDbEntity
  8
モデル
100
AcDbLine
 10
153.7754892445682
 20
387.1955530561125
 30
0.0
 11
129.9273565440581
 21
387.1955530561125
 31
0.0
  0
LINE
  5
454E
330
A
100
AcDbEntity
  8
モデル
100
AcDbLine
 10
129.9273565440581
 20
379.9663770602946
 30
0.0
 11
129.9273565440581
 21
387.1955530561125
 31
0.0
  0
LINE
  5
454F
330
A
100
AcDbEntity
  8
モデル
100
AcDbLine
 10
141.8514228943131
 20
387.1955530561125
 30
0.0
 11
141.8514228943131
 21
379.9663770602946
 31
0.0
  0
LINE
  5
4550
330
A
100
AcDbEntity
  8
モデル
100
AcDbLine
 10
158.5292764058178
 20
387.1955530561125
 30
0.0
 11
181.5300547941951
 21
387.1955530561125
 31
0.0
  0
LINE
  5
4551
330
A
100
AcDbEntity
  8
モデル
100
AcDbLine
 10
153.7754892445682
 20
385.8884827907617
 30
0.0
 11
158.5292764058178
 21
385.8884827907617
 31
0.0
  0
LINE
  5
4552
330
A
100
AcDbEntity
  8
モデル
100
AcDbLine
 10
265.0864057635829
 20
387.1955530561125
 30
0.0
 11
265.0864057635829
 21
379.9663770602946
 31
0.0
  0
LINE
  5
4553
330
A
100
AcDbEntity
  8
モデル
100
AcDbLine
 10
263.7359013444488
 20
387.1955530561125
 30
0.0
 11
263.7359013444488
 21
379.9663770602946
 31
0.0
  0
LINE
  5
4554
330
A
100
AcDbEntity
  8
モデル
100
AcDbLine
 10
262.2503464834014
 20
387.1955530561125
 30
0.0
 11
262.2503464834014
 21
379.9663770602946
 31
0.0
  0
LINE
  5
4555
330
A
100
AcDbEntity
  8
モデル
100
AcDbLine
 10
260.8998420642673
 20
387.1955530561125
 30
0.0
 11
260.8998420642673
 21
379.9663770602946
 31
0.0
  0
LINE
  5
4556
330
A
100
AcDbEntity
  8
モデル
100
AcDbLine
 10
259.8194385289599
 20
387.1955530561125
 30
0.0
 11
259.8194385289599
 21
379.9663770602946
 31
0.0
  0
LINE
  5
4557
330
A
100
AcDbEntity
  8
モデル
100
AcDbLine
 10
258.4689341098259
 20
387.1955530561125
 30
0.0
 11
258.4689341098259
 21
379.9663770602946
 31
0.0
  0
LINE
  5
4558
330
A
100
AcDbEntity
  8
モデル
100
AcDbLine
 10
256.9833792487784
 20
387.1955530561125
 30
0.0
 11
256.9833792487784
 21
379.9663770602946
 31
0.0
  0
LINE
  5
4559
330
A
100
AcDbEntity
  8
モデル
100
AcDbLine
 10
255.6328748296443
 20
387.1955530561125
 30
0.0
 11
255.6328748296443
 21
379.9663770602946
 31
0.0
  0
LINE
  5
455A
330
A
100
AcDbEntity
  8
モデル
100
AcDbLine
 10
254.2823704105103
 20
387.1955530561125
 30
0.0
 11
254.2823704105103
 21
379.9663770602946
 31
0.0
  0
LINE
  5
455B
330
A
100
AcDbEntity
  8
モデル
100
AcDbLine
 10
252.9318659913762
 20
387.1955530561125
 30
0.0
 11
252.9318659913762
 21
379.9663770602946
 31
0.0
  0
LINE
  5
455C
330
A
100
AcDbEntity
  8
モデル
100
AcDbLine
 10
266.2434609754918
 20
387.1955530561125
 30
0.0
 11
266.2434609754918
 21
379.9663770602946
 31
0.0
  0
LINE
  5
455D
330
A
100
AcDbEntity
  8
モデル
100
AcDbLine
 10
251.4463111303287
 20
387.1955530561125
 30
0.0
 11
251.4463111303287
 21
379.9663770602946
 31
0.0
  0
LINE
  5
455E
330
A
100
AcDbEntity
  8
モデル
100
AcDbLine
 10
244.5587385927449
 20
387.1955530561125
 30
0.0
 11
244.5587385927449
 21
379.9663770602946
 31
0.0
  0
LINE
  5
455F
330
A
100
AcDbEntity
  8
モデル
100
AcDbLine
 10
250.0958067111946
 20
387.1955530561125
 30
0.0
 11
250.0958067111946
 21
379.9663770602946
 31
0.0
  0
LINE
  5
4560
330
A
100
AcDbEntity
  8
モデル
100
AcDbLine
 10
248.7453022920606
 20
387.1955530561125
 30
0.0
 11
248.7453022920606
 21
379.9663770602946
 31
0.0
  0
LINE
  5
4561
330
A
100
AcDbEntity
  8
モデル
100
AcDbLine
 10
247.3947978729265
 20
387.1955530561125
 30
0.0
 11
247.3947978729265
 21
379.9663770602946
 31
0.0
  0
LINE
  5
4562
330
A
100
AcDbEntity
  8
モデル
100
AcDbLine
 10
243.2426825871145
 20
387.1955530561125
 30
0.0
 11
243.2426825871145
 21
379.9663770602946
 31
0.0
  0
LINE
  5
4563
330
A
100
AcDbEntity
  8
モデル
100
AcDbLine
 10
245.909243011879
 20
387.1955530561125
 30
0.0
 11
245.909243011879
 21
379.9663770602946
 31
0.0
  0
LINE
  5
4564
330
A
100
AcDbEntity
  8
モデル
100
AcDbLine
 10
266.2434609754918
 20
387.1955530561125
 30
0.0
 11
243.2426825871145
 21
387.1955530561125
 31
0.0
  0
LINE
  5
4565
330
A
100
AcDbEntity
  8
モデル
100
AcDbLine
 10
181.5300547941951
 20
385.8884827907617
 30
0.0
 11
243.2426825871145
 21
385.8884827907617
 31
0.0
  0
VIEWPORT
  5
349
330
B
100
AcDbEntity
 67
     1
  8
0
100
AcDbViewport
 10
202.5
 20
128.5
 30
0.0
 40
486.0
 41
308.4
 68
     1
 69
     1
 12
202.5
 22
128.5
 13
0.0
 23
0.0
 14
0.5
 24
0.5
 15
0.0
 25
0.0
 16
0.0
 26
0.0
 36
1.0
 17
0.0
 27
0.0
 37
0.0
 42
50.0
 43
0.0
 44
0.0
 45
308.4
 50
0.0
 51
0.0
 72
   100
 90
   557152
  1

281
     0
 71
     1
 74
     0
110
0.0
120
0.0
130
0.0
111
1.0
121
0.0
131
0.0
112
0.0
122
1.0
132
0.0
 79
     0
146
0.0
170
     0
 61
     5
348
26C
292
     1
282
     1
141
0.0
142
0.0
 63
   256
  0
VIEWPORT
  5
34A
330
B
100
AcDbEntity
 67
     1
  8
0
100
AcDbViewport
 10
202.5
 20
128.5
 30
0.0
 40
324.0
 41
205.6
 68
     2
 69
     2
 12
986.6781359294573
 22
1427.077061889956
 13
0.0
 23
0.0
 14
0.5
 24
0.5
 15
0.0
 25
0.0
 16
0.0
 26
0.0
 36
1.0
 17
0.0
 27
0.0
 37
0.0
 42
50.0
 43
0.0
 44
0.0
 45
2890.021615685494
 50
0.0
 51
0.0
 72
   100
 90
   557152
  1

281
     0
 71
     1
 74
     0
110
0.0
120
0.0
130
0.0
111
1.0
121
0.0
131
0.0
112
0.0
122
1.0
132
0.0
 79
     0
146
0.0
170
     0
 61
     5
348
26C
292
     1
282
     1
141
0.0
142
0.0
 63
   256
  0
ENDSEC
  0
SECTION
  2
OBJECTS
  0
DICTIONARY
  5
19
330
0
100
AcDbDictionary
281
     1
  3
ACAD_COLOR
350
674
  3
ACAD_DETAILVIEWSTYLE
350
12F4
  3
ACAD_GROUP
350
1A
  3
ACAD_IMAGE_VARS
350
27B
  3
ACAD_LAYOUT
350
1E
  3
ACAD_MATERIAL
350
263
  3
ACAD_MLEADERSTYLE
350
336
  3
ACAD_MLINESTYLE
350
1B
  3
ACAD_PLOTSETTINGS
350
22
  3
ACAD_PLOTSTYLENAME
350
1F
  3
ACAD_SCALELIST
350
241
  3
ACAD_SECTIONVIEWSTYLE
350
12F5
  3
ACAD_TABLESTYLE
350
278
  3
ACAD_VISUALSTYLE
350
267
  3
ACDB_RECOMPOSE_DATA
350
45B1
  3
AcDbVariableDictionary
350
330
  3
AcStStandard
350
12B9
  3
APPDATA
350
27A
  3
DimOffsetDictionary
350
42BE
  0
SUN
  5
10E8
330
15
100
AcDbSun
 90
        1
290
     0
 63
     7
421
 16777215
 40
1.0
291
     1
 91
  2455826
 92
 54000000
292
     0
 70
     2
 71
   256
280
     1
  0
DICTIONARY
  5
2E1
330
2
100
AcDbDictionary
280
     1
281
     1
  3
ACAD_LAYERSTATES
360
2E2
  3
ACLYDICTIONARY
360
3863
  0
DICTIONARY
  5
4326
330
A
100
AcDbDictionary
280
     1
281
     1
  3
ACAD_SORTENTS
360
4327
  0
DICTIONARY
  5
3FD7
330
3FD6
100
AcDbDictionary
280
     1
281
     1
  0
DICTIONARY
  5
425C
330
425B
100
AcDbDictionary
280
     1
281
     1
  3
ACAD_DIMASSOC
360
425D
  0
DICTIONARY
  5
43FF
330
43FE
100
AcDbDictionary
280
     1
281
     1
  0
DICTIONARY
  5
674
102
{ACAD_REACTORS
330
19
102
}
330
19
100
AcDbDictionary
281
     1
  0
DICTIONARY
  5
12F4
102
{ACAD_REACTORS
330
19
102
}
330
19
100
AcDbDictionary
281
     1
  0
DICTIONARY
  5
1A
102
{ACAD_REACTORS
330
19
102
}
330
19
100
AcDbDictionary
281
     1
  0
RASTERVARIABLES
  5
27B
102
{ACAD_REACTORS
330
19
102
}
330
19
100
AcDbRasterVariables
 90
        0
 70
     1
 71
     1
 72
     1
  0
DICTIONARY
  5
1E
102
{ACAD_REACTORS
330
19
102
}
330
19
100
AcDbDictionary
281
     1
  3
Layout1
350
21
  3
Layout2
350
12C4
  3
Model
350
20
  0
DICTIONARY
  5
263
102
{ACAD_REACTORS
330
19
102
}
330
19
100
AcDbDictionary
281
     1
  3
ByBlock
350
385B
  3
ByLayer
350
264
  3
Global
350
266
  0
DICTIONARY
  5
336
102
{ACAD_REACTORS
330
19
102
}
330
19
100
AcDbDictionary
281
     1
  3
Standard
350
4034
  0
DICTIONARY
  5
1B
102
{ACAD_REACTORS
330
19
102
}
330
19
100
AcDbDictionary
281
     1
  3
Standard
350
1C
  0
DICTIONARY
  5
22
102
{ACAD_REACTORS
330
19
102
}
330
19
100
AcDbDictionary
281
     1
  0
ACDBDICTIONARYWDFLT
  5
1F
102
{ACAD_REACTORS
330
19
102
}
330
19
100
AcDbDictionary
281
     1
  3
Normal
350
1D
100
AcDbDictionaryWithDefault
340
1D
  0
DICTIONARY
  5
241
102
{ACAD_REACTORS
330
19
102
}
330
19
100
AcDbDictionary
281
     1
  3
A0
350
242
  3
A1
350
243
  3
A2
350
244
  3
A3
350
245
  3
A4
350
246
  3
A5
350
247
  3
A6
350
248
  3
A7
350
249
  3
A8
350
24A
  3
A9
350
24B
  3
B0
350
24C
  3
B1
350
24D
  3
B2
350
24E
  3
B3
350
24F
  3
B4
350
250
  3
B5
350
251
  3
B6
350
252
  3
B7
350
253
  3
B8
350
254
  3
B9
350
255
  3
C0
350
256
  3
C1
350
257
  3
C2
350
258
  3
C3
350
259
  3
C4
350
25A
  3
C5
350
25B
  3
C6
350
25C
  3
C7
350
25D
  3
C8
350
25E
  3
C9
350
25F
  3
D0
350
260
  3
D1
350
261
  3
D2
350
262
  0
DICTIONARY
  5
12F5
102
{ACAD_REACTORS
330
19
102
}
330
19
100
AcDbDictionary
281
     1
  0
DICTIONARY
  5
278
102
{ACAD_REACTORS
330
19
102
}
330
19
100
AcDbDictionary
281
     1
  3
Standard
350
279
  0
DICTIONARY
  5
267
102
{ACAD_REACTORS
330
19
102
}
330
19
100
AcDbDictionary
281
     1
  3
2dWireframe
350
26C
  3
3D Hidden
350
26E
  3
3dWireframe
350
26D
  3
Basic
350
26F
  3
Brighten
350
273
  3
ColorChange
350
277
  3
Conceptual
350
271
  3
Dim
350
272
  3
EdgeColorOff
350
10E2
  3
Facepattern
350
276
  3
Flat
350
268
  3
FlatWithEdges
350
269
  3
Gouraud
350
26A
  3
GouraudWithEdges
350
26B
  3
Hidden
350
10DF
  3
JitterOff
350
10E0
  3
Linepattern
350
275
  3
OverhangOff
350
10E1
  3
Realistic
350
270
  3
Shaded
350
10E7
  3
Shaded with edges
350
10E6
  3
Shades of Gray
350
10E3
  3
Sketchy
350
10E4
  3
Thicken
350
274
  3
Wireframe
350
10DE
  3
X-Ray
350
10E5
  0
XRECORD
  5
45B1
102
{ACAD_REACTORS
330
19
102
}
330
19
100
AcDbXrecord
280
     1
 90
        1
330
279
  0
DICTIONARY
  5
330
102
{ACAD_REACTORS
330
19
102
}
330
19
100
AcDbDictionary
281
     1
  3
CANNOSCALE
350
331
  3
CMLEADERSTYLE
350
403B
  3
CTABLESTYLE
350
335
  3
HPTRANSPARENCY
350
42BD
  3
XCLIPFRAME
350
109E
  0
DICTIONARY
  5
12B9
102
{ACAD_REACTORS
330
19
102
}
330
19
100
AcDbDictionary
281
     1
  0
DICTIONARY
  5
27A
102
{ACAD_REACTORS
330
19
102
}
330
19
100
AcDbDictionary
281
     1
  0
DICTIONARY
  5
42BE
102
{ACAD_REACTORS
330
19
102
}
330
19
100
AcDbDictionary
281
     1
  3
DIMRAILANGLE
350
42C1
  3
DIMRAILFIRSTOFFSET
350
42BF
  3
DIMRAILOFFSET
350
42C0
  3
DIMRAILSENABLED
350
42C2
  0
DICTIONARY
  5
2E2
102
{ACAD_REACTORS
330
2E1
102
}
330
2E1
100
AcDbDictionary
281
     1
  3
ARGON_LAYERP_6
350
10DB
  3
ARGON_LAYERP_7
350
DEA
  3
ARGON_LAYERP_8
350
C70
  3
ARGON_LAYERP_9
350
7AA
  0
DICTIONARY
  5
3863
102
{ACAD_REACTORS
330
2E1
102
}
330
2E1
100
AcDbDictionary
281
     1
1001
ACAD
1000
<All
  0
SORTENTSTABLE
  5
4327
102
{ACAD_REACTORS
330
4326
102
}
330
4326
100
AcDbSortentsTable
330
A
331
0
  5
3F87
331
36CD
  5
36CF
331
36CE
  5
36D0
331
36CF
  5
36D3
331
36D0
  5
36D4
331
36D3
  5
36D5
331
36D4
  5
36D6
331
36D5
  5
36D8
331
36D6
  5
36D9
331
36D8
  5
36DA
331
36D9
  5
36DB
331
36DA
  5
36DC
331
36DB
  5
36DD
331
36DC
  5
36DE
331
36DD
  5
36DF
331
36DE
  5
36E0
331
36DF
  5
36E1
331
36E0
  5
36E2
331
36E1
  5
36E3
331
36E2
  5
36E4
331
36E3
  5
36E5
331
36E4
  5
36E6
331
36E5
  5
36E7
331
36E6
  5
36E8
331
36E7
  5
36E9
331
36E8
  5
36EA
331
36E9
  5
36EB
331
36EA
  5
36EC
331
36EB
  5
36ED
331
36EC
  5
37DE
331
36ED
  5
3D93
331
37DE
  5
3F83
331
3F83
  5
3F8C
331
3F87
  5
3F90
331
3F8C
  5
3F94
331
3F90
  5
3F9A
331
3F94
  5
3F9E
331
3F9A
  5
3FA3
331
3F9E
  5
3FA7
331
3FA3
  5
3FA8
331
3FA7
  5
3FAC
331
3FA8
  5
3FAD
331
3FAC
  5
3FB2
331
3FAD
  5
3FB9
331
3FB2
  5
3FBA
331
3FB9
  5
3FBB
331
3FBA
  5
3FBF
331
3FBB
  5
3FC3
331
3FBF
  5
3FC7
331
3FC3
  5
3FCB
331
3FC7
  5
3FCC
331
3FCB
  5
3FCD
331
3FCC
  5
3FD0
331
3FD0
  5
3FD2
331
3FD1
  5
3FD3
331
3FD2
  5
3FD6
331
3FD6
  5
3FDA
331
3FD9
  5
4048
331
40A9
  5
40AB
331
40AA
  5
40AC
331
40AB
  5
40DD
331
40AC
  5
4108
331
40DD
  5
4109
331
410A
  5
4119
331
410E
  5
411A
331
4119
  5
411B
331
411A
  5
4188
331
411B
  5
4189
331
4188
  5
418A
331
4189
  5
418E
331
418A
  5
4192
331
4196
  5
419B
331
419C
  5
419E
331
419D
  5
419F
331
419E
  5
41A0
331
419F
  5
41B0
331
41EA
  5
420B
331
41FB
  5
421A
331
420B
  5
422E
331
421A
  5
422F
331
4234
  5
424E
331
424E
  5
427A
331
425B
  5
427B
331
427A
  5
427C
331
427B
  5
4289
331
427C
  5
4292
331
4289
  5
429F
331
4292
  5
42C3
331
429F
  5
42D0
331
42C3
  5
42DD
331
42D0
  5
42FE
331
42DD
  5
42FF
331
42FE
  5
430C
331
42FF
  5
4325
331
430C
  5
36CE
331
4325
  5
36CD
  0
DIMASSOC
  5
425D
102
{ACAD_REACTORS
330
425C
102
}
330
425C
100
AcDbDimAssoc
330
425B
 90
        0
 70
     0
 71
     1
  0
LAYOUT
  5
21
102
{ACAD_REACTORS
330
1E
102
}
330
1E
100
AcDbPlotSettings
  1

  2
none_device
  4
ISO_A3_(420.00_x_297.00_MM)
  6

 40
7.5
 41
20.0
 42
7.5
 43
20.0
 44
420.0
 45
297.0
 46
0.0
 47
0.0
 48
0.0
 49
0.0
140
0.0
141
0.0
142
1.0
143
1.0
 70
     0
 72
     1
 73
     0
 74
     0
  7

 75
     0
 76
     0
 77
     2
 78
   300
147
1.0
148
0.0
149
0.0
100
AcDbLayout
  1
Layout1
 70
     0
 71
     0
 10
-7.5
 20
-20.0
 11
412.5
 21
277.0
 12
0.0
 22
0.0
 32
0.0
 14
0.0
 24
0.0
 34
0.0
 15
0.0
 25
0.0
 35
0.0
146
0.0
 13
0.0
 23
0.0
 33
0.0
 16
0.0
 26
0.0
 36
0.0
 17
0.0
 27
0.0
 37
0.0
 76
     0
330
B
331
349
  0
LAYOUT
  5
12C4
102
{ACAD_REACTORS
330
1E
102
}
330
1E
100
AcDbPlotSettings
  1

  2
none_device
  4

  6

 40
0.0
 41
0.0
 42
0.0
 43
0.0
 44
0.0
 45
0.0
 46
0.0
 47
0.0
 48
0.0
 49
0.0
140
0.0
141
0.0
142
1.0
143
1.0
 70
   688
 72
     1
 73
     0
 74
     5
  7

 75
    16
 76
     0
 77
     2
 78
   300
147
1.0
148
0.0
149
0.0
100
AcDbLayout
  1
Layout2
 70
     1
 71
     2
 10
0.0
 20
0.0
 11
0.0
 21
0.0
 12
0.0
 22
0.0
 32
0.0
 14
0.0
 24
0.0
 34
0.0
 15
0.0
 25
0.0
 35
0.0
146
0.0
 13
0.0
 23
0.0
 33
0.0
 16
1.0
 26
0.0
 36
0.0
 17
0.0
 27
1.0
 37
0.0
 76
     0
330
12C3
  0
LAYOUT
  5
20
102
{ACAD_REACTORS
330
1E
102
}
330
1E
100
AcDbPlotSettings
  1

  2
none_device
  4
ISO_A3_(420.00_x_297.00_MM)
  6

 40
7.5
 41
20.0
 42
7.5
 43
20.0
 44
420.0
 45
297.0
 46
0.0
 47
0.0
 48
0.0
 49
0.0
140
0.0
141
0.0
142
1.0
143
1.0
 70
  1024
 72
     1
 73
     0
 74
     0
  7

 75
     0
 76
     0
 77
     2
 78
   300
147
1.0
148
0.0
149
0.0
100
AcDbLayout
  1
Model
 70
     0
 71
     1
 10
0.0
 20
0.0
 11
593.9999999999999
 21
420.0
 12
0.0
 22
0.0
 32
0.0
 14
0.0
 24
0.0
 34
0.0
 15
593.9999999999999
 25
420.0
 35
0.0
146
0.0
 13
0.0
 23
0.0
 33
0.0
 16
0.0
 26
0.0
 36
0.0
 17
0.0
 27
0.0
 37
0.0
 76
     0
330
A
331
15
  0
MATERIAL
  5
385B
102
{ACAD_REACTORS
330
263
102
}
330
263
100
AcDbMaterial
  1
ByBlock
 72
     1
 94
      127
  0
MATERIAL
  5
264
102
{ACAD_REACTORS
330
263
102
}
330
263
100
AcDbMaterial
  1
ByLayer
 72
     1
 94
      127
  0
MATERIAL
  5
266
102
{ACAD_REACTORS
330
263
102
}
330
263
100
AcDbMaterial
  1
Global
 72
     1
 94
      127
  0
MLEADERSTYLE
  5
4034
102
{ACAD_REACTORS
330
336
102
}
330
336
100
AcDbMLeaderStyle
170
     2
171
     1
172
     0
 90
        2
 40
0.0
 41
0.0
173
     1
 91
-1056964608
340
11
 92
       -2
290
     1
 42
2.0
291
     1
 43
8.0
  3
Standard
341
0
 44
4.0
300

342
17
174
     1
178
     6
175
     1
176
     0
 93
-1056964608
 45
4.0
292
     0
297
     0
 46
4.0
343
0
 94
-1056964608
 47
1.0
 49
1.0
140
1.0
293
     1
141
0.0
294
     1
177
     0
142
1.0
295
     0
296
     0
143
3.75
1001
ACAD_MLEADERVER
1070
     2
  0
MLINESTYLE
  5
1C
102
{ACAD_REACTORS
330
1B
102
}
330
1B
100
AcDbMlineStyle
  2
Standard
 70
     0
  3

 62
     0
 51
90.0
 52
90.0
 71
     2
 49
0.5
 62
   256
  6
BYLAYER
 49
-0.5
 62
   256
  6
BYLAYER
  0
ACDBPLACEHOLDER
  5
1D
102
{ACAD_REACTORS
330
1F
102
}
330
1F
  0
SCALE
  5
242
102
{ACAD_REACTORS
330
241
102
}
330
241
100
AcDbScale
 70
     0
300
1:1
140
1.0
141
1.0
290
     1
  0
SCALE
  5
243
102
{ACAD_REACTORS
330
241
102
}
330
241
100
AcDbScale
 70
     0
300
1:2
140
1.0
141
2.0
290
     0
  0
SCALE
  5
244
102
{ACAD_REACTORS
330
241
102
}
330
241
100
AcDbScale
 70
     0
300
1:4
140
1.0
141
4.0
290
     0
  0
SCALE
  5
245
102
{ACAD_REACTORS
330
241
102
}
330
241
100
AcDbScale
 70
     0
300
1:5
140
1.0
141
5.0
290
     0
  0
SCALE
  5
246
102
{ACAD_REACTORS
330
241
102
}
330
241
100
AcDbScale
 70
     0
300
1:8
140
1.0
141
8.0
290
     0
  0
SCALE
  5
247
102
{ACAD_REACTORS
330
241
102
}
330
241
100
AcDbScale
 70
     0
300
1:10
140
1.0
141
10.0
290
     0
  0
SCALE
  5
248
102
{ACAD_REACTORS
330
241
102
}
330
241
100
AcDbScale
 70
     0
300
1:16
140
1.0
141
16.0
290
     0
  0
SCALE
  5
249
102
{ACAD_REACTORS
330
241
102
}
330
241
100
AcDbScale
 70
     0
300
1:20
140
1.0
141
20.0
290
     0
  0
SCALE
  5
24A
102
{ACAD_REACTORS
330
241
102
}
330
241
100
AcDbScale
 70
     0
300
1:30
140
1.0
141
30.0
290
     0
  0
SCALE
  5
24B
102
{ACAD_REACTORS
330
241
102
}
330
241
100
AcDbScale
 70
     0
300
1:40
140
1.0
141
40.0
290
     0
  0
SCALE
  5
24C
102
{ACAD_REACTORS
330
241
102
}
330
241
100
AcDbScale
 70
     0
300
1:50
140
1.0
141
50.0
290
     0
  0
SCALE
  5
24D
102
{ACAD_REACTORS
330
241
102
}
330
241
100
AcDbScale
 70
     0
300
1:100
140
1.0
141
100.0
290
     0
  0
SCALE
  5
24E
102
{ACAD_REACTORS
330
241
102
}
330
241
100
AcDbScale
 70
     0
300
2:1
140
2.0
141
1.0
290
     0
  0
SCALE
  5
24F
102
{ACAD_REACTORS
330
241
102
}
330
241
100
AcDbScale
 70
     0
300
4:1
140
4.0
141
1.0
290
     0
  0
SCALE
  5
250
102
{ACAD_REACTORS
330
241
102
}
330
241
100
AcDbScale
 70
     0
300
8:1
140
8.0
141
1.0
290
     0
  0
SCALE
  5
251
102
{ACAD_REACTORS
330
241
102
}
330
241
100
AcDbScale
 70
     0
300
10:1
140
10.0
141
1.0
290
     0
  0
SCALE
  5
252
102
{ACAD_REACTORS
330
241
102
}
330
241
100
AcDbScale
 70
     0
300
100:1
140
100.0
141
1.0
290
     0
  0
SCALE
  5
253
102
{ACAD_REACTORS
330
241
102
}
330
241
100
AcDbScale
 70
     0
300
1/128" = 1'-0"
140
0.0078125
141
12.0
290
     0
  0
SCALE
  5
254
102
{ACAD_REACTORS
330
241
102
}
330
241
100
AcDbScale
 70
     0
300
1/64" = 1'-0"
140
0.015625
141
12.0
290
     0
  0
SCALE
  5
255
102
{ACAD_REACTORS
330
241
102
}
330
241
100
AcDbScale
 70
     0
300
1/32" = 1'-0"
140
0.03125
141
12.0
290
     0
  0
SCALE
  5
256
102
{ACAD_REACTORS
330
241
102
}
330
241
100
AcDbScale
 70
     0
300
1/16" = 1'-0"
140
0.0625
141
12.0
290
     0
  0
SCALE
  5
257
102
{ACAD_REACTORS
330
241
102
}
330
241
100
AcDbScale
 70
     0
300
3/32" = 1'-0"
140
0.09375
141
12.0
290
     0
  0
SCALE
  5
258
102
{ACAD_REACTORS
330
241
102
}
330
241
100
AcDbScale
 70
     0
300
1/8" = 1'-0"
140
0.125
141
12.0
290
     0
  0
SCALE
  5
259
102
{ACAD_REACTORS
330
241
102
}
330
241
100
AcDbScale
 70
     0
300
3/16" = 1'-0"
140
0.1875
141
12.0
290
     0
  0
SCALE
  5
25A
102
{ACAD_REACTORS
330
241
102
}
330
241
100
AcDbScale
 70
     0
300
1/4" = 1'-0"
140
0.25
141
12.0
290
     0
  0
SCALE
  5
25B
102
{ACAD_REACTORS
330
241
102
}
330
241
100
AcDbScale
 70
     0
300
3/8" = 1'-0"
140
0.375
141
12.0
290
     0
  0
SCALE
  5
25C
102
{ACAD_REACTORS
330
241
102
}
330
241
100
AcDbScale
 70
     0
300
1/2" = 1'-0"
140
0.5
141
12.0
290
     0
  0
SCALE
  5
25D
102
{ACAD_REACTORS
330
241
102
}
330
241
100
AcDbScale
 70
     0
300
3/4" = 1'-0"
140
0.75
141
12.0
290
     0
  0
SCALE
  5
25E
102
{ACAD_REACTORS
330
241
102
}
330
241
100
AcDbScale
 70
     0
300
1" = 1'-0"
140
1.0
141
12.0
290
     0
  0
SCALE
  5
25F
102
{ACAD_REACTORS
330
241
102
}
330
241
100
AcDbScale
 70
     0
300
1-1/2" = 1'-0"
140
1.5
141
12.0
290
     0
  0
SCALE
  5
260
102
{ACAD_REACTORS
330
241
102
}
330
241
100
AcDbScale
 70
     0
300
3" = 1'-0"
140
3.0
141
12.0
290
     0
  0
SCALE
  5
261
102
{ACAD_REACTORS
330
241
102
}
330
241
100
AcDbScale
 70
     0
300
6" = 1'-0"
140
6.0
141
12.0
290
     0
  0
SCALE
  5
262
102
{ACAD_REACTORS
330
241
102
}
330
241
100
AcDbScale
 70
     0
300
1'-0" = 1'-0"
140
12.0
141
12.0
290
     0
  0
TABLESTYLE
  5
279
102
{ACAD_REACTORS
330
278
102
}
102
{ACAD_XDICTIONARY
360
45AF
102
}
330
278
100
AcDbTableStyle
  3
Standard
 70
     0
 71
     0
 40
0.06
 41
0.06
280
     0
281
     0
  7
Standard
140
4.5
170
     2
 62
     0
 63
   257
283
     0
 90
        4
 91
        0
  1

274
    -2
284
     1
 64
     0
275
    -2
285
     1
 65
     0
276
    -2
286
     1
 66
     0
277
    -2
287
     1
 67
     0
278
    -2
288
     1
 68
     0
279
    -2
289
     1
 69
     0
  7
Standard
140
6.0
170
     5
 62
     0
 63
   257
283
     0
 90
        4
 91
        0
  1

274
    -2
284
     1
 64
     0
275
    -2
285
     1
 65
     0
276
    -2
286
     1
 66
     0
277
    -2
287
     1
 67
     0
278
    -2
288
     1
 68
     0
279
    -2
289
     1
 69
     0
  7
Standard
140
4.5
170
     5
 62
     0
 63
   257
283
     0
 90
        4
 91
        0
  1

274
    -2
284
     1
 64
     0
275
    -2
285
     1
 65
     0
276
    -2
286
     1
 66
     0
277
    -2
287
     1
 67
     0
278
    -2
288
     1
 68
     0
279
    -2
289
     1
 69
     0
  0
VISUALSTYLE
  5
26C
102
{ACAD_REACTORS
330
267
102
}
330
267
100
AcDbVisualStyle
  2
2dWireframe
 70
     4
 71
     0
 72
     2
 73
     0
 90
        0
 40
-0.6
 41
-30.0
 62
     5
 63
     7
421
 16777215
 74
     1
 91
        4
 64
     7
 65
   257
 75
     1
175
     1
 42
1.0
 92
        0
 66
   257
 43
1.0
 76
     1
 77
     6
 78
     2
 67
     7
 79
     5
170
     0
171
     0
290
     0
174
     0
 93
        1
 44
0.0
173
     0
291
     0
 45
0.0
  0
VISUALSTYLE
  5
26E
102
{ACAD_REACTORS
330
267
102
}
330
267
100
AcDbVisualStyle
  2
3D Hidden
 70
     6
 71
     1
 72
     2
 73
     2
 90
        0
 40
-0.6
 41
-30.0
 62
     5
 63
     7
421
 16777215
 74
     2
 91
        2
 64
     7
 65
   257
 75
     2
175
     1
 42
40.0
 92
        0
 66
   257
 43
1.0
 76
     1
 77
     6
 78
     2
 67
     7
 79
     3
170
     0
171
     0
290
     0
174
     0
 93
        1
 44
0.0
173
     0
291
     0
 45
0.0
  0
VISUALSTYLE
  5
26D
102
{ACAD_REACTORS
330
267
102
}
330
267
100
AcDbVisualStyle
  2
3dWireframe
 70
     5
 71
     0
 72
     2
 73
     0
 90
        0
 40
-0.6
 41
-30.0
 62
     5
 63
     7
421
 16777215
 74
     1
 91
        4
 64
     7
 65
   257
 75
     1
175
     1
 42
1.0
 92
        0
 66
   257
 43
1.0
 76
     1
 77
     6
 78
     2
 67
     7
 79
     5
170
     0
171
     0
290
     0
174
     0
 93
        1
 44
0.0
173
     0
291
     0
 45
0.0
  0
VISUALSTYLE
  5
26F
102
{ACAD_REACTORS
330
267
102
}
330
267
100
AcDbVisualStyle
  2
Basic
 70
     7
 71
     1
 72
     0
 73
     1
 90
        0
 40
-0.6
 41
-30.0
 62
     5
 63
     7
421
 16777215
 74
     0
 91
        4
 64
     7
 65
   257
 75
     1
175
     1
 42
1.0
 92
        8
 66
     7
 43
1.0
 76
     1
 77
     6
 78
     2
 67
     7
 79
     5
170
     0
171
     0
290
     0
174
     0
 93
        1
 44
0.0
173
     0
291
     1
 45
0.0
  0
VISUALSTYLE
  5
273
102
{ACAD_REACTORS
330
267
102
}
330
267
100
AcDbVisualStyle
  2
Brighten
 70
    12
 71
     2
 72
     2
 73
     0
 90
        0
 40
-0.6
 41
-30.0
 62
     5
 63
     7
421
 16777215
 74
     1
 91
        4
 64
     7
 65
   257
 75
     1
175
     1
 42
1.0
 92
        8
 66
     7
 43
1.0
 76
     1
 77
     6
 78
     2
 67
     7
 79
     5
170
     0
171
     0
290
     0
174
     0
 93
        1
 44
50.0
173
     0
291
     1
 45
0.0
  0
VISUALSTYLE
  5
277
102
{ACAD_REACTORS
330
267
102
}
330
267
100
AcDbVisualStyle
  2
ColorChange
 70
    16
 71
     2
 72
     2
 73
     3
 90
        0
 40
-0.6
 41
-30.0
 62
     5
 63
     8
421
  8421504
 74
     1
 91
        4
 64
     7
 65
   257
 75
     1
175
     1
 42
1.0
 92
        8
 66
     8
424
  8421504
 43
1.0
 76
     1
 77
     6
 78
     2
 67
     7
 79
     5
170
     0
171
     0
290
     0
174
     0
 93
        1
 44
0.0
173
     0
291
     1
 45
0.0
  0
VISUALSTYLE
  5
271
102
{ACAD_REACTORS
330
267
102
}
330
267
100
AcDbVisualStyle
  2
Conceptual
 70
     9
 71
     3
 72
     2
 73
     0
 90
        0
 40
-0.6
 41
-30.0
 62
     5
 63
     7
421
 16777215
 74
     2
 91
        2
 64
     7
 65
   257
 75
     1
175
     1
 42
40.0
 92
        8
 66
     7
 43
1.0
 76
     1
 77
     6
 78
     2
 67
     7
 79
     3
170
     0
171
     0
290
     0
174
     0
 93
        1
 44
0.0
173
     0
291
     0
 45
0.0
  0
VISUALSTYLE
  5
272
102
{ACAD_REACTORS
330
267
102
}
330
267
100
AcDbVisualStyle
  2
Dim
 70
    11
 71
     2
 72
     2
 73
     0
 90
        0
 40
-0.6
 41
-30.0
 62
     5
 63
     7
421
 16777215
 74
     1
 91
        4
 64
     7
 65
   257
 75
     1
175
     1
 42
1.0
 92
        8
 66
     7
 43
1.0
 76
     1
 77
     6
 78
     2
 67
     7
 79
     5
170
     0
171
     0
290
     0
174
     0
 93
        1
 44
-50.0
173
     0
291
     1
 45
0.0
  0
VISUALSTYLE
  5
10E2
102
{ACAD_REACTORS
330
267
102
}
330
267
100
AcDbVisualStyle
  2
EdgeColorOff
 70
    22
 71
     2
 72
     2
 73
     0
 90
        0
 40
0.6
 41
30.0
 62
     5
 63
     7
421
 16777215
 74
     1
 91
        4
 64
     7
 65
   257
 75
     1
175
     1
 42
1.0
 92
        8
 66
     7
 43
1.0
 76
     1
 77
     6
 78
     2
 67
     7
 79
     5
170
     0
171
     0
290
     0
174
     0
 93
        1
 44
0.0
173
     0
291
     1
 45
0.0
  0
VISUALSTYLE
  5
276
102
{ACAD_REACTORS
330
267
102
}
330
267
100
AcDbVisualStyle
  2
Facepattern
 70
    15
 71
     2
 72
     2
 73
     0
 90
        0
 40
-0.6
 41
-30.0
 62
     5
 63
     7
421
 16777215
 74
     1
 91
        4
 64
     7
 65
   257
 75
     1
175
     1
 42
1.0
 92
        8
 66
     7
 43
1.0
 76
     1
 77
     6
 78
     2
 67
     7
 79
     5
170
     0
171
     0
290
     0
174
     0
 93
        1
 44
0.0
173
     0
291
     1
 45
0.0
  0
VISUALSTYLE
  5
268
102
{ACAD_REACTORS
330
267
102
}
330
267
100
AcDbVisualStyle
  2
Flat
 70
     0
 71
     2
 72
     1
 73
     1
 90
        2
 40
-0.6
 41
30.0
 62
     5
 63
     7
421
 16777215
 74
     0
 91
        4
 64
     7
 65
   257
 75
     1
175
     1
 42
1.0
 92
        8
 66
     7
 43
1.0
 76
     1
 77
     6
 78
     2
 67
     7
 79
     5
170
     0
171
     0
290
     0
174
     0
 93
       13
 44
0.0
173
     0
291
     1
 45
0.0
  0
VISUALSTYLE
  5
269
102
{ACAD_REACTORS
330
267
102
}
330
267
100
AcDbVisualStyle
  2
FlatWithEdges
 70
     1
 71
     2
 72
     1
 73
     1
 90
        2
 40
-0.6
 41
30.0
 62
     5
 63
     7
421
 16777215
 74
     1
 91
        4
 64
     7
 65
   257
 75
     1
175
     1
 42
1.0
 92
        0
 66
   257
 43
1.0
 76
     1
 77
     6
 78
     2
 67
     7
 79
     5
170
     0
171
     0
290
     0
174
     0
 93
       13
 44
0.0
173
     0
291
     1
 45
0.0
  0
VISUALSTYLE
  5
26A
102
{ACAD_REACTORS
330
267
102
}
330
267
100
AcDbVisualStyle
  2
Gouraud
 70
     2
 71
     2
 72
     2
 73
     1
 90
        2
 40
-0.6
 41
30.0
 62
     5
 63
     7
421
 16777215
 74
     0
 91
        4
 64
     7
 65
   257
 75
     1
175
     1
 42
1.0
 92
        0
 66
     7
 43
1.0
 76
     1
 77
     6
 78
     2
 67
     7
 79
     5
170
     0
171
     0
290
     0
174
     0
 93
       13
 44
0.0
173
     0
291
     1
 45
0.0
  0
VISUALSTYLE
  5
26B
102
{ACAD_REACTORS
330
267
102
}
330
267
100
AcDbVisualStyle
  2
GouraudWithEdges
 70
     3
 71
     2
 72
     2
 73
     1
 90
        2
 40
-0.6
 41
30.0
 62
     5
 63
     7
421
 16777215
 74
     1
 91
        4
 64
     7
 65
   257
 75
     1
175
     1
 42
1.0
 92
        0
 66
   257
 43
1.0
 76
     1
 77
     6
 78
     2
 67
     7
 79
     5
170
     0
171
     0
290
     0
174
     0
 93
       13
 44
0.0
173
     0
291
     1
 45
0.0
  0
VISUALSTYLE
  5
10DF
102
{ACAD_REACTORS
330
267
102
}
330
267
100
AcDbVisualStyle
  2
Hidden
 70
     6
 71
     1
 72
     2
 73
     2
 90
        0
 40
0.6
 41
30.0
 62
     5
 63
     7
421
 16777215
 74
     2
 91
        2
 64
     7
 65
   257
 75
     2
175
     1
 42
40.0
 92
        0
 66
   257
 43
1.0
 76
     1
 77
     6
 78
     2
 67
     7
 79
     3
170
     0
171
     0
290
     0
174
     0
 93
        1
 44
0.0
173
     0
291
     0
 45
0.0
  0
VISUALSTYLE
  5
10E0
102
{ACAD_REACTORS
330
267
102
}
330
267
100
AcDbVisualStyle
  2
JitterOff
 70
    20
 71
     2
 72
     2
 73
     0
 90
        0
 40
0.6
 41
30.0
 62
     5
 63
     7
421
 16777215
 74
     1
 91
        4
 64
     7
 65
   257
 75
     1
175
     1
 42
1.0
 92
       10
 66
     7
 43
1.0
 76
     1
 77
     6
 78
     2
 67
     7
 79
     5
170
     0
171
     0
290
     0
174
     0
 93
        1
 44
0.0
173
     0
291
     1
 45
0.0
  0
VISUALSTYLE
  5
275
102
{ACAD_REACTORS
330
267
102
}
330
267
100
AcDbVisualStyle
  2
Linepattern
 70
    14
 71
     2
 72
     2
 73
     0
 90
        0
 40
-0.6
 41
-30.0
 62
     5
 63
     7
421
 16777215
 74
     1
 91
        4
 64
     7
 65
   257
 75
     7
175
     7
 42
1.0
 92
        8
 66
     7
 43
1.0
 76
     1
 77
     6
 78
     2
 67
     7
 79
     5
170
     0
171
     0
290
     0
174
     0
 93
        1
 44
0.0
173
     0
291
     1
 45
0.0
  0
VISUALSTYLE
  5
10E1
102
{ACAD_REACTORS
330
267
102
}
330
267
100
AcDbVisualStyle
  2
OverhangOff
 70
    21
 71
     2
 72
     2
 73
     0
 90
        0
 40
0.6
 41
30.0
 62
     5
 63
     7
421
 16777215
 74
     1
 91
        4
 64
     7
 65
   257
 75
     1
175
     1
 42
1.0
 92
        9
 66
     7
 43
1.0
 76
     1
 77
     6
 78
     2
 67
     7
 79
     5
170
     0
171
     0
290
     0
174
     0
 93
        1
 44
0.0
173
     0
291
     1
 45
0.0
  0
VISUALSTYLE
  5
270
102
{ACAD_REACTORS
330
267
102
}
330
267
100
AcDbVisualStyle
  2
Realistic
 70
     8
 71
     2
 72
     2
 73
     0
 90
        0
 40
-0.6
 41
-30.0
 62
     5
 63
     7
421
 16777215
 74
     1
 91
        0
 64
     7
 65
   257
 75
     1
175
     1
 42
1.0
 92
        8
 66
     8
424
  7895160
 43
1.0
 76
     1
 77
     6
 78
     2
 67
     7
 79
     5
170
     0
171
     0
290
     0
174
     0
 93
       13
 44
0.0
173
     0
291
     0
 45
0.0
  0
VISUALSTYLE
  5
10E7
102
{ACAD_REACTORS
330
267
102
}
330
267
100
AcDbVisualStyle
  2
Shaded
 70
    27
 71
     2
 72
     2
 73
     1
 90
        2
 40
0.6
 41
30.0
 62
     5
 63
     7
421
 16777215
 74
     0
 91
        4
 64
     7
 65
   257
 75
     1
175
     1
 42
1.0
 92
        8
 66
   257
 43
1.0
 76
     1
 77
     6
 78
     2
 67
     8
425
  7895160
 79
     3
170
     0
171
     0
290
     0
174
     0
 93
        5
 44
0.0
173
     0
291
     0
 45
0.0
  0
VISUALSTYLE
  5
10E6
102
{ACAD_REACTORS
330
267
102
}
330
267
100
AcDbVisualStyle
  2
Shaded with edges
 70
    26
 71
     2
 72
     2
 73
     1
 90
        2
 40
0.6
 41
30.0
 62
     5
 63
     7
421
 16777215
 74
     1
 91
       10
 64
     7
 65
   257
 75
     2
175
     1
 42
1.0
 92
        8
 66
   257
 43
1.0
 76
     1
 77
     6
 78
     2
 67
     7
 79
     3
170
     0
171
     0
290
     0
174
     0
 93
        5
 44
0.0
173
     0
291
     0
 45
0.0
  0
VISUALSTYLE
  5
10E3
102
{ACAD_REACTORS
330
267
102
}
330
267
100
AcDbVisualStyle
  2
Shades of Gray
 70
    23
 71
     2
 72
     2
 73
     3
 90
        0
 40
0.6
 41
30.0
 62
     5
 63
     7
421
 16777215
 74
     2
 91
        2
 64
     7
 65
     7
 75
     1
175
     1
 42
40.0
 92
        8
 66
     7
 43
1.0
 76
     1
 77
     6
 78
     2
 67
     7
 79
     3
170
     0
171
     0
290
     0
174
     0
 93
        1
 44
0.0
173
     0
291
     0
 45
0.0
  0
VISUALSTYLE
  5
10E4
102
{ACAD_REACTORS
330
267
102
}
330
267
100
AcDbVisualStyle
  2
Sketchy
 70
    24
 71
     1
 72
     2
 73
     2
 90
        0
 40
0.6
 41
30.0
 62
     5
 63
     7
421
 16777215
 74
     2
 91
        2
 64
     7
 65
     7
 75
     1
175
     1
 42
40.0
 92
       11
 66
     7
 43
1.0
 76
     1
 77
     6
 78
     2
 67
     7
 79
     6
170
     0
171
     0
290
     0
174
     0
 93
        1
 44
0.0
173
     0
291
     0
 45
0.0
  0
VISUALSTYLE
  5
274
102
{ACAD_REACTORS
330
267
102
}
330
267
100
AcDbVisualStyle
  2
Thicken
 70
    13
 71
     2
 72
     2
 73
     0
 90
        0
 40
-0.6
 41
-30.0
 62
     5
 63
     7
421
 16777215
 74
     1
 91
        4
 64
     7
 65
   257
 75
     1
175
     1
 42
1.0
 92
       12
 66
     7
 43
1.0
 76
     1
 77
     6
 78
     2
 67
     7
 79
     5
170
     0
171
     0
290
     0
174
     0
 93
        1
 44
0.0
173
     0
291
     1
 45
0.0
  0
VISUALSTYLE
  5
10DE
102
{ACAD_REACTORS
330
267
102
}
330
267
100
AcDbVisualStyle
  2
Wireframe
 70
     5
 71
     0
 72
     2
 73
     0
 90
        0
 40
0.6
 41
30.0
 62
     5
 63
     7
421
 16777215
 74
     1
 91
        4
 64
     7
 65
   257
 75
     1
175
     1
 42
1.0
 92
        0
 66
   257
 43
1.0
 76
     1
 77
     6
 78
     2
 67
     7
 79
     3
170
     0
171
     0
290
     0
174
     0
 93
        1
 44
0.0
173
     0
291
     0
 45
0.0
  0
VISUALSTYLE
  5
10E5
102
{ACAD_REACTORS
330
267
102
}
330
267
100
AcDbVisualStyle
  2
X-Ray
 70
    25
 71
     2
 72
     2
 73
     1
 90
        1
 40
0.5
 41
30.0
 62
     5
 63
     7
421
 16777215
 74
     1
 91
        0
 64
     7
 65
   257
 75
     1
175
     1
 42
1.0
 92
        8
 66
     7
 43
1.0
 76
     1
 77
     6
 78
     2
 67
     7
 79
     3
170
     0
171
     0
290
     0
174
     0
 93
       13
 44
0.0
173
     0
291
     0
 45
0.0
  0
DICTIONARYVAR
  5
331
102
{ACAD_REACTORS
330
330
102
}
330
330
100
DictionaryVariables
280
     0
  1
1:1
  0
DICTIONARYVAR
  5
403B
102
{ACAD_REACTORS
330
330
102
}
330
330
100
DictionaryVariables
280
     0
  1
Standard
  0
DICTIONARYVAR
  5
335
102
{ACAD_REACTORS
330
330
102
}
330
330
100
DictionaryVariables
280
     0
  1
Standard
  0
DICTIONARYVAR
  5
42BD
102
{ACAD_REACTORS
330
330
102
}
330
330
100
DictionaryVariables
280
     0
  1
ByLayer
  0
DICTIONARYVAR
  5
109E
102
{ACAD_REACTORS
330
330
102
}
330
330
100
DictionaryVariables
280
     0
  1
0
  0
DICTIONARYVAR
  5
42C1
102
{ACAD_REACTORS
330
42BE
102
}
330
42BE
100
DictionaryVariables
280
     0
  1
0.261799
  0
DICTIONARYVAR
  5
42BF
102
{ACAD_REACTORS
330
42BE
102
}
330
42BE
100
DictionaryVariables
280
     0
  1
0.400000
  0
DICTIONARYVAR
  5
42C0
102
{ACAD_REACTORS
330
42BE
102
}
330
42BE
100
DictionaryVariables
280
     0
  1
0.250000
  0
DICTIONARYVAR
  5
42C2
102
{ACAD_REACTORS
330
42BE
102
}
330
42BE
100
DictionaryVariables
280
     0
  1
1
  0
XRECORD
  5
10DB
102
{ACAD_REACTORS
330
2E2
102
}
330
2E2
100
AcDbXrecord
280
     1
 91
    34815
301

290
     0
302
TFORMLOGO
330
14
 90
        8
 62
     7
370
    -3
331
13
  1
Color_7
440
 33554687
330
4A
 90
        0
 62
     7
370
    -3
331
13
  1
Color_7
440
 33554687
330
12CE
 90
        8
 62
     7
370
    13
331
13
  1
Color_7
440
 33554687
330
12CF
 90
        8
 62
     7
370
    20
331
13
  1
Color_7
440
 33554687
330
142A
 90
        8
 62
     7
370
    20
331
13
  1
Color_7
440
 33554687
330
1D5C
 90
        8
 62
     7
370
    20
331
13
  1
Color_7
440
 33554687
330
3848
 90
        9
 62
     4
370
    -3
331
13
  1
Color_4
440
 33554687
330
387B
 90
        8
 62
     7
370
    -3
331
13
  1
Color_7
440
 33554687
  0
XRECORD
  5
DEA
102
{ACAD_REACTORS
330
2E2
102
}
330
2E2
100
AcDbXrecord
280
     1
 91
     1023
301

290
     0
302
テンプレート
330
14
 90
        8
 62
     7
370
    -3
331
13
  1
Color_7
330
4A
 90
        0
 62
     7
370
    -3
331
13
  1
Color_7
330
0
 90
        8
 62
     7
370
     9
331
13
  1
Color_7
330
12CE
 90
        9
 62
     7
370
    13
331
13
  1
Color_7
330
12CF
 90
        8
 62
     7
370
    20
331
13
  1
Color_7
330
142A
 90
        8
 62
     7
370
    20
331
13
  1
Color_7
330
0
 90
        8
 62
     7
370
    -3
331
13
  1
Color_7
330
0
 90
        8
 62
     7
370
    -3
331
13
  1
Color_7
330
0
 90
        8
 62
     7
370
    -3
331
13
  1
Color_7
330
0
 90
        8
 62
     7
370
    -3
331
13
  1
Color_7
  0
XRECORD
  5
C70
102
{ACAD_REACTORS
330
2E2
102
}
330
2E2
100
AcDbXrecord
280
     1
 91
     1023
301

290
     0
302
Defpoints
330
14
 90
        8
 62
     7
370
    -3
331
13
  1
Color_7
330
4A
 90
        0
 62
     7
370
    -3
331
13
  1
Color_7
330
0
 90
        8
 62
     7
370
    -3
331
13
  1
Color_7
330
0
 90
        8
 62
     7
370
    -3
331
13
  1
Color_7
330
0
 90
        8
 62
     7
370
    -3
331
13
  1
Color_7
330
0
 90
       12
 62
     7
370
    -3
331
13
  1
Color_7
330
0
 90
        8
 62
     7
370
    -3
331
13
  1
Color_7
  0
XRECORD
  5
7AA
102
{ACAD_REACTORS
330
2E2
102
}
330
2E2
100
AcDbXrecord
280
     1
 91
     1023
301

290
     0
302
レイヤー 1
330
14
 90
        9
 62
     7
370
    -3
331
13
  1
Color_7
330
4A
 90
        1
 62
     7
370
    -3
331
13
  1
Color_7
330
0
 90
        8
 62
     7
370
    -3
331
13
  1
Color_7
330
0
 90
        9
 62
     7
370
    -3
331
13
  1
Color_7
330
0
 90
        9
 62
     7
370
    -3
331
13
  1
Color_7
330
0
 90
       13
 62
     7
370
    -3
331
13
  1
Color_7
330
0
 90
        9
 62
     7
370
    -3
331
13
  1
Color_7
330
0
 90
        9
 62
     7
370
    -3
331
13
  1
Color_7
330
0
 90
        9
 62
     7
370
    -3
331
13
  1
Color_7
330
0
 90
        9
 62
     7
370
    -3
331
13
  1
Color_7
330
0
 90
        9
 62
     7
370
    -3
331
13
  1
Color_7
330
0
 90
        8
 62
     7
370
    -3
331
13
  1
Color_7
  0
DICTIONARY
  5
45AF
330
279
100
AcDbDictionary
280
     1
281
     1
  3
ACAD_ROUNDTRIP_2008_TABLESTYLE_CELLSTYLEMAP
360
45B0
  0
CELLSTYLEMAP
  5
45B0
102
{ACAD_REACTORS
330
45AF
102
}
330
45AF
100
AcDbCellStyleMap
 90
        3
300
CELLSTYLE
  1
TABLEFORMAT_BEGIN
 90
        5
170
     1
 91
        0
 92
    32768
 62
   257
 93
        1
300
CONTENTFORMAT
  1
CONTENTFORMAT_BEGIN
 90
        0
 91
        0
 92
        4
 93
        0
300

 40
0.0
140
1.0
 94
        5
 62
     0
340
17
144
6.0
309
CONTENTFORMAT_END
171
     1
301
MARGIN
  1
CELLMARGIN_BEGIN
 40
0.06
 40
0.06
 40
0.06
 40
0.06
 40
0.18
 40
0.18
309
CELLMARGIN_END
 94
        6
 95
        1
302
GRIDFORMAT
  1
GRIDFORMAT_BEGIN
 90
        0
 91
        1
 62
     0
 92
       -2
340
0
 93
        0
 40
0.045
309
GRIDFORMAT_END
 95
        2
302
GRIDFORMAT
  1
GRIDFORMAT_BEGIN
 90
        0
 91
        1
 62
     0
 92
       -2
340
0
 93
        0
 40
0.045
309
GRIDFORMAT_END
 95
        4
302
GRIDFORMAT
  1
GRIDFORMAT_BEGIN
 90
        0
 91
        1
 62
     0
 92
       -2
340
0
 93
        0
 40
0.045
309
GRIDFORMAT_END
 95
        8
302
GRIDFORMAT
  1
GRIDFORMAT_BEGIN
 90
        0
 91
        1
 62
     0
 92
       -2
340
0
 93
        0
 40
0.045
309
GRIDFORMAT_END
 95
       16
302
GRIDFORMAT
  1
GRIDFORMAT_BEGIN
 90
        0
 91
        1
 62
     0
 92
       -2
340
0
 93
        0
 40
0.045
309
GRIDFORMAT_END
 95
       32
302
GRIDFORMAT
  1
GRIDFORMAT_BEGIN
 90
        0
 91
        1
 62
     0
 92
       -2
340
0
 93
        0
 40
0.045
309
GRIDFORMAT_END
309
TABLEFORMAT_END
  1
CELLSTYLE_BEGIN
 90
        1
 91
        1
300
_TITLE
309
CELLSTYLE_END
300
CELLSTYLE
  1
TABLEFORMAT_BEGIN
 90
        5
170
     1
 91
        0
 92
        0
 62
   257
 93
        1
300
CONTENTFORMAT
  1
CONTENTFORMAT_BEGIN
 90
        0
 91
        0
 92
        4
 93
        0
300

 40
0.0
140
1.0
 94
        5
 62
     0
340
17
144
4.5
309
CONTENTFORMAT_END
171
     1
301
MARGIN
  1
CELLMARGIN_BEGIN
 40
0.06
 40
0.06
 40
0.06
 40
0.06
 40
0.18
 40
0.18
309
CELLMARGIN_END
 94
        6
 95
        1
302
GRIDFORMAT
  1
GRIDFORMAT_BEGIN
 90
        0
 91
        1
 62
     0
 92
       -2
340
0
 93
        0
 40
0.045
309
GRIDFORMAT_END
 95
        2
302
GRIDFORMAT
  1
GRIDFORMAT_BEGIN
 90
        0
 91
        1
 62
     0
 92
       -2
340
0
 93
        0
 40
0.045
309
GRIDFORMAT_END
 95
        4
302
GRIDFORMAT
  1
GRIDFORMAT_BEGIN
 90
        0
 91
        1
 62
     0
 92
       -2
340
0
 93
        0
 40
0.045
309
GRIDFORMAT_END
 95
        8
302
GRIDFORMAT
  1
GRIDFORMAT_BEGIN
 90
        0
 91
        1
 62
     0
 92
       -2
340
0
 93
        0
 40
0.045
309
GRIDFORMAT_END
 95
       16
302
GRIDFORMAT
  1
GRIDFORMAT_BEGIN
 90
        0
 91
        1
 62
     0
 92
       -2
340
0
 93
        0
 40
0.045
309
GRIDFORMAT_END
 95
       32
302
GRIDFORMAT
  1
GRIDFORMAT_BEGIN
 90
        0
 91
        1
 62
     0
 92
       -2
340
0
 93
        0
 40
0.045
309
GRIDFORMAT_END
309
TABLEFORMAT_END
  1
CELLSTYLE_BEGIN
 90
        2
 91
        1
300
_HEADER
309
CELLSTYLE_END
300
CELLSTYLE
  1
TABLEFORMAT_BEGIN
 90
        5
170
     1
 91
        0
 92
        0
 62
   257
 93
        1
300
CONTENTFORMAT
  1
CONTENTFORMAT_BEGIN
 90
        0
 91
        0
 92
        4
 93
        0
300

 40
0.0
140
1.0
 94
        2
 62
     0
340
17
144
4.5
309
CONTENTFORMAT_END
171
     1
301
MARGIN
  1
CELLMARGIN_BEGIN
 40
0.06
 40
0.06
 40
0.06
 40
0.06
 40
0.18
 40
0.18
309
CELLMARGIN_END
 94
        6
 95
        1
302
GRIDFORMAT
  1
GRIDFORMAT_BEGIN
 90
        0
 91
        1
 62
     0
 92
       -2
340
0
 93
        0
 40
0.045
309
GRIDFORMAT_END
 95
        2
302
GRIDFORMAT
  1
GRIDFORMAT_BEGIN
 90
        0
 91
        1
 62
     0
 92
       -2
340
0
 93
        0
 40
0.045
309
GRIDFORMAT_END
 95
        4
302
GRIDFORMAT
  1
GRIDFORMAT_BEGIN
 90
        0
 91
        1
 62
     0
 92
       -2
340
0
 93
        0
 40
0.045
309
GRIDFORMAT_END
 95
        8
302
GRIDFORMAT
  1
GRIDFORMAT_BEGIN
 90
        0
 91
        1
 62
     0
 92
       -2
340
0
 93
        0
 40
0.045
309
GRIDFORMAT_END
 95
       16
302
GRIDFORMAT
  1
GRIDFORMAT_BEGIN
 90
        0
 91
        1
 62
     0
 92
       -2
340
0
 93
        0
 40
0.045
309
GRIDFORMAT_END
 95
       32
302
GRIDFORMAT
  1
GRIDFORMAT_BEGIN
 90
        0
 91
        1
 62
     0
 92
       -2
340
0
 93
        0
 40
0.045
309
GRIDFORMAT_END
309
TABLEFORMAT_END
  1
CELLSTYLE_BEGIN
 90
        3
 91
        2
300
_DATA
309
CELLSTYLE_END
  0
ENDSEC
  0
EOF
