  0
SECTION
  2
HEADER
  9
$ACADVER
  1
AC1021
  9
$ACADMAINTVER
 70
    25
  9
$DWGCODEPAGE
  3
ANSI_932
  9
$LASTSAVEDBY
  1
howeNelson
  9
$INSBASE
 10
0.0
 20
0.0
 30
0.0
  9
$EXTMIN
 10
0.0
 20
0.0
 30
-0.0000000000000018
  9
$EXTMAX
 10
1260.0
 20
1782.0
 30
0.0000000000000036
  9
$LIMMIN
 10
0.0
 20
0.0
  9
$LIMMAX
 10
1260.0
 20
1782.0
  9
$ORTHOMODE
 70
     0
  9
$REGENMODE
 70
     1
  9
$FILLMODE
 70
     1
  9
$QTEXTMODE
 70
     0
  9
$MIRRTEXT
 70
     1
  9
$LTSCALE
 40
1.0
  9
$ATTMODE
 70
     1
  9
$TEXTSIZE
 40
2.5
  9
$TRACEWID
 40
1.0
  9
$TEXTSTYLE
  7
ＭＳ ゴシック
  9
$CLAYER
  8
DIM
  9
$CELTYPE
  6
ByLayer
  9
$CECOLOR
 62
   256
  9
$CELTSCALE
 40
0.05
  9
$DISPSILH
 70
     0
  9
$DIMSCALE
 40
1.0
  9
$DIMASZ
 40
4.0
  9
$DIMEXO
 40
20.0
  9
$DIMDLI
 40
0.9999999999999999
  9
$DIMRND
 40
0.0
  9
$DIMDLE
 40
0.0
  9
$DIMEXE
 40
0.0
  9
$DIMTP
 40
0.0
  9
$DIMTM
 40
0.0
  9
$DIMTXT
 40
14.0
  9
$DIMCEN
 40
0.0
  9
$DIMTSZ
 40
0.0
  9
$DIMTOL
 70
     0
  9
$DIMLIM
 70
     0
  9
$DIMTIH
 70
     0
  9
$DIMTOH
 70
     0
  9
$DIMSE1
 70
     0
  9
$DIMSE2
 70
     0
  9
$DIMTAD
 70
     1
  9
$DIMZIN
 70
    11
  9
$DIMBLK
  1
DOT
  9
$DIMASO
 70
     1
  9
$DIMSHO
 70
     1
  9
$DIMPOST
  1
<>
  9
$DIMAPOST
  1
[]
  9
$DIMALT
 70
     0
  9
$DIMALTD
 70
     1
  9
$DIMALTF
 40
1.0
  9
$DIMLFAC
 40
1.0
  9
$DIMTOFL
 70
     0
  9
$DIMTVP
 40
0.0
  9
$DIMTIX
 70
     1
  9
$DIMSOXD
 70
     0
  9
$DIMSAH
 70
     0
  9
$DIMBLK1
  1

  9
$DIMBLK2
  1

  9
$DIMSTYLE
  2
tfrom線あり
  9
$DIMCLRD
 70
     0
  9
$DIMCLRE
 70
     0
  9
$DIMCLRT
 70
     0
  9
$DIMTFAC
 40
1.0
  9
$DIMGAP
 40
9.0
  9
$DIMJUST
 70
     0
  9
$DIMSD1
 70
     0
  9
$DIMSD2
 70
     0
  9
$DIMTOLJ
 70
     1
  9
$DIMTZIN
 70
    11
  9
$DIMALTZ
 70
    11
  9
$DIMALTTZ
 70
    11
  9
$DIMUPT
 70
     0
  9
$DIMDEC
 70
     0
  9
$DIMTDEC
 70
     1
  9
$DIMALTU
 70
     2
  9
$DIMALTTD
 70
     2
  9
$DIMTXSTY
  7
ＭＳ ゴシック
  9
$DIMAUNIT
 70
     0
  9
$DIMADEC
 70
     2
  9
$DIMALTRND
 40
0.0
  9
$DIMAZIN
 70
     0
  9
$DIMDSEP
 70
    46
  9
$DIMATFIT
 70
     0
  9
$DIMFRAC
 70
     2
  9
$DIMLDRBLK
  1
DOT
  9
$DIMLUNIT
 70
     2
  9
$DIMLWD
 70
    -2
  9
$DIMLWE
 70
    -2
  9
$DIMTMOVE
 70
     0
  9
$DIMFXL
 40
1.0
  9
$DIMFXLON
 70
     0
  9
$DIMJOGANG
 40
0.7853981633974483
  9
$DIMTFILL
 70
     0
  9
$DIMTFILLCLR
 70
     0
  9
$DIMARCSYM
 70
     0
  9
$DIMLTYPE
  6

  9
$DIMLTEX1
  6

  9
$DIMLTEX2
  6

  9
$LUNITS
 70
     2
  9
$LUPREC
 70
     0
  9
$SKETCHINC
 40
0.1
  9
$FILLETRAD
 40
0.0
  9
$AUNITS
 70
     0
  9
$AUPREC
 70
     0
  9
$MENU
  1
acad
  9
$ELEVATION
 40
0.0
  9
$PELEVATION
 40
0.0
  9
$THICKNESS
 40
0.0
  9
$LIMCHECK
 70
     0
  9
$CHAMFERA
 40
0.0
  9
$CHAMFERB
 40
0.0
  9
$CHAMFERC
 40
0.0
  9
$CHAMFERD
 40
0.0
  9
$SKPOLY
 70
     0
  9
$TDCREATE
 40
2447893.375
  9
$TDUCREATE
 40
0.0
  9
$TDUPDATE
 40
2457767.414831956
  9
$TDUUPDATE
 40
2457767.039831956
  9
$TDINDWG
 40
0.3085915972
  9
$TDUSRTIMER
 40
2457767.039724387
  9
$USRTIMER
 70
     1
  9
$ANGBASE
 50
0.0
  9
$ANGDIR
 70
     0
  9
$PDMODE
 70
     1
  9
$PDSIZE
 40
-2.0
  9
$PLINEWID
 40
0.0
  9
$SPLFRAME
 70
     0
  9
$SPLINETYPE
 70
     6
  9
$SPLINESEGS
 70
     8
  9
$HANDSEED
  5
1C8D
  9
$SURFTAB1
 70
     6
  9
$SURFTAB2
 70
     6
  9
$SURFTYPE
 70
     6
  9
$SURFU
 70
     6
  9
$SURFV
 70
     6
  9
$UCSBASE
  2

  9
$UCSNAME
  2

  9
$UCSORG
 10
0.0
 20
0.0
 30
0.0
  9
$UCSXDIR
 10
1.0
 20
0.0
 30
0.0
  9
$UCSYDIR
 10
0.0
 20
1.0
 30
0.0
  9
$UCSORTHOREF
  2

  9
$UCSORTHOVIEW
 70
     1
  9
$UCSORGTOP
 10
0.0
 20
0.0
 30
0.0
  9
$UCSORGBOTTOM
 10
0.0
 20
0.0
 30
0.0
  9
$UCSORGLEFT
 10
0.0
 20
0.0
 30
0.0
  9
$UCSORGRIGHT
 10
0.0
 20
0.0
 30
0.0
  9
$UCSORGFRONT
 10
0.0
 20
0.0
 30
0.0
  9
$UCSORGBACK
 10
0.0
 20
0.0
 30
0.0
  9
$PUCSBASE
  2

  9
$PUCSNAME
  2

  9
$PUCSORG
 10
0.0
 20
0.0
 30
0.0
  9
$PUCSXDIR
 10
1.0
 20
0.0
 30
0.0
  9
$PUCSYDIR
 10
0.0
 20
1.0
 30
0.0
  9
$PUCSORTHOREF
  2

  9
$PUCSORTHOVIEW
 70
     0
  9
$PUCSORGTOP
 10
0.0
 20
0.0
 30
0.0
  9
$PUCSORGBOTTOM
 10
0.0
 20
0.0
 30
0.0
  9
$PUCSORGLEFT
 10
0.0
 20
0.0
 30
0.0
  9
$PUCSORGRIGHT
 10
0.0
 20
0.0
 30
0.0
  9
$PUCSORGFRONT
 10
0.0
 20
0.0
 30
0.0
  9
$PUCSORGBACK
 10
0.0
 20
0.0
 30
0.0
  9
$USERI1
 70
     0
  9
$USERI2
 70
     0
  9
$USERI3
 70
     0
  9
$USERI4
 70
     0
  9
$USERI5
 70
     0
  9
$USERR1
 40
0.0
  9
$USERR2
 40
0.0
  9
$USERR3
 40
0.0
  9
$USERR4
 40
0.0
  9
$USERR5
 40
0.0
  9
$WORLDVIEW
 70
     1
  9
$SHADEDGE
 70
     3
  9
$SHADEDIF
 70
    70
  9
$TILEMODE
 70
     1
  9
$MAXACTVP
 70
    64
  9
$PINSBASE
 10
0.0
 20
0.0
 30
0.0
  9
$PLIMCHECK
 70
     0
  9
$PEXTMIN
 10
0.0
 20
0.0
 30
0.0
  9
$PEXTMAX
 10
0.0
 20
0.0
 30
0.0
  9
$PLIMMIN
 10
-95.87226993865028
 20
-25.69999999999999
  9
$PLIMMAX
 10
201.1277300613497
 20
184.3
  9
$UNITMODE
 70
     0
  9
$VISRETAIN
 70
     0
  9
$PLINEGEN
 70
     1
  9
$PSLTSCALE
 70
     0
  9
$TREEDEPTH
 70
  3020
  9
$CMLSTYLE
  2
Standard
  9
$CMLJUST
 70
     0
  9
$CMLSCALE
 40
1.0
  9
$PROXYGRAPHICS
 70
     0
  9
$MEASUREMENT
 70
     1
  9
$CELWEIGHT
370
    -1
  9
$ENDCAPS
280
     0
  9
$JOINSTYLE
280
     0
  9
$LWDISPLAY
290
     1
  9
$INSUNITS
 70
     4
  9
$HYPERLINKBASE
  1

  9
$STYLESHEET
  1

  9
$XEDIT
290
     1
  9
$CEPSNTYPE
380
     0
  9
$PSTYLEMODE
290
     1
  9
$FINGERPRINTGUID
  2

  9
$VERSIONGUID
  2

  9
$EXTNAMES
290
     1
  9
$PSVPSCALE
 40
0.0
  9
$OLESTARTUP
290
     0
  9
$SORTENTS
280
   127
  9
$INDEXCTL
280
     0
  9
$HIDETEXT
280
     1
  9
$XCLIPFRAME
290
     0
  9
$HALOGAP
280
     0
  9
$OBSCOLOR
 70
   257
  9
$OBSLTYPE
280
     0
  9
$INTERSECTIONDISPLAY
280
     0
  9
$INTERSECTIONCOLOR
 70
   257
  9
$DIMASSOC
280
     2
  9
$PROJECTNAME
  1

  9
$CAMERADISPLAY
290
     0
  9
$LENSLENGTH
 40
50.0
  9
$CAMERAHEIGHT
 40
0.0
  9
$STEPSPERSEC
 40
2.0
  9
$STEPSIZE
 40
6.0
  9
$3DDWFPREC
 40
2.0
  9
$PSOLWIDTH
 40
0.25
  9
$PSOLHEIGHT
 40
4.0
  9
$LOFTANG1
 40
1.570796326794897
  9
$LOFTANG2
 40
1.570796326794897
  9
$LOFTMAG1
 40
0.0
  9
$LOFTMAG2
 40
0.0
  9
$LOFTPARAM
 70
     7
  9
$LOFTNORMALS
280
     1
  9
$LATITUDE
 40
37.795
  9
$LONGITUDE
 40
-122.394
  9
$NORTHDIRECTION
 40
0.0
  9
$TIMEZONE
 70
 -8000
  9
$LIGHTGLYPHDISPLAY
280
     1
  9
$TILEMODELIGHTSYNCH
280
     1
  9
$SOLIDHIST
280
     1
  9
$SHOWHIST
280
     1
  9
$DWFFRAME
280
     2
  9
$DGNFRAME
280
     2
  9
$REALWORLDSCALE
290
     1
  9
$INTERFERECOLOR
 62
   256
  9
$CSHADOW
280
     0
  9
$SHADOWPLANELOCATION
 40
0.0
  0
ENDSEC
  0
SECTION
  2
CLASSES
  0
CLASS
  1
LWPOLYLINE
  2
AcDbPolyline
  3
ObjectDBX Classes
 90
        0
 91
        1
280
     0
281
     1
  0
CLASS
  1
IMAGE
  2
AcDbRasterImage
  3
ISM
 90
      127
 91
        6
280
     0
281
     1
  0
CLASS
  1
OLE2FRAME
  2
AcDbOle2Frame
  3
ObjectDBX Classes
 90
        0
 91
        1
280
     0
281
     1
  0
CLASS
  1
HATCH
  2
AcDbHatch
  3
ObjectDBX Classes
 90
        0
 91
        1
280
     0
281
     1
  0
CLASS
  1
DICTIONARYVAR
  2
AcDbDictionaryVar
  3
ObjectDBX Classes
 90
        0
 91
        5
280
     0
281
     0
  0
CLASS
  1
RASTERVARIABLES
  2
AcDbRasterVariables
  3
ISM
 90
        0
 91
        5
280
     0
281
     0
  0
CLASS
  1
IMAGEDEF
  2
AcDbRasterImageDef
  3
ISM
 90
        0
 91
        5
280
     0
281
     0
  0
CLASS
  1
IMAGEDEF_REACTOR
  2
AcDbRasterImageDefReactor
  3
ISM
 90
        1
 91
        5
280
     0
281
     0
  0
CLASS
  1
IDBUFFER
  2
AcDbIdBuffer
  3
ObjectDBX Classes
 90
        0
 91
        5
280
     0
281
     0
  0
CLASS
  1
SPATIAL_FILTER
  2
AcDbSpatialFilter
  3
ObjectDBX Classes
 90
        0
 91
        5
280
     0
281
     0
  0
CLASS
  1
XRECORD
  2
AcDbXrecord
  3
ObjectDBX Classes
 90
        0
 91
        1
280
     0
281
     0
  0
CLASS
  1
SORTENTSTABLE
  2
AcDbSortentsTable
  3
ObjectDBX Classes
 90
        0
 91
        5
280
     0
281
     0
  0
CLASS
  1
LAYER_INDEX
  2
AcDbLayerIndex
  3
ObjectDBX Classes
 90
        0
 91
        5
280
     0
281
     0
  0
CLASS
  1
SPATIAL_INDEX
  2
AcDbSpatialIndex
  3
AutoCAD 2000
 90
        0
 91
        5
280
     0
281
     0
  0
CLASS
  1
OBJECT_PTR
  2
CAseDLPNTableRecord
  3
ASE-LPNTableRecord
 90
        1
 91
        5
280
     0
281
     0
  0
CLASS
  1
LAYOUT
  2
AcDbLayout
  3
ObjectDBX Classes
 90
        0
 91
        1
280
     0
281
     0
  0
CLASS
  1
PLOTSETTINGS
  2
AcDbPlotSettings
  3
ObjectDBX Classes
 90
        0
 91
        5
280
     0
281
     0
  0
CLASS
  1
ACDBDICTIONARYWDFLT
  2
AcDbDictionaryWithDefault
  3
ObjectDBX Classes
 90
        0
 91
        5
280
     0
281
     0
  0
CLASS
  1
ACDBPLACEHOLDER
  2
AcDbPlaceHolder
  3
ObjectDBX Classes
 90
        0
 91
        1
280
     0
281
     0
  0
CLASS
  1
SCALE
  2
AcDbScale
  3
ObjectDBX Classes
 90
     1153
 91
        5
280
     0
281
     0
  0
CLASS
  1
MATERIAL
  2
AcDbMaterial
  3
ObjectDBX Classes
 90
     1153
 91
        5
280
     0
281
     0
  0
CLASS
  1
VISUALSTYLE
  2
AcDbVisualStyle
  3
ObjectDBX Classes
 90
     4095
 91
        5
280
     0
281
     0
  0
CLASS
  1
TABLESTYLE
  2
AcDbTableStyle
  3
ObjectDBX Classes
 90
     4095
 91
        5
280
     0
281
     0
  0
CLASS
  1
DIMASSOC
  2
AcDbDimAssoc
  3
"AcDbDimAssoc|Product Desc:     AcDim ARX App For Dimension|Company:          Autodesk, Inc.|WEB Address:      www.autodesk.com"
 90
        0
 91
        5
280
     0
281
     0
  0
CLASS
  1
CELLSTYLEMAP
  2
AcDbCellStyleMap
  3
ObjectDBX Classes
 90
     1152
 91
        5
280
     0
281
     0
  0
CLASS
  1
SUN
  2
AcDbSun
  3
SCENEOE
 90
     1153
 91
        5
280
     0
281
     0
  0
CLASS
  1
MLEADERSTYLE
  2
AcDbMLeaderStyle
  3
ACDB_MLEADERSTYLE_CLASS
 90
     4095
 91
        5
280
     0
281
     0
  0
CLASS
  1
FIELD
  2
AcDbField
  3
ObjectDBX Classes
 90
     1152
 91
        5
280
     0
281
     0
  0
CLASS
  1
FIELDLIST
  2
AcDbFieldList
  3
ObjectDBX Classes
 90
     1152
 91
        5
280
     0
281
     0
  0
ENDSEC
  0
SECTION
  2
TABLES
  0
TABLE
  2
VPORT
  5
7
330
0
100
AcDbSymbolTable
 70
     1
  0
VPORT
  5
15
330
7
100
AcDbSymbolTableRecord
100
AcDbViewportTableRecord
  2
*ACTIVE
 70
     0
 10
0.0
 20
0.0
 11
1.0
 21
1.0
 12
719.8655151616153
 22
820.3696354416634
 13
0.0
 23
0.0
 14
1.0
 24
1.0
 15
0.0
 25
0.0
 16
0.0
 26
0.0
 36
1.0
 17
-89.86551516161535
 27
70.63036455833662
 37
-14.8971916602821
 40
1817.640000000011
 41
2.295518207282913
 42
50.0
 43
0.0
 44
0.0
 50
0.0
 51
0.0
 71
    16
 72
  2000
 73
     1
 74
     1
 75
     0
 76
     0
 77
     0
 78
     0
281
     0
 65
     1
110
0.0
120
0.0
130
0.0
111
1.0
121
0.0
131
0.0
112
0.0
122
1.0
132
0.0
 79
     1
146
0.0
348
26C
 60
     3
 61
     5
292
     1
282
     1
141
0.0
142
0.0
 63
   256
361
904
  0
ENDTAB
  0
TABLE
  2
LTYPE
  5
4
330
0
100
AcDbSymbolTable
 70
    22
  0
LTYPE
  5
11
330
4
100
AcDbSymbolTableRecord
100
AcDbLinetypeTableRecord
  2
ByBlock
 70
     0
  3

 72
    65
 73
     0
 40
0.0
  0
LTYPE
  5
12
330
4
100
AcDbSymbolTableRecord
100
AcDbLinetypeTableRecord
  2
ByLayer
 70
     0
  3

 72
    65
 73
     0
 40
0.0
  0
LTYPE
  5
13
330
4
100
AcDbSymbolTableRecord
100
AcDbLinetypeTableRecord
  2
Continuous
 70
     0
  3
Solid line
 72
    65
 73
     0
 40
0.0
  0
LTYPE
  5
3A
330
4
100
AcDbSymbolTableRecord
100
AcDbLinetypeTableRecord
  2
STYLE_01
 70
     0
  3

 72
    65
 73
     2
 40
0.2460629921259842
 49
0.1230314960629921
 74
     0
 49
-0.1230314960629921
 74
     0
  0
LTYPE
  5
3B
330
4
100
AcDbSymbolTableRecord
100
AcDbLinetypeTableRecord
  2
STYLE_02
 70
     0
  3

 72
    65
 73
     2
 40
0.6944250000000001
 49
0.48607
 74
     0
 49
-0.2083550000000001
 74
     0
  0
LTYPE
  5
3C
330
4
100
AcDbSymbolTableRecord
100
AcDbLinetypeTableRecord
  2
STYLE_03
 70
     0
  3

 72
    65
 73
     2
 40
1.25
 49
1.04164
 74
     0
 49
-0.2083599999999999
 74
     0
  0
LTYPE
  5
3D
330
4
100
AcDbSymbolTableRecord
100
AcDbLinetypeTableRecord
  2
STYLE_04
 70
     0
  3

 72
    65
 73
     2
 40
1.52771
 49
1.319425
 74
     0
 49
-0.208285
 74
     0
  0
LTYPE
  5
3E
330
4
100
AcDbSymbolTableRecord
100
AcDbLinetypeTableRecord
  2
STYLE_05
 70
     0
  3

 72
    65
 73
     2
 40
0.20828
 49
0.069425
 74
     0
 49
-0.138855
 74
     0
  0
LTYPE
  5
3F
330
4
100
AcDbSymbolTableRecord
100
AcDbLinetypeTableRecord
  2
STYLE_06
 70
     0
  3

 72
    65
 73
     4
 40
1.04164
 49
0.625
 74
     0
 49
-0.20828
 74
     0
 49
0.06943
 74
     0
 49
-0.13893
 74
     0
  0
LTYPE
  5
40
330
4
100
AcDbSymbolTableRecord
100
AcDbLinetypeTableRecord
  2
STYLE_07
 70
     0
  3

 72
    65
 73
     6
 40
1.875
 49
0.625
 74
     0
 49
-0.20828
 74
     0
 49
0.6250000000000001
 74
     0
 49
-0.2083599999999999
 74
     0
 49
0.06943
 74
     0
 49
-0.1389299999999999
 74
     0
  0
LTYPE
  5
41
330
4
100
AcDbSymbolTableRecord
100
AcDbLinetypeTableRecord
  2
STYLE_08
 70
     0
  3

 72
    65
 73
     6
 40
1.25
 49
0.625
 74
     0
 49
-0.20828
 74
     0
 49
0.06943
 74
     0
 49
-0.13893
 74
     0
 49
0.0694299999999999
 74
     0
 49
-0.13893
 74
     0
  0
LTYPE
  5
42
330
4
100
AcDbSymbolTableRecord
100
AcDbLinetypeTableRecord
  2
STYLE_09
 70
     0
  3

 72
    65
 73
     4
 40
5.0
 49
3.75
 74
     0
 49
-0.2777849999999998
 74
     0
 49
0.6944300000000003
 74
     0
 49
-0.2777849999999998
 74
     0
  0
LTYPE
  5
43
330
4
100
AcDbSymbolTableRecord
100
AcDbLinetypeTableRecord
  2
STYLE_10
 70
     0
  3

 72
    65
 73
     6
 40
5.9375
 49
3.75
 74
     0
 49
-0.2777849999999998
 74
     0
 49
0.6944300000000003
 74
     0
 49
-0.2777849999999998
 74
     0
 49
0.625
 74
     0
 49
-0.3125
 74
     0
  0
LTYPE
  5
44
330
4
100
AcDbSymbolTableRecord
100
AcDbLinetypeTableRecord
  2
STYLE_11
 70
     0
  3

 72
    65
 73
     2
 40
0.0694444881889764
 49
0.0347222440944882
 74
     0
 49
-0.0347222440944882
 74
     0
  0
LTYPE
  5
45
330
4
100
AcDbSymbolTableRecord
100
AcDbLinetypeTableRecord
  2
STYLE_12
 70
     0
  3

 72
    65
 73
     2
 40
0.3937007874015748
 49
0.1968503937007874
 74
     0
 49
-0.1968503937007874
 74
     0
  0
LTYPE
  5
46
330
4
100
AcDbSymbolTableRecord
100
AcDbLinetypeTableRecord
  2
STYLE_13
 70
     0
  3

 72
    65
 73
     2
 40
0.5905511811023622
 49
0.2952755905511811
 74
     0
 49
-0.2952755905511811
 74
     0
  0
LTYPE
  5
47
330
4
100
AcDbSymbolTableRecord
100
AcDbLinetypeTableRecord
  2
STYLE_14
 70
     0
  3

 72
    65
 73
     2
 40
1.968503937007874
 49
0.9842519685039369
 74
     0
 49
-0.9842519685039369
 74
     0
  0
LTYPE
  5
48
330
4
100
AcDbSymbolTableRecord
100
AcDbLinetypeTableRecord
  2
STYLE_15
 70
     0
  3

 72
    65
 73
     2
 40
0.1875
 49
0.125
 74
     0
 49
-0.0625
 74
     0
  0
LTYPE
  5
49
330
4
100
AcDbSymbolTableRecord
100
AcDbLinetypeTableRecord
  2
STYLE_16
 70
     0
  3

 72
    65
 73
     2
 40
0.3690944881889764
 49
0.2460629921259843
 74
     0
 49
-0.1230314960629922
 74
     0
  0
LTYPE
  5
908
330
4
100
AcDbSymbolTableRecord
100
AcDbLinetypeTableRecord
  2
AI-LINETYPE-1
 70
     0
  3
Adobe Illustrator Linetype No. 1
 72
    65
 73
     4
 40
2.116668062491661
 49
1.058334031245831
 74
     0
 49
-0.3527780104152769
 74
     0
 49
0.3527780104152769
 74
     0
 49
-0.3527780104152769
 74
     0
  0
LTYPE
  5
909
330
4
100
AcDbSymbolTableRecord
100
AcDbLinetypeTableRecord
  2
AI-LINETYPE-2
 70
     0
  3
Adobe Illustrator Linetype No. 2
 72
    65
 73
     4
 40
2.116668062491661
 49
1.058334031245831
 74
     0
 49
-0.3527780104152769
 74
     0
 49
0.3527780104152769
 74
     0
 49
-0.3527780104152769
 74
     0
  0
LTYPE
  5
DAF
330
4
100
AcDbSymbolTableRecord
100
AcDbLinetypeTableRecord
  2
BORDER
 70
     0
  3
Border __  __  . __  __  . __  __  . __  __  . 
 72
    65
 73
     6
 40
44.45
 49
12.7
 74
     0
 49
-6.35
 74
     0
 49
12.7
 74
     0
 49
-6.35
 74
     0
 49
0.0
 74
     0
 49
-6.35
 74
     0
  0
LTYPE
  5
DF8
330
4
100
AcDbSymbolTableRecord
100
AcDbLinetypeTableRecord
  2
HIDDEN
 70
     0
  3
Hidden _ _ _ _ _ _ _ _ _ _ _ _ _ _ _ _ _ _ _ _ 
 72
    65
 73
     2
 40
9.524999999999999
 49
6.35
 74
     0
 49
-3.175
 74
     0
  0
LTYPE
  5
146C
330
4
100
AcDbSymbolTableRecord
100
AcDbLinetypeTableRecord
  2
CENTERX2
 70
     0
  3
Center (2x) ________  __  ________  __  _____
 72
    65
 73
     4
 40
20.32
 49
12.7
 74
     0
 49
-2.54
 74
     0
 49
2.54
 74
     0
 49
-2.54
 74
     0
  0
ENDTAB
  0
TABLE
  2
LAYER
  5
2
102
{ACAD_XDICTIONARY
360
2E1
102
}
330
0
100
AcDbSymbolTable
 70
     9
  0
LAYER
  5
14
330
2
100
AcDbSymbolTableRecord
100
AcDbLayerTableRecord
  2
0
 70
     0
 62
     7
  6
Continuous
370
    -3
390
1D
347
266
  0
LAYER
  5
4B
330
2
100
AcDbSymbolTableRecord
100
AcDbLayerTableRecord
  2
TEMPLATE
 70
     0
 62
     7
  6
Continuous
370
    20
390
1D
347
266
  0
LAYER
  5
4C
330
2
100
AcDbSymbolTableRecord
100
AcDbLayerTableRecord
  2
DIM
 70
     0
 62
     3
  6
Continuous
370
    13
390
1D
347
266
  0
LAYER
  5
4D
330
2
100
AcDbSymbolTableRecord
100
AcDbLayerTableRecord
  2
MODEL
 70
     0
 62
     7
  6
Continuous
370
    20
390
1D
347
266
  0
LAYER
  5
667
330
2
100
AcDbSymbolTableRecord
100
AcDbLayerTableRecord
  2
LOGO
 70
     0
 62
     7
  6
Continuous
370
    -3
390
1D
347
266
  0
LAYER
  5
88C
330
2
100
AcDbSymbolTableRecord
100
AcDbLayerTableRecord
  2
HIDDEN
 70
     0
 62
     8
  6
HIDDEN
370
    20
390
1D
347
266
1001
AcAecLayerStandard
1000

1000

  0
LAYER
  5
D5D
330
2
100
AcDbSymbolTableRecord
100
AcDbLayerTableRecord
  2
Defpoints
 70
     0
 62
     7
  6
Continuous
290
     0
370
    -3
390
1D
347
266
  0
LAYER
  5
DAE
330
2
100
AcDbSymbolTableRecord
100
AcDbLayerTableRecord
  2
BORDER
 70
     0
 62
     4
  6
BORDER
290
     0
370
    20
390
1D
347
266
1001
AcAecLayerStandard
1000

1000

  0
LAYER
  5
146A
330
2
100
AcDbSymbolTableRecord
100
AcDbLayerTableRecord
  2
注释
 70
     0
 62
     7
  6
Continuous
370
    -1
390
1D
347
266
  0
ENDTAB
  0
TABLE
  2
STYLE
  5
3
330
0
100
AcDbSymbolTable
 70
     5
  0
STYLE
  5
17
330
3
100
AcDbSymbolTableRecord
100
AcDbTextStyleTableRecord
  2
Standard
 70
     0
 40
0.0
 41
1.0
 50
0.0
 71
     0
 42
2.5
  3
txt
  4
BIGFONT.SHX
  0
STYLE
  5
39
330
3
100
AcDbSymbolTableRecord
100
AcDbTextStyleTableRecord
  2
ＭＳ ゴシック
 70
     0
 40
0.0
 41
1.0
 50
0.0
 71
     0
 42
2.5
  3
msgothic.ttc
  4
ＭＳ ゴシック
1001
ACAD
1000
ＭＳ ゴシック
1071
        0
  0
STYLE
  5
384
330
3
100
AcDbSymbolTableRecord
100
AcDbTextStyleTableRecord
  2
ARIAL
 70
     0
 40
0.0
 41
1.0
 50
0.0
 71
     0
 42
12.0
  3
ARIAL.TTF
  4

1001
ACAD
1000
Arial
1071
       34
  0
STYLE
  5
385
330
3
100
AcDbSymbolTableRecord
100
AcDbTextStyleTableRecord
  2
ROMANS
 70
     0
 40
0.0
 41
1.0
 50
0.0
 71
     0
 42
5.0
  3
romans.shx
  4

  0
STYLE
  5
1470
330
3
100
AcDbSymbolTableRecord
100
AcDbTextStyleTableRecord
  2
SLDTEXTSTYLE0
 70
     0
 40
0.0
 41
0.75
 50
0.0
 71
     0
 42
2.5
  3
TXT
  4

  0
ENDTAB
  0
TABLE
  2
VIEW
  5
5
330
0
100
AcDbSymbolTable
 70
     0
  0
ENDTAB
  0
TABLE
  2
UCS
  5
6
330
0
100
AcDbSymbolTable
 70
     0
  0
ENDTAB
  0
TABLE
  2
APPID
  5
8
330
0
100
AcDbSymbolTable
 70
     3
  0
APPID
  5
16
330
8
100
AcDbSymbolTableRecord
100
AcDbRegAppTableRecord
  2
ACAD
 70
     0
  0
APPID
  5
7AC
330
8
100
AcDbSymbolTableRecord
100
AcDbRegAppTableRecord
  2
AcAecLayerStandard
 70
     0
  0
APPID
  5
F3A
330
8
100
AcDbSymbolTableRecord
100
AcDbRegAppTableRecord
  2
ACAD_MLEADERVER
 70
     0
  0
ENDTAB
  0
TABLE
  2
DIMSTYLE
  5
9
330
0
100
AcDbSymbolTable
 70
     8
100
AcDbDimStyleTable
  0
DIMSTYLE
105
18
330
9
100
AcDbSymbolTableRecord
100
AcDbDimStyleTableRecord
  2
Standard
 70
     0
178
     0
340
17
  0
DIMSTYLE
105
56
330
9
100
AcDbSymbolTableRecord
100
AcDbDimStyleTableRecord
  2
tform線あり
 70
     0
  3
<>
  4
[]
 41
9.999389648437498
 42
25.0
 43
0.9999999999999999
 44
0.0
 73
     0
 74
     0
 77
     1
 78
    11
140
24.4326171875
141
0.0
143
1.0
146
0.8
147
0.4999999999999999
171
     1
172
     1
174
     1
178
     0
179
     2
271
     1
272
     1
276
     2
284
    11
285
    11
286
    11
289
     0
340
39
341
4E
342
4E
  0
DIMSTYLE
105
57
102
{ACAD_REACTORS
330
1610
330
15C5
330
1611
330
1AB5
330
1C55
330
1C64
330
1C74
102
}
330
9
100
AcDbSymbolTableRecord
100
AcDbDimStyleTableRecord
  2
tfrom線あり
 70
     0
  3
<>
  4
[]
 41
4.0
 42
20.0
 43
0.9999999999999999
 44
0.0
 73
     0
 74
     0
 77
     1
 78
    11
140
14.0
141
0.0
143
1.0
147
9.0
171
     1
174
     1
178
     0
179
     2
271
     0
272
     1
276
     2
284
    11
285
    11
286
    11
289
     0
340
39
341
4E
342
4E
  0
DIMSTYLE
105
5C
330
9
100
AcDbSymbolTableRecord
100
AcDbDimStyleTableRecord
  2
JIS
 70
     0
  3
<>
  4
[]
 41
9.0
 42
0.0
 43
6.99999999999994
 44
19.9999999999962
 73
     0
 74
     0
 77
     1
 78
    11
140
24.4326171875
141
0.0
143
1.0
147
10.0
171
     1
174
     1
178
     0
179
     2
271
     1
272
     1
276
     2
284
    11
285
    11
286
    11
289
     0
340
39
341
4E
342
4E
  0
DIMSTYLE
105
383
330
9
100
AcDbSymbolTableRecord
100
AcDbDimStyleTableRecord
  2
ARIAL
 70
     0
 41
10.0
 42
3.0
 43
0.5
 44
3.0
 73
     0
 74
     0
 77
     1
 78
     8
140
12.0
141
0.0
146
0.5
147
4.0
171
     1
172
     1
178
     0
271
     1
289
     0
340
384
  0
DIMSTYLE
105
146D
330
9
100
AcDbSymbolTableRecord
100
AcDbDimStyleTableRecord
  2
ISO-25
 70
     0
 41
2.5
 42
0.625
 43
3.75
 44
1.25
 73
     0
 74
     0
 77
     1
 78
     8
140
2.5
141
2.5
143
0.0393700787
147
0.625
171
     3
172
     1
178
     0
271
     2
272
     2
274
     3
278
    44
283
     0
284
     8
340
17
  0
DIMSTYLE
105
146F
330
9
100
AcDbSymbolTableRecord
100
AcDbDimStyleTableRecord
  2
SLDDIMSTYLE0
 70
     0
 41
2.5
 44
0.0
 45
0.000000001
 73
     0
 74
     0
 77
     1
 78
    12
 79
     3
140
2.5
144
5.0
147
0.625
173
     1
178
     0
271
     2
272
     2
276
     2
284
    12
340
1470
  0
DIMSTYLE
105
1471
330
9
100
AcDbSymbolTableRecord
100
AcDbDimStyleTableRecord
  2
SLDDIMSTYLE1
 70
     0
 41
2.5
 44
0.0
 45
0.000000001
 73
     0
 74
     0
 77
     1
 78
    12
 79
     3
140
2.5
144
5.0
147
0.625
173
     1
178
     0
271
     1
272
     2
276
     2
284
    12
340
1470
  0
ENDTAB
  0
TABLE
  2
BLOCK_RECORD
  5
1
330
0
100
AcDbSymbolTable
 70
    85
  0
BLOCK_RECORD
  5
A
330
1
100
AcDbSymbolTableRecord
100
AcDbBlockTableRecord
  2
*MODEL_SPACE
340
20
 70
     0
280
     1
281
     0
  0
BLOCK_RECORD
  5
B
330
1
100
AcDbSymbolTableRecord
100
AcDbBlockTableRecord
  2
*PAPER_SPACE
340
21
 70
     0
280
     1
281
     0
  0
BLOCK_RECORD
  5
4E
330
1
100
AcDbSymbolTableRecord
100
AcDbBlockTableRecord
  2
_DOT
340
0
102
{BLKREFS
331
D65
331
D66
331
D7D
331
D7E
331
D8F
331
D90
331
E1A
331
E1B
331
E2D
331
E2E
331
E4C
331
E4D
331
E8C
331
E8D
331
E9B
331
E9C
331
EAF
331
EB0
331
ED9
331
EDA
331
EE8
331
EE9
331
1021
331
1022
331
1030
331
1031
331
103D
331
103E
331
104A
331
104B
331
1057
331
1058
331
1064
331
1065
331
1070
331
1071
331
1094
331
1095
331
10A8
331
10A9
331
10B8
331
10B9
331
11A7
331
11A8
331
11B3
331
11B4
331
11BF
331
11C0
331
11CB
331
11CC
331
11D7
331
11D8
331
11E3
331
11E4
331
11EE
331
11EF
331
11FA
331
11FB
331
1206
331
1207
331
1212
331
1213
331
1279
331
127A
331
1298
331
1299
331
12BD
331
12BE
331
12D6
331
12D7
331
12ED
331
12EE
331
13AC
331
13AD
331
13D5
331
13D6
331
13E7
331
13E8
331
1646
331
1647
331
1652
331
1653
331
165F
331
1660
331
166B
331
166C
331
1828
331
1829
331
1834
331
1835
331
1841
331
1842
331
184D
331
184E
331
185F
331
1860
331
19D3
331
19D4
331
19DF
331
19E0
331
19EB
331
19EC
331
19F7
331
19F8
331
1A58
331
1A59
331
1A9F
331
1AA0
331
1AAC
331
1AAD
331
1ABC
331
1ABD
331
1B9F
331
1BA0
331
1BAC
331
1BAD
331
1BBA
331
1BBB
331
1BC7
331
1BC8
331
1C1F
331
1C20
331
1C2B
331
1C2C
331
1C37
331
1C38
331
1C43
331
1C44
331
1C5F
331
1C5E
331
0
331
1C6E
331
0
331
1C7E
102
}
 70
     0
280
     1
281
     0
  0
BLOCK_RECORD
  5
68A
330
1
100
AcDbSymbolTableRecord
100
AcDbBlockTableRecord
  2
名称未設定-1
340
0
102
{BLKREFS
331
1877
102
}
 70
     1
280
     1
281
     0
  0
BLOCK_RECORD
  5
68D
330
1
100
AcDbSymbolTableRecord
100
AcDbBlockTableRecord
  2
block 2
340
0
102
{BLKREFS
331
68C
102
}
 70
     0
280
     1
281
     0
  0
BLOCK_RECORD
  5
690
330
1
100
AcDbSymbolTableRecord
100
AcDbBlockTableRecord
  2
block 3
340
0
102
{BLKREFS
331
68F
102
}
 70
     0
280
     1
281
     0
  0
BLOCK_RECORD
  5
693
330
1
100
AcDbSymbolTableRecord
100
AcDbBlockTableRecord
  2
block 4
340
0
102
{BLKREFS
331
692
102
}
 70
     0
280
     1
281
     0
  0
BLOCK_RECORD
  5
6A2
330
1
100
AcDbSymbolTableRecord
100
AcDbBlockTableRecord
  2
block 5
340
0
102
{BLKREFS
331
6A1
102
}
 70
     0
280
     1
281
     0
  0
BLOCK_RECORD
  5
D5F
330
1
100
AcDbSymbolTableRecord
100
AcDbBlockTableRecord
  2
*D6
340
0
 70
     0
280
     1
281
     0
  0
BLOCK_RECORD
  5
D77
330
1
100
AcDbSymbolTableRecord
100
AcDbBlockTableRecord
  2
*D7
340
0
 70
     0
280
     1
281
     0
  0
BLOCK_RECORD
  5
D89
330
1
100
AcDbSymbolTableRecord
100
AcDbBlockTableRecord
  2
*D8
340
0
 70
     0
280
     1
281
     0
  0
BLOCK_RECORD
  5
E14
330
1
100
AcDbSymbolTableRecord
100
AcDbBlockTableRecord
  2
*D9
340
0
 70
     0
280
     1
281
     0
  0
BLOCK_RECORD
  5
E27
330
1
100
AcDbSymbolTableRecord
100
AcDbBlockTableRecord
  2
*D10
340
0
 70
     0
280
     1
281
     0
  0
BLOCK_RECORD
  5
E46
330
1
100
AcDbSymbolTableRecord
100
AcDbBlockTableRecord
  2
*D11
340
0
 70
     0
280
     1
281
     0
  0
BLOCK_RECORD
  5
E85
330
1
100
AcDbSymbolTableRecord
100
AcDbBlockTableRecord
  2
*D12
340
0
 70
     0
280
     1
281
     0
  0
BLOCK_RECORD
  5
E95
330
1
100
AcDbSymbolTableRecord
100
AcDbBlockTableRecord
  2
*D13
340
0
 70
     0
280
     1
281
     0
  0
BLOCK_RECORD
  5
EA9
330
1
100
AcDbSymbolTableRecord
100
AcDbBlockTableRecord
  2
*D14
340
0
 70
     0
280
     1
281
     0
  0
BLOCK_RECORD
  5
ED3
330
1
100
AcDbSymbolTableRecord
100
AcDbBlockTableRecord
  2
*D15
340
0
 70
     0
280
     1
281
     0
  0
BLOCK_RECORD
  5
EE2
330
1
100
AcDbSymbolTableRecord
100
AcDbBlockTableRecord
  2
*D16
340
0
 70
     0
280
     1
281
     0
  0
BLOCK_RECORD
  5
101C
330
1
100
AcDbSymbolTableRecord
100
AcDbBlockTableRecord
  2
*D17
340
0
 70
     0
280
     1
281
     0
  0
BLOCK_RECORD
  5
102B
330
1
100
AcDbSymbolTableRecord
100
AcDbBlockTableRecord
  2
*D18
340
0
 70
     0
280
     1
281
     0
  0
BLOCK_RECORD
  5
1038
330
1
100
AcDbSymbolTableRecord
100
AcDbBlockTableRecord
  2
*D19
340
0
 70
     0
280
     1
281
     0
  0
BLOCK_RECORD
  5
1045
330
1
100
AcDbSymbolTableRecord
100
AcDbBlockTableRecord
  2
*D20
340
0
 70
     0
280
     1
281
     0
  0
BLOCK_RECORD
  5
1052
330
1
100
AcDbSymbolTableRecord
100
AcDbBlockTableRecord
  2
*D21
340
0
 70
     0
280
     1
281
     0
  0
BLOCK_RECORD
  5
105F
330
1
100
AcDbSymbolTableRecord
100
AcDbBlockTableRecord
  2
*D22
340
0
 70
     0
280
     1
281
     0
  0
BLOCK_RECORD
  5
106C
330
1
100
AcDbSymbolTableRecord
100
AcDbBlockTableRecord
  2
*D23
340
0
 70
     0
280
     1
281
     0
  0
BLOCK_RECORD
  5
108F
330
1
100
AcDbSymbolTableRecord
100
AcDbBlockTableRecord
  2
*D24
340
0
 70
     0
280
     1
281
     0
  0
BLOCK_RECORD
  5
10A3
330
1
100
AcDbSymbolTableRecord
100
AcDbBlockTableRecord
  2
*D25
340
0
 70
     0
280
     1
281
     0
  0
BLOCK_RECORD
  5
10B3
330
1
100
AcDbSymbolTableRecord
100
AcDbBlockTableRecord
  2
*D26
340
0
 70
     0
280
     1
281
     0
  0
BLOCK_RECORD
  5
11A1
330
1
100
AcDbSymbolTableRecord
100
AcDbBlockTableRecord
  2
*D27
340
0
 70
     0
280
     1
281
     0
  0
BLOCK_RECORD
  5
11AD
330
1
100
AcDbSymbolTableRecord
100
AcDbBlockTableRecord
  2
*D28
340
0
 70
     0
280
     1
281
     0
  0
BLOCK_RECORD
  5
11B9
330
1
100
AcDbSymbolTableRecord
100
AcDbBlockTableRecord
  2
*D29
340
0
 70
     0
280
     1
281
     0
  0
BLOCK_RECORD
  5
11C5
330
1
100
AcDbSymbolTableRecord
100
AcDbBlockTableRecord
  2
*D30
340
0
 70
     0
280
     1
281
     0
  0
BLOCK_RECORD
  5
11D1
330
1
100
AcDbSymbolTableRecord
100
AcDbBlockTableRecord
  2
*D31
340
0
 70
     0
280
     1
281
     0
  0
BLOCK_RECORD
  5
11DD
330
1
100
AcDbSymbolTableRecord
100
AcDbBlockTableRecord
  2
*D32
340
0
 70
     0
280
     1
281
     0
  0
BLOCK_RECORD
  5
11E9
330
1
100
AcDbSymbolTableRecord
100
AcDbBlockTableRecord
  2
*D33
340
0
 70
     0
280
     1
281
     0
  0
BLOCK_RECORD
  5
11F4
330
1
100
AcDbSymbolTableRecord
100
AcDbBlockTableRecord
  2
*D34
340
0
 70
     0
280
     1
281
     0
  0
BLOCK_RECORD
  5
1200
330
1
100
AcDbSymbolTableRecord
100
AcDbBlockTableRecord
  2
*D35
340
0
 70
     0
280
     1
281
     0
  0
BLOCK_RECORD
  5
120C
330
1
100
AcDbSymbolTableRecord
100
AcDbBlockTableRecord
  2
*D36
340
0
 70
     0
280
     1
281
     0
  0
BLOCK_RECORD
  5
1273
330
1
100
AcDbSymbolTableRecord
100
AcDbBlockTableRecord
  2
*D37
340
0
 70
     0
280
     1
281
     0
  0
BLOCK_RECORD
  5
1292
330
1
100
AcDbSymbolTableRecord
100
AcDbBlockTableRecord
  2
*D38
340
0
 70
     0
280
     1
281
     0
  0
BLOCK_RECORD
  5
12B7
330
1
100
AcDbSymbolTableRecord
100
AcDbBlockTableRecord
  2
*D39
340
0
 70
     0
280
     1
281
     0
  0
BLOCK_RECORD
  5
12D0
330
1
100
AcDbSymbolTableRecord
100
AcDbBlockTableRecord
  2
*D40
340
0
 70
     0
280
     1
281
     0
  0
BLOCK_RECORD
  5
12E7
330
1
100
AcDbSymbolTableRecord
100
AcDbBlockTableRecord
  2
*D41
340
0
 70
     0
280
     1
281
     0
  0
BLOCK_RECORD
  5
13A7
330
1
100
AcDbSymbolTableRecord
100
AcDbBlockTableRecord
  2
*D42
340
0
 70
     0
280
     1
281
     0
  0
BLOCK_RECORD
  5
13CD
330
1
100
AcDbSymbolTableRecord
100
AcDbBlockTableRecord
  2
*D43
340
0
 70
     0
280
     1
281
     0
  0
BLOCK_RECORD
  5
13E0
330
1
100
AcDbSymbolTableRecord
100
AcDbBlockTableRecord
  2
*D44
340
0
 70
     0
280
     1
281
     0
  0
BLOCK_RECORD
  5
14D3
330
1
100
AcDbSymbolTableRecord
100
AcDbBlockTableRecord
  2
*D45
340
0
 70
     0
280
     1
281
     0
  0
BLOCK_RECORD
  5
14DD
330
1
100
AcDbSymbolTableRecord
100
AcDbBlockTableRecord
  2
*D46
340
0
 70
     0
280
     1
281
     0
  0
BLOCK_RECORD
  5
1531
330
1
100
AcDbSymbolTableRecord
100
AcDbBlockTableRecord
  2
*D47
340
0
 70
     0
280
     1
281
     0
  0
BLOCK_RECORD
  5
153B
330
1
100
AcDbSymbolTableRecord
100
AcDbBlockTableRecord
  2
*D48
340
0
 70
     0
280
     1
281
     0
  0
BLOCK_RECORD
  5
1640
330
1
100
AcDbSymbolTableRecord
100
AcDbBlockTableRecord
  2
*D49
340
0
 70
     0
280
     1
281
     0
  0
BLOCK_RECORD
  5
164C
330
1
100
AcDbSymbolTableRecord
100
AcDbBlockTableRecord
  2
*D50
340
0
 70
     0
280
     1
281
     0
  0
BLOCK_RECORD
  5
1659
330
1
100
AcDbSymbolTableRecord
100
AcDbBlockTableRecord
  2
*D51
340
0
 70
     0
280
     1
281
     0
  0
BLOCK_RECORD
  5
1665
330
1
100
AcDbSymbolTableRecord
100
AcDbBlockTableRecord
  2
*D52
340
0
 70
     0
280
     1
281
     0
  0
BLOCK_RECORD
  5
16DB
330
1
100
AcDbSymbolTableRecord
100
AcDbBlockTableRecord
  2
*D53
340
0
 70
     0
280
     1
281
     0
  0
BLOCK_RECORD
  5
16E5
330
1
100
AcDbSymbolTableRecord
100
AcDbBlockTableRecord
  2
*D54
340
0
 70
     0
280
     1
281
     0
  0
BLOCK_RECORD
  5
1739
330
1
100
AcDbSymbolTableRecord
100
AcDbBlockTableRecord
  2
*D55
340
0
 70
     0
280
     1
281
     0
  0
BLOCK_RECORD
  5
1743
330
1
100
AcDbSymbolTableRecord
100
AcDbBlockTableRecord
  2
*D56
340
0
 70
     0
280
     1
281
     0
  0
BLOCK_RECORD
  5
1822
330
1
100
AcDbSymbolTableRecord
100
AcDbBlockTableRecord
  2
*D57
340
0
 70
     0
280
     1
281
     0
  0
BLOCK_RECORD
  5
182E
330
1
100
AcDbSymbolTableRecord
100
AcDbBlockTableRecord
  2
*D58
340
0
 70
     0
280
     1
281
     0
  0
BLOCK_RECORD
  5
183B
330
1
100
AcDbSymbolTableRecord
100
AcDbBlockTableRecord
  2
*D59
340
0
 70
     0
280
     1
281
     0
  0
BLOCK_RECORD
  5
1847
330
1
100
AcDbSymbolTableRecord
100
AcDbBlockTableRecord
  2
*D60
340
0
 70
     0
280
     1
281
     0
  0
BLOCK_RECORD
  5
1859
330
1
100
AcDbSymbolTableRecord
100
AcDbBlockTableRecord
  2
*D61
340
0
 70
     0
280
     1
281
     0
  0
BLOCK_RECORD
  5
18B7
330
1
100
AcDbSymbolTableRecord
100
AcDbBlockTableRecord
  2
*D62
340
0
 70
     0
280
     1
281
     0
  0
BLOCK_RECORD
  5
18F9
330
1
100
AcDbSymbolTableRecord
100
AcDbBlockTableRecord
  2
*D63
340
0
 70
     0
280
     1
281
     0
  0
BLOCK_RECORD
  5
1903
330
1
100
AcDbSymbolTableRecord
100
AcDbBlockTableRecord
  2
*D64
340
0
 70
     0
280
     1
281
     0
  0
BLOCK_RECORD
  5
1927
330
1
100
AcDbSymbolTableRecord
100
AcDbBlockTableRecord
  2
*D65
340
0
 70
     0
280
     1
281
     0
  0
BLOCK_RECORD
  5
19CD
330
1
100
AcDbSymbolTableRecord
100
AcDbBlockTableRecord
  2
*D66
340
0
 70
     0
280
     1
281
     0
  0
BLOCK_RECORD
  5
19D9
330
1
100
AcDbSymbolTableRecord
100
AcDbBlockTableRecord
  2
*D67
340
0
 70
     0
280
     1
281
     0
  0
BLOCK_RECORD
  5
19E5
330
1
100
AcDbSymbolTableRecord
100
AcDbBlockTableRecord
  2
*D68
340
0
 70
     0
280
     1
281
     0
  0
BLOCK_RECORD
  5
19F1
330
1
100
AcDbSymbolTableRecord
100
AcDbBlockTableRecord
  2
*D69
340
0
 70
     0
280
     1
281
     0
  0
BLOCK_RECORD
  5
1A52
330
1
100
AcDbSymbolTableRecord
100
AcDbBlockTableRecord
  2
*D70
340
0
 70
     0
280
     1
281
     0
  0
BLOCK_RECORD
  5
1A99
330
1
100
AcDbSymbolTableRecord
100
AcDbBlockTableRecord
  2
*D71
340
0
 70
     0
280
     1
281
     0
  0
BLOCK_RECORD
  5
1AA6
330
1
100
AcDbSymbolTableRecord
100
AcDbBlockTableRecord
  2
*D72
340
0
 70
     0
280
     1
281
     0
  0
BLOCK_RECORD
  5
1AB6
330
1
100
AcDbSymbolTableRecord
100
AcDbBlockTableRecord
  2
*D73
340
0
 70
     0
280
     1
281
     0
  0
BLOCK_RECORD
  5
1B9A
330
1
100
AcDbSymbolTableRecord
100
AcDbBlockTableRecord
  2
*D74
340
0
 70
     0
280
     1
281
     0
  0
BLOCK_RECORD
  5
1BA7
330
1
100
AcDbSymbolTableRecord
100
AcDbBlockTableRecord
  2
*D75
340
0
 70
     0
280
     1
281
     0
  0
BLOCK_RECORD
  5
1BB5
330
1
100
AcDbSymbolTableRecord
100
AcDbBlockTableRecord
  2
*D76
340
0
 70
     0
280
     1
281
     0
  0
BLOCK_RECORD
  5
1BC2
330
1
100
AcDbSymbolTableRecord
100
AcDbBlockTableRecord
  2
*D77
340
0
 70
     0
280
     1
281
     0
  0
BLOCK_RECORD
  5
1C19
330
1
100
AcDbSymbolTableRecord
100
AcDbBlockTableRecord
  2
*D78
340
0
 70
     0
280
     1
281
     0
  0
BLOCK_RECORD
  5
1C25
330
1
100
AcDbSymbolTableRecord
100
AcDbBlockTableRecord
  2
*D79
340
0
 70
     0
280
     1
281
     0
  0
BLOCK_RECORD
  5
1C31
330
1
100
AcDbSymbolTableRecord
100
AcDbBlockTableRecord
  2
*D80
340
0
 70
     0
280
     1
281
     0
  0
BLOCK_RECORD
  5
1C3D
330
1
100
AcDbSymbolTableRecord
100
AcDbBlockTableRecord
  2
*D81
340
0
 70
     0
280
     1
281
     0
  0
BLOCK_RECORD
  5
1C58
330
1
100
AcDbSymbolTableRecord
100
AcDbBlockTableRecord
  2
*D82
340
0
 70
     0
280
     1
281
     0
  0
BLOCK_RECORD
  5
1C67
330
1
100
AcDbSymbolTableRecord
100
AcDbBlockTableRecord
  2
*D83
340
0
 70
     0
280
     1
281
     0
  0
BLOCK_RECORD
  5
1C77
330
1
100
AcDbSymbolTableRecord
100
AcDbBlockTableRecord
  2
*D84
340
0
 70
     0
280
     1
281
     0
  0
ENDTAB
  0
ENDSEC
  0
SECTION
  2
BLOCKS
  0
BLOCK
  5
D
330
A
100
AcDbEntity
  8
0
390
1D
100
AcDbBlockBegin
  2
*MODEL_SPACE
 70
     0
 10
0.0
 20
0.0
 30
0.0
  3
*MODEL_SPACE
  1
*MODEL_SPACE
  0
ENDBLK
  5
E
330
A
100
AcDbEntity
  8
0
390
1D
100
AcDbBlockEnd
  0
BLOCK
  5
F
330
B
100
AcDbEntity
 67
     1
  8
0
390
1D
100
AcDbBlockBegin
  2
*PAPER_SPACE
 70
     0
 10
0.0
 20
0.0
 30
0.0
  3
*PAPER_SPACE
  1
*PAPER_SPACE
  0
ENDBLK
  5
10
330
B
100
AcDbEntity
 67
     1
  8
0
390
1D
100
AcDbBlockEnd
  0
BLOCK
  5
1B02
330
4E
100
AcDbEntity
  8
0
390
1D
100
AcDbBlockBegin
  2
_DOT
 70
     0
 10
0.0
 20
0.0
 30
0.0
  3
_DOT
  1
_DOT
  0
POLYLINE
  5
1B04
330
4E
100
AcDbEntity
  8
0
  6
ByBlock
 62
     0
370
    -2
390
1D
100
AcDb2dPolyline
 66
     1
 10
0.0
 20
0.0
 30
0.0
 70
     1
 40
0.5
 41
0.5
  0
VERTEX
  5
1B05
330
1B04
100
AcDbEntity
  8
0
  6
ByBlock
 62
     0
370
    -2
390
1D
100
AcDbVertex
100
AcDb2dVertex
 10
-0.25
 20
0.0
 30
0.0
 42
1.0
  0
VERTEX
  5
1B06
330
1B04
100
AcDbEntity
  8
0
  6
ByBlock
 62
     0
370
    -2
390
1D
100
AcDbVertex
100
AcDb2dVertex
 10
0.25
 20
0.0
 30
0.0
 42
1.0
  0
SEQEND
  5
1B07
330
1B04
100
AcDbEntity
  8
0
390
1D
  0
LINE
  5
1B08
330
4E
100
AcDbEntity
  8
0
  6
ByBlock
 62
     0
370
    -2
390
1D
100
AcDbLine
 10
-0.5
 20
0.0
 30
0.0
 11
-1.0
 21
0.0
 31
0.0
  0
ENDBLK
  5
1B09
330
4E
100
AcDbEntity
  8
0
390
1D
100
AcDbBlockEnd
  0
BLOCK
  5
68B
330
68A
100
AcDbEntity
  8
0
100
AcDbBlockBegin
  2
名称未設定-1
 70
     0
 10
0.0
 20
0.0
 30
0.0
  3
名称未設定-1
  1
名称未設定-1
  0
INSERT
  5
68F
330
68A
100
AcDbEntity
  8
LOGO
100
AcDbBlockReference
  2
block 3
 10
0.0
 20
0.0
 30
0.0
  0
ENDBLK
  5
6B1
330
68A
100
AcDbEntity
  8
0
100
AcDbBlockEnd
  0
BLOCK
  5
68E
330
68D
100
AcDbEntity
  8
0
100
AcDbBlockBegin
  2
block 2
 70
     0
 10
0.0
 20
0.0
 30
0.0
  3
block 2
  1
block 2
  0
ENDBLK
  5
6B0
330
68D
100
AcDbEntity
  8
0
100
AcDbBlockEnd
  0
BLOCK
  5
691
330
690
100
AcDbEntity
  8
0
100
AcDbBlockBegin
  2
block 3
 70
     0
 10
0.0
 20
0.0
 30
0.0
  3
block 3
  1
block 3
  0
INSERT
  5
692
330
690
100
AcDbEntity
  8
LOGO
100
AcDbBlockReference
  2
block 4
 10
0.0
 20
0.0
 30
0.0
  0
INSERT
  5
6A1
330
690
100
AcDbEntity
  8
LOGO
100
AcDbBlockReference
  2
block 5
 10
0.0
 20
0.0
 30
0.0
  0
ENDBLK
  5
6AF
330
690
100
AcDbEntity
  8
0
100
AcDbBlockEnd
  0
BLOCK
  5
694
330
693
100
AcDbEntity
  8
0
100
AcDbBlockBegin
  2
block 4
 70
     0
 10
0.0
 20
0.0
 30
0.0
  3
block 4
  1
block 4
  0
POLYLINE
  5
695
330
693
100
AcDbEntity
  8
LOGO
370
     0
100
AcDb2dPolyline
 66
     1
 10
0.0
 20
0.0
 30
0.0
  0
VERTEX
  5
696
330
695
100
AcDbEntity
  8
LOGO
370
     0
100
AcDbVertex
100
AcDb2dVertex
 10
83.79545727667795
 20
167.6444858234922
 30
0.0
  0
VERTEX
  5
697
330
695
100
AcDbEntity
  8
LOGO
370
     0
100
AcDbVertex
100
AcDb2dVertex
 10
83.79545727667795
 20
159.7968976406313
 30
0.0
  0
VERTEX
  5
698
330
695
100
AcDbEntity
  8
LOGO
370
     0
100
AcDbVertex
100
AcDb2dVertex
 10
71.3631329975216
 20
159.7968976406313
 30
0.0
  0
VERTEX
  5
699
330
695
100
AcDbEntity
  8
LOGO
370
     0
100
AcDbVertex
100
AcDb2dVertex
 10
71.3631329975216
 20
127.8027915271048
 30
0.0
  0
VERTEX
  5
69A
330
695
100
AcDbEntity
  8
LOGO
370
     0
100
AcDbVertex
100
AcDb2dVertex
 10
60.43011526263018
 20
127.8027915271048
 30
0.0
  0
VERTEX
  5
69B
330
695
100
AcDbEntity
  8
LOGO
370
     0
100
AcDbVertex
100
AcDb2dVertex
 10
60.43011526263018
 20
159.7968976406313
 30
0.0
  0
VERTEX
  5
69C
330
695
100
AcDbEntity
  8
LOGO
370
     0
100
AcDbVertex
100
AcDb2dVertex
 10
48.21793273020759
 20
159.7968976406313
 30
0.0
  0
VERTEX
  5
69D
330
695
100
AcDbEntity
  8
LOGO
370
     0
100
AcDbVertex
100
AcDb2dVertex
 10
48.21793273020759
 20
167.6444858234922
 30
0.0
  0
VERTEX
  5
69E
330
695
100
AcDbEntity
  8
LOGO
370
     0
100
AcDbVertex
100
AcDb2dVertex
 10
83.79545727667795
 20
167.6444858234922
 30
0.0
  0
SEQEND
  5
69F
330
695
100
AcDbEntity
  8
LOGO
370
     0
  0
HATCH
  5
6A0
330
693
100
AcDbEntity
  8
LOGO
 62
   250
420
  2234388
100
AcDbHatch
 10
0.0
 20
0.0
 30
0.0
210
0.0
220
0.0
230
1.0
  2
SOLID
 70
     1
 71
     0
 91
        1
 92
        1
 93
        8
 72
     1
 10
83.79545727667795
 20
167.6444858234922
 11
83.79545727667795
 21
159.7968976406313
 72
     1
 10
83.79545727667795
 20
159.7968976406313
 11
71.3631329975216
 21
159.7968976406313
 72
     1
 10
71.3631329975216
 20
159.7968976406313
 11
71.3631329975216
 21
127.8027915271048
 72
     1
 10
71.3631329975216
 20
127.8027915271048
 11
60.43011526263018
 21
127.8027915271048
 72
     1
 10
60.43011526263018
 20
127.8027915271048
 11
60.43011526263018
 21
159.7968976406313
 72
     1
 10
60.43011526263018
 20
159.7968976406313
 11
48.21793273020759
 21
159.7968976406313
 72
     1
 10
48.21793273020759
 20
159.7968976406313
 11
48.21793273020759
 21
167.6444858234922
 72
     1
 10
48.21793273020759
 20
167.6444858234922
 11
83.79545727667795
 21
167.6444858234922
 97
        0
 75
     2
 76
     1
 98
        0
  0
ENDBLK
  5
6AE
330
693
100
AcDbEntity
  8
0
100
AcDbBlockEnd
  0
BLOCK
  5
6A3
330
6A2
100
AcDbEntity
  8
0
100
AcDbBlockBegin
  2
block 5
 70
     0
 10
0.0
 20
0.0
 30
0.0
  3
block 5
  1
block 5
  0
SPLINE
  5
6A4
330
6A2
100
AcDbEntity
  8
LOGO
370
     0
100
AcDbSpline
210
0.0
220
0.0
230
1.0
 70
    11
 71
     3
 72
    56
 73
    52
 74
     0
 42
0.000000001
 43
0.0000000001
 40
0.0
 40
0.0
 40
0.0
 40
0.0
 40
1.0
 40
1.0
 40
1.0
 40
2.0
 40
2.0
 40
2.0
 40
3.0
 40
3.0
 40
3.0
 40
4.0
 40
4.0
 40
4.0
 40
5.0
 40
5.0
 40
5.0
 40
6.0
 40
6.0
 40
6.0
 40
7.0
 40
7.0
 40
7.0
 40
8.0
 40
8.0
 40
8.0
 40
9.0
 40
9.0
 40
9.0
 40
10.0
 40
10.0
 40
10.0
 40
11.0
 40
11.0
 40
11.0
 40
12.0
 40
12.0
 40
12.0
 40
13.0
 40
13.0
 40
13.0
 40
14.0
 40
14.0
 40
14.0
 40
15.0
 40
15.0
 40
15.0
 40
16.0
 40
16.0
 40
16.0
 40
17.0
 40
17.0
 40
17.0
 40
17.0
 10
100.4504378777679
 20
166.69157178364
 30
0.0
 10
101.9848844191641
 20
167.1313385124438
 30
0.0
 10
103.9637485713373
 20
166.7649523658846
 30
0.0
 10
103.9637485713373
 20
166.7649523658846
 30
0.0
 10
103.9637485713373
 20
166.7649523658846
 30
0.0
 10
103.0132460999156
 20
163.911205638077
 30
0.0
 10
103.0132460999156
 20
163.911205638077
 30
0.0
 10
103.0132460999156
 20
163.911205638077
 30
0.0
 10
101.0674548862189
 20
164.3601018759394
 30
0.0
 10
99.57090442016032
 20
163.1805004036133
 30
0.0
 10
98.40508333886608
 20
162.258247733807
 30
0.0
 10
97.65301849830304
 20
159.804132345923
 30
0.0
 10
97.3598406791005
 20
158.8699940888517
 30
0.0
 10
97.3598406791005
 20
158.8699940888517
 30
0.0
 10
96.07137411762282
 20
154.9119212747295
 30
0.0
 10
96.07137411762282
 20
154.9119212747295
 30
0.0
 10
96.07137411762282
 20
154.9119212747295
 30
0.0
 10
100.3012651448482
 20
154.9119212747295
 30
0.0
 10
100.3012651448482
 20
154.9119212747295
 30
0.0
 10
100.3012651448482
 20
154.9119212747295
 30
0.0
 10
99.64152892419852
 20
152.4199098115079
 30
0.0
 10
99.64152892419852
 20
152.4199098115079
 30
0.0
 10
99.64152892419852
 20
152.4199098115079
 30
0.0
 10
95.38097652692731
 20
152.4199098115079
 30
0.0
 10
95.38097652692731
 20
152.4199098115079
 30
0.0
 10
95.38097652692731
 20
152.4199098115079
 30
0.0
 10
87.75353009080013
 20
127.8027915271048
 30
0.0
 10
87.75353009080013
 20
127.8027915271048
 30
0.0
 10
87.75353009080013
 20
127.8027915271048
 30
0.0
 10
85.36538832498108
 20
127.8027915271048
 30
0.0
 10
85.36538832498108
 20
127.8027915271048
 30
0.0
 10
85.36538832498108
 20
127.8027915271048
 30
0.0
 10
93.00006946639998
 20
152.4199098115079
 30
0.0
 10
93.00006946639998
 20
152.4199098115079
 30
0.0
 10
93.00006946639998
 20
152.4199098115079
 30
0.0
 10
89.85297266450198
 20
152.4199098115079
 30
0.0
 10
89.85297266450198
 20
152.4199098115079
 30
0.0
 10
89.85297266450198
 20
152.4199098115079
 30
0.0
 10
90.51270888515164
 20
154.9119212747295
 30
0.0
 10
90.51270888515164
 20
154.9119212747295
 30
0.0
 10
90.51270888515164
 20
154.9119212747295
 30
0.0
 10
93.6904670570955
 20
154.9119212747295
 30
0.0
 10
93.6904670570955
 20
154.9119212747295
 30
0.0
 10
93.6904670570955
 20
154.9119212747295
 30
0.0
 10
94.81598049462158
 20
158.3616699146644
 30
0.0
 10
94.81598049462158
 20
158.3616699146644
 30
0.0
 10
95.7237637538445
 20
161.2605474231013
 30
0.0
 10
96.4968436907311
 20
162.8139420021662
 30
0.0
 10
97.15657991138076
 20
163.9844139654337
 30
0.0
 10
97.81183750494507
 20
165.1523021053827
 30
0.0
 10
99.1047826935081
 20
166.3084769129547
 30
0.0
 10
100.4504378777679
 20
166.69157178364
 30
0.0
  0
HATCH
  5
6A5
330
6A2
100
AcDbEntity
  8
LOGO
 62
   250
420
  2234388
100
AcDbHatch
 10
0.0
 20
0.0
 30
0.0
210
0.0
220
0.0
230
1.0
  2
SOLID
 70
     1
 71
     0
 91
        1
 92
        1
 93
        1
 72
     4
 94
        3
 73
     0
 74
     1
 95
       56
 96
       52
 40
0.0
 40
0.0
 40
0.0
 40
0.0
 40
1.0
 40
1.0
 40
1.0
 40
2.0
 40
2.0
 40
2.0
 40
3.0
 40
3.0
 40
3.0
 40
4.0
 40
4.0
 40
4.0
 40
5.0
 40
5.0
 40
5.0
 40
6.0
 40
6.0
 40
6.0
 40
7.0
 40
7.0
 40
7.0
 40
8.0
 40
8.0
 40
8.0
 40
9.0
 40
9.0
 40
9.0
 40
10.0
 40
10.0
 40
10.0
 40
11.0
 40
11.0
 40
11.0
 40
12.0
 40
12.0
 40
12.0
 40
13.0
 40
13.0
 40
13.0
 40
14.0
 40
14.0
 40
14.0
 40
15.0
 40
15.0
 40
15.0
 40
16.0
 40
16.0
 40
16.0
 40
17.0
 40
17.0
 40
17.0
 40
17.0
 10
100.4504378777679
 20
166.69157178364
 10
101.9848844191641
 20
167.1313385124438
 10
103.9637485713373
 20
166.7649523658846
 10
103.9637485713373
 20
166.7649523658846
 10
103.9637485713373
 20
166.7649523658846
 10
103.0132460999156
 20
163.911205638077
 10
103.0132460999156
 20
163.911205638077
 10
103.0132460999156
 20
163.911205638077
 10
101.0674548862189
 20
164.3601018759394
 10
99.57090442016032
 20
163.1805004036133
 10
98.40508333886608
 20
162.258247733807
 10
97.65301849830304
 20
159.804132345923
 10
97.3598406791005
 20
158.8699940888517
 10
97.3598406791005
 20
158.8699940888517
 10
96.07137411762282
 20
154.9119212747295
 10
96.07137411762282
 20
154.9119212747295
 10
96.07137411762282
 20
154.9119212747295
 10
100.3012651448482
 20
154.9119212747295
 10
100.3012651448482
 20
154.9119212747295
 10
100.3012651448482
 20
154.9119212747295
 10
99.64152892419852
 20
152.4199098115079
 10
99.64152892419852
 20
152.4199098115079
 10
99.64152892419852
 20
152.4199098115079
 10
95.38097652692731
 20
152.4199098115079
 10
95.38097652692731
 20
152.4199098115079
 10
95.38097652692731
 20
152.4199098115079
 10
87.75353009080013
 20
127.8027915271048
 10
87.75353009080013
 20
127.8027915271048
 10
87.75353009080013
 20
127.8027915271048
 10
85.36538832498108
 20
127.8027915271048
 10
85.36538832498108
 20
127.8027915271048
 10
85.36538832498108
 20
127.8027915271048
 10
93.00006946639998
 20
152.4199098115079
 10
93.00006946639998
 20
152.4199098115079
 10
93.00006946639998
 20
152.4199098115079
 10
89.85297266450198
 20
152.4199098115079
 10
89.85297266450198
 20
152.4199098115079
 10
89.85297266450198
 20
152.4199098115079
 10
90.51270888515164
 20
154.9119212747295
 10
90.51270888515164
 20
154.9119212747295
 10
90.51270888515164
 20
154.9119212747295
 10
93.6904670570955
 20
154.9119212747295
 10
93.6904670570955
 20
154.9119212747295
 10
93.6904670570955
 20
154.9119212747295
 10
94.81598049462158
 20
158.3616699146644
 10
94.81598049462158
 20
158.3616699146644
 10
95.7237637538445
 20
161.2605474231013
 10
96.4968436907311
 20
162.8139420021662
 10
97.15657991138076
 20
163.9844139654337
 10
97.81183750494507
 20
165.1523021053827
 10
99.1047826935081
 20
166.3084769129547
 10
100.4504378777679
 20
166.69157178364
 97
        0
 75
     2
 76
     1
 98
        0
  0
SPLINE
  5
6A6
330
6A2
100
AcDbEntity
  8
LOGO
370
     0
100
AcDbSpline
210
0.0
220
0.0
230
1.0
 70
    11
 71
     3
 72
    38
 73
    34
 74
     0
 42
0.000000001
 43
0.0000000001
 40
0.0
 40
0.0
 40
0.0
 40
0.0
 40
1.0
 40
1.0
 40
1.0
 40
2.0
 40
2.0
 40
2.0
 40
3.0
 40
3.0
 40
3.0
 40
4.0
 40
4.0
 40
4.0
 40
5.0
 40
5.0
 40
5.0
 40
6.0
 40
6.0
 40
6.0
 40
7.0
 40
7.0
 40
7.0
 40
8.0
 40
8.0
 40
8.0
 40
9.0
 40
9.0
 40
9.0
 40
10.0
 40
10.0
 40
10.0
 40
11.0
 40
11.0
 40
11.0
 40
11.0
 10
126.377554584636
 20
154.8151140277308
 30
0.0
 10
126.377554584636
 20
154.8151140277308
 30
0.0
 10
128.8311532078563
 20
154.8151140277308
 30
0.0
 10
128.8311532078563
 20
154.8151140277308
 30
0.0
 10
128.8311532078563
 20
154.8151140277308
 30
0.0
 10
127.7345785914971
 20
151.3062819612468
 30
0.0
 10
127.7345785914971
 20
151.3062819612468
 30
0.0
 10
128.571392836906
 20
152.2922689395754
 30
0.0
 10
129.8860421413442
 20
153.604506675583
 30
0.0
 10
131.0163787157314
 20
154.2664822097754
 30
0.0
 10
132.7044766171327
 20
155.2500576196734
 30
0.0
 10
133.6642808525008
 20
155.3847609420097
 30
0.0
 10
134.7284715499351
 20
155.3565111403944
 30
0.0
 10
134.7284715499351
 20
155.3565111403944
 30
0.0
 10
133.6877075172549
 20
152.0345756272799
 30
0.0
 10
133.6877075172549
 20
152.0345756272799
 30
0.0
 10
133.011434827367
 20
152.3184516825359
 30
0.0
 10
130.930940291334
 20
151.7768823149844
 30
0.0
 10
129.739280976855
 20
150.9162968950455
 30
0.0
 10
128.66613302525
 20
150.1454562717016
 30
0.0
 10
127.9192358313239
 20
149.4857200510519
 30
0.0
 10
127.0393578639405
 20
147.8282835196966
 30
0.0
 10
126.164647543194
 20
146.1699857139017
 30
0.0
 10
125.4742499524985
 20
143.5262176944419
 30
0.0
 10
124.2822461282437
 20
139.6959580071401
 30
0.0
 10
124.2822461282437
 20
139.6959580071401
 30
0.0
 10
120.5753209406769
 20
127.8027915271048
 30
0.0
 10
120.5753209406769
 20
127.8027915271048
 30
0.0
 10
120.5753209406769
 20
127.8027915271048
 30
0.0
 10
118.1964809388044
 20
127.8027915271048
 30
0.0
 10
118.1964809388044
 20
127.8027915271048
 30
0.0
 10
118.1964809388044
 20
127.8027915271048
 30
0.0
 10
126.377554584636
 20
154.8151140277308
 30
0.0
 10
126.377554584636
 20
154.8151140277308
 30
0.0
  0
HATCH
  5
6A7
330
6A2
100
AcDbEntity
  8
LOGO
 62
   250
420
  2234388
100
AcDbHatch
 10
0.0
 20
0.0
 30
0.0
210
0.0
220
0.0
230
1.0
  2
SOLID
 70
     1
 71
     0
 91
        1
 92
        1
 93
        1
 72
     4
 94
        3
 73
     0
 74
     1
 95
       38
 96
       34
 40
0.0
 40
0.0
 40
0.0
 40
0.0
 40
1.0
 40
1.0
 40
1.0
 40
2.0
 40
2.0
 40
2.0
 40
3.0
 40
3.0
 40
3.0
 40
4.0
 40
4.0
 40
4.0
 40
5.0
 40
5.0
 40
5.0
 40
6.0
 40
6.0
 40
6.0
 40
7.0
 40
7.0
 40
7.0
 40
8.0
 40
8.0
 40
8.0
 40
9.0
 40
9.0
 40
9.0
 40
10.0
 40
10.0
 40
10.0
 40
11.0
 40
11.0
 40
11.0
 40
11.0
 10
126.377554584636
 20
154.8151140277308
 10
126.377554584636
 20
154.8151140277308
 10
128.8311532078563
 20
154.8151140277308
 10
128.8311532078563
 20
154.8151140277308
 10
128.8311532078563
 20
154.8151140277308
 10
127.7345785914971
 20
151.3062819612468
 10
127.7345785914971
 20
151.3062819612468
 10
128.571392836906
 20
152.2922689395754
 10
129.8860421413442
 20
153.604506675583
 10
131.0163787157314
 20
154.2664822097754
 10
132.7044766171327
 20
155.2500576196734
 10
133.6642808525008
 20
155.3847609420097
 10
134.7284715499351
 20
155.3565111403944
 10
134.7284715499351
 20
155.3565111403944
 10
133.6877075172549
 20
152.0345756272799
 10
133.6877075172549
 20
152.0345756272799
 10
133.011434827367
 20
152.3184516825359
 10
130.930940291334
 20
151.7768823149844
 10
129.739280976855
 20
150.9162968950455
 10
128.66613302525
 20
150.1454562717016
 10
127.9192358313239
 20
149.4857200510519
 10
127.0393578639405
 20
147.8282835196966
 10
126.164647543194
 20
146.1699857139017
 10
125.4742499524985
 20
143.5262176944419
 10
124.2822461282437
 20
139.6959580071401
 10
124.2822461282437
 20
139.6959580071401
 10
120.5753209406769
 20
127.8027915271048
 10
120.5753209406769
 20
127.8027915271048
 10
120.5753209406769
 20
127.8027915271048
 10
118.1964809388044
 20
127.8027915271048
 10
118.1964809388044
 20
127.8027915271048
 10
118.1964809388044
 20
127.8027915271048
 10
126.377554584636
 20
154.8151140277308
 10
126.377554584636
 20
154.8151140277308
 97
        0
 75
     2
 76
     1
 98
        0
  0
SPLINE
  5
6A8
330
6A2
100
AcDbEntity
  8
LOGO
370
     0
100
AcDbSpline
210
0.0
220
0.0
230
1.0
 70
    11
 71
     3
 72
   104
 73
   100
 74
     0
 42
0.000000001
 43
0.0000000001
 40
0.0
 40
0.0
 40
0.0
 40
0.0
 40
1.0
 40
1.0
 40
1.0
 40
2.0
 40
2.0
 40
2.0
 40
3.0
 40
3.0
 40
3.0
 40
4.0
 40
4.0
 40
4.0
 40
5.0
 40
5.0
 40
5.0
 40
6.0
 40
6.0
 40
6.0
 40
7.0
 40
7.0
 40
7.0
 40
8.0
 40
8.0
 40
8.0
 40
9.0
 40
9.0
 40
9.0
 40
10.0
 40
10.0
 40
10.0
 40
11.0
 40
11.0
 40
11.0
 40
12.0
 40
12.0
 40
12.0
 40
13.0
 40
13.0
 40
13.0
 40
14.0
 40
14.0
 40
14.0
 40
15.0
 40
15.0
 40
15.0
 40
16.0
 40
16.0
 40
16.0
 40
17.0
 40
17.0
 40
17.0
 40
18.0
 40
18.0
 40
18.0
 40
19.0
 40
19.0
 40
19.0
 40
20.0
 40
20.0
 40
20.0
 40
21.0
 40
21.0
 40
21.0
 40
22.0
 40
22.0
 40
22.0
 40
23.0
 40
23.0
 40
23.0
 40
24.0
 40
24.0
 40
24.0
 40
25.0
 40
25.0
 40
25.0
 40
26.0
 40
26.0
 40
26.0
 40
27.0
 40
27.0
 40
27.0
 40
28.0
 40
28.0
 40
28.0
 40
29.0
 40
29.0
 40
29.0
 40
30.0
 40
30.0
 40
30.0
 40
31.0
 40
31.0
 40
31.0
 40
32.0
 40
32.0
 40
32.0
 40
33.0
 40
33.0
 40
33.0
 40
33.0
 10
139.8926730891197
 20
154.8294111834263
 30
0.0
 10
139.8926730891197
 20
154.8294111834263
 30
0.0
 10
142.0344903652445
 20
154.8294111834263
 30
0.0
 10
142.0344903652445
 20
154.8294111834263
 30
0.0
 10
142.0344903652445
 20
154.8294111834263
 30
0.0
 10
140.9516961399171
 20
151.3157559800812
 30
0.0
 10
140.9516961399171
 20
151.3157559800812
 30
0.0
 10
141.8928968473923
 20
152.7887075264977
 30
0.0
 10
142.7341897198865
 20
153.4484437471474
 30
0.0
 10
143.8552245303272
 20
154.2926649527359
 30
0.0
 10
144.9803934580775
 20
155.1296514530327
 30
0.0
 10
146.3139908001845
 20
155.3044901642492
 30
0.0
 10
147.241066606852
 20
155.3044901642492
 30
0.0
 10
148.3855280820469
 20
155.3044901642492
 30
0.0
 10
149.4969166187653
 20
155.0752189084569
 30
0.0
 10
150.0784491203092
 20
153.8172414621372
 30
0.0
 10
150.5228667310863
 20
152.833838307127
 30
0.0
 10
150.5414702589793
 20
152.7201500811143
 30
0.0
 10
150.4140016419347
 20
150.7765981809602
 30
0.0
 10
151.5818897818837
 20
152.7699317437168
 30
0.0
 10
152.4424752018226
 20
153.6256940267945
 30
0.0
 10
153.9038856707499
 20
154.4507949398263
 30
0.0
 10
155.4455669174378
 20
155.3044901642492
 30
0.0
 10
156.339225275853
 20
155.3659851592288
 30
0.0
 10
157.3748216618963
 20
155.2147453676543
 30
0.0
 10
158.911679771723
 20
154.9877134254046
 30
0.0
 10
159.8859534176746
 20
154.4390816074493
 30
0.0
 10
160.3965169054045
 20
152.7816450760939
 30
0.0
 10
160.9070803931344
 20
151.1219692311958
 30
0.0
 10
160.6328506116007
 20
150.2303779314354
 30
0.0
 10
159.9992971339115
 20
147.597634224801
 30
0.0
 10
159.7105979417943
 20
146.4014962832367
 30
0.0
 10
159.2947746424084
 20
144.9400858143094
 30
0.0
 10
158.7463150793409
 20
143.2092687007094
 30
0.0
 10
158.7463150793409
 20
143.2092687007094
 30
0.0
 10
153.9038856707499
 20
127.8027915271048
 30
0.0
 10
153.9038856707499
 20
127.8027915271048
 30
0.0
 10
153.9038856707499
 20
127.8027915271048
 30
0.0
 10
151.3882752878863
 20
127.8027915271048
 30
0.0
 10
151.3882752878863
 20
127.8027915271048
 30
0.0
 10
151.3882752878863
 20
127.8027915271048
 30
0.0
 10
155.6250565106276
 20
141.2751908193897
 30
0.0
 10
155.6250565106276
 20
141.2751908193897
 30
0.0
 10
156.5094131050963
 20
144.0936252951782
 30
0.0
 10
157.109893644309
 20
146.1506931664571
 30
0.0
 10
157.4220195011804
 20
147.4415712963654
 30
0.0
 10
157.8095929989511
 20
149.0530157726519
 30
0.0
 10
157.9656559273867
 20
149.5826995529385
 30
0.0
 10
157.7816877071116
 20
150.7529992613181
 30
0.0
 10
157.6111553680925
 20
151.8430281919372
 30
0.0
 10
157.0582171779396
 20
152.5547853887321
 30
0.0
 10
156.1170164704645
 20
152.5547853887321
 30
0.0
 10
155.1096698860365
 20
152.5547853887321
 30
0.0
 10
154.2962823053817
 20
152.4412694176073
 30
0.0
 10
153.156643967048
 20
151.2945686288697
 30
0.0
 10
152.0170056287143
 20
150.1476955852443
 30
0.0
 10
151.076149431015
 20
148.7930831468137
 30
0.0
 10
150.3337308641742
 20
147.2290087646991
 30
0.0
 10
149.5957909244188
 20
145.6683794803425
 30
0.0
 10
148.8530278478023
 20
143.6822806228776
 30
0.0
 10
148.0964843801539
 20
141.2751908193897
 30
0.0
 10
148.0964843801539
 20
141.2751908193897
 30
0.0
 10
143.8552245303272
 20
127.8027915271048
 30
0.0
 10
143.8552245303272
 20
127.8027915271048
 30
0.0
 10
143.8552245303272
 20
127.8027915271048
 30
0.0
 10
141.486030802177
 20
127.8027915271048
 30
0.0
 10
141.486030802177
 20
127.8027915271048
 30
0.0
 10
141.486030802177
 20
127.8027915271048
 30
0.0
 10
146.3329388378533
 20
143.2092687007094
 30
0.0
 10
146.3329388378533
 20
143.2092687007094
 30
0.0
 10
146.8483254624444
 20
144.8408669988801
 30
0.0
 10
147.2314203331297
 20
146.1837661049335
 30
0.0
 10
147.4867020769946
 20
147.224185627838
 30
0.0
 10
147.9169947869641
 20
149.0197705792876
 30
0.0
 10
148.0306830129768
 20
150.2400242051577
 30
0.0
 10
147.709255392159
 20
151.3157559800812
 30
0.0
 10
147.3874832615654
 20
152.3916600098926
 30
0.0
 10
146.8245542879144
 20
152.6683013598569
 30
0.0
 10
145.8840425999909
 20
152.6683013598569
 30
0.0
 10
145.0989048209514
 20
152.6683013598569
 30
0.0
 10
144.3282364524954
 20
152.3275811915945
 30
0.0
 10
143.4531816219731
 20
151.6538923250251
 30
0.0
 10
142.34627171234
 20
150.8074318058939
 30
0.0
 10
141.901854101563
 20
150.1097995099067
 30
0.0
 10
141.3578731655808
 20
149.289521733736
 30
0.0
 10
140.6299240093235
 20
148.192602607601
 30
0.0
 10
140.2850697237515
 20
147.455696197173
 30
0.0
 10
139.6652966370942
 20
145.8385673095858
 30
0.0
 10
139.0506911970739
 20
144.2214384219986
 30
0.0
 10
138.463991048893
 20
142.3252566160164
 30
0.0
 10
138.0571250036777
 20
141.0154304484394
 30
0.0
 10
138.0571250036777
 20
141.0154304484394
 30
0.0
 10
133.9009590684727
 20
127.8027915271048
 30
0.0
 10
133.9009590684727
 20
127.8027915271048
 30
0.0
 10
133.9009590684727
 20
127.8027915271048
 30
0.0
 10
131.4180771143097
 20
127.8027915271048
 30
0.0
 10
131.4180771143097
 20
127.8027915271048
 30
0.0
 10
131.4180771143097
 20
127.8027915271048
 30
0.0
 10
139.8926730891197
 20
154.8294111834263
 30
0.0
 10
139.8926730891197
 20
154.8294111834263
 30
0.0
  0
HATCH
  5
6A9
330
6A2
100
AcDbEntity
  8
LOGO
 62
   250
420
  2234388
100
AcDbHatch
 10
0.0
 20
0.0
 30
0.0
210
0.0
220
0.0
230
1.0
  2
SOLID
 70
     1
 71
     0
 91
        1
 92
        1
 93
        1
 72
     4
 94
        3
 73
     0
 74
     1
 95
      104
 96
      100
 40
0.0
 40
0.0
 40
0.0
 40
0.0
 40
1.0
 40
1.0
 40
1.0
 40
2.0
 40
2.0
 40
2.0
 40
3.0
 40
3.0
 40
3.0
 40
4.0
 40
4.0
 40
4.0
 40
5.0
 40
5.0
 40
5.0
 40
6.0
 40
6.0
 40
6.0
 40
7.0
 40
7.0
 40
7.0
 40
8.0
 40
8.0
 40
8.0
 40
9.0
 40
9.0
 40
9.0
 40
10.0
 40
10.0
 40
10.0
 40
11.0
 40
11.0
 40
11.0
 40
12.0
 40
12.0
 40
12.0
 40
13.0
 40
13.0
 40
13.0
 40
14.0
 40
14.0
 40
14.0
 40
15.0
 40
15.0
 40
15.0
 40
16.0
 40
16.0
 40
16.0
 40
17.0
 40
17.0
 40
17.0
 40
18.0
 40
18.0
 40
18.0
 40
19.0
 40
19.0
 40
19.0
 40
20.0
 40
20.0
 40
20.0
 40
21.0
 40
21.0
 40
21.0
 40
22.0
 40
22.0
 40
22.0
 40
23.0
 40
23.0
 40
23.0
 40
24.0
 40
24.0
 40
24.0
 40
25.0
 40
25.0
 40
25.0
 40
26.0
 40
26.0
 40
26.0
 40
27.0
 40
27.0
 40
27.0
 40
28.0
 40
28.0
 40
28.0
 40
29.0
 40
29.0
 40
29.0
 40
30.0
 40
30.0
 40
30.0
 40
31.0
 40
31.0
 40
31.0
 40
32.0
 40
32.0
 40
32.0
 40
33.0
 40
33.0
 40
33.0
 40
33.0
 10
139.8926730891197
 20
154.8294111834263
 10
139.8926730891197
 20
154.8294111834263
 10
142.0344903652445
 20
154.8294111834263
 10
142.0344903652445
 20
154.8294111834263
 10
142.0344903652445
 20
154.8294111834263
 10
140.9516961399171
 20
151.3157559800812
 10
140.9516961399171
 20
151.3157559800812
 10
141.8928968473923
 20
152.7887075264977
 10
142.7341897198865
 20
153.4484437471474
 10
143.8552245303272
 20
154.2926649527359
 10
144.9803934580775
 20
155.1296514530327
 10
146.3139908001845
 20
155.3044901642492
 10
147.241066606852
 20
155.3044901642492
 10
148.3855280820469
 20
155.3044901642492
 10
149.4969166187653
 20
155.0752189084569
 10
150.0784491203092
 20
153.8172414621372
 10
150.5228667310863
 20
152.833838307127
 10
150.5414702589793
 20
152.7201500811143
 10
150.4140016419347
 20
150.7765981809602
 10
151.5818897818837
 20
152.7699317437168
 10
152.4424752018226
 20
153.6256940267945
 10
153.9038856707499
 20
154.4507949398263
 10
155.4455669174378
 20
155.3044901642492
 10
156.339225275853
 20
155.3659851592288
 10
157.3748216618963
 20
155.2147453676543
 10
158.911679771723
 20
154.9877134254046
 10
159.8859534176746
 20
154.4390816074493
 10
160.3965169054045
 20
152.7816450760939
 10
160.9070803931344
 20
151.1219692311958
 10
160.6328506116007
 20
150.2303779314354
 10
159.9992971339115
 20
147.597634224801
 10
159.7105979417943
 20
146.4014962832367
 10
159.2947746424084
 20
144.9400858143094
 10
158.7463150793409
 20
143.2092687007094
 10
158.7463150793409
 20
143.2092687007094
 10
153.9038856707499
 20
127.8027915271048
 10
153.9038856707499
 20
127.8027915271048
 10
153.9038856707499
 20
127.8027915271048
 10
151.3882752878863
 20
127.8027915271048
 10
151.3882752878863
 20
127.8027915271048
 10
151.3882752878863
 20
127.8027915271048
 10
155.6250565106276
 20
141.2751908193897
 10
155.6250565106276
 20
141.2751908193897
 10
156.5094131050963
 20
144.0936252951782
 10
157.109893644309
 20
146.1506931664571
 10
157.4220195011804
 20
147.4415712963654
 10
157.8095929989511
 20
149.0530157726519
 10
157.9656559273867
 20
149.5826995529385
 10
157.7816877071116
 20
150.7529992613181
 10
157.6111553680925
 20
151.8430281919372
 10
157.0582171779396
 20
152.5547853887321
 10
156.1170164704645
 20
152.5547853887321
 10
155.1096698860365
 20
152.5547853887321
 10
154.2962823053817
 20
152.4412694176073
 10
153.156643967048
 20
151.2945686288697
 10
152.0170056287143
 20
150.1476955852443
 10
151.076149431015
 20
148.7930831468137
 10
150.3337308641742
 20
147.2290087646991
 10
149.5957909244188
 20
145.6683794803425
 10
148.8530278478023
 20
143.6822806228776
 10
148.0964843801539
 20
141.2751908193897
 10
148.0964843801539
 20
141.2751908193897
 10
143.8552245303272
 20
127.8027915271048
 10
143.8552245303272
 20
127.8027915271048
 10
143.8552245303272
 20
127.8027915271048
 10
141.486030802177
 20
127.8027915271048
 10
141.486030802177
 20
127.8027915271048
 10
141.486030802177
 20
127.8027915271048
 10
146.3329388378533
 20
143.2092687007094
 10
146.3329388378533
 20
143.2092687007094
 10
146.8483254624444
 20
144.8408669988801
 10
147.2314203331297
 20
146.1837661049335
 10
147.4867020769946
 20
147.224185627838
 10
147.9169947869641
 20
149.0197705792876
 10
148.0306830129768
 20
150.2400242051577
 10
147.709255392159
 20
151.3157559800812
 10
147.3874832615654
 20
152.3916600098926
 10
146.8245542879144
 20
152.6683013598569
 10
145.8840425999909
 20
152.6683013598569
 10
145.0989048209514
 20
152.6683013598569
 10
144.3282364524954
 20
152.3275811915945
 10
143.4531816219731
 20
151.6538923250251
 10
142.34627171234
 20
150.8074318058939
 10
141.901854101563
 20
150.1097995099067
 10
141.3578731655808
 20
149.289521733736
 10
140.6299240093235
 20
148.192602607601
 10
140.2850697237515
 20
147.455696197173
 10
139.6652966370942
 20
145.8385673095858
 10
139.0506911970739
 20
144.2214384219986
 10
138.463991048893
 20
142.3252566160164
 10
138.0571250036777
 20
141.0154304484394
 10
138.0571250036777
 20
141.0154304484394
 10
133.9009590684727
 20
127.8027915271048
 10
133.9009590684727
 20
127.8027915271048
 10
133.9009590684727
 20
127.8027915271048
 10
131.4180771143097
 20
127.8027915271048
 10
131.4180771143097
 20
127.8027915271048
 10
131.4180771143097
 20
127.8027915271048
 10
139.8926730891197
 20
154.8294111834263
 10
139.8926730891197
 20
154.8294111834263
 97
        0
 75
     2
 76
     1
 98
        0
  0
SPLINE
  5
6AA
330
6A2
100
AcDbEntity
  8
LOGO
370
     0
100
AcDbSpline
210
0.0
220
0.0
230
1.0
 70
    11
 71
     3
 72
    29
 73
    25
 74
     0
 42
0.000000001
 43
0.0000000001
 40
0.0
 40
0.0
 40
0.0
 40
0.0
 40
1.0
 40
1.0
 40
1.0
 40
2.0
 40
2.0
 40
2.0
 40
3.0
 40
3.0
 40
3.0
 40
4.0
 40
4.0
 40
4.0
 40
5.0
 40
5.0
 40
5.0
 40
6.0
 40
6.0
 40
6.0
 40
7.0
 40
7.0
 40
7.0
 40
8.0
 40
8.0
 40
8.0
 40
8.0
 10
101.6420971922469
 20
132.8388354296931
 30
0.0
 10
101.630039350094
 20
134.7164137077823
 30
0.0
 10
102.2236296937908
 20
138.0598810818841
 30
0.0
 10
103.7487744712405
 20
142.5378191476827
 30
0.0
 10
105.819967243327
 20
148.5896501242061
 30
0.0
 10
107.0602024361932
 20
150.8074318058939
 30
0.0
 10
108.1522984254671
 20
151.8833358357054
 30
0.0
 10
109.741177511439
 20
153.4532668840085
 30
0.0
 10
111.8740375333931
 20
153.5290590346837
 30
0.0
 10
112.5075910110823
 20
153.4532668840085
 30
0.0
 10
113.4012493694975
 20
153.3490526768302
 30
0.0
 10
114.6683563248758
 20
152.7580461564518
 30
0.0
 10
114.7493161221879
 20
150.7838328862519
 30
0.0
 10
114.8106388622796
 20
149.0909118479895
 30
0.0
 10
114.3186789024427
 20
145.9191825971221
 30
0.0
 10
112.6164561002338
 20
140.9489400617108
 30
0.0
 10
110.6444821435766
 20
135.1746117095912
 30
0.0
 10
109.4669477299053
 20
132.8960240524753
 30
0.0
 10
108.5212683953448
 20
131.9072809959403
 30
0.0
 10
106.7346406980658
 20
130.0538184021569
 30
0.0
 10
104.8222669326213
 20
130.2336525051225
 30
0.0
 10
104.5408024457958
 20
130.2336525051225
 30
0.0
 10
104.1721769856939
 20
130.2336525051225
 30
0.0
 10
101.6465758193322
 20
130.6305277668397
 30
0.0
 10
101.6420971922469
 20
132.8388354296931
 30
0.0
  0
SPLINE
  5
6AB
330
6A2
100
AcDbEntity
  8
LOGO
370
     0
100
AcDbSpline
210
0.0
220
0.0
230
1.0
 70
    11
 71
     3
 72
    32
 73
    28
 74
     0
 42
0.000000001
 43
0.0000000001
 40
0.0
 40
0.0
 40
0.0
 40
0.0
 40
1.0
 40
1.0
 40
1.0
 40
2.0
 40
2.0
 40
2.0
 40
3.0
 40
3.0
 40
3.0
 40
4.0
 40
4.0
 40
4.0
 40
5.0
 40
5.0
 40
5.0
 40
6.0
 40
6.0
 40
6.0
 40
7.0
 40
7.0
 40
7.0
 40
8.0
 40
8.0
 40
8.0
 40
9.0
 40
9.0
 40
9.0
 40
9.0
 10
106.2595617172429
 20
153.4105476718098
 30
0.0
 10
104.8222669326213
 20
151.5474388043041
 30
0.0
 10
103.7177685914188
 20
149.8758773721411
 30
0.0
 10
101.9232171692965
 20
144.6141795664062
 30
0.0
 10
100.2754269116635
 20
139.7999999594306
 30
0.0
 10
99.22777268346732
 20
136.3052927937542
 30
0.0
 10
99.06964269637689
 20
132.039572749846
 30
0.0
 10
98.94665270641765
 20
128.8673267343149
 30
0.0
 10
100.8807305877373
 20
127.8027915271048
 30
0.0
 10
103.7129454545577
 20
127.8027915271048
 30
0.0
 10
104.9352661390825
 20
127.8027915271048
 30
0.0
 10
108.0151835347002
 20
127.8827177950895
 30
0.0
 10
110.2045431598849
 20
130.5926316915021
 30
0.0
 10
111.7417457794874
 20
132.4984597712065
 30
0.0
 10
113.155269389579
 20
134.475256864725
 30
0.0
 10
115.0562743324223
 20
140.9489400617108
 30
0.0
 10
116.6361961642235
 20
146.3680788349845
 30
0.0
 10
117.7282921534974
 20
149.8639917848761
 30
0.0
 10
117.6480213757369
 20
151.8595646611754
 30
0.0
 10
117.6480213757369
 20
151.8595646611754
 30
0.0
 10
117.6480213757369
 20
151.8595646611754
 30
0.0
 10
117.6480213757369
 20
151.8595646611754
 30
0.0
 10
117.13229024137
 20
155.18150017429
 30
0.0
 10
114.7162431837115
 20
155.886194920681
 30
0.0
 10
113.3351034925446
 20
155.886194920681
 30
0.0
 10
111.9829026225447
 20
155.886194920681
 30
0.0
 10
108.3414342923792
 20
156.1251124501957
 30
0.0
 10
106.2595617172429
 20
153.4105476718098
 30
0.0
  0
HATCH
  5
6AC
330
6A2
100
AcDbEntity
  8
LOGO
 62
   250
420
  2234388
100
AcDbHatch
 10
0.0
 20
0.0
 30
0.0
210
0.0
220
0.0
230
1.0
  2
SOLID
 70
     1
 71
     0
 91
        2
 92
        1
 93
        1
 72
     4
 94
        3
 73
     0
 74
     1
 95
       29
 96
       25
 40
0.0
 40
0.0
 40
0.0
 40
0.0
 40
1.0
 40
1.0
 40
1.0
 40
2.0
 40
2.0
 40
2.0
 40
3.0
 40
3.0
 40
3.0
 40
4.0
 40
4.0
 40
4.0
 40
5.0
 40
5.0
 40
5.0
 40
6.0
 40
6.0
 40
6.0
 40
7.0
 40
7.0
 40
7.0
 40
8.0
 40
8.0
 40
8.0
 40
8.0
 10
101.6420971922469
 20
132.8388354296931
 10
101.630039350094
 20
134.7164137077823
 10
102.2236296937908
 20
138.0598810818841
 10
103.7487744712405
 20
142.5378191476827
 10
105.819967243327
 20
148.5896501242061
 10
107.0602024361932
 20
150.8074318058939
 10
108.1522984254671
 20
151.8833358357054
 10
109.741177511439
 20
153.4532668840085
 10
111.8740375333931
 20
153.5290590346837
 10
112.5075910110823
 20
153.4532668840085
 10
113.4012493694975
 20
153.3490526768302
 10
114.6683563248758
 20
152.7580461564518
 10
114.7493161221879
 20
150.7838328862519
 10
114.8106388622796
 20
149.0909118479895
 10
114.3186789024427
 20
145.9191825971221
 10
112.6164561002338
 20
140.9489400617108
 10
110.6444821435766
 20
135.1746117095912
 10
109.4669477299053
 20
132.8960240524753
 10
108.5212683953448
 20
131.9072809959403
 10
106.7346406980658
 20
130.0538184021569
 10
104.8222669326213
 20
130.2336525051225
 10
104.5408024457958
 20
130.2336525051225
 10
104.1721769856939
 20
130.2336525051225
 10
101.6465758193322
 20
130.6305277668397
 10
101.6420971922469
 20
132.8388354296931
 97
        0
 92
        1
 93
        1
 72
     4
 94
        3
 73
     0
 74
     1
 95
       32
 96
       28
 40
0.0
 40
0.0
 40
0.0
 40
0.0
 40
1.0
 40
1.0
 40
1.0
 40
2.0
 40
2.0
 40
2.0
 40
3.0
 40
3.0
 40
3.0
 40
4.0
 40
4.0
 40
4.0
 40
5.0
 40
5.0
 40
5.0
 40
6.0
 40
6.0
 40
6.0
 40
7.0
 40
7.0
 40
7.0
 40
8.0
 40
8.0
 40
8.0
 40
9.0
 40
9.0
 40
9.0
 40
9.0
 10
106.2595617172429
 20
153.4105476718098
 10
104.8222669326213
 20
151.5474388043041
 10
103.7177685914188
 20
149.8758773721411
 10
101.9232171692965
 20
144.6141795664062
 10
100.2754269116635
 20
139.7999999594306
 10
99.22777268346732
 20
136.3052927937542
 10
99.06964269637689
 20
132.039572749846
 10
98.94665270641765
 20
128.8673267343149
 10
100.8807305877373
 20
127.8027915271048
 10
103.7129454545577
 20
127.8027915271048
 10
104.9352661390825
 20
127.8027915271048
 10
108.0151835347002
 20
127.8827177950895
 10
110.2045431598849
 20
130.5926316915021
 10
111.7417457794874
 20
132.4984597712065
 10
113.155269389579
 20
134.475256864725
 10
115.0562743324223
 20
140.9489400617108
 10
116.6361961642235
 20
146.3680788349845
 10
117.7282921534974
 20
149.8639917848761
 10
117.6480213757369
 20
151.8595646611754
 10
117.6480213757369
 20
151.8595646611754
 10
117.6480213757369
 20
151.8595646611754
 10
117.6480213757369
 20
151.8595646611754
 10
117.13229024137
 20
155.18150017429
 10
114.7162431837115
 20
155.886194920681
 10
113.3351034925446
 20
155.886194920681
 10
111.9829026225447
 20
155.886194920681
 10
108.3414342923792
 20
156.1251124501957
 10
106.2595617172429
 20
153.4105476718098
 97
        0
 75
     2
 76
     1
 98
        0
  0
ENDBLK
  5
6AD
330
6A2
100
AcDbEntity
  8
0
100
AcDbBlockEnd
  0
BLOCK
  5
D60
330
D5F
100
AcDbEntity
  8
0
100
AcDbBlockBegin
  2
*D6
 70
     1
 10
0.0
 20
0.0
 30
0.0
  3
*D6
  1
*D6
  0
LINE
  5
D62
330
D5F
100
AcDbEntity
  8
MODEL
  6
Continuous
 62
     0
370
    -2
100
AcDbLine
 10
405.0468112244901
 20
974.9479591836734
 30
0.0
 11
990.1075255102048
 21
974.9479591836734
 31
0.0
  0
LINE
  5
D63
330
D5F
100
AcDbEntity
  8
MODEL
  6
Continuous
 62
     0
370
    -2
100
AcDbLine
 10
405.0468112244901
 20
1643.425255102041
 30
0.0
 11
990.1075255102048
 21
1643.425255102041
 31
0.0
  0
LINE
  5
D64
330
D5F
100
AcDbEntity
  8
MODEL
  6
Continuous
 62
     0
370
    -2
100
AcDbLine
 10
990.1075255102048
 20
986.9479591836734
 30
0.0
 11
990.1075255102048
 21
1631.425255102041
 31
0.0
  0
INSERT
  5
D65
330
D5F
100
AcDbEntity
  8
MODEL
 62
     0
370
    -2
100
AcDbBlockReference
  2
_DOT
 10
990.1075255102048
 20
974.9479591836734
 30
0.0
 41
12.0
 42
12.0
 43
12.0
 50
270.0
  0
INSERT
  5
D66
330
D5F
100
AcDbEntity
  8
MODEL
 62
     0
370
    -2
100
AcDbBlockReference
  2
_DOT
 10
990.1075255102048
 20
1643.425255102041
 30
0.0
 41
12.0
 42
12.0
 43
12.0
 50
90.0
  0
MTEXT
  5
D67
330
D5F
100
AcDbEntity
  8
MODEL
  6
Continuous
 62
     0
100
AcDbMText
 10
958.1075255102048
 20
1309.186607142857
 30
0.0
 40
24.0
 41
0.0
 46
0.0
 71
     5
 72
     1
  1
\A1;668
  7
ＭＳ ゴシック
 11
0.0
 21
1.0
 31
0.0
 73
     1
 44
1.0
  0
POINT
  5
D68
330
D5F
100
AcDbEntity
  8
Defpoints
 62
     0
100
AcDbPoint
 10
395.0468112244901
 20
974.9479591836734
 30
0.0
  0
POINT
  5
D69
330
D5F
100
AcDbEntity
  8
Defpoints
 62
     0
100
AcDbPoint
 10
395.0468112244901
 20
1643.425255102041
 30
0.0
  0
POINT
  5
D6A
330
D5F
100
AcDbEntity
  8
Defpoints
 62
     0
100
AcDbPoint
 10
990.1075255102048
 20
1643.425255102041
 30
0.0
  0
ENDBLK
  5
D61
330
D5F
100
AcDbEntity
  8
0
100
AcDbBlockEnd
  0
BLOCK
  5
D78
330
D77
100
AcDbEntity
  8
0
100
AcDbBlockBegin
  2
*D7
 70
     1
 10
0.0
 20
0.0
 30
0.0
  3
*D7
  1
*D7
  0
LINE
  5
D7A
330
D77
100
AcDbEntity
  8
MODEL
  6
Continuous
 62
     0
370
    -2
100
AcDbLine
 10
462.9311929069922
 20
2176.112294228638
 30
0.0
 11
462.9311929069922
 21
2427.836190547095
 31
0.0
  0
LINE
  5
D7B
330
D77
100
AcDbEntity
  8
MODEL
  6
Continuous
 62
     0
370
    -2
100
AcDbLine
 10
1222.299117436598
 20
2176.112294228638
 30
0.0
 11
1222.299117436598
 21
2427.836190547095
 31
0.0
  0
LINE
  5
D7C
330
D77
100
AcDbEntity
  8
MODEL
  6
Continuous
 62
     0
370
    -2
100
AcDbLine
 10
474.9311929069922
 20
2427.836190547095
 30
0.0
 11
1210.299117436598
 21
2427.836190547095
 31
0.0
  0
INSERT
  5
D7D
330
D77
100
AcDbEntity
  8
MODEL
 62
     0
370
    -2
100
AcDbBlockReference
  2
_DOT
 10
462.9311929069922
 20
2427.836190547095
 30
0.0
 41
12.0
 42
12.0
 43
12.0
 50
180.0
  0
INSERT
  5
D7E
330
D77
100
AcDbEntity
  8
MODEL
 62
     0
370
    -2
100
AcDbBlockReference
  2
_DOT
 10
1222.299117436598
 20
2427.836190547095
 30
0.0
 41
12.0
 42
12.0
 43
12.0
  0
MTEXT
  5
D7F
330
D77
100
AcDbEntity
  8
MODEL
  6
Continuous
 62
     0
100
AcDbMText
 10
842.6151551717953
 20
2459.836190547095
 30
0.0
 40
24.0
 41
0.0
 46
0.0
 71
     5
 72
     1
  1
\A1;759
  7
ＭＳ ゴシック
 73
     1
 44
1.0
  0
POINT
  5
D80
330
D77
100
AcDbEntity
  8
Defpoints
 62
     0
100
AcDbPoint
 10
462.9311929069922
 20
2166.112294228638
 30
0.0
  0
POINT
  5
D81
330
D77
100
AcDbEntity
  8
Defpoints
 62
     0
100
AcDbPoint
 10
1222.299117436598
 20
2166.112294228638
 30
0.0
  0
POINT
  5
D82
330
D77
100
AcDbEntity
  8
Defpoints
 62
     0
100
AcDbPoint
 10
1222.299117436598
 20
2427.836190547095
 30
0.0
  0
ENDBLK
  5
D79
330
D77
100
AcDbEntity
  8
0
100
AcDbBlockEnd
  0
BLOCK
  5
D8A
330
D89
100
AcDbEntity
  8
0
100
AcDbBlockBegin
  2
*D8
 70
     1
 10
0.0
 20
0.0
 30
0.0
  3
*D8
  1
*D8
  0
LINE
  5
D8C
330
D89
100
AcDbEntity
  8
MODEL
  6
Continuous
 62
     0
370
    -2
100
AcDbLine
 10
581.4610059718598
 20
2044.835716437608
 30
0.0
 11
581.4610059718598
 21
2208.031762863991
 31
0.0
  0
LINE
  5
D8D
330
D89
100
AcDbEntity
  8
MODEL
  6
Continuous
 62
     0
370
    -2
100
AcDbLine
 10
1441.49369157876
 20
2044.835716437608
 30
0.0
 11
1441.49369157876
 21
2208.031762863991
 31
0.0
  0
LINE
  5
D8E
330
D89
100
AcDbEntity
  8
MODEL
  6
Continuous
 62
     0
370
    -2
100
AcDbLine
 10
593.4610059718598
 20
2208.031762863991
 30
0.0
 11
1429.49369157876
 21
2208.031762863991
 31
0.0
  0
INSERT
  5
D8F
330
D89
100
AcDbEntity
  8
MODEL
 62
     0
370
    -2
100
AcDbBlockReference
  2
_DOT
 10
581.4610059718598
 20
2208.031762863991
 30
0.0
 41
12.0
 42
12.0
 43
12.0
 50
180.0
  0
INSERT
  5
D90
330
D89
100
AcDbEntity
  8
MODEL
 62
     0
370
    -2
100
AcDbBlockReference
  2
_DOT
 10
1441.49369157876
 20
2208.031762863991
 30
0.0
 41
12.0
 42
12.0
 43
12.0
  0
MTEXT
  5
D91
330
D89
100
AcDbEntity
  8
MODEL
  6
Continuous
 62
     0
100
AcDbMText
 10
1011.47734877531
 20
2240.031762863991
 30
0.0
 40
24.0
 41
0.0
 46
0.0
 71
     5
 72
     1
  1
\A1;860
  7
ＭＳ ゴシック
 73
     1
 44
1.0
  0
POINT
  5
D92
330
D89
100
AcDbEntity
  8
Defpoints
 62
     0
100
AcDbPoint
 10
581.4610059718598
 20
2034.835716437608
 30
0.0
  0
POINT
  5
D93
330
D89
100
AcDbEntity
  8
Defpoints
 62
     0
100
AcDbPoint
 10
1441.49369157876
 20
2034.835716437608
 30
0.0
  0
POINT
  5
D94
330
D89
100
AcDbEntity
  8
Defpoints
 62
     0
100
AcDbPoint
 10
1441.49369157876
 20
2208.031762863991
 30
0.0
  0
ENDBLK
  5
D8B
330
D89
100
AcDbEntity
  8
0
100
AcDbBlockEnd
  0
BLOCK
  5
E15
330
E14
100
AcDbEntity
  8
0
100
AcDbBlockBegin
  2
*D9
 70
     1
 10
0.0
 20
0.0
 30
0.0
  3
*D9
  1
*D9
  0
LINE
  5
E17
330
E14
100
AcDbEntity
  8
DIM
  6
HIDDEN
 62
     0
 48
0.05
370
    -2
100
AcDbLine
 10
257.3217201166183
 20
2040.252478134111
 30
0.0
 11
257.3217201166183
 21
1865.746546184592
 31
0.0
  0
LINE
  5
E18
330
E14
100
AcDbEntity
  8
DIM
  6
HIDDEN
 62
     0
 48
0.05
370
    -2
100
AcDbLine
 10
862.3185131195339
 20
2040.252478134111
 30
0.0
 11
862.3185131195339
 21
1865.746546184592
 31
0.0
  0
LINE
  5
E19
330
E14
100
AcDbEntity
  8
DIM
  6
HIDDEN
 62
     0
 48
0.05
370
    -2
100
AcDbLine
 10
269.3217201166183
 20
1865.746546184592
 30
0.0
 11
850.3185131195339
 21
1865.746546184592
 31
0.0
  0
INSERT
  5
E1A
330
E14
100
AcDbEntity
  8
DIM
 62
     0
370
    -2
100
AcDbBlockReference
  2
_DOT
 10
257.3217201166183
 20
1865.746546184592
 30
0.0
 41
12.0
 42
12.0
 43
12.0
 50
180.0
  0
INSERT
  5
E1B
330
E14
100
AcDbEntity
  8
DIM
 62
     0
370
    -2
100
AcDbBlockReference
  2
_DOT
 10
862.3185131195339
 20
1865.746546184592
 30
0.0
 41
12.0
 42
12.0
 43
12.0
  0
MTEXT
  5
E1C
330
E14
100
AcDbEntity
  8
DIM
  6
HIDDEN
 62
     0
 48
0.05
100
AcDbMText
 10
559.8201166180761
 20
1897.746546184592
 30
0.0
 40
24.0
 41
0.0
 46
0.0
 71
     5
 72
     1
  1
\A1;605
  7
ＭＳ ゴシック
 73
     1
 44
1.0
  0
POINT
  5
E1D
330
E14
100
AcDbEntity
  8
Defpoints
 62
     0
100
AcDbPoint
 10
257.3217201166183
 20
2050.252478134111
 30
0.0
  0
POINT
  5
E1E
330
E14
100
AcDbEntity
  8
Defpoints
 62
     0
100
AcDbPoint
 10
862.3185131195339
 20
2050.252478134111
 30
0.0
  0
POINT
  5
E1F
330
E14
100
AcDbEntity
  8
Defpoints
 62
     0
100
AcDbPoint
 10
862.3185131195339
 20
1865.746546184592
 30
0.0
  0
ENDBLK
  5
E16
330
E14
100
AcDbEntity
  8
0
100
AcDbBlockEnd
  0
BLOCK
  5
E28
330
E27
100
AcDbEntity
  8
0
100
AcDbBlockBegin
  2
*D10
 70
     1
 10
0.0
 20
0.0
 30
0.0
  3
*D10
  1
*D10
  0
LINE
  5
E2A
330
E27
100
AcDbEntity
  8
DIM
 62
     0
 48
0.05
370
    -2
100
AcDbLine
 10
257.3217201166183
 20
2020.252478134111
 30
0.0
 11
257.3217201166183
 21
1956.400653342984
 31
0.0
  0
LINE
  5
E2B
330
E27
100
AcDbEntity
  8
DIM
 62
     0
 48
0.05
370
    -2
100
AcDbLine
 10
862.3185131195339
 20
2020.252478134111
 30
0.0
 11
862.3185131195339
 21
1956.400653342984
 31
0.0
  0
LINE
  5
E2C
330
E27
100
AcDbEntity
  8
DIM
 62
     0
 48
0.05
370
    -2
100
AcDbLine
 10
267.3217201166183
 20
1956.400653342984
 30
0.0
 11
852.3185131195339
 21
1956.400653342984
 31
0.0
  0
INSERT
  5
E2D
330
E27
100
AcDbEntity
  8
DIM
 62
     0
370
    -2
100
AcDbBlockReference
  2
_DOT
 10
257.3217201166183
 20
1956.400653342984
 30
0.0
 41
10.0
 42
10.0
 43
10.0
 50
180.0
  0
INSERT
  5
E2E
330
E27
100
AcDbEntity
  8
DIM
 62
     0
370
    -2
100
AcDbBlockReference
  2
_DOT
 10
862.3185131195339
 20
1956.400653342984
 30
0.0
 41
10.0
 42
10.0
 43
10.0
  0
MTEXT
  5
E2F
330
E27
100
AcDbEntity
  8
DIM
 62
     0
 48
0.05
100
AcDbMText
 10
559.8201166180761
 20
1988.400653342984
 30
0.0
 40
24.0
 41
0.0
 46
0.0
 71
     5
 72
     1
  1
\A1;605
  7
ＭＳ ゴシック
 73
     1
 44
1.0
  0
POINT
  5
E30
330
E27
100
AcDbEntity
  8
Defpoints
 62
     0
100
AcDbPoint
 10
257.3217201166183
 20
2050.252478134111
 30
0.0
  0
POINT
  5
E31
330
E27
100
AcDbEntity
  8
Defpoints
 62
     0
100
AcDbPoint
 10
862.3185131195339
 20
2050.252478134111
 30
0.0
  0
POINT
  5
E32
330
E27
100
AcDbEntity
  8
Defpoints
 62
     0
100
AcDbPoint
 10
862.3185131195339
 20
1956.400653342984
 30
0.0
  0
ENDBLK
  5
E29
330
E27
100
AcDbEntity
  8
0
100
AcDbBlockEnd
  0
BLOCK
  5
E47
330
E46
100
AcDbEntity
  8
0
100
AcDbBlockBegin
  2
*D11
 70
     1
 10
0.0
 20
0.0
 30
0.0
  3
*D11
  1
*D11
  0
LINE
  5
E49
330
E46
100
AcDbEntity
  8
DIM
 62
     0
 48
0.05
370
    -2
100
AcDbLine
 10
892.3185131195339
 20
2456.527696793004
 30
0.0
 11
971.1251380287206
 21
2456.527696793004
 31
0.0
  0
LINE
  5
E4A
330
E46
100
AcDbEntity
  8
DIM
 62
     0
 48
0.05
370
    -2
100
AcDbLine
 10
892.3185131195339
 20
2050.252478134111
 30
0.0
 11
971.1251380287206
 21
2050.252478134111
 31
0.0
  0
LINE
  5
E4B
330
E46
100
AcDbEntity
  8
DIM
 62
     0
 48
0.05
370
    -2
100
AcDbLine
 10
971.1251380287206
 20
2446.527696793004
 30
0.0
 11
971.1251380287206
 21
2060.252478134111
 31
0.0
  0
INSERT
  5
E4C
330
E46
100
AcDbEntity
  8
DIM
 62
     0
370
    -2
100
AcDbBlockReference
  2
_DOT
 10
971.1251380287206
 20
2456.527696793004
 30
0.0
 41
10.0
 42
10.0
 43
10.0
 50
90.0
  0
INSERT
  5
E4D
330
E46
100
AcDbEntity
  8
DIM
 62
     0
370
    -2
100
AcDbBlockReference
  2
_DOT
 10
971.1251380287206
 20
2050.252478134111
 30
0.0
 41
10.0
 42
10.0
 43
10.0
 50
270.0
  0
MTEXT
  5
E4E
330
E46
100
AcDbEntity
  8
DIM
 62
     0
 48
0.05
100
AcDbMText
 10
939.1251380287206
 20
2253.390087463557
 30
0.0
 40
24.0
 41
0.0
 46
0.0
 71
     5
 72
     1
  1
\A1;406
  7
ＭＳ ゴシック
 11
0.0
 21
1.0
 31
0.0
 73
     1
 44
1.0
  0
POINT
  5
E4F
330
E46
100
AcDbEntity
  8
Defpoints
 62
     0
100
AcDbPoint
 10
862.3185131195339
 20
2456.527696793004
 30
0.0
  0
POINT
  5
E50
330
E46
100
AcDbEntity
  8
Defpoints
 62
     0
100
AcDbPoint
 10
862.3185131195339
 20
2050.252478134111
 30
0.0
  0
POINT
  5
E51
330
E46
100
AcDbEntity
  8
Defpoints
 62
     0
100
AcDbPoint
 10
971.1251380287206
 20
2050.252478134111
 30
0.0
  0
ENDBLK
  5
E48
330
E46
100
AcDbEntity
  8
0
100
AcDbBlockEnd
  0
BLOCK
  5
E86
330
E85
100
AcDbEntity
  8
0
100
AcDbBlockBegin
  2
*D12
 70
     1
 10
0.0
 20
0.0
 30
0.0
  3
*D12
  1
*D12
  0
LINE
  5
E88
330
E85
100
AcDbEntity
  8
HIDDEN
 62
     0
 48
0.05
370
    -2
100
AcDbLine
 10
659.345043731779
 20
2246.638192419825
 30
0.0
 11
659.345043731779
 21
2195.315239972955
 31
0.0
  0
LINE
  5
E89
330
E85
100
AcDbEntity
  8
HIDDEN
 62
     0
 48
0.05
370
    -2
100
AcDbLine
 10
694.345043731779
 20
2246.638192419825
 30
0.0
 11
694.345043731779
 21
2195.315239972955
 31
0.0
  0
LINE
  5
E8A
330
E85
100
AcDbEntity
  8
HIDDEN
 62
     0
 48
0.05
370
    -2
100
AcDbLine
 10
649.345043731779
 20
2195.315239972955
 30
0.0
 11
639.345043731779
 21
2195.315239972955
 31
0.0
  0
LINE
  5
E8B
330
E85
100
AcDbEntity
  8
HIDDEN
 62
     0
 48
0.05
370
    -2
100
AcDbLine
 10
704.345043731779
 20
2195.315239972955
 30
0.0
 11
714.345043731779
 21
2195.315239972955
 31
0.0
  0
INSERT
  5
E8C
330
E85
100
AcDbEntity
  8
HIDDEN
 62
     0
370
    -2
100
AcDbBlockReference
  2
_DOT
 10
659.345043731779
 20
2195.315239972955
 30
0.0
 41
10.0
 42
10.0
 43
10.0
  0
INSERT
  5
E8D
330
E85
100
AcDbEntity
  8
HIDDEN
 62
     0
370
    -2
100
AcDbBlockReference
  2
_DOT
 10
694.345043731779
 20
2195.315239972955
 30
0.0
 41
10.0
 42
10.0
 43
10.0
 50
180.0
  0
MTEXT
  5
E8E
330
E85
100
AcDbEntity
  8
HIDDEN
 62
     0
 48
0.05
100
AcDbMText
 10
676.845043731779
 20
2227.315239972955
 30
0.0
 40
24.0
 41
0.0
 46
0.0
 71
     5
 72
     1
  1
\A1;35
  7
ＭＳ ゴシック
 73
     1
 44
1.0
  0
POINT
  5
E8F
330
E85
100
AcDbEntity
  8
Defpoints
 62
     0
100
AcDbPoint
 10
659.345043731779
 20
2266.638192419825
 30
0.0
  0
POINT
  5
E90
330
E85
100
AcDbEntity
  8
Defpoints
 62
     0
100
AcDbPoint
 10
694.345043731779
 20
2266.638192419825
 30
0.0
  0
POINT
  5
E91
330
E85
100
AcDbEntity
  8
Defpoints
 62
     0
100
AcDbPoint
 10
694.345043731779
 20
2195.315239972955
 30
0.0
  0
ENDBLK
  5
E87
330
E85
100
AcDbEntity
  8
0
100
AcDbBlockEnd
  0
BLOCK
  5
E96
330
E95
100
AcDbEntity
  8
0
100
AcDbBlockBegin
  2
*D13
 70
     1
 10
0.0
 20
0.0
 30
0.0
  3
*D13
  1
*D13
  0
LINE
  5
E98
330
E95
100
AcDbEntity
  8
DIM
 62
     0
 48
0.05
370
    -2
100
AcDbLine
 10
659.345043731779
 20
2246.638192419825
 30
0.0
 11
659.345043731779
 21
2187.906362691555
 31
0.0
  0
LINE
  5
E99
330
E95
100
AcDbEntity
  8
DIM
 62
     0
 48
0.05
370
    -2
100
AcDbLine
 10
694.345043731779
 20
2246.638192419825
 30
0.0
 11
694.345043731779
 21
2187.906362691555
 31
0.0
  0
LINE
  5
E9A
330
E95
100
AcDbEntity
  8
DIM
 62
     0
 48
0.05
370
    -2
100
AcDbLine
 10
669.345043731779
 20
2187.906362691555
 30
0.0
 11
684.345043731779
 21
2187.906362691555
 31
0.0
  0
INSERT
  5
E9B
330
E95
100
AcDbEntity
  8
DIM
 62
     0
370
    -2
100
AcDbBlockReference
  2
_DOT
 10
659.345043731779
 20
2187.906362691555
 30
0.0
 41
10.0
 42
10.0
 43
10.0
 50
180.0
  0
INSERT
  5
E9C
330
E95
100
AcDbEntity
  8
DIM
 62
     0
370
    -2
100
AcDbBlockReference
  2
_DOT
 10
694.345043731779
 20
2187.906362691555
 30
0.0
 41
10.0
 42
10.0
 43
10.0
  0
MTEXT
  5
E9D
330
E95
100
AcDbEntity
  8
DIM
 62
     0
 48
0.05
100
AcDbMText
 10
676.845043731779
 20
2219.906362691555
 30
0.0
 40
24.0
 41
0.0
 46
0.0
 71
     5
 72
     1
  1
\A1;35
  7
ＭＳ ゴシック
 73
     1
 44
1.0
  0
POINT
  5
E9E
330
E95
100
AcDbEntity
  8
Defpoints
 62
     0
100
AcDbPoint
 10
659.345043731779
 20
2266.638192419825
 30
0.0
  0
POINT
  5
E9F
330
E95
100
AcDbEntity
  8
Defpoints
 62
     0
100
AcDbPoint
 10
694.345043731779
 20
2266.638192419825
 30
0.0
  0
POINT
  5
EA0
330
E95
100
AcDbEntity
  8
Defpoints
 62
     0
100
AcDbPoint
 10
694.345043731779
 20
2187.906362691555
 30
0.0
  0
ENDBLK
  5
E97
330
E95
100
AcDbEntity
  8
0
100
AcDbBlockEnd
  0
BLOCK
  5
EAA
330
EA9
100
AcDbEntity
  8
0
100
AcDbBlockBegin
  2
*D14
 70
     1
 10
0.0
 20
0.0
 30
0.0
  3
*D14
  1
*D14
  0
LINE
  5
EAC
330
EA9
100
AcDbEntity
  8
DIM
 62
     0
 48
0.05
370
    -2
100
AcDbLine
 10
206.2786306067267
 20
2508.362716361517
 30
0.0
 11
206.2786306067267
 21
2562.407600005534
 31
0.0
  0
LINE
  5
EAD
330
EA9
100
AcDbEntity
  8
DIM
 62
     0
 48
0.05
370
    -2
100
AcDbLine
 10
308.3648096265098
 20
2508.362716361517
 30
0.0
 11
308.3648096265098
 21
2562.407600005534
 31
0.0
  0
LINE
  5
EAE
330
EA9
100
AcDbEntity
  8
DIM
 62
     0
 48
0.05
370
    -2
100
AcDbLine
 10
216.2786306067267
 20
2562.407600005534
 30
0.0
 11
298.3648096265098
 21
2562.407600005534
 31
0.0
  0
INSERT
  5
EAF
330
EA9
100
AcDbEntity
  8
DIM
 62
     0
370
    -2
100
AcDbBlockReference
  2
_DOT
 10
206.2786306067267
 20
2562.407600005534
 30
0.0
 41
10.0
 42
10.0
 43
10.0
 50
180.0
  0
INSERT
  5
EB0
330
EA9
100
AcDbEntity
  8
DIM
 62
     0
370
    -2
100
AcDbBlockReference
  2
_DOT
 10
308.3648096265098
 20
2562.407600005534
 30
0.0
 41
10.0
 42
10.0
 43
10.0
  0
MTEXT
  5
EB1
330
EA9
100
AcDbEntity
  8
DIM
 62
     0
 48
0.05
100
AcDbMText
 10
257.3217201166183
 20
2594.407600005534
 30
0.0
 40
24.0
 41
0.0
 46
0.0
 71
     5
 72
     1
  1
\A1;102
  7
ＭＳ ゴシック
 73
     1
 44
1.0
  0
POINT
  5
EB2
330
EA9
100
AcDbEntity
  8
Defpoints
 62
     0
100
AcDbPoint
 10
206.2786306067267
 20
2488.362716361517
 30
0.0
  0
POINT
  5
EB3
330
EA9
100
AcDbEntity
  8
Defpoints
 62
     0
100
AcDbPoint
 10
308.3648096265098
 20
2488.362716361517
 30
0.0
  0
POINT
  5
EB4
330
EA9
100
AcDbEntity
  8
Defpoints
 62
     0
100
AcDbPoint
 10
308.3648096265098
 20
2562.407600005534
 30
0.0
  0
ENDBLK
  5
EAB
330
EA9
100
AcDbEntity
  8
0
100
AcDbBlockEnd
  0
BLOCK
  5
ED4
330
ED3
100
AcDbEntity
  8
0
100
AcDbBlockBegin
  2
*D15
 70
     1
 10
0.0
 20
0.0
 30
0.0
  3
*D15
  1
*D15
  0
LINE
  5
ED6
330
ED3
100
AcDbEntity
  8
MODEL
 62
     0
 48
0.05
370
    -2
100
AcDbLine
 10
892.3185131195339
 20
2456.527696793004
 30
0.0
 11
999.525827304914
 21
2456.527696793004
 31
0.0
  0
LINE
  5
ED7
330
ED3
100
AcDbEntity
  8
MODEL
 62
     0
 48
0.05
370
    -2
100
AcDbLine
 10
892.3185131195339
 20
2050.252478134111
 30
0.0
 11
999.525827304914
 21
2050.252478134111
 31
0.0
  0
LINE
  5
ED8
330
ED3
100
AcDbEntity
  8
MODEL
 62
     0
 48
0.05
370
    -2
100
AcDbLine
 10
999.525827304914
 20
2446.527696793004
 30
0.0
 11
999.525827304914
 21
2060.252478134111
 31
0.0
  0
INSERT
  5
ED9
330
ED3
100
AcDbEntity
  8
MODEL
 62
     0
370
    -2
100
AcDbBlockReference
  2
_DOT
 10
999.525827304914
 20
2456.527696793004
 30
0.0
 41
10.0
 42
10.0
 43
10.0
 50
90.0
  0
INSERT
  5
EDA
330
ED3
100
AcDbEntity
  8
MODEL
 62
     0
370
    -2
100
AcDbBlockReference
  2
_DOT
 10
999.525827304914
 20
2050.252478134111
 30
0.0
 41
10.0
 42
10.0
 43
10.0
 50
270.0
  0
MTEXT
  5
EDB
330
ED3
100
AcDbEntity
  8
MODEL
 62
     0
 48
0.05
100
AcDbMText
 10
967.525827304914
 20
2253.390087463557
 30
0.0
 40
24.0
 41
0.0
 46
0.0
 71
     5
 72
     1
  1
\A1;406
  7
ＭＳ ゴシック
 11
0.0
 21
1.0
 31
0.0
 73
     1
 44
1.0
  0
POINT
  5
EDC
330
ED3
100
AcDbEntity
  8
Defpoints
 62
     0
100
AcDbPoint
 10
862.3185131195339
 20
2456.527696793004
 30
0.0
  0
POINT
  5
EDD
330
ED3
100
AcDbEntity
  8
Defpoints
 62
     0
100
AcDbPoint
 10
862.3185131195339
 20
2050.252478134111
 30
0.0
  0
POINT
  5
EDE
330
ED3
100
AcDbEntity
  8
Defpoints
 62
     0
100
AcDbPoint
 10
999.525827304914
 20
2050.252478134111
 30
0.0
  0
ENDBLK
  5
ED5
330
ED3
100
AcDbEntity
  8
0
100
AcDbBlockEnd
  0
BLOCK
  5
EE3
330
EE2
100
AcDbEntity
  8
0
100
AcDbBlockBegin
  2
*D16
 70
     1
 10
0.0
 20
0.0
 30
0.0
  3
*D16
  1
*D16
  0
LINE
  5
EE5
330
EE2
100
AcDbEntity
  8
DIM
 62
     0
 48
0.05
370
    -2
100
AcDbLine
 10
892.3185131195339
 20
2456.527696793004
 30
0.0
 11
999.525827304914
 21
2456.527696793004
 31
0.0
  0
LINE
  5
EE6
330
EE2
100
AcDbEntity
  8
DIM
 62
     0
 48
0.05
370
    -2
100
AcDbLine
 10
892.3185131195339
 20
2050.252478134111
 30
0.0
 11
999.525827304914
 21
2050.252478134111
 31
0.0
  0
LINE
  5
EE7
330
EE2
100
AcDbEntity
  8
DIM
 62
     0
 48
0.05
370
    -2
100
AcDbLine
 10
999.525827304914
 20
2446.527696793004
 30
0.0
 11
999.525827304914
 21
2060.252478134111
 31
0.0
  0
INSERT
  5
EE8
330
EE2
100
AcDbEntity
  8
DIM
 62
     0
370
    -2
100
AcDbBlockReference
  2
_DOT
 10
999.525827304914
 20
2456.527696793004
 30
0.0
 41
10.0
 42
10.0
 43
10.0
 50
90.0
  0
INSERT
  5
EE9
330
EE2
100
AcDbEntity
  8
DIM
 62
     0
370
    -2
100
AcDbBlockReference
  2
_DOT
 10
999.525827304914
 20
2050.252478134111
 30
0.0
 41
10.0
 42
10.0
 43
10.0
 50
270.0
  0
MTEXT
  5
EEA
330
EE2
100
AcDbEntity
  8
DIM
 62
     0
 48
0.05
100
AcDbMText
 10
967.525827304914
 20
2253.390087463557
 30
0.0
 40
24.0
 41
0.0
 46
0.0
 71
     5
 72
     1
  1
\A1;406
  7
ＭＳ ゴシック
 11
0.0
 21
1.0
 31
0.0
 73
     1
 44
1.0
  0
POINT
  5
EEB
330
EE2
100
AcDbEntity
  8
Defpoints
 62
     0
100
AcDbPoint
 10
862.3185131195339
 20
2456.527696793004
 30
0.0
  0
POINT
  5
EEC
330
EE2
100
AcDbEntity
  8
Defpoints
 62
     0
100
AcDbPoint
 10
862.3185131195339
 20
2050.252478134111
 30
0.0
  0
POINT
  5
EED
330
EE2
100
AcDbEntity
  8
Defpoints
 62
     0
100
AcDbPoint
 10
999.525827304914
 20
2050.252478134111
 30
0.0
  0
ENDBLK
  5
EE4
330
EE2
100
AcDbEntity
  8
0
100
AcDbBlockEnd
  0
BLOCK
  5
101D
330
101C
100
AcDbEntity
  8
0
100
AcDbBlockBegin
  2
*D17
 70
     1
 10
0.0
 20
0.0
 30
0.0
  3
*D17
  1
*D58
  0
LINE
  5
101E
330
101C
100
AcDbEntity
  8
DIM
  6
Continuous
 62
     0
370
    -2
100
AcDbLine
 10
320.6770734920548
 20
842.480572462081
 30
0.0
 11
153.940495231631
 21
842.480572462081
 31
0.0
  0
LINE
  5
101F
330
101C
100
AcDbEntity
  8
DIM
  6
Continuous
 62
     0
370
    -2
100
AcDbLine
 10
320.6770734920548
 20
2.5
 30
0.0
 11
153.9404952316309
 21
2.5
 31
0.0
  0
LINE
  5
1020
330
101C
100
AcDbEntity
  8
DIM
  6
Continuous
 62
     0
370
    -2
100
AcDbLine
 10
153.940495231631
 20
832.480572462081
 30
0.0
 11
153.9404952316309
 21
12.5
 31
0.0
  0
INSERT
  5
1021
330
101C
100
AcDbEntity
  8
DIM
 62
     0
370
    -2
100
AcDbBlockReference
  2
_DOT
 10
153.940495231631
 20
842.480572462081
 30
0.0
 41
10.0
 42
10.0
 43
10.0
 50
90.0
  0
INSERT
  5
1022
330
101C
100
AcDbEntity
  8
DIM
 62
     0
370
    -2
100
AcDbBlockReference
  2
_DOT
 10
153.9404952316309
 20
2.5
 30
0.0
 41
10.0
 42
10.0
 43
10.0
 50
270.0
  0
MTEXT
  5
1023
330
101C
100
AcDbEntity
  8
DIM
  6
HIDDEN
 62
     0
 48
0.05
100
AcDbMText
 10
121.940495231631
 20
422.490286231041
 30
0.0
 40
24.0
 41
0.0
 46
0.0
 71
     5
 72
     1
  1
\A1;840
  7
ＭＳ ゴシック
 11
6.767230186549830E-17
 21
1.0
 31
0.0
 73
     1
 44
1.0
  0
POINT
  5
1024
330
101C
100
AcDbEntity
  8
Defpoints
 62
     0
100
AcDbPoint
 10
350.6770734920548
 20
842.480572462081
 30
0.0
  0
POINT
  5
1025
330
101C
100
AcDbEntity
  8
Defpoints
 62
     0
100
AcDbPoint
 10
350.6770734920548
 20
2.5
 30
0.0
  0
POINT
  5
1026
330
101C
100
AcDbEntity
  8
Defpoints
 62
     0
100
AcDbPoint
 10
153.9404952316308
 20
2.500000000000012
 30
0.0
  0
ENDBLK
  5
1027
330
101C
100
AcDbEntity
  8
0
100
AcDbBlockEnd
  0
BLOCK
  5
102C
330
102B
100
AcDbEntity
  8
0
100
AcDbBlockBegin
  2
*D18
 70
     1
 10
0.0
 20
0.0
 30
0.0
  3
*D18
  1
*D60
  0
LINE
  5
102D
330
102B
100
AcDbEntity
  8
DIM
  6
Continuous
 62
     0
370
    -2
100
AcDbLine
 10
244.0915485803517
 20
874.1672089340029
 30
0.0
 11
244.0915485803517
 21
990.783107227589
 31
0.0
  0
LINE
  5
102E
330
102B
100
AcDbEntity
  8
DIM
  6
Continuous
 62
     0
370
    -2
100
AcDbLine
 10
624.0915485803522
 20
874.1672089340029
 30
0.0
 11
624.0915485803522
 21
990.783107227589
 31
0.0
  0
LINE
  5
102F
330
102B
100
AcDbEntity
  8
DIM
  6
Continuous
 62
     0
370
    -2
100
AcDbLine
 10
254.0915485803517
 20
990.783107227589
 30
0.0
 11
614.0915485803522
 21
990.783107227589
 31
0.0
  0
INSERT
  5
1030
330
102B
100
AcDbEntity
  8
DIM
 62
     0
370
    -2
100
AcDbBlockReference
  2
_DOT
 10
244.0915485803517
 20
990.783107227589
 30
0.0
 41
10.0
 42
10.0
 43
10.0
 50
180.0
  0
INSERT
  5
1031
330
102B
100
AcDbEntity
  8
DIM
 62
     0
370
    -2
100
AcDbBlockReference
  2
_DOT
 10
624.0915485803522
 20
990.783107227589
 30
0.0
 41
10.0
 42
10.0
 43
10.0
  0
MTEXT
  5
1032
330
102B
100
AcDbEntity
  8
DIM
  6
HIDDEN
 62
     0
 48
0.05
100
AcDbMText
 10
434.091548580352
 20
1022.783107227589
 30
0.0
 40
24.0
 41
0.0
 46
0.0
 71
     5
 72
     1
  1
\A1;380
  7
ＭＳ ゴシック
 73
     1
 44
1.0
  0
POINT
  5
1033
330
102B
100
AcDbEntity
  8
Defpoints
 62
     0
100
AcDbPoint
 10
244.0915485803517
 20
844.1672089340029
 30
0.0
  0
POINT
  5
1034
330
102B
100
AcDbEntity
  8
Defpoints
 62
     0
100
AcDbPoint
 10
624.0915485803522
 20
844.1672089340029
 30
0.0
  0
POINT
  5
1035
330
102B
100
AcDbEntity
  8
Defpoints
 62
     0
100
AcDbPoint
 10
624.0915485803522
 20
990.783107227589
 30
0.0
  0
ENDBLK
  5
1036
330
102B
100
AcDbEntity
  8
0
100
AcDbBlockEnd
  0
BLOCK
  5
1039
330
1038
100
AcDbEntity
  8
0
100
AcDbBlockBegin
  2
*D19
 70
     1
 10
0.0
 20
0.0
 30
0.0
  3
*D19
  1
*D61
  0
LINE
  5
103A
330
1038
100
AcDbEntity
  8
DIM
  6
Continuous
 62
     0
370
    -2
100
AcDbLine
 10
1175.203833519444
 20
2.586516141891025
 30
0.0
 11
1389.352190817606
 21
2.586516141891025
 31
0.0
  0
LINE
  5
103B
330
1038
100
AcDbEntity
  8
DIM
  6
Continuous
 62
     0
370
    -2
100
AcDbLine
 10
1357.062590392494
 20
282.586516141891
 30
0.0
 11
1389.352190817606
 21
282.586516141891
 31
0.0
  0
LINE
  5
103C
330
1038
100
AcDbEntity
  8
DIM
  6
Continuous
 62
     0
370
    -2
100
AcDbLine
 10
1389.352190817606
 20
12.58651614189102
 30
0.0
 11
1389.352190817606
 21
272.586516141891
 31
0.0
  0
INSERT
  5
103D
330
1038
100
AcDbEntity
  8
DIM
 62
     0
370
    -2
100
AcDbBlockReference
  2
_DOT
 10
1389.352190817606
 20
2.586516141891025
 30
0.0
 41
10.0
 42
10.0
 43
10.0
 50
270.0
  0
INSERT
  5
103E
330
1038
100
AcDbEntity
  8
DIM
 62
     0
370
    -2
100
AcDbBlockReference
  2
_DOT
 10
1389.352190817606
 20
282.586516141891
 30
0.0
 41
10.0
 42
10.0
 43
10.0
 50
90.0
  0
MTEXT
  5
103F
330
1038
100
AcDbEntity
  8
DIM
  6
HIDDEN
 62
     0
 48
0.05
100
AcDbMText
 10
1357.352190817606
 20
142.586516141891
 30
0.0
 40
24.0
 41
0.0
 46
0.0
 71
     5
 72
     1
  1
\A1;280
  7
ＭＳ ゴシック
 11
0.0
 21
1.0
 31
0.0
 73
     1
 44
1.0
  0
POINT
  5
1040
330
1038
100
AcDbEntity
  8
Defpoints
 62
     0
100
AcDbPoint
 10
1145.203833519444
 20
2.586516141891025
 30
0.0
  0
POINT
  5
1041
330
1038
100
AcDbEntity
  8
Defpoints
 62
     0
100
AcDbPoint
 10
1327.062590392494
 20
282.586516141891
 30
0.0
  0
POINT
  5
1042
330
1038
100
AcDbEntity
  8
Defpoints
 62
     0
100
AcDbPoint
 10
1389.352190817606
 20
282.586516141891
 30
0.0
  0
ENDBLK
  5
1043
330
1038
100
AcDbEntity
  8
0
100
AcDbBlockEnd
  0
BLOCK
  5
1046
330
1045
100
AcDbEntity
  8
0
100
AcDbBlockBegin
  2
*D20
 70
     1
 10
0.0
 20
0.0
 30
0.0
  3
*D20
  1
*D62
  0
LINE
  5
1047
330
1045
100
AcDbEntity
  8
DIM
  6
Continuous
 62
     0
370
    -2
100
AcDbLine
 10
1118.845538008185
 20
872.480572462081
 30
0.0
 11
1118.845538008185
 21
1017.775787496294
 31
0.0
  0
LINE
  5
1048
330
1045
100
AcDbEntity
  8
DIM
  6
Continuous
 62
     0
370
    -2
100
AcDbLine
 10
1228.845538008185
 20
352.7766489174642
 30
0.0
 11
1228.845538008185
 21
1017.775787496294
 31
0.0
  0
LINE
  5
1049
330
1045
100
AcDbEntity
  8
DIM
  6
Continuous
 62
     0
370
    -2
100
AcDbLine
 10
1128.845538008185
 20
1017.775787496294
 30
0.0
 11
1218.845538008185
 21
1017.775787496294
 31
0.0
  0
INSERT
  5
104A
330
1045
100
AcDbEntity
  8
DIM
 62
     0
370
    -2
100
AcDbBlockReference
  2
_DOT
 10
1118.845538008185
 20
1017.775787496294
 30
0.0
 41
10.0
 42
10.0
 43
10.0
 50
180.0
  0
INSERT
  5
104B
330
1045
100
AcDbEntity
  8
DIM
 62
     0
370
    -2
100
AcDbBlockReference
  2
_DOT
 10
1228.845538008185
 20
1017.775787496294
 30
0.0
 41
10.0
 42
10.0
 43
10.0
  0
MTEXT
  5
104C
330
1045
100
AcDbEntity
  8
DIM
  6
HIDDEN
 62
     0
 48
0.05
100
AcDbMText
 10
1173.845538008185
 20
1049.775787496294
 30
0.0
 40
24.0
 41
0.0
 46
0.0
 71
     5
 72
     1
  1
\A1;110
  7
ＭＳ ゴシック
 73
     1
 44
1.0
  0
POINT
  5
104D
330
1045
100
AcDbEntity
  8
Defpoints
 62
     0
100
AcDbPoint
 10
1118.845538008185
 20
842.480572462081
 30
0.0
  0
POINT
  5
104E
330
1045
100
AcDbEntity
  8
Defpoints
 62
     0
100
AcDbPoint
 10
1228.845538008185
 20
322.7766489174642
 30
0.0
  0
POINT
  5
104F
330
1045
100
AcDbEntity
  8
Defpoints
 62
     0
100
AcDbPoint
 10
1228.845538008185
 20
1017.775787496294
 30
0.0
  0
ENDBLK
  5
1050
330
1045
100
AcDbEntity
  8
0
100
AcDbBlockEnd
  0
BLOCK
  5
1053
330
1052
100
AcDbEntity
  8
0
100
AcDbBlockBegin
  2
*D21
 70
     1
 10
0.0
 20
0.0
 30
0.0
  3
*D21
  1
*D63
  0
LINE
  5
1054
330
1052
100
AcDbEntity
  8
DIM
  6
Continuous
 62
     0
370
    -2
100
AcDbLine
 10
1118.845538008185
 20
872.559369802475
 30
0.0
 11
1118.845538008185
 21
957.28740776208
 31
0.0
  0
LINE
  5
1055
330
1052
100
AcDbEntity
  8
DIM
  6
Continuous
 62
     0
370
    -2
100
AcDbLine
 10
1208.845538008185
 20
503.3803698883648
 30
0.0
 11
1208.845538008185
 21
957.28740776208
 31
0.0
  0
LINE
  5
1056
330
1052
100
AcDbEntity
  8
DIM
  6
Continuous
 62
     0
370
    -2
100
AcDbLine
 10
1128.845538008185
 20
957.28740776208
 30
0.0
 11
1198.845538008185
 21
957.28740776208
 31
0.0
  0
INSERT
  5
1057
330
1052
100
AcDbEntity
  8
DIM
 62
     0
370
    -2
100
AcDbBlockReference
  2
_DOT
 10
1118.845538008185
 20
957.28740776208
 30
0.0
 41
10.0
 42
10.0
 43
10.0
 50
180.0
  0
INSERT
  5
1058
330
1052
100
AcDbEntity
  8
DIM
 62
     0
370
    -2
100
AcDbBlockReference
  2
_DOT
 10
1208.845538008185
 20
957.28740776208
 30
0.0
 41
10.0
 42
10.0
 43
10.0
  0
MTEXT
  5
1059
330
1052
100
AcDbEntity
  8
DIM
  6
HIDDEN
 62
     0
 48
0.05
100
AcDbMText
 10
1163.845538008185
 20
989.28740776208
 30
0.0
 40
24.0
 41
0.0
 46
0.0
 71
     5
 72
     1
  1
\A1;90
  7
ＭＳ ゴシック
 73
     1
 44
1.0
  0
POINT
  5
105A
330
1052
100
AcDbEntity
  8
Defpoints
 62
     0
100
AcDbPoint
 10
1118.845538008185
 20
842.559369802475
 30
0.0
  0
POINT
  5
105B
330
1052
100
AcDbEntity
  8
Defpoints
 62
     0
100
AcDbPoint
 10
1208.845538008185
 20
473.3803698883648
 30
0.0
  0
POINT
  5
105C
330
1052
100
AcDbEntity
  8
Defpoints
 62
     0
100
AcDbPoint
 10
1208.845538008185
 20
957.28740776208
 30
0.0
  0
ENDBLK
  5
105D
330
1052
100
AcDbEntity
  8
0
100
AcDbBlockEnd
  0
BLOCK
  5
1060
330
105F
100
AcDbEntity
  8
0
100
AcDbBlockBegin
  2
*D22
 70
     1
 10
0.0
 20
0.0
 30
0.0
  3
*D22
  1
*D64
  0
LINE
  5
1061
330
105F
100
AcDbEntity
  8
DIM
  6
Continuous
 62
     0
370
    -2
100
AcDbLine
 10
1239.333094865808
 20
1703.92228941891
 30
0.0
 11
1365.944234656804
 21
1703.92228941891
 31
0.0
  0
LINE
  5
1062
330
105F
100
AcDbEntity
  8
DIM
  6
Continuous
 62
     0
370
    -2
100
AcDbLine
 10
1313.596133096516
 20
1646.92228941891
 30
0.0
 11
1365.944234656804
 21
1646.92228941891
 31
0.0
  0
LINE
  5
1063
330
105F
100
AcDbEntity
  8
DIM
  6
Continuous
 62
     0
370
    -2
100
AcDbLine
 10
1365.944234656804
 20
1693.92228941891
 30
0.0
 11
1365.944234656804
 21
1656.92228941891
 31
0.0
  0
INSERT
  5
1064
330
105F
100
AcDbEntity
  8
DIM
 62
     0
370
    -2
100
AcDbBlockReference
  2
_DOT
 10
1365.944234656804
 20
1703.92228941891
 30
0.0
 41
10.0
 42
10.0
 43
10.0
 50
90.0
  0
INSERT
  5
1065
330
105F
100
AcDbEntity
  8
DIM
 62
     0
370
    -2
100
AcDbBlockReference
  2
_DOT
 10
1365.944234656804
 20
1646.92228941891
 30
0.0
 41
10.0
 42
10.0
 43
10.0
 50
270.0
  0
MTEXT
  5
1066
330
105F
100
AcDbEntity
  8
DIM
  6
HIDDEN
 62
     0
 48
0.05
100
AcDbMText
 10
1333.944234656804
 20
1675.42228941891
 30
0.0
 40
24.0
 41
0.0
 46
0.0
 71
     5
 72
     1
  1
\A1;57
  7
ＭＳ ゴシック
 11
0.0
 21
1.0
 31
0.0
 73
     1
 44
1.0
  0
POINT
  5
1067
330
105F
100
AcDbEntity
  8
Defpoints
 62
     0
100
AcDbPoint
 10
1209.333094865808
 20
1703.92228941891
 30
0.0
  0
POINT
  5
1068
330
105F
100
AcDbEntity
  8
Defpoints
 62
     0
100
AcDbPoint
 10
1283.596133096516
 20
1646.92228941891
 30
0.0
  0
POINT
  5
1069
330
105F
100
AcDbEntity
  8
Defpoints
 62
     0
100
AcDbPoint
 10
1365.944234656804
 20
1646.92228941891
 30
0.0
  0
ENDBLK
  5
106A
330
105F
100
AcDbEntity
  8
0
100
AcDbBlockEnd
  0
BLOCK
  5
106D
330
106C
100
AcDbEntity
  8
0
100
AcDbBlockBegin
  2
*D23
 70
     1
 10
0.0
 20
0.0
 30
0.0
  3
*D23
  1
*D65
  0
LINE
  5
106E
330
106C
100
AcDbEntity
  8
DIM
  6
Continuous
 62
     0
370
    -2
100
AcDbLine
 10
1118.845538008185
 20
1608.65413081155
 30
0.0
 11
939.8334113344688
 21
1608.65413081155
 31
0.0
  0
LINE
  5
106F
330
106C
100
AcDbEntity
  8
DIM
  6
Continuous
 62
     0
370
    -2
100
AcDbLine
 10
1128.845538008185
 20
1608.65413081155
 30
0.0
 11
1179.845538008185
 21
1608.65413081155
 31
0.0
  0
INSERT
  5
1070
330
106C
100
AcDbEntity
  8
DIM
 62
     0
370
    -2
100
AcDbBlockReference
  2
_DOT
 10
1118.845538008185
 20
1608.65413081155
 30
0.0
 41
10.0
 42
10.0
 43
10.0
 50
180.0
  0
INSERT
  5
1071
330
106C
100
AcDbEntity
  8
DIM
 62
     0
370
    -2
100
AcDbBlockReference
  2
_DOT
 10
1189.845538008185
 20
1608.65413081155
 30
0.0
 41
10.0
 42
10.0
 43
10.0
  0
MTEXT
  5
1072
330
106C
100
AcDbEntity
  8
DIM
  6
HIDDEN
 62
     0
 48
0.05
100
AcDbMText
 10
1017.901411334469
 20
1642.77813081155
 30
0.0
 40
24.0
 41
0.0
 46
0.0
 71
     5
 72
     1
  1
\A1;50(深さ)
  7
ＭＳ ゴシック
 73
     1
 44
1.0
  0
POINT
  5
1073
330
106C
100
AcDbEntity
  8
Defpoints
 62
     0
100
AcDbPoint
 10
1118.845538008185
 20
1631.155831179514
 30
0.0
  0
POINT
  5
1074
330
106C
100
AcDbEntity
  8
Defpoints
 62
     0
100
AcDbPoint
 10
1189.845538008185
 20
1621.81834091858
 30
0.0
  0
POINT
  5
1075
330
106C
100
AcDbEntity
  8
Defpoints
 62
     0
100
AcDbPoint
 10
1189.845538008185
 20
1608.65413081155
 30
0.0
  0
ENDBLK
  5
1076
330
106C
100
AcDbEntity
  8
0
100
AcDbBlockEnd
  0
BLOCK
  5
1090
330
108F
100
AcDbEntity
  8
0
100
AcDbBlockBegin
  2
*D24
 70
     1
 10
0.0
 20
0.0
 30
0.0
  3
*D24
  1
*D67
  0
LINE
  5
1091
330
108F
100
AcDbEntity
  8
DIM
  6
Continuous
 62
     0
370
    -2
100
AcDbLine
 10
271.2323480669103
 20
1302.980583343308
 30
0.0
 11
178.8034669950985
 21
1302.980583343308
 31
0.0
  0
LINE
  5
1092
330
108F
100
AcDbEntity
  8
DIM
  6
Continuous
 62
     0
370
    -2
100
AcDbLine
 10
271.2323480669107
 20
1602.980583343308
 30
0.0
 11
178.8034669950986
 21
1602.980583343308
 31
0.0
  0
LINE
  5
1093
330
108F
100
AcDbEntity
  8
DIM
  6
Continuous
 62
     0
370
    -2
100
AcDbLine
 10
178.8034669950985
 20
1312.980583343308
 30
0.0
 11
178.8034669950986
 21
1592.980583343308
 31
0.0
  0
INSERT
  5
1094
330
108F
100
AcDbEntity
  8
DIM
 62
     0
370
    -2
100
AcDbBlockReference
  2
_DOT
 10
178.8034669950985
 20
1302.980583343308
 30
0.0
 41
10.0
 42
10.0
 43
10.0
 50
270.0
  0
INSERT
  5
1095
330
108F
100
AcDbEntity
  8
DIM
 62
     0
370
    -2
100
AcDbBlockReference
  2
_DOT
 10
178.8034669950986
 20
1602.980583343308
 30
0.0
 41
10.0
 42
10.0
 43
10.0
 50
90.0
  0
MTEXT
  5
1096
330
108F
100
AcDbEntity
  8
DIM
  6
HIDDEN
 62
     0
 48
0.05
100
AcDbMText
 10
146.8034669950986
 20
1452.980583343308
 30
0.0
 40
24.0
 41
0.0
 46
0.0
 71
     5
 72
     1
  1
\A1;300
  7
ＭＳ ゴシック
 11
9.473903143468003E-17
 21
1.0
 31
0.0
 73
     1
 44
1.0
  0
POINT
  5
1097
330
108F
100
AcDbEntity
  8
Defpoints
 62
     0
100
AcDbPoint
 10
301.2323480669103
 20
1302.980583343308
 30
0.0
  0
POINT
  5
1098
330
108F
100
AcDbEntity
  8
Defpoints
 62
     0
100
AcDbPoint
 10
301.2323480669107
 20
1602.980583343308
 30
0.0
  0
POINT
  5
1099
330
108F
100
AcDbEntity
  8
Defpoints
 62
     0
100
AcDbPoint
 10
178.8034669950986
 20
1602.980583343308
 30
0.0
  0
ENDBLK
  5
109A
330
108F
100
AcDbEntity
  8
0
100
AcDbBlockEnd
  0
BLOCK
  5
10A4
330
10A3
100
AcDbEntity
  8
0
100
AcDbBlockBegin
  2
*D25
 70
     1
 10
0.0
 20
0.0
 30
0.0
  3
*D25
  1
*D69
  0
LINE
  5
10A5
330
10A3
100
AcDbEntity
  8
DIM
  6
Continuous
 62
     0
370
    -2
100
AcDbLine
 10
1238.845541584467
 20
1694.780520158742
 30
0.0
 11
1297.759646560495
 21
1694.780520158742
 31
0.0
  0
LINE
  5
10A6
330
10A3
100
AcDbEntity
  8
DIM
  6
Continuous
 62
     0
370
    -2
100
AcDbLine
 10
1238.845541584467
 20
1598.78051974151
 30
0.0
 11
1297.759646560495
 21
1598.78051974151
 31
0.0
  0
LINE
  5
10A7
330
10A3
100
AcDbEntity
  8
DIM
  6
Continuous
 62
     0
370
    -2
100
AcDbLine
 10
1297.759646560495
 20
1684.780520158742
 30
0.0
 11
1297.759646560495
 21
1608.78051974151
 31
0.0
  0
INSERT
  5
10A8
330
10A3
100
AcDbEntity
  8
DIM
 62
     0
370
    -2
100
AcDbBlockReference
  2
_DOT
 10
1297.759646560495
 20
1694.780520158742
 30
0.0
 41
10.0
 42
10.0
 43
10.0
 50
90.0
  0
INSERT
  5
10A9
330
10A3
100
AcDbEntity
  8
DIM
 62
     0
370
    -2
100
AcDbBlockReference
  2
_DOT
 10
1297.759646560495
 20
1598.78051974151
 30
0.0
 41
10.0
 42
10.0
 43
10.0
 50
270.0
  0
MTEXT
  5
10AA
330
10A3
100
AcDbEntity
  8
DIM
  6
HIDDEN
 62
     0
 48
0.05
100
AcDbMText
 10
1265.759646560495
 20
1646.780519950126
 30
0.0
 40
24.0
 41
0.0
 46
0.0
 71
     5
 72
     1
  1
\A1;96
  7
ＭＳ ゴシック
 11
0.0
 21
1.0
 31
0.0
 73
     1
 44
1.0
  0
POINT
  5
10AB
330
10A3
100
AcDbEntity
  8
Defpoints
 62
     0
100
AcDbPoint
 10
1208.845541584467
 20
1694.780520158742
 30
0.0
  0
POINT
  5
10AC
330
10A3
100
AcDbEntity
  8
Defpoints
 62
     0
100
AcDbPoint
 10
1208.845541584467
 20
1598.78051974151
 30
0.0
  0
POINT
  5
10AD
330
10A3
100
AcDbEntity
  8
Defpoints
 62
     0
100
AcDbPoint
 10
1297.759646560495
 20
1598.78051974151
 30
0.0
  0
ENDBLK
  5
10AE
330
10A3
100
AcDbEntity
  8
0
100
AcDbBlockEnd
  0
BLOCK
  5
10B4
330
10B3
100
AcDbEntity
  8
0
100
AcDbBlockBegin
  2
*D26
 70
     1
 10
0.0
 20
0.0
 30
0.0
  3
*D26
  1
*D27
  0
LINE
  5
10B5
330
10B3
100
AcDbEntity
  8
DIM
 62
     0
 48
0.05
370
    -2
100
AcDbLine
 10
1241.294720318053
 20
258.3885933240957
 30
0.0
 11
1268.473433065238
 21
258.3885933240957
 31
0.0
  0
LINE
  5
10B6
330
10B3
100
AcDbEntity
  8
DIM
 62
     0
 48
0.05
370
    -2
100
AcDbLine
 10
1241.294720318053
 20
305.3512597952544
 30
0.0
 11
1268.473433065238
 21
305.3512597952544
 31
0.0
  0
LINE
  5
10B7
330
10B3
100
AcDbEntity
  8
DIM
 62
     0
 48
0.05
370
    -2
100
AcDbLine
 10
1268.473433065238
 20
268.3885933240957
 30
0.0
 11
1268.473433065238
 21
295.3512597952544
 31
0.0
  0
INSERT
  5
10B8
330
10B3
100
AcDbEntity
  8
DIM
 62
     0
370
    -2
100
AcDbBlockReference
  2
_DOT
 10
1268.473433065238
 20
258.3885933240957
 30
0.0
 41
10.0
 42
10.0
 43
10.0
 50
270.0
  0
INSERT
  5
10B9
330
10B3
100
AcDbEntity
  8
DIM
 62
     0
370
    -2
100
AcDbBlockReference
  2
_DOT
 10
1268.473433065238
 20
305.3512597952544
 30
0.0
 41
10.0
 42
10.0
 43
10.0
 50
90.0
  0
MTEXT
  5
10BA
330
10B3
100
AcDbEntity
  8
DIM
  6
HIDDEN
 62
     0
 48
0.05
100
AcDbMText
 10
1303.029433065238
 20
281.869926559675
 30
0.0
 40
24.0
 41
0.0
 46
0.0
 71
     5
 72
     1
  1
\A1;G1 1/4"
  7
ＭＳ ゴシック
 11
0.0
 21
1.0
 31
0.0
 73
     1
 44
1.0
  0
POINT
  5
10BB
330
10B3
100
AcDbEntity
  8
Defpoints
 62
     0
100
AcDbPoint
 10
1211.294720318053
 20
258.3885933240957
 30
0.0
  0
POINT
  5
10BC
330
10B3
100
AcDbEntity
  8
Defpoints
 62
     0
100
AcDbPoint
 10
1211.294720318053
 20
305.3512597952544
 30
0.0
  0
POINT
  5
10BD
330
10B3
100
AcDbEntity
  8
Defpoints
 62
     0
100
AcDbPoint
 10
1268.473433065238
 20
305.3512597952544
 30
0.0
  0
ENDBLK
  5
10BE
330
10B3
100
AcDbEntity
  8
0
100
AcDbBlockEnd
  0
BLOCK
  5
11A2
330
11A1
100
AcDbEntity
  8
0
100
AcDbBlockBegin
  2
*D27
 70
     1
 10
0.0
 20
0.0
 30
0.0
  3
*D27
  1
*D28
  0
LINE
  5
11A4
330
11A1
100
AcDbEntity
  8
DIM
  6
Continuous
 62
     0
370
    -2
100
AcDbLine
 10
-1561.873218053134
 20
1488.43392523176
 30
0.0
 11
-1728.609796313558
 21
1488.43392523176
 31
0.0
  0
LINE
  5
11A5
330
11A1
100
AcDbEntity
  8
DIM
  6
Continuous
 62
     0
370
    -2
100
AcDbLine
 10
-1561.873218053134
 20
648.4533527696785
 30
0.0
 11
-1728.609796313558
 21
648.4533527696785
 31
0.0
  0
LINE
  5
11A6
330
11A1
100
AcDbEntity
  8
DIM
  6
Continuous
 62
     0
370
    -2
100
AcDbLine
 10
-1728.609796313558
 20
1482.43392523176
 30
0.0
 11
-1728.609796313558
 21
654.4533527696785
 31
0.0
  0
INSERT
  5
11A7
330
11A1
100
AcDbEntity
  8
DIM
 62
     0
370
    -2
100
AcDbBlockReference
  2
_DOT
 10
-1728.609796313558
 20
1488.43392523176
 30
0.0
 41
6.0
 42
6.0
 43
6.0
 50
90.0
  0
INSERT
  5
11A8
330
11A1
100
AcDbEntity
  8
DIM
 62
     0
370
    -2
100
AcDbBlockReference
  2
_DOT
 10
-1728.609796313558
 20
648.4533527696785
 30
0.0
 41
6.0
 42
6.0
 43
6.0
 50
270.0
  0
MTEXT
  5
11A9
330
11A1
100
AcDbEntity
  8
DIM
 62
     0
 48
0.05
100
AcDbMText
 10
-1749.609796313558
 20
1068.443639000719
 30
0.0
 40
18.0
 41
0.0
 46
0.0
 71
     5
 72
     1
  1
\A1;840
  7
ＭＳ ゴシック
 11
0.0
 21
1.0
 31
0.0
 73
     1
 44
1.0
  0
POINT
  5
11AA
330
11A1
100
AcDbEntity
  8
Defpoints
 62
     0
100
AcDbPoint
 10
-1531.873218053134
 20
1488.43392523176
 30
0.0
  0
POINT
  5
11AB
330
11A1
100
AcDbEntity
  8
Defpoints
 62
     0
100
AcDbPoint
 10
-1531.873218053134
 20
648.4533527696785
 30
0.0
  0
POINT
  5
11AC
330
11A1
100
AcDbEntity
  8
Defpoints
 62
     0
100
AcDbPoint
 10
-1728.609796313558
 20
648.4533527696785
 30
0.0
  0
ENDBLK
  5
11A3
330
11A1
100
AcDbEntity
  8
0
100
AcDbBlockEnd
  0
BLOCK
  5
11AE
330
11AD
100
AcDbEntity
  8
0
100
AcDbBlockBegin
  2
*D28
 70
     1
 10
0.0
 20
0.0
 30
0.0
  3
*D28
  1
*D29
  0
LINE
  5
11B0
330
11AD
100
AcDbEntity
  8
DIM
  6
Continuous
 62
     0
370
    -2
100
AcDbLine
 10
-1638.458742964837
 20
1510.120561703681
 30
0.0
 11
-1638.458742964837
 21
1636.736459997268
 31
0.0
  0
LINE
  5
11B1
330
11AD
100
AcDbEntity
  8
DIM
  6
Continuous
 62
     0
370
    -2
100
AcDbLine
 10
-1258.458742964837
 20
1510.120561703681
 30
0.0
 11
-1258.458742964837
 21
1636.736459997268
 31
0.0
  0
LINE
  5
11B2
330
11AD
100
AcDbEntity
  8
DIM
  6
Continuous
 62
     0
370
    -2
100
AcDbLine
 10
-1632.458742964837
 20
1636.736459997268
 30
0.0
 11
-1264.458742964837
 21
1636.736459997268
 31
0.0
  0
INSERT
  5
11B3
330
11AD
100
AcDbEntity
  8
DIM
 62
     0
370
    -2
100
AcDbBlockReference
  2
_DOT
 10
-1638.458742964837
 20
1636.736459997268
 30
0.0
 41
6.0
 42
6.0
 43
6.0
 50
180.0
  0
INSERT
  5
11B4
330
11AD
100
AcDbEntity
  8
DIM
 62
     0
370
    -2
100
AcDbBlockReference
  2
_DOT
 10
-1258.458742964837
 20
1636.736459997268
 30
0.0
 41
6.0
 42
6.0
 43
6.0
  0
MTEXT
  5
11B5
330
11AD
100
AcDbEntity
  8
DIM
 62
     0
 48
0.05
100
AcDbMText
 10
-1448.458742964837
 20
1657.736459997268
 30
0.0
 40
18.0
 41
0.0
 46
0.0
 71
     5
 72
     1
  1
\A1;380
  7
ＭＳ ゴシック
 73
     1
 44
1.0
  0
POINT
  5
11B6
330
11AD
100
AcDbEntity
  8
Defpoints
 62
     0
100
AcDbPoint
 10
-1638.458742964837
 20
1490.120561703681
 30
0.0
  0
POINT
  5
11B7
330
11AD
100
AcDbEntity
  8
Defpoints
 62
     0
100
AcDbPoint
 10
-1258.458742964837
 20
1490.120561703681
 30
0.0
  0
POINT
  5
11B8
330
11AD
100
AcDbEntity
  8
Defpoints
 62
     0
100
AcDbPoint
 10
-1258.458742964837
 20
1636.736459997268
 30
0.0
  0
ENDBLK
  5
11AF
330
11AD
100
AcDbEntity
  8
0
100
AcDbBlockEnd
  0
BLOCK
  5
11BA
330
11B9
100
AcDbEntity
  8
0
100
AcDbBlockBegin
  2
*D29
 70
     1
 10
0.0
 20
0.0
 30
0.0
  3
*D29
  1
*D30
  0
LINE
  5
11BC
330
11B9
100
AcDbEntity
  8
DIM
  6
Continuous
 62
     0
370
    -2
100
AcDbLine
 10
-710.6859264599796
 20
648.5398689115696
 30
0.0
 11
-409.2694127742304
 21
648.5398689115696
 31
0.0
  0
LINE
  5
11BD
330
11B9
100
AcDbEntity
  8
DIM
  6
Continuous
 62
     0
370
    -2
100
AcDbLine
 10
-451.5590131993424
 20
928.5398689115696
 30
0.0
 11
-409.2694127742304
 21
928.5398689115696
 31
0.0
  0
LINE
  5
11BE
330
11B9
100
AcDbEntity
  8
DIM
  6
Continuous
 62
     0
370
    -2
100
AcDbLine
 10
-409.2694127742304
 20
654.5398689115696
 30
0.0
 11
-409.2694127742304
 21
922.5398689115696
 31
0.0
  0
INSERT
  5
11BF
330
11B9
100
AcDbEntity
  8
DIM
 62
     0
370
    -2
100
AcDbBlockReference
  2
_DOT
 10
-409.2694127742304
 20
648.5398689115696
 30
0.0
 41
6.0
 42
6.0
 43
6.0
 50
270.0
  0
INSERT
  5
11C0
330
11B9
100
AcDbEntity
  8
DIM
 62
     0
370
    -2
100
AcDbBlockReference
  2
_DOT
 10
-409.2694127742304
 20
928.5398689115696
 30
0.0
 41
6.0
 42
6.0
 43
6.0
 50
90.0
  0
MTEXT
  5
11C1
330
11B9
100
AcDbEntity
  8
DIM
 62
     0
 48
0.05
100
AcDbMText
 10
-430.2694127742304
 20
788.5398689115696
 30
0.0
 40
18.0
 41
0.0
 46
0.0
 71
     5
 72
     1
  1
\A1;280
  7
ＭＳ ゴシック
 11
0.0
 21
1.0
 31
0.0
 73
     1
 44
1.0
  0
POINT
  5
11C2
330
11B9
100
AcDbEntity
  8
Defpoints
 62
     0
100
AcDbPoint
 10
-730.6859264599796
 20
648.5398689115696
 30
0.0
  0
POINT
  5
11C3
330
11B9
100
AcDbEntity
  8
Defpoints
 62
     0
100
AcDbPoint
 10
-471.5590131993424
 20
928.5398689115696
 30
0.0
  0
POINT
  5
11C4
330
11B9
100
AcDbEntity
  8
Defpoints
 62
     0
100
AcDbPoint
 10
-409.2694127742304
 20
928.5398689115696
 30
0.0
  0
ENDBLK
  5
11BB
330
11B9
100
AcDbEntity
  8
0
100
AcDbBlockEnd
  0
BLOCK
  5
11C6
330
11C5
100
AcDbEntity
  8
0
100
AcDbBlockBegin
  2
*D30
 70
     1
 10
0.0
 20
0.0
 30
0.0
  3
*D30
  1
*D31
  0
LINE
  5
11C8
330
11C5
100
AcDbEntity
  8
DIM
  6
Continuous
 62
     0
370
    -2
100
AcDbLine
 10
-763.7047535370034
 20
1508.43392523176
 30
0.0
 11
-763.7047535370034
 21
1663.729140265973
 31
0.0
  0
LINE
  5
11C9
330
11C5
100
AcDbEntity
  8
DIM
  6
Continuous
 62
     0
370
    -2
100
AcDbLine
 10
-653.7047535370034
 20
988.7300016871427
 30
0.0
 11
-653.7047535370035
 21
1663.729140265973
 31
0.0
  0
LINE
  5
11CA
330
11C5
100
AcDbEntity
  8
DIM
  6
Continuous
 62
     0
370
    -2
100
AcDbLine
 10
-757.7047535370034
 20
1663.729140265973
 30
0.0
 11
-659.7047535370035
 21
1663.729140265973
 31
0.0
  0
INSERT
  5
11CB
330
11C5
100
AcDbEntity
  8
DIM
 62
     0
370
    -2
100
AcDbBlockReference
  2
_DOT
 10
-763.7047535370034
 20
1663.729140265973
 30
0.0
 41
6.0
 42
6.0
 43
6.0
 50
180.0
  0
INSERT
  5
11CC
330
11C5
100
AcDbEntity
  8
DIM
 62
     0
370
    -2
100
AcDbBlockReference
  2
_DOT
 10
-653.7047535370035
 20
1663.729140265973
 30
0.0
 41
6.0
 42
6.0
 43
6.0
  0
MTEXT
  5
11CD
330
11C5
100
AcDbEntity
  8
DIM
 62
     0
 48
0.05
100
AcDbMText
 10
-708.7047535370034
 20
1684.729140265973
 30
0.0
 40
18.0
 41
0.0
 46
0.0
 71
     5
 72
     1
  1
\A1;110
  7
ＭＳ ゴシック
 73
     1
 44
1.0
  0
POINT
  5
11CE
330
11C5
100
AcDbEntity
  8
Defpoints
 62
     0
100
AcDbPoint
 10
-763.7047535370034
 20
1488.43392523176
 30
0.0
  0
POINT
  5
11CF
330
11C5
100
AcDbEntity
  8
Defpoints
 62
     0
100
AcDbPoint
 10
-653.7047535370034
 20
968.7300016871427
 30
0.0
  0
POINT
  5
11D0
330
11C5
100
AcDbEntity
  8
Defpoints
 62
     0
100
AcDbPoint
 10
-653.7047535370035
 20
1663.729140265973
 30
0.0
  0
ENDBLK
  5
11C7
330
11C5
100
AcDbEntity
  8
0
100
AcDbBlockEnd
  0
BLOCK
  5
11D2
330
11D1
100
AcDbEntity
  8
0
100
AcDbBlockBegin
  2
*D31
 70
     1
 10
0.0
 20
0.0
 30
0.0
  3
*D31
  1
*D32
  0
LINE
  5
11D4
330
11D1
100
AcDbEntity
  8
DIM
  6
Continuous
 62
     0
370
    -2
100
AcDbLine
 10
-763.7047535370034
 20
1508.512722572154
 30
0.0
 11
-763.7047535370034
 21
1603.240760531758
 31
0.0
  0
LINE
  5
11D5
330
11D1
100
AcDbEntity
  8
DIM
  6
Continuous
 62
     0
370
    -2
100
AcDbLine
 10
-673.7047535370034
 20
1139.333722658043
 30
0.0
 11
-673.7047535370035
 21
1603.240760531758
 31
0.0
  0
LINE
  5
11D6
330
11D1
100
AcDbEntity
  8
DIM
  6
Continuous
 62
     0
370
    -2
100
AcDbLine
 10
-757.7047535370034
 20
1603.240760531758
 30
0.0
 11
-679.7047535370035
 21
1603.240760531758
 31
0.0
  0
INSERT
  5
11D7
330
11D1
100
AcDbEntity
  8
DIM
 62
     0
370
    -2
100
AcDbBlockReference
  2
_DOT
 10
-763.7047535370034
 20
1603.240760531758
 30
0.0
 41
6.0
 42
6.0
 43
6.0
 50
180.0
  0
INSERT
  5
11D8
330
11D1
100
AcDbEntity
  8
DIM
 62
     0
370
    -2
100
AcDbBlockReference
  2
_DOT
 10
-673.7047535370035
 20
1603.240760531758
 30
0.0
 41
6.0
 42
6.0
 43
6.0
  0
MTEXT
  5
11D9
330
11D1
100
AcDbEntity
  8
DIM
 62
     0
 48
0.05
100
AcDbMText
 10
-718.7047535370034
 20
1624.240760531758
 30
0.0
 40
18.0
 41
0.0
 46
0.0
 71
     5
 72
     1
  1
\A1;90
  7
ＭＳ ゴシック
 73
     1
 44
1.0
  0
POINT
  5
11DA
330
11D1
100
AcDbEntity
  8
Defpoints
 62
     0
100
AcDbPoint
 10
-763.7047535370034
 20
1488.512722572154
 30
0.0
  0
POINT
  5
11DB
330
11D1
100
AcDbEntity
  8
Defpoints
 62
     0
100
AcDbPoint
 10
-673.7047535370034
 20
1119.333722658043
 30
0.0
  0
POINT
  5
11DC
330
11D1
100
AcDbEntity
  8
Defpoints
 62
     0
100
AcDbPoint
 10
-673.7047535370035
 20
1603.240760531758
 30
0.0
  0
ENDBLK
  5
11D3
330
11D1
100
AcDbEntity
  8
0
100
AcDbBlockEnd
  0
BLOCK
  5
11DE
330
11DD
100
AcDbEntity
  8
0
100
AcDbBlockBegin
  2
*D32
 70
     1
 10
0.0
 20
0.0
 30
0.0
  3
*D32
  1
*D33
  0
LINE
  5
11E0
330
11DD
100
AcDbEntity
  8
DIM
  6
Continuous
 62
     0
370
    -2
100
AcDbLine
 10
-653.2171966793815
 20
2349.875642188588
 30
0.0
 11
-516.6060568883845
 21
2349.875642188588
 31
0.0
  0
LINE
  5
11E1
330
11DD
100
AcDbEntity
  8
DIM
  6
Continuous
 62
     0
370
    -2
100
AcDbLine
 10
-578.9541584486724
 20
2292.875642188588
 30
0.0
 11
-516.6060568883845
 21
2292.875642188588
 31
0.0
  0
LINE
  5
11E2
330
11DD
100
AcDbEntity
  8
DIM
  6
Continuous
 62
     0
370
    -2
100
AcDbLine
 10
-516.6060568883845
 20
2343.875642188588
 30
0.0
 11
-516.6060568883845
 21
2298.875642188588
 31
0.0
  0
INSERT
  5
11E3
330
11DD
100
AcDbEntity
  8
DIM
 62
     0
370
    -2
100
AcDbBlockReference
  2
_DOT
 10
-516.6060568883845
 20
2349.875642188588
 30
0.0
 41
6.0
 42
6.0
 43
6.0
 50
90.0
  0
INSERT
  5
11E4
330
11DD
100
AcDbEntity
  8
DIM
 62
     0
370
    -2
100
AcDbBlockReference
  2
_DOT
 10
-516.6060568883845
 20
2292.875642188588
 30
0.0
 41
6.0
 42
6.0
 43
6.0
 50
270.0
  0
MTEXT
  5
11E5
330
11DD
100
AcDbEntity
  8
DIM
 62
     0
 48
0.05
100
AcDbMText
 10
-537.6060568883845
 20
2321.375642188588
 30
0.0
 40
18.0
 41
0.0
 46
0.0
 71
     5
 72
     1
  1
\A1;57
  7
ＭＳ ゴシック
 11
0.0
 21
1.0
 31
0.0
 73
     1
 44
1.0
  0
POINT
  5
11E6
330
11DD
100
AcDbEntity
  8
Defpoints
 62
     0
100
AcDbPoint
 10
-673.2171966793815
 20
2349.875642188588
 30
0.0
  0
POINT
  5
11E7
330
11DD
100
AcDbEntity
  8
Defpoints
 62
     0
100
AcDbPoint
 10
-598.9541584486724
 20
2292.875642188588
 30
0.0
  0
POINT
  5
11E8
330
11DD
100
AcDbEntity
  8
Defpoints
 62
     0
100
AcDbPoint
 10
-516.6060568883845
 20
2292.875642188588
 30
0.0
  0
ENDBLK
  5
11DF
330
11DD
100
AcDbEntity
  8
0
100
AcDbBlockEnd
  0
BLOCK
  5
11EA
330
11E9
100
AcDbEntity
  8
0
100
AcDbBlockBegin
  2
*D33
 70
     1
 10
0.0
 20
0.0
 30
0.0
  3
*D33
  1
*D34
  0
LINE
  5
11EC
330
11E9
100
AcDbEntity
  8
DIM
  6
Continuous
 62
     0
370
    -2
100
AcDbLine
 10
-763.7047535370034
 20
2254.607483581228
 30
0.0
 11
-919.9748802107206
 21
2254.607483581228
 31
0.0
  0
LINE
  5
11ED
330
11E9
100
AcDbEntity
  8
DIM
  6
Continuous
 62
     0
370
    -2
100
AcDbLine
 10
-757.7047535370034
 20
2254.607483581228
 30
0.0
 11
-698.7047535370034
 21
2254.607483581228
 31
0.0
  0
INSERT
  5
11EE
330
11E9
100
AcDbEntity
  8
DIM
 62
     0
370
    -2
100
AcDbBlockReference
  2
_DOT
 10
-763.7047535370034
 20
2254.607483581228
 30
0.0
 41
6.0
 42
6.0
 43
6.0
 50
180.0
  0
INSERT
  5
11EF
330
11E9
100
AcDbEntity
  8
DIM
 62
     0
370
    -2
100
AcDbBlockReference
  2
_DOT
 10
-692.7047535370034
 20
2254.607483581228
 30
0.0
 41
6.0
 42
6.0
 43
6.0
  0
MTEXT
  5
11F0
330
11E9
100
AcDbEntity
  8
DIM
 62
     0
 48
0.05
100
AcDbMText
 10
-864.6488802107206
 20
2277.200483581228
 30
0.0
 40
18.0
 41
0.0
 46
0.0
 71
     5
 72
     1
  1
\A1;71(深さ)
  7
ＭＳ ゴシック
 73
     1
 44
1.0
  0
POINT
  5
11F1
330
11E9
100
AcDbEntity
  8
Defpoints
 62
     0
100
AcDbPoint
 10
-763.7047535370034
 20
2277.109183949192
 30
0.0
  0
POINT
  5
11F2
330
11E9
100
AcDbEntity
  8
Defpoints
 62
     0
100
AcDbPoint
 10
-692.7047535370034
 20
2267.771693688258
 30
0.0
  0
POINT
  5
11F3
330
11E9
100
AcDbEntity
  8
Defpoints
 62
     0
100
AcDbPoint
 10
-692.7047535370034
 20
2254.607483581228
 30
0.0
  0
ENDBLK
  5
11EB
330
11E9
100
AcDbEntity
  8
0
100
AcDbBlockEnd
  0
BLOCK
  5
11F5
330
11F4
100
AcDbEntity
  8
0
100
AcDbBlockBegin
  2
*D34
 70
     1
 10
0.0
 20
0.0
 30
0.0
  3
*D34
  1
*D35
  0
LINE
  5
11F7
330
11F4
100
AcDbEntity
  8
DIM
  6
Continuous
 62
     0
370
    -2
100
AcDbLine
 10
-1757.34369565835
 20
1948.933936112986
 30
0.0
 11
-1797.515427642802
 21
1948.933936112986
 31
0.0
  0
LINE
  5
11F8
330
11F4
100
AcDbEntity
  8
DIM
  6
Continuous
 62
     0
370
    -2
100
AcDbLine
 10
-1633.501126082527
 20
2248.933936112986
 30
0.0
 11
-1797.515427642802
 21
2248.933936112986
 31
0.0
  0
LINE
  5
11F9
330
11F4
100
AcDbEntity
  8
DIM
  6
Continuous
 62
     0
370
    -2
100
AcDbLine
 10
-1797.515427642802
 20
1954.933936112986
 30
0.0
 11
-1797.515427642802
 21
2242.933936112986
 31
0.0
  0
INSERT
  5
11FA
330
11F4
100
AcDbEntity
  8
DIM
 62
     0
370
    -2
100
AcDbBlockReference
  2
_DOT
 10
-1797.515427642802
 20
1948.933936112986
 30
0.0
 41
6.0
 42
6.0
 43
6.0
 50
270.0
  0
INSERT
  5
11FB
330
11F4
100
AcDbEntity
  8
DIM
 62
     0
370
    -2
100
AcDbBlockReference
  2
_DOT
 10
-1797.515427642802
 20
2248.933936112986
 30
0.0
 41
6.0
 42
6.0
 43
6.0
 50
90.0
  0
MTEXT
  5
11FC
330
11F4
100
AcDbEntity
  8
DIM
 62
     0
 48
0.05
100
AcDbMText
 10
-1818.515427642802
 20
2098.933936112986
 30
0.0
 40
18.0
 41
0.0
 46
0.0
 71
     5
 72
     1
  1
\A1;300
  7
ＭＳ ゴシック
 11
0.0
 21
1.0
 31
0.0
 73
     1
 44
1.0
  0
POINT
  5
11FD
330
11F4
100
AcDbEntity
  8
Defpoints
 62
     0
100
AcDbPoint
 10
-1737.34369565835
 20
1948.933936112986
 30
0.0
  0
POINT
  5
11FE
330
11F4
100
AcDbEntity
  8
Defpoints
 62
     0
100
AcDbPoint
 10
-1613.501126082527
 20
2248.933936112986
 30
0.0
  0
POINT
  5
11FF
330
11F4
100
AcDbEntity
  8
Defpoints
 62
     0
100
AcDbPoint
 10
-1797.515427642802
 20
2248.933936112986
 30
0.0
  0
ENDBLK
  5
11F6
330
11F4
100
AcDbEntity
  8
0
100
AcDbBlockEnd
  0
BLOCK
  5
1201
330
1200
100
AcDbEntity
  8
0
100
AcDbBlockBegin
  2
*D35
 70
     1
 10
0.0
 20
0.0
 30
0.0
  3
*D35
  1
*D36
  0
LINE
  5
1203
330
1200
100
AcDbEntity
  8
DIM
  6
Continuous
 62
     0
370
    -2
100
AcDbLine
 10
-653.7047499607224
 20
2340.733872928421
 30
0.0
 11
-584.7906449846944
 21
2340.733872928421
 31
0.0
  0
LINE
  5
1204
330
1200
100
AcDbEntity
  8
DIM
  6
Continuous
 62
     0
370
    -2
100
AcDbLine
 10
-653.7047499607224
 20
2244.733872511189
 30
0.0
 11
-584.7906449846944
 21
2244.733872511189
 31
0.0
  0
LINE
  5
1205
330
1200
100
AcDbEntity
  8
DIM
  6
Continuous
 62
     0
370
    -2
100
AcDbLine
 10
-584.7906449846944
 20
2334.733872928421
 30
0.0
 11
-584.7906449846944
 21
2250.733872511189
 31
0.0
  0
INSERT
  5
1206
330
1200
100
AcDbEntity
  8
DIM
 62
     0
370
    -2
100
AcDbBlockReference
  2
_DOT
 10
-584.7906449846944
 20
2340.733872928421
 30
0.0
 41
6.0
 42
6.0
 43
6.0
 50
90.0
  0
INSERT
  5
1207
330
1200
100
AcDbEntity
  8
DIM
 62
     0
370
    -2
100
AcDbBlockReference
  2
_DOT
 10
-584.7906449846944
 20
2244.733872511189
 30
0.0
 41
6.0
 42
6.0
 43
6.0
 50
270.0
  0
MTEXT
  5
1208
330
1200
100
AcDbEntity
  8
DIM
 62
     0
 48
0.05
100
AcDbMText
 10
-605.7906449846944
 20
2292.733872719805
 30
0.0
 40
18.0
 41
0.0
 46
0.0
 71
     5
 72
     1
  1
\A1;96
  7
ＭＳ ゴシック
 11
0.0
 21
1.0
 31
0.0
 73
     1
 44
1.0
  0
POINT
  5
1209
330
1200
100
AcDbEntity
  8
Defpoints
 62
     0
100
AcDbPoint
 10
-673.7047499607224
 20
2340.733872928421
 30
0.0
  0
POINT
  5
120A
330
1200
100
AcDbEntity
  8
Defpoints
 62
     0
100
AcDbPoint
 10
-673.7047499607224
 20
2244.733872511189
 30
0.0
  0
POINT
  5
120B
330
1200
100
AcDbEntity
  8
Defpoints
 62
     0
100
AcDbPoint
 10
-584.7906449846944
 20
2244.733872511189
 30
0.0
  0
ENDBLK
  5
1202
330
1200
100
AcDbEntity
  8
0
100
AcDbBlockEnd
  0
BLOCK
  5
120D
330
120C
100
AcDbEntity
  8
0
100
AcDbBlockBegin
  2
*D36
 70
     1
 10
0.0
 20
0.0
 30
0.0
  3
*D36
  1
*D37
  0
LINE
  5
120F
330
120C
100
AcDbEntity
  8
DIM
 62
     0
 48
0.05
370
    -2
100
AcDbLine
 10
-651.2555712271364
 20
904.3419460937743
 30
0.0
 11
-614.0768584799514
 21
904.3419460937743
 31
0.0
  0
LINE
  5
1210
330
120C
100
AcDbEntity
  8
DIM
 62
     0
 48
0.05
370
    -2
100
AcDbLine
 10
-651.2555712271364
 20
951.3046125649329
 30
0.0
 11
-614.0768584799514
 21
951.3046125649329
 31
0.0
  0
LINE
  5
1211
330
120C
100
AcDbEntity
  8
DIM
 62
     0
 48
0.05
370
    -2
100
AcDbLine
 10
-614.0768584799514
 20
910.3419460937743
 30
0.0
 11
-614.0768584799514
 21
945.3046125649329
 31
0.0
  0
INSERT
  5
1212
330
120C
100
AcDbEntity
  8
DIM
 62
     0
370
    -2
100
AcDbBlockReference
  2
_DOT
 10
-614.0768584799514
 20
904.3419460937743
 30
0.0
 41
6.0
 42
6.0
 43
6.0
 50
270.0
  0
INSERT
  5
1213
330
120C
100
AcDbEntity
  8
DIM
 62
     0
370
    -2
100
AcDbBlockReference
  2
_DOT
 10
-614.0768584799514
 20
951.3046125649329
 30
0.0
 41
6.0
 42
6.0
 43
6.0
 50
90.0
  0
MTEXT
  5
1214
330
120C
100
AcDbEntity
  8
DIM
 62
     0
 48
0.05
100
AcDbMText
 10
-591.1598584799514
 20
927.8232793293536
 30
0.0
 40
18.0
 41
0.0
 46
0.0
 71
     5
 72
     1
  1
\A1;G1 1/4"
  7
ＭＳ ゴシック
 11
0.0
 21
1.0
 31
0.0
 73
     1
 44
1.0
  0
POINT
  5
1215
330
120C
100
AcDbEntity
  8
Defpoints
 62
     0
100
AcDbPoint
 10
-671.2555712271364
 20
904.3419460937743
 30
0.0
  0
POINT
  5
1216
330
120C
100
AcDbEntity
  8
Defpoints
 62
     0
100
AcDbPoint
 10
-671.2555712271364
 20
951.3046125649329
 30
0.0
  0
POINT
  5
1217
330
120C
100
AcDbEntity
  8
Defpoints
 62
     0
100
AcDbPoint
 10
-614.0768584799514
 20
951.3046125649329
 30
0.0
  0
ENDBLK
  5
120E
330
120C
100
AcDbEntity
  8
0
100
AcDbBlockEnd
  0
BLOCK
  5
1274
330
1273
100
AcDbEntity
  8
0
100
AcDbBlockBegin
  2
*D37
 70
     1
 10
0.0
 20
0.0
 30
0.0
  3
*D37
  1
*D38
  0
LINE
  5
1276
330
1273
100
AcDbEntity
  8
DIM
 62
     0
 48
0.05
370
    -2
100
AcDbLine
 10
1601.552933724409
 20
765.9533599222354
 30
0.0
 11
1721.499384420487
 21
765.9533599222354
 31
0.0
  0
LINE
  5
1277
330
1273
100
AcDbEntity
  8
DIM
 62
     0
 48
0.05
370
    -2
100
AcDbLine
 10
1572.053392316526
 20
1089.611786441189
 30
0.0
 11
1721.499384420487
 21
1089.611786441189
 31
0.0
  0
LINE
  5
1278
330
1273
100
AcDbEntity
  8
DIM
 62
     0
 48
0.05
370
    -2
100
AcDbLine
 10
1721.499384420487
 20
775.9533599222354
 30
0.0
 11
1721.499384420487
 21
1079.611786441189
 31
0.0
  0
INSERT
  5
1279
330
1273
100
AcDbEntity
  8
DIM
 62
     0
370
    -2
100
AcDbBlockReference
  2
_DOT
 10
1721.499384420487
 20
765.9533599222354
 30
0.0
 41
10.0
 42
10.0
 43
10.0
 50
270.0
  0
INSERT
  5
127A
330
1273
100
AcDbEntity
  8
DIM
 62
     0
370
    -2
100
AcDbBlockReference
  2
_DOT
 10
1721.499384420487
 20
1089.611786441189
 30
0.0
 41
10.0
 42
10.0
 43
10.0
 50
90.0
  0
MTEXT
  5
127B
330
1273
100
AcDbEntity
  8
DIM
  6
HIDDEN
 62
     0
 48
0.05
100
AcDbMText
 10
1689.499384420487
 20
927.782573181712
 30
0.0
 40
24.0
 41
0.0
 46
0.0
 71
     5
 72
     1
  1
\A1;324
  7
ＭＳ ゴシック
 11
0.0
 21
1.0
 31
0.0
 73
     1
 44
1.0
  0
POINT
  5
127C
330
1273
100
AcDbEntity
  8
Defpoints
 62
     0
100
AcDbPoint
 10
1571.552933724409
 20
765.9533599222354
 30
0.0
  0
POINT
  5
127D
330
1273
100
AcDbEntity
  8
Defpoints
 62
     0
100
AcDbPoint
 10
1542.053392316526
 20
1089.611786441189
 30
0.0
  0
POINT
  5
127E
330
1273
100
AcDbEntity
  8
Defpoints
 62
     0
100
AcDbPoint
 10
1721.499384420487
 20
1089.611786441189
 30
0.0
  0
ENDBLK
  5
1275
330
1273
100
AcDbEntity
  8
0
100
AcDbBlockEnd
  0
BLOCK
  5
1293
330
1292
100
AcDbEntity
  8
0
100
AcDbBlockBegin
  2
*D38
 70
     1
 10
0.0
 20
0.0
 30
0.0
  3
*D38
  1
*D39
  0
LINE
  5
1295
330
1292
100
AcDbEntity
  8
DIM
 62
     0
 48
0.05
370
    -2
100
AcDbLine
 10
-653.7047499607224
 20
765.9533599222354
 30
0.0
 11
-496.5502103811455
 21
765.9533599222354
 31
0.0
  0
LINE
  5
1296
330
1292
100
AcDbEntity
  8
DIM
 62
     0
 48
0.05
370
    -2
100
AcDbLine
 10
-653.7047499607224
 20
1090.953359922235
 30
0.0
 11
-496.5502103811455
 21
1090.953359922235
 31
0.0
  0
LINE
  5
1297
330
1292
100
AcDbEntity
  8
DIM
 62
     0
 48
0.05
370
    -2
100
AcDbLine
 10
-496.5502103811455
 20
771.9533599222354
 30
0.0
 11
-496.5502103811455
 21
1084.953359922235
 31
0.0
  0
INSERT
  5
1298
330
1292
100
AcDbEntity
  8
DIM
 62
     0
370
    -2
100
AcDbBlockReference
  2
_DOT
 10
-496.5502103811455
 20
765.9533599222354
 30
0.0
 41
6.0
 42
6.0
 43
6.0
 50
270.0
  0
INSERT
  5
1299
330
1292
100
AcDbEntity
  8
DIM
 62
     0
370
    -2
100
AcDbBlockReference
  2
_DOT
 10
-496.5502103811455
 20
1090.953359922235
 30
0.0
 41
6.0
 42
6.0
 43
6.0
 50
90.0
  0
MTEXT
  5
129A
330
1292
100
AcDbEntity
  8
DIM
 62
     0
 48
0.05
100
AcDbMText
 10
-517.5502103811455
 20
928.4533599222352
 30
0.0
 40
18.0
 41
0.0
 46
0.0
 71
     5
 72
     1
  1
\A1;325
  7
ＭＳ ゴシック
 11
0.0
 21
1.0
 31
0.0
 73
     1
 44
1.0
  0
POINT
  5
129B
330
1292
100
AcDbEntity
  8
Defpoints
 62
     0
100
AcDbPoint
 10
-673.7047499607224
 20
765.9533599222354
 30
0.0
  0
POINT
  5
129C
330
1292
100
AcDbEntity
  8
Defpoints
 62
     0
100
AcDbPoint
 10
-673.7047499607224
 20
1090.953359922235
 30
0.0
  0
POINT
  5
129D
330
1292
100
AcDbEntity
  8
Defpoints
 62
     0
100
AcDbPoint
 10
-496.5502103811455
 20
1090.953359922235
 30
0.0
  0
ENDBLK
  5
1294
330
1292
100
AcDbEntity
  8
0
100
AcDbBlockEnd
  0
BLOCK
  5
12B8
330
12B7
100
AcDbEntity
  8
0
100
AcDbBlockBegin
  2
*D39
 70
     1
 10
0.0
 20
0.0
 30
0.0
  3
*D39
  1
*D40
  0
LINE
  5
12BA
330
12B7
100
AcDbEntity
  8
DIM
 62
     0
 48
0.05
370
    -2
100
AcDbLine
 10
-1636.317943478278
 20
2098.933936112986
 30
0.0
 11
-1709.983656169731
 21
2098.933936112986
 31
0.0
  0
LINE
  5
12BB
330
12B7
100
AcDbEntity
  8
DIM
 62
     0
 48
0.05
370
    -2
100
AcDbLine
 10
-1537.815901683434
 20
1818.933936112986
 30
0.0
 11
-1709.983656169731
 21
1818.933936112986
 31
0.0
  0
LINE
  5
12BC
330
12B7
100
AcDbEntity
  8
DIM
 62
     0
 48
0.05
370
    -2
100
AcDbLine
 10
-1709.983656169731
 20
2092.933936112986
 30
0.0
 11
-1709.983656169731
 21
1824.933936112986
 31
0.0
  0
INSERT
  5
12BD
330
12B7
100
AcDbEntity
  8
DIM
 62
     0
370
    -2
100
AcDbBlockReference
  2
_DOT
 10
-1709.983656169731
 20
2098.933936112986
 30
0.0
 41
6.0
 42
6.0
 43
6.0
 50
90.0
  0
INSERT
  5
12BE
330
12B7
100
AcDbEntity
  8
DIM
 62
     0
370
    -2
100
AcDbBlockReference
  2
_DOT
 10
-1709.983656169731
 20
1818.933936112986
 30
0.0
 41
6.0
 42
6.0
 43
6.0
 50
270.0
  0
MTEXT
  5
12BF
330
12B7
100
AcDbEntity
  8
DIM
 62
     0
 48
0.05
100
AcDbMText
 10
-1730.983656169731
 20
1958.933936112986
 30
0.0
 40
18.0
 41
0.0
 46
0.0
 71
     5
 72
     1
  1
\A1;280
  7
ＭＳ ゴシック
 11
0.0
 21
1.0
 31
0.0
 73
     1
 44
1.0
  0
POINT
  5
12C0
330
12B7
100
AcDbEntity
  8
Defpoints
 62
     0
100
AcDbPoint
 10
-1616.317943478278
 20
2098.933936112986
 30
0.0
  0
POINT
  5
12C1
330
12B7
100
AcDbEntity
  8
Defpoints
 62
     0
100
AcDbPoint
 10
-1517.815901683434
 20
1818.933936112986
 30
0.0
  0
POINT
  5
12C2
330
12B7
100
AcDbEntity
  8
Defpoints
 62
     0
100
AcDbPoint
 10
-1709.983656169731
 20
1818.933936112986
 30
0.0
  0
ENDBLK
  5
12B9
330
12B7
100
AcDbEntity
  8
0
100
AcDbBlockEnd
  0
BLOCK
  5
12D1
330
12D0
100
AcDbEntity
  8
0
100
AcDbBlockBegin
  2
*D40
 70
     1
 10
0.0
 20
0.0
 30
0.0
  3
*D40
  1
*D41
  0
LINE
  5
12D3
330
12D0
100
AcDbEntity
  8
DIM
 62
     0
 48
0.05
370
    -2
100
AcDbLine
 10
-1638.475000391427
 20
2068.243126271167
 30
0.0
 11
-1638.475000391427
 21
1841.674232263141
 31
0.0
  0
LINE
  5
12D4
330
12D0
100
AcDbEntity
  8
DIM
 62
     0
 48
0.05
370
    -2
100
AcDbLine
 10
-1581.475000391427
 20
2068.243126271167
 30
0.0
 11
-1581.475000391427
 21
1841.674232263141
 31
0.0
  0
LINE
  5
12D5
330
12D0
100
AcDbEntity
  8
DIM
 62
     0
 48
0.05
370
    -2
100
AcDbLine
 10
-1632.475000391427
 20
1841.674232263141
 30
0.0
 11
-1587.475000391427
 21
1841.674232263141
 31
0.0
  0
INSERT
  5
12D6
330
12D0
100
AcDbEntity
  8
DIM
 62
     0
370
    -2
100
AcDbBlockReference
  2
_DOT
 10
-1638.475000391427
 20
1841.674232263141
 30
0.0
 41
6.0
 42
6.0
 43
6.0
 50
180.0
  0
INSERT
  5
12D7
330
12D0
100
AcDbEntity
  8
DIM
 62
     0
370
    -2
100
AcDbBlockReference
  2
_DOT
 10
-1581.475000391427
 20
1841.674232263141
 30
0.0
 41
6.0
 42
6.0
 43
6.0
  0
MTEXT
  5
12D8
330
12D0
100
AcDbEntity
  8
DIM
 62
     0
 48
0.05
100
AcDbMText
 10
-1609.975000391427
 20
1862.674232263141
 30
0.0
 40
18.0
 41
0.0
 46
0.0
 71
     5
 72
     1
  1
\A1;57
  7
ＭＳ ゴシック
 73
     1
 44
1.0
  0
POINT
  5
12D9
330
12D0
100
AcDbEntity
  8
Defpoints
 62
     0
100
AcDbPoint
 10
-1638.475000391427
 20
2088.243126271167
 30
0.0
  0
POINT
  5
12DA
330
12D0
100
AcDbEntity
  8
Defpoints
 62
     0
100
AcDbPoint
 10
-1581.475000391427
 20
2088.243126271167
 30
0.0
  0
POINT
  5
12DB
330
12D0
100
AcDbEntity
  8
Defpoints
 62
     0
100
AcDbPoint
 10
-1581.475000391427
 20
1841.674232263141
 30
0.0
  0
ENDBLK
  5
12D2
330
12D0
100
AcDbEntity
  8
0
100
AcDbBlockEnd
  0
BLOCK
  5
12E8
330
12E7
100
AcDbEntity
  8
0
100
AcDbBlockBegin
  2
*D41
 70
     1
 10
0.0
 20
0.0
 30
0.0
  3
*D41
  1
*D42
  0
LINE
  5
12EA
330
12E7
100
AcDbEntity
  8
DIM
 62
     0
 48
0.05
370
    -2
100
AcDbLine
 10
-1638.3893148263
 20
2120.048350510715
 30
0.0
 11
-1638.3893148263
 21
2304.590145901579
 31
0.0
  0
LINE
  5
12EB
330
12E7
100
AcDbEntity
  8
DIM
 62
     0
 48
0.05
370
    -2
100
AcDbLine
 10
-1598.3893148263
 20
2273.933936112986
 30
0.0
 11
-1598.3893148263
 21
2304.590145901579
 31
0.0
  0
LINE
  5
12EC
330
12E7
100
AcDbEntity
  8
DIM
 62
     0
 48
0.05
370
    -2
100
AcDbLine
 10
-1632.3893148263
 20
2304.590145901579
 30
0.0
 11
-1604.3893148263
 21
2304.590145901579
 31
0.0
  0
INSERT
  5
12ED
330
12E7
100
AcDbEntity
  8
DIM
 62
     0
370
    -2
100
AcDbBlockReference
  2
_DOT
 10
-1638.3893148263
 20
2304.590145901579
 30
0.0
 41
6.0
 42
6.0
 43
6.0
 50
180.0
  0
INSERT
  5
12EE
330
12E7
100
AcDbEntity
  8
DIM
 62
     0
370
    -2
100
AcDbBlockReference
  2
_DOT
 10
-1598.3893148263
 20
2304.590145901579
 30
0.0
 41
6.0
 42
6.0
 43
6.0
  0
MTEXT
  5
12EF
330
12E7
100
AcDbEntity
  8
DIM
 62
     0
 48
0.05
100
AcDbMText
 10
-1618.3893148263
 20
2325.590145901579
 30
0.0
 40
18.0
 41
0.0
 46
0.0
 71
     5
 72
     1
  1
\A1; 
  7
ＭＳ ゴシック
 73
     1
 44
1.0
  0
POINT
  5
12F0
330
12E7
100
AcDbEntity
  8
Defpoints
 62
     0
100
AcDbPoint
 10
-1638.3893148263
 20
2100.048350510715
 30
0.0
  0
POINT
  5
12F1
330
12E7
100
AcDbEntity
  8
Defpoints
 62
     0
100
AcDbPoint
 10
-1598.3893148263
 20
2253.933936112986
 30
0.0
  0
POINT
  5
12F2
330
12E7
100
AcDbEntity
  8
Defpoints
 62
     0
100
AcDbPoint
 10
-1598.3893148263
 20
2304.590145901579
 30
0.0
  0
ENDBLK
  5
12E9
330
12E7
100
AcDbEntity
  8
0
100
AcDbBlockEnd
  0
BLOCK
  5
13A8
330
13A7
100
AcDbEntity
  8
0
100
AcDbBlockBegin
  2
*D42
 70
     1
 10
0.0
 20
0.0
 30
0.0
  3
*D42
  1
*D33
  0
LINE
  5
13A9
330
13A7
100
AcDbEntity
  8
DIM
 62
     0
 48
0.05
370
    -2
100
AcDbLine
 10
3.080666764420698
 20
29.53124864930226
 30
0.0
 11
3.080666764420698
 21
24.12999999999994
 31
0.0
  0
LINE
  5
13AA
330
13A7
100
AcDbEntity
  8
DIM
 62
     0
 48
0.05
370
    -2
100
AcDbLine
 10
50.04333323557933
 20
29.53124864930226
 30
0.0
 11
50.04333323557933
 21
24.12999999999994
 31
0.0
  0
LINE
  5
13AB
330
13A7
100
AcDbEntity
  8
DIM
 62
     0
 48
0.05
370
    -2
100
AcDbLine
 10
13.0806667644207
 20
24.12999999999994
 30
0.0
 11
40.04333323557933
 21
24.12999999999994
 31
0.0
  0
INSERT
  5
13AC
330
13A7
100
AcDbEntity
  8
DIM
 62
     0
370
    -2
100
AcDbBlockReference
  2
_DOT
 10
3.080666764420698
 20
24.12999999999994
 30
0.0
 41
10.0
 42
10.0
 43
10.0
 50
180.0
  0
INSERT
  5
13AD
330
13A7
100
AcDbEntity
  8
DIM
 62
     0
370
    -2
100
AcDbBlockReference
  2
_DOT
 10
50.04333323557933
 20
24.12999999999994
 30
0.0
 41
10.0
 42
10.0
 43
10.0
  0
MTEXT
  5
13AE
330
13A7
100
AcDbEntity
  8
DIM
 62
     0
 48
0.05
100
AcDbMText
 10
26.56200000000001
 20
-10.42600000000006
 30
0.0
 40
24.0
 41
0.0
 46
0.0
 71
     5
 72
     1
  1
\A1;G1 1/4"
  7
ＭＳ ゴシック
 73
     1
 44
1.0
  0
POINT
  5
13AF
330
13A7
100
AcDbEntity
  8
Defpoints
 62
     0
100
AcDbPoint
 10
3.080666764420698
 20
59.53124864930226
 30
0.0
  0
POINT
  5
13B0
330
13A7
100
AcDbEntity
  8
Defpoints
 62
     0
100
AcDbPoint
 10
50.04333323557933
 20
59.53124864930226
 30
0.0
  0
POINT
  5
13B1
330
13A7
100
AcDbEntity
  8
Defpoints
 62
     0
100
AcDbPoint
 10
50.04333323557933
 20
24.12999999999994
 30
0.0
  0
ENDBLK
  5
13B2
330
13A7
100
AcDbEntity
  8
0
100
AcDbBlockEnd
  0
BLOCK
  5
13CE
330
13CD
100
AcDbEntity
  8
0
100
AcDbBlockBegin
  2
*D43
 70
     1
 10
0.0
 20
0.0
 30
0.0
  3
*D43
  1
*D46
  0
LINE
  5
13D0
330
13CD
100
AcDbEntity
  8
DIM
 62
     0
 48
0.05
370
    -2
100
AcDbLine
 10
1650.441093585219
 20
2425.682895053302
 30
0.0
 11
1650.441093585219
 21
2420.281646404
 31
0.0
  0
LINE
  5
13D1
330
13CD
100
AcDbEntity
  8
DIM
 62
     0
 48
0.05
370
    -2
100
AcDbLine
 10
1650.441093585219
 20
2472.64556152446
 30
0.0
 11
1650.441093585219
 21
2420.281646404
 31
0.0
  0
LINE
  5
13D2
330
13CD
100
AcDbEntity
  8
DIM
 62
     0
 48
0.05
370
    -2
100
AcDbLine
 10
1650.441093585219
 20
2420.281646404
 30
0.0
 11
1816.689093585219
 21
2420.281646404
 31
0.0
  0
LINE
  5
13D3
330
13CD
100
AcDbEntity
  8
DIM
 62
     0
 48
0.05
370
    -2
100
AcDbLine
 10
1640.441093585219
 20
2420.281646404
 30
0.0
 11
1630.441093585219
 21
2420.281646404
 31
0.0
  0
LINE
  5
13D4
330
13CD
100
AcDbEntity
  8
DIM
 62
     0
 48
0.05
370
    -2
100
AcDbLine
 10
1660.441093585219
 20
2420.281646404
 30
0.0
 11
1670.441093585219
 21
2420.281646404
 31
0.0
  0
INSERT
  5
13D5
330
13CD
100
AcDbEntity
  8
DIM
 62
     0
370
    -2
100
AcDbBlockReference
  2
_DOT
 10
1650.441093585219
 20
2420.281646404
 30
0.0
 41
10.0
 42
10.0
 43
10.0
  0
INSERT
  5
13D6
330
13CD
100
AcDbEntity
  8
DIM
 62
     0
370
    -2
100
AcDbBlockReference
  2
_DOT
 10
1650.441093585219
 20
2420.281646404
 30
0.0
 41
10.0
 42
10.0
 43
10.0
 50
180.0
  0
MTEXT
  5
13D7
330
13CD
100
AcDbEntity
  8
DIM
 62
     0
 48
0.05
100
AcDbMText
 10
1743.565093585219
 20
2385.725646404
 30
0.0
 40
24.0
 41
0.0
 46
0.0
 71
     5
 72
     1
  1
\A1;G1 1/4"
  7
ＭＳ ゴシック
 73
     1
 44
1.0
  0
POINT
  5
13D8
330
13CD
100
AcDbEntity
  8
Defpoints
 62
     0
100
AcDbPoint
 10
1650.441093585219
 20
2455.682895053302
 30
0.0
  0
POINT
  5
13D9
330
13CD
100
AcDbEntity
  8
Defpoints
 62
     0
100
AcDbPoint
 10
1650.441093585219
 20
2502.64556152446
 30
0.0
  0
POINT
  5
13DA
330
13CD
100
AcDbEntity
  8
Defpoints
 62
     0
100
AcDbPoint
 10
1650.441093585219
 20
2420.281646404
 30
0.0
  0
ENDBLK
  5
13CF
330
13CD
100
AcDbEntity
  8
0
100
AcDbBlockEnd
  0
BLOCK
  5
13E1
330
13E0
100
AcDbEntity
  8
0
100
AcDbBlockBegin
  2
*D44
 70
     1
 10
0.0
 20
0.0
 30
0.0
  3
*D44
  1
*D47
  0
LINE
  5
13E3
330
13E0
100
AcDbEntity
  8
DIM
 62
     0
 48
0.05
370
    -2
100
AcDbLine
 10
1768.612660335697
 20
2327.86125580351
 30
0.0
 11
1759.746100645502
 21
2327.86125580351
 31
0.0
  0
LINE
  5
13E4
330
13E0
100
AcDbEntity
  8
DIM
 62
     0
 48
0.05
370
    -2
100
AcDbLine
 10
1768.612660335697
 20
2291.140621286158
 30
0.0
 11
1759.746100645502
 21
2291.140621286158
 31
0.0
  0
LINE
  5
13E5
330
13E0
100
AcDbEntity
  8
DIM
 62
     0
 48
0.05
370
    -2
100
AcDbLine
 10
1759.746100645502
 20
2337.86125580351
 30
0.0
 11
1759.746100645502
 21
2347.86125580351
 31
0.0
  0
LINE
  5
13E6
330
13E0
100
AcDbEntity
  8
DIM
 62
     0
 48
0.05
370
    -2
100
AcDbLine
 10
1759.746100645502
 20
2281.140621286158
 30
0.0
 11
1759.746100645502
 21
2271.140621286158
 31
0.0
  0
INSERT
  5
13E7
330
13E0
100
AcDbEntity
  8
DIM
 62
     0
370
    -2
100
AcDbBlockReference
  2
_DOT
 10
1759.746100645502
 20
2327.86125580351
 30
0.0
 41
10.0
 42
10.0
 43
10.0
 50
270.0
  0
INSERT
  5
13E8
330
13E0
100
AcDbEntity
  8
DIM
 62
     0
370
    -2
100
AcDbBlockReference
  2
_DOT
 10
1759.746100645502
 20
2291.140621286158
 30
0.0
 41
10.0
 42
10.0
 43
10.0
 50
90.0
  0
MTEXT
  5
13E9
330
13E0
100
AcDbEntity
  8
DIM
 62
     0
 48
0.05
100
AcDbMText
 10
1727.746100645502
 20
2309.500938544834
 30
0.0
 40
24.0
 41
0.0
 46
0.0
 71
     5
 72
     1
  1
\A1;37
  7
ＭＳ ゴシック
 11
0.0
 21
1.0
 31
0.0
 73
     1
 44
1.0
  0
POINT
  5
13EA
330
13E0
100
AcDbEntity
  8
Defpoints
 62
     0
100
AcDbPoint
 10
1738.612660335697
 20
2327.86125580351
 30
0.0
  0
POINT
  5
13EB
330
13E0
100
AcDbEntity
  8
Defpoints
 62
     0
100
AcDbPoint
 10
1738.612660335697
 20
2291.140621286158
 30
0.0
  0
POINT
  5
13EC
330
13E0
100
AcDbEntity
  8
Defpoints
 62
     0
100
AcDbPoint
 10
1759.746100645502
 20
2291.140621286158
 30
0.0
  0
ENDBLK
  5
13E2
330
13E0
100
AcDbEntity
  8
0
100
AcDbBlockEnd
  0
BLOCK
  5
14D4
330
14D3
100
AcDbEntity
  8
0
100
AcDbBlockBegin
  2
*D45
 70
     1
 10
0.0
 20
0.0
 30
0.0
  3
*D45
  1
*D46
  0
LINE
  5
14D5
330
14D3
100
AcDbEntity
  8
注释
 62
     0
370
    -2
100
AcDbLine
 10
11.01155159220003
 20
68.69244574240001
 30
0.0
 11
11.01155159220004
 21
80.4299457424
 31
0.0
  0
LINE
  5
14D6
330
14D3
100
AcDbEntity
  8
注释
 62
     0
370
    -2
100
AcDbLine
 10
185.4115515922001
 20
68.69244574240001
 30
0.0
 11
185.4115515922001
 21
80.4299457424
 31
0.0
  0
LINE
  5
14D7
330
14D3
100
AcDbEntity
  8
注释
 62
     0
370
    -2
100
AcDbLine
 10
13.51155159220004
 20
80.4299457424
 30
0.0
 11
182.9115515922001
 21
80.4299457424
 31
0.0
  0
SOLID
  5
14D8
330
14D3
100
AcDbEntity
  8
注释
 62
     0
100
AcDbTrace
 10
13.51155159220004
 20
80.84661240906667
 30
0.0
 11
13.51155159220004
 21
80.01327907573332
 31
0.0
 12
11.01155159220004
 22
80.4299457424
 32
0.0
 13
11.01155159220004
 23
80.4299457424
 33
0.0
  0
SOLID
  5
14D9
330
14D3
100
AcDbEntity
  8
注释
 62
     0
100
AcDbTrace
 10
182.9115515922001
 20
80.01327907573332
 30
0.0
 11
182.9115515922001
 21
80.84661240906667
 31
0.0
 12
185.4115515922001
 22
80.4299457424
 32
0.0
 13
185.4115515922001
 23
80.4299457424
 33
0.0
  0
MTEXT
  5
14DA
330
14D3
100
AcDbEntity
  8
注释
 62
     0
 48
0.05
100
AcDbMText
 10
98.21155159220002
 20
83.5549457424
 30
0.0
 40
2.5
 41
0.0
 46
0.0
 71
     2
 72
     1
  1
\A1;872
  7
SLDTEXTSTYLE0
 73
     1
 44
1.0
  0
POINT
  5
1574
330
14D3
100
AcDbEntity
  8
Defpoints
 62
     0
100
AcDbPoint
 10
11.01155159220003
 20
68.62994574240001
 30
0.0
  0
POINT
  5
1575
330
14D3
100
AcDbEntity
  8
Defpoints
 62
     0
100
AcDbPoint
 10
185.4115515922001
 20
68.62994574240001
 30
0.0
  0
POINT
  5
1576
330
14D3
100
AcDbEntity
  8
Defpoints
 62
     0
100
AcDbPoint
 10
185.4115515922001
 20
80.4299457424
 30
0.0
  0
ENDBLK
  5
14DB
330
14D3
100
AcDbEntity
  8
0
100
AcDbBlockEnd
  0
BLOCK
  5
14DE
330
14DD
100
AcDbEntity
  8
0
100
AcDbBlockBegin
  2
*D46
 70
     1
 10
0.0
 20
0.0
 30
0.0
  3
*D46
  1
*D47
  0
LINE
  5
14DF
330
14DD
100
AcDbEntity
  8
注释
 62
     0
370
    -2
100
AcDbLine
 10
11.34905159220003
 20
70.4299457424
 30
0.0
 11
3.222669174800028
 21
70.4299457424
 31
0.0
  0
LINE
  5
14E0
330
14DD
100
AcDbEntity
  8
注释
 62
     0
370
    -2
100
AcDbLine
 10
11.34905159220003
 20
64.4299457424
 30
0.0
 11
3.222669174800028
 21
64.4299457424
 31
0.0
  0
LINE
  5
14E1
330
14DD
100
AcDbEntity
  8
注释
 62
     0
370
    -2
100
AcDbLine
 10
3.222669174800028
 20
72.9299457424
 30
0.0
 11
3.222669174800028
 21
75.4299457424
 31
0.0
  0
LINE
  5
14E2
330
14DD
100
AcDbEntity
  8
注释
 62
     0
370
    -2
100
AcDbLine
 10
3.222669174800028
 20
61.92994574239999
 30
0.0
 11
3.222669174800028
 21
59.42994574239999
 31
0.0
  0
SOLID
  5
14E3
330
14DD
100
AcDbEntity
  8
注释
 62
     0
100
AcDbTrace
 10
2.806002508133362
 20
72.9299457424
 30
0.0
 11
3.639335841466695
 21
72.9299457424
 31
0.0
 12
3.222669174800028
 22
70.4299457424
 32
0.0
 13
3.222669174800028
 23
70.4299457424
 33
0.0
  0
SOLID
  5
14E4
330
14DD
100
AcDbEntity
  8
注释
 62
     0
100
AcDbTrace
 10
3.639335841466695
 20
61.92994574239999
 30
0.0
 11
2.806002508133361
 21
61.92994574239999
 31
0.0
 12
3.222669174800028
 22
64.4299457424
 32
0.0
 13
3.222669174800028
 23
64.4299457424
 33
0.0
  0
MTEXT
  5
1577
330
14DD
100
AcDbEntity
  8
注释
 62
     0
 48
0.05
100
AcDbMText
 10
0.0976691748000285
 20
68.3695803884
 30
0.0
 40
2.5
 41
0.0
 46
0.0
 71
     2
 72
     1
  1
\A1;30
  7
SLDTEXTSTYLE0
 11
7.401486830834377E-17
 21
1.0
 31
0.0
 73
     1
 44
1.0
  0
POINT
  5
1578
330
14DD
100
AcDbEntity
  8
Defpoints
 62
     0
100
AcDbPoint
 10
11.41155159220003
 20
70.4299457424
 30
0.0
  0
POINT
  5
1579
330
14DD
100
AcDbEntity
  8
Defpoints
 62
     0
100
AcDbPoint
 10
11.41155159220003
 20
64.4299457424
 30
0.0
  0
POINT
  5
157A
330
14DD
100
AcDbEntity
  8
Defpoints
 62
     0
100
AcDbPoint
 10
3.222669174800028
 20
64.4299457424
 30
0.0
  0
ENDBLK
  5
14E5
330
14DD
100
AcDbEntity
  8
0
100
AcDbBlockEnd
  0
BLOCK
  5
1532
330
1531
100
AcDbEntity
  8
0
100
AcDbBlockBegin
  2
*D47
 70
     1
 10
0.0
 20
0.0
 30
0.0
  3
*D47
  1
*D48
  0
LINE
  5
1533
330
1531
100
AcDbEntity
  8
注释
 62
     0
370
    -2
100
AcDbLine
 10
18.21155159220002
 20
18.4327129261
 30
0.0
 11
18.21155159220001
 21
28.42021292610001
 31
0.0
  0
LINE
  5
1534
330
1531
100
AcDbEntity
  8
注释
 62
     0
370
    -2
100
AcDbLine
 10
178.2115515922
 20
18.4327129261
 30
0.0
 11
178.2115515922
 21
28.42021292610001
 31
0.0
  0
LINE
  5
1535
330
1531
100
AcDbEntity
  8
注释
 62
     0
370
    -2
100
AcDbLine
 10
20.71155159220001
 20
28.42021292610001
 30
0.0
 11
175.7115515922
 21
28.42021292610001
 31
0.0
  0
SOLID
  5
1536
330
1531
100
AcDbEntity
  8
注释
 62
     0
100
AcDbTrace
 10
20.71155159220001
 20
28.83687959276667
 30
0.0
 11
20.71155159220001
 21
28.00354625943334
 31
0.0
 12
18.21155159220001
 22
28.42021292610001
 32
0.0
 13
18.21155159220001
 23
28.42021292610001
 33
0.0
  0
SOLID
  5
1537
330
1531
100
AcDbEntity
  8
注释
 62
     0
100
AcDbTrace
 10
175.7115515922
 20
28.00354625943334
 30
0.0
 11
175.7115515922
 21
28.83687959276667
 31
0.0
 12
178.2115515922
 22
28.42021292610001
 32
0.0
 13
178.2115515922
 23
28.42021292610001
 33
0.0
  0
MTEXT
  5
1538
330
1531
100
AcDbEntity
  8
注释
 62
     0
 48
0.05
100
AcDbMText
 10
98.21155159220002
 20
31.54521292610001
 30
0.0
 40
2.5
 41
0.0
 46
0.0
 71
     2
 72
     1
  1
\A1;800
  7
SLDTEXTSTYLE0
 73
     1
 44
1.0
  0
POINT
  5
157B
330
1531
100
AcDbEntity
  8
Defpoints
 62
     0
100
AcDbPoint
 10
18.21155159220002
 20
18.3702129261
 30
0.0
  0
POINT
  5
157C
330
1531
100
AcDbEntity
  8
Defpoints
 62
     0
100
AcDbPoint
 10
178.2115515922
 20
18.3702129261
 30
0.0
  0
POINT
  5
157D
330
1531
100
AcDbEntity
  8
Defpoints
 62
     0
100
AcDbPoint
 10
178.2115515922
 20
28.42021292610001
 30
0.0
  0
ENDBLK
  5
1539
330
1531
100
AcDbEntity
  8
0
100
AcDbBlockEnd
  0
BLOCK
  5
153C
330
153B
100
AcDbEntity
  8
0
100
AcDbBlockBegin
  2
*D48
 70
     1
 10
0.0
 20
0.0
 30
0.0
  3
*D48
  1
*D49
  0
LINE
  5
153D
330
153B
100
AcDbEntity
  8
注释
 62
     0
370
    -2
100
AcDbLine
 10
10.94905159220003
 20
18.42021292610001
 30
0.0
 11
3.378397438000029
 21
18.42021292610001
 31
0.0
  0
LINE
  5
153E
330
153B
100
AcDbEntity
  8
注释
 62
     0
370
    -2
100
AcDbLine
 10
11.34905159220003
 20
5.570212926099998
 30
0.0
 11
3.378397438000028
 21
5.570212926099998
 31
0.0
  0
LINE
  5
153F
330
153B
100
AcDbEntity
  8
注释
 62
     0
370
    -2
100
AcDbLine
 10
3.378397438000029
 20
15.92021292610001
 30
0.0
 11
3.378397438000028
 21
8.070212926099998
 31
0.0
  0
SOLID
  5
1540
330
153B
100
AcDbEntity
  8
注释
 62
     0
100
AcDbTrace
 10
3.795064104666696
 20
15.92021292610001
 30
0.0
 11
2.961730771333363
 21
15.92021292610001
 31
0.0
 12
3.378397438000029
 22
18.42021292610001
 32
0.0
 13
3.378397438000029
 23
18.42021292610001
 33
0.0
  0
SOLID
  5
1541
330
153B
100
AcDbEntity
  8
注释
 62
     0
100
AcDbTrace
 10
2.961730771333362
 20
8.070212926099998
 30
0.0
 11
3.795064104666695
 21
8.070212926099998
 31
0.0
 12
3.378397438000028
 22
5.570212926099998
 32
0.0
 13
3.378397438000028
 23
5.570212926099998
 33
0.0
  0
MTEXT
  5
1542
330
153B
100
AcDbEntity
  8
注释
 62
     0
 48
0.05
100
AcDbMText
 10
0.2533974380000288
 20
11.9952129261
 30
0.0
 40
2.5
 41
0.0
 46
0.0
 71
     2
 72
     1
  1
\A1;64.3
  7
SLDTEXTSTYLE0
 11
6.911894316732487E-17
 21
1.0
 31
0.0
 73
     1
 44
1.0
  0
POINT
  5
157E
330
153B
100
AcDbEntity
  8
Defpoints
 62
     0
100
AcDbPoint
 10
11.01155159220003
 20
18.42021292610001
 30
0.0
  0
POINT
  5
157F
330
153B
100
AcDbEntity
  8
Defpoints
 62
     0
100
AcDbPoint
 10
11.41155159220003
 20
5.570212926099998
 30
0.0
  0
POINT
  5
1580
330
153B
100
AcDbEntity
  8
Defpoints
 62
     0
100
AcDbPoint
 10
3.378397438000028
 20
5.570212926099999
 30
0.0
  0
ENDBLK
  5
1543
330
153B
100
AcDbEntity
  8
0
100
AcDbBlockEnd
  0
BLOCK
  5
1641
330
1640
100
AcDbEntity
  8
0
100
AcDbBlockBegin
  2
*D49
 70
     1
 10
0.0
 20
0.0
 30
0.0
  3
*D49
  1
*D50
  0
LINE
  5
1643
330
1640
100
AcDbEntity
  8
DIM
 62
     0
370
    -2
100
AcDbLine
 10
3602.982823223449
 20
1689.204660771647
 30
0.0
 11
3602.982823223449
 21
1728.204660771647
 31
0.0
  0
LINE
  5
1644
330
1640
100
AcDbEntity
  8
DIM
 62
     0
370
    -2
100
AcDbLine
 10
4474.982823223449
 20
1689.204660771647
 30
0.0
 11
4474.982823223449
 21
1728.204660771647
 31
0.0
  0
LINE
  5
1645
330
1640
100
AcDbEntity
  8
DIM
 62
     0
370
    -2
100
AcDbLine
 10
3608.982823223449
 20
1728.204660771647
 30
0.0
 11
4468.982823223449
 21
1728.204660771647
 31
0.0
  0
INSERT
  5
1646
330
1640
100
AcDbEntity
  8
DIM
 62
     0
370
    -2
100
AcDbBlockReference
  2
_DOT
 10
3602.982823223449
 20
1728.204660771647
 30
0.0
 41
6.0
 42
6.0
 43
6.0
 50
180.0
  0
INSERT
  5
1647
330
1640
100
AcDbEntity
  8
DIM
 62
     0
370
    -2
100
AcDbBlockReference
  2
_DOT
 10
4474.982823223449
 20
1728.204660771647
 30
0.0
 41
6.0
 42
6.0
 43
6.0
  0
MTEXT
  5
1648
330
1640
100
AcDbEntity
  8
DIM
 62
     0
 48
0.05
100
AcDbMText
 10
4038.982823223449
 20
1758.204660771647
 30
0.0
 40
18.0
 41
0.0
 46
0.0
 71
     2
 72
     1
  1
\A1;872
  7
ＭＳ ゴシック
 73
     1
 44
1.0
  0
POINT
  5
1649
330
1640
100
AcDbEntity
  8
Defpoints
 62
     0
100
AcDbPoint
 10
3602.982823223449
 20
1669.204660771647
 30
0.0
  0
POINT
  5
164A
330
1640
100
AcDbEntity
  8
Defpoints
 62
     0
100
AcDbPoint
 10
4474.982823223449
 20
1669.204660771647
 30
0.0
  0
POINT
  5
164B
330
1640
100
AcDbEntity
  8
Defpoints
 62
     0
100
AcDbPoint
 10
4474.982823223449
 20
1728.204660771647
 30
0.0
  0
ENDBLK
  5
1642
330
1640
100
AcDbEntity
  8
0
100
AcDbBlockEnd
  0
BLOCK
  5
164D
330
164C
100
AcDbEntity
  8
0
100
AcDbBlockBegin
  2
*D50
 70
     1
 10
0.0
 20
0.0
 30
0.0
  3
*D50
  1
*D51
  0
LINE
  5
164F
330
164C
100
AcDbEntity
  8
DIM
 62
     0
370
    -2
100
AcDbLine
 10
1129.253796220742
 20
1155.955490804931
 30
0.0
 11
1178.81472604283
 21
1155.955490804931
 31
0.0
  0
LINE
  5
1650
330
164C
100
AcDbEntity
  8
DIM
 62
     0
370
    -2
100
AcDbLine
 10
1129.253796220742
 20
1125.955490804931
 30
0.0
 11
1178.81472604283
 21
1125.955490804931
 31
0.0
  0
LINE
  5
1651
330
164C
100
AcDbEntity
  8
DIM
 62
     0
370
    -2
100
AcDbLine
 10
1178.81472604283
 20
1151.955490804931
 30
0.0
 11
1178.81472604283
 21
1129.955490804931
 31
0.0
  0
INSERT
  5
1652
330
164C
100
AcDbEntity
  8
DIM
 62
     0
370
    -2
100
AcDbBlockReference
  2
_DOT
 10
1178.81472604283
 20
1155.955490804931
 30
0.0
 41
4.0
 42
4.0
 43
4.0
 50
90.0
  0
INSERT
  5
1653
330
164C
100
AcDbEntity
  8
DIM
 62
     0
370
    -2
100
AcDbBlockReference
  2
_DOT
 10
1178.81472604283
 20
1125.955490804931
 30
0.0
 41
4.0
 42
4.0
 43
4.0
 50
270.0
  0
MTEXT
  5
1654
330
164C
100
AcDbEntity
  8
DIM
 62
     0
 48
0.05
100
AcDbMText
 10
1155.81472604283
 20
1140.955490804931
 30
0.0
 40
14.0
 41
0.0
 46
0.0
 71
     2
 72
     1
  1
\A1;30
  7
ＭＳ ゴシック
 11
0.0
 21
1.0
 31
0.0
 73
     1
 44
1.0
  0
POINT
  5
1655
330
164C
100
AcDbEntity
  8
Defpoints
 62
     0
100
AcDbPoint
 10
1109.253796220742
 20
1155.955490804931
 30
0.0
  0
POINT
  5
1656
330
164C
100
AcDbEntity
  8
Defpoints
 62
     0
100
AcDbPoint
 10
1109.253796220742
 20
1125.955490804931
 30
0.0
  0
POINT
  5
1657
330
164C
100
AcDbEntity
  8
Defpoints
 62
     0
100
AcDbPoint
 10
1178.81472604283
 20
1125.955490804931
 30
0.0
  0
ENDBLK
  5
164E
330
164C
100
AcDbEntity
  8
0
100
AcDbBlockEnd
  0
BLOCK
  5
165A
330
1659
100
AcDbEntity
  8
0
100
AcDbBlockBegin
  2
*D51
 70
     1
 10
0.0
 20
0.0
 30
0.0
  3
*D51
  1
*D52
  0
LINE
  5
165C
330
1659
100
AcDbEntity
  8
DIM
 62
     0
370
    -2
100
AcDbLine
 10
130.5850779556545
 20
1185.14662000504
 30
0.0
 11
130.5850779556545
 21
1213.284542913466
 31
0.0
  0
LINE
  5
165D
330
1659
100
AcDbEntity
  8
DIM
 62
     0
370
    -2
100
AcDbLine
 10
930.5850779556536
 20
1185.14662000504
 30
0.0
 11
930.5850779556536
 21
1213.284542913466
 31
0.0
  0
LINE
  5
165E
330
1659
100
AcDbEntity
  8
DIM
 62
     0
370
    -2
100
AcDbLine
 10
134.5850779556545
 20
1213.284542913466
 30
0.0
 11
926.5850779556536
 21
1213.284542913466
 31
0.0
  0
INSERT
  5
165F
330
1659
100
AcDbEntity
  8
DIM
 62
     0
370
    -2
100
AcDbBlockReference
  2
_DOT
 10
130.5850779556545
 20
1213.284542913466
 30
0.0
 41
4.0
 42
4.0
 43
4.0
 50
180.0
  0
INSERT
  5
1660
330
1659
100
AcDbEntity
  8
DIM
 62
     0
370
    -2
100
AcDbBlockReference
  2
_DOT
 10
930.5850779556536
 20
1213.284542913466
 30
0.0
 41
4.0
 42
4.0
 43
4.0
  0
MTEXT
  5
1661
330
1659
100
AcDbEntity
  8
DIM
 62
     0
 48
0.05
100
AcDbMText
 10
530.5850779556545
 20
1236.284542913466
 30
0.0
 40
14.0
 41
0.0
 46
0.0
 71
     2
 72
     1
  1
\A1;800
  7
ＭＳ ゴシック
 73
     1
 44
1.0
  0
POINT
  5
1662
330
1659
100
AcDbEntity
  8
Defpoints
 62
     0
100
AcDbPoint
 10
130.5850779556545
 20
1165.14662000504
 30
0.0
  0
POINT
  5
1663
330
1659
100
AcDbEntity
  8
Defpoints
 62
     0
100
AcDbPoint
 10
930.5850779556536
 20
1165.14662000504
 30
0.0
  0
POINT
  5
1664
330
1659
100
AcDbEntity
  8
Defpoints
 62
     0
100
AcDbPoint
 10
930.5850779556536
 20
1213.284542913466
 30
0.0
  0
ENDBLK
  5
165B
330
1659
100
AcDbEntity
  8
0
100
AcDbBlockEnd
  0
BLOCK
  5
1666
330
1665
100
AcDbEntity
  8
0
100
AcDbBlockBegin
  2
*D52
 70
     1
 10
0.0
 20
0.0
 30
0.0
  3
*D52
  1
*D53
  0
LINE
  5
1668
330
1665
100
AcDbEntity
  8
DIM
 62
     0
370
    -2
100
AcDbLine
 10
986.5850779556536
 20
831.9080485764663
 30
0.0
 11
1042.694177527038
 21
831.9080485764663
 31
0.0
  0
LINE
  5
1669
330
1665
100
AcDbEntity
  8
DIM
 62
     0
370
    -2
100
AcDbLine
 10
984.5850779556536
 20
767.6580485764663
 30
0.0
 11
1042.694177527038
 21
767.6580485764663
 31
0.0
  0
LINE
  5
166A
330
1665
100
AcDbEntity
  8
DIM
 62
     0
370
    -2
100
AcDbLine
 10
1042.694177527038
 20
827.9080485764663
 30
0.0
 11
1042.694177527038
 21
771.6580485764663
 31
0.0
  0
INSERT
  5
166B
330
1665
100
AcDbEntity
  8
DIM
 62
     0
370
    -2
100
AcDbBlockReference
  2
_DOT
 10
1042.694177527038
 20
831.9080485764663
 30
0.0
 41
4.0
 42
4.0
 43
4.0
 50
90.0
  0
INSERT
  5
166C
330
1665
100
AcDbEntity
  8
DIM
 62
     0
370
    -2
100
AcDbBlockReference
  2
_DOT
 10
1042.694177527038
 20
767.6580485764663
 30
0.0
 41
4.0
 42
4.0
 43
4.0
 50
270.0
  0
MTEXT
  5
166D
330
1665
100
AcDbEntity
  8
DIM
 62
     0
 48
0.05
100
AcDbMText
 10
1019.694177527038
 20
801.8593712742748
 30
0.0
 40
14.0
 41
0.0
 46
0.0
 71
     2
 72
     1
  1
\A1;64
  7
ＭＳ ゴシック
 11
0.0
 21
1.0
 31
0.0
 73
     1
 44
1.0
  0
POINT
  5
166E
330
1665
100
AcDbEntity
  8
Defpoints
 62
     0
100
AcDbPoint
 10
966.5850779556536
 20
831.9080485764663
 30
0.0
  0
POINT
  5
166F
330
1665
100
AcDbEntity
  8
Defpoints
 62
     0
100
AcDbPoint
 10
964.5850779556536
 20
767.6580485764663
 30
0.0
  0
POINT
  5
1670
330
1665
100
AcDbEntity
  8
Defpoints
 62
     0
100
AcDbPoint
 10
1042.694177527038
 20
767.6580485764663
 30
0.0
  0
ENDBLK
  5
1667
330
1665
100
AcDbEntity
  8
0
100
AcDbBlockEnd
  0
BLOCK
  5
16DC
330
16DB
100
AcDbEntity
  8
0
100
AcDbBlockBegin
  2
*D53
 70
     1
 10
0.0
 20
0.0
 30
0.0
  3
*D53
  1
*D55
  0
LINE
  5
16DD
330
16DB
100
AcDbEntity
  8
注释
 62
     0
370
    -2
100
AcDbLine
 10
11.01155159220003
 20
63.12223285290001
 30
0.0
 11
11.01155159220004
 21
74.8597328529
 31
0.0
  0
LINE
  5
16DE
330
16DB
100
AcDbEntity
  8
注释
 62
     0
370
    -2
100
AcDbLine
 10
185.4115515922001
 20
63.12223285290001
 30
0.0
 11
185.4115515922001
 21
74.8597328529
 31
0.0
  0
LINE
  5
16DF
330
16DB
100
AcDbEntity
  8
注释
 62
     0
370
    -2
100
AcDbLine
 10
13.51155159220004
 20
74.8597328529
 30
0.0
 11
182.9115515922001
 21
74.8597328529
 31
0.0
  0
SOLID
  5
16E0
330
16DB
100
AcDbEntity
  8
注释
 62
     0
100
AcDbTrace
 10
13.51155159220004
 20
75.27639951956667
 30
0.0
 11
13.51155159220004
 21
74.44306618623332
 31
0.0
 12
11.01155159220004
 22
74.8597328529
 32
0.0
 13
11.01155159220004
 23
74.8597328529
 33
0.0
  0
SOLID
  5
16E1
330
16DB
100
AcDbEntity
  8
注释
 62
     0
100
AcDbTrace
 10
182.9115515922001
 20
74.44306618623332
 30
0.0
 11
182.9115515922001
 21
75.27639951956667
 31
0.0
 12
185.4115515922001
 22
74.8597328529
 32
0.0
 13
185.4115515922001
 23
74.8597328529
 33
0.0
  0
MTEXT
  5
16E2
330
16DB
100
AcDbEntity
  8
注释
 62
     0
 48
0.05
100
AcDbMText
 10
98.21155159220002
 20
77.9847328529
 30
0.0
 40
2.5
 41
0.0
 46
0.0
 71
     2
 72
     1
  1
\A1;872
  7
SLDTEXTSTYLE0
 73
     1
 44
1.0
  0
POINT
  5
1769
330
16DB
100
AcDbEntity
  8
Defpoints
 62
     0
100
AcDbPoint
 10
11.01155159220003
 20
63.05973285290001
 30
0.0
  0
POINT
  5
176A
330
16DB
100
AcDbEntity
  8
Defpoints
 62
     0
100
AcDbPoint
 10
185.4115515922001
 20
63.05973285290001
 30
0.0
  0
POINT
  5
176B
330
16DB
100
AcDbEntity
  8
Defpoints
 62
     0
100
AcDbPoint
 10
185.4115515922001
 20
74.8597328529
 30
0.0
  0
ENDBLK
  5
16E3
330
16DB
100
AcDbEntity
  8
0
100
AcDbBlockEnd
  0
BLOCK
  5
16E6
330
16E5
100
AcDbEntity
  8
0
100
AcDbBlockBegin
  2
*D54
 70
     1
 10
0.0
 20
0.0
 30
0.0
  3
*D54
  1
*D56
  0
LINE
  5
16E7
330
16E5
100
AcDbEntity
  8
注释
 62
     0
370
    -2
100
AcDbLine
 10
11.34905159220003
 20
64.8597328529
 30
0.0
 11
3.222669174800028
 21
64.8597328529
 31
0.0
  0
LINE
  5
16E8
330
16E5
100
AcDbEntity
  8
注释
 62
     0
370
    -2
100
AcDbLine
 10
11.34905159220003
 20
58.8597328529
 30
0.0
 11
3.222669174800028
 21
58.8597328529
 31
0.0
  0
LINE
  5
16E9
330
16E5
100
AcDbEntity
  8
注释
 62
     0
370
    -2
100
AcDbLine
 10
3.222669174800028
 20
67.3597328529
 30
0.0
 11
3.222669174800028
 21
69.8597328529
 31
0.0
  0
LINE
  5
16EA
330
16E5
100
AcDbEntity
  8
注释
 62
     0
370
    -2
100
AcDbLine
 10
3.222669174800028
 20
56.3597328529
 30
0.0
 11
3.222669174800028
 21
53.8597328529
 31
0.0
  0
SOLID
  5
16EB
330
16E5
100
AcDbEntity
  8
注释
 62
     0
100
AcDbTrace
 10
2.806002508133362
 20
67.3597328529
 30
0.0
 11
3.639335841466695
 21
67.3597328529
 31
0.0
 12
3.222669174800028
 22
64.8597328529
 32
0.0
 13
3.222669174800028
 23
64.8597328529
 33
0.0
  0
SOLID
  5
16EC
330
16E5
100
AcDbEntity
  8
注释
 62
     0
100
AcDbTrace
 10
3.639335841466695
 20
56.3597328529
 30
0.0
 11
2.806002508133361
 21
56.3597328529
 31
0.0
 12
3.222669174800028
 22
58.8597328529
 32
0.0
 13
3.222669174800028
 23
58.8597328529
 33
0.0
  0
MTEXT
  5
176C
330
16E5
100
AcDbEntity
  8
注释
 62
     0
 48
0.05
100
AcDbMText
 10
0.0976691748000285
 20
62.7993674989
 30
0.0
 40
2.5
 41
0.0
 46
0.0
 71
     2
 72
     1
  1
\A1;30
  7
SLDTEXTSTYLE0
 11
7.401486830834377E-17
 21
1.0
 31
0.0
 73
     1
 44
1.0
  0
POINT
  5
176D
330
16E5
100
AcDbEntity
  8
Defpoints
 62
     0
100
AcDbPoint
 10
11.41155159220003
 20
64.8597328529
 30
0.0
  0
POINT
  5
176E
330
16E5
100
AcDbEntity
  8
Defpoints
 62
     0
100
AcDbPoint
 10
11.41155159220003
 20
58.8597328529
 30
0.0
  0
POINT
  5
176F
330
16E5
100
AcDbEntity
  8
Defpoints
 62
     0
100
AcDbPoint
 10
3.222669174800028
 20
58.8597328529
 30
0.0
  0
ENDBLK
  5
16ED
330
16E5
100
AcDbEntity
  8
0
100
AcDbBlockEnd
  0
BLOCK
  5
173A
330
1739
100
AcDbEntity
  8
0
100
AcDbBlockBegin
  2
*D55
 70
     1
 10
0.0
 20
0.0
 30
0.0
  3
*D55
  1
*D57
  0
LINE
  5
173B
330
1739
100
AcDbEntity
  8
注释
 62
     0
370
    -2
100
AcDbLine
 10
18.21155159220002
 20
12.8625000366
 30
0.0
 11
18.21155159220001
 21
22.85000003660001
 31
0.0
  0
LINE
  5
173C
330
1739
100
AcDbEntity
  8
注释
 62
     0
370
    -2
100
AcDbLine
 10
178.2115515922
 20
12.8625000366
 30
0.0
 11
178.2115515922
 21
22.85000003660001
 31
0.0
  0
LINE
  5
173D
330
1739
100
AcDbEntity
  8
注释
 62
     0
370
    -2
100
AcDbLine
 10
20.71155159220001
 20
22.85000003660001
 30
0.0
 11
175.7115515922
 21
22.85000003660001
 31
0.0
  0
SOLID
  5
173E
330
1739
100
AcDbEntity
  8
注释
 62
     0
100
AcDbTrace
 10
20.71155159220001
 20
23.26666670326668
 30
0.0
 11
20.71155159220001
 21
22.43333336993334
 31
0.0
 12
18.21155159220001
 22
22.85000003660001
 32
0.0
 13
18.21155159220001
 23
22.85000003660001
 33
0.0
  0
SOLID
  5
173F
330
1739
100
AcDbEntity
  8
注释
 62
     0
100
AcDbTrace
 10
175.7115515922
 20
22.43333336993334
 30
0.0
 11
175.7115515922
 21
23.26666670326668
 31
0.0
 12
178.2115515922
 22
22.85000003660001
 32
0.0
 13
178.2115515922
 23
22.85000003660001
 33
0.0
  0
MTEXT
  5
1740
330
1739
100
AcDbEntity
  8
注释
 62
     0
 48
0.05
100
AcDbMText
 10
98.21155159220002
 20
25.97500003660001
 30
0.0
 40
2.5
 41
0.0
 46
0.0
 71
     2
 72
     1
  1
\A1;800
  7
SLDTEXTSTYLE0
 73
     1
 44
1.0
  0
POINT
  5
1770
330
1739
100
AcDbEntity
  8
Defpoints
 62
     0
100
AcDbPoint
 10
18.21155159220002
 20
12.8000000366
 30
0.0
  0
POINT
  5
1771
330
1739
100
AcDbEntity
  8
Defpoints
 62
     0
100
AcDbPoint
 10
178.2115515922
 20
12.8000000366
 30
0.0
  0
POINT
  5
1772
330
1739
100
AcDbEntity
  8
Defpoints
 62
     0
100
AcDbPoint
 10
178.2115515922
 20
22.85000003660001
 30
0.0
  0
ENDBLK
  5
1741
330
1739
100
AcDbEntity
  8
0
100
AcDbBlockEnd
  0
BLOCK
  5
1744
330
1743
100
AcDbEntity
  8
0
100
AcDbBlockBegin
  2
*D56
 70
     1
 10
0.0
 20
0.0
 30
0.0
  3
*D56
  1
*D58
  0
LINE
  5
1745
330
1743
100
AcDbEntity
  8
注释
 62
     0
370
    -2
100
AcDbLine
 10
10.94905159220003
 20
12.85000003660001
 30
0.0
 11
3.378397438000029
 21
12.85000003660001
 31
0.0
  0
LINE
  5
1746
330
1743
100
AcDbEntity
  8
注释
 62
     0
370
    -2
100
AcDbLine
 10
11.34905159220003
 20
0.0000000365999995
 30
0.0
 11
3.378397438000028
 21
0.0000000365999995
 31
0.0
  0
LINE
  5
1747
330
1743
100
AcDbEntity
  8
注释
 62
     0
370
    -2
100
AcDbLine
 10
3.378397438000029
 20
10.35000003660001
 30
0.0
 11
3.378397438000028
 21
2.500000036599999
 31
0.0
  0
SOLID
  5
1748
330
1743
100
AcDbEntity
  8
注释
 62
     0
100
AcDbTrace
 10
3.795064104666696
 20
10.35000003660001
 30
0.0
 11
2.961730771333363
 21
10.35000003660001
 31
0.0
 12
3.378397438000029
 22
12.85000003660001
 32
0.0
 13
3.378397438000029
 23
12.85000003660001
 33
0.0
  0
SOLID
  5
1749
330
1743
100
AcDbEntity
  8
注释
 62
     0
100
AcDbTrace
 10
2.961730771333362
 20
2.500000036599999
 30
0.0
 11
3.795064104666695
 21
2.500000036599999
 31
0.0
 12
3.378397438000028
 22
0.0000000365999995
 32
0.0
 13
3.378397438000028
 23
0.0000000365999995
 33
0.0
  0
MTEXT
  5
174A
330
1743
100
AcDbEntity
  8
注释
 62
     0
 48
0.05
100
AcDbMText
 10
0.2533974380000288
 20
6.425000036599997
 30
0.0
 40
2.5
 41
0.0
 46
0.0
 71
     2
 72
     1
  1
\A1;64.3
  7
SLDTEXTSTYLE0
 11
6.911894316732487E-17
 21
1.0
 31
0.0
 73
     1
 44
1.0
  0
POINT
  5
1773
330
1743
100
AcDbEntity
  8
Defpoints
 62
     0
100
AcDbPoint
 10
11.01155159220003
 20
12.85000003660001
 30
0.0
  0
POINT
  5
1774
330
1743
100
AcDbEntity
  8
Defpoints
 62
     0
100
AcDbPoint
 10
11.41155159220003
 20
0.0000000365999995
 30
0.0
  0
POINT
  5
1775
330
1743
100
AcDbEntity
  8
Defpoints
 62
     0
100
AcDbPoint
 10
3.378397438000028
 20
0.0000000366
 30
0.0
  0
ENDBLK
  5
174B
330
1743
100
AcDbEntity
  8
0
100
AcDbBlockEnd
  0
BLOCK
  5
1823
330
1822
100
AcDbEntity
  8
0
100
AcDbBlockBegin
  2
*D57
 70
     1
 10
0.0
 20
0.0
 30
0.0
  3
*D57
  1
*D59
  0
LINE
  5
1825
330
1822
100
AcDbEntity
  8
DIM
 62
     0
370
    -2
100
AcDbLine
 10
4861.659114011543
 20
1720.011543224923
 30
0.0
 11
4861.659114011543
 21
1749.011543224923
 31
0.0
  0
LINE
  5
1826
330
1822
100
AcDbEntity
  8
DIM
 62
     0
370
    -2
100
AcDbLine
 10
5733.65911401154
 20
1720.011543224923
 30
0.0
 11
5733.65911401154
 21
1749.011543224923
 31
0.0
  0
LINE
  5
1827
330
1822
100
AcDbEntity
  8
DIM
 62
     0
370
    -2
100
AcDbLine
 10
4871.659114011543
 20
1749.011543224923
 30
0.0
 11
5723.65911401154
 21
1749.011543224923
 31
0.0
  0
INSERT
  5
1828
330
1822
100
AcDbEntity
  8
DIM
 62
     0
370
    -2
100
AcDbBlockReference
  2
_DOT
 10
4861.659114011543
 20
1749.011543224923
 30
0.0
 41
10.0
 42
10.0
 43
10.0
 50
180.0
  0
INSERT
  5
1829
330
1822
100
AcDbEntity
  8
DIM
 62
     0
370
    -2
100
AcDbBlockReference
  2
_DOT
 10
5733.65911401154
 20
1749.011543224923
 30
0.0
 41
10.0
 42
10.0
 43
10.0
  0
MTEXT
  5
182A
330
1822
100
AcDbEntity
  8
DIM
 62
     0
 48
0.05
100
AcDbMText
 10
5297.659114011543
 20
1793.011543224923
 30
0.0
 40
24.0
 41
0.0
 46
0.0
 71
     2
 72
     1
  1
\A1;872
  7
ＭＳ ゴシック
 73
     1
 44
1.0
  0
POINT
  5
182B
330
1822
100
AcDbEntity
  8
Defpoints
 62
     0
100
AcDbPoint
 10
4861.659114011543
 20
1690.011543224923
 30
0.0
  0
POINT
  5
182C
330
1822
100
AcDbEntity
  8
Defpoints
 62
     0
100
AcDbPoint
 10
5733.65911401154
 20
1690.011543224923
 30
0.0
  0
POINT
  5
182D
330
1822
100
AcDbEntity
  8
Defpoints
 62
     0
100
AcDbPoint
 10
5733.65911401154
 20
1749.011543224923
 30
0.0
  0
ENDBLK
  5
1824
330
1822
100
AcDbEntity
  8
0
100
AcDbBlockEnd
  0
BLOCK
  5
182F
330
182E
100
AcDbEntity
  8
0
100
AcDbBlockBegin
  2
*D58
 70
     1
 10
0.0
 20
0.0
 30
0.0
  3
*D58
  1
*D60
  0
LINE
  5
1831
330
182E
100
AcDbEntity
  8
DIM
 62
     0
370
    -2
100
AcDbLine
 10
4833.65911401154
 20
1699.011543224923
 30
0.0
 11
4822.714701924544
 21
1699.011543224923
 31
0.0
  0
LINE
  5
1832
330
182E
100
AcDbEntity
  8
DIM
 62
     0
370
    -2
100
AcDbLine
 10
4833.65911401154
 20
1669.011543224923
 30
0.0
 11
4822.714701924544
 21
1669.011543224923
 31
0.0
  0
LINE
  5
1833
330
182E
100
AcDbEntity
  8
DIM
 62
     0
370
    -2
100
AcDbLine
 10
4822.714701924544
 20
1689.011543224923
 30
0.0
 11
4822.714701924544
 21
1679.011543224923
 31
0.0
  0
INSERT
  5
1834
330
182E
100
AcDbEntity
  8
DIM
 62
     0
370
    -2
100
AcDbBlockReference
  2
_DOT
 10
4822.714701924544
 20
1699.011543224923
 30
0.0
 41
10.0
 42
10.0
 43
10.0
 50
90.0
  0
INSERT
  5
1835
330
182E
100
AcDbEntity
  8
DIM
 62
     0
370
    -2
100
AcDbBlockReference
  2
_DOT
 10
4822.714701924544
 20
1669.011543224923
 30
0.0
 41
10.0
 42
10.0
 43
10.0
 50
270.0
  0
MTEXT
  5
1836
330
182E
100
AcDbEntity
  8
DIM
 62
     0
 48
0.05
100
AcDbMText
 10
4778.714701924544
 20
1688.709716454923
 30
0.0
 40
24.0
 41
0.0
 46
0.0
 71
     2
 72
     1
  1
\A1;30
  7
ＭＳ ゴシック
 11
0.0
 21
1.0
 31
0.0
 73
     1
 44
1.0
  0
POINT
  5
1837
330
182E
100
AcDbEntity
  8
Defpoints
 62
     0
100
AcDbPoint
 10
4863.65911401154
 20
1699.011543224923
 30
0.0
  0
POINT
  5
1838
330
182E
100
AcDbEntity
  8
Defpoints
 62
     0
100
AcDbPoint
 10
4863.65911401154
 20
1669.011543224923
 30
0.0
  0
POINT
  5
1839
330
182E
100
AcDbEntity
  8
Defpoints
 62
     0
100
AcDbPoint
 10
4822.714701924544
 20
1669.011543224923
 30
0.0
  0
ENDBLK
  5
1830
330
182E
100
AcDbEntity
  8
0
100
AcDbBlockEnd
  0
BLOCK
  5
183C
330
183B
100
AcDbEntity
  8
0
100
AcDbBlockBegin
  2
*D59
 70
     1
 10
0.0
 20
0.0
 30
0.0
  3
*D59
  1
*D61
  0
LINE
  5
183E
330
183B
100
AcDbEntity
  8
DIM
 62
     0
370
    -2
100
AcDbLine
 10
4897.659114011543
 20
1468.712879143423
 30
0.0
 11
4897.659114011543
 21
1488.962879143423
 31
0.0
  0
LINE
  5
183F
330
183B
100
AcDbEntity
  8
DIM
 62
     0
370
    -2
100
AcDbLine
 10
5697.659114011543
 20
1468.712879143423
 30
0.0
 11
5697.659114011543
 21
1488.962879143423
 31
0.0
  0
LINE
  5
1840
330
183B
100
AcDbEntity
  8
DIM
 62
     0
370
    -2
100
AcDbLine
 10
4907.659114011543
 20
1488.962879143423
 30
0.0
 11
5687.659114011543
 21
1488.962879143423
 31
0.0
  0
INSERT
  5
1841
330
183B
100
AcDbEntity
  8
DIM
 62
     0
370
    -2
100
AcDbBlockReference
  2
_DOT
 10
4897.659114011543
 20
1488.962879143423
 30
0.0
 41
10.0
 42
10.0
 43
10.0
 50
180.0
  0
INSERT
  5
1842
330
183B
100
AcDbEntity
  8
DIM
 62
     0
370
    -2
100
AcDbBlockReference
  2
_DOT
 10
5697.659114011543
 20
1488.962879143423
 30
0.0
 41
10.0
 42
10.0
 43
10.0
  0
MTEXT
  5
1843
330
183B
100
AcDbEntity
  8
DIM
 62
     0
 48
0.05
100
AcDbMText
 10
5297.659114011543
 20
1532.962879143423
 30
0.0
 40
24.0
 41
0.0
 46
0.0
 71
     2
 72
     1
  1
\A1;800
  7
ＭＳ ゴシック
 73
     1
 44
1.0
  0
POINT
  5
1844
330
183B
100
AcDbEntity
  8
Defpoints
 62
     0
100
AcDbPoint
 10
4897.659114011543
 20
1438.712879143423
 30
0.0
  0
POINT
  5
1845
330
183B
100
AcDbEntity
  8
Defpoints
 62
     0
100
AcDbPoint
 10
5697.659114011543
 20
1438.712879143423
 30
0.0
  0
POINT
  5
1846
330
183B
100
AcDbEntity
  8
Defpoints
 62
     0
100
AcDbPoint
 10
5697.659114011543
 20
1488.962879143423
 30
0.0
  0
ENDBLK
  5
183D
330
183B
100
AcDbEntity
  8
0
100
AcDbBlockEnd
  0
BLOCK
  5
1848
330
1847
100
AcDbEntity
  8
0
100
AcDbBlockBegin
  2
*D60
 70
     1
 10
0.0
 20
0.0
 30
0.0
  3
*D60
  1
*D62
  0
LINE
  5
184A
330
1847
100
AcDbEntity
  8
DIM
 62
     0
370
    -2
100
AcDbLine
 10
4831.659114011543
 20
1438.962879143423
 30
0.0
 11
4823.49334324054
 21
1438.962879143423
 31
0.0
  0
LINE
  5
184B
330
1847
100
AcDbEntity
  8
DIM
 62
     0
370
    -2
100
AcDbLine
 10
4833.65911401154
 20
1374.712879143423
 30
0.0
 11
4823.49334324054
 21
1374.712879143423
 31
0.0
  0
LINE
  5
184C
330
1847
100
AcDbEntity
  8
DIM
 62
     0
370
    -2
100
AcDbLine
 10
4823.49334324054
 20
1428.962879143423
 30
0.0
 11
4823.49334324054
 21
1384.712879143423
 31
0.0
  0
INSERT
  5
184D
330
1847
100
AcDbEntity
  8
DIM
 62
     0
370
    -2
100
AcDbBlockReference
  2
_DOT
 10
4823.49334324054
 20
1438.962879143423
 30
0.0
 41
10.0
 42
10.0
 43
10.0
 50
90.0
  0
INSERT
  5
184E
330
1847
100
AcDbEntity
  8
DIM
 62
     0
370
    -2
100
AcDbBlockReference
  2
_DOT
 10
4823.49334324054
 20
1374.712879143423
 30
0.0
 41
10.0
 42
10.0
 43
10.0
 50
270.0
  0
MTEXT
  5
184F
330
1847
100
AcDbEntity
  8
DIM
 62
     0
 48
0.05
100
AcDbMText
 10
4779.49334324054
 20
1406.837879143423
 30
0.0
 40
24.0
 41
0.0
 46
0.0
 71
     2
 72
     1
  1
\A1;64
  7
ＭＳ ゴシック
 11
0.0
 21
1.0
 31
0.0
 73
     1
 44
1.0
  0
POINT
  5
1850
330
1847
100
AcDbEntity
  8
Defpoints
 62
     0
100
AcDbPoint
 10
4861.659114011543
 20
1438.962879143423
 30
0.0
  0
POINT
  5
1851
330
1847
100
AcDbEntity
  8
Defpoints
 62
     0
100
AcDbPoint
 10
4863.65911401154
 20
1374.712879143423
 30
0.0
  0
POINT
  5
1852
330
1847
100
AcDbEntity
  8
Defpoints
 62
     0
100
AcDbPoint
 10
4823.49334324054
 20
1374.712879143423
 30
0.0
  0
ENDBLK
  5
1849
330
1847
100
AcDbEntity
  8
0
100
AcDbBlockEnd
  0
BLOCK
  5
185A
330
1859
100
AcDbEntity
  8
0
100
AcDbBlockBegin
  2
*D61
 70
     1
 10
0.0
 20
0.0
 30
0.0
  3
*D61
  1
*D63
  0
LINE
  5
185C
330
1859
100
AcDbEntity
  8
DIM
 62
     0
 48
0.05
370
    -2
100
AcDbLine
 10
4281.983373064856
 20
1909.35302885257
 30
0.0
 11
4281.983373064856
 21
2048.465258449639
 31
0.0
  0
LINE
  5
185D
330
1859
100
AcDbEntity
  8
DIM
 62
     0
 48
0.05
370
    -2
100
AcDbLine
 10
2537.983373064856
 20
1909.35302885257
 30
0.0
 11
2537.983373064856
 21
2048.465258449639
 31
0.0
  0
LINE
  5
185E
330
1859
100
AcDbEntity
  8
DIM
 62
     0
 48
0.05
370
    -2
100
AcDbLine
 10
4271.983373064856
 20
2048.465258449639
 30
0.0
 11
2547.983373064856
 21
2048.465258449639
 31
0.0
  0
INSERT
  5
185F
330
1859
100
AcDbEntity
  8
DIM
 62
     0
370
    -2
100
AcDbBlockReference
  2
_DOT
 10
4281.983373064856
 20
2048.465258449639
 30
0.0
 41
10.0
 42
10.0
 43
10.0
  0
INSERT
  5
1860
330
1859
100
AcDbEntity
  8
DIM
 62
     0
370
    -2
100
AcDbBlockReference
  2
_DOT
 10
2537.983373064856
 20
2048.465258449639
 30
0.0
 41
10.0
 42
10.0
 43
10.0
 50
180.0
  0
MTEXT
  5
1861
330
1859
100
AcDbEntity
  8
DIM
 62
     0
 48
0.05
100
AcDbMText
 10
3409.983373064856
 20
2080.465258449639
 30
0.0
 40
24.0
 41
0.0
 46
0.0
 71
     5
 72
     1
  1
\A1;1744
  7
ＭＳ ゴシック
 73
     1
 44
1.0
  0
POINT
  5
1862
330
1859
100
AcDbEntity
  8
Defpoints
 62
     0
100
AcDbPoint
 10
4281.983373064856
 20
1879.35302885257
 30
0.0
  0
POINT
  5
1863
330
1859
100
AcDbEntity
  8
Defpoints
 62
     0
100
AcDbPoint
 10
2537.983373064856
 20
1879.35302885257
 30
0.0
  0
POINT
  5
1864
330
1859
100
AcDbEntity
  8
Defpoints
 62
     0
100
AcDbPoint
 10
2537.983373064856
 20
2048.465258449639
 30
0.0
  0
ENDBLK
  5
185B
330
1859
100
AcDbEntity
  8
0
100
AcDbBlockEnd
  0
BLOCK
  5
18B8
330
18B7
100
AcDbEntity
  8
0
100
AcDbBlockBegin
  2
*D62
 70
     1
 10
0.0
 20
0.0
 30
0.0
  3
*D62
  1
*D65
  0
LINE
  5
18B9
330
18B7
100
AcDbEntity
  8
注释
 62
     0
370
    -2
100
AcDbLine
 10
8.087304819500027
 20
125.5431751786
 30
0.0
 11
8.08730481950002
 21
103.5562305286
 31
0.0
  0
LINE
  5
18BA
330
18B7
100
AcDbEntity
  8
注释
 62
     0
370
    -2
100
AcDbLine
 10
179.8873048195
 20
125.5431751786
 30
0.0
 11
179.8873048195
 21
103.5562305286
 31
0.0
  0
LINE
  5
18BB
330
18B7
100
AcDbEntity
  8
注释
 62
     0
370
    -2
100
AcDbLine
 10
10.58730481950002
 20
103.5562305286
 30
0.0
 11
177.3873048195
 21
103.5562305286
 31
0.0
  0
SOLID
  5
18BC
330
18B7
100
AcDbEntity
  8
注释
 62
     0
100
AcDbTrace
 10
10.58730481950002
 20
103.9728971952667
 30
0.0
 11
10.58730481950002
 21
103.1395638619333
 31
0.0
 12
8.08730481950002
 22
103.5562305286
 32
0.0
 13
8.08730481950002
 23
103.5562305286
 33
0.0
  0
SOLID
  5
18BD
330
18B7
100
AcDbEntity
  8
注释
 62
     0
100
AcDbTrace
 10
177.3873048195
 20
103.1395638619333
 30
0.0
 11
177.3873048195
 21
103.9728971952667
 31
0.0
 12
179.8873048195
 22
103.5562305286
 32
0.0
 13
179.8873048195
 23
103.5562305286
 33
0.0
  0
MTEXT
  5
18BE
330
18B7
100
AcDbEntity
  8
注释
 62
     0
 48
0.05
100
AcDbMText
 10
93.98730481950003
 20
106.6812305286
 30
0.0
 40
2.5
 41
0.0
 46
0.0
 71
     2
 72
     1
  1
\A1;859
  7
SLDTEXTSTYLE0
 73
     1
 44
1.0
  0
POINT
  5
1947
330
18B7
100
AcDbEntity
  8
Defpoints
 62
     0
100
AcDbPoint
 10
8.087304819500027
 20
125.6056751786
 30
0.0
  0
POINT
  5
1948
330
18B7
100
AcDbEntity
  8
Defpoints
 62
     0
100
AcDbPoint
 10
179.8873048195
 20
125.6056751786
 30
0.0
  0
POINT
  5
1949
330
18B7
100
AcDbEntity
  8
Defpoints
 62
     0
100
AcDbPoint
 10
179.8873048195
 20
103.5562305286
 30
0.0
  0
ENDBLK
  5
18BF
330
18B7
100
AcDbEntity
  8
0
100
AcDbBlockEnd
  0
BLOCK
  5
18FA
330
18F9
100
AcDbEntity
  8
0
100
AcDbBlockBegin
  2
*D63
 70
     1
 10
0.0
 20
0.0
 30
0.0
  3
*D63
  1
*D66
  0
LINE
  5
18FB
330
18F9
100
AcDbEntity
  8
注释
 62
     0
370
    -2
100
AcDbLine
 10
13.98773165760002
 20
50.328986942
 30
0.0
 11
13.98773165760002
 21
60.267650668
 31
0.0
  0
LINE
  5
18FC
330
18F9
100
AcDbEntity
  8
注释
 62
     0
370
    -2
100
AcDbLine
 10
173.9877316576
 20
50.328986942
 30
0.0
 11
173.9877316576
 21
60.267650668
 31
0.0
  0
LINE
  5
18FD
330
18F9
100
AcDbEntity
  8
注释
 62
     0
370
    -2
100
AcDbLine
 10
16.48773165760002
 20
60.267650668
 30
0.0
 11
171.4877316576
 21
60.267650668
 31
0.0
  0
SOLID
  5
18FE
330
18F9
100
AcDbEntity
  8
注释
 62
     0
100
AcDbTrace
 10
16.48773165760002
 20
60.68431733466667
 30
0.0
 11
16.48773165760002
 21
59.85098400133334
 31
0.0
 12
13.98773165760002
 22
60.267650668
 32
0.0
 13
13.98773165760002
 23
60.267650668
 33
0.0
  0
SOLID
  5
18FF
330
18F9
100
AcDbEntity
  8
注释
 62
     0
100
AcDbTrace
 10
171.4877316576
 20
59.85098400133334
 30
0.0
 11
171.4877316576
 21
60.68431733466667
 31
0.0
 12
173.9877316576
 22
60.267650668
 32
0.0
 13
173.9877316576
 23
60.267650668
 33
0.0
  0
MTEXT
  5
1900
330
18F9
100
AcDbEntity
  8
注释
 62
     0
 48
0.05
100
AcDbMText
 10
93.98773165760002
 20
63.392650668
 30
0.0
 40
2.5
 41
0.0
 46
0.0
 71
     2
 72
     1
  1
\A1;800
  7
SLDTEXTSTYLE0
 73
     1
 44
1.0
  0
POINT
  5
194A
330
18F9
100
AcDbEntity
  8
Defpoints
 62
     0
100
AcDbPoint
 10
13.98773165760002
 20
50.266486942
 30
0.0
  0
POINT
  5
194B
330
18F9
100
AcDbEntity
  8
Defpoints
 62
     0
100
AcDbPoint
 10
173.9877316576
 20
50.266486942
 30
0.0
  0
POINT
  5
194C
330
18F9
100
AcDbEntity
  8
Defpoints
 62
     0
100
AcDbPoint
 10
173.9877316576
 20
60.267650668
 30
0.0
  0
ENDBLK
  5
1901
330
18F9
100
AcDbEntity
  8
0
100
AcDbBlockEnd
  0
BLOCK
  5
1904
330
1903
100
AcDbEntity
  8
0
100
AcDbBlockBegin
  2
*D64
 70
     1
 10
0.0
 20
0.0
 30
0.0
  3
*D64
  1
*D67
  0
LINE
  5
1905
330
1903
100
AcDbEntity
  8
注释
 62
     0
370
    -2
100
AcDbLine
 10
7.924804819500025
 20
50.2660601039
 30
0.0
 11
3.222669174800025
 21
50.2660601039
 31
0.0
  0
LINE
  5
1906
330
1903
100
AcDbEntity
  8
注释
 62
     0
370
    -2
100
AcDbLine
 10
12.12523165760003
 20
35.266486942
 30
0.0
 11
3.222669174800024
 21
35.266486942
 31
0.0
  0
LINE
  5
1907
330
1903
100
AcDbEntity
  8
注释
 62
     0
370
    -2
100
AcDbLine
 10
3.222669174800025
 20
47.7660601039
 30
0.0
 11
3.222669174800024
 21
37.766486942
 31
0.0
  0
SOLID
  5
1908
330
1903
100
AcDbEntity
  8
注释
 62
     0
100
AcDbTrace
 10
3.639335841466692
 20
47.7660601039
 30
0.0
 11
2.806002508133359
 21
47.7660601039
 31
0.0
 12
3.222669174800025
 22
50.2660601039
 32
0.0
 13
3.222669174800025
 23
50.2660601039
 33
0.0
  0
SOLID
  5
1909
330
1903
100
AcDbEntity
  8
注释
 62
     0
100
AcDbTrace
 10
2.806002508133358
 20
37.766486942
 30
0.0
 11
3.639335841466691
 21
37.766486942
 31
0.0
 12
3.222669174800024
 22
35.266486942
 32
0.0
 13
3.222669174800024
 23
35.266486942
 33
0.0
  0
MTEXT
  5
190A
330
1903
100
AcDbEntity
  8
注释
 62
     0
 48
0.05
100
AcDbMText
 10
0.0976691748000249
 20
44.3987733133
 30
0.0
 40
2.5
 41
0.0
 46
0.0
 71
     2
 72
     1
  1
\A1;75
  7
SLDTEXTSTYLE0
 11
5.921357962079630E-17
 21
1.0
 31
0.0
 73
     1
 44
1.0
  0
POINT
  5
190B
330
1903
100
AcDbEntity
  8
Defpoints
 62
     0
100
AcDbPoint
 10
7.987304819500025
 20
50.2660601039
 30
0.0
  0
POINT
  5
190C
330
1903
100
AcDbEntity
  8
Defpoints
 62
     0
100
AcDbPoint
 10
12.18773165760003
 20
35.266486942
 30
0.0
  0
POINT
  5
194D
330
1903
100
AcDbEntity
  8
Defpoints
 62
     0
100
AcDbPoint
 10
3.222669174800024
 20
35.266486942
 30
0.0
  0
ENDBLK
  5
190D
330
1903
100
AcDbEntity
  8
0
100
AcDbBlockEnd
  0
BLOCK
  5
1928
330
1927
100
AcDbEntity
  8
0
100
AcDbBlockBegin
  2
*D65
 70
     1
 10
0.0
 20
0.0
 30
0.0
  3
*D65
  1
*D68
  0
LINE
  5
1929
330
1927
100
AcDbEntity
  8
注释
 62
     0
370
    -2
100
AcDbLine
 10
228.2486338975
 20
131.6056751786
 30
0.0
 11
219.8250225349
 21
131.6056751786
 31
0.0
  0
LINE
  5
192A
330
1927
100
AcDbEntity
  8
注释
 62
     0
370
    -2
100
AcDbLine
 10
228.2486338975
 20
119.6056751786
 30
0.0
 11
219.8250225349
 21
119.6056751786
 31
0.0
  0
LINE
  5
192B
330
1927
100
AcDbEntity
  8
注释
 62
     0
370
    -2
100
AcDbLine
 10
219.8250225349
 20
129.1056751786
 30
0.0
 11
219.8250225349
 21
122.1056751786
 31
0.0
  0
SOLID
  5
192C
330
1927
100
AcDbEntity
  8
注释
 62
     0
100
AcDbTrace
 10
220.2416892015667
 20
129.1056751786
 30
0.0
 11
219.4083558682334
 21
129.1056751786
 31
0.0
 12
219.8250225349
 22
131.6056751786
 32
0.0
 13
219.8250225349
 23
131.6056751786
 33
0.0
  0
SOLID
  5
192D
330
1927
100
AcDbEntity
  8
注释
 62
     0
100
AcDbTrace
 10
219.4083558682334
 20
122.1056751786
 30
0.0
 11
220.2416892015667
 21
122.1056751786
 31
0.0
 12
219.8250225349
 22
119.6056751786
 32
0.0
 13
219.8250225349
 23
119.6056751786
 33
0.0
  0
MTEXT
  5
192E
330
1927
100
AcDbEntity
  8
注释
 62
     0
 48
0.05
100
AcDbMText
 10
216.7000225349
 20
124.6461746115
 30
0.0
 40
2.5
 41
0.0
 46
0.0
 71
     2
 72
     1
  1
\A1;%%c60
  7
SLDTEXTSTYLE0
 11
0.0
 21
1.0
 31
0.0
 73
     1
 44
1.0
  0
POINT
  5
192F
330
1927
100
AcDbEntity
  8
Defpoints
 62
     0
100
AcDbPoint
 10
228.3111338975
 20
131.6056751786
 30
0.0
  0
POINT
  5
194E
330
1927
100
AcDbEntity
  8
Defpoints
 62
     0
100
AcDbPoint
 10
228.3111338975
 20
119.6056751786
 30
0.0
  0
POINT
  5
194F
330
1927
100
AcDbEntity
  8
Defpoints
 62
     0
100
AcDbPoint
 10
219.8250225349
 20
119.6056751786
 30
0.0
  0
ENDBLK
  5
1930
330
1927
100
AcDbEntity
  8
0
100
AcDbBlockEnd
  0
BLOCK
  5
19CE
330
19CD
100
AcDbEntity
  8
0
100
AcDbBlockBegin
  2
*D66
 70
     1
 10
0.0
 20
0.0
 30
0.0
  3
*D66
  1
*D69
  0
LINE
  5
19D0
330
19CD
100
AcDbEntity
  8
DIM
 62
     0
370
    -2
100
AcDbLine
 10
4800.405319506674
 20
1447.942381236212
 30
0.0
 11
4800.405319506674
 21
1543.740729963119
 31
0.0
  0
LINE
  5
19D1
330
19CD
100
AcDbEntity
  8
DIM
 62
     0
370
    -2
100
AcDbLine
 10
5659.405319506674
 20
1447.942381236212
 30
0.0
 11
5659.405319506674
 21
1543.740729963119
 31
0.0
  0
LINE
  5
19D2
330
19CD
100
AcDbEntity
  8
DIM
 62
     0
370
    -2
100
AcDbLine
 10
4806.405319506674
 20
1543.740729963119
 30
0.0
 11
5653.405319506674
 21
1543.740729963119
 31
0.0
  0
INSERT
  5
19D3
330
19CD
100
AcDbEntity
  8
DIM
 62
     0
370
    -2
100
AcDbBlockReference
  2
_DOT
 10
4800.405319506674
 20
1543.740729963119
 30
0.0
 41
6.0
 42
6.0
 43
6.0
 50
180.0
  0
INSERT
  5
19D4
330
19CD
100
AcDbEntity
  8
DIM
 62
     0
370
    -2
100
AcDbBlockReference
  2
_DOT
 10
5659.405319506674
 20
1543.740729963119
 30
0.0
 41
6.0
 42
6.0
 43
6.0
  0
MTEXT
  5
19D5
330
19CD
100
AcDbEntity
  8
DIM
 62
     0
 48
0.05
100
AcDbMText
 10
5229.905319506674
 20
1573.740729963119
 30
0.0
 40
18.0
 41
0.0
 46
0.0
 71
     2
 72
     1
  1
\A1;859
  7
ＭＳ ゴシック
 73
     1
 44
1.0
  0
POINT
  5
19D6
330
19CD
100
AcDbEntity
  8
Defpoints
 62
     0
100
AcDbPoint
 10
4800.405319506674
 20
1427.942381236212
 30
0.0
  0
POINT
  5
19D7
330
19CD
100
AcDbEntity
  8
Defpoints
 62
     0
100
AcDbPoint
 10
5659.405319506674
 20
1427.942381236212
 30
0.0
  0
POINT
  5
19D8
330
19CD
100
AcDbEntity
  8
Defpoints
 62
     0
100
AcDbPoint
 10
5659.405319506674
 20
1543.740729963119
 30
0.0
  0
ENDBLK
  5
19CF
330
19CD
100
AcDbEntity
  8
0
100
AcDbBlockEnd
  0
BLOCK
  5
19DA
330
19D9
100
AcDbEntity
  8
0
100
AcDbBlockBegin
  2
*D67
 70
     1
 10
0.0
 20
0.0
 30
0.0
  3
*D67
  1
*D70
  0
LINE
  5
19DC
330
19D9
100
AcDbEntity
  8
DIM
 62
     0
370
    -2
100
AcDbLine
 10
4829.907453697176
 20
1448.754922140431
 30
0.0
 11
4829.907453697176
 21
1494.030771634782
 31
0.0
  0
LINE
  5
19DD
330
19D9
100
AcDbEntity
  8
DIM
 62
     0
370
    -2
100
AcDbLine
 10
5629.907453697176
 20
1448.754922140431
 30
0.0
 11
5629.907453697176
 21
1494.030771634782
 31
0.0
  0
LINE
  5
19DE
330
19D9
100
AcDbEntity
  8
DIM
 62
     0
370
    -2
100
AcDbLine
 10
4835.907453697176
 20
1494.030771634782
 30
0.0
 11
5623.907453697176
 21
1494.030771634782
 31
0.0
  0
INSERT
  5
19DF
330
19D9
100
AcDbEntity
  8
DIM
 62
     0
370
    -2
100
AcDbBlockReference
  2
_DOT
 10
4829.907453697176
 20
1494.030771634782
 30
0.0
 41
6.0
 42
6.0
 43
6.0
 50
180.0
  0
INSERT
  5
19E0
330
19D9
100
AcDbEntity
  8
DIM
 62
     0
370
    -2
100
AcDbBlockReference
  2
_DOT
 10
5629.907453697176
 20
1494.030771634782
 30
0.0
 41
6.0
 42
6.0
 43
6.0
  0
MTEXT
  5
19E1
330
19D9
100
AcDbEntity
  8
DIM
 62
     0
 48
0.05
100
AcDbMText
 10
5229.907453697176
 20
1524.030771634782
 30
0.0
 40
18.0
 41
0.0
 46
0.0
 71
     2
 72
     1
  1
\A1;800
  7
ＭＳ ゴシック
 73
     1
 44
1.0
  0
POINT
  5
19E2
330
19D9
100
AcDbEntity
  8
Defpoints
 62
     0
100
AcDbPoint
 10
4829.907453697176
 20
1428.754922140431
 30
0.0
  0
POINT
  5
19E3
330
19D9
100
AcDbEntity
  8
Defpoints
 62
     0
100
AcDbPoint
 10
5629.907453697176
 20
1428.754922140431
 30
0.0
  0
POINT
  5
19E4
330
19D9
100
AcDbEntity
  8
Defpoints
 62
     0
100
AcDbPoint
 10
5629.907453697176
 20
1494.030771634782
 30
0.0
  0
ENDBLK
  5
19DB
330
19D9
100
AcDbEntity
  8
0
100
AcDbBlockEnd
  0
BLOCK
  5
19E6
330
19E5
100
AcDbEntity
  8
0
100
AcDbBlockBegin
  2
*D68
 70
     1
 10
0.0
 20
0.0
 30
0.0
  3
*D68
  1
*D71
  0
LINE
  5
19E8
330
19E5
100
AcDbEntity
  8
DIM
 62
     0
370
    -2
100
AcDbLine
 10
4769.905319506678
 20
1428.903858822148
 30
0.0
 11
4753.604924206717
 21
1428.903858822148
 31
0.0
  0
LINE
  5
19E9
330
19E5
100
AcDbEntity
  8
DIM
 62
     0
370
    -2
100
AcDbLine
 10
4790.907453697176
 20
1353.905993012648
 30
0.0
 11
4753.604924206717
 21
1353.905993012648
 31
0.0
  0
LINE
  5
19EA
330
19E5
100
AcDbEntity
  8
DIM
 62
     0
370
    -2
100
AcDbLine
 10
4753.604924206717
 20
1422.903858822148
 30
0.0
 11
4753.604924206717
 21
1359.905993012648
 31
0.0
  0
INSERT
  5
19EB
330
19E5
100
AcDbEntity
  8
DIM
 62
     0
370
    -2
100
AcDbBlockReference
  2
_DOT
 10
4753.604924206717
 20
1428.903858822148
 30
0.0
 41
6.0
 42
6.0
 43
6.0
 50
90.0
  0
INSERT
  5
19EC
330
19E5
100
AcDbEntity
  8
DIM
 62
     0
370
    -2
100
AcDbBlockReference
  2
_DOT
 10
4753.604924206717
 20
1353.905993012648
 30
0.0
 41
6.0
 42
6.0
 43
6.0
 50
270.0
  0
MTEXT
  5
19ED
330
19E5
100
AcDbEntity
  8
DIM
 62
     0
 48
0.05
100
AcDbMText
 10
4715.604924206717
 20
1391.404925917398
 30
0.0
 40
18.0
 41
0.0
 46
0.0
 71
     2
 72
     1
  1
\A1;75
  7
ＭＳ ゴシック
 11
0.0
 21
1.0
 31
0.0
 73
     1
 44
1.0
  0
POINT
  5
19EE
330
19E5
100
AcDbEntity
  8
Defpoints
 62
     0
100
AcDbPoint
 10
4799.905319506678
 20
1428.903858822148
 30
0.0
  0
POINT
  5
19EF
330
19E5
100
AcDbEntity
  8
Defpoints
 62
     0
100
AcDbPoint
 10
4820.907453697176
 20
1353.905993012648
 30
0.0
  0
POINT
  5
19F0
330
19E5
100
AcDbEntity
  8
Defpoints
 62
     0
100
AcDbPoint
 10
4753.604924206717
 20
1353.905993012648
 30
0.0
  0
ENDBLK
  5
19E7
330
19E5
100
AcDbEntity
  8
0
100
AcDbBlockEnd
  0
BLOCK
  5
19F2
330
19F1
100
AcDbEntity
  8
0
100
AcDbBlockBegin
  2
*D69
 70
     1
 10
0.0
 20
0.0
 30
0.0
  3
*D69
  1
*D72
  0
LINE
  5
19F4
330
19F1
100
AcDbEntity
  8
DIM
 62
     0
370
    -2
100
AcDbLine
 10
2524.544645217248
 20
1657.069162170545
 30
0.0
 11
2591.784187029257
 21
1657.069162170545
 31
0.0
  0
LINE
  5
19F5
330
19F1
100
AcDbEntity
  8
DIM
 62
     0
370
    -2
100
AcDbLine
 10
2524.544645217248
 20
1597.069162170545
 30
0.0
 11
2591.784187029257
 21
1597.069162170545
 31
0.0
  0
LINE
  5
19F6
330
19F1
100
AcDbEntity
  8
DIM
 62
     0
370
    -2
100
AcDbLine
 10
2591.784187029257
 20
1653.069162170545
 30
0.0
 11
2591.784187029257
 21
1601.069162170545
 31
0.0
  0
INSERT
  5
19F7
330
19F1
100
AcDbEntity
  8
DIM
 62
     0
370
    -2
100
AcDbBlockReference
  2
_DOT
 10
2591.784187029257
 20
1657.069162170545
 30
0.0
 41
4.0
 42
4.0
 43
4.0
 50
90.0
  0
INSERT
  5
19F8
330
19F1
100
AcDbEntity
  8
DIM
 62
     0
370
    -2
100
AcDbBlockReference
  2
_DOT
 10
2591.784187029257
 20
1597.069162170545
 30
0.0
 41
4.0
 42
4.0
 43
4.0
 50
270.0
  0
MTEXT
  5
19F9
330
19F1
100
AcDbEntity
  8
DIM
 62
     0
 48
0.05
100
AcDbMText
 10
2568.644187029257
 20
1627.069162170545
 30
0.0
 40
14.0
 41
0.0
 46
0.0
 71
     2
 72
     1
  1
\A1;ø60
  7
ＭＳ ゴシック
 11
0.0
 21
1.0
 31
0.0
 73
     1
 44
1.0
  0
POINT
  5
19FA
330
19F1
100
AcDbEntity
  8
Defpoints
 62
     0
100
AcDbPoint
 10
2504.544645217248
 20
1657.069162170545
 30
0.0
  0
POINT
  5
19FB
330
19F1
100
AcDbEntity
  8
Defpoints
 62
     0
100
AcDbPoint
 10
2504.544645217248
 20
1597.069162170545
 30
0.0
  0
POINT
  5
19FC
330
19F1
100
AcDbEntity
  8
Defpoints
 62
     0
100
AcDbPoint
 10
2591.784187029257
 20
1597.069162170545
 30
0.0
  0
ENDBLK
  5
19F3
330
19F1
100
AcDbEntity
  8
0
100
AcDbBlockEnd
  0
BLOCK
  5
1A53
330
1A52
100
AcDbEntity
  8
0
100
AcDbBlockBegin
  2
*D70
 70
     1
 10
0.0
 20
0.0
 30
0.0
  3
*D70
  1
*D73
  0
LINE
  5
1A55
330
1A52
100
AcDbEntity
  8
DIM
 62
     0
370
    -2
100
AcDbLine
 10
2409.25206678922
 20
1331.86781527445
 30
0.0
 11
2435.552462089181
 21
1331.86781527445
 31
0.0
  0
LINE
  5
1A56
330
1A52
100
AcDbEntity
  8
DIM
 62
     0
370
    -2
100
AcDbLine
 10
2388.249932598722
 20
1256.86994946495
 30
0.0
 11
2435.552462089181
 21
1256.86994946495
 31
0.0
  0
LINE
  5
1A57
330
1A52
100
AcDbEntity
  8
DIM
 62
     0
370
    -2
100
AcDbLine
 10
2435.552462089181
 20
1327.86781527445
 30
0.0
 11
2435.552462089181
 21
1260.86994946495
 31
0.0
  0
INSERT
  5
1A58
330
1A52
100
AcDbEntity
  8
DIM
 62
     0
370
    -2
100
AcDbBlockReference
  2
_DOT
 10
2435.552462089181
 20
1331.86781527445
 30
0.0
 41
4.0
 42
4.0
 43
4.0
 50
90.0
  0
INSERT
  5
1A59
330
1A52
100
AcDbEntity
  8
DIM
 62
     0
370
    -2
100
AcDbBlockReference
  2
_DOT
 10
2435.552462089181
 20
1256.86994946495
 30
0.0
 41
4.0
 42
4.0
 43
4.0
 50
270.0
  0
MTEXT
  5
1A5A
330
1A52
100
AcDbEntity
  8
DIM
 62
     0
 48
0.05
100
AcDbMText
 10
2412.552462089181
 20
1294.3688823697
 30
0.0
 40
14.0
 41
0.0
 46
0.0
 71
     2
 72
     1
  1
\A1;75
  7
ＭＳ ゴシック
 11
0.0
 21
1.0
 31
0.0
 73
     1
 44
1.0
  0
POINT
  5
1A5B
330
1A52
100
AcDbEntity
  8
Defpoints
 62
     0
100
AcDbPoint
 10
2389.25206678922
 20
1331.86781527445
 30
0.0
  0
POINT
  5
1A5C
330
1A52
100
AcDbEntity
  8
Defpoints
 62
     0
100
AcDbPoint
 10
2368.249932598722
 20
1256.86994946495
 30
0.0
  0
POINT
  5
1A5D
330
1A52
100
AcDbEntity
  8
Defpoints
 62
     0
100
AcDbPoint
 10
2435.552462089181
 20
1256.86994946495
 30
0.0
  0
ENDBLK
  5
1A54
330
1A52
100
AcDbEntity
  8
0
100
AcDbBlockEnd
  0
BLOCK
  5
1A9A
330
1A99
100
AcDbEntity
  8
0
100
AcDbBlockBegin
  2
*D71
 70
     1
 10
0.0
 20
0.0
 30
0.0
  3
*D71
  1
*D74
  0
LINE
  5
1A9C
330
1A99
100
AcDbEntity
  8
DIM
 62
     0
 48
0.05
370
    -2
100
AcDbLine
 10
2389.247814094225
 20
1351.86781529495
 30
0.0
 11
2389.247814094225
 21
1443.328787056342
 31
0.0
  0
LINE
  5
1A9D
330
1A99
100
AcDbEntity
  8
DIM
 62
     0
 48
0.05
370
    -2
100
AcDbLine
 10
1530.247814094225
 20
1351.86781529495
 30
0.0
 11
1530.247814094225
 21
1443.328787056342
 31
0.0
  0
LINE
  5
1A9E
330
1A99
100
AcDbEntity
  8
DIM
 62
     0
 48
0.05
370
    -2
100
AcDbLine
 10
2385.247814094225
 20
1443.328787056342
 30
0.0
 11
1534.247814094225
 21
1443.328787056342
 31
0.0
  0
INSERT
  5
1A9F
330
1A99
100
AcDbEntity
  8
DIM
 62
     0
370
    -2
100
AcDbBlockReference
  2
_DOT
 10
2389.247814094225
 20
1443.328787056342
 30
0.0
 41
4.0
 42
4.0
 43
4.0
  0
INSERT
  5
1AA0
330
1A99
100
AcDbEntity
  8
DIM
 62
     0
370
    -2
100
AcDbBlockReference
  2
_DOT
 10
1530.247814094225
 20
1443.328787056342
 30
0.0
 41
4.0
 42
4.0
 43
4.0
 50
180.0
  0
MTEXT
  5
1AA1
330
1A99
100
AcDbEntity
  8
DIM
 62
     0
 48
0.05
100
AcDbMText
 10
1959.747814094225
 20
1459.328787056342
 30
0.0
 40
14.0
 41
0.0
 46
0.0
 71
     5
 72
     1
  1
\A1;859
  7
ＭＳ ゴシック
 73
     1
 44
1.0
  0
POINT
  5
1AA2
330
1A99
100
AcDbEntity
  8
Defpoints
 62
     0
100
AcDbPoint
 10
2389.247814094225
 20
1331.86781529495
 30
0.0
  0
POINT
  5
1AA3
330
1A99
100
AcDbEntity
  8
Defpoints
 62
     0
100
AcDbPoint
 10
1530.247814094225
 20
1331.86781529495
 30
0.0
  0
POINT
  5
1AA4
330
1A99
100
AcDbEntity
  8
Defpoints
 62
     0
100
AcDbPoint
 10
1530.247814094225
 20
1443.328787056342
 30
0.0
  0
ENDBLK
  5
1A9B
330
1A99
100
AcDbEntity
  8
0
100
AcDbBlockEnd
  0
BLOCK
  5
1AA7
330
1AA6
100
AcDbEntity
  8
0
100
AcDbBlockBegin
  2
*D72
 70
     1
 10
0.0
 20
0.0
 30
0.0
  3
*D72
  1
*D75
  0
LINE
  5
1AA9
330
1AA6
100
AcDbEntity
  8
DIM
 62
     0
 48
0.05
370
    -2
100
AcDbLine
 10
2359.247812902225
 20
1351.86781529495
 30
0.0
 11
2359.247812902225
 21
1390.44707118376
 31
0.0
  0
LINE
  5
1AAA
330
1AA6
100
AcDbEntity
  8
DIM
 62
     0
 48
0.05
370
    -2
100
AcDbLine
 10
1559.247812902225
 20
1351.86781529495
 30
0.0
 11
1559.247812902225
 21
1390.44707118376
 31
0.0
  0
LINE
  5
1AAB
330
1AA6
100
AcDbEntity
  8
DIM
 62
     0
 48
0.05
370
    -2
100
AcDbLine
 10
2355.247812902225
 20
1390.44707118376
 30
0.0
 11
1563.247812902225
 21
1390.44707118376
 31
0.0
  0
INSERT
  5
1AAC
330
1AA6
100
AcDbEntity
  8
DIM
 62
     0
370
    -2
100
AcDbBlockReference
  2
_DOT
 10
2359.247812902225
 20
1390.44707118376
 30
0.0
 41
4.0
 42
4.0
 43
4.0
  0
INSERT
  5
1AAD
330
1AA6
100
AcDbEntity
  8
DIM
 62
     0
370
    -2
100
AcDbBlockReference
  2
_DOT
 10
1559.247812902225
 20
1390.44707118376
 30
0.0
 41
4.0
 42
4.0
 43
4.0
 50
180.0
  0
MTEXT
  5
1AAE
330
1AA6
100
AcDbEntity
  8
DIM
 62
     0
 48
0.05
100
AcDbMText
 10
1959.247812902225
 20
1406.44707118376
 30
0.0
 40
14.0
 41
0.0
 46
0.0
 71
     5
 72
     1
  1
\A1;800
  7
ＭＳ ゴシック
 73
     1
 44
1.0
  0
POINT
  5
1AAF
330
1AA6
100
AcDbEntity
  8
Defpoints
 62
     0
100
AcDbPoint
 10
2359.247812902225
 20
1331.86781529495
 30
0.0
  0
POINT
  5
1AB0
330
1AA6
100
AcDbEntity
  8
Defpoints
 62
     0
100
AcDbPoint
 10
1559.247812902225
 20
1331.86781529495
 30
0.0
  0
POINT
  5
1AB1
330
1AA6
100
AcDbEntity
  8
Defpoints
 62
     0
100
AcDbPoint
 10
1559.247812902225
 20
1390.44707118376
 30
0.0
  0
ENDBLK
  5
1AA8
330
1AA6
100
AcDbEntity
  8
0
100
AcDbBlockEnd
  0
BLOCK
  5
1AB7
330
1AB6
100
AcDbEntity
  8
0
100
AcDbBlockBegin
  2
*D73
 70
     1
 10
0.0
 20
0.0
 30
0.0
  3
*D73
  1
*D76
  0
LINE
  5
1AB9
330
1AB6
100
AcDbEntity
  8
DIM
 62
     0
 48
0.05
370
    -2
100
AcDbLine
 10
966.5850831751545
 20
1185.39662150604
 30
0.0
 11
966.5850831751545
 21
1274.13472875402
 31
0.0
  0
LINE
  5
1ABA
330
1AB6
100
AcDbEntity
  8
DIM
 62
     0
 48
0.05
370
    -2
100
AcDbLine
 10
94.58508317515452
 20
1185.39662150604
 30
0.0
 11
94.58508317515452
 21
1274.13472875402
 31
0.0
  0
LINE
  5
1ABB
330
1AB6
100
AcDbEntity
  8
DIM
 62
     0
 48
0.05
370
    -2
100
AcDbLine
 10
962.5850831751545
 20
1274.13472875402
 30
0.0
 11
98.58508317515452
 21
1274.13472875402
 31
0.0
  0
INSERT
  5
1ABC
330
1AB6
100
AcDbEntity
  8
DIM
 62
     0
370
    -2
100
AcDbBlockReference
  2
_DOT
 10
966.5850831751545
 20
1274.13472875402
 30
0.0
 41
4.0
 42
4.0
 43
4.0
  0
INSERT
  5
1ABD
330
1AB6
100
AcDbEntity
  8
DIM
 62
     0
370
    -2
100
AcDbBlockReference
  2
_DOT
 10
94.58508317515452
 20
1274.13472875402
 30
0.0
 41
4.0
 42
4.0
 43
4.0
 50
180.0
  0
MTEXT
  5
1ABE
330
1AB6
100
AcDbEntity
  8
DIM
 62
     0
 48
0.05
100
AcDbMText
 10
530.5850831751545
 20
1290.13472875402
 30
0.0
 40
14.0
 41
0.0
 46
0.0
 71
     5
 72
     1
  1
\A1;872
  7
ＭＳ ゴシック
 73
     1
 44
1.0
  0
POINT
  5
1ABF
330
1AB6
100
AcDbEntity
  8
Defpoints
 62
     0
100
AcDbPoint
 10
966.5850831751545
 20
1165.39662150604
 30
0.0
  0
POINT
  5
1AC0
330
1AB6
100
AcDbEntity
  8
Defpoints
 62
     0
100
AcDbPoint
 10
94.58508317515452
 20
1165.39662150604
 30
0.0
  0
POINT
  5
1AC1
330
1AB6
100
AcDbEntity
  8
Defpoints
 62
     0
100
AcDbPoint
 10
94.58508317515452
 20
1274.13472875402
 30
0.0
  0
ENDBLK
  5
1AB8
330
1AB6
100
AcDbEntity
  8
0
100
AcDbBlockEnd
  0
BLOCK
  5
1B9B
330
1B9A
100
AcDbEntity
  8
0
100
AcDbBlockBegin
  2
*D74
 70
     1
 10
0.0
 20
0.0
 30
0.0
  3
*D74
  1
*D78
  0
LINE
  5
1B9C
330
1B9A
100
AcDbEntity
  8
DIM
 62
     0
370
    -2
100
AcDbLine
 10
996.3004738969539
 20
402.2028554795254
 30
0.0
 11
1063.540015708963
 21
402.2028554795254
 31
0.0
  0
LINE
  5
1B9D
330
1B9A
100
AcDbEntity
  8
DIM
 62
     0
370
    -2
100
AcDbLine
 10
996.3004738969539
 20
342.2028554795254
 30
0.0
 11
1063.540015708963
 21
342.2028554795254
 31
0.0
  0
LINE
  5
1B9E
330
1B9A
100
AcDbEntity
  8
DIM
 62
     0
370
    -2
100
AcDbLine
 10
1063.540015708963
 20
398.2028554795254
 30
0.0
 11
1063.540015708963
 21
346.2028554795254
 31
0.0
  0
INSERT
  5
1B9F
330
1B9A
100
AcDbEntity
  8
DIM
 62
     0
370
    -2
100
AcDbBlockReference
  2
_DOT
 10
1063.540015708963
 20
402.2028554795254
 30
0.0
 41
4.0
 42
4.0
 43
4.0
 50
90.0
  0
INSERT
  5
1BA0
330
1B9A
100
AcDbEntity
  8
DIM
 62
     0
370
    -2
100
AcDbBlockReference
  2
_DOT
 10
1063.540015708963
 20
342.2028554795254
 30
0.0
 41
4.0
 42
4.0
 43
4.0
 50
270.0
  0
MTEXT
  5
1BA1
330
1B9A
100
AcDbEntity
  8
DIM
 62
     0
 48
0.05
100
AcDbMText
 10
1040.400015708963
 20
372.2028554795254
 30
0.0
 40
14.0
 41
0.0
 46
0.0
 71
     2
 72
     1
  1
\A1;ø60
  7
ＭＳ ゴシック
 11
0.0
 21
1.0
 31
0.0
 73
     1
 44
1.0
  0
POINT
  5
1BA2
330
1B9A
100
AcDbEntity
  8
Defpoints
 62
     0
100
AcDbPoint
 10
976.3004738969539
 20
402.2028554795254
 30
0.0
  0
POINT
  5
1BA3
330
1B9A
100
AcDbEntity
  8
Defpoints
 62
     0
100
AcDbPoint
 10
976.3004738969539
 20
342.2028554795254
 30
0.0
  0
POINT
  5
1BA4
330
1B9A
100
AcDbEntity
  8
Defpoints
 62
     0
100
AcDbPoint
 10
1063.540015708963
 20
342.2028554795254
 30
0.0
  0
ENDBLK
  5
1BA5
330
1B9A
100
AcDbEntity
  8
0
100
AcDbBlockEnd
  0
BLOCK
  5
1BA8
330
1BA7
100
AcDbEntity
  8
0
100
AcDbBlockBegin
  2
*D75
 70
     1
 10
0.0
 20
0.0
 30
0.0
  3
*D75
  1
*D79
  0
LINE
  5
1BA9
330
1BA7
100
AcDbEntity
  8
DIM
 62
     0
370
    -2
100
AcDbLine
 10
881.0078954689257
 20
77.00150858343045
 30
0.0
 11
907.3082907688863
 21
77.00150858343046
 31
0.0
  0
LINE
  5
1BAA
330
1BA7
100
AcDbEntity
  8
DIM
 62
     0
370
    -2
100
AcDbLine
 10
860.005761278428
 20
2.003642773930784
 30
0.0
 11
907.3082907688863
 21
2.0036427739308
 31
0.0
  0
LINE
  5
1BAB
330
1BA7
100
AcDbEntity
  8
DIM
 62
     0
370
    -2
100
AcDbLine
 10
907.3082907688863
 20
73.00150858343046
 30
0.0
 11
907.3082907688863
 21
6.0036427739308
 31
0.0
  0
INSERT
  5
1BAC
330
1BA7
100
AcDbEntity
  8
DIM
 62
     0
370
    -2
100
AcDbBlockReference
  2
_DOT
 10
907.3082907688863
 20
77.00150858343046
 30
0.0
 41
4.0
 42
4.0
 43
4.0
 50
90.0
  0
INSERT
  5
1BAD
330
1BA7
100
AcDbEntity
  8
DIM
 62
     0
370
    -2
100
AcDbBlockReference
  2
_DOT
 10
907.3082907688863
 20
2.0036427739308
 30
0.0
 41
4.0
 42
4.0
 43
4.0
 50
270.0
  0
MTEXT
  5
1BAE
330
1BA7
100
AcDbEntity
  8
DIM
 62
     0
 48
0.05
100
AcDbMText
 10
884.3082907688863
 20
39.50257567868061
 30
0.0
 40
14.0
 41
0.0
 46
0.0
 71
     2
 72
     1
  1
\A1;75
  7
ＭＳ ゴシック
 11
0.0
 21
1.0
 31
0.0
 73
     1
 44
1.0
  0
POINT
  5
1BAF
330
1BA7
100
AcDbEntity
  8
Defpoints
 62
     0
100
AcDbPoint
 10
861.0078954689257
 20
77.00150858343045
 30
0.0
  0
POINT
  5
1BB0
330
1BA7
100
AcDbEntity
  8
Defpoints
 62
     0
100
AcDbPoint
 10
840.005761278428
 20
2.003642773930778
 30
0.0
  0
POINT
  5
1BB1
330
1BA7
100
AcDbEntity
  8
Defpoints
 62
     0
100
AcDbPoint
 10
907.3082907688863
 20
2.003642773930797
 30
0.0
  0
ENDBLK
  5
1BB2
330
1BA7
100
AcDbEntity
  8
0
100
AcDbBlockEnd
  0
BLOCK
  5
1BB6
330
1BB5
100
AcDbEntity
  8
0
100
AcDbBlockBegin
  2
*D76
 70
     1
 10
0.0
 20
0.0
 30
0.0
  3
*D76
  1
*D80
  0
LINE
  5
1BB7
330
1BB5
100
AcDbEntity
  8
DIM
 62
     0
 48
0.05
370
    -2
100
AcDbLine
 10
861.003642773931
 20
97.00150860393046
 30
0.0
 11
861.003642773931
 21
188.4624803653226
 31
0.0
  0
LINE
  5
1BB8
330
1BB5
100
AcDbEntity
  8
DIM
 62
     0
 48
0.05
370
    -2
100
AcDbLine
 10
2.003642773931006
 20
97.00150860393046
 30
0.0
 11
2.003642773931006
 21
188.4624803653226
 31
0.0
  0
LINE
  5
1BB9
330
1BB5
100
AcDbEntity
  8
DIM
 62
     0
 48
0.05
370
    -2
100
AcDbLine
 10
857.003642773931
 20
188.4624803653226
 30
0.0
 11
6.003642773931006
 21
188.4624803653226
 31
0.0
  0
INSERT
  5
1BBA
330
1BB5
100
AcDbEntity
  8
DIM
 62
     0
370
    -2
100
AcDbBlockReference
  2
_DOT
 10
861.003642773931
 20
188.4624803653226
 30
0.0
 41
4.0
 42
4.0
 43
4.0
  0
INSERT
  5
1BBB
330
1BB5
100
AcDbEntity
  8
DIM
 62
     0
370
    -2
100
AcDbBlockReference
  2
_DOT
 10
2.003642773931006
 20
188.4624803653226
 30
0.0
 41
4.0
 42
4.0
 43
4.0
 50
180.0
  0
MTEXT
  5
1BBC
330
1BB5
100
AcDbEntity
  8
DIM
 62
     0
 48
0.05
100
AcDbMText
 10
431.503642773931
 20
204.4624803653226
 30
0.0
 40
14.0
 41
0.0
 46
0.0
 71
     5
 72
     1
  1
\A1;859
  7
ＭＳ ゴシック
 73
     1
 44
1.0
  0
POINT
  5
1BBD
330
1BB5
100
AcDbEntity
  8
Defpoints
 62
     0
100
AcDbPoint
 10
861.003642773931
 20
77.00150860393046
 30
0.0
  0
POINT
  5
1BBE
330
1BB5
100
AcDbEntity
  8
Defpoints
 62
     0
100
AcDbPoint
 10
2.003642773931006
 20
77.00150860393046
 30
0.0
  0
POINT
  5
1BBF
330
1BB5
100
AcDbEntity
  8
Defpoints
 62
     0
100
AcDbPoint
 10
2.003642773931006
 20
188.4624803653226
 30
0.0
  0
ENDBLK
  5
1BC0
330
1BB5
100
AcDbEntity
  8
0
100
AcDbBlockEnd
  0
BLOCK
  5
1BC3
330
1BC2
100
AcDbEntity
  8
0
100
AcDbBlockBegin
  2
*D77
 70
     1
 10
0.0
 20
0.0
 30
0.0
  3
*D77
  1
*D81
  0
LINE
  5
1BC4
330
1BC2
100
AcDbEntity
  8
DIM
 62
     0
 48
0.05
370
    -2
100
AcDbLine
 10
831.0036415819309
 20
97.00150860393046
 30
0.0
 11
831.0036415819309
 21
135.5807644927406
 31
0.0
  0
LINE
  5
1BC5
330
1BC2
100
AcDbEntity
  8
DIM
 62
     0
 48
0.05
370
    -2
100
AcDbLine
 10
31.00364158193088
 20
97.00150860393046
 30
0.0
 11
31.00364158193088
 21
135.5807644927406
 31
0.0
  0
LINE
  5
1BC6
330
1BC2
100
AcDbEntity
  8
DIM
 62
     0
 48
0.05
370
    -2
100
AcDbLine
 10
827.0036415819309
 20
135.5807644927406
 30
0.0
 11
35.00364158193088
 21
135.5807644927406
 31
0.0
  0
INSERT
  5
1BC7
330
1BC2
100
AcDbEntity
  8
DIM
 62
     0
370
    -2
100
AcDbBlockReference
  2
_DOT
 10
831.0036415819309
 20
135.5807644927406
 30
0.0
 41
4.0
 42
4.0
 43
4.0
  0
INSERT
  5
1BC8
330
1BC2
100
AcDbEntity
  8
DIM
 62
     0
370
    -2
100
AcDbBlockReference
  2
_DOT
 10
31.00364158193088
 20
135.5807644927406
 30
0.0
 41
4.0
 42
4.0
 43
4.0
 50
180.0
  0
MTEXT
  5
1BC9
330
1BC2
100
AcDbEntity
  8
DIM
 62
     0
 48
0.05
100
AcDbMText
 10
431.0036415819309
 20
151.5807644927406
 30
0.0
 40
14.0
 41
0.0
 46
0.0
 71
     5
 72
     1
  1
\A1;800
  7
ＭＳ ゴシック
 73
     1
 44
1.0
  0
POINT
  5
1BCA
330
1BC2
100
AcDbEntity
  8
Defpoints
 62
     0
100
AcDbPoint
 10
831.0036415819309
 20
77.00150860393046
 30
0.0
  0
POINT
  5
1BCB
330
1BC2
100
AcDbEntity
  8
Defpoints
 62
     0
100
AcDbPoint
 10
31.00364158193088
 20
77.00150860393046
 30
0.0
  0
POINT
  5
1BCC
330
1BC2
100
AcDbEntity
  8
Defpoints
 62
     0
100
AcDbPoint
 10
31.00364158193088
 20
135.5807644927406
 30
0.0
  0
ENDBLK
  5
1BCD
330
1BC2
100
AcDbEntity
  8
0
100
AcDbBlockEnd
  0
BLOCK
  5
1C1A
330
1C19
100
AcDbEntity
  8
0
100
AcDbBlockBegin
  2
*D78
 70
     1
 10
0.0
 20
0.0
 30
0.0
  3
*D78
  1
*D82
  0
LINE
  5
1C1C
330
1C19
100
AcDbEntity
  8
DIM
 62
     0
370
    -2
100
AcDbLine
 10
2460.021902468388
 20
1013.174284050952
 30
0.0
 11
2527.261444280397
 21
1013.174284050952
 31
0.0
  0
LINE
  5
1C1D
330
1C19
100
AcDbEntity
  8
DIM
 62
     0
370
    -2
100
AcDbLine
 10
2460.021902468388
 20
953.1742840509525
 30
0.0
 11
2527.261444280397
 21
953.1742840509525
 31
0.0
  0
LINE
  5
1C1E
330
1C19
100
AcDbEntity
  8
DIM
 62
     0
370
    -2
100
AcDbLine
 10
2527.261444280397
 20
1009.174284050952
 30
0.0
 11
2527.261444280397
 21
957.1742840509525
 31
0.0
  0
INSERT
  5
1C1F
330
1C19
100
AcDbEntity
  8
DIM
 62
     0
370
    -2
100
AcDbBlockReference
  2
_DOT
 10
2527.261444280397
 20
1013.174284050952
 30
0.0
 41
4.0
 42
4.0
 43
4.0
 50
90.0
  0
INSERT
  5
1C20
330
1C19
100
AcDbEntity
  8
DIM
 62
     0
370
    -2
100
AcDbBlockReference
  2
_DOT
 10
2527.261444280397
 20
953.1742840509525
 30
0.0
 41
4.0
 42
4.0
 43
4.0
 50
270.0
  0
MTEXT
  5
1C21
330
1C19
100
AcDbEntity
  8
DIM
 62
     0
 48
0.05
100
AcDbMText
 10
2504.121444280396
 20
983.1742840509525
 30
0.0
 40
14.0
 41
0.0
 46
0.0
 71
     2
 72
     1
  1
\A1;ø60
  7
ＭＳ ゴシック
 11
0.0
 21
1.0
 31
0.0
 73
     1
 44
1.0
  0
POINT
  5
1C22
330
1C19
100
AcDbEntity
  8
Defpoints
 62
     0
100
AcDbPoint
 10
2440.021902468388
 20
1013.174284050952
 30
0.0
  0
POINT
  5
1C23
330
1C19
100
AcDbEntity
  8
Defpoints
 62
     0
100
AcDbPoint
 10
2440.021902468388
 20
953.1742840509525
 30
0.0
  0
POINT
  5
1C24
330
1C19
100
AcDbEntity
  8
Defpoints
 62
     0
100
AcDbPoint
 10
2527.261444280397
 20
953.1742840509525
 30
0.0
  0
ENDBLK
  5
1C1B
330
1C19
100
AcDbEntity
  8
0
100
AcDbBlockEnd
  0
BLOCK
  5
1C26
330
1C25
100
AcDbEntity
  8
0
100
AcDbBlockBegin
  2
*D79
 70
     1
 10
0.0
 20
0.0
 30
0.0
  3
*D79
  1
*D83
  0
LINE
  5
1C28
330
1C25
100
AcDbEntity
  8
DIM
 62
     0
370
    -2
100
AcDbLine
 10
2344.72932404036
 20
687.9729371548575
 30
0.0
 11
2371.02971934032
 21
687.9729371548575
 31
0.0
  0
LINE
  5
1C29
330
1C25
100
AcDbEntity
  8
DIM
 62
     0
370
    -2
100
AcDbLine
 10
2323.727189849862
 20
612.9750713453578
 30
0.0
 11
2371.02971934032
 21
612.9750713453578
 31
0.0
  0
LINE
  5
1C2A
330
1C25
100
AcDbEntity
  8
DIM
 62
     0
370
    -2
100
AcDbLine
 10
2371.02971934032
 20
683.9729371548575
 30
0.0
 11
2371.02971934032
 21
616.9750713453578
 31
0.0
  0
INSERT
  5
1C2B
330
1C25
100
AcDbEntity
  8
DIM
 62
     0
370
    -2
100
AcDbBlockReference
  2
_DOT
 10
2371.02971934032
 20
687.9729371548575
 30
0.0
 41
4.0
 42
4.0
 43
4.0
 50
90.0
  0
INSERT
  5
1C2C
330
1C25
100
AcDbEntity
  8
DIM
 62
     0
370
    -2
100
AcDbBlockReference
  2
_DOT
 10
2371.02971934032
 20
612.9750713453578
 30
0.0
 41
4.0
 42
4.0
 43
4.0
 50
270.0
  0
MTEXT
  5
1C2D
330
1C25
100
AcDbEntity
  8
DIM
 62
     0
 48
0.05
100
AcDbMText
 10
2348.02971934032
 20
650.4740042501077
 30
0.0
 40
14.0
 41
0.0
 46
0.0
 71
     2
 72
     1
  1
\A1;75
  7
ＭＳ ゴシック
 11
0.0
 21
1.0
 31
0.0
 73
     1
 44
1.0
  0
POINT
  5
1C2E
330
1C25
100
AcDbEntity
  8
Defpoints
 62
     0
100
AcDbPoint
 10
2324.72932404036
 20
687.9729371548575
 30
0.0
  0
POINT
  5
1C2F
330
1C25
100
AcDbEntity
  8
Defpoints
 62
     0
100
AcDbPoint
 10
2303.727189849862
 20
612.9750713453578
 30
0.0
  0
POINT
  5
1C30
330
1C25
100
AcDbEntity
  8
Defpoints
 62
     0
100
AcDbPoint
 10
2371.02971934032
 20
612.9750713453578
 30
0.0
  0
ENDBLK
  5
1C27
330
1C25
100
AcDbEntity
  8
0
100
AcDbBlockEnd
  0
BLOCK
  5
1C32
330
1C31
100
AcDbEntity
  8
0
100
AcDbBlockBegin
  2
*D80
 70
     1
 10
0.0
 20
0.0
 30
0.0
  3
*D80
  1
*D84
  0
LINE
  5
1C34
330
1C31
100
AcDbEntity
  8
DIM
 62
     0
 48
0.05
370
    -2
100
AcDbLine
 10
2324.725071345365
 20
707.9729371753575
 30
0.0
 11
2324.725071345365
 21
799.4339089367496
 31
0.0
  0
LINE
  5
1C35
330
1C31
100
AcDbEntity
  8
DIM
 62
     0
 48
0.05
370
    -2
100
AcDbLine
 10
1465.725071345365
 20
707.9729371753575
 30
0.0
 11
1465.725071345365
 21
799.4339089367496
 31
0.0
  0
LINE
  5
1C36
330
1C31
100
AcDbEntity
  8
DIM
 62
     0
 48
0.05
370
    -2
100
AcDbLine
 10
2320.725071345365
 20
799.4339089367496
 30
0.0
 11
1469.725071345365
 21
799.4339089367496
 31
0.0
  0
INSERT
  5
1C37
330
1C31
100
AcDbEntity
  8
DIM
 62
     0
370
    -2
100
AcDbBlockReference
  2
_DOT
 10
2324.725071345365
 20
799.4339089367496
 30
0.0
 41
4.0
 42
4.0
 43
4.0
  0
INSERT
  5
1C38
330
1C31
100
AcDbEntity
  8
DIM
 62
     0
370
    -2
100
AcDbBlockReference
  2
_DOT
 10
1465.725071345365
 20
799.4339089367496
 30
0.0
 41
4.0
 42
4.0
 43
4.0
 50
180.0
  0
MTEXT
  5
1C39
330
1C31
100
AcDbEntity
  8
DIM
 62
     0
 48
0.05
100
AcDbMText
 10
1895.225071345365
 20
815.4339089367496
 30
0.0
 40
14.0
 41
0.0
 46
0.0
 71
     5
 72
     1
  1
\A1;859
  7
ＭＳ ゴシック
 73
     1
 44
1.0
  0
POINT
  5
1C3A
330
1C31
100
AcDbEntity
  8
Defpoints
 62
     0
100
AcDbPoint
 10
2324.725071345365
 20
687.9729371753575
 30
0.0
  0
POINT
  5
1C3B
330
1C31
100
AcDbEntity
  8
Defpoints
 62
     0
100
AcDbPoint
 10
1465.725071345365
 20
687.9729371753575
 30
0.0
  0
POINT
  5
1C3C
330
1C31
100
AcDbEntity
  8
Defpoints
 62
     0
100
AcDbPoint
 10
1465.725071345365
 20
799.4339089367496
 30
0.0
  0
ENDBLK
  5
1C33
330
1C31
100
AcDbEntity
  8
0
100
AcDbBlockEnd
  0
BLOCK
  5
1C3E
330
1C3D
100
AcDbEntity
  8
0
100
AcDbBlockBegin
  2
*D81
 70
     1
 10
0.0
 20
0.0
 30
0.0
  3
*D81
  1
*D85
  0
LINE
  5
1C40
330
1C3D
100
AcDbEntity
  8
DIM
 62
     0
 48
0.05
370
    -2
100
AcDbLine
 10
2294.725070153365
 20
707.9729371753575
 30
0.0
 11
2294.725070153365
 21
746.5521930641677
 31
0.0
  0
LINE
  5
1C41
330
1C3D
100
AcDbEntity
  8
DIM
 62
     0
 48
0.05
370
    -2
100
AcDbLine
 10
1494.725070153365
 20
707.9729371753575
 30
0.0
 11
1494.725070153365
 21
746.5521930641677
 31
0.0
  0
LINE
  5
1C42
330
1C3D
100
AcDbEntity
  8
DIM
 62
     0
 48
0.05
370
    -2
100
AcDbLine
 10
2290.725070153365
 20
746.5521930641677
 30
0.0
 11
1498.725070153365
 21
746.5521930641677
 31
0.0
  0
INSERT
  5
1C43
330
1C3D
100
AcDbEntity
  8
DIM
 62
     0
370
    -2
100
AcDbBlockReference
  2
_DOT
 10
2294.725070153365
 20
746.5521930641677
 30
0.0
 41
4.0
 42
4.0
 43
4.0
  0
INSERT
  5
1C44
330
1C3D
100
AcDbEntity
  8
DIM
 62
     0
370
    -2
100
AcDbBlockReference
  2
_DOT
 10
1494.725070153365
 20
746.5521930641677
 30
0.0
 41
4.0
 42
4.0
 43
4.0
 50
180.0
  0
MTEXT
  5
1C45
330
1C3D
100
AcDbEntity
  8
DIM
 62
     0
 48
0.05
100
AcDbMText
 10
1894.725070153365
 20
762.5521930641677
 30
0.0
 40
14.0
 41
0.0
 46
0.0
 71
     5
 72
     1
  1
\A1;800
  7
ＭＳ ゴシック
 73
     1
 44
1.0
  0
POINT
  5
1C46
330
1C3D
100
AcDbEntity
  8
Defpoints
 62
     0
100
AcDbPoint
 10
2294.725070153365
 20
687.9729371753575
 30
0.0
  0
POINT
  5
1C47
330
1C3D
100
AcDbEntity
  8
Defpoints
 62
     0
100
AcDbPoint
 10
1494.725070153365
 20
687.9729371753575
 30
0.0
  0
POINT
  5
1C48
330
1C3D
100
AcDbEntity
  8
Defpoints
 62
     0
100
AcDbPoint
 10
1494.725070153365
 20
746.5521930641677
 30
0.0
  0
ENDBLK
  5
1C3F
330
1C3D
100
AcDbEntity
  8
0
100
AcDbBlockEnd
  0
BLOCK
  5
1C59
330
1C58
100
AcDbEntity
  8
0
100
AcDbBlockBegin
  2
*D82
 70
     1
 10
0.0
 20
0.0
 30
0.0
  3
*D82
  1
*D82
  0
LINE
  5
1C5B
330
1C58
100
AcDbEntity
  8
DIM
 62
     0
 48
0.05
370
    -2
100
AcDbLine
 10
966.5850831751545
 20
851.9080500774663
 30
0.0
 11
966.5850831751545
 21
912.0214185984004
 31
0.0
  0
LINE
  5
1C5C
330
1C58
100
AcDbEntity
  8
DIM
 62
     0
 48
0.05
370
    -2
100
AcDbLine
 10
894.5850862746524
 20
851.9080500774663
 30
0.0
 11
894.5850862746524
 21
912.0214185984004
 31
0.0
  0
LINE
  5
1C5D
330
1C58
100
AcDbEntity
  8
DIM
 62
     0
 48
0.05
370
    -2
100
AcDbLine
 10
962.5850831751545
 20
912.0214185984004
 30
0.0
 11
898.5850862746524
 21
912.0214185984004
 31
0.0
  0
INSERT
  5
1C5E
330
1C58
100
AcDbEntity
  8
DIM
 62
     0
370
    -2
100
AcDbBlockReference
  2
_DOT
 10
966.5850831751545
 20
912.0214185984004
 30
0.0
 41
4.0
 42
4.0
 43
4.0
  0
INSERT
  5
1C5F
330
1C58
100
AcDbEntity
  8
DIM
 62
     0
370
    -2
100
AcDbBlockReference
  2
_DOT
 10
894.5850862746524
 20
912.0214185984004
 30
0.0
 41
4.0
 42
4.0
 43
4.0
 50
180.0
  0
MTEXT
  5
1C60
330
1C58
100
AcDbEntity
  8
DIM
 62
     0
 48
0.05
100
AcDbMText
 10
930.5850847249035
 20
928.0214185984004
 30
0.0
 40
14.0
 41
0.0
 46
0.0
 71
     5
 72
     1
  1
\A1;72
  7
ＭＳ ゴシック
 73
     1
 44
1.0
  0
POINT
  5
1C61
330
1C58
100
AcDbEntity
  8
Defpoints
 62
     0
100
AcDbPoint
 10
966.5850831751545
 20
831.9080500774663
 30
0.0
  0
POINT
  5
1C62
330
1C58
100
AcDbEntity
  8
Defpoints
 62
     0
100
AcDbPoint
 10
894.5850862746524
 20
831.9080500774663
 30
0.0
  0
POINT
  5
1C63
330
1C58
100
AcDbEntity
  8
Defpoints
 62
     0
100
AcDbPoint
 10
894.5850862746524
 20
912.0214185984004
 30
0.0
  0
ENDBLK
  5
1C5A
330
1C58
100
AcDbEntity
  8
0
100
AcDbBlockEnd
  0
BLOCK
  5
1C68
330
1C67
100
AcDbEntity
  8
0
100
AcDbBlockBegin
  2
*D83
 70
     1
 10
0.0
 20
0.0
 30
0.0
  3
*D83
  1
*D83
  0
LINE
  5
1C6A
330
1C67
100
AcDbEntity
  8
DIM
 62
     0
 48
0.05
370
    -2
100
AcDbLine
 10
919.5850922351533
 20
841.6580479314663
 30
0.0
 11
919.5850922351533
 21
868.8843201682287
 31
0.0
  0
LINE
  5
1C6B
330
1C67
100
AcDbEntity
  8
DIM
 62
     0
 48
0.05
370
    -2
100
AcDbLine
 10
941.5850772146537
 20
841.6580479314663
 30
0.0
 11
941.5850772146537
 21
868.8843201682287
 31
0.0
  0
LINE
  5
1C6C
330
1C67
100
AcDbEntity
  8
DIM
 62
     0
 48
0.05
370
    -2
100
AcDbLine
 10
923.5850922351533
 20
868.8843201682287
 30
0.0
 11
937.5850772146537
 21
868.8843201682287
 31
0.0
  0
INSERT
  5
1C6D
330
1C67
100
AcDbEntity
  8
DIM
 62
     0
370
    -2
100
AcDbBlockReference
  2
_DOT
 10
919.5850922351533
 20
868.8843201682287
 30
0.0
 41
4.0
 42
4.0
 43
4.0
 50
180.0
  0
INSERT
  5
1C6E
330
1C67
100
AcDbEntity
  8
DIM
 62
     0
370
    -2
100
AcDbBlockReference
  2
_DOT
 10
941.5850772146537
 20
868.8843201682287
 30
0.0
 41
4.0
 42
4.0
 43
4.0
  0
MTEXT
  5
1C6F
330
1C67
100
AcDbEntity
  8
DIM
 62
     0
 48
0.05
100
AcDbMText
 10
930.5850847249035
 20
884.8843201682287
 30
0.0
 40
14.0
 41
0.0
 46
0.0
 71
     5
 72
     1
  1
\A1;22
  7
ＭＳ ゴシック
 73
     1
 44
1.0
  0
POINT
  5
1C70
330
1C67
100
AcDbEntity
  8
Defpoints
 62
     0
100
AcDbPoint
 10
919.5850922351533
 20
821.6580479314663
 30
0.0
  0
POINT
  5
1C71
330
1C67
100
AcDbEntity
  8
Defpoints
 62
     0
100
AcDbPoint
 10
941.5850772146537
 20
821.6580479314663
 30
0.0
  0
POINT
  5
1C72
330
1C67
100
AcDbEntity
  8
Defpoints
 62
     0
100
AcDbPoint
 10
941.5850772146537
 20
868.8843201682287
 30
0.0
  0
ENDBLK
  5
1C69
330
1C67
100
AcDbEntity
  8
0
100
AcDbBlockEnd
  0
BLOCK
  5
1C78
330
1C77
100
AcDbEntity
  8
0
100
AcDbBlockBegin
  2
*D84
 70
     1
 10
0.0
 20
0.0
 30
0.0
  3
*D84
  1
*D84
  0
LINE
  5
1C7A
330
1C77
100
AcDbEntity
  8
DIM
 62
     0
 48
0.05
370
    -2
100
AcDbLine
 10
1035.878499255335
 20
1146.955490804932
 30
0.0
 11
1026.451717480596
 21
1146.955490804932
 31
0.0
  0
LINE
  5
1C7B
330
1C77
100
AcDbEntity
  8
DIM
 62
     0
 48
0.05
370
    -2
100
AcDbLine
 10
1035.878499255335
 20
1128.955490804932
 30
0.0
 11
1026.451717480596
 21
1128.955490804932
 31
0.0
  0
LINE
  5
1C7C
330
1C77
100
AcDbEntity
  8
DIM
 62
     0
 48
0.05
370
    -2
100
AcDbLine
 10
1026.451717480596
 20
1142.955490804932
 30
0.0
 11
1026.451717480596
 21
1132.955490804932
 31
0.0
  0
INSERT
  5
1C7D
330
1C77
100
AcDbEntity
  8
DIM
 62
     0
370
    -2
100
AcDbBlockReference
  2
_DOT
 10
1026.451717480596
 20
1146.955490804932
 30
0.0
 41
4.0
 42
4.0
 43
4.0
 50
90.0
  0
INSERT
  5
1C7E
330
1C77
100
AcDbEntity
  8
DIM
 62
     0
370
    -2
100
AcDbBlockReference
  2
_DOT
 10
1026.451717480596
 20
1128.955490804932
 30
0.0
 41
4.0
 42
4.0
 43
4.0
 50
270.0
  0
MTEXT
  5
1C7F
330
1C77
100
AcDbEntity
  8
DIM
 62
     0
 48
0.05
100
AcDbMText
 10
1010.381717480596
 20
1137.955490804932
 30
0.0
 40
14.0
 41
0.0
 46
0.0
 71
     5
 72
     1
  1
\A1;ø18
  7
ＭＳ ゴシック
 11
0.0
 21
1.0
 31
0.0
 73
     1
 44
1.0
  0
POINT
  5
1C80
330
1C77
100
AcDbEntity
  8
Defpoints
 62
     0
100
AcDbPoint
 10
1055.878499255335
 20
1146.955490804932
 30
0.0
  0
POINT
  5
1C81
330
1C77
100
AcDbEntity
  8
Defpoints
 62
     0
100
AcDbPoint
 10
1055.878499255335
 20
1128.955490804932
 30
0.0
  0
POINT
  5
1C82
330
1C77
100
AcDbEntity
  8
Defpoints
 62
     0
100
AcDbPoint
 10
1026.451717480596
 20
1128.955490804932
 30
0.0
  0
ENDBLK
  5
1C79
330
1C77
100
AcDbEntity
  8
0
100
AcDbBlockEnd
  0
ENDSEC
  0
SECTION
  2
ENTITIES
  0
INSERT
  5
68C
330
A
100
AcDbEntity
  8
TEMPLATE
100
AcDbBlockReference
  2
block 2
 10
919.2743017702577
 20
8.373076514336368
 30
0.0
 41
0.3809999999999999
 42
0.3809999999999999
 43
0.3809999999999999
  0
LINE
  5
1582
330
A
100
AcDbEntity
  8
MODEL
100
AcDbLine
 10
964.5850791221533
 20
1128.955490709431
 30
0.0
 11
966.5850831751545
 21
1128.955490709431
 31
0.0
  0
LINE
  5
1583
330
A
100
AcDbEntity
  8
MODEL
100
AcDbLine
 10
966.5850831751545
 20
1146.955491331431
 30
0.0
 11
964.5850791221533
 21
1146.955491331431
 31
0.0
  0
LINE
  5
1584
330
A
100
AcDbEntity
  8
MODEL
100
AcDbLine
 10
96.5850784066547
 20
1146.955491331431
 30
0.0
 11
94.58507435365345
 21
1146.955491331431
 31
0.0
  0
LINE
  5
1585
330
A
100
AcDbEntity
  8
MODEL
100
AcDbLine
 10
94.58507435365345
 20
1128.955490709431
 30
0.0
 11
96.5850784066547
 21
1128.955490709431
 31
0.0
  0
LINE
  5
1586
330
A
100
AcDbEntity
  8
MODEL
100
AcDbLine
 10
96.5850784066547
 20
1128.955490709431
 30
0.0
 11
964.5850791221533
 21
1128.955490709431
 31
0.0
  0
LINE
  5
1587
330
A
100
AcDbEntity
  8
MODEL
100
AcDbLine
 10
964.5850791221533
 20
1146.955491331431
 30
0.0
 11
96.5850784066547
 21
1146.955491331431
 31
0.0
  0
LINE
  5
1588
330
A
100
AcDbEntity
  8
MODEL
100
AcDbLine
 10
966.5850831751545
 20
1128.955490709431
 30
0.0
 11
966.5850831751545
 21
1146.955491331431
 31
0.0
  0
LINE
  5
1589
330
A
100
AcDbEntity
  8
MODEL
100
AcDbLine
 10
964.5850791221533
 20
1128.955490709431
 30
0.0
 11
964.5850791221533
 21
1146.955491331431
 31
0.0
  0
LINE
  5
158A
330
A
100
AcDbEntity
  8
MODEL
100
AcDbLine
 10
96.5850784066547
 20
1146.955491331431
 30
0.0
 11
96.5850784066547
 21
1128.955490709431
 31
0.0
  0
LINE
  5
158B
330
A
100
AcDbEntity
  8
MODEL
100
AcDbLine
 10
94.58507435365345
 20
1146.955491331431
 30
0.0
 11
94.58507435365345
 21
1128.955490709431
 31
0.0
  0
LINE
  5
158C
330
A
100
AcDbEntity
  8
MODEL
100
AcDbLine
 10
94.58507435365345
 20
1127.95549077793
 30
0.0
 11
94.58507435365345
 21
1128.955490709431
 31
0.0
  0
LINE
  5
158D
330
A
100
AcDbEntity
  8
MODEL
100
AcDbLine
 10
94.58507435365345
 20
1146.955491331431
 30
0.0
 11
94.58507435365345
 21
1153.955490615932
 31
0.0
  0
ARC
  5
158E
330
A
100
AcDbEntity
  8
MODEL
100
AcDbCircle
 10
94.96015395065251
 20
1149.636442313431
 30
0.0
 40
4.335304250667435
100
AcDbArc
 50
88.34889703336792
 51
94.96329154877422
  0
ARC
  5
158F
330
A
100
AcDbEntity
  8
MODEL
100
AcDbCircle
 10
94.96017576315307
 20
1132.275153903931
 30
0.0
 40
4.335918655531798
100
AcDbArc
 50
265.0371242000058
 51
271.6505805838119
  0
ARC
  5
1590
330
A
100
AcDbEntity
  8
MODEL
100
AcDbCircle
 10
166.2099916571547
 20
1149.636442313431
 30
0.0
 40
4.335304250666868
100
AcDbArc
 50
85.03670845122508
 51
91.65110296660805
  0
LINE
  5
1591
330
A
100
AcDbEntity
  8
MODEL
100
AcDbLine
 10
166.5850712541537
 20
1153.955490615932
 30
0.0
 11
166.5850712541537
 21
1146.955491331431
 31
0.0
  0
LINE
  5
1592
330
A
100
AcDbEntity
  8
MODEL
100
AcDbLine
 10
166.5850712541537
 20
1128.955490709431
 30
0.0
 11
166.5850712541537
 21
1127.95549077793
 31
0.0
  0
ARC
  5
1593
330
A
100
AcDbEntity
  8
MODEL
100
AcDbCircle
 10
166.2099698446541
 20
1132.275153903931
 30
0.0
 40
4.335918655531087
100
AcDbArc
 50
268.3494194162116
 51
274.9628758000192
  0
SPLINE
  5
1594
330
A
100
AcDbEntity
  8
MODEL
100
AcDbSpline
210
0.0
220
0.0
230
1.0
 70
     8
 71
     3
 72
    12
 73
     8
 74
     0
 42
0.000000001
 43
0.00000001
 40
0.0
 40
0.0
 40
0.0
 40
0.0
 40
0.1408224835950164
 40
0.3554284887604259
 40
0.570194392753425
 40
0.7850751313824548
 40
1.0
 40
1.0
 40
1.0
 40
1.0
 10
164.585067201127
 20
1126.439366311723
 30
0.0
 10
164.6954171638949
 20
1126.446619814893
 30
0.0
 10
164.9739346243218
 20
1126.464927272654
 30
0.0
 10
165.3957123147352
 20
1126.644678296573
 30
0.0
 10
165.7765474370003
 20
1126.984323392405
 30
0.0
 10
166.0353270737592
 20
1127.434433787882
 30
0.0
 10
166.068493017186
 20
1127.772155919827
 30
0.0
 10
166.0850776915445
 20
1127.941034323492
 30
0.0
  0
LINE
  5
1595
330
A
100
AcDbEntity
  8
MODEL
100
AcDbLine
 10
96.5850784066547
 20
1126.439366311931
 30
0.0
 11
164.5850672011525
 21
1126.439366311931
 31
0.0
  0
SPLINE
  5
1596
330
A
100
AcDbEntity
  8
MODEL
100
AcDbSpline
210
0.0
220
0.0
230
1.0
 70
     8
 71
     3
 72
    12
 73
     8
 74
     0
 42
0.000000001
 43
0.00000001
 40
0.0
 40
0.0
 40
0.0
 40
0.0
 40
0.1416192765094569
 40
0.3564220622615999
 40
0.5710496318689988
 40
0.7855462808111008
 40
1.0
 40
1.0
 40
1.0
 40
1.0
 10
95.08506791638274
 20
1127.941034323492
 30
0.0
 10
95.09237388875363
 20
1127.830106671734
 30
0.0
 10
95.11076128490413
 20
1127.550928134915
 30
0.0
 10
95.29070371003172
 20
1127.128700721582
 30
0.0
 10
95.62991561700028
 20
1126.747893419579
 30
0.0
 10
96.07929867676057
 20
1126.489142744839
 30
0.0
 10
96.4164964124734
 20
1126.455957349019
 30
0.0
 10
96.58507840680022
 20
1126.439366311723
 30
0.0
  0
SPLINE
  5
1597
330
A
100
AcDbEntity
  8
MODEL
100
AcDbSpline
210
0.0
220
0.0
230
1.0
 70
     8
 71
     3
 72
    12
 73
     8
 74
     0
 42
0.000000001
 43
0.00000001
 40
0.0
 40
0.0
 40
0.0
 40
0.0
 40
0.1408229383529924
 40
0.3554298601849957
 40
0.5701964176100547
 40
0.7850723143915932
 40
1.0
 40
1.0
 40
1.0
 40
1.0
 10
96.58507840680022
 20
1155.47161484971
 30
0.0
 10
96.47472828655509
 20
1155.464361966353
 30
0.0
 10
96.19621025342667
 20
1155.44605606145
 30
0.0
 10
95.77443663331132
 20
1155.266301478882
 30
0.0
 10
95.39359038592875
 20
1154.926667090334
 30
0.0
 10
95.13486253032852
 20
1154.47653541527
 30
0.0
 10
95.10166745430024
 20
1154.138823105952
 30
0.0
 10
95.08506791638274
 20
1153.969946605109
 30
0.0
  0
LINE
  5
1598
330
A
100
AcDbEntity
  8
MODEL
100
AcDbLine
 10
164.5850672011525
 20
1155.47161484993
 30
0.0
 11
96.5850784066547
 21
1155.47161484993
 31
0.0
  0
SPLINE
  5
1599
330
A
100
AcDbEntity
  8
MODEL
100
AcDbSpline
210
0.0
220
0.0
230
1.0
 70
     8
 71
     3
 72
    12
 73
     8
 74
     0
 42
0.000000001
 43
0.00000001
 40
0.0
 40
0.0
 40
0.0
 40
0.0
 40
0.1416196353539339
 40
0.3564225510294353
 40
0.5710497709745997
 40
0.7855463425018264
 40
0.9999999999999999
 40
0.9999999999999999
 40
0.9999999999999999
 40
0.9999999999999999
 10
166.0850776915445
 20
1153.969946605109
 30
0.0
 10
166.0777717273281
 20
1154.080874560008
 30
0.0
 10
166.0593843730799
 20
1154.360053535204
 30
0.0
 10
165.8794423195791
 20
1154.782281455246
 30
0.0
 10
165.5402296499756
 20
1155.163087966594
 30
0.0
 10
165.0908469484598
 20
1155.421838568986
 30
0.0
 10
164.7536492053309
 20
1155.455023862802
 30
0.0
 10
164.585067201127
 20
1155.47161484971
 30
0.0
  0
SPLINE
  5
159A
330
A
100
AcDbEntity
  8
MODEL
100
AcDbSpline
210
0.0
220
0.0
230
1.0
 70
     8
 71
     3
 72
    12
 73
     8
 74
     0
 42
0.000000001
 43
0.00000001
 40
0.0
 40
0.0
 40
0.0
 40
0.0
 40
0.2147965094248802
 40
0.4295987253351719
 40
0.6443828526050226
 40
0.8590897382366679
 40
1.0
 40
1.0
 40
1.0
 40
1.0
 10
94.58507435368438
 20
1153.955490616107
 30
0.0
 10
94.60720268351679
 20
1154.180419962377
 30
0.0
 10
94.65145993106444
 20
1154.630284630603
 30
0.0
 10
94.99652466595353
 20
1155.229817539969
 30
0.0
 10
95.50435057012282
 20
1155.682111904791
 30
0.0
 10
96.06664527167732
 20
1155.921453073
 30
0.0
 10
96.43795148604977
 20
1155.945831285241
 30
0.0
 10
96.58507840680022
 20
1155.955490943931
 30
0.0
  0
LINE
  5
159B
330
A
100
AcDbEntity
  8
MODEL
100
AcDbLine
 10
96.5850784066547
 20
1155.955490943931
 30
0.0
 11
96.5850784066547
 21
1155.47161484993
 31
0.0
  0
SPLINE
  5
159C
330
A
100
AcDbEntity
  8
MODEL
100
AcDbSpline
210
0.0
220
0.0
230
1.0
 70
     8
 71
     3
 72
    12
 73
     8
 74
     0
 42
0.000000001
 43
0.00000001
 40
0.0
 40
0.0
 40
0.0
 40
0.0
 40
0.2147962361200395
 40
0.4295983254267296
 40
0.6443825734126781
 40
0.8590803362874474
 40
1.0
 40
1.0
 40
1.0
 40
1.0
 10
166.5850712542428
 20
1127.955490778156
 30
0.0
 10
166.5629429003652
 20
1127.730561630168
 30
0.0
 10
166.5186855896186
 20
1127.280697204882
 30
0.0
 10
166.1736208306297
 20
1126.681163637859
 30
0.0
 10
165.6658016317756
 20
1126.228877646993
 30
0.0
 10
165.1035122646294
 20
1125.989521922528
 30
0.0
 10
164.7322044551779
 20
1125.965148999329
 30
0.0
 10
164.585067201127
 20
1125.955490799576
 30
0.0
  0
LINE
  5
159D
330
A
100
AcDbEntity
  8
MODEL
100
AcDbLine
 10
164.5850672011525
 20
1126.439366311931
 30
0.0
 11
164.5850672011525
 21
1125.955490799431
 31
0.0
  0
LINE
  5
159E
330
A
100
AcDbEntity
  8
MODEL
100
AcDbLine
 10
164.5850672011525
 20
1155.955490943931
 30
0.0
 11
164.5850672011525
 21
1155.47161484993
 31
0.0
  0
SPLINE
  5
159F
330
A
100
AcDbEntity
  8
MODEL
100
AcDbSpline
210
0.0
220
0.0
230
1.0
 70
     8
 71
     3
 72
    12
 73
     8
 74
     0
 42
0.000000001
 43
0.00000001
 40
0.0
 40
0.0
 40
0.0
 40
0.0
 40
0.2145825068551359
 40
0.4291574130201664
 40
0.6437687945769579
 40
0.8584708555133763
 40
1.0
 40
1.0
 40
1.0
 40
1.0
 10
164.5850672011234
 20
1155.955490943931
 30
0.0
 10
164.8098284684324
 20
1155.933397567245
 30
0.0
 10
165.259343041816
 20
1155.889211596438
 30
0.0
 10
165.8585085747231
 20
1155.54467794151
 30
0.0
 10
166.3108465458695
 20
1155.037517634408
 30
0.0
 10
166.5508505212961
 20
1154.475103588257
 30
0.0
 10
166.57534120833
 20
1154.103233158127
 30
0.0
 10
166.5850712542428
 20
1153.955490616107
 30
0.0
  0
LINE
  5
15A0
330
A
100
AcDbEntity
  8
MODEL
100
AcDbLine
 10
96.5850784066547
 20
1126.439366311931
 30
0.0
 11
96.5850784066547
 21
1125.955490799431
 31
0.0
  0
SPLINE
  5
15A1
330
A
100
AcDbEntity
  8
MODEL
100
AcDbSpline
210
0.0
220
0.0
230
1.0
 70
     8
 71
     3
 72
    12
 73
     8
 74
     0
 42
0.000000001
 43
0.00000001
 40
0.0
 40
0.0
 40
0.0
 40
0.0
 40
0.2145840714095029
 40
0.4291523359200708
 40
0.6437651620698989
 40
0.8584689792034378
 40
0.9999999999999999
 40
0.9999999999999999
 40
0.9999999999999999
 40
0.9999999999999999
 10
96.58507840679658
 20
1125.955490799576
 30
0.0
 10
96.36031609801239
 20
1125.977582204959
 30
0.0
 10
95.91080803709474
 20
1126.021763388407
 30
0.0
 10
95.31166443862048
 20
1126.366314740179
 30
0.0
 10
94.85932398036812
 20
1126.873462502758
 30
0.0
 10
94.61933737403842
 20
1127.435880761648
 30
0.0
 10
94.59481644458856
 20
1127.807748752938
 30
0.0
 10
94.58507435368438
 20
1127.955490778156
 30
0.0
  0
LINE
  5
15A2
330
A
100
AcDbEntity
  8
MODEL
100
AcDbLine
 10
96.5850784066547
 20
1155.955490943931
 30
0.0
 11
164.5850672011525
 21
1155.955490943931
 31
0.0
  0
LINE
  5
15A3
330
A
100
AcDbEntity
  8
MODEL
100
AcDbLine
 10
164.5850672011525
 20
1125.955490799431
 30
0.0
 11
96.5850784066547
 21
1125.955490799431
 31
0.0
  0
ARC
  5
15A4
330
A
100
AcDbEntity
  8
MODEL
100
AcDbCircle
 10
966.2100035781555
 20
1149.636442313431
 30
0.0
 40
4.335304250672126
100
AcDbArc
 50
85.03670845123145
 51
91.65110296663009
  0
LINE
  5
15A5
330
A
100
AcDbEntity
  8
MODEL
100
AcDbLine
 10
966.5850831751545
 20
1153.955490615932
 30
0.0
 11
966.5850831751545
 21
1146.955491331431
 31
0.0
  0
LINE
  5
15A6
330
A
100
AcDbEntity
  8
MODEL
100
AcDbLine
 10
966.5850831751545
 20
1128.955490709431
 30
0.0
 11
966.5850831751545
 21
1127.95549077793
 31
0.0
  0
ARC
  5
15A7
330
A
100
AcDbEntity
  8
MODEL
100
AcDbCircle
 10
966.2099817656531
 20
1132.275153903931
 30
0.0
 40
4.335918655536491
100
AcDbArc
 50
268.3494194162137
 51
274.962875800013
  0
SPLINE
  5
15A8
330
A
100
AcDbEntity
  8
MODEL
100
AcDbSpline
210
0.0
220
0.0
230
1.0
 70
     8
 71
     3
 72
    12
 73
     8
 74
     0
 42
0.000000001
 43
0.00000001
 40
0.0
 40
0.0
 40
0.0
 40
0.0
 40
0.1408230495761205
 40
0.3554299172667506
 40
0.5701966844276214
 40
0.7850721387562488
 40
1.0
 40
1.0
 40
1.0
 40
1.0
 10
964.585079122055
 20
1126.439366311723
 30
0.0
 10
964.6954292106716
 20
1126.446619754026
 30
0.0
 10
964.9739469887322
 20
1126.464927058163
 30
0.0
 10
965.3957213303916
 20
1126.644679701724
 30
0.0
 10
965.7765664788953
 20
1126.984314949485
 30
0.0
 10
966.03529535805
 20
1127.43444557493
 30
0.0
 10
966.0684901784903
 20
1127.772157681298
 30
0.0
 10
966.0850896124725
 20
1127.941034323492
 30
0.0
  0
LINE
  5
15A9
330
A
100
AcDbEntity
  8
MODEL
100
AcDbLine
 10
896.5850903276555
 20
1126.439366311931
 30
0.0
 11
964.5850791221533
 21
1126.439366311931
 31
0.0
  0
SPLINE
  5
15AA
330
A
100
AcDbEntity
  8
MODEL
100
AcDbSpline
210
0.0
220
0.0
230
1.0
 70
     8
 71
     3
 72
    12
 73
     8
 74
     0
 42
0.000000001
 43
0.00000001
 40
0.0
 40
0.0
 40
0.0
 40
0.0
 40
0.1416192765094569
 40
0.3564220622615999
 40
0.5710496318689988
 40
0.7855462808111008
 40
1.0
 40
1.0
 40
1.0
 40
1.0
 10
895.0850798373108
 20
1127.941034323492
 30
0.0
 10
895.0923858096817
 20
1127.830106671734
 30
0.0
 10
895.1107732058322
 20
1127.550928134915
 30
0.0
 10
895.2907156309598
 20
1127.128700721582
 30
0.0
 10
895.629927537932
 20
1126.747893419579
 30
0.0
 10
896.0793105976886
 20
1126.489142744839
 30
0.0
 10
896.4165083334015
 20
1126.455957349019
 30
0.0
 10
896.5850903277283
 20
1126.439366311723
 30
0.0
  0
SPLINE
  5
15AB
330
A
100
AcDbEntity
  8
MODEL
100
AcDbSpline
210
0.0
220
0.0
230
1.0
 70
     8
 71
     3
 72
    12
 73
     8
 74
     0
 42
0.000000001
 43
0.00000001
 40
0.0
 40
0.0
 40
0.0
 40
0.0
 40
0.1408223723747733
 40
0.3554284316850538
 40
0.5701941259468021
 40
0.7850753070135688
 40
1.0
 40
1.0
 40
1.0
 40
1.0
 10
896.5850903277283
 20
1155.47161484971
 30
0.0
 10
896.4747403333299
 20
1155.464361905486
 30
0.0
 10
896.1962226178352
 20
1155.446055846959
 30
0.0
 10
895.7744456489713
 20
1155.266302884028
 30
0.0
 10
895.3936094278183
 20
1154.926658647449
 30
0.0
 10
895.1348308145994
 20
1154.476547202296
 30
0.0
 10
895.1016646156118
 20
1154.138824867416
 30
0.0
 10
895.0850798373108
 20
1153.969946605109
 30
0.0
  0
LINE
  5
15AC
330
A
100
AcDbEntity
  8
MODEL
100
AcDbLine
 10
964.5850791221533
 20
1155.47161484993
 30
0.0
 11
896.5850903276555
 21
1155.47161484993
 31
0.0
  0
SPLINE
  5
15AD
330
A
100
AcDbEntity
  8
MODEL
100
AcDbSpline
210
0.0
220
0.0
230
1.0
 70
     8
 71
     3
 72
    12
 73
     8
 74
     0
 42
0.000000001
 43
0.00000001
 40
0.0
 40
0.0
 40
0.0
 40
0.0
 40
0.1416196353539339
 40
0.3564225510294353
 40
0.5710497709745997
 40
0.7855463425018264
 40
0.9999999999999999
 40
0.9999999999999999
 40
0.9999999999999999
 40
0.9999999999999999
 10
966.0850896124725
 20
1153.969946605109
 30
0.0
 10
966.0777836482562
 20
1154.080874560008
 30
0.0
 10
966.0593962940079
 20
1154.360053535204
 30
0.0
 10
965.8794542405071
 20
1154.782281455246
 30
0.0
 10
965.5402415709036
 20
1155.163087966594
 30
0.0
 10
965.0908588693878
 20
1155.421838568986
 30
0.0
 10
964.753661126259
 20
1155.455023862802
 30
0.0
 10
964.585079122055
 20
1155.47161484971
 30
0.0
  0
LINE
  5
15AE
330
A
100
AcDbEntity
  8
MODEL
100
AcDbLine
 10
894.5850862746524
 20
1127.95549077793
 30
0.0
 11
894.5850862746524
 21
1128.955490709431
 31
0.0
  0
LINE
  5
15AF
330
A
100
AcDbEntity
  8
MODEL
100
AcDbLine
 10
894.5850862746524
 20
1146.955491331431
 30
0.0
 11
894.5850862746524
 21
1153.955490615932
 31
0.0
  0
ARC
  5
15B0
330
A
100
AcDbEntity
  8
MODEL
100
AcDbCircle
 10
894.9601658716533
 20
1149.636442313431
 30
0.0
 40
4.335304250662608
100
AcDbArc
 50
88.3488970333903
 51
94.9632915488037
  0
ARC
  5
15B1
330
A
100
AcDbEntity
  8
MODEL
100
AcDbCircle
 10
894.9601876841539
 20
1132.275153903931
 30
0.0
 40
4.335918655526972
100
AcDbArc
 50
265.0371241999761
 51
271.6505805837899
  0
SPLINE
  5
15B2
330
A
100
AcDbEntity
  8
MODEL
100
AcDbSpline
210
0.0
220
0.0
230
1.0
 70
     8
 71
     3
 72
    12
 73
     8
 74
     0
 42
0.000000001
 43
0.00000001
 40
0.0
 40
0.0
 40
0.0
 40
0.0
 40
0.2147941205073976
 40
0.4296001656169752
 40
0.6443835034901515
 40
0.8590807875560305
 40
1.0
 40
1.0
 40
1.0
 40
1.0
 10
894.5850862746124
 20
1153.955490616107
 30
0.0
 10
894.6071998744924
 20
1154.180421652933
 30
0.0
 10
894.651428301921
 20
1154.630296213952
 30
0.0
 10
894.9965433947859
 20
1155.22980994844
 30
0.0
 10
895.504353793342
 20
1155.682103900002
 30
0.0
 10
896.0666453393137
 20
1155.921460543822
 30
0.0
 10
896.4379531568343
 20
1155.945832953387
 30
0.0
 10
896.5850903277283
 20
1155.955490943931
 30
0.0
  0
LINE
  5
15B3
330
A
100
AcDbEntity
  8
MODEL
100
AcDbLine
 10
896.5850903276555
 20
1155.955490943931
 30
0.0
 11
896.5850903276555
 21
1155.47161484993
 31
0.0
  0
SPLINE
  5
15B4
330
A
100
AcDbEntity
  8
MODEL
100
AcDbSpline
210
0.0
220
0.0
230
1.0
 70
     8
 71
     3
 72
    12
 73
     8
 74
     0
 42
0.000000001
 43
0.00000001
 40
0.0
 40
0.0
 40
0.0
 40
0.0
 40
0.2147963770498542
 40
0.4295986072901994
 40
0.6443829961980971
 40
0.8590897124315677
 40
1.0
 40
1.0
 40
1.0
 40
1.0
 10
966.5850831751709
 20
1127.955490778156
 30
0.0
 10
966.5629548469756
 20
1127.730561558449
 30
0.0
 10
966.5186975875954
 20
1127.280696989726
 30
0.0
 10
966.1736324433682
 20
1126.681164498486
 30
0.0
 10
965.6658077622019
 20
1126.22886823409
 30
0.0
 10
965.1035118883069
 20
1125.989529608385
 30
0.0
 10
964.7322059999665
 20
1125.965150728488
 30
0.0
 10
964.585079122055
 20
1125.955490799576
 30
0.0
  0
LINE
  5
15B5
330
A
100
AcDbEntity
  8
MODEL
100
AcDbLine
 10
964.5850791221533
 20
1126.439366311931
 30
0.0
 11
964.5850791221533
 21
1125.955490799431
 31
0.0
  0
LINE
  5
15B6
330
A
100
AcDbEntity
  8
MODEL
100
AcDbLine
 10
964.5850791221533
 20
1155.955490943931
 30
0.0
 11
964.5850791221533
 21
1155.47161484993
 31
0.0
  0
SPLINE
  5
15B7
330
A
100
AcDbEntity
  8
MODEL
100
AcDbSpline
210
0.0
220
0.0
230
1.0
 70
     8
 71
     3
 72
    12
 73
     8
 74
     0
 42
0.000000001
 43
0.00000001
 40
0.0
 40
0.0
 40
0.0
 40
0.0
 40
0.2145840688381628
 40
0.4291522038609946
 40
0.643765147610997
 40
0.8584687714006971
 40
1.0
 40
1.0
 40
1.0
 40
1.0
 10
964.585079122055
 20
1155.955490943931
 30
0.0
 10
964.8098413848425
 20
1155.933399329961
 30
0.0
 10
965.2593492208275
 20
1155.889217742421
 30
0.0
 10
965.8584935252152
 20
1155.54466750985
 30
0.0
 10
966.3108331552326
 20
1155.037519091601
 30
0.0
 10
966.5508203451468
 20
1154.475100978788
 30
0.0
 10
966.5753411284263
 20
1154.103232890705
 30
0.0
 10
966.5850831751709
 20
1153.955490616107
 30
0.0
  0
LINE
  5
15B8
330
A
100
AcDbEntity
  8
MODEL
100
AcDbLine
 10
896.5850903276555
 20
1126.439366311931
 30
0.0
 11
896.5850903276555
 21
1125.955490799431
 31
0.0
  0
SPLINE
  5
15B9
330
A
100
AcDbEntity
  8
MODEL
100
AcDbSpline
210
0.0
220
0.0
230
1.0
 70
     8
 71
     3
 72
    12
 73
     8
 74
     0
 42
0.000000001
 43
0.00000001
 40
0.0
 40
0.0
 40
0.0
 40
0.0
 40
0.2145825094275582
 40
0.4291575450771093
 40
0.6437688090356836
 40
0.8584710633156349
 40
1.0
 40
1.0
 40
1.0
 40
1.0
 10
896.5850903277283
 20
1125.955490799576
 30
0.0
 10
896.3603290144224
 20
1125.977583967678
 30
0.0
 10
895.9108142161172
 20
1126.021769534387
 30
0.0
 10
895.3116493891071
 20
1126.366304308526
 30
0.0
 10
894.8593105897403
 20
1126.873463959955
 30
0.0
 10
894.6193071978582
 20
1127.435878152172
 30
0.0
 10
894.5948163646904
 20
1127.807748485517
 30
0.0
 10
894.5850862746124
 20
1127.955490778156
 30
0.0
  0
LINE
  5
15BA
330
A
100
AcDbEntity
  8
MODEL
100
AcDbLine
 10
964.5850791221533
 20
1125.955490799431
 30
0.0
 11
896.5850903276555
 21
1125.955490799431
 31
0.0
  0
LINE
  5
15BB
330
A
100
AcDbEntity
  8
MODEL
100
AcDbLine
 10
896.5850903276555
 20
1155.955490943931
 30
0.0
 11
964.5850791221533
 21
1155.955490943931
 31
0.0
  0
LINE
  5
15BC
330
A
100
AcDbEntity
  8
MODEL
100
AcDbLine
 10
95.08506791615355
 20
1153.969946604932
 30
0.0
 11
95.08506791615355
 21
1146.955491331431
 31
0.0
  0
LINE
  5
15BD
330
A
100
AcDbEntity
  8
MODEL
100
AcDbLine
 10
95.08506791615355
 20
1128.955490709431
 30
0.0
 11
95.08506791615355
 21
1127.941034323431
 31
0.0
  0
LINE
  5
15BE
330
A
100
AcDbEntity
  8
MODEL
100
AcDbLine
 10
166.0850776916554
 20
1127.941034323431
 30
0.0
 11
166.0850776916554
 21
1128.955490709431
 31
0.0
  0
LINE
  5
15BF
330
A
100
AcDbEntity
  8
MODEL
100
AcDbLine
 10
166.0850776916554
 20
1146.955491331431
 30
0.0
 11
166.0850776916554
 21
1153.969946604932
 31
0.0
  0
LINE
  5
15C0
330
A
100
AcDbEntity
  8
MODEL
100
AcDbLine
 10
966.0850896126544
 20
1127.941034323431
 30
0.0
 11
966.0850896126544
 21
1128.955490709431
 31
0.0
  0
LINE
  5
15C1
330
A
100
AcDbEntity
  8
MODEL
100
AcDbLine
 10
966.0850896126544
 20
1146.955491331431
 30
0.0
 11
966.0850896126544
 21
1153.969946604932
 31
0.0
  0
LINE
  5
15C2
330
A
100
AcDbEntity
  8
MODEL
100
AcDbLine
 10
895.0850798371525
 20
1153.969946604932
 30
0.0
 11
895.0850798371525
 21
1146.955491331431
 31
0.0
  0
LINE
  5
15C3
330
A
100
AcDbEntity
  8
MODEL
100
AcDbLine
 10
895.0850798371525
 20
1128.955490709431
 30
0.0
 11
895.0850798371525
 21
1127.941034323431
 31
0.0
  0
DIMENSION
  5
15C5
330
A
100
AcDbEntity
  8
DIM
100
AcDbDimension
  2
*D50
 10
1178.81472604283
 20
1125.955490804931
 30
0.0
 11
1178.81472604283
 21
1140.955490804931
 31
0.0
 70
   160
 71
     2
 42
30.0
 73
     0
 74
     0
 75
     0
 52
-90.0
  3
tfrom線あり
100
AcDbAlignedDimension
 13
1109.253796220742
 23
1155.955490804931
 33
0.0
 14
1109.253796220742
 24
1125.955490804931
 34
0.0
 50
90.00000000000001
100
AcDbRotatedDimension
1001
ACAD
1000
DSTYLE
1002
{
1070
   340
1005
39
1002
}
  0
LINE
  5
15C6
330
A
100
AcDbEntity
  8
MODEL
100
AcDbLine
 10
964.5850791221533
 20
767.6580483934669
 30
0.0
 11
966.5850831751545
 21
767.6580483934669
 31
0.0
  0
LINE
  5
15C7
330
A
100
AcDbEntity
  8
MODEL
100
AcDbLine
 10
966.5850831751545
 20
785.6580485499663
 30
0.0
 11
964.5850791221533
 21
785.6580485499663
 31
0.0
  0
LINE
  5
15C8
330
A
100
AcDbEntity
  8
MODEL
100
AcDbLine
 10
96.5850784066547
 20
785.6580485499663
 30
0.0
 11
94.58507435365345
 21
785.6580485499663
 31
0.0
  0
LINE
  5
15C9
330
A
100
AcDbEntity
  8
MODEL
100
AcDbLine
 10
94.58507435365345
 20
767.6580483934669
 30
0.0
 11
96.5850784066547
 21
767.6580483934669
 31
0.0
  0
LINE
  5
15CA
330
A
100
AcDbEntity
  8
MODEL
100
AcDbLine
 10
95.08506791615355
 20
821.6580479314663
 30
0.0
 11
166.0850776916554
 21
821.6580479314663
 31
0.0
  0
ARC
  5
15CB
330
A
100
AcDbEntity
  8
MODEL
100
AcDbCircle
 10
166.0850779556545
 20
822.1580485764663
 30
0.0
 40
0.5000000000000425
100
AcDbArc
 50
270.0
 51
0.0
  0
ARC
  5
15CC
330
A
100
AcDbEntity
  8
MODEL
100
AcDbCircle
 10
95.08507795565447
 20
822.1580485764663
 30
0.0
 40
0.5000000000000425
100
AcDbArc
 50
180.0
 51
270.0
  0
LINE
  5
15CD
330
A
100
AcDbEntity
  8
MODEL
100
AcDbLine
 10
895.0850798371525
 20
821.6580479314663
 30
0.0
 11
966.0850896126544
 21
821.6580479314663
 31
0.0
  0
ARC
  5
15CE
330
A
100
AcDbEntity
  8
MODEL
100
AcDbCircle
 10
966.0850779556536
 20
822.1580485764663
 30
0.0
 40
0.5000000000000425
100
AcDbArc
 50
270.0
 51
0.0
  0
ARC
  5
15CF
330
A
100
AcDbEntity
  8
MODEL
100
AcDbCircle
 10
895.0850779556536
 20
822.1580485764663
 30
0.0
 40
0.5000000000000425
100
AcDbArc
 50
180.0
 51
270.0
  0
LINE
  5
15D0
330
A
100
AcDbEntity
  8
MODEL
100
AcDbLine
 10
96.5850784066547
 20
767.6580483934669
 30
0.0
 11
964.5850791221533
 21
767.6580483934669
 31
0.0
  0
LINE
  5
15D1
330
A
100
AcDbEntity
  8
MODEL
100
AcDbLine
 10
964.5850791221533
 20
785.6580485499663
 30
0.0
 11
941.5850772146537
 21
785.6580485499663
 31
0.0
  0
LINE
  5
15D2
330
A
100
AcDbEntity
  8
MODEL
100
AcDbLine
 10
919.5850922351533
 20
785.6580485499663
 30
0.0
 11
141.5850652936547
 21
785.6580485499663
 31
0.0
  0
LINE
  5
15D3
330
A
100
AcDbEntity
  8
MODEL
100
AcDbLine
 10
119.5850803141543
 20
785.6580485499663
 30
0.0
 11
96.5850784066547
 21
785.6580485499663
 31
0.0
  0
LINE
  5
15D4
330
A
100
AcDbEntity
  8
MODEL
100
AcDbLine
 10
964.5850791221533
 20
778.043822935466
 30
0.0
 11
964.5850791221533
 21
785.6580485499663
 31
0.0
  0
LINE
  5
15D5
330
A
100
AcDbEntity
  8
MODEL
100
AcDbLine
 10
964.5850791221533
 20
767.6580483934669
 30
0.0
 11
964.5850791221533
 21
778.043822935466
 31
0.0
  0
LINE
  5
15D6
330
A
100
AcDbEntity
  8
MODEL
100
AcDbLine
 10
966.5850831751545
 20
778.043822935466
 30
0.0
 11
966.5850831751545
 21
785.6580485499663
 31
0.0
  0
LINE
  5
15D7
330
A
100
AcDbEntity
  8
MODEL
100
AcDbLine
 10
966.5850831751545
 20
767.6580483934669
 30
0.0
 11
966.5850831751545
 21
778.043822935466
 31
0.0
  0
LINE
  5
15D8
330
A
100
AcDbEntity
  8
MODEL
100
AcDbLine
 10
96.5850784066547
 20
784.3477186659667
 30
0.0
 11
96.5850784066547
 21
767.6580483934669
 31
0.0
  0
LINE
  5
15D9
330
A
100
AcDbEntity
  8
MODEL
100
AcDbLine
 10
96.5850784066547
 20
785.6580485499663
 30
0.0
 11
96.5850784066547
 21
784.3477186659667
 31
0.0
  0
LINE
  5
15DA
330
A
100
AcDbEntity
  8
MODEL
100
AcDbLine
 10
94.58507435365345
 20
784.3477186659667
 30
0.0
 11
94.58507435365345
 21
767.6580483934669
 31
0.0
  0
LINE
  5
15DB
330
A
100
AcDbEntity
  8
MODEL
100
AcDbLine
 10
94.58507435365345
 20
785.6580485499663
 30
0.0
 11
94.58507435365345
 21
784.3477186659667
 31
0.0
  0
LINE
  5
15DC
330
A
100
AcDbEntity
  8
MODEL
100
AcDbLine
 10
164.5850672011525
 20
831.9080500774663
 30
0.0
 11
166.5850712541537
 21
831.9080500774663
 31
0.0
  0
LINE
  5
15DD
330
A
100
AcDbEntity
  8
MODEL
100
AcDbLine
 10
166.5850712541537
 20
831.9080500774663
 30
0.0
 11
166.5850712541537
 21
822.3460233679663
 31
0.0
  0
SPLINE
  5
15DE
330
A
100
AcDbEntity
  8
MODEL
100
AcDbSpline
210
0.0
220
0.0
230
1.0
 70
     8
 71
     3
 72
    12
 73
     8
 74
     0
 42
0.000000001
 43
0.00000001
 40
0.0
 40
0.0
 40
0.0
 40
0.0
 40
0.2145825068551359
 40
0.4291574130201664
 40
0.6437687945769579
 40
0.8584708555133763
 40
1.0
 40
1.0
 40
1.0
 40
1.0
 10
164.5850672011234
 20
822.3919152193304
 30
0.0
 10
164.8098284684324
 20
822.3913783396739
 30
0.0
 10
165.259343041816
 20
822.3903045993785
 30
0.0
 10
165.8585085747231
 20
822.3820408674575
 30
0.0
 10
166.3108465458695
 20
822.3701645804314
 30
0.0
 10
166.5508505212961
 20
822.3573797378805
 30
0.0
 10
166.57534120833
 20
822.3492523462929
 30
0.0
 10
166.5850712542428
 20
822.3460233681436
 30
0.0
  0
LINE
  5
15DF
330
A
100
AcDbEntity
  8
MODEL
100
AcDbLine
 10
164.5850672011525
 20
822.3919152194668
 30
0.0
 11
164.5850672011525
 21
831.9080500774663
 31
0.0
  0
LINE
  5
15E0
330
A
100
AcDbEntity
  8
MODEL
100
AcDbLine
 10
96.5850784066547
 20
831.9080500774663
 30
0.0
 11
96.5850784066547
 21
822.3919152194668
 31
0.0
  0
SPLINE
  5
15E1
330
A
100
AcDbEntity
  8
MODEL
100
AcDbSpline
210
0.0
220
0.0
230
1.0
 70
     8
 71
     3
 72
    12
 73
     8
 74
     0
 42
0.000000001
 43
0.00000001
 40
0.0
 40
0.0
 40
0.0
 40
0.0
 40
0.2147965094248802
 40
0.4295987253351719
 40
0.6443828526050226
 40
0.8590897382366679
 40
1.0
 40
1.0
 40
1.0
 40
1.0
 10
94.58507435368438
 20
822.3460233681436
 30
0.0
 10
94.60720268351679
 20
822.3509597172598
 30
0.0
 10
94.65145993106444
 20
822.3608325466367
 30
0.0
 10
94.99652466595353
 20
822.3746294987524
 30
0.0
 10
95.50435057012282
 20
822.3853182352278
 30
0.0
 10
96.06664527167732
 20
822.3910920049913
 30
0.0
 10
96.43795148604977
 20
822.3916815980921
 30
0.0
 10
96.58507840680022
 20
822.3919152193304
 30
0.0
  0
LINE
  5
15E2
330
A
100
AcDbEntity
  8
MODEL
100
AcDbLine
 10
94.58507435365345
 20
822.3460233679663
 30
0.0
 11
94.58507435365345
 21
831.9080500774663
 31
0.0
  0
LINE
  5
15E3
330
A
100
AcDbEntity
  8
MODEL
100
AcDbLine
 10
94.58507435365345
 20
831.9080500774663
 30
0.0
 11
96.5850784066547
 21
831.9080500774663
 31
0.0
  0
LINE
  5
15E4
330
A
100
AcDbEntity
  8
MODEL
100
AcDbLine
 10
96.5850784066547
 20
822.3919152194668
 30
0.0
 11
164.5850672011525
 21
822.3919152194668
 31
0.0
  0
LINE
  5
15E5
330
A
100
AcDbEntity
  8
MODEL
100
AcDbLine
 10
164.5850672011525
 20
831.9080500774663
 30
0.0
 11
96.5850784066547
 21
831.9080500774663
 31
0.0
  0
SPLINE
  5
15E6
330
A
100
AcDbEntity
  8
MODEL
100
AcDbSpline
210
0.0
220
0.0
230
1.0
 70
     8
 71
     3
 72
    12
 73
     8
 74
     0
 42
0.000000001
 43
0.00000001
 40
0.0
 40
0.0
 40
0.0
 40
0.0
 40
0.1416196353539339
 40
0.3564225510294353
 40
0.5710497709745997
 40
0.7855463425018264
 40
0.9999999999999999
 40
0.9999999999999999
 40
0.9999999999999999
 40
0.9999999999999999
 10
166.0850776915445
 20
821.8462309711214
 30
0.0
 10
166.0777717273281
 20
821.8494637063505
 30
0.0
 10
166.0593843730799
 20
821.8575997231839
 30
0.0
 10
165.8794423195791
 20
821.8703952399684
 30
0.0
 10
165.5402296499756
 20
821.8822874161698
 30
0.0
 10
165.0908469484598
 20
821.8905666764641
 30
0.0
 10
164.7536492053309
 20
821.8916389121597
 30
0.0
 10
164.585067201127
 20
821.8921749763723
 30
0.0
  0
LINE
  5
15E7
330
A
100
AcDbEntity
  8
MODEL
100
AcDbLine
 10
164.5850672011525
 20
822.3919152194668
 30
0.0
 11
164.5850672011525
 21
821.8921749764669
 31
0.0
  0
ARC
  5
15E8
330
A
100
AcDbEntity
  8
MODEL
100
AcDbCircle
 10
166.0851737466523
 20
822.3461284804672
 30
0.0
 40
0.4998975185877005
100
AcDbArc
 50
269.9889906330228
 51
359.9879525440353
  0
LINE
  5
15E9
330
A
100
AcDbEntity
  8
MODEL
100
AcDbLine
 10
164.5850672011525
 20
821.8921749764669
 30
0.0
 11
96.5850784066547
 21
821.8921749764669
 31
0.0
  0
LINE
  5
15EA
330
A
100
AcDbEntity
  8
MODEL
100
AcDbLine
 10
96.5850784066547
 20
822.3919152194668
 30
0.0
 11
96.5850784066547
 21
821.8921749764669
 31
0.0
  0
SPLINE
  5
15EB
330
A
100
AcDbEntity
  8
MODEL
100
AcDbSpline
210
0.0
220
0.0
230
1.0
 70
     8
 71
     3
 72
    12
 73
     8
 74
     0
 42
0.000000001
 43
0.00000001
 40
0.0
 40
0.0
 40
0.0
 40
0.0
 40
0.1408229383529924
 40
0.3554298601849957
 40
0.5701964176100547
 40
0.7850723143915932
 40
1.0
 40
1.0
 40
1.0
 40
1.0
 10
96.58507840680022
 20
821.8921749763723
 30
0.0
 10
96.47472828655509
 20
821.8919416543523
 30
0.0
 10
96.19621025342667
 20
821.8913527615624
 30
0.0
 10
95.77443663331132
 20
821.8855690746933
 30
0.0
 10
95.39359038592875
 20
821.8748685580905
 30
0.0
 10
95.13486253032852
 20
821.8610575016238
 30
0.0
 10
95.10166745430024
 20
821.8511735449421
 30
0.0
 10
95.08506791638274
 20
821.8462309711214
 30
0.0
  0
ARC
  5
15EC
330
A
100
AcDbEntity
  8
MODEL
100
AcDbCircle
 10
95.08497186115483
 20
822.3461284804672
 30
0.0
 40
0.4998975185877005
100
AcDbArc
 50
180.0120474559647
 51
270.0110093671856
  0
LINE
  5
15ED
330
A
100
AcDbEntity
  8
MODEL
100
AcDbLine
 10
166.5850712541537
 20
822.3460233679663
 30
0.0
 11
166.5850712541537
 21
822.1580489449663
 31
0.0
  0
LINE
  5
15EE
330
A
100
AcDbEntity
  8
MODEL
100
AcDbLine
 10
94.58507435365345
 20
822.1580489449663
 30
0.0
 11
94.58507435365345
 21
822.3460233679663
 31
0.0
  0
LINE
  5
15EF
102
{ACAD_REACTORS
330
1C57
102
}
330
A
100
AcDbEntity
  8
MODEL
100
AcDbLine
 10
966.5850831751545
 20
831.9080500774663
 30
0.0
 11
966.5850831751545
 21
822.3460233679663
 31
0.0
  0
SPLINE
  5
15F0
330
A
100
AcDbEntity
  8
MODEL
100
AcDbSpline
210
0.0
220
0.0
230
1.0
 70
     8
 71
     3
 72
    12
 73
     8
 74
     0
 42
0.000000001
 43
0.00000001
 40
0.0
 40
0.0
 40
0.0
 40
0.0
 40
0.2145840688381628
 40
0.4291522038609946
 40
0.643765147610997
 40
0.8584687714006971
 40
1.0
 40
1.0
 40
1.0
 40
1.0
 10
964.585079122055
 20
822.3919152193304
 30
0.0
 10
964.8098413848425
 20
822.3913783816371
 30
0.0
 10
965.2593492208275
 20
822.3903047461137
 30
0.0
 10
965.8584935252152
 20
822.382040620908
 30
0.0
 10
966.3108331552326
 20
822.370164614482
 30
0.0
 10
966.5508203451468
 20
822.3573796797474
 30
0.0
 10
966.5753411284263
 20
822.3492523401347
 30
0.0
 10
966.5850831751709
 20
822.3460233681436
 30
0.0
  0
LINE
  5
15F1
330
A
100
AcDbEntity
  8
MODEL
100
AcDbLine
 10
964.5850791221533
 20
822.3919152194668
 30
0.0
 11
964.5850791221533
 21
831.9080500774663
 31
0.0
  0
LINE
  5
15F2
330
A
100
AcDbEntity
  8
MODEL
100
AcDbLine
 10
964.5850791221533
 20
831.9080500774663
 30
0.0
 11
966.5850831751545
 21
831.9080500774663
 31
0.0
  0
LINE
  5
15F3
330
A
100
AcDbEntity
  8
MODEL
100
AcDbLine
 10
896.5850903276555
 20
831.9080500774663
 30
0.0
 11
896.5850903276555
 21
822.3919152194668
 31
0.0
  0
SPLINE
  5
15F4
330
A
100
AcDbEntity
  8
MODEL
100
AcDbSpline
210
0.0
220
0.0
230
1.0
 70
     8
 71
     3
 72
    12
 73
     8
 74
     0
 42
0.000000001
 43
0.00000001
 40
0.0
 40
0.0
 40
0.0
 40
0.0
 40
0.2147941205073976
 40
0.4296001656169752
 40
0.6443835034901515
 40
0.8590807875560305
 40
1.0
 40
1.0
 40
1.0
 40
1.0
 10
894.5850862746124
 20
822.3460233681436
 30
0.0
 10
894.6071998744924
 20
822.3509597563799
 30
0.0
 10
894.651428301921
 20
822.3608328069014
 30
0.0
 10
894.9965433947859
 20
822.3746293249425
 30
0.0
 10
895.504353793342
 20
822.3853180428833
 30
0.0
 10
896.0666453393137
 20
822.3910921851876
 30
0.0
 10
896.4379531568343
 20
822.391681638299
 30
0.0
 10
896.5850903277283
 20
822.3919152193304
 30
0.0
  0
LINE
  5
15F5
102
{ACAD_REACTORS
330
1C57
102
}
330
A
100
AcDbEntity
  8
MODEL
100
AcDbLine
 10
894.5850862746524
 20
822.3460233679663
 30
0.0
 11
894.5850862746524
 21
831.9080500774663
 31
0.0
  0
LINE
  5
15F6
330
A
100
AcDbEntity
  8
MODEL
100
AcDbLine
 10
894.5850862746524
 20
831.9080500774663
 30
0.0
 11
896.5850903276555
 21
831.9080500774663
 31
0.0
  0
LINE
  5
15F7
330
A
100
AcDbEntity
  8
MODEL
100
AcDbLine
 10
896.5850903276555
 20
822.3919152194668
 30
0.0
 11
964.5850791221533
 21
822.3919152194668
 31
0.0
  0
LINE
  5
15F8
330
A
100
AcDbEntity
  8
MODEL
100
AcDbLine
 10
964.5850791221533
 20
831.9080500774663
 30
0.0
 11
896.5850903276555
 21
831.9080500774663
 31
0.0
  0
SPLINE
  5
15F9
330
A
100
AcDbEntity
  8
MODEL
100
AcDbSpline
210
0.0
220
0.0
230
1.0
 70
     8
 71
     3
 72
    12
 73
     8
 74
     0
 42
0.000000001
 43
0.00000001
 40
0.0
 40
0.0
 40
0.0
 40
0.0
 40
0.1416196353539339
 40
0.3564225510294353
 40
0.5710497709745997
 40
0.7855463425018264
 40
0.9999999999999999
 40
0.9999999999999999
 40
0.9999999999999999
 40
0.9999999999999999
 10
966.0850896124725
 20
821.8462309711214
 30
0.0
 10
966.0777836482562
 20
821.8494637063505
 30
0.0
 10
966.0593962940079
 20
821.8575997231839
 30
0.0
 10
965.8794542405071
 20
821.8703952399684
 30
0.0
 10
965.5402415709036
 20
821.8822874161698
 30
0.0
 10
965.0908588693878
 20
821.8905666764641
 30
0.0
 10
964.753661126259
 20
821.8916389121597
 30
0.0
 10
964.585079122055
 20
821.8921749763723
 30
0.0
  0
LINE
  5
15FA
330
A
100
AcDbEntity
  8
MODEL
100
AcDbLine
 10
964.5850791221533
 20
822.3919152194668
 30
0.0
 11
964.5850791221533
 21
821.8921749764669
 31
0.0
  0
ARC
  5
15FB
330
A
100
AcDbEntity
  8
MODEL
100
AcDbCircle
 10
966.0851856676531
 20
822.3461284804672
 30
0.0
 40
0.499897518587968
100
AcDbArc
 50
269.9889906328144
 51
359.9879525439311
  0
LINE
  5
15FC
330
A
100
AcDbEntity
  8
MODEL
100
AcDbLine
 10
964.5850791221533
 20
821.8921749764669
 30
0.0
 11
896.5850903276555
 21
821.8921749764669
 31
0.0
  0
LINE
  5
15FD
330
A
100
AcDbEntity
  8
MODEL
100
AcDbLine
 10
896.5850903276555
 20
822.3919152194668
 30
0.0
 11
896.5850903276555
 21
821.8921749764669
 31
0.0
  0
SPLINE
  5
15FE
330
A
100
AcDbEntity
  8
MODEL
100
AcDbSpline
210
0.0
220
0.0
230
1.0
 70
     8
 71
     3
 72
    12
 73
     8
 74
     0
 42
0.000000001
 43
0.00000001
 40
0.0
 40
0.0
 40
0.0
 40
0.0
 40
0.1408223723747733
 40
0.3554284316850538
 40
0.5701941259468021
 40
0.7850753070135688
 40
1.0
 40
1.0
 40
1.0
 40
1.0
 10
896.5850903277283
 20
821.8921749763723
 30
0.0
 10
896.4747403333299
 20
821.8919416525133
 30
0.0
 10
896.1962226178352
 20
821.8913527550841
 30
0.0
 10
895.7744456489713
 20
821.8855691171303
 30
0.0
 10
895.3936094278183
 20
821.8748682988781
 30
0.0
 10
895.1348308145994
 20
821.8610578552672
 30
0.0
 10
895.1016646156118
 20
821.8511735993844
 30
0.0
 10
895.0850798373108
 20
821.8462309711214
 30
0.0
  0
ARC
  5
15FF
330
A
100
AcDbEntity
  8
MODEL
100
AcDbCircle
 10
895.084983782152
 20
822.3461284804672
 30
0.0
 40
0.4998975185874875
100
AcDbArc
 50
180.0120474559647
 51
270.0110093673942
  0
LINE
  5
1600
330
A
100
AcDbEntity
  8
MODEL
100
AcDbLine
 10
966.5850831751545
 20
822.3460233679663
 30
0.0
 11
966.5850831751545
 21
822.1580489449663
 31
0.0
  0
LINE
  5
1601
330
A
100
AcDbEntity
  8
MODEL
100
AcDbLine
 10
894.5850862746524
 20
822.1580489449663
 30
0.0
 11
894.5850862746524
 21
822.3460233679663
 31
0.0
  0
LINE
  5
1602
330
A
100
AcDbEntity
  8
MODEL
100
AcDbLine
 10
141.5850652936547
 20
785.1580484679672
 30
0.0
 11
119.5850803141543
 21
785.1580484679672
 31
0.0
  0
LINE
  5
1603
330
A
100
AcDbEntity
  8
MODEL
100
AcDbLine
 10
141.5850652936547
 20
785.1580484679672
 30
0.0
 11
141.5850652936547
 21
821.6580479314663
 31
0.0
  0
LINE
  5
1604
330
A
100
AcDbEntity
  8
MODEL
100
AcDbLine
 10
119.5850803141543
 20
785.1580484679672
 30
0.0
 11
119.5850803141543
 21
821.6580479314663
 31
0.0
  0
LINE
  5
1605
330
A
100
AcDbEntity
  8
MODEL
100
AcDbLine
 10
141.5850652936547
 20
821.6580479314663
 30
0.0
 11
119.5850803141543
 21
821.6580479314663
 31
0.0
  0
LINE
  5
1606
330
A
100
AcDbEntity
  8
MODEL
100
AcDbLine
 10
941.5850772146537
 20
785.1580484679672
 30
0.0
 11
919.5850922351533
 21
785.1580484679672
 31
0.0
  0
LINE
  5
1607
102
{ACAD_REACTORS
330
1C66
102
}
330
A
100
AcDbEntity
  8
MODEL
100
AcDbLine
 10
941.5850772146537
 20
785.1580484679672
 30
0.0
 11
941.5850772146537
 21
821.6580479314663
 31
0.0
  0
LINE
  5
1608
102
{ACAD_REACTORS
330
1C66
102
}
330
A
100
AcDbEntity
  8
MODEL
100
AcDbLine
 10
919.5850922351533
 20
785.1580484679672
 30
0.0
 11
919.5850922351533
 21
821.6580479314663
 31
0.0
  0
LINE
  5
1609
330
A
100
AcDbEntity
  8
MODEL
100
AcDbLine
 10
941.5850772146537
 20
821.6580479314663
 30
0.0
 11
919.5850922351533
 21
821.6580479314663
 31
0.0
  0
LINE
  5
160A
330
A
100
AcDbEntity
  8
MODEL
100
AcDbLine
 10
964.5850791221533
 20
785.6580485499663
 30
0.0
 11
964.5850791221533
 21
767.6580483934669
 31
0.0
  0
LINE
  5
160B
330
A
100
AcDbEntity
  8
MODEL
100
AcDbLine
 10
96.5850784066547
 20
785.6580485499663
 30
0.0
 11
96.5850784066547
 21
767.6580483934669
 31
0.0
  0
LINE
  5
160C
330
A
100
AcDbEntity
  8
MODEL
100
AcDbLine
 10
95.08506791615355
 20
821.8462309709668
 30
0.0
 11
95.08506791615355
 21
821.6580479314663
 31
0.0
  0
LINE
  5
160D
330
A
100
AcDbEntity
  8
MODEL
100
AcDbLine
 10
166.0850776916554
 20
821.6580479314663
 30
0.0
 11
166.0850776916554
 21
821.8462309709668
 31
0.0
  0
LINE
  5
160E
330
A
100
AcDbEntity
  8
MODEL
100
AcDbLine
 10
895.0850798371525
 20
821.8462309709668
 30
0.0
 11
895.0850798371525
 21
821.6580479314663
 31
0.0
  0
LINE
  5
160F
330
A
100
AcDbEntity
  8
MODEL
100
AcDbLine
 10
966.0850896126544
 20
821.6580479314663
 30
0.0
 11
966.0850896126544
 21
821.8462309709668
 31
0.0
  0
DIMENSION
  5
1610
330
A
100
AcDbEntity
  8
DIM
100
AcDbDimension
  2
*D51
 10
930.5850779556536
 20
1213.284542913466
 30
0.0
 11
530.5850779556545
 21
1213.284542913466
 31
0.0
 70
   160
 71
     2
 42
799.9999999999991
 73
     0
 74
     0
 75
     0
  3
tfrom線あり
100
AcDbAlignedDimension
 13
130.5850779556545
 23
1165.14662000504
 33
0.0
 14
930.5850779556536
 24
1165.14662000504
 34
0.0
100
AcDbRotatedDimension
1001
ACAD
1000
DSTYLE
1002
{
1070
   340
1005
39
1002
}
  0
DIMENSION
  5
1611
330
A
100
AcDbEntity
  8
DIM
100
AcDbDimension
  2
*D52
 10
1042.694177527038
 20
767.6580485764663
 30
0.0
 11
1042.694177527038
 21
801.8593712742748
 31
0.0
 70
   160
 71
     2
 42
64.25
 73
     0
 74
     0
 75
     0
 52
-90.0
  3
tfrom線あり
100
AcDbAlignedDimension
 13
966.5850779556536
 23
831.9080485764663
 33
0.0
 14
964.5850779556536
 24
767.6580485764663
 34
0.0
 50
90.00000000000001
100
AcDbRotatedDimension
1001
ACAD
1000
DSTYLE
1002
{
1070
   271
1070
     0
1070
   340
1005
39
1002
}
  0
LINE
  5
1614
330
A
100
AcDbEntity
  8
MODEL
100
AcDbLine
 10
1100.906270649837
 20
1135.955490459431
 30
0.0
 11
1100.878498610336
 21
1135.955490459431
 31
0.0
  0
LINE
  5
1615
330
A
100
AcDbEntity
  8
MODEL
100
AcDbLine
 10
1100.878498610336
 20
1139.955491115431
 30
0.0
 11
1100.879608747336
 21
1139.955491115431
 31
0.0
  0
CIRCLE
  5
1616
102
{ACAD_REACTORS
330
1C76
102
}
330
A
100
AcDbEntity
  8
MODEL
100
AcDbCircle
 10
1055.878499255335
 20
1137.955490804932
 30
0.0
 40
8.999999999999954
  0
LINE
  5
1617
330
A
100
AcDbEntity
  8
MODEL
100
AcDbLine
 10
1111.128500756338
 20
1153.955490615932
 30
0.0
 11
1111.128500756338
 21
1127.95549077793
 31
0.0
  0
LINE
  5
1618
330
A
100
AcDbEntity
  8
MODEL
100
AcDbLine
 10
1101.566474046838
 20
1153.955490615932
 30
0.0
 11
1111.128500756338
 21
1153.955490615932
 31
0.0
  0
ARC
  5
1619
330
A
100
AcDbEntity
  8
MODEL
100
AcDbCircle
 10
1551.003499255337
 20
1140.955490804931
 30
0.0
 40
449.6250000000001
100
AcDbArc
 50
178.3431772040999
 51
181.6568227958999
  0
LINE
  5
161A
330
A
100
AcDbEntity
  8
MODEL
100
AcDbLine
 10
1111.128500756338
 20
1127.95549077793
 30
0.0
 11
1101.566474046838
 21
1127.95549077793
 31
0.0
  0
LINE
  5
161B
330
A
100
AcDbEntity
  8
MODEL
100
AcDbLine
 10
1111.128500756338
 20
1153.955490615932
 30
0.0
 11
1111.128500756338
 21
1155.955490943931
 31
0.0
  0
LINE
  5
161C
330
A
100
AcDbEntity
  8
MODEL
100
AcDbLine
 10
1111.128500756338
 20
1155.955490943931
 30
0.0
 11
1101.612365898337
 21
1155.955490943931
 31
0.0
  0
SPLINE
  5
161D
330
A
100
AcDbEntity
  8
MODEL
100
AcDbSpline
210
0.0
220
0.0
230
1.0
 70
     8
 71
     3
 72
    12
 73
     8
 74
     0
 42
0.000000001
 43
0.00000001
 40
0.0
 40
0.0
 40
0.0
 40
0.0
 40
0.2147965094248802
 40
0.4295987253351719
 40
0.6443828526050226
 40
0.8590897382366679
 40
1.0
 40
1.0
 40
1.0
 40
1.0
 10
1101.566474047036
 20
1153.955490616107
 30
0.0
 10
1101.571410396149
 20
1154.180419962377
 30
0.0
 10
1101.581283225526
 20
1154.630284630603
 30
0.0
 10
1101.595080177641
 20
1155.229817539969
 30
0.0
 10
1101.605768914118
 20
1155.682111904791
 30
0.0
 10
1101.611542683882
 20
1155.921453073
 30
0.0
 10
1101.612132276981
 20
1155.945831285241
 30
0.0
 10
1101.612365898219
 20
1155.955490943931
 30
0.0
  0
SPLINE
  5
161E
330
A
100
AcDbEntity
  8
MODEL
100
AcDbSpline
210
0.0
220
0.0
230
1.0
 70
     8
 71
     3
 72
    12
 73
     8
 74
     0
 42
0.000000001
 43
0.00000001
 40
0.0
 40
0.0
 40
0.0
 40
0.0
 40
0.2145840714095029
 40
0.4291523359200708
 40
0.6437651620698989
 40
0.8584689792034378
 40
0.9999999999999999
 40
0.9999999999999999
 40
0.9999999999999999
 40
0.9999999999999999
 10
1101.612365898219
 20
1125.955490799576
 30
0.0
 10
1101.611829059524
 20
1125.977582204959
 30
0.0
 10
1101.610755421677
 20
1126.021763388407
 30
0.0
 10
1101.602491309469
 20
1126.366314740179
 30
0.0
 10
1101.590615277698
 20
1126.873462502758
 30
0.0
 10
1101.577830376803
 20
1127.435880761648
 30
0.0
 10
1101.569703020892
 20
1127.807748752938
 30
0.0
 10
1101.566474047036
 20
1127.955490778156
 30
0.0
  0
LINE
  5
161F
330
A
100
AcDbEntity
  8
MODEL
100
AcDbLine
 10
1101.612365898337
 20
1125.955490799431
 30
0.0
 11
1111.128500756338
 21
1125.955490799431
 31
0.0
  0
LINE
  5
1620
330
A
100
AcDbEntity
  8
MODEL
100
AcDbLine
 10
1111.128500756338
 20
1125.955490799431
 30
0.0
 11
1111.128500756338
 21
1127.95549077793
 31
0.0
  0
ARC
  5
1621
330
A
100
AcDbEntity
  8
MODEL
100
AcDbCircle
 10
1101.612366026338
 20
1155.455490804932
 30
0.0
 40
0.500000000000123
100
AcDbArc
 50
90.0
 51
178.1519424535477
  0
SPLINE
  5
1622
330
A
100
AcDbEntity
  8
MODEL
100
AcDbSpline
210
0.0
220
0.0
230
1.0
 70
     8
 71
     3
 72
    12
 73
     8
 74
     0
 42
0.000000001
 43
0.00000001
 40
0.0
 40
0.0
 40
0.0
 40
0.0
 40
0.1408229383529924
 40
0.3554298601849957
 40
0.5701964176100547
 40
0.7850723143915932
 40
1.0
 40
1.0
 40
1.0
 40
1.0
 10
1101.112625655261
 20
1155.47161484971
 30
0.0
 10
1101.112392333243
 20
1155.464361966353
 30
0.0
 10
1101.111803440453
 20
1155.44605606145
 30
0.0
 10
1101.106019753582
 20
1155.266301478882
 30
0.0
 10
1101.095319236981
 20
1154.926667090334
 30
0.0
 10
1101.081508180514
 20
1154.47653541527
 30
0.0
 10
1101.071624223832
 20
1154.138823105952
 30
0.0
 10
1101.06668165001
 20
1153.969946605109
 30
0.0
  0
LWPOLYLINE
  5
1623
330
A
100
AcDbEntity
  8
MODEL
100
AcDbPolyline
 90
        9
 70
   128
 43
0.0
 10
1101.566474046838
 20
1153.955490615932
 10
1101.468968298837
 20
1153.958310660931
 10
1101.375210192336
 20
1153.961022672431
 10
1101.288805809337
 20
1153.963522341931
 10
1101.213066932336
 20
1153.965712812931
 10
1101.150910463837
 20
1153.967510265431
 10
1101.104728039837
 20
1153.968847644431
 10
1101.076285448336
 20
1153.969669070932
 10
1101.066681649837
 20
1153.969946604932
  0
SPLINE
  5
1624
330
A
100
AcDbEntity
  8
MODEL
100
AcDbSpline
210
0.0
220
0.0
230
1.0
 70
     8
 71
     3
 72
    12
 73
     8
 74
     0
 42
0.000000001
 43
0.00000001
 40
0.0
 40
0.0
 40
0.0
 40
0.0
 40
0.1416192765094569
 40
0.3564220622615999
 40
0.5710496318689988
 40
0.7855462808111008
 40
1.0
 40
1.0
 40
1.0
 40
1.0
 10
1101.06668165001
 20
1127.941034323492
 30
0.0
 10
1101.069914386194
 20
1127.830106671734
 30
0.0
 10
1101.078050414884
 20
1127.550928134915
 30
0.0
 10
1101.090845935512
 20
1127.128700721582
 30
0.0
 10
1101.102738085264
 20
1126.747893419579
 30
0.0
 10
1101.111017356715
 20
1126.489142744839
 30
0.0
 10
1101.112089591517
 20
1126.455957349019
 30
0.0
 10
1101.112625655261
 20
1126.439366311723
 30
0.0
  0
ARC
  5
1625
330
A
100
AcDbEntity
  8
MODEL
100
AcDbCircle
 10
1101.612366026338
 20
1126.455490804932
 30
0.0
 40
0.5000000000001185
100
AcDbArc
 50
181.8480575464523
 51
270.0
  0
LWPOLYLINE
  5
1626
330
A
100
AcDbEntity
  8
MODEL
100
AcDbPolyline
 90
        9
 70
   128
 43
0.0
 10
1101.566474046838
 20
1127.95549077793
 10
1101.468968298837
 20
1127.952670500432
 10
1101.375210192336
 20
1127.949958489431
 10
1101.288805809337
 20
1127.947459284931
 10
1101.213066932336
 20
1127.945268581431
 10
1101.150910463837
 20
1127.943470663431
 10
1101.104728039837
 20
1127.942134680932
 10
1101.076285448336
 20
1127.941312090431
 10
1101.066681649837
 20
1127.941034323431
  0
ARC
  5
1627
330
A
100
AcDbEntity
  8
MODEL
100
AcDbCircle
 10
1551.003499255337
 20
1140.955490804931
 30
0.0
 40
450.1249999999999
100
AcDbArc
 50
178.3431772041
 51
181.6568227958998
  0
LINE
  5
1628
330
A
100
AcDbEntity
  8
MODEL
100
AcDbLine
 10
1064.378499146836
 20
1134.955491226932
 30
0.0
 11
1100.878498610336
 21
1134.955491226932
 31
0.0
  0
LINE
  5
1629
330
A
100
AcDbEntity
  8
MODEL
100
AcDbLine
 10
1100.878498610336
 20
1140.955490347931
 30
0.0
 11
1100.878498610336
 21
1134.955491226932
 31
0.0
  0
LINE
  5
162A
330
A
100
AcDbEntity
  8
MODEL
100
AcDbLine
 10
1064.378499146836
 20
1140.955490347931
 30
0.0
 11
1100.878498610336
 21
1140.955490347931
 31
0.0
  0
LINE
  5
162B
330
A
100
AcDbEntity
  8
MODEL
100
AcDbLine
 10
1064.378499146836
 20
1140.955490347931
 30
0.0
 11
1064.378499146836
 21
1140.913530540431
 31
0.0
  0
LINE
  5
162C
330
A
100
AcDbEntity
  8
MODEL
100
AcDbLine
 10
1064.378499146836
 20
1134.997451034431
 30
0.0
 11
1064.378499146836
 21
1134.955491226932
 31
0.0
  0
MTEXT
  5
1865
330
A
100
AcDbEntity
  8
TEMPLATE
390
1D
100
AcDbMText
 10
47.52128672864092
 20
206.2390509788569
 30
0.0
 40
9.773046874999999
 41
0.0
 46
0.0
 71
     1
 72
     1
  1
品名
  7
ＭＳ ゴシック
 73
     1
 44
0.7828267384257843
  0
MTEXT
  5
1866
330
A
100
AcDbEntity
  8
TEMPLATE
390
1D
100
AcDbMText
 10
47.52128672864092
 20
155.2390509788568
 30
0.0
 40
9.773046874999999
 41
0.0
 46
0.0
 71
     1
 72
     1
  1
仕様
  7
ＭＳ ゴシック
 73
     1
 44
0.7828267384257843
  0
LINE
  5
1867
330
A
100
AcDbEntity
  8
TEMPLATE
390
1D
100
AcDbLine
 10
1213.321286728353
 20
160.288004103857
 30
0.0
 11
43.32128672835279
 21
160.288004103857
 31
0.0
  0
LWPOLYLINE
  5
1868
330
A
100
AcDbEntity
  8
TEMPLATE
390
1D
100
AcDbPolyline
 90
        5
 70
   128
 43
0.0
 10
1213.321286728353
 20
1738.288004103856
 10
43.32128672835279
 20
1738.288004103856
 10
43.32128672835279
 20
58.28800410385696
 10
1213.321286728353
 20
58.28800410385696
 10
1213.321286728353
 20
1738.288004103856
  0
LINE
  5
1869
330
A
100
AcDbEntity
  8
TEMPLATE
390
1D
100
AcDbLine
 10
1213.321286728353
 20
211.2880041038569
 30
0.0
 11
43.32128672835279
 21
211.2880041038569
 31
0.0
  0
LINE
  5
186A
330
A
100
AcDbEntity
  8
TEMPLATE
390
1D
100
AcDbLine
 10
1213.321286728642
 20
109.2880041038569
 30
0.0
 11
761.5212867286409
 21
109.2880041038569
 31
0.0
  0
MTEXT
  5
186C
330
A
100
AcDbEntity
  8
TEMPLATE
390
1D
100
AcDbMText
 10
779.4441304799966
 20
91.34176741987207
 30
0.0
 40
14.6595703125
 41
0.0
 46
0.0
 71
     1
 72
     1
  1
大洋金物株式会社 ティーフォルム事業部
  7
ＭＳ ゴシック
 73
     1
 44
0.7828267384257843
  0
MTEXT
  5
186D
330
A
100
AcDbEntity
  8
TEMPLATE
390
1D
100
AcDbMText
 10
1098.721286728798
 20
138.0895744163569
 30
0.0
 40
14.6595703125
 41
0.0
 46
14.6595703125
 71
     1
 72
     1
  1
{1:6}
  7
ＭＳ ゴシック
 73
     1
 44
0.7828267384257843
1001
ACAD
1000
ACAD_MTEXT_DEFINED_HEIGHT_BEGIN
1070
    46
1040
14.6595703125
1000
ACAD_MTEXT_DEFINED_HEIGHT_END
  0
MTEXT
  5
186E
330
A
100
AcDbEntity
  8
TEMPLATE
390
1D
100
AcDbMText
 10
1066.921286728797
 20
155.2390509788568
 30
0.0
 40
9.773046874999999
 41
0.0
 46
0.0
 71
     1
 72
     1
  1
縮尺
  7
ＭＳ ゴシック
 73
     1
 44
0.7828267384257843
  0
LINE
  5
186F
330
A
100
AcDbEntity
  8
TEMPLATE
390
1D
100
AcDbLine
 10
1062.721286728798
 20
109.2880041038569
 30
0.0
 11
1062.721286728798
 21
160.288004103857
 31
0.0
  0
MTEXT
  5
1870
330
A
100
AcDbEntity
  8
TEMPLATE
390
1D
100
AcDbMText
 10
916.3212867287948
 20
155.2390509788568
 30
0.0
 40
9.773046874999999
 41
0.0
 46
0.0
 71
     1
 72
     1
  1
容量
  7
ＭＳ ゴシック
 73
     1
 44
0.7828267384257843
  0
LINE
  5
1871
330
A
100
AcDbEntity
  8
TEMPLATE
390
1D
100
AcDbLine
 10
912.1212867287959
 20
109.2880041038569
 30
0.0
 11
912.1212867287959
 21
160.288004103857
 31
0.0
  0
MTEXT
  5
1872
330
A
100
AcDbEntity
  8
TEMPLATE
390
1D
100
AcDbMText
 10
765.7212867287981
 20
206.2390509788569
 30
0.0
 40
9.773046874999999
 41
0.0
 46
0.0
 71
     1
 72
     1
  1
品番
  7
ＭＳ ゴシック
 73
     1
 44
0.7828267384257843
  0
MTEXT
  5
1873
330
A
100
AcDbEntity
  8
TEMPLATE
390
1D
100
AcDbMText
 10
765.7212867287981
 20
155.2390509788568
 30
0.0
 40
9.773046874999999
 41
0.0
 46
0.0
 71
     1
 72
     1
  1
重量
  7
ＭＳ ゴシック
 73
     1
 44
0.7828267384257843
  0
MTEXT
  5
1874
330
A
100
AcDbEntity
  8
TEMPLATE
390
1D
100
AcDbMText
 10
797.5212867287992
 20
189.0895744163569
 30
0.0
 40
14.6595703125
 41
0.0
 46
19.54609375
 71
     1
 72
     1
  1
{FRF74-0502}
  7
ＭＳ ゴシック
 73
     1
 44
0.7828267384257843
1001
ACAD
1000
ACAD_MTEXT_DEFINED_HEIGHT_BEGIN
1070
    46
1040
19.54609375
1000
ACAD_MTEXT_DEFINED_HEIGHT_END
  0
LINE
  5
1875
330
A
100
AcDbEntity
  8
TEMPLATE
390
1D
100
AcDbLine
 10
761.5212867287992
 20
58.28800410385696
 30
0.0
 11
761.5212867287992
 21
211.2880041038569
 31
0.0
  0
MTEXT
  5
1876
330
A
100
AcDbEntity
  8
TEMPLATE
390
1D
100
AcDbMText
 10
79.32128672864201
 20
189.0895744163569
 30
0.0
 40
14.6595703125
 41
0.0
 46
22.02844765625
 71
     1
 72
     1
  1
{タオルバー　-LANGBERGER, Alster-}
  7
ＭＳ ゴシック
 73
     1
 44
0.7828267384257843
1001
ACAD
1000
ACAD_MTEXT_DEFINED_HEIGHT_BEGIN
1070
    46
1040
22.02844765625
1000
ACAD_MTEXT_DEFINED_HEIGHT_END
  0
INSERT
  5
1877
330
A
100
AcDbEntity
  8
TEMPLATE
100
AcDbBlockReference
  2
名称未設定-1
 10
1122.450448853075
 20
15.56805945399229
 30
0.0
 41
0.4571999999999999
 42
0.4571999999999999
 43
0.4571999999999999
  0
MTEXT
  5
1878
330
A
100
AcDbEntity
  8
TEMPLATE
390
1D
100
AcDbMText
 10
75.15260716562625
 20
136.0871856176371
 30
0.0
 40
14.6595703125
 41
0.0
 46
19.83928515625
 71
     1
 72
     1
  1
{クローム}
  7
ＭＳ ゴシック
 73
     1
 44
0.9331787841240657
1001
ACAD
1000
ACAD_MTEXT_DEFINED_HEIGHT_BEGIN
1070
    46
1040
19.83928515625
1000
ACAD_MTEXT_DEFINED_HEIGHT_END
  0
LWPOLYLINE
  5
1879
330
A
100
AcDbEntity
  8
BORDER
100
AcDbPolyline
 90
        4
 70
     1
 43
0.0
 10
0.0
 20
0.0
 10
0.0
 20
1782.0
 10
1260.0
 20
1782.0
 10
1260.0
 20
0.0
  0
DIMENSION
  5
1AB5
330
A
100
AcDbEntity
  8
DIM
 48
0.05
100
AcDbDimension
  2
*D73
 10
94.58508317515452
 20
1274.13472875402
 30
0.0
 11
530.5850831751545
 21
1274.13472875402
 31
0.0
 70
   160
 71
     5
 42
872.0
 73
     0
 74
     0
 75
     0
  3
tfrom線あり
100
AcDbAlignedDimension
 13
966.5850831751545
 23
1165.39662150604
 33
0.0
 14
94.58508317515452
 24
1165.39662150604
 34
0.0
100
AcDbRotatedDimension
  0
MTEXT
  5
1AF2
102
{ACAD_XDICTIONARY
360
1AF4
102
}
330
A
100
AcDbEntity
  8
TEMPLATE
 48
0.05
100
AcDbMText
 10
44.2989499288055
 20
51.94316062589732
 30
0.0
 40
12.75
 41
0.0
 46
17.0
 71
     1
 72
     1
  1
{20170113N}
  7
ＭＳ ゴシック
 73
     1
 44
1.0
1001
ACAD
1000
ACAD_MTEXT_DEFINED_HEIGHT_BEGIN
1070
    46
1040
17.0
1000
ACAD_MTEXT_DEFINED_HEIGHT_END
  0
DIMENSION
  5
1C55
102
{ACAD_REACTORS
330
1C57
102
}
102
{ACAD_XDICTIONARY
360
1C56
102
}
330
A
100
AcDbEntity
  8
DIM
 48
0.05
100
AcDbDimension
  2
*D82
 10
894.5850862746524
 20
912.0214185984004
 30
0.0
 11
930.5850847249035
 21
912.0214185984004
 31
0.0
 70
   160
 71
     5
 42
71.99999690050208
 73
     0
 74
     0
 75
     0
  3
tfrom線あり
100
AcDbAlignedDimension
 13
966.5850831751545
 23
831.9080500774663
 33
0.0
 14
894.5850862746524
 24
831.9080500774663
 34
0.0
100
AcDbRotatedDimension
  0
DIMENSION
  5
1C64
102
{ACAD_REACTORS
330
1C66
102
}
102
{ACAD_XDICTIONARY
360
1C65
102
}
330
A
100
AcDbEntity
  8
DIM
 48
0.05
100
AcDbDimension
  2
*D83
 10
941.5850772146537
 20
868.8843201682287
 30
0.0
 11
930.5850847249035
 21
868.8843201682287
 31
0.0
 70
   160
 71
     5
 42
21.99998497950037
 73
     0
 74
     0
 75
     0
  3
tfrom線あり
100
AcDbAlignedDimension
 13
919.5850922351533
 23
821.6580479314663
 33
0.0
 14
941.5850772146537
 24
821.6580479314663
 34
0.0
100
AcDbRotatedDimension
  0
DIMENSION
  5
1C74
102
{ACAD_REACTORS
330
1C76
102
}
102
{ACAD_XDICTIONARY
360
1C75
102
}
330
A
100
AcDbEntity
  8
DIM
 48
0.05
100
AcDbDimension
  2
*D84
 10
1026.451717480596
 20
1128.955490804932
 30
0.0
 11
1026.451717480596
 21
1137.955490804932
 31
0.0
 70
   160
 71
     5
 42
18.0
 73
     0
 74
     0
 75
     0
  3
tfrom線あり
100
AcDbAlignedDimension
 13
1055.878499255335
 23
1146.955490804932
 33
0.0
 14
1055.878499255335
 24
1128.955490804932
 34
0.0
 50
90.0
100
AcDbRotatedDimension
1001
ACAD
1000
DSTYLE
1002
{
1070
     3
1000
ø<>
1002
}
  0
VIEWPORT
  5
349
330
B
100
AcDbEntity
 67
     1
  8
0
100
AcDbViewport
 10
202.5
 20
128.5
 30
0.0
 40
486.0
 41
308.4
 68
     1
 69
     1
 12
202.5
 22
128.5
 13
0.0
 23
0.0
 14
0.5
 24
0.5
 15
0.0
 25
0.0
 16
0.0
 26
0.0
 36
1.0
 17
0.0
 27
0.0
 37
0.0
 42
50.0
 43
0.0
 44
0.0
 45
308.4
 50
0.0
 51
0.0
 72
   100
 90
   557152
  1

281
     0
 71
     1
 74
     0
110
0.0
120
0.0
130
0.0
111
1.0
121
0.0
131
0.0
112
0.0
122
1.0
132
0.0
 79
     0
146
0.0
170
     0
 61
     5
348
26C
292
     1
282
     1
141
0.0
142
0.0
 63
   256
  0
VIEWPORT
  5
34A
330
B
100
AcDbEntity
 67
     1
  8
0
100
AcDbViewport
 10
202.5
 20
128.5
 30
0.0
 40
324.0
 41
205.6
 68
     2
 69
     2
 12
986.6781359294573
 22
1427.077061889956
 13
0.0
 23
0.0
 14
0.5
 24
0.5
 15
0.0
 25
0.0
 16
0.0
 26
0.0
 36
1.0
 17
0.0
 27
0.0
 37
0.0
 42
50.0
 43
0.0
 44
0.0
 45
2890.021615685494
 50
0.0
 51
0.0
 72
   100
 90
   557152
  1

281
     0
 71
     1
 74
     0
110
0.0
120
0.0
130
0.0
111
1.0
121
0.0
131
0.0
112
0.0
122
1.0
132
0.0
 79
     0
146
0.0
170
     0
 61
     5
348
26C
292
     1
282
     1
141
0.0
142
0.0
 63
   256
  0
ENDSEC
  0
SECTION
  2
OBJECTS
  0
DICTIONARY
  5
19
330
0
100
AcDbDictionary
281
     1
  3
ACAD_COLOR
350
674
  3
ACAD_DETAILVIEWSTYLE
350
BBF
  3
ACAD_FIELDLIST
350
1AF6
  3
ACAD_GROUP
350
1A
  3
ACAD_IMAGE_VARS
350
27B
  3
ACAD_LAYOUT
350
1E
  3
ACAD_MATERIAL
350
263
  3
ACAD_MLEADERSTYLE
350
336
  3
ACAD_MLINESTYLE
350
1B
  3
ACAD_PLOTSETTINGS
350
22
  3
ACAD_PLOTSTYLENAME
350
1F
  3
ACAD_SCALELIST
350
241
  3
ACAD_SECTIONVIEWSTYLE
350
BC0
  3
ACAD_TABLESTYLE
350
278
  3
ACAD_VISUALSTYLE
350
267
  3
ACDB_RECOMPOSE_DATA
350
1C8C
  3
AcDbVariableDictionary
350
330
  3
APPDATA
350
27A
  3
DimOffsetDictionary
350
E3E
  0
SUN
  5
904
330
15
100
AcDbSun
 90
        1
290
     0
 63
     7
421
 16777215
 40
1.0
291
     1
 91
  2455826
 92
 54000000
292
     0
 70
     2
 71
   256
280
     1
  0
DICTIONARY
  5
2E1
330
2
100
AcDbDictionary
280
     1
281
     1
  3
ACAD_LAYERSTATES
360
2E2
  3
ACLYDICTIONARY
360
DF9
  0
DICTIONARY
  5
1AF4
330
1AF2
100
AcDbDictionary
280
     1
281
     1
  3
ACAD_FIELD
360
1AF8
  0
DICTIONARY
  5
1C56
330
1C55
100
AcDbDictionary
280
     1
281
     1
  3
ACAD_DIMASSOC
360
1C57
  0
DICTIONARY
  5
1C65
330
1C64
100
AcDbDictionary
280
     1
281
     1
  3
ACAD_DIMASSOC
360
1C66
  0
DICTIONARY
  5
1C75
330
1C74
100
AcDbDictionary
280
     1
281
     1
  3
ACAD_DIMASSOC
360
1C76
  0
DICTIONARY
  5
674
102
{ACAD_REACTORS
330
19
102
}
330
19
100
AcDbDictionary
281
     1
  0
DICTIONARY
  5
BBF
102
{ACAD_REACTORS
330
19
102
}
330
19
100
AcDbDictionary
281
     1
  0
FIELDLIST
  5
1AF6
102
{ACAD_REACTORS
330
19
102
}
330
19
100
AcDbIdSet
 90
        2
330
1AF7
330
1AF3
100
AcDbFieldList
  0
DICTIONARY
  5
1A
102
{ACAD_REACTORS
330
19
102
}
330
19
100
AcDbDictionary
281
     1
  0
RASTERVARIABLES
  5
27B
102
{ACAD_REACTORS
330
19
102
}
330
19
100
AcDbRasterVariables
 90
        0
 70
     1
 71
     1
 72
     1
  0
DICTIONARY
  5
1E
102
{ACAD_REACTORS
330
19
102
}
330
19
100
AcDbDictionary
281
     1
  3
Layout1
350
21
  3
Model
350
20
  0
DICTIONARY
  5
263
102
{ACAD_REACTORS
330
19
102
}
330
19
100
AcDbDictionary
281
     1
  3
ByBlock
350
265
  3
ByLayer
350
264
  3
Global
350
266
  0
DICTIONARY
  5
336
102
{ACAD_REACTORS
330
19
102
}
330
19
100
AcDbDictionary
281
     1
  3
Standard
350
DAB
  0
DICTIONARY
  5
1B
102
{ACAD_REACTORS
330
19
102
}
330
19
100
AcDbDictionary
281
     1
  3
Standard
350
1C
  0
DICTIONARY
  5
22
102
{ACAD_REACTORS
330
19
102
}
330
19
100
AcDbDictionary
281
     1
  0
ACDBDICTIONARYWDFLT
  5
1F
102
{ACAD_REACTORS
330
19
102
}
330
19
100
AcDbDictionary
281
     1
  3
Normal
350
1D
100
AcDbDictionaryWithDefault
340
1D
  0
DICTIONARY
  5
241
102
{ACAD_REACTORS
330
19
102
}
330
19
100
AcDbDictionary
281
     1
  3
A0
350
242
  3
A1
350
243
  3
A2
350
244
  3
A3
350
245
  3
A4
350
246
  3
A5
350
247
  3
A6
350
248
  3
A7
350
249
  3
A8
350
24A
  3
A9
350
24B
  3
B0
350
24C
  3
B1
350
24D
  3
B2
350
24E
  3
B3
350
24F
  3
B4
350
250
  3
B5
350
251
  3
B6
350
252
  3
B7
350
253
  3
B8
350
254
  3
B9
350
255
  3
C0
350
256
  3
C1
350
257
  3
C2
350
258
  3
C3
350
259
  3
C4
350
25A
  3
C5
350
25B
  3
C6
350
25C
  3
C7
350
25D
  3
C8
350
25E
  3
C9
350
25F
  3
D0
350
260
  3
D1
350
261
  3
D2
350
262
  0
DICTIONARY
  5
BC0
102
{ACAD_REACTORS
330
19
102
}
330
19
100
AcDbDictionary
281
     1
  0
DICTIONARY
  5
278
102
{ACAD_REACTORS
330
19
102
}
330
19
100
AcDbDictionary
281
     1
  3
Standard
350
279
  0
DICTIONARY
  5
267
102
{ACAD_REACTORS
330
19
102
}
330
19
100
AcDbDictionary
281
     1
  3
2dWireframe
350
26C
  3
3D Hidden
350
26E
  3
3dWireframe
350
26D
  3
Basic
350
26F
  3
Brighten
350
273
  3
ColorChange
350
277
  3
Conceptual
350
271
  3
Dim
350
272
  3
EdgeColorOff
350
8FE
  3
Facepattern
350
276
  3
Flat
350
268
  3
FlatWithEdges
350
269
  3
Gouraud
350
26A
  3
GouraudWithEdges
350
26B
  3
Hidden
350
8FB
  3
JitterOff
350
8FC
  3
Linepattern
350
275
  3
OverhangOff
350
8FD
  3
Realistic
350
270
  3
Shaded
350
903
  3
Shaded with edges
350
902
  3
Shades of Gray
350
8FF
  3
Sketchy
350
900
  3
Thicken
350
274
  3
Wireframe
350
8FA
  3
X-Ray
350
901
  0
XRECORD
  5
1C8C
102
{ACAD_REACTORS
330
19
102
}
330
19
100
AcDbXrecord
280
     1
 90
        1
330
279
  0
DICTIONARY
  5
330
102
{ACAD_REACTORS
330
19
102
}
330
19
100
AcDbDictionary
281
     1
  3
CANNOSCALE
350
331
  3
CMLEADERSTYLE
350
DB1
  3
CTABLESTYLE
350
335
  3
HPTRANSPARENCY
350
D52
  3
XCLIPFRAME
350
896
  0
DICTIONARY
  5
27A
102
{ACAD_REACTORS
330
19
102
}
330
19
100
AcDbDictionary
281
     1
  0
DICTIONARY
  5
E3E
102
{ACAD_REACTORS
330
19
102
}
330
19
100
AcDbDictionary
281
     1
  3
DIMRAILANGLE
350
1B0C
  3
DIMRAILFIRSTOFFSET
350
1B0A
  3
DIMRAILOFFSET
350
1B0B
  3
DIMRAILSENABLED
350
1B0D
  0
DICTIONARY
  5
2E2
102
{ACAD_REACTORS
330
2E1
102
}
330
2E1
100
AcDbDictionary
281
     1
  3
ARGON_LAYERP_9
350
7AA
  0
DICTIONARY
  5
DF9
102
{ACAD_REACTORS
330
2E1
102
}
330
2E1
100
AcDbDictionary
281
     1
1001
ACAD
1000
<All
  0
DICTIONARY
  5
1AF8
102
{ACAD_REACTORS
330
1AF4
102
}
330
1AF4
100
AcDbDictionary
280
     1
281
     1
  3
TEXT
360
1AF3
  0
DIMASSOC
  5
1C57
102
{ACAD_REACTORS
330
1C56
102
}
330
1C56
100
AcDbDimAssoc
330
1C55
 90
        3
 70
     0
 71
     1
  1
AcDbOsnapPointRef
 72
    13
331
15EF
 73
     0
 91
        0
 40
0.0
 10
0.0
 20
0.0
 30
0.0
 75
     0
  1
AcDbOsnapPointRef
 72
     1
331
15F5
 73
     0
 91
        0
 40
0.0
 10
0.0
 20
0.0
 30
0.0
 75
     0
  0
DIMASSOC
  5
1C66
102
{ACAD_REACTORS
330
1C65
102
}
330
1C65
100
AcDbDimAssoc
330
1C64
 90
        3
 70
     0
 71
     1
  1
AcDbOsnapPointRef
 72
     1
331
1608
 73
     0
 91
        0
 40
0.0
 10
0.0
 20
0.0
 30
0.0
 75
     0
  1
AcDbOsnapPointRef
 72
     1
331
1607
 73
     0
 91
        0
 40
0.0
 10
0.0
 20
0.0
 30
0.0
 75
     0
  0
DIMASSOC
  5
1C76
102
{ACAD_REACTORS
330
1C75
102
}
330
1C75
100
AcDbDimAssoc
330
1C74
 90
        3
 70
     0
 71
     1
  1
AcDbOsnapPointRef
 72
     5
331
1616
 73
     0
 91
        0
 40
1.570796326794897
 10
0.0
 20
0.0
 30
0.0
 75
     0
  1
AcDbOsnapPointRef
 72
     5
331
1616
 73
     0
 91
        0
 40
4.71238898038469
 10
0.0
 20
0.0
 30
0.0
 75
     0
  0
LAYOUT
  5
21
102
{ACAD_REACTORS
330
1E
102
}
330
1E
100
AcDbPlotSettings
  1

  2
none_device
  4
ISO_A3_(420.00_x_297.00_MM)
  6

 40
7.5
 41
20.0
 42
7.5
 43
20.0
 44
420.0
 45
297.0
 46
0.0
 47
0.0
 48
0.0
 49
0.0
140
0.0
141
0.0
142
1.0
143
1.0
 70
     0
 72
     1
 73
     0
 74
     0
  7

 75
     0
 76
     0
 77
     2
 78
   300
147
1.0
148
0.0
149
0.0
100
AcDbLayout
  1
Layout1
 70
     0
 71
     0
 10
-7.5
 20
-20.0
 11
412.5
 21
277.0
 12
0.0
 22
0.0
 32
0.0
 14
0.0
 24
0.0
 34
0.0
 15
0.0
 25
0.0
 35
0.0
146
0.0
 13
0.0
 23
0.0
 33
0.0
 16
0.0
 26
0.0
 36
0.0
 17
0.0
 27
0.0
 37
0.0
 76
     0
330
B
331
349
  0
LAYOUT
  5
20
102
{ACAD_REACTORS
330
1E
102
}
330
1E
100
AcDbPlotSettings
  1

  2
none_device
  4
ISO_A3_(420.00_x_297.00_MM)
  6

 40
7.5
 41
20.0
 42
7.5
 43
20.0
 44
420.0
 45
297.0
 46
0.0
 47
0.0
 48
0.0
 49
0.0
140
0.0
141
0.0
142
1.0
143
1.0
 70
  1024
 72
     1
 73
     0
 74
     0
  7

 75
     0
 76
     0
 77
     2
 78
   300
147
1.0
148
0.0
149
0.0
100
AcDbLayout
  1
Model
 70
     0
 71
     1
 10
0.0
 20
0.0
 11
1260.0
 21
1782.0
 12
0.0
 22
0.0
 32
0.0
 14
0.0
 24
0.0
 34
-0.0000000000000018
 15
1260.0
 25
1782.0
 35
0.0000000000000036
146
0.0
 13
0.0
 23
0.0
 33
0.0
 16
0.0
 26
0.0
 36
0.0
 17
0.0
 27
0.0
 37
0.0
 76
     0
330
A
331
15
  0
MATERIAL
  5
265
102
{ACAD_REACTORS
330
263
102
}
330
263
100
AcDbMaterial
  1
ByBlock
 72
     1
 94
      127
  0
MATERIAL
  5
264
102
{ACAD_REACTORS
330
263
102
}
330
263
100
AcDbMaterial
  1
ByLayer
 72
     1
 94
      127
  0
MATERIAL
  5
266
102
{ACAD_REACTORS
330
263
102
}
330
263
100
AcDbMaterial
  1
Global
 72
     1
 94
      127
  0
MLEADERSTYLE
  5
DAB
102
{ACAD_REACTORS
330
336
102
}
330
336
100
AcDbMLeaderStyle
170
     2
171
     1
172
     0
 90
        2
 40
0.0
 41
0.0
173
     1
 91
-1056964608
340
11
 92
       -2
290
     1
 42
2.0
291
     1
 43
8.0
  3
Standard
341
0
 44
4.0
300

342
17
174
     1
178
     6
175
     1
176
     0
 93
-1056964608
 45
4.0
292
     0
297
     0
 46
4.0
343
0
 94
-1056964608
 47
1.0
 49
1.0
140
1.0
293
     1
141
0.0
294
     1
177
     0
142
1.0
295
     0
296
     0
143
3.75
1001
ACAD_MLEADERVER
1070
     2
  0
MLINESTYLE
  5
1C
102
{ACAD_REACTORS
330
1B
102
}
330
1B
100
AcDbMlineStyle
  2
Standard
 70
     0
  3

 62
     0
 51
90.0
 52
90.0
 71
     2
 49
0.5
 62
   256
  6
BYLAYER
 49
-0.5
 62
   256
  6
BYLAYER
  0
ACDBPLACEHOLDER
  5
1D
102
{ACAD_REACTORS
330
1F
102
}
330
1F
  0
SCALE
  5
242
102
{ACAD_REACTORS
330
241
102
}
330
241
100
AcDbScale
 70
     0
300
1:1
140
1.0
141
1.0
290
     1
  0
SCALE
  5
243
102
{ACAD_REACTORS
330
241
102
}
330
241
100
AcDbScale
 70
     0
300
1:2
140
1.0
141
2.0
290
     0
  0
SCALE
  5
244
102
{ACAD_REACTORS
330
241
102
}
330
241
100
AcDbScale
 70
     0
300
1:4
140
1.0
141
4.0
290
     0
  0
SCALE
  5
245
102
{ACAD_REACTORS
330
241
102
}
330
241
100
AcDbScale
 70
     0
300
1:5
140
1.0
141
5.0
290
     0
  0
SCALE
  5
246
102
{ACAD_REACTORS
330
241
102
}
330
241
100
AcDbScale
 70
     0
300
1:8
140
1.0
141
8.0
290
     0
  0
SCALE
  5
247
102
{ACAD_REACTORS
330
241
102
}
330
241
100
AcDbScale
 70
     0
300
1:10
140
1.0
141
10.0
290
     0
  0
SCALE
  5
248
102
{ACAD_REACTORS
330
241
102
}
330
241
100
AcDbScale
 70
     0
300
1:16
140
1.0
141
16.0
290
     0
  0
SCALE
  5
249
102
{ACAD_REACTORS
330
241
102
}
330
241
100
AcDbScale
 70
     0
300
1:20
140
1.0
141
20.0
290
     0
  0
SCALE
  5
24A
102
{ACAD_REACTORS
330
241
102
}
330
241
100
AcDbScale
 70
     0
300
1:30
140
1.0
141
30.0
290
     0
  0
SCALE
  5
24B
102
{ACAD_REACTORS
330
241
102
}
330
241
100
AcDbScale
 70
     0
300
1:40
140
1.0
141
40.0
290
     0
  0
SCALE
  5
24C
102
{ACAD_REACTORS
330
241
102
}
330
241
100
AcDbScale
 70
     0
300
1:50
140
1.0
141
50.0
290
     0
  0
SCALE
  5
24D
102
{ACAD_REACTORS
330
241
102
}
330
241
100
AcDbScale
 70
     0
300
1:100
140
1.0
141
100.0
290
     0
  0
SCALE
  5
24E
102
{ACAD_REACTORS
330
241
102
}
330
241
100
AcDbScale
 70
     0
300
2:1
140
2.0
141
1.0
290
     0
  0
SCALE
  5
24F
102
{ACAD_REACTORS
330
241
102
}
330
241
100
AcDbScale
 70
     0
300
4:1
140
4.0
141
1.0
290
     0
  0
SCALE
  5
250
102
{ACAD_REACTORS
330
241
102
}
330
241
100
AcDbScale
 70
     0
300
8:1
140
8.0
141
1.0
290
     0
  0
SCALE
  5
251
102
{ACAD_REACTORS
330
241
102
}
330
241
100
AcDbScale
 70
     0
300
10:1
140
10.0
141
1.0
290
     0
  0
SCALE
  5
252
102
{ACAD_REACTORS
330
241
102
}
330
241
100
AcDbScale
 70
     0
300
100:1
140
100.0
141
1.0
290
     0
  0
SCALE
  5
253
102
{ACAD_REACTORS
330
241
102
}
330
241
100
AcDbScale
 70
     0
300
1/128" = 1'-0"
140
0.0078125
141
12.0
290
     0
  0
SCALE
  5
254
102
{ACAD_REACTORS
330
241
102
}
330
241
100
AcDbScale
 70
     0
300
1/64" = 1'-0"
140
0.015625
141
12.0
290
     0
  0
SCALE
  5
255
102
{ACAD_REACTORS
330
241
102
}
330
241
100
AcDbScale
 70
     0
300
1/32" = 1'-0"
140
0.03125
141
12.0
290
     0
  0
SCALE
  5
256
102
{ACAD_REACTORS
330
241
102
}
330
241
100
AcDbScale
 70
     0
300
1/16" = 1'-0"
140
0.0625
141
12.0
290
     0
  0
SCALE
  5
257
102
{ACAD_REACTORS
330
241
102
}
330
241
100
AcDbScale
 70
     0
300
3/32" = 1'-0"
140
0.09375
141
12.0
290
     0
  0
SCALE
  5
258
102
{ACAD_REACTORS
330
241
102
}
330
241
100
AcDbScale
 70
     0
300
1/8" = 1'-0"
140
0.125
141
12.0
290
     0
  0
SCALE
  5
259
102
{ACAD_REACTORS
330
241
102
}
330
241
100
AcDbScale
 70
     0
300
3/16" = 1'-0"
140
0.1875
141
12.0
290
     0
  0
SCALE
  5
25A
102
{ACAD_REACTORS
330
241
102
}
330
241
100
AcDbScale
 70
     0
300
1/4" = 1'-0"
140
0.25
141
12.0
290
     0
  0
SCALE
  5
25B
102
{ACAD_REACTORS
330
241
102
}
330
241
100
AcDbScale
 70
     0
300
3/8" = 1'-0"
140
0.375
141
12.0
290
     0
  0
SCALE
  5
25C
102
{ACAD_REACTORS
330
241
102
}
330
241
100
AcDbScale
 70
     0
300
1/2" = 1'-0"
140
0.5
141
12.0
290
     0
  0
SCALE
  5
25D
102
{ACAD_REACTORS
330
241
102
}
330
241
100
AcDbScale
 70
     0
300
3/4" = 1'-0"
140
0.75
141
12.0
290
     0
  0
SCALE
  5
25E
102
{ACAD_REACTORS
330
241
102
}
330
241
100
AcDbScale
 70
     0
300
1" = 1'-0"
140
1.0
141
12.0
290
     0
  0
SCALE
  5
25F
102
{ACAD_REACTORS
330
241
102
}
330
241
100
AcDbScale
 70
     0
300
1-1/2" = 1'-0"
140
1.5
141
12.0
290
     0
  0
SCALE
  5
260
102
{ACAD_REACTORS
330
241
102
}
330
241
100
AcDbScale
 70
     0
300
3" = 1'-0"
140
3.0
141
12.0
290
     0
  0
SCALE
  5
261
102
{ACAD_REACTORS
330
241
102
}
330
241
100
AcDbScale
 70
     0
300
6" = 1'-0"
140
6.0
141
12.0
290
     0
  0
SCALE
  5
262
102
{ACAD_REACTORS
330
241
102
}
330
241
100
AcDbScale
 70
     0
300
1'-0" = 1'-0"
140
12.0
141
12.0
290
     0
  0
TABLESTYLE
  5
279
102
{ACAD_REACTORS
330
278
102
}
102
{ACAD_XDICTIONARY
360
1C8A
102
}
330
278
100
AcDbTableStyle
  3
Standard
 70
     0
 71
     0
 40
0.06
 41
0.06
280
     0
281
     0
  7
Standard
140
4.5
170
     2
 62
     0
 63
   257
283
     0
 90
        4
 91
        0
  1

274
    -2
284
     1
 64
     0
275
    -2
285
     1
 65
     0
276
    -2
286
     1
 66
     0
277
    -2
287
     1
 67
     0
278
    -2
288
     1
 68
     0
279
    -2
289
     1
 69
     0
  7
Standard
140
6.0
170
     5
 62
     0
 63
   257
283
     0
 90
        4
 91
        0
  1

274
    -2
284
     1
 64
     0
275
    -2
285
     1
 65
     0
276
    -2
286
     1
 66
     0
277
    -2
287
     1
 67
     0
278
    -2
288
     1
 68
     0
279
    -2
289
     1
 69
     0
  7
Standard
140
4.5
170
     5
 62
     0
 63
   257
283
     0
 90
        4
 91
        0
  1

274
    -2
284
     1
 64
     0
275
    -2
285
     1
 65
     0
276
    -2
286
     1
 66
     0
277
    -2
287
     1
 67
     0
278
    -2
288
     1
 68
     0
279
    -2
289
     1
 69
     0
  0
VISUALSTYLE
  5
26C
102
{ACAD_REACTORS
330
267
102
}
330
267
100
AcDbVisualStyle
  2
2dWireframe
 70
     4
 71
     0
 72
     2
 73
     0
 90
        0
 40
-0.6
 41
-30.0
 62
     5
 63
     7
421
 16777215
 74
     1
 91
        4
 64
     7
 65
   257
 75
     1
175
     1
 42
1.0
 92
        0
 66
   257
 43
1.0
 76
     1
 77
     6
 78
     2
 67
     7
 79
     5
170
     0
171
     0
290
     0
174
     0
 93
        1
 44
0.0
173
     0
291
     0
 45
0.0
  0
VISUALSTYLE
  5
26E
102
{ACAD_REACTORS
330
267
102
}
330
267
100
AcDbVisualStyle
  2
3D Hidden
 70
     6
 71
     1
 72
     2
 73
     2
 90
        0
 40
-0.6
 41
-30.0
 62
     5
 63
     7
421
 16777215
 74
     2
 91
        2
 64
     7
 65
   257
 75
     2
175
     1
 42
40.0
 92
        0
 66
   257
 43
1.0
 76
     1
 77
     6
 78
     2
 67
     7
 79
     3
170
     0
171
     0
290
     0
174
     0
 93
        1
 44
0.0
173
     0
291
     0
 45
0.0
  0
VISUALSTYLE
  5
26D
102
{ACAD_REACTORS
330
267
102
}
330
267
100
AcDbVisualStyle
  2
3dWireframe
 70
     5
 71
     0
 72
     2
 73
     0
 90
        0
 40
-0.6
 41
-30.0
 62
     5
 63
     7
421
 16777215
 74
     1
 91
        4
 64
     7
 65
   257
 75
     1
175
     1
 42
1.0
 92
        0
 66
   257
 43
1.0
 76
     1
 77
     6
 78
     2
 67
     7
 79
     5
170
     0
171
     0
290
     0
174
     0
 93
        1
 44
0.0
173
     0
291
     0
 45
0.0
  0
VISUALSTYLE
  5
26F
102
{ACAD_REACTORS
330
267
102
}
330
267
100
AcDbVisualStyle
  2
Basic
 70
     7
 71
     1
 72
     0
 73
     1
 90
        0
 40
-0.6
 41
-30.0
 62
     5
 63
     7
421
 16777215
 74
     0
 91
        4
 64
     7
 65
   257
 75
     1
175
     1
 42
1.0
 92
        8
 66
     7
 43
1.0
 76
     1
 77
     6
 78
     2
 67
     7
 79
     5
170
     0
171
     0
290
     0
174
     0
 93
        1
 44
0.0
173
     0
291
     1
 45
0.0
  0
VISUALSTYLE
  5
273
102
{ACAD_REACTORS
330
267
102
}
330
267
100
AcDbVisualStyle
  2
Brighten
 70
    12
 71
     2
 72
     2
 73
     0
 90
        0
 40
-0.6
 41
-30.0
 62
     5
 63
     7
421
 16777215
 74
     1
 91
        4
 64
     7
 65
   257
 75
     1
175
     1
 42
1.0
 92
        8
 66
     7
 43
1.0
 76
     1
 77
     6
 78
     2
 67
     7
 79
     5
170
     0
171
     0
290
     0
174
     0
 93
        1
 44
50.0
173
     0
291
     1
 45
0.0
  0
VISUALSTYLE
  5
277
102
{ACAD_REACTORS
330
267
102
}
330
267
100
AcDbVisualStyle
  2
ColorChange
 70
    16
 71
     2
 72
     2
 73
     3
 90
        0
 40
-0.6
 41
-30.0
 62
     5
 63
     8
421
  8421504
 74
     1
 91
        4
 64
     7
 65
   257
 75
     1
175
     1
 42
1.0
 92
        8
 66
     8
424
  8421504
 43
1.0
 76
     1
 77
     6
 78
     2
 67
     7
 79
     5
170
     0
171
     0
290
     0
174
     0
 93
        1
 44
0.0
173
     0
291
     1
 45
0.0
  0
VISUALSTYLE
  5
271
102
{ACAD_REACTORS
330
267
102
}
330
267
100
AcDbVisualStyle
  2
Conceptual
 70
     9
 71
     3
 72
     2
 73
     0
 90
        0
 40
-0.6
 41
-30.0
 62
     5
 63
     7
421
 16777215
 74
     2
 91
        2
 64
     7
 65
   257
 75
     1
175
     1
 42
40.0
 92
        8
 66
     7
 43
1.0
 76
     1
 77
     6
 78
     2
 67
     7
 79
     3
170
     0
171
     0
290
     0
174
     0
 93
        1
 44
0.0
173
     0
291
     0
 45
0.0
  0
VISUALSTYLE
  5
272
102
{ACAD_REACTORS
330
267
102
}
330
267
100
AcDbVisualStyle
  2
Dim
 70
    11
 71
     2
 72
     2
 73
     0
 90
        0
 40
-0.6
 41
-30.0
 62
     5
 63
     7
421
 16777215
 74
     1
 91
        4
 64
     7
 65
   257
 75
     1
175
     1
 42
1.0
 92
        8
 66
     7
 43
1.0
 76
     1
 77
     6
 78
     2
 67
     7
 79
     5
170
     0
171
     0
290
     0
174
     0
 93
        1
 44
-50.0
173
     0
291
     1
 45
0.0
  0
VISUALSTYLE
  5
8FE
102
{ACAD_REACTORS
330
267
102
}
330
267
100
AcDbVisualStyle
  2
EdgeColorOff
 70
    22
 71
     2
 72
     2
 73
     0
 90
        0
 40
0.6
 41
30.0
 62
     5
 63
     7
421
 16777215
 74
     1
 91
        4
 64
     7
 65
   257
 75
     1
175
     1
 42
1.0
 92
        8
 66
     7
 43
1.0
 76
     1
 77
     6
 78
     2
 67
     7
 79
     5
170
     0
171
     0
290
     0
174
     0
 93
        1
 44
0.0
173
     0
291
     1
 45
0.0
  0
VISUALSTYLE
  5
276
102
{ACAD_REACTORS
330
267
102
}
330
267
100
AcDbVisualStyle
  2
Facepattern
 70
    15
 71
     2
 72
     2
 73
     0
 90
        0
 40
-0.6
 41
-30.0
 62
     5
 63
     7
421
 16777215
 74
     1
 91
        4
 64
     7
 65
   257
 75
     1
175
     1
 42
1.0
 92
        8
 66
     7
 43
1.0
 76
     1
 77
     6
 78
     2
 67
     7
 79
     5
170
     0
171
     0
290
     0
174
     0
 93
        1
 44
0.0
173
     0
291
     1
 45
0.0
  0
VISUALSTYLE
  5
268
102
{ACAD_REACTORS
330
267
102
}
330
267
100
AcDbVisualStyle
  2
Flat
 70
     0
 71
     2
 72
     1
 73
     1
 90
        2
 40
-0.6
 41
30.0
 62
     5
 63
     7
421
 16777215
 74
     0
 91
        4
 64
     7
 65
   257
 75
     1
175
     1
 42
1.0
 92
        8
 66
     7
 43
1.0
 76
     1
 77
     6
 78
     2
 67
     7
 79
     5
170
     0
171
     0
290
     0
174
     0
 93
       13
 44
0.0
173
     0
291
     1
 45
0.0
  0
VISUALSTYLE
  5
269
102
{ACAD_REACTORS
330
267
102
}
330
267
100
AcDbVisualStyle
  2
FlatWithEdges
 70
     1
 71
     2
 72
     1
 73
     1
 90
        2
 40
-0.6
 41
30.0
 62
     5
 63
     7
421
 16777215
 74
     1
 91
        4
 64
     7
 65
   257
 75
     1
175
     1
 42
1.0
 92
        0
 66
   257
 43
1.0
 76
     1
 77
     6
 78
     2
 67
     7
 79
     5
170
     0
171
     0
290
     0
174
     0
 93
       13
 44
0.0
173
     0
291
     1
 45
0.0
  0
VISUALSTYLE
  5
26A
102
{ACAD_REACTORS
330
267
102
}
330
267
100
AcDbVisualStyle
  2
Gouraud
 70
     2
 71
     2
 72
     2
 73
     1
 90
        2
 40
-0.6
 41
30.0
 62
     5
 63
     7
421
 16777215
 74
     0
 91
        4
 64
     7
 65
   257
 75
     1
175
     1
 42
1.0
 92
        0
 66
     7
 43
1.0
 76
     1
 77
     6
 78
     2
 67
     7
 79
     5
170
     0
171
     0
290
     0
174
     0
 93
       13
 44
0.0
173
     0
291
     1
 45
0.0
  0
VISUALSTYLE
  5
26B
102
{ACAD_REACTORS
330
267
102
}
330
267
100
AcDbVisualStyle
  2
GouraudWithEdges
 70
     3
 71
     2
 72
     2
 73
     1
 90
        2
 40
-0.6
 41
30.0
 62
     5
 63
     7
421
 16777215
 74
     1
 91
        4
 64
     7
 65
   257
 75
     1
175
     1
 42
1.0
 92
        0
 66
   257
 43
1.0
 76
     1
 77
     6
 78
     2
 67
     7
 79
     5
170
     0
171
     0
290
     0
174
     0
 93
       13
 44
0.0
173
     0
291
     1
 45
0.0
  0
VISUALSTYLE
  5
8FB
102
{ACAD_REACTORS
330
267
102
}
330
267
100
AcDbVisualStyle
  2
Hidden
 70
     6
 71
     1
 72
     2
 73
     2
 90
        0
 40
0.6
 41
30.0
 62
     5
 63
     7
421
 16777215
 74
     2
 91
        2
 64
     7
 65
   257
 75
     2
175
     1
 42
40.0
 92
        0
 66
   257
 43
1.0
 76
     1
 77
     6
 78
     2
 67
     7
 79
     3
170
     0
171
     0
290
     0
174
     0
 93
        1
 44
0.0
173
     0
291
     0
 45
0.0
  0
VISUALSTYLE
  5
8FC
102
{ACAD_REACTORS
330
267
102
}
330
267
100
AcDbVisualStyle
  2
JitterOff
 70
    20
 71
     2
 72
     2
 73
     0
 90
        0
 40
0.6
 41
30.0
 62
     5
 63
     7
421
 16777215
 74
     1
 91
        4
 64
     7
 65
   257
 75
     1
175
     1
 42
1.0
 92
       10
 66
     7
 43
1.0
 76
     1
 77
     6
 78
     2
 67
     7
 79
     5
170
     0
171
     0
290
     0
174
     0
 93
        1
 44
0.0
173
     0
291
     1
 45
0.0
  0
VISUALSTYLE
  5
275
102
{ACAD_REACTORS
330
267
102
}
330
267
100
AcDbVisualStyle
  2
Linepattern
 70
    14
 71
     2
 72
     2
 73
     0
 90
        0
 40
-0.6
 41
-30.0
 62
     5
 63
     7
421
 16777215
 74
     1
 91
        4
 64
     7
 65
   257
 75
     7
175
     7
 42
1.0
 92
        8
 66
     7
 43
1.0
 76
     1
 77
     6
 78
     2
 67
     7
 79
     5
170
     0
171
     0
290
     0
174
     0
 93
        1
 44
0.0
173
     0
291
     1
 45
0.0
  0
VISUALSTYLE
  5
8FD
102
{ACAD_REACTORS
330
267
102
}
330
267
100
AcDbVisualStyle
  2
OverhangOff
 70
    21
 71
     2
 72
     2
 73
     0
 90
        0
 40
0.6
 41
30.0
 62
     5
 63
     7
421
 16777215
 74
     1
 91
        4
 64
     7
 65
   257
 75
     1
175
     1
 42
1.0
 92
        9
 66
     7
 43
1.0
 76
     1
 77
     6
 78
     2
 67
     7
 79
     5
170
     0
171
     0
290
     0
174
     0
 93
        1
 44
0.0
173
     0
291
     1
 45
0.0
  0
VISUALSTYLE
  5
270
102
{ACAD_REACTORS
330
267
102
}
330
267
100
AcDbVisualStyle
  2
Realistic
 70
     8
 71
     2
 72
     2
 73
     0
 90
        0
 40
-0.6
 41
-30.0
 62
     5
 63
     7
421
 16777215
 74
     1
 91
        0
 64
     7
 65
   257
 75
     1
175
     1
 42
1.0
 92
        8
 66
     8
424
  7895160
 43
1.0
 76
     1
 77
     6
 78
     2
 67
     7
 79
     5
170
     0
171
     0
290
     0
174
     0
 93
       13
 44
0.0
173
     0
291
     0
 45
0.0
  0
VISUALSTYLE
  5
903
102
{ACAD_REACTORS
330
267
102
}
330
267
100
AcDbVisualStyle
  2
Shaded
 70
    27
 71
     2
 72
     2
 73
     1
 90
        2
 40
0.6
 41
30.0
 62
     5
 63
     7
421
 16777215
 74
     0
 91
        4
 64
     7
 65
   257
 75
     1
175
     1
 42
1.0
 92
        8
 66
   257
 43
1.0
 76
     1
 77
     6
 78
     2
 67
     8
425
  7895160
 79
     3
170
     0
171
     0
290
     0
174
     0
 93
        5
 44
0.0
173
     0
291
     0
 45
0.0
  0
VISUALSTYLE
  5
902
102
{ACAD_REACTORS
330
267
102
}
330
267
100
AcDbVisualStyle
  2
Shaded with edges
 70
    26
 71
     2
 72
     2
 73
     1
 90
        2
 40
0.6
 41
30.0
 62
     5
 63
     7
421
 16777215
 74
     1
 91
       10
 64
     7
 65
   257
 75
     2
175
     1
 42
1.0
 92
        8
 66
   257
 43
1.0
 76
     1
 77
     6
 78
     2
 67
     7
 79
     3
170
     0
171
     0
290
     0
174
     0
 93
        5
 44
0.0
173
     0
291
     0
 45
0.0
  0
VISUALSTYLE
  5
8FF
102
{ACAD_REACTORS
330
267
102
}
330
267
100
AcDbVisualStyle
  2
Shades of Gray
 70
    23
 71
     2
 72
     2
 73
     3
 90
        0
 40
0.6
 41
30.0
 62
     5
 63
     7
421
 16777215
 74
     2
 91
        2
 64
     7
 65
     7
 75
     1
175
     1
 42
40.0
 92
        8
 66
     7
 43
1.0
 76
     1
 77
     6
 78
     2
 67
     7
 79
     3
170
     0
171
     0
290
     0
174
     0
 93
        1
 44
0.0
173
     0
291
     0
 45
0.0
  0
VISUALSTYLE
  5
900
102
{ACAD_REACTORS
330
267
102
}
330
267
100
AcDbVisualStyle
  2
Sketchy
 70
    24
 71
     1
 72
     2
 73
     2
 90
        0
 40
0.6
 41
30.0
 62
     5
 63
     7
421
 16777215
 74
     2
 91
        2
 64
     7
 65
     7
 75
     1
175
     1
 42
40.0
 92
       11
 66
     7
 43
1.0
 76
     1
 77
     6
 78
     2
 67
     7
 79
     6
170
     0
171
     0
290
     0
174
     0
 93
        1
 44
0.0
173
     0
291
     0
 45
0.0
  0
VISUALSTYLE
  5
274
102
{ACAD_REACTORS
330
267
102
}
330
267
100
AcDbVisualStyle
  2
Thicken
 70
    13
 71
     2
 72
     2
 73
     0
 90
        0
 40
-0.6
 41
-30.0
 62
     5
 63
     7
421
 16777215
 74
     1
 91
        4
 64
     7
 65
   257
 75
     1
175
     1
 42
1.0
 92
       12
 66
     7
 43
1.0
 76
     1
 77
     6
 78
     2
 67
     7
 79
     5
170
     0
171
     0
290
     0
174
     0
 93
        1
 44
0.0
173
     0
291
     1
 45
0.0
  0
VISUALSTYLE
  5
8FA
102
{ACAD_REACTORS
330
267
102
}
330
267
100
AcDbVisualStyle
  2
Wireframe
 70
     5
 71
     0
 72
     2
 73
     0
 90
        0
 40
0.6
 41
30.0
 62
     5
 63
     7
421
 16777215
 74
     1
 91
        4
 64
     7
 65
   257
 75
     1
175
     1
 42
1.0
 92
        0
 66
   257
 43
1.0
 76
     1
 77
     6
 78
     2
 67
     7
 79
     3
170
     0
171
     0
290
     0
174
     0
 93
        1
 44
0.0
173
     0
291
     0
 45
0.0
  0
VISUALSTYLE
  5
901
102
{ACAD_REACTORS
330
267
102
}
330
267
100
AcDbVisualStyle
  2
X-Ray
 70
    25
 71
     2
 72
     2
 73
     1
 90
        1
 40
0.5
 41
30.0
 62
     5
 63
     7
421
 16777215
 74
     1
 91
        0
 64
     7
 65
   257
 75
     1
175
     1
 42
1.0
 92
        8
 66
     7
 43
1.0
 76
     1
 77
     6
 78
     2
 67
     7
 79
     3
170
     0
171
     0
290
     0
174
     0
 93
       13
 44
0.0
173
     0
291
     0
 45
0.0
  0
DICTIONARYVAR
  5
331
102
{ACAD_REACTORS
330
330
102
}
330
330
100
DictionaryVariables
280
     0
  1
1:1
  0
DICTIONARYVAR
  5
DB1
102
{ACAD_REACTORS
330
330
102
}
330
330
100
DictionaryVariables
280
     0
  1
Standard
  0
DICTIONARYVAR
  5
335
102
{ACAD_REACTORS
330
330
102
}
330
330
100
DictionaryVariables
280
     0
  1
Standard
  0
DICTIONARYVAR
  5
D52
102
{ACAD_REACTORS
330
330
102
}
330
330
100
DictionaryVariables
280
     0
  1
ByLayer
  0
DICTIONARYVAR
  5
896
102
{ACAD_REACTORS
330
330
102
}
330
330
100
DictionaryVariables
280
     0
  1
0
  0
DICTIONARYVAR
  5
1B0C
102
{ACAD_REACTORS
330
E3E
102
}
330
E3E
100
DictionaryVariables
280
     0
  1
0.261799
  0
DICTIONARYVAR
  5
1B0A
102
{ACAD_REACTORS
330
E3E
102
}
330
E3E
100
DictionaryVariables
280
     0
  1
0.400000
  0
DICTIONARYVAR
  5
1B0B
102
{ACAD_REACTORS
330
E3E
102
}
330
E3E
100
DictionaryVariables
280
     0
  1
0.250000
  0
DICTIONARYVAR
  5
1B0D
102
{ACAD_REACTORS
330
E3E
102
}
330
E3E
100
DictionaryVariables
280
     0
  1
1
  0
XRECORD
  5
7AA
102
{ACAD_REACTORS
330
2E2
102
}
330
2E2
100
AcDbXrecord
280
     1
 91
    34815
301

290
     0
302
DIM
330
14
 90
        8
 62
     7
370
    -3
331
13
  1
Color_7
440
 33554687
330
4B
 90
        8
 62
     7
370
    20
331
13
  1
Color_7
440
 33554687
330
4C
 90
        8
 62
     3
370
    13
331
13
  1
Color_3
440
 33554687
330
4D
 90
        8
 62
     7
370
    20
331
13
  1
Color_7
440
 33554687
330
667
 90
        8
 62
     7
370
    -3
331
13
  1
Color_7
440
 33554687
330
88C
 90
        8
 62
     8
370
    20
331
DF8
  1
Color_8
440
 33554687
330
D5D
 90
        0
 62
     7
370
    -3
331
13
  1
Color_7
440
 33554687
330
DAE
 90
        0
 62
     4
370
    20
331
DAF
  1
Color_4
440
 33554687
  0
FIELD
  5
1AF3
102
{ACAD_REACTORS
330
1AF8
102
}
330
1AF8
100
AcDbField
  1
_text
  2
{%<\_FldIdx 0>%N}
 90
        1
360
1AF7
 97
        0
 91
       63
 92
        0
 94
        8
 95
        2
 96
        0
300

 93
        1
  6
ACFD_FIELDTEXT_CHECKSUM
 93
        2
 90
        2
140
4475.0
 94
        0
300

302

304
ACVALUE_END
  7
ACFD_FIELD_VALUE
 93
        6
 90
        4
  1
{20170113N}
 94
        0
300

302

304
ACVALUE_END
301
{20170113N}
 98
       11
  0
DICTIONARY
  5
1C8A
330
279
100
AcDbDictionary
280
     1
281
     1
  3
ACAD_ROUNDTRIP_2008_TABLESTYLE_CELLSTYLEMAP
360
1C8B
  0
FIELD
  5
1AF7
330
1AF3
100
AcDbField
  1
AcVar
  2
\AcVar Date \f "yyyyMMdd"
 90
        0
 97
        0
 91
       63
 92
        0
 94
        8
 95
        2
 96
        0
300

 93
        1
  6
Variable
 93
        2
 90
        4
  1
Date
 94
        0
300

302

304
ACVALUE_END
  7
ACFD_FIELD_VALUE
 93
        6
 90
        8
 92
       16
310
E107010000000D000000390015000000
 94
        0
300
yyyyMMdd
302

304
ACVALUE_END
301
20170113
 98
        8
  0
CELLSTYLEMAP
  5
1C8B
102
{ACAD_REACTORS
330
1C8A
102
}
330
1C8A
100
AcDbCellStyleMap
 90
        3
300
CELLSTYLE
  1
TABLEFORMAT_BEGIN
 90
        5
170
     1
 91
        0
 92
    32768
 62
   257
 93
        1
300
CONTENTFORMAT
  1
CONTENTFORMAT_BEGIN
 90
        0
 91
        0
 92
        4
 93
        0
300

 40
0.0
140
1.0
 94
        5
 62
     0
340
17
144
6.0
309
CONTENTFORMAT_END
171
     1
301
MARGIN
  1
CELLMARGIN_BEGIN
 40
0.06
 40
0.06
 40
0.06
 40
0.06
 40
0.18
 40
0.18
309
CELLMARGIN_END
 94
        6
 95
        1
302
GRIDFORMAT
  1
GRIDFORMAT_BEGIN
 90
        0
 91
        1
 62
     0
 92
       -2
340
0
 93
        0
 40
0.045
309
GRIDFORMAT_END
 95
        2
302
GRIDFORMAT
  1
GRIDFORMAT_BEGIN
 90
        0
 91
        1
 62
     0
 92
       -2
340
0
 93
        0
 40
0.045
309
GRIDFORMAT_END
 95
        4
302
GRIDFORMAT
  1
GRIDFORMAT_BEGIN
 90
        0
 91
        1
 62
     0
 92
       -2
340
0
 93
        0
 40
0.045
309
GRIDFORMAT_END
 95
        8
302
GRIDFORMAT
  1
GRIDFORMAT_BEGIN
 90
        0
 91
        1
 62
     0
 92
       -2
340
0
 93
        0
 40
0.045
309
GRIDFORMAT_END
 95
       16
302
GRIDFORMAT
  1
GRIDFORMAT_BEGIN
 90
        0
 91
        1
 62
     0
 92
       -2
340
0
 93
        0
 40
0.045
309
GRIDFORMAT_END
 95
       32
302
GRIDFORMAT
  1
GRIDFORMAT_BEGIN
 90
        0
 91
        1
 62
     0
 92
       -2
340
0
 93
        0
 40
0.045
309
GRIDFORMAT_END
309
TABLEFORMAT_END
  1
CELLSTYLE_BEGIN
 90
        1
 91
        1
300
_TITLE
309
CELLSTYLE_END
300
CELLSTYLE
  1
TABLEFORMAT_BEGIN
 90
        5
170
     1
 91
        0
 92
        0
 62
   257
 93
        1
300
CONTENTFORMAT
  1
CONTENTFORMAT_BEGIN
 90
        0
 91
        0
 92
        4
 93
        0
300

 40
0.0
140
1.0
 94
        5
 62
     0
340
17
144
4.5
309
CONTENTFORMAT_END
171
     1
301
MARGIN
  1
CELLMARGIN_BEGIN
 40
0.06
 40
0.06
 40
0.06
 40
0.06
 40
0.18
 40
0.18
309
CELLMARGIN_END
 94
        6
 95
        1
302
GRIDFORMAT
  1
GRIDFORMAT_BEGIN
 90
        0
 91
        1
 62
     0
 92
       -2
340
0
 93
        0
 40
0.045
309
GRIDFORMAT_END
 95
        2
302
GRIDFORMAT
  1
GRIDFORMAT_BEGIN
 90
        0
 91
        1
 62
     0
 92
       -2
340
0
 93
        0
 40
0.045
309
GRIDFORMAT_END
 95
        4
302
GRIDFORMAT
  1
GRIDFORMAT_BEGIN
 90
        0
 91
        1
 62
     0
 92
       -2
340
0
 93
        0
 40
0.045
309
GRIDFORMAT_END
 95
        8
302
GRIDFORMAT
  1
GRIDFORMAT_BEGIN
 90
        0
 91
        1
 62
     0
 92
       -2
340
0
 93
        0
 40
0.045
309
GRIDFORMAT_END
 95
       16
302
GRIDFORMAT
  1
GRIDFORMAT_BEGIN
 90
        0
 91
        1
 62
     0
 92
       -2
340
0
 93
        0
 40
0.045
309
GRIDFORMAT_END
 95
       32
302
GRIDFORMAT
  1
GRIDFORMAT_BEGIN
 90
        0
 91
        1
 62
     0
 92
       -2
340
0
 93
        0
 40
0.045
309
GRIDFORMAT_END
309
TABLEFORMAT_END
  1
CELLSTYLE_BEGIN
 90
        2
 91
        1
300
_HEADER
309
CELLSTYLE_END
300
CELLSTYLE
  1
TABLEFORMAT_BEGIN
 90
        5
170
     1
 91
        0
 92
        0
 62
   257
 93
        1
300
CONTENTFORMAT
  1
CONTENTFORMAT_BEGIN
 90
        0
 91
        0
 92
        4
 93
        0
300

 40
0.0
140
1.0
 94
        2
 62
     0
340
17
144
4.5
309
CONTENTFORMAT_END
171
     1
301
MARGIN
  1
CELLMARGIN_BEGIN
 40
0.06
 40
0.06
 40
0.06
 40
0.06
 40
0.18
 40
0.18
309
CELLMARGIN_END
 94
        6
 95
        1
302
GRIDFORMAT
  1
GRIDFORMAT_BEGIN
 90
        0
 91
        1
 62
     0
 92
       -2
340
0
 93
        0
 40
0.045
309
GRIDFORMAT_END
 95
        2
302
GRIDFORMAT
  1
GRIDFORMAT_BEGIN
 90
        0
 91
        1
 62
     0
 92
       -2
340
0
 93
        0
 40
0.045
309
GRIDFORMAT_END
 95
        4
302
GRIDFORMAT
  1
GRIDFORMAT_BEGIN
 90
        0
 91
        1
 62
     0
 92
       -2
340
0
 93
        0
 40
0.045
309
GRIDFORMAT_END
 95
        8
302
GRIDFORMAT
  1
GRIDFORMAT_BEGIN
 90
        0
 91
        1
 62
     0
 92
       -2
340
0
 93
        0
 40
0.045
309
GRIDFORMAT_END
 95
       16
302
GRIDFORMAT
  1
GRIDFORMAT_BEGIN
 90
        0
 91
        1
 62
     0
 92
       -2
340
0
 93
        0
 40
0.045
309
GRIDFORMAT_END
 95
       32
302
GRIDFORMAT
  1
GRIDFORMAT_BEGIN
 90
        0
 91
        1
 62
     0
 92
       -2
340
0
 93
        0
 40
0.045
309
GRIDFORMAT_END
309
TABLEFORMAT_END
  1
CELLSTYLE_BEGIN
 90
        3
 91
        2
300
_DATA
309
CELLSTYLE_END
  0
ENDSEC
  0
EOF
