  0
SECTION
  2
HEADER
  9
$ACADVER
  1
AC1021
  9
$ACADMAINTVER
 70
    25
  9
$DWGCODEPAGE
  3
ANSI_932
  9
$LASTSAVEDBY
  1
T-HOWE-PC
  9
$INSBASE
 10
0.0
 20
0.0
 30
0.0
  9
$EXTMIN
 10
0.0
 20
0.0
 30
-0.0000000000000071
  9
$EXTMAX
 10
420.0
 20
594.0
 30
0.0000000000000071
  9
$LIMMIN
 10
0.0
 20
0.0
  9
$LIMMAX
 10
420.0
 20
594.0
  9
$ORTHOMODE
 70
     0
  9
$REGENMODE
 70
     1
  9
$FILLMODE
 70
     1
  9
$QTEXTMODE
 70
     0
  9
$MIRRTEXT
 70
     1
  9
$LTSCALE
 40
1.0
  9
$ATTMODE
 70
     1
  9
$TEXTSIZE
 40
2.5
  9
$TRACEWID
 40
1.0
  9
$TEXTSTYLE
  7
ＭＳ ゴシック
  9
$CLAYER
  8
DIM
  9
$CELTYPE
  6
ByLayer
  9
$CECOLOR
 62
   256
  9
$CELTSCALE
 40
1.0
  9
$DISPSILH
 70
     0
  9
$DIMSCALE
 40
1.0
  9
$DIMASZ
 40
2.0
  9
$DIMEXO
 40
5.0
  9
$DIMDLI
 40
0.9999999999999999
  9
$DIMRND
 40
0.0
  9
$DIMDLE
 40
0.0
  9
$DIMEXE
 40
0.0
  9
$DIMTP
 40
0.0
  9
$DIMTM
 40
0.0
  9
$DIMTXT
 40
5.0
  9
$DIMCEN
 40
0.0
  9
$DIMTSZ
 40
0.0
  9
$DIMTOL
 70
     0
  9
$DIMLIM
 70
     0
  9
$DIMTIH
 70
     0
  9
$DIMTOH
 70
     0
  9
$DIMSE1
 70
     0
  9
$DIMSE2
 70
     0
  9
$DIMTAD
 70
     1
  9
$DIMZIN
 70
    11
  9
$DIMBLK
  1
DOT
  9
$DIMASO
 70
     1
  9
$DIMSHO
 70
     1
  9
$DIMPOST
  1
<>
  9
$DIMAPOST
  1
[]
  9
$DIMALT
 70
     0
  9
$DIMALTD
 70
     1
  9
$DIMALTF
 40
1.0
  9
$DIMLFAC
 40
1.0
  9
$DIMTOFL
 70
     0
  9
$DIMTVP
 40
0.0
  9
$DIMTIX
 70
     1
  9
$DIMSOXD
 70
     0
  9
$DIMSAH
 70
     0
  9
$DIMBLK1
  1

  9
$DIMBLK2
  1

  9
$DIMSTYLE
  2
tfrom線あり
  9
$DIMCLRD
 70
     0
  9
$DIMCLRE
 70
     0
  9
$DIMCLRT
 70
     0
  9
$DIMTFAC
 40
1.0
  9
$DIMGAP
 40
3.0
  9
$DIMJUST
 70
     0
  9
$DIMSD1
 70
     0
  9
$DIMSD2
 70
     0
  9
$DIMTOLJ
 70
     1
  9
$DIMTZIN
 70
    11
  9
$DIMALTZ
 70
    11
  9
$DIMALTTZ
 70
    11
  9
$DIMUPT
 70
     0
  9
$DIMDEC
 70
     0
  9
$DIMTDEC
 70
     1
  9
$DIMALTU
 70
     2
  9
$DIMALTTD
 70
     2
  9
$DIMTXSTY
  7
ＭＳ ゴシック
  9
$DIMAUNIT
 70
     0
  9
$DIMADEC
 70
     2
  9
$DIMALTRND
 40
0.0
  9
$DIMAZIN
 70
     0
  9
$DIMDSEP
 70
    46
  9
$DIMATFIT
 70
     0
  9
$DIMFRAC
 70
     2
  9
$DIMLDRBLK
  1
DOT
  9
$DIMLUNIT
 70
     2
  9
$DIMLWD
 70
    -2
  9
$DIMLWE
 70
    -2
  9
$DIMTMOVE
 70
     0
  9
$DIMFXL
 40
1.0
  9
$DIMFXLON
 70
     0
  9
$DIMJOGANG
 40
0.7853981633974483
  9
$DIMTFILL
 70
     0
  9
$DIMTFILLCLR
 70
     0
  9
$DIMARCSYM
 70
     0
  9
$DIMLTYPE
  6

  9
$DIMLTEX1
  6

  9
$DIMLTEX2
  6

  9
$LUNITS
 70
     2
  9
$LUPREC
 70
     0
  9
$SKETCHINC
 40
0.1
  9
$FILLETRAD
 40
0.0
  9
$AUNITS
 70
     0
  9
$AUPREC
 70
     0
  9
$MENU
  1
acad
  9
$ELEVATION
 40
0.0
  9
$PELEVATION
 40
0.0
  9
$THICKNESS
 40
0.0
  9
$LIMCHECK
 70
     0
  9
$CHAMFERA
 40
0.0
  9
$CHAMFERB
 40
0.0
  9
$CHAMFERC
 40
0.0
  9
$CHAMFERD
 40
0.0
  9
$SKPOLY
 70
     0
  9
$TDCREATE
 40
2447893.375
  9
$TDUCREATE
 40
0.0
  9
$TDUPDATE
 40
2459363.58164691
  9
$TDUUPDATE
 40
2459363.20664691
  9
$TDINDWG
 40
0.1404933912
  9
$TDUSRTIMER
 40
0.0038477778
  9
$USRTIMER
 70
     1
  9
$ANGBASE
 50
0.0
  9
$ANGDIR
 70
     0
  9
$PDMODE
 70
     1
  9
$PDSIZE
 40
-2.0
  9
$PLINEWID
 40
0.0
  9
$SPLFRAME
 70
     0
  9
$SPLINETYPE
 70
     6
  9
$SPLINESEGS
 70
     8
  9
$HANDSEED
  5
4399
  9
$SURFTAB1
 70
     6
  9
$SURFTAB2
 70
     6
  9
$SURFTYPE
 70
     6
  9
$SURFU
 70
     6
  9
$SURFV
 70
     6
  9
$UCSBASE
  2

  9
$UCSNAME
  2

  9
$UCSORG
 10
0.0
 20
0.0
 30
0.0
  9
$UCSXDIR
 10
1.0
 20
0.0
 30
0.0
  9
$UCSYDIR
 10
0.0
 20
1.0
 30
0.0
  9
$UCSORTHOREF
  2

  9
$UCSORTHOVIEW
 70
     0
  9
$UCSORGTOP
 10
0.0
 20
0.0
 30
0.0
  9
$UCSORGBOTTOM
 10
0.0
 20
0.0
 30
0.0
  9
$UCSORGLEFT
 10
0.0
 20
0.0
 30
0.0
  9
$UCSORGRIGHT
 10
0.0
 20
0.0
 30
0.0
  9
$UCSORGFRONT
 10
0.0
 20
0.0
 30
0.0
  9
$UCSORGBACK
 10
0.0
 20
0.0
 30
0.0
  9
$PUCSBASE
  2

  9
$PUCSNAME
  2

  9
$PUCSORG
 10
0.0
 20
0.0
 30
0.0
  9
$PUCSXDIR
 10
1.0
 20
0.0
 30
0.0
  9
$PUCSYDIR
 10
0.0
 20
1.0
 30
0.0
  9
$PUCSORTHOREF
  2

  9
$PUCSORTHOVIEW
 70
     0
  9
$PUCSORGTOP
 10
0.0
 20
0.0
 30
0.0
  9
$PUCSORGBOTTOM
 10
0.0
 20
0.0
 30
0.0
  9
$PUCSORGLEFT
 10
0.0
 20
0.0
 30
0.0
  9
$PUCSORGRIGHT
 10
0.0
 20
0.0
 30
0.0
  9
$PUCSORGFRONT
 10
0.0
 20
0.0
 30
0.0
  9
$PUCSORGBACK
 10
0.0
 20
0.0
 30
0.0
  9
$USERI1
 70
     0
  9
$USERI2
 70
     0
  9
$USERI3
 70
     0
  9
$USERI4
 70
     0
  9
$USERI5
 70
     0
  9
$USERR1
 40
0.0
  9
$USERR2
 40
0.0
  9
$USERR3
 40
0.0
  9
$USERR4
 40
0.0
  9
$USERR5
 40
0.0
  9
$WORLDVIEW
 70
     1
  9
$SHADEDGE
 70
     3
  9
$SHADEDIF
 70
    70
  9
$TILEMODE
 70
     1
  9
$MAXACTVP
 70
    64
  9
$PINSBASE
 10
0.0
 20
0.0
 30
0.0
  9
$PLIMCHECK
 70
     0
  9
$PEXTMIN
 10
0.0
 20
0.0
 30
0.0
  9
$PEXTMAX
 10
0.0
 20
0.0
 30
0.0
  9
$PLIMMIN
 10
-7.5
 20
-20.0
  9
$PLIMMAX
 10
412.5
 20
277.0
  9
$UNITMODE
 70
     0
  9
$VISRETAIN
 70
     0
  9
$PLINEGEN
 70
     1
  9
$PSLTSCALE
 70
     0
  9
$TREEDEPTH
 70
  3020
  9
$CMLSTYLE
  2
Standard
  9
$CMLJUST
 70
     0
  9
$CMLSCALE
 40
1.0
  9
$PROXYGRAPHICS
 70
     0
  9
$MEASUREMENT
 70
     1
  9
$CELWEIGHT
370
    -1
  9
$ENDCAPS
280
     0
  9
$JOINSTYLE
280
     0
  9
$LWDISPLAY
290
     1
  9
$INSUNITS
 70
     4
  9
$HYPERLINKBASE
  1

  9
$STYLESHEET
  1

  9
$XEDIT
290
     1
  9
$CEPSNTYPE
380
     0
  9
$PSTYLEMODE
290
     1
  9
$FINGERPRINTGUID
  2

  9
$VERSIONGUID
  2

  9
$EXTNAMES
290
     1
  9
$PSVPSCALE
 40
0.0
  9
$OLESTARTUP
290
     0
  9
$SORTENTS
280
   127
  9
$INDEXCTL
280
     0
  9
$HIDETEXT
280
     1
  9
$XCLIPFRAME
290
     0
  9
$HALOGAP
280
     0
  9
$OBSCOLOR
 70
   257
  9
$OBSLTYPE
280
     0
  9
$INTERSECTIONDISPLAY
280
     0
  9
$INTERSECTIONCOLOR
 70
   257
  9
$DIMASSOC
280
     2
  9
$PROJECTNAME
  1

  9
$CAMERADISPLAY
290
     0
  9
$LENSLENGTH
 40
50.0
  9
$CAMERAHEIGHT
 40
0.0
  9
$STEPSPERSEC
 40
2.0
  9
$STEPSIZE
 40
6.0
  9
$3DDWFPREC
 40
2.0
  9
$PSOLWIDTH
 40
0.25
  9
$PSOLHEIGHT
 40
4.0
  9
$LOFTANG1
 40
1.570796326794897
  9
$LOFTANG2
 40
1.570796326794897
  9
$LOFTMAG1
 40
0.0
  9
$LOFTMAG2
 40
0.0
  9
$LOFTPARAM
 70
     7
  9
$LOFTNORMALS
280
     1
  9
$LATITUDE
 40
37.795
  9
$LONGITUDE
 40
-122.394
  9
$NORTHDIRECTION
 40
0.0
  9
$TIMEZONE
 70
 -8000
  9
$LIGHTGLYPHDISPLAY
280
     1
  9
$TILEMODELIGHTSYNCH
280
     1
  9
$SOLIDHIST
280
     1
  9
$SHOWHIST
280
     1
  9
$DWFFRAME
280
     2
  9
$DGNFRAME
280
     2
  9
$REALWORLDSCALE
290
     1
  9
$INTERFERECOLOR
 62
   256
  9
$CSHADOW
280
     0
  9
$SHADOWPLANELOCATION
 40
0.0
  0
ENDSEC
  0
SECTION
  2
CLASSES
  0
CLASS
  1
LWPOLYLINE
  2
AcDbPolyline
  3
ObjectDBX Classes
 90
        0
 91
        1
280
     0
281
     1
  0
CLASS
  1
IMAGE
  2
AcDbRasterImage
  3
ISM
 90
      127
 91
        4
280
     0
281
     1
  0
CLASS
  1
OLE2FRAME
  2
AcDbOle2Frame
  3
ObjectDBX Classes
 90
        0
 91
        1
280
     0
281
     1
  0
CLASS
  1
HATCH
  2
AcDbHatch
  3
ObjectDBX Classes
 90
        0
 91
        1
280
     0
281
     1
  0
CLASS
  1
DICTIONARYVAR
  2
AcDbDictionaryVar
  3
ObjectDBX Classes
 90
        0
 91
        3
280
     0
281
     0
  0
CLASS
  1
RASTERVARIABLES
  2
AcDbRasterVariables
  3
ISM
 90
        0
 91
        3
280
     0
281
     0
  0
CLASS
  1
IMAGEDEF
  2
AcDbRasterImageDef
  3
ISM
 90
        0
 91
        3
280
     0
281
     0
  0
CLASS
  1
IMAGEDEF_REACTOR
  2
AcDbRasterImageDefReactor
  3
ISM
 90
        1
 91
        3
280
     0
281
     0
  0
CLASS
  1
IDBUFFER
  2
AcDbIdBuffer
  3
ObjectDBX Classes
 90
        0
 91
        3
280
     0
281
     0
  0
CLASS
  1
SPATIAL_FILTER
  2
AcDbSpatialFilter
  3
ObjectDBX Classes
 90
        0
 91
        3
280
     0
281
     0
  0
CLASS
  1
XRECORD
  2
AcDbXrecord
  3
ObjectDBX Classes
 90
        0
 91
        1
280
     0
281
     0
  0
CLASS
  1
SORTENTSTABLE
  2
AcDbSortentsTable
  3
ObjectDBX Classes
 90
        0
 91
        3
280
     0
281
     0
  0
CLASS
  1
LAYER_INDEX
  2
AcDbLayerIndex
  3
ObjectDBX Classes
 90
        0
 91
        3
280
     0
281
     0
  0
CLASS
  1
SPATIAL_INDEX
  2
AcDbSpatialIndex
  3
AutoCAD 2000
 90
        0
 91
        3
280
     0
281
     0
  0
CLASS
  1
OBJECT_PTR
  2
CAseDLPNTableRecord
  3
ASE-LPNTableRecord
 90
        1
 91
        3
280
     0
281
     0
  0
CLASS
  1
LAYOUT
  2
AcDbLayout
  3
ObjectDBX Classes
 90
        0
 91
        1
280
     0
281
     0
  0
CLASS
  1
PLOTSETTINGS
  2
AcDbPlotSettings
  3
ObjectDBX Classes
 90
        0
 91
        3
280
     0
281
     0
  0
CLASS
  1
ACDBDICTIONARYWDFLT
  2
AcDbDictionaryWithDefault
  3
ObjectDBX Classes
 90
        0
 91
        3
280
     0
281
     0
  0
CLASS
  1
ACDBPLACEHOLDER
  2
AcDbPlaceHolder
  3
ObjectDBX Classes
 90
        0
 91
        1
280
     0
281
     0
  0
CLASS
  1
SCALE
  2
AcDbScale
  3
ObjectDBX Classes
 90
     1153
 91
        3
280
     0
281
     0
  0
CLASS
  1
MATERIAL
  2
AcDbMaterial
  3
ObjectDBX Classes
 90
     1153
 91
        3
280
     0
281
     0
  0
CLASS
  1
VISUALSTYLE
  2
AcDbVisualStyle
  3
ObjectDBX Classes
 90
     4095
 91
        3
280
     0
281
     0
  0
CLASS
  1
TABLESTYLE
  2
AcDbTableStyle
  3
ObjectDBX Classes
 90
     4095
 91
        3
280
     0
281
     0
  0
CLASS
  1
DIMASSOC
  2
AcDbDimAssoc
  3
"AcDbDimAssoc|Product Desc:     AcDim ARX App For Dimension|Company:          Autodesk, Inc.|WEB Address:      www.autodesk.com"
 90
        0
 91
        3
280
     0
281
     0
  0
CLASS
  1
CELLSTYLEMAP
  2
AcDbCellStyleMap
  3
ObjectDBX Classes
 90
     1152
 91
        3
280
     0
281
     0
  0
CLASS
  1
SUN
  2
AcDbSun
  3
SCENEOE
 90
     1153
 91
        3
280
     0
281
     0
  0
CLASS
  1
MLEADERSTYLE
  2
AcDbMLeaderStyle
  3
ACDB_MLEADERSTYLE_CLASS
 90
     4095
 91
        3
280
     0
281
     0
  0
CLASS
  1
FIELD
  2
AcDbField
  3
ObjectDBX Classes
 90
     1152
 91
        3
280
     0
281
     0
  0
CLASS
  1
FIELDLIST
  2
AcDbFieldList
  3
ObjectDBX Classes
 90
     1152
 91
        3
280
     0
281
     0
  0
ENDSEC
  0
SECTION
  2
TABLES
  0
TABLE
  2
VPORT
  5
7
330
0
100
AcDbSymbolTable
 70
     1
  0
VPORT
  5
15
330
7
100
AcDbSymbolTableRecord
100
AcDbViewportTableRecord
  2
*ACTIVE
 70
     0
 10
0.0
 20
0.0
 11
1.0
 21
1.0
 12
301.0201356709003
 22
223.401285469834
 13
0.0
 23
0.0
 14
1.0
 24
1.0
 15
0.0
 25
0.0
 16
0.0
 26
0.0
 36
1.0
 17
-91.02013567090034
 27
73.59871453016603
 37
-46.86809886248109
 40
605.88
 41
2.246771879483501
 42
50.0
 43
0.0
 44
0.0
 50
0.0
 51
0.0
 71
    16
 72
  2000
 73
     1
 74
     1
 75
     0
 76
     0
 77
     0
 78
     0
281
     0
 65
     1
110
0.0
120
0.0
130
0.0
111
1.0
121
0.0
131
0.0
112
0.0
122
1.0
132
0.0
 79
     0
146
0.0
348
26C
 60
     3
 61
     5
292
     1
282
     1
141
0.0
142
0.0
 63
   256
361
904
  0
ENDTAB
  0
TABLE
  2
LTYPE
  5
4
330
0
100
AcDbSymbolTable
 70
     3
  0
LTYPE
  5
11
330
4
100
AcDbSymbolTableRecord
100
AcDbLinetypeTableRecord
  2
ByBlock
 70
     0
  3

 72
    65
 73
     0
 40
0.0
  0
LTYPE
  5
12
330
4
100
AcDbSymbolTableRecord
100
AcDbLinetypeTableRecord
  2
ByLayer
 70
     0
  3

 72
    65
 73
     0
 40
0.0
  0
LTYPE
  5
13
330
4
100
AcDbSymbolTableRecord
100
AcDbLinetypeTableRecord
  2
Continuous
 70
     0
  3
Solid line
 72
    65
 73
     0
 40
0.0
  0
LTYPE
  5
D6C
330
4
100
AcDbSymbolTableRecord
100
AcDbLinetypeTableRecord
  2
BORDER
 70
     0
  3
Border __  __  . __  __  . __  __  . __  __  . 
 72
    65
 73
     6
 40
44.45
 49
12.7
 74
     0
 49
-6.35
 74
     0
 49
12.7
 74
     0
 49
-6.35
 74
     0
 49
0.0
 74
     0
 49
-6.35
 74
     0
  0
LTYPE
  5
D6D
330
4
100
AcDbSymbolTableRecord
100
AcDbLinetypeTableRecord
  2
HIDDEN
 70
     0
  3
Hidden _ _ _ _ _ _ _ _ _ _ _ _ _ _ _ _ _ _ _ _ 
 72
    65
 73
     2
 40
9.524999999999999
 49
6.35
 74
     0
 49
-3.175
 74
     0
  0
ENDTAB
  0
TABLE
  2
LAYER
  5
2
102
{ACAD_XDICTIONARY
360
2E1
102
}
330
0
100
AcDbSymbolTable
 70
    11
  0
LAYER
  5
14
330
2
100
AcDbSymbolTableRecord
100
AcDbLayerTableRecord
  2
0
 70
     0
 62
     7
  6
Continuous
370
    -3
390
1D
347
266
  0
LAYER
  5
4B
330
2
100
AcDbSymbolTableRecord
100
AcDbLayerTableRecord
  2
TEMPLATE
 70
     0
 62
     7
  6
Continuous
370
    20
390
1D
347
266
  0
LAYER
  5
4C
330
2
100
AcDbSymbolTableRecord
100
AcDbLayerTableRecord
  2
DIM
 70
     0
 62
     3
  6
Continuous
370
    13
390
1D
347
266
  0
LAYER
  5
4D
330
2
100
AcDbSymbolTableRecord
100
AcDbLayerTableRecord
  2
MODEL
 70
     0
 62
     7
  6
Continuous
370
    20
390
1D
347
266
  0
LAYER
  5
88C
330
2
100
AcDbSymbolTableRecord
100
AcDbLayerTableRecord
  2
HIDDEN
 70
     0
 62
     8
  6
HIDDEN
370
    20
390
1D
347
266
1001
AcAecLayerStandard
1000

1000

  0
LAYER
  5
D6B
330
2
100
AcDbSymbolTableRecord
100
AcDbLayerTableRecord
  2
BORDER
 70
     0
 62
     4
  6
BORDER
290
     0
370
    20
390
1D
347
266
1001
AcAecLayerStandard
1000

1000

  0
LAYER
  5
D8C
330
2
100
AcDbSymbolTableRecord
100
AcDbLayerTableRecord
  2
Defpoints
 70
     0
 62
     7
  6
Continuous
290
     0
370
    -3
390
1D
347
266
  0
LAYER
  5
3653
330
2
100
AcDbSymbolTableRecord
100
AcDbLayerTableRecord
  2
Standard
 70
     0
 62
     7
  6
Continuous
370
    -3
390
1D
347
266
  0
LAYER
  5
3D4F
330
2
100
AcDbSymbolTableRecord
100
AcDbLayerTableRecord
  2
_0-0_
 70
     0
 62
     7
  6
Continuous
370
    -3
390
1D
347
266
  0
LAYER
  5
3D51
330
2
100
AcDbSymbolTableRecord
100
AcDbLayerTableRecord
  2
_0-1_
 70
     0
 62
     7
  6
Continuous
370
    -3
390
1D
347
266
  0
LAYER
  5
3D52
330
2
100
AcDbSymbolTableRecord
100
AcDbLayerTableRecord
  2
_0-2_FRF74-1311
 70
     0
 62
     7
  6
Continuous
370
    -3
390
1D
347
266
  0
ENDTAB
  0
TABLE
  2
STYLE
  5
3
330
0
100
AcDbSymbolTable
 70
     2
  0
STYLE
  5
17
330
3
100
AcDbSymbolTableRecord
100
AcDbTextStyleTableRecord
  2
Standard
 70
     0
 40
0.0
 41
1.0
 50
0.0
 71
     0
 42
2.5
  3
txt
  4
BIGFONT.SHX
  0
STYLE
  5
39
330
3
100
AcDbSymbolTableRecord
100
AcDbTextStyleTableRecord
  2
ＭＳ ゴシック
 70
     0
 40
0.0
 41
1.0
 50
0.0
 71
     0
 42
2.5
  3
msgothic.ttc
  4
ＭＳ ゴシック
1001
ACAD
1000
ＭＳ ゴシック
1071
        0
  0
ENDTAB
  0
TABLE
  2
VIEW
  5
5
330
0
100
AcDbSymbolTable
 70
     0
  0
ENDTAB
  0
TABLE
  2
UCS
  5
6
330
0
100
AcDbSymbolTable
 70
     0
  0
ENDTAB
  0
TABLE
  2
APPID
  5
8
330
0
100
AcDbSymbolTable
 70
     4
  0
APPID
  5
16
330
8
100
AcDbSymbolTableRecord
100
AcDbRegAppTableRecord
  2
ACAD
 70
     0
  0
APPID
  5
7AC
330
8
100
AcDbSymbolTableRecord
100
AcDbRegAppTableRecord
  2
AcAecLayerStandard
 70
     0
  0
APPID
  5
E29
330
8
100
AcDbSymbolTableRecord
100
AcDbRegAppTableRecord
  2
ACAD_MLEADERVER
 70
     0
  0
APPID
  5
438D
330
8
100
AcDbSymbolTableRecord
100
AcDbRegAppTableRecord
  2
PLOTTRANSPARENCY
 70
     0
  0
ENDTAB
  0
TABLE
  2
DIMSTYLE
  5
9
330
0
100
AcDbSymbolTable
 70
     2
100
AcDbDimStyleTable
  0
DIMSTYLE
105
18
330
9
100
AcDbSymbolTableRecord
100
AcDbDimStyleTableRecord
  2
Standard
 70
     0
178
     0
340
17
  0
DIMSTYLE
105
57
102
{ACAD_REACTORS
330
431C
330
432E
330
433D
330
4355
330
4364
102
}
330
9
100
AcDbSymbolTableRecord
100
AcDbDimStyleTableRecord
  2
tfrom線あり
 70
     0
  3
<>
  4
[]
 41
2.0
 42
5.0
 43
0.9999999999999999
 44
0.0
 73
     0
 74
     0
 77
     1
 78
    11
140
5.0
141
0.0
143
1.0
147
3.0
171
     1
174
     1
178
     0
179
     2
271
     0
272
     1
276
     2
284
    11
285
    11
286
    11
289
     0
340
39
341
4E
342
4E
  0
ENDTAB
  0
TABLE
  2
BLOCK_RECORD
  5
1
330
0
100
AcDbSymbolTable
 70
    18
  0
BLOCK_RECORD
  5
A
102
{ACAD_XDICTIONARY
360
3D3D
102
}
330
1
100
AcDbSymbolTableRecord
100
AcDbBlockTableRecord
  2
*MODEL_SPACE
340
20
 70
     0
280
     1
281
     0
  0
BLOCK_RECORD
  5
B
330
1
100
AcDbSymbolTableRecord
100
AcDbBlockTableRecord
  2
*PAPER_SPACE
340
21
 70
     0
280
     1
281
     0
  0
BLOCK_RECORD
  5
4E
330
1
100
AcDbSymbolTableRecord
100
AcDbBlockTableRecord
  2
_DOT
340
0
102
{BLKREFS
331
3B8C
331
3B8D
331
3B98
331
3B99
331
3BA4
331
3BA5
331
3BB0
331
3BB1
331
3BBC
331
3BBD
331
3BC8
331
3BC9
331
3BD4
331
3BD5
331
3CFD
331
3CFE
331
3D0C
331
3D0D
331
3D2A
331
3D2B
331
3D36
331
3D37
331
4326
331
4325
331
4338
331
4337
331
0
331
0
331
0
331
435F
331
435E
331
436E
331
436D
331
4348
102
}
 70
     0
280
     1
281
     0
  0
BLOCK_RECORD
  5
68D
330
1
100
AcDbSymbolTableRecord
100
AcDbBlockTableRecord
  2
block 2
340
0
102
{BLKREFS
331
68C
331
1343
102
}
 70
     0
280
     1
281
     0
  0
BLOCK_RECORD
  5
3B86
330
1
100
AcDbSymbolTableRecord
100
AcDbBlockTableRecord
  2
*D2
340
0
 70
     0
280
     1
281
     0
  0
BLOCK_RECORD
  5
3B92
330
1
100
AcDbSymbolTableRecord
100
AcDbBlockTableRecord
  2
*D3
340
0
 70
     0
280
     1
281
     0
  0
BLOCK_RECORD
  5
3B9E
330
1
100
AcDbSymbolTableRecord
100
AcDbBlockTableRecord
  2
*D4
340
0
 70
     0
280
     1
281
     0
  0
BLOCK_RECORD
  5
3BAA
330
1
100
AcDbSymbolTableRecord
100
AcDbBlockTableRecord
  2
*D5
340
0
 70
     0
280
     1
281
     0
  0
BLOCK_RECORD
  5
3BB6
330
1
100
AcDbSymbolTableRecord
100
AcDbBlockTableRecord
  2
*D6
340
0
 70
     0
280
     1
281
     0
  0
BLOCK_RECORD
  5
3BC2
330
1
100
AcDbSymbolTableRecord
100
AcDbBlockTableRecord
  2
*D7
340
0
 70
     0
280
     1
281
     0
  0
BLOCK_RECORD
  5
3BCE
330
1
100
AcDbSymbolTableRecord
100
AcDbBlockTableRecord
  2
*D8
340
0
 70
     0
280
     1
281
     0
  0
BLOCK_RECORD
  5
3CF8
330
1
100
AcDbSymbolTableRecord
100
AcDbBlockTableRecord
  2
*D9
340
0
 70
     0
280
     1
281
     0
  0
BLOCK_RECORD
  5
3D07
330
1
100
AcDbSymbolTableRecord
100
AcDbBlockTableRecord
  2
*D10
340
0
 70
     0
280
     1
281
     0
  0
BLOCK_RECORD
  5
3D24
330
1
100
AcDbSymbolTableRecord
100
AcDbBlockTableRecord
  2
*D11
340
0
 70
     0
280
     1
281
     0
  0
BLOCK_RECORD
  5
3D30
330
1
100
AcDbSymbolTableRecord
100
AcDbBlockTableRecord
  2
*D12
340
0
 70
     0
280
     1
281
     0
  0
BLOCK_RECORD
  5
431F
330
1
100
AcDbSymbolTableRecord
100
AcDbBlockTableRecord
  2
*D14
340
0
 70
     0
280
     1
281
     0
  0
BLOCK_RECORD
  5
4331
330
1
100
AcDbSymbolTableRecord
100
AcDbBlockTableRecord
  2
*D15
340
0
 70
     0
280
     1
281
     0
  0
BLOCK_RECORD
  5
4340
330
1
100
AcDbSymbolTableRecord
100
AcDbBlockTableRecord
  2
*D16
340
0
 70
     0
280
     1
281
     0
  0
BLOCK_RECORD
  5
4358
330
1
100
AcDbSymbolTableRecord
100
AcDbBlockTableRecord
  2
*D17
340
0
 70
     0
280
     1
281
     0
  0
BLOCK_RECORD
  5
4367
330
1
100
AcDbSymbolTableRecord
100
AcDbBlockTableRecord
  2
*D18
340
0
 70
     0
280
     1
281
     0
  0
ENDTAB
  0
ENDSEC
  0
SECTION
  2
BLOCKS
  0
BLOCK
  5
D
330
A
100
AcDbEntity
  8
0
390
1D
100
AcDbBlockBegin
  2
*MODEL_SPACE
 70
     0
 10
0.0
 20
0.0
 30
0.0
  3
*MODEL_SPACE
  1
*MODEL_SPACE
  0
ENDBLK
  5
E
330
A
100
AcDbEntity
  8
0
390
1D
100
AcDbBlockEnd
  0
BLOCK
  5
F
330
B
100
AcDbEntity
 67
     1
  8
0
390
1D
100
AcDbBlockBegin
  2
*PAPER_SPACE
 70
     0
 10
0.0
 20
0.0
 30
0.0
  3
*PAPER_SPACE
  1
*PAPER_SPACE
  0
ENDBLK
  5
10
330
B
100
AcDbEntity
 67
     1
  8
0
390
1D
100
AcDbBlockEnd
  0
BLOCK
  5
2462
330
4E
100
AcDbEntity
  8
0
390
1D
100
AcDbBlockBegin
  2
_DOT
 70
     0
 10
0.0
 20
0.0
 30
0.0
  3
_DOT
  1
_DOT
  0
POLYLINE
  5
2464
330
4E
100
AcDbEntity
  8
0
  6
ByBlock
 62
     0
370
    -2
390
1D
100
AcDb2dPolyline
 66
     1
 10
0.0
 20
0.0
 30
0.0
 70
     1
 40
0.5
 41
0.5
  0
VERTEX
  5
2465
330
2464
100
AcDbEntity
  8
0
  6
ByBlock
 62
     0
370
    -2
390
1D
100
AcDbVertex
100
AcDb2dVertex
 10
-0.25
 20
0.0
 30
0.0
 42
1.0
  0
VERTEX
  5
2466
330
2464
100
AcDbEntity
  8
0
  6
ByBlock
 62
     0
370
    -2
390
1D
100
AcDbVertex
100
AcDb2dVertex
 10
0.25
 20
0.0
 30
0.0
 42
1.0
  0
SEQEND
  5
2467
330
2464
100
AcDbEntity
  8
0
390
1D
  0
LINE
  5
2468
330
4E
100
AcDbEntity
  8
0
  6
ByBlock
 62
     0
370
    -2
390
1D
100
AcDbLine
 10
-0.5
 20
0.0
 30
0.0
 11
-1.0
 21
0.0
 31
0.0
  0
ENDBLK
  5
2469
330
4E
100
AcDbEntity
  8
0
390
1D
100
AcDbBlockEnd
  0
BLOCK
  5
68E
330
68D
100
AcDbEntity
  8
0
100
AcDbBlockBegin
  2
block 2
 70
     0
 10
0.0
 20
0.0
 30
0.0
  3
block 2
  1
block 2
  0
ENDBLK
  5
6B0
330
68D
100
AcDbEntity
  8
0
100
AcDbBlockEnd
  0
BLOCK
  5
3B87
330
3B86
100
AcDbEntity
  8
0
100
AcDbBlockBegin
  2
*D2
 70
     1
 10
0.0
 20
0.0
 30
0.0
  3
*D2
  1

  0
LINE
  5
3B89
330
3B86
100
AcDbEntity
  8
DIM
 62
     0
370
    -2
100
AcDbLine
 10
120.4165303244005
 20
319.2077009873063
 30
0.0
 11
80.41653032440028
 21
319.2077009873061
 31
0.0
  0
LINE
  5
3B8A
330
3B86
100
AcDbEntity
  8
DIM
 62
     0
370
    -2
100
AcDbLine
 10
95.2823248987792
 20
182.2077009873063
 30
0.0
 11
80.41653032440077
 21
182.2077009873062
 31
0.0
  0
LINE
  5
3B8B
330
3B86
100
AcDbEntity
  8
DIM
 62
     0
370
    -2
100
AcDbLine
 10
80.41653032440028
 20
317.2077009873061
 30
0.0
 11
80.41653032440077
 21
184.2077009873062
 31
0.0
  0
INSERT
  5
3B8C
330
3B86
100
AcDbEntity
  8
DIM
 62
     0
370
    -2
100
AcDbBlockReference
  2
_DOT
 10
80.41653032440028
 20
319.2077009873061
 30
0.0
 41
2.0
 42
2.0
 43
2.0
 50
90.0000000000002
  0
INSERT
  5
3B8D
330
3B86
100
AcDbEntity
  8
DIM
 62
     0
370
    -2
100
AcDbBlockReference
  2
_DOT
 10
80.41653032440077
 20
182.2077009873062
 30
0.0
 41
2.0
 42
2.0
 43
2.0
 50
270.0000000000002
  0
MTEXT
  5
3B8E
330
3B86
100
AcDbEntity
  8
DIM
 62
     0
 48
0.05
100
AcDbMText
 10
72.41653032440053
 20
250.7077009873063
 30
0.0
 40
5.0
 41
0.0
 46
0.0
 71
     2
 72
     1
  1
\A1;137
  7
ＭＳ ゴシック
 11
-3.526781462166923E-15
 21
1.0
 31
0.0
 73
     1
 44
1.0
  0
POINT
  5
3B8F
330
3B86
100
AcDbEntity
  8
Defpoints
 62
     0
100
AcDbPoint
 10
125.4165303244005
 20
319.2077009873063
 30
0.0
  0
POINT
  5
3B90
330
3B86
100
AcDbEntity
  8
Defpoints
 62
     0
100
AcDbPoint
 10
100.2823248987792
 20
182.2077009873063
 30
0.0
  0
POINT
  5
3B91
330
3B86
100
AcDbEntity
  8
Defpoints
 62
     0
100
AcDbPoint
 10
80.41653032440077
 20
182.2077009873062
 30
0.0
  0
ENDBLK
  5
3B88
330
3B86
100
AcDbEntity
  8
0
100
AcDbBlockEnd
  0
BLOCK
  5
3B93
330
3B92
100
AcDbEntity
  8
0
100
AcDbBlockBegin
  2
*D3
 70
     1
 10
0.0
 20
0.0
 30
0.0
  3
*D3
  1

  0
LINE
  5
3B95
330
3B92
100
AcDbEntity
  8
DIM
 62
     0
370
    -2
100
AcDbLine
 10
100.4165303244005
 20
456.7854077805792
 30
0.0
 11
100.4165303244005
 21
469.9574301222169
 31
0.0
  0
LINE
  5
3B96
330
3B92
100
AcDbEntity
  8
DIM
 62
     0
370
    -2
100
AcDbLine
 10
172.4165303244005
 20
456.7854077805792
 30
0.0
 11
172.4165303244005
 21
469.9574301222169
 31
0.0
  0
LINE
  5
3B97
330
3B92
100
AcDbEntity
  8
DIM
 62
     0
370
    -2
100
AcDbLine
 10
102.4165303244005
 20
469.9574301222169
 30
0.0
 11
170.4165303244005
 21
469.9574301222169
 31
0.0
  0
INSERT
  5
3B98
330
3B92
100
AcDbEntity
  8
DIM
 62
     0
370
    -2
100
AcDbBlockReference
  2
_DOT
 10
100.4165303244005
 20
469.9574301222169
 30
0.0
 41
2.0
 42
2.0
 43
2.0
 50
180.0
  0
INSERT
  5
3B99
330
3B92
100
AcDbEntity
  8
DIM
 62
     0
370
    -2
100
AcDbBlockReference
  2
_DOT
 10
172.4165303244005
 20
469.9574301222169
 30
0.0
 41
2.0
 42
2.0
 43
2.0
  0
MTEXT
  5
3B9A
330
3B92
100
AcDbEntity
  8
DIM
 62
     0
 48
0.05
100
AcDbMText
 10
136.4165303244005
 20
477.9574301222169
 30
0.0
 40
5.0
 41
0.0
 46
0.0
 71
     2
 72
     1
  1
\A1;72
  7
ＭＳ ゴシック
 73
     1
 44
1.0
  0
POINT
  5
3B9B
330
3B92
100
AcDbEntity
  8
Defpoints
 62
     0
100
AcDbPoint
 10
100.4165303244005
 20
451.7854077805792
 30
0.0
  0
POINT
  5
3B9C
330
3B92
100
AcDbEntity
  8
Defpoints
 62
     0
100
AcDbPoint
 10
172.4165303244005
 20
451.7854077805792
 30
0.0
  0
POINT
  5
3B9D
330
3B92
100
AcDbEntity
  8
Defpoints
 62
     0
100
AcDbPoint
 10
172.4165303244005
 20
469.9574301222169
 30
0.0
  0
ENDBLK
  5
3B94
330
3B92
100
AcDbEntity
  8
0
100
AcDbBlockEnd
  0
BLOCK
  5
3B9F
330
3B9E
100
AcDbEntity
  8
0
100
AcDbBlockBegin
  2
*D4
 70
     1
 10
0.0
 20
0.0
 30
0.0
  3
*D4
  1

  0
LINE
  5
3BA1
330
3B9E
100
AcDbEntity
  8
DIM
 62
     0
370
    -2
100
AcDbLine
 10
95.4165303244005
 20
448.3104475998533
 30
0.0
 11
80.41653032440041
 21
448.3104475998533
 31
0.0
  0
LINE
  5
3BA2
330
3B9E
100
AcDbEntity
  8
DIM
 62
     0
370
    -2
100
AcDbLine
 10
120.4165303244005
 20
380.0604475998529
 30
0.0
 11
80.41653032440065
 21
380.0604475998528
 31
0.0
  0
LINE
  5
3BA3
330
3B9E
100
AcDbEntity
  8
DIM
 62
     0
370
    -2
100
AcDbLine
 10
80.41653032440041
 20
446.3104475998533
 30
0.0
 11
80.41653032440065
 21
382.0604475998528
 31
0.0
  0
INSERT
  5
3BA4
330
3B9E
100
AcDbEntity
  8
DIM
 62
     0
370
    -2
100
AcDbBlockReference
  2
_DOT
 10
80.41653032440041
 20
448.3104475998533
 30
0.0
 41
2.0
 42
2.0
 43
2.0
 50
90.0000000000002
  0
INSERT
  5
3BA5
330
3B9E
100
AcDbEntity
  8
DIM
 62
     0
370
    -2
100
AcDbBlockReference
  2
_DOT
 10
80.41653032440065
 20
380.0604475998528
 30
0.0
 41
2.0
 42
2.0
 43
2.0
 50
270.0000000000002
  0
MTEXT
  5
3BA6
330
3B9E
100
AcDbEntity
  8
DIM
 62
     0
 48
0.05
100
AcDbMText
 10
72.41653032440053
 20
414.1854475998531
 30
0.0
 40
5.0
 41
0.0
 46
0.0
 71
     2
 72
     1
  1
\A1;68
  7
ＭＳ ゴシック
 11
-3.539700075581425E-15
 21
1.0
 31
0.0
 73
     1
 44
1.0
  0
POINT
  5
3BA7
330
3B9E
100
AcDbEntity
  8
Defpoints
 62
     0
100
AcDbPoint
 10
100.4165303244005
 20
448.3104475998533
 30
0.0
  0
POINT
  5
3BA8
330
3B9E
100
AcDbEntity
  8
Defpoints
 62
     0
100
AcDbPoint
 10
125.4165303244005
 20
380.0604475998529
 30
0.0
  0
POINT
  5
3BA9
330
3B9E
100
AcDbEntity
  8
Defpoints
 62
     0
100
AcDbPoint
 10
80.41653032440065
 20
380.0604475998528
 30
0.0
  0
ENDBLK
  5
3BA0
330
3B9E
100
AcDbEntity
  8
0
100
AcDbBlockEnd
  0
BLOCK
  5
3BAB
330
3BAA
100
AcDbEntity
  8
0
100
AcDbBlockBegin
  2
*D5
 70
     1
 10
0.0
 20
0.0
 30
0.0
  3
*D5
  1

  0
LINE
  5
3BAD
330
3BAA
100
AcDbEntity
  8
DIM
 62
     0
370
    -2
100
AcDbLine
 10
125.4165303244005
 20
375.0604475998529
 30
0.0
 11
125.4165303244005
 21
361.7949884833052
 31
0.0
  0
LINE
  5
3BAE
330
3BAA
100
AcDbEntity
  8
DIM
 62
     0
370
    -2
100
AcDbLine
 10
147.4165303244005
 20
375.0604475998529
 30
0.0
 11
147.4165303244005
 21
361.7949884833052
 31
0.0
  0
LINE
  5
3BAF
330
3BAA
100
AcDbEntity
  8
DIM
 62
     0
370
    -2
100
AcDbLine
 10
127.4165303244005
 20
361.7949884833052
 30
0.0
 11
145.4165303244005
 21
361.7949884833052
 31
0.0
  0
INSERT
  5
3BB0
330
3BAA
100
AcDbEntity
  8
DIM
 62
     0
370
    -2
100
AcDbBlockReference
  2
_DOT
 10
125.4165303244005
 20
361.7949884833052
 30
0.0
 41
2.0
 42
2.0
 43
2.0
 50
180.0
  0
INSERT
  5
3BB1
330
3BAA
100
AcDbEntity
  8
DIM
 62
     0
370
    -2
100
AcDbBlockReference
  2
_DOT
 10
147.4165303244005
 20
361.7949884833052
 30
0.0
 41
2.0
 42
2.0
 43
2.0
  0
MTEXT
  5
3BB2
330
3BAA
100
AcDbEntity
  8
DIM
 62
     0
 48
0.05
100
AcDbMText
 10
136.4165303244005
 20
369.7949884833052
 30
0.0
 40
5.0
 41
0.0
 46
0.0
 71
     2
 72
     1
  1
\A1;22
  7
ＭＳ ゴシック
 73
     1
 44
1.0
  0
POINT
  5
3BB3
330
3BAA
100
AcDbEntity
  8
Defpoints
 62
     0
100
AcDbPoint
 10
125.4165303244005
 20
380.0604475998529
 30
0.0
  0
POINT
  5
3BB4
330
3BAA
100
AcDbEntity
  8
Defpoints
 62
     0
100
AcDbPoint
 10
147.4165303244005
 20
380.0604475998529
 30
0.0
  0
POINT
  5
3BB5
330
3BAA
100
AcDbEntity
  8
Defpoints
 62
     0
100
AcDbPoint
 10
147.4165303244005
 20
361.7949884833052
 30
0.0
  0
ENDBLK
  5
3BAC
330
3BAA
100
AcDbEntity
  8
0
100
AcDbBlockEnd
  0
BLOCK
  5
3BB7
330
3BB6
100
AcDbEntity
  8
0
100
AcDbBlockBegin
  2
*D6
 70
     1
 10
0.0
 20
0.0
 30
0.0
  3
*D6
  1

  0
LINE
  5
3BB9
330
3BB6
100
AcDbEntity
  8
DIM
 62
     0
370
    -2
100
AcDbLine
 10
176.6454837165862
 20
212.2077009873064
 30
0.0
 11
193.3903881603889
 21
212.2077009873063
 31
0.0
  0
LINE
  5
3BBA
330
3BB6
100
AcDbEntity
  8
DIM
 62
     0
370
    -2
100
AcDbLine
 10
176.6454837165862
 20
182.2077009873063
 30
0.0
 11
193.3903881603889
 21
182.2077009873062
 31
0.0
  0
LINE
  5
3BBB
330
3BB6
100
AcDbEntity
  8
DIM
 62
     0
370
    -2
100
AcDbLine
 10
193.3903881603889
 20
210.2077009873063
 30
0.0
 11
193.3903881603889
 21
184.2077009873062
 31
0.0
  0
INSERT
  5
3BBC
330
3BB6
100
AcDbEntity
  8
DIM
 62
     0
370
    -2
100
AcDbBlockReference
  2
_DOT
 10
193.3903881603889
 20
212.2077009873063
 30
0.0
 41
2.0
 42
2.0
 43
2.0
 50
89.99999999999982
  0
INSERT
  5
3BBD
330
3BB6
100
AcDbEntity
  8
DIM
 62
     0
370
    -2
100
AcDbBlockReference
  2
_DOT
 10
193.3903881603889
 20
182.2077009873062
 30
0.0
 41
2.0
 42
2.0
 43
2.0
 50
269.9999999999998
  0
MTEXT
  5
3BBE
330
3BB6
100
AcDbEntity
  8
DIM
 62
     0
 48
0.05
100
AcDbMText
 10
185.3903881603889
 20
197.2077009873064
 30
0.0
 40
5.0
 41
0.0
 46
0.0
 71
     2
 72
     1
  1
\A1;30
  7
ＭＳ ゴシック
 11
2.842170943040393E-15
 21
1.0
 31
0.0
 73
     1
 44
1.0
  0
POINT
  5
3BBF
330
3BB6
100
AcDbEntity
  8
Defpoints
 62
     0
100
AcDbPoint
 10
171.6454837165862
 20
212.2077009873064
 30
0.0
  0
POINT
  5
3BC0
330
3BB6
100
AcDbEntity
  8
Defpoints
 62
     0
100
AcDbPoint
 10
171.6454837165862
 20
182.2077009873063
 30
0.0
  0
POINT
  5
3BC1
330
3BB6
100
AcDbEntity
  8
Defpoints
 62
     0
100
AcDbPoint
 10
193.3903881603888
 20
182.2077009873062
 30
0.0
  0
ENDBLK
  5
3BB8
330
3BB6
100
AcDbEntity
  8
0
100
AcDbBlockEnd
  0
BLOCK
  5
3BC3
330
3BC2
100
AcDbEntity
  8
0
100
AcDbBlockBegin
  2
*D7
 70
     1
 10
0.0
 20
0.0
 30
0.0
  3
*D7
  1

  0
LINE
  5
3BC5
330
3BC2
100
AcDbEntity
  8
DIM
 62
     0
370
    -2
100
AcDbLine
 10
177.9901558885232
 20
438.06044758632
 30
0.0
 11
190.3107608583836
 21
438.06044758632
 31
0.0
  0
LINE
  5
3BC6
330
3BC2
100
AcDbEntity
  8
DIM
 62
     0
370
    -2
100
AcDbLine
 10
177.4165317216699
 20
448.31044758632
 30
0.0
 11
190.3107608583836
 21
448.31044758632
 31
0.0
  0
LINE
  5
3BC7
330
3BC2
100
AcDbEntity
  8
DIM
 62
     0
370
    -2
100
AcDbLine
 10
190.3107608583836
 20
440.06044758632
 30
0.0
 11
190.3107608583836
 21
446.31044758632
 31
0.0
  0
INSERT
  5
3BC8
330
3BC2
100
AcDbEntity
  8
DIM
 62
     0
370
    -2
100
AcDbBlockReference
  2
_DOT
 10
190.3107608583836
 20
438.06044758632
 30
0.0
 41
2.0
 42
2.0
 43
2.0
 50
270.0
  0
INSERT
  5
3BC9
330
3BC2
100
AcDbEntity
  8
DIM
 62
     0
370
    -2
100
AcDbBlockReference
  2
_DOT
 10
190.3107608583836
 20
448.31044758632
 30
0.0
 41
2.0
 42
2.0
 43
2.0
 50
90.0
  0
MTEXT
  5
3BCA
330
3BC2
100
AcDbEntity
  8
DIM
 62
     0
 48
0.05
100
AcDbMText
 10
182.3107608583836
 20
443.18544758632
 30
0.0
 40
5.0
 41
0.0
 46
0.0
 71
     2
 72
     1
  1
\A1;10
  7
ＭＳ ゴシック
 11
0.0
 21
1.0
 31
0.0
 73
     1
 44
1.0
  0
POINT
  5
3BCB
330
3BC2
100
AcDbEntity
  8
Defpoints
 62
     0
100
AcDbPoint
 10
172.9901558885232
 20
438.06044758632
 30
0.0
  0
POINT
  5
3BCC
330
3BC2
100
AcDbEntity
  8
Defpoints
 62
     0
100
AcDbPoint
 10
172.4165317216699
 20
448.31044758632
 30
0.0
  0
POINT
  5
3BCD
330
3BC2
100
AcDbEntity
  8
Defpoints
 62
     0
100
AcDbPoint
 10
190.3107608583836
 20
448.31044758632
 30
0.0
  0
ENDBLK
  5
3BC4
330
3BC2
100
AcDbEntity
  8
0
100
AcDbBlockEnd
  0
BLOCK
  5
3BCF
330
3BCE
100
AcDbEntity
  8
0
100
AcDbBlockBegin
  2
*D8
 70
     1
 10
0.0
 20
0.0
 30
0.0
  3
*D8
  1

  0
LINE
  5
3BD1
330
3BCE
100
AcDbEntity
  8
DIM
 62
     0
370
    -2
100
AcDbLine
 10
182.9901558885232
 20
438.06044758632
 30
0.0
 11
190.3107608583836
 21
438.06044758632
 31
0.0
  0
LINE
  5
3BD2
330
3BCE
100
AcDbEntity
  8
DIM
 62
     0
370
    -2
100
AcDbLine
 10
150.8011504144714
 20
380.0604500198659
 30
0.0
 11
190.3107608583836
 21
380.0604500198659
 31
0.0
  0
LINE
  5
3BD3
330
3BCE
100
AcDbEntity
  8
DIM
 62
     0
370
    -2
100
AcDbLine
 10
190.3107608583836
 20
436.06044758632
 30
0.0
 11
190.3107608583836
 21
382.0604500198659
 31
0.0
  0
INSERT
  5
3BD4
330
3BCE
100
AcDbEntity
  8
DIM
 62
     0
370
    -2
100
AcDbBlockReference
  2
_DOT
 10
190.3107608583836
 20
438.06044758632
 30
0.0
 41
2.0
 42
2.0
 43
2.0
 50
90.0
  0
INSERT
  5
3BD5
330
3BCE
100
AcDbEntity
  8
DIM
 62
     0
370
    -2
100
AcDbBlockReference
  2
_DOT
 10
190.3107608583836
 20
380.0604500198659
 30
0.0
 41
2.0
 42
2.0
 43
2.0
 50
270.0
  0
MTEXT
  5
3BD6
330
3BCE
100
AcDbEntity
  8
DIM
 62
     0
 48
0.05
100
AcDbMText
 10
184.8107608583836
 20
409.060448803093
 30
0.0
 40
5.0
 41
0.0
 46
0.0
 71
     5
 72
     1
  1
\A1;58
  7
ＭＳ ゴシック
 11
0.0
 21
1.0
 31
0.0
 73
     1
 44
1.0
  0
POINT
  5
3BD7
330
3BCE
100
AcDbEntity
  8
Defpoints
 62
     0
100
AcDbPoint
 10
177.9901558885232
 20
438.06044758632
 30
0.0
  0
POINT
  5
3BD8
330
3BCE
100
AcDbEntity
  8
Defpoints
 62
     0
100
AcDbPoint
 10
145.8011504144714
 20
380.0604500198659
 30
0.0
  0
POINT
  5
3BD9
330
3BCE
100
AcDbEntity
  8
Defpoints
 62
     0
100
AcDbPoint
 10
190.3107608583836
 20
380.0604500198659
 30
0.0
  0
ENDBLK
  5
3BD0
330
3BCE
100
AcDbEntity
  8
0
100
AcDbBlockEnd
  0
BLOCK
  5
3CF9
330
3CF8
100
AcDbEntity
  8
0
100
AcDbBlockBegin
  2
*D9
 70
     1
 10
0.0
 20
0.0
 30
0.0
  3
*D9
  1

  0
LINE
  5
3CFA
330
3CF8
100
AcDbEntity
  8
DIM
 62
     0
370
    -2
100
AcDbLine
 10
0.5
 20
67.50177050455927
 30
0.0
 11
0.5
 21
97.57489301398171
 31
0.0
  0
LINE
  5
3CFB
330
3CF8
100
AcDbEntity
  8
DIM
 62
     0
370
    -2
100
AcDbLine
 10
57.58899696048613
 20
67.50177050455927
 30
0.0
 11
57.58899696048613
 21
97.57489301398171
 31
0.0
  0
LINE
  5
3CFC
330
3CF8
100
AcDbEntity
  8
DIM
 62
     0
370
    -2
100
AcDbLine
 10
2.5
 20
97.57489301398171
 30
0.0
 11
55.58899696048613
 21
97.57489301398171
 31
0.0
  0
INSERT
  5
3CFD
330
3CF8
100
AcDbEntity
  8
DIM
 62
     0
370
    -2
100
AcDbBlockReference
  2
_DOT
 10
0.5
 20
97.57489301398171
 30
0.0
 41
2.0
 42
2.0
 43
2.0
 50
180.0
  0
INSERT
  5
3CFE
330
3CF8
100
AcDbEntity
  8
DIM
 62
     0
370
    -2
100
AcDbBlockReference
  2
_DOT
 10
57.58899696048613
 20
97.57489301398171
 30
0.0
 41
2.0
 42
2.0
 43
2.0
  0
MTEXT
  5
3CFF
330
3CF8
100
AcDbEntity
  8
DIM
 62
     0
100
AcDbMText
 10
29.04449848024305
 20
103.0748930139817
 30
0.0
 40
5.0
 41
0.0
 46
0.0
 71
     5
 72
     1
  1
\A1;57
  7
ＭＳ ゴシック
 73
     1
 44
1.0
  0
POINT
  5
3D00
330
3CF8
100
AcDbEntity
  8
Defpoints
 62
     0
100
AcDbPoint
 10
0.5
 20
62.50177050455927
 30
0.0
  0
POINT
  5
3D01
330
3CF8
100
AcDbEntity
  8
Defpoints
 62
     0
100
AcDbPoint
 10
57.58899696048613
 20
62.50177050455927
 30
0.0
  0
POINT
  5
3D02
330
3CF8
100
AcDbEntity
  8
Defpoints
 62
     0
100
AcDbPoint
 10
57.58899696048613
 20
97.57489301398171
 30
0.0
  0
ENDBLK
  5
3D03
330
3CF8
100
AcDbEntity
  8
0
100
AcDbBlockEnd
  0
BLOCK
  5
3D08
330
3D07
100
AcDbEntity
  8
0
100
AcDbBlockBegin
  2
*D10
 70
     1
 10
0.0
 20
0.0
 30
0.0
  3
*D10
  1

  0
LINE
  5
3D09
330
3D07
100
AcDbEntity
  8
DIM
 62
     0
370
    -2
100
AcDbLine
 10
10.10104278775087
 20
57.50177050455927
 30
0.0
 11
10.10104278775087
 21
19.15243768996962
 31
0.0
  0
LINE
  5
3D0A
330
3D07
100
AcDbEntity
  8
DIM
 62
     0
370
    -2
100
AcDbLine
 10
47.98795417273527
 20
57.50177050455927
 30
0.0
 11
47.98795417273527
 21
19.15243768996962
 31
0.0
  0
LINE
  5
3D0B
330
3D07
100
AcDbEntity
  8
DIM
 62
     0
370
    -2
100
AcDbLine
 10
12.10104278775087
 20
19.15243768996962
 30
0.0
 11
45.98795417273527
 21
19.15243768996962
 31
0.0
  0
INSERT
  5
3D0C
330
3D07
100
AcDbEntity
  8
DIM
 62
     0
370
    -2
100
AcDbBlockReference
  2
_DOT
 10
10.10104278775087
 20
19.15243768996962
 30
0.0
 41
2.0
 42
2.0
 43
2.0
 50
180.0
  0
INSERT
  5
3D0D
330
3D07
100
AcDbEntity
  8
DIM
 62
     0
370
    -2
100
AcDbBlockReference
  2
_DOT
 10
47.98795417273527
 20
19.15243768996962
 30
0.0
 41
2.0
 42
2.0
 43
2.0
  0
MTEXT
  5
3D0E
330
3D07
100
AcDbEntity
  8
DIM
 62
     0
100
AcDbMText
 10
29.04449848024307
 20
24.65243768996962
 30
0.0
 40
5.0
 41
0.0
 46
0.0
 71
     5
 72
     1
  1
\A1;38
  7
ＭＳ ゴシック
 73
     1
 44
1.0
  0
POINT
  5
3D0F
330
3D07
100
AcDbEntity
  8
Defpoints
 62
     0
100
AcDbPoint
 10
10.10104278775087
 20
62.50177050455927
 30
0.0
  0
POINT
  5
3D10
330
3D07
100
AcDbEntity
  8
Defpoints
 62
     0
100
AcDbPoint
 10
47.98795417273527
 20
62.50177050455927
 30
0.0
  0
POINT
  5
3D11
330
3D07
100
AcDbEntity
  8
Defpoints
 62
     0
100
AcDbPoint
 10
47.98795417273527
 20
19.15243768996962
 30
0.0
  0
ENDBLK
  5
3D12
330
3D07
100
AcDbEntity
  8
0
100
AcDbBlockEnd
  0
BLOCK
  5
3D25
330
3D24
100
AcDbEntity
  8
0
100
AcDbBlockBegin
  2
*D11
 70
     1
 10
0.0
 20
0.0
 30
0.0
  3
*D11
  1

  0
LINE
  5
3D27
330
3D24
100
AcDbEntity
  8
DIM
 62
     0
370
    -2
100
AcDbLine
 10
164.9604863221886
 20
338.6076747477204
 30
0.0
 11
164.9604863221886
 21
403.7539197665653
 31
0.0
  0
LINE
  5
3D28
330
3D24
100
AcDbEntity
  8
DIM
 62
     0
370
    -2
100
AcDbLine
 10
279.1384802431609
 20
338.6076747477204
 30
0.0
 11
279.1384802431609
 21
403.7539197665653
 31
0.0
  0
LINE
  5
3D29
330
3D24
100
AcDbEntity
  8
DIM
 62
     0
370
    -2
100
AcDbLine
 10
166.9604863221886
 20
403.7539197665653
 30
0.0
 11
277.1384802431609
 21
403.7539197665653
 31
0.0
  0
INSERT
  5
3D2A
330
3D24
100
AcDbEntity
  8
DIM
 62
     0
370
    -2
100
AcDbBlockReference
  2
_DOT
 10
164.9604863221886
 20
403.7539197665653
 30
0.0
 41
2.0
 42
2.0
 43
2.0
 50
180.0
  0
INSERT
  5
3D2B
330
3D24
100
AcDbEntity
  8
DIM
 62
     0
370
    -2
100
AcDbBlockReference
  2
_DOT
 10
279.1384802431609
 20
403.7539197665653
 30
0.0
 41
2.0
 42
2.0
 43
2.0
  0
MTEXT
  5
3D2C
330
3D24
100
AcDbEntity
  8
DIM
 62
     0
100
AcDbMText
 10
222.0494832826747
 20
409.2539197665653
 30
0.0
 40
5.0
 41
0.0
 46
0.0
 71
     5
 72
     1
  1
\A1;114
  7
ＭＳ ゴシック
 73
     1
 44
1.0
  0
POINT
  5
3D2D
330
3D24
100
AcDbEntity
  8
Defpoints
 62
     0
100
AcDbPoint
 10
164.9604863221886
 20
333.6076747477204
 30
0.0
  0
POINT
  5
3D2E
330
3D24
100
AcDbEntity
  8
Defpoints
 62
     0
100
AcDbPoint
 10
279.1384802431609
 20
333.6076747477204
 30
0.0
  0
POINT
  5
3D2F
330
3D24
100
AcDbEntity
  8
Defpoints
 62
     0
100
AcDbPoint
 10
279.1384802431609
 20
403.7539197665653
 30
0.0
  0
ENDBLK
  5
3D26
330
3D24
100
AcDbEntity
  8
0
100
AcDbBlockEnd
  0
BLOCK
  5
3D31
330
3D30
100
AcDbEntity
  8
0
100
AcDbBlockBegin
  2
*D12
 70
     1
 10
0.0
 20
0.0
 30
0.0
  3
*D12
  1

  0
LINE
  5
3D33
330
3D30
100
AcDbEntity
  8
DIM
 62
     0
370
    -2
100
AcDbLine
 10
184.1625718976903
 20
328.6076747477204
 30
0.0
 11
184.1625718976903
 21
246.9090091185411
 31
0.0
  0
LINE
  5
3D34
330
3D30
100
AcDbEntity
  8
DIM
 62
     0
370
    -2
100
AcDbLine
 10
259.9363946676591
 20
328.6076747477204
 30
0.0
 11
259.9363946676591
 21
246.9090091185411
 31
0.0
  0
LINE
  5
3D35
330
3D30
100
AcDbEntity
  8
DIM
 62
     0
370
    -2
100
AcDbLine
 10
186.1625718976903
 20
246.9090091185411
 30
0.0
 11
257.9363946676591
 21
246.9090091185411
 31
0.0
  0
INSERT
  5
3D36
330
3D30
100
AcDbEntity
  8
DIM
 62
     0
370
    -2
100
AcDbBlockReference
  2
_DOT
 10
184.1625718976903
 20
246.9090091185411
 30
0.0
 41
2.0
 42
2.0
 43
2.0
 50
180.0
  0
INSERT
  5
3D37
330
3D30
100
AcDbEntity
  8
DIM
 62
     0
370
    -2
100
AcDbBlockReference
  2
_DOT
 10
259.9363946676591
 20
246.9090091185411
 30
0.0
 41
2.0
 42
2.0
 43
2.0
  0
MTEXT
  5
3D38
330
3D30
100
AcDbEntity
  8
DIM
 62
     0
100
AcDbMText
 10
222.0494832826747
 20
252.4090091185411
 30
0.0
 40
5.0
 41
0.0
 46
0.0
 71
     5
 72
     1
  1
\A1;76
  7
ＭＳ ゴシック
 73
     1
 44
1.0
  0
POINT
  5
3D39
330
3D30
100
AcDbEntity
  8
Defpoints
 62
     0
100
AcDbPoint
 10
184.1625718976903
 20
333.6076747477204
 30
0.0
  0
POINT
  5
3D3A
330
3D30
100
AcDbEntity
  8
Defpoints
 62
     0
100
AcDbPoint
 10
259.9363946676591
 20
333.6076747477204
 30
0.0
  0
POINT
  5
3D3B
330
3D30
100
AcDbEntity
  8
Defpoints
 62
     0
100
AcDbPoint
 10
259.9363946676591
 20
246.9090091185411
 30
0.0
  0
ENDBLK
  5
3D32
330
3D30
100
AcDbEntity
  8
0
100
AcDbBlockEnd
  0
BLOCK
  5
4320
330
431F
100
AcDbEntity
  8
0
100
AcDbBlockBegin
  2
*D14
 70
     1
 10
0.0
 20
0.0
 30
0.0
  3
*D14
  1

  0
LINE
  5
4322
330
431F
100
AcDbEntity
  8
DIM
 62
     0
370
    -2
100
AcDbLine
 10
294.527272797516
 20
437.793943729647
 30
0.0
 11
281.920337795122
 21
437.793943729647
 31
0.0
  0
LINE
  5
4323
330
431F
100
AcDbEntity
  8
DIM
 62
     0
370
    -2
100
AcDbLine
 10
294.5272727975168
 20
372.793943729647
 30
0.0
 11
281.920337795122
 21
372.793943729647
 31
0.0
  0
LINE
  5
4324
330
431F
100
AcDbEntity
  8
DIM
 62
     0
370
    -2
100
AcDbLine
 10
281.920337795122
 20
435.793943729647
 30
0.0
 11
281.920337795122
 21
374.793943729647
 31
0.0
  0
INSERT
  5
4325
330
431F
100
AcDbEntity
  8
DIM
 62
     0
370
    -2
100
AcDbBlockReference
  2
_DOT
 10
281.920337795122
 20
437.793943729647
 30
0.0
 41
2.0
 42
2.0
 43
2.0
 50
90.0
  0
INSERT
  5
4326
330
431F
100
AcDbEntity
  8
DIM
 62
     0
370
    -2
100
AcDbBlockReference
  2
_DOT
 10
281.920337795122
 20
372.793943729647
 30
0.0
 41
2.0
 42
2.0
 43
2.0
 50
270.0
  0
MTEXT
  5
4327
330
431F
100
AcDbEntity
  8
DIM
 62
     0
100
AcDbMText
 10
276.4193999434276
 20
405.293943729647
 30
0.0
 40
5.0
 41
0.0
 46
0.0
 71
     5
 72
     1
  1
\A1;%%c65
  7
ＭＳ ゴシック
 11
0.0
 21
1.0
 31
0.0
 73
     1
 44
1.0
  0
POINT
  5
4328
330
431F
100
AcDbEntity
  8
Defpoints
 62
     0
100
AcDbPoint
 10
299.527272797516
 20
437.793943729647
 30
0.0
  0
POINT
  5
4329
330
431F
100
AcDbEntity
  8
Defpoints
 62
     0
100
AcDbPoint
 10
299.5272727975168
 20
372.793943729647
 30
0.0
  0
POINT
  5
432A
330
431F
100
AcDbEntity
  8
Defpoints
 62
     0
100
AcDbPoint
 10
281.920337795122
 20
372.793943729647
 30
0.0
  0
ENDBLK
  5
4321
330
431F
100
AcDbEntity
  8
0
100
AcDbBlockEnd
  0
BLOCK
  5
4332
330
4331
100
AcDbEntity
  8
0
100
AcDbBlockBegin
  2
*D15
 70
     1
 10
0.0
 20
0.0
 30
0.0
  3
*D15
  1

  0
LINE
  5
4334
330
4331
100
AcDbEntity
  8
DIM
 62
     0
370
    -2
100
AcDbLine
 10
307.027272797516
 20
362.293943729647
 30
0.0
 11
307.027272797516
 21
291.2939437296473
 31
0.0
  0
LINE
  5
4335
330
4331
100
AcDbEntity
  8
DIM
 62
     0
370
    -2
100
AcDbLine
 10
342.0272727975164
 20
310.2939437296473
 30
0.0
 11
342.0272727975164
 21
291.2939437296473
 31
0.0
  0
LINE
  5
4336
330
4331
100
AcDbEntity
  8
DIM
 62
     0
370
    -2
100
AcDbLine
 10
309.027272797516
 20
291.2939437296473
 30
0.0
 11
340.0272727975164
 21
291.2939437296473
 31
0.0
  0
INSERT
  5
4337
330
4331
100
AcDbEntity
  8
DIM
 62
     0
370
    -2
100
AcDbBlockReference
  2
_DOT
 10
307.027272797516
 20
291.2939437296473
 30
0.0
 41
2.0
 42
2.0
 43
2.0
 50
180.0
  0
INSERT
  5
4338
330
4331
100
AcDbEntity
  8
DIM
 62
     0
370
    -2
100
AcDbBlockReference
  2
_DOT
 10
342.0272727975164
 20
291.2939437296473
 30
0.0
 41
2.0
 42
2.0
 43
2.0
  0
MTEXT
  5
4339
330
4331
100
AcDbEntity
  8
DIM
 62
     0
100
AcDbMText
 10
324.5272727975162
 20
296.7948815813417
 30
0.0
 40
5.0
 41
0.0
 46
0.0
 71
     5
 72
     1
  1
\A1;35
  7
ＭＳ ゴシック
 73
     1
 44
1.0
  0
POINT
  5
433A
330
4331
100
AcDbEntity
  8
Defpoints
 62
     0
100
AcDbPoint
 10
307.027272797516
 20
367.293943729647
 30
0.0
  0
POINT
  5
433B
330
4331
100
AcDbEntity
  8
Defpoints
 62
     0
100
AcDbPoint
 10
342.0272727975164
 20
315.2939437296473
 30
0.0
  0
POINT
  5
433C
330
4331
100
AcDbEntity
  8
Defpoints
 62
     0
100
AcDbPoint
 10
342.0272727975164
 20
291.2939437296473
 30
0.0
  0
ENDBLK
  5
4333
330
4331
100
AcDbEntity
  8
0
100
AcDbBlockEnd
  0
BLOCK
  5
4341
330
4340
100
AcDbEntity
  8
0
100
AcDbBlockBegin
  2
*D16
 70
     1
 10
0.0
 20
0.0
 30
0.0
  3
*D16
  1

  0
LINE
  5
4343
330
4340
100
AcDbEntity
  8
DIM
 62
     0
370
    -2
100
AcDbLine
 10
338.0272764695613
 20
314.2939437296473
 30
0.0
 11
338.0272764695613
 21
309.0735053538864
 31
0.0
  0
LINE
  5
4344
330
4340
100
AcDbEntity
  8
DIM
 62
     0
370
    -2
100
AcDbLine
 10
346.0272764695613
 20
314.2939437296473
 30
0.0
 11
346.0272764695613
 21
309.0735053538864
 31
0.0
  0
LINE
  5
4345
330
4340
100
AcDbEntity
  8
DIM
 62
     0
370
    -2
100
AcDbLine
 10
338.0272764695613
 20
309.0735053538864
 30
0.0
 11
321.984229076789
 21
309.0735053538864
 31
0.0
  0
LINE
  5
4346
330
4340
100
AcDbEntity
  8
DIM
 62
     0
370
    -2
100
AcDbLine
 10
340.0272764695613
 20
309.0735053538864
 30
0.0
 11
344.0272764695613
 21
309.0735053538864
 31
0.0
  0
LINE
  5
4347
330
4340
100
AcDbEntity
  8
DIM
 62
     0
370
    -2
100
AcDbLine
 10
340.0272764695613
 20
309.0735053538864
 30
0.0
 11
342.0272764695613
 21
309.0735053538864
 31
0.0
  0
INSERT
  5
4348
330
4340
100
AcDbEntity
  8
DIM
 62
     0
370
    -2
100
AcDbBlockReference
  2
_DOT
 10
338.0272764695613
 20
309.0735053538864
 30
0.0
 41
2.0
 42
2.0
 43
2.0
 50
180.0
  0
INSERT
  5
4349
330
4340
100
AcDbEntity
  8
DIM
 62
     0
370
    -2
100
AcDbBlockReference
  2
_DOT
 10
346.0272764695613
 20
309.0735053538864
 30
0.0
 41
2.0
 42
2.0
 43
2.0
  0
MTEXT
  5
434A
330
4340
100
AcDbEntity
  8
DIM
 62
     0
100
AcDbMText
 10
328.0057527731752
 20
314.5735053538864
 30
0.0
 40
5.0
 41
0.0
 46
0.0
 71
     5
 72
     1
  1
\A1;%%C8
  7
ＭＳ ゴシック
 73
     1
 44
1.0
  0
POINT
  5
434B
330
4340
100
AcDbEntity
  8
Defpoints
 62
     0
100
AcDbPoint
 10
338.0272764695613
 20
319.2939437296473
 30
0.0
  0
POINT
  5
434C
330
4340
100
AcDbEntity
  8
Defpoints
 62
     0
100
AcDbPoint
 10
346.0272764695613
 20
319.2939437296473
 30
0.0
  0
POINT
  5
434D
330
4340
100
AcDbEntity
  8
Defpoints
 62
     0
100
AcDbPoint
 10
346.0272764695613
 20
309.0735053538864
 30
0.0
  0
ENDBLK
  5
4342
330
4340
100
AcDbEntity
  8
0
100
AcDbBlockEnd
  0
BLOCK
  5
4359
330
4358
100
AcDbEntity
  8
0
100
AcDbBlockBegin
  2
*D17
 70
     1
 10
0.0
 20
0.0
 30
0.0
  3
*D17
  1

  0
LINE
  5
435B
330
4358
100
AcDbEntity
  8
DIM
 62
     0
370
    -2
100
AcDbLine
 10
55.79836541686598
 20
324.2939437296471
 30
0.0
 11
55.79836541686598
 21
278.2909364282244
 31
0.0
  0
LINE
  5
435C
330
4358
100
AcDbEntity
  8
DIM
 62
     0
370
    -2
100
AcDbLine
 10
191.798365416866
 20
324.2939437296473
 30
0.0
 11
191.798365416866
 21
278.2909364282244
 31
0.0
  0
LINE
  5
435D
330
4358
100
AcDbEntity
  8
DIM
 62
     0
370
    -2
100
AcDbLine
 10
57.79836541686598
 20
278.2909364282244
 30
0.0
 11
189.798365416866
 21
278.2909364282244
 31
0.0
  0
INSERT
  5
435E
330
4358
100
AcDbEntity
  8
DIM
 62
     0
370
    -2
100
AcDbBlockReference
  2
_DOT
 10
55.79836541686598
 20
278.2909364282244
 30
0.0
 41
2.0
 42
2.0
 43
2.0
 50
180.0
  0
INSERT
  5
435F
330
4358
100
AcDbEntity
  8
DIM
 62
     0
370
    -2
100
AcDbBlockReference
  2
_DOT
 10
191.798365416866
 20
278.2909364282244
 30
0.0
 41
2.0
 42
2.0
 43
2.0
  0
MTEXT
  5
4360
330
4358
100
AcDbEntity
  8
DIM
 62
     0
100
AcDbMText
 10
123.798365416866
 20
283.7918742799188
 30
0.0
 40
5.0
 41
0.0
 46
0.0
 71
     5
 72
     1
  1
\A1;136
  7
ＭＳ ゴシック
 73
     1
 44
1.0
  0
POINT
  5
4361
330
4358
100
AcDbEntity
  8
Defpoints
 62
     0
100
AcDbPoint
 10
55.79836541686598
 20
329.2939437296471
 30
0.0
  0
POINT
  5
4362
330
4358
100
AcDbEntity
  8
Defpoints
 62
     0
100
AcDbPoint
 10
191.798365416866
 20
329.2939437296473
 30
0.0
  0
POINT
  5
4363
330
4358
100
AcDbEntity
  8
Defpoints
 62
     0
100
AcDbPoint
 10
191.798365416866
 20
278.2909364282244
 30
0.0
  0
ENDBLK
  5
435A
330
4358
100
AcDbEntity
  8
0
100
AcDbBlockEnd
  0
BLOCK
  5
4368
330
4367
100
AcDbEntity
  8
0
100
AcDbBlockBegin
  2
*D18
 70
     1
 10
0.0
 20
0.0
 30
0.0
  3
*D18
  1

  0
LINE
  5
436A
330
4367
100
AcDbEntity
  8
DIM
 62
     0
370
    -2
100
AcDbLine
 10
141.2452736719299
 20
437.7939437296472
 30
0.0
 11
233.8036018670518
 21
437.7939437296472
 31
0.0
  0
LINE
  5
436B
330
4367
100
AcDbEntity
  8
DIM
 62
     0
370
    -2
100
AcDbLine
 10
192.298365416866
 20
302.7979286768051
 30
0.0
 11
233.8036018670518
 21
302.7979286768051
 31
0.0
  0
LINE
  5
436C
330
4367
100
AcDbEntity
  8
DIM
 62
     0
370
    -2
100
AcDbLine
 10
233.8036018670518
 20
435.7939437296472
 30
0.0
 11
233.8036018670518
 21
304.7979286768051
 31
0.0
  0
INSERT
  5
436D
330
4367
100
AcDbEntity
  8
DIM
 62
     0
370
    -2
100
AcDbBlockReference
  2
_DOT
 10
233.8036018670518
 20
437.7939437296472
 30
0.0
 41
2.0
 42
2.0
 43
2.0
 50
90.0
  0
INSERT
  5
436E
330
4367
100
AcDbEntity
  8
DIM
 62
     0
370
    -2
100
AcDbBlockReference
  2
_DOT
 10
233.8036018670518
 20
302.7979286768051
 30
0.0
 41
2.0
 42
2.0
 43
2.0
 50
270.0
  0
MTEXT
  5
436F
330
4367
100
AcDbEntity
  8
DIM
 62
     0
100
AcDbMText
 10
228.3026640153574
 20
370.2959362032261
 30
0.0
 40
5.0
 41
0.0
 46
0.0
 71
     5
 72
     1
  1
\A1;135
  7
ＭＳ ゴシック
 11
0.0
 21
1.0
 31
0.0
 73
     1
 44
1.0
  0
POINT
  5
4370
330
4367
100
AcDbEntity
  8
Defpoints
 62
     0
100
AcDbPoint
 10
136.2452736719299
 20
437.7939437296472
 30
0.0
  0
POINT
  5
4371
330
4367
100
AcDbEntity
  8
Defpoints
 62
     0
100
AcDbPoint
 10
187.298365416866
 20
302.7979286768051
 30
0.0
  0
POINT
  5
4372
330
4367
100
AcDbEntity
  8
Defpoints
 62
     0
100
AcDbPoint
 10
233.8036018670518
 20
302.7979286768051
 30
0.0
  0
ENDBLK
  5
4369
330
4367
100
AcDbEntity
  8
0
100
AcDbBlockEnd
  0
ENDSEC
  0
SECTION
  2
ENTITIES
  0
MTEXT
  5
177
330
A
100
AcDbEntity
  8
TEMPLATE
390
1D
100
AcDbMText
 10
15.84042890954615
 20
68.74635032628565
 30
0.0
 40
3.257682291666665
 41
0.0
 46
0.0
 71
     1
 72
     1
  1
品名
  7
ＭＳ ゴシック
 73
     1
 44
0.7828267384257843
  0
MTEXT
  5
178
330
A
100
AcDbEntity
  8
TEMPLATE
390
1D
100
AcDbMText
 10
15.84042890954615
 20
51.7463503262856
 30
0.0
 40
3.257682291666665
 41
0.0
 46
0.0
 71
     1
 72
     1
  1
仕様
  7
ＭＳ ゴシック
 73
     1
 44
0.7828267384257843
  0
LINE
  5
179
330
A
100
AcDbEntity
  8
TEMPLATE
390
1D
100
AcDbLine
 10
404.4404289094496
 20
53.42933470128568
 30
0.0
 11
14.44042890944975
 21
53.42933470128568
 31
0.0
  0
LWPOLYLINE
  5
17A
330
A
100
AcDbEntity
  8
TEMPLATE
390
1D
100
AcDbPolyline
 90
        5
 70
   128
 43
0.0
 10
404.4404289094496
 20
579.4293347012853
 10
14.44042890944975
 20
579.4293347012853
 10
14.44042890944975
 20
19.42933470128565
 10
404.4404289094496
 20
19.42933470128565
 10
404.4404289094496
 20
579.4293347012853
  0
LINE
  5
17B
330
A
100
AcDbEntity
  8
TEMPLATE
390
1D
100
AcDbLine
 10
404.4404289094496
 20
70.42933470128564
 30
0.0
 11
14.44042890944975
 21
70.42933470128564
 31
0.0
  0
LINE
  5
17C
330
A
100
AcDbEntity
  8
TEMPLATE
390
1D
100
AcDbLine
 10
404.4404289095464
 20
36.42933470128565
 30
0.0
 11
253.840428909546
 21
36.42933470128565
 31
0.0
  0
MTEXT
  5
17E
330
A
100
AcDbEntity
  8
TEMPLATE
390
1D
100
AcDbMText
 10
259.8147101599982
 20
30.44725580662403
 30
0.0
 40
4.8865234375
 41
0.0
 46
0.0
 71
     1
 72
     1
  1
大洋金物株式会社 ティーフォルム事業部
  7
ＭＳ ゴシック
 73
     1
 44
0.7828267384257843
  0
MTEXT
  5
180
330
A
100
AcDbEntity
  8
TEMPLATE
390
1D
100
AcDbMText
 10
366.240428909598
 20
46.02985813878564
 30
0.0
 40
4.8865234375
 41
0.0
 46
4.8865234375
 71
     1
 72
     1
  1
{1:2}
  7
ＭＳ ゴシック
 73
     1
 44
0.7828267384257843
1001
ACAD
1000
ACAD_MTEXT_DEFINED_HEIGHT_BEGIN
1070
    46
1040
4.8865234375
1000
ACAD_MTEXT_DEFINED_HEIGHT_END
  0
MTEXT
  5
181
330
A
100
AcDbEntity
  8
TEMPLATE
390
1D
100
AcDbMText
 10
355.640428909598
 20
51.7463503262856
 30
0.0
 40
3.257682291666665
 41
0.0
 46
0.0
 71
     1
 72
     1
  1
縮尺
  7
ＭＳ ゴシック
 73
     1
 44
0.7828267384257843
  0
LINE
  5
182
330
A
100
AcDbEntity
  8
TEMPLATE
390
1D
100
AcDbLine
 10
354.240428909598
 20
36.42933470128565
 30
0.0
 11
354.240428909598
 21
53.42933470128568
 31
0.0
  0
MTEXT
  5
183
330
A
100
AcDbEntity
  8
TEMPLATE
390
1D
100
AcDbMText
 10
305.440428909598
 20
51.7463503262856
 30
0.0
 40
3.257682291666665
 41
0.0
 46
0.0
 71
     1
 72
     1
  1
容量
  7
ＭＳ ゴシック
 73
     1
 44
0.7828267384257843
  0
LINE
  5
184
330
A
100
AcDbEntity
  8
TEMPLATE
390
1D
100
AcDbLine
 10
304.040428909598
 20
36.42933470128565
 30
0.0
 11
304.040428909598
 21
53.42933470128568
 31
0.0
  0
MTEXT
  5
185
330
A
100
AcDbEntity
  8
TEMPLATE
390
1D
100
AcDbMText
 10
255.240428909598
 20
68.74635032628565
 30
0.0
 40
3.257682291666665
 41
0.0
 46
0.0
 71
     1
 72
     1
  1
品番
  7
ＭＳ ゴシック
 73
     1
 44
0.7828267384257843
  0
MTEXT
  5
186
330
A
100
AcDbEntity
  8
TEMPLATE
390
1D
100
AcDbMText
 10
255.240428909598
 20
51.7463503262856
 30
0.0
 40
3.257682291666665
 41
0.0
 46
0.0
 71
     1
 72
     1
  1
重量
  7
ＭＳ ゴシック
 73
     1
 44
0.7828267384257843
  0
MTEXT
  5
187
330
A
100
AcDbEntity
  8
TEMPLATE
390
1D
100
AcDbMText
 10
265.840428909598
 20
63.02985813878564
 30
0.0
 40
4.8865234375
 41
0.0
 46
4.8865234375
 71
     1
 72
     1
  1
{FRF74-1322-001}
  7
ＭＳ ゴシック
 73
     1
 44
0.7828267384257843
1001
ACAD
1000
ACAD_MTEXT_DEFINED_HEIGHT_BEGIN
1070
    46
1040
4.8865234375
1000
ACAD_MTEXT_DEFINED_HEIGHT_END
  0
LINE
  5
188
330
A
100
AcDbEntity
  8
TEMPLATE
390
1D
100
AcDbLine
 10
253.840428909598
 20
19.42933470128565
 30
0.0
 11
253.840428909598
 21
70.42933470128564
 31
0.0
  0
MTEXT
  5
189
330
A
100
AcDbEntity
  8
TEMPLATE
390
1D
100
AcDbMText
 10
26.44042890954615
 20
63.02985813878564
 30
0.0
 40
4.8865234375
 41
0.0
 46
5.507344722044204
 71
     1
 72
     1
  1
{ペーパーホルダー　-LANGBERGER,Runua-}
  7
ＭＳ ゴシック
 73
     1
 44
0.7828267384257843
1001
ACAD
1000
ACAD_MTEXT_DEFINED_HEIGHT_BEGIN
1070
    46
1040
5.507344722044204
1000
ACAD_MTEXT_DEFINED_HEIGHT_END
  0
INSERT
  5
68C
330
A
100
AcDbEntity
  8
TEMPLATE
100
AcDbBlockReference
  2
block 2
 10
367.7097207081031
 20
3.349230605734547
 30
0.0
 41
0.1524
 42
0.1524
 43
0.1524
  0
LWPOLYLINE
  5
D69
330
A
100
AcDbEntity
  8
BORDER
100
AcDbPolyline
 90
        4
 70
     1
 43
0.0
 10
0.0
 20
0.0
 10
0.0
 20
594.0
 10
420.0
 20
594.0
 10
420.0
 20
0.0
  0
INSERT
  5
1343
330
A
100
AcDbEntity
  8
TEMPLATE
100
AcDbBlockReference
  2
block 2
 10
838.6973883465873
 20
9.774128564918277
 30
0.0
 41
0.1524
 42
0.1524
 43
0.1524
  0
HATCH
  5
3C64
102
{ACAD_REACTORS
330
3C75
102
}
330
A
100
AcDbEntity
  8
TEMPLATE
100
AcDbHatch
 10
0.0
 20
0.0
 30
0.0
210
0.0
220
0.0
230
1.0
  2
SOLID
 70
     1
 71
     1
 91
        6
 92
        1
 93
        8
 72
     1
 10
386.9584116981973
 20
30.78695932253559
 11
386.9584116981973
 21
29.60507779640349
 72
     1
 10
386.9584116981973
 20
29.60507779640349
 11
385.086293388135
 21
29.60507779640349
 72
     1
 10
385.086293388135
 20
29.60507779640349
 11
385.086293388135
 21
24.78695932282479
 72
     1
 10
385.086293388135
 20
24.78695932282479
 11
383.4397707574798
 21
24.78695932282479
 72
     1
 10
383.4397707574798
 20
24.78695932282479
 11
383.4397707574798
 21
29.60507779640349
 72
     1
 10
383.4397707574798
 20
29.60507779640349
 11
381.6008304705712
 21
29.60507779640349
 72
     1
 10
381.6008304705712
 20
29.60507779640349
 11
381.6008304705712
 21
30.78695932253559
 72
     1
 10
381.6008304705712
 20
30.78695932253559
 11
386.9584116981973
 21
30.78695932253559
 97
        1
330
3C65
 92
        1
 93
        1
 72
     4
 94
        3
 73
     0
 74
     1
 95
       56
 96
       52
 40
0.0
 40
0.0
 40
0.0
 40
0.0
 40
1.0
 40
1.0
 40
1.0
 40
2.0
 40
2.0
 40
2.0
 40
3.0
 40
3.0
 40
3.0
 40
4.0
 40
4.0
 40
4.0
 40
5.0
 40
5.0
 40
5.0
 40
6.0
 40
6.0
 40
6.0
 40
7.0
 40
7.0
 40
7.0
 40
8.0
 40
8.0
 40
8.0
 40
9.0
 40
9.0
 40
9.0
 40
10.0
 40
10.0
 40
10.0
 40
11.0
 40
11.0
 40
11.0
 40
12.0
 40
12.0
 40
12.0
 40
13.0
 40
13.0
 40
13.0
 40
14.0
 40
14.0
 40
14.0
 40
15.0
 40
15.0
 40
15.0
 40
16.0
 40
16.0
 40
16.0
 40
17.0
 40
17.0
 40
17.0
 40
17.0
 10
389.4668487850558
 20
30.64408553045313
 10
389.6976220214394
 20
30.70904304125516
 10
389.9955398401064
 20
30.65470844907718
 10
389.9955398401064
 20
30.65470844907718
 10
389.9955398401064
 20
30.65470844907718
 10
389.85241312139
 20
30.22519439059248
 10
389.85241312139
 20
30.22519439059248
 10
389.85241312139
 20
30.22519439059248
 10
389.5599406643706
 20
30.29287458221835
 10
389.3343598630008
 20
30.1149927683958
 10
389.1590668276665
 20
29.97588311974736
 10
389.0455027690426
 20
29.60625316134929
 10
389.0019398758616
 20
29.46571522112114
 10
389.0019398758616
 20
29.46571522112114
 10
388.8077219770962
 20
28.86958202304137
 10
388.8077219770962
 20
28.86958202304137
 10
388.8077219770962
 20
28.86958202304137
 10
389.4445466071603
 20
28.86958202304137
 10
389.4445466071603
 20
28.86958202304137
 10
389.4445466071603
 20
28.86958202304137
 10
389.34550351293
 20
28.49438767869736
 10
389.34550351293
 20
28.49438767869736
 10
389.34550351293
 20
28.49438767869736
 10
388.7034864478522
 20
28.49438767869736
 10
388.7034864478522
 20
28.49438767869736
 10
388.7034864478522
 20
28.49438767869736
 10
387.5547978229109
 20
24.78695932282479
 10
387.5547978229109
 20
24.78695932282479
 10
387.5547978229109
 20
24.78695932282479
 10
387.1951510275336
 20
24.78695932282479
 10
387.1951510275336
 20
24.78695932282479
 10
387.1951510275336
 20
24.78695932282479
 10
388.3448811150849
 20
28.49438767869736
 10
388.3448811150849
 20
28.49438767869736
 10
388.3448811150849
 20
28.49438767869736
 10
387.8711346517413
 20
28.49438767869736
 10
387.8711346517413
 20
28.49438767869736
 10
387.8711346517413
 20
28.49438767869736
 10
387.9704455506427
 20
28.86958202304137
 10
387.9704455506427
 20
28.86958202304137
 10
387.9704455506427
 20
28.86958202304137
 10
388.4491166443289
 20
28.86958202304137
 10
388.4491166443289
 20
28.86958202304137
 10
388.4491166443289
 20
28.86958202304137
 10
388.6184287086733
 20
29.38948015805433
 10
388.6184287086733
 20
29.38948015805433
 10
388.7553364078029
 20
29.82536201649855
 10
388.8715041229524
 20
30.059378665011
 10
388.971082826525
 20
30.23581730921654
 10
389.0696051894502
 20
30.41240473379499
 10
389.2645967461546
 20
30.58586777054282
 10
389.4668487850558
 20
30.64408553045313
 97
        1
330
3C70
 92
        1
 93
        1
 72
     4
 94
        3
 73
     0
 74
     1
 95
       32
 96
       28
 40
0.0
 40
0.0
 40
0.0
 40
0.0
 40
1.0
 40
1.0
 40
1.0
 40
2.0
 40
2.0
 40
2.0
 40
3.0
 40
3.0
 40
3.0
 40
4.0
 40
4.0
 40
4.0
 40
5.0
 40
5.0
 40
5.0
 40
6.0
 40
6.0
 40
6.0
 40
7.0
 40
7.0
 40
7.0
 40
8.0
 40
8.0
 40
8.0
 40
9.0
 40
9.0
 40
9.0
 40
9.0
 10
390.3419600603343
 20
28.64284073476305
 10
390.1254548617105
 20
28.36279143887966
 10
389.9587315758544
 20
28.11075748721071
 10
389.6888142233646
 20
27.31860614785359
 10
389.4406634394279
 20
26.59401597582401
 10
389.2827479516467
 20
26.06685735861421
 10
389.2588984578731
 20
25.42484029353638
 10
389.240747252381
 20
24.94707676012474
 10
389.5316723935223
 20
24.78695932282479
 10
389.9582257225866
 20
24.78695932282479
 10
390.1420587513246
 20
24.78695932282479
 10
390.6059559539832
 20
24.79865346013363
 10
390.9363078939394
 20
25.20702582763122
 10
391.1675721055534
 20
25.49393389870466
 10
391.38071486775
 20
25.79134586410385
 10
391.6664624519149
 20
26.76695828126675
 10
391.9042432438614
 20
27.58257228542799
 10
392.068883604497
 20
28.10971602460051
 10
392.056713369995
 20
28.40985067082352
 10
392.056713369995
 20
28.40985067082352
 10
392.056713369995
 20
28.40985067082352
 10
392.056713369995
 20
28.40985067082352
 10
391.9791690396468
 20
28.91055613773418
 10
391.615639076537
 20
29.01635386089345
 10
391.4079416759881
 20
29.01635386089345
 10
391.2033686632698
 20
29.01635386089345
 10
390.6552022574085
 20
29.05174871160303
 10
390.3419600603343
 20
28.64284073476305
 97
        1
330
3C73
 92
        1
 93
        1
 72
     4
 94
        3
 73
     0
 74
     1
 95
       38
 96
       34
 40
0.0
 40
0.0
 40
0.0
 40
0.0
 40
1.0
 40
1.0
 40
1.0
 40
2.0
 40
2.0
 40
2.0
 40
3.0
 40
3.0
 40
3.0
 40
4.0
 40
4.0
 40
4.0
 40
5.0
 40
5.0
 40
5.0
 40
6.0
 40
6.0
 40
6.0
 40
7.0
 40
7.0
 40
7.0
 40
8.0
 40
8.0
 40
8.0
 40
9.0
 40
9.0
 40
9.0
 40
10.0
 40
10.0
 40
10.0
 40
11.0
 40
11.0
 40
11.0
 40
11.0
 10
393.3716045494872
 20
28.85519496098328
 10
393.3716045494872
 20
28.85519496098328
 10
393.7413535321836
 20
28.85519496098328
 10
393.7413535321836
 20
28.85519496098328
 10
393.7413535321836
 20
28.85519496098328
 10
393.5761775622055
 20
28.32635512555987
 10
393.5761775622055
 20
28.32635512555987
 10
393.7016886847722
 20
28.47480818162555
 10
393.8997748732327
 20
28.67252241915381
 10
394.0698903515905
 20
28.77222014702475
 10
394.3240072284799
 20
28.92067320309043
 10
394.4692168724166
 20
28.94025270016223
 10
394.6289177246725
 20
28.93635465439262
 10
394.6289177246725
 20
28.93635465439262
 10
394.4728471135151
 20
28.43630382112264
 10
394.4728471135151
 20
28.43630382112264
 10
394.3712003627593
 20
28.47934598299858
 10
394.057958165685
 20
28.39741263165024
 10
393.8782612313133
 20
28.26815224368685
 10
393.7162096491659
 20
28.15159769956793
 10
393.6041780283826
 20
28.0524207030021
 10
393.4714361796937
 20
27.80309455411968
 10
393.3397060375404
 20
27.55339645430504
 10
393.2357383129677
 20
27.15524529842472
 10
393.0568150365349
 20
26.57765013480655
 10
393.0568150365349
 20
26.57765013480655
 10
392.4980257120495
 20
24.78695932282479
 10
392.4980257120495
 20
24.78695932282479
 10
392.4980257120495
 20
24.78695932282479
 10
392.1391674526484
 20
24.78695932282479
 10
392.1391674526484
 20
24.78695932282479
 10
392.1391674526484
 20
24.78695932282479
 10
393.3716045494872
 20
28.85519496098328
 10
393.3716045494872
 20
28.85519496098328
 97
        1
330
3C71
 92
        1
 93
        1
 72
     4
 94
        3
 73
     0
 74
     1
 95
      104
 96
      100
 40
0.0
 40
0.0
 40
0.0
 40
0.0
 40
1.0
 40
1.0
 40
1.0
 40
2.0
 40
2.0
 40
2.0
 40
3.0
 40
3.0
 40
3.0
 40
4.0
 40
4.0
 40
4.0
 40
5.0
 40
5.0
 40
5.0
 40
6.0
 40
6.0
 40
6.0
 40
7.0
 40
7.0
 40
7.0
 40
8.0
 40
8.0
 40
8.0
 40
9.0
 40
9.0
 40
9.0
 40
10.0
 40
10.0
 40
10.0
 40
11.0
 40
11.0
 40
11.0
 40
12.0
 40
12.0
 40
12.0
 40
13.0
 40
13.0
 40
13.0
 40
14.0
 40
14.0
 40
14.0
 40
15.0
 40
15.0
 40
15.0
 40
16.0
 40
16.0
 40
16.0
 40
17.0
 40
17.0
 40
17.0
 40
18.0
 40
18.0
 40
18.0
 40
19.0
 40
19.0
 40
19.0
 40
20.0
 40
20.0
 40
20.0
 40
21.0
 40
21.0
 40
21.0
 40
22.0
 40
22.0
 40
22.0
 40
23.0
 40
23.0
 40
23.0
 40
24.0
 40
24.0
 40
24.0
 40
25.0
 40
25.0
 40
25.0
 40
26.0
 40
26.0
 40
26.0
 40
27.0
 40
27.0
 40
27.0
 40
28.0
 40
28.0
 40
28.0
 40
29.0
 40
29.0
 40
29.0
 40
30.0
 40
30.0
 40
30.0
 40
31.0
 40
31.0
 40
31.0
 40
32.0
 40
32.0
 40
32.0
 40
33.0
 40
33.0
 40
33.0
 40
33.0
 10
395.4068307823444
 20
28.857396910502
 10
395.4068307823444
 20
28.857396910502
 10
395.7296544354325
 20
28.857396910502
 10
395.7296544354325
 20
28.857396910502
 10
395.7296544354325
 20
28.857396910502
 10
395.5665613906749
 20
28.32805122181077
 10
395.5665613906749
 20
28.32805122181077
 10
395.7081110374387
 20
28.55000178208216
 10
395.8351694758834
 20
28.64892585201409
 10
396.0039756869598
 20
28.77675794839777
 10
396.1732877513042
 20
28.90277492423224
 10
396.3742602789986
 20
28.92845441659237
 10
396.5137567566165
 20
28.92845441659237
 10
396.6864610134627
 20
28.92845441659237
 10
396.8531842993187
 20
28.8943539551269
 10
396.9408159389486
 20
28.70506068670399
 10
397.0079753992694
 20
28.55662250867558
 10
397.0110997871
 20
28.5391110587869
 10
396.9919071189977
 20
28.24610299242514
 10
397.1674382029287
 20
28.54650544331934
 10
397.2970854198616
 20
28.67589973361832
 10
397.5174886642549
 20
28.80022061320189
 10
397.7487826319435
 20
28.92845441659237
 10
397.8836074058529
 20
28.93805075064353
 10
398.0402433824273
 20
28.9149600367716
 10
398.2710017407735
 20
28.88087445334342
 10
398.4182943099307
 20
28.79853939498828
 10
398.4953030309365
 20
28.54832056386854
 10
398.5725795566135
 20
28.29887539068781
 10
398.5308317839817
 20
28.16507720135141
 10
398.4354040528126
 20
27.76796750808128
 10
398.3918411596316
 20
27.58711008680102
 10
398.3288177936771
 20
27.36812025595006
 10
398.2463637110236
 20
27.10754631087745
 10
398.2463637110236
 20
27.10754631087745
 10
397.5174886642549
 20
24.78695932282479
 10
397.5174886642549
 20
24.78695932282479
 10
397.5174886642549
 20
24.78695932282479
 10
397.1383962741413
 20
24.78695932282479
 10
397.1383962741413
 20
24.78695932282479
 10
397.1383962741413
 20
24.78695932282479
 10
397.7765450495241
 20
26.81569873142421
 10
397.7765450495241
 20
26.81569873142421
 10
397.9098225075554
 20
27.24016913526807
 10
398.0000429256735
 20
27.55015304217612
 10
398.0467302066851
 20
27.74450484327716
 10
398.1053199175276
 20
27.98694246089495
 10
398.1286486799962
 20
28.06694166739577
 10
398.1009160184902
 20
28.24339518963862
 10
398.0755043308013
 20
28.4076487213048
 10
397.9925146388055
 20
28.51460693137258
 10
397.8504293826993
 20
28.51460693137258
 10
397.6990007191758
 20
28.51460693137258
 10
397.5763461797686
 20
28.49775011512458
 10
397.4047131416073
 20
28.32532854098695
 10
397.2330503473714
 20
28.15159769956793
 10
397.0912031398618
 20
27.94766444245305
 10
396.9799749330922
 20
27.71312706263549
 10
396.8689847749192
 20
27.47716139123824
 10
396.7564473008682
 20
27.17806820762544
 10
396.6423625109393
 20
26.81569873142421
 10
396.6423625109393
 20
26.81569873142421
 10
396.0039756869598
 20
24.78695932282479
 10
396.0039756869598
 20
24.78695932282479
 10
396.0039756869598
 20
24.78695932282479
 10
395.6474384013758
 20
24.78695932282479
 10
395.6474384013758
 20
24.78695932282479
 10
395.6474384013758
 20
24.78695932282479
 10
396.3773549107547
 20
27.10650484826726
 10
396.3773549107547
 20
27.10650484826726
 10
396.4543636317604
 20
27.35336124295977
 10
396.5122094407385
 20
27.55457181925085
 10
396.5503269722719
 20
27.71183267339138
 10
396.6151357027011
 20
27.98253856185753
 10
396.6332869081932
 20
28.1655979326565
 10
396.5842786533645
 20
28.32805122181077
 10
396.5360440564749
 20
28.48998377965993
 10
396.4512690000045
 20
28.53134472332225
 10
396.3096895971661
 20
28.53134472332225
 10
396.1909331035284
 20
28.53134472332225
 10
396.0750331930502
 20
28.48038744560878
 10
395.9427971976291
 20
28.37899362148695
 10
395.7763119603696
 20
28.25142932977446
 10
395.7096881093912
 20
28.1466730692254
 10
395.6280076846768
 20
28.02220340926895
 10
395.5177911844429
 20
27.85754817059597
 10
395.4661941511259
 20
27.74670679279587
 10
395.3731171498484
 20
27.50348063920177
 10
395.2800103924964
 20
27.25882619402798
 10
395.1918728995987
 20
26.97412007247326
 10
395.1303968495222
 20
26.77719437092129
 10
395.1303968495222
 20
26.77719437092129
 10
394.5042100161195
 20
24.78695932282479
 10
394.5042100161195
 20
24.78695932282479
 10
394.5042100161195
 20
24.78695932282479
 10
394.1308307923247
 20
24.78695932282479
 10
394.1308307923247
 20
24.78695932282479
 10
394.1308307923247
 20
24.78695932282479
 10
395.4068307823444
 20
28.857396910502
 10
395.4068307823444
 20
28.857396910502
 97
        1
330
3C72
 92
       16
 93
        1
 72
     4
 94
        3
 73
     0
 74
     1
 95
       29
 96
       25
 40
0.0
 40
0.0
 40
0.0
 40
0.0
 40
1.0
 40
1.0
 40
1.0
 40
2.0
 40
2.0
 40
2.0
 40
3.0
 40
3.0
 40
3.0
 40
4.0
 40
4.0
 40
4.0
 40
5.0
 40
5.0
 40
5.0
 40
6.0
 40
6.0
 40
6.0
 40
7.0
 40
7.0
 40
7.0
 40
8.0
 40
8.0
 40
8.0
 40
8.0
 10
389.6462927927937
 20
25.54487629838084
 10
389.6447157208412
 20
25.82830290872873
 10
389.7341922370948
 20
26.33186495879882
 10
389.9634032795631
 20
27.00563175545052
 10
390.2756040140271
 20
27.91796788002499
 10
390.4628292352669
 20
28.25142932977446
 10
390.6266661818889
 20
28.41374871659313
 10
390.866024045788
 20
28.65010121695988
 10
391.1878062362659
 20
28.66188462249246
 10
391.2827281141673
 20
28.65010121695988
 10
391.4178206927478
 20
28.6338841563153
 10
391.6086463990114
 20
28.54546398070914
 10
391.6200429755745
 20
28.24779908867604
 10
391.629148334395
 20
27.99304245618328
 10
391.5557400984131
 20
27.51593355641234
 10
391.2987963944389
 20
26.76695828126675
 10
391.0026639402465
 20
25.896622855958
 10
390.824782126424
 20
25.55448751046927
 10
390.6821910170501
 20
25.40537982076289
 10
390.413553175767
 20
25.1258512561846
 10
390.1254548617105
 20
25.15269123545324
 10
390.0829334311396
 20
25.15269123545324
 10
390.0277061567243
 20
25.15269123545324
 10
389.6470664507327
 20
25.21261996965174
 10
389.6462927927937
 20
25.54487629838084
 97
        1
330
3C74
 75
     0
 76
     1
 98
        1
 10
371.9300318427923
 20
14.61939790801677
1001
ACAD
1010
0.0
1020
0.0
1030
0.0
  0
POLYLINE
  5
3C65
102
{ACAD_REACTORS
330
3C64
330
3C75
102
}
330
A
100
AcDbEntity
  8
TEMPLATE
100
AcDb2dPolyline
 66
     1
 10
0.0
 20
0.0
 30
0.0
  0
VERTEX
  5
3C66
330
3C65
100
AcDbEntity
  8
TEMPLATE
100
AcDbVertex
100
AcDb2dVertex
 10
386.9584116981973
 20
30.78695932253559
 30
0.0
  0
VERTEX
  5
3C67
330
3C65
100
AcDbEntity
  8
TEMPLATE
100
AcDbVertex
100
AcDb2dVertex
 10
386.9584116981973
 20
29.60507779640349
 30
0.0
  0
VERTEX
  5
3C68
330
3C65
100
AcDbEntity
  8
TEMPLATE
100
AcDbVertex
100
AcDb2dVertex
 10
385.086293388135
 20
29.60507779640349
 30
0.0
  0
VERTEX
  5
3C69
330
3C65
100
AcDbEntity
  8
TEMPLATE
100
AcDbVertex
100
AcDb2dVertex
 10
385.086293388135
 20
24.78695932282479
 30
0.0
  0
VERTEX
  5
3C6A
330
3C65
100
AcDbEntity
  8
TEMPLATE
100
AcDbVertex
100
AcDb2dVertex
 10
383.4397707574798
 20
24.78695932282479
 30
0.0
  0
VERTEX
  5
3C6B
330
3C65
100
AcDbEntity
  8
TEMPLATE
100
AcDbVertex
100
AcDb2dVertex
 10
383.4397707574798
 20
29.60507779640349
 30
0.0
  0
VERTEX
  5
3C6C
330
3C65
100
AcDbEntity
  8
TEMPLATE
100
AcDbVertex
100
AcDb2dVertex
 10
381.6008304705712
 20
29.60507779640349
 30
0.0
  0
VERTEX
  5
3C6D
330
3C65
100
AcDbEntity
  8
TEMPLATE
100
AcDbVertex
100
AcDb2dVertex
 10
381.6008304705712
 20
30.78695932253559
 30
0.0
  0
VERTEX
  5
3C6E
330
3C65
100
AcDbEntity
  8
TEMPLATE
100
AcDbVertex
100
AcDb2dVertex
 10
386.9584116981973
 20
30.78695932253559
 30
0.0
  0
SEQEND
  5
3C6F
330
3C65
100
AcDbEntity
  8
TEMPLATE
  0
SPLINE
  5
3C70
102
{ACAD_REACTORS
330
3C64
330
3C75
102
}
330
A
100
AcDbEntity
  8
TEMPLATE
100
AcDbSpline
210
0.0
220
0.0
230
1.0
 70
    11
 71
     3
 72
    56
 73
    52
 74
     0
 42
0.000000001
 43
0.0000000001
 40
0.0
 40
0.0
 40
0.0
 40
0.0
 40
1.0
 40
1.0
 40
1.0
 40
2.0
 40
2.0
 40
2.0
 40
3.0
 40
3.0
 40
3.0
 40
4.0
 40
4.0
 40
4.0
 40
5.0
 40
5.0
 40
5.0
 40
6.0
 40
6.0
 40
6.0
 40
7.0
 40
7.0
 40
7.0
 40
8.0
 40
8.0
 40
8.0
 40
9.0
 40
9.0
 40
9.0
 40
10.0
 40
10.0
 40
10.0
 40
11.0
 40
11.0
 40
11.0
 40
12.0
 40
12.0
 40
12.0
 40
13.0
 40
13.0
 40
13.0
 40
14.0
 40
14.0
 40
14.0
 40
15.0
 40
15.0
 40
15.0
 40
16.0
 40
16.0
 40
16.0
 40
17.0
 40
17.0
 40
17.0
 40
17.0
 10
389.4668487850558
 20
30.64408553045313
 30
0.0
 10
389.6976220214394
 20
30.70904304125516
 30
0.0
 10
389.9955398401064
 20
30.65470844907718
 30
0.0
 10
389.9955398401064
 20
30.65470844907718
 30
0.0
 10
389.9955398401064
 20
30.65470844907718
 30
0.0
 10
389.85241312139
 20
30.22519439059248
 30
0.0
 10
389.85241312139
 20
30.22519439059248
 30
0.0
 10
389.85241312139
 20
30.22519439059248
 30
0.0
 10
389.5599406643706
 20
30.29287458221835
 30
0.0
 10
389.3343598630008
 20
30.1149927683958
 30
0.0
 10
389.1590668276665
 20
29.97588311974736
 30
0.0
 10
389.0455027690426
 20
29.60625316134929
 30
0.0
 10
389.0019398758616
 20
29.46571522112114
 30
0.0
 10
389.0019398758616
 20
29.46571522112114
 30
0.0
 10
388.8077219770962
 20
28.86958202304137
 30
0.0
 10
388.8077219770962
 20
28.86958202304137
 30
0.0
 10
388.8077219770962
 20
28.86958202304137
 30
0.0
 10
389.4445466071603
 20
28.86958202304137
 30
0.0
 10
389.4445466071603
 20
28.86958202304137
 30
0.0
 10
389.4445466071603
 20
28.86958202304137
 30
0.0
 10
389.34550351293
 20
28.49438767869736
 30
0.0
 10
389.34550351293
 20
28.49438767869736
 30
0.0
 10
389.34550351293
 20
28.49438767869736
 30
0.0
 10
388.7034864478522
 20
28.49438767869736
 30
0.0
 10
388.7034864478522
 20
28.49438767869736
 30
0.0
 10
388.7034864478522
 20
28.49438767869736
 30
0.0
 10
387.5547978229109
 20
24.78695932282479
 30
0.0
 10
387.5547978229109
 20
24.78695932282479
 30
0.0
 10
387.5547978229109
 20
24.78695932282479
 30
0.0
 10
387.1951510275336
 20
24.78695932282479
 30
0.0
 10
387.1951510275336
 20
24.78695932282479
 30
0.0
 10
387.1951510275336
 20
24.78695932282479
 30
0.0
 10
388.3448811150849
 20
28.49438767869736
 30
0.0
 10
388.3448811150849
 20
28.49438767869736
 30
0.0
 10
388.3448811150849
 20
28.49438767869736
 30
0.0
 10
387.8711346517413
 20
28.49438767869736
 30
0.0
 10
387.8711346517413
 20
28.49438767869736
 30
0.0
 10
387.8711346517413
 20
28.49438767869736
 30
0.0
 10
387.9704455506427
 20
28.86958202304137
 30
0.0
 10
387.9704455506427
 20
28.86958202304137
 30
0.0
 10
387.9704455506427
 20
28.86958202304137
 30
0.0
 10
388.4491166443289
 20
28.86958202304137
 30
0.0
 10
388.4491166443289
 20
28.86958202304137
 30
0.0
 10
388.4491166443289
 20
28.86958202304137
 30
0.0
 10
388.6184287086733
 20
29.38948015805433
 30
0.0
 10
388.6184287086733
 20
29.38948015805433
 30
0.0
 10
388.7553364078029
 20
29.82536201649855
 30
0.0
 10
388.8715041229524
 20
30.059378665011
 30
0.0
 10
388.971082826525
 20
30.23581730921654
 30
0.0
 10
389.0696051894502
 20
30.41240473379499
 30
0.0
 10
389.2645967461546
 20
30.58586777054282
 30
0.0
 10
389.4668487850558
 20
30.64408553045313
 30
0.0
  0
SPLINE
  5
3C71
102
{ACAD_REACTORS
330
3C64
330
3C75
102
}
330
A
100
AcDbEntity
  8
TEMPLATE
100
AcDbSpline
210
0.0
220
0.0
230
1.0
 70
    11
 71
     3
 72
    38
 73
    34
 74
     0
 42
0.000000001
 43
0.0000000001
 40
0.0
 40
0.0
 40
0.0
 40
0.0
 40
1.0
 40
1.0
 40
1.0
 40
2.0
 40
2.0
 40
2.0
 40
3.0
 40
3.0
 40
3.0
 40
4.0
 40
4.0
 40
4.0
 40
5.0
 40
5.0
 40
5.0
 40
6.0
 40
6.0
 40
6.0
 40
7.0
 40
7.0
 40
7.0
 40
8.0
 40
8.0
 40
8.0
 40
9.0
 40
9.0
 40
9.0
 40
10.0
 40
10.0
 40
10.0
 40
11.0
 40
11.0
 40
11.0
 40
11.0
 10
393.3716045494872
 20
28.85519496098328
 30
0.0
 10
393.3716045494872
 20
28.85519496098328
 30
0.0
 10
393.7413535321836
 20
28.85519496098328
 30
0.0
 10
393.7413535321836
 20
28.85519496098328
 30
0.0
 10
393.7413535321836
 20
28.85519496098328
 30
0.0
 10
393.5761775622055
 20
28.32635512555987
 30
0.0
 10
393.5761775622055
 20
28.32635512555987
 30
0.0
 10
393.7016886847722
 20
28.47480818162555
 30
0.0
 10
393.8997748732327
 20
28.67252241915381
 30
0.0
 10
394.0698903515905
 20
28.77222014702475
 30
0.0
 10
394.3240072284799
 20
28.92067320309043
 30
0.0
 10
394.4692168724166
 20
28.94025270016223
 30
0.0
 10
394.6289177246725
 20
28.93635465439262
 30
0.0
 10
394.6289177246725
 20
28.93635465439262
 30
0.0
 10
394.4728471135151
 20
28.43630382112264
 30
0.0
 10
394.4728471135151
 20
28.43630382112264
 30
0.0
 10
394.3712003627593
 20
28.47934598299858
 30
0.0
 10
394.057958165685
 20
28.39741263165024
 30
0.0
 10
393.8782612313133
 20
28.26815224368685
 30
0.0
 10
393.7162096491659
 20
28.15159769956793
 30
0.0
 10
393.6041780283826
 20
28.0524207030021
 30
0.0
 10
393.4714361796937
 20
27.80309455411968
 30
0.0
 10
393.3397060375404
 20
27.55339645430504
 30
0.0
 10
393.2357383129677
 20
27.15524529842472
 30
0.0
 10
393.0568150365349
 20
26.57765013480655
 30
0.0
 10
393.0568150365349
 20
26.57765013480655
 30
0.0
 10
392.4980257120495
 20
24.78695932282479
 30
0.0
 10
392.4980257120495
 20
24.78695932282479
 30
0.0
 10
392.4980257120495
 20
24.78695932282479
 30
0.0
 10
392.1391674526484
 20
24.78695932282479
 30
0.0
 10
392.1391674526484
 20
24.78695932282479
 30
0.0
 10
392.1391674526484
 20
24.78695932282479
 30
0.0
 10
393.3716045494872
 20
28.85519496098328
 30
0.0
 10
393.3716045494872
 20
28.85519496098328
 30
0.0
  0
SPLINE
  5
3C72
102
{ACAD_REACTORS
330
3C64
330
3C75
102
}
330
A
100
AcDbEntity
  8
TEMPLATE
100
AcDbSpline
210
0.0
220
0.0
230
1.0
 70
    11
 71
     3
 72
   104
 73
   100
 74
     0
 42
0.000000001
 43
0.0000000001
 40
0.0
 40
0.0
 40
0.0
 40
0.0
 40
1.0
 40
1.0
 40
1.0
 40
2.0
 40
2.0
 40
2.0
 40
3.0
 40
3.0
 40
3.0
 40
4.0
 40
4.0
 40
4.0
 40
5.0
 40
5.0
 40
5.0
 40
6.0
 40
6.0
 40
6.0
 40
7.0
 40
7.0
 40
7.0
 40
8.0
 40
8.0
 40
8.0
 40
9.0
 40
9.0
 40
9.0
 40
10.0
 40
10.0
 40
10.0
 40
11.0
 40
11.0
 40
11.0
 40
12.0
 40
12.0
 40
12.0
 40
13.0
 40
13.0
 40
13.0
 40
14.0
 40
14.0
 40
14.0
 40
15.0
 40
15.0
 40
15.0
 40
16.0
 40
16.0
 40
16.0
 40
17.0
 40
17.0
 40
17.0
 40
18.0
 40
18.0
 40
18.0
 40
19.0
 40
19.0
 40
19.0
 40
20.0
 40
20.0
 40
20.0
 40
21.0
 40
21.0
 40
21.0
 40
22.0
 40
22.0
 40
22.0
 40
23.0
 40
23.0
 40
23.0
 40
24.0
 40
24.0
 40
24.0
 40
25.0
 40
25.0
 40
25.0
 40
26.0
 40
26.0
 40
26.0
 40
27.0
 40
27.0
 40
27.0
 40
28.0
 40
28.0
 40
28.0
 40
29.0
 40
29.0
 40
29.0
 40
30.0
 40
30.0
 40
30.0
 40
31.0
 40
31.0
 40
31.0
 40
32.0
 40
32.0
 40
32.0
 40
33.0
 40
33.0
 40
33.0
 40
33.0
 10
395.4068307823444
 20
28.857396910502
 30
0.0
 10
395.4068307823444
 20
28.857396910502
 30
0.0
 10
395.7296544354325
 20
28.857396910502
 30
0.0
 10
395.7296544354325
 20
28.857396910502
 30
0.0
 10
395.7296544354325
 20
28.857396910502
 30
0.0
 10
395.5665613906749
 20
28.32805122181077
 30
0.0
 10
395.5665613906749
 20
28.32805122181077
 30
0.0
 10
395.7081110374387
 20
28.55000178208216
 30
0.0
 10
395.8351694758834
 20
28.64892585201409
 30
0.0
 10
396.0039756869598
 20
28.77675794839777
 30
0.0
 10
396.1732877513042
 20
28.90277492423224
 30
0.0
 10
396.3742602789986
 20
28.92845441659237
 30
0.0
 10
396.5137567566165
 20
28.92845441659237
 30
0.0
 10
396.6864610134627
 20
28.92845441659237
 30
0.0
 10
396.8531842993187
 20
28.8943539551269
 30
0.0
 10
396.9408159389486
 20
28.70506068670399
 30
0.0
 10
397.0079753992694
 20
28.55662250867558
 30
0.0
 10
397.0110997871
 20
28.5391110587869
 30
0.0
 10
396.9919071189977
 20
28.24610299242514
 30
0.0
 10
397.1674382029287
 20
28.54650544331934
 30
0.0
 10
397.2970854198616
 20
28.67589973361832
 30
0.0
 10
397.5174886642549
 20
28.80022061320189
 30
0.0
 10
397.7487826319435
 20
28.92845441659237
 30
0.0
 10
397.8836074058529
 20
28.93805075064353
 30
0.0
 10
398.0402433824273
 20
28.9149600367716
 30
0.0
 10
398.2710017407735
 20
28.88087445334342
 30
0.0
 10
398.4182943099307
 20
28.79853939498828
 30
0.0
 10
398.4953030309365
 20
28.54832056386854
 30
0.0
 10
398.5725795566135
 20
28.29887539068781
 30
0.0
 10
398.5308317839817
 20
28.16507720135141
 30
0.0
 10
398.4354040528126
 20
27.76796750808128
 30
0.0
 10
398.3918411596316
 20
27.58711008680102
 30
0.0
 10
398.3288177936771
 20
27.36812025595006
 30
0.0
 10
398.2463637110236
 20
27.10754631087745
 30
0.0
 10
398.2463637110236
 20
27.10754631087745
 30
0.0
 10
397.5174886642549
 20
24.78695932282479
 30
0.0
 10
397.5174886642549
 20
24.78695932282479
 30
0.0
 10
397.5174886642549
 20
24.78695932282479
 30
0.0
 10
397.1383962741413
 20
24.78695932282479
 30
0.0
 10
397.1383962741413
 20
24.78695932282479
 30
0.0
 10
397.1383962741413
 20
24.78695932282479
 30
0.0
 10
397.7765450495241
 20
26.81569873142421
 30
0.0
 10
397.7765450495241
 20
26.81569873142421
 30
0.0
 10
397.9098225075554
 20
27.24016913526807
 30
0.0
 10
398.0000429256735
 20
27.55015304217612
 30
0.0
 10
398.0467302066851
 20
27.74450484327716
 30
0.0
 10
398.1053199175276
 20
27.98694246089495
 30
0.0
 10
398.1286486799962
 20
28.06694166739577
 30
0.0
 10
398.1009160184902
 20
28.24339518963862
 30
0.0
 10
398.0755043308013
 20
28.4076487213048
 30
0.0
 10
397.9925146388055
 20
28.51460693137258
 30
0.0
 10
397.8504293826993
 20
28.51460693137258
 30
0.0
 10
397.6990007191758
 20
28.51460693137258
 30
0.0
 10
397.5763461797686
 20
28.49775011512458
 30
0.0
 10
397.4047131416073
 20
28.32532854098695
 30
0.0
 10
397.2330503473714
 20
28.15159769956793
 30
0.0
 10
397.0912031398618
 20
27.94766444245305
 30
0.0
 10
396.9799749330922
 20
27.71312706263549
 30
0.0
 10
396.8689847749192
 20
27.47716139123824
 30
0.0
 10
396.7564473008682
 20
27.17806820762544
 30
0.0
 10
396.6423625109393
 20
26.81569873142421
 30
0.0
 10
396.6423625109393
 20
26.81569873142421
 30
0.0
 10
396.0039756869598
 20
24.78695932282479
 30
0.0
 10
396.0039756869598
 20
24.78695932282479
 30
0.0
 10
396.0039756869598
 20
24.78695932282479
 30
0.0
 10
395.6474384013758
 20
24.78695932282479
 30
0.0
 10
395.6474384013758
 20
24.78695932282479
 30
0.0
 10
395.6474384013758
 20
24.78695932282479
 30
0.0
 10
396.3773549107547
 20
27.10650484826726
 30
0.0
 10
396.3773549107547
 20
27.10650484826726
 30
0.0
 10
396.4543636317604
 20
27.35336124295977
 30
0.0
 10
396.5122094407385
 20
27.55457181925085
 30
0.0
 10
396.5503269722719
 20
27.71183267339138
 30
0.0
 10
396.6151357027011
 20
27.98253856185753
 30
0.0
 10
396.6332869081932
 20
28.1655979326565
 30
0.0
 10
396.5842786533645
 20
28.32805122181077
 30
0.0
 10
396.5360440564749
 20
28.48998377965993
 30
0.0
 10
396.4512690000045
 20
28.53134472332225
 30
0.0
 10
396.3096895971661
 20
28.53134472332225
 30
0.0
 10
396.1909331035284
 20
28.53134472332225
 30
0.0
 10
396.0750331930502
 20
28.48038744560878
 30
0.0
 10
395.9427971976291
 20
28.37899362148695
 30
0.0
 10
395.7763119603696
 20
28.25142932977446
 30
0.0
 10
395.7096881093912
 20
28.1466730692254
 30
0.0
 10
395.6280076846768
 20
28.02220340926895
 30
0.0
 10
395.5177911844429
 20
27.85754817059597
 30
0.0
 10
395.4661941511259
 20
27.74670679279587
 30
0.0
 10
395.3731171498484
 20
27.50348063920177
 30
0.0
 10
395.2800103924964
 20
27.25882619402798
 30
0.0
 10
395.1918728995987
 20
26.97412007247326
 30
0.0
 10
395.1303968495222
 20
26.77719437092129
 30
0.0
 10
395.1303968495222
 20
26.77719437092129
 30
0.0
 10
394.5042100161195
 20
24.78695932282479
 30
0.0
 10
394.5042100161195
 20
24.78695932282479
 30
0.0
 10
394.5042100161195
 20
24.78695932282479
 30
0.0
 10
394.1308307923247
 20
24.78695932282479
 30
0.0
 10
394.1308307923247
 20
24.78695932282479
 30
0.0
 10
394.1308307923247
 20
24.78695932282479
 30
0.0
 10
395.4068307823444
 20
28.857396910502
 30
0.0
 10
395.4068307823444
 20
28.857396910502
 30
0.0
  0
SPLINE
  5
3C73
102
{ACAD_REACTORS
330
3C64
330
3C75
102
}
330
A
100
AcDbEntity
  8
TEMPLATE
100
AcDbSpline
210
0.0
220
0.0
230
1.0
 70
    11
 71
     3
 72
    32
 73
    28
 74
     0
 42
0.000000001
 43
0.0000000001
 40
0.0
 40
0.0
 40
0.0
 40
0.0
 40
1.0
 40
1.0
 40
1.0
 40
2.0
 40
2.0
 40
2.0
 40
3.0
 40
3.0
 40
3.0
 40
4.0
 40
4.0
 40
4.0
 40
5.0
 40
5.0
 40
5.0
 40
6.0
 40
6.0
 40
6.0
 40
7.0
 40
7.0
 40
7.0
 40
8.0
 40
8.0
 40
8.0
 40
9.0
 40
9.0
 40
9.0
 40
9.0
 10
390.3419600603343
 20
28.64284073476305
 30
0.0
 10
390.1254548617105
 20
28.36279143887966
 30
0.0
 10
389.9587315758544
 20
28.11075748721071
 30
0.0
 10
389.6888142233646
 20
27.31860614785359
 30
0.0
 10
389.4406634394279
 20
26.59401597582401
 30
0.0
 10
389.2827479516467
 20
26.06685735861421
 30
0.0
 10
389.2588984578731
 20
25.42484029353638
 30
0.0
 10
389.240747252381
 20
24.94707676012474
 30
0.0
 10
389.5316723935223
 20
24.78695932282479
 30
0.0
 10
389.9582257225866
 20
24.78695932282479
 30
0.0
 10
390.1420587513246
 20
24.78695932282479
 30
0.0
 10
390.6059559539832
 20
24.79865346013363
 30
0.0
 10
390.9363078939394
 20
25.20702582763122
 30
0.0
 10
391.1675721055534
 20
25.49393389870466
 30
0.0
 10
391.38071486775
 20
25.79134586410385
 30
0.0
 10
391.6664624519149
 20
26.76695828126675
 30
0.0
 10
391.9042432438614
 20
27.58257228542799
 30
0.0
 10
392.068883604497
 20
28.10971602460051
 30
0.0
 10
392.056713369995
 20
28.40985067082352
 30
0.0
 10
392.056713369995
 20
28.40985067082352
 30
0.0
 10
392.056713369995
 20
28.40985067082352
 30
0.0
 10
392.056713369995
 20
28.40985067082352
 30
0.0
 10
391.9791690396468
 20
28.91055613773418
 30
0.0
 10
391.615639076537
 20
29.01635386089345
 30
0.0
 10
391.4079416759881
 20
29.01635386089345
 30
0.0
 10
391.2033686632698
 20
29.01635386089345
 30
0.0
 10
390.6552022574085
 20
29.05174871160303
 30
0.0
 10
390.3419600603343
 20
28.64284073476305
 30
0.0
  0
SPLINE
  5
3C74
102
{ACAD_REACTORS
330
3C64
330
3C75
102
}
330
A
100
AcDbEntity
  8
TEMPLATE
100
AcDbSpline
210
0.0
220
0.0
230
1.0
 70
    11
 71
     3
 72
    29
 73
    25
 74
     0
 42
0.000000001
 43
0.0000000001
 40
0.0
 40
0.0
 40
0.0
 40
0.0
 40
1.0
 40
1.0
 40
1.0
 40
2.0
 40
2.0
 40
2.0
 40
3.0
 40
3.0
 40
3.0
 40
4.0
 40
4.0
 40
4.0
 40
5.0
 40
5.0
 40
5.0
 40
6.0
 40
6.0
 40
6.0
 40
7.0
 40
7.0
 40
7.0
 40
8.0
 40
8.0
 40
8.0
 40
8.0
 10
389.6462927927937
 20
25.54487629838084
 30
0.0
 10
389.6447157208412
 20
25.82830290872873
 30
0.0
 10
389.7341922370948
 20
26.33186495879882
 30
0.0
 10
389.9634032795631
 20
27.00563175545052
 30
0.0
 10
390.2756040140271
 20
27.91796788002499
 30
0.0
 10
390.4628292352669
 20
28.25142932977446
 30
0.0
 10
390.6266661818889
 20
28.41374871659313
 30
0.0
 10
390.866024045788
 20
28.65010121695988
 30
0.0
 10
391.1878062362659
 20
28.66188462249246
 30
0.0
 10
391.2827281141673
 20
28.65010121695988
 30
0.0
 10
391.4178206927478
 20
28.6338841563153
 30
0.0
 10
391.6086463990114
 20
28.54546398070914
 30
0.0
 10
391.6200429755745
 20
28.24779908867604
 30
0.0
 10
391.629148334395
 20
27.99304245618328
 30
0.0
 10
391.5557400984131
 20
27.51593355641234
 30
0.0
 10
391.2987963944389
 20
26.76695828126675
 30
0.0
 10
391.0026639402465
 20
25.896622855958
 30
0.0
 10
390.824782126424
 20
25.55448751046927
 30
0.0
 10
390.6821910170501
 20
25.40537982076289
 30
0.0
 10
390.413553175767
 20
25.1258512561846
 30
0.0
 10
390.1254548617105
 20
25.15269123545324
 30
0.0
 10
390.0829334311396
 20
25.15269123545324
 30
0.0
 10
390.0277061567243
 20
25.15269123545324
 30
0.0
 10
389.6470664507327
 20
25.21261996965174
 30
0.0
 10
389.6462927927937
 20
25.54487629838084
 30
0.0
  0
MTEXT
  5
3C9A
330
A
100
AcDbEntity
  8
TEMPLATE
390
1D
100
AcDbMText
 10
26.44042890954615
 20
46.02985813878568
 30
0.0
 40
4.8865234375
 41
0.0
 46
4.959848786068213
 71
     1
 72
     1
  1
{クローム}
  7
ＭＳ ゴシック
 73
     1
 44
0.7828267384257843
1001
ACAD
1000
ACAD_MTEXT_DEFINED_HEIGHT_BEGIN
1070
    46
1040
4.959848786068213
1000
ACAD_MTEXT_DEFINED_HEIGHT_END
  0
MTEXT
  5
3CB5
102
{ACAD_XDICTIONARY
360
3CB7
102
}
330
A
100
AcDbEntity
  8
TEMPLATE
100
AcDbMText
 10
15.00779663219942
 20
17.57619761830519
 30
0.0
 40
4.0
 41
0.0
 46
4.0
 71
     1
 72
     1
  1
{20210528N}
  7
ＭＳ ゴシック
 73
     1
 44
1.0
1001
ACAD
1000
ACAD_MTEXT_DEFINED_HEIGHT_BEGIN
1070
    46
1040
4.0
1000
ACAD_MTEXT_DEFINED_HEIGHT_END
  0
POINT
  5
4051
330
A
100
AcDbEntity
  8
_0-1_
 62
     7
100
AcDbPoint
 10
623.2620499005191
 20
414.8508183110154
 30
0.0
  0
POINT
  5
4052
330
A
100
AcDbEntity
  8
_0-1_
 62
     7
100
AcDbPoint
 10
759.2620499005191
 20
414.8508183110154
 30
0.0
  0
POINT
  5
4057
330
A
100
AcDbEntity
  8
_0-1_
 62
     7
100
AcDbPoint
 10
789.2620499005191
 20
580.1468333638575
 30
0.0
  0
POINT
  5
4058
330
A
100
AcDbEntity
  8
_0-1_
 62
     7
100
AcDbPoint
 10
789.2620499005191
 20
445.1508183110154
 30
0.0
  0
POINT
  5
405D
330
A
100
AcDbEntity
  8
_0-1_
 62
     7
100
AcDbPoint
 10
844.4909572811699
 20
580.1468333638572
 30
0.0
  0
POINT
  5
405E
330
A
100
AcDbEntity
  8
_0-1_
 62
     7
100
AcDbPoint
 10
844.4909572811699
 20
515.1468333638572
 30
0.0
  0
POINT
  5
4064
330
A
100
AcDbEntity
  8
_0-1_
 62
     7
100
AcDbPoint
 10
909.4909572811695
 20
433.6468333638575
 30
0.0
  0
POINT
  5
4065
330
A
100
AcDbEntity
  8
_0-1_
 62
     7
100
AcDbPoint
 10
874.4909572811691
 20
433.6468333638575
 30
0.0
  0
POINT
  5
406C
330
A
100
AcDbEntity
  8
_0-1_
 62
     7
100
AcDbPoint
 10
913.4909609532144
 20
451.4263949880967
 30
0.0
  0
POINT
  5
406D
330
A
100
AcDbEntity
  8
_0-1_
 62
     7
100
AcDbPoint
 10
905.4909609532144
 20
451.4263949880967
 30
0.0
  0
LINE
  5
4070
330
A
100
AcDbEntity
  8
_0-0_
  6
Continuous
 62
     7
100
AcDbLine
 10
55.79836541686598
 20
393.2939437296472
 30
0.0
 11
55.79836541686598
 21
337.2939437296471
 31
0.0
  0
ARC
  5
4071
330
A
100
AcDbEntity
  8
_0-0_
  6
Continuous
 62
     7
100
AcDbCircle
 10
71.79836541686598
 20
337.2939437296471
 30
0.0
 40
16.0
100
AcDbArc
 50
180.0
 51
228.98550033427
  0
ARC
  5
4072
330
A
100
AcDbEntity
  8
_0-0_
  6
Continuous
 62
     7
100
AcDbCircle
 10
175.798365416866
 20
337.2939437296471
 30
0.0
 40
15.99999999999997
100
AcDbArc
 50
311.0144996657311
 51
0.0000000000004071
  0
ARC
  5
4073
330
A
100
AcDbEntity
  8
_0-0_
  6
Continuous
 62
     7
100
AcDbCircle
 10
71.79836541686598
 20
393.2939437296472
 30
0.0
 40
15.99999999999999
100
AcDbArc
 50
131.0144996657306
 51
180.0
  0
LINE
  5
4074
330
A
100
AcDbEntity
  8
_0-0_
  6
Continuous
 62
     7
100
AcDbLine
 10
191.798365416866
 20
337.2939437296473
 30
0.0
 11
191.798365416866
 21
347.2939437296473
 31
0.0
  0
LINE
  5
4075
330
A
100
AcDbEntity
  8
_0-0_
  6
Continuous
 62
     7
100
AcDbLine
 10
102.298365416866
 20
411.2939437296472
 30
0.0
 11
101.298365416866
 21
411.2939437296472
 31
0.0
  0
LINE
  5
4076
330
A
100
AcDbEntity
  8
_0-0_
  6
Continuous
 62
     7
100
AcDbLine
 10
146.298365416866
 20
411.2939437296472
 30
0.0
 11
145.298365416866
 21
411.2939437296472
 31
0.0
  0
ARC
  5
4077
330
A
100
AcDbEntity
  8
_0-0_
  6
Continuous
 62
     7
100
AcDbCircle
 10
144.298365416866
 20
413.2939437296472
 30
0.0
 40
1.0
100
AcDbArc
 50
0.0
 51
101.7107079066879
  0
LINE
  5
4078
330
A
100
AcDbEntity
  8
_0-0_
  6
Continuous
 62
     7
100
AcDbLine
 10
145.298365416866
 20
400.0493260615373
 30
0.0
 11
145.298365416866
 21
413.2939437296472
 31
0.0
  0
ARC
  5
4079
330
A
100
AcDbEntity
  8
_0-0_
  6
Continuous
 62
     7
100
AcDbCircle
 10
103.2983654168659
 20
413.2939437296472
 30
0.0
 40
1.000000000000018
100
AcDbArc
 50
78.28929209330491
 51
180.0
  0
LINE
  5
407A
330
A
100
AcDbEntity
  8
_0-0_
  6
Continuous
 62
     7
100
AcDbLine
 10
102.2983654168659
 20
413.2939437296472
 30
0.0
 11
102.2983654168659
 21
400.0313283471505
 31
0.0
  0
ARC
  5
407B
330
A
100
AcDbEntity
  8
_0-0_
  6
Continuous
 62
     7
100
AcDbCircle
 10
123.7983654168659
 20
512.1916181209091
 30
0.0
 40
100.0000000000002
100
AcDbArc
 50
258.2892920933099
 51
281.7107079066918
  0
ARC
  5
407C
330
A
100
AcDbEntity
  8
_0-0_
  6
Continuous
 62
     7
100
AcDbCircle
 10
123.798365416866
 20
405.293943729647
 30
0.0
 40
32.50000000000005
100
AcDbArc
 50
10.9976790663239
 51
169.0023209336761
  0
LINE
  5
407D
330
A
100
AcDbEntity
  8
_0-0_
  6
Continuous
 62
     7
100
AcDbLine
 10
101.298365416866
 20
409.8042333984576
 30
0.0
 11
101.298365416866
 21
400.836423964484
 31
0.0
  0
LINE
  5
407E
330
A
100
AcDbEntity
  8
_0-0_
  6
Continuous
 62
     7
100
AcDbLine
 10
101.298365416866
 20
400.836423964484
 30
0.0
 11
101.3133788342808
 21
400.7886559160553
 31
0.0
  0
ARC
  5
407F
330
A
100
AcDbEntity
  8
_0-0_
  6
Continuous
 62
     7
100
AcDbCircle
 10
104.2471735395504
 20
401.7107426658565
 30
0.0
 40
3.075287847800088
100
AcDbArc
 50
197.447845795552
 51
198.1424203409051
  0
ARC
  5
4080
330
A
100
AcDbEntity
  8
_0-0_
  6
Continuous
 62
     7
100
AcDbCircle
 10
103.6131304754809
 20
401.5029857434528
 30
0.0
 40
2.408074579121066
100
AcDbArc
 50
198.1424203409584
 51
199.0297326251658
  0
ARC
  5
4081
330
A
100
AcDbEntity
  8
_0-0_
  6
Continuous
 62
     7
100
AcDbCircle
 10
103.0248099486747
 20
401.3000594123616
 30
0.0
 40
1.785740152950891
100
AcDbArc
 50
199.0294362215943
 51
200.2263590109227
  0
LINE
  5
4082
330
A
100
AcDbEntity
  8
_0-0_
  6
Continuous
 62
     7
100
AcDbLine
 10
101.3491891256971
 20
400.6826756164414
 30
0.0
 11
101.349197396376
 21
400.6826531692668
 31
0.0
  0
ARC
  5
4083
330
A
100
AcDbEntity
  8
_0-0_
  6
Continuous
 62
     7
100
AcDbCircle
 10
102.6847105652759
 20
401.174724035425
 30
0.0
 40
1.423281125296908
100
AcDbArc
 50
200.2263590108901
 51
201.729989775499
  0
LINE
  5
4084
330
A
100
AcDbEntity
  8
_0-0_
  6
Continuous
 62
     7
100
AcDbLine
 10
101.3625693462707
 20
400.6477783469199
 30
0.0
 11
101.362584776756
 21
400.6477396308225
 31
0.0
  0
ARC
  5
4085
330
A
100
AcDbEntity
  8
_0-0_
  6
Continuous
 62
     7
100
AcDbCircle
 10
102.4669739233337
 20
401.0878991923382
 30
0.0
 40
1.188871661144445
100
AcDbArc
 50
201.7299897754361
 51
203.5340624018676
  0
LINE
  5
4086
330
A
100
AcDbEntity
  8
_0-0_
  6
Continuous
 62
     7
100
AcDbLine
 10
101.3769892120279
 20
400.6131896434644
 30
0.0
 11
101.3770160875307
 21
400.6131279343894
 31
0.0
  0
ARC
  5
4087
330
A
100
AcDbEntity
  8
_0-0_
  6
Continuous
 62
     7
100
AcDbCircle
 10
102.3186108405503
 20
401.0232107693056
 30
0.0
 40
1.027019284340346
100
AcDbArc
 50
203.5340624018591
 51
205.6298953713413
  0
LINE
  5
4088
330
A
100
AcDbEntity
  8
_0-0_
  6
Continuous
 62
     7
100
AcDbLine
 10
101.3926431127966
 20
400.578967167702
 30
0.0
 11
101.3926872803742
 21
400.5788751061593
 31
0.0
  0
ARC
  5
4089
330
A
100
AcDbEntity
  8
_0-0_
  6
Continuous
 62
     7
100
AcDbCircle
 10
102.2167445593518
 20
400.9742260050827
 30
0.0
 40
0.9139872714189564
100
AcDbArc
 50
205.6298953714009
 51
207.9976456655738
  0
LINE
  5
408A
330
A
100
AcDbEntity
  8
_0-0_
  6
Continuous
 62
     7
100
AcDbLine
 10
101.4097240670989
 20
400.5451681332292
 30
0.0
 11
101.4102933072872
 21
400.5440974420073
 31
0.0
  0
ARC
  5
408B
330
A
100
AcDbEntity
  8
_0-0_
  6
Continuous
 62
     7
100
AcDbCircle
 10
102.0985473104894
 20
400.9100123112589
 30
0.0
 40
0.7794788415750284
100
AcDbArc
 50
207.9976456653793
 51
210.6012738643329
  0
LINE
  5
408C
330
A
100
AcDbEntity
  8
_0-0_
  6
Continuous
 62
     7
100
AcDbLine
 10
101.4276259343671
 20
400.513210381418
 30
0.0
 11
101.428168758114
 21
400.5122925631619
 31
0.0
  0
ARC
  5
408D
330
A
100
AcDbEntity
  8
_0-0_
  6
Continuous
 62
     7
100
AcDbCircle
 10
102.1329184373199
 20
400.9291015108506
 30
0.0
 40
0.8187806844411664
100
AcDbArc
 50
210.6012738642945
 51
212.9307961063947
  0
ARC
  5
408E
330
A
100
AcDbEntity
  8
_0-0_
  6
Continuous
 62
     7
100
AcDbCircle
 10
102.1375023537494
 20
400.9320704755725
 30
0.0
 40
0.8242420983014289
100
AcDbArc
 50
212.9307961062917
 51
215.2448871845289
  0
LINE
  5
408F
330
A
100
AcDbEntity
  8
_0-0_
  6
Continuous
 62
     7
100
AcDbLine
 10
101.4643495574755
 20
400.4564231803199
 30
0.0
 11
101.4644474227728
 21
400.4562846779062
 31
0.0
  0
ARC
  5
4090
330
A
100
AcDbEntity
  8
_0-0_
  6
Continuous
 62
     7
100
AcDbCircle
 10
102.1462000247379
 20
400.9380085642974
 30
0.0
 40
0.8347721323848083
100
AcDbArc
 50
215.2448871845159
 51
217.5530661594145
  0
LINE
  5
4091
330
A
100
AcDbEntity
  8
_0-0_
  6
Continuous
 62
     7
100
AcDbLine
 10
101.4844017121505
 20
400.429218326122
 30
0.0
 11
101.4845062897157
 21
400.4290822990308
 31
0.0
  0
ARC
  5
4092
330
A
100
AcDbEntity
  8
_0-0_
  6
Continuous
 62
     7
100
AcDbCircle
 10
102.1539409664171
 20
400.9437433704224
 30
0.0
 40
0.844404408311766
100
AcDbArc
 50
217.5530661593848
 51
219.8581976435112
  0
LINE
  5
4093
330
A
100
AcDbEntity
  8
_0-0_
  6
Continuous
 62
     7
100
AcDbLine
 10
101.5057483262003
 20
400.402573243803
 30
0.0
 11
101.5058600026358
 21
400.4024394820892
 31
0.0
  0
ARC
  5
4094
330
A
100
AcDbEntity
  8
_0-0_
  6
Continuous
 62
     7
100
AcDbCircle
 10
102.1608353667705
 20
400.9492724430772
 30
0.0
 40
0.8532403031068992
100
AcDbArc
 50
219.8581976434445
 51
222.1628572146826
  0
LINE
  5
4095
330
A
100
AcDbEntity
  8
_0-0_
  6
Continuous
 62
     7
100
AcDbLine
 10
101.5283796159601
 20
400.3765432416976
 30
0.0
 11
101.5284988973656
 21
400.3764115211379
 31
0.0
  0
ARC
  5
4096
330
A
100
AcDbEntity
  8
_0-0_
  6
Continuous
 62
     7
100
AcDbCircle
 10
102.1670493651771
 20
400.954659879228
 30
0.0
 40
0.8614626304002712
100
AcDbArc
 50
222.1628572147174
 51
224.4691540863177
  0
LINE
  5
4097
330
A
100
AcDbEntity
  8
_0-0_
  6
Continuous
 62
     7
100
AcDbLine
 10
101.5522857788987
 20
400.3511836190798
 30
0.0
 11
101.552413304176
 21
400.3510537085896
 31
0.0
  0
ARC
  5
4098
330
A
100
AcDbEntity
  8
_0-0_
  6
Continuous
 62
     7
100
AcDbCircle
 10
102.1726550207989
 20
400.9599075182306
 30
0.0
 40
0.8691390847002453
100
AcDbArc
 50
224.4691540862171
 51
226.7790783041715
  0
LINE
  5
4099
330
A
100
AcDbEntity
  8
_0-0_
  6
Continuous
 62
     7
100
AcDbLine
 10
101.5774570638616
 20
400.3265496883973
 30
0.0
 11
101.5775935781505
 21
400.3264213991078
 31
0.0
  0
ARC
  5
409A
330
A
100
AcDbEntity
  8
_0-0_
  6
Continuous
 62
     7
100
AcDbCircle
 10
102.1781193800449
 20
400.9654486575418
 30
0.0
 40
0.87691908165036
100
AcDbArc
 50
226.7790783041989
 51
229.0929845504308
  0
LINE
  5
409B
330
A
100
AcDbEntity
  8
_0-0_
  6
Continuous
 62
     7
100
AcDbLine
 10
101.6038835135137
 20
400.302696633515
 30
0.0
 11
101.6041702863531
 21
400.3024481616221
 31
0.0
  0
ARC
  5
409C
330
A
100
AcDbEntity
  8
_0-0_
  6
Continuous
 62
     7
100
AcDbCircle
 10
102.1764751197406
 20
400.9629714914844
 30
0.0
 40
0.873970189200528
100
AcDbArc
 50
229.092984550413
 51
231.4157591581058
  0
LINE
  5
409D
330
A
100
AcDbEntity
  8
_0-0_
  6
Continuous
 62
     7
100
AcDbLine
 10
101.6314108368296
 20
400.2797959510075
 30
0.0
 11
101.6316197913211
 21
400.2796292389061
 31
0.0
  0
ARC
  5
409E
330
A
100
AcDbEntity
  8
_0-0_
  6
Continuous
 62
     7
100
AcDbCircle
 10
102.1946413355332
 20
400.985312146091
 30
0.0
 40
0.9027633270906745
100
AcDbArc
 50
231.4157591581141
 51
233.6305515016143
  0
ARC
  5
409F
330
A
100
AcDbEntity
  8
_0-0_
  6
Continuous
 62
     7
100
AcDbCircle
 10
102.2061898978145
 20
401.0009937345655
 30
0.0
 40
0.9222384781260802
100
AcDbArc
 50
233.63055150168
 51
235.7985847768698
  0
LINE
  5
40A0
330
A
100
AcDbEntity
  8
_0-0_
  6
Continuous
 62
     7
100
AcDbLine
 10
101.6877961384624
 20
400.2382410087093
 30
0.0
 11
101.6878767981802
 21
400.2381861895091
 31
0.0
  0
ARC
  5
40A1
330
A
100
AcDbEntity
  8
_0-0_
  6
Continuous
 62
     7
100
AcDbCircle
 10
102.2137609250618
 20
401.011960070899
 30
0.0
 40
0.9355640728602814
100
AcDbArc
 50
235.7985847767797
 51
237.9476862145715
  0
LINE
  5
40A2
330
A
100
AcDbEntity
  8
_0-0_
  6
Continuous
 62
     7
100
AcDbLine
 10
101.7172632915159
 20
400.2190097355623
 30
0.0
 11
101.7173942021921
 21
400.2189277671995
 31
0.0
  0
ARC
  5
40A3
330
A
100
AcDbEntity
  8
_0-0_
  6
Continuous
 62
     7
100
AcDbCircle
 10
102.2207054709642
 20
401.0227600765324
 30
0.0
 40
0.948403192107936
100
AcDbArc
 50
237.9476862145725
 51
240.0863563546155
  0
LINE
  5
40A4
330
A
100
AcDbEntity
  8
_0-0_
  6
Continuous
 62
     7
100
AcDbLine
 10
101.7477423408294
 20
400.2007050343768
 30
0.0
 11
101.7478647114368
 21
400.2006346293765
 31
0.0
  0
ARC
  5
40A5
330
A
100
AcDbEntity
  8
_0-0_
  6
Continuous
 62
     7
100
AcDbCircle
 10
102.2251801479015
 20
401.0302543951545
 30
0.0
 40
0.9571305980153249
100
AcDbArc
 50
240.0863563545855
 51
242.2224265831232
  0
LINE
  5
40A6
330
A
100
AcDbEntity
  8
_0-0_
  6
Continuous
 62
     7
100
AcDbLine
 10
101.7791186556478
 20
400.1834202161173
 30
0.0
 11
101.7792317766884
 21
400.1833606307327
 31
0.0
  0
ARC
  5
40A7
330
A
100
AcDbEntity
  8
_0-0_
  6
Continuous
 62
     7
100
AcDbCircle
 10
102.2274398296612
 20
401.0342699900229
 30
0.0
 40
0.9617365525324441
100
AcDbArc
 50
242.2224265831534
 51
244.3634977607438
  0
LINE
  5
40A8
330
A
100
AcDbEntity
  8
_0-0_
  6
Continuous
 62
     7
100
AcDbLine
 10
101.8113346962793
 20
400.1672096031695
 30
0.0
 11
101.8114385175979
 21
400.167159778977
 31
0.0
  0
ARC
  5
40A9
330
A
100
AcDbEntity
  8
_0-0_
  6
Continuous
 62
     7
100
AcDbCircle
 10
102.2278117746955
 20
401.0347788694698
 30
0.0
 40
0.9623562622094641
100
AcDbArc
 50
244.3634977607302
 51
246.5168979967987
  0
LINE
  5
40AA
330
A
100
AcDbEntity
  8
_0-0_
  6
Continuous
 62
     7
100
AcDbLine
 10
101.8443334111201
 20
400.1521272280601
 30
0.0
 11
101.844428378034
 21
400.1520859685699
 31
0.0
  0
ARC
  5
40AB
330
A
100
AcDbEntity
  8
_0-0_
  6
Continuous
 62
     7
100
AcDbCircle
 10
102.2267604398548
 20
401.0320991687519
 30
0.0
 40
0.9594795662183885
100
AcDbArc
 50
246.5168979968404
 51
248.6891147636165
  0
LINE
  5
40AC
330
A
100
AcDbEntity
  8
_0-0_
  6
Continuous
 62
     7
100
AcDbLine
 10
101.8780584797562
 20
400.138226705246
 30
0.0
 11
101.8811216905382
 21
400.1370317387966
 31
0.0
  0
ARC
  5
40AD
330
A
100
AcDbEntity
  8
_0-0_
  6
Continuous
 62
     7
100
AcDbCircle
 10
102.1666430683207
 20
400.8689453112679
 30
0.0
 40
0.7856334608061941
100
AcDbArc
 50
248.6891147637272
 51
250.8895135225168
  0
LINE
  5
40AE
330
A
100
AcDbEntity
  8
_0-0_
  6
Continuous
 62
     7
100
AcDbLine
 10
101.909433868547
 20
400.126608890034
 30
0.0
 11
101.9133524468868
 21
400.1252511573804
 31
0.0
  0
ARC
  5
40AF
330
A
100
AcDbEntity
  8
_0-0_
  6
Continuous
 62
     7
100
AcDbCircle
 10
102.2004425584314
 20
400.9538274531007
 30
0.0
 40
0.8769033070848368
100
AcDbArc
 50
250.8895135223604
 51
252.3191217265378
  0
LINE
  5
40B0
330
A
100
AcDbEntity
  8
_0-0_
  6
Continuous
 62
     7
100
AcDbLine
 10
101.9341137779785
 20
400.1183465193394
 30
0.0
 11
101.9349669437163
 21
400.1180745531205
 31
0.0
  0
ARC
  5
40B1
330
A
100
AcDbEntity
  8
_0-0_
  6
Continuous
 62
     7
100
AcDbCircle
 10
102.2399537832619
 20
401.0748269140819
 30
0.0
 40
1.0041872596787
100
AcDbArc
 50
252.3191217266475
 51
253.4653642059338
  0
ARC
  5
40B2
330
A
100
AcDbEntity
  8
_0-0_
  6
Continuous
 62
     7
100
AcDbCircle
 10
102.2550676568379
 20
401.1257374620852
 30
0.0
 40
1.057293879534167
100
AcDbArc
 50
253.4653642056114
 51
254.5540358380631
  0
LINE
  5
40B3
330
A
100
AcDbEntity
  8
_0-0_
  6
Continuous
 62
     7
100
AcDbLine
 10
101.9734791548486
 20
400.1066308615531
 30
0.0
 11
101.9783811951071
 21
400.1052763828633
 31
0.0
  0
ARC
  5
40B4
330
A
100
AcDbEntity
  8
_0-0_
  6
Continuous
 62
     7
100
AcDbCircle
 10
102.2162587520588
 20
400.96618720379
 30
0.0
 40
0.8931702937792676
100
AcDbArc
 50
254.5540358382467
 51
256.4950945147436
  0
LINE
  5
40B5
330
A
100
AcDbEntity
  8
_0-0_
  6
Continuous
 62
     7
100
AcDbLine
 10
102.0076779310468
 20
400.0977131311801
 30
0.0
 11
102.0126677267363
 21
400.0965147353792
 31
0.0
  0
ARC
  5
40B6
330
A
100
AcDbEntity
  8
_0-0_
  6
Continuous
 62
     7
100
AcDbCircle
 10
102.3392993119996
 20
401.4565202321436
 30
0.0
 40
1.398679071024019
100
AcDbArc
 50
256.4950945147107
 51
258.1550517235434
  0
LINE
  5
40B7
330
A
100
AcDbEntity
  8
_0-0_
  6
Continuous
 62
     7
100
AcDbLine
 10
102.0522009828969
 20
400.0876237082429
 30
0.0
 11
102.0523167463815
 21
400.0875994291959
 31
0.0
  0
ARC
  5
40B8
330
A
100
AcDbEntity
  8
_0-0_
  6
Continuous
 62
     7
100
AcDbCircle
 10
102.3973287551262
 20
401.732630735895
 30
0.0
 40
1.680821610462526
100
AcDbArc
 50
258.1550517235486
 51
259.5444612161805
  0
LINE
  5
40B9
330
A
100
AcDbEntity
  8
_0-0_
  6
Continuous
 62
     7
100
AcDbLine
 10
102.0923059055264
 20
400.0797174449387
 30
0.0
 11
102.0924174732963
 21
400.0796968566119
 31
0.0
  0
ARC
  5
40BA
330
A
100
AcDbEntity
  8
_0-0_
  6
Continuous
 62
     7
100
AcDbCircle
 10
102.4708486660755
 20
402.1304086281365
 30
0.0
 40
2.085336648490658
100
AcDbArc
 50
259.5444612161999
 51
260.6706050132121
  0
LINE
  5
40BB
330
A
100
AcDbEntity
  8
_0-0_
  6
Continuous
 62
     7
100
AcDbLine
 10
102.1327945426675
 20
400.0726554001753
 30
0.0
 11
102.1328950626576
 21
400.0726388864375
 31
0.0
  0
ARC
  5
40BC
330
A
100
AcDbEntity
  8
_0-0_
  6
Continuous
 62
     7
100
AcDbCircle
 10
102.573163462991
 20
402.752575793627
 30
0.0
 40
2.715860469694483
100
AcDbArc
 50
260.6706050131438
 51
261.5396085815329
  0
LINE
  5
40BD
330
A
100
AcDbEntity
  8
_0-0_
  6
Continuous
 62
     7
100
AcDbLine
 10
102.1735906743654
 20
400.0662698398239
 30
0.0
 11
102.1736746379183
 21
400.0662573507211
 31
0.0
  0
ARC
  5
40BE
330
A
100
AcDbEntity
  8
_0-0_
  6
Continuous
 62
     7
100
AcDbCircle
 10
102.7356356932019
 20
403.8442907193086
 30
0.0
 40
3.819598979188196
100
AcDbArc
 50
261.5396085814949
 51
262.1600511743749
  0
LINE
  5
40BF
330
A
100
AcDbEntity
  8
_0-0_
  6
Continuous
 62
     7
100
AcDbLine
 10
102.2146182259636
 20
400.0603936328845
 30
0.0
 11
102.214681393427
 21
400.0603849351448
 31
0.0
  0
ARC
  5
40C0
330
A
100
AcDbEntity
  8
_0-0_
  6
Continuous
 62
     7
100
AcDbCircle
 10
103.0014729319953
 20
405.7744701581248
 30
0.0
 40
5.767998861012271
100
AcDbArc
 50
262.1600511745039
 51
262.5721805134383
  0
LINE
  5
40C1
330
A
100
AcDbEntity
  8
_0-0_
  6
Continuous
 62
     7
100
AcDbLine
 10
102.2558028874755
 20
400.0548734026406
 30
0.0
 11
102.2970758008196
 21
400.0494926080764
 31
0.0
  0
LINE
  5
40C2
330
A
100
AcDbEntity
  8
_0-0_
  6
Continuous
 62
     7
100
AcDbLine
 10
102.2970758008196
 20
400.0494926080764
 30
0.0
 11
102.298365416866
 21
400.0493260615373
 31
0.0
  0
LINE
  5
40C3
330
A
100
AcDbEntity
  8
_0-0_
  6
Continuous
 62
     7
100
AcDbLine
 10
102.298365416866
 20
400.0493260615373
 30
0.0
 11
145.298365416866
 21
400.0493260615373
 31
0.0
  0
LINE
  5
40C4
330
A
100
AcDbEntity
  8
_0-0_
  6
Continuous
 62
     7
100
AcDbLine
 10
146.298365416866
 20
400.836423964484
 30
0.0
 11
146.298365416866
 21
409.8042333984576
 31
0.0
  0
LINE
  5
40C5
330
A
100
AcDbEntity
  8
_0-0_
  6
Continuous
 62
     7
100
AcDbLine
 10
101.298365416866
 20
411.4939437543878
 30
0.0
 11
101.298365416866
 21
409.8042334390422
 31
0.0
  0
LINE
  5
40C6
330
A
100
AcDbEntity
  8
_0-0_
  6
Continuous
 62
     7
100
AcDbLine
 10
146.298365416866
 20
409.8042334390422
 30
0.0
 11
146.298365416866
 21
411.4939437543878
 31
0.0
  0
LINE
  5
40C7
330
A
100
AcDbEntity
  8
_0-0_
  6
Continuous
 62
     7
100
AcDbLine
 10
191.798365416866
 20
347.2939437296473
 30
0.0
 11
186.298365416866
 21
347.2939437296473
 31
0.0
  0
ARC
  5
40C8
330
A
100
AcDbEntity
  8
_0-0_
  6
Continuous
 62
     7
100
AcDbCircle
 10
123.798365416866
 20
405.2939437296472
 30
0.0
 40
10.00000000000003
100
AcDbArc
 50
45.58481225872842
 51
134.4151877412716
  0
ARC
  5
40C9
330
A
100
AcDbEntity
  8
_0-0_
  6
Continuous
 62
     7
100
AcDbCircle
 10
123.798365416866
 20
405.2939437296472
 30
0.0
 40
10.5
100
AcDbArc
 50
43.22298753880826
 51
136.777012461192
  0
ARC
  5
40CA
330
A
100
AcDbEntity
  8
_0-0_
  6
Continuous
 62
     7
100
AcDbCircle
 10
123.798365416866
 20
405.2939437296472
 30
0.0
 40
10.04999999999995
100
AcDbArc
 50
45.33264254078827
 51
134.6673574592127
  0
LINE
  5
40CF
330
A
100
AcDbEntity
  8
_0-0_
  6
Continuous
 62
     8
100
AcDbLine
 10
145.7738748314176
 20
411.2939437296472
 30
0.0
 11
145.6212532563795
 21
411.8272874656722
 31
0.0
  0
LINE
  5
40D0
330
A
100
AcDbEntity
  8
_0-0_
  6
Continuous
 62
     8
100
AcDbLine
 10
145.6212532563795
 20
411.8272874656722
 30
0.0
 11
145.298365416866
 21
412.8220918438282
 31
0.0
  0
LINE
  5
40D2
330
A
100
AcDbEntity
  8
_0-0_
  6
Continuous
 62
     8
100
AcDbLine
 10
102.2983654168659
 20
412.8220918438282
 30
0.0
 11
101.9754775773523
 21
411.827287465672
 31
0.0
  0
LINE
  5
40D3
330
A
100
AcDbEntity
  8
_0-0_
  6
Continuous
 62
     8
100
AcDbLine
 10
101.9754775773523
 20
411.827287465672
 30
0.0
 11
101.8228560023142
 21
411.2939437296472
 31
0.0
  0
ARC
  5
40D9
330
A
100
AcDbEntity
  8
_0-0_
  6
Continuous
 62
     7
100
AcDbCircle
 10
66.29836541686598
 20
307.7979286768051
 30
0.0
 40
5.0
100
AcDbArc
 50
180.0
 51
270.0
  0
LINE
  5
40DA
330
A
100
AcDbEntity
  8
_0-0_
  6
Continuous
 62
     7
100
AcDbLine
 10
181.298365416866
 20
302.7979286768051
 30
0.0
 11
66.29836541686598
 21
302.7979286768051
 31
0.0
  0
ARC
  5
40DB
330
A
100
AcDbEntity
  8
_0-0_
  6
Continuous
 62
     7
100
AcDbCircle
 10
181.298365416866
 20
307.7979286768051
 30
0.0
 40
5.0
100
AcDbArc
 50
270.0
 51
0.0
  0
LINE
  5
40DC
330
A
100
AcDbEntity
  8
_0-0_
  6
Continuous
 62
     7
100
AcDbLine
 10
61.29836541686598
 20
307.7979286768051
 30
0.0
 11
61.29836541686598
 21
409.8042333984576
 31
0.0
  0
LINE
  5
40DD
330
A
100
AcDbEntity
  8
_0-0_
  6
Continuous
 62
     7
100
AcDbLine
 10
186.298365416866
 20
307.7979286768051
 30
0.0
 11
186.298365416866
 21
409.8042333984576
 31
0.0
  0
LINE
  5
40DE
330
A
100
AcDbEntity
  8
_0-0_
  6
Continuous
 62
     7
100
AcDbLine
 10
61.29836262829826
 20
155.6698006014774
 30
0.0
 11
186.2983663535887
 21
155.6698006014774
 31
0.0
  0
LINE
  5
40DF
330
A
100
AcDbEntity
  8
_0-0_
  6
Continuous
 62
     7
100
AcDbLine
 10
101.2983654595189
 20
194.3709660689781
 30
0.0
 11
81.29836590655373
 21
194.3709660689781
 31
0.0
  0
LINE
  5
40E0
330
A
100
AcDbEntity
  8
_0-0_
  6
Continuous
 62
     7
100
AcDbLine
 10
166.2983668006234
 20
194.3709660689781
 30
0.0
 11
146.2983653850131
 21
194.3709660689781
 31
0.0
  0
LINE
  5
40E1
330
A
100
AcDbEntity
  8
_0-0_
  6
Continuous
 62
     7
100
AcDbLine
 10
81.29836590655373
 20
192.170966080899
 30
0.0
 11
71.79836528070496
 21
192.170966080899
 31
0.0
  0
LINE
  5
40E2
330
A
100
AcDbEntity
  8
_0-0_
  6
Continuous
 62
     7
100
AcDbLine
 10
71.79836528070496
 20
192.170966080899
 30
0.0
 11
59.79836703904198
 21
192.170966080899
 31
0.0
  0
LINE
  5
40E3
330
A
100
AcDbEntity
  8
_0-0_
  6
Continuous
 62
     7
100
AcDbLine
 10
59.79836703904198
 20
184.1709647695968
 30
0.0
 11
61.29836262829826
 21
184.1709647695968
 31
0.0
  0
LINE
  5
40E4
330
A
100
AcDbEntity
  8
_0-0_
  6
Continuous
 62
     7
100
AcDbLine
 10
187.7983656681353
 20
192.170966080899
 30
0.0
 11
175.7983637011819
 21
192.170966080899
 31
0.0
  0
LINE
  5
40E5
330
A
100
AcDbEntity
  8
_0-0_
  6
Continuous
 62
     7
100
AcDbLine
 10
186.2983663535887
 20
184.1709647695968
 30
0.0
 11
187.7983656681353
 21
184.1709647695968
 31
0.0
  0
LINE
  5
40E6
330
A
100
AcDbEntity
  8
_0-0_
  6
Continuous
 62
     7
100
AcDbLine
 10
175.7983637011819
 20
192.170966080899
 30
0.0
 11
166.2983668006234
 21
192.170966080899
 31
0.0
  0
LINE
  5
40E7
330
A
100
AcDbEntity
  8
_0-0_
  6
Continuous
 62
     7
100
AcDbLine
 10
102.2983656234317
 20
194.1709664087246
 30
0.0
 11
101.2983654595189
 21
194.1709664087246
 31
0.0
  0
LINE
  5
40E8
330
A
100
AcDbEntity
  8
_0-0_
  6
Continuous
 62
     7
100
AcDbLine
 10
101.2983654595189
 20
182.1709681670616
 30
0.0
 11
102.2983656234317
 21
182.1709681670616
 31
0.0
  0
LINE
  5
40E9
330
A
100
AcDbEntity
  8
_0-0_
  6
Continuous
 62
     7
100
AcDbLine
 10
145.2983652211003
 20
182.1709681670616
 30
0.0
 11
146.2983653850131
 21
182.1709681670616
 31
0.0
  0
LINE
  5
40EA
330
A
100
AcDbEntity
  8
_0-0_
  6
Continuous
 62
     7
100
AcDbLine
 10
146.2983653850131
 20
194.1709664087246
 30
0.0
 11
145.2983652211003
 21
194.1709664087246
 31
0.0
  0
ARC
  5
40EB
330
A
100
AcDbEntity
  8
_0-0_
  6
Continuous
 62
     7
100
AcDbCircle
 10
113.2623672680197
 20
206.1949554448003
 30
0.0
 40
6.000000000000012
100
AcDbArc
 50
6.121557463163433
 51
84.8747623314144
  0
ARC
  5
40EC
330
A
100
AcDbEntity
  8
_0-0_
  6
Continuous
 62
     7
100
AcDbCircle
 10
134.3343635657121
 20
206.1949554448003
 30
0.0
 40
6.000000000000025
100
AcDbArc
 50
95.1252376685856
 51
173.8784425368366
  0
ARC
  5
40ED
330
A
100
AcDbEntity
  8
_0-0_
  6
Continuous
 62
     7
100
AcDbCircle
 10
19.79836541686598
 20
196.1709663203286
 30
0.0
 40
100.0
100
AcDbArc
 50
0.0
 51
6.121557463163382
  0
ARC
  5
40EE
330
A
100
AcDbEntity
  8
_0-0_
  6
Continuous
 62
     7
100
AcDbCircle
 10
227.7983654168659
 20
196.1709663203286
 30
0.0
 40
100.0
100
AcDbArc
 50
173.8784425368367
 51
180.0
  0
LINE
  5
40EF
330
A
100
AcDbEntity
  8
_0-0_
  6
Continuous
 62
     7
100
AcDbLine
 10
119.7983652322762
 20
196.1709667365501
 30
0.0
 11
119.7983652322762
 21
195.1486725728462
 31
0.0
  0
LINE
  5
40F0
330
A
100
AcDbEntity
  8
_0-0_
  6
Continuous
 62
     7
100
AcDbLine
 10
127.798365408529
 20
195.1486725728462
 30
0.0
 11
127.798365408529
 21
196.1709667365501
 31
0.0
  0
ARC
  5
40F1
330
A
100
AcDbEntity
  8
_0-0_
  6
Continuous
 62
     7
100
AcDbCircle
 10
144.298365416866
 20
180.1709663203286
 30
0.0
 40
1.000000000000035
100
AcDbArc
 50
258.2892920933124
 51
0.0
  0
ARC
  5
40F2
330
A
100
AcDbEntity
  8
_0-0_
  6
Continuous
 62
     7
100
AcDbCircle
 10
144.298365416866
 20
196.1709663203286
 30
0.0
 40
1.0
100
AcDbArc
 50
0.0
 51
101.7107079066879
  0
LINE
  5
40F3
330
A
100
AcDbEntity
  8
_0-0_
  6
Continuous
 62
     7
100
AcDbLine
 10
145.2983652211003
 20
180.170967839236
 30
0.0
 11
145.2983652211003
 21
196.1709667365501
 31
0.0
  0
ARC
  5
40F4
330
A
100
AcDbEntity
  8
_0-0_
  6
Continuous
 62
     7
100
AcDbCircle
 10
103.2983654168659
 20
180.1709663203287
 30
0.0
 40
1.000000000000028
100
AcDbArc
 50
180.0
 51
281.7107079066943
  0
ARC
  5
40F5
330
A
100
AcDbEntity
  8
_0-0_
  6
Continuous
 62
     7
100
AcDbCircle
 10
103.2983654168659
 20
196.1709663203286
 30
0.0
 40
0.9999999999999905
100
AcDbArc
 50
78.28929209330538
 51
180.0
  0
LINE
  5
40F6
330
A
100
AcDbEntity
  8
_0-0_
  6
Continuous
 62
     7
100
AcDbLine
 10
102.2983656234317
 20
196.1709667365501
 30
0.0
 11
102.2983656234317
 21
180.170967839236
 31
0.0
  0
ARC
  5
40F7
330
A
100
AcDbEntity
  8
_0-0_
  6
Continuous
 62
     7
100
AcDbCircle
 10
123.7983654168657
 20
81.27329192906677
 30
0.0
 40
100.0000000000002
100
AcDbArc
 50
78.28929209330897
 51
101.7107079066909
  0
ARC
  5
40F8
330
A
100
AcDbEntity
  8
_0-0_
  6
Continuous
 62
     7
100
AcDbCircle
 10
123.798365416866
 20
295.0686407115905
 30
0.0
 40
100.0000000000001
100
AcDbArc
 50
258.2892920933098
 51
267.7118413074608
  0
ARC
  5
40F9
330
A
100
AcDbEntity
  8
_0-0_
  6
Continuous
 62
     7
100
AcDbCircle
 10
123.798365416866
 20
295.0686407115905
 30
0.0
 40
100.0000000000001
100
AcDbArc
 50
272.2882376861885
 51
281.7107079066918
  0
ARC
  5
40FA
330
A
100
AcDbEntity
  8
_0-0_
  6
Continuous
 62
     7
100
AcDbCircle
 10
155.798365416866
 20
222.6709663203286
 30
0.0
 40
0.5000000000000085
100
AcDbArc
 50
318.8482278147134
 51
90.0
  0
ARC
  5
40FB
330
A
100
AcDbEntity
  8
_0-0_
  6
Continuous
 62
     7
100
AcDbCircle
 10
91.79836541686598
 20
222.6709663203286
 30
0.0
 40
0.5
100
AcDbArc
 50
90.0
 51
221.1517721852877
  0
ARC
  5
40FC
330
A
100
AcDbEntity
  8
_0-0_
  6
Continuous
 62
     7
100
AcDbCircle
 10
165.5869635049473
 20
214.116239704591
 30
0.0
 40
12.5
100
AcDbArc
 50
138.848227814667
 51
177.6450040848342
  0
ARC
  5
40FD
330
A
100
AcDbEntity
  8
_0-0_
  6
Continuous
 62
     7
100
AcDbCircle
 10
82.00976732878462
 20
214.116239704591
 30
0.0
 40
12.50000000000001
100
AcDbArc
 50
2.354995915166347
 51
41.15177218533299
  0
ARC
  5
40FE
330
A
100
AcDbEntity
  8
_0-0_
  6
Continuous
 62
     7
100
AcDbCircle
 10
152.098365416866
 20
214.6709663203286
 30
0.0
 40
1.0
100
AcDbArc
 50
270.0
 51
357.6450040848339
  0
ARC
  5
40FF
330
A
100
AcDbEntity
  8
_0-0_
  6
Continuous
 62
     7
100
AcDbCircle
 10
95.49836541686591
 20
214.6709663203286
 30
0.0
 40
1.000000000000034
100
AcDbArc
 50
182.354995915166
 51
270.0
  0
LINE
  5
4100
330
A
100
AcDbEntity
  8
_0-0_
  6
Continuous
 62
     7
100
AcDbLine
 10
95.49836413629578
 20
213.6709663453946
 30
0.0
 11
152.098364845591
 21
213.6709663453946
 31
0.0
  0
LINE
  5
410D
330
A
100
AcDbEntity
  8
_0-0_
  6
Continuous
 62
     7
100
AcDbLine
 10
61.29836262829826
 20
155.6698006014774
 30
0.0
 11
61.29836262829826
 21
183.9168738942096
 31
0.0
  0
LINE
  5
410E
330
A
100
AcDbEntity
  8
_0-0_
  6
Continuous
 62
     7
100
AcDbLine
 10
101.2983654595189
 20
183.9168738942096
 30
0.0
 11
101.2983654595189
 21
175.6178062777469
 31
0.0
  0
LINE
  5
410F
330
A
100
AcDbEntity
  8
_0-0_
  6
Continuous
 62
     7
100
AcDbLine
 10
101.2983654595189
 20
175.6178062777469
 30
0.0
 11
101.3074963488679
 21
175.5943167061272
 31
0.0
  0
ARC
  5
4110
330
A
100
AcDbEntity
  8
_0-0_
  6
Continuous
 62
     7
100
AcDbCircle
 10
104.4323857206473
 20
176.8090267716428
 30
0.0
 40
3.352678649844846
100
AcDbArc
 50
201.2421484816327
 51
201.7535407236738
  0
ARC
  5
4111
330
A
100
AcDbEntity
  8
_0-0_
  6
Continuous
 62
     7
100
AcDbCircle
 10
103.2504533513995
 20
176.3373989022118
 30
0.0
 40
2.08012335725452
100
AcDbArc
 50
201.7535407234928
 51
202.5777782186987
  0
LINE
  5
4112
330
A
100
AcDbEntity
  8
_0-0_
  6
Continuous
 62
     7
100
AcDbLine
 10
101.3297523247826
 20
175.5387620963055
 30
0.0
 11
101.3297641956118
 21
175.5387335472658
 31
0.0
  0
ARC
  5
4113
330
A
100
AcDbEntity
  8
_0-0_
  6
Continuous
 62
     7
100
AcDbCircle
 10
102.6844829460744
 20
176.1020321766634
 30
0.0
 40
1.467163330626885
100
AcDbArc
 50
202.5777782187995
 51
203.7487647160665
  0
LINE
  5
4114
330
A
100
AcDbEntity
  8
_0-0_
  6
Continuous
 62
     7
100
AcDbLine
 10
101.3415587685555
 20
175.5111659547728
 30
0.0
 11
101.3415786723159
 21
175.5111207173906
 31
0.0
  0
ARC
  5
4115
330
A
100
AcDbEntity
  8
_0-0_
  6
Continuous
 62
     7
100
AcDbCircle
 10
102.3868195981494
 20
175.97101083416
 30
0.0
 40
1.141940240353874
100
AcDbArc
 50
203.7487647160339
 51
205.2581711599361
  0
LINE
  5
4116
330
A
100
AcDbEntity
  8
_0-0_
  6
Continuous
 62
     7
100
AcDbLine
 10
101.3540553518524
 20
175.4837475335617
 30
0.0
 11
101.3540866949281
 21
175.4836811012899
 31
0.0
  0
ARC
  5
4117
330
A
100
AcDbEntity
  8
_0-0_
  6
Continuous
 62
     7
100
AcDbCircle
 10
102.2072571317042
 20
175.8862111506095
 30
0.0
 40
0.9433611369957112
100
AcDbArc
 50
205.2581711599911
 51
207.0941814417208
  0
LINE
  5
4118
330
A
100
AcDbEntity
  8
_0-0_
  6
Continuous
 62
     7
100
AcDbLine
 10
101.3674213307811
 20
175.4565530745982
 30
0.0
 11
101.3674689242025
 21
175.4564600456027
 31
0.0
  0
ARC
  5
4119
330
A
100
AcDbEntity
  8
_0-0_
  6
Continuous
 62
     7
100
AcDbCircle
 10
102.0910975942516
 20
175.8266668190938
 30
0.0
 40
0.8128293223399318
100
AcDbArc
 50
207.094181441895
 51
209.2396989984562
  0
LINE
  5
411A
330
A
100
AcDbEntity
  8
_0-0_
  6
Continuous
 62
     7
100
AcDbLine
 10
101.3818358625565
 20
175.429628655678
 30
0.0
 11
101.3819061304609
 21
175.4295031303756
 31
0.0
  0
ARC
  5
411B
330
A
100
AcDbEntity
  8
_0-0_
  6
Continuous
 62
     7
100
AcDbCircle
 10
102.0137673488888
 20
175.7832132016915
 30
0.0
 40
0.7241266559818739
100
AcDbArc
 50
209.2396989985824
 51
211.670715421004
  0
LINE
  5
411C
330
A
100
AcDbEntity
  8
_0-0_
  6
Continuous
 62
     7
100
AcDbLine
 10
101.3974779434877
 20
175.4030201156235
 30
0.0
 11
101.3976547012214
 21
175.4027335930049
 31
0.0
  0
ARC
  5
411D
330
A
100
AcDbEntity
  8
_0-0_
  6
Continuous
 62
     7
100
AcDbCircle
 10
101.9569293669334
 20
175.7477539020563
 30
0.0
 40
0.6571355760915099
100
AcDbArc
 50
211.6707154209975
 51
214.3579503428676
  0
LINE
  5
411E
330
A
100
AcDbEntity
  8
_0-0_
  6
Continuous
 62
     7
100
AcDbLine
 10
101.4144456094508
 20
175.3768920163998
 30
0.0
 11
101.4149385187999
 21
175.3761710058939
 31
0.0
  0
ARC
  5
411F
330
A
100
AcDbEntity
  8
_0-0_
  6
Continuous
 62
     7
100
AcDbCircle
 10
101.9137493294913
 20
175.7171764558983
 30
0.0
 40
0.6042325229539872
100
AcDbArc
 50
214.3579503430918
 51
217.114830220075
  0
LINE
  5
4120
330
A
100
AcDbEntity
  8
_0-0_
  6
Continuous
 62
     7
100
AcDbLine
 10
101.4319175361115
 20
175.3525738438894
 30
0.0
 11
101.4322147934008
 21
175.3521810106839
 31
0.0
  0
ARC
  5
4121
330
A
100
AcDbEntity
  8
_0-0_
  6
Continuous
 62
     7
100
AcDbCircle
 10
101.9522875148492
 20
175.7457205721651
 30
0.0
 40
0.6521878732739089
100
AcDbArc
 50
217.114830220027
 51
219.5825522655642
  0
ARC
  5
4122
330
A
100
AcDbEntity
  8
_0-0_
  6
Continuous
 62
     7
100
AcDbCircle
 10
101.9637526573341
 20
175.7551994835904
 30
0.0
 40
0.6670640036178038
100
AcDbArc
 50
219.58255226555
 51
221.995258326675
  0
LINE
  5
4123
330
A
100
AcDbEntity
  8
_0-0_
  6
Continuous
 62
     7
100
AcDbLine
 10
101.4679905572883
 20
175.3088875690274
 30
0.0
 11
101.4681624027696
 21
175.3086966835192
 31
0.0
  0
ARC
  5
4124
330
A
100
AcDbEntity
  8
_0-0_
  6
Continuous
 62
     7
100
AcDbCircle
 10
101.983358971875
 20
175.7725045605508
 30
0.0
 40
0.6932137128004626
100
AcDbArc
 50
221.995258326848
 51
224.3594162115664
  0
LINE
  5
4125
330
A
100
AcDbEntity
  8
_0-0_
  6
Continuous
 62
     7
100
AcDbLine
 10
101.4877332901621
 20
175.2878392788964
 30
0.0
 11
101.4879180883067
 21
175.2876503016581
 31
0.0
  0
ARC
  5
4126
330
A
100
AcDbEntity
  8
_0-0_
  6
Continuous
 62
     7
100
AcDbCircle
 10
102.0026255599762
 20
175.7909753934189
 30
0.0
 40
0.7199027221703884
100
AcDbArc
 50
224.3594162116576
 51
226.6780069027509
  0
LINE
  5
4127
330
A
100
AcDbEntity
  8
_0-0_
  6
Continuous
 62
     7
100
AcDbLine
 10
101.5087019873032
 20
175.2672393590025
 30
0.0
 11
101.5088996324545
 21
175.267052964344
 31
0.0
  0
ARC
  5
4128
330
A
100
AcDbEntity
  8
_0-0_
  6
Continuous
 62
     7
100
AcDbCircle
 10
102.0214917128407
 20
175.8105843086803
 30
0.0
 40
0.7471124166754638
100
AcDbArc
 50
226.6780069027176
 51
228.9538297291778
  0
LINE
  5
4129
330
A
100
AcDbEntity
  8
_0-0_
  6
Continuous
 62
     7
100
AcDbLine
 10
101.5308876596278
 20
175.2471265674772
 30
0.0
 11
101.5310980671785
 21
175.2469433651007
 31
0.0
  0
ARC
  5
412A
330
A
100
AcDbEntity
  8
_0-0_
  6
Continuous
 62
     7
100
AcDbCircle
 10
102.0399221515834
 20
175.8313267744744
 30
0.0
 40
0.774858643896907
100
AcDbArc
 50
228.9538297292218
 51
231.1894232580605
  0
LINE
  5
412B
330
A
100
AcDbEntity
  8
_0-0_
  6
Continuous
 62
     7
100
AcDbLine
 10
101.5542813052939
 20
175.2275396543426
 30
0.0
 11
101.5545044233952
 21
175.2273601949605
 31
0.0
  0
ARC
  5
412C
330
A
100
AcDbEntity
  8
_0-0_
  6
Continuous
 62
     7
100
AcDbCircle
 10
102.0578306056669
 20
175.8531351239061
 30
0.0
 40
0.8030762774836954
100
AcDbArc
 50
231.189423257979
 51
233.3873263015863
  0
LINE
  5
412D
330
A
100
AcDbEntity
  8
_0-0_
  6
Continuous
 62
     7
100
AcDbLine
 10
101.5788739528161
 20
175.2085173828013
 30
0.0
 11
101.5791097456071
 21
175.2083421866832
 31
0.0
  0
ARC
  5
412E
330
A
100
AcDbEntity
  8
_0-0_
  6
Continuous
 62
     7
100
AcDbCircle
 10
102.0753937536772
 20
175.8762804527601
 30
0.0
 40
0.8321294033717983
100
AcDbArc
 50
233.3873263018046
 51
235.5489476919988
  0
LINE
  5
412F
330
A
100
AcDbEntity
  8
_0-0_
  6
Continuous
 62
     7
100
AcDbLine
 10
101.6046565020341
 20
175.1900984186966
 30
0.0
 11
101.6049397513553
 21
175.1899041029022
 31
0.0
  0
ARC
  5
4130
330
A
100
AcDbEntity
  8
_0-0_
  6
Continuous
 62
     7
100
AcDbCircle
 10
102.0905112325361
 20
175.8977096259943
 30
0.0
 40
0.8583520966686993
100
AcDbArc
 50
235.5489476918627
 51
237.679147743612
  0
LINE
  5
4131
330
A
100
AcDbEntity
  8
_0-0_
  6
Continuous
 62
     7
100
AcDbLine
 10
101.6315847528609
 20
175.1723443331186
 30
0.0
 11
101.6316880441764
 21
175.1722789824322
 31
0.0
  0
ARC
  5
4132
330
A
100
AcDbEntity
  8
_0-0_
  6
Continuous
 62
     7
100
AcDbCircle
 10
102.117517558533
 20
175.9401663970299
 30
0.0
 40
0.9086701263480272
100
AcDbArc
 50
237.6791477435617
 51
239.6760025294511
  0
ARC
  5
4133
330
A
100
AcDbEntity
  8
_0-0_
  6
Continuous
 62
     7
100
AcDbCircle
 10
102.1347580253082
 20
175.9696415726936
 30
0.0
 40
0.9428171566001059
100
AcDbArc
 50
239.6760025295571
 51
241.6005489170457
  0
LINE
  5
4134
330
A
100
AcDbEntity
  8
_0-0_
  6
Continuous
 62
     7
100
AcDbLine
 10
101.6863393064144
 20
175.140289510343
 30
0.0
 11
101.686516402382
 21
175.1401937571031
 31
0.0
  0
ARC
  5
4135
330
A
100
AcDbEntity
  8
_0-0_
  6
Continuous
 62
     7
100
AcDbCircle
 10
102.1515995024965
 20
176.0003666535353
 30
0.0
 40
0.9778546424538717
100
AcDbArc
 50
241.6005489171027
 51
243.4797355291015
  0
LINE
  5
4136
330
A
100
AcDbEntity
  8
_0-0_
  6
Continuous
 62
     7
100
AcDbLine
 10
101.7149734143413
 20
175.125405305297
 30
0.0
 11
101.7151975768486
 21
175.1252934429858
 31
0.0
  0
ARC
  5
4137
330
A
100
AcDbEntity
  8
_0-0_
  6
Continuous
 62
     7
100
AcDbCircle
 10
102.1673912957964
 20
176.0314509922756
 30
0.0
 40
1.012719439721939
100
AcDbArc
 50
243.4797355292991
 51
245.3225786599476
  0
LINE
  5
4138
330
A
100
AcDbEntity
  8
_0-0_
  6
Continuous
 62
     7
100
AcDbLine
 10
101.744571791166
 20
175.1112204069901
 30
0.0
 11
101.7447860285813
 21
175.1111219710555
 31
0.0
  0
ARC
  5
4139
330
A
100
AcDbEntity
  8
_0-0_
  6
Continuous
 62
     7
100
AcDbCircle
 10
102.1803492236884
 20
176.0590881116213
 30
0.0
 40
1.043242589521415
100
AcDbArc
 50
245.3225786598494
 51
247.137403787045
  0
LINE
  5
413A
330
A
100
AcDbEntity
  8
_0-0_
  6
Continuous
 62
     7
100
AcDbLine
 10
101.7750260050009
 20
175.0978034560775
 30
0.0
 11
101.7752295092404
 21
175.0977176490348
 31
0.0
  0
ARC
  5
413B
330
A
100
AcDbEntity
  8
_0-0_
  6
Continuous
 62
     7
100
AcDbCircle
 10
102.1906314617983
 20
176.0829055298863
 30
0.0
 40
1.069183774084388
100
AcDbArc
 50
247.1374037871333
 51
248.9318683742135
  0
LINE
  5
413C
330
A
100
AcDbEntity
  8
_0-0_
  6
Continuous
 62
     7
100
AcDbLine
 10
101.8062835922029
 20
175.0851928167755
 30
0.0
 11
101.8064757641007
 21
175.0851187865877
 31
0.0
  0
ARC
  5
413D
330
A
100
AcDbEntity
  8
_0-0_
  6
Continuous
 62
     7
100
AcDbCircle
 10
102.1984102451765
 20
176.1025252701613
 30
0.0
 40
1.090288306033713
100
AcDbArc
 50
248.9318683741163
 51
250.7132426744538
  0
LINE
  5
413E
330
A
100
AcDbEntity
  8
_0-0_
  6
Continuous
 62
     7
100
AcDbLine
 10
101.8382921119388
 20
175.0734268684586
 30
0.0
 11
101.8384725373255
 21
175.0733637311985
 31
0.0
  0
ARC
  5
413F
330
A
100
AcDbEntity
  8
_0-0_
  6
Continuous
 62
     7
100
AcDbCircle
 10
102.2040819004573
 20
176.1181542499804
 30
0.0
 40
1.106913472023132
100
AcDbArc
 50
250.713242674538
 51
252.4876502124935
  0
LINE
  5
4140
330
A
100
AcDbEntity
  8
_0-0_
  6
Continuous
 62
     7
100
AcDbLine
 10
101.8709990611737
 20
175.062543878337
 30
0.0
 11
101.8719009517018
 21
175.0622592996081
 31
0.0
  0
ARC
  5
4141
330
A
100
AcDbEntity
  8
_0-0_
  6
Continuous
 62
     7
100
AcDbCircle
 10
102.1932010499013
 20
176.0805276583104
 30
0.0
 40
1.06775662181859
100
AcDbArc
 50
252.4876502124884
 51
254.2635620322374
  0
LINE
  5
4142
330
A
100
AcDbEntity
  8
_0-0_
  6
Continuous
 62
     7
100
AcDbLine
 10
101.9036119714241
 20
175.0527911312453
 30
0.0
 11
101.9050444030761
 21
175.0523875097418
 31
0.0
  0
ARC
  5
4143
330
A
100
AcDbEntity
  8
_0-0_
  6
Continuous
 62
     7
100
AcDbCircle
 10
102.1988816761923
 20
176.0952006578843
 30
0.0
 40
1.083420327025052
100
AcDbArc
 50
254.263562032217
 51
255.8564303400608
  0
LINE
  5
4144
330
A
100
AcDbEntity
  8
_0-0_
  6
Continuous
 62
     7
100
AcDbLine
 10
101.9341452487025
 20
175.0446226127249
 30
0.0
 11
101.9370657163191
 21
175.0438866805712
 31
0.0
  0
ARC
  5
4145
330
A
100
AcDbEntity
  8
_0-0_
  6
Continuous
 62
     7
100
AcDbCircle
 10
102.187473899006
 20
176.0376046269557
 30
0.0
 40
1.024782715956578
100
AcDbArc
 50
255.8564303400192
 51
257.2037116655058
  0
ARC
  5
4146
330
A
100
AcDbEntity
  8
_0-0_
  6
Continuous
 62
     7
100
AcDbCircle
 10
102.3263173563913
 20
176.6489096851382
 30
0.0
 40
1.651657009430319
100
AcDbArc
 50
257.203711665528
 51
258.0396659442446
  0
LINE
  5
4147
330
A
100
AcDbEntity
  8
_0-0_
  6
Continuous
 62
     7
100
AcDbLine
 10
101.9840370944513
 20
175.0331079958562
 30
0.0
 11
101.9865052448703
 21
175.0325851599306
 31
0.0
  0
ARC
  5
4148
330
A
100
AcDbEntity
  8
_0-0_
  6
Continuous
 62
     7
100
AcDbCircle
 10
102.2192713161963
 20
176.1314034473926
 30
0.0
 40
1.123201528142457
100
AcDbArc
 50
258.0396659442684
 51
259.5262610219036
  0
LINE
  5
4149
330
A
100
AcDbEntity
  8
_0-0_
  6
Continuous
 62
     7
100
AcDbLine
 10
102.0150903060743
 20
175.0269163320639
 30
0.0
 11
102.0199881726277
 21
175.0260108879655
 31
0.0
  0
ARC
  5
414A
330
A
100
AcDbEntity
  8
_0-0_
  6
Continuous
 62
     7
100
AcDbCircle
 10
102.3419440466948
 20
176.7675837913463
 30
0.0
 40
1.771082088057043
100
AcDbArc
 50
259.5262610219592
 51
260.7913139394705
  0
LINE
  5
414B
330
A
100
AcDbEntity
  8
_0-0_
  6
Continuous
 62
     7
100
AcDbLine
 10
102.0585162994078
 20
175.0193273814613
 30
0.0
 11
102.0586689476148
 21
175.0193026340974
 31
0.0
  0
ARC
  5
414C
330
A
100
AcDbEntity
  8
_0-0_
  6
Continuous
 62
     7
100
AcDbCircle
 10
102.4011140674151
 20
177.1315936199017
 30
0.0
 40
2.139869591537054
100
AcDbArc
 50
260.7913139394173
 51
261.8466400810731
  0
LINE
  5
414D
330
A
100
AcDbEntity
  8
_0-0_
  6
Continuous
 62
     7
100
AcDbLine
 10
102.0976309444386
 20
175.0133538169395
 30
0.0
 11
102.0977679559879
 21
175.0133341871068
 31
0.0
  0
ARC
  5
414E
330
A
100
AcDbEntity
  8
_0-0_
  6
Continuous
 62
     7
100
AcDbCircle
 10
102.475704208618
 20
177.6512390743668
 30
0.0
 40
2.664841084433036
100
AcDbArc
 50
261.8466400810434
 51
262.7000278582735
  0
LINE
  5
414F
330
A
100
AcDbEntity
  8
_0-0_
  6
Continuous
 62
     7
100
AcDbLine
 10
102.1370985044327
 20
175.0079978476954
 30
0.0
 11
102.1372159150993
 21
175.0079828071001
 31
0.0
  0
ARC
  5
4150
330
A
100
AcDbEntity
  8
_0-0_
  6
Continuous
 62
     7
100
AcDbCircle
 10
102.5793164481687
 20
178.459130678788
 30
0.0
 40
3.479349725680957
100
AcDbArc
 50
262.7000278582613
 51
263.3575426647877
  0
LINE
  5
4151
330
A
100
AcDbEntity
  8
_0-0_
  6
Continuous
 62
     7
100
AcDbLine
 10
102.1768488332066
 20
175.003136707077
 30
0.0
 11
102.1769435011139
 21
175.0031256825304
 31
0.0
  0
ARC
  5
4152
330
A
100
AcDbEntity
  8
_0-0_
  6
Continuous
 62
     7
100
AcDbCircle
 10
102.7438996774496
 20
179.8715847952657
 30
0.0
 40
4.901360366088329
100
AcDbArc
 50
263.357542664797
 51
263.826526277146
  0
LINE
  5
4153
330
A
100
AcDbEntity
  8
_0-0_
  6
Continuous
 62
     7
100
AcDbLine
 10
102.2168118870165
 20
174.9986481140191
 30
0.0
 11
102.2168814188435
 21
174.998640593015
 31
0.0
  0
ARC
  5
4154
330
A
100
AcDbEntity
  8
_0-0_
  6
Continuous
 62
     7
100
AcDbCircle
 10
103.0136233695013
 20
182.3645351314319
 30
0.0
 40
7.408859567235549
100
AcDbArc
 50
263.8265262770968
 51
264.1378669177853
  0
LINE
  5
4155
330
A
100
AcDbEntity
  8
_0-0_
  6
Continuous
 62
     7
100
AcDbLine
 10
102.2569186610411
 20
174.9944199307575
 30
0.0
 11
102.297109950806
 21
174.9902934093428
 31
0.0
  0
LINE
  5
4156
330
A
100
AcDbEntity
  8
_0-0_
  6
Continuous
 62
     7
100
AcDbLine
 10
102.297109950806
 20
174.9902934093428
 30
0.0
 11
102.2983656234317
 21
174.9901656429718
 31
0.0
  0
LINE
  5
4157
330
A
100
AcDbEntity
  8
_0-0_
  6
Continuous
 62
     7
100
AcDbLine
 10
186.2983663535887
 20
183.9168738942096
 30
0.0
 11
186.2983663535887
 21
155.6698006014774
 31
0.0
  0
LINE
  5
4158
330
A
100
AcDbEntity
  8
_0-0_
  6
Continuous
 62
     7
100
AcDbLine
 10
101.2983654595189
 20
194.3709660689781
 30
0.0
 11
101.2983654595189
 21
183.9168738942096
 31
0.0
  0
LINE
  5
4159
330
A
100
AcDbEntity
  8
_0-0_
  6
Continuous
 62
     7
100
AcDbLine
 10
61.29836262829826
 20
183.9168738942096
 30
0.0
 11
61.29836262829826
 21
185.4034770648429
 31
0.0
  0
LINE
  5
415A
330
A
100
AcDbEntity
  8
_0-0_
  6
Continuous
 62
     7
100
AcDbLine
 10
61.29836262829826
 20
185.4034770648429
 30
0.0
 11
61.29997689292998
 21
185.4201821795273
 31
0.0
  0
ARC
  5
415B
330
A
100
AcDbEntity
  8
_0-0_
  6
Continuous
 62
     7
100
AcDbCircle
 10
105.3170767929385
 20
181.1666796505525
 30
0.0
 40
44.22213662150808
100
AcDbArc
 50
174.290586457417
 51
174.4804771230626
  0
LINE
  5
415C
330
A
100
AcDbEntity
  8
_0-0_
  6
Continuous
 62
     7
100
AcDbLine
 10
61.31431564143156
 20
185.5660407876677
 30
0.0
 11
61.31559660925598
 21
185.578853130066
 31
0.0
  0
ARC
  5
415D
330
A
100
AcDbEntity
  8
_0-0_
  6
Continuous
 62
     7
100
AcDbCircle
 10
82.6507412181719
 20
183.4457823047197
 30
0.0
 40
21.44151082898066
100
AcDbArc
 50
173.9677615190743
 51
174.2905864574312
  0
ARC
  5
415E
330
A
100
AcDbEntity
  8
_0-0_
  6
Continuous
 62
     7
100
AcDbCircle
 10
75.88215007947576
 20
184.161040667262
 30
0.0
 40
14.63523280585945
100
AcDbArc
 50
173.4948046819158
 51
173.9677615190815
  0
LINE
  5
415F
330
A
100
AcDbEntity
  8
_0-0_
  6
Continuous
 62
     7
100
AcDbLine
 10
61.34114494904566
 20
185.8191145734889
 30
0.0
 11
61.34118798417524
 21
185.8194919837101
 31
0.0
  0
ARC
  5
4160
330
A
100
AcDbEntity
  8
_0-0_
  6
Continuous
 62
     7
100
AcDbCircle
 10
72.48155598712742
 20
184.5491840974435
 30
0.0
 40
11.21255909090838
100
AcDbArc
 50
172.8735965605284
 51
173.4948046819267
  0
LINE
  5
4161
330
A
100
AcDbEntity
  8
_0-0_
  6
Continuous
 62
     7
100
AcDbLine
 10
61.3556153321374
 20
185.9402002399646
 30
0.0
 11
61.35904841284378
 21
185.9676594843504
 31
0.0
  0
ARC
  5
4162
330
A
100
AcDbEntity
  8
_0-0_
  6
Continuous
 62
     7
100
AcDbCircle
 10
68.22755634314467
 20
185.1089271126491
 30
0.0
 40
6.9219811091056
100
AcDbArc
 50
171.4092839837513
 51
172.87359656054
  0
LINE
  5
4163
330
A
100
AcDbEntity
  8
_0-0_
  6
Continuous
 62
     7
100
AcDbLine
 10
61.38323572143611
 20
186.1428989217765
 30
0.0
 11
61.38781316406835
 21
186.1731990563893
 31
0.0
  0
ARC
  5
4164
330
A
100
AcDbEntity
  8
_0-0_
  6
Continuous
 62
     7
100
AcDbCircle
 10
69.91747681311745
 20
184.8846224040241
 30
0.0
 40
8.626447226693582
100
AcDbArc
 50
169.9375302186677
 51
171.4092839837701
  0
LINE
  5
4165
330
A
100
AcDbEntity
  8
_0-0_
  6
Continuous
 62
     7
100
AcDbLine
 10
61.42372299078249
 20
186.3918509071051
 30
0.0
 11
61.42453637621941
 21
186.3964346153151
 31
0.0
  0
ARC
  5
4166
330
A
100
AcDbEntity
  8
_0-0_
  6
Continuous
 62
     7
100
AcDbCircle
 10
69.89039553654641
 20
184.8941560590453
 30
0.0
 40
8.598116781198092
100
AcDbArc
 50
168.5229615691874
 51
169.9375302186573
  0
LINE
  5
4167
330
A
100
AcDbEntity
  8
_0-0_
  6
Continuous
 62
     7
100
AcDbLine
 10
61.46420219634354
 20
186.6049681400881
 30
0.0
 11
61.4644201590678
 21
186.606041663052
 31
0.0
  0
ARC
  5
4168
330
A
100
AcDbEntity
  8
_0-0_
  6
Continuous
 62
     7
100
AcDbCircle
 10
69.27277059661026
 20
185.0206733096064
 30
0.0
 40
7.967667749823383
100
AcDbArc
 50
167.0122283660461
 51
168.5229615691802
  0
LINE
  5
4169
330
A
100
AcDbEntity
  8
_0-0_
  6
Continuous
 62
     7
100
AcDbLine
 10
61.50893130224404
 20
186.8113516120468
 30
0.0
 11
61.51205254860452
 21
186.8248843918362
 31
0.0
  0
ARC
  5
416A
330
A
100
AcDbEntity
  8
_0-0_
  6
Continuous
 62
     7
100
AcDbCircle
 10
67.37575421283827
 20
185.4724602954554
 30
0.0
 40
6.017644733914526
100
AcDbArc
 50
165.2764223709216
 51
167.0122283660437
  0
LINE
  5
416B
330
A
100
AcDbEntity
  8
_0-0_
  6
Continuous
 62
     7
100
AcDbLine
 10
61.55570938880965
 20
187.0018805744847
 30
0.0
 11
61.56305270675659
 21
187.0298247832771
 31
0.0
  0
ARC
  5
416C
330
A
100
AcDbEntity
  8
_0-0_
  6
Continuous
 62
     7
100
AcDbCircle
 10
66.49178852746661
 20
185.7346271100471
 30
0.0
 40
5.096074352194164
100
AcDbArc
 50
163.876321443484
 51
165.2764223709131
  0
ARC
  5
416D
330
A
100
AcDbEntity
  8
_0-0_
  6
Continuous
 62
     7
100
AcDbCircle
 10
68.83516342524217
 20
185.0571974507729
 30
0.0
 40
7.535401483759026
100
AcDbArc
 50
162.9294294817169
 51
163.8763214434698
  0
LINE
  5
416E
330
A
100
AcDbEntity
  8
_0-0_
  6
Continuous
 62
     7
100
AcDbLine
 10
61.63174219223436
 20
187.2692096707418
 30
0.0
 11
61.63447963507929
 21
187.2781241576216
 31
0.0
  0
ARC
  5
416F
330
A
100
AcDbEntity
  8
_0-0_
  6
Continuous
 62
     7
100
AcDbCircle
 10
65.13263950445537
 20
186.2039162044604
 30
0.0
 40
3.659377706434234
100
AcDbArc
 50
160.687810524091
 51
162.9294294817117
  0
LINE
  5
4170
330
A
100
AcDbEntity
  8
_0-0_
  6
Continuous
 62
     7
100
AcDbLine
 10
61.67917273306296
 20
187.4141279451226
 30
0.0
 11
61.67921393627807
 21
187.4142455228401
 31
0.0
  0
ARC
  5
4171
330
A
100
AcDbEntity
  8
_0-0_
  6
Continuous
 62
     7
100
AcDbCircle
 10
67.66619152082137
 20
185.316205772197
 30
0.0
 40
6.343947619038379
100
AcDbArc
 50
159.3924177966997
 51
160.6878105240629
  0
LINE
  5
4172
330
A
100
AcDbEntity
  8
_0-0_
  6
Continuous
 62
     7
100
AcDbLine
 10
61.72817428879614
 20
187.5490565834413
 30
0.0
 11
61.7287535550438
 21
187.5505970772992
 31
0.0
  0
ARC
  5
4173
330
A
100
AcDbEntity
  8
_0-0_
  6
Continuous
 62
     7
100
AcDbCircle
 10
64.59993345471264
 20
186.4709169877596
 30
0.0
 40
3.06747177851901
100
AcDbArc
 50
156.6508682877848
 51
159.3917034836528
  0
LINE
  5
4174
330
A
100
AcDbEntity
  8
_0-0_
  6
Continuous
 62
     7
100
AcDbLine
 10
61.78366657375977
 20
187.6866570780992
 30
0.0
 11
61.78421310979945
 21
187.6879231310655
 31
0.0
  0
ARC
  5
4175
330
A
100
AcDbEntity
  8
_0-0_
  6
Continuous
 62
     7
100
AcDbCircle
 10
68.0272388107685
 20
184.9929027546157
 30
0.0
 40
6.799890052967021
100
AcDbArc
 50
155.4371866449232
 51
156.6508682877823
  0
ARC
  5
4176
330
A
100
AcDbEntity
  8
_0-0_
  6
Continuous
 62
     7
100
AcDbCircle
 10
65.40145797306639
 20
186.1930182610542
 30
0.0
 40
3.91284965899291
100
AcDbArc
 50
153.3281665795019
 51
155.4371866449164
  0
LINE
  5
4177
330
A
100
AcDbEntity
  8
_0-0_
  6
Continuous
 62
     7
100
AcDbLine
 10
61.90496617345514
 20
187.9494172900714
 30
0.0
 11
61.91043753382598
 21
187.9603092151713
 31
0.0
  0
ARC
  5
4178
330
A
100
AcDbEntity
  8
_0-0_
  6
Continuous
 62
     7
100
AcDbCircle
 10
68.20834787440162
 20
184.7966685602022
 30
0.0
 40
7.047857607223844
100
AcDbArc
 50
151.9590272973265
 51
153.3281665795184
  0
LINE
  5
4179
330
A
100
AcDbEntity
  8
_0-0_
  6
Continuous
 62
     7
100
AcDbLine
 10
61.98782668507567
 20
188.1098864801178
 30
0.0
 11
61.98919730127454
 21
188.112459793227
 31
0.0
  0
ARC
  5
417A
330
A
100
AcDbEntity
  8
_0-0_
  6
Continuous
 62
     7
100
AcDbCircle
 10
66.4360880594055
 20
185.7439254374525
 30
0.0
 40
5.038332304367716
100
AcDbArc
 50
149.9776053535465
 51
151.9590272973353
  0
LINE
  5
417B
330
A
100
AcDbEntity
  8
_0-0_
  6
Continuous
 62
     7
100
AcDbLine
 10
62.07374926646344
 20
188.2647968472686
 30
0.0
 11
62.08794138830149
 21
188.2893561498205
 31
0.0
  0
ARC
  5
417C
330
A
100
AcDbEntity
  8
_0-0_
  6
Continuous
 62
     7
100
AcDbCircle
 10
66.33632309286327
 20
185.8343372974708
 30
0.0
 40
4.90671628210231
100
AcDbArc
 50
147.8399125204093
 51
149.9776053535611
  0
LINE
  5
417D
330
A
100
AcDbEntity
  8
_0-0_
  6
Continuous
 62
     7
100
AcDbLine
 10
62.18247292057345
 20
188.4461170391825
 30
0.0
 11
62.18295072426554
 21
188.4468769520178
 31
0.0
  0
ARC
  5
417E
330
A
100
AcDbEntity
  8
_0-0_
  6
Continuous
 62
     7
100
AcDbCircle
 10
67.56003768438961
 20
185.0659734024459
 30
0.0
 40
6.351659073678626
100
AcDbArc
 50
146.2046387235277
 51
147.839912520391
  0
ARC
  5
417F
330
A
100
AcDbEntity
  8
_0-0_
  6
Continuous
 62
     7
100
AcDbCircle
 10
66.20622756162334
 20
185.9721115695824
 30
0.0
 40
4.722583192558982
100
AcDbArc
 50
144.0053907752943
 51
146.2046387235551
  0
LINE
  5
4180
330
A
100
AcDbEntity
  8
_0-0_
  6
Continuous
 62
     7
100
AcDbLine
 10
62.38531634623371
 20
188.7476168379524
 30
0.0
 11
62.39301736202174
 21
188.7582184743211
 31
0.0
  0
ARC
  5
4181
330
A
100
AcDbEntity
  8
_0-0_
  6
Continuous
 62
     7
100
AcDbCircle
 10
66.64784819231738
 20
185.6675145244508
 30
0.0
 40
5.25890067411216
100
AcDbArc
 50
141.7665748312107
 51
144.0053907752951
  0
ARC
  5
4182
330
A
100
AcDbEntity
  8
_0-0_
  6
Continuous
 62
     7
100
AcDbCircle
 10
66.59186758476267
 20
185.7116198242453
 30
0.0
 40
5.187632827981189
100
AcDbArc
 50
139.4970099586907
 51
141.7665748312095
  0
LINE
  5
4183
330
A
100
AcDbEntity
  8
_0-0_
  6
Continuous
 62
     7
100
AcDbLine
 10
62.64733646036484
 20
189.0809236939793
 30
0.0
 11
62.66081947625867
 21
189.0967086091727
 31
0.0
  0
ARC
  5
4184
330
A
100
AcDbEntity
  8
_0-0_
  6
Continuous
 62
     7
100
AcDbCircle
 10
65.8479860832615
 20
186.3743235033641
 30
0.0
 40
4.191588200804283
100
AcDbArc
 50
136.585932907881
 51
139.4970099586969
  0
LINE
  5
4185
330
A
100
AcDbEntity
  8
_0-0_
  6
Continuous
 62
     7
100
AcDbLine
 10
62.80319144340069
 20
189.2550590424577
 30
0.0
 11
62.81559715142089
 21
189.2681712607682
 31
0.0
  0
ARC
  5
4186
330
A
100
AcDbEntity
  8
_0-0_
  6
Continuous
 62
     7
100
AcDbCircle
 10
66.50917884957244
 20
185.7736064959997
 30
0.0
 40
5.084734865858974
100
AcDbArc
 50
134.5926788013374
 51
136.5859329078731
  0
ARC
  5
4187
330
A
100
AcDbEntity
  8
_0-0_
  6
Continuous
 62
     7
100
AcDbCircle
 10
66.19090555937737
 20
186.0964375352181
 30
0.0
 40
4.631394191382851
100
AcDbArc
 50
132.404361774518
 51
134.5926788013241
  0
LINE
  5
4188
330
A
100
AcDbEntity
  8
_0-0_
  6
Continuous
 62
     7
100
AcDbLine
 10
63.06768504595846
 20
189.5162775578705
 30
0.0
 11
63.06995146112649
 21
189.5183473957277
 31
0.0
  0
ARC
  5
4189
330
A
100
AcDbEntity
  8
_0-0_
  6
Continuous
 62
     7
100
AcDbCircle
 10
66.2192217872531
 20
186.0701069540161
 30
0.0
 40
4.669932090606515
100
AcDbArc
 50
130.1608528068144
 51
132.4053827970808
  0
ARC
  5
418A
330
A
100
AcDbEntity
  8
_0-0_
  6
Continuous
 62
     7
100
AcDbCircle
 10
66.13995850204799
 20
186.1641525550922
 30
0.0
 40
4.546939256245244
100
AcDbArc
 50
127.8586257055968
 51
130.1618286152757
  0
LINE
  5
418B
330
A
100
AcDbEntity
  8
_0-0_
  6
Continuous
 62
     7
100
AcDbLine
 10
63.34943263773278
 20
189.7540859807384
 30
0.0
 11
63.36749936612784
 21
189.7681296040853
 31
0.0
  0
ARC
  5
418C
330
A
100
AcDbEntity
  8
_0-0_
  6
Continuous
 62
     7
100
AcDbCircle
 10
65.40249565763713
 20
187.1501638287561
 30
0.0
 40
3.315864096619643
100
AcDbArc
 50
125.4923695972484
 51
127.8586257056246
  0
ARC
  5
418D
330
A
100
AcDbEntity
  8
_0-0_
  6
Continuous
 62
     7
100
AcDbCircle
 10
67.2295603283302
 20
184.5879919379743
 30
0.0
 40
6.462749876054243
100
AcDbArc
 50
124.2781797331899
 51
125.492369597223
  0
LINE
  5
418E
330
A
100
AcDbEntity
  8
_0-0_
  6
Continuous
 62
     7
100
AcDbLine
 10
63.58966591940873
 20
189.9282451765708
 30
0.0
 11
63.59601844092731
 21
189.9325750288316
 31
0.0
  0
ARC
  5
418F
330
A
100
AcDbEntity
  8
_0-0_
  6
Continuous
 62
     7
100
AcDbCircle
 10
65.34379708197321
 20
187.368330163563
 30
0.0
 40
3.103237326913975
100
AcDbArc
 50
121.4661153905109
 51
124.2781797331865
  0
LINE
  5
4190
330
A
100
AcDbEntity
  8
_0-0_
  6
Continuous
 62
     7
100
AcDbLine
 10
63.72392512260365
 20
190.0152333998753
 30
0.0
 11
63.74993012383732
 21
190.0311481381717
 31
0.0
  0
ARC
  5
4191
330
A
100
AcDbEntity
  8
_0-0_
  6
Continuous
 62
     7
100
AcDbCircle
 10
66.0804969983526
 20
186.22295517149
 30
0.0
 40
4.464736904686803
100
AcDbArc
 50
119.1621292099465
 51
121.4661153905152
  0
ARC
  5
4192
330
A
100
AcDbEntity
  8
_0-0_
  6
Continuous
 62
     7
100
AcDbCircle
 10
66.13564499312201
 20
186.1239500098844
 30
0.0
 40
4.578065260227631
100
AcDbArc
 50
116.9130158984502
 51
119.1610552031462
  0
ARC
  5
4193
330
A
100
AcDbEntity
  8
_0-0_
  6
Continuous
 62
     7
100
AcDbCircle
 10
66.1850714538067
 20
186.0265799619953
 30
0.0
 40
4.687261877582578
100
AcDbArc
 50
114.7162864812607
 51
116.9130158984155
  0
LINE
  5
4194
330
A
100
AcDbEntity
  8
_0-0_
  6
Continuous
 62
     7
100
AcDbLine
 10
64.22520866176205
 20
190.28443878368
 30
0.0
 11
64.22531140896035
 21
190.2844860775004
 31
0.0
  0
ARC
  5
4195
330
A
100
AcDbEntity
  8
_0-0_
  6
Continuous
 62
     7
100
AcDbCircle
 10
66.24103517070546
 20
185.905267677179
 30
0.0
 40
4.82086051254106
100
AcDbArc
 50
112.5777322100408
 51
114.7162864812569
  0
LINE
  5
4196
330
A
100
AcDbEntity
  8
_0-0_
  6
Continuous
 62
     7
100
AcDbLine
 10
64.39013089972605
 20
190.3566550408049
 30
0.0
 11
64.39116372588751
 21
190.3570844939612
 31
0.0
  0
ARC
  5
4197
330
A
100
AcDbEntity
  8
_0-0_
  6
Continuous
 62
     7
100
AcDbCircle
 10
66.24067875072149
 20
185.9090382392376
 30
0.0
 40
4.817242085597118
100
AcDbArc
 50
110.410973454908
 51
112.5777322100423
  0
LINE
  5
4198
330
A
100
AcDbEntity
  8
_0-0_
  6
Continuous
 62
     7
100
AcDbLine
 10
64.56065809744439
 20
190.4238308054371
 30
0.0
 11
64.56172783604836
 21
190.4242288708901
 31
0.0
  0
ARC
  5
4199
330
A
100
AcDbEntity
  8
_0-0_
  6
Continuous
 62
     7
100
AcDbCircle
 10
66.24956443081805
 20
185.888432185199
 30
0.0
 40
4.839653287640591
100
AcDbArc
 50
108.227230040143
 51
110.4109734549051
  0
LINE
  5
419A
330
A
100
AcDbEntity
  8
_0-0_
  6
Continuous
 62
     7
100
AcDbLine
 10
64.73578688997782
 20
190.4852486380736
 30
0.0
 11
64.75787242739216
 21
190.4925216259899
 31
0.0
  0
ARC
  5
419B
330
A
100
AcDbEntity
  8
_0-0_
  6
Continuous
 62
     7
100
AcDbCircle
 10
66.00461565243063
 20
186.7064004144155
 30
0.0
 40
3.986111199893119
100
AcDbArc
 50
104.9062888556322
 51
108.2263524368307
  0
LINE
  5
419C
330
A
100
AcDbEntity
  8
_0-0_
  6
Continuous
 62
     7
100
AcDbLine
 10
64.97923294261034
 20
190.558370403436
 30
0.0
 11
65.00950557779697
 21
190.5664288869625
 31
0.0
  0
ARC
  5
419D
330
A
100
AcDbEntity
  8
_0-0_
  6
Continuous
 62
     7
100
AcDbCircle
 10
66.11194292892242
 20
186.4249941322749
 30
0.0
 40
4.28565630218879
100
AcDbArc
 50
102.6545188850176
 51
104.9062888556491
  0
LINE
  5
419E
330
A
100
AcDbEntity
  8
_0-0_
  6
Continuous
 62
     7
100
AcDbLine
 10
65.17307665778321
 20
190.6065464834248
 30
0.0
 11
65.19430470068107
 21
190.6113127261514
 31
0.0
  0
ARC
  5
419F
330
A
100
AcDbEntity
  8
_0-0_
  6
Continuous
 62
     7
100
AcDbCircle
 10
66.03052474164906
 20
186.886929407811
 30
0.0
 40
3.817105586547025
100
AcDbArc
 50
100.7793284018952
 51
102.6545188850355
  0
LINE
  5
41A0
330
A
100
AcDbEntity
  8
_0-0_
  6
Continuous
 62
     7
100
AcDbLine
 10
65.31662329588016
 20
190.636681370885
 30
0.0
 11
65.32988731227817
 21
190.6392066580444
 31
0.0
  0
ARC
  5
41A1
330
A
100
AcDbEntity
  8
_0-0_
  6
Continuous
 62
     7
100
AcDbCircle
 10
66.26744349370983
 20
185.7147130144843
 30
0.0
 40
5.012948158399803
100
AcDbArc
 50
99.66002402665374
 51
100.7793284018914
  0
ARC
  5
41A2
330
A
100
AcDbEntity
  8
_0-0_
  6
Continuous
 62
     7
100
AcDbCircle
 10
66.3714914796393
 20
185.1032667546591
 30
0.0
 40
5.633184009735592
100
AcDbArc
 50
98.66336322783752
 51
99.65972912426385
  0
ARC
  5
41A3
330
A
100
AcDbEntity
  8
_0-0_
  6
Continuous
 62
     7
100
AcDbCircle
 10
66.48789136709115
 20
184.3390730100029
 30
0.0
 40
6.406191779373128
100
AcDbArc
 50
97.7862859292738
 51
98.66302596222997
  0
ARC
  5
41A4
330
A
100
AcDbEntity
  8
_0-0_
  6
Continuous
 62
     7
100
AcDbCircle
 10
66.62524349734872
 20
183.3342806139041
 30
0.0
 40
7.420328538113337
100
AcDbArc
 50
97.02842814879018
 51
97.78596232762438
  0
ARC
  5
41A5
330
A
100
AcDbEntity
  8
_0-0_
  6
Continuous
 62
     7
100
AcDbCircle
 10
66.79503600593807
 20
181.9567370947906
 30
0.0
 40
8.808296708329213
100
AcDbArc
 50
96.38943993303228
 51
97.02815440198891
  0
ARC
  5
41A6
330
A
100
AcDbEntity
  8
_0-0_
  6
Continuous
 62
     7
100
AcDbCircle
 10
67.01885767651788
 20
179.9576472253399
 30
0.0
 40
10.81987729213184
100
AcDbArc
 50
95.86883612687245
 51
96.38923411583521
  0
ARC
  5
41A7
330
A
100
AcDbEntity
  8
_0-0_
  6
Continuous
 62
     7
100
AcDbCircle
 10
67.34406567150052
 20
176.7935237143092
 30
0.0
 40
14.0006693054866
100
AcDbArc
 50
95.46623725534334
 51
95.86870147931782
  0
ARC
  5
41A8
330
A
100
AcDbEntity
  8
_0-0_
  6
Continuous
 62
     7
100
AcDbCircle
 10
67.77061584211185
 20
172.3361008625224
 30
0.0
 40
18.47845486619398
100
AcDbArc
 50
95.16119752383946
 51
95.46623725532675
  0
LINE
  5
41A9
330
A
100
AcDbEntity
  8
_0-0_
  6
Continuous
 62
     7
100
AcDbLine
 10
66.10832886109517
 20
190.7396357467427
 30
0.0
 11
66.12980621021154
 21
190.7415756739385
 31
0.0
  0
ARC
  5
41AA
330
A
100
AcDbEntity
  8
_0-0_
  6
Continuous
 62
     7
100
AcDbCircle
 10
69.49966521989234
 20
153.4331454526761
 30
0.0
 40
37.46031120158964
100
AcDbArc
 50
94.94476022357166
 51
95.16119752388832
  0
LINE
  5
41AB
330
A
100
AcDbEntity
  8
_0-0_
  6
Continuous
 62
     7
100
AcDbLine
 10
66.27076413728878
 20
190.7540392404553
 30
0.0
 11
66.29223380782776
 21
190.7558967372998
 31
0.0
  0
LINE
  5
41AC
330
A
100
AcDbEntity
  8
_0-0_
  6
Continuous
 62
     7
100
AcDbLine
 10
66.29223380782776
 20
190.7558967372998
 30
0.0
 11
66.29836531050728
 21
190.7564286510894
 31
0.0
  0
LINE
  5
41AD
330
A
100
AcDbEntity
  8
_0-0_
  6
Continuous
 62
     7
100
AcDbLine
 10
146.2983653850131
 20
183.9168738942096
 30
0.0
 11
146.2983653850131
 21
194.3709660689781
 31
0.0
  0
LINE
  5
41AE
330
A
100
AcDbEntity
  8
_0-0_
  6
Continuous
 62
     7
100
AcDbLine
 10
186.2983663535887
 20
185.4034770648429
 30
0.0
 11
186.2983663535887
 21
183.9168738942096
 31
0.0
  0
LINE
  5
41AF
330
A
100
AcDbEntity
  8
_0-0_
  6
Continuous
 62
     7
100
AcDbLine
 10
186.2983663535887
 20
185.4034770648429
 30
0.0
 11
186.2983663535887
 21
185.9391216556976
 31
0.0
  0
LINE
  5
41B0
330
A
100
AcDbEntity
  8
_0-0_
  6
Continuous
 62
     7
100
AcDbLine
 10
61.29836262829826
 20
185.4034770648429
 30
0.0
 11
61.29836262829826
 21
185.9391216556976
 31
0.0
  0
LINE
  5
41B1
330
A
100
AcDbEntity
  8
_0-0_
  6
Continuous
 62
     7
100
AcDbLine
 10
101.2983654595189
 20
176.5518334131191
 30
0.0
 11
101.3075064991525
 21
176.528644597546
 31
0.0
  0
ARC
  5
41B2
330
A
100
AcDbEntity
  8
_0-0_
  6
Continuous
 62
     7
100
AcDbCircle
 10
104.370732976191
 20
177.7361696022107
 30
0.0
 40
3.292639228114681
100
AcDbArc
 50
201.514377135915
 51
202.0294030055728
  0
ARC
  5
41B3
330
A
100
AcDbEntity
  8
_0-0_
  6
Continuous
 62
     7
100
AcDbCircle
 10
103.2123239862528
 20
177.2674503352422
 30
0.0
 40
2.042995623242971
100
AcDbArc
 50
202.0294030054162
 51
202.8594469482389
  0
LINE
  5
41B4
330
A
100
AcDbEntity
  8
_0-0_
  6
Continuous
 62
     7
100
AcDbLine
 10
101.3297840326298
 20
176.4738040414798
 30
0.0
 11
101.3297961410133
 21
176.4737753202272
 31
0.0
  0
ARC
  5
41B5
330
A
100
AcDbEntity
  8
_0-0_
  6
Continuous
 62
     7
100
AcDbCircle
 10
102.6577801989546
 20
177.0336304371034
 30
0.0
 40
1.441172928568516
100
AcDbArc
 50
202.8594469482221
 51
204.0385681528053
  0
LINE
  5
41B6
330
A
100
AcDbEntity
  8
_0-0_
  6
Continuous
 62
     7
100
AcDbLine
 10
101.3415980951216
 20
176.4465664886374
 30
0.0
 11
101.3416183794255
 21
176.4465210117554
 31
0.0
  0
ARC
  5
41B7
330
A
100
AcDbEntity
  8
_0-0_
  6
Continuous
 62
     7
100
AcDbCircle
 10
102.366254819477
 20
176.9035452430427
 30
0.0
 40
1.121940721368591
100
AcDbArc
 50
204.0385681527802
 51
205.558241783813
  0
LINE
  5
41B8
330
A
100
AcDbEntity
  8
_0-0_
  6
Continuous
 62
     7
100
AcDbLine
 10
101.3540991403748
 20
176.4195081953633
 30
0.0
 11
101.3541310508907
 21
176.4194414682192
 31
0.0
  0
ARC
  5
41B9
330
A
100
AcDbEntity
  8
_0-0_
  6
Continuous
 62
     7
100
AcDbCircle
 10
102.1905170797739
 20
176.819421266288
 30
0.0
 40
0.9271059422603071
100
AcDbArc
 50
205.55824178384
 51
207.4063702224009
  0
LINE
  5
41BA
330
A
100
AcDbEntity
  8
_0-0_
  6
Continuous
 62
     7
100
AcDbLine
 10
101.3674656016359
 20
176.3926758005721
 30
0.0
 11
101.3675140057959
 21
176.3925824448868
 31
0.0
  0
ARC
  5
41BB
330
A
100
AcDbEntity
  8
_0-0_
  6
Continuous
 62
     7
100
AcDbCircle
 10
102.0769549967234
 20
176.7604218013728
 30
0.0
 40
0.7991322242209109
100
AcDbArc
 50
207.4063702225403
 51
209.5654690727312
  0
LINE
  5
41BC
330
A
100
AcDbEntity
  8
_0-0_
  6
Continuous
 62
     7
100
AcDbLine
 10
101.3818758138256
 20
176.3661157764501
 30
0.0
 11
101.3819472023746
 21
176.3659899333455
 31
0.0
  0
ARC
  5
41BD
330
A
100
AcDbEntity
  8
_0-0_
  6
Continuous
 62
     7
100
AcDbCircle
 10
102.0014838969715
 20
176.7174420518253
 30
0.0
 40
0.7122810593691808
100
AcDbArc
 50
209.5654690727809
 51
212.0110268369378
  0
LINE
  5
41BE
330
A
100
AcDbEntity
  8
_0-0_
  6
Continuous
 62
     7
100
AcDbLine
 10
101.3975079541042
 20
176.3398743519706
 30
0.0
 11
101.3976803550463
 21
176.3395985709078
 31
0.0
  0
ARC
  5
41BF
330
A
100
AcDbEntity
  8
_0-0_
  6
Continuous
 62
     7
100
AcDbCircle
 10
101.9465200424033
 20
176.6826985582361
 30
0.0
 40
0.6472577567885011
100
AcDbArc
 50
212.0110268369445
 51
214.7131591279251
  0
LINE
  5
41C0
330
A
100
AcDbEntity
  8
_0-0_
  6
Continuous
 62
     7
100
AcDbLine
 10
101.4144655753627
 20
176.3141057641869
 30
0.0
 11
101.414943380435
 21
176.3134160645312
 31
0.0
  0
ARC
  5
41C1
330
A
100
AcDbEntity
  8
_0-0_
  6
Continuous
 62
     7
100
AcDbCircle
 10
101.9048162641521
 20
176.6527866104476
 30
0.0
 40
0.5959427905737184
100
AcDbArc
 50
214.713159127727
 51
217.486631625286
  0
LINE
  5
41C2
330
A
100
AcDbEntity
  8
_0-0_
  6
Continuous
 62
     7
100
AcDbLine
 10
101.4319384272571
 20
176.2901099486533
 30
0.0
 11
101.4322239427579
 21
176.2897376777943
 31
0.0
  0
ARC
  5
41C3
330
A
100
AcDbEntity
  8
_0-0_
  6
Continuous
 62
     7
100
AcDbCircle
 10
101.9433618920162
 20
176.6817581758803
 30
0.0
 40
0.6441599755431457
100
AcDbArc
 50
217.4866316252795
 51
219.9691555275826
  0
ARC
  5
41C4
330
A
100
AcDbEntity
  8
_0-0_
  6
Continuous
 62
     7
100
AcDbCircle
 10
101.955810531811
 20
176.6921924100287
 30
0.0
 40
0.6604031856631309
100
AcDbArc
 50
219.9691555276217
 51
222.3906379269143
  0
LINE
  5
41C5
330
A
100
AcDbEntity
  8
_0-0_
  6
Continuous
 62
     7
100
AcDbLine
 10
101.4680595154575
 20
176.2469606572525
 30
0.0
 11
101.4682338236934
 21
176.2467697027245
 31
0.0
  0
ARC
  5
41C6
330
A
100
AcDbEntity
  8
_0-0_
  6
Continuous
 62
     7
100
AcDbCircle
 10
101.9763209684
 20
176.7105647998437
 30
0.0
 40
0.6879378160327716
100
AcDbArc
 50
222.3906379267806
 51
224.7582768442975
  0
LINE
  5
41C7
330
A
100
AcDbEntity
  8
_0-0_
  6
Continuous
 62
     7
100
AcDbLine
 10
101.4878275609627
 20
176.2261758759217
 30
0.0
 11
101.4880144184863
 21
176.2259874350556
 31
0.0
  0
ARC
  5
41C8
330
A
100
AcDbEntity
  8
_0-0_
  6
Continuous
 62
     7
100
AcDbCircle
 10
101.996412193333
 20
176.7301134832932
 30
0.0
 40
0.7159688331069871
100
AcDbArc
 50
224.7582768441985
 51
227.0757018168578
  0
LINE
  5
41C9
330
A
100
AcDbEntity
  8
_0-0_
  6
Continuous
 62
     7
100
AcDbLine
 10
101.5088148886348
 20
176.2058423335702
 30
0.0
 11
101.5090140293701
 21
176.205657123139
 31
0.0
  0
ARC
  5
41CA
330
A
100
AcDbEntity
  8
_0-0_
  6
Continuous
 62
     7
100
AcDbCircle
 10
102.0160042033889
 20
176.7507797455785
 30
0.0
 40
0.7444445647910441
100
AcDbArc
 50
227.0757018169089
 51
229.3463515469759
  0
LINE
  5
41CB
330
A
100
AcDbEntity
  8
_0-0_
  6
Continuous
 62
     7
100
AcDbLine
 10
101.5310098331664
 20
176.185998220651
 30
0.0
 11
101.5312210177026
 21
176.1858168703295
 31
0.0
  0
ARC
  5
41CC
330
A
100
AcDbEntity
  8
_0-0_
  6
Continuous
 62
     7
100
AcDbCircle
 10
102.0350468027802
 20
176.772527794544
 30
0.0
 40
0.7733499403903406
100
AcDbArc
 50
229.3463515467864
 51
231.5733840922187
  0
LINE
  5
41CD
330
A
100
AcDbEntity
  8
_0-0_
  6
Continuous
 62
     7
100
AcDbLine
 10
101.5544007152354
 20
176.166681717698
 30
0.0
 11
101.5546237442874
 21
176.1665047782982
 31
0.0
  0
ARC
  5
41CE
330
A
100
AcDbEntity
  8
_0-0_
  6
Continuous
 62
     7
100
AcDbCircle
 10
102.053438478604
 20
176.795252120031
 30
0.0
 40
0.802582929613824
100
AcDbArc
 50
231.57338409216
 51
233.7599526899816
  0
LINE
  5
41CF
330
A
100
AcDbEntity
  8
_0-0_
  6
Continuous
 62
     7
100
AcDbLine
 10
101.5789758858947
 20
176.1479310196279
 30
0.0
 11
101.5792105859027
 21
176.1477589931418
 31
0.0
  0
ARC
  5
41D0
330
A
100
AcDbEntity
  8
_0-0_
  6
Continuous
 62
     7
100
AcDbCircle
 10
102.0713614512877
 20
176.8192126433178
 30
0.0
 40
0.8325037409127712
100
AcDbArc
 50
233.7599526900956
 51
235.9079929629212
  0
LINE
  5
41D1
330
A
100
AcDbEntity
  8
_0-0_
  6
Continuous
 62
     7
100
AcDbLine
 10
101.604723564164
 20
176.1297842127069
 30
0.0
 11
101.6049698596725
 21
176.1296175082158
 31
0.0
  0
ARC
  5
41D2
330
A
100
AcDbEntity
  8
_0-0_
  6
Continuous
 62
     7
100
AcDbCircle
 10
102.0879004460246
 20
176.8431173877401
 30
0.0
 40
0.8615706757518697
100
AcDbArc
 50
235.9079929630421
 51
238.0222736445645
  0
LINE
  5
41D3
330
A
100
AcDbEntity
  8
_0-0_
  6
Continuous
 62
     7
100
AcDbLine
 10
101.631621622291
 20
176.1122865835672
 30
0.0
 11
101.6316943185363
 21
176.1122411986967
 31
0.0
  0
ARC
  5
41D4
330
A
100
AcDbEntity
  8
_0-0_
  6
Continuous
 62
     7
100
AcDbCircle
 10
102.1139241644175
 20
176.8846637863544
 30
0.0
 40
0.9105944641729544
100
AcDbArc
 50
238.0231239916668
 51
240.0120164644634
  0
ARC
  5
41D5
330
A
100
AcDbEntity
  8
_0-0_
  6
Continuous
 62
     7
100
AcDbCircle
 10
102.1313237391336
 20
176.9148153357282
 30
0.0
 40
0.9454062600177982
100
AcDbArc
 50
240.0120164643964
 51
241.9276877452792
  0
LINE
  5
41D6
330
A
100
AcDbEntity
  8
_0-0_
  6
Continuous
 62
     7
100
AcDbLine
 10
101.6864292188193
 20
176.080631985214
 30
0.0
 11
101.6866100235279
 21
176.0805355567441
 31
0.0
  0
ARC
  5
41D7
330
A
100
AcDbEntity
  8
_0-0_
  6
Continuous
 62
     7
100
AcDbCircle
 10
102.1488198432688
 20
176.9471853320733
 30
0.0
 40
0.9822014816437769
100
AcDbArc
 50
241.9276877454976
 51
243.7955071775722
  0
LINE
  5
41D8
330
A
100
AcDbEntity
  8
_0-0_
  6
Continuous
 62
     7
100
AcDbLine
 10
101.7151030359997
 20
176.0659308389583
 30
0.0
 11
101.715325438858
 21
176.0658213815219
 31
0.0
  0
ARC
  5
41D9
330
A
100
AcDbEntity
  8
_0-0_
  6
Continuous
 62
     7
100
AcDbCircle
 10
102.1650994720101
 20
176.9797020081422
 30
0.0
 40
1.018564912320215
100
AcDbArc
 50
243.7955071776303
 51
245.6245355395707
  0
LINE
  5
41DA
330
A
100
AcDbEntity
  8
_0-0_
  6
Continuous
 62
     7
100
AcDbLine
 10
101.7447230515243
 20
176.0519314838695
 30
0.0
 11
101.744935350683
 21
176.0518352902978
 31
0.0
  0
ARC
  5
41DB
330
A
100
AcDbEntity
  8
_0-0_
  6
Continuous
 62
     7
100
AcDbCircle
 10
102.1785501925585
 20
177.0088230031612
 30
0.0
 40
1.050641382045314
100
AcDbArc
 50
245.624535539728
 51
247.4231469812138
  0
LINE
  5
41DC
330
A
100
AcDbEntity
  8
_0-0_
  6
Continuous
 62
     7
100
AcDbLine
 10
101.7751855128815
 20
176.0386971098591
 30
0.0
 11
101.7753868374551
 21
176.0386134019375
 31
0.0
  0
ARC
  5
41DD
330
A
100
AcDbEntity
  8
_0-0_
  6
Continuous
 62
     7
100
AcDbCircle
 10
102.1893100530959
 20
177.0341334600018
 30
0.0
 40
1.07814313263814
100
AcDbArc
 50
247.4231469812714
 51
249.1990543192912
  0
LINE
  5
41DE
330
A
100
AcDbEntity
  8
_0-0_
  6
Continuous
 62
     7
100
AcDbLine
 10
101.8064372850404
 20
176.026263896052
 30
0.0
 11
101.806626971065
 21
176.026191837508
 31
0.0
  0
ARC
  5
41DF
330
A
100
AcDbEntity
  8
_0-0_
  6
Continuous
 62
     7
100
AcDbCircle
 10
102.1975343671315
 20
177.0552116573833
 30
0.0
 40
1.10076808728982
100
AcDbArc
 50
249.1990543193608
 51
250.959584192111
  0
LINE
  5
41E0
330
A
100
AcDbEntity
  8
_0-0_
  6
Continuous
 62
     7
100
AcDbLine
 10
101.8384252552479
 20
176.0146680361171
 30
0.0
 11
101.8386028219693
 21
176.0146067548538
 31
0.0
  0
ARC
  5
41E1
330
A
100
AcDbEntity
  8
_0-0_
  6
Continuous
 62
     7
100
AcDbCircle
 10
102.2036021691133
 20
177.0722177423472
 30
0.0
 40
1.11882327660909
100
AcDbArc
 50
250.9595841921144
 51
252.7109424061857
  0
LINE
  5
41E2
330
A
100
AcDbEntity
  8
_0-0_
  6
Continuous
 62
     7
100
AcDbLine
 10
101.8710962517475
 20
176.0039456144701
 30
0.0
 11
101.8719900630862
 21
176.0036674104888
 31
0.0
  0
ARC
  5
41E3
330
A
100
AcDbEntity
  8
_0-0_
  6
Continuous
 62
     7
100
AcDbCircle
 10
102.1931495506063
 20
177.0354858269521
 30
0.0
 40
1.08064455811203
100
AcDbArc
 50
252.7109424061715
 51
254.461607090713
  0
LINE
  5
41E4
330
A
100
AcDbEntity
  8
_0-0_
  6
Continuous
 62
     7
100
AcDbLine
 10
101.9036621334278
 20
175.9943375684066
 30
0.0
 11
101.9050708203821
 21
175.9939458882163
 31
0.0
  0
ARC
  5
41E5
330
A
100
AcDbEntity
  8
_0-0_
  6
Continuous
 62
     7
100
AcDbCircle
 10
102.1992896908388
 20
177.052110929004
 30
0.0
 40
1.098306877551988
100
AcDbArc
 50
254.4616070906715
 51
256.0316038786337
  0
LINE
  5
41E6
330
A
100
AcDbEntity
  8
_0-0_
  6
Continuous
 62
     7
100
AcDbLine
 10
101.9341730711084
 20
175.9862820613049
 30
0.0
 11
101.9370797247356
 21
175.9855590538806
 31
0.0
  0
ARC
  5
41E7
330
A
100
AcDbEntity
  8
_0-0_
  6
Continuous
 62
     7
100
AcDbCircle
 10
102.1874882410407
 20
176.9922580140036
 30
0.0
 40
1.037375159405185
100
AcDbArc
 50
256.0316038785509
 51
257.3629992387179
  0
ARC
  5
41E8
330
A
100
AcDbEntity
  8
_0-0_
  6
Continuous
 62
     7
100
AcDbCircle
 10
102.3262178458525
 20
177.6110213443317
 30
0.0
 40
1.671499723043812
100
AcDbArc
 50
257.3629992385385
 51
258.1893198572091
  0
LINE
  5
41E9
330
A
100
AcDbEntity
  8
_0-0_
  6
Continuous
 62
     7
100
AcDbLine
 10
101.9840977684808
 20
175.9749085191283
 30
0.0
 11
101.9865653283299
 21
175.9743925389628
 31
0.0
  0
ARC
  5
41EA
330
A
100
AcDbEntity
  8
_0-0_
  6
Continuous
 62
     7
100
AcDbCircle
 10
102.2190908555876
 20
177.0863939165324
 30
0.0
 40
1.136052456774465
100
AcDbArc
 50
258.1893198571515
 51
259.6593261764463
  0
LINE
  5
41EB
330
A
100
AcDbEntity
  8
_0-0_
  6
Continuous
 62
     7
100
AcDbLine
 10
102.0151687326768
 20
175.968793383099
 30
0.0
 11
102.0200663992027
 21
175.9678997341382
 31
0.0
  0
ARC
  5
41EC
330
A
100
AcDbEntity
  8
_0-0_
  6
Continuous
 62
     7
100
AcDbCircle
 10
102.3414266625787
 20
177.7291230709908
 30
0.0
 40
1.790301667639142
100
AcDbArc
 50
259.6593261763802
 51
260.910793571538
  0
LINE
  5
41ED
330
A
100
AcDbEntity
  8
_0-0_
  6
Continuous
 62
     7
100
AcDbLine
 10
102.0586090342329
 20
175.9613011766111
 30
0.0
 11
102.0587579566886
 21
175.9612773518718
 31
0.0
  0
ARC
  5
41EE
330
A
100
AcDbEntity
  8
_0-0_
  6
Continuous
 62
     7
100
AcDbCircle
 10
102.4002739830585
 20
178.0960081754997
 30
0.0
 40
2.161876241974641
100
AcDbArc
 50
260.9107935714931
 51
261.9551701848347
  0
LINE
  5
41EF
330
A
100
AcDbEntity
  8
_0-0_
  6
Continuous
 62
     7
100
AcDbLine
 10
102.0977240042797
 20
175.955407232784
 30
0.0
 11
102.0978576878459
 21
175.9553883381085
 31
0.0
  0
ARC
  5
41F0
330
A
100
AcDbEntity
  8
_0-0_
  6
Continuous
 62
     7
100
AcDbCircle
 10
102.4744491328272
 20
178.6198472992576
 30
0.0
 40
2.690940852579332
100
AcDbArc
 50
261.9551701849053
 51
262.7999697199362
  0
LINE
  5
41F1
330
A
100
AcDbEntity
  8
_0-0_
  6
Continuous
 62
     7
100
AcDbLine
 10
102.1371834035303
 20
175.950125497286
 30
0.0
 11
102.137297975164
 21
175.9501110234612
 31
0.0
  0
ARC
  5
41F2
330
A
100
AcDbEntity
  8
_0-0_
  6
Continuous
 62
     7
100
AcDbCircle
 10
102.5774730871995
 20
179.4344410078073
 30
0.0
 40
3.512023571827069
100
AcDbArc
 50
262.7999697199059
 51
263.4510346707695
  0
LINE
  5
41F3
330
A
100
AcDbEntity
  8
_0-0_
  6
Continuous
 62
     7
100
AcDbLine
 10
102.1769187738314
 20
175.9453342723933
 30
0.0
 11
102.1770111616167
 21
175.9453236661469
 31
0.0
  0
ARC
  5
41F4
330
A
100
AcDbEntity
  8
_0-0_
  6
Continuous
 62
     7
100
AcDbCircle
 10
102.7410971075341
 20
180.8589046901682
 30
0.0
 40
4.945853964079746
100
AcDbArc
 50
263.4510346707794
 51
263.9155093379447
  0
LINE
  5
41F5
330
A
100
AcDbEntity
  8
_0-0_
  6
Continuous
 62
     7
100
AcDbLine
 10
102.2168617563435
 20
175.9409123426177
 30
0.0
 11
102.2169296187326
 21
175.9409051087993
 31
0.0
  0
ARC
  5
41F6
330
A
100
AcDbEntity
  8
_0-0_
  6
Continuous
 62
     7
100
AcDbCircle
 10
103.0091877487141
 20
183.3732909859868
 30
0.0
 40
7.474492141405901
100
AcDbArc
 50
263.9155093379097
 51
264.2238983707132
  0
LINE
  5
41F7
330
A
100
AcDbEntity
  8
_0-0_
  6
Continuous
 62
     7
100
AcDbLine
 10
102.2569450049881
 20
175.9367485349246
 30
0.0
 11
102.2971107391311
 21
175.9326855739108
 31
0.0
  0
LINE
  5
41F8
330
A
100
AcDbEntity
  8
_0-0_
  6
Continuous
 62
     7
100
AcDbLine
 10
102.2971107391311
 20
175.9326855739108
 30
0.0
 11
102.2983656234317
 21
175.9325597803543
 31
0.0
  0
ARC
  5
41F9
330
A
100
AcDbEntity
  8
_0-0_
  6
Continuous
 62
     7
100
AcDbCircle
 10
59.79836541686598
 20
188.1709663203286
 30
0.0
 40
4.0
100
AcDbArc
 50
90.0
 51
270.0
  0
ARC
  5
41FA
330
A
100
AcDbEntity
  8
_0-0_
  6
Continuous
 62
     7
100
AcDbCircle
 10
187.798365416866
 20
188.1709663203286
 30
0.0
 40
4.000000000000037
100
AcDbArc
 50
247.9756871629597
 51
90.0
  0
ARC
  5
41FB
330
A
100
AcDbEntity
  8
_0-0_
  6
Continuous
 62
     7
100
AcDbCircle
 10
187.798365416866
 20
188.1709663203286
 30
0.0
 40
4.0
100
AcDbArc
 50
90.0
 51
155.9752399959285
  0
LINE
  5
41FC
330
A
100
AcDbEntity
  8
_0-0_
  6
Continuous
 62
     7
100
AcDbLine
 10
155.7983660108619
 20
223.1709662727515
 30
0.0
 11
91.79836483367012
 21
223.1709662727515
 31
0.0
  0
LINE
  5
4200
330
A
100
AcDbEntity
  8
_0-0_
  6
Continuous
 62
     7
100
AcDbLine
 10
80.29836590655373
 20
190.7564286510894
 30
0.0
 11
66.29836531050728
 21
190.7564286510894
 31
0.0
  0
LINE
  5
4201
330
A
100
AcDbEntity
  8
_0-0_
  6
Continuous
 62
     7
100
AcDbLine
 10
81.29836590655373
 20
191.7564286510894
 30
0.0
 11
81.29836590655373
 21
194.3709660689781
 31
0.0
  0
ARC
  5
4202
330
A
100
AcDbEntity
  8
_0-0_
  6
Continuous
 62
     7
100
AcDbCircle
 10
80.29836590655373
 20
191.7564286510894
 30
0.0
 40
1.0
100
AcDbArc
 50
270.0
 51
0.0
  0
LINE
  5
4203
330
A
100
AcDbEntity
  8
_0-0_
  6
Continuous
 62
     7
100
AcDbLine
 10
166.2983668006234
 20
191.7564286510894
 30
0.0
 11
166.2983668006234
 21
194.3709660689781
 31
0.0
  0
LINE
  5
4204
330
A
100
AcDbEntity
  8
_0-0_
  6
Continuous
 62
     7
100
AcDbLine
 10
167.2983668006234
 20
190.7564286510894
 30
0.0
 11
181.2983636713795
 21
190.7564286510894
 31
0.0
  0
ARC
  5
4205
330
A
100
AcDbEntity
  8
_0-0_
  6
Continuous
 62
     7
100
AcDbCircle
 10
167.2983668006234
 20
191.7564286510894
 30
0.0
 40
1.0
100
AcDbArc
 50
180.0
 51
270.0
  0
LINE
  5
4206
330
A
100
AcDbEntity
  8
_0-0_
  6
Continuous
 62
     7
100
AcDbLine
 10
145.2983653850131
 20
174.9901656429718
 30
0.0
 11
102.2983656234317
 21
174.9901656429718
 31
0.0
  0
ARC
  5
4207
330
A
100
AcDbEntity
  8
_0-0_
  6
Continuous
 62
     7
100
AcDbCircle
 10
145.2983653850131
 20
175.9901656429718
 30
0.0
 40
1.0
100
AcDbArc
 50
270.0
 51
0.0
  0
LINE
  5
4208
330
A
100
AcDbEntity
  8
_0-0_
  6
Continuous
 62
     7
100
AcDbLine
 10
145.2983653850131
 20
175.9325597803543
 30
0.0
 11
102.2983656234317
 21
175.9325597803543
 31
0.0
  0
ARC
  5
4209
330
A
100
AcDbEntity
  8
_0-0_
  6
Continuous
 62
     7
100
AcDbCircle
 10
145.2983653850131
 20
176.9325597803543
 30
0.0
 40
1.0
100
AcDbArc
 50
270.0
 51
0.0
  0
LINE
  5
420A
330
A
100
AcDbEntity
  8
_0-0_
  6
Continuous
 62
     7
100
AcDbLine
 10
146.2983653850131
 20
175.9901656429718
 30
0.0
 11
146.2983653850131
 21
183.9168738942096
 31
0.0
  0
LINE
  5
420B
330
A
100
AcDbEntity
  8
_0-0_
  6
Continuous
 62
     7
100
AcDbLine
 10
186.2983682162337
 20
185.4034770648429
 30
0.0
 11
186.296753951602
 21
185.4201821795273
 31
0.0
  0
ARC
  5
420C
330
A
100
AcDbEntity
  8
_0-0_
  6
Continuous
 62
     7
100
AcDbCircle
 10
142.2796540515935
 20
181.1666796505525
 30
0.0
 40
44.22213662150808
100
AcDbArc
 50
5.519522876937375
 51
5.709413542583047
  0
LINE
  5
420D
330
A
100
AcDbEntity
  8
_0-0_
  6
Continuous
 62
     7
100
AcDbLine
 10
186.2824152031004
 20
185.5660407876677
 30
0.0
 11
186.281134235276
 21
185.578853130066
 31
0.0
  0
ARC
  5
420E
330
A
100
AcDbEntity
  8
_0-0_
  6
Continuous
 62
     7
100
AcDbCircle
 10
164.9459896263601
 20
183.4457823047197
 30
0.0
 40
21.44151082898066
100
AcDbArc
 50
5.709413542568758
 51
6.032238480925741
  0
ARC
  5
420F
330
A
100
AcDbEntity
  8
_0-0_
  6
Continuous
 62
     7
100
AcDbCircle
 10
171.7145807650562
 20
184.161040667262
 30
0.0
 40
14.63523280585945
100
AcDbArc
 50
6.032238480918513
 51
6.505195318084206
  0
LINE
  5
4210
330
A
100
AcDbEntity
  8
_0-0_
  6
Continuous
 62
     7
100
AcDbLine
 10
186.2555858954863
 20
185.8191145734889
 30
0.0
 11
186.2555428603567
 21
185.8194919837101
 31
0.0
  0
ARC
  5
4211
330
A
100
AcDbEntity
  8
_0-0_
  6
Continuous
 62
     7
100
AcDbCircle
 10
175.1151748574046
 20
184.5491840974435
 30
0.0
 40
11.21255909090838
100
AcDbArc
 50
6.505195318073292
 51
7.126403439471603
  0
LINE
  5
4212
330
A
100
AcDbEntity
  8
_0-0_
  6
Continuous
 62
     7
100
AcDbLine
 10
186.2411155123946
 20
185.9402002399646
 30
0.0
 11
186.2376824316882
 21
185.9676594843504
 31
0.0
  0
ARC
  5
4213
330
A
100
AcDbEntity
  8
_0-0_
  6
Continuous
 62
     7
100
AcDbCircle
 10
179.3691745013873
 20
185.1089271126491
 30
0.0
 40
6.9219811091056
100
AcDbArc
 50
7.126403439460037
 51
8.59071601624873
  0
LINE
  5
4214
330
A
100
AcDbEntity
  8
_0-0_
  6
Continuous
 62
     7
100
AcDbLine
 10
186.2134951230959
 20
186.1428989217765
 30
0.0
 11
186.2089176804636
 21
186.1731990563893
 31
0.0
  0
ARC
  5
4215
330
A
100
AcDbEntity
  8
_0-0_
  6
Continuous
 62
     7
100
AcDbCircle
 10
177.6792540314145
 20
184.8846224040241
 30
0.0
 40
8.626447226693582
100
AcDbArc
 50
8.5907160162299
 51
10.06246978133227
  0
LINE
  5
4216
330
A
100
AcDbEntity
  8
_0-0_
  6
Continuous
 62
     7
100
AcDbLine
 10
186.1730078537495
 20
186.3918509071051
 30
0.0
 11
186.1721944683126
 21
186.3964346153151
 31
0.0
  0
ARC
  5
4217
330
A
100
AcDbEntity
  8
_0-0_
  6
Continuous
 62
     7
100
AcDbCircle
 10
177.7063353079856
 20
184.8941560590453
 30
0.0
 40
8.598116781198092
100
AcDbArc
 50
10.06246978134272
 51
11.47703843081259
  0
LINE
  5
4218
330
A
100
AcDbEntity
  8
_0-0_
  6
Continuous
 62
     7
100
AcDbLine
 10
186.1325286481884
 20
186.6049681400881
 30
0.0
 11
186.1323106854642
 21
186.606041663052
 31
0.0
  0
ARC
  5
4219
330
A
100
AcDbEntity
  8
_0-0_
  6
Continuous
 62
     7
100
AcDbCircle
 10
178.3239602479217
 20
185.0206733096064
 30
0.0
 40
7.967667749823383
100
AcDbArc
 50
11.47703843081903
 51
12.9877716339539
  0
LINE
  5
421A
330
A
100
AcDbEntity
  8
_0-0_
  6
Continuous
 62
     7
100
AcDbLine
 10
186.0877995422879
 20
186.8113516120468
 30
0.0
 11
186.0846782959275
 21
186.8248843918362
 31
0.0
  0
ARC
  5
421B
330
A
100
AcDbEntity
  8
_0-0_
  6
Continuous
 62
     7
100
AcDbCircle
 10
180.2209766316937
 20
185.4724602954554
 30
0.0
 40
6.017644733914526
100
AcDbArc
 50
12.9877716339563
 51
14.72357762907844
  0
LINE
  5
421C
330
A
100
AcDbEntity
  8
_0-0_
  6
Continuous
 62
     7
100
AcDbLine
 10
186.0410214557223
 20
187.0018805744847
 30
0.0
 11
186.0336781377754
 21
187.0298247832771
 31
0.0
  0
ARC
  5
421D
330
A
100
AcDbEntity
  8
_0-0_
  6
Continuous
 62
     7
100
AcDbCircle
 10
181.1049423170654
 20
185.7346271100471
 30
0.0
 40
5.096074352194164
100
AcDbArc
 50
14.72357762908693
 51
16.12367855651596
  0
ARC
  5
421E
330
A
100
AcDbEntity
  8
_0-0_
  6
Continuous
 62
     7
100
AcDbCircle
 10
178.7615674192898
 20
185.0571974507729
 30
0.0
 40
7.535401483759026
100
AcDbArc
 50
16.1236785565302
 51
17.07057051828312
  0
LINE
  5
421F
330
A
100
AcDbEntity
  8
_0-0_
  6
Continuous
 62
     7
100
AcDbLine
 10
185.9649886522976
 20
187.2692096707418
 30
0.0
 11
185.9622512094527
 21
187.2781241576216
 31
0.0
  0
ARC
  5
4220
330
A
100
AcDbEntity
  8
_0-0_
  6
Continuous
 62
     7
100
AcDbCircle
 10
182.4640913400766
 20
186.2039162044604
 30
0.0
 40
3.659377706434234
100
AcDbArc
 50
17.07057051828831
 51
19.31218947590904
  0
LINE
  5
4221
330
A
100
AcDbEntity
  8
_0-0_
  6
Continuous
 62
     7
100
AcDbLine
 10
185.917558111469
 20
187.4141279451226
 30
0.0
 11
185.9175169082539
 21
187.4142455228401
 31
0.0
  0
ARC
  5
4222
330
A
100
AcDbEntity
  8
_0-0_
  6
Continuous
 62
     7
100
AcDbCircle
 10
179.9305393237106
 20
185.316205772197
 30
0.0
 40
6.343947619038379
100
AcDbArc
 50
19.31218947593718
 51
20.6075822033003
  0
LINE
  5
4223
330
A
100
AcDbEntity
  8
_0-0_
  6
Continuous
 62
     7
100
AcDbLine
 10
185.8685565557358
 20
187.5490565834413
 30
0.0
 11
185.8679772894882
 21
187.5505970772992
 31
0.0
  0
ARC
  5
4224
330
A
100
AcDbEntity
  8
_0-0_
  6
Continuous
 62
     7
100
AcDbCircle
 10
182.9967973898193
 20
186.4709169877596
 30
0.0
 40
3.06747177851901
100
AcDbArc
 50
20.60829651634718
 51
23.34913171221518
  0
LINE
  5
4225
330
A
100
AcDbEntity
  8
_0-0_
  6
Continuous
 62
     7
100
AcDbLine
 10
185.8130642707722
 20
187.6866570780992
 30
0.0
 11
185.8125177347325
 21
187.6879231310655
 31
0.0
  0
ARC
  5
4226
330
A
100
AcDbEntity
  8
_0-0_
  6
Continuous
 62
     7
100
AcDbCircle
 10
179.5694920337635
 20
184.9929027546157
 30
0.0
 40
6.799890052967021
100
AcDbArc
 50
23.34913171221771
 51
24.5628133550774
  0
ARC
  5
4227
330
A
100
AcDbEntity
  8
_0-0_
  6
Continuous
 62
     7
100
AcDbCircle
 10
182.1952728714656
 20
186.1930182610542
 30
0.0
 40
3.91284965899291
100
AcDbArc
 50
24.56281335508357
 51
26.67183342049805
  0
LINE
  5
4228
330
A
100
AcDbEntity
  8
_0-0_
  6
Continuous
 62
     7
100
AcDbLine
 10
185.6917646710768
 20
187.9494172900714
 30
0.0
 11
185.686293310706
 21
187.9603092151713
 31
0.0
  0
ARC
  5
4229
330
A
100
AcDbEntity
  8
_0-0_
  6
Continuous
 62
     7
100
AcDbCircle
 10
179.3883829701304
 20
184.7966685602022
 30
0.0
 40
7.047857607223844
100
AcDbArc
 50
26.67183342048156
 51
28.04097270267351
  0
LINE
  5
422A
330
A
100
AcDbEntity
  8
_0-0_
  6
Continuous
 62
     7
100
AcDbLine
 10
185.6089041594563
 20
188.1098864801178
 30
0.0
 11
185.6075335432574
 21
188.112459793227
 31
0.0
  0
ARC
  5
422B
330
A
100
AcDbEntity
  8
_0-0_
  6
Continuous
 62
     7
100
AcDbCircle
 10
181.1606427851265
 20
185.7439254374525
 30
0.0
 40
5.038332304367716
100
AcDbArc
 50
28.04097270266467
 51
30.02239464645343
  0
LINE
  5
422C
330
A
100
AcDbEntity
  8
_0-0_
  6
Continuous
 62
     7
100
AcDbLine
 10
185.5229815780685
 20
188.2647968472686
 30
0.0
 11
185.5087894562305
 21
188.2893561498205
 31
0.0
  0
ARC
  5
422D
330
A
100
AcDbEntity
  8
_0-0_
  6
Continuous
 62
     7
100
AcDbCircle
 10
181.2604077516687
 20
185.8343372974708
 30
0.0
 40
4.90671628210231
100
AcDbArc
 50
30.02239464643896
 51
32.16008747959076
  0
LINE
  5
422E
330
A
100
AcDbEntity
  8
_0-0_
  6
Continuous
 62
     7
100
AcDbLine
 10
185.4142579239585
 20
188.4461170391825
 30
0.0
 11
185.4137801202664
 21
188.4468769520178
 31
0.0
  0
ARC
  5
422F
330
A
100
AcDbEntity
  8
_0-0_
  6
Continuous
 62
     7
100
AcDbCircle
 10
180.0366931601424
 20
185.0659734024459
 30
0.0
 40
6.351659073678626
100
AcDbArc
 50
32.16008747960899
 51
33.79536127647232
  0
ARC
  5
4230
330
A
100
AcDbEntity
  8
_0-0_
  6
Continuous
 62
     7
100
AcDbCircle
 10
181.3905032829086
 20
185.9721115695824
 30
0.0
 40
4.722583192558982
100
AcDbArc
 50
33.79536127644487
 51
35.99460922470566
  0
LINE
  5
4231
330
A
100
AcDbEntity
  8
_0-0_
  6
Continuous
 62
     7
100
AcDbLine
 10
185.2114144982983
 20
188.7476168379524
 30
0.0
 11
185.2037134825102
 21
188.7582184743211
 31
0.0
  0
ARC
  5
4232
330
A
100
AcDbEntity
  8
_0-0_
  6
Continuous
 62
     7
100
AcDbCircle
 10
180.9488826522146
 20
185.6675145244508
 30
0.0
 40
5.25890067411216
100
AcDbArc
 50
35.99460922470487
 51
38.23342516878926
  0
ARC
  5
4233
330
A
100
AcDbEntity
  8
_0-0_
  6
Continuous
 62
     7
100
AcDbCircle
 10
181.0048632597693
 20
185.7116198242453
 30
0.0
 40
5.187632827981189
100
AcDbArc
 50
38.23342516879173
 51
40.5029900413093
  0
LINE
  5
4234
330
A
100
AcDbEntity
  8
_0-0_
  6
Continuous
 62
     7
100
AcDbLine
 10
184.9493943841671
 20
189.0809236939793
 30
0.0
 11
184.9359113682733
 21
189.0967086091727
 31
0.0
  0
ARC
  5
4235
330
A
100
AcDbEntity
  8
_0-0_
  6
Continuous
 62
     7
100
AcDbCircle
 10
181.7487447612705
 20
186.3743235033641
 30
0.0
 40
4.191588200804283
100
AcDbArc
 50
40.50299004130307
 51
43.41406709211883
  0
LINE
  5
4236
330
A
100
AcDbEntity
  8
_0-0_
  6
Continuous
 62
     7
100
AcDbLine
 10
184.7935394011313
 20
189.2550590424577
 30
0.0
 11
184.7811336931111
 21
189.2681712607682
 31
0.0
  0
ARC
  5
4237
330
A
100
AcDbEntity
  8
_0-0_
  6
Continuous
 62
     7
100
AcDbCircle
 10
181.0875519949595
 20
185.7736064959997
 30
0.0
 40
5.084734865858974
100
AcDbArc
 50
43.41406709212686
 51
45.40732119866407
  0
ARC
  5
4238
330
A
100
AcDbEntity
  8
_0-0_
  6
Continuous
 62
     7
100
AcDbCircle
 10
181.4058252851546
 20
186.0964375352181
 30
0.0
 40
4.631394191382851
100
AcDbArc
 50
45.40732119867585
 51
47.59563822548202
  0
LINE
  5
4239
330
A
100
AcDbEntity
  8
_0-0_
  6
Continuous
 62
     7
100
AcDbLine
 10
184.5290457985735
 20
189.5162775578705
 30
0.0
 11
184.5267793834055
 21
189.5183473957277
 31
0.0
  0
ARC
  5
423A
330
A
100
AcDbEntity
  8
_0-0_
  6
Continuous
 62
     7
100
AcDbCircle
 10
181.3775090572789
 20
186.0701069540161
 30
0.0
 40
4.669932090606515
100
AcDbArc
 50
47.59461720291926
 51
49.83914719318557
  0
ARC
  5
423B
330
A
100
AcDbEntity
  8
_0-0_
  6
Continuous
 62
     7
100
AcDbCircle
 10
181.456772342484
 20
186.1641525550922
 30
0.0
 40
4.546939256245244
100
AcDbArc
 50
49.83817138472436
 51
52.14137429440309
  0
LINE
  5
423C
330
A
100
AcDbEntity
  8
_0-0_
  6
Continuous
 62
     7
100
AcDbLine
 10
184.2472982067992
 20
189.7540859807384
 30
0.0
 11
184.2292314784041
 21
189.7681296040853
 31
0.0
  0
ARC
  5
423D
330
A
100
AcDbEntity
  8
_0-0_
  6
Continuous
 62
     7
100
AcDbCircle
 10
182.1942351868948
 20
187.1501638287561
 30
0.0
 40
3.315864096619643
100
AcDbArc
 50
52.14137429437535
 51
54.50763040275177
  0
ARC
  5
423E
330
A
100
AcDbEntity
  8
_0-0_
  6
Continuous
 62
     7
100
AcDbCircle
 10
180.3671705162018
 20
184.5879919379743
 30
0.0
 40
6.462749876054243
100
AcDbArc
 50
54.50763040277699
 51
55.72182026681023
  0
LINE
  5
423F
330
A
100
AcDbEntity
  8
_0-0_
  6
Continuous
 62
     7
100
AcDbLine
 10
184.0070649251232
 20
189.9282451765708
 30
0.0
 11
184.0007124036047
 21
189.9325750288316
 31
0.0
  0
ARC
  5
4240
330
A
100
AcDbEntity
  8
_0-0_
  6
Continuous
 62
     7
100
AcDbCircle
 10
182.2529337625588
 20
187.368330163563
 30
0.0
 40
3.103237326913975
100
AcDbArc
 50
55.72182026681347
 51
58.53388460948892
  0
LINE
  5
4241
330
A
100
AcDbEntity
  8
_0-0_
  6
Continuous
 62
     7
100
AcDbLine
 10
183.8728057219283
 20
190.0152333998753
 30
0.0
 11
183.8468007206947
 21
190.0311481381717
 31
0.0
  0
ARC
  5
4242
330
A
100
AcDbEntity
  8
_0-0_
  6
Continuous
 62
     7
100
AcDbCircle
 10
181.5162338461794
 20
186.22295517149
 30
0.0
 40
4.464736904686803
100
AcDbArc
 50
58.53388460948477
 51
60.83787079005351
  0
ARC
  5
4243
330
A
100
AcDbEntity
  8
_0-0_
  6
Continuous
 62
     7
100
AcDbCircle
 10
181.46108585141
 20
186.1239500098844
 30
0.0
 40
4.578065260227631
100
AcDbArc
 50
60.83894479685397
 51
63.08698410154977
  0
ARC
  5
4244
330
A
100
AcDbEntity
  8
_0-0_
  6
Continuous
 62
     7
100
AcDbCircle
 10
181.4116593907253
 20
186.0265799619953
 30
0.0
 40
4.687261877582578
100
AcDbArc
 50
63.08698410158432
 51
65.28371351873929
  0
LINE
  5
4245
330
A
100
AcDbEntity
  8
_0-0_
  6
Continuous
 62
     7
100
AcDbLine
 10
183.3715221827699
 20
190.28443878368
 30
0.0
 11
183.3714194355716
 21
190.2844860775004
 31
0.0
  0
ARC
  5
4246
330
A
100
AcDbEntity
  8
_0-0_
  6
Continuous
 62
     7
100
AcDbCircle
 10
181.3556956738265
 20
185.905267677179
 30
0.0
 40
4.82086051254106
100
AcDbArc
 50
65.28371351874297
 51
67.4222677899592
  0
LINE
  5
4247
330
A
100
AcDbEntity
  8
_0-0_
  6
Continuous
 62
     7
100
AcDbLine
 10
183.2065999448059
 20
190.3566550408049
 30
0.0
 11
183.2055671186445
 21
190.3570844939612
 31
0.0
  0
ARC
  5
4248
330
A
100
AcDbEntity
  8
_0-0_
  6
Continuous
 62
     7
100
AcDbCircle
 10
181.3560520938105
 20
185.9090382392376
 30
0.0
 40
4.817242085597118
100
AcDbArc
 50
67.42226778995769
 51
69.58902654509197
  0
LINE
  5
4249
330
A
100
AcDbEntity
  8
_0-0_
  6
Continuous
 62
     7
100
AcDbLine
 10
183.0360727470876
 20
190.4238308054371
 30
0.0
 11
183.0350030084836
 21
190.4242288708901
 31
0.0
  0
ARC
  5
424A
330
A
100
AcDbEntity
  8
_0-0_
  6
Continuous
 62
     7
100
AcDbCircle
 10
181.3471664137139
 20
185.888432185199
 30
0.0
 40
4.839653287640591
100
AcDbArc
 50
69.58902654509488
 51
71.77276995985699
  0
LINE
  5
424B
330
A
100
AcDbEntity
  8
_0-0_
  6
Continuous
 62
     7
100
AcDbLine
 10
182.8609439545542
 20
190.4852486380736
 30
0.0
 11
182.8388584171398
 21
190.4925216259899
 31
0.0
  0
ARC
  5
424C
330
A
100
AcDbEntity
  8
_0-0_
  6
Continuous
 62
     7
100
AcDbCircle
 10
181.5921151921013
 20
186.7064004144155
 30
0.0
 40
3.986111199893119
100
AcDbArc
 50
71.77364756316936
 51
75.09371114436784
  0
LINE
  5
424D
330
A
100
AcDbEntity
  8
_0-0_
  6
Continuous
 62
     7
100
AcDbLine
 10
182.6174979019216
 20
190.558370403436
 30
0.0
 11
182.587225266735
 21
190.5664288869625
 31
0.0
  0
ARC
  5
424E
330
A
100
AcDbEntity
  8
_0-0_
  6
Continuous
 62
     7
100
AcDbCircle
 10
181.4847879156096
 20
186.4249941322749
 30
0.0
 40
4.28565630218879
100
AcDbArc
 50
75.09371114435092
 51
77.34548111498245
  0
LINE
  5
424F
330
A
100
AcDbEntity
  8
_0-0_
  6
Continuous
 62
     7
100
AcDbLine
 10
182.4236541867488
 20
190.6065464834248
 30
0.0
 11
182.4024261438509
 21
190.6113127261514
 31
0.0
  0
ARC
  5
4250
330
A
100
AcDbEntity
  8
_0-0_
  6
Continuous
 62
     7
100
AcDbCircle
 10
181.5662061028829
 20
186.886929407811
 30
0.0
 40
3.817105586547025
100
AcDbArc
 50
77.3454811149645
 51
79.22067159810484
  0
LINE
  5
4251
330
A
100
AcDbEntity
  8
_0-0_
  6
Continuous
 62
     7
100
AcDbLine
 10
182.2801075486518
 20
190.636681370885
 30
0.0
 11
182.2668435322538
 21
190.6392066580444
 31
0.0
  0
ARC
  5
4252
330
A
100
AcDbEntity
  8
_0-0_
  6
Continuous
 62
     7
100
AcDbCircle
 10
181.3292873508221
 20
185.7147130144843
 30
0.0
 40
5.012948158399803
100
AcDbArc
 50
79.22067159810862
 51
80.33997597334628
  0
ARC
  5
4253
330
A
100
AcDbEntity
  8
_0-0_
  6
Continuous
 62
     7
100
AcDbCircle
 10
181.2252393648927
 20
185.1032667546591
 30
0.0
 40
5.633184009735592
100
AcDbArc
 50
80.34027087573615
 51
81.33663677216248
  0
ARC
  5
4254
330
A
100
AcDbEntity
  8
_0-0_
  6
Continuous
 62
     7
100
AcDbCircle
 10
181.1088394774408
 20
184.3390730100029
 30
0.0
 40
6.406191779373128
100
AcDbArc
 50
81.33697403777006
 51
82.21371407072621
  0
ARC
  5
4255
330
A
100
AcDbEntity
  8
_0-0_
  6
Continuous
 62
     7
100
AcDbCircle
 10
180.9714873471833
 20
183.3342806139041
 30
0.0
 40
7.420328538113337
100
AcDbArc
 50
82.21403767237562
 51
82.97157185120982
  0
ARC
  5
4256
330
A
100
AcDbEntity
  8
_0-0_
  6
Continuous
 62
     7
100
AcDbCircle
 10
180.8016948385939
 20
181.9567370947906
 30
0.0
 40
8.808296708329213
100
AcDbArc
 50
82.9718455980111
 51
83.61056006696774
  0
ARC
  5
4257
330
A
100
AcDbEntity
  8
_0-0_
  6
Continuous
 62
     7
100
AcDbCircle
 10
180.5778731680141
 20
179.9576472253399
 30
0.0
 40
10.81987729213184
100
AcDbArc
 50
83.6107658841648
 51
84.13116387312755
  0
ARC
  5
4258
330
A
100
AcDbEntity
  8
_0-0_
  6
Continuous
 62
     7
100
AcDbCircle
 10
180.2526651730315
 20
176.7935237143092
 30
0.0
 40
14.0006693054866
100
AcDbArc
 50
84.13129852068218
 51
84.53376274465619
  0
ARC
  5
4259
330
A
100
AcDbEntity
  8
_0-0_
  6
Continuous
 62
     7
100
AcDbCircle
 10
179.8261150024201
 20
172.3361008625224
 30
0.0
 40
18.47845486619398
100
AcDbArc
 50
84.53376274467328
 51
84.83880247616055
  0
LINE
  5
425A
330
A
100
AcDbEntity
  8
_0-0_
  6
Continuous
 62
     7
100
AcDbLine
 10
181.4884019834368
 20
190.7396357467427
 30
0.0
 11
181.4669246343204
 21
190.7415756739385
 31
0.0
  0
ARC
  5
425B
330
A
100
AcDbEntity
  8
_0-0_
  6
Continuous
 62
     7
100
AcDbCircle
 10
178.0970656246396
 20
153.4331454526761
 30
0.0
 40
37.46031120158964
100
AcDbArc
 50
84.83880247611168
 51
85.05523977642834
  0
LINE
  5
425C
330
A
100
AcDbEntity
  8
_0-0_
  6
Continuous
 62
     7
100
AcDbLine
 10
181.3259667072432
 20
190.7540392404553
 30
0.0
 11
181.3044970367042
 21
190.7558967372998
 31
0.0
  0
LINE
  5
425D
330
A
100
AcDbEntity
  8
_0-0_
  6
Continuous
 62
     7
100
AcDbLine
 10
181.3044970367042
 20
190.7558967372998
 30
0.0
 11
181.2983655340247
 21
190.7564286510894
 31
0.0
  0
LINE
  5
425E
330
A
100
AcDbEntity
  8
_0-0_
  6
Continuous
 62
     7
100
AcDbLine
 10
346.0272727975164
 20
337.2939437296471
 30
0.0
 11
346.0272727975164
 21
393.2939437296472
 31
0.0
  0
LINE
  5
425F
330
A
100
AcDbEntity
  8
_0-0_
  6
Continuous
 62
     7
100
AcDbLine
 10
338.0272727975164
 20
393.2939437296472
 30
0.0
 11
338.0272727975164
 21
337.2939437296471
 31
0.0
  0
LINE
  5
4260
330
A
100
AcDbEntity
  8
_0-0_
  6
Continuous
 62
     7
100
AcDbLine
 10
338.0272727975164
 20
337.2939437296471
 30
0.0
 11
338.0272727975164
 21
325.2939437296473
 31
0.0
  0
LINE
  5
4261
330
A
100
AcDbEntity
  8
_0-0_
  6
Continuous
 62
     7
100
AcDbLine
 10
346.0272727975164
 20
325.2939437296473
 30
0.0
 11
346.0272727975164
 21
337.2939437296471
 31
0.0
  0
LINE
  5
4262
330
A
100
AcDbEntity
  8
_0-0_
  6
Continuous
 62
     7
100
AcDbLine
 10
338.0272727975164
 20
405.2939437296472
 30
0.0
 11
338.0272727975164
 21
393.2939437296472
 31
0.0
  0
LINE
  5
4263
330
A
100
AcDbEntity
  8
_0-0_
  6
Continuous
 62
     7
100
AcDbLine
 10
346.0272727975164
 20
393.2939437296472
 30
0.0
 11
346.0272727975164
 21
405.2939437296472
 31
0.0
  0
ARC
  5
4264
330
A
100
AcDbEntity
  8
_0-0_
  6
Continuous
 62
     7
100
AcDbCircle
 10
324.0032836730448
 20
394.757945580801
 30
0.0
 40
6.000000000000043
100
AcDbArc
 50
96.1215574631634
 51
174.8747623314144
  0
ARC
  5
4265
330
A
100
AcDbEntity
  8
_0-0_
  6
Continuous
 62
     7
100
AcDbCircle
 10
324.0032836730448
 20
415.8299418784933
 30
0.0
 40
6.000000000000029
100
AcDbArc
 50
185.1252376685856
 51
263.8784425368376
  0
ARC
  5
4266
330
A
100
AcDbEntity
  8
_0-0_
  6
Continuous
 62
     7
100
AcDbCircle
 10
334.0272727975164
 20
301.2939437296473
 30
0.0
 40
100.0
100
AcDbArc
 50
90.02235175136718
 51
96.12155746316338
  0
ARC
  5
4267
330
A
100
AcDbEntity
  8
_0-0_
  6
Continuous
 62
     7
100
AcDbCircle
 10
334.0272727975164
 20
509.2939437296471
 30
0.0
 40
100.0
100
AcDbArc
 50
263.8784425368374
 51
269.9776482486336
  0
ARC
  5
4268
330
A
100
AcDbEntity
  8
_0-0_
  6
Continuous
 62
     7
100
AcDbCircle
 10
342.0272727975164
 20
405.2939437296472
 30
0.0
 40
9.0
100
AcDbArc
 50
0.0
 51
243.6122000387579
  0
ARC
  5
4269
330
A
100
AcDbEntity
  8
_0-0_
  6
Continuous
 62
     7
100
AcDbCircle
 10
342.0272727975164
 20
405.2939437296472
 30
0.0
 40
8.999999999999973
100
AcDbArc
 50
296.3877999612439
 51
347.9013908353739
  0
LINE
  5
426A
330
A
100
AcDbEntity
  8
_0-0_
  6
Continuous
 62
     7
100
AcDbLine
 10
351.0219299379299
 20
404.9838745012361
 30
0.0
 11
351.0272727975163
 21
405.2939437296472
 31
0.0
  0
ARC
  5
426B
330
A
100
AcDbEntity
  8
_0-0_
  6
Continuous
 62
     7
100
AcDbCircle
 10
307.5272727975159
 20
437.2939437296472
 30
0.0
 40
0.4999999999999658
100
AcDbArc
 50
48.84822781469501
 51
180.0
  0
ARC
  5
426C
330
A
100
AcDbEntity
  8
_0-0_
  6
Continuous
 62
     7
100
AcDbCircle
 10
316.0819994132535
 20
447.0825418177287
 30
0.0
 40
12.50000000000006
100
AcDbArc
 50
228.8482278146686
 51
267.6450040848358
  0
ARC
  5
426D
330
A
100
AcDbEntity
  8
_0-0_
  6
Continuous
 62
     7
100
AcDbCircle
 10
315.527272797516
 20
433.5939437296474
 30
0.0
 40
1.0
100
AcDbArc
 50
0.0
 51
87.64500408483386
  0
LINE
  5
426E
330
A
100
AcDbEntity
  8
_0-0_
  6
Continuous
 62
     7
100
AcDbLine
 10
316.5272727975167
 20
376.993943729647
 30
0.0
 11
316.527272797516
 21
433.5939437296474
 31
0.0
  0
ARC
  5
427B
330
A
100
AcDbEntity
  8
_0-0_
  6
Continuous
 62
     7
100
AcDbCircle
 10
342.0272727975163
 20
405.2939437296472
 30
0.0
 40
4.0
100
AcDbArc
 50
0.0
 51
90.0
  0
ARC
  5
427C
330
A
100
AcDbEntity
  8
_0-0_
  6
Continuous
 62
     7
100
AcDbCircle
 10
342.0272727975163
 20
405.2939437296472
 30
0.0
 40
4.0
100
AcDbArc
 50
90.0
 51
180.0
  0
ARC
  5
427D
330
A
100
AcDbEntity
  8
_0-0_
  6
Continuous
 62
     7
100
AcDbCircle
 10
284.5284352740138
 20
344.3322862801111
 30
0.0
 40
88.79999990769906
100
AcDbArc
 50
335.5054875980196
 51
46.67438507246958
  0
ARC
  5
427E
330
A
100
AcDbEntity
  8
_0-0_
  6
Continuous
 62
     7
100
AcDbCircle
 10
284.5284352239963
 20
344.3322863063697
 30
0.0
 40
89.99999994350885
100
AcDbArc
 50
335.5054875959822
 51
46.67438503736734
  0
LINE
  5
427F
330
A
100
AcDbEntity
  8
_0-0_
  6
Continuous
 62
     7
100
AcDbLine
 10
364.2146103835136
 20
302.497928676805
 30
0.0
 11
363.1521280473863
 21
303.055720112216
 31
0.0
  0
LINE
  5
4280
330
A
100
AcDbEntity
  8
_0-0_
  6
Continuous
 62
     7
100
AcDbLine
 10
363.1521280473863
 20
303.055720112216
 30
0.0
 11
363.261513385943
 21
303.2640879267227
 31
0.0
  0
ARC
  5
4281
330
A
100
AcDbEntity
  8
_0-0_
  6
Continuous
 62
     7
100
AcDbCircle
 10
306.402209063602
 20
333.1131040433462
 30
0.0
 40
64.21794337372566
100
AcDbArc
 50
332.3022008413215
 51
333.3882540873145
  0
LINE
  5
4282
330
A
100
AcDbEntity
  8
_0-0_
  6
Continuous
 62
     7
100
AcDbLine
 10
363.8170592619136
 20
304.3471653683011
 30
0.0
 11
363.9276983227843
 21
304.5679933822144
 31
0.0
  0
ARC
  5
4283
330
A
100
AcDbEntity
  8
_0-0_
  6
Continuous
 62
     7
100
AcDbCircle
 10
288.5434350572692
 20
342.3369518776092
 30
0.0
 40
84.3165545661783
100
AcDbArc
 50
333.3882540873136
 51
333.8797651308747
  0
LINE
  5
4284
330
A
100
AcDbEntity
  8
_0-0_
  6
Continuous
 62
     7
100
AcDbLine
 10
364.2489210684772
 20
305.2160580074703
 30
0.0
 11
364.2966633190885
 21
305.3134250131905
 31
0.0
  0
ARC
  5
4285
330
A
100
AcDbEntity
  8
_0-0_
  6
Continuous
 62
     7
100
AcDbCircle
 10
302.8502443217133
 20
335.4426285687141
 30
0.0
 40
68.43559975985578
100
AcDbArc
 50
333.8797651308757
 51
334.3037565559079
  0
LINE
  5
4286
330
A
100
AcDbEntity
  8
_0-0_
  6
Continuous
 62
     7
100
AcDbLine
 10
364.5179363711646
 20
305.768952157032
 30
0.0
 11
364.5239075700325
 21
305.7813614738908
 31
0.0
  0
ARC
  5
4287
330
A
100
AcDbEntity
  8
_0-0_
  6
Continuous
 62
     7
100
AcDbCircle
 10
244.5356162199458
 20
363.5181376103836
 30
0.0
 40
133.1567699358495
100
AcDbArc
 50
334.3037565559065
 51
334.5098155142852
  0
LINE
  5
4288
330
A
100
AcDbEntity
  8
_0-0_
  6
Continuous
 62
     7
100
AcDbLine
 10
364.7307761120977
 20
306.2132606953354
 30
0.0
 11
364.7456901777736
 21
306.244542474567
 31
0.0
  0
ARC
  5
4289
330
A
100
AcDbEntity
  8
_0-0_
  6
Continuous
 62
     7
100
AcDbCircle
 10
322.655875568793
 20
326.3115039704251
 30
0.0
 40
46.62869757450444
100
AcDbArc
 50
334.5098155142899
 51
335.0130857780418
  0
LINE
  5
428A
330
A
100
AcDbEntity
  8
_0-0_
  6
Continuous
 62
     7
100
AcDbLine
 10
364.9203268611024
 20
306.6150171147799
 30
0.0
 11
364.9512171538664
 21
306.6813010812303
 31
0.0
  0
ARC
  5
428B
330
A
100
AcDbEntity
  8
_0-0_
  6
Continuous
 62
     7
100
AcDbCircle
 10
246.1698355972443
 20
362.0369451033082
 30
0.0
 40
131.0468005317141
100
AcDbArc
 50
335.0130857780406
 51
335.1282131698409
  0
ARC
  5
428C
330
A
100
AcDbEntity
  8
_0-0_
  6
Continuous
 62
     7
100
AcDbCircle
 10
269.9004016593152
 20
351.0357828584905
 30
0.0
 40
104.8902461645365
100
AcDbArc
 50
335.1282131698381
 51
335.272049933053
  0
LINE
  5
428D
330
A
100
AcDbEntity
  8
_0-0_
  6
Continuous
 62
     7
100
AcDbLine
 10
365.1726554360104
 20
307.1591216276487
 30
0.0
 11
365.1911607615847
 21
307.1993034469774
 31
0.0
  0
ARC
  5
428E
330
A
100
AcDbEntity
  8
_0-0_
  6
Continuous
 62
     7
100
AcDbCircle
 10
-33.44880351513234
 20
490.7888583517616
 30
0.0
 40
438.8837497432309
100
AcDbArc
 50
335.2720499330595
 51
335.3167331285044
  0
LINE
  5
428F
330
A
100
AcDbEntity
  8
_0-0_
  6
Continuous
 62
     7
100
AcDbLine
 10
365.3342153022819
 20
307.5102461474219
 30
0.0
 11
365.3365226067668
 21
307.5152657383543
 31
0.0
  0
LINE
  5
4290
330
A
100
AcDbEntity
  8
_0-0_
  6
Continuous
 62
     7
100
AcDbLine
 10
364.2146103835136
 20
302.497928676805
 30
0.0
 11
364.3079083678587
 21
302.6757099026778
 31
0.0
  0
ARC
  5
4291
330
A
100
AcDbEntity
  8
_0-0_
  6
Continuous
 62
     7
100
AcDbCircle
 10
303.1958314545224
 20
334.7467768399333
 30
0.0
 40
69.0162247529915
100
AcDbArc
 50
332.309916160244
 51
333.3267233133494
  0
LINE
  5
4292
330
A
100
AcDbEntity
  8
_0-0_
  6
Continuous
 62
     7
100
AcDbLine
 10
364.8674087807771
 20
303.765236703148
 30
0.0
 11
364.9667926958103
 21
303.963069437541
 31
0.0
  0
ARC
  5
4293
330
A
100
AcDbEntity
  8
_0-0_
  6
Continuous
 62
     7
100
AcDbCircle
 10
292.0574417150492
 20
340.5900551850926
 30
0.0
 40
81.59233754089395
100
AcDbArc
 50
333.326723313346
 51
333.8758912633907
  0
LINE
  5
4294
330
A
100
AcDbEntity
  8
_0-0_
  6
Continuous
 62
     7
100
AcDbLine
 10
365.3145002471362
 20
304.6635618881739
 30
0.0
 11
365.3724782725802
 21
304.7817838245156
 31
0.0
  0
ARC
  5
4295
330
A
100
AcDbEntity
  8
_0-0_
  6
Continuous
 62
     7
100
AcDbCircle
 10
303.128547559783
 20
335.307254056812
 30
0.0
 40
69.32612237448673
100
AcDbArc
 50
333.8758912633946
 51
334.3045816733844
  0
LINE
  5
4296
330
A
100
AcDbEntity
  8
_0-0_
  6
Continuous
 62
     7
100
AcDbLine
 10
365.5991272776463
 20
305.2483466715395
 30
0.0
 11
365.6075396963005
 21
305.265829964043
 31
0.0
  0
ARC
  5
4297
330
A
100
AcDbEntity
  8
_0-0_
  6
Continuous
 62
     7
100
AcDbCircle
 10
246.8913268516206
 20
362.3883933073652
 30
0.0
 40
131.7441704026982
100
AcDbArc
 50
334.3045816733896
 51
334.5132911464271
  0
LINE
  5
4298
330
A
100
AcDbEntity
  8
_0-0_
  6
Continuous
 62
     7
100
AcDbLine
 10
365.8148301168518
 20
305.6986516760988
 30
0.0
 11
365.8301245033543
 21
305.7307361762363
 31
0.0
  0
ARC
  5
4299
330
A
100
AcDbEntity
  8
_0-0_
  6
Continuous
 62
     7
100
AcDbCircle
 10
322.9388738192401
 20
326.1766013985384
 30
0.0
 40
47.51518483533521
100
AcDbArc
 50
334.5132911464214
 51
335.0062528922962
  0
LINE
  5
429A
330
A
100
AcDbEntity
  8
_0-0_
  6
Continuous
 62
     7
100
AcDbLine
 10
366.0044470690424
 20
306.1005163568279
 30
0.0
 11
366.0338336644214
 21
306.1635540742529
 31
0.0
  0
ARC
  5
429B
330
A
100
AcDbEntity
  8
_0-0_
  6
Continuous
 62
     7
100
AcDbCircle
 10
247.2904936813775
 20
361.518706966528
 30
0.0
 40
131.0121129592829
100
AcDbArc
 50
335.0062528922966
 51
335.1242065887055
  0
ARC
  5
429C
330
A
100
AcDbEntity
  8
_0-0_
  6
Continuous
 62
     7
100
AcDbCircle
 10
270.8304613278457
 20
350.6039035751871
 30
0.0
 40
105.0648007696091
100
AcDbArc
 50
335.1242065887074
 51
335.2712906725881
  0
LINE
  5
429D
330
A
100
AcDbEntity
  8
_0-0_
  6
Continuous
 62
     7
100
AcDbLine
 10
366.2606813781339
 20
306.6529597638057
 30
0.0
 11
366.2796358154695
 21
306.6941153333797
 31
0.0
  0
ARC
  5
429E
330
A
100
AcDbEntity
  8
_0-0_
  6
Continuous
 62
     7
100
AcDbCircle
 10
-32.99330456167843
 20
490.581594149597
 30
0.0
 40
439.5833092632138
100
AcDbArc
 50
335.2712906725841
 51
335.3169845143551
  0
LINE
  5
429F
330
A
100
AcDbEntity
  8
_0-0_
  6
Continuous
 62
     7
100
AcDbLine
 10
366.4261605603709
 20
307.0125971364458
 30
0.0
 11
366.4285237883097
 21
307.0177384330646
 31
0.0
  0
LINE
  5
42A0
330
A
100
AcDbEntity
  8
_0-0_
  6
Continuous
 62
     7
100
AcDbLine
 10
347.4729928945295
 20
402.3301399352355
 30
0.0
 11
346.4189825568297
 21
402.9037793773245
 31
0.0
  0
ARC
  5
42A1
330
A
100
AcDbEntity
  8
_0-0_
  6
Continuous
 62
     7
100
AcDbCircle
 10
342.0272727975163
 20
405.2939437296472
 30
0.0
 40
6.200000024740557
100
AcDbArc
 50
310.1777693470908
 51
331.4429958386053
  0
LINE
  5
42A2
330
A
100
AcDbEntity
  8
_0-0_
  6
Continuous
 62
     7
100
AcDbLine
 10
346.0272727975164
 20
402.2939436835786
 30
0.0
 11
346.0887108528501
 21
402.377658216533
 31
0.0
  0
LINE
  5
42A3
330
A
100
AcDbEntity
  8
_0-0_
  6
Continuous
 62
     7
100
AcDbLine
 10
346.0887108528501
 20
402.377658216533
 30
0.0
 11
346.4189825568296
 21
402.9037793773245
 31
0.0
  0
LINE
  5
42A4
330
A
100
AcDbEntity
  8
_0-0_
  6
Continuous
 62
     7
100
AcDbLine
 10
347.9128398680775
 20
403.3445590665526
 30
0.0
 11
346.7736978589662
 21
403.7218593224201
 31
0.0
  0
ARC
  5
42A5
330
A
100
AcDbEntity
  8
_0-0_
  6
Continuous
 62
     7
100
AcDbCircle
 10
342.0272727975164
 20
325.2939437296473
 30
0.0
 40
4.0
100
AcDbArc
 50
180.0
 51
0.0
  0
ARC
  5
42A6
330
A
100
AcDbEntity
  8
_0-0_
  6
Continuous
 62
     7
100
AcDbCircle
 10
342.0272727975164
 20
405.2939437296472
 30
0.0
 40
4.0
100
AcDbArc
 50
0.0
 51
180.0
  0
ARC
  5
42A7
330
A
100
AcDbEntity
  8
_0-0_
  6
Continuous
 62
     7
100
AcDbCircle
 10
342.0272727975165
 20
405.2939437296472
 30
0.0
 40
5.050000000000005
100
AcDbArc
 50
341.682836235042
 51
38.36625469469661
  0
ARC
  5
42A8
330
A
100
AcDbEntity
  8
_0-0_
  6
Continuous
 62
     7
100
AcDbCircle
 10
342.0272727975165
 20
405.2939437296472
 30
0.0
 40
4.359999999999989
100
AcDbArc
 50
336.5533827449527
 51
203.4466172550443
  0
ARC
  5
42A9
330
A
100
AcDbEntity
  8
_0-0_
  6
Continuous
 62
     7
100
AcDbCircle
 10
342.0272727975165
 20
405.2939437296472
 30
0.0
 40
4.09999999999999
100
AcDbArc
 50
347.3196165081787
 51
192.6803834918147
  0
ARC
  5
42AA
330
A
100
AcDbEntity
  8
_0-0_
  6
Continuous
 62
     7
100
AcDbCircle
 10
342.0272727975165
 20
405.2939437296472
 30
0.0
 40
6.000000000000006
100
AcDbArc
 50
341.6809410293496
 51
11.99960902972239
  0
LINE
  5
42AB
330
A
100
AcDbEntity
  8
_0-0_
  6
Continuous
 62
     7
100
AcDbLine
 10
307.027272797516
 20
437.2939437288582
 30
0.0
 11
307.0272727975168
 21
373.293943729647
 31
0.0
  0
ARC
  5
42AD
330
A
100
AcDbEntity
  8
_0-0_
  6
Continuous
 62
     8
100
AcDbCircle
 10
342.0272727975165
 20
405.2939437296472
 30
0.0
 40
5.150000000000033
100
AcDbArc
 50
341.6638728444796
 51
32.39623721266396
  0
ARC
  5
42AE
330
A
100
AcDbEntity
  8
_0-0_
  6
Continuous
 62
     8
100
AcDbCircle
 10
342.0272727975164
 20
405.2939437296472
 30
0.0
 40
7.17590624932248
100
AcDbArc
 50
15.23018240267289
 51
236.1223783746223
  0
ARC
  5
42AF
330
A
100
AcDbEntity
  8
_0-0_
  6
Continuous
 62
     8
100
AcDbCircle
 10
342.0272727975164
 20
405.2939437296472
 30
0.0
 40
7.175906249322474
100
AcDbArc
 50
303.87762162538
 51
359.1089148366834
  0
LINE
  5
42B0
330
A
100
AcDbEntity
  8
_0-0_
  6
Continuous
 62
     8
100
AcDbLine
 10
348.6958665465144
 20
405.2939437296472
 30
0.0
 11
348.6815182752042
 21
405.7311618809699
 31
0.0
  0
ARC
  5
42B1
330
A
100
AcDbEntity
  8
_0-0_
  6
Continuous
 62
     8
100
AcDbCircle
 10
342.0272727975164
 20
405.2939437296472
 30
0.0
 40
6.668593748997906
100
AcDbArc
 50
24.242810977774
 51
233.142519295074
  0
ARC
  5
42B2
330
A
100
AcDbEntity
  8
_0-0_
  6
Continuous
 62
     8
100
AcDbCircle
 10
342.0272727975164
 20
405.2939437296472
 30
0.0
 40
6.668593748997952
100
AcDbArc
 50
306.8574807049282
 51
0.0
  0
ARC
  5
42B5
330
A
100
AcDbEntity
  8
_0-0_
  6
Continuous
 62
     7
100
AcDbCircle
 10
307.5272727975167
 20
373.2939437296472
 30
0.0
 40
0.4999999999999658
100
AcDbArc
 50
180.0
 51
311.151772185305
  0
ARC
  5
42B6
330
A
100
AcDbEntity
  8
_0-0_
  6
Continuous
 62
     7
100
AcDbCircle
 10
316.0819994132543
 20
363.5053456415658
 30
0.0
 40
12.50000000000006
100
AcDbArc
 50
92.35499591516425
 51
131.1517721853314
  0
ARC
  5
42B7
330
A
100
AcDbEntity
  8
_0-0_
  6
Continuous
 62
     7
100
AcDbCircle
 10
315.5272727975167
 20
376.993943729647
 30
0.0
 40
1.0
100
AcDbArc
 50
272.3549959151661
 51
0.0
  0
LINE
  5
42B8
330
A
100
AcDbEntity
  8
_0-0_
  6
Continuous
 62
     7
100
AcDbLine
 10
61.29836541686598
 20
410.7639437543878
 30
0.0
 11
61.29836541686598
 21
409.8042334390422
 31
0.0
  0
LINE
  5
42B9
330
A
100
AcDbEntity
  8
_0-0_
  6
Continuous
 62
     7
100
AcDbLine
 10
62.028365416866
 20
411.4939437543878
 30
0.0
 11
101.298365416866
 21
411.4939437543878
 31
0.0
  0
ARC
  5
42BA
330
A
100
AcDbEntity
  8
_0-0_
  6
Continuous
 62
     7
100
AcDbCircle
 10
62.028365416866
 20
410.7639437543878
 30
0.0
 40
0.73
100
AcDbArc
 50
90.0
 51
180.0
  0
LINE
  5
42BB
330
A
100
AcDbEntity
  8
_0-0_
  6
Continuous
 62
     7
100
AcDbLine
 10
185.568365416866
 20
411.4939437543878
 30
0.0
 11
146.298365416866
 21
411.4939437543878
 31
0.0
  0
LINE
  5
42BC
330
A
100
AcDbEntity
  8
_0-0_
  6
Continuous
 62
     7
100
AcDbLine
 10
186.298365416866
 20
410.7639437543878
 30
0.0
 11
186.298365416866
 21
409.8042334390422
 31
0.0
  0
ARC
  5
42BD
330
A
100
AcDbEntity
  8
_0-0_
  6
Continuous
 62
     7
100
AcDbCircle
 10
185.568365416866
 20
410.7639437543878
 30
0.0
 40
0.73
100
AcDbArc
 50
0.0
 51
90.0
  0
LINE
  5
42BE
330
A
100
AcDbEntity
  8
_0-0_
  6
Continuous
 62
     7
100
AcDbLine
 10
146.298365416866
 20
400.836423964484
 30
0.0
 11
146.2833519994512
 21
400.7886559160553
 31
0.0
  0
ARC
  5
42BF
330
A
100
AcDbEntity
  8
_0-0_
  6
Continuous
 62
     7
100
AcDbCircle
 10
143.3495572941815
 20
401.7107426658565
 30
0.0
 40
3.075287847800088
100
AcDbArc
 50
341.8575796590948
 51
342.5521542044524
  0
ARC
  5
42C0
330
A
100
AcDbEntity
  8
_0-0_
  6
Continuous
 62
     7
100
AcDbCircle
 10
143.983600358251
 20
401.5029857434528
 30
0.0
 40
2.408074579121066
100
AcDbArc
 50
340.9702673748343
 51
341.8575796590417
  0
ARC
  5
42C1
330
A
100
AcDbEntity
  8
_0-0_
  6
Continuous
 62
     7
100
AcDbCircle
 10
144.5719208850572
 20
401.3000594123616
 30
0.0
 40
1.785740152950891
100
AcDbArc
 50
339.7736409890773
 51
340.9705637784057
  0
LINE
  5
42C2
330
A
100
AcDbEntity
  8
_0-0_
  6
Continuous
 62
     7
100
AcDbLine
 10
146.2475417080349
 20
400.6826756164414
 30
0.0
 11
146.247533437356
 21
400.6826531692668
 31
0.0
  0
ARC
  5
42C3
330
A
100
AcDbEntity
  8
_0-0_
  6
Continuous
 62
     7
100
AcDbCircle
 10
144.9120202684561
 20
401.174724035425
 30
0.0
 40
1.423281125296908
100
AcDbArc
 50
338.270010224501
 51
339.7736409891099
  0
LINE
  5
42C4
330
A
100
AcDbEntity
  8
_0-0_
  6
Continuous
 62
     7
100
AcDbLine
 10
146.2341614874613
 20
400.6477783469199
 30
0.0
 11
146.234146056976
 21
400.6477396308225
 31
0.0
  0
ARC
  5
42C5
330
A
100
AcDbEntity
  8
_0-0_
  6
Continuous
 62
     7
100
AcDbCircle
 10
145.1297569103982
 20
401.0878991923382
 30
0.0
 40
1.188871661144445
100
AcDbArc
 50
336.4659375981324
 51
338.2700102245641
  0
LINE
  5
42C6
330
A
100
AcDbEntity
  8
_0-0_
  6
Continuous
 62
     7
100
AcDbLine
 10
146.2197416217041
 20
400.6131896434644
 30
0.0
 11
146.2197147462012
 21
400.6131279343894
 31
0.0
  0
ARC
  5
42C7
330
A
100
AcDbEntity
  8
_0-0_
  6
Continuous
 62
     7
100
AcDbCircle
 10
145.2781199931817
 20
401.0232107693056
 30
0.0
 40
1.027019284340346
100
AcDbArc
 50
334.3701046286587
 51
336.4659375981409
  0
LINE
  5
42C8
330
A
100
AcDbEntity
  8
_0-0_
  6
Continuous
 62
     7
100
AcDbLine
 10
146.2040877209354
 20
400.578967167702
 30
0.0
 11
146.2040435533578
 21
400.5788751061593
 31
0.0
  0
ARC
  5
42C9
330
A
100
AcDbEntity
  8
_0-0_
  6
Continuous
 62
     7
100
AcDbCircle
 10
145.3799862743801
 20
400.9742260050827
 30
0.0
 40
0.9139872714189564
100
AcDbArc
 50
332.0023543344262
 51
334.3701046285995
  0
LINE
  5
42CA
330
A
100
AcDbEntity
  8
_0-0_
  6
Continuous
 62
     7
100
AcDbLine
 10
146.1870067666331
 20
400.5451681332292
 30
0.0
 11
146.1864375264447
 21
400.5440974420073
 31
0.0
  0
ARC
  5
42CB
330
A
100
AcDbEntity
  8
_0-0_
  6
Continuous
 62
     7
100
AcDbCircle
 10
145.4981835232426
 20
400.9100123112589
 30
0.0
 40
0.7794788415750284
100
AcDbArc
 50
329.3987261356677
 51
332.0023543346211
  0
LINE
  5
42CC
330
A
100
AcDbEntity
  8
_0-0_
  6
Continuous
 62
     7
100
AcDbLine
 10
146.1691048993648
 20
400.513210381418
 30
0.0
 11
146.168562075618
 21
400.5122925631619
 31
0.0
  0
ARC
  5
42CD
330
A
100
AcDbEntity
  8
_0-0_
  6
Continuous
 62
     7
100
AcDbCircle
 10
145.4638123964121
 20
400.9291015108506
 30
0.0
 40
0.8187806844411664
100
AcDbArc
 50
327.0692038936053
 51
329.3987261357055
  0
ARC
  5
42CE
330
A
100
AcDbEntity
  8
_0-0_
  6
Continuous
 62
     7
100
AcDbCircle
 10
145.4592284799826
 20
400.9320704755725
 30
0.0
 40
0.8242420983014289
100
AcDbArc
 50
324.7551128154711
 51
327.0692038937088
  0
LINE
  5
42CF
330
A
100
AcDbEntity
  8
_0-0_
  6
Continuous
 62
     7
100
AcDbLine
 10
146.1323812762564
 20
400.4564231803199
 30
0.0
 11
146.1322834109592
 21
400.4562846779062
 31
0.0
  0
ARC
  5
42D0
330
A
100
AcDbEntity
  8
_0-0_
  6
Continuous
 62
     7
100
AcDbCircle
 10
145.450530808994
 20
400.9380085642974
 30
0.0
 40
0.8347721323848083
100
AcDbArc
 50
322.4469338405855
 51
324.7551128154835
  0
LINE
  5
42D1
330
A
100
AcDbEntity
  8
_0-0_
  6
Continuous
 62
     7
100
AcDbLine
 10
146.1123291215814
 20
400.429218326122
 30
0.0
 11
146.1122245440163
 21
400.4290822990308
 31
0.0
  0
ARC
  5
42D2
330
A
100
AcDbEntity
  8
_0-0_
  6
Continuous
 62
     7
100
AcDbCircle
 10
145.4427898673149
 20
400.9437433704224
 30
0.0
 40
0.844404408311766
100
AcDbArc
 50
320.1418023564888
 51
322.44693384062
  0
LINE
  5
42D3
330
A
100
AcDbEntity
  8
_0-0_
  6
Continuous
 62
     7
100
AcDbLine
 10
146.0909825075316
 20
400.402573243803
 30
0.0
 11
146.0908708310961
 21
400.4024394820892
 31
0.0
  0
ARC
  5
42D4
330
A
100
AcDbEntity
  8
_0-0_
  6
Continuous
 62
     7
100
AcDbCircle
 10
145.4358954669615
 20
400.9492724430772
 30
0.0
 40
0.8532403031068992
100
AcDbArc
 50
317.837142785318
 51
320.1418023565554
  0
LINE
  5
42D5
330
A
100
AcDbEntity
  8
_0-0_
  6
Continuous
 62
     7
100
AcDbLine
 10
146.0683512177718
 20
400.3765432416976
 30
0.0
 11
146.0682319363664
 21
400.3764115211379
 31
0.0
  0
ARC
  5
42D6
330
A
100
AcDbEntity
  8
_0-0_
  6
Continuous
 62
     7
100
AcDbCircle
 10
145.4296814685548
 20
400.954659879228
 30
0.0
 40
0.8614626304002712
100
AcDbArc
 50
315.5308459136816
 51
317.8371427852825
  0
LINE
  5
42D7
330
A
100
AcDbEntity
  8
_0-0_
  6
Continuous
 62
     7
100
AcDbLine
 10
146.0444450548332
 20
400.3511836190798
 30
0.0
 11
146.044317529556
 21
400.3510537085896
 31
0.0
  0
ARC
  5
42D8
330
A
100
AcDbEntity
  8
_0-0_
  6
Continuous
 62
     7
100
AcDbCircle
 10
145.4240758129331
 20
400.9599075182306
 30
0.0
 40
0.8691390847002453
100
AcDbArc
 50
313.2209216958292
 51
315.5308459137823
  0
LINE
  5
42D9
330
A
100
AcDbEntity
  8
_0-0_
  6
Continuous
 62
     7
100
AcDbLine
 10
146.0192737698703
 20
400.3265496883973
 30
0.0
 11
146.0191372555814
 21
400.3264213991078
 31
0.0
  0
ARC
  5
42DA
330
A
100
AcDbEntity
  8
_0-0_
  6
Continuous
 62
     7
100
AcDbCircle
 10
145.418611453687
 20
400.9654486575418
 30
0.0
 40
0.87691908165036
100
AcDbArc
 50
310.9070154495685
 51
313.2209216958012
  0
LINE
  5
42DB
330
A
100
AcDbEntity
  8
_0-0_
  6
Continuous
 62
     7
100
AcDbLine
 10
145.9928473202183
 20
400.302696633515
 30
0.0
 11
145.9925605473788
 21
400.3024481616221
 31
0.0
  0
ARC
  5
42DC
330
A
100
AcDbEntity
  8
_0-0_
  6
Continuous
 62
     7
100
AcDbCircle
 10
145.4202557139913
 20
400.9629714914844
 30
0.0
 40
0.873970189200528
100
AcDbArc
 50
308.5842408418941
 51
310.907015449587
  0
LINE
  5
42DD
330
A
100
AcDbEntity
  8
_0-0_
  6
Continuous
 62
     7
100
AcDbLine
 10
145.9653199969024
 20
400.2797959510075
 30
0.0
 11
145.9651110424109
 21
400.2796292389061
 31
0.0
  0
ARC
  5
42DE
330
A
100
AcDbEntity
  8
_0-0_
  6
Continuous
 62
     7
100
AcDbCircle
 10
145.4020894981987
 20
400.985312146091
 30
0.0
 40
0.9027633270906745
100
AcDbArc
 50
306.3694484983856
 51
308.5842408418859
  0
ARC
  5
42DF
330
A
100
AcDbEntity
  8
_0-0_
  6
Continuous
 62
     7
100
AcDbCircle
 10
145.3905409359174
 20
401.0009937345655
 30
0.0
 40
0.9222384781260802
100
AcDbArc
 50
304.2014152231295
 51
306.36944849832
  0
LINE
  5
42E0
330
A
100
AcDbEntity
  8
_0-0_
  6
Continuous
 62
     7
100
AcDbLine
 10
145.9089346952695
 20
400.2382410087093
 30
0.0
 11
145.9088540355517
 21
400.2381861895091
 31
0.0
  0
ARC
  5
42E1
330
A
100
AcDbEntity
  8
_0-0_
  6
Continuous
 62
     7
100
AcDbCircle
 10
145.3829699086701
 20
401.011960070899
 30
0.0
 40
0.9355640728602814
100
AcDbArc
 50
302.052313785427
 51
304.2014152232204
  0
LINE
  5
42E2
330
A
100
AcDbEntity
  8
_0-0_
  6
Continuous
 62
     7
100
AcDbLine
 10
145.879467542216
 20
400.2190097355623
 30
0.0
 11
145.8793366315399
 21
400.2189277671995
 31
0.0
  0
ARC
  5
42E3
330
A
100
AcDbEntity
  8
_0-0_
  6
Continuous
 62
     7
100
AcDbCircle
 10
145.3760253627678
 20
401.0227600765324
 30
0.0
 40
0.948403192107936
100
AcDbArc
 50
299.9136436453845
 51
302.0523137854283
  0
LINE
  5
42E4
330
A
100
AcDbEntity
  8
_0-0_
  6
Continuous
 62
     7
100
AcDbLine
 10
145.8489884929025
 20
400.2007050343768
 30
0.0
 11
145.8488661222951
 21
400.2006346293765
 31
0.0
  0
ARC
  5
42E5
330
A
100
AcDbEntity
  8
_0-0_
  6
Continuous
 62
     7
100
AcDbCircle
 10
145.3715506858305
 20
401.0302543951545
 30
0.0
 40
0.9571305980153249
100
AcDbArc
 50
297.7775734168775
 51
299.9136436454129
  0
LINE
  5
42E6
330
A
100
AcDbEntity
  8
_0-0_
  6
Continuous
 62
     7
100
AcDbLine
 10
145.8176121780841
 20
400.1834202161173
 30
0.0
 11
145.8174990570435
 21
400.1833606307327
 31
0.0
  0
ARC
  5
42E7
330
A
100
AcDbEntity
  8
_0-0_
  6
Continuous
 62
     7
100
AcDbCircle
 10
145.3692910040708
 20
401.0342699900229
 30
0.0
 40
0.9617365525324441
100
AcDbArc
 50
295.6365022392546
 51
297.7775734168458
  0
LINE
  5
42E8
330
A
100
AcDbEntity
  8
_0-0_
  6
Continuous
 62
     7
100
AcDbLine
 10
145.7853961374526
 20
400.1672096031695
 30
0.0
 11
145.785292316134
 21
400.167159778977
 31
0.0
  0
ARC
  5
42E9
330
A
100
AcDbEntity
  8
_0-0_
  6
Continuous
 62
     7
100
AcDbCircle
 10
145.3689190590364
 20
401.0347788694698
 30
0.0
 40
0.9623562622094641
100
AcDbArc
 50
293.4831020032028
 51
295.6365022392698
  0
LINE
  5
42EA
330
A
100
AcDbEntity
  8
_0-0_
  6
Continuous
 62
     7
100
AcDbLine
 10
145.7523974226118
 20
400.1521272280601
 30
0.0
 11
145.752302455698
 21
400.1520859685699
 31
0.0
  0
ARC
  5
42EB
330
A
100
AcDbEntity
  8
_0-0_
  6
Continuous
 62
     7
100
AcDbCircle
 10
145.3699703938771
 20
401.0320991687519
 30
0.0
 40
0.9594795662183885
100
AcDbArc
 50
291.3108852363828
 51
293.4831020031596
  0
LINE
  5
42EC
330
A
100
AcDbEntity
  8
_0-0_
  6
Continuous
 62
     7
100
AcDbLine
 10
145.7186723539758
 20
400.138226705246
 30
0.0
 11
145.7156091431938
 21
400.1370317387966
 31
0.0
  0
ARC
  5
42ED
330
A
100
AcDbEntity
  8
_0-0_
  6
Continuous
 62
     7
100
AcDbCircle
 10
145.4300877654113
 20
400.8689453112679
 30
0.0
 40
0.7856334608061941
100
AcDbArc
 50
289.1104864774832
 51
291.3108852362727
  0
LINE
  5
42EE
330
A
100
AcDbEntity
  8
_0-0_
  6
Continuous
 62
     7
100
AcDbLine
 10
145.6872969651849
 20
400.126608890034
 30
0.0
 11
145.6833783868451
 21
400.1252511573804
 31
0.0
  0
ARC
  5
42EF
330
A
100
AcDbEntity
  8
_0-0_
  6
Continuous
 62
     7
100
AcDbCircle
 10
145.3962882753005
 20
400.9538274531007
 30
0.0
 40
0.8769033070848368
100
AcDbArc
 50
287.6808782734622
 51
289.1104864776414
  0
LINE
  5
42F0
330
A
100
AcDbEntity
  8
_0-0_
  6
Continuous
 62
     7
100
AcDbLine
 10
145.6626170557535
 20
400.1183465193394
 30
0.0
 11
145.6617638900157
 21
400.1180745531205
 31
0.0
  0
ARC
  5
42F1
330
A
100
AcDbEntity
  8
_0-0_
  6
Continuous
 62
     7
100
AcDbCircle
 10
145.3567770504701
 20
401.0748269140819
 30
0.0
 40
1.0041872596787
100
AcDbArc
 50
286.5346357940669
 51
287.6808782733518
  0
ARC
  5
42F2
330
A
100
AcDbEntity
  8
_0-0_
  6
Continuous
 62
     7
100
AcDbCircle
 10
145.341663176894
 20
401.1257374620852
 30
0.0
 40
1.057293879534167
100
AcDbArc
 50
285.4459641619376
 51
286.5346357943878
  0
LINE
  5
42F3
330
A
100
AcDbEntity
  8
_0-0_
  6
Continuous
 62
     7
100
AcDbLine
 10
145.6232516788833
 20
400.1066308615531
 30
0.0
 11
145.6183496386249
 21
400.1052763828633
 31
0.0
  0
ARC
  5
42F4
330
A
100
AcDbEntity
  8
_0-0_
  6
Continuous
 62
     7
100
AcDbCircle
 10
145.3804720816731
 20
400.96618720379
 30
0.0
 40
0.8931702937792676
100
AcDbArc
 50
283.5049054852564
 51
285.4459641617524
  0
LINE
  5
42F5
330
A
100
AcDbEntity
  8
_0-0_
  6
Continuous
 62
     7
100
AcDbLine
 10
145.5890529026851
 20
400.0977131311801
 30
0.0
 11
145.5840631069957
 21
400.0965147353792
 31
0.0
  0
ARC
  5
42F6
330
A
100
AcDbEntity
  8
_0-0_
  6
Continuous
 62
     7
100
AcDbCircle
 10
145.2574315217323
 20
401.4565202321436
 30
0.0
 40
1.398679071024019
100
AcDbArc
 50
281.8449482764566
 51
283.5049054852899
  0
LINE
  5
42F7
330
A
100
AcDbEntity
  8
_0-0_
  6
Continuous
 62
     7
100
AcDbLine
 10
145.544529850835
 20
400.0876237082429
 30
0.0
 11
145.5444140873504
 21
400.0875994291959
 31
0.0
  0
ARC
  5
42F8
330
A
100
AcDbEntity
  8
_0-0_
  6
Continuous
 62
     7
100
AcDbCircle
 10
145.1994020786058
 20
401.732630735895
 30
0.0
 40
1.680821610462526
100
AcDbArc
 50
280.4555387838195
 51
281.8449482764514
  0
LINE
  5
42F9
330
A
100
AcDbEntity
  8
_0-0_
  6
Continuous
 62
     7
100
AcDbLine
 10
145.5044249282056
 20
400.0797174449387
 30
0.0
 11
145.5043133604356
 21
400.0796968566119
 31
0.0
  0
ARC
  5
42FA
330
A
100
AcDbEntity
  8
_0-0_
  6
Continuous
 62
     7
100
AcDbCircle
 10
145.1258821676564
 20
402.1304086281365
 30
0.0
 40
2.085336648490658
100
AcDbArc
 50
279.3293949867879
 51
280.4555387838001
  0
LINE
  5
42FB
330
A
100
AcDbEntity
  8
_0-0_
  6
Continuous
 62
     7
100
AcDbLine
 10
145.4639362910644
 20
400.0726554001753
 30
0.0
 11
145.4638357710744
 21
400.0726388864375
 31
0.0
  0
ARC
  5
42FC
330
A
100
AcDbEntity
  8
_0-0_
  6
Continuous
 62
     7
100
AcDbCircle
 10
145.0235673707409
 20
402.752575793627
 30
0.0
 40
2.715860469694483
100
AcDbArc
 50
278.4603914184671
 51
279.3293949868562
  0
LINE
  5
42FD
330
A
100
AcDbEntity
  8
_0-0_
  6
Continuous
 62
     7
100
AcDbLine
 10
145.4231401593665
 20
400.0662698398239
 30
0.0
 11
145.4230561958136
 21
400.0662573507211
 31
0.0
  0
ARC
  5
42FE
330
A
100
AcDbEntity
  8
_0-0_
  6
Continuous
 62
     7
100
AcDbCircle
 10
144.8610951405301
 20
403.8442907193086
 30
0.0
 40
3.819598979188196
100
AcDbArc
 50
277.839948825625
 51
278.4603914185051
  0
LINE
  5
42FF
330
A
100
AcDbEntity
  8
_0-0_
  6
Continuous
 62
     7
100
AcDbLine
 10
145.3821126077684
 20
400.0603936328845
 30
0.0
 11
145.382049440305
 21
400.0603849351448
 31
0.0
  0
ARC
  5
4300
330
A
100
AcDbEntity
  8
_0-0_
  6
Continuous
 62
     7
100
AcDbCircle
 10
144.5952579017367
 20
405.7744701581248
 30
0.0
 40
5.767998861012271
100
AcDbArc
 50
277.4278194865617
 51
277.8399488254963
  0
LINE
  5
4301
330
A
100
AcDbEntity
  8
_0-0_
  6
Continuous
 62
     7
100
AcDbLine
 10
145.3409279462564
 20
400.0548734026406
 30
0.0
 11
145.2996550329124
 21
400.0494926080764
 31
0.0
  0
LINE
  5
4302
330
A
100
AcDbEntity
  8
_0-0_
  6
Continuous
 62
     7
100
AcDbLine
 10
145.2996550329124
 20
400.0494926080764
 30
0.0
 11
145.298365416866
 21
400.0493260615373
 31
0.0
  0
ARC
  5
4303
330
A
100
AcDbEntity
  8
_0-0_
  6
Continuous
 62
     7
100
AcDbCircle
 10
342.0272727975163
 20
405.2939437296472
 30
0.0
 40
6.200000024740579
100
AcDbArc
 50
46.67438517552252
 51
229.822230652913
  0
ARC
  5
4304
330
A
100
AcDbEntity
  8
_0-0_
  6
Continuous
 62
     7
100
AcDbCircle
 10
342.0272727805408
 20
405.2939437116492
 30
0.0
 40
5.000000030423038
100
AcDbArc
 50
46.67438520867918
 51
216.8698984348849
  0
LINE
  5
4305
330
A
100
AcDbEntity
  8
_0-2_FRF74-1311
  6
Continuous
 62
     7
100
AcDbLine
 10
119.8058366495397
 20
195.148672187506
 30
0.0
 11
119.8058366495397
 21
195.148672187506
 31
0.0
  0
LINE
  5
4306
330
A
100
AcDbEntity
  8
_0-2_FRF74-1311
  6
Continuous
 62
     7
100
AcDbLine
 10
119.8058366495397
 20
195.148672187506
 30
0.0
 11
119.8664761572256
 21
194.870830576881
 31
0.0
  0
LINE
  5
4307
330
A
100
AcDbEntity
  8
_0-2_FRF74-1311
  6
Continuous
 62
     7
100
AcDbLine
 10
119.8664761572256
 20
194.870830576881
 30
0.0
 11
120.0468111379463
 21
194.6014219806298
 31
0.0
  0
LINE
  5
4308
330
A
100
AcDbEntity
  8
_0-2_FRF74-1311
  6
Continuous
 62
     7
100
AcDbLine
 10
120.0468111379463
 20
194.6014219806298
 30
0.0
 11
120.3413622045664
 21
194.3486322426221
 31
0.0
  0
LINE
  5
4309
330
A
100
AcDbEntity
  8
_0-2_FRF74-1311
  6
Continuous
 62
     7
100
AcDbLine
 10
120.3413622045664
 20
194.3486322426221
 30
0.0
 11
120.7411795719767
 21
194.1201422511297
 31
0.0
  0
LINE
  5
430A
330
A
100
AcDbEntity
  8
_0-2_FRF74-1311
  6
Continuous
 62
     7
100
AcDbLine
 10
120.7411795719767
 20
194.1201422511297
 30
0.0
 11
121.2341149917858
 21
193.9228945589223
 31
0.0
  0
LINE
  5
430B
330
A
100
AcDbEntity
  8
_0-2_FRF74-1311
  6
Continuous
 62
     7
100
AcDbLine
 10
121.2341149917858
 20
193.9228945589223
 30
0.0
 11
121.8051908707
 21
193.7628824373156
 31
0.0
  0
LINE
  5
430C
330
A
100
AcDbEntity
  8
_0-2_FRF74-1311
  6
Continuous
 62
     7
100
AcDbLine
 10
121.8051908707
 20
193.7628824373156
 30
0.0
 11
122.4370553571172
 21
193.6449677736548
 31
0.0
  0
LINE
  5
430D
330
A
100
AcDbEntity
  8
_0-2_FRF74-1311
  6
Continuous
 62
     7
100
AcDbLine
 10
122.4370553571172
 20
193.6449677736548
 30
0.0
 11
123.1105095683561
 21
193.5727333453272
 31
0.0
  0
LINE
  5
430E
330
A
100
AcDbEntity
  8
_0-2_FRF74-1311
  6
Continuous
 62
     7
100
AcDbLine
 10
123.1105095683561
 20
193.5727333453272
 30
0.0
 11
123.8050909389927
 21
193.5483739588852
 31
0.0
  0
LINE
  5
430F
330
A
100
AcDbEntity
  8
_0-2_FRF74-1311
  6
Continuous
 62
     7
100
AcDbLine
 10
123.8050909389927
 20
193.5483739588852
 30
0.0
 11
124.4996949655554
 21
193.5726297619597
 31
0.0
  0
LINE
  5
4310
330
A
100
AcDbEntity
  8
_0-2_FRF74-1311
  6
Continuous
 62
     7
100
AcDbLine
 10
124.4996949655554
 20
193.5726297619597
 30
0.0
 11
125.1732164561834
 21
193.6447637542478
 31
0.0
  0
LINE
  5
4311
330
A
100
AcDbEntity
  8
_0-2_FRF74-1311
  6
Continuous
 62
     7
100
AcDbLine
 10
125.1732164561834
 20
193.6447637542478
 30
0.0
 11
125.8051908012025
 21
193.7625841808958
 31
0.0
  0
LINE
  5
4312
330
A
100
AcDbEntity
  8
_0-2_FRF74-1311
  6
Continuous
 62
     7
100
AcDbLine
 10
125.8051908012025
 20
193.7625841808958
 30
0.0
 11
126.3764157799336
 21
193.92251112786
 31
0.0
  0
LINE
  5
4313
330
A
100
AcDbEntity
  8
_0-2_FRF74-1311
  6
Continuous
 62
     7
100
AcDbLine
 10
126.3764157799336
 20
193.92251112786
 30
0.0
 11
126.869535010452
 21
194.1196852957836
 31
0.0
  0
LINE
  5
4314
330
A
100
AcDbEntity
  8
_0-2_FRF74-1311
  6
Continuous
 62
     7
100
AcDbLine
 10
126.869535010452
 20
194.1196852957836
 30
0.0
 11
127.2695653144685
 21
194.3481156473493
 31
0.0
  0
LINE
  5
4315
330
A
100
AcDbEntity
  8
_0-2_FRF74-1311
  6
Continuous
 62
     7
100
AcDbLine
 10
127.2695653144685
 20
194.3481156473493
 30
0.0
 11
127.5643519736209
 21
194.6008614419162
 31
0.0
  0
LINE
  5
4316
330
A
100
AcDbEntity
  8
_0-2_FRF74-1311
  6
Continuous
 62
     7
100
AcDbLine
 10
127.5643519736209
 20
194.6008614419162
 30
0.0
 11
127.7449380444398
 21
194.8702431264118
 31
0.0
  0
LINE
  5
4317
330
A
100
AcDbEntity
  8
_0-2_FRF74-1311
  6
Continuous
 62
     7
100
AcDbLine
 10
127.7449380444398
 20
194.8702431264118
 30
0.0
 11
127.8058365105446
 21
195.1480756746664
 31
0.0
  0
LINE
  5
4318
330
A
100
AcDbEntity
  8
_0-2_FRF74-1311
  6
Continuous
 62
     7
100
AcDbLine
 10
127.8058365105446
 20
195.1480756746664
 30
0.0
 11
127.798365408529
 21
195.2461193585614
 31
0.0
  0
DIMENSION
  5
431C
102
{ACAD_XDICTIONARY
360
431D
102
}
330
A
100
AcDbEntity
  8
DIM
100
AcDbDimension
  2
*D14
 10
281.920337795122
 20
372.793943729647
 30
0.0
 11
276.4193999434276
 21
405.293943729647
 31
0.0
 70
    32
 71
     5
 42
65.0
 73
     0
 74
     0
 75
     0
  3
tfrom線あり
100
AcDbAlignedDimension
 13
299.527272797516
 23
437.793943729647
 33
0.0
 14
299.5272727975168
 24
372.793943729647
 34
0.0
 50
90.0
100
AcDbRotatedDimension
1001
ACAD
1000
DSTYLE
1002
{
1070
     3
1000
%%c<>
1002
}
  0
DIMENSION
  5
432E
102
{ACAD_XDICTIONARY
360
432F
102
}
330
A
100
AcDbEntity
  8
DIM
100
AcDbDimension
  2
*D15
 10
342.0272727975164
 20
291.2939437296473
 30
0.0
 11
324.5272727975162
 21
296.7948815813417
 31
0.0
 70
    32
 71
     5
 42
35.00000000000034
 73
     0
 74
     0
 75
     0
  3
tfrom線あり
100
AcDbAlignedDimension
 13
307.027272797516
 23
367.293943729647
 33
0.0
 14
342.0272727975164
 24
315.2939437296473
 34
0.0
100
AcDbRotatedDimension
  0
DIMENSION
  5
433D
102
{ACAD_XDICTIONARY
360
433E
102
}
330
A
100
AcDbEntity
  8
DIM
100
AcDbDimension
  2
*D16
 10
346.0272764695613
 20
309.0735053538864
 30
0.0
 11
328.0057527731752
 21
309.0735053538864
 31
0.0
 70
   160
 71
     5
 42
8.0
 73
     0
 74
     1
 75
     1
  3
tfrom線あり
100
AcDbAlignedDimension
 13
338.0272764695613
 23
319.2939437296473
 33
0.0
 14
346.0272764695613
 24
319.2939437296473
 34
0.0
100
AcDbRotatedDimension
1001
ACAD
1000
DSTYLE
1002
{
1070
   172
1070
     1
1070
     3
1000
%%C<>
1002
}
  0
DIMENSION
  5
4355
102
{ACAD_XDICTIONARY
360
4356
102
}
330
A
100
AcDbEntity
  8
DIM
100
AcDbDimension
  2
*D17
 10
191.798365416866
 20
278.2909364282244
 30
0.0
 11
123.798365416866
 21
283.7918742799188
 31
0.0
 70
    32
 71
     5
 42
136.0
 73
     0
 74
     0
 75
     0
  3
tfrom線あり
100
AcDbAlignedDimension
 13
55.79836541686598
 23
329.2939437296471
 33
0.0
 14
191.798365416866
 24
329.2939437296473
 34
0.0
100
AcDbRotatedDimension
  0
DIMENSION
  5
4364
102
{ACAD_XDICTIONARY
360
4365
102
}
330
A
100
AcDbEntity
  8
DIM
100
AcDbDimension
  2
*D18
 10
233.8036018670518
 20
302.7979286768051
 30
0.0
 11
228.3026640153574
 21
370.2959362032261
 31
0.0
 70
    32
 71
     5
 42
134.9960150528421
 73
     0
 74
     0
 75
     0
  3
tfrom線あり
100
AcDbAlignedDimension
 13
136.2452736719299
 23
437.7939437296472
 33
0.0
 14
187.298365416866
 24
302.7979286768051
 34
0.0
 50
90.0
100
AcDbRotatedDimension
  0
LINE
  5
4373
330
A
100
AcDbEntity
  8
MODEL
100
AcDbLine
 10
318.0272727975164
 20
415.2939437296472
 30
0.0
 11
316.5239451079047
 21
433.6754563403562
 31
0.0
  0
LINE
  5
4374
330
A
100
AcDbEntity
  8
MODEL
100
AcDbLine
 10
318.0272727975164
 20
395.2939437296472
 30
0.0
 11
316.5239451079047
 21
376.9124311189382
 31
0.0
  0
LINE
  5
4378
330
A
100
AcDbEntity
  8
MODEL
100
AcDbLine
 10
113.7983654168659
 20
212.1709663203287
 30
0.0
 11
95.49836541686591
 21
213.6709663203286
 31
0.0
  0
LINE
  5
4379
330
A
100
AcDbEntity
  8
MODEL
100
AcDbLine
 10
133.798363565021
 20
212.1709663203287
 30
0.0
 11
152.0983635650209
 21
213.6709663203286
 31
0.0
  0
ARC
  5
438F
330
A
100
AcDbEntity
  8
MODEL
100
AcDbCircle
 10
123.798365416866
 20
405.293943729647
 30
0.0
 40
28.30000000000047
100
AcDbArc
 50
12.65507747664393
 51
167.3449225233561
  0
VIEWPORT
  5
349
330
B
100
AcDbEntity
 67
     1
  8
0
100
AcDbViewport
 10
202.5
 20
128.5
 30
0.0
 40
486.0
 41
308.4
 68
     1
 69
     1
 12
202.5
 22
128.5
 13
0.0
 23
0.0
 14
0.5
 24
0.5
 15
0.0
 25
0.0
 16
0.0
 26
0.0
 36
1.0
 17
0.0
 27
0.0
 37
0.0
 42
50.0
 43
0.0
 44
0.0
 45
308.4
 50
0.0
 51
0.0
 72
   100
 90
   557152
  1

281
     0
 71
     1
 74
     0
110
0.0
120
0.0
130
0.0
111
1.0
121
0.0
131
0.0
112
0.0
122
1.0
132
0.0
 79
     0
146
0.0
170
     0
 61
     5
348
26C
292
     1
282
     1
141
0.0
142
0.0
 63
   256
  0
VIEWPORT
  5
34A
330
B
100
AcDbEntity
 67
     1
  8
0
100
AcDbViewport
 10
202.5
 20
128.5
 30
0.0
 40
324.0
 41
205.6
 68
     2
 69
     2
 12
986.6781359294573
 22
1427.077061889956
 13
0.0
 23
0.0
 14
0.5
 24
0.5
 15
0.0
 25
0.0
 16
0.0
 26
0.0
 36
1.0
 17
0.0
 27
0.0
 37
0.0
 42
50.0
 43
0.0
 44
0.0
 45
2890.021615685494
 50
0.0
 51
0.0
 72
   100
 90
   557152
  1

281
     0
 71
     1
 74
     0
110
0.0
120
0.0
130
0.0
111
1.0
121
0.0
131
0.0
112
0.0
122
1.0
132
0.0
 79
     0
146
0.0
170
     0
 61
     5
348
26C
292
     1
282
     1
141
0.0
142
0.0
 63
   256
  0
ENDSEC
  0
SECTION
  2
OBJECTS
  0
DICTIONARY
  5
19
330
0
100
AcDbDictionary
281
     1
  3
ACAD_COLOR
350
674
  3
ACAD_DETAILVIEWSTYLE
350
BBF
  3
ACAD_FIELDLIST
350
3BE4
  3
ACAD_GROUP
350
1A
  3
ACAD_IMAGE_VARS
350
27B
  3
ACAD_LAYOUT
350
1E
  3
ACAD_MATERIAL
350
263
  3
ACAD_MLEADERSTYLE
350
336
  3
ACAD_MLINESTYLE
350
1B
  3
ACAD_PLOTSETTINGS
350
22
  3
ACAD_PLOTSTYLENAME
350
1F
  3
ACAD_SCALELIST
350
241
  3
ACAD_SECTIONVIEWSTYLE
350
BC0
  3
ACAD_TABLESTYLE
350
278
  3
ACAD_VISUALSTYLE
350
267
  3
ACDB_RECOMPOSE_DATA
350
4398
  3
AcDbVariableDictionary
350
330
  3
APPDATA
350
27A
  3
DimOffsetDictionary
350
E38
  0
SUN
  5
904
330
15
100
AcDbSun
 90
        1
290
     0
 63
     7
421
 16777215
 40
1.0
291
     1
 91
  2455826
 92
 54000000
292
     0
 70
     2
 71
   256
280
     1
  0
DICTIONARY
  5
2E1
330
2
100
AcDbDictionary
280
     1
281
     1
  3
ACAD_LAYERSTATES
360
2E2
  3
ACLYDICTIONARY
360
DDE
  0
DICTIONARY
  5
3D3D
330
A
100
AcDbDictionary
280
     1
281
     1
  3
ACAD_SORTENTS
360
3D3E
  0
DICTIONARY
  5
3CB7
330
3CB5
100
AcDbDictionary
280
     1
281
     1
  3
ACAD_FIELD
360
4383
  0
DICTIONARY
  5
431D
330
431C
100
AcDbDictionary
280
     1
281
     1
  0
DICTIONARY
  5
432F
330
432E
100
AcDbDictionary
280
     1
281
     1
  0
DICTIONARY
  5
433E
330
433D
100
AcDbDictionary
280
     1
281
     1
  0
DICTIONARY
  5
4356
330
4355
100
AcDbDictionary
280
     1
281
     1
  0
DICTIONARY
  5
4365
330
4364
100
AcDbDictionary
280
     1
281
     1
  0
DICTIONARY
  5
674
102
{ACAD_REACTORS
330
19
102
}
330
19
100
AcDbDictionary
281
     1
  0
DICTIONARY
  5
BBF
102
{ACAD_REACTORS
330
19
102
}
330
19
100
AcDbDictionary
281
     1
  0
FIELDLIST
  5
3BE4
102
{ACAD_REACTORS
330
19
102
}
330
19
100
AcDbIdSet
 90
        2
330
3CB9
330
3CB6
100
AcDbFieldList
  0
DICTIONARY
  5
1A
102
{ACAD_REACTORS
330
19
102
}
330
19
100
AcDbDictionary
281
     1
  3
*A1
350
3C75
  3
*A2
350
3D3C
  0
RASTERVARIABLES
  5
27B
102
{ACAD_REACTORS
330
19
102
}
330
19
100
AcDbRasterVariables
 90
        0
 70
     1
 71
     1
 72
     1
  0
DICTIONARY
  5
1E
102
{ACAD_REACTORS
330
19
102
}
330
19
100
AcDbDictionary
281
     1
  3
Layout1
350
21
  3
Model
350
20
  0
DICTIONARY
  5
263
102
{ACAD_REACTORS
330
19
102
}
330
19
100
AcDbDictionary
281
     1
  3
ByBlock
350
265
  3
ByLayer
350
264
  3
Global
350
266
  0
DICTIONARY
  5
336
102
{ACAD_REACTORS
330
19
102
}
330
19
100
AcDbDictionary
281
     1
  3
Standard
350
D59
  0
DICTIONARY
  5
1B
102
{ACAD_REACTORS
330
19
102
}
330
19
100
AcDbDictionary
281
     1
  3
Standard
350
1C
  0
DICTIONARY
  5
22
102
{ACAD_REACTORS
330
19
102
}
330
19
100
AcDbDictionary
281
     1
  0
ACDBDICTIONARYWDFLT
  5
1F
102
{ACAD_REACTORS
330
19
102
}
330
19
100
AcDbDictionary
281
     1
  3
Normal
350
1D
100
AcDbDictionaryWithDefault
340
1D
  0
DICTIONARY
  5
241
102
{ACAD_REACTORS
330
19
102
}
330
19
100
AcDbDictionary
281
     1
  3
A0
350
242
  3
A1
350
243
  3
A2
350
244
  3
A3
350
245
  3
A4
350
246
  3
A5
350
247
  3
A6
350
248
  3
A7
350
249
  3
A8
350
24A
  3
A9
350
24B
  3
B0
350
24C
  3
B1
350
24D
  3
B2
350
24E
  3
B3
350
24F
  3
B4
350
250
  3
B5
350
251
  3
B6
350
252
  3
B7
350
253
  3
B8
350
254
  3
B9
350
255
  3
C0
350
256
  3
C1
350
257
  3
C2
350
258
  3
C3
350
259
  3
C4
350
25A
  3
C5
350
25B
  3
C6
350
25C
  3
C7
350
25D
  3
C8
350
25E
  3
C9
350
25F
  3
D0
350
260
  3
D1
350
261
  3
D2
350
262
  0
DICTIONARY
  5
BC0
102
{ACAD_REACTORS
330
19
102
}
330
19
100
AcDbDictionary
281
     1
  0
DICTIONARY
  5
278
102
{ACAD_REACTORS
330
19
102
}
330
19
100
AcDbDictionary
281
     1
  3
Standard
350
279
  0
DICTIONARY
  5
267
102
{ACAD_REACTORS
330
19
102
}
330
19
100
AcDbDictionary
281
     1
  3
2dWireframe
350
26C
  3
3D Hidden
350
26E
  3
3dWireframe
350
26D
  3
Basic
350
26F
  3
Brighten
350
273
  3
ColorChange
350
277
  3
Conceptual
350
271
  3
Dim
350
272
  3
EdgeColorOff
350
8FE
  3
Facepattern
350
276
  3
Flat
350
268
  3
FlatWithEdges
350
269
  3
Gouraud
350
26A
  3
GouraudWithEdges
350
26B
  3
Hidden
350
8FB
  3
JitterOff
350
8FC
  3
Linepattern
350
275
  3
OverhangOff
350
8FD
  3
Realistic
350
270
  3
Shaded
350
903
  3
Shaded with edges
350
902
  3
Shades of Gray
350
8FF
  3
Sketchy
350
900
  3
Thicken
350
274
  3
Wireframe
350
8FA
  3
X-Ray
350
901
  0
XRECORD
  5
4398
102
{ACAD_REACTORS
330
19
102
}
330
19
100
AcDbXrecord
280
     1
 90
        1
330
279
  0
DICTIONARY
  5
330
102
{ACAD_REACTORS
330
19
102
}
330
19
100
AcDbDictionary
281
     1
  3
CANNOSCALE
350
331
  3
CMLEADERSTYLE
350
D5E
  3
CTABLESTYLE
350
335
  3
HPTRANSPARENCY
350
D52
  3
XCLIPFRAME
350
896
  0
DICTIONARY
  5
27A
102
{ACAD_REACTORS
330
19
102
}
330
19
100
AcDbDictionary
281
     1
  0
DICTIONARY
  5
E38
102
{ACAD_REACTORS
330
19
102
}
330
19
100
AcDbDictionary
281
     1
  3
DIMRAILANGLE
350
246C
  3
DIMRAILFIRSTOFFSET
350
246A
  3
DIMRAILOFFSET
350
246B
  3
DIMRAILSENABLED
350
246D
  0
DICTIONARY
  5
2E2
102
{ACAD_REACTORS
330
2E1
102
}
330
2E1
100
AcDbDictionary
281
     1
  0
DICTIONARY
  5
DDE
102
{ACAD_REACTORS
330
2E1
102
}
330
2E1
100
AcDbDictionary
281
     1
1001
ACAD
1000
<All
  0
SORTENTSTABLE
  5
3D3E
102
{ACAD_REACTORS
330
3D3D
102
}
330
3D3D
100
AcDbSortentsTable
330
A
331
0
  5
3C1E
331
0
  5
3D23
331
0
  5
3D22
331
3C64
  5
3C1F
331
3C65
  5
3C63
331
3C70
  5
3C64
331
3C71
  5
3C65
331
3C72
  5
3C70
331
3C73
  5
3C71
331
3C74
  5
3C72
331
0
  5
3C73
331
3C9A
  5
3C74
331
3CB5
  5
3C92
331
0
  5
3CB5
331
0
  5
3D18
331
0
  5
3D19
331
0
  5
3D1A
331
0
  5
3D1B
331
0
  5
3D1E
331
0
  5
3D21
  0
DICTIONARY
  5
4383
102
{ACAD_REACTORS
330
3CB7
102
}
330
3CB7
100
AcDbDictionary
280
     1
281
     1
  3
TEXT
360
3CB6
  0
GROUP
  5
3C75
102
{ACAD_REACTORS
330
1A
102
}
330
1A
100
AcDbGroup
300

 70
     1
 71
     1
340
3C64
340
3C65
340
3C70
340
3C71
340
3C72
340
3C73
340
3C74
  0
GROUP
  5
3D3C
102
{ACAD_REACTORS
330
1A
102
}
330
1A
100
AcDbGroup
300

 70
     1
 71
     1
  0
LAYOUT
  5
21
102
{ACAD_REACTORS
330
1E
102
}
330
1E
100
AcDbPlotSettings
  1

  2
none_device
  4
ISO_A3_(420.00_x_297.00_MM)
  6

 40
7.5
 41
20.0
 42
7.5
 43
20.0
 44
420.0
 45
297.0
 46
0.0
 47
0.0
 48
0.0
 49
0.0
140
0.0
141
0.0
142
1.0
143
1.0
 70
     0
 72
     1
 73
     0
 74
     0
  7

 75
     0
 76
     0
 77
     2
 78
   300
147
1.0
148
0.0
149
0.0
100
AcDbLayout
  1
Layout1
 70
     0
 71
     0
 10
-7.5
 20
-20.0
 11
412.5
 21
277.0
 12
0.0
 22
0.0
 32
0.0
 14
0.0
 24
0.0
 34
0.0
 15
0.0
 25
0.0
 35
0.0
146
0.0
 13
0.0
 23
0.0
 33
0.0
 16
0.0
 26
0.0
 36
0.0
 17
0.0
 27
0.0
 37
0.0
 76
     0
330
B
331
349
  0
LAYOUT
  5
20
102
{ACAD_REACTORS
330
1E
102
}
330
1E
100
AcDbPlotSettings
  1

  2
none_device
  4
ISO_A3_(420.00_x_297.00_MM)
  6

 40
7.5
 41
20.0
 42
7.5
 43
20.0
 44
420.0
 45
297.0
 46
0.0
 47
0.0
 48
0.0
 49
0.0
140
0.0
141
0.0
142
1.0
143
1.0
 70
  1024
 72
     1
 73
     0
 74
     0
  7

 75
     0
 76
     0
 77
     2
 78
   300
147
1.0
148
0.0
149
0.0
100
AcDbLayout
  1
Model
 70
     0
 71
     1
 10
0.0
 20
0.0
 11
420.0
 21
594.0
 12
0.0
 22
0.0
 32
0.0
 14
0.0
 24
0.0
 34
-0.0000000000000071
 15
420.0
 25
594.0
 35
0.0000000000000071
146
0.0
 13
0.0
 23
0.0
 33
0.0
 16
0.0
 26
0.0
 36
0.0
 17
0.0
 27
0.0
 37
0.0
 76
     0
330
A
331
15
  0
MATERIAL
  5
265
102
{ACAD_REACTORS
330
263
102
}
330
263
100
AcDbMaterial
  1
ByBlock
 72
     1
 94
      127
  0
MATERIAL
  5
264
102
{ACAD_REACTORS
330
263
102
}
330
263
100
AcDbMaterial
  1
ByLayer
 72
     1
 94
      127
  0
MATERIAL
  5
266
102
{ACAD_REACTORS
330
263
102
}
330
263
100
AcDbMaterial
  1
Global
 72
     1
 94
      127
  0
MLEADERSTYLE
  5
D59
102
{ACAD_REACTORS
330
336
102
}
330
336
100
AcDbMLeaderStyle
170
     2
171
     1
172
     0
 90
        2
 40
0.0
 41
0.0
173
     1
 91
-1056964608
340
11
 92
       -2
290
     1
 42
2.0
291
     1
 43
8.0
  3
Standard
341
0
 44
4.0
300

342
17
174
     1
178
     6
175
     1
176
     0
 93
-1056964608
 45
4.0
292
     0
297
     0
 46
4.0
343
0
 94
-1056964608
 47
1.0
 49
1.0
140
1.0
293
     1
141
0.0
294
     1
177
     0
142
1.0
295
     0
296
     0
143
3.75
1001
ACAD_MLEADERVER
1070
     2
  0
MLINESTYLE
  5
1C
102
{ACAD_REACTORS
330
1B
102
}
330
1B
100
AcDbMlineStyle
  2
Standard
 70
     0
  3

 62
     0
 51
90.0
 52
90.0
 71
     2
 49
0.5
 62
   256
  6
BYLAYER
 49
-0.5
 62
   256
  6
BYLAYER
  0
ACDBPLACEHOLDER
  5
1D
102
{ACAD_REACTORS
330
1F
102
}
330
1F
  0
SCALE
  5
242
102
{ACAD_REACTORS
330
241
102
}
330
241
100
AcDbScale
 70
     0
300
1:1
140
1.0
141
1.0
290
     1
  0
SCALE
  5
243
102
{ACAD_REACTORS
330
241
102
}
330
241
100
AcDbScale
 70
     0
300
1:2
140
1.0
141
2.0
290
     0
  0
SCALE
  5
244
102
{ACAD_REACTORS
330
241
102
}
330
241
100
AcDbScale
 70
     0
300
1:4
140
1.0
141
4.0
290
     0
  0
SCALE
  5
245
102
{ACAD_REACTORS
330
241
102
}
330
241
100
AcDbScale
 70
     0
300
1:5
140
1.0
141
5.0
290
     0
  0
SCALE
  5
246
102
{ACAD_REACTORS
330
241
102
}
330
241
100
AcDbScale
 70
     0
300
1:8
140
1.0
141
8.0
290
     0
  0
SCALE
  5
247
102
{ACAD_REACTORS
330
241
102
}
330
241
100
AcDbScale
 70
     0
300
1:10
140
1.0
141
10.0
290
     0
  0
SCALE
  5
248
102
{ACAD_REACTORS
330
241
102
}
330
241
100
AcDbScale
 70
     0
300
1:16
140
1.0
141
16.0
290
     0
  0
SCALE
  5
249
102
{ACAD_REACTORS
330
241
102
}
330
241
100
AcDbScale
 70
     0
300
1:20
140
1.0
141
20.0
290
     0
  0
SCALE
  5
24A
102
{ACAD_REACTORS
330
241
102
}
330
241
100
AcDbScale
 70
     0
300
1:30
140
1.0
141
30.0
290
     0
  0
SCALE
  5
24B
102
{ACAD_REACTORS
330
241
102
}
330
241
100
AcDbScale
 70
     0
300
1:40
140
1.0
141
40.0
290
     0
  0
SCALE
  5
24C
102
{ACAD_REACTORS
330
241
102
}
330
241
100
AcDbScale
 70
     0
300
1:50
140
1.0
141
50.0
290
     0
  0
SCALE
  5
24D
102
{ACAD_REACTORS
330
241
102
}
330
241
100
AcDbScale
 70
     0
300
1:100
140
1.0
141
100.0
290
     0
  0
SCALE
  5
24E
102
{ACAD_REACTORS
330
241
102
}
330
241
100
AcDbScale
 70
     0
300
2:1
140
2.0
141
1.0
290
     0
  0
SCALE
  5
24F
102
{ACAD_REACTORS
330
241
102
}
330
241
100
AcDbScale
 70
     0
300
4:1
140
4.0
141
1.0
290
     0
  0
SCALE
  5
250
102
{ACAD_REACTORS
330
241
102
}
330
241
100
AcDbScale
 70
     0
300
8:1
140
8.0
141
1.0
290
     0
  0
SCALE
  5
251
102
{ACAD_REACTORS
330
241
102
}
330
241
100
AcDbScale
 70
     0
300
10:1
140
10.0
141
1.0
290
     0
  0
SCALE
  5
252
102
{ACAD_REACTORS
330
241
102
}
330
241
100
AcDbScale
 70
     0
300
100:1
140
100.0
141
1.0
290
     0
  0
SCALE
  5
253
102
{ACAD_REACTORS
330
241
102
}
330
241
100
AcDbScale
 70
     0
300
1/128" = 1'-0"
140
0.0078125
141
12.0
290
     0
  0
SCALE
  5
254
102
{ACAD_REACTORS
330
241
102
}
330
241
100
AcDbScale
 70
     0
300
1/64" = 1'-0"
140
0.015625
141
12.0
290
     0
  0
SCALE
  5
255
102
{ACAD_REACTORS
330
241
102
}
330
241
100
AcDbScale
 70
     0
300
1/32" = 1'-0"
140
0.03125
141
12.0
290
     0
  0
SCALE
  5
256
102
{ACAD_REACTORS
330
241
102
}
330
241
100
AcDbScale
 70
     0
300
1/16" = 1'-0"
140
0.0625
141
12.0
290
     0
  0
SCALE
  5
257
102
{ACAD_REACTORS
330
241
102
}
330
241
100
AcDbScale
 70
     0
300
3/32" = 1'-0"
140
0.09375
141
12.0
290
     0
  0
SCALE
  5
258
102
{ACAD_REACTORS
330
241
102
}
330
241
100
AcDbScale
 70
     0
300
1/8" = 1'-0"
140
0.125
141
12.0
290
     0
  0
SCALE
  5
259
102
{ACAD_REACTORS
330
241
102
}
330
241
100
AcDbScale
 70
     0
300
3/16" = 1'-0"
140
0.1875
141
12.0
290
     0
  0
SCALE
  5
25A
102
{ACAD_REACTORS
330
241
102
}
330
241
100
AcDbScale
 70
     0
300
1/4" = 1'-0"
140
0.25
141
12.0
290
     0
  0
SCALE
  5
25B
102
{ACAD_REACTORS
330
241
102
}
330
241
100
AcDbScale
 70
     0
300
3/8" = 1'-0"
140
0.375
141
12.0
290
     0
  0
SCALE
  5
25C
102
{ACAD_REACTORS
330
241
102
}
330
241
100
AcDbScale
 70
     0
300
1/2" = 1'-0"
140
0.5
141
12.0
290
     0
  0
SCALE
  5
25D
102
{ACAD_REACTORS
330
241
102
}
330
241
100
AcDbScale
 70
     0
300
3/4" = 1'-0"
140
0.75
141
12.0
290
     0
  0
SCALE
  5
25E
102
{ACAD_REACTORS
330
241
102
}
330
241
100
AcDbScale
 70
     0
300
1" = 1'-0"
140
1.0
141
12.0
290
     0
  0
SCALE
  5
25F
102
{ACAD_REACTORS
330
241
102
}
330
241
100
AcDbScale
 70
     0
300
1-1/2" = 1'-0"
140
1.5
141
12.0
290
     0
  0
SCALE
  5
260
102
{ACAD_REACTORS
330
241
102
}
330
241
100
AcDbScale
 70
     0
300
3" = 1'-0"
140
3.0
141
12.0
290
     0
  0
SCALE
  5
261
102
{ACAD_REACTORS
330
241
102
}
330
241
100
AcDbScale
 70
     0
300
6" = 1'-0"
140
6.0
141
12.0
290
     0
  0
SCALE
  5
262
102
{ACAD_REACTORS
330
241
102
}
330
241
100
AcDbScale
 70
     0
300
1'-0" = 1'-0"
140
12.0
141
12.0
290
     0
  0
TABLESTYLE
  5
279
102
{ACAD_REACTORS
330
278
102
}
102
{ACAD_XDICTIONARY
360
4396
102
}
330
278
100
AcDbTableStyle
  3
Standard
 70
     0
 71
     0
 40
0.06
 41
0.06
280
     0
281
     0
  7
Standard
140
4.5
170
     2
 62
     0
 63
   257
283
     0
 90
        4
 91
        0
  1

274
    -2
284
     1
 64
     0
275
    -2
285
     1
 65
     0
276
    -2
286
     1
 66
     0
277
    -2
287
     1
 67
     0
278
    -2
288
     1
 68
     0
279
    -2
289
     1
 69
     0
  7
Standard
140
6.0
170
     5
 62
     0
 63
   257
283
     0
 90
        4
 91
        0
  1

274
    -2
284
     1
 64
     0
275
    -2
285
     1
 65
     0
276
    -2
286
     1
 66
     0
277
    -2
287
     1
 67
     0
278
    -2
288
     1
 68
     0
279
    -2
289
     1
 69
     0
  7
Standard
140
4.5
170
     5
 62
     0
 63
   257
283
     0
 90
        4
 91
        0
  1

274
    -2
284
     1
 64
     0
275
    -2
285
     1
 65
     0
276
    -2
286
     1
 66
     0
277
    -2
287
     1
 67
     0
278
    -2
288
     1
 68
     0
279
    -2
289
     1
 69
     0
  0
VISUALSTYLE
  5
26C
102
{ACAD_REACTORS
330
267
102
}
330
267
100
AcDbVisualStyle
  2
2dWireframe
 70
     4
 71
     0
 72
     2
 73
     0
 90
        0
 40
-0.6
 41
-30.0
 62
     5
 63
     7
421
 16777215
 74
     1
 91
        4
 64
     7
 65
   257
 75
     1
175
     1
 42
1.0
 92
        0
 66
   257
 43
1.0
 76
     1
 77
     6
 78
     2
 67
     7
 79
     5
170
     0
171
     0
290
     0
174
     0
 93
        1
 44
0.0
173
     0
291
     0
 45
0.0
  0
VISUALSTYLE
  5
26E
102
{ACAD_REACTORS
330
267
102
}
330
267
100
AcDbVisualStyle
  2
3D Hidden
 70
     6
 71
     1
 72
     2
 73
     2
 90
        0
 40
-0.6
 41
-30.0
 62
     5
 63
     7
421
 16777215
 74
     2
 91
        2
 64
     7
 65
   257
 75
     2
175
     1
 42
40.0
 92
        0
 66
   257
 43
1.0
 76
     1
 77
     6
 78
     2
 67
     7
 79
     3
170
     0
171
     0
290
     0
174
     0
 93
        1
 44
0.0
173
     0
291
     0
 45
0.0
  0
VISUALSTYLE
  5
26D
102
{ACAD_REACTORS
330
267
102
}
330
267
100
AcDbVisualStyle
  2
3dWireframe
 70
     5
 71
     0
 72
     2
 73
     0
 90
        0
 40
-0.6
 41
-30.0
 62
     5
 63
     7
421
 16777215
 74
     1
 91
        4
 64
     7
 65
   257
 75
     1
175
     1
 42
1.0
 92
        0
 66
   257
 43
1.0
 76
     1
 77
     6
 78
     2
 67
     7
 79
     5
170
     0
171
     0
290
     0
174
     0
 93
        1
 44
0.0
173
     0
291
     0
 45
0.0
  0
VISUALSTYLE
  5
26F
102
{ACAD_REACTORS
330
267
102
}
330
267
100
AcDbVisualStyle
  2
Basic
 70
     7
 71
     1
 72
     0
 73
     1
 90
        0
 40
-0.6
 41
-30.0
 62
     5
 63
     7
421
 16777215
 74
     0
 91
        4
 64
     7
 65
   257
 75
     1
175
     1
 42
1.0
 92
        8
 66
     7
 43
1.0
 76
     1
 77
     6
 78
     2
 67
     7
 79
     5
170
     0
171
     0
290
     0
174
     0
 93
        1
 44
0.0
173
     0
291
     1
 45
0.0
  0
VISUALSTYLE
  5
273
102
{ACAD_REACTORS
330
267
102
}
330
267
100
AcDbVisualStyle
  2
Brighten
 70
    12
 71
     2
 72
     2
 73
     0
 90
        0
 40
-0.6
 41
-30.0
 62
     5
 63
     7
421
 16777215
 74
     1
 91
        4
 64
     7
 65
   257
 75
     1
175
     1
 42
1.0
 92
        8
 66
     7
 43
1.0
 76
     1
 77
     6
 78
     2
 67
     7
 79
     5
170
     0
171
     0
290
     0
174
     0
 93
        1
 44
50.0
173
     0
291
     1
 45
0.0
  0
VISUALSTYLE
  5
277
102
{ACAD_REACTORS
330
267
102
}
330
267
100
AcDbVisualStyle
  2
ColorChange
 70
    16
 71
     2
 72
     2
 73
     3
 90
        0
 40
-0.6
 41
-30.0
 62
     5
 63
     8
421
  8421504
 74
     1
 91
        4
 64
     7
 65
   257
 75
     1
175
     1
 42
1.0
 92
        8
 66
     8
424
  8421504
 43
1.0
 76
     1
 77
     6
 78
     2
 67
     7
 79
     5
170
     0
171
     0
290
     0
174
     0
 93
        1
 44
0.0
173
     0
291
     1
 45
0.0
  0
VISUALSTYLE
  5
271
102
{ACAD_REACTORS
330
267
102
}
330
267
100
AcDbVisualStyle
  2
Conceptual
 70
     9
 71
     3
 72
     2
 73
     0
 90
        0
 40
-0.6
 41
-30.0
 62
     5
 63
     7
421
 16777215
 74
     2
 91
        2
 64
     7
 65
   257
 75
     1
175
     1
 42
40.0
 92
        8
 66
     7
 43
1.0
 76
     1
 77
     6
 78
     2
 67
     7
 79
     3
170
     0
171
     0
290
     0
174
     0
 93
        1
 44
0.0
173
     0
291
     0
 45
0.0
  0
VISUALSTYLE
  5
272
102
{ACAD_REACTORS
330
267
102
}
330
267
100
AcDbVisualStyle
  2
Dim
 70
    11
 71
     2
 72
     2
 73
     0
 90
        0
 40
-0.6
 41
-30.0
 62
     5
 63
     7
421
 16777215
 74
     1
 91
        4
 64
     7
 65
   257
 75
     1
175
     1
 42
1.0
 92
        8
 66
     7
 43
1.0
 76
     1
 77
     6
 78
     2
 67
     7
 79
     5
170
     0
171
     0
290
     0
174
     0
 93
        1
 44
-50.0
173
     0
291
     1
 45
0.0
  0
VISUALSTYLE
  5
8FE
102
{ACAD_REACTORS
330
267
102
}
330
267
100
AcDbVisualStyle
  2
EdgeColorOff
 70
    22
 71
     2
 72
     2
 73
     0
 90
        0
 40
0.6
 41
30.0
 62
     5
 63
     7
421
 16777215
 74
     1
 91
        4
 64
     7
 65
   257
 75
     1
175
     1
 42
1.0
 92
        8
 66
     7
 43
1.0
 76
     1
 77
     6
 78
     2
 67
     7
 79
     5
170
     0
171
     0
290
     0
174
     0
 93
        1
 44
0.0
173
     0
291
     1
 45
0.0
  0
VISUALSTYLE
  5
276
102
{ACAD_REACTORS
330
267
102
}
330
267
100
AcDbVisualStyle
  2
Facepattern
 70
    15
 71
     2
 72
     2
 73
     0
 90
        0
 40
-0.6
 41
-30.0
 62
     5
 63
     7
421
 16777215
 74
     1
 91
        4
 64
     7
 65
   257
 75
     1
175
     1
 42
1.0
 92
        8
 66
     7
 43
1.0
 76
     1
 77
     6
 78
     2
 67
     7
 79
     5
170
     0
171
     0
290
     0
174
     0
 93
        1
 44
0.0
173
     0
291
     1
 45
0.0
  0
VISUALSTYLE
  5
268
102
{ACAD_REACTORS
330
267
102
}
330
267
100
AcDbVisualStyle
  2
Flat
 70
     0
 71
     2
 72
     1
 73
     1
 90
        2
 40
-0.6
 41
30.0
 62
     5
 63
     7
421
 16777215
 74
     0
 91
        4
 64
     7
 65
   257
 75
     1
175
     1
 42
1.0
 92
        8
 66
     7
 43
1.0
 76
     1
 77
     6
 78
     2
 67
     7
 79
     5
170
     0
171
     0
290
     0
174
     0
 93
       13
 44
0.0
173
     0
291
     1
 45
0.0
  0
VISUALSTYLE
  5
269
102
{ACAD_REACTORS
330
267
102
}
330
267
100
AcDbVisualStyle
  2
FlatWithEdges
 70
     1
 71
     2
 72
     1
 73
     1
 90
        2
 40
-0.6
 41
30.0
 62
     5
 63
     7
421
 16777215
 74
     1
 91
        4
 64
     7
 65
   257
 75
     1
175
     1
 42
1.0
 92
        0
 66
   257
 43
1.0
 76
     1
 77
     6
 78
     2
 67
     7
 79
     5
170
     0
171
     0
290
     0
174
     0
 93
       13
 44
0.0
173
     0
291
     1
 45
0.0
  0
VISUALSTYLE
  5
26A
102
{ACAD_REACTORS
330
267
102
}
330
267
100
AcDbVisualStyle
  2
Gouraud
 70
     2
 71
     2
 72
     2
 73
     1
 90
        2
 40
-0.6
 41
30.0
 62
     5
 63
     7
421
 16777215
 74
     0
 91
        4
 64
     7
 65
   257
 75
     1
175
     1
 42
1.0
 92
        0
 66
     7
 43
1.0
 76
     1
 77
     6
 78
     2
 67
     7
 79
     5
170
     0
171
     0
290
     0
174
     0
 93
       13
 44
0.0
173
     0
291
     1
 45
0.0
  0
VISUALSTYLE
  5
26B
102
{ACAD_REACTORS
330
267
102
}
330
267
100
AcDbVisualStyle
  2
GouraudWithEdges
 70
     3
 71
     2
 72
     2
 73
     1
 90
        2
 40
-0.6
 41
30.0
 62
     5
 63
     7
421
 16777215
 74
     1
 91
        4
 64
     7
 65
   257
 75
     1
175
     1
 42
1.0
 92
        0
 66
   257
 43
1.0
 76
     1
 77
     6
 78
     2
 67
     7
 79
     5
170
     0
171
     0
290
     0
174
     0
 93
       13
 44
0.0
173
     0
291
     1
 45
0.0
  0
VISUALSTYLE
  5
8FB
102
{ACAD_REACTORS
330
267
102
}
330
267
100
AcDbVisualStyle
  2
Hidden
 70
     6
 71
     1
 72
     2
 73
     2
 90
        0
 40
0.6
 41
30.0
 62
     5
 63
     7
421
 16777215
 74
     2
 91
        2
 64
     7
 65
   257
 75
     2
175
     1
 42
40.0
 92
        0
 66
   257
 43
1.0
 76
     1
 77
     6
 78
     2
 67
     7
 79
     3
170
     0
171
     0
290
     0
174
     0
 93
        1
 44
0.0
173
     0
291
     0
 45
0.0
  0
VISUALSTYLE
  5
8FC
102
{ACAD_REACTORS
330
267
102
}
330
267
100
AcDbVisualStyle
  2
JitterOff
 70
    20
 71
     2
 72
     2
 73
     0
 90
        0
 40
0.6
 41
30.0
 62
     5
 63
     7
421
 16777215
 74
     1
 91
        4
 64
     7
 65
   257
 75
     1
175
     1
 42
1.0
 92
       10
 66
     7
 43
1.0
 76
     1
 77
     6
 78
     2
 67
     7
 79
     5
170
     0
171
     0
290
     0
174
     0
 93
        1
 44
0.0
173
     0
291
     1
 45
0.0
  0
VISUALSTYLE
  5
275
102
{ACAD_REACTORS
330
267
102
}
330
267
100
AcDbVisualStyle
  2
Linepattern
 70
    14
 71
     2
 72
     2
 73
     0
 90
        0
 40
-0.6
 41
-30.0
 62
     5
 63
     7
421
 16777215
 74
     1
 91
        4
 64
     7
 65
   257
 75
     7
175
     7
 42
1.0
 92
        8
 66
     7
 43
1.0
 76
     1
 77
     6
 78
     2
 67
     7
 79
     5
170
     0
171
     0
290
     0
174
     0
 93
        1
 44
0.0
173
     0
291
     1
 45
0.0
  0
VISUALSTYLE
  5
8FD
102
{ACAD_REACTORS
330
267
102
}
330
267
100
AcDbVisualStyle
  2
OverhangOff
 70
    21
 71
     2
 72
     2
 73
     0
 90
        0
 40
0.6
 41
30.0
 62
     5
 63
     7
421
 16777215
 74
     1
 91
        4
 64
     7
 65
   257
 75
     1
175
     1
 42
1.0
 92
        9
 66
     7
 43
1.0
 76
     1
 77
     6
 78
     2
 67
     7
 79
     5
170
     0
171
     0
290
     0
174
     0
 93
        1
 44
0.0
173
     0
291
     1
 45
0.0
  0
VISUALSTYLE
  5
270
102
{ACAD_REACTORS
330
267
102
}
330
267
100
AcDbVisualStyle
  2
Realistic
 70
     8
 71
     2
 72
     2
 73
     0
 90
        0
 40
-0.6
 41
-30.0
 62
     5
 63
     7
421
 16777215
 74
     1
 91
        0
 64
     7
 65
   257
 75
     1
175
     1
 42
1.0
 92
        8
 66
     8
424
  7895160
 43
1.0
 76
     1
 77
     6
 78
     2
 67
     7
 79
     5
170
     0
171
     0
290
     0
174
     0
 93
       13
 44
0.0
173
     0
291
     0
 45
0.0
  0
VISUALSTYLE
  5
903
102
{ACAD_REACTORS
330
267
102
}
330
267
100
AcDbVisualStyle
  2
Shaded
 70
    27
 71
     2
 72
     2
 73
     1
 90
        2
 40
0.6
 41
30.0
 62
     5
 63
     7
421
 16777215
 74
     0
 91
        4
 64
     7
 65
   257
 75
     1
175
     1
 42
1.0
 92
        8
 66
   257
 43
1.0
 76
     1
 77
     6
 78
     2
 67
     8
425
  7895160
 79
     3
170
     0
171
     0
290
     0
174
     0
 93
        5
 44
0.0
173
     0
291
     0
 45
0.0
  0
VISUALSTYLE
  5
902
102
{ACAD_REACTORS
330
267
102
}
330
267
100
AcDbVisualStyle
  2
Shaded with edges
 70
    26
 71
     2
 72
     2
 73
     1
 90
        2
 40
0.6
 41
30.0
 62
     5
 63
     7
421
 16777215
 74
     1
 91
       10
 64
     7
 65
   257
 75
     2
175
     1
 42
1.0
 92
        8
 66
   257
 43
1.0
 76
     1
 77
     6
 78
     2
 67
     7
 79
     3
170
     0
171
     0
290
     0
174
     0
 93
        5
 44
0.0
173
     0
291
     0
 45
0.0
  0
VISUALSTYLE
  5
8FF
102
{ACAD_REACTORS
330
267
102
}
330
267
100
AcDbVisualStyle
  2
Shades of Gray
 70
    23
 71
     2
 72
     2
 73
     3
 90
        0
 40
0.6
 41
30.0
 62
     5
 63
     7
421
 16777215
 74
     2
 91
        2
 64
     7
 65
     7
 75
     1
175
     1
 42
40.0
 92
        8
 66
     7
 43
1.0
 76
     1
 77
     6
 78
     2
 67
     7
 79
     3
170
     0
171
     0
290
     0
174
     0
 93
        1
 44
0.0
173
     0
291
     0
 45
0.0
  0
VISUALSTYLE
  5
900
102
{ACAD_REACTORS
330
267
102
}
330
267
100
AcDbVisualStyle
  2
Sketchy
 70
    24
 71
     1
 72
     2
 73
     2
 90
        0
 40
0.6
 41
30.0
 62
     5
 63
     7
421
 16777215
 74
     2
 91
        2
 64
     7
 65
     7
 75
     1
175
     1
 42
40.0
 92
       11
 66
     7
 43
1.0
 76
     1
 77
     6
 78
     2
 67
     7
 79
     6
170
     0
171
     0
290
     0
174
     0
 93
        1
 44
0.0
173
     0
291
     0
 45
0.0
  0
VISUALSTYLE
  5
274
102
{ACAD_REACTORS
330
267
102
}
330
267
100
AcDbVisualStyle
  2
Thicken
 70
    13
 71
     2
 72
     2
 73
     0
 90
        0
 40
-0.6
 41
-30.0
 62
     5
 63
     7
421
 16777215
 74
     1
 91
        4
 64
     7
 65
   257
 75
     1
175
     1
 42
1.0
 92
       12
 66
     7
 43
1.0
 76
     1
 77
     6
 78
     2
 67
     7
 79
     5
170
     0
171
     0
290
     0
174
     0
 93
        1
 44
0.0
173
     0
291
     1
 45
0.0
  0
VISUALSTYLE
  5
8FA
102
{ACAD_REACTORS
330
267
102
}
330
267
100
AcDbVisualStyle
  2
Wireframe
 70
     5
 71
     0
 72
     2
 73
     0
 90
        0
 40
0.6
 41
30.0
 62
     5
 63
     7
421
 16777215
 74
     1
 91
        4
 64
     7
 65
   257
 75
     1
175
     1
 42
1.0
 92
        0
 66
   257
 43
1.0
 76
     1
 77
     6
 78
     2
 67
     7
 79
     3
170
     0
171
     0
290
     0
174
     0
 93
        1
 44
0.0
173
     0
291
     0
 45
0.0
  0
VISUALSTYLE
  5
901
102
{ACAD_REACTORS
330
267
102
}
330
267
100
AcDbVisualStyle
  2
X-Ray
 70
    25
 71
     2
 72
     2
 73
     1
 90
        1
 40
0.5
 41
30.0
 62
     5
 63
     7
421
 16777215
 74
     1
 91
        0
 64
     7
 65
   257
 75
     1
175
     1
 42
1.0
 92
        8
 66
     7
 43
1.0
 76
     1
 77
     6
 78
     2
 67
     7
 79
     3
170
     0
171
     0
290
     0
174
     0
 93
       13
 44
0.0
173
     0
291
     0
 45
0.0
  0
DICTIONARYVAR
  5
331
102
{ACAD_REACTORS
330
330
102
}
330
330
100
DictionaryVariables
280
     0
  1
1:1
  0
DICTIONARYVAR
  5
D5E
102
{ACAD_REACTORS
330
330
102
}
330
330
100
DictionaryVariables
280
     0
  1
Standard
  0
DICTIONARYVAR
  5
335
102
{ACAD_REACTORS
330
330
102
}
330
330
100
DictionaryVariables
280
     0
  1
Standard
  0
DICTIONARYVAR
  5
D52
102
{ACAD_REACTORS
330
330
102
}
330
330
100
DictionaryVariables
280
     0
  1
ByLayer
  0
DICTIONARYVAR
  5
896
102
{ACAD_REACTORS
330
330
102
}
330
330
100
DictionaryVariables
280
     0
  1
0
  0
DICTIONARYVAR
  5
246C
102
{ACAD_REACTORS
330
E38
102
}
330
E38
100
DictionaryVariables
280
     0
  1
0.261799
  0
DICTIONARYVAR
  5
246A
102
{ACAD_REACTORS
330
E38
102
}
330
E38
100
DictionaryVariables
280
     0
  1
0.400000
  0
DICTIONARYVAR
  5
246B
102
{ACAD_REACTORS
330
E38
102
}
330
E38
100
DictionaryVariables
280
     0
  1
0.250000
  0
DICTIONARYVAR
  5
246D
102
{ACAD_REACTORS
330
E38
102
}
330
E38
100
DictionaryVariables
280
     0
  1
1
  0
FIELD
  5
3CB6
102
{ACAD_REACTORS
330
3CBA
330
431B
330
4383
102
}
330
4383
100
AcDbField
  1
_text
  2
{%<\_FldIdx 0>%N}
 90
        1
360
3CB9
 97
        0
 91
       63
 92
        0
 94
       11
 95
        2
 96
        0
300

 93
        1
  6
ACFD_FIELDTEXT_CHECKSUM
 93
        2
 90
        2
140
4530.0
 94
        0
300

302

304
ACVALUE_END
  7
ACFD_FIELD_VALUE
 93
        6
 90
        4
  1
{20210528N}
 94
        0
300

302

304
ACVALUE_END
301
{20210528N}
 98
       11
  0
DICTIONARY
  5
4396
330
279
100
AcDbDictionary
280
     1
281
     1
  3
ACAD_ROUNDTRIP_2008_TABLESTYLE_CELLSTYLEMAP
360
4397
  0
FIELD
  5
3CB9
330
3CB6
100
AcDbField
  1
AcVar
  2
\AcVar CreateDate \f "yyyyMMdd"
 90
        0
 97
        0
 91
       63
 92
        0
 94
       11
 95
        2
 96
        0
300

 93
        1
  6
Variable
 93
        2
 90
        4
  1
CreateDate
 94
        0
300

302

304
ACVALUE_END
  7
ACFD_FIELD_VALUE
 93
        6
 90
        8
 92
       16
310
E507050000001C000400380038000000
 94
        0
300
yyyyMMdd
302

304
ACVALUE_END
301
20210528
 98
        8
  0
CELLSTYLEMAP
  5
4397
102
{ACAD_REACTORS
330
4396
102
}
330
4396
100
AcDbCellStyleMap
 90
        3
300
CELLSTYLE
  1
TABLEFORMAT_BEGIN
 90
        5
170
     1
 91
        0
 92
    32768
 62
   257
 93
        1
300
CONTENTFORMAT
  1
CONTENTFORMAT_BEGIN
 90
        0
 91
        0
 92
        4
 93
        0
300

 40
0.0
140
1.0
 94
        5
 62
     0
340
17
144
6.0
309
CONTENTFORMAT_END
171
     1
301
MARGIN
  1
CELLMARGIN_BEGIN
 40
0.06
 40
0.06
 40
0.06
 40
0.06
 40
0.18
 40
0.18
309
CELLMARGIN_END
 94
        6
 95
        1
302
GRIDFORMAT
  1
GRIDFORMAT_BEGIN
 90
        0
 91
        1
 62
     0
 92
       -2
340
0
 93
        0
 40
0.045
309
GRIDFORMAT_END
 95
        2
302
GRIDFORMAT
  1
GRIDFORMAT_BEGIN
 90
        0
 91
        1
 62
     0
 92
       -2
340
0
 93
        0
 40
0.045
309
GRIDFORMAT_END
 95
        4
302
GRIDFORMAT
  1
GRIDFORMAT_BEGIN
 90
        0
 91
        1
 62
     0
 92
       -2
340
0
 93
        0
 40
0.045
309
GRIDFORMAT_END
 95
        8
302
GRIDFORMAT
  1
GRIDFORMAT_BEGIN
 90
        0
 91
        1
 62
     0
 92
       -2
340
0
 93
        0
 40
0.045
309
GRIDFORMAT_END
 95
       16
302
GRIDFORMAT
  1
GRIDFORMAT_BEGIN
 90
        0
 91
        1
 62
     0
 92
       -2
340
0
 93
        0
 40
0.045
309
GRIDFORMAT_END
 95
       32
302
GRIDFORMAT
  1
GRIDFORMAT_BEGIN
 90
        0
 91
        1
 62
     0
 92
       -2
340
0
 93
        0
 40
0.045
309
GRIDFORMAT_END
309
TABLEFORMAT_END
  1
CELLSTYLE_BEGIN
 90
        1
 91
        1
300
_TITLE
309
CELLSTYLE_END
300
CELLSTYLE
  1
TABLEFORMAT_BEGIN
 90
        5
170
     1
 91
        0
 92
        0
 62
   257
 93
        1
300
CONTENTFORMAT
  1
CONTENTFORMAT_BEGIN
 90
        0
 91
        0
 92
        4
 93
        0
300

 40
0.0
140
1.0
 94
        5
 62
     0
340
17
144
4.5
309
CONTENTFORMAT_END
171
     1
301
MARGIN
  1
CELLMARGIN_BEGIN
 40
0.06
 40
0.06
 40
0.06
 40
0.06
 40
0.18
 40
0.18
309
CELLMARGIN_END
 94
        6
 95
        1
302
GRIDFORMAT
  1
GRIDFORMAT_BEGIN
 90
        0
 91
        1
 62
     0
 92
       -2
340
0
 93
        0
 40
0.045
309
GRIDFORMAT_END
 95
        2
302
GRIDFORMAT
  1
GRIDFORMAT_BEGIN
 90
        0
 91
        1
 62
     0
 92
       -2
340
0
 93
        0
 40
0.045
309
GRIDFORMAT_END
 95
        4
302
GRIDFORMAT
  1
GRIDFORMAT_BEGIN
 90
        0
 91
        1
 62
     0
 92
       -2
340
0
 93
        0
 40
0.045
309
GRIDFORMAT_END
 95
        8
302
GRIDFORMAT
  1
GRIDFORMAT_BEGIN
 90
        0
 91
        1
 62
     0
 92
       -2
340
0
 93
        0
 40
0.045
309
GRIDFORMAT_END
 95
       16
302
GRIDFORMAT
  1
GRIDFORMAT_BEGIN
 90
        0
 91
        1
 62
     0
 92
       -2
340
0
 93
        0
 40
0.045
309
GRIDFORMAT_END
 95
       32
302
GRIDFORMAT
  1
GRIDFORMAT_BEGIN
 90
        0
 91
        1
 62
     0
 92
       -2
340
0
 93
        0
 40
0.045
309
GRIDFORMAT_END
309
TABLEFORMAT_END
  1
CELLSTYLE_BEGIN
 90
        2
 91
        1
300
_HEADER
309
CELLSTYLE_END
300
CELLSTYLE
  1
TABLEFORMAT_BEGIN
 90
        5
170
     1
 91
        0
 92
        0
 62
   257
 93
        1
300
CONTENTFORMAT
  1
CONTENTFORMAT_BEGIN
 90
        0
 91
        0
 92
        4
 93
        0
300

 40
0.0
140
1.0
 94
        2
 62
     0
340
17
144
4.5
309
CONTENTFORMAT_END
171
     1
301
MARGIN
  1
CELLMARGIN_BEGIN
 40
0.06
 40
0.06
 40
0.06
 40
0.06
 40
0.18
 40
0.18
309
CELLMARGIN_END
 94
        6
 95
        1
302
GRIDFORMAT
  1
GRIDFORMAT_BEGIN
 90
        0
 91
        1
 62
     0
 92
       -2
340
0
 93
        0
 40
0.045
309
GRIDFORMAT_END
 95
        2
302
GRIDFORMAT
  1
GRIDFORMAT_BEGIN
 90
        0
 91
        1
 62
     0
 92
       -2
340
0
 93
        0
 40
0.045
309
GRIDFORMAT_END
 95
        4
302
GRIDFORMAT
  1
GRIDFORMAT_BEGIN
 90
        0
 91
        1
 62
     0
 92
       -2
340
0
 93
        0
 40
0.045
309
GRIDFORMAT_END
 95
        8
302
GRIDFORMAT
  1
GRIDFORMAT_BEGIN
 90
        0
 91
        1
 62
     0
 92
       -2
340
0
 93
        0
 40
0.045
309
GRIDFORMAT_END
 95
       16
302
GRIDFORMAT
  1
GRIDFORMAT_BEGIN
 90
        0
 91
        1
 62
     0
 92
       -2
340
0
 93
        0
 40
0.045
309
GRIDFORMAT_END
 95
       32
302
GRIDFORMAT
  1
GRIDFORMAT_BEGIN
 90
        0
 91
        1
 62
     0
 92
       -2
340
0
 93
        0
 40
0.045
309
GRIDFORMAT_END
309
TABLEFORMAT_END
  1
CELLSTYLE_BEGIN
 90
        3
 91
        2
300
_DATA
309
CELLSTYLE_END
  0
ENDSEC
  0
EOF
