  0
SECTION
  2
HEADER
  9
$ACADVER
  1
AC1021
  9
$ACADMAINTVER
 70
    25
  9
$DWGCODEPAGE
  3
ANSI_932
  9
$LASTSAVEDBY
  1
howeNelson
  9
$INSBASE
 10
0.0
 20
0.0
 30
0.0
  9
$EXTMIN
 10
0.0
 20
0.0
 30
-0.0000000000000142
  9
$EXTMAX
 10
1050.0
 20
1485.0
 30
0.0000000000000142
  9
$LIMMIN
 10
0.0
 20
0.0
  9
$LIMMAX
 10
1050.0
 20
1485.0
  9
$ORTHOMODE
 70
     0
  9
$REGENMODE
 70
     1
  9
$FILLMODE
 70
     1
  9
$QTEXTMODE
 70
     0
  9
$MIRRTEXT
 70
     1
  9
$LTSCALE
 40
1.0
  9
$ATTMODE
 70
     1
  9
$TEXTSIZE
 40
2.5
  9
$TRACEWID
 40
1.0
  9
$TEXTSTYLE
  7
ＭＳ ゴシック
  9
$CLAYER
  8
DIM
  9
$CELTYPE
  6
ByLayer
  9
$CECOLOR
 62
   256
  9
$CELTSCALE
 40
0.05
  9
$DISPSILH
 70
     0
  9
$DIMSCALE
 40
1.0
  9
$DIMASZ
 40
3.0
  9
$DIMEXO
 40
10.0
  9
$DIMDLI
 40
0.9999999999999999
  9
$DIMRND
 40
0.0
  9
$DIMDLE
 40
0.0
  9
$DIMEXE
 40
0.0
  9
$DIMTP
 40
0.0
  9
$DIMTM
 40
0.0
  9
$DIMTXT
 40
12.0
  9
$DIMCEN
 40
0.0
  9
$DIMTSZ
 40
0.0
  9
$DIMTOL
 70
     0
  9
$DIMLIM
 70
     0
  9
$DIMTIH
 70
     0
  9
$DIMTOH
 70
     0
  9
$DIMSE1
 70
     0
  9
$DIMSE2
 70
     0
  9
$DIMTAD
 70
     1
  9
$DIMZIN
 70
    11
  9
$DIMBLK
  1
DOT
  9
$DIMASO
 70
     1
  9
$DIMSHO
 70
     1
  9
$DIMPOST
  1
<>
  9
$DIMAPOST
  1
[]
  9
$DIMALT
 70
     0
  9
$DIMALTD
 70
     1
  9
$DIMALTF
 40
1.0
  9
$DIMLFAC
 40
1.0
  9
$DIMTOFL
 70
     0
  9
$DIMTVP
 40
0.0
  9
$DIMTIX
 70
     1
  9
$DIMSOXD
 70
     0
  9
$DIMSAH
 70
     0
  9
$DIMBLK1
  1

  9
$DIMBLK2
  1

  9
$DIMSTYLE
  2
tfrom線あり
  9
$DIMCLRD
 70
     0
  9
$DIMCLRE
 70
     0
  9
$DIMCLRT
 70
     0
  9
$DIMTFAC
 40
1.0
  9
$DIMGAP
 40
5.0
  9
$DIMJUST
 70
     0
  9
$DIMSD1
 70
     0
  9
$DIMSD2
 70
     0
  9
$DIMTOLJ
 70
     1
  9
$DIMTZIN
 70
    11
  9
$DIMALTZ
 70
    11
  9
$DIMALTTZ
 70
    11
  9
$DIMUPT
 70
     0
  9
$DIMDEC
 70
     0
  9
$DIMTDEC
 70
     1
  9
$DIMALTU
 70
     2
  9
$DIMALTTD
 70
     2
  9
$DIMTXSTY
  7
ＭＳ ゴシック
  9
$DIMAUNIT
 70
     0
  9
$DIMADEC
 70
     2
  9
$DIMALTRND
 40
0.0
  9
$DIMAZIN
 70
     0
  9
$DIMDSEP
 70
    46
  9
$DIMATFIT
 70
     0
  9
$DIMFRAC
 70
     2
  9
$DIMLDRBLK
  1
DOT
  9
$DIMLUNIT
 70
     2
  9
$DIMLWD
 70
    -2
  9
$DIMLWE
 70
    -2
  9
$DIMTMOVE
 70
     0
  9
$DIMFXL
 40
1.0
  9
$DIMFXLON
 70
     0
  9
$DIMJOGANG
 40
0.7853981633974483
  9
$DIMTFILL
 70
     0
  9
$DIMTFILLCLR
 70
     0
  9
$DIMARCSYM
 70
     0
  9
$DIMLTYPE
  6

  9
$DIMLTEX1
  6

  9
$DIMLTEX2
  6

  9
$LUNITS
 70
     2
  9
$LUPREC
 70
     0
  9
$SKETCHINC
 40
0.1
  9
$FILLETRAD
 40
0.0
  9
$AUNITS
 70
     0
  9
$AUPREC
 70
     0
  9
$MENU
  1
acad
  9
$ELEVATION
 40
0.0
  9
$PELEVATION
 40
0.0
  9
$THICKNESS
 40
0.0
  9
$LIMCHECK
 70
     0
  9
$CHAMFERA
 40
0.0
  9
$CHAMFERB
 40
0.0
  9
$CHAMFERC
 40
0.0
  9
$CHAMFERD
 40
0.0
  9
$SKPOLY
 70
     0
  9
$TDCREATE
 40
2447893.375
  9
$TDUCREATE
 40
0.0
  9
$TDUPDATE
 40
2458331.480258958
  9
$TDUUPDATE
 40
2458331.105258958
  9
$TDINDWG
 40
0.001148044
  9
$TDUSRTIMER
 40
0.001148044
  9
$USRTIMER
 70
     1
  9
$ANGBASE
 50
0.0
  9
$ANGDIR
 70
     0
  9
$PDMODE
 70
     1
  9
$PDSIZE
 40
-2.0
  9
$PLINEWID
 40
0.0
  9
$SPLFRAME
 70
     0
  9
$SPLINETYPE
 70
     6
  9
$SPLINESEGS
 70
     8
  9
$HANDSEED
  5
1D16
  9
$SURFTAB1
 70
     6
  9
$SURFTAB2
 70
     6
  9
$SURFTYPE
 70
     6
  9
$SURFU
 70
     6
  9
$SURFV
 70
     6
  9
$UCSBASE
  2

  9
$UCSNAME
  2

  9
$UCSORG
 10
0.0
 20
0.0
 30
0.0
  9
$UCSXDIR
 10
1.0
 20
0.0
 30
0.0
  9
$UCSYDIR
 10
0.0
 20
1.0
 30
0.0
  9
$UCSORTHOREF
  2

  9
$UCSORTHOVIEW
 70
     0
  9
$UCSORGTOP
 10
0.0
 20
0.0
 30
0.0
  9
$UCSORGBOTTOM
 10
0.0
 20
0.0
 30
0.0
  9
$UCSORGLEFT
 10
0.0
 20
0.0
 30
0.0
  9
$UCSORGRIGHT
 10
0.0
 20
0.0
 30
0.0
  9
$UCSORGFRONT
 10
0.0
 20
0.0
 30
0.0
  9
$UCSORGBACK
 10
0.0
 20
0.0
 30
0.0
  9
$PUCSBASE
  2

  9
$PUCSNAME
  2

  9
$PUCSORG
 10
0.0
 20
0.0
 30
0.0
  9
$PUCSXDIR
 10
1.0
 20
0.0
 30
0.0
  9
$PUCSYDIR
 10
0.0
 20
1.0
 30
0.0
  9
$PUCSORTHOREF
  2

  9
$PUCSORTHOVIEW
 70
     0
  9
$PUCSORGTOP
 10
0.0
 20
0.0
 30
0.0
  9
$PUCSORGBOTTOM
 10
0.0
 20
0.0
 30
0.0
  9
$PUCSORGLEFT
 10
0.0
 20
0.0
 30
0.0
  9
$PUCSORGRIGHT
 10
0.0
 20
0.0
 30
0.0
  9
$PUCSORGFRONT
 10
0.0
 20
0.0
 30
0.0
  9
$PUCSORGBACK
 10
0.0
 20
0.0
 30
0.0
  9
$USERI1
 70
     0
  9
$USERI2
 70
     0
  9
$USERI3
 70
     0
  9
$USERI4
 70
     0
  9
$USERI5
 70
     0
  9
$USERR1
 40
0.0
  9
$USERR2
 40
0.0
  9
$USERR3
 40
0.0
  9
$USERR4
 40
0.0
  9
$USERR5
 40
0.0
  9
$WORLDVIEW
 70
     1
  9
$SHADEDGE
 70
     3
  9
$SHADEDIF
 70
    70
  9
$TILEMODE
 70
     1
  9
$MAXACTVP
 70
    64
  9
$PINSBASE
 10
0.0
 20
0.0
 30
0.0
  9
$PLIMCHECK
 70
     0
  9
$PEXTMIN
 10
0.0
 20
0.0
 30
0.0
  9
$PEXTMAX
 10
0.0
 20
0.0
 30
0.0
  9
$PLIMMIN
 10
-7.5
 20
-20.0
  9
$PLIMMAX
 10
412.5
 20
277.0
  9
$UNITMODE
 70
     0
  9
$VISRETAIN
 70
     0
  9
$PLINEGEN
 70
     1
  9
$PSLTSCALE
 70
     0
  9
$TREEDEPTH
 70
  3020
  9
$CMLSTYLE
  2
Standard
  9
$CMLJUST
 70
     0
  9
$CMLSCALE
 40
1.0
  9
$PROXYGRAPHICS
 70
     0
  9
$MEASUREMENT
 70
     1
  9
$CELWEIGHT
370
    -1
  9
$ENDCAPS
280
     0
  9
$JOINSTYLE
280
     0
  9
$LWDISPLAY
290
     1
  9
$INSUNITS
 70
     4
  9
$HYPERLINKBASE
  1

  9
$STYLESHEET
  1

  9
$XEDIT
290
     1
  9
$CEPSNTYPE
380
     0
  9
$PSTYLEMODE
290
     1
  9
$FINGERPRINTGUID
  2

  9
$VERSIONGUID
  2

  9
$EXTNAMES
290
     1
  9
$PSVPSCALE
 40
0.0
  9
$OLESTARTUP
290
     0
  9
$SORTENTS
280
   127
  9
$INDEXCTL
280
     0
  9
$HIDETEXT
280
     1
  9
$XCLIPFRAME
290
     0
  9
$HALOGAP
280
     0
  9
$OBSCOLOR
 70
   257
  9
$OBSLTYPE
280
     0
  9
$INTERSECTIONDISPLAY
280
     0
  9
$INTERSECTIONCOLOR
 70
   257
  9
$DIMASSOC
280
     2
  9
$PROJECTNAME
  1

  9
$CAMERADISPLAY
290
     0
  9
$LENSLENGTH
 40
50.0
  9
$CAMERAHEIGHT
 40
0.0
  9
$STEPSPERSEC
 40
2.0
  9
$STEPSIZE
 40
6.0
  9
$3DDWFPREC
 40
2.0
  9
$PSOLWIDTH
 40
0.25
  9
$PSOLHEIGHT
 40
4.0
  9
$LOFTANG1
 40
1.570796326794897
  9
$LOFTANG2
 40
1.570796326794897
  9
$LOFTMAG1
 40
0.0
  9
$LOFTMAG2
 40
0.0
  9
$LOFTPARAM
 70
     7
  9
$LOFTNORMALS
280
     1
  9
$LATITUDE
 40
37.795
  9
$LONGITUDE
 40
-122.394
  9
$NORTHDIRECTION
 40
0.0
  9
$TIMEZONE
 70
 -8000
  9
$LIGHTGLYPHDISPLAY
280
     1
  9
$TILEMODELIGHTSYNCH
280
     1
  9
$SOLIDHIST
280
     1
  9
$SHOWHIST
280
     1
  9
$DWFFRAME
280
     2
  9
$DGNFRAME
280
     2
  9
$REALWORLDSCALE
290
     1
  9
$INTERFERECOLOR
 62
   256
  9
$CSHADOW
280
     0
  9
$SHADOWPLANELOCATION
 40
0.0
  0
ENDSEC
  0
SECTION
  2
CLASSES
  0
CLASS
  1
LWPOLYLINE
  2
AcDbPolyline
  3
ObjectDBX Classes
 90
        0
 91
        1
280
     0
281
     1
  0
CLASS
  1
IMAGE
  2
AcDbRasterImage
  3
ISM
 90
      127
 91
        5
280
     0
281
     1
  0
CLASS
  1
OLE2FRAME
  2
AcDbOle2Frame
  3
ObjectDBX Classes
 90
        0
 91
        1
280
     0
281
     1
  0
CLASS
  1
HATCH
  2
AcDbHatch
  3
ObjectDBX Classes
 90
        0
 91
        1
280
     0
281
     1
  0
CLASS
  1
DICTIONARYVAR
  2
AcDbDictionaryVar
  3
ObjectDBX Classes
 90
        0
 91
        4
280
     0
281
     0
  0
CLASS
  1
RASTERVARIABLES
  2
AcDbRasterVariables
  3
ISM
 90
        0
 91
        4
280
     0
281
     0
  0
CLASS
  1
IMAGEDEF
  2
AcDbRasterImageDef
  3
ISM
 90
        0
 91
        4
280
     0
281
     0
  0
CLASS
  1
IMAGEDEF_REACTOR
  2
AcDbRasterImageDefReactor
  3
ISM
 90
        1
 91
        4
280
     0
281
     0
  0
CLASS
  1
IDBUFFER
  2
AcDbIdBuffer
  3
ObjectDBX Classes
 90
        0
 91
        4
280
     0
281
     0
  0
CLASS
  1
SPATIAL_FILTER
  2
AcDbSpatialFilter
  3
ObjectDBX Classes
 90
        0
 91
        4
280
     0
281
     0
  0
CLASS
  1
XRECORD
  2
AcDbXrecord
  3
ObjectDBX Classes
 90
        0
 91
        1
280
     0
281
     0
  0
CLASS
  1
SORTENTSTABLE
  2
AcDbSortentsTable
  3
ObjectDBX Classes
 90
        0
 91
        4
280
     0
281
     0
  0
CLASS
  1
LAYER_INDEX
  2
AcDbLayerIndex
  3
ObjectDBX Classes
 90
        0
 91
        4
280
     0
281
     0
  0
CLASS
  1
SPATIAL_INDEX
  2
AcDbSpatialIndex
  3
AutoCAD 2000
 90
        0
 91
        4
280
     0
281
     0
  0
CLASS
  1
OBJECT_PTR
  2
CAseDLPNTableRecord
  3
ASE-LPNTableRecord
 90
        1
 91
        4
280
     0
281
     0
  0
CLASS
  1
LAYOUT
  2
AcDbLayout
  3
ObjectDBX Classes
 90
        0
 91
        1
280
     0
281
     0
  0
CLASS
  1
PLOTSETTINGS
  2
AcDbPlotSettings
  3
ObjectDBX Classes
 90
        0
 91
        4
280
     0
281
     0
  0
CLASS
  1
ACDBDICTIONARYWDFLT
  2
AcDbDictionaryWithDefault
  3
ObjectDBX Classes
 90
        0
 91
        4
280
     0
281
     0
  0
CLASS
  1
ACDBPLACEHOLDER
  2
AcDbPlaceHolder
  3
ObjectDBX Classes
 90
        0
 91
        1
280
     0
281
     0
  0
CLASS
  1
SCALE
  2
AcDbScale
  3
ObjectDBX Classes
 90
     1153
 91
        4
280
     0
281
     0
  0
CLASS
  1
MATERIAL
  2
AcDbMaterial
  3
ObjectDBX Classes
 90
     1153
 91
        4
280
     0
281
     0
  0
CLASS
  1
VISUALSTYLE
  2
AcDbVisualStyle
  3
ObjectDBX Classes
 90
     4095
 91
        4
280
     0
281
     0
  0
CLASS
  1
TABLESTYLE
  2
AcDbTableStyle
  3
ObjectDBX Classes
 90
     4095
 91
        4
280
     0
281
     0
  0
CLASS
  1
DIMASSOC
  2
AcDbDimAssoc
  3
"AcDbDimAssoc|Product Desc:     AcDim ARX App For Dimension|Company:          Autodesk, Inc.|WEB Address:      www.autodesk.com"
 90
        0
 91
        4
280
     0
281
     0
  0
CLASS
  1
CELLSTYLEMAP
  2
AcDbCellStyleMap
  3
ObjectDBX Classes
 90
     1152
 91
        4
280
     0
281
     0
  0
CLASS
  1
SUN
  2
AcDbSun
  3
SCENEOE
 90
     1153
 91
        4
280
     0
281
     0
  0
CLASS
  1
MLEADERSTYLE
  2
AcDbMLeaderStyle
  3
ACDB_MLEADERSTYLE_CLASS
 90
     4095
 91
        4
280
     0
281
     0
  0
CLASS
  1
FIELD
  2
AcDbField
  3
ObjectDBX Classes
 90
     1152
 91
        4
280
     0
281
     0
  0
CLASS
  1
FIELDLIST
  2
AcDbFieldList
  3
ObjectDBX Classes
 90
     1152
 91
        4
280
     0
281
     0
  0
ENDSEC
  0
SECTION
  2
TABLES
  0
TABLE
  2
VPORT
  5
7
330
0
100
AcDbSymbolTable
 70
     1
  0
VPORT
  5
15
330
7
100
AcDbSymbolTableRecord
100
AcDbViewportTableRecord
  2
*ACTIVE
 70
     0
 10
0.0
 20
0.0
 11
1.0
 21
1.0
 12
616.0201356708993
 22
668.901285469834
 13
0.0
 23
0.0
 14
1.0
 24
1.0
 15
0.0
 25
0.0
 16
0.0
 26
0.0
 36
1.0
 17
-91.02013567089932
 27
73.59871453016603
 37
-46.86809886248109
 40
1514.7
 41
2.294372294372294
 42
50.0
 43
0.0
 44
0.0
 50
0.0
 51
0.0
 71
    16
 72
  2000
 73
     1
 74
     1
 75
     0
 76
     0
 77
     0
 78
     0
281
     0
 65
     1
110
0.0
120
0.0
130
0.0
111
1.0
121
0.0
131
0.0
112
0.0
122
1.0
132
0.0
 79
     0
146
0.0
348
26C
 60
     3
 61
     5
292
     1
282
     1
141
0.0
142
0.0
 63
   256
361
904
  0
ENDTAB
  0
TABLE
  2
LTYPE
  5
4
330
0
100
AcDbSymbolTable
 70
    22
  0
LTYPE
  5
11
330
4
100
AcDbSymbolTableRecord
100
AcDbLinetypeTableRecord
  2
ByBlock
 70
     0
  3

 72
    65
 73
     0
 40
0.0
  0
LTYPE
  5
12
330
4
100
AcDbSymbolTableRecord
100
AcDbLinetypeTableRecord
  2
ByLayer
 70
     0
  3

 72
    65
 73
     0
 40
0.0
  0
LTYPE
  5
13
330
4
100
AcDbSymbolTableRecord
100
AcDbLinetypeTableRecord
  2
Continuous
 70
     0
  3
Solid line
 72
    65
 73
     0
 40
0.0
  0
LTYPE
  5
3A
330
4
100
AcDbSymbolTableRecord
100
AcDbLinetypeTableRecord
  2
STYLE_01
 70
     0
  3

 72
    65
 73
     2
 40
0.2460629921259842
 49
0.1230314960629921
 74
     0
 49
-0.1230314960629921
 74
     0
  0
LTYPE
  5
3B
330
4
100
AcDbSymbolTableRecord
100
AcDbLinetypeTableRecord
  2
STYLE_02
 70
     0
  3

 72
    65
 73
     2
 40
0.6944250000000001
 49
0.48607
 74
     0
 49
-0.2083550000000001
 74
     0
  0
LTYPE
  5
3C
330
4
100
AcDbSymbolTableRecord
100
AcDbLinetypeTableRecord
  2
STYLE_03
 70
     0
  3

 72
    65
 73
     2
 40
1.25
 49
1.04164
 74
     0
 49
-0.2083599999999999
 74
     0
  0
LTYPE
  5
3D
330
4
100
AcDbSymbolTableRecord
100
AcDbLinetypeTableRecord
  2
STYLE_04
 70
     0
  3

 72
    65
 73
     2
 40
1.52771
 49
1.319425
 74
     0
 49
-0.208285
 74
     0
  0
LTYPE
  5
3E
330
4
100
AcDbSymbolTableRecord
100
AcDbLinetypeTableRecord
  2
STYLE_05
 70
     0
  3

 72
    65
 73
     2
 40
0.20828
 49
0.069425
 74
     0
 49
-0.138855
 74
     0
  0
LTYPE
  5
3F
330
4
100
AcDbSymbolTableRecord
100
AcDbLinetypeTableRecord
  2
STYLE_06
 70
     0
  3

 72
    65
 73
     4
 40
1.04164
 49
0.625
 74
     0
 49
-0.20828
 74
     0
 49
0.06943
 74
     0
 49
-0.13893
 74
     0
  0
LTYPE
  5
40
330
4
100
AcDbSymbolTableRecord
100
AcDbLinetypeTableRecord
  2
STYLE_07
 70
     0
  3

 72
    65
 73
     6
 40
1.875
 49
0.625
 74
     0
 49
-0.20828
 74
     0
 49
0.6250000000000001
 74
     0
 49
-0.2083599999999999
 74
     0
 49
0.06943
 74
     0
 49
-0.1389299999999999
 74
     0
  0
LTYPE
  5
41
330
4
100
AcDbSymbolTableRecord
100
AcDbLinetypeTableRecord
  2
STYLE_08
 70
     0
  3

 72
    65
 73
     6
 40
1.25
 49
0.625
 74
     0
 49
-0.20828
 74
     0
 49
0.06943
 74
     0
 49
-0.13893
 74
     0
 49
0.0694299999999999
 74
     0
 49
-0.13893
 74
     0
  0
LTYPE
  5
42
330
4
100
AcDbSymbolTableRecord
100
AcDbLinetypeTableRecord
  2
STYLE_09
 70
     0
  3

 72
    65
 73
     4
 40
5.0
 49
3.75
 74
     0
 49
-0.2777849999999998
 74
     0
 49
0.6944300000000003
 74
     0
 49
-0.2777849999999998
 74
     0
  0
LTYPE
  5
43
330
4
100
AcDbSymbolTableRecord
100
AcDbLinetypeTableRecord
  2
STYLE_10
 70
     0
  3

 72
    65
 73
     6
 40
5.9375
 49
3.75
 74
     0
 49
-0.2777849999999998
 74
     0
 49
0.6944300000000003
 74
     0
 49
-0.2777849999999998
 74
     0
 49
0.625
 74
     0
 49
-0.3125
 74
     0
  0
LTYPE
  5
44
330
4
100
AcDbSymbolTableRecord
100
AcDbLinetypeTableRecord
  2
STYLE_11
 70
     0
  3

 72
    65
 73
     2
 40
0.0694444881889764
 49
0.0347222440944882
 74
     0
 49
-0.0347222440944882
 74
     0
  0
LTYPE
  5
45
330
4
100
AcDbSymbolTableRecord
100
AcDbLinetypeTableRecord
  2
STYLE_12
 70
     0
  3

 72
    65
 73
     2
 40
0.3937007874015748
 49
0.1968503937007874
 74
     0
 49
-0.1968503937007874
 74
     0
  0
LTYPE
  5
46
330
4
100
AcDbSymbolTableRecord
100
AcDbLinetypeTableRecord
  2
STYLE_13
 70
     0
  3

 72
    65
 73
     2
 40
0.5905511811023622
 49
0.2952755905511811
 74
     0
 49
-0.2952755905511811
 74
     0
  0
LTYPE
  5
47
330
4
100
AcDbSymbolTableRecord
100
AcDbLinetypeTableRecord
  2
STYLE_14
 70
     0
  3

 72
    65
 73
     2
 40
1.968503937007874
 49
0.9842519685039369
 74
     0
 49
-0.9842519685039369
 74
     0
  0
LTYPE
  5
48
330
4
100
AcDbSymbolTableRecord
100
AcDbLinetypeTableRecord
  2
STYLE_15
 70
     0
  3

 72
    65
 73
     2
 40
0.1875
 49
0.125
 74
     0
 49
-0.0625
 74
     0
  0
LTYPE
  5
49
330
4
100
AcDbSymbolTableRecord
100
AcDbLinetypeTableRecord
  2
STYLE_16
 70
     0
  3

 72
    65
 73
     2
 40
0.3690944881889764
 49
0.2460629921259843
 74
     0
 49
-0.1230314960629922
 74
     0
  0
LTYPE
  5
908
330
4
100
AcDbSymbolTableRecord
100
AcDbLinetypeTableRecord
  2
AI-LINETYPE-1
 70
     0
  3
Adobe Illustrator Linetype No. 1
 72
    65
 73
     4
 40
2.116668062491661
 49
1.058334031245831
 74
     0
 49
-0.3527780104152769
 74
     0
 49
0.3527780104152769
 74
     0
 49
-0.3527780104152769
 74
     0
  0
LTYPE
  5
909
330
4
100
AcDbSymbolTableRecord
100
AcDbLinetypeTableRecord
  2
AI-LINETYPE-2
 70
     0
  3
Adobe Illustrator Linetype No. 2
 72
    65
 73
     4
 40
2.116668062491661
 49
1.058334031245831
 74
     0
 49
-0.3527780104152769
 74
     0
 49
0.3527780104152769
 74
     0
 49
-0.3527780104152769
 74
     0
  0
LTYPE
  5
D6C
330
4
100
AcDbSymbolTableRecord
100
AcDbLinetypeTableRecord
  2
BORDER
 70
     0
  3
Border __  __  . __  __  . __  __  . __  __  . 
 72
    65
 73
     6
 40
44.45
 49
12.7
 74
     0
 49
-6.35
 74
     0
 49
12.7
 74
     0
 49
-6.35
 74
     0
 49
0.0
 74
     0
 49
-6.35
 74
     0
  0
LTYPE
  5
D6D
330
4
100
AcDbSymbolTableRecord
100
AcDbLinetypeTableRecord
  2
HIDDEN
 70
     0
  3
Hidden _ _ _ _ _ _ _ _ _ _ _ _ _ _ _ _ _ _ _ _ 
 72
    65
 73
     2
 40
9.524999999999999
 49
6.35
 74
     0
 49
-3.175
 74
     0
  0
LTYPE
  5
162D
330
4
100
AcDbSymbolTableRecord
100
AcDbLinetypeTableRecord
  2
CENTERX2
 70
     0
  3
Center (2x) ________  __  ________  __  _____
 72
    65
 73
     4
 40
20.32
 49
12.7
 74
     0
 49
-2.54
 74
     0
 49
2.54
 74
     0
 49
-2.54
 74
     0
  0
ENDTAB
  0
TABLE
  2
LAYER
  5
2
102
{ACAD_XDICTIONARY
360
2E1
102
}
330
0
100
AcDbSymbolTable
 70
    11
  0
LAYER
  5
14
330
2
100
AcDbSymbolTableRecord
100
AcDbLayerTableRecord
  2
0
 70
     0
 62
     7
  6
Continuous
370
    -3
390
1D
347
266
  0
LAYER
  5
4B
330
2
100
AcDbSymbolTableRecord
100
AcDbLayerTableRecord
  2
TEMPLATE
 70
     0
 62
     7
  6
Continuous
370
    20
390
1D
347
266
  0
LAYER
  5
4C
330
2
100
AcDbSymbolTableRecord
100
AcDbLayerTableRecord
  2
DIM
 70
     0
 62
     3
  6
Continuous
370
    13
390
1D
347
266
  0
LAYER
  5
4D
330
2
100
AcDbSymbolTableRecord
100
AcDbLayerTableRecord
  2
MODEL
 70
     0
 62
     7
  6
Continuous
370
    20
390
1D
347
266
  0
LAYER
  5
667
330
2
100
AcDbSymbolTableRecord
100
AcDbLayerTableRecord
  2
LOGO
 70
     0
 62
     7
  6
Continuous
370
    -3
390
1D
347
266
  0
LAYER
  5
88C
330
2
100
AcDbSymbolTableRecord
100
AcDbLayerTableRecord
  2
HIDDEN
 70
     0
 62
     8
  6
HIDDEN
370
    20
390
1D
347
266
1001
AcAecLayerStandard
1000

1000

  0
LAYER
  5
D6B
330
2
100
AcDbSymbolTableRecord
100
AcDbLayerTableRecord
  2
BORDER
 70
     0
 62
     4
  6
BORDER
290
     0
370
    20
390
1D
347
266
1001
AcAecLayerStandard
1000

1000

  0
LAYER
  5
D8C
330
2
100
AcDbSymbolTableRecord
100
AcDbLayerTableRecord
  2
Defpoints
 70
     0
 62
     7
  6
Continuous
290
     0
370
    -3
390
1D
347
266
  0
LAYER
  5
1160
330
2
100
AcDbSymbolTableRecord
100
AcDbLayerTableRecord
  2
PRINT BORDER
 70
     0
 62
     4
  6
BORDER
290
     0
370
    20
390
1D
347
266
1001
AcAecLayerStandard
1000

1000

  0
LAYER
  5
162B
330
2
100
AcDbSymbolTableRecord
100
AcDbLayerTableRecord
  2
尺寸
 70
     0
 62
     7
  6
Continuous
370
    -3
390
1D
347
266
  0
LAYER
  5
1890
330
2
100
AcDbSymbolTableRecord
100
AcDbLayerTableRecord
  2
注释
 70
     0
 62
     7
  6
Continuous
370
    -1
390
1D
347
266
  0
ENDTAB
  0
TABLE
  2
STYLE
  5
3
330
0
100
AcDbSymbolTable
 70
     7
  0
STYLE
  5
17
330
3
100
AcDbSymbolTableRecord
100
AcDbTextStyleTableRecord
  2
Standard
 70
     0
 40
0.0
 41
1.0
 50
0.0
 71
     0
 42
2.5
  3
txt
  4
BIGFONT.SHX
  0
STYLE
  5
39
330
3
100
AcDbSymbolTableRecord
100
AcDbTextStyleTableRecord
  2
ＭＳ ゴシック
 70
     0
 40
0.0
 41
1.0
 50
0.0
 71
     0
 42
2.5
  3
msgothic.ttc
  4
ＭＳ ゴシック
1001
ACAD
1000
ＭＳ ゴシック
1071
        0
  0
STYLE
  5
384
330
3
100
AcDbSymbolTableRecord
100
AcDbTextStyleTableRecord
  2
ARIAL
 70
     0
 40
0.0
 41
1.0
 50
0.0
 71
     0
 42
12.0
  3
ARIAL.TTF
  4

1001
ACAD
1000
Arial
1071
       34
  0
STYLE
  5
385
330
3
100
AcDbSymbolTableRecord
100
AcDbTextStyleTableRecord
  2
ROMANS
 70
     0
 40
0.0
 41
1.0
 50
0.0
 71
     0
 42
5.0
  3
romans.shx
  4

  0
STYLE
  5
1631
330
3
100
AcDbSymbolTableRecord
100
AcDbTextStyleTableRecord
  2
SLDTEXTSTYLE1
 70
     0
 40
0.0
 41
0.4899999999999999
 50
0.0
 71
     0
 42
2.5
  3
TXT
  4

  0
STYLE
  5
1633
330
3
100
AcDbSymbolTableRecord
100
AcDbTextStyleTableRecord
  2
SLDTEXTSTYLE3
 70
     0
 40
0.0
 41
0.7
 50
0.0
 71
     0
 42
2.5
  3
TXT
  4

  0
STYLE
  5
1895
330
3
100
AcDbSymbolTableRecord
100
AcDbTextStyleTableRecord
  2
SLDTEXTSTYLE0
 70
     0
 40
0.0
 41
0.75
 50
0.0
 71
     0
 42
2.5
  3
TXT
  4

  0
ENDTAB
  0
TABLE
  2
VIEW
  5
5
330
0
100
AcDbSymbolTable
 70
     0
  0
ENDTAB
  0
TABLE
  2
UCS
  5
6
330
0
100
AcDbSymbolTable
 70
     0
  0
ENDTAB
  0
TABLE
  2
APPID
  5
8
330
0
100
AcDbSymbolTable
 70
     3
  0
APPID
  5
16
330
8
100
AcDbSymbolTableRecord
100
AcDbRegAppTableRecord
  2
ACAD
 70
     0
  0
APPID
  5
7AC
330
8
100
AcDbSymbolTableRecord
100
AcDbRegAppTableRecord
  2
AcAecLayerStandard
 70
     0
  0
APPID
  5
E29
330
8
100
AcDbSymbolTableRecord
100
AcDbRegAppTableRecord
  2
ACAD_MLEADERVER
 70
     0
  0
ENDTAB
  0
TABLE
  2
DIMSTYLE
  5
9
330
0
100
AcDbSymbolTable
 70
     8
100
AcDbDimStyleTable
  0
DIMSTYLE
105
18
330
9
100
AcDbSymbolTableRecord
100
AcDbDimStyleTableRecord
  2
Standard
 70
     0
178
     0
340
17
  0
DIMSTYLE
105
56
330
9
100
AcDbSymbolTableRecord
100
AcDbDimStyleTableRecord
  2
tform線あり
 70
     0
  3
<>
  4
[]
 41
9.999389648437498
 42
25.0
 43
0.9999999999999999
 44
0.0
 73
     0
 74
     0
 77
     1
 78
    11
140
24.4326171875
141
0.0
143
1.0
146
0.8
147
0.4999999999999999
171
     1
172
     1
174
     1
178
     0
179
     2
271
     1
272
     1
276
     2
284
    11
285
    11
286
    11
289
     0
340
39
341
4E
342
4E
  0
DIMSTYLE
105
57
102
{ACAD_REACTORS
330
1BF5
330
1C49
330
1C56
330
1CF2
102
}
330
9
100
AcDbSymbolTableRecord
100
AcDbDimStyleTableRecord
  2
tfrom線あり
 70
     0
  3
<>
  4
[]
 41
3.0
 42
10.0
 43
0.9999999999999999
 44
0.0
 73
     0
 74
     0
 77
     1
 78
    11
140
12.0
141
0.0
143
1.0
147
5.0
171
     1
174
     1
178
     0
179
     2
271
     0
272
     1
276
     2
284
    11
285
    11
286
    11
289
     0
340
39
341
4E
342
4E
  0
DIMSTYLE
105
5C
330
9
100
AcDbSymbolTableRecord
100
AcDbDimStyleTableRecord
  2
JIS
 70
     0
  3
<>
  4
[]
 41
9.0
 42
0.0
 43
6.99999999999994
 44
19.9999999999962
 73
     0
 74
     0
 77
     1
 78
    11
140
24.4326171875
141
0.0
143
1.0
147
10.0
171
     1
174
     1
178
     0
179
     2
271
     1
272
     1
276
     2
284
    11
285
    11
286
    11
289
     0
340
39
341
4E
342
4E
  0
DIMSTYLE
105
383
330
9
100
AcDbSymbolTableRecord
100
AcDbDimStyleTableRecord
  2
ARIAL
 70
     0
 41
10.0
 42
3.0
 43
0.5
 44
3.0
 73
     0
 74
     0
 77
     1
 78
     8
140
12.0
141
0.0
146
0.5
147
4.0
171
     1
172
     1
178
     0
271
     1
289
     0
340
384
  0
DIMSTYLE
105
162E
330
9
100
AcDbSymbolTableRecord
100
AcDbDimStyleTableRecord
  2
ISO-25
 70
     0
 41
2.5
 42
0.625
 43
3.75
 44
1.25
 73
     0
 74
     0
 77
     1
 78
     8
140
2.5
141
2.5
143
0.03937007874016
147
0.625
171
     3
172
     1
178
     0
271
     2
272
     2
274
     3
278
    44
283
     0
284
     8
340
17
  0
DIMSTYLE
105
1630
330
9
100
AcDbSymbolTableRecord
100
AcDbDimStyleTableRecord
  2
SLDDIMSTYLE0
 70
     0
 41
3.5
 44
0.0
 45
0.000000001
 73
     0
 74
     0
 77
     2
 78
    12
 79
     3
140
3.5
144
5.0
147
0.875
173
     1
178
     0
271
     2
272
     2
276
     2
284
    12
340
1631
  0
DIMSTYLE
105
1632
330
9
100
AcDbSymbolTableRecord
100
AcDbDimStyleTableRecord
  2
SLDDIMSTYLE1
 70
     0
 41
3.5
 44
0.0
 45
0.000000001
 73
     0
 74
     0
 77
     2
 78
    12
 79
     3
140
3.5
144
5.0
147
0.875
173
     1
178
     0
271
     0
272
     0
276
     2
284
    12
340
1631
  0
ENDTAB
  0
TABLE
  2
BLOCK_RECORD
  5
1
330
0
100
AcDbSymbolTable
 70
    68
  0
BLOCK_RECORD
  5
A
330
1
100
AcDbSymbolTableRecord
100
AcDbBlockTableRecord
  2
*MODEL_SPACE
340
20
 70
     0
280
     1
281
     0
  0
BLOCK_RECORD
  5
B
330
1
100
AcDbSymbolTableRecord
100
AcDbBlockTableRecord
  2
*PAPER_SPACE
340
21
 70
     0
280
     1
281
     0
  0
BLOCK_RECORD
  5
4E
330
1
100
AcDbSymbolTableRecord
100
AcDbBlockTableRecord
  2
_DOT
340
0
102
{BLKREFS
331
D96
331
D97
331
DA5
331
DA6
331
E53
331
E54
331
1200
331
1201
331
124E
331
124F
331
125D
331
125E
331
1270
331
1271
331
1281
331
1282
331
1290
331
1291
331
129D
331
129E
331
12AA
331
12AB
331
12B7
331
12B8
331
12C4
331
12C5
331
12D1
331
12D2
331
12E0
331
12E1
331
12F9
331
12FA
331
1308
331
1309
331
1315
331
1316
331
1322
331
1323
331
13ED
331
13EE
331
13F9
331
13FA
331
1405
331
1406
331
1411
331
1412
331
141E
331
141F
331
142A
331
142B
331
1436
331
1437
331
1442
331
1443
331
144E
331
144F
331
145A
331
145B
331
1466
331
1467
331
1472
331
1473
331
147E
331
147F
331
148A
331
148B
331
1496
331
1497
331
14A2
331
14A3
331
15D9
331
15DA
331
1606
331
1607
331
1733
331
1734
331
173F
331
1740
331
174B
331
174C
331
1795
331
1796
331
17AA
331
17AB
331
17CF
331
17D0
331
17DF
331
17E0
331
17EF
331
17F0
331
17FF
331
1800
331
1814
331
1815
331
1870
331
1871
331
1C1C
331
1C1D
331
1C28
331
1C29
331
1C34
331
1C35
331
1C43
331
1C44
331
1C50
331
1C51
331
1C5D
331
1C5E
331
1CFC
331
1CFB
331
1D0B
331
1D0A
102
}
 70
     0
280
     1
281
     0
  0
BLOCK_RECORD
  5
68A
330
1
100
AcDbSymbolTableRecord
100
AcDbBlockTableRecord
  2
名称未設定-1
340
0
102
{BLKREFS
331
6B5
102
}
 70
     1
280
     1
281
     0
  0
BLOCK_RECORD
  5
68D
330
1
100
AcDbSymbolTableRecord
100
AcDbBlockTableRecord
  2
block 2
340
0
102
{BLKREFS
331
68C
331
1343
102
}
 70
     0
280
     1
281
     0
  0
BLOCK_RECORD
  5
690
330
1
100
AcDbSymbolTableRecord
100
AcDbBlockTableRecord
  2
block 3
340
0
102
{BLKREFS
331
68F
102
}
 70
     0
280
     1
281
     0
  0
BLOCK_RECORD
  5
693
330
1
100
AcDbSymbolTableRecord
100
AcDbBlockTableRecord
  2
block 4
340
0
102
{BLKREFS
331
692
102
}
 70
     0
280
     1
281
     0
  0
BLOCK_RECORD
  5
6A2
330
1
100
AcDbSymbolTableRecord
100
AcDbBlockTableRecord
  2
block 5
340
0
102
{BLKREFS
331
6A1
102
}
 70
     0
280
     1
281
     0
  0
BLOCK_RECORD
  5
D90
330
1
100
AcDbSymbolTableRecord
100
AcDbBlockTableRecord
  2
*D6
340
0
 70
     0
280
     1
281
     0
  0
BLOCK_RECORD
  5
D9F
330
1
100
AcDbSymbolTableRecord
100
AcDbBlockTableRecord
  2
*D7
340
0
 70
     0
280
     1
281
     0
  0
BLOCK_RECORD
  5
E4D
330
1
100
AcDbSymbolTableRecord
100
AcDbBlockTableRecord
  2
*D8
340
0
 70
     0
280
     1
281
     0
  0
BLOCK_RECORD
  5
11FC
330
1
100
AcDbSymbolTableRecord
100
AcDbBlockTableRecord
  2
*D9
340
0
 70
     0
280
     1
281
     0
  0
BLOCK_RECORD
  5
1249
330
1
100
AcDbSymbolTableRecord
100
AcDbBlockTableRecord
  2
*D10
340
0
 70
     0
280
     1
281
     0
  0
BLOCK_RECORD
  5
1258
330
1
100
AcDbSymbolTableRecord
100
AcDbBlockTableRecord
  2
*D11
340
0
 70
     0
280
     1
281
     0
  0
BLOCK_RECORD
  5
126A
330
1
100
AcDbSymbolTableRecord
100
AcDbBlockTableRecord
  2
*D12
340
0
 70
     0
280
     1
281
     0
  0
BLOCK_RECORD
  5
127C
330
1
100
AcDbSymbolTableRecord
100
AcDbBlockTableRecord
  2
*D13
340
0
 70
     0
280
     1
281
     0
  0
BLOCK_RECORD
  5
128B
330
1
100
AcDbSymbolTableRecord
100
AcDbBlockTableRecord
  2
*D14
340
0
 70
     0
280
     1
281
     0
  0
BLOCK_RECORD
  5
1298
330
1
100
AcDbSymbolTableRecord
100
AcDbBlockTableRecord
  2
*D15
340
0
 70
     0
280
     1
281
     0
  0
BLOCK_RECORD
  5
12A5
330
1
100
AcDbSymbolTableRecord
100
AcDbBlockTableRecord
  2
*D16
340
0
 70
     0
280
     1
281
     0
  0
BLOCK_RECORD
  5
12B2
330
1
100
AcDbSymbolTableRecord
100
AcDbBlockTableRecord
  2
*D17
340
0
 70
     0
280
     1
281
     0
  0
BLOCK_RECORD
  5
12BF
330
1
100
AcDbSymbolTableRecord
100
AcDbBlockTableRecord
  2
*D18
340
0
 70
     0
280
     1
281
     0
  0
BLOCK_RECORD
  5
12CC
330
1
100
AcDbSymbolTableRecord
100
AcDbBlockTableRecord
  2
*D19
340
0
 70
     0
280
     1
281
     0
  0
BLOCK_RECORD
  5
12DB
330
1
100
AcDbSymbolTableRecord
100
AcDbBlockTableRecord
  2
*D20
340
0
 70
     0
280
     1
281
     0
  0
BLOCK_RECORD
  5
12F4
330
1
100
AcDbSymbolTableRecord
100
AcDbBlockTableRecord
  2
*D21
340
0
 70
     0
280
     1
281
     0
  0
BLOCK_RECORD
  5
1303
330
1
100
AcDbSymbolTableRecord
100
AcDbBlockTableRecord
  2
*D22
340
0
 70
     0
280
     1
281
     0
  0
BLOCK_RECORD
  5
1310
330
1
100
AcDbSymbolTableRecord
100
AcDbBlockTableRecord
  2
*D23
340
0
 70
     0
280
     1
281
     0
  0
BLOCK_RECORD
  5
131D
330
1
100
AcDbSymbolTableRecord
100
AcDbBlockTableRecord
  2
*D24
340
0
 70
     0
280
     1
281
     0
  0
BLOCK_RECORD
  5
13E8
330
1
100
AcDbSymbolTableRecord
100
AcDbBlockTableRecord
  2
*D25
340
0
 70
     0
280
     1
281
     0
  0
BLOCK_RECORD
  5
13F3
330
1
100
AcDbSymbolTableRecord
100
AcDbBlockTableRecord
  2
*D26
340
0
 70
     0
280
     1
281
     0
  0
BLOCK_RECORD
  5
13FF
330
1
100
AcDbSymbolTableRecord
100
AcDbBlockTableRecord
  2
*D27
340
0
 70
     0
280
     1
281
     0
  0
BLOCK_RECORD
  5
140B
330
1
100
AcDbSymbolTableRecord
100
AcDbBlockTableRecord
  2
*D28
340
0
 70
     0
280
     1
281
     0
  0
BLOCK_RECORD
  5
1418
330
1
100
AcDbSymbolTableRecord
100
AcDbBlockTableRecord
  2
*D29
340
0
 70
     0
280
     1
281
     0
  0
BLOCK_RECORD
  5
1424
330
1
100
AcDbSymbolTableRecord
100
AcDbBlockTableRecord
  2
*D30
340
0
 70
     0
280
     1
281
     0
  0
BLOCK_RECORD
  5
1430
330
1
100
AcDbSymbolTableRecord
100
AcDbBlockTableRecord
  2
*D31
340
0
 70
     0
280
     1
281
     0
  0
BLOCK_RECORD
  5
143C
330
1
100
AcDbSymbolTableRecord
100
AcDbBlockTableRecord
  2
*D32
340
0
 70
     0
280
     1
281
     0
  0
BLOCK_RECORD
  5
1448
330
1
100
AcDbSymbolTableRecord
100
AcDbBlockTableRecord
  2
*D33
340
0
 70
     0
280
     1
281
     0
  0
BLOCK_RECORD
  5
1454
330
1
100
AcDbSymbolTableRecord
100
AcDbBlockTableRecord
  2
*D34
340
0
 70
     0
280
     1
281
     0
  0
BLOCK_RECORD
  5
1460
330
1
100
AcDbSymbolTableRecord
100
AcDbBlockTableRecord
  2
*D35
340
0
 70
     0
280
     1
281
     0
  0
BLOCK_RECORD
  5
146C
330
1
100
AcDbSymbolTableRecord
100
AcDbBlockTableRecord
  2
*D36
340
0
 70
     0
280
     1
281
     0
  0
BLOCK_RECORD
  5
1478
330
1
100
AcDbSymbolTableRecord
100
AcDbBlockTableRecord
  2
*D37
340
0
 70
     0
280
     1
281
     0
  0
BLOCK_RECORD
  5
1484
330
1
100
AcDbSymbolTableRecord
100
AcDbBlockTableRecord
  2
*D38
340
0
 70
     0
280
     1
281
     0
  0
BLOCK_RECORD
  5
1490
330
1
100
AcDbSymbolTableRecord
100
AcDbBlockTableRecord
  2
*D39
340
0
 70
     0
280
     1
281
     0
  0
BLOCK_RECORD
  5
149C
330
1
100
AcDbSymbolTableRecord
100
AcDbBlockTableRecord
  2
*D40
340
0
 70
     0
280
     1
281
     0
  0
BLOCK_RECORD
  5
15D3
330
1
100
AcDbSymbolTableRecord
100
AcDbBlockTableRecord
  2
*D41
340
0
 70
     0
280
     1
281
     0
  0
BLOCK_RECORD
  5
15FF
330
1
100
AcDbSymbolTableRecord
100
AcDbBlockTableRecord
  2
*D42
340
0
 70
     0
280
     1
281
     0
  0
BLOCK_RECORD
  5
1665
330
1
100
AcDbSymbolTableRecord
100
AcDbBlockTableRecord
  2
*D43
340
0
 70
     0
280
     1
281
     0
  0
BLOCK_RECORD
  5
16B0
330
1
100
AcDbSymbolTableRecord
100
AcDbBlockTableRecord
  2
*D44
340
0
 70
     0
280
     1
281
     0
  0
BLOCK_RECORD
  5
16BB
330
1
100
AcDbSymbolTableRecord
100
AcDbBlockTableRecord
  2
*D45
340
0
 70
     0
280
     1
281
     0
  0
BLOCK_RECORD
  5
172D
330
1
100
AcDbSymbolTableRecord
100
AcDbBlockTableRecord
  2
*D46
340
0
 70
     0
280
     1
281
     0
  0
BLOCK_RECORD
  5
1739
330
1
100
AcDbSymbolTableRecord
100
AcDbBlockTableRecord
  2
*D47
340
0
 70
     0
280
     1
281
     0
  0
BLOCK_RECORD
  5
1745
330
1
100
AcDbSymbolTableRecord
100
AcDbBlockTableRecord
  2
*D48
340
0
 70
     0
280
     1
281
     0
  0
BLOCK_RECORD
  5
178F
330
1
100
AcDbSymbolTableRecord
100
AcDbBlockTableRecord
  2
*D49
340
0
 70
     0
280
     1
281
     0
  0
BLOCK_RECORD
  5
17A4
330
1
100
AcDbSymbolTableRecord
100
AcDbBlockTableRecord
  2
*D50
340
0
 70
     0
280
     1
281
     0
  0
BLOCK_RECORD
  5
17C8
330
1
100
AcDbSymbolTableRecord
100
AcDbBlockTableRecord
  2
*D51
340
0
 70
     0
280
     1
281
     0
  0
BLOCK_RECORD
  5
17D8
330
1
100
AcDbSymbolTableRecord
100
AcDbBlockTableRecord
  2
*D52
340
0
 70
     0
280
     1
281
     0
  0
BLOCK_RECORD
  5
17E8
330
1
100
AcDbSymbolTableRecord
100
AcDbBlockTableRecord
  2
*D53
340
0
 70
     0
280
     1
281
     0
  0
BLOCK_RECORD
  5
17F9
330
1
100
AcDbSymbolTableRecord
100
AcDbBlockTableRecord
  2
*D54
340
0
 70
     0
280
     1
281
     0
  0
BLOCK_RECORD
  5
180E
330
1
100
AcDbSymbolTableRecord
100
AcDbBlockTableRecord
  2
*D55
340
0
 70
     0
280
     1
281
     0
  0
BLOCK_RECORD
  5
186A
330
1
100
AcDbSymbolTableRecord
100
AcDbBlockTableRecord
  2
*D56
340
0
 70
     0
280
     1
281
     0
  0
BLOCK_RECORD
  5
19CE
330
1
100
AcDbSymbolTableRecord
100
AcDbBlockTableRecord
  2
*D57
340
0
 70
     0
280
     1
281
     0
  0
BLOCK_RECORD
  5
1A3C
330
1
100
AcDbSymbolTableRecord
100
AcDbBlockTableRecord
  2
*D58
340
0
 70
     0
280
     1
281
     0
  0
BLOCK_RECORD
  5
1A46
330
1
100
AcDbSymbolTableRecord
100
AcDbBlockTableRecord
  2
*D59
340
0
 70
     0
280
     1
281
     0
  0
BLOCK_RECORD
  5
1C16
330
1
100
AcDbSymbolTableRecord
100
AcDbBlockTableRecord
  2
*D60
340
0
 70
     0
280
     1
281
     0
  0
BLOCK_RECORD
  5
1C22
330
1
100
AcDbSymbolTableRecord
100
AcDbBlockTableRecord
  2
*D61
340
0
 70
     0
280
     1
281
     0
  0
BLOCK_RECORD
  5
1C2E
330
1
100
AcDbSymbolTableRecord
100
AcDbBlockTableRecord
  2
*D62
340
0
 70
     0
280
     1
281
     0
  0
BLOCK_RECORD
  5
1C3D
330
1
100
AcDbSymbolTableRecord
100
AcDbBlockTableRecord
  2
*D63
340
0
 70
     0
280
     1
281
     0
  0
BLOCK_RECORD
  5
1C4A
330
1
100
AcDbSymbolTableRecord
100
AcDbBlockTableRecord
  2
*D64
340
0
 70
     0
280
     1
281
     0
  0
BLOCK_RECORD
  5
1C57
330
1
100
AcDbSymbolTableRecord
100
AcDbBlockTableRecord
  2
*D65
340
0
 70
     0
280
     1
281
     0
  0
BLOCK_RECORD
  5
1CF5
330
1
100
AcDbSymbolTableRecord
100
AcDbBlockTableRecord
  2
*D66
340
0
 70
     0
280
     1
281
     0
  0
BLOCK_RECORD
  5
1D04
330
1
100
AcDbSymbolTableRecord
100
AcDbBlockTableRecord
  2
*D67
340
0
 70
     0
280
     1
281
     0
  0
ENDTAB
  0
ENDSEC
  0
SECTION
  2
BLOCKS
  0
BLOCK
  5
D
330
A
100
AcDbEntity
  8
0
390
1D
100
AcDbBlockBegin
  2
*MODEL_SPACE
 70
     0
 10
0.0
 20
0.0
 30
0.0
  3
*MODEL_SPACE
  1
*MODEL_SPACE
  0
ENDBLK
  5
E
330
A
100
AcDbEntity
  8
0
390
1D
100
AcDbBlockEnd
  0
BLOCK
  5
F
330
B
100
AcDbEntity
 67
     1
  8
0
390
1D
100
AcDbBlockBegin
  2
*PAPER_SPACE
 70
     0
 10
0.0
 20
0.0
 30
0.0
  3
*PAPER_SPACE
  1
*PAPER_SPACE
  0
ENDBLK
  5
10
330
B
100
AcDbEntity
 67
     1
  8
0
390
1D
100
AcDbBlockEnd
  0
BLOCK
  5
17B3
330
4E
100
AcDbEntity
  8
0
390
1D
100
AcDbBlockBegin
  2
_DOT
 70
     0
 10
0.0
 20
0.0
 30
0.0
  3
_DOT
  1
_DOT
  0
POLYLINE
  5
17B5
330
4E
100
AcDbEntity
  8
0
  6
ByBlock
 62
     0
370
    -2
390
1D
100
AcDb2dPolyline
 66
     1
 10
0.0
 20
0.0
 30
0.0
 70
     1
 40
0.5
 41
0.5
  0
VERTEX
  5
17B6
330
17B5
100
AcDbEntity
  8
0
  6
ByBlock
 62
     0
370
    -2
390
1D
100
AcDbVertex
100
AcDb2dVertex
 10
-0.25
 20
0.0
 30
0.0
 42
1.0
  0
VERTEX
  5
17B7
330
17B5
100
AcDbEntity
  8
0
  6
ByBlock
 62
     0
370
    -2
390
1D
100
AcDbVertex
100
AcDb2dVertex
 10
0.25
 20
0.0
 30
0.0
 42
1.0
  0
SEQEND
  5
17B8
330
17B5
100
AcDbEntity
  8
0
390
1D
  0
LINE
  5
17B9
330
4E
100
AcDbEntity
  8
0
  6
ByBlock
 62
     0
370
    -2
390
1D
100
AcDbLine
 10
-0.5
 20
0.0
 30
0.0
 11
-1.0
 21
0.0
 31
0.0
  0
ENDBLK
  5
17BA
330
4E
100
AcDbEntity
  8
0
390
1D
100
AcDbBlockEnd
  0
BLOCK
  5
68B
330
68A
100
AcDbEntity
  8
0
100
AcDbBlockBegin
  2
名称未設定-1
 70
     0
 10
0.0
 20
0.0
 30
0.0
  3
名称未設定-1
  1
名称未設定-1
  0
INSERT
  5
68F
330
68A
100
AcDbEntity
  8
LOGO
100
AcDbBlockReference
  2
block 3
 10
0.0
 20
0.0
 30
0.0
  0
ENDBLK
  5
6B1
330
68A
100
AcDbEntity
  8
0
100
AcDbBlockEnd
  0
BLOCK
  5
68E
330
68D
100
AcDbEntity
  8
0
100
AcDbBlockBegin
  2
block 2
 70
     0
 10
0.0
 20
0.0
 30
0.0
  3
block 2
  1
block 2
  0
ENDBLK
  5
6B0
330
68D
100
AcDbEntity
  8
0
100
AcDbBlockEnd
  0
BLOCK
  5
691
330
690
100
AcDbEntity
  8
0
100
AcDbBlockBegin
  2
block 3
 70
     0
 10
0.0
 20
0.0
 30
0.0
  3
block 3
  1
block 3
  0
INSERT
  5
692
330
690
100
AcDbEntity
  8
LOGO
100
AcDbBlockReference
  2
block 4
 10
0.0
 20
0.0
 30
0.0
  0
INSERT
  5
6A1
330
690
100
AcDbEntity
  8
LOGO
100
AcDbBlockReference
  2
block 5
 10
0.0
 20
0.0
 30
0.0
  0
ENDBLK
  5
6AF
330
690
100
AcDbEntity
  8
0
100
AcDbBlockEnd
  0
BLOCK
  5
694
330
693
100
AcDbEntity
  8
0
100
AcDbBlockBegin
  2
block 4
 70
     0
 10
0.0
 20
0.0
 30
0.0
  3
block 4
  1
block 4
  0
POLYLINE
  5
695
330
693
100
AcDbEntity
  8
LOGO
370
     0
100
AcDb2dPolyline
 66
     1
 10
0.0
 20
0.0
 30
0.0
  0
VERTEX
  5
696
330
695
100
AcDbEntity
  8
LOGO
370
     0
100
AcDbVertex
100
AcDb2dVertex
 10
83.79545727667795
 20
167.6444858234922
 30
0.0
  0
VERTEX
  5
697
330
695
100
AcDbEntity
  8
LOGO
370
     0
100
AcDbVertex
100
AcDb2dVertex
 10
83.79545727667795
 20
159.7968976406313
 30
0.0
  0
VERTEX
  5
698
330
695
100
AcDbEntity
  8
LOGO
370
     0
100
AcDbVertex
100
AcDb2dVertex
 10
71.3631329975216
 20
159.7968976406313
 30
0.0
  0
VERTEX
  5
699
330
695
100
AcDbEntity
  8
LOGO
370
     0
100
AcDbVertex
100
AcDb2dVertex
 10
71.3631329975216
 20
127.8027915271048
 30
0.0
  0
VERTEX
  5
69A
330
695
100
AcDbEntity
  8
LOGO
370
     0
100
AcDbVertex
100
AcDb2dVertex
 10
60.43011526263018
 20
127.8027915271048
 30
0.0
  0
VERTEX
  5
69B
330
695
100
AcDbEntity
  8
LOGO
370
     0
100
AcDbVertex
100
AcDb2dVertex
 10
60.43011526263018
 20
159.7968976406313
 30
0.0
  0
VERTEX
  5
69C
330
695
100
AcDbEntity
  8
LOGO
370
     0
100
AcDbVertex
100
AcDb2dVertex
 10
48.21793273020759
 20
159.7968976406313
 30
0.0
  0
VERTEX
  5
69D
330
695
100
AcDbEntity
  8
LOGO
370
     0
100
AcDbVertex
100
AcDb2dVertex
 10
48.21793273020759
 20
167.6444858234922
 30
0.0
  0
VERTEX
  5
69E
330
695
100
AcDbEntity
  8
LOGO
370
     0
100
AcDbVertex
100
AcDb2dVertex
 10
83.79545727667795
 20
167.6444858234922
 30
0.0
  0
SEQEND
  5
69F
330
695
100
AcDbEntity
  8
LOGO
370
     0
  0
HATCH
  5
6A0
330
693
100
AcDbEntity
  8
LOGO
 62
   250
420
  2234388
100
AcDbHatch
 10
0.0
 20
0.0
 30
0.0
210
0.0
220
0.0
230
1.0
  2
SOLID
 70
     1
 71
     0
 91
        1
 92
        1
 93
        8
 72
     1
 10
83.79545727667795
 20
167.6444858234922
 11
83.79545727667795
 21
159.7968976406313
 72
     1
 10
83.79545727667795
 20
159.7968976406313
 11
71.3631329975216
 21
159.7968976406313
 72
     1
 10
71.3631329975216
 20
159.7968976406313
 11
71.3631329975216
 21
127.8027915271048
 72
     1
 10
71.3631329975216
 20
127.8027915271048
 11
60.43011526263018
 21
127.8027915271048
 72
     1
 10
60.43011526263018
 20
127.8027915271048
 11
60.43011526263018
 21
159.7968976406313
 72
     1
 10
60.43011526263018
 20
159.7968976406313
 11
48.21793273020759
 21
159.7968976406313
 72
     1
 10
48.21793273020759
 20
159.7968976406313
 11
48.21793273020759
 21
167.6444858234922
 72
     1
 10
48.21793273020759
 20
167.6444858234922
 11
83.79545727667795
 21
167.6444858234922
 97
        0
 75
     2
 76
     1
 98
        0
  0
ENDBLK
  5
6AE
330
693
100
AcDbEntity
  8
0
100
AcDbBlockEnd
  0
BLOCK
  5
6A3
330
6A2
100
AcDbEntity
  8
0
100
AcDbBlockBegin
  2
block 5
 70
     0
 10
0.0
 20
0.0
 30
0.0
  3
block 5
  1
block 5
  0
SPLINE
  5
6A4
330
6A2
100
AcDbEntity
  8
LOGO
370
     0
100
AcDbSpline
210
0.0
220
0.0
230
1.0
 70
    11
 71
     3
 72
    56
 73
    52
 74
     0
 42
0.000000001
 43
0.0000000001
 40
0.0
 40
0.0
 40
0.0
 40
0.0
 40
1.0
 40
1.0
 40
1.0
 40
2.0
 40
2.0
 40
2.0
 40
3.0
 40
3.0
 40
3.0
 40
4.0
 40
4.0
 40
4.0
 40
5.0
 40
5.0
 40
5.0
 40
6.0
 40
6.0
 40
6.0
 40
7.0
 40
7.0
 40
7.0
 40
8.0
 40
8.0
 40
8.0
 40
9.0
 40
9.0
 40
9.0
 40
10.0
 40
10.0
 40
10.0
 40
11.0
 40
11.0
 40
11.0
 40
12.0
 40
12.0
 40
12.0
 40
13.0
 40
13.0
 40
13.0
 40
14.0
 40
14.0
 40
14.0
 40
15.0
 40
15.0
 40
15.0
 40
16.0
 40
16.0
 40
16.0
 40
17.0
 40
17.0
 40
17.0
 40
17.0
 10
100.4504378777679
 20
166.69157178364
 30
0.0
 10
101.9848844191641
 20
167.1313385124438
 30
0.0
 10
103.9637485713373
 20
166.7649523658846
 30
0.0
 10
103.9637485713373
 20
166.7649523658846
 30
0.0
 10
103.9637485713373
 20
166.7649523658846
 30
0.0
 10
103.0132460999156
 20
163.911205638077
 30
0.0
 10
103.0132460999156
 20
163.911205638077
 30
0.0
 10
103.0132460999156
 20
163.911205638077
 30
0.0
 10
101.0674548862189
 20
164.3601018759394
 30
0.0
 10
99.57090442016032
 20
163.1805004036133
 30
0.0
 10
98.40508333886608
 20
162.258247733807
 30
0.0
 10
97.65301849830304
 20
159.804132345923
 30
0.0
 10
97.3598406791005
 20
158.8699940888517
 30
0.0
 10
97.3598406791005
 20
158.8699940888517
 30
0.0
 10
96.07137411762282
 20
154.9119212747295
 30
0.0
 10
96.07137411762282
 20
154.9119212747295
 30
0.0
 10
96.07137411762282
 20
154.9119212747295
 30
0.0
 10
100.3012651448482
 20
154.9119212747295
 30
0.0
 10
100.3012651448482
 20
154.9119212747295
 30
0.0
 10
100.3012651448482
 20
154.9119212747295
 30
0.0
 10
99.64152892419852
 20
152.4199098115079
 30
0.0
 10
99.64152892419852
 20
152.4199098115079
 30
0.0
 10
99.64152892419852
 20
152.4199098115079
 30
0.0
 10
95.38097652692731
 20
152.4199098115079
 30
0.0
 10
95.38097652692731
 20
152.4199098115079
 30
0.0
 10
95.38097652692731
 20
152.4199098115079
 30
0.0
 10
87.75353009080013
 20
127.8027915271048
 30
0.0
 10
87.75353009080013
 20
127.8027915271048
 30
0.0
 10
87.75353009080013
 20
127.8027915271048
 30
0.0
 10
85.36538832498108
 20
127.8027915271048
 30
0.0
 10
85.36538832498108
 20
127.8027915271048
 30
0.0
 10
85.36538832498108
 20
127.8027915271048
 30
0.0
 10
93.00006946639998
 20
152.4199098115079
 30
0.0
 10
93.00006946639998
 20
152.4199098115079
 30
0.0
 10
93.00006946639998
 20
152.4199098115079
 30
0.0
 10
89.85297266450198
 20
152.4199098115079
 30
0.0
 10
89.85297266450198
 20
152.4199098115079
 30
0.0
 10
89.85297266450198
 20
152.4199098115079
 30
0.0
 10
90.51270888515164
 20
154.9119212747295
 30
0.0
 10
90.51270888515164
 20
154.9119212747295
 30
0.0
 10
90.51270888515164
 20
154.9119212747295
 30
0.0
 10
93.6904670570955
 20
154.9119212747295
 30
0.0
 10
93.6904670570955
 20
154.9119212747295
 30
0.0
 10
93.6904670570955
 20
154.9119212747295
 30
0.0
 10
94.81598049462158
 20
158.3616699146644
 30
0.0
 10
94.81598049462158
 20
158.3616699146644
 30
0.0
 10
95.7237637538445
 20
161.2605474231013
 30
0.0
 10
96.4968436907311
 20
162.8139420021662
 30
0.0
 10
97.15657991138076
 20
163.9844139654337
 30
0.0
 10
97.81183750494507
 20
165.1523021053827
 30
0.0
 10
99.1047826935081
 20
166.3084769129547
 30
0.0
 10
100.4504378777679
 20
166.69157178364
 30
0.0
  0
HATCH
  5
6A5
330
6A2
100
AcDbEntity
  8
LOGO
 62
   250
420
  2234388
100
AcDbHatch
 10
0.0
 20
0.0
 30
0.0
210
0.0
220
0.0
230
1.0
  2
SOLID
 70
     1
 71
     0
 91
        1
 92
        1
 93
        1
 72
     4
 94
        3
 73
     0
 74
     1
 95
       56
 96
       52
 40
0.0
 40
0.0
 40
0.0
 40
0.0
 40
1.0
 40
1.0
 40
1.0
 40
2.0
 40
2.0
 40
2.0
 40
3.0
 40
3.0
 40
3.0
 40
4.0
 40
4.0
 40
4.0
 40
5.0
 40
5.0
 40
5.0
 40
6.0
 40
6.0
 40
6.0
 40
7.0
 40
7.0
 40
7.0
 40
8.0
 40
8.0
 40
8.0
 40
9.0
 40
9.0
 40
9.0
 40
10.0
 40
10.0
 40
10.0
 40
11.0
 40
11.0
 40
11.0
 40
12.0
 40
12.0
 40
12.0
 40
13.0
 40
13.0
 40
13.0
 40
14.0
 40
14.0
 40
14.0
 40
15.0
 40
15.0
 40
15.0
 40
16.0
 40
16.0
 40
16.0
 40
17.0
 40
17.0
 40
17.0
 40
17.0
 10
100.4504378777679
 20
166.69157178364
 10
101.9848844191641
 20
167.1313385124438
 10
103.9637485713373
 20
166.7649523658846
 10
103.9637485713373
 20
166.7649523658846
 10
103.9637485713373
 20
166.7649523658846
 10
103.0132460999156
 20
163.911205638077
 10
103.0132460999156
 20
163.911205638077
 10
103.0132460999156
 20
163.911205638077
 10
101.0674548862189
 20
164.3601018759394
 10
99.57090442016032
 20
163.1805004036133
 10
98.40508333886608
 20
162.258247733807
 10
97.65301849830304
 20
159.804132345923
 10
97.3598406791005
 20
158.8699940888517
 10
97.3598406791005
 20
158.8699940888517
 10
96.07137411762282
 20
154.9119212747295
 10
96.07137411762282
 20
154.9119212747295
 10
96.07137411762282
 20
154.9119212747295
 10
100.3012651448482
 20
154.9119212747295
 10
100.3012651448482
 20
154.9119212747295
 10
100.3012651448482
 20
154.9119212747295
 10
99.64152892419852
 20
152.4199098115079
 10
99.64152892419852
 20
152.4199098115079
 10
99.64152892419852
 20
152.4199098115079
 10
95.38097652692731
 20
152.4199098115079
 10
95.38097652692731
 20
152.4199098115079
 10
95.38097652692731
 20
152.4199098115079
 10
87.75353009080013
 20
127.8027915271048
 10
87.75353009080013
 20
127.8027915271048
 10
87.75353009080013
 20
127.8027915271048
 10
85.36538832498108
 20
127.8027915271048
 10
85.36538832498108
 20
127.8027915271048
 10
85.36538832498108
 20
127.8027915271048
 10
93.00006946639998
 20
152.4199098115079
 10
93.00006946639998
 20
152.4199098115079
 10
93.00006946639998
 20
152.4199098115079
 10
89.85297266450198
 20
152.4199098115079
 10
89.85297266450198
 20
152.4199098115079
 10
89.85297266450198
 20
152.4199098115079
 10
90.51270888515164
 20
154.9119212747295
 10
90.51270888515164
 20
154.9119212747295
 10
90.51270888515164
 20
154.9119212747295
 10
93.6904670570955
 20
154.9119212747295
 10
93.6904670570955
 20
154.9119212747295
 10
93.6904670570955
 20
154.9119212747295
 10
94.81598049462158
 20
158.3616699146644
 10
94.81598049462158
 20
158.3616699146644
 10
95.7237637538445
 20
161.2605474231013
 10
96.4968436907311
 20
162.8139420021662
 10
97.15657991138076
 20
163.9844139654337
 10
97.81183750494507
 20
165.1523021053827
 10
99.1047826935081
 20
166.3084769129547
 10
100.4504378777679
 20
166.69157178364
 97
        0
 75
     2
 76
     1
 98
        0
  0
SPLINE
  5
6A6
330
6A2
100
AcDbEntity
  8
LOGO
370
     0
100
AcDbSpline
210
0.0
220
0.0
230
1.0
 70
    11
 71
     3
 72
    38
 73
    34
 74
     0
 42
0.000000001
 43
0.0000000001
 40
0.0
 40
0.0
 40
0.0
 40
0.0
 40
1.0
 40
1.0
 40
1.0
 40
2.0
 40
2.0
 40
2.0
 40
3.0
 40
3.0
 40
3.0
 40
4.0
 40
4.0
 40
4.0
 40
5.0
 40
5.0
 40
5.0
 40
6.0
 40
6.0
 40
6.0
 40
7.0
 40
7.0
 40
7.0
 40
8.0
 40
8.0
 40
8.0
 40
9.0
 40
9.0
 40
9.0
 40
10.0
 40
10.0
 40
10.0
 40
11.0
 40
11.0
 40
11.0
 40
11.0
 10
126.377554584636
 20
154.8151140277308
 30
0.0
 10
126.377554584636
 20
154.8151140277308
 30
0.0
 10
128.8311532078563
 20
154.8151140277308
 30
0.0
 10
128.8311532078563
 20
154.8151140277308
 30
0.0
 10
128.8311532078563
 20
154.8151140277308
 30
0.0
 10
127.7345785914971
 20
151.3062819612468
 30
0.0
 10
127.7345785914971
 20
151.3062819612468
 30
0.0
 10
128.571392836906
 20
152.2922689395754
 30
0.0
 10
129.8860421413442
 20
153.604506675583
 30
0.0
 10
131.0163787157314
 20
154.2664822097754
 30
0.0
 10
132.7044766171327
 20
155.2500576196734
 30
0.0
 10
133.6642808525008
 20
155.3847609420097
 30
0.0
 10
134.7284715499351
 20
155.3565111403944
 30
0.0
 10
134.7284715499351
 20
155.3565111403944
 30
0.0
 10
133.6877075172549
 20
152.0345756272799
 30
0.0
 10
133.6877075172549
 20
152.0345756272799
 30
0.0
 10
133.011434827367
 20
152.3184516825359
 30
0.0
 10
130.930940291334
 20
151.7768823149844
 30
0.0
 10
129.739280976855
 20
150.9162968950455
 30
0.0
 10
128.66613302525
 20
150.1454562717016
 30
0.0
 10
127.9192358313239
 20
149.4857200510519
 30
0.0
 10
127.0393578639405
 20
147.8282835196966
 30
0.0
 10
126.164647543194
 20
146.1699857139017
 30
0.0
 10
125.4742499524985
 20
143.5262176944419
 30
0.0
 10
124.2822461282437
 20
139.6959580071401
 30
0.0
 10
124.2822461282437
 20
139.6959580071401
 30
0.0
 10
120.5753209406769
 20
127.8027915271048
 30
0.0
 10
120.5753209406769
 20
127.8027915271048
 30
0.0
 10
120.5753209406769
 20
127.8027915271048
 30
0.0
 10
118.1964809388044
 20
127.8027915271048
 30
0.0
 10
118.1964809388044
 20
127.8027915271048
 30
0.0
 10
118.1964809388044
 20
127.8027915271048
 30
0.0
 10
126.377554584636
 20
154.8151140277308
 30
0.0
 10
126.377554584636
 20
154.8151140277308
 30
0.0
  0
HATCH
  5
6A7
330
6A2
100
AcDbEntity
  8
LOGO
 62
   250
420
  2234388
100
AcDbHatch
 10
0.0
 20
0.0
 30
0.0
210
0.0
220
0.0
230
1.0
  2
SOLID
 70
     1
 71
     0
 91
        1
 92
        1
 93
        1
 72
     4
 94
        3
 73
     0
 74
     1
 95
       38
 96
       34
 40
0.0
 40
0.0
 40
0.0
 40
0.0
 40
1.0
 40
1.0
 40
1.0
 40
2.0
 40
2.0
 40
2.0
 40
3.0
 40
3.0
 40
3.0
 40
4.0
 40
4.0
 40
4.0
 40
5.0
 40
5.0
 40
5.0
 40
6.0
 40
6.0
 40
6.0
 40
7.0
 40
7.0
 40
7.0
 40
8.0
 40
8.0
 40
8.0
 40
9.0
 40
9.0
 40
9.0
 40
10.0
 40
10.0
 40
10.0
 40
11.0
 40
11.0
 40
11.0
 40
11.0
 10
126.377554584636
 20
154.8151140277308
 10
126.377554584636
 20
154.8151140277308
 10
128.8311532078563
 20
154.8151140277308
 10
128.8311532078563
 20
154.8151140277308
 10
128.8311532078563
 20
154.8151140277308
 10
127.7345785914971
 20
151.3062819612468
 10
127.7345785914971
 20
151.3062819612468
 10
128.571392836906
 20
152.2922689395754
 10
129.8860421413442
 20
153.604506675583
 10
131.0163787157314
 20
154.2664822097754
 10
132.7044766171327
 20
155.2500576196734
 10
133.6642808525008
 20
155.3847609420097
 10
134.7284715499351
 20
155.3565111403944
 10
134.7284715499351
 20
155.3565111403944
 10
133.6877075172549
 20
152.0345756272799
 10
133.6877075172549
 20
152.0345756272799
 10
133.011434827367
 20
152.3184516825359
 10
130.930940291334
 20
151.7768823149844
 10
129.739280976855
 20
150.9162968950455
 10
128.66613302525
 20
150.1454562717016
 10
127.9192358313239
 20
149.4857200510519
 10
127.0393578639405
 20
147.8282835196966
 10
126.164647543194
 20
146.1699857139017
 10
125.4742499524985
 20
143.5262176944419
 10
124.2822461282437
 20
139.6959580071401
 10
124.2822461282437
 20
139.6959580071401
 10
120.5753209406769
 20
127.8027915271048
 10
120.5753209406769
 20
127.8027915271048
 10
120.5753209406769
 20
127.8027915271048
 10
118.1964809388044
 20
127.8027915271048
 10
118.1964809388044
 20
127.8027915271048
 10
118.1964809388044
 20
127.8027915271048
 10
126.377554584636
 20
154.8151140277308
 10
126.377554584636
 20
154.8151140277308
 97
        0
 75
     2
 76
     1
 98
        0
  0
SPLINE
  5
6A8
330
6A2
100
AcDbEntity
  8
LOGO
370
     0
100
AcDbSpline
210
0.0
220
0.0
230
1.0
 70
    11
 71
     3
 72
   104
 73
   100
 74
     0
 42
0.000000001
 43
0.0000000001
 40
0.0
 40
0.0
 40
0.0
 40
0.0
 40
1.0
 40
1.0
 40
1.0
 40
2.0
 40
2.0
 40
2.0
 40
3.0
 40
3.0
 40
3.0
 40
4.0
 40
4.0
 40
4.0
 40
5.0
 40
5.0
 40
5.0
 40
6.0
 40
6.0
 40
6.0
 40
7.0
 40
7.0
 40
7.0
 40
8.0
 40
8.0
 40
8.0
 40
9.0
 40
9.0
 40
9.0
 40
10.0
 40
10.0
 40
10.0
 40
11.0
 40
11.0
 40
11.0
 40
12.0
 40
12.0
 40
12.0
 40
13.0
 40
13.0
 40
13.0
 40
14.0
 40
14.0
 40
14.0
 40
15.0
 40
15.0
 40
15.0
 40
16.0
 40
16.0
 40
16.0
 40
17.0
 40
17.0
 40
17.0
 40
18.0
 40
18.0
 40
18.0
 40
19.0
 40
19.0
 40
19.0
 40
20.0
 40
20.0
 40
20.0
 40
21.0
 40
21.0
 40
21.0
 40
22.0
 40
22.0
 40
22.0
 40
23.0
 40
23.0
 40
23.0
 40
24.0
 40
24.0
 40
24.0
 40
25.0
 40
25.0
 40
25.0
 40
26.0
 40
26.0
 40
26.0
 40
27.0
 40
27.0
 40
27.0
 40
28.0
 40
28.0
 40
28.0
 40
29.0
 40
29.0
 40
29.0
 40
30.0
 40
30.0
 40
30.0
 40
31.0
 40
31.0
 40
31.0
 40
32.0
 40
32.0
 40
32.0
 40
33.0
 40
33.0
 40
33.0
 40
33.0
 10
139.8926730891197
 20
154.8294111834263
 30
0.0
 10
139.8926730891197
 20
154.8294111834263
 30
0.0
 10
142.0344903652445
 20
154.8294111834263
 30
0.0
 10
142.0344903652445
 20
154.8294111834263
 30
0.0
 10
142.0344903652445
 20
154.8294111834263
 30
0.0
 10
140.9516961399171
 20
151.3157559800812
 30
0.0
 10
140.9516961399171
 20
151.3157559800812
 30
0.0
 10
141.8928968473923
 20
152.7887075264977
 30
0.0
 10
142.7341897198865
 20
153.4484437471474
 30
0.0
 10
143.8552245303272
 20
154.2926649527359
 30
0.0
 10
144.9803934580775
 20
155.1296514530327
 30
0.0
 10
146.3139908001845
 20
155.3044901642492
 30
0.0
 10
147.241066606852
 20
155.3044901642492
 30
0.0
 10
148.3855280820469
 20
155.3044901642492
 30
0.0
 10
149.4969166187653
 20
155.0752189084569
 30
0.0
 10
150.0784491203092
 20
153.8172414621372
 30
0.0
 10
150.5228667310863
 20
152.833838307127
 30
0.0
 10
150.5414702589793
 20
152.7201500811143
 30
0.0
 10
150.4140016419347
 20
150.7765981809602
 30
0.0
 10
151.5818897818837
 20
152.7699317437168
 30
0.0
 10
152.4424752018226
 20
153.6256940267945
 30
0.0
 10
153.9038856707499
 20
154.4507949398263
 30
0.0
 10
155.4455669174378
 20
155.3044901642492
 30
0.0
 10
156.339225275853
 20
155.3659851592288
 30
0.0
 10
157.3748216618963
 20
155.2147453676543
 30
0.0
 10
158.911679771723
 20
154.9877134254046
 30
0.0
 10
159.8859534176746
 20
154.4390816074493
 30
0.0
 10
160.3965169054045
 20
152.7816450760939
 30
0.0
 10
160.9070803931344
 20
151.1219692311958
 30
0.0
 10
160.6328506116007
 20
150.2303779314354
 30
0.0
 10
159.9992971339115
 20
147.597634224801
 30
0.0
 10
159.7105979417943
 20
146.4014962832367
 30
0.0
 10
159.2947746424084
 20
144.9400858143094
 30
0.0
 10
158.7463150793409
 20
143.2092687007094
 30
0.0
 10
158.7463150793409
 20
143.2092687007094
 30
0.0
 10
153.9038856707499
 20
127.8027915271048
 30
0.0
 10
153.9038856707499
 20
127.8027915271048
 30
0.0
 10
153.9038856707499
 20
127.8027915271048
 30
0.0
 10
151.3882752878863
 20
127.8027915271048
 30
0.0
 10
151.3882752878863
 20
127.8027915271048
 30
0.0
 10
151.3882752878863
 20
127.8027915271048
 30
0.0
 10
155.6250565106276
 20
141.2751908193897
 30
0.0
 10
155.6250565106276
 20
141.2751908193897
 30
0.0
 10
156.5094131050963
 20
144.0936252951782
 30
0.0
 10
157.109893644309
 20
146.1506931664571
 30
0.0
 10
157.4220195011804
 20
147.4415712963654
 30
0.0
 10
157.8095929989511
 20
149.0530157726519
 30
0.0
 10
157.9656559273867
 20
149.5826995529385
 30
0.0
 10
157.7816877071116
 20
150.7529992613181
 30
0.0
 10
157.6111553680925
 20
151.8430281919372
 30
0.0
 10
157.0582171779396
 20
152.5547853887321
 30
0.0
 10
156.1170164704645
 20
152.5547853887321
 30
0.0
 10
155.1096698860365
 20
152.5547853887321
 30
0.0
 10
154.2962823053817
 20
152.4412694176073
 30
0.0
 10
153.156643967048
 20
151.2945686288697
 30
0.0
 10
152.0170056287143
 20
150.1476955852443
 30
0.0
 10
151.076149431015
 20
148.7930831468137
 30
0.0
 10
150.3337308641742
 20
147.2290087646991
 30
0.0
 10
149.5957909244188
 20
145.6683794803425
 30
0.0
 10
148.8530278478023
 20
143.6822806228776
 30
0.0
 10
148.0964843801539
 20
141.2751908193897
 30
0.0
 10
148.0964843801539
 20
141.2751908193897
 30
0.0
 10
143.8552245303272
 20
127.8027915271048
 30
0.0
 10
143.8552245303272
 20
127.8027915271048
 30
0.0
 10
143.8552245303272
 20
127.8027915271048
 30
0.0
 10
141.486030802177
 20
127.8027915271048
 30
0.0
 10
141.486030802177
 20
127.8027915271048
 30
0.0
 10
141.486030802177
 20
127.8027915271048
 30
0.0
 10
146.3329388378533
 20
143.2092687007094
 30
0.0
 10
146.3329388378533
 20
143.2092687007094
 30
0.0
 10
146.8483254624444
 20
144.8408669988801
 30
0.0
 10
147.2314203331297
 20
146.1837661049335
 30
0.0
 10
147.4867020769946
 20
147.224185627838
 30
0.0
 10
147.9169947869641
 20
149.0197705792876
 30
0.0
 10
148.0306830129768
 20
150.2400242051577
 30
0.0
 10
147.709255392159
 20
151.3157559800812
 30
0.0
 10
147.3874832615654
 20
152.3916600098926
 30
0.0
 10
146.8245542879144
 20
152.6683013598569
 30
0.0
 10
145.8840425999909
 20
152.6683013598569
 30
0.0
 10
145.0989048209514
 20
152.6683013598569
 30
0.0
 10
144.3282364524954
 20
152.3275811915945
 30
0.0
 10
143.4531816219731
 20
151.6538923250251
 30
0.0
 10
142.34627171234
 20
150.8074318058939
 30
0.0
 10
141.901854101563
 20
150.1097995099067
 30
0.0
 10
141.3578731655808
 20
149.289521733736
 30
0.0
 10
140.6299240093235
 20
148.192602607601
 30
0.0
 10
140.2850697237515
 20
147.455696197173
 30
0.0
 10
139.6652966370942
 20
145.8385673095858
 30
0.0
 10
139.0506911970739
 20
144.2214384219986
 30
0.0
 10
138.463991048893
 20
142.3252566160164
 30
0.0
 10
138.0571250036777
 20
141.0154304484394
 30
0.0
 10
138.0571250036777
 20
141.0154304484394
 30
0.0
 10
133.9009590684727
 20
127.8027915271048
 30
0.0
 10
133.9009590684727
 20
127.8027915271048
 30
0.0
 10
133.9009590684727
 20
127.8027915271048
 30
0.0
 10
131.4180771143097
 20
127.8027915271048
 30
0.0
 10
131.4180771143097
 20
127.8027915271048
 30
0.0
 10
131.4180771143097
 20
127.8027915271048
 30
0.0
 10
139.8926730891197
 20
154.8294111834263
 30
0.0
 10
139.8926730891197
 20
154.8294111834263
 30
0.0
  0
HATCH
  5
6A9
330
6A2
100
AcDbEntity
  8
LOGO
 62
   250
420
  2234388
100
AcDbHatch
 10
0.0
 20
0.0
 30
0.0
210
0.0
220
0.0
230
1.0
  2
SOLID
 70
     1
 71
     0
 91
        1
 92
        1
 93
        1
 72
     4
 94
        3
 73
     0
 74
     1
 95
      104
 96
      100
 40
0.0
 40
0.0
 40
0.0
 40
0.0
 40
1.0
 40
1.0
 40
1.0
 40
2.0
 40
2.0
 40
2.0
 40
3.0
 40
3.0
 40
3.0
 40
4.0
 40
4.0
 40
4.0
 40
5.0
 40
5.0
 40
5.0
 40
6.0
 40
6.0
 40
6.0
 40
7.0
 40
7.0
 40
7.0
 40
8.0
 40
8.0
 40
8.0
 40
9.0
 40
9.0
 40
9.0
 40
10.0
 40
10.0
 40
10.0
 40
11.0
 40
11.0
 40
11.0
 40
12.0
 40
12.0
 40
12.0
 40
13.0
 40
13.0
 40
13.0
 40
14.0
 40
14.0
 40
14.0
 40
15.0
 40
15.0
 40
15.0
 40
16.0
 40
16.0
 40
16.0
 40
17.0
 40
17.0
 40
17.0
 40
18.0
 40
18.0
 40
18.0
 40
19.0
 40
19.0
 40
19.0
 40
20.0
 40
20.0
 40
20.0
 40
21.0
 40
21.0
 40
21.0
 40
22.0
 40
22.0
 40
22.0
 40
23.0
 40
23.0
 40
23.0
 40
24.0
 40
24.0
 40
24.0
 40
25.0
 40
25.0
 40
25.0
 40
26.0
 40
26.0
 40
26.0
 40
27.0
 40
27.0
 40
27.0
 40
28.0
 40
28.0
 40
28.0
 40
29.0
 40
29.0
 40
29.0
 40
30.0
 40
30.0
 40
30.0
 40
31.0
 40
31.0
 40
31.0
 40
32.0
 40
32.0
 40
32.0
 40
33.0
 40
33.0
 40
33.0
 40
33.0
 10
139.8926730891197
 20
154.8294111834263
 10
139.8926730891197
 20
154.8294111834263
 10
142.0344903652445
 20
154.8294111834263
 10
142.0344903652445
 20
154.8294111834263
 10
142.0344903652445
 20
154.8294111834263
 10
140.9516961399171
 20
151.3157559800812
 10
140.9516961399171
 20
151.3157559800812
 10
141.8928968473923
 20
152.7887075264977
 10
142.7341897198865
 20
153.4484437471474
 10
143.8552245303272
 20
154.2926649527359
 10
144.9803934580775
 20
155.1296514530327
 10
146.3139908001845
 20
155.3044901642492
 10
147.241066606852
 20
155.3044901642492
 10
148.3855280820469
 20
155.3044901642492
 10
149.4969166187653
 20
155.0752189084569
 10
150.0784491203092
 20
153.8172414621372
 10
150.5228667310863
 20
152.833838307127
 10
150.5414702589793
 20
152.7201500811143
 10
150.4140016419347
 20
150.7765981809602
 10
151.5818897818837
 20
152.7699317437168
 10
152.4424752018226
 20
153.6256940267945
 10
153.9038856707499
 20
154.4507949398263
 10
155.4455669174378
 20
155.3044901642492
 10
156.339225275853
 20
155.3659851592288
 10
157.3748216618963
 20
155.2147453676543
 10
158.911679771723
 20
154.9877134254046
 10
159.8859534176746
 20
154.4390816074493
 10
160.3965169054045
 20
152.7816450760939
 10
160.9070803931344
 20
151.1219692311958
 10
160.6328506116007
 20
150.2303779314354
 10
159.9992971339115
 20
147.597634224801
 10
159.7105979417943
 20
146.4014962832367
 10
159.2947746424084
 20
144.9400858143094
 10
158.7463150793409
 20
143.2092687007094
 10
158.7463150793409
 20
143.2092687007094
 10
153.9038856707499
 20
127.8027915271048
 10
153.9038856707499
 20
127.8027915271048
 10
153.9038856707499
 20
127.8027915271048
 10
151.3882752878863
 20
127.8027915271048
 10
151.3882752878863
 20
127.8027915271048
 10
151.3882752878863
 20
127.8027915271048
 10
155.6250565106276
 20
141.2751908193897
 10
155.6250565106276
 20
141.2751908193897
 10
156.5094131050963
 20
144.0936252951782
 10
157.109893644309
 20
146.1506931664571
 10
157.4220195011804
 20
147.4415712963654
 10
157.8095929989511
 20
149.0530157726519
 10
157.9656559273867
 20
149.5826995529385
 10
157.7816877071116
 20
150.7529992613181
 10
157.6111553680925
 20
151.8430281919372
 10
157.0582171779396
 20
152.5547853887321
 10
156.1170164704645
 20
152.5547853887321
 10
155.1096698860365
 20
152.5547853887321
 10
154.2962823053817
 20
152.4412694176073
 10
153.156643967048
 20
151.2945686288697
 10
152.0170056287143
 20
150.1476955852443
 10
151.076149431015
 20
148.7930831468137
 10
150.3337308641742
 20
147.2290087646991
 10
149.5957909244188
 20
145.6683794803425
 10
148.8530278478023
 20
143.6822806228776
 10
148.0964843801539
 20
141.2751908193897
 10
148.0964843801539
 20
141.2751908193897
 10
143.8552245303272
 20
127.8027915271048
 10
143.8552245303272
 20
127.8027915271048
 10
143.8552245303272
 20
127.8027915271048
 10
141.486030802177
 20
127.8027915271048
 10
141.486030802177
 20
127.8027915271048
 10
141.486030802177
 20
127.8027915271048
 10
146.3329388378533
 20
143.2092687007094
 10
146.3329388378533
 20
143.2092687007094
 10
146.8483254624444
 20
144.8408669988801
 10
147.2314203331297
 20
146.1837661049335
 10
147.4867020769946
 20
147.224185627838
 10
147.9169947869641
 20
149.0197705792876
 10
148.0306830129768
 20
150.2400242051577
 10
147.709255392159
 20
151.3157559800812
 10
147.3874832615654
 20
152.3916600098926
 10
146.8245542879144
 20
152.6683013598569
 10
145.8840425999909
 20
152.6683013598569
 10
145.0989048209514
 20
152.6683013598569
 10
144.3282364524954
 20
152.3275811915945
 10
143.4531816219731
 20
151.6538923250251
 10
142.34627171234
 20
150.8074318058939
 10
141.901854101563
 20
150.1097995099067
 10
141.3578731655808
 20
149.289521733736
 10
140.6299240093235
 20
148.192602607601
 10
140.2850697237515
 20
147.455696197173
 10
139.6652966370942
 20
145.8385673095858
 10
139.0506911970739
 20
144.2214384219986
 10
138.463991048893
 20
142.3252566160164
 10
138.0571250036777
 20
141.0154304484394
 10
138.0571250036777
 20
141.0154304484394
 10
133.9009590684727
 20
127.8027915271048
 10
133.9009590684727
 20
127.8027915271048
 10
133.9009590684727
 20
127.8027915271048
 10
131.4180771143097
 20
127.8027915271048
 10
131.4180771143097
 20
127.8027915271048
 10
131.4180771143097
 20
127.8027915271048
 10
139.8926730891197
 20
154.8294111834263
 10
139.8926730891197
 20
154.8294111834263
 97
        0
 75
     2
 76
     1
 98
        0
  0
SPLINE
  5
6AA
330
6A2
100
AcDbEntity
  8
LOGO
370
     0
100
AcDbSpline
210
0.0
220
0.0
230
1.0
 70
    11
 71
     3
 72
    29
 73
    25
 74
     0
 42
0.000000001
 43
0.0000000001
 40
0.0
 40
0.0
 40
0.0
 40
0.0
 40
1.0
 40
1.0
 40
1.0
 40
2.0
 40
2.0
 40
2.0
 40
3.0
 40
3.0
 40
3.0
 40
4.0
 40
4.0
 40
4.0
 40
5.0
 40
5.0
 40
5.0
 40
6.0
 40
6.0
 40
6.0
 40
7.0
 40
7.0
 40
7.0
 40
8.0
 40
8.0
 40
8.0
 40
8.0
 10
101.6420971922469
 20
132.8388354296931
 30
0.0
 10
101.630039350094
 20
134.7164137077823
 30
0.0
 10
102.2236296937908
 20
138.0598810818841
 30
0.0
 10
103.7487744712405
 20
142.5378191476827
 30
0.0
 10
105.819967243327
 20
148.5896501242061
 30
0.0
 10
107.0602024361932
 20
150.8074318058939
 30
0.0
 10
108.1522984254671
 20
151.8833358357054
 30
0.0
 10
109.741177511439
 20
153.4532668840085
 30
0.0
 10
111.8740375333931
 20
153.5290590346837
 30
0.0
 10
112.5075910110823
 20
153.4532668840085
 30
0.0
 10
113.4012493694975
 20
153.3490526768302
 30
0.0
 10
114.6683563248758
 20
152.7580461564518
 30
0.0
 10
114.7493161221879
 20
150.7838328862519
 30
0.0
 10
114.8106388622796
 20
149.0909118479895
 30
0.0
 10
114.3186789024427
 20
145.9191825971221
 30
0.0
 10
112.6164561002338
 20
140.9489400617108
 30
0.0
 10
110.6444821435766
 20
135.1746117095912
 30
0.0
 10
109.4669477299053
 20
132.8960240524753
 30
0.0
 10
108.5212683953448
 20
131.9072809959403
 30
0.0
 10
106.7346406980658
 20
130.0538184021569
 30
0.0
 10
104.8222669326213
 20
130.2336525051225
 30
0.0
 10
104.5408024457958
 20
130.2336525051225
 30
0.0
 10
104.1721769856939
 20
130.2336525051225
 30
0.0
 10
101.6465758193322
 20
130.6305277668397
 30
0.0
 10
101.6420971922469
 20
132.8388354296931
 30
0.0
  0
SPLINE
  5
6AB
330
6A2
100
AcDbEntity
  8
LOGO
370
     0
100
AcDbSpline
210
0.0
220
0.0
230
1.0
 70
    11
 71
     3
 72
    32
 73
    28
 74
     0
 42
0.000000001
 43
0.0000000001
 40
0.0
 40
0.0
 40
0.0
 40
0.0
 40
1.0
 40
1.0
 40
1.0
 40
2.0
 40
2.0
 40
2.0
 40
3.0
 40
3.0
 40
3.0
 40
4.0
 40
4.0
 40
4.0
 40
5.0
 40
5.0
 40
5.0
 40
6.0
 40
6.0
 40
6.0
 40
7.0
 40
7.0
 40
7.0
 40
8.0
 40
8.0
 40
8.0
 40
9.0
 40
9.0
 40
9.0
 40
9.0
 10
106.2595617172429
 20
153.4105476718098
 30
0.0
 10
104.8222669326213
 20
151.5474388043041
 30
0.0
 10
103.7177685914188
 20
149.8758773721411
 30
0.0
 10
101.9232171692965
 20
144.6141795664062
 30
0.0
 10
100.2754269116635
 20
139.7999999594306
 30
0.0
 10
99.22777268346732
 20
136.3052927937542
 30
0.0
 10
99.06964269637689
 20
132.039572749846
 30
0.0
 10
98.94665270641765
 20
128.8673267343149
 30
0.0
 10
100.8807305877373
 20
127.8027915271048
 30
0.0
 10
103.7129454545577
 20
127.8027915271048
 30
0.0
 10
104.9352661390825
 20
127.8027915271048
 30
0.0
 10
108.0151835347002
 20
127.8827177950895
 30
0.0
 10
110.2045431598849
 20
130.5926316915021
 30
0.0
 10
111.7417457794874
 20
132.4984597712065
 30
0.0
 10
113.155269389579
 20
134.475256864725
 30
0.0
 10
115.0562743324223
 20
140.9489400617108
 30
0.0
 10
116.6361961642235
 20
146.3680788349845
 30
0.0
 10
117.7282921534974
 20
149.8639917848761
 30
0.0
 10
117.6480213757369
 20
151.8595646611754
 30
0.0
 10
117.6480213757369
 20
151.8595646611754
 30
0.0
 10
117.6480213757369
 20
151.8595646611754
 30
0.0
 10
117.6480213757369
 20
151.8595646611754
 30
0.0
 10
117.13229024137
 20
155.18150017429
 30
0.0
 10
114.7162431837115
 20
155.886194920681
 30
0.0
 10
113.3351034925446
 20
155.886194920681
 30
0.0
 10
111.9829026225447
 20
155.886194920681
 30
0.0
 10
108.3414342923792
 20
156.1251124501957
 30
0.0
 10
106.2595617172429
 20
153.4105476718098
 30
0.0
  0
HATCH
  5
6AC
330
6A2
100
AcDbEntity
  8
LOGO
 62
   250
420
  2234388
100
AcDbHatch
 10
0.0
 20
0.0
 30
0.0
210
0.0
220
0.0
230
1.0
  2
SOLID
 70
     1
 71
     0
 91
        2
 92
        1
 93
        1
 72
     4
 94
        3
 73
     0
 74
     1
 95
       29
 96
       25
 40
0.0
 40
0.0
 40
0.0
 40
0.0
 40
1.0
 40
1.0
 40
1.0
 40
2.0
 40
2.0
 40
2.0
 40
3.0
 40
3.0
 40
3.0
 40
4.0
 40
4.0
 40
4.0
 40
5.0
 40
5.0
 40
5.0
 40
6.0
 40
6.0
 40
6.0
 40
7.0
 40
7.0
 40
7.0
 40
8.0
 40
8.0
 40
8.0
 40
8.0
 10
101.6420971922469
 20
132.8388354296931
 10
101.630039350094
 20
134.7164137077823
 10
102.2236296937908
 20
138.0598810818841
 10
103.7487744712405
 20
142.5378191476827
 10
105.819967243327
 20
148.5896501242061
 10
107.0602024361932
 20
150.8074318058939
 10
108.1522984254671
 20
151.8833358357054
 10
109.741177511439
 20
153.4532668840085
 10
111.8740375333931
 20
153.5290590346837
 10
112.5075910110823
 20
153.4532668840085
 10
113.4012493694975
 20
153.3490526768302
 10
114.6683563248758
 20
152.7580461564518
 10
114.7493161221879
 20
150.7838328862519
 10
114.8106388622796
 20
149.0909118479895
 10
114.3186789024427
 20
145.9191825971221
 10
112.6164561002338
 20
140.9489400617108
 10
110.6444821435766
 20
135.1746117095912
 10
109.4669477299053
 20
132.8960240524753
 10
108.5212683953448
 20
131.9072809959403
 10
106.7346406980658
 20
130.0538184021569
 10
104.8222669326213
 20
130.2336525051225
 10
104.5408024457958
 20
130.2336525051225
 10
104.1721769856939
 20
130.2336525051225
 10
101.6465758193322
 20
130.6305277668397
 10
101.6420971922469
 20
132.8388354296931
 97
        0
 92
        1
 93
        1
 72
     4
 94
        3
 73
     0
 74
     1
 95
       32
 96
       28
 40
0.0
 40
0.0
 40
0.0
 40
0.0
 40
1.0
 40
1.0
 40
1.0
 40
2.0
 40
2.0
 40
2.0
 40
3.0
 40
3.0
 40
3.0
 40
4.0
 40
4.0
 40
4.0
 40
5.0
 40
5.0
 40
5.0
 40
6.0
 40
6.0
 40
6.0
 40
7.0
 40
7.0
 40
7.0
 40
8.0
 40
8.0
 40
8.0
 40
9.0
 40
9.0
 40
9.0
 40
9.0
 10
106.2595617172429
 20
153.4105476718098
 10
104.8222669326213
 20
151.5474388043041
 10
103.7177685914188
 20
149.8758773721411
 10
101.9232171692965
 20
144.6141795664062
 10
100.2754269116635
 20
139.7999999594306
 10
99.22777268346732
 20
136.3052927937542
 10
99.06964269637689
 20
132.039572749846
 10
98.94665270641765
 20
128.8673267343149
 10
100.8807305877373
 20
127.8027915271048
 10
103.7129454545577
 20
127.8027915271048
 10
104.9352661390825
 20
127.8027915271048
 10
108.0151835347002
 20
127.8827177950895
 10
110.2045431598849
 20
130.5926316915021
 10
111.7417457794874
 20
132.4984597712065
 10
113.155269389579
 20
134.475256864725
 10
115.0562743324223
 20
140.9489400617108
 10
116.6361961642235
 20
146.3680788349845
 10
117.7282921534974
 20
149.8639917848761
 10
117.6480213757369
 20
151.8595646611754
 10
117.6480213757369
 20
151.8595646611754
 10
117.6480213757369
 20
151.8595646611754
 10
117.6480213757369
 20
151.8595646611754
 10
117.13229024137
 20
155.18150017429
 10
114.7162431837115
 20
155.886194920681
 10
113.3351034925446
 20
155.886194920681
 10
111.9829026225447
 20
155.886194920681
 10
108.3414342923792
 20
156.1251124501957
 10
106.2595617172429
 20
153.4105476718098
 97
        0
 75
     2
 76
     1
 98
        0
  0
ENDBLK
  5
6AD
330
6A2
100
AcDbEntity
  8
0
100
AcDbBlockEnd
  0
BLOCK
  5
D91
330
D90
100
AcDbEntity
  8
0
100
AcDbBlockBegin
  2
*D6
 70
     1
 10
0.0
 20
0.0
 30
0.0
  3
*D6
  1
*D6
  0
LINE
  5
D93
330
D90
100
AcDbEntity
  8
DIM
 62
     0
370
    -2
100
AcDbLine
 10
194.9013848396499
 20
991.8781341107873
 30
0.0
 11
194.9013848396499
 21
940.5413793571681
 31
0.0
  0
LINE
  5
D94
330
D90
100
AcDbEntity
  8
DIM
 62
     0
370
    -2
100
AcDbLine
 10
521.6879737609329
 20
991.8781341107873
 30
0.0
 11
521.6879737609329
 21
940.5413793571681
 31
0.0
  0
LINE
  5
D95
330
D90
100
AcDbEntity
  8
DIM
 62
     0
370
    -2
100
AcDbLine
 10
200.9013848396499
 20
940.5413793571681
 30
0.0
 11
515.6879737609329
 21
940.5413793571681
 31
0.0
  0
INSERT
  5
D96
330
D90
100
AcDbEntity
  8
DIM
 62
     0
370
    -2
100
AcDbBlockReference
  2
_DOT
 10
194.9013848396499
 20
940.5413793571681
 30
0.0
 41
6.0
 42
6.0
 43
6.0
 50
180.0
  0
INSERT
  5
D97
330
D90
100
AcDbEntity
  8
DIM
 62
     0
370
    -2
100
AcDbBlockReference
  2
_DOT
 10
521.6879737609329
 20
940.5413793571681
 30
0.0
 41
6.0
 42
6.0
 43
6.0
  0
MTEXT
  5
D98
330
D90
100
AcDbEntity
  8
DIM
 62
     0
100
AcDbMText
 10
358.2946793002914
 20
956.5413793571681
 30
0.0
 40
12.0
 41
0.0
 46
0.0
 71
     5
 72
     1
  1
\A1;327
  7
ＭＳ ゴシック
 73
     1
 44
1.0
  0
POINT
  5
D99
330
D90
100
AcDbEntity
  8
Defpoints
 62
     0
100
AcDbPoint
 10
194.9013848396499
 20
1011.878134110787
 30
0.0
  0
POINT
  5
D9A
330
D90
100
AcDbEntity
  8
Defpoints
 62
     0
100
AcDbPoint
 10
521.6879737609329
 20
1011.878134110787
 30
0.0
  0
POINT
  5
D9B
330
D90
100
AcDbEntity
  8
Defpoints
 62
     0
100
AcDbPoint
 10
521.6879737609329
 20
940.5413793571681
 30
0.0
  0
ENDBLK
  5
D92
330
D90
100
AcDbEntity
  8
0
100
AcDbBlockEnd
  0
BLOCK
  5
DA0
330
D9F
100
AcDbEntity
  8
0
100
AcDbBlockBegin
  2
*D7
 70
     1
 10
0.0
 20
0.0
 30
0.0
  3
*D7
  1
*D7
  0
LINE
  5
DA2
330
D9F
100
AcDbEntity
  8
DIM
 62
     0
370
    -2
100
AcDbLine
 10
541.6879737609329
 20
1259.176093294461
 30
0.0
 11
592.27223683134
 21
1259.176093294461
 31
0.0
  0
LINE
  5
DA3
330
D9F
100
AcDbEntity
  8
DIM
 62
     0
370
    -2
100
AcDbLine
 10
541.6879737609329
 20
1011.878134110787
 30
0.0
 11
592.27223683134
 21
1011.878134110787
 31
0.0
  0
LINE
  5
DA4
330
D9F
100
AcDbEntity
  8
DIM
 62
     0
370
    -2
100
AcDbLine
 10
592.27223683134
 20
1253.176093294461
 30
0.0
 11
592.27223683134
 21
1017.878134110787
 31
0.0
  0
INSERT
  5
DA5
330
D9F
100
AcDbEntity
  8
DIM
 62
     0
370
    -2
100
AcDbBlockReference
  2
_DOT
 10
592.27223683134
 20
1259.176093294461
 30
0.0
 41
6.0
 42
6.0
 43
6.0
 50
90.0
  0
INSERT
  5
DA6
330
D9F
100
AcDbEntity
  8
DIM
 62
     0
370
    -2
100
AcDbBlockReference
  2
_DOT
 10
592.27223683134
 20
1011.878134110787
 30
0.0
 41
6.0
 42
6.0
 43
6.0
 50
270.0
  0
MTEXT
  5
DA7
330
D9F
100
AcDbEntity
  8
DIM
 62
     0
100
AcDbMText
 10
576.27223683134
 20
1135.527113702624
 30
0.0
 40
12.0
 41
0.0
 46
0.0
 71
     5
 72
     1
  1
\A1;247
  7
ＭＳ ゴシック
 11
0.0
 21
1.0
 31
0.0
 73
     1
 44
1.0
  0
POINT
  5
DA8
330
D9F
100
AcDbEntity
  8
Defpoints
 62
     0
100
AcDbPoint
 10
521.6879737609329
 20
1259.176093294461
 30
0.0
  0
POINT
  5
DA9
330
D9F
100
AcDbEntity
  8
Defpoints
 62
     0
100
AcDbPoint
 10
521.6879737609329
 20
1011.878134110787
 30
0.0
  0
POINT
  5
DAA
330
D9F
100
AcDbEntity
  8
Defpoints
 62
     0
100
AcDbPoint
 10
592.27223683134
 20
1011.878134110787
 30
0.0
  0
ENDBLK
  5
DA1
330
D9F
100
AcDbEntity
  8
0
100
AcDbBlockEnd
  0
BLOCK
  5
E4E
330
E4D
100
AcDbEntity
  8
0
100
AcDbBlockBegin
  2
*D8
 70
     1
 10
0.0
 20
0.0
 30
0.0
  3
*D8
  1
*D8
  0
LINE
  5
E50
330
E4D
100
AcDbEntity
  8
HIDDEN
  6
HIDDEN
 62
     0
 48
0.05
370
    -2
100
AcDbLine
 10
322.9663994169097
 20
836.4046647230323
 30
0.0
 11
322.9663994169097
 21
978.7578717201168
 31
0.0
  0
LINE
  5
E51
330
E4D
100
AcDbEntity
  8
HIDDEN
  6
HIDDEN
 62
     0
 48
0.05
370
    -2
100
AcDbLine
 10
640.9209183673471
 20
836.4046647230323
 30
0.0
 11
640.9209183673471
 21
978.7578717201168
 31
0.0
  0
LINE
  5
E52
330
E4D
100
AcDbEntity
  8
HIDDEN
  6
HIDDEN
 62
     0
 48
0.05
370
    -2
100
AcDbLine
 10
325.9663994169097
 20
978.7578717201168
 30
0.0
 11
637.9209183673471
 21
978.7578717201168
 31
0.0
  0
INSERT
  5
E53
330
E4D
100
AcDbEntity
  8
HIDDEN
 62
     0
370
    -2
100
AcDbBlockReference
  2
_DOT
 10
322.9663994169097
 20
978.7578717201168
 30
0.0
 41
3.0
 42
3.0
 43
3.0
 50
180.0
  0
INSERT
  5
E54
330
E4D
100
AcDbEntity
  8
HIDDEN
 62
     0
370
    -2
100
AcDbBlockReference
  2
_DOT
 10
640.9209183673471
 20
978.7578717201168
 30
0.0
 41
3.0
 42
3.0
 43
3.0
  0
MTEXT
  5
E55
330
E4D
100
AcDbEntity
  8
HIDDEN
  6
HIDDEN
 62
     0
 48
0.05
100
AcDbMText
 10
481.9436588921284
 20
994.7578717201168
 30
0.0
 40
12.0
 41
0.0
 46
0.0
 71
     5
 72
     1
  1
\A1;318
  7
ＭＳ ゴシック
 73
     1
 44
1.0
  0
POINT
  5
E56
330
E4D
100
AcDbEntity
  8
Defpoints
 62
     0
100
AcDbPoint
 10
322.9663994169097
 20
826.4046647230323
 30
0.0
  0
POINT
  5
E57
330
E4D
100
AcDbEntity
  8
Defpoints
 62
     0
100
AcDbPoint
 10
640.9209183673471
 20
826.4046647230323
 30
0.0
  0
POINT
  5
E58
330
E4D
100
AcDbEntity
  8
Defpoints
 62
     0
100
AcDbPoint
 10
640.9209183673471
 20
978.7578717201168
 30
0.0
  0
ENDBLK
  5
E4F
330
E4D
100
AcDbEntity
  8
0
100
AcDbBlockEnd
  0
BLOCK
  5
11FD
330
11FC
100
AcDbEntity
  8
0
100
AcDbBlockBegin
  2
*D9
 70
     1
 10
0.0
 20
0.0
 30
0.0
  3
*D9
  1
*D141
  0
LINE
  5
11FE
330
11FC
100
AcDbEntity
  8
DIM
  6
Continuous
 62
     0
370
    -2
100
AcDbLine
 10
1448.56022934476
 20
1077.090453293982
 30
0.0
 11
1448.56022934476
 21
1203.742453293982
 31
0.0
  0
LINE
  5
11FF
330
11FC
100
AcDbEntity
  8
DIM
  6
Continuous
 62
     0
370
    -2
100
AcDbLine
 10
1448.56022934476
 20
1074.090453293982
 30
0.0
 11
1448.56022934476
 21
1004.488599905444
 31
0.0
  0
INSERT
  5
1200
330
11FC
100
AcDbEntity
  8
DIM
 62
     0
370
    -2
100
AcDbBlockReference
  2
_DOT
 10
1448.56022934476
 20
1077.090453293982
 30
0.0
 41
3.0
 42
3.0
 43
3.0
 50
90.0
  0
INSERT
  5
1201
330
11FC
100
AcDbEntity
  8
DIM
 62
     0
370
    -2
100
AcDbBlockReference
  2
_DOT
 10
1448.56022934476
 20
1001.488599905444
 30
0.0
 41
3.0
 42
3.0
 43
3.0
 50
270.0
  0
MTEXT
  5
1202
330
11FC
100
AcDbEntity
  8
DIM
 62
     0
 48
0.05
100
AcDbMText
 10
1431.49822934476
 20
1164.858453293982
 30
0.0
 40
12.0
 41
0.0
 46
0.0
 71
     5
 72
     1
  1
\A1;75(深さ)
  7
ＭＳ ゴシック
 11
0.0
 21
1.0
 31
0.0
 73
     1
 44
1.0
  0
POINT
  5
1203
330
11FC
100
AcDbEntity
  8
Defpoints
 62
     0
100
AcDbPoint
 10
1471.671489326533
 20
1077.090453293982
 30
0.0
  0
POINT
  5
1204
330
11FC
100
AcDbEntity
  8
Defpoints
 62
     0
100
AcDbPoint
 10
1448.56022934476
 20
1001.488599905444
 30
0.0
  0
POINT
  5
1205
330
11FC
100
AcDbEntity
  8
Defpoints
 62
     0
100
AcDbPoint
 10
1448.56022934476
 20
1001.488599905444
 30
0.0
  0
ENDBLK
  5
1206
330
11FC
100
AcDbEntity
  8
0
100
AcDbBlockEnd
  0
BLOCK
  5
124A
330
1249
100
AcDbEntity
  8
0
100
AcDbBlockBegin
  2
*D10
 70
     1
 10
0.0
 20
0.0
 30
0.0
  3
*D10
  1
*D145
  0
LINE
  5
124B
330
1249
100
AcDbEntity
  8
DIM
  6
Continuous
 62
     0
370
    -2
100
AcDbLine
 10
1467.244907837198
 20
1959.395394639839
 30
0.0
 11
1617.583641015255
 21
1959.395394639839
 31
0.0
  0
LINE
  5
124C
330
1249
100
AcDbEntity
  8
DIM
  6
Continuous
 62
     0
370
    -2
100
AcDbLine
 10
1467.244907837198
 20
2124.395394639839
 30
0.0
 11
1617.583641015255
 21
2124.395394639839
 31
0.0
  0
LINE
  5
124D
330
1249
100
AcDbEntity
  8
DIM
  6
Continuous
 62
     0
370
    -2
100
AcDbLine
 10
1617.583641015255
 20
1962.395394639839
 30
0.0
 11
1617.583641015255
 21
2121.395394639839
 31
0.0
  0
INSERT
  5
124E
330
1249
100
AcDbEntity
  8
DIM
 62
     0
370
    -2
100
AcDbBlockReference
  2
_DOT
 10
1617.583641015255
 20
1959.395394639839
 30
0.0
 41
3.0
 42
3.0
 43
3.0
 50
270.0
  0
INSERT
  5
124F
330
1249
100
AcDbEntity
  8
DIM
 62
     0
370
    -2
100
AcDbBlockReference
  2
_DOT
 10
1617.583641015255
 20
2124.395394639839
 30
0.0
 41
3.0
 42
3.0
 43
3.0
 50
90.0
  0
MTEXT
  5
1250
330
1249
100
AcDbEntity
  8
DIM
 62
     0
 48
0.05
100
AcDbMText
 10
1601.583641015255
 20
2041.895394639839
 30
0.0
 40
12.0
 41
0.0
 46
0.0
 71
     5
 72
     1
  1
\A1;165
  7
ＭＳ ゴシック
 11
0.0
 21
1.0
 31
0.0
 73
     1
 44
1.0
  0
POINT
  5
1251
330
1249
100
AcDbEntity
  8
Defpoints
 62
     0
100
AcDbPoint
 10
1457.244907837198
 20
1959.395394639839
 30
0.0
  0
POINT
  5
1252
330
1249
100
AcDbEntity
  8
Defpoints
 62
     0
100
AcDbPoint
 10
1457.244907837198
 20
2124.395394639839
 30
0.0
  0
POINT
  5
1253
330
1249
100
AcDbEntity
  8
Defpoints
 62
     0
100
AcDbPoint
 10
1617.583641015255
 20
2124.395394639839
 30
0.0
  0
ENDBLK
  5
1254
330
1249
100
AcDbEntity
  8
0
100
AcDbBlockEnd
  0
BLOCK
  5
1259
330
1258
100
AcDbEntity
  8
0
100
AcDbBlockBegin
  2
*D11
 70
     1
 10
0.0
 20
0.0
 30
0.0
  3
*D11
  1
*D146
  0
LINE
  5
125A
330
1258
100
AcDbEntity
  8
DIM
  6
Continuous
 62
     0
370
    -2
100
AcDbLine
 10
1357.244907837198
 20
1949.395394639839
 30
0.0
 11
1357.244907837198
 21
1789.071925503803
 31
0.0
  0
LINE
  5
125B
330
1258
100
AcDbEntity
  8
DIM
  6
Continuous
 62
     0
370
    -2
100
AcDbLine
 10
1457.244907837198
 20
1949.395394639839
 30
0.0
 11
1457.244907837198
 21
1789.071925503803
 31
0.0
  0
LINE
  5
125C
330
1258
100
AcDbEntity
  8
DIM
  6
Continuous
 62
     0
370
    -2
100
AcDbLine
 10
1360.244907837198
 20
1789.071925503803
 30
0.0
 11
1454.244907837198
 21
1789.071925503803
 31
0.0
  0
INSERT
  5
125D
330
1258
100
AcDbEntity
  8
DIM
 62
     0
370
    -2
100
AcDbBlockReference
  2
_DOT
 10
1357.244907837198
 20
1789.071925503803
 30
0.0
 41
3.0
 42
3.0
 43
3.0
 50
180.0
  0
INSERT
  5
125E
330
1258
100
AcDbEntity
  8
DIM
 62
     0
370
    -2
100
AcDbBlockReference
  2
_DOT
 10
1457.244907837198
 20
1789.071925503803
 30
0.0
 41
3.0
 42
3.0
 43
3.0
  0
MTEXT
  5
125F
330
1258
100
AcDbEntity
  8
DIM
 62
     0
 48
0.05
100
AcDbMText
 10
1407.244907837198
 20
1805.071925503803
 30
0.0
 40
12.0
 41
0.0
 46
0.0
 71
     5
 72
     1
  1
\A1;100
  7
ＭＳ ゴシック
 73
     1
 44
1.0
  0
POINT
  5
1260
330
1258
100
AcDbEntity
  8
Defpoints
 62
     0
100
AcDbPoint
 10
1357.244907837198
 20
1959.395394639839
 30
0.0
  0
POINT
  5
1261
330
1258
100
AcDbEntity
  8
Defpoints
 62
     0
100
AcDbPoint
 10
1457.244907837198
 20
1959.395394639839
 30
0.0
  0
POINT
  5
1262
330
1258
100
AcDbEntity
  8
Defpoints
 62
     0
100
AcDbPoint
 10
1457.244907837198
 20
1789.071925503803
 30
0.0
  0
ENDBLK
  5
1263
330
1258
100
AcDbEntity
  8
0
100
AcDbBlockEnd
  0
BLOCK
  5
126B
330
126A
100
AcDbEntity
  8
0
100
AcDbBlockBegin
  2
*D12
 70
     1
 10
0.0
 20
0.0
 30
0.0
  3
*D12
  1
*D149
  0
LINE
  5
126C
330
126A
100
AcDbEntity
  8
DIM
  6
Continuous
 62
     0
370
    -2
100
AcDbLine
 10
1467.244907837198
 20
2124.395394639839
 30
0.0
 11
1617.583641015255
 21
2124.395394639839
 31
0.0
  0
LINE
  5
126D
330
126A
100
AcDbEntity
  8
DIM
  6
Continuous
 62
     0
370
    -2
100
AcDbLine
 10
1467.244907837198
 20
2139.395394639839
 30
0.0
 11
1617.583641015255
 21
2139.395394639839
 31
0.0
  0
LINE
  5
126E
330
126A
100
AcDbEntity
  8
DIM
  6
Continuous
 62
     0
370
    -2
100
AcDbLine
 10
1617.583641015255
 20
2139.395394639839
 30
0.0
 11
1617.583641015255
 21
2199.123394639839
 31
0.0
  0
LINE
  5
126F
330
126A
100
AcDbEntity
  8
DIM
  6
Continuous
 62
     0
370
    -2
100
AcDbLine
 10
1617.583641015255
 20
2127.395394639839
 30
0.0
 11
1617.583641015255
 21
2136.395394639839
 31
0.0
  0
INSERT
  5
1270
330
126A
100
AcDbEntity
  8
DIM
 62
     0
370
    -2
100
AcDbBlockReference
  2
_DOT
 10
1617.583641015255
 20
2124.395394639839
 30
0.0
 41
3.0
 42
3.0
 43
3.0
 50
270.0
  0
INSERT
  5
1271
330
126A
100
AcDbEntity
  8
DIM
 62
     0
370
    -2
100
AcDbBlockReference
  2
_DOT
 10
1617.583641015255
 20
2139.395394639839
 30
0.0
 41
3.0
 42
3.0
 43
3.0
 50
90.0
  0
MTEXT
  5
1272
330
126A
100
AcDbEntity
  8
DIM
 62
     0
 48
0.05
100
AcDbMText
 10
1601.583641015255
 20
2182.547394639839
 30
0.0
 40
12.0
 41
0.0
 46
0.0
 71
     5
 72
     1
  1
\A1;15
  7
ＭＳ ゴシック
 11
0.0
 21
1.0
 31
0.0
 73
     1
 44
1.0
  0
POINT
  5
1273
330
126A
100
AcDbEntity
  8
Defpoints
 62
     0
100
AcDbPoint
 10
1457.244907837198
 20
2124.395394639839
 30
0.0
  0
POINT
  5
1274
330
126A
100
AcDbEntity
  8
Defpoints
 62
     0
100
AcDbPoint
 10
1457.244907837198
 20
2139.395394639839
 30
0.0
  0
POINT
  5
1275
330
126A
100
AcDbEntity
  8
Defpoints
 62
     0
100
AcDbPoint
 10
1617.583641015255
 20
2139.395394639839
 30
0.0
  0
ENDBLK
  5
1276
330
126A
100
AcDbEntity
  8
0
100
AcDbBlockEnd
  0
BLOCK
  5
127D
330
127C
100
AcDbEntity
  8
0
100
AcDbBlockBegin
  2
*D13
 70
     1
 10
0.0
 20
0.0
 30
0.0
  3
*D13
  1
*D152
  0
LINE
  5
127E
330
127C
100
AcDbEntity
  8
DIM
  6
Continuous
 62
     0
370
    -2
100
AcDbLine
 10
528.3625009477164
 20
2149.395394639839
 30
0.0
 11
528.3625009477164
 21
2233.454839079049
 31
0.0
  0
LINE
  5
127F
330
127C
100
AcDbEntity
  8
DIM
  6
Continuous
 62
     0
370
    -2
100
AcDbLine
 10
808.3625009477164
 20
2149.395394639839
 30
0.0
 11
808.3625009477164
 21
2233.454839079049
 31
0.0
  0
LINE
  5
1280
330
127C
100
AcDbEntity
  8
DIM
  6
Continuous
 62
     0
370
    -2
100
AcDbLine
 10
531.3625009477164
 20
2233.454839079049
 30
0.0
 11
805.3625009477164
 21
2233.454839079049
 31
0.0
  0
INSERT
  5
1281
330
127C
100
AcDbEntity
  8
DIM
 62
     0
370
    -2
100
AcDbBlockReference
  2
_DOT
 10
528.3625009477164
 20
2233.454839079049
 30
0.0
 41
3.0
 42
3.0
 43
3.0
 50
180.0
  0
INSERT
  5
1282
330
127C
100
AcDbEntity
  8
DIM
 62
     0
370
    -2
100
AcDbBlockReference
  2
_DOT
 10
808.3625009477164
 20
2233.454839079049
 30
0.0
 41
3.0
 42
3.0
 43
3.0
  0
MTEXT
  5
1283
330
127C
100
AcDbEntity
  8
DIM
 62
     0
 48
0.05
100
AcDbMText
 10
668.3625009477164
 20
2249.454839079049
 30
0.0
 40
12.0
 41
0.0
 46
0.0
 71
     5
 72
     1
  1
\A1;280
  7
ＭＳ ゴシック
 73
     1
 44
1.0
  0
POINT
  5
1284
330
127C
100
AcDbEntity
  8
Defpoints
 62
     0
100
AcDbPoint
 10
528.3625009477164
 20
2139.395394639839
 30
0.0
  0
POINT
  5
1285
330
127C
100
AcDbEntity
  8
Defpoints
 62
     0
100
AcDbPoint
 10
808.3625009477164
 20
2139.395394639839
 30
0.0
  0
POINT
  5
1286
330
127C
100
AcDbEntity
  8
Defpoints
 62
     0
100
AcDbPoint
 10
808.3625009477164
 20
2233.454839079049
 30
0.0
  0
ENDBLK
  5
1287
330
127C
100
AcDbEntity
  8
0
100
AcDbBlockEnd
  0
BLOCK
  5
128C
330
128B
100
AcDbEntity
  8
0
100
AcDbBlockBegin
  2
*D14
 70
     1
 10
0.0
 20
0.0
 30
0.0
  3
*D14
  1
*D153
  0
LINE
  5
128D
330
128B
100
AcDbEntity
  8
DIM
  6
Continuous
 62
     0
370
    -2
100
AcDbLine
 10
818.3625009477164
 20
2139.395394639839
 30
0.0
 11
943.0573581501604
 21
2139.395394639839
 31
0.0
  0
LINE
  5
128E
330
128B
100
AcDbEntity
  8
DIM
  6
Continuous
 62
     0
370
    -2
100
AcDbLine
 10
818.3625009477164
 20
1869.395394639839
 30
0.0
 11
943.0573581501604
 21
1869.395394639839
 31
0.0
  0
LINE
  5
128F
330
128B
100
AcDbEntity
  8
DIM
  6
Continuous
 62
     0
370
    -2
100
AcDbLine
 10
943.0573581501604
 20
2136.395394639839
 30
0.0
 11
943.0573581501604
 21
1872.395394639839
 31
0.0
  0
INSERT
  5
1290
330
128B
100
AcDbEntity
  8
DIM
 62
     0
370
    -2
100
AcDbBlockReference
  2
_DOT
 10
943.0573581501604
 20
2139.395394639839
 30
0.0
 41
3.0
 42
3.0
 43
3.0
 50
90.0
  0
INSERT
  5
1291
330
128B
100
AcDbEntity
  8
DIM
 62
     0
370
    -2
100
AcDbBlockReference
  2
_DOT
 10
943.0573581501604
 20
1869.395394639839
 30
0.0
 41
3.0
 42
3.0
 43
3.0
 50
270.0
  0
MTEXT
  5
1292
330
128B
100
AcDbEntity
  8
DIM
 62
     0
 48
0.05
100
AcDbMText
 10
927.0573581501604
 20
2004.395394639839
 30
0.0
 40
12.0
 41
0.0
 46
0.0
 71
     5
 72
     1
  1
\A1;270
  7
ＭＳ ゴシック
 11
0.0
 21
1.0
 31
0.0
 73
     1
 44
1.0
  0
POINT
  5
1293
330
128B
100
AcDbEntity
  8
Defpoints
 62
     0
100
AcDbPoint
 10
808.3625009477164
 20
2139.395394639839
 30
0.0
  0
POINT
  5
1294
330
128B
100
AcDbEntity
  8
Defpoints
 62
     0
100
AcDbPoint
 10
808.3625009477164
 20
1869.395394639839
 30
0.0
  0
POINT
  5
1295
330
128B
100
AcDbEntity
  8
Defpoints
 62
     0
100
AcDbPoint
 10
943.0573581501604
 20
1869.395394639839
 30
0.0
  0
ENDBLK
  5
1296
330
128B
100
AcDbEntity
  8
0
100
AcDbBlockEnd
  0
BLOCK
  5
1299
330
1298
100
AcDbEntity
  8
0
100
AcDbBlockBegin
  2
*D15
 70
     1
 10
0.0
 20
0.0
 30
0.0
  3
*D15
  1
*D155
  0
LINE
  5
129A
330
1298
100
AcDbEntity
  8
DIM
  6
Continuous
 62
     0
370
    -2
100
AcDbLine
 10
548.3625009477164
 20
1863.614156196345
 30
0.0
 11
548.3625009477164
 21
1767.203892626843
 31
0.0
  0
LINE
  5
129B
330
1298
100
AcDbEntity
  8
DIM
  6
Continuous
 62
     0
370
    -2
100
AcDbLine
 10
788.3625009477164
 20
1863.614156310718
 30
0.0
 11
788.3625009477164
 21
1767.203892626843
 31
0.0
  0
LINE
  5
129C
330
1298
100
AcDbEntity
  8
DIM
  6
Continuous
 62
     0
370
    -2
100
AcDbLine
 10
551.3625009477164
 20
1767.203892626843
 30
0.0
 11
785.3625009477164
 21
1767.203892626843
 31
0.0
  0
INSERT
  5
129D
330
1298
100
AcDbEntity
  8
DIM
 62
     0
370
    -2
100
AcDbBlockReference
  2
_DOT
 10
548.3625009477164
 20
1767.203892626843
 30
0.0
 41
3.0
 42
3.0
 43
3.0
 50
180.0
  0
INSERT
  5
129E
330
1298
100
AcDbEntity
  8
DIM
 62
     0
370
    -2
100
AcDbBlockReference
  2
_DOT
 10
788.3625009477164
 20
1767.203892626843
 30
0.0
 41
3.0
 42
3.0
 43
3.0
  0
MTEXT
  5
129F
330
1298
100
AcDbEntity
  8
DIM
 62
     0
 48
0.05
100
AcDbMText
 10
668.3625009477164
 20
1783.203892626843
 30
0.0
 40
12.0
 41
0.0
 46
0.0
 71
     5
 72
     1
  1
\A1;240
  7
ＭＳ ゴシック
 73
     1
 44
1.0
  0
POINT
  5
12A0
330
1298
100
AcDbEntity
  8
Defpoints
 62
     0
100
AcDbPoint
 10
548.3625009477164
 20
1873.614156196345
 30
0.0
  0
POINT
  5
12A1
330
1298
100
AcDbEntity
  8
Defpoints
 62
     0
100
AcDbPoint
 10
788.3625009477164
 20
1873.614156310718
 30
0.0
  0
POINT
  5
12A2
330
1298
100
AcDbEntity
  8
Defpoints
 62
     0
100
AcDbPoint
 10
788.3625009477164
 20
1767.203892626843
 30
0.0
  0
ENDBLK
  5
12A3
330
1298
100
AcDbEntity
  8
0
100
AcDbBlockEnd
  0
BLOCK
  5
12A6
330
12A5
100
AcDbEntity
  8
0
100
AcDbBlockBegin
  2
*D16
 70
     1
 10
0.0
 20
0.0
 30
0.0
  3
*D16
  1
*D156
  0
LINE
  5
12A7
330
12A5
100
AcDbEntity
  8
DIM
  6
Continuous
 62
     0
370
    -2
100
AcDbLine
 10
519.7737366072784
 20
2059.395394639839
 30
0.0
 11
430.3828704682785
 21
2059.395394639839
 31
0.0
  0
LINE
  5
12A8
330
12A5
100
AcDbEntity
  8
DIM
  6
Continuous
 62
     0
370
    -2
100
AcDbLine
 10
519.7737366072784
 20
1889.395394639839
 30
0.0
 11
430.3828704682785
 21
1889.395394639839
 31
0.0
  0
LINE
  5
12A9
330
12A5
100
AcDbEntity
  8
DIM
  6
Continuous
 62
     0
370
    -2
100
AcDbLine
 10
430.3828704682785
 20
2056.395394639839
 30
0.0
 11
430.3828704682785
 21
1892.395394639839
 31
0.0
  0
INSERT
  5
12AA
330
12A5
100
AcDbEntity
  8
DIM
 62
     0
370
    -2
100
AcDbBlockReference
  2
_DOT
 10
430.3828704682785
 20
2059.395394639839
 30
0.0
 41
3.0
 42
3.0
 43
3.0
 50
90.0
  0
INSERT
  5
12AB
330
12A5
100
AcDbEntity
  8
DIM
 62
     0
370
    -2
100
AcDbBlockReference
  2
_DOT
 10
430.3828704682785
 20
1889.395394639839
 30
0.0
 41
3.0
 42
3.0
 43
3.0
 50
270.0
  0
MTEXT
  5
12AC
330
12A5
100
AcDbEntity
  8
DIM
 62
     0
 48
0.05
100
AcDbMText
 10
414.3828704682785
 20
1974.395394639839
 30
0.0
 40
12.0
 41
0.0
 46
0.0
 71
     5
 72
     1
  1
\A1;170
  7
ＭＳ ゴシック
 11
0.0
 21
1.0
 31
0.0
 73
     1
 44
1.0
  0
POINT
  5
12AD
330
12A5
100
AcDbEntity
  8
Defpoints
 62
     0
100
AcDbPoint
 10
529.7737366072784
 20
2059.395394639839
 30
0.0
  0
POINT
  5
12AE
330
12A5
100
AcDbEntity
  8
Defpoints
 62
     0
100
AcDbPoint
 10
529.7737366072784
 20
1889.395394639839
 30
0.0
  0
POINT
  5
12AF
330
12A5
100
AcDbEntity
  8
Defpoints
 62
     0
100
AcDbPoint
 10
430.3828704682785
 20
1889.395394639839
 30
0.0
  0
ENDBLK
  5
12B0
330
12A5
100
AcDbEntity
  8
0
100
AcDbBlockEnd
  0
BLOCK
  5
12B3
330
12B2
100
AcDbEntity
  8
0
100
AcDbBlockBegin
  2
*D17
 70
     1
 10
0.0
 20
0.0
 30
0.0
  3
*D17
  1
*D157
  0
LINE
  5
12B4
330
12B2
100
AcDbEntity
  8
DIM
  6
Continuous
 62
     0
370
    -2
100
AcDbLine
 10
1568.564717193186
 20
977.0904532939817
 30
0.0
 11
1568.564717193186
 21
890.2354896300342
 31
0.0
  0
LINE
  5
12B5
330
12B2
100
AcDbEntity
  8
DIM
  6
Continuous
 62
     0
370
    -2
100
AcDbLine
 10
1448.564717193186
 20
977.0904532939817
 30
0.0
 11
1448.564717193186
 21
890.2354896300342
 31
0.0
  0
LINE
  5
12B6
330
12B2
100
AcDbEntity
  8
DIM
  6
Continuous
 62
     0
370
    -2
100
AcDbLine
 10
1565.564717193186
 20
890.2354896300342
 30
0.0
 11
1451.564717193186
 21
890.2354896300342
 31
0.0
  0
INSERT
  5
12B7
330
12B2
100
AcDbEntity
  8
DIM
 62
     0
370
    -2
100
AcDbBlockReference
  2
_DOT
 10
1568.564717193186
 20
890.2354896300342
 30
0.0
 41
3.0
 42
3.0
 43
3.0
  0
INSERT
  5
12B8
330
12B2
100
AcDbEntity
  8
DIM
 62
     0
370
    -2
100
AcDbBlockReference
  2
_DOT
 10
1448.564717193186
 20
890.2354896300342
 30
0.0
 41
3.0
 42
3.0
 43
3.0
 50
180.0
  0
MTEXT
  5
12B9
330
12B2
100
AcDbEntity
  8
DIM
 62
     0
 48
0.05
100
AcDbMText
 10
1508.564717193186
 20
906.2354896300342
 30
0.0
 40
12.0
 41
0.0
 46
0.0
 71
     5
 72
     1
  1
\A1;120
  7
ＭＳ ゴシック
 73
     1
 44
1.0
  0
POINT
  5
12BA
330
12B2
100
AcDbEntity
  8
Defpoints
 62
     0
100
AcDbPoint
 10
1568.564717193186
 20
987.0904532939817
 30
0.0
  0
POINT
  5
12BB
330
12B2
100
AcDbEntity
  8
Defpoints
 62
     0
100
AcDbPoint
 10
1448.564717193186
 20
987.0904532939817
 30
0.0
  0
POINT
  5
12BC
330
12B2
100
AcDbEntity
  8
Defpoints
 62
     0
100
AcDbPoint
 10
1448.564717193186
 20
890.2354896300342
 30
0.0
  0
ENDBLK
  5
12BD
330
12B2
100
AcDbEntity
  8
0
100
AcDbBlockEnd
  0
BLOCK
  5
12C0
330
12BF
100
AcDbEntity
  8
0
100
AcDbBlockBegin
  2
*D18
 70
     1
 10
0.0
 20
0.0
 30
0.0
  3
*D18
  1
*D158
  0
LINE
  5
12C1
330
12BF
100
AcDbEntity
  8
DIM
  6
Continuous
 62
     0
370
    -2
100
AcDbLine
 10
1568.564717193186
 20
1087.090453293982
 30
0.0
 11
1568.564717193186
 21
1170.031259957072
 31
0.0
  0
LINE
  5
12C2
330
12BF
100
AcDbEntity
  8
DIM
  6
Continuous
 62
     0
370
    -2
100
AcDbLine
 10
1523.564717193186
 20
1087.090453293982
 30
0.0
 11
1523.564717193186
 21
1170.031259957072
 31
0.0
  0
LINE
  5
12C3
330
12BF
100
AcDbEntity
  8
DIM
  6
Continuous
 62
     0
370
    -2
100
AcDbLine
 10
1565.564717193186
 20
1170.031259957072
 30
0.0
 11
1526.564717193186
 21
1170.031259957072
 31
0.0
  0
INSERT
  5
12C4
330
12BF
100
AcDbEntity
  8
DIM
 62
     0
370
    -2
100
AcDbBlockReference
  2
_DOT
 10
1568.564717193186
 20
1170.031259957072
 30
0.0
 41
3.0
 42
3.0
 43
3.0
  0
INSERT
  5
12C5
330
12BF
100
AcDbEntity
  8
DIM
 62
     0
370
    -2
100
AcDbBlockReference
  2
_DOT
 10
1523.564717193186
 20
1170.031259957072
 30
0.0
 41
3.0
 42
3.0
 43
3.0
 50
180.0
  0
MTEXT
  5
12C6
330
12BF
100
AcDbEntity
  8
DIM
 62
     0
 48
0.05
100
AcDbMText
 10
1546.064717193186
 20
1186.031259957072
 30
0.0
 40
12.0
 41
0.0
 46
0.0
 71
     5
 72
     1
  1
\A1;45
  7
ＭＳ ゴシック
 73
     1
 44
1.0
  0
POINT
  5
12C7
330
12BF
100
AcDbEntity
  8
Defpoints
 62
     0
100
AcDbPoint
 10
1568.564717193186
 20
1077.090453293982
 30
0.0
  0
POINT
  5
12C8
330
12BF
100
AcDbEntity
  8
Defpoints
 62
     0
100
AcDbPoint
 10
1523.564717193186
 20
1077.090453293982
 30
0.0
  0
POINT
  5
12C9
330
12BF
100
AcDbEntity
  8
Defpoints
 62
     0
100
AcDbPoint
 10
1523.564717193186
 20
1170.031259957072
 30
0.0
  0
ENDBLK
  5
12CA
330
12BF
100
AcDbEntity
  8
0
100
AcDbBlockEnd
  0
BLOCK
  5
12CD
330
12CC
100
AcDbEntity
  8
0
100
AcDbBlockBegin
  2
*D19
 70
     1
 10
0.0
 20
0.0
 30
0.0
  3
*D19
  1
*D159
  0
LINE
  5
12CE
330
12CC
100
AcDbEntity
  8
DIM
  6
Continuous
 62
     0
370
    -2
100
AcDbLine
 10
525.0132733540179
 20
2139.395394639839
 30
0.0
 11
430.3828704682785
 21
2139.395394639839
 31
0.0
  0
LINE
  5
12CF
330
12CC
100
AcDbEntity
  8
DIM
  6
Continuous
 62
     0
370
    -2
100
AcDbLine
 10
525.0132733540179
 20
2059.395394639839
 30
0.0
 11
430.3828704682785
 21
2059.395394639839
 31
0.0
  0
LINE
  5
12D0
330
12CC
100
AcDbEntity
  8
DIM
  6
Continuous
 62
     0
370
    -2
100
AcDbLine
 10
430.3828704682785
 20
2136.395394639839
 30
0.0
 11
430.3828704682785
 21
2062.395394639839
 31
0.0
  0
INSERT
  5
12D1
330
12CC
100
AcDbEntity
  8
DIM
 62
     0
370
    -2
100
AcDbBlockReference
  2
_DOT
 10
430.3828704682785
 20
2139.395394639839
 30
0.0
 41
3.0
 42
3.0
 43
3.0
 50
90.0
  0
INSERT
  5
12D2
330
12CC
100
AcDbEntity
  8
DIM
 62
     0
370
    -2
100
AcDbBlockReference
  2
_DOT
 10
430.3828704682785
 20
2059.395394639839
 30
0.0
 41
3.0
 42
3.0
 43
3.0
 50
270.0
  0
MTEXT
  5
12D3
330
12CC
100
AcDbEntity
  8
DIM
 62
     0
 48
0.05
100
AcDbMText
 10
414.3828704682785
 20
2099.395394639839
 30
0.0
 40
12.0
 41
0.0
 46
0.0
 71
     5
 72
     1
  1
\A1;80
  7
ＭＳ ゴシック
 11
0.0
 21
1.0
 31
0.0
 73
     1
 44
1.0
  0
POINT
  5
12D4
330
12CC
100
AcDbEntity
  8
Defpoints
 62
     0
100
AcDbPoint
 10
535.0132733540179
 20
2139.395394639839
 30
0.0
  0
POINT
  5
12D5
330
12CC
100
AcDbEntity
  8
Defpoints
 62
     0
100
AcDbPoint
 10
535.0132733540179
 20
2059.395394639839
 30
0.0
  0
POINT
  5
12D6
330
12CC
100
AcDbEntity
  8
Defpoints
 62
     0
100
AcDbPoint
 10
430.3828704682785
 20
2059.395394639839
 30
0.0
  0
ENDBLK
  5
12D7
330
12CC
100
AcDbEntity
  8
0
100
AcDbBlockEnd
  0
BLOCK
  5
12DC
330
12DB
100
AcDbEntity
  8
0
100
AcDbBlockBegin
  2
*D20
 70
     1
 10
0.0
 20
0.0
 30
0.0
  3
*D20
  1
*D160
  0
LINE
  5
12DD
330
12DB
100
AcDbEntity
  8
DIM
  6
Continuous
 62
     0
370
    -2
100
AcDbLine
 10
1288.564717193186
 20
1077.090453293982
 30
0.0
 11
1220.336957394863
 21
1077.090453293982
 31
0.0
  0
LINE
  5
12DE
330
12DB
100
AcDbEntity
  8
DIM
  6
Continuous
 62
     0
370
    -2
100
AcDbLine
 10
1288.564717193186
 20
987.0904532939817
 30
0.0
 11
1220.336957394863
 21
987.0904532939817
 31
0.0
  0
LINE
  5
12DF
330
12DB
100
AcDbEntity
  8
DIM
  6
Continuous
 62
     0
370
    -2
100
AcDbLine
 10
1220.336957394863
 20
1074.090453293982
 30
0.0
 11
1220.336957394863
 21
990.0904532939817
 31
0.0
  0
INSERT
  5
12E0
330
12DB
100
AcDbEntity
  8
DIM
 62
     0
370
    -2
100
AcDbBlockReference
  2
_DOT
 10
1220.336957394863
 20
1077.090453293982
 30
0.0
 41
3.0
 42
3.0
 43
3.0
 50
90.0
  0
INSERT
  5
12E1
330
12DB
100
AcDbEntity
  8
DIM
 62
     0
370
    -2
100
AcDbBlockReference
  2
_DOT
 10
1220.336957394863
 20
987.0904532939817
 30
0.0
 41
3.0
 42
3.0
 43
3.0
 50
270.0
  0
MTEXT
  5
12E2
330
12DB
100
AcDbEntity
  8
DIM
 62
     0
 48
0.05
100
AcDbMText
 10
1204.336957394863
 20
1032.090453293982
 30
0.0
 40
12.0
 41
0.0
 46
0.0
 71
     5
 72
     1
  1
\A1;90
  7
ＭＳ ゴシック
 11
0.0
 21
1.0
 31
0.0
 73
     1
 44
1.0
  0
POINT
  5
12E3
330
12DB
100
AcDbEntity
  8
Defpoints
 62
     0
100
AcDbPoint
 10
1298.564717193186
 20
1077.090453293982
 30
0.0
  0
POINT
  5
12E4
330
12DB
100
AcDbEntity
  8
Defpoints
 62
     0
100
AcDbPoint
 10
1298.564717193186
 20
987.0904532939817
 30
0.0
  0
POINT
  5
12E5
330
12DB
100
AcDbEntity
  8
Defpoints
 62
     0
100
AcDbPoint
 10
1220.336957394863
 20
987.0904532939817
 30
0.0
  0
ENDBLK
  5
12E6
330
12DB
100
AcDbEntity
  8
0
100
AcDbBlockEnd
  0
BLOCK
  5
12F5
330
12F4
100
AcDbEntity
  8
0
100
AcDbBlockBegin
  2
*D21
 70
     1
 10
0.0
 20
0.0
 30
0.0
  3
*D21
  1
*D153
  0
LINE
  5
12F6
330
12F4
100
AcDbEntity
  8
DIM
  6
Continuous
 62
     0
370
    -2
100
AcDbLine
 10
528.3625009477164
 20
1087.090453293982
 30
0.0
 11
528.3625009477164
 21
1136.059191016741
 31
0.0
  0
LINE
  5
12F7
330
12F4
100
AcDbEntity
  8
DIM
  6
Continuous
 62
     0
370
    -2
100
AcDbLine
 10
568.5369402446107
 20
1087.090453293982
 30
0.0
 11
568.5369402446107
 21
1136.059191016741
 31
0.0
  0
LINE
  5
12F8
330
12F4
100
AcDbEntity
  8
DIM
  6
Continuous
 62
     0
370
    -2
100
AcDbLine
 10
531.3625009477164
 20
1136.059191016741
 30
0.0
 11
565.5369402446107
 21
1136.059191016741
 31
0.0
  0
INSERT
  5
12F9
330
12F4
100
AcDbEntity
  8
DIM
 62
     0
370
    -2
100
AcDbBlockReference
  2
_DOT
 10
528.3625009477164
 20
1136.059191016741
 30
0.0
 41
3.0
 42
3.0
 43
3.0
 50
180.0
  0
INSERT
  5
12FA
330
12F4
100
AcDbEntity
  8
DIM
 62
     0
370
    -2
100
AcDbBlockReference
  2
_DOT
 10
568.5369402446107
 20
1136.059191016741
 30
0.0
 41
3.0
 42
3.0
 43
3.0
  0
MTEXT
  5
12FB
330
12F4
100
AcDbEntity
  8
DIM
 62
     0
 48
0.05
100
AcDbMText
 10
548.4497205961636
 20
1152.059191016741
 30
0.0
 40
12.0
 41
0.0
 46
0.0
 71
     5
 72
     1
  1
\A1;40
  7
ＭＳ ゴシック
 73
     1
 44
1.0
  0
POINT
  5
12FC
330
12F4
100
AcDbEntity
  8
Defpoints
 62
     0
100
AcDbPoint
 10
528.3625009477164
 20
1077.090453293982
 30
0.0
  0
POINT
  5
12FD
330
12F4
100
AcDbEntity
  8
Defpoints
 62
     0
100
AcDbPoint
 10
568.5369402446107
 20
1077.090453293982
 30
0.0
  0
POINT
  5
12FE
330
12F4
100
AcDbEntity
  8
Defpoints
 62
     0
100
AcDbPoint
 10
568.5369402446107
 20
1136.059191016741
 30
0.0
  0
ENDBLK
  5
12FF
330
12F4
100
AcDbEntity
  8
0
100
AcDbBlockEnd
  0
BLOCK
  5
1304
330
1303
100
AcDbEntity
  8
0
100
AcDbBlockBegin
  2
*D22
 70
     1
 10
0.0
 20
0.0
 30
0.0
  3
*D22
  1
*D154
  0
LINE
  5
1305
330
1303
100
AcDbEntity
  8
DIM
  6
Continuous
 62
     0
370
    -2
100
AcDbLine
 10
516.0369402446107
 20
1047.090453293982
 30
0.0
 11
460.4197949721854
 21
1047.090453293982
 31
0.0
  0
LINE
  5
1306
330
1303
100
AcDbEntity
  8
DIM
  6
Continuous
 62
     0
370
    -2
100
AcDbLine
 10
518.3625009477164
 20
1077.090453293982
 30
0.0
 11
460.4197949721854
 21
1077.090453293982
 31
0.0
  0
LINE
  5
1307
330
1303
100
AcDbEntity
  8
DIM
  6
Continuous
 62
     0
370
    -2
100
AcDbLine
 10
460.4197949721854
 20
1050.090453293982
 30
0.0
 11
460.4197949721854
 21
1074.090453293982
 31
0.0
  0
INSERT
  5
1308
330
1303
100
AcDbEntity
  8
DIM
 62
     0
370
    -2
100
AcDbBlockReference
  2
_DOT
 10
460.4197949721854
 20
1047.090453293982
 30
0.0
 41
3.0
 42
3.0
 43
3.0
 50
270.0
  0
INSERT
  5
1309
330
1303
100
AcDbEntity
  8
DIM
 62
     0
370
    -2
100
AcDbBlockReference
  2
_DOT
 10
460.4197949721854
 20
1077.090453293982
 30
0.0
 41
3.0
 42
3.0
 43
3.0
 50
90.0
  0
MTEXT
  5
130A
330
1303
100
AcDbEntity
  8
DIM
 62
     0
 48
0.05
100
AcDbMText
 10
444.4197949721854
 20
1062.090453293982
 30
0.0
 40
12.0
 41
0.0
 46
0.0
 71
     5
 72
     1
  1
\A1;30
  7
ＭＳ ゴシック
 11
0.0
 21
1.0
 31
0.0
 73
     1
 44
1.0
  0
POINT
  5
130B
330
1303
100
AcDbEntity
  8
Defpoints
 62
     0
100
AcDbPoint
 10
526.0369402446107
 20
1047.090453293982
 30
0.0
  0
POINT
  5
130C
330
1303
100
AcDbEntity
  8
Defpoints
 62
     0
100
AcDbPoint
 10
528.3625009477164
 20
1077.090453293982
 30
0.0
  0
POINT
  5
130D
330
1303
100
AcDbEntity
  8
Defpoints
 62
     0
100
AcDbPoint
 10
460.4197949721854
 20
1077.090453293982
 30
0.0
  0
ENDBLK
  5
130E
330
1303
100
AcDbEntity
  8
0
100
AcDbBlockEnd
  0
BLOCK
  5
1311
330
1310
100
AcDbEntity
  8
0
100
AcDbBlockBegin
  2
*D23
 70
     1
 10
0.0
 20
0.0
 30
0.0
  3
*D23
  1
*D156
  0
LINE
  5
1312
330
1310
100
AcDbEntity
  8
DIM
  6
Continuous
 62
     0
370
    -2
100
AcDbLine
 10
808.3625009477164
 20
1087.090453293982
 30
0.0
 11
808.3625009477164
 21
1136.059191016741
 31
0.0
  0
LINE
  5
1313
330
1310
100
AcDbEntity
  8
DIM
  6
Continuous
 62
     0
370
    -2
100
AcDbLine
 10
768.1880616508221
 20
1087.090453293982
 30
0.0
 11
768.1880616508221
 21
1136.059191016741
 31
0.0
  0
LINE
  5
1314
330
1310
100
AcDbEntity
  8
DIM
  6
Continuous
 62
     0
370
    -2
100
AcDbLine
 10
805.3625009477164
 20
1136.059191016741
 30
0.0
 11
771.1880616508221
 21
1136.059191016741
 31
0.0
  0
INSERT
  5
1315
330
1310
100
AcDbEntity
  8
DIM
 62
     0
370
    -2
100
AcDbBlockReference
  2
_DOT
 10
808.3625009477164
 20
1136.059191016741
 30
0.0
 41
3.0
 42
3.0
 43
3.0
  0
INSERT
  5
1316
330
1310
100
AcDbEntity
  8
DIM
 62
     0
370
    -2
100
AcDbBlockReference
  2
_DOT
 10
768.1880616508221
 20
1136.059191016741
 30
0.0
 41
3.0
 42
3.0
 43
3.0
 50
180.0
  0
MTEXT
  5
1317
330
1310
100
AcDbEntity
  8
DIM
 62
     0
 48
0.05
100
AcDbMText
 10
788.2752812992692
 20
1152.059191016741
 30
0.0
 40
12.0
 41
0.0
 46
0.0
 71
     5
 72
     1
  1
\A1;40
  7
ＭＳ ゴシック
 73
     1
 44
1.0
  0
POINT
  5
1318
330
1310
100
AcDbEntity
  8
Defpoints
 62
     0
100
AcDbPoint
 10
808.3625009477164
 20
1077.090453293982
 30
0.0
  0
POINT
  5
1319
330
1310
100
AcDbEntity
  8
Defpoints
 62
     0
100
AcDbPoint
 10
768.1880616508221
 20
1077.090453293982
 30
0.0
  0
POINT
  5
131A
330
1310
100
AcDbEntity
  8
Defpoints
 62
     0
100
AcDbPoint
 10
768.1880616508221
 20
1136.059191016741
 30
0.0
  0
ENDBLK
  5
131B
330
1310
100
AcDbEntity
  8
0
100
AcDbBlockEnd
  0
BLOCK
  5
131E
330
131D
100
AcDbEntity
  8
0
100
AcDbBlockBegin
  2
*D24
 70
     1
 10
0.0
 20
0.0
 30
0.0
  3
*D24
  1
*D157
  0
LINE
  5
131F
330
131D
100
AcDbEntity
  8
DIM
  6
Continuous
 62
     0
370
    -2
100
AcDbLine
 10
818.3625009477164
 20
1077.090453293982
 30
0.0
 11
897.2941195370731
 21
1077.090453293982
 31
0.0
  0
LINE
  5
1320
330
131D
100
AcDbEntity
  8
DIM
  6
Continuous
 62
     0
370
    -2
100
AcDbLine
 10
818.3625009477164
 20
1040.090453293982
 30
0.0
 11
897.2941195370731
 21
1040.090453293982
 31
0.0
  0
LINE
  5
1321
330
131D
100
AcDbEntity
  8
DIM
  6
Continuous
 62
     0
370
    -2
100
AcDbLine
 10
897.2941195370731
 20
1074.090453293982
 30
0.0
 11
897.2941195370731
 21
1043.090453293982
 31
0.0
  0
INSERT
  5
1322
330
131D
100
AcDbEntity
  8
DIM
 62
     0
370
    -2
100
AcDbBlockReference
  2
_DOT
 10
897.2941195370731
 20
1077.090453293982
 30
0.0
 41
3.0
 42
3.0
 43
3.0
 50
90.0
  0
INSERT
  5
1323
330
131D
100
AcDbEntity
  8
DIM
 62
     0
370
    -2
100
AcDbBlockReference
  2
_DOT
 10
897.2941195370731
 20
1040.090453293982
 30
0.0
 41
3.0
 42
3.0
 43
3.0
 50
270.0
  0
MTEXT
  5
1324
330
131D
100
AcDbEntity
  8
DIM
 62
     0
 48
0.05
100
AcDbMText
 10
881.2941195370731
 20
1058.590453293982
 30
0.0
 40
12.0
 41
0.0
 46
0.0
 71
     5
 72
     1
  1
\A1;37
  7
ＭＳ ゴシック
 11
0.0
 21
1.0
 31
0.0
 73
     1
 44
1.0
  0
POINT
  5
1325
330
131D
100
AcDbEntity
  8
Defpoints
 62
     0
100
AcDbPoint
 10
808.3625009477164
 20
1077.090453293982
 30
0.0
  0
POINT
  5
1326
330
131D
100
AcDbEntity
  8
Defpoints
 62
     0
100
AcDbPoint
 10
808.3625009477164
 20
1040.090453293982
 30
0.0
  0
POINT
  5
1327
330
131D
100
AcDbEntity
  8
Defpoints
 62
     0
100
AcDbPoint
 10
897.2941195370731
 20
1040.090453293982
 30
0.0
  0
ENDBLK
  5
1328
330
131D
100
AcDbEntity
  8
0
100
AcDbBlockEnd
  0
BLOCK
  5
13E9
330
13E8
100
AcDbEntity
  8
0
100
AcDbBlockBegin
  2
*D25
 70
     1
 10
0.0
 20
0.0
 30
0.0
  3
*D25
  1
*D26
  0
LINE
  5
13EB
330
13E8
100
AcDbEntity
  8
DIM
  6
Continuous
 62
     0
370
    -2
100
AcDbLine
 10
-271.1825152111614
 20
531.7642506700759
 30
0.0
 11
-271.1825152111614
 21
610.5322506700759
 31
0.0
  0
LINE
  5
13EC
330
13E8
100
AcDbEntity
  8
DIM
  6
Continuous
 62
     0
370
    -2
100
AcDbLine
 10
-271.1825152111614
 20
528.7642506700759
 30
0.0
 11
-271.1825152111614
 21
459.1623972815378
 31
0.0
  0
INSERT
  5
13ED
330
13E8
100
AcDbEntity
  8
DIM
 62
     0
370
    -2
100
AcDbBlockReference
  2
_DOT
 10
-271.1825152111614
 20
531.7642506700759
 30
0.0
 41
3.0
 42
3.0
 43
3.0
 50
90.0
  0
INSERT
  5
13EE
330
13E8
100
AcDbEntity
  8
DIM
 62
     0
370
    -2
100
AcDbBlockReference
  2
_DOT
 10
-271.1825152111614
 20
456.1623972815378
 30
0.0
 41
3.0
 42
3.0
 43
3.0
 50
270.0
  0
MTEXT
  5
13EF
330
13E8
100
AcDbEntity
  8
DIM
 62
     0
 48
0.05
100
AcDbMText
 10
-283.2445152111615
 20
576.6482506700759
 30
0.0
 40
12.0
 41
0.0
 46
0.0
 71
     5
 72
     1
  1
\A1;75(深さ)
  7
ＭＳ ゴシック
 11
0.0
 21
1.0
 31
0.0
 73
     1
 44
1.0
  0
POINT
  5
13F0
330
13E8
100
AcDbEntity
  8
Defpoints
 62
     0
100
AcDbPoint
 10
-248.071255229388
 20
531.7642506700759
 30
0.0
  0
POINT
  5
13F1
330
13E8
100
AcDbEntity
  8
Defpoints
 62
     0
100
AcDbPoint
 10
-271.1825152111614
 20
456.1623972815378
 30
0.0
  0
POINT
  5
13F2
330
13E8
100
AcDbEntity
  8
Defpoints
 62
     0
100
AcDbPoint
 10
-271.1825152111614
 20
456.1623972815378
 30
0.0
  0
ENDBLK
  5
13EA
330
13E8
100
AcDbEntity
  8
0
100
AcDbBlockEnd
  0
BLOCK
  5
13F4
330
13F3
100
AcDbEntity
  8
0
100
AcDbBlockBegin
  2
*D26
 70
     1
 10
0.0
 20
0.0
 30
0.0
  3
*D26
  1
*D27
  0
LINE
  5
13F6
330
13F3
100
AcDbEntity
  8
DIM
  6
Continuous
 62
     0
370
    -2
100
AcDbLine
 10
-252.4978367187232
 20
1067.686447846837
 30
0.0
 11
-128.2510574469566
 21
1067.686447846837
 31
0.0
  0
LINE
  5
13F7
330
13F3
100
AcDbEntity
  8
DIM
  6
Continuous
 62
     0
370
    -2
100
AcDbLine
 10
-252.4978367187232
 20
1232.686447846837
 30
0.0
 11
-128.2510574469566
 21
1232.686447846837
 31
0.0
  0
LINE
  5
13F8
330
13F3
100
AcDbEntity
  8
DIM
  6
Continuous
 62
     0
370
    -2
100
AcDbLine
 10
-128.2510574469566
 20
1070.686447846837
 30
0.0
 11
-128.2510574469566
 21
1229.686447846837
 31
0.0
  0
INSERT
  5
13F9
330
13F3
100
AcDbEntity
  8
DIM
 62
     0
370
    -2
100
AcDbBlockReference
  2
_DOT
 10
-128.2510574469566
 20
1067.686447846837
 30
0.0
 41
3.0
 42
3.0
 43
3.0
 50
270.0
  0
INSERT
  5
13FA
330
13F3
100
AcDbEntity
  8
DIM
 62
     0
370
    -2
100
AcDbBlockReference
  2
_DOT
 10
-128.2510574469566
 20
1232.686447846837
 30
0.0
 41
3.0
 42
3.0
 43
3.0
 50
90.0
  0
MTEXT
  5
13FB
330
13F3
100
AcDbEntity
  8
DIM
 62
     0
 48
0.05
100
AcDbMText
 10
-139.2510574469566
 20
1150.186447846837
 30
0.0
 40
12.0
 41
0.0
 46
0.0
 71
     5
 72
     1
  1
\A1;165
  7
ＭＳ ゴシック
 11
0.0
 21
1.0
 31
0.0
 73
     1
 44
1.0
  0
POINT
  5
13FC
330
13F3
100
AcDbEntity
  8
Defpoints
 62
     0
100
AcDbPoint
 10
-262.4978367187232
 20
1067.686447846837
 30
0.0
  0
POINT
  5
13FD
330
13F3
100
AcDbEntity
  8
Defpoints
 62
     0
100
AcDbPoint
 10
-262.4978367187232
 20
1232.686447846837
 30
0.0
  0
POINT
  5
13FE
330
13F3
100
AcDbEntity
  8
Defpoints
 62
     0
100
AcDbPoint
 10
-128.2510574469566
 20
1232.686447846837
 30
0.0
  0
ENDBLK
  5
13F5
330
13F3
100
AcDbEntity
  8
0
100
AcDbBlockEnd
  0
BLOCK
  5
1400
330
13FF
100
AcDbEntity
  8
0
100
AcDbBlockBegin
  2
*D27
 70
     1
 10
0.0
 20
0.0
 30
0.0
  3
*D27
  1
*D28
  0
LINE
  5
1402
330
13FF
100
AcDbEntity
  8
DIM
  6
Continuous
 62
     0
370
    -2
100
AcDbLine
 10
-362.4978367187232
 20
1057.686447846837
 30
0.0
 11
-362.4978367187232
 21
928.188708434397
 31
0.0
  0
LINE
  5
1403
330
13FF
100
AcDbEntity
  8
DIM
  6
Continuous
 62
     0
370
    -2
100
AcDbLine
 10
-262.4978367187232
 20
1057.686447846837
 30
0.0
 11
-262.4978367187232
 21
928.188708434397
 31
0.0
  0
LINE
  5
1404
330
13FF
100
AcDbEntity
  8
DIM
  6
Continuous
 62
     0
370
    -2
100
AcDbLine
 10
-359.4978367187232
 20
928.188708434397
 30
0.0
 11
-265.4978367187232
 21
928.188708434397
 31
0.0
  0
INSERT
  5
1405
330
13FF
100
AcDbEntity
  8
DIM
 62
     0
370
    -2
100
AcDbBlockReference
  2
_DOT
 10
-362.4978367187232
 20
928.188708434397
 30
0.0
 41
3.0
 42
3.0
 43
3.0
 50
180.0
  0
INSERT
  5
1406
330
13FF
100
AcDbEntity
  8
DIM
 62
     0
370
    -2
100
AcDbBlockReference
  2
_DOT
 10
-262.4978367187232
 20
928.188708434397
 30
0.0
 41
3.0
 42
3.0
 43
3.0
  0
MTEXT
  5
1407
330
13FF
100
AcDbEntity
  8
DIM
 62
     0
 48
0.05
100
AcDbMText
 10
-312.4978367187232
 20
939.188708434397
 30
0.0
 40
12.0
 41
0.0
 46
0.0
 71
     5
 72
     1
  1
\A1;100
  7
ＭＳ ゴシック
 73
     1
 44
1.0
  0
POINT
  5
1408
330
13FF
100
AcDbEntity
  8
Defpoints
 62
     0
100
AcDbPoint
 10
-362.4978367187232
 20
1067.686447846837
 30
0.0
  0
POINT
  5
1409
330
13FF
100
AcDbEntity
  8
Defpoints
 62
     0
100
AcDbPoint
 10
-262.4978367187232
 20
1067.686447846837
 30
0.0
  0
POINT
  5
140A
330
13FF
100
AcDbEntity
  8
Defpoints
 62
     0
100
AcDbPoint
 10
-262.4978367187232
 20
928.188708434397
 30
0.0
  0
ENDBLK
  5
1401
330
13FF
100
AcDbEntity
  8
0
100
AcDbBlockEnd
  0
BLOCK
  5
140C
330
140B
100
AcDbEntity
  8
0
100
AcDbBlockBegin
  2
*D28
 70
     1
 10
0.0
 20
0.0
 30
0.0
  3
*D28
  1
*D29
  0
LINE
  5
140E
330
140B
100
AcDbEntity
  8
DIM
  6
Continuous
 62
     0
370
    -2
100
AcDbLine
 10
-252.4978367187232
 20
1232.686447846837
 30
0.0
 11
-128.2510574469566
 21
1232.686447846837
 31
0.0
  0
LINE
  5
140F
330
140B
100
AcDbEntity
  8
DIM
  6
Continuous
 62
     0
370
    -2
100
AcDbLine
 10
-252.4978367187232
 20
1247.686447846837
 30
0.0
 11
-128.2510574469566
 21
1247.686447846837
 31
0.0
  0
LINE
  5
1410
330
140B
100
AcDbEntity
  8
DIM
  6
Continuous
 62
     0
370
    -2
100
AcDbLine
 10
-128.2510574469566
 20
1235.686447846837
 30
0.0
 11
-128.2510574469566
 21
1244.686447846837
 31
0.0
  0
INSERT
  5
1411
330
140B
100
AcDbEntity
  8
DIM
 62
     0
370
    -2
100
AcDbBlockReference
  2
_DOT
 10
-128.2510574469566
 20
1232.686447846837
 30
0.0
 41
3.0
 42
3.0
 43
3.0
 50
270.0
  0
INSERT
  5
1412
330
140B
100
AcDbEntity
  8
DIM
 62
     0
370
    -2
100
AcDbBlockReference
  2
_DOT
 10
-128.2510574469566
 20
1247.686447846837
 30
0.0
 41
3.0
 42
3.0
 43
3.0
 50
90.0
  0
MTEXT
  5
1413
330
140B
100
AcDbEntity
  8
DIM
 62
     0
 48
0.05
100
AcDbMText
 10
-139.2510574469566
 20
1240.186447846837
 30
0.0
 40
12.0
 41
0.0
 46
0.0
 71
     5
 72
     1
  1
\A1;15
  7
ＭＳ ゴシック
 11
0.0
 21
1.0
 31
0.0
 73
     1
 44
1.0
  0
POINT
  5
1414
330
140B
100
AcDbEntity
  8
Defpoints
 62
     0
100
AcDbPoint
 10
-262.4978367187232
 20
1232.686447846837
 30
0.0
  0
POINT
  5
1415
330
140B
100
AcDbEntity
  8
Defpoints
 62
     0
100
AcDbPoint
 10
-262.4978367187232
 20
1247.686447846837
 30
0.0
  0
POINT
  5
1416
330
140B
100
AcDbEntity
  8
Defpoints
 62
     0
100
AcDbPoint
 10
-128.2510574469566
 20
1247.686447846837
 30
0.0
  0
ENDBLK
  5
140D
330
140B
100
AcDbEntity
  8
0
100
AcDbBlockEnd
  0
BLOCK
  5
1419
330
1418
100
AcDbEntity
  8
0
100
AcDbBlockBegin
  2
*D29
 70
     1
 10
0.0
 20
0.0
 30
0.0
  3
*D29
  1
*D30
  0
LINE
  5
141B
330
1418
100
AcDbEntity
  8
DIM
  6
Continuous
 62
     0
370
    -2
100
AcDbLine
 10
-922.2781116840067
 20
1257.686447846837
 30
0.0
 11
-922.2781116840067
 21
1314.204469739819
 31
0.0
  0
LINE
  5
141C
330
1418
100
AcDbEntity
  8
DIM
  6
Continuous
 62
     0
370
    -2
100
AcDbLine
 10
-642.2781116840067
 20
1257.686447846837
 30
0.0
 11
-642.2781116840067
 21
1314.204469739819
 31
0.0
  0
LINE
  5
141D
330
1418
100
AcDbEntity
  8
DIM
  6
Continuous
 62
     0
370
    -2
100
AcDbLine
 10
-919.2781116840067
 20
1314.204469739819
 30
0.0
 11
-645.2781116840067
 21
1314.204469739819
 31
0.0
  0
INSERT
  5
141E
330
1418
100
AcDbEntity
  8
DIM
 62
     0
370
    -2
100
AcDbBlockReference
  2
_DOT
 10
-922.2781116840067
 20
1314.204469739819
 30
0.0
 41
3.0
 42
3.0
 43
3.0
 50
180.0
  0
INSERT
  5
141F
330
1418
100
AcDbEntity
  8
DIM
 62
     0
370
    -2
100
AcDbBlockReference
  2
_DOT
 10
-642.2781116840067
 20
1314.204469739819
 30
0.0
 41
3.0
 42
3.0
 43
3.0
  0
MTEXT
  5
1420
330
1418
100
AcDbEntity
  8
DIM
 62
     0
 48
0.05
100
AcDbMText
 10
-782.2781116840067
 20
1325.204469739819
 30
0.0
 40
12.0
 41
0.0
 46
0.0
 71
     5
 72
     1
  1
\A1;280
  7
ＭＳ ゴシック
 73
     1
 44
1.0
  0
POINT
  5
1421
330
1418
100
AcDbEntity
  8
Defpoints
 62
     0
100
AcDbPoint
 10
-922.2781116840067
 20
1247.686447846837
 30
0.0
  0
POINT
  5
1422
330
1418
100
AcDbEntity
  8
Defpoints
 62
     0
100
AcDbPoint
 10
-642.2781116840067
 20
1247.686447846837
 30
0.0
  0
POINT
  5
1423
330
1418
100
AcDbEntity
  8
Defpoints
 62
     0
100
AcDbPoint
 10
-642.2781116840067
 20
1314.204469739819
 30
0.0
  0
ENDBLK
  5
141A
330
1418
100
AcDbEntity
  8
0
100
AcDbBlockEnd
  0
BLOCK
  5
1425
330
1424
100
AcDbEntity
  8
0
100
AcDbBlockBegin
  2
*D30
 70
     1
 10
0.0
 20
0.0
 30
0.0
  3
*D30
  1
*D31
  0
LINE
  5
1427
330
1424
100
AcDbEntity
  8
DIM
  6
Continuous
 62
     0
370
    -2
100
AcDbLine
 10
-632.2781116840067
 20
1247.686447846837
 30
0.0
 11
-580.3699625647846
 21
1247.686447846837
 31
0.0
  0
LINE
  5
1428
330
1424
100
AcDbEntity
  8
DIM
  6
Continuous
 62
     0
370
    -2
100
AcDbLine
 10
-632.2781116840067
 20
977.686447846837
 30
0.0
 11
-580.3699625647846
 21
977.686447846837
 31
0.0
  0
LINE
  5
1429
330
1424
100
AcDbEntity
  8
DIM
  6
Continuous
 62
     0
370
    -2
100
AcDbLine
 10
-580.3699625647846
 20
1244.686447846837
 30
0.0
 11
-580.3699625647846
 21
980.686447846837
 31
0.0
  0
INSERT
  5
142A
330
1424
100
AcDbEntity
  8
DIM
 62
     0
370
    -2
100
AcDbBlockReference
  2
_DOT
 10
-580.3699625647846
 20
1247.686447846837
 30
0.0
 41
3.0
 42
3.0
 43
3.0
 50
90.0
  0
INSERT
  5
142B
330
1424
100
AcDbEntity
  8
DIM
 62
     0
370
    -2
100
AcDbBlockReference
  2
_DOT
 10
-580.3699625647846
 20
977.686447846837
 30
0.0
 41
3.0
 42
3.0
 43
3.0
 50
270.0
  0
MTEXT
  5
142C
330
1424
100
AcDbEntity
  8
DIM
 62
     0
 48
0.05
100
AcDbMText
 10
-591.3699625647846
 20
1112.686447846837
 30
0.0
 40
12.0
 41
0.0
 46
0.0
 71
     5
 72
     1
  1
\A1;270
  7
ＭＳ ゴシック
 11
0.0
 21
1.0
 31
0.0
 73
     1
 44
1.0
  0
POINT
  5
142D
330
1424
100
AcDbEntity
  8
Defpoints
 62
     0
100
AcDbPoint
 10
-642.2781116840067
 20
1247.686447846837
 30
0.0
  0
POINT
  5
142E
330
1424
100
AcDbEntity
  8
Defpoints
 62
     0
100
AcDbPoint
 10
-642.2781116840067
 20
977.686447846837
 30
0.0
  0
POINT
  5
142F
330
1424
100
AcDbEntity
  8
Defpoints
 62
     0
100
AcDbPoint
 10
-580.3699625647846
 20
977.686447846837
 30
0.0
  0
ENDBLK
  5
1426
330
1424
100
AcDbEntity
  8
0
100
AcDbBlockEnd
  0
BLOCK
  5
1431
330
1430
100
AcDbEntity
  8
0
100
AcDbBlockBegin
  2
*D31
 70
     1
 10
0.0
 20
0.0
 30
0.0
  3
*D31
  1
*D32
  0
LINE
  5
1433
330
1430
100
AcDbEntity
  8
DIM
  6
Continuous
 62
     0
370
    -2
100
AcDbLine
 10
-902.2781116840067
 20
971.9052094033431
 30
0.0
 11
-902.2781116840067
 21
923.5581601335226
 31
0.0
  0
LINE
  5
1434
330
1430
100
AcDbEntity
  8
DIM
  6
Continuous
 62
     0
370
    -2
100
AcDbLine
 10
-662.2781116840067
 20
971.9052095177161
 30
0.0
 11
-662.2781116840067
 21
923.5581601335226
 31
0.0
  0
LINE
  5
1435
330
1430
100
AcDbEntity
  8
DIM
  6
Continuous
 62
     0
370
    -2
100
AcDbLine
 10
-899.2781116840067
 20
923.5581601335226
 30
0.0
 11
-665.2781116840067
 21
923.5581601335226
 31
0.0
  0
INSERT
  5
1436
330
1430
100
AcDbEntity
  8
DIM
 62
     0
370
    -2
100
AcDbBlockReference
  2
_DOT
 10
-902.2781116840067
 20
923.5581601335226
 30
0.0
 41
3.0
 42
3.0
 43
3.0
 50
180.0
  0
INSERT
  5
1437
330
1430
100
AcDbEntity
  8
DIM
 62
     0
370
    -2
100
AcDbBlockReference
  2
_DOT
 10
-662.2781116840067
 20
923.5581601335226
 30
0.0
 41
3.0
 42
3.0
 43
3.0
  0
MTEXT
  5
1438
330
1430
100
AcDbEntity
  8
DIM
 62
     0
 48
0.05
100
AcDbMText
 10
-782.2781116840067
 20
934.5581601335226
 30
0.0
 40
12.0
 41
0.0
 46
0.0
 71
     5
 72
     1
  1
\A1;240
  7
ＭＳ ゴシック
 73
     1
 44
1.0
  0
POINT
  5
1439
330
1430
100
AcDbEntity
  8
Defpoints
 62
     0
100
AcDbPoint
 10
-902.2781116840067
 20
981.9052094033431
 30
0.0
  0
POINT
  5
143A
330
1430
100
AcDbEntity
  8
Defpoints
 62
     0
100
AcDbPoint
 10
-662.2781116840067
 20
981.9052095177161
 30
0.0
  0
POINT
  5
143B
330
1430
100
AcDbEntity
  8
Defpoints
 62
     0
100
AcDbPoint
 10
-662.2781116840067
 20
923.5581601335226
 30
0.0
  0
ENDBLK
  5
1432
330
1430
100
AcDbEntity
  8
0
100
AcDbBlockEnd
  0
BLOCK
  5
143D
330
143C
100
AcDbEntity
  8
0
100
AcDbBlockBegin
  2
*D32
 70
     1
 10
0.0
 20
0.0
 30
0.0
  3
*D32
  1
*D33
  0
LINE
  5
143F
330
143C
100
AcDbEntity
  8
DIM
  6
Continuous
 62
     0
370
    -2
100
AcDbLine
 10
-938.7388081359315
 20
1167.686447846837
 30
0.0
 11
-982.068406973754
 21
1167.686447846837
 31
0.0
  0
LINE
  5
1440
330
143C
100
AcDbEntity
  8
DIM
  6
Continuous
 62
     0
370
    -2
100
AcDbLine
 10
-938.7388081359315
 20
997.686447846837
 30
0.0
 11
-982.068406973754
 21
997.686447846837
 31
0.0
  0
LINE
  5
1441
330
143C
100
AcDbEntity
  8
DIM
  6
Continuous
 62
     0
370
    -2
100
AcDbLine
 10
-982.068406973754
 20
1164.686447846837
 30
0.0
 11
-982.068406973754
 21
1000.686447846837
 31
0.0
  0
INSERT
  5
1442
330
143C
100
AcDbEntity
  8
DIM
 62
     0
370
    -2
100
AcDbBlockReference
  2
_DOT
 10
-982.068406973754
 20
1167.686447846837
 30
0.0
 41
3.0
 42
3.0
 43
3.0
 50
90.0
  0
INSERT
  5
1443
330
143C
100
AcDbEntity
  8
DIM
 62
     0
370
    -2
100
AcDbBlockReference
  2
_DOT
 10
-982.068406973754
 20
997.686447846837
 30
0.0
 41
3.0
 42
3.0
 43
3.0
 50
270.0
  0
MTEXT
  5
1444
330
143C
100
AcDbEntity
  8
DIM
 62
     0
 48
0.05
100
AcDbMText
 10
-993.068406973754
 20
1082.686447846837
 30
0.0
 40
12.0
 41
0.0
 46
0.0
 71
     5
 72
     1
  1
\A1;170
  7
ＭＳ ゴシック
 11
0.0
 21
1.0
 31
0.0
 73
     1
 44
1.0
  0
POINT
  5
1445
330
143C
100
AcDbEntity
  8
Defpoints
 62
     0
100
AcDbPoint
 10
-928.7388081359315
 20
1167.686447846837
 30
0.0
  0
POINT
  5
1446
330
143C
100
AcDbEntity
  8
Defpoints
 62
     0
100
AcDbPoint
 10
-928.7388081359315
 20
997.686447846837
 30
0.0
  0
POINT
  5
1447
330
143C
100
AcDbEntity
  8
Defpoints
 62
     0
100
AcDbPoint
 10
-982.068406973754
 20
997.686447846837
 30
0.0
  0
ENDBLK
  5
143E
330
143C
100
AcDbEntity
  8
0
100
AcDbBlockEnd
  0
BLOCK
  5
1449
330
1448
100
AcDbEntity
  8
0
100
AcDbBlockBegin
  2
*D33
 70
     1
 10
0.0
 20
0.0
 30
0.0
  3
*D33
  1
*D34
  0
LINE
  5
144B
330
1448
100
AcDbEntity
  8
DIM
  6
Continuous
 62
     0
370
    -2
100
AcDbLine
 10
-151.1780273627355
 20
431.7642506700756
 30
0.0
 11
-151.1780273627355
 21
379.2923583434351
 31
0.0
  0
LINE
  5
144C
330
1448
100
AcDbEntity
  8
DIM
  6
Continuous
 62
     0
370
    -2
100
AcDbLine
 10
-271.1780273627353
 20
412.7642506700759
 30
0.0
 11
-271.1780273627353
 21
379.2923583434351
 31
0.0
  0
LINE
  5
144D
330
1448
100
AcDbEntity
  8
DIM
  6
Continuous
 62
     0
370
    -2
100
AcDbLine
 10
-154.1780273627355
 20
379.2923583434351
 30
0.0
 11
-268.1780273627353
 21
379.2923583434351
 31
0.0
  0
INSERT
  5
144E
330
1448
100
AcDbEntity
  8
DIM
 62
     0
370
    -2
100
AcDbBlockReference
  2
_DOT
 10
-151.1780273627355
 20
379.2923583434351
 30
0.0
 41
3.0
 42
3.0
 43
3.0
  0
INSERT
  5
144F
330
1448
100
AcDbEntity
  8
DIM
 62
     0
370
    -2
100
AcDbBlockReference
  2
_DOT
 10
-271.1780273627353
 20
379.2923583434351
 30
0.0
 41
3.0
 42
3.0
 43
3.0
 50
180.0
  0
MTEXT
  5
1450
330
1448
100
AcDbEntity
  8
DIM
 62
     0
 48
0.05
100
AcDbMText
 10
-211.1780273627355
 20
390.2923583434351
 30
0.0
 40
12.0
 41
0.0
 46
0.0
 71
     5
 72
     1
  1
\A1;120
  7
ＭＳ ゴシック
 73
     1
 44
1.0
  0
POINT
  5
1451
330
1448
100
AcDbEntity
  8
Defpoints
 62
     0
100
AcDbPoint
 10
-151.1780273627355
 20
441.7642506700756
 30
0.0
  0
POINT
  5
1452
330
1448
100
AcDbEntity
  8
Defpoints
 62
     0
100
AcDbPoint
 10
-271.1780273627353
 20
422.7642506700759
 30
0.0
  0
POINT
  5
1453
330
1448
100
AcDbEntity
  8
Defpoints
 62
     0
100
AcDbPoint
 10
-271.1780273627353
 20
379.2923583434351
 30
0.0
  0
ENDBLK
  5
144A
330
1448
100
AcDbEntity
  8
0
100
AcDbBlockEnd
  0
BLOCK
  5
1455
330
1454
100
AcDbEntity
  8
0
100
AcDbBlockBegin
  2
*D34
 70
     1
 10
0.0
 20
0.0
 30
0.0
  3
*D34
  1
*D35
  0
LINE
  5
1457
330
1454
100
AcDbEntity
  8
DIM
  6
Continuous
 62
     0
370
    -2
100
AcDbLine
 10
-151.1780273627355
 20
541.7642506700759
 30
0.0
 11
-151.1780273627355
 21
582.7832504717151
 31
0.0
  0
LINE
  5
1458
330
1454
100
AcDbEntity
  8
DIM
  6
Continuous
 62
     0
370
    -2
100
AcDbLine
 10
-196.1780273627355
 20
541.7642506700759
 30
0.0
 11
-196.1780273627355
 21
582.7832504717151
 31
0.0
  0
LINE
  5
1459
330
1454
100
AcDbEntity
  8
DIM
  6
Continuous
 62
     0
370
    -2
100
AcDbLine
 10
-154.1780273627355
 20
582.7832504717151
 30
0.0
 11
-193.1780273627355
 21
582.7832504717151
 31
0.0
  0
INSERT
  5
145A
330
1454
100
AcDbEntity
  8
DIM
 62
     0
370
    -2
100
AcDbBlockReference
  2
_DOT
 10
-151.1780273627355
 20
582.7832504717151
 30
0.0
 41
3.0
 42
3.0
 43
3.0
  0
INSERT
  5
145B
330
1454
100
AcDbEntity
  8
DIM
 62
     0
370
    -2
100
AcDbBlockReference
  2
_DOT
 10
-196.1780273627355
 20
582.7832504717151
 30
0.0
 41
3.0
 42
3.0
 43
3.0
 50
180.0
  0
MTEXT
  5
145C
330
1454
100
AcDbEntity
  8
DIM
 62
     0
 48
0.05
100
AcDbMText
 10
-173.6780273627355
 20
593.7832504717151
 30
0.0
 40
12.0
 41
0.0
 46
0.0
 71
     5
 72
     1
  1
\A1;45
  7
ＭＳ ゴシック
 73
     1
 44
1.0
  0
POINT
  5
145D
330
1454
100
AcDbEntity
  8
Defpoints
 62
     0
100
AcDbPoint
 10
-151.1780273627355
 20
531.7642506700759
 30
0.0
  0
POINT
  5
145E
330
1454
100
AcDbEntity
  8
Defpoints
 62
     0
100
AcDbPoint
 10
-196.1780273627355
 20
531.7642506700759
 30
0.0
  0
POINT
  5
145F
330
1454
100
AcDbEntity
  8
Defpoints
 62
     0
100
AcDbPoint
 10
-196.1780273627355
 20
582.7832504717151
 30
0.0
  0
ENDBLK
  5
1456
330
1454
100
AcDbEntity
  8
0
100
AcDbBlockEnd
  0
BLOCK
  5
1461
330
1460
100
AcDbEntity
  8
0
100
AcDbBlockBegin
  2
*D35
 70
     1
 10
0.0
 20
0.0
 30
0.0
  3
*D35
  1
*D36
  0
LINE
  5
1463
330
1460
100
AcDbEntity
  8
DIM
  6
Continuous
 62
     0
370
    -2
100
AcDbLine
 10
-933.499271389192
 20
1247.686447846837
 30
0.0
 11
-982.068406973754
 21
1247.686447846837
 31
0.0
  0
LINE
  5
1464
330
1460
100
AcDbEntity
  8
DIM
  6
Continuous
 62
     0
370
    -2
100
AcDbLine
 10
-933.499271389192
 20
1167.686447846837
 30
0.0
 11
-982.068406973754
 21
1167.686447846837
 31
0.0
  0
LINE
  5
1465
330
1460
100
AcDbEntity
  8
DIM
  6
Continuous
 62
     0
370
    -2
100
AcDbLine
 10
-982.068406973754
 20
1244.686447846837
 30
0.0
 11
-982.068406973754
 21
1170.686447846837
 31
0.0
  0
INSERT
  5
1466
330
1460
100
AcDbEntity
  8
DIM
 62
     0
370
    -2
100
AcDbBlockReference
  2
_DOT
 10
-982.068406973754
 20
1247.686447846837
 30
0.0
 41
3.0
 42
3.0
 43
3.0
 50
90.0
  0
INSERT
  5
1467
330
1460
100
AcDbEntity
  8
DIM
 62
     0
370
    -2
100
AcDbBlockReference
  2
_DOT
 10
-982.068406973754
 20
1167.686447846837
 30
0.0
 41
3.0
 42
3.0
 43
3.0
 50
270.0
  0
MTEXT
  5
1468
330
1460
100
AcDbEntity
  8
DIM
 62
     0
 48
0.05
100
AcDbMText
 10
-993.068406973754
 20
1207.686447846837
 30
0.0
 40
12.0
 41
0.0
 46
0.0
 71
     5
 72
     1
  1
\A1;80
  7
ＭＳ ゴシック
 11
0.0
 21
1.0
 31
0.0
 73
     1
 44
1.0
  0
POINT
  5
1469
330
1460
100
AcDbEntity
  8
Defpoints
 62
     0
100
AcDbPoint
 10
-923.499271389192
 20
1247.686447846837
 30
0.0
  0
POINT
  5
146A
330
1460
100
AcDbEntity
  8
Defpoints
 62
     0
100
AcDbPoint
 10
-923.499271389192
 20
1167.686447846837
 30
0.0
  0
POINT
  5
146B
330
1460
100
AcDbEntity
  8
Defpoints
 62
     0
100
AcDbPoint
 10
-982.068406973754
 20
1167.686447846837
 30
0.0
  0
ENDBLK
  5
1462
330
1460
100
AcDbEntity
  8
0
100
AcDbBlockEnd
  0
BLOCK
  5
146D
330
146C
100
AcDbEntity
  8
0
100
AcDbBlockBegin
  2
*D36
 70
     1
 10
0.0
 20
0.0
 30
0.0
  3
*D36
  1
*D37
  0
LINE
  5
146F
330
146C
100
AcDbEntity
  8
DIM
  6
Continuous
 62
     0
370
    -2
100
AcDbLine
 10
-431.1780273627355
 20
531.7642506700759
 30
0.0
 11
-468.2076022300903
 21
531.7642506700759
 31
0.0
  0
LINE
  5
1470
330
146C
100
AcDbEntity
  8
DIM
  6
Continuous
 62
     0
370
    -2
100
AcDbLine
 10
-431.1780273627355
 20
441.7642506700756
 30
0.0
 11
-468.2076022300903
 21
441.7642506700756
 31
0.0
  0
LINE
  5
1471
330
146C
100
AcDbEntity
  8
DIM
  6
Continuous
 62
     0
370
    -2
100
AcDbLine
 10
-468.2076022300903
 20
528.7642506700759
 30
0.0
 11
-468.2076022300903
 21
444.7642506700756
 31
0.0
  0
INSERT
  5
1472
330
146C
100
AcDbEntity
  8
DIM
 62
     0
370
    -2
100
AcDbBlockReference
  2
_DOT
 10
-468.2076022300903
 20
531.7642506700759
 30
0.0
 41
3.0
 42
3.0
 43
3.0
 50
90.0
  0
INSERT
  5
1473
330
146C
100
AcDbEntity
  8
DIM
 62
     0
370
    -2
100
AcDbBlockReference
  2
_DOT
 10
-468.2076022300903
 20
441.7642506700756
 30
0.0
 41
3.0
 42
3.0
 43
3.0
 50
270.0
  0
MTEXT
  5
1474
330
146C
100
AcDbEntity
  8
DIM
 62
     0
 48
0.05
100
AcDbMText
 10
-479.2076022300903
 20
486.7642506700756
 30
0.0
 40
12.0
 41
0.0
 46
0.0
 71
     5
 72
     1
  1
\A1;90
  7
ＭＳ ゴシック
 11
0.0
 21
1.0
 31
0.0
 73
     1
 44
1.0
  0
POINT
  5
1475
330
146C
100
AcDbEntity
  8
Defpoints
 62
     0
100
AcDbPoint
 10
-421.1780273627355
 20
531.7642506700759
 30
0.0
  0
POINT
  5
1476
330
146C
100
AcDbEntity
  8
Defpoints
 62
     0
100
AcDbPoint
 10
-421.1780273627355
 20
441.7642506700756
 30
0.0
  0
POINT
  5
1477
330
146C
100
AcDbEntity
  8
Defpoints
 62
     0
100
AcDbPoint
 10
-468.2076022300903
 20
441.7642506700756
 30
0.0
  0
ENDBLK
  5
146E
330
146C
100
AcDbEntity
  8
0
100
AcDbBlockEnd
  0
BLOCK
  5
1479
330
1478
100
AcDbEntity
  8
0
100
AcDbBlockBegin
  2
*D37
 70
     1
 10
0.0
 20
0.0
 30
0.0
  3
*D37
  1
*D38
  0
LINE
  5
147B
330
1478
100
AcDbEntity
  8
DIM
  6
Continuous
 62
     0
370
    -2
100
AcDbLine
 10
-922.2781116840067
 20
541.7642506700759
 30
0.0
 11
-922.2781116840067
 21
573.5583300285662
 31
0.0
  0
LINE
  5
147C
330
1478
100
AcDbEntity
  8
DIM
  6
Continuous
 62
     0
370
    -2
100
AcDbLine
 10
-882.1036723871125
 20
541.7642506700759
 30
0.0
 11
-882.1036723871125
 21
573.5583300285662
 31
0.0
  0
LINE
  5
147D
330
1478
100
AcDbEntity
  8
DIM
  6
Continuous
 62
     0
370
    -2
100
AcDbLine
 10
-919.2781116840067
 20
573.5583300285662
 30
0.0
 11
-885.1036723871125
 21
573.5583300285662
 31
0.0
  0
INSERT
  5
147E
330
1478
100
AcDbEntity
  8
DIM
 62
     0
370
    -2
100
AcDbBlockReference
  2
_DOT
 10
-922.2781116840067
 20
573.5583300285662
 30
0.0
 41
3.0
 42
3.0
 43
3.0
 50
180.0
  0
INSERT
  5
147F
330
1478
100
AcDbEntity
  8
DIM
 62
     0
370
    -2
100
AcDbBlockReference
  2
_DOT
 10
-882.1036723871125
 20
573.5583300285662
 30
0.0
 41
3.0
 42
3.0
 43
3.0
  0
MTEXT
  5
1480
330
1478
100
AcDbEntity
  8
DIM
 62
     0
 48
0.05
100
AcDbMText
 10
-902.1908920355595
 20
584.5583300285662
 30
0.0
 40
12.0
 41
0.0
 46
0.0
 71
     5
 72
     1
  1
\A1;40
  7
ＭＳ ゴシック
 73
     1
 44
1.0
  0
POINT
  5
1481
330
1478
100
AcDbEntity
  8
Defpoints
 62
     0
100
AcDbPoint
 10
-922.2781116840067
 20
531.7642506700759
 30
0.0
  0
POINT
  5
1482
330
1478
100
AcDbEntity
  8
Defpoints
 62
     0
100
AcDbPoint
 10
-882.1036723871125
 20
531.7642506700759
 30
0.0
  0
POINT
  5
1483
330
1478
100
AcDbEntity
  8
Defpoints
 62
     0
100
AcDbPoint
 10
-882.1036723871125
 20
573.5583300285662
 30
0.0
  0
ENDBLK
  5
147A
330
1478
100
AcDbEntity
  8
0
100
AcDbBlockEnd
  0
BLOCK
  5
1485
330
1484
100
AcDbEntity
  8
0
100
AcDbBlockBegin
  2
*D38
 70
     1
 10
0.0
 20
0.0
 30
0.0
  3
*D38
  1
*D39
  0
LINE
  5
1487
330
1484
100
AcDbEntity
  8
DIM
  6
Continuous
 62
     0
370
    -2
100
AcDbLine
 10
-934.6036723871125
 20
501.7642506700759
 30
0.0
 11
-963.8694631222193
 21
501.7642506700759
 31
0.0
  0
LINE
  5
1488
330
1484
100
AcDbEntity
  8
DIM
  6
Continuous
 62
     0
370
    -2
100
AcDbLine
 10
-932.2781116840067
 20
531.7642506700759
 30
0.0
 11
-963.8694631222193
 21
531.7642506700759
 31
0.0
  0
LINE
  5
1489
330
1484
100
AcDbEntity
  8
DIM
  6
Continuous
 62
     0
370
    -2
100
AcDbLine
 10
-963.8694631222193
 20
504.7642506700759
 30
0.0
 11
-963.8694631222193
 21
528.7642506700759
 31
0.0
  0
INSERT
  5
148A
330
1484
100
AcDbEntity
  8
DIM
 62
     0
370
    -2
100
AcDbBlockReference
  2
_DOT
 10
-963.8694631222193
 20
501.7642506700759
 30
0.0
 41
3.0
 42
3.0
 43
3.0
 50
270.0
  0
INSERT
  5
148B
330
1484
100
AcDbEntity
  8
DIM
 62
     0
370
    -2
100
AcDbBlockReference
  2
_DOT
 10
-963.8694631222193
 20
531.7642506700759
 30
0.0
 41
3.0
 42
3.0
 43
3.0
 50
90.0
  0
MTEXT
  5
148C
330
1484
100
AcDbEntity
  8
DIM
 62
     0
 48
0.05
100
AcDbMText
 10
-974.8694631222193
 20
516.7642506700759
 30
0.0
 40
12.0
 41
0.0
 46
0.0
 71
     5
 72
     1
  1
\A1;30
  7
ＭＳ ゴシック
 11
0.0
 21
1.0
 31
0.0
 73
     1
 44
1.0
  0
POINT
  5
148D
330
1484
100
AcDbEntity
  8
Defpoints
 62
     0
100
AcDbPoint
 10
-924.6036723871125
 20
501.7642506700759
 30
0.0
  0
POINT
  5
148E
330
1484
100
AcDbEntity
  8
Defpoints
 62
     0
100
AcDbPoint
 10
-922.2781116840067
 20
531.7642506700759
 30
0.0
  0
POINT
  5
148F
330
1484
100
AcDbEntity
  8
Defpoints
 62
     0
100
AcDbPoint
 10
-963.8694631222193
 20
531.7642506700759
 30
0.0
  0
ENDBLK
  5
1486
330
1484
100
AcDbEntity
  8
0
100
AcDbBlockEnd
  0
BLOCK
  5
1491
330
1490
100
AcDbEntity
  8
0
100
AcDbBlockBegin
  2
*D39
 70
     1
 10
0.0
 20
0.0
 30
0.0
  3
*D39
  1
*D40
  0
LINE
  5
1493
330
1490
100
AcDbEntity
  8
DIM
  6
Continuous
 62
     0
370
    -2
100
AcDbLine
 10
-642.2781116840067
 20
541.7642506700759
 30
0.0
 11
-642.2781116840067
 21
574.7159671037848
 31
0.0
  0
LINE
  5
1494
330
1490
100
AcDbEntity
  8
DIM
  6
Continuous
 62
     0
370
    -2
100
AcDbLine
 10
-682.4525509809009
 20
541.7642506700759
 30
0.0
 11
-682.4525509809009
 21
574.7159671037848
 31
0.0
  0
LINE
  5
1495
330
1490
100
AcDbEntity
  8
DIM
  6
Continuous
 62
     0
370
    -2
100
AcDbLine
 10
-645.2781116840067
 20
574.7159671037848
 30
0.0
 11
-679.4525509809009
 21
574.7159671037848
 31
0.0
  0
INSERT
  5
1496
330
1490
100
AcDbEntity
  8
DIM
 62
     0
370
    -2
100
AcDbBlockReference
  2
_DOT
 10
-642.2781116840067
 20
574.7159671037848
 30
0.0
 41
3.0
 42
3.0
 43
3.0
  0
INSERT
  5
1497
330
1490
100
AcDbEntity
  8
DIM
 62
     0
370
    -2
100
AcDbBlockReference
  2
_DOT
 10
-682.4525509809009
 20
574.7159671037848
 30
0.0
 41
3.0
 42
3.0
 43
3.0
 50
180.0
  0
MTEXT
  5
1498
330
1490
100
AcDbEntity
  8
DIM
 62
     0
 48
0.05
100
AcDbMText
 10
-662.3653313324539
 20
585.7159671037848
 30
0.0
 40
12.0
 41
0.0
 46
0.0
 71
     5
 72
     1
  1
\A1;40
  7
ＭＳ ゴシック
 73
     1
 44
1.0
  0
POINT
  5
1499
330
1490
100
AcDbEntity
  8
Defpoints
 62
     0
100
AcDbPoint
 10
-642.2781116840067
 20
531.7642506700759
 30
0.0
  0
POINT
  5
149A
330
1490
100
AcDbEntity
  8
Defpoints
 62
     0
100
AcDbPoint
 10
-682.4525509809009
 20
531.7642506700759
 30
0.0
  0
POINT
  5
149B
330
1490
100
AcDbEntity
  8
Defpoints
 62
     0
100
AcDbPoint
 10
-682.4525509809009
 20
574.7159671037848
 30
0.0
  0
ENDBLK
  5
1492
330
1490
100
AcDbEntity
  8
0
100
AcDbBlockEnd
  0
BLOCK
  5
149D
330
149C
100
AcDbEntity
  8
0
100
AcDbBlockBegin
  2
*D40
 70
     1
 10
0.0
 20
0.0
 30
0.0
  3
*D40
  1
*D41
  0
LINE
  5
149F
330
149C
100
AcDbEntity
  8
DIM
  6
Continuous
 62
     0
370
    -2
100
AcDbLine
 10
-632.2781116840067
 20
531.7642506700759
 30
0.0
 11
-597.4773288155136
 21
531.7642506700759
 31
0.0
  0
LINE
  5
14A0
330
149C
100
AcDbEntity
  8
DIM
  6
Continuous
 62
     0
370
    -2
100
AcDbLine
 10
-632.2781116840067
 20
494.7642506700759
 30
0.0
 11
-597.4773288155136
 21
494.7642506700759
 31
0.0
  0
LINE
  5
14A1
330
149C
100
AcDbEntity
  8
DIM
  6
Continuous
 62
     0
370
    -2
100
AcDbLine
 10
-597.4773288155136
 20
528.7642506700759
 30
0.0
 11
-597.4773288155136
 21
497.7642506700759
 31
0.0
  0
INSERT
  5
14A2
330
149C
100
AcDbEntity
  8
DIM
 62
     0
370
    -2
100
AcDbBlockReference
  2
_DOT
 10
-597.4773288155136
 20
531.7642506700759
 30
0.0
 41
3.0
 42
3.0
 43
3.0
 50
90.0
  0
INSERT
  5
14A3
330
149C
100
AcDbEntity
  8
DIM
 62
     0
370
    -2
100
AcDbBlockReference
  2
_DOT
 10
-597.4773288155136
 20
494.7642506700759
 30
0.0
 41
3.0
 42
3.0
 43
3.0
 50
270.0
  0
MTEXT
  5
14A4
330
149C
100
AcDbEntity
  8
DIM
 62
     0
 48
0.05
100
AcDbMText
 10
-608.4773288155136
 20
513.2642506700759
 30
0.0
 40
12.0
 41
0.0
 46
0.0
 71
     5
 72
     1
  1
\A1;37
  7
ＭＳ ゴシック
 11
0.0
 21
1.0
 31
0.0
 73
     1
 44
1.0
  0
POINT
  5
14A5
330
149C
100
AcDbEntity
  8
Defpoints
 62
     0
100
AcDbPoint
 10
-642.2781116840067
 20
531.7642506700759
 30
0.0
  0
POINT
  5
14A6
330
149C
100
AcDbEntity
  8
Defpoints
 62
     0
100
AcDbPoint
 10
-642.2781116840067
 20
494.7642506700759
 30
0.0
  0
POINT
  5
14A7
330
149C
100
AcDbEntity
  8
Defpoints
 62
     0
100
AcDbPoint
 10
-597.4773288155136
 20
494.7642506700759
 30
0.0
  0
ENDBLK
  5
149E
330
149C
100
AcDbEntity
  8
0
100
AcDbBlockEnd
  0
BLOCK
  5
15D4
330
15D3
100
AcDbEntity
  8
0
100
AcDbBlockBegin
  2
*D41
 70
     1
 10
0.0
 20
0.0
 30
0.0
  3
*D41
  1
*D44
  0
LINE
  5
15D5
330
15D3
100
AcDbEntity
  8
DIM
  6
Continuous
 62
     0
370
    -2
100
AcDbLine
 10
77.93390569102849
 20
49.72799999999984
 30
0.0
 11
108.4818194962347
 21
49.72799999999984
 31
0.0
  0
LINE
  5
15D6
330
15D3
100
AcDbEntity
  8
DIM
  6
Continuous
 62
     0
370
    -2
100
AcDbLine
 10
78.8822419830476
 20
68.72799999999961
 30
0.0
 11
108.4818194962347
 21
68.72799999999961
 31
0.0
  0
LINE
  5
15D7
330
15D3
100
AcDbEntity
  8
DIM
  6
Continuous
 62
     0
370
    -2
100
AcDbLine
 10
108.4818194962347
 20
49.72799999999984
 30
0.0
 11
108.4818194962347
 21
0.0000000000000284
 31
0.0
  0
LINE
  5
15D8
330
15D3
100
AcDbEntity
  8
DIM
  6
Continuous
 62
     0
370
    -2
100
AcDbLine
 10
108.4818194962347
 20
52.72799999999984
 30
0.0
 11
108.4818194962347
 21
65.72799999999961
 31
0.0
  0
INSERT
  5
15D9
330
15D3
100
AcDbEntity
  8
DIM
 62
     0
370
    -2
100
AcDbBlockReference
  2
_DOT
 10
108.4818194962347
 20
49.72799999999984
 30
0.0
 41
3.0
 42
3.0
 43
3.0
 50
270.0
  0
INSERT
  5
15DA
330
15D3
100
AcDbEntity
  8
DIM
 62
     0
370
    -2
100
AcDbBlockReference
  2
_DOT
 10
108.4818194962347
 20
68.72799999999961
 30
0.0
 41
3.0
 42
3.0
 43
3.0
 50
90.0
  0
MTEXT
  5
15DB
330
15D3
100
AcDbEntity
  8
DIM
 62
     0
 48
0.05
100
AcDbMText
 10
92.48181949623472
 20
16.57600000000002
 30
0.0
 40
12.0
 41
0.0
 46
0.0
 71
     5
 72
     1
  1
\A1;19
  7
ＭＳ ゴシック
 11
0.0
 21
1.0
 31
0.0
 73
     1
 44
1.0
  0
POINT
  5
15DC
330
15D3
100
AcDbEntity
  8
Defpoints
 62
     0
100
AcDbPoint
 10
72.93390569102849
 20
49.72799999999984
 30
0.0
  0
POINT
  5
15DD
330
15D3
100
AcDbEntity
  8
Defpoints
 62
     0
100
AcDbPoint
 10
73.8822419830476
 20
68.72799999999961
 30
0.0
  0
POINT
  5
15DE
330
15D3
100
AcDbEntity
  8
Defpoints
 62
     0
100
AcDbPoint
 10
108.4818194962347
 20
68.72799999999961
 30
0.0
  0
ENDBLK
  5
15DF
330
15D3
100
AcDbEntity
  8
0
100
AcDbBlockEnd
  0
BLOCK
  5
1600
330
15FF
100
AcDbEntity
  8
0
100
AcDbBlockBegin
  2
*D42
 70
     1
 10
0.0
 20
0.0
 30
0.0
  3
*D42
  1
*D45
  0
LINE
  5
1602
330
15FF
100
AcDbEntity
  8
DIM
  6
Continuous
 62
     0
370
    -2
100
AcDbLine
 10
-733.3632965287636
 20
422.7642506700759
 30
0.0
 11
-702.8153827235573
 21
422.7642506700759
 31
0.0
  0
LINE
  5
1603
330
15FF
100
AcDbEntity
  8
DIM
  6
Continuous
 62
     0
370
    -2
100
AcDbLine
 10
-732.4149602367443
 20
441.7642506700756
 30
0.0
 11
-702.8153827235573
 21
441.7642506700756
 31
0.0
  0
LINE
  5
1604
330
15FF
100
AcDbEntity
  8
DIM
  6
Continuous
 62
     0
370
    -2
100
AcDbLine
 10
-702.8153827235573
 20
422.7642506700759
 30
0.0
 11
-702.8153827235573
 21
373.036250670076
 31
0.0
  0
LINE
  5
1605
330
15FF
100
AcDbEntity
  8
DIM
  6
Continuous
 62
     0
370
    -2
100
AcDbLine
 10
-702.8153827235573
 20
425.7642506700759
 30
0.0
 11
-702.8153827235573
 21
438.7642506700756
 31
0.0
  0
INSERT
  5
1606
330
15FF
100
AcDbEntity
  8
DIM
 62
     0
370
    -2
100
AcDbBlockReference
  2
_DOT
 10
-702.8153827235573
 20
422.7642506700759
 30
0.0
 41
3.0
 42
3.0
 43
3.0
 50
270.0
  0
INSERT
  5
1607
330
15FF
100
AcDbEntity
  8
DIM
 62
     0
370
    -2
100
AcDbBlockReference
  2
_DOT
 10
-702.8153827235573
 20
441.7642506700756
 30
0.0
 41
3.0
 42
3.0
 43
3.0
 50
90.0
  0
MTEXT
  5
1608
330
15FF
100
AcDbEntity
  8
DIM
 62
     0
 48
0.05
100
AcDbMText
 10
-718.8153827235573
 20
389.612250670076
 30
0.0
 40
12.0
 41
0.0
 46
0.0
 71
     5
 72
     1
  1
\A1;19
  7
ＭＳ ゴシック
 11
0.0
 21
1.0
 31
0.0
 73
     1
 44
1.0
  0
POINT
  5
1609
330
15FF
100
AcDbEntity
  8
Defpoints
 62
     0
100
AcDbPoint
 10
-738.3632965287636
 20
422.7642506700759
 30
0.0
  0
POINT
  5
160A
330
15FF
100
AcDbEntity
  8
Defpoints
 62
     0
100
AcDbPoint
 10
-737.4149602367443
 20
441.7642506700756
 30
0.0
  0
POINT
  5
160B
330
15FF
100
AcDbEntity
  8
Defpoints
 62
     0
100
AcDbPoint
 10
-702.8153827235573
 20
441.7642506700756
 30
0.0
  0
ENDBLK
  5
1601
330
15FF
100
AcDbEntity
  8
0
100
AcDbBlockEnd
  0
BLOCK
  5
1666
330
1665
100
AcDbEntity
  8
0
100
AcDbBlockBegin
  2
*D43
 70
     1
 10
0.0
 20
0.0
 30
0.0
  3
*D43
  1
*D44
  0
LINE
  5
1667
330
1665
100
AcDbEntity
  8
尺寸
 62
     0
370
    -2
100
AcDbLine
 10
20.51173685637142
 20
76.28060230158096
 30
0.0
 11
20.51173685637141
 21
68.84310230158087
 31
0.0
  0
LINE
  5
1668
330
1665
100
AcDbEntity
  8
尺寸
 62
     0
370
    -2
100
AcDbLine
 10
140.5117368563714
 20
76.28060230158096
 30
0.0
 11
140.5117368563714
 21
68.84310230158087
 31
0.0
  0
LINE
  5
1669
330
1665
100
AcDbEntity
  8
尺寸
 62
     0
370
    -2
100
AcDbLine
 10
24.01173685637141
 20
68.84310230158087
 30
0.0
 11
137.0117368563714
 21
68.84310230158087
 31
0.0
  0
SOLID
  5
166A
330
1665
100
AcDbEntity
  8
尺寸
 62
     0
100
AcDbTrace
 10
24.01173685637141
 20
69.4264356349142
 30
0.0
 11
24.01173685637141
 21
68.25976896824754
 31
0.0
 12
20.51173685637141
 22
68.84310230158087
 32
0.0
 13
20.51173685637141
 23
68.84310230158087
 33
0.0
  0
SOLID
  5
166B
330
1665
100
AcDbEntity
  8
尺寸
 62
     0
100
AcDbTrace
 10
137.0117368563714
 20
68.25976896824754
 30
0.0
 11
137.0117368563714
 21
69.4264356349142
 31
0.0
 12
140.5117368563714
 22
68.84310230158087
 32
0.0
 13
140.5117368563714
 23
68.84310230158087
 33
0.0
  0
MTEXT
  5
166C
330
1665
100
AcDbEntity
  8
尺寸
 62
     0
 48
0.05
100
AcDbMText
 10
76.00471298228844
 20
67.96810230158087
 30
0.0
 40
3.5
 41
0.0
 46
0.0
 71
     2
 72
     1
  1
\A1;600
  7
SLDTEXTSTYLE1
 73
     1
 44
1.0
  0
POINT
  5
16CA
330
1665
100
AcDbEntity
  8
Defpoints
 62
     0
100
AcDbPoint
 10
20.51173685637142
 20
76.34310230158096
 30
0.0
  0
POINT
  5
16CB
330
1665
100
AcDbEntity
  8
Defpoints
 62
     0
100
AcDbPoint
 10
140.5117368563714
 20
76.34310230158096
 30
0.0
  0
POINT
  5
16CC
330
1665
100
AcDbEntity
  8
Defpoints
 62
     0
100
AcDbPoint
 10
140.5117368563714
 20
68.84310230158087
 30
0.0
  0
ENDBLK
  5
166D
330
1665
100
AcDbEntity
  8
0
100
AcDbBlockEnd
  0
BLOCK
  5
16B1
330
16B0
100
AcDbEntity
  8
0
100
AcDbBlockBegin
  2
*D44
 70
     1
 10
0.0
 20
0.0
 30
0.0
  3
*D44
  1
*D45
  0
LINE
  5
16B2
330
16B0
100
AcDbEntity
  8
尺寸
 62
     0
370
    -2
100
AcDbLine
 10
14.51173685637133
 20
32.46172922169046
 30
0.0
 11
14.51173685637133
 21
35.87680295759847
 31
0.0
  0
LINE
  5
16B3
330
16B0
100
AcDbEntity
  8
尺寸
 62
     0
370
    -2
100
AcDbLine
 10
26.51173685637134
 20
32.46172922169046
 30
0.0
 11
26.51173685637134
 21
35.87680295759847
 31
0.0
  0
LINE
  5
16B4
330
16B0
100
AcDbEntity
  8
尺寸
 62
     0
370
    -2
100
AcDbLine
 10
18.01173685637133
 20
35.87680295759847
 30
0.0
 11
23.01173685637134
 21
35.87680295759847
 31
0.0
  0
SOLID
  5
16B5
330
16B0
100
AcDbEntity
  8
尺寸
 62
     0
100
AcDbTrace
 10
18.01173685637133
 20
36.46013629093181
 30
0.0
 11
18.01173685637133
 21
35.29346962426514
 31
0.0
 12
14.51173685637133
 22
35.87680295759847
 32
0.0
 13
14.51173685637133
 23
35.87680295759847
 33
0.0
  0
SOLID
  5
16B6
330
16B0
100
AcDbEntity
  8
尺寸
 62
     0
100
AcDbTrace
 10
23.01173685637134
 20
35.29346962426514
 30
0.0
 11
23.01173685637134
 21
36.46013629093181
 31
0.0
 12
26.51173685637134
 22
35.87680295759847
 32
0.0
 13
26.51173685637134
 23
35.87680295759847
 33
0.0
  0
MTEXT
  5
16B7
330
16B0
100
AcDbEntity
  8
尺寸
 62
     0
 48
0.05
100
AcDbMText
 10
20.28273646289641
 20
40.25180295759847
 30
0.0
 40
3.5
 41
0.0
 46
0.0
 71
     2
 72
     1
  1
\A1;%%c60
  7
SLDTEXTSTYLE1
 73
     1
 44
1.0
  0
POINT
  5
16B8
330
16B0
100
AcDbEntity
  8
Defpoints
 62
     0
100
AcDbPoint
 10
14.51173685637133
 20
32.39922922169046
 30
0.0
  0
POINT
  5
16CD
330
16B0
100
AcDbEntity
  8
Defpoints
 62
     0
100
AcDbPoint
 10
26.51173685637134
 20
32.39922922169046
 30
0.0
  0
POINT
  5
16CE
330
16B0
100
AcDbEntity
  8
Defpoints
 62
     0
100
AcDbPoint
 10
26.51173685637134
 20
35.87680295759847
 30
0.0
  0
ENDBLK
  5
16B9
330
16B0
100
AcDbEntity
  8
0
100
AcDbBlockEnd
  0
BLOCK
  5
16BC
330
16BB
100
AcDbEntity
  8
0
100
AcDbBlockBegin
  2
*D45
 70
     1
 10
0.0
 20
0.0
 30
0.0
  3
*D45
  1
*D46
  0
LINE
  5
16BD
330
16BB
100
AcDbEntity
  8
尺寸
 62
     0
370
    -2
100
AcDbLine
 10
14.44923685637133
 20
32.39922922169046
 30
0.0
 11
4.511736856371231
 21
32.39922922169042
 31
0.0
  0
LINE
  5
16BE
330
16BB
100
AcDbEntity
  8
尺寸
 62
     0
370
    -2
100
AcDbLine
 10
18.81000763468093
 20
2.660000000000422
 30
0.0
 11
4.511736856371335
 21
2.660000000000363
 31
0.0
  0
LINE
  5
16BF
330
16BB
100
AcDbEntity
  8
尺寸
 62
     0
370
    -2
100
AcDbLine
 10
4.511736856371243
 20
28.89922922169042
 30
0.0
 11
4.511736856371322
 21
6.160000000000363
 31
0.0
  0
SOLID
  5
16C0
330
16BB
100
AcDbEntity
  8
尺寸
 62
     0
100
AcDbTrace
 10
5.095070189704576
 20
28.89922922169042
 30
0.0
 11
3.92840352303791
 21
28.89922922169042
 31
0.0
 12
4.511736856371231
 22
32.39922922169042
 32
0.0
 13
4.511736856371231
 23
32.39922922169042
 33
0.0
  0
SOLID
  5
16C1
330
16BB
100
AcDbEntity
  8
尺寸
 62
     0
100
AcDbTrace
 10
3.928403523037989
 20
6.160000000000361
 30
0.0
 11
5.095070189704655
 21
6.160000000000364
 31
0.0
 12
4.511736856371335
 22
2.660000000000363
 32
0.0
 13
4.511736856371335
 23
2.660000000000363
 33
0.0
  0
MTEXT
  5
16C2
330
16BB
100
AcDbEntity
  8
尺寸
 62
     0
 48
0.05
100
AcDbMText
 10
0.1367368563712787
 20
18.78239635030543
 30
0.0
 40
3.5
 41
0.0
 46
0.0
 71
     2
 72
     1
  1
\A1;149
  7
SLDTEXTSTYLE1
 11
-3.494269280830042E-15
 21
1.0
 31
0.0
 73
     1
 44
1.0
  0
POINT
  5
16CF
330
16BB
100
AcDbEntity
  8
Defpoints
 62
     0
100
AcDbPoint
 10
14.51173685637133
 20
32.39922922169046
 30
0.0
  0
POINT
  5
16D0
330
16BB
100
AcDbEntity
  8
Defpoints
 62
     0
100
AcDbPoint
 10
18.87250763468093
 20
2.660000000000423
 30
0.0
  0
POINT
  5
16D1
330
16BB
100
AcDbEntity
  8
Defpoints
 62
     0
100
AcDbPoint
 10
4.511736856371335
 20
2.660000000000369
 30
0.0
  0
ENDBLK
  5
16C3
330
16BB
100
AcDbEntity
  8
0
100
AcDbBlockEnd
  0
BLOCK
  5
172E
330
172D
100
AcDbEntity
  8
0
100
AcDbBlockBegin
  2
*D46
 70
     1
 10
0.0
 20
0.0
 30
0.0
  3
*D46
  1
*D47
  0
LINE
  5
1730
330
172D
100
AcDbEntity
  8
DIM
 62
     0
370
    -2
100
AcDbLine
 10
108.4227608181715
 20
539.4334025693571
 30
0.0
 11
108.4227608181715
 21
511.9334025693566
 31
0.0
  0
LINE
  5
1731
330
172D
100
AcDbEntity
  8
DIM
 62
     0
370
    -2
100
AcDbLine
 10
708.4227608181715
 20
539.4334025693571
 30
0.0
 11
708.4227608181715
 21
511.9334025693566
 31
0.0
  0
LINE
  5
1732
330
172D
100
AcDbEntity
  8
DIM
 62
     0
370
    -2
100
AcDbLine
 10
111.4227608181715
 20
511.9334025693566
 30
0.0
 11
705.4227608181715
 21
511.9334025693566
 31
0.0
  0
INSERT
  5
1733
330
172D
100
AcDbEntity
  8
DIM
 62
     0
370
    -2
100
AcDbBlockReference
  2
_DOT
 10
108.4227608181715
 20
511.9334025693566
 30
0.0
 41
3.0
 42
3.0
 43
3.0
 50
180.0
  0
INSERT
  5
1734
330
172D
100
AcDbEntity
  8
DIM
 62
     0
370
    -2
100
AcDbBlockReference
  2
_DOT
 10
708.4227608181715
 20
511.9334025693566
 30
0.0
 41
3.0
 42
3.0
 43
3.0
  0
MTEXT
  5
1735
330
172D
100
AcDbEntity
  8
DIM
 62
     0
 48
0.05
100
AcDbMText
 10
385.8876414477569
 20
528.9334025693566
 30
0.0
 40
12.0
 41
0.0
 46
0.0
 71
     2
 72
     1
  1
\A1;600
  7
ＭＳ ゴシック
 73
     1
 44
1.0
  0
POINT
  5
1736
330
172D
100
AcDbEntity
  8
Defpoints
 62
     0
100
AcDbPoint
 10
108.4227608181715
 20
549.4334025693571
 30
0.0
  0
POINT
  5
1737
330
172D
100
AcDbEntity
  8
Defpoints
 62
     0
100
AcDbPoint
 10
708.4227608181715
 20
549.4334025693571
 30
0.0
  0
POINT
  5
1738
330
172D
100
AcDbEntity
  8
Defpoints
 62
     0
100
AcDbPoint
 10
708.4227608181715
 20
511.9334025693566
 30
0.0
  0
ENDBLK
  5
172F
330
172D
100
AcDbEntity
  8
0
100
AcDbBlockEnd
  0
BLOCK
  5
173A
330
1739
100
AcDbEntity
  8
0
100
AcDbBlockBegin
  2
*D47
 70
     1
 10
0.0
 20
0.0
 30
0.0
  3
*D47
  1
*D48
  0
LINE
  5
173C
330
1739
100
AcDbEntity
  8
DIM
 62
     0
370
    -2
100
AcDbLine
 10
123.102179812584
 20
1003.135713147558
 30
0.0
 11
123.102179812584
 21
1010.523581827098
 31
0.0
  0
LINE
  5
173D
330
1739
100
AcDbEntity
  8
DIM
 62
     0
370
    -2
100
AcDbLine
 10
183.102179812584
 20
1003.135713147558
 30
0.0
 11
183.102179812584
 21
1010.523581827098
 31
0.0
  0
LINE
  5
173E
330
1739
100
AcDbEntity
  8
DIM
 62
     0
370
    -2
100
AcDbLine
 10
126.102179812584
 20
1010.523581827098
 30
0.0
 11
180.102179812584
 21
1010.523581827098
 31
0.0
  0
INSERT
  5
173F
330
1739
100
AcDbEntity
  8
DIM
 62
     0
370
    -2
100
AcDbBlockReference
  2
_DOT
 10
123.102179812584
 20
1010.523581827098
 30
0.0
 41
3.0
 42
3.0
 43
3.0
 50
180.0
  0
INSERT
  5
1740
330
1739
100
AcDbEntity
  8
DIM
 62
     0
370
    -2
100
AcDbBlockReference
  2
_DOT
 10
183.102179812584
 20
1010.523581827098
 30
0.0
 41
3.0
 42
3.0
 43
3.0
  0
MTEXT
  5
1741
330
1739
100
AcDbEntity
  8
DIM
 62
     0
 48
0.05
100
AcDbMText
 10
151.9571778452092
 20
1033.423581827098
 30
0.0
 40
12.0
 41
0.0
 46
0.0
 71
     2
 72
     1
  1
\A1;%%c60
  7
ＭＳ ゴシック
 73
     1
 44
1.0
  0
POINT
  5
1742
330
1739
100
AcDbEntity
  8
Defpoints
 62
     0
100
AcDbPoint
 10
123.102179812584
 20
993.1357131475581
 30
0.0
  0
POINT
  5
1743
330
1739
100
AcDbEntity
  8
Defpoints
 62
     0
100
AcDbPoint
 10
183.102179812584
 20
993.1357131475581
 30
0.0
  0
POINT
  5
1744
330
1739
100
AcDbEntity
  8
Defpoints
 62
     0
100
AcDbPoint
 10
183.102179812584
 20
1010.523581827098
 30
0.0
  0
ENDBLK
  5
173B
330
1739
100
AcDbEntity
  8
0
100
AcDbBlockEnd
  0
BLOCK
  5
1746
330
1745
100
AcDbEntity
  8
0
100
AcDbBlockBegin
  2
*D48
 70
     1
 10
0.0
 20
0.0
 30
0.0
  3
*D48
  1
*D49
  0
LINE
  5
1748
330
1745
100
AcDbEntity
  8
DIM
 62
     0
370
    -2
100
AcDbLine
 10
113.102179812584
 20
993.1357131475581
 30
0.0
 11
73.1021798125838
 21
993.1357131475579
 31
0.0
  0
LINE
  5
1749
330
1745
100
AcDbEntity
  8
DIM
 62
     0
370
    -2
100
AcDbLine
 10
134.9060337041329
 20
844.4395670391079
 30
0.0
 11
73.10217981258432
 21
844.4395670391076
 31
0.0
  0
LINE
  5
174A
330
1745
100
AcDbEntity
  8
DIM
 62
     0
370
    -2
100
AcDbLine
 10
73.10217981258381
 20
990.1357131475579
 30
0.0
 11
73.10217981258431
 21
847.4395670391076
 31
0.0
  0
INSERT
  5
174B
330
1745
100
AcDbEntity
  8
DIM
 62
     0
370
    -2
100
AcDbBlockReference
  2
_DOT
 10
73.1021798125838
 20
993.1357131475579
 30
0.0
 41
3.0
 42
3.0
 43
3.0
 50
90.0000000000002
  0
INSERT
  5
174C
330
1745
100
AcDbEntity
  8
DIM
 62
     0
370
    -2
100
AcDbBlockReference
  2
_DOT
 10
73.10217981258432
 20
844.4395670391076
 30
0.0
 41
3.0
 42
3.0
 43
3.0
 50
270.0000000000002
  0
MTEXT
  5
174D
330
1745
100
AcDbEntity
  8
DIM
 62
     0
 48
0.05
100
AcDbMText
 10
51.10217981258404
 20
925.0515487906334
 30
0.0
 40
12.0
 41
0.0
 46
0.0
 71
     2
 72
     1
  1
\A1;149
  7
ＭＳ ゴシック
 11
-3.536081050002368E-15
 21
1.0
 31
0.0
 73
     1
 44
1.0
  0
POINT
  5
174E
330
1745
100
AcDbEntity
  8
Defpoints
 62
     0
100
AcDbPoint
 10
123.102179812584
 20
993.1357131475581
 30
0.0
  0
POINT
  5
174F
330
1745
100
AcDbEntity
  8
Defpoints
 62
     0
100
AcDbPoint
 10
144.9060337041329
 20
844.4395670391079
 30
0.0
  0
POINT
  5
1750
330
1745
100
AcDbEntity
  8
Defpoints
 62
     0
100
AcDbPoint
 10
73.10217981258432
 20
844.4395670391077
 30
0.0
  0
ENDBLK
  5
1747
330
1745
100
AcDbEntity
  8
0
100
AcDbBlockEnd
  0
BLOCK
  5
1790
330
178F
100
AcDbEntity
  8
0
100
AcDbBlockBegin
  2
*D49
 70
     1
 10
0.0
 20
0.0
 30
0.0
  3
*D49
  1
*D50
  0
LINE
  5
1792
330
178F
100
AcDbEntity
  8
DIM
 62
     0
 48
0.05
370
    -2
100
AcDbLine
 10
-322.013064052085
 20
705.5212249101561
 30
0.0
 11
-282.466840559386
 21
705.5212249101561
 31
0.0
  0
LINE
  5
1793
330
178F
100
AcDbEntity
  8
DIM
 62
     0
 48
0.05
370
    -2
100
AcDbLine
 10
-340.5092195252183
 20
556.5212249101561
 30
0.0
 11
-282.466840559386
 21
556.5212249101561
 31
0.0
  0
LINE
  5
1794
330
178F
100
AcDbEntity
  8
DIM
 62
     0
 48
0.05
370
    -2
100
AcDbLine
 10
-282.466840559386
 20
702.5212249101561
 30
0.0
 11
-282.466840559386
 21
559.5212249101561
 31
0.0
  0
INSERT
  5
1795
330
178F
100
AcDbEntity
  8
DIM
 62
     0
370
    -2
100
AcDbBlockReference
  2
_DOT
 10
-282.466840559386
 20
705.5212249101561
 30
0.0
 41
3.0
 42
3.0
 43
3.0
 50
90.0
  0
INSERT
  5
1796
330
178F
100
AcDbEntity
  8
DIM
 62
     0
370
    -2
100
AcDbBlockReference
  2
_DOT
 10
-282.466840559386
 20
556.5212249101561
 30
0.0
 41
3.0
 42
3.0
 43
3.0
 50
270.0
  0
MTEXT
  5
1797
330
178F
100
AcDbEntity
  8
DIM
 62
     0
 48
0.05
100
AcDbMText
 10
-293.466840559386
 20
631.0212249101561
 30
0.0
 40
12.0
 41
0.0
 46
0.0
 71
     5
 72
     1
  1
\A1;149
  7
ＭＳ ゴシック
 11
0.0
 21
1.0
 31
0.0
 73
     1
 44
1.0
  0
POINT
  5
1798
330
178F
100
AcDbEntity
  8
Defpoints
 62
     0
100
AcDbPoint
 10
-332.013064052085
 20
705.5212249101561
 30
0.0
  0
POINT
  5
1799
330
178F
100
AcDbEntity
  8
Defpoints
 62
     0
100
AcDbPoint
 10
-350.5092195252183
 20
556.5212249101561
 30
0.0
  0
POINT
  5
179A
330
178F
100
AcDbEntity
  8
Defpoints
 62
     0
100
AcDbPoint
 10
-282.466840559386
 20
556.5212249101561
 30
0.0
  0
ENDBLK
  5
1791
330
178F
100
AcDbEntity
  8
0
100
AcDbBlockEnd
  0
BLOCK
  5
17A5
330
17A4
100
AcDbEntity
  8
0
100
AcDbBlockBegin
  2
*D50
 70
     1
 10
0.0
 20
0.0
 30
0.0
  3
*D50
  1
*D51
  0
LINE
  5
17A7
330
17A4
100
AcDbEntity
  8
DIM
 62
     0
 48
0.05
370
    -2
100
AcDbLine
 10
-112.9457807965132
 20
1063.995359883266
 30
0.0
 11
-84.08658088242441
 21
1063.995359883266
 31
0.0
  0
LINE
  5
17A8
330
17A4
100
AcDbEntity
  8
DIM
 62
     0
 48
0.05
370
    -2
100
AcDbLine
 10
-112.9457807965132
 20
1003.99535749908
 30
0.0
 11
-84.08658088242441
 21
1003.99535749908
 31
0.0
  0
LINE
  5
17A9
330
17A4
100
AcDbEntity
  8
DIM
 62
     0
 48
0.05
370
    -2
100
AcDbLine
 10
-84.08658088242441
 20
1060.995359883266
 30
0.0
 11
-84.08658088242441
 21
1006.99535749908
 31
0.0
  0
INSERT
  5
17AA
330
17A4
100
AcDbEntity
  8
DIM
 62
     0
370
    -2
100
AcDbBlockReference
  2
_DOT
 10
-84.08658088242441
 20
1063.995359883266
 30
0.0
 41
3.0
 42
3.0
 43
3.0
 50
90.0
  0
INSERT
  5
17AB
330
17A4
100
AcDbEntity
  8
DIM
 62
     0
370
    -2
100
AcDbBlockReference
  2
_DOT
 10
-84.08658088242441
 20
1003.99535749908
 30
0.0
 41
3.0
 42
3.0
 43
3.0
 50
270.0
  0
MTEXT
  5
17AC
330
17A4
100
AcDbEntity
  8
DIM
 62
     0
 48
0.05
100
AcDbMText
 10
-95.14658088242436
 20
1033.995358691173
 30
0.0
 40
12.0
 41
0.0
 46
0.0
 71
     5
 72
     1
  1
\A1;ø60
  7
ＭＳ ゴシック
 11
0.0
 21
1.0
 31
0.0
 73
     1
 44
1.0
  0
POINT
  5
17AD
330
17A4
100
AcDbEntity
  8
Defpoints
 62
     0
100
AcDbPoint
 10
-122.9457807965132
 20
1063.995359883266
 30
0.0
  0
POINT
  5
17AE
330
17A4
100
AcDbEntity
  8
Defpoints
 62
     0
100
AcDbPoint
 10
-122.9457807965132
 20
1003.99535749908
 30
0.0
  0
POINT
  5
17AF
330
17A4
100
AcDbEntity
  8
Defpoints
 62
     0
100
AcDbPoint
 10
-84.08658088242441
 20
1003.99535749908
 30
0.0
  0
ENDBLK
  5
17A6
330
17A4
100
AcDbEntity
  8
0
100
AcDbBlockEnd
  0
BLOCK
  5
17C9
330
17C8
100
AcDbEntity
  8
0
100
AcDbBlockBegin
  2
*D51
 70
     1
 10
0.0
 20
0.0
 30
0.0
  3
*D51
  1
*D52
  0
LINE
  5
17CB
330
17C8
100
AcDbEntity
  8
DIM
 62
     0
 48
0.05
370
    -2
100
AcDbLine
 10
699.4266162584969
 20
861.6571907492364
 30
0.0
 11
699.4266162584969
 21
813.0949826848789
 31
0.0
  0
LINE
  5
17CC
330
17C8
100
AcDbEntity
  8
DIM
 62
     0
 48
0.05
370
    -2
100
AcDbLine
 10
717.4266080330559
 20
861.6571907492364
 30
0.0
 11
717.4266080330559
 21
813.0949826848789
 31
0.0
  0
LINE
  5
17CD
330
17C8
100
AcDbEntity
  8
DIM
 62
     0
 48
0.05
370
    -2
100
AcDbLine
 10
696.4266162584969
 20
813.0949826848789
 30
0.0
 11
693.4266162584969
 21
813.0949826848789
 31
0.0
  0
LINE
  5
17CE
330
17C8
100
AcDbEntity
  8
DIM
 62
     0
 48
0.05
370
    -2
100
AcDbLine
 10
720.4266080330559
 20
813.0949826848789
 30
0.0
 11
723.4266080330559
 21
813.0949826848789
 31
0.0
  0
INSERT
  5
17CF
330
17C8
100
AcDbEntity
  8
DIM
 62
     0
370
    -2
100
AcDbBlockReference
  2
_DOT
 10
699.4266162584969
 20
813.0949826848789
 30
0.0
 41
3.0
 42
3.0
 43
3.0
  0
INSERT
  5
17D0
330
17C8
100
AcDbEntity
  8
DIM
 62
     0
370
    -2
100
AcDbBlockReference
  2
_DOT
 10
717.4266080330559
 20
813.0949826848789
 30
0.0
 41
3.0
 42
3.0
 43
3.0
 50
180.0
  0
MTEXT
  5
17D1
330
17C8
100
AcDbEntity
  8
DIM
 62
     0
 48
0.05
100
AcDbMText
 10
708.4266121457764
 20
824.0949826848789
 30
0.0
 40
12.0
 41
0.0
 46
0.0
 71
     5
 72
     1
  1
\A1;18
  7
ＭＳ ゴシック
 73
     1
 44
1.0
  0
POINT
  5
17D2
330
17C8
100
AcDbEntity
  8
Defpoints
 62
     0
100
AcDbPoint
 10
699.4266162584969
 20
871.6571907492364
 30
0.0
  0
POINT
  5
17D3
330
17C8
100
AcDbEntity
  8
Defpoints
 62
     0
100
AcDbPoint
 10
717.4266080330559
 20
871.6571907492364
 30
0.0
  0
POINT
  5
17D4
330
17C8
100
AcDbEntity
  8
Defpoints
 62
     0
100
AcDbPoint
 10
717.4266080330559
 20
813.0949826848789
 30
0.0
  0
ENDBLK
  5
17CA
330
17C8
100
AcDbEntity
  8
0
100
AcDbBlockEnd
  0
BLOCK
  5
17D9
330
17D8
100
AcDbEntity
  8
0
100
AcDbBlockBegin
  2
*D52
 70
     1
 10
0.0
 20
0.0
 30
0.0
  3
*D52
  1
*D53
  0
LINE
  5
17DB
330
17D8
100
AcDbEntity
  8
DIM
 62
     0
 48
0.05
370
    -2
100
AcDbLine
 10
671.7127995200646
 20
843.6395641347756
 30
0.0
 11
667.8708230684891
 21
843.6395641347756
 31
0.0
  0
LINE
  5
17DC
330
17D8
100
AcDbEntity
  8
DIM
 62
     0
 48
0.05
370
    -2
100
AcDbLine
 10
671.7127995200646
 20
861.6395633599152
 30
0.0
 11
667.8708230684891
 21
861.6395633599152
 31
0.0
  0
LINE
  5
17DD
330
17D8
100
AcDbEntity
  8
DIM
 62
     0
 48
0.05
370
    -2
100
AcDbLine
 10
667.8708230684891
 20
840.6395641347756
 30
0.0
 11
667.8708230684891
 21
837.6395641347756
 31
0.0
  0
LINE
  5
17DE
330
17D8
100
AcDbEntity
  8
DIM
 62
     0
 48
0.05
370
    -2
100
AcDbLine
 10
667.8708230684891
 20
864.6395633599152
 30
0.0
 11
667.8708230684891
 21
867.6395633599152
 31
0.0
  0
INSERT
  5
17DF
330
17D8
100
AcDbEntity
  8
DIM
 62
     0
370
    -2
100
AcDbBlockReference
  2
_DOT
 10
667.8708230684891
 20
843.6395641347756
 30
0.0
 41
3.0
 42
3.0
 43
3.0
 50
90.0
  0
INSERT
  5
17E0
330
17D8
100
AcDbEntity
  8
DIM
 62
     0
370
    -2
100
AcDbBlockReference
  2
_DOT
 10
667.8708230684891
 20
861.6395633599152
 30
0.0
 41
3.0
 42
3.0
 43
3.0
 50
270.0
  0
MTEXT
  5
17E1
330
17D8
100
AcDbEntity
  8
DIM
 62
     0
 48
0.05
100
AcDbMText
 10
656.8708230684891
 20
852.6395637473454
 30
0.0
 40
12.0
 41
0.0
 46
0.0
 71
     5
 72
     1
  1
\A1;18
  7
ＭＳ ゴシック
 11
0.0
 21
1.0
 31
0.0
 73
     1
 44
1.0
  0
POINT
  5
17E2
330
17D8
100
AcDbEntity
  8
Defpoints
 62
     0
100
AcDbPoint
 10
681.7127995200646
 20
843.6395641347756
 30
0.0
  0
POINT
  5
17E3
330
17D8
100
AcDbEntity
  8
Defpoints
 62
     0
100
AcDbPoint
 10
681.7127995200646
 20
861.6395633599152
 30
0.0
  0
POINT
  5
17E4
330
17D8
100
AcDbEntity
  8
Defpoints
 62
     0
100
AcDbPoint
 10
667.8708230684891
 20
861.6395633599152
 30
0.0
  0
ENDBLK
  5
17DA
330
17D8
100
AcDbEntity
  8
0
100
AcDbBlockEnd
  0
BLOCK
  5
17E9
330
17E8
100
AcDbEntity
  8
0
100
AcDbBlockBegin
  2
*D53
 70
     1
 10
0.0
 20
0.0
 30
0.0
  3
*D53
  1
*D54
  0
LINE
  5
17EB
330
17E8
100
AcDbEntity
  8
DIM
 62
     0
 48
0.05
370
    -2
100
AcDbLine
 10
664.9692725308354
 20
915.6395666232695
 30
0.0
 11
640.5417926384555
 21
915.6395666232695
 31
0.0
  0
LINE
  5
17EC
330
17E8
100
AcDbEntity
  8
DIM
 62
     0
 48
0.05
370
    -2
100
AcDbLine
 10
664.9692725308354
 20
929.6395670554032
 30
0.0
 11
640.5417926384555
 21
929.6395670554032
 31
0.0
  0
LINE
  5
17ED
330
17E8
100
AcDbEntity
  8
DIM
 62
     0
 48
0.05
370
    -2
100
AcDbLine
 10
640.5417926384555
 20
912.6395666232695
 30
0.0
 11
640.5417926384555
 21
909.6395666232695
 31
0.0
  0
LINE
  5
17EE
330
17E8
100
AcDbEntity
  8
DIM
 62
     0
 48
0.05
370
    -2
100
AcDbLine
 10
640.5417926384555
 20
932.6395670554032
 30
0.0
 11
640.5417926384555
 21
935.6395670554032
 31
0.0
  0
INSERT
  5
17EF
330
17E8
100
AcDbEntity
  8
DIM
 62
     0
370
    -2
100
AcDbBlockReference
  2
_DOT
 10
640.5417926384555
 20
915.6395666232695
 30
0.0
 41
3.0
 42
3.0
 43
3.0
 50
90.0
  0
INSERT
  5
17F0
330
17E8
100
AcDbEntity
  8
DIM
 62
     0
370
    -2
100
AcDbBlockReference
  2
_DOT
 10
640.5417926384555
 20
929.6395670554032
 30
0.0
 41
3.0
 42
3.0
 43
3.0
 50
270.0
  0
MTEXT
  5
17F1
330
17E8
100
AcDbEntity
  8
DIM
 62
     0
 48
0.05
100
AcDbMText
 10
629.5417926384555
 20
922.6395668393363
 30
0.0
 40
12.0
 41
0.0
 46
0.0
 71
     5
 72
     1
  1
\A1;14
  7
ＭＳ ゴシック
 11
0.0
 21
1.0
 31
0.0
 73
     1
 44
1.0
  0
POINT
  5
17F2
330
17E8
100
AcDbEntity
  8
Defpoints
 62
     0
100
AcDbPoint
 10
674.9692725308354
 20
915.6395666232695
 30
0.0
  0
POINT
  5
17F3
330
17E8
100
AcDbEntity
  8
Defpoints
 62
     0
100
AcDbPoint
 10
674.9692725308354
 20
929.6395670554032
 30
0.0
  0
POINT
  5
17F4
330
17E8
100
AcDbEntity
  8
Defpoints
 62
     0
100
AcDbPoint
 10
640.5417926384555
 20
929.6395670554032
 30
0.0
  0
ENDBLK
  5
17EA
330
17E8
100
AcDbEntity
  8
0
100
AcDbBlockEnd
  0
BLOCK
  5
17FA
330
17F9
100
AcDbEntity
  8
0
100
AcDbBlockBegin
  2
*D54
 70
     1
 10
0.0
 20
0.0
 30
0.0
  3
*D54
  1
*D55
  0
LINE
  5
17FC
330
17F9
100
AcDbEntity
  8
DIM
 62
     0
 48
0.05
370
    -2
100
AcDbLine
 10
-362.0130652441779
 20
715.5212249101561
 30
0.0
 11
-362.0130652441779
 21
748.6919356515888
 31
0.0
  0
LINE
  5
17FD
330
17F9
100
AcDbEntity
  8
DIM
 62
     0
 48
0.05
370
    -2
100
AcDbLine
 10
-962.0130652441779
 20
715.5212249101561
 30
0.0
 11
-962.0130652441779
 21
748.6919356515888
 31
0.0
  0
LINE
  5
17FE
330
17F9
100
AcDbEntity
  8
DIM
 62
     0
 48
0.05
370
    -2
100
AcDbLine
 10
-365.0130652441779
 20
748.6919356515888
 30
0.0
 11
-959.0130652441779
 21
748.6919356515888
 31
0.0
  0
INSERT
  5
17FF
330
17F9
100
AcDbEntity
  8
DIM
 62
     0
370
    -2
100
AcDbBlockReference
  2
_DOT
 10
-362.0130652441779
 20
748.6919356515888
 30
0.0
 41
3.0
 42
3.0
 43
3.0
  0
INSERT
  5
1800
330
17F9
100
AcDbEntity
  8
DIM
 62
     0
370
    -2
100
AcDbBlockReference
  2
_DOT
 10
-962.0130652441779
 20
748.6919356515888
 30
0.0
 41
3.0
 42
3.0
 43
3.0
 50
180.0
  0
MTEXT
  5
1801
330
17F9
100
AcDbEntity
  8
DIM
 62
     0
 48
0.05
100
AcDbMText
 10
-662.0130652441779
 20
759.6919356515888
 30
0.0
 40
12.0
 41
0.0
 46
0.0
 71
     5
 72
     1
  1
\A1;600
  7
ＭＳ ゴシック
 73
     1
 44
1.0
  0
POINT
  5
1802
330
17F9
100
AcDbEntity
  8
Defpoints
 62
     0
100
AcDbPoint
 10
-362.0130652441779
 20
705.5212249101561
 30
0.0
  0
POINT
  5
1803
330
17F9
100
AcDbEntity
  8
Defpoints
 62
     0
100
AcDbPoint
 10
-962.0130652441779
 20
705.5212249101561
 30
0.0
  0
POINT
  5
1804
330
17F9
100
AcDbEntity
  8
Defpoints
 62
     0
100
AcDbPoint
 10
-962.0130652441779
 20
748.6919356515888
 30
0.0
  0
ENDBLK
  5
17FB
330
17F9
100
AcDbEntity
  8
0
100
AcDbBlockEnd
  0
BLOCK
  5
180F
330
180E
100
AcDbEntity
  8
0
100
AcDbBlockBegin
  2
*D55
 70
     1
 10
0.0
 20
0.0
 30
0.0
  3
*D55
  1
*D56
  0
LINE
  5
1811
330
180E
100
AcDbEntity
  8
DIM
 62
     0
 48
0.05
370
    -2
100
AcDbLine
 10
-992.0130753769675
 20
715.5212249101561
 30
0.0
 11
-992.0130753769675
 21
789.7915698421194
 31
0.0
  0
LINE
  5
1812
330
180E
100
AcDbEntity
  8
DIM
 62
     0
 48
0.05
370
    -2
100
AcDbLine
 10
-332.013064052085
 20
715.5212249101561
 30
0.0
 11
-332.013064052085
 21
789.7915698421194
 31
0.0
  0
LINE
  5
1813
330
180E
100
AcDbEntity
  8
DIM
 62
     0
 48
0.05
370
    -2
100
AcDbLine
 10
-989.0130753769675
 20
789.7915698421194
 30
0.0
 11
-335.013064052085
 21
789.7915698421194
 31
0.0
  0
INSERT
  5
1814
330
180E
100
AcDbEntity
  8
DIM
 62
     0
370
    -2
100
AcDbBlockReference
  2
_DOT
 10
-992.0130753769675
 20
789.7915698421194
 30
0.0
 41
3.0
 42
3.0
 43
3.0
 50
180.0
  0
INSERT
  5
1815
330
180E
100
AcDbEntity
  8
DIM
 62
     0
370
    -2
100
AcDbBlockReference
  2
_DOT
 10
-332.013064052085
 20
789.7915698421194
 30
0.0
 41
3.0
 42
3.0
 43
3.0
  0
MTEXT
  5
1816
330
180E
100
AcDbEntity
  8
DIM
 62
     0
 48
0.05
100
AcDbMText
 10
-662.0130697145263
 20
800.7915698421194
 30
0.0
 40
12.0
 41
0.0
 46
0.0
 71
     5
 72
     1
  1
\A1;660
  7
ＭＳ ゴシック
 73
     1
 44
1.0
  0
POINT
  5
1817
330
180E
100
AcDbEntity
  8
Defpoints
 62
     0
100
AcDbPoint
 10
-992.0130753769675
 20
705.5212249101561
 30
0.0
  0
POINT
  5
1818
330
180E
100
AcDbEntity
  8
Defpoints
 62
     0
100
AcDbPoint
 10
-332.013064052085
 20
705.5212249101561
 30
0.0
  0
POINT
  5
1819
330
180E
100
AcDbEntity
  8
Defpoints
 62
     0
100
AcDbPoint
 10
-332.013064052085
 20
789.7915698421194
 30
0.0
  0
ENDBLK
  5
1810
330
180E
100
AcDbEntity
  8
0
100
AcDbBlockEnd
  0
BLOCK
  5
186B
330
186A
100
AcDbEntity
  8
0
100
AcDbBlockBegin
  2
*D56
 70
     1
 10
0.0
 20
0.0
 30
0.0
  3
*D56
  1
*D56
  0
LINE
  5
186D
330
186A
100
AcDbEntity
  8
DIM
 62
     0
 48
0.05
370
    -2
100
AcDbLine
 10
-967.99096705819
 20
428.6853683572388
 30
0.0
 11
-967.99096705819
 21
396.7082966387002
 31
0.0
  0
LINE
  5
186E
330
186A
100
AcDbEntity
  8
DIM
 62
     0
 48
0.05
370
    -2
100
AcDbLine
 10
-577.99096705819
 20
428.6853683572388
 30
0.0
 11
-577.99096705819
 21
396.7082966387002
 31
0.0
  0
LINE
  5
186F
330
186A
100
AcDbEntity
  8
DIM
 62
     0
 48
0.05
370
    -2
100
AcDbLine
 10
-964.99096705819
 20
396.7082966387002
 30
0.0
 11
-580.99096705819
 21
396.7082966387002
 31
0.0
  0
INSERT
  5
1870
330
186A
100
AcDbEntity
  8
DIM
 62
     0
370
    -2
100
AcDbBlockReference
  2
_DOT
 10
-967.99096705819
 20
396.7082966387002
 30
0.0
 41
3.0
 42
3.0
 43
3.0
 50
180.0
  0
INSERT
  5
1871
330
186A
100
AcDbEntity
  8
DIM
 62
     0
370
    -2
100
AcDbBlockReference
  2
_DOT
 10
-577.99096705819
 20
396.7082966387002
 30
0.0
 41
3.0
 42
3.0
 43
3.0
  0
MTEXT
  5
1872
330
186A
100
AcDbEntity
  8
DIM
 62
     0
 48
0.05
100
AcDbMText
 10
-772.99096705819
 20
407.7082966387002
 30
0.0
 40
12.0
 41
0.0
 46
0.0
 71
     5
 72
     1
  1
\A1;390
  7
ＭＳ ゴシック
 73
     1
 44
1.0
  0
POINT
  5
1873
330
186A
100
AcDbEntity
  8
Defpoints
 62
     0
100
AcDbPoint
 10
-967.99096705819
 20
438.6853683572388
 30
0.0
  0
POINT
  5
1874
330
186A
100
AcDbEntity
  8
Defpoints
 62
     0
100
AcDbPoint
 10
-577.99096705819
 20
438.6853683572388
 30
0.0
  0
POINT
  5
1875
330
186A
100
AcDbEntity
  8
Defpoints
 62
     0
100
AcDbPoint
 10
-577.99096705819
 20
396.7082966387002
 30
0.0
  0
ENDBLK
  5
186C
330
186A
100
AcDbEntity
  8
0
100
AcDbBlockEnd
  0
BLOCK
  5
19CF
330
19CE
100
AcDbEntity
  8
0
100
AcDbBlockBegin
  2
*D57
 70
     1
 10
0.0
 20
0.0
 30
0.0
  3
*D57
  1
*D58
  0
LINE
  5
19D0
330
19CE
100
AcDbEntity
  8
注释
 62
     0
370
    -2
100
AcDbLine
 10
9.238427544823551
 20
74.268013398089
 30
0.0
 11
3.222669174806871
 21
74.26801339808897
 31
0.0
  0
LINE
  5
19D1
330
19CE
100
AcDbEntity
  8
注释
 62
     0
370
    -2
100
AcDbLine
 10
26.73842754786006
 20
62.06801339808901
 30
0.0
 11
3.222669174806914
 21
62.06801339808889
 31
0.0
  0
LINE
  5
19D2
330
19CE
100
AcDbEntity
  8
注释
 62
     0
370
    -2
100
AcDbLine
 10
3.222669174806883
 20
70.76801339808897
 30
0.0
 11
3.222669174806901
 21
65.5680133980889
 31
0.0
  0
SOLID
  5
19D3
330
19CE
100
AcDbEntity
  8
注释
 62
     0
100
AcDbTrace
 10
3.806002508140217
 20
70.76801339808897
 30
0.0
 11
2.63933584147355
 21
70.76801339808897
 31
0.0
 12
3.222669174806871
 22
74.26801339808897
 32
0.0
 13
3.222669174806871
 23
74.26801339808897
 33
0.0
  0
SOLID
  5
19D4
330
19CE
100
AcDbEntity
  8
注释
 62
     0
100
AcDbTrace
 10
2.639335841473568
 20
65.5680133980889
 30
0.0
 11
3.806002508140235
 21
65.5680133980889
 31
0.0
 12
3.222669174806914
 22
62.06801339808889
 32
0.0
 13
3.222669174806914
 23
62.06801339808889
 33
0.0
  0
MTEXT
  5
19D5
330
19CE
100
AcDbEntity
  8
注释
 62
     0
 48
0.05
100
AcDbMText
 10
-1.152330825193108
 20
68.16801339808899
 30
0.0
 40
3.5
 41
0.0
 46
0.0
 71
     2
 72
     1
  1
\A1;61
  7
SLDTEXTSTYLE1
 11
-3.494472470951299E-15
 21
1.0
 31
0.0
 73
     1
 44
1.0
  0
POINT
  5
19D6
330
19CE
100
AcDbEntity
  8
Defpoints
 62
     0
100
AcDbPoint
 10
9.300927544823551
 20
74.268013398089
 30
0.0
  0
POINT
  5
19D7
330
19CE
100
AcDbEntity
  8
Defpoints
 62
     0
100
AcDbPoint
 10
26.80092754786006
 20
62.06801339808901
 30
0.0
  0
POINT
  5
1A71
330
19CE
100
AcDbEntity
  8
Defpoints
 62
     0
100
AcDbPoint
 10
3.222669174806892
 20
62.06801339808892
 30
0.0
  0
ENDBLK
  5
19D8
330
19CE
100
AcDbEntity
  8
0
100
AcDbBlockEnd
  0
BLOCK
  5
1A3D
330
1A3C
100
AcDbEntity
  8
0
100
AcDbBlockBegin
  2
*D58
 70
     1
 10
0.0
 20
0.0
 30
0.0
  3
*D58
  1
*D59
  0
LINE
  5
1A3E
330
1A3C
100
AcDbEntity
  8
注释
 62
     0
370
    -2
100
AcDbLine
 10
9.238427544823566
 20
0.0000003176671723
 30
0.0
 11
3.522978201651802
 21
0.0000003176671513
 31
0.0
  0
LINE
  5
1A3F
330
1A3C
100
AcDbEntity
  8
注释
 62
     0
370
    -2
100
AcDbLine
 10
9.238427544823452
 20
29.60000031766718
 30
0.0
 11
3.522978201651698
 21
29.60000031766716
 31
0.0
  0
LINE
  5
1A40
330
1A3C
100
AcDbEntity
  8
注释
 62
     0
370
    -2
100
AcDbLine
 10
3.522978201651789
 20
3.500000317667151
 30
0.0
 11
3.522978201651711
 21
26.10000031766716
 31
0.0
  0
SOLID
  5
1A41
330
1A3C
100
AcDbEntity
  8
注释
 62
     0
100
AcDbTrace
 10
2.939644868318456
 20
3.500000317667149
 30
0.0
 11
4.106311534985123
 21
3.500000317667153
 31
0.0
 12
3.522978201651802
 22
0.0000003176671513
 32
0.0
 13
3.522978201651802
 23
0.0000003176671513
 33
0.0
  0
SOLID
  5
1A42
330
1A3C
100
AcDbEntity
  8
注释
 62
     0
100
AcDbTrace
 10
4.106311534985044
 20
26.10000031766716
 30
0.0
 11
2.939644868318377
 21
26.10000031766716
 31
0.0
 12
3.522978201651698
 22
29.60000031766716
 32
0.0
 13
3.522978201651698
 23
29.60000031766716
 33
0.0
  0
MTEXT
  5
1A43
330
1A3C
100
AcDbEntity
  8
注释
 62
     0
 48
0.05
100
AcDbMText
 10
-0.8520217983482503
 20
14.80000031766716
 30
0.0
 40
3.5
 41
0.0
 46
0.0
 71
     2
 72
     1
  1
\A1;148
  7
SLDTEXTSTYLE1
 11
-3.495702226184613E-15
 21
1.0
 31
0.0
 73
     1
 44
1.0
  0
POINT
  5
1A72
330
1A3C
100
AcDbEntity
  8
Defpoints
 62
     0
100
AcDbPoint
 10
9.300927544823566
 20
0.0000003176671726
 30
0.0
  0
POINT
  5
1A73
330
1A3C
100
AcDbEntity
  8
Defpoints
 62
     0
100
AcDbPoint
 10
9.300927544823452
 20
29.60000031766718
 30
0.0
  0
POINT
  5
1A74
330
1A3C
100
AcDbEntity
  8
Defpoints
 62
     0
100
AcDbPoint
 10
3.522978201651693
 20
29.60000031766716
 30
0.0
  0
ENDBLK
  5
1A44
330
1A3C
100
AcDbEntity
  8
0
100
AcDbBlockEnd
  0
BLOCK
  5
1A47
330
1A46
100
AcDbEntity
  8
0
100
AcDbBlockBegin
  2
*D59
 70
     1
 10
0.0
 20
0.0
 30
0.0
  3
*D59
  1
*D60
  0
LINE
  5
1A48
330
1A46
100
AcDbEntity
  8
注释
 62
     0
370
    -2
100
AcDbLine
 10
9.300927544823452
 20
29.66250031766718
 30
0.0
 11
9.300927544823452
 21
39.60000031766775
 31
0.0
  0
LINE
  5
1A49
330
1A46
100
AcDbEntity
  8
注释
 62
     0
370
    -2
100
AcDbLine
 10
149.3009275448243
 20
29.66250031766769
 30
0.0
 11
149.3009275448243
 21
39.60000031766775
 31
0.0
  0
LINE
  5
1A4A
330
1A46
100
AcDbEntity
  8
注释
 62
     0
370
    -2
100
AcDbLine
 10
12.80092754482345
 20
39.60000031766775
 30
0.0
 11
145.8009275448243
 21
39.60000031766775
 31
0.0
  0
SOLID
  5
1A4B
330
1A46
100
AcDbEntity
  8
注释
 62
     0
100
AcDbTrace
 10
12.80092754482345
 20
40.18333365100109
 30
0.0
 11
12.80092754482345
 21
39.01666698433441
 31
0.0
 12
9.300927544823452
 22
39.60000031766775
 32
0.0
 13
9.300927544823452
 23
39.60000031766775
 33
0.0
  0
SOLID
  5
1A4C
330
1A46
100
AcDbEntity
  8
注释
 62
     0
100
AcDbTrace
 10
145.8009275448243
 20
39.01666698433441
 30
0.0
 11
145.8009275448243
 21
40.18333365100109
 31
0.0
 12
149.3009275448243
 22
39.60000031766775
 32
0.0
 13
149.3009275448243
 23
39.60000031766775
 33
0.0
  0
MTEXT
  5
1A4D
330
1A46
100
AcDbEntity
  8
注释
 62
     0
 48
0.05
100
AcDbMText
 10
79.30092754482388
 20
43.97500031766775
 30
0.0
 40
3.5
 41
0.0
 46
0.0
 71
     2
 72
     1
  1
\A1;700
  7
SLDTEXTSTYLE1
 73
     1
 44
1.0
  0
POINT
  5
1A75
330
1A46
100
AcDbEntity
  8
Defpoints
 62
     0
100
AcDbPoint
 10
9.300927544823452
 20
29.60000031766718
 30
0.0
  0
POINT
  5
1A76
330
1A46
100
AcDbEntity
  8
Defpoints
 62
     0
100
AcDbPoint
 10
149.3009275448243
 20
29.60000031766769
 30
0.0
  0
POINT
  5
1A77
330
1A46
100
AcDbEntity
  8
Defpoints
 62
     0
100
AcDbPoint
 10
149.3009275448243
 20
39.60000031766801
 30
0.0
  0
ENDBLK
  5
1A4E
330
1A46
100
AcDbEntity
  8
0
100
AcDbBlockEnd
  0
BLOCK
  5
1C17
330
1C16
100
AcDbEntity
  8
0
100
AcDbBlockBegin
  2
*D60
 70
     1
 10
0.0
 20
0.0
 30
0.0
  3
*D60
  1
*D61
  0
LINE
  5
1C19
330
1C16
100
AcDbEntity
  8
DIM
 62
     0
370
    -2
100
AcDbLine
 10
107.3333710340826
 20
947.0433635747145
 30
0.0
 11
86.9420791839997
 21
947.0433635747144
 31
0.0
  0
LINE
  5
1C1A
330
1C16
100
AcDbEntity
  8
DIM
 62
     0
370
    -2
100
AcDbLine
 10
194.8333710492657
 20
886.043363574714
 30
0.0
 11
86.94207918399991
 21
886.0433635747136
 31
0.0
  0
LINE
  5
1C1B
330
1C16
100
AcDbEntity
  8
DIM
 62
     0
370
    -2
100
AcDbLine
 10
86.94207918399971
 20
944.0433635747144
 30
0.0
 11
86.9420791839999
 21
889.0433635747136
 31
0.0
  0
INSERT
  5
1C1C
330
1C16
100
AcDbEntity
  8
DIM
 62
     0
370
    -2
100
AcDbBlockReference
  2
_DOT
 10
86.9420791839997
 20
947.0433635747144
 30
0.0
 41
3.0
 42
3.0
 43
3.0
 50
90.0000000000002
  0
INSERT
  5
1C1D
330
1C16
100
AcDbEntity
  8
DIM
 62
     0
370
    -2
100
AcDbBlockReference
  2
_DOT
 10
86.94207918399991
 20
886.0433635747136
 30
0.0
 41
3.0
 42
3.0
 43
3.0
 50
270.0000000000002
  0
MTEXT
  5
1C1E
330
1C16
100
AcDbEntity
  8
DIM
 62
     0
 48
0.05
100
AcDbMText
 10
69.9420791839998
 20
916.5433635747145
 30
0.0
 40
12.0
 41
0.0
 46
0.0
 71
     2
 72
     1
  1
\A1;61
  7
ＭＳ ゴシック
 11
-3.494472470951267E-15
 21
1.0
 31
0.0
 73
     1
 44
1.0
  0
POINT
  5
1C1F
330
1C16
100
AcDbEntity
  8
Defpoints
 62
     0
100
AcDbPoint
 10
117.3333710340826
 20
947.0433635747145
 30
0.0
  0
POINT
  5
1C20
330
1C16
100
AcDbEntity
  8
Defpoints
 62
     0
100
AcDbPoint
 10
204.8333710492657
 20
886.043363574714
 30
0.0
  0
POINT
  5
1C21
330
1C16
100
AcDbEntity
  8
Defpoints
 62
     0
100
AcDbPoint
 10
86.94207918399991
 20
886.0433635747136
 30
0.0
  0
ENDBLK
  5
1C18
330
1C16
100
AcDbEntity
  8
0
100
AcDbBlockEnd
  0
BLOCK
  5
1C23
330
1C22
100
AcDbEntity
  8
0
100
AcDbBlockBegin
  2
*D61
 70
     1
 10
0.0
 20
0.0
 30
0.0
  3
*D61
  1
*D62
  0
LINE
  5
1C25
330
1C22
100
AcDbEntity
  8
DIM
 62
     0
370
    -2
100
AcDbLine
 10
107.3333710340826
 20
575.7032981726052
 30
0.0
 11
88.44362431822427
 21
575.7032981726051
 31
0.0
  0
LINE
  5
1C26
330
1C22
100
AcDbEntity
  8
DIM
 62
     0
370
    -2
100
AcDbLine
 10
107.3333710340826
 20
723.7032981726052
 30
0.0
 11
88.44362431822375
 21
723.7032981726051
 31
0.0
  0
LINE
  5
1C27
330
1C22
100
AcDbEntity
  8
DIM
 62
     0
370
    -2
100
AcDbLine
 10
88.44362431822425
 20
578.7032981726051
 30
0.0
 11
88.44362431822377
 21
720.7032981726051
 31
0.0
  0
INSERT
  5
1C28
330
1C22
100
AcDbEntity
  8
DIM
 62
     0
370
    -2
100
AcDbBlockReference
  2
_DOT
 10
88.44362431822427
 20
575.7032981726051
 30
0.0
 41
3.0
 42
3.0
 43
3.0
 50
270.0000000000002
  0
INSERT
  5
1C29
330
1C22
100
AcDbEntity
  8
DIM
 62
     0
370
    -2
100
AcDbBlockReference
  2
_DOT
 10
88.44362431822375
 20
723.7032981726051
 30
0.0
 41
3.0
 42
3.0
 43
3.0
 50
90.0000000000002
  0
MTEXT
  5
1C2A
330
1C22
100
AcDbEntity
  8
DIM
 62
     0
 48
0.05
100
AcDbMText
 10
71.44362431822401
 20
649.7032981726052
 30
0.0
 40
12.0
 41
0.0
 46
0.0
 71
     2
 72
     1
  1
\A1;148
  7
ＭＳ ゴシック
 11
-3.456694390184271E-15
 21
1.0
 31
0.0
 73
     1
 44
1.0
  0
POINT
  5
1C2B
330
1C22
100
AcDbEntity
  8
Defpoints
 62
     0
100
AcDbPoint
 10
117.3333710340826
 20
575.7032981726052
 30
0.0
  0
POINT
  5
1C2C
330
1C22
100
AcDbEntity
  8
Defpoints
 62
     0
100
AcDbPoint
 10
117.3333710340826
 20
723.7032981726052
 30
0.0
  0
POINT
  5
1C2D
330
1C22
100
AcDbEntity
  8
Defpoints
 62
     0
100
AcDbPoint
 10
88.44362431822375
 20
723.7032981726051
 30
0.0
  0
ENDBLK
  5
1C24
330
1C22
100
AcDbEntity
  8
0
100
AcDbBlockEnd
  0
BLOCK
  5
1C2F
330
1C2E
100
AcDbEntity
  8
0
100
AcDbBlockBegin
  2
*D62
 70
     1
 10
0.0
 20
0.0
 30
0.0
  3
*D62
  1
*D63
  0
LINE
  5
1C31
330
1C2E
100
AcDbEntity
  8
DIM
 62
     0
370
    -2
100
AcDbLine
 10
74.04451582433967
 20
961.2157474283567
 30
0.0
 11
74.04451582433967
 21
1001.21574742836
 31
0.0
  0
LINE
  5
1C32
330
1C2E
100
AcDbEntity
  8
DIM
 62
     0
370
    -2
100
AcDbLine
 10
774.0445158243442
 20
961.2157474283595
 30
0.0
 11
774.0445158243442
 21
1001.21574742836
 31
0.0
  0
LINE
  5
1C33
330
1C2E
100
AcDbEntity
  8
DIM
 62
     0
370
    -2
100
AcDbLine
 10
77.04451582433967
 20
1001.21574742836
 30
0.0
 11
771.0445158243442
 21
1001.21574742836
 31
0.0
  0
INSERT
  5
1C34
330
1C2E
100
AcDbEntity
  8
DIM
 62
     0
370
    -2
100
AcDbBlockReference
  2
_DOT
 10
74.04451582433967
 20
1001.21574742836
 30
0.0
 41
3.0
 42
3.0
 43
3.0
 50
180.0
  0
INSERT
  5
1C35
330
1C2E
100
AcDbEntity
  8
DIM
 62
     0
370
    -2
100
AcDbBlockReference
  2
_DOT
 10
774.0445158243442
 20
1001.21574742836
 30
0.0
 41
3.0
 42
3.0
 43
3.0
  0
MTEXT
  5
1C36
330
1C2E
100
AcDbEntity
  8
DIM
 62
     0
 48
0.05
100
AcDbMText
 10
424.0445158243415
 20
1018.21574742836
 30
0.0
 40
12.0
 41
0.0
 46
0.0
 71
     2
 72
     1
  1
\A1;700～950
  7
ＭＳ ゴシック
 73
     1
 44
1.0
  0
POINT
  5
1C37
330
1C2E
100
AcDbEntity
  8
Defpoints
 62
     0
100
AcDbPoint
 10
74.04451582433967
 20
951.2157474283567
 30
0.0
  0
POINT
  5
1C38
330
1C2E
100
AcDbEntity
  8
Defpoints
 62
     0
100
AcDbPoint
 10
774.0445158243442
 20
951.2157474283595
 30
0.0
  0
POINT
  5
1C39
330
1C2E
100
AcDbEntity
  8
Defpoints
 62
     0
100
AcDbPoint
 10
774.0445158243442
 20
1001.21574742836
 30
0.0
  0
ENDBLK
  5
1C30
330
1C2E
100
AcDbEntity
  8
0
100
AcDbBlockEnd
  0
BLOCK
  5
1C3E
330
1C3D
100
AcDbEntity
  8
0
100
AcDbBlockBegin
  2
*D63
 70
     1
 10
0.0
 20
0.0
 30
0.0
  3
*D63
  1
*D64
  0
LINE
  5
1C40
330
1C3D
100
AcDbEntity
  8
DIM
 62
     0
 48
0.05
370
    -2
100
AcDbLine
 10
1400.167596892878
 20
638.5307767046768
 30
0.0
 11
1400.167596892878
 21
642.5795833735411
 31
0.0
  0
LINE
  5
1C41
330
1C3D
100
AcDbEntity
  8
DIM
 62
     0
 48
0.05
370
    -2
100
AcDbLine
 10
1260.167596892878
 20
638.5307767046766
 30
0.0
 11
1260.167596892878
 21
642.5795833735411
 31
0.0
  0
LINE
  5
1C42
330
1C3D
100
AcDbEntity
  8
DIM
 62
     0
 48
0.05
370
    -2
100
AcDbLine
 10
1397.167596892878
 20
642.5795833735411
 30
0.0
 11
1263.167596892878
 21
642.5795833735411
 31
0.0
  0
INSERT
  5
1C43
330
1C3D
100
AcDbEntity
  8
DIM
 62
     0
370
    -2
100
AcDbBlockReference
  2
_DOT
 10
1400.167596892878
 20
642.5795833735411
 30
0.0
 41
3.0
 42
3.0
 43
3.0
  0
INSERT
  5
1C44
330
1C3D
100
AcDbEntity
  8
DIM
 62
     0
370
    -2
100
AcDbBlockReference
  2
_DOT
 10
1260.167596892878
 20
642.5795833735411
 30
0.0
 41
3.0
 42
3.0
 43
3.0
 50
180.0
  0
MTEXT
  5
1C45
330
1C3D
100
AcDbEntity
  8
DIM
 62
     0
 48
0.05
100
AcDbMText
 10
1330.167596892878
 20
653.5795833735411
 30
0.0
 40
12.0
 41
0.0
 46
0.0
 71
     5
 72
     1
  1
\A1;140
  7
ＭＳ ゴシック
 73
     1
 44
1.0
  0
POINT
  5
1C46
330
1C3D
100
AcDbEntity
  8
Defpoints
 62
     0
100
AcDbPoint
 10
1400.167596892878
 20
628.5307767046768
 30
0.0
  0
POINT
  5
1C47
330
1C3D
100
AcDbEntity
  8
Defpoints
 62
     0
100
AcDbPoint
 10
1260.167596892878
 20
628.5307767046766
 30
0.0
  0
POINT
  5
1C48
330
1C3D
100
AcDbEntity
  8
Defpoints
 62
     0
100
AcDbPoint
 10
1260.167596892878
 20
642.5795833735411
 30
0.0
  0
ENDBLK
  5
1C3F
330
1C3D
100
AcDbEntity
  8
0
100
AcDbBlockEnd
  0
BLOCK
  5
1C4B
330
1C4A
100
AcDbEntity
  8
0
100
AcDbBlockBegin
  2
*D64
 70
     1
 10
0.0
 20
0.0
 30
0.0
  3
*D64
  1
*D65
  0
LINE
  5
1C4D
330
1C4A
100
AcDbEntity
  8
DIM
 62
     0
 48
0.05
370
    -2
100
AcDbLine
 10
784.0445098638752
 20
575.7032965842695
 30
0.0
 11
828.5774917749047
 21
575.7032965842695
 31
0.0
  0
LINE
  5
1C4E
330
1C4A
100
AcDbEntity
  8
DIM
 62
     0
 48
0.05
370
    -2
100
AcDbLine
 10
784.0445098638752
 20
723.7032965842695
 30
0.0
 11
828.5774917749047
 21
723.7032965842695
 31
0.0
  0
LINE
  5
1C4F
330
1C4A
100
AcDbEntity
  8
DIM
 62
     0
 48
0.05
370
    -2
100
AcDbLine
 10
828.5774917749047
 20
578.7032965842695
 30
0.0
 11
828.5774917749047
 21
720.7032965842695
 31
0.0
  0
INSERT
  5
1C50
330
1C4A
100
AcDbEntity
  8
DIM
 62
     0
370
    -2
100
AcDbBlockReference
  2
_DOT
 10
828.5774917749047
 20
575.7032965842695
 30
0.0
 41
3.0
 42
3.0
 43
3.0
 50
270.0
  0
INSERT
  5
1C51
330
1C4A
100
AcDbEntity
  8
DIM
 62
     0
370
    -2
100
AcDbBlockReference
  2
_DOT
 10
828.5774917749047
 20
723.7032965842695
 30
0.0
 41
3.0
 42
3.0
 43
3.0
 50
90.0
  0
MTEXT
  5
1C52
330
1C4A
100
AcDbEntity
  8
DIM
 62
     0
 48
0.05
100
AcDbMText
 10
817.5774917749047
 20
649.7032965842695
 30
0.0
 40
12.0
 41
0.0
 46
0.0
 71
     5
 72
     1
  1
\A1;148
  7
ＭＳ ゴシック
 11
0.0
 21
1.0
 31
0.0
 73
     1
 44
1.0
  0
POINT
  5
1C53
330
1C4A
100
AcDbEntity
  8
Defpoints
 62
     0
100
AcDbPoint
 10
774.0445098638752
 20
575.7032965842695
 30
0.0
  0
POINT
  5
1C54
330
1C4A
100
AcDbEntity
  8
Defpoints
 62
     0
100
AcDbPoint
 10
774.0445098638752
 20
723.7032965842695
 30
0.0
  0
POINT
  5
1C55
330
1C4A
100
AcDbEntity
  8
Defpoints
 62
     0
100
AcDbPoint
 10
828.5774917749047
 20
723.7032965842695
 30
0.0
  0
ENDBLK
  5
1C4C
330
1C4A
100
AcDbEntity
  8
0
100
AcDbBlockEnd
  0
BLOCK
  5
1C58
330
1C57
100
AcDbEntity
  8
0
100
AcDbBlockBegin
  2
*D65
 70
     1
 10
0.0
 20
0.0
 30
0.0
  3
*D65
  1
*D66
  0
LINE
  5
1C5A
330
1C57
100
AcDbEntity
  8
DIM
 62
     0
 48
0.05
370
    -2
100
AcDbLine
 10
962.0654426576516
 20
947.0433635747145
 30
0.0
 11
993.8294695507103
 21
947.0433635747145
 31
0.0
  0
LINE
  5
1C5B
330
1C57
100
AcDbEntity
  8
DIM
 62
     0
 48
0.05
370
    -2
100
AcDbLine
 10
962.0654426576516
 20
886.0433635747145
 30
0.0
 11
993.8294695507103
 21
886.0433635747145
 31
0.0
  0
LINE
  5
1C5C
330
1C57
100
AcDbEntity
  8
DIM
 62
     0
 48
0.05
370
    -2
100
AcDbLine
 10
993.8294695507103
 20
944.0433635747145
 30
0.0
 11
993.8294695507103
 21
889.0433635747145
 31
0.0
  0
INSERT
  5
1C5D
330
1C57
100
AcDbEntity
  8
DIM
 62
     0
370
    -2
100
AcDbBlockReference
  2
_DOT
 10
993.8294695507103
 20
947.0433635747145
 30
0.0
 41
3.0
 42
3.0
 43
3.0
 50
90.0
  0
INSERT
  5
1C5E
330
1C57
100
AcDbEntity
  8
DIM
 62
     0
370
    -2
100
AcDbBlockReference
  2
_DOT
 10
993.8294695507103
 20
886.0433635747145
 30
0.0
 41
3.0
 42
3.0
 43
3.0
 50
270.0
  0
MTEXT
  5
1C5F
330
1C57
100
AcDbEntity
  8
DIM
 62
     0
 48
0.05
100
AcDbMText
 10
982.8294695507103
 20
916.5433635747145
 30
0.0
 40
12.0
 41
0.0
 46
0.0
 71
     5
 72
     1
  1
\A1;61
  7
ＭＳ ゴシック
 11
0.0
 21
1.0
 31
0.0
 73
     1
 44
1.0
  0
POINT
  5
1C60
330
1C57
100
AcDbEntity
  8
Defpoints
 62
     0
100
AcDbPoint
 10
952.0654426576516
 20
947.0433635747145
 30
0.0
  0
POINT
  5
1C61
330
1C57
100
AcDbEntity
  8
Defpoints
 62
     0
100
AcDbPoint
 10
952.0654426576516
 20
886.0433635747145
 30
0.0
  0
POINT
  5
1C62
330
1C57
100
AcDbEntity
  8
Defpoints
 62
     0
100
AcDbPoint
 10
993.8294695507103
 20
886.0433635747145
 30
0.0
  0
ENDBLK
  5
1C59
330
1C57
100
AcDbEntity
  8
0
100
AcDbBlockEnd
  0
BLOCK
  5
1CF6
330
1CF5
100
AcDbEntity
  8
0
100
AcDbBlockBegin
  2
*D66
 70
     1
 10
0.0
 20
0.0
 30
0.0
  3
*D66
  1

  0
LINE
  5
1CF8
330
1CF5
100
AcDbEntity
  8
DIM
 62
     0
 48
0.05
370
    -2
100
AcDbLine
 10
160.0445158395028
 20
877.5433635747145
 30
0.0
 11
160.0445158395028
 21
821.2821576521143
 31
0.0
  0
LINE
  5
1CF9
330
1CF5
100
AcDbEntity
  8
DIM
 62
     0
 48
0.05
370
    -2
100
AcDbLine
 10
688.044515808038
 20
877.5433635747145
 30
0.0
 11
688.044515808038
 21
821.2821576521143
 31
0.0
  0
LINE
  5
1CFA
330
1CF5
100
AcDbEntity
  8
DIM
 62
     0
 48
0.05
370
    -2
100
AcDbLine
 10
163.0445158395028
 20
821.2821576521143
 30
0.0
 11
685.044515808038
 21
821.2821576521143
 31
0.0
  0
INSERT
  5
1CFB
330
1CF5
100
AcDbEntity
  8
DIM
 62
     0
370
    -2
100
AcDbBlockReference
  2
_DOT
 10
160.0445158395028
 20
821.2821576521143
 30
0.0
 41
3.0
 42
3.0
 43
3.0
 50
180.0
  0
INSERT
  5
1CFC
330
1CF5
100
AcDbEntity
  8
DIM
 62
     0
370
    -2
100
AcDbBlockReference
  2
_DOT
 10
688.044515808038
 20
821.2821576521143
 30
0.0
 41
3.0
 42
3.0
 43
3.0
  0
MTEXT
  5
1CFD
330
1CF5
100
AcDbEntity
  8
DIM
 62
     0
 48
0.05
100
AcDbMText
 10
424.0445158237704
 20
832.2821576521143
 30
0.0
 40
12.0
 41
0.0
 46
0.0
 71
     5
 72
     1
  1
\A1;528
  7
ＭＳ ゴシック
 73
     1
 44
1.0
  0
POINT
  5
1CFE
330
1CF5
100
AcDbEntity
  8
Defpoints
 62
     0
100
AcDbPoint
 10
160.0445158395028
 20
887.5433635747145
 30
0.0
  0
POINT
  5
1CFF
330
1CF5
100
AcDbEntity
  8
Defpoints
 62
     0
100
AcDbPoint
 10
688.044515808038
 20
887.5433635747145
 30
0.0
  0
POINT
  5
1D00
330
1CF5
100
AcDbEntity
  8
Defpoints
 62
     0
100
AcDbPoint
 10
688.044515808038
 20
821.2821576521143
 30
0.0
  0
ENDBLK
  5
1CF7
330
1CF5
100
AcDbEntity
  8
0
100
AcDbBlockEnd
  0
BLOCK
  5
1D05
330
1D04
100
AcDbEntity
  8
0
100
AcDbBlockBegin
  2
*D67
 70
     1
 10
0.0
 20
0.0
 30
0.0
  3
*D67
  1

  0
LINE
  5
1D07
330
1D04
100
AcDbEntity
  8
DIM
 62
     0
 48
0.05
370
    -2
100
AcDbLine
 10
163.0445084333637
 20
879.7933643874394
 30
0.0
 11
163.0445084333637
 21
853.3089941760002
 31
0.0
  0
LINE
  5
1D08
330
1D04
100
AcDbEntity
  8
DIM
 62
     0
 48
0.05
370
    -2
100
AcDbLine
 10
685.0445232153156
 20
879.7933643874394
 30
0.0
 11
685.0445232153156
 21
853.3089941760002
 31
0.0
  0
LINE
  5
1D09
330
1D04
100
AcDbEntity
  8
DIM
 62
     0
 48
0.05
370
    -2
100
AcDbLine
 10
166.0445084333637
 20
853.3089941760002
 30
0.0
 11
682.0445232153156
 21
853.3089941760002
 31
0.0
  0
INSERT
  5
1D0A
330
1D04
100
AcDbEntity
  8
DIM
 62
     0
370
    -2
100
AcDbBlockReference
  2
_DOT
 10
163.0445084333637
 20
853.3089941760002
 30
0.0
 41
3.0
 42
3.0
 43
3.0
 50
180.0
  0
INSERT
  5
1D0B
330
1D04
100
AcDbEntity
  8
DIM
 62
     0
370
    -2
100
AcDbBlockReference
  2
_DOT
 10
685.0445232153156
 20
853.3089941760002
 30
0.0
 41
3.0
 42
3.0
 43
3.0
  0
MTEXT
  5
1D0C
330
1D04
100
AcDbEntity
  8
DIM
 62
     0
 48
0.05
100
AcDbMText
 10
424.0445158243397
 20
864.3089941760002
 30
0.0
 40
12.0
 41
0.0
 46
0.0
 71
     5
 72
     1
  1
\A1;522
  7
ＭＳ ゴシック
 73
     1
 44
1.0
  0
POINT
  5
1D0D
330
1D04
100
AcDbEntity
  8
Defpoints
 62
     0
100
AcDbPoint
 10
163.0445084333637
 20
889.7933643874394
 30
0.0
  0
POINT
  5
1D0E
330
1D04
100
AcDbEntity
  8
Defpoints
 62
     0
100
AcDbPoint
 10
685.0445232153156
 20
889.7933643874394
 30
0.0
  0
POINT
  5
1D0F
330
1D04
100
AcDbEntity
  8
Defpoints
 62
     0
100
AcDbPoint
 10
685.0445232153156
 20
853.3089941760002
 30
0.0
  0
ENDBLK
  5
1D06
330
1D04
100
AcDbEntity
  8
0
100
AcDbBlockEnd
  0
ENDSEC
  0
SECTION
  2
ENTITIES
  0
MTEXT
  5
177
330
A
100
AcDbEntity
  8
TEMPLATE
390
1D
100
AcDbMText
 10
39.60107227386538
 20
171.8658758157141
 30
0.0
 40
8.144205729166663
 41
0.0
 46
0.0
 71
     1
 72
     1
  1
品名
  7
ＭＳ ゴシック
 73
     1
 44
0.7828267384257843
  0
MTEXT
  5
178
330
A
100
AcDbEntity
  8
TEMPLATE
390
1D
100
AcDbMText
 10
39.60107227386538
 20
129.365875815714
 30
0.0
 40
8.144205729166663
 41
0.0
 46
0.0
 71
     1
 72
     1
  1
仕様
  7
ＭＳ ゴシック
 73
     1
 44
0.7828267384257843
  0
LINE
  5
179
330
A
100
AcDbEntity
  8
TEMPLATE
390
1D
100
AcDbLine
 10
1011.101072273624
 20
133.5733367532142
 30
0.0
 11
36.10107227362437
 21
133.5733367532142
 31
0.0
  0
LWPOLYLINE
  5
17A
330
A
100
AcDbEntity
  8
TEMPLATE
390
1D
100
AcDbPolyline
 90
        5
 70
   128
 43
0.0
 10
1011.101072273624
 20
1448.573336753213
 10
36.10107227362437
 20
1448.573336753213
 10
36.10107227362437
 20
48.57333675321413
 10
1011.101072273624
 20
48.57333675321413
 10
1011.101072273624
 20
1448.573336753213
  0
LINE
  5
17B
330
A
100
AcDbEntity
  8
TEMPLATE
390
1D
100
AcDbLine
 10
1011.101072273624
 20
176.0733367532141
 30
0.0
 11
36.10107227362437
 21
176.0733367532141
 31
0.0
  0
LINE
  5
17C
330
A
100
AcDbEntity
  8
TEMPLATE
390
1D
100
AcDbLine
 10
1011.101072273866
 20
91.07333675321412
 30
0.0
 11
634.601072273865
 21
91.07333675321412
 31
0.0
  0
MTEXT
  5
17E
330
A
100
AcDbEntity
  8
TEMPLATE
390
1D
100
AcDbMText
 10
649.5367753999956
 20
76.11813951656006
 30
0.0
 40
12.21630859375
 41
0.0
 46
0.0
 71
     1
 72
     1
  1
大洋金物株式会社 ティーフォルム事業部
  7
ＭＳ ゴシック
 73
     1
 44
0.7828267384257843
  0
MTEXT
  5
180
330
A
100
AcDbEntity
  8
TEMPLATE
390
1D
100
AcDbMText
 10
915.601072273995
 20
115.0746453469641
 30
0.0
 40
12.21630859375
 41
0.0
 46
12.21630859375
 71
     1
 72
     1
  1
{1:5}
  7
ＭＳ ゴシック
 73
     1
 44
0.7828267384257843
1001
ACAD
1000
ACAD_MTEXT_DEFINED_HEIGHT_BEGIN
1070
    46
1040
12.21630859375
1000
ACAD_MTEXT_DEFINED_HEIGHT_END
  0
MTEXT
  5
181
330
A
100
AcDbEntity
  8
TEMPLATE
390
1D
100
AcDbMText
 10
889.101072273995
 20
129.365875815714
 30
0.0
 40
8.144205729166663
 41
0.0
 46
0.0
 71
     1
 72
     1
  1
縮尺
  7
ＭＳ ゴシック
 73
     1
 44
0.7828267384257843
  0
LINE
  5
182
330
A
100
AcDbEntity
  8
TEMPLATE
390
1D
100
AcDbLine
 10
885.601072273995
 20
91.07333675321412
 30
0.0
 11
885.601072273995
 21
133.5733367532142
 31
0.0
  0
MTEXT
  5
183
330
A
100
AcDbEntity
  8
TEMPLATE
390
1D
100
AcDbMText
 10
763.601072273995
 20
129.365875815714
 30
0.0
 40
8.144205729166663
 41
0.0
 46
0.0
 71
     1
 72
     1
  1
容量
  7
ＭＳ ゴシック
 73
     1
 44
0.7828267384257843
  0
LINE
  5
184
330
A
100
AcDbEntity
  8
TEMPLATE
390
1D
100
AcDbLine
 10
760.101072273995
 20
91.07333675321412
 30
0.0
 11
760.101072273995
 21
133.5733367532142
 31
0.0
  0
MTEXT
  5
185
330
A
100
AcDbEntity
  8
TEMPLATE
390
1D
100
AcDbMText
 10
638.101072273995
 20
171.8658758157141
 30
0.0
 40
8.144205729166663
 41
0.0
 46
0.0
 71
     1
 72
     1
  1
品番
  7
ＭＳ ゴシック
 73
     1
 44
0.7828267384257843
  0
MTEXT
  5
186
330
A
100
AcDbEntity
  8
TEMPLATE
390
1D
100
AcDbMText
 10
638.101072273995
 20
129.365875815714
 30
0.0
 40
8.144205729166663
 41
0.0
 46
0.0
 71
     1
 72
     1
  1
重量
  7
ＭＳ ゴシック
 73
     1
 44
0.7828267384257843
  0
MTEXT
  5
187
330
A
100
AcDbEntity
  8
TEMPLATE
390
1D
100
AcDbMText
 10
664.601072273995
 20
157.5746453469641
 30
0.0
 40
12.21630859375
 41
0.0
 46
12.21630859375
 71
     1
 72
     1
  1
{FRF74-2615}
  7
ＭＳ ゴシック
 73
     1
 44
0.7828267384257843
1001
ACAD
1000
ACAD_MTEXT_DEFINED_HEIGHT_BEGIN
1070
    46
1040
12.21630859375
1000
ACAD_MTEXT_DEFINED_HEIGHT_END
  0
LINE
  5
188
330
A
100
AcDbEntity
  8
TEMPLATE
390
1D
100
AcDbLine
 10
634.601072273995
 20
48.57333675321413
 30
0.0
 11
634.601072273995
 21
176.0733367532141
 31
0.0
  0
MTEXT
  5
189
330
A
100
AcDbEntity
  8
TEMPLATE
390
1D
100
AcDbMText
 10
66.10107227386537
 20
157.5746453469641
 30
0.0
 40
12.21630859375
 41
0.0
 46
13.38907421875
 71
     1
 72
     1
  1
{バスラック　-LANGBERGER-}
  7
ＭＳ ゴシック
 73
     1
 44
0.7828267384257843
1001
ACAD
1000
ACAD_MTEXT_DEFINED_HEIGHT_BEGIN
1070
    46
1040
13.38907421875
1000
ACAD_MTEXT_DEFINED_HEIGHT_END
  0
INSERT
  5
6B5
330
A
100
AcDbEntity
  8
TEMPLATE
100
AcDbBlockReference
  2
名称未設定-1
 10
935.3753740442249
 20
12.97338287832691
 30
0.0
 41
0.3809999999999999
 42
0.3809999999999999
 43
0.3809999999999999
  0
MTEXT
  5
7D9
330
A
100
AcDbEntity
  8
TEMPLATE
390
1D
100
AcDbMText
 10
62.62717263801819
 20
113.4059880146976
 30
0.0
 40
12.21630859375
 41
0.0
 46
28.33830824273657
 71
     1
 72
     1
  1
{タブレットスタンド付\Pクローム}
  7
ＭＳ ゴシック
 73
     1
 44
0.8840641112754306
1001
ACAD
1000
ACAD_MTEXT_DEFINED_HEIGHT_BEGIN
1070
    46
1040
28.33830824273657
1000
ACAD_MTEXT_DEFINED_HEIGHT_END
  0
INSERT
  5
68C
330
A
100
AcDbEntity
  8
TEMPLATE
100
AcDbBlockReference
  2
block 2
 10
919.2743017702577
 20
8.373076514336368
 30
0.0
 41
0.3809999999999999
 42
0.3809999999999999
 43
0.3809999999999999
  0
LWPOLYLINE
  5
D69
330
A
100
AcDbEntity
  8
BORDER
100
AcDbPolyline
 90
        4
 70
     1
 43
0.0
 10
0.0
 20
0.0
 10
0.0
 20
1485.0
 10
1050.0
 20
1485.0
 10
1050.0
 20
0.0
  0
INSERT
  5
1343
330
A
100
AcDbEntity
  8
TEMPLATE
100
AcDbBlockReference
  2
block 2
 10
2096.743470866468
 20
24.43532141229569
 30
0.0
 41
0.3809999999999999
 42
0.3809999999999999
 43
0.3809999999999999
  0
MTEXT
  5
1844
102
{ACAD_XDICTIONARY
360
1846
102
}
330
A
100
AcDbEntity
  8
TEMPLATE
 48
0.05
100
AcDbMText
 10
37.48242117888904
 20
41.19710403117574
 30
0.0
 40
11.0
 41
0.0
 46
11.0
 71
     1
 72
     1
  1
{20161202N}
  7
ＭＳ ゴシック
 73
     1
 44
1.0
1001
ACAD
1000
ACAD_MTEXT_DEFINED_HEIGHT_BEGIN
1070
    46
1040
11.0
1000
ACAD_MTEXT_DEFINED_HEIGHT_END
  0
LINE
  5
1A79
330
A
100
AcDbEntity
  8
MODEL
100
AcDbLine
 10
492.544513082526
 20
933.0433644917475
 30
0.0
 11
492.544513082526
 21
892.0433652219044
 31
0.0
  0
LINE
  5
1A7A
330
A
100
AcDbEntity
  8
MODEL
100
AcDbLine
 10
495.5445191621998
 20
892.0433652219044
 30
0.0
 11
495.5445191621998
 21
933.0433644917475
 31
0.0
  0
LINE
  5
1A7B
330
A
100
AcDbEntity
  8
MODEL
100
AcDbLine
 10
492.544513082526
 20
892.0433652219044
 30
0.0
 11
492.544513082526
 21
887.5433635529744
 31
0.0
  0
LINE
  5
1A7C
330
A
100
AcDbEntity
  8
MODEL
100
AcDbLine
 10
495.5445191621998
 20
887.5433635529744
 30
0.0
 11
495.5445191621998
 21
892.0433652219044
 31
0.0
  0
LINE
  5
1A7D
330
A
100
AcDbEntity
  8
MODEL
100
AcDbLine
 10
422.5445158113012
 20
933.0433644917475
 30
0.0
 11
422.5445158113012
 21
892.0433652219044
 31
0.0
  0
LINE
  5
1A7E
330
A
100
AcDbEntity
  8
MODEL
100
AcDbLine
 10
425.5445158373782
 20
892.0433652219044
 30
0.0
 11
425.5445158373782
 21
933.0433644917475
 31
0.0
  0
LINE
  5
1A7F
330
A
100
AcDbEntity
  8
MODEL
100
AcDbLine
 10
422.5445158113012
 20
892.0433652219044
 30
0.0
 11
422.5445158113012
 21
887.5433635529744
 31
0.0
  0
LINE
  5
1A80
330
A
100
AcDbEntity
  8
MODEL
100
AcDbLine
 10
425.5445158373782
 20
887.5433635529744
 30
0.0
 11
425.5445158373782
 21
892.0433652219044
 31
0.0
  0
LINE
  5
1A81
330
A
100
AcDbEntity
  8
MODEL
100
AcDbLine
 10
440.0445165842989
 20
933.0433644917475
 30
0.0
 11
440.0445165842989
 21
892.0433652219044
 31
0.0
  0
LINE
  5
1A82
330
A
100
AcDbEntity
  8
MODEL
100
AcDbLine
 10
443.0445152133921
 20
892.0433652219044
 30
0.0
 11
443.0445152133921
 21
933.0433644917475
 31
0.0
  0
LINE
  5
1A83
330
A
100
AcDbEntity
  8
MODEL
100
AcDbLine
 10
440.0445165842989
 20
892.0433652219044
 30
0.0
 11
440.0445165842989
 21
887.5433635529744
 31
0.0
  0
LINE
  5
1A84
330
A
100
AcDbEntity
  8
MODEL
100
AcDbLine
 10
443.0445152133921
 20
887.5433635529744
 30
0.0
 11
443.0445152133921
 21
892.0433652219044
 31
0.0
  0
LINE
  5
1A85
330
A
100
AcDbEntity
  8
MODEL
100
AcDbLine
 10
457.5445166588047
 20
933.0433644917475
 30
0.0
 11
457.5445166588047
 21
892.0433652219044
 31
0.0
  0
LINE
  5
1A86
330
A
100
AcDbEntity
  8
MODEL
100
AcDbLine
 10
460.5445152878979
 20
892.0433652219044
 30
0.0
 11
460.5445152878979
 21
933.0433644917475
 31
0.0
  0
LINE
  5
1A87
330
A
100
AcDbEntity
  8
MODEL
100
AcDbLine
 10
457.5445166588047
 20
892.0433652219044
 30
0.0
 11
457.5445166588047
 21
887.5433635529744
 31
0.0
  0
LINE
  5
1A88
330
A
100
AcDbEntity
  8
MODEL
100
AcDbLine
 10
460.5445152878979
 20
887.5433635529744
 30
0.0
 11
460.5445152878979
 21
892.0433652219044
 31
0.0
  0
LINE
  5
1A89
330
A
100
AcDbEntity
  8
MODEL
100
AcDbLine
 10
212.5445118904331
 20
933.0433644917475
 30
0.0
 11
212.5445118904331
 21
892.0433652219044
 31
0.0
  0
LINE
  5
1A8A
330
A
100
AcDbEntity
  8
MODEL
100
AcDbLine
 10
215.5445179701069
 20
892.0433652219044
 30
0.0
 11
215.5445179701069
 21
933.0433644917475
 31
0.0
  0
LINE
  5
1A8B
330
A
100
AcDbEntity
  8
MODEL
100
AcDbLine
 10
212.5445118904331
 20
892.0433652219044
 30
0.0
 11
212.5445118904331
 21
887.5433635529744
 31
0.0
  0
LINE
  5
1A8C
330
A
100
AcDbEntity
  8
MODEL
100
AcDbLine
 10
215.5445179701069
 20
887.5433635529744
 30
0.0
 11
215.5445179701069
 21
892.0433652219044
 31
0.0
  0
LINE
  5
1A8D
330
A
100
AcDbEntity
  8
MODEL
100
AcDbLine
 10
317.5445160627582
 20
933.0433644917475
 30
0.0
 11
317.5445160627582
 21
892.0433652219044
 31
0.0
  0
LINE
  5
1A8E
330
A
100
AcDbEntity
  8
MODEL
100
AcDbLine
 10
320.5445146918514
 20
892.0433652219044
 30
0.0
 11
320.5445146918514
 21
933.0433644917475
 31
0.0
  0
LINE
  5
1A8F
330
A
100
AcDbEntity
  8
MODEL
100
AcDbLine
 10
317.5445160627582
 20
892.0433652219044
 30
0.0
 11
317.5445160627582
 21
887.5433635529744
 31
0.0
  0
LINE
  5
1A90
330
A
100
AcDbEntity
  8
MODEL
100
AcDbLine
 10
320.5445146918514
 20
887.5433635529744
 30
0.0
 11
320.5445146918514
 21
892.0433652219044
 31
0.0
  0
LINE
  5
1A91
330
A
100
AcDbEntity
  8
MODEL
100
AcDbLine
 10
510.0445187449673
 20
933.0433644917475
 30
0.0
 11
510.0445187449673
 21
892.0433652219044
 31
0.0
  0
LINE
  5
1A92
330
A
100
AcDbEntity
  8
MODEL
100
AcDbLine
 10
513.0445173740604
 20
892.0433652219044
 30
0.0
 11
513.0445173740604
 21
933.0433644917475
 31
0.0
  0
LINE
  5
1A93
330
A
100
AcDbEntity
  8
MODEL
100
AcDbLine
 10
510.0445187449673
 20
892.0433652219044
 30
0.0
 11
510.0445187449673
 21
887.5433635529744
 31
0.0
  0
LINE
  5
1A94
330
A
100
AcDbEntity
  8
MODEL
100
AcDbLine
 10
513.0445173740604
 20
887.5433635529744
 30
0.0
 11
513.0445173740604
 21
892.0433652219044
 31
0.0
  0
LINE
  5
1A95
330
A
100
AcDbEntity
  8
MODEL
100
AcDbLine
 10
527.5445169568279
 20
933.0433644917475
 30
0.0
 11
527.5445169568279
 21
892.0433652219044
 31
0.0
  0
LINE
  5
1A96
330
A
100
AcDbEntity
  8
MODEL
100
AcDbLine
 10
530.5445155859211
 20
892.0433652219044
 30
0.0
 11
530.5445155859211
 21
933.0433644917475
 31
0.0
  0
LINE
  5
1A97
330
A
100
AcDbEntity
  8
MODEL
100
AcDbLine
 10
527.5445169568279
 20
892.0433652219044
 30
0.0
 11
527.5445169568279
 21
887.5433635529744
 31
0.0
  0
LINE
  5
1A98
330
A
100
AcDbEntity
  8
MODEL
100
AcDbLine
 10
530.5445155859211
 20
887.5433635529744
 30
0.0
 11
530.5445155859211
 21
892.0433652219044
 31
0.0
  0
LINE
  5
1A99
330
A
100
AcDbEntity
  8
MODEL
100
AcDbLine
 10
160.0445172548511
 20
933.0433644917475
 30
0.0
 11
160.0445172548511
 21
892.0433652219044
 31
0.0
  0
LINE
  5
1A9A
330
A
100
AcDbEntity
  8
MODEL
100
AcDbLine
 10
163.0445084333637
 20
892.0433652219044
 30
0.0
 11
163.0445084333637
 21
933.0433644917475
 31
0.0
  0
LINE
  5
1A9B
330
A
100
AcDbEntity
  8
MODEL
100
AcDbLine
 10
160.0445172548511
 20
892.0433652219044
 30
0.0
 11
160.0445172548511
 21
887.5433635529744
 31
0.0
  0
LINE
  5
1A9C
102
{ACAD_REACTORS
330
1D03
102
}
330
A
100
AcDbEntity
  8
MODEL
100
AcDbLine
 10
163.0445084333637
 20
887.5433635529744
 30
0.0
 11
163.0445084333637
 21
892.0433652219044
 31
0.0
  0
LINE
  5
1A9D
330
A
100
AcDbEntity
  8
MODEL
100
AcDbLine
 10
475.0445148706654
 20
933.0433644917475
 30
0.0
 11
475.0445148706654
 21
892.0433652219044
 31
0.0
  0
LINE
  5
1A9E
330
A
100
AcDbEntity
  8
MODEL
100
AcDbLine
 10
478.0445172250488
 20
892.0433652219044
 30
0.0
 11
478.0445172250488
 21
933.0433644917475
 31
0.0
  0
LINE
  5
1A9F
330
A
100
AcDbEntity
  8
MODEL
100
AcDbLine
 10
475.0445148706654
 20
892.0433652219044
 30
0.0
 11
475.0445148706654
 21
887.5433635529744
 31
0.0
  0
LINE
  5
1AA0
330
A
100
AcDbEntity
  8
MODEL
100
AcDbLine
 10
478.0445172250488
 20
887.5433635529744
 30
0.0
 11
478.0445172250488
 21
892.0433652219044
 31
0.0
  0
LINE
  5
1AA1
330
A
100
AcDbEntity
  8
MODEL
100
AcDbLine
 10
195.0445136785725
 20
933.0433644917475
 30
0.0
 11
195.0445136785725
 21
892.0433652219044
 31
0.0
  0
LINE
  5
1AA2
330
A
100
AcDbEntity
  8
MODEL
100
AcDbLine
 10
198.0445197582462
 20
892.0433652219044
 30
0.0
 11
198.0445197582462
 21
933.0433644917475
 31
0.0
  0
LINE
  5
1AA3
330
A
100
AcDbEntity
  8
MODEL
100
AcDbLine
 10
195.0445136785725
 20
892.0433652219044
 30
0.0
 11
195.0445136785725
 21
887.5433635529744
 31
0.0
  0
LINE
  5
1AA4
330
A
100
AcDbEntity
  8
MODEL
100
AcDbLine
 10
198.0445197582462
 20
887.5433635529744
 30
0.0
 11
198.0445197582462
 21
892.0433652219044
 31
0.0
  0
LINE
  5
1AA5
330
A
100
AcDbEntity
  8
MODEL
100
AcDbLine
 10
177.5445154667118
 20
933.0433644917475
 30
0.0
 11
177.5445154667118
 21
892.0433652219044
 31
0.0
  0
LINE
  5
1AA6
330
A
100
AcDbEntity
  8
MODEL
100
AcDbLine
 10
180.5445215463856
 20
892.0433652219044
 30
0.0
 11
180.5445215463856
 21
933.0433644917475
 31
0.0
  0
LINE
  5
1AA7
330
A
100
AcDbEntity
  8
MODEL
100
AcDbLine
 10
177.5445154667118
 20
892.0433652219044
 30
0.0
 11
177.5445154667118
 21
887.5433635529744
 31
0.0
  0
LINE
  5
1AA8
330
A
100
AcDbEntity
  8
MODEL
100
AcDbLine
 10
180.5445215463856
 20
887.5433635529744
 30
0.0
 11
180.5445215463856
 21
892.0433652219044
 31
0.0
  0
LINE
  5
1AA9
330
A
100
AcDbEntity
  8
MODEL
100
AcDbLine
 10
247.5445232153156
 20
933.0433644917475
 30
0.0
 11
247.5445232153156
 21
892.0433652219044
 31
0.0
  0
LINE
  5
1AAA
330
A
100
AcDbEntity
  8
MODEL
100
AcDbLine
 10
250.5445143938282
 20
892.0433652219044
 30
0.0
 11
250.5445143938282
 21
933.0433644917475
 31
0.0
  0
LINE
  5
1AAB
330
A
100
AcDbEntity
  8
MODEL
100
AcDbLine
 10
247.5445232153156
 20
892.0433652219044
 30
0.0
 11
247.5445232153156
 21
887.5433635529744
 31
0.0
  0
LINE
  5
1AAC
330
A
100
AcDbEntity
  8
MODEL
100
AcDbLine
 10
250.5445143938282
 20
887.5433635529744
 30
0.0
 11
250.5445143938282
 21
892.0433652219044
 31
0.0
  0
LINE
  5
1AAD
330
A
100
AcDbEntity
  8
MODEL
100
AcDbLine
 10
230.0445101022938
 20
933.0433644917475
 30
0.0
 11
230.0445101022938
 21
892.0433652219044
 31
0.0
  0
LINE
  5
1AAE
330
A
100
AcDbEntity
  8
MODEL
100
AcDbLine
 10
233.0445161819675
 20
892.0433652219044
 30
0.0
 11
233.0445161819675
 21
933.0433644917475
 31
0.0
  0
LINE
  5
1AAF
330
A
100
AcDbEntity
  8
MODEL
100
AcDbLine
 10
230.0445101022938
 20
892.0433652219044
 30
0.0
 11
230.0445101022938
 21
887.5433635529744
 31
0.0
  0
LINE
  5
1AB0
330
A
100
AcDbEntity
  8
MODEL
100
AcDbLine
 10
233.0445161819675
 20
887.5433635529744
 30
0.0
 11
233.0445161819675
 21
892.0433652219044
 31
0.0
  0
LINE
  5
1AB1
330
A
100
AcDbEntity
  8
MODEL
100
AcDbLine
 10
300.0445178508976
 20
933.0433644917475
 30
0.0
 11
300.0445178508976
 21
892.0433652219044
 31
0.0
  0
LINE
  5
1AB2
330
A
100
AcDbEntity
  8
MODEL
100
AcDbLine
 10
303.0445164799908
 20
892.0433652219044
 30
0.0
 11
303.0445164799908
 21
933.0433644917475
 31
0.0
  0
LINE
  5
1AB3
330
A
100
AcDbEntity
  8
MODEL
100
AcDbLine
 10
300.0445178508976
 20
892.0433652219044
 30
0.0
 11
300.0445178508976
 21
887.5433635529744
 31
0.0
  0
LINE
  5
1AB4
330
A
100
AcDbEntity
  8
MODEL
100
AcDbLine
 10
303.0445164799908
 20
887.5433635529744
 30
0.0
 11
303.0445164799908
 21
892.0433652219044
 31
0.0
  0
LINE
  5
1AB5
330
A
100
AcDbEntity
  8
MODEL
100
AcDbLine
 10
282.5445196390369
 20
933.0433644917475
 30
0.0
 11
282.5445196390369
 21
892.0433652219044
 31
0.0
  0
LINE
  5
1AB6
330
A
100
AcDbEntity
  8
MODEL
100
AcDbLine
 10
285.5445108175495
 20
892.0433652219044
 30
0.0
 11
285.5445108175495
 21
933.0433644917475
 31
0.0
  0
LINE
  5
1AB7
330
A
100
AcDbEntity
  8
MODEL
100
AcDbLine
 10
282.5445196390369
 20
892.0433652219044
 30
0.0
 11
282.5445196390369
 21
887.5433635529744
 31
0.0
  0
LINE
  5
1AB8
330
A
100
AcDbEntity
  8
MODEL
100
AcDbLine
 10
285.5445108175495
 20
887.5433635529744
 30
0.0
 11
285.5445108175495
 21
892.0433652219044
 31
0.0
  0
LINE
  5
1AB9
330
A
100
AcDbEntity
  8
MODEL
100
AcDbLine
 10
265.0445214271763
 20
933.0433644917475
 30
0.0
 11
265.0445214271763
 21
892.0433652219044
 31
0.0
  0
LINE
  5
1ABA
330
A
100
AcDbEntity
  8
MODEL
100
AcDbLine
 10
268.0445126056889
 20
892.0433652219044
 30
0.0
 11
268.0445126056889
 21
933.0433644917475
 31
0.0
  0
LINE
  5
1ABB
330
A
100
AcDbEntity
  8
MODEL
100
AcDbLine
 10
265.0445214271763
 20
892.0433652219044
 30
0.0
 11
265.0445214271763
 21
887.5433635529744
 31
0.0
  0
LINE
  5
1ABC
330
A
100
AcDbEntity
  8
MODEL
100
AcDbLine
 10
268.0445126056889
 20
887.5433635529744
 30
0.0
 11
268.0445126056889
 21
892.0433652219044
 31
0.0
  0
LINE
  5
1ABD
330
A
100
AcDbEntity
  8
MODEL
100
AcDbLine
 10
352.5445124864796
 20
933.0433644917475
 30
0.0
 11
352.5445124864796
 21
892.0433652219044
 31
0.0
  0
LINE
  5
1ABE
330
A
100
AcDbEntity
  8
MODEL
100
AcDbLine
 10
355.5445185661533
 20
892.0433652219044
 30
0.0
 11
355.5445185661533
 21
933.0433644917475
 31
0.0
  0
LINE
  5
1ABF
330
A
100
AcDbEntity
  8
MODEL
100
AcDbLine
 10
352.5445124864796
 20
892.0433652219044
 30
0.0
 11
352.5445124864796
 21
887.5433635529744
 31
0.0
  0
LINE
  5
1AC0
330
A
100
AcDbEntity
  8
MODEL
100
AcDbLine
 10
355.5445185661533
 20
887.5433635529744
 30
0.0
 11
355.5445185661533
 21
892.0433652219044
 31
0.0
  0
LINE
  5
1AC1
330
A
100
AcDbEntity
  8
MODEL
100
AcDbLine
 10
335.0445142746189
 20
933.0433644917475
 30
0.0
 11
335.0445142746189
 21
892.0433652219044
 31
0.0
  0
LINE
  5
1AC2
330
A
100
AcDbEntity
  8
MODEL
100
AcDbLine
 10
338.0445129037121
 20
892.0433652219044
 30
0.0
 11
338.0445129037121
 21
933.0433644917475
 31
0.0
  0
LINE
  5
1AC3
330
A
100
AcDbEntity
  8
MODEL
100
AcDbLine
 10
335.0445142746189
 20
892.0433652219044
 30
0.0
 11
335.0445142746189
 21
887.5433635529744
 31
0.0
  0
LINE
  5
1AC4
330
A
100
AcDbEntity
  8
MODEL
100
AcDbLine
 10
338.0445129037121
 20
887.5433635529744
 30
0.0
 11
338.0445129037121
 21
892.0433652219044
 31
0.0
  0
LINE
  5
1AC5
330
A
100
AcDbEntity
  8
MODEL
100
AcDbLine
 10
545.0445151686886
 20
933.0433644917475
 30
0.0
 11
545.0445151686886
 21
892.0433652219044
 31
0.0
  0
LINE
  5
1AC6
330
A
100
AcDbEntity
  8
MODEL
100
AcDbLine
 10
548.0445137977817
 20
892.0433652219044
 30
0.0
 11
548.0445137977817
 21
933.0433644917475
 31
0.0
  0
LINE
  5
1AC7
330
A
100
AcDbEntity
  8
MODEL
100
AcDbLine
 10
545.0445151686886
 20
892.0433652219044
 30
0.0
 11
545.0445151686886
 21
887.5433635529744
 31
0.0
  0
LINE
  5
1AC8
330
A
100
AcDbEntity
  8
MODEL
100
AcDbLine
 10
548.0445137977817
 20
887.5433635529744
 30
0.0
 11
548.0445137977817
 21
892.0433652219044
 31
0.0
  0
LINE
  5
1AC9
330
A
100
AcDbEntity
  8
MODEL
100
AcDbLine
 10
387.5445163607815
 20
933.0433644917475
 30
0.0
 11
387.5445163607815
 21
892.0433652219044
 31
0.0
  0
LINE
  5
1ACA
330
A
100
AcDbEntity
  8
MODEL
100
AcDbLine
 10
390.5445149898746
 20
892.0433652219044
 30
0.0
 11
390.5445149898746
 21
933.0433644917475
 31
0.0
  0
LINE
  5
1ACB
330
A
100
AcDbEntity
  8
MODEL
100
AcDbLine
 10
387.5445163607815
 20
892.0433652219044
 30
0.0
 11
387.5445163607815
 21
887.5433635529744
 31
0.0
  0
LINE
  5
1ACC
330
A
100
AcDbEntity
  8
MODEL
100
AcDbLine
 10
390.5445149898746
 20
887.5433635529744
 30
0.0
 11
390.5445149898746
 21
892.0433652219044
 31
0.0
  0
LINE
  5
1ACD
330
A
100
AcDbEntity
  8
MODEL
100
AcDbLine
 10
370.0445144236305
 20
933.0433644917475
 30
0.0
 11
370.0445144236305
 21
892.0433652219044
 31
0.0
  0
LINE
  5
1ACE
330
A
100
AcDbEntity
  8
MODEL
100
AcDbLine
 10
373.044516778014
 20
892.0433652219044
 30
0.0
 11
373.044516778014
 21
933.0433644917475
 31
0.0
  0
LINE
  5
1ACF
330
A
100
AcDbEntity
  8
MODEL
100
AcDbLine
 10
370.0445144236305
 20
892.0433652219044
 30
0.0
 11
370.0445144236305
 21
887.5433635529744
 31
0.0
  0
LINE
  5
1AD0
330
A
100
AcDbEntity
  8
MODEL
100
AcDbLine
 10
373.044516778014
 20
887.5433635529744
 30
0.0
 11
373.044516778014
 21
892.0433652219044
 31
0.0
  0
LINE
  5
1AD1
330
A
100
AcDbEntity
  8
MODEL
100
AcDbLine
 10
405.0445164352873
 20
933.0433644917475
 30
0.0
 11
405.0445164352873
 21
892.0433652219044
 31
0.0
  0
LINE
  5
1AD2
330
A
100
AcDbEntity
  8
MODEL
100
AcDbLine
 10
408.0445150643804
 20
892.0433652219044
 30
0.0
 11
408.0445150643804
 21
933.0433644917475
 31
0.0
  0
LINE
  5
1AD3
330
A
100
AcDbEntity
  8
MODEL
100
AcDbLine
 10
405.0445164352873
 20
892.0433652219044
 30
0.0
 11
405.0445164352873
 21
887.5433635529744
 31
0.0
  0
LINE
  5
1AD4
330
A
100
AcDbEntity
  8
MODEL
100
AcDbLine
 10
408.0445150643804
 20
887.5433635529744
 30
0.0
 11
408.0445150643804
 21
892.0433652219044
 31
0.0
  0
LINE
  5
1AD5
330
A
100
AcDbEntity
  8
MODEL
100
AcDbLine
 10
650.0445118904331
 20
933.0433644917475
 30
0.0
 11
650.0445118904331
 21
892.0433652219044
 31
0.0
  0
LINE
  5
1AD6
330
A
100
AcDbEntity
  8
MODEL
100
AcDbLine
 10
653.0445179701069
 20
892.0433652219044
 30
0.0
 11
653.0445179701069
 21
933.0433644917475
 31
0.0
  0
LINE
  5
1AD7
330
A
100
AcDbEntity
  8
MODEL
100
AcDbLine
 10
650.0445118904331
 20
892.0433652219044
 30
0.0
 11
650.0445118904331
 21
887.5433635529744
 31
0.0
  0
LINE
  5
1AD8
330
A
100
AcDbEntity
  8
MODEL
100
AcDbLine
 10
653.0445179701069
 20
887.5433635529744
 30
0.0
 11
653.0445179701069
 21
892.0433652219044
 31
0.0
  0
LINE
  5
1AD9
330
A
100
AcDbEntity
  8
MODEL
100
AcDbLine
 10
667.5445101022938
 20
933.0433644917475
 30
0.0
 11
667.5445101022938
 21
892.0433652219044
 31
0.0
  0
LINE
  5
1ADA
330
A
100
AcDbEntity
  8
MODEL
100
AcDbLine
 10
670.5445161819675
 20
892.0433652219044
 30
0.0
 11
670.5445161819675
 21
933.0433644917475
 31
0.0
  0
LINE
  5
1ADB
330
A
100
AcDbEntity
  8
MODEL
100
AcDbLine
 10
667.5445101022938
 20
892.0433652219044
 30
0.0
 11
667.5445101022938
 21
887.5433635529744
 31
0.0
  0
LINE
  5
1ADC
330
A
100
AcDbEntity
  8
MODEL
100
AcDbLine
 10
670.5445161819675
 20
887.5433635529744
 30
0.0
 11
670.5445161819675
 21
892.0433652219044
 31
0.0
  0
LINE
  5
1ADD
330
A
100
AcDbEntity
  8
MODEL
100
AcDbLine
 10
685.0445232153156
 20
933.0433644917475
 30
0.0
 11
685.0445232153156
 21
892.0433652219044
 31
0.0
  0
LINE
  5
1ADE
330
A
100
AcDbEntity
  8
MODEL
100
AcDbLine
 10
688.0445143938282
 20
892.0433652219044
 30
0.0
 11
688.0445143938282
 21
933.0433644917475
 31
0.0
  0
LINE
  5
1ADF
102
{ACAD_REACTORS
330
1D03
102
}
330
A
100
AcDbEntity
  8
MODEL
100
AcDbLine
 10
685.0445232153156
 20
892.0433652219044
 30
0.0
 11
685.0445232153156
 21
887.5433635529744
 31
0.0
  0
LINE
  5
1AE0
330
A
100
AcDbEntity
  8
MODEL
100
AcDbLine
 10
688.0445143938282
 20
887.5433635529744
 30
0.0
 11
688.0445143938282
 21
892.0433652219044
 31
0.0
  0
LINE
  5
1AE1
330
A
100
AcDbEntity
  8
MODEL
100
AcDbLine
 10
615.0445154667118
 20
933.0433644917475
 30
0.0
 11
615.0445154667118
 21
892.0433652219044
 31
0.0
  0
LINE
  5
1AE2
330
A
100
AcDbEntity
  8
MODEL
100
AcDbLine
 10
618.0445215463856
 20
892.0433652219044
 30
0.0
 11
618.0445215463856
 21
933.0433644917475
 31
0.0
  0
LINE
  5
1AE3
330
A
100
AcDbEntity
  8
MODEL
100
AcDbLine
 10
615.0445154667118
 20
892.0433652219044
 30
0.0
 11
615.0445154667118
 21
887.5433635529744
 31
0.0
  0
LINE
  5
1AE4
330
A
100
AcDbEntity
  8
MODEL
100
AcDbLine
 10
618.0445215463856
 20
887.5433635529744
 30
0.0
 11
618.0445215463856
 21
892.0433652219044
 31
0.0
  0
LINE
  5
1AE5
330
A
100
AcDbEntity
  8
MODEL
100
AcDbLine
 10
632.5445136785725
 20
933.0433644917475
 30
0.0
 11
632.5445136785725
 21
892.0433652219044
 31
0.0
  0
LINE
  5
1AE6
330
A
100
AcDbEntity
  8
MODEL
100
AcDbLine
 10
635.5445197582462
 20
892.0433652219044
 30
0.0
 11
635.5445197582462
 21
933.0433644917475
 31
0.0
  0
LINE
  5
1AE7
330
A
100
AcDbEntity
  8
MODEL
100
AcDbLine
 10
632.5445136785725
 20
892.0433652219044
 30
0.0
 11
632.5445136785725
 21
887.5433635529744
 31
0.0
  0
LINE
  5
1AE8
330
A
100
AcDbEntity
  8
MODEL
100
AcDbLine
 10
635.5445197582462
 20
887.5433635529744
 30
0.0
 11
635.5445197582462
 21
892.0433652219044
 31
0.0
  0
LINE
  5
1AE9
330
A
100
AcDbEntity
  8
MODEL
100
AcDbLine
 10
562.5445208311298
 20
933.0433644917475
 30
0.0
 11
562.5445208311298
 21
892.0433652219044
 31
0.0
  0
LINE
  5
1AEA
330
A
100
AcDbEntity
  8
MODEL
100
AcDbLine
 10
565.5445120096424
 20
892.0433652219044
 30
0.0
 11
565.5445120096424
 21
933.0433644917475
 31
0.0
  0
LINE
  5
1AEB
330
A
100
AcDbEntity
  8
MODEL
100
AcDbLine
 10
562.5445208311298
 20
892.0433652219044
 30
0.0
 11
562.5445208311298
 21
887.5433635529744
 31
0.0
  0
LINE
  5
1AEC
330
A
100
AcDbEntity
  8
MODEL
100
AcDbLine
 10
565.5445120096424
 20
887.5433635529744
 30
0.0
 11
565.5445120096424
 21
892.0433652219044
 31
0.0
  0
LINE
  5
1AED
330
A
100
AcDbEntity
  8
MODEL
100
AcDbLine
 10
580.0445190429905
 20
933.0433644917475
 30
0.0
 11
580.0445190429905
 21
892.0433652219044
 31
0.0
  0
LINE
  5
1AEE
330
A
100
AcDbEntity
  8
MODEL
100
AcDbLine
 10
583.0445102215031
 20
892.0433652219044
 30
0.0
 11
583.0445102215031
 21
933.0433644917475
 31
0.0
  0
LINE
  5
1AEF
330
A
100
AcDbEntity
  8
MODEL
100
AcDbLine
 10
580.0445190429905
 20
892.0433652219044
 30
0.0
 11
580.0445190429905
 21
887.5433635529744
 31
0.0
  0
LINE
  5
1AF0
330
A
100
AcDbEntity
  8
MODEL
100
AcDbLine
 10
583.0445102215031
 20
887.5433635529744
 30
0.0
 11
583.0445102215031
 21
892.0433652219044
 31
0.0
  0
LINE
  5
1AF1
330
A
100
AcDbEntity
  8
MODEL
100
AcDbLine
 10
597.5445172548511
 20
933.0433644917475
 30
0.0
 11
597.5445172548511
 21
892.0433652219044
 31
0.0
  0
LINE
  5
1AF2
330
A
100
AcDbEntity
  8
MODEL
100
AcDbLine
 10
600.5445084333637
 20
892.0433652219044
 30
0.0
 11
600.5445084333637
 21
933.0433644917475
 31
0.0
  0
LINE
  5
1AF3
330
A
100
AcDbEntity
  8
MODEL
100
AcDbLine
 10
597.5445172548511
 20
892.0433652219044
 30
0.0
 11
597.5445172548511
 21
887.5433635529744
 31
0.0
  0
LINE
  5
1AF4
330
A
100
AcDbEntity
  8
MODEL
100
AcDbLine
 10
600.5445084333637
 20
887.5433635529744
 30
0.0
 11
600.5445084333637
 21
892.0433652219044
 31
0.0
  0
LINE
  5
1AF5
330
A
100
AcDbEntity
  8
MODEL
100
AcDbLine
 10
755.6724807977894
 20
933.0433644917475
 30
0.0
 11
766.0445234537342
 21
933.0433644917475
 31
0.0
  0
LINE
  5
1AF6
330
A
100
AcDbEntity
  8
MODEL
100
AcDbLine
 10
688.0739590883472
 20
933.0433644917475
 30
0.0
 11
752.3945233583668
 21
933.0433644917475
 31
0.0
  0
LINE
  5
1AF7
330
A
100
AcDbEntity
  8
MODEL
100
AcDbLine
 10
670.5739608764866
 20
933.0433644917475
 30
0.0
 11
684.9945149183491
 21
933.0433644917475
 31
0.0
  0
LINE
  5
1AF8
330
A
100
AcDbEntity
  8
MODEL
100
AcDbLine
 10
653.0739626646259
 20
933.0433644917475
 30
0.0
 11
667.4945167064884
 21
933.0433644917475
 31
0.0
  0
LINE
  5
1AF9
330
A
100
AcDbEntity
  8
MODEL
100
AcDbLine
 10
635.5739495516041
 20
933.0433644917475
 30
0.0
 11
649.9945184946278
 21
933.0433644917475
 31
0.0
  0
LINE
  5
1AFA
330
A
100
AcDbEntity
  8
MODEL
100
AcDbLine
 10
618.0739513397434
 20
933.0433644917475
 30
0.0
 11
632.4945202827671
 21
933.0433644917475
 31
0.0
  0
LINE
  5
1AFB
330
A
100
AcDbEntity
  8
MODEL
100
AcDbLine
 10
600.5739531278828
 20
933.0433644917475
 30
0.0
 11
614.9945220709064
 21
933.0433644917475
 31
0.0
  0
LINE
  5
1AFC
330
A
100
AcDbEntity
  8
MODEL
100
AcDbLine
 10
583.0739549160221
 20
933.0433644917475
 30
0.0
 11
597.4945089578846
 21
933.0433644917475
 31
0.0
  0
LINE
  5
1AFD
330
A
100
AcDbEntity
  8
MODEL
100
AcDbLine
 10
565.5739567041614
 20
933.0433644917475
 30
0.0
 11
579.9945107460239
 21
933.0433644917475
 31
0.0
  0
LINE
  5
1AFE
330
A
100
AcDbEntity
  8
MODEL
100
AcDbLine
 10
548.0739584923008
 20
933.0433644917475
 30
0.0
 11
562.4945125341633
 21
933.0433644917475
 31
0.0
  0
LINE
  5
1AFF
330
A
100
AcDbEntity
  8
MODEL
100
AcDbLine
 10
530.5739528298595
 20
933.0433644917475
 30
0.0
 11
544.9945143223026
 21
933.0433644917475
 31
0.0
  0
LINE
  5
1B00
330
A
100
AcDbEntity
  8
MODEL
100
AcDbLine
 10
513.0739546179989
 20
933.0433644917475
 30
0.0
 11
527.494516110442
 21
933.0433644917475
 31
0.0
  0
LINE
  5
1B01
330
A
100
AcDbEntity
  8
MODEL
100
AcDbLine
 10
495.5739564061382
 20
933.0433644917475
 30
0.0
 11
509.9945178985813
 21
933.0433644917475
 31
0.0
  0
LINE
  5
1B02
330
A
100
AcDbEntity
  8
MODEL
100
AcDbLine
 10
478.0739544689873
 20
933.0433644917475
 30
0.0
 11
492.4945122361401
 21
933.0433644917475
 31
0.0
  0
LINE
  5
1B03
330
A
100
AcDbEntity
  8
MODEL
100
AcDbLine
 10
460.5739562571266
 20
933.0433644917475
 30
0.0
 11
474.9945140242794
 21
933.0433644917475
 31
0.0
  0
LINE
  5
1B04
330
A
100
AcDbEntity
  8
MODEL
100
AcDbLine
 10
443.0739561826208
 20
933.0433644917475
 30
0.0
 11
457.4945158124187
 21
933.0433644917475
 31
0.0
  0
LINE
  5
1B05
330
A
100
AcDbEntity
  8
MODEL
100
AcDbLine
 10
425.5739555260384
 20
933.0433644917475
 30
0.0
 11
439.9945157379129
 21
933.0433644917475
 31
0.0
  0
LINE
  5
1B06
330
A
100
AcDbEntity
  8
MODEL
100
AcDbLine
 10
408.0739560336092
 20
933.0433644917475
 30
0.0
 11
422.4945157798224
 21
933.0433644917475
 31
0.0
  0
LINE
  5
1B07
330
A
100
AcDbEntity
  8
MODEL
100
AcDbLine
 10
390.5739559591034
 20
933.0433644917475
 30
0.0
 11
404.9945155889013
 21
933.0433644917475
 31
0.0
  0
LINE
  5
1B08
330
A
100
AcDbEntity
  8
MODEL
100
AcDbLine
 10
373.0739540219524
 20
933.0433644917475
 30
0.0
 11
387.4945155143955
 21
933.0433644917475
 31
0.0
  0
LINE
  5
1B09
330
A
100
AcDbEntity
  8
MODEL
100
AcDbLine
 10
355.5739558100918
 20
933.0433644917475
 30
0.0
 11
369.9945173025349
 21
933.0433644917475
 31
0.0
  0
LINE
  5
1B0A
330
A
100
AcDbEntity
  8
MODEL
100
AcDbLine
 10
338.0739575982311
 20
933.0433644917475
 30
0.0
 11
352.4945190906742
 21
933.0433644917475
 31
0.0
  0
LINE
  5
1B0B
330
A
100
AcDbEntity
  8
MODEL
100
AcDbLine
 10
320.5739519357899
 20
933.0433644917475
 30
0.0
 11
334.9945134282329
 21
933.0433644917475
 31
0.0
  0
LINE
  5
1B0C
330
A
100
AcDbEntity
  8
MODEL
100
AcDbLine
 10
303.0739537239292
 20
933.0433644917475
 30
0.0
 11
317.4945152163723
 21
933.0433644917475
 31
0.0
  0
LINE
  5
1B0D
330
A
100
AcDbEntity
  8
MODEL
100
AcDbLine
 10
285.5739555120686
 20
933.0433644917475
 30
0.0
 11
299.9945170045116
 21
933.0433644917475
 31
0.0
  0
LINE
  5
1B0E
330
A
100
AcDbEntity
  8
MODEL
100
AcDbLine
 10
268.0739573002079
 20
933.0433644917475
 30
0.0
 11
282.4945113420704
 21
933.0433644917475
 31
0.0
  0
LINE
  5
1B0F
330
A
100
AcDbEntity
  8
MODEL
100
AcDbLine
 10
250.5739590883472
 20
933.0433644917475
 30
0.0
 11
264.9945131302097
 21
933.0433644917475
 31
0.0
  0
LINE
  5
1B10
330
A
100
AcDbEntity
  8
MODEL
100
AcDbLine
 10
233.0739608764866
 20
933.0433644917475
 30
0.0
 11
247.4945149183491
 21
933.0433644917475
 31
0.0
  0
LINE
  5
1B11
330
A
100
AcDbEntity
  8
MODEL
100
AcDbLine
 10
215.5739626646259
 20
933.0433644917475
 30
0.0
 11
229.9945167064884
 21
933.0433644917475
 31
0.0
  0
LINE
  5
1B12
330
A
100
AcDbEntity
  8
MODEL
100
AcDbLine
 10
198.0739495516041
 20
933.0433644917475
 30
0.0
 11
212.4945184946278
 21
933.0433644917475
 31
0.0
  0
LINE
  5
1B13
330
A
100
AcDbEntity
  8
MODEL
100
AcDbLine
 10
180.5739513397434
 20
933.0433644917475
 30
0.0
 11
194.9945202827671
 21
933.0433644917475
 31
0.0
  0
LINE
  5
1B14
330
A
100
AcDbEntity
  8
MODEL
100
AcDbLine
 10
163.0739531278828
 20
933.0433644917475
 30
0.0
 11
177.4945220709064
 21
933.0433644917475
 31
0.0
  0
LINE
  5
1B15
330
A
100
AcDbEntity
  8
MODEL
100
AcDbLine
 10
95.67248437406806
 20
933.0433644917475
 30
0.0
 11
159.9945089578846
 21
933.0433644917475
 31
0.0
  0
LINE
  5
1B16
330
A
100
AcDbEntity
  8
MODEL
100
AcDbLine
 10
82.04450819494514
 20
933.0433644917475
 30
0.0
 11
92.39452693464546
 21
933.0433644917475
 31
0.0
  0
LINE
  5
1B17
330
A
100
AcDbEntity
  8
MODEL
100
AcDbLine
 10
766.0445234537342
 20
946.0433633629846
 30
0.0
 11
82.04450819494514
 21
946.0433633629846
 31
0.0
  0
LINE
  5
1B18
330
A
100
AcDbEntity
  8
MODEL
100
AcDbLine
 10
755.6445262193897
 20
933.0433644917475
 30
0.0
 11
752.4445018530109
 21
933.0433644917475
 31
0.0
  0
LINE
  5
1B19
330
A
100
AcDbEntity
  8
MODEL
100
AcDbLine
 10
95.6445297956684
 20
933.0433644917475
 30
0.0
 11
92.44450542928962
 21
933.0433644917475
 31
0.0
  0
LINE
  5
1B1A
330
A
100
AcDbEntity
  8
MODEL
100
AcDbLine
 10
768.5445210695484
 20
931.5433633145558
 30
0.0
 11
771.544512248061
 21
931.5433633145558
 31
0.0
  0
ARC
  5
1B1B
330
A
100
AcDbEntity
  8
MODEL
100
AcDbCircle
 10
771.0445158243451
 20
931.5433635747145
 30
0.0
 40
0.5000000000001137
100
AcDbArc
 50
270.0
 51
0.0
  0
LINE
  5
1B1C
330
A
100
AcDbEntity
  8
MODEL
100
AcDbLine
 10
771.0445186853626
 20
931.043364163922
 30
0.0
 11
769.0445146322468
 21
931.043364163922
 31
0.0
  0
ARC
  5
1B1D
330
A
100
AcDbEntity
  8
MODEL
100
AcDbCircle
 10
769.0445158243442
 20
931.5433635747145
 30
0.0
 40
0.5000000000001137
100
AcDbArc
 50
180.0
 51
270.0
  0
LINE
  5
1B1E
330
A
100
AcDbEntity
  8
MODEL
100
AcDbLine
 10
771.544512248061
 20
932.0433643278348
 30
0.0
 11
771.544512248061
 21
931.5433633145558
 31
0.0
  0
LINE
  5
1B1F
330
A
100
AcDbEntity
  8
MODEL
100
AcDbLine
 10
768.5445210695484
 20
932.0433643278348
 30
0.0
 11
768.5445210695484
 21
931.5433633145558
 31
0.0
  0
LINE
  5
1B20
330
A
100
AcDbEntity
  8
MODEL
100
AcDbLine
 10
79.54451057913093
 20
932.0433643278348
 30
0.0
 11
79.54451057913093
 21
931.5433633145558
 31
0.0
  0
LINE
  5
1B21
330
A
100
AcDbEntity
  8
MODEL
100
AcDbLine
 10
76.54451940061836
 20
931.5433633145558
 30
0.0
 11
79.54451057913093
 21
931.5433633145558
 31
0.0
  0
LINE
  5
1B22
330
A
100
AcDbEntity
  8
MODEL
100
AcDbLine
 10
76.54451940061836
 20
932.0433643278348
 30
0.0
 11
76.54451940061836
 21
931.5433633145558
 31
0.0
  0
ARC
  5
1B23
330
A
100
AcDbEntity
  8
MODEL
100
AcDbCircle
 10
79.04451582433967
 20
931.5433635747145
 30
0.0
 40
0.5000000000001137
100
AcDbArc
 50
270.0
 51
0.0
  0
LINE
  5
1B24
330
A
100
AcDbEntity
  8
MODEL
100
AcDbLine
 10
79.04451701643256
 20
931.043364163922
 30
0.0
 11
77.04451296331672
 21
931.043364163922
 31
0.0
  0
ARC
  5
1B25
330
A
100
AcDbEntity
  8
MODEL
100
AcDbCircle
 10
77.04451582433967
 20
931.5433635747145
 30
0.0
 40
0.5000000000001137
100
AcDbArc
 50
180.0
 51
270.0
  0
LINE
  5
1B26
330
A
100
AcDbEntity
  8
MODEL
100
AcDbLine
 10
774.0445098638752
 20
947.0433635268973
 30
0.0
 11
766.0445234537342
 21
947.0433635268973
 31
0.0
  0
LINE
  5
1B27
330
A
100
AcDbEntity
  8
MODEL
100
AcDbLine
 10
774.0445098638752
 20
947.0433635268973
 30
0.0
 11
774.0445098638752
 21
932.0433643278348
 31
0.0
  0
LINE
  5
1B28
330
A
100
AcDbEntity
  8
MODEL
100
AcDbLine
 10
774.0445098638752
 20
932.0433643278348
 30
0.0
 11
771.6945073366383
 21
932.0433643278348
 31
0.0
  0
SPLINE
  5
1B29
330
A
100
AcDbEntity
  8
MODEL
100
AcDbSpline
210
0.0
220
0.0
230
1.0
 70
     8
 71
     3
 72
    17
 73
    13
 74
     0
 42
0.000000001
 43
0.00000001
 40
0.0
 40
0.0
 40
0.0
 40
0.0
 40
0.1056232610156579
 40
0.2111862508233709
 40
0.318288526913759
 40
0.4265612358958264
 40
0.5331224185131719
 40
0.6377316640737617
 40
0.7432021856060488
 40
0.850973791115608
 40
0.9589576305754178
 40
1.0
 40
1.0
 40
1.0
 40
1.0
 10
768.3945259809711
 20
932.0433643278348
 30
0.0
 10
768.4123254888741
 20
932.0473834668928
 30
0.0
 10
768.4479143478443
 20
932.0554194515908
 30
0.0
 10
768.7247927542799
 20
932.1116442100056
 30
0.0
 10
769.1359511282603
 20
932.1758722085933
 30
0.0
 10
769.6561524168069
 20
932.2238070400799
 30
0.0
 10
770.2169961187478
 20
932.2321241139307
 30
0.0
 10
770.7523980133806
 20
932.1986134387316
 30
0.0
 10
771.2110699061263
 20
932.1382120848607
 30
0.0
 10
771.5437446607589
 20
932.0764037140216
 30
0.0
 10
771.6816224347499
 20
932.0461951540283
 30
0.0
 10
771.6917250413858
 20
932.0439756009628
 30
0.0
 10
771.6945073366383
 20
932.0433643278348
 30
0.0
  0
LINE
  5
1B2A
330
A
100
AcDbEntity
  8
MODEL
100
AcDbLine
 10
768.3945259809711
 20
932.0433643278348
 30
0.0
 11
766.0445234537342
 21
932.0433643278348
 31
0.0
  0
LINE
  5
1B2B
330
A
100
AcDbEntity
  8
MODEL
100
AcDbLine
 10
766.0445234537342
 20
947.0433635268973
 30
0.0
 11
766.0445234537342
 21
932.0433643278348
 31
0.0
  0
LINE
  5
1B2C
330
A
100
AcDbEntity
  8
MODEL
100
AcDbLine
 10
74.04452178480415
 20
947.0433635268973
 30
0.0
 11
82.04450819494514
 21
947.0433635268973
 31
0.0
  0
LINE
  5
1B2D
330
A
100
AcDbEntity
  8
MODEL
100
AcDbLine
 10
82.04450819494514
 20
932.0433643278348
 30
0.0
 11
82.04450819494514
 21
947.0433635268973
 31
0.0
  0
LINE
  5
1B2E
330
A
100
AcDbEntity
  8
MODEL
100
AcDbLine
 10
79.6945056677082
 20
932.0433643278348
 30
0.0
 11
82.04450819494514
 21
932.0433643278348
 31
0.0
  0
SPLINE
  5
1B2F
330
A
100
AcDbEntity
  8
MODEL
100
AcDbSpline
210
0.0
220
0.0
230
1.0
 70
     8
 71
     3
 72
    17
 73
    13
 74
     0
 42
0.000000001
 43
0.00000001
 40
0.0
 40
0.0
 40
0.0
 40
0.0
 40
0.1056232610156579
 40
0.2111862508233709
 40
0.318288526913759
 40
0.4265612358958264
 40
0.5331224185131719
 40
0.6377316640737617
 40
0.7432021856060488
 40
0.850973791115608
 40
0.9589576305754178
 40
1.0
 40
1.0
 40
1.0
 40
1.0
 10
76.39452431204109
 20
932.0433643278348
 30
0.0
 10
76.41232381994405
 20
932.0473834668928
 30
0.0
 10
76.44791267891424
 20
932.0554194515908
 30
0.0
 10
76.7247910853498
 20
932.1116442100056
 30
0.0
 10
77.13594945933028
 20
932.1758722085933
 30
0.0
 10
77.65615074787684
 20
932.2238070400799
 30
0.0
 10
78.21699444981778
 20
932.2321241139307
 30
0.0
 10
78.75239634445052
 20
932.1986134387316
 30
0.0
 10
79.21106823719629
 20
932.1382120848607
 30
0.0
 10
79.54374299182882
 20
932.0764037140216
 30
0.0
 10
79.68162076581984
 20
932.0461951540283
 30
0.0
 10
79.69172337245391
 20
932.0439756009628
 30
0.0
 10
79.6945056677082
 20
932.0433643278348
 30
0.0
  0
LINE
  5
1B30
330
A
100
AcDbEntity
  8
MODEL
100
AcDbLine
 10
74.04452178480415
 20
932.0433643278348
 30
0.0
 11
76.39452431204109
 21
932.0433643278348
 31
0.0
  0
LINE
  5
1B31
330
A
100
AcDbEntity
  8
MODEL
100
AcDbLine
 10
74.04452178480415
 20
932.0433643278348
 30
0.0
 11
74.04452178480415
 21
947.0433635268973
 31
0.0
  0
ARC
  5
1B32
330
A
100
AcDbEntity
  8
MODEL
100
AcDbCircle
 10
494.0445158080379
 20
887.5433635747145
 30
0.0
 40
1.499999999999986
100
AcDbArc
 50
180.0
 51
0.0
  0
ARC
  5
1B33
330
A
100
AcDbEntity
  8
MODEL
100
AcDbCircle
 10
424.0445158080379
 20
887.5433635747145
 30
0.0
 40
1.500000000000057
100
AcDbArc
 50
180.0
 51
0.0
  0
ARC
  5
1B34
330
A
100
AcDbEntity
  8
MODEL
100
AcDbCircle
 10
441.5445158080379
 20
887.5433635747145
 30
0.0
 40
1.500000000000057
100
AcDbArc
 50
180.0
 51
0.0
  0
ARC
  5
1B35
330
A
100
AcDbEntity
  8
MODEL
100
AcDbCircle
 10
459.0445158080379
 20
887.5433635747145
 30
0.0
 40
1.500000000000057
100
AcDbArc
 50
180.0
 51
0.0
  0
ARC
  5
1B36
330
A
100
AcDbEntity
  8
MODEL
100
AcDbCircle
 10
214.0445158395028
 20
887.5433635747145
 30
0.0
 40
1.499999999999986
100
AcDbArc
 50
180.0
 51
0.0
  0
ARC
  5
1B37
330
A
100
AcDbEntity
  8
MODEL
100
AcDbCircle
 10
319.0445158395028
 20
887.5433635747145
 30
0.0
 40
1.499999999999986
100
AcDbArc
 50
180.0
 51
0.0
  0
ARC
  5
1B38
330
A
100
AcDbEntity
  8
MODEL
100
AcDbCircle
 10
511.5445158080379
 20
887.5433635747145
 30
0.0
 40
1.500000000000057
100
AcDbArc
 50
180.0
 51
0.0
  0
ARC
  5
1B39
330
A
100
AcDbEntity
  8
MODEL
100
AcDbCircle
 10
529.0445158080379
 20
887.5433635747145
 30
0.0
 40
1.500000000000128
100
AcDbArc
 50
180.0
 51
0.0
  0
ARC
  5
1B3A
102
{ACAD_REACTORS
330
1CF4
102
}
330
A
100
AcDbEntity
  8
MODEL
100
AcDbCircle
 10
161.5445158395028
 20
887.5433635747145
 30
0.0
 40
1.500000000000021
100
AcDbArc
 50
180.0
 51
0.0
  0
ARC
  5
1B3B
330
A
100
AcDbEntity
  8
MODEL
100
AcDbCircle
 10
476.5445158080379
 20
887.5433635747145
 30
0.0
 40
1.500000000000057
100
AcDbArc
 50
180.0
 51
0.0
  0
ARC
  5
1B3C
330
A
100
AcDbEntity
  8
MODEL
100
AcDbCircle
 10
196.5445158395028
 20
887.5433635747145
 30
0.0
 40
1.500000000000021
100
AcDbArc
 50
180.0
 51
0.0
  0
ARC
  5
1B3D
330
A
100
AcDbEntity
  8
MODEL
100
AcDbCircle
 10
179.0445158395028
 20
887.5433635747145
 30
0.0
 40
1.499999999999986
100
AcDbArc
 50
180.0
 51
0.0
  0
ARC
  5
1B3E
330
A
100
AcDbEntity
  8
MODEL
100
AcDbCircle
 10
249.0445158395028
 20
887.5433635747145
 30
0.0
 40
1.499999999999986
100
AcDbArc
 50
180.0
 51
0.0
  0
ARC
  5
1B3F
330
A
100
AcDbEntity
  8
MODEL
100
AcDbCircle
 10
231.5445158395028
 20
887.5433635747145
 30
0.0
 40
1.499999999999986
100
AcDbArc
 50
180.0
 51
0.0
  0
ARC
  5
1B40
330
A
100
AcDbEntity
  8
MODEL
100
AcDbCircle
 10
301.5445158395028
 20
887.5433635747145
 30
0.0
 40
1.500000000000057
100
AcDbArc
 50
180.0
 51
0.0
  0
ARC
  5
1B41
330
A
100
AcDbEntity
  8
MODEL
100
AcDbCircle
 10
284.0445158395028
 20
887.5433635747145
 30
0.0
 40
1.499999999999986
100
AcDbArc
 50
180.0
 51
0.0
  0
ARC
  5
1B42
330
A
100
AcDbEntity
  8
MODEL
100
AcDbCircle
 10
266.5445158395028
 20
887.5433635747145
 30
0.0
 40
1.499999999999986
100
AcDbArc
 50
180.0
 51
0.0
  0
ARC
  5
1B43
330
A
100
AcDbEntity
  8
MODEL
100
AcDbCircle
 10
354.0445158395028
 20
887.5433635747145
 30
0.0
 40
1.499999999999986
100
AcDbArc
 50
180.0
 51
0.0
  0
ARC
  5
1B44
330
A
100
AcDbEntity
  8
MODEL
100
AcDbCircle
 10
336.5445158395028
 20
887.5433635747145
 30
0.0
 40
1.499999999999986
100
AcDbArc
 50
180.0
 51
0.0
  0
ARC
  5
1B45
330
A
100
AcDbEntity
  8
MODEL
100
AcDbCircle
 10
546.5445158080379
 20
887.5433635747145
 30
0.0
 40
1.500000000000057
100
AcDbArc
 50
180.0
 51
0.0
  0
ARC
  5
1B46
330
A
100
AcDbEntity
  8
MODEL
100
AcDbCircle
 10
389.0445158395028
 20
887.5433635747145
 30
0.0
 40
1.499999999999986
100
AcDbArc
 50
180.0
 51
0.0
  0
ARC
  5
1B47
330
A
100
AcDbEntity
  8
MODEL
100
AcDbCircle
 10
371.5445158395028
 20
887.5433635747145
 30
0.0
 40
1.500000000000057
100
AcDbArc
 50
180.0
 51
0.0
  0
ARC
  5
1B48
330
A
100
AcDbEntity
  8
MODEL
100
AcDbCircle
 10
406.5445158395028
 20
887.5433635747145
 30
0.0
 40
1.499999999999986
100
AcDbArc
 50
180.0
 51
0.0
  0
ARC
  5
1B49
330
A
100
AcDbEntity
  8
MODEL
100
AcDbCircle
 10
651.5445158080379
 20
887.5433635747145
 30
0.0
 40
1.500000000000057
100
AcDbArc
 50
180.0
 51
0.0
  0
ARC
  5
1B4A
330
A
100
AcDbEntity
  8
MODEL
100
AcDbCircle
 10
669.0445158080397
 20
887.5433635747145
 30
0.0
 40
1.500000000000057
100
AcDbArc
 50
180.0
 51
0.0
  0
ARC
  5
1B4B
102
{ACAD_REACTORS
330
1CF4
102
}
330
A
100
AcDbEntity
  8
MODEL
100
AcDbCircle
 10
686.5445158080379
 20
887.5433635747145
 30
0.0
 40
1.500000000000057
100
AcDbArc
 50
180.0
 51
0.0
  0
ARC
  5
1B4C
330
A
100
AcDbEntity
  8
MODEL
100
AcDbCircle
 10
616.5445158080379
 20
887.5433635747145
 30
0.0
 40
1.500000000000057
100
AcDbArc
 50
180.0
 51
0.0
  0
ARC
  5
1B4D
330
A
100
AcDbEntity
  8
MODEL
100
AcDbCircle
 10
634.0445158080379
 20
887.5433635747145
 30
0.0
 40
1.500000000000057
100
AcDbArc
 50
180.0
 51
0.0
  0
ARC
  5
1B4E
330
A
100
AcDbEntity
  8
MODEL
100
AcDbCircle
 10
564.0445158080379
 20
887.5433635747145
 30
0.0
 40
1.500000000000057
100
AcDbArc
 50
180.0
 51
0.0
  0
ARC
  5
1B4F
330
A
100
AcDbEntity
  8
MODEL
100
AcDbCircle
 10
581.5445158080379
 20
887.5433635747145
 30
0.0
 40
1.500000000000057
100
AcDbArc
 50
180.0
 51
0.0
  0
ARC
  5
1B50
330
A
100
AcDbEntity
  8
MODEL
100
AcDbCircle
 10
599.0445158080379
 20
887.5433635747145
 30
0.0
 40
1.500000000000057
100
AcDbArc
 50
180.0
 51
0.0
  0
SPLINE
  5
1B51
330
A
100
AcDbEntity
  8
MODEL
100
AcDbSpline
210
0.0
220
0.0
230
1.0
 70
     8
 71
     3
 72
    17
 73
    13
 74
     0
 42
0.000000001
 43
0.00000001
 40
0.0
 40
0.0
 40
0.0
 40
0.0
 40
0.1050633543458324
 40
0.2100531104543595
 40
0.317044084837096
 40
0.4256424078624478
 40
0.531986476150181
 40
0.6356890298709231
 40
0.7404943930007265
 40
0.8483738343447943
 40
0.9566121228336703
 40
1.0
 40
1.0
 40
1.0
 40
1.0
 10
752.3945233583668
 20
933.0433644917475
 30
0.0
 10
752.4121709233673
 20
933.0479620581741
 30
0.0
 10
752.4474536910216
 20
933.0571539703733
 30
0.0
 10
752.7219619261637
 20
933.1215872248367
 30
0.0
 10
753.1305557414976
 20
933.1958663126625
 30
0.0
 10
753.6497618803974
 20
933.2520412159174
 30
0.0
 10
754.2099089360595
 20
933.2622033308076
 30
0.0
 10
754.7426416342073
 20
933.2241822453188
 30
0.0
 10
755.2028051370512
 20
933.154436780273
 30
0.0
 10
755.5313615658147
 20
933.0845445184186
 30
0.0
 10
755.6965790658683
 20
933.0428538269334
 30
0.0
 10
755.6778423229403
 20
933.0475666098973
 30
0.0
 10
755.6724807977894
 20
933.0489151742922
 30
0.0
  0
SPLINE
  5
1B52
330
A
100
AcDbEntity
  8
MODEL
100
AcDbSpline
210
0.0
220
0.0
230
1.0
 70
     8
 71
     3
 72
    17
 73
    13
 74
     0
 42
0.000000001
 43
0.00000001
 40
0.0
 40
0.0
 40
0.0
 40
0.0
 40
0.1050632428053926
 40
0.2100528874516155
 40
0.3170395454534018
 40
0.4256430176288007
 40
0.5319869730164252
 40
0.6356894166414204
 40
0.7404946685046803
 40
0.8483739953186115
 40
0.956612168896381
 40
1.0
 40
1.0
 40
1.0
 40
1.0
 10
92.39452693464546
 20
933.0433644917475
 30
0.0
 10
92.4121741057429
 20
933.0479621570839
 30
0.0
 10
92.44745608586663
 20
933.0571542670323
 30
0.0
 10
92.72196662279885
 20
933.1215851756338
 30
0.0
 10
93.13053609040571
 20
933.1958701296962
 30
0.0
 10
93.64975973623632
 20
933.2520396522305
 30
0.0
 10
94.20991160016501
 20
933.2622036910857
 30
0.0
 10
94.74264545495998
 20
933.2241821487587
 30
0.0
 10
95.20280864526876
 20
933.1544368071545
 30
0.0
 10
95.53136516107361
 20
933.0845445109217
 30
0.0
 10
95.6965826405135
 20
933.0428538275787
 30
0.0
 10
95.67784589885514
 20
933.047566610041
 30
0.0
 10
95.67248437406806
 20
933.0489151742922
 30
0.0
  0
SPLINE
  5
1B53
330
A
100
AcDbEntity
  8
MODEL
100
AcDbSpline
210
0.0
220
0.0
230
1.0
 70
     8
 71
     3
 72
    17
 73
    13
 74
     0
 42
0.000000001
 43
0.00000001
 40
0.0
 40
0.0
 40
0.0
 40
0.0
 40
0.1053309569062099
 40
0.2105931200887469
 40
0.3176406698821654
 40
0.4260914236353471
 40
0.5325360155079562
 40
0.6366699804063901
 40
0.7417956114881232
 40
0.8496309096449384
 40
0.9577486000909724
 40
1.0
 40
1.0
 40
1.0
 40
1.0
 10
422.4945157798224
 20
933.0433644917475
 30
0.0
 10
422.5111651235616
 20
933.0474377150422
 30
0.0
 10
422.5444529370247
 20
933.0555815013295
 30
0.0
 10
422.8033677582157
 20
933.1126252618742
 30
0.0
 10
423.1883325374333
 20
933.1781061433885
 30
0.0
 10
423.6765075136841
 20
933.227317705645
 30
0.0
 10
424.2030734037021
 20
933.2360338021681
 30
0.0
 10
424.7044655718487
 20
933.2022718783519
 30
0.0
 10
425.1369866571399
 20
933.1405314172553
 30
0.0
 10
425.4440489548656
 20
933.0790715975108
 30
0.0
 10
425.597313851586
 20
933.0427128104875
 30
0.0
 10
425.5790791863133
 20
933.0470195838516
 30
0.0
 10
425.5739555260384
 20
933.0482297208773
 30
0.0
  0
SPLINE
  5
1B54
330
A
100
AcDbEntity
  8
MODEL
100
AcDbSpline
210
0.0
220
0.0
230
1.0
 70
     8
 71
     3
 72
    17
 73
    13
 74
     0
 42
0.000000001
 43
0.00000001
 40
0.0
 40
0.0
 40
0.0
 40
0.0
 40
0.1053309891434503
 40
0.210593134204283
 40
0.3176405396486899
 40
0.4260913694001395
 40
0.5325359151690485
 40
0.6366699623744085
 40
0.7417956571231583
 40
0.849630817586171
 40
0.9577485982501412
 40
1.0
 40
1.0
 40
1.0
 40
1.0
 10
439.9945157379129
 20
933.0433644917475
 30
0.0
 10
440.0111654262832
 20
933.0474377148907
 30
0.0
 10
440.0444539208279
 20
933.0555814989293
 30
0.0
 10
440.3033682256778
 20
933.1126252102067
 30
0.0
 10
440.6883322352201
 20
933.1781062219561
 30
0.0
 10
441.176507304363
 20
933.2273176764375
 30
0.0
 10
441.7030733068527
 20
933.2360338018566
 30
0.0
 10
442.2044654879669
 20
933.2022718702292
 30
0.0
 10
442.6369872862956
 20
933.1405314969397
 30
0.0
 10
442.9440475809711
 20
933.0790715172761
 30
0.0
 10
443.097314683067
 20
933.0427128159454
 30
0.0
 10
443.0790798789844
 20
933.047019585586
 30
0.0
 10
443.0739561826208
 20
933.0482297208773
 30
0.0
  0
SPLINE
  5
1B55
330
A
100
AcDbEntity
  8
MODEL
100
AcDbSpline
210
0.0
220
0.0
230
1.0
 70
     8
 71
     3
 72
    17
 73
    13
 74
     0
 42
0.000000001
 43
0.00000001
 40
0.0
 40
0.0
 40
0.0
 40
0.0
 40
0.1053309740424436
 40
0.2105929223502014
 40
0.3176405929425319
 40
0.4260910562622423
 40
0.5325363508751927
 40
0.6366700144640105
 40
0.7417956941411863
 40
0.8496308391441763
 40
0.9577486043076056
 40
1.0
 40
1.0
 40
1.0
 40
1.0
 10
457.4945158124187
 20
933.0433644917475
 30
0.0
 10
457.5111656778477
 20
933.0474376972638
 30
0.0
 10
457.5444544976749
 20
933.0555814390345
 30
0.0
 10
457.8033660343895
 20
933.1126253951293
 30
0.0
 10
458.1883320433076
 20
933.178105996968
 30
0.0
 10
458.6765069942462
 20
933.2273178619425
 30
0.0
 10
459.2030735522444
 20
933.2360338552062
 30
0.0
 10
459.7044660194438
 20
933.2022717893196
 30
0.0
 10
460.1369873735316
 20
933.1405314994686
 30
0.0
 10
460.4440476519308
 20
933.0790715165722
 30
0.0
 10
460.5973147578675
 20
933.042712816004
 30
0.0
 10
460.5790799535548
 20
933.0470195855992
 30
0.0
 10
460.5739562571266
 20
933.0482297208773
 30
0.0
  0
SPLINE
  5
1B56
330
A
100
AcDbEntity
  8
MODEL
100
AcDbSpline
210
0.0
220
0.0
230
1.0
 70
     8
 71
     3
 72
    17
 73
    13
 74
     0
 42
0.000000001
 43
0.00000001
 40
0.0
 40
0.0
 40
0.0
 40
0.0
 40
0.1053309922796925
 40
0.2105933221377668
 40
0.3176410112645789
 40
0.4260914933616538
 40
0.5325360422999611
 40
0.6366697239187227
 40
0.741795421797602
 40
0.8496310411271276
 40
0.957748596992101
 40
1.0
 40
1.0
 40
1.0
 40
1.0
 10
474.9945140242794
 20
933.0433644917475
 30
0.0
 10
475.0111635845692
 20
933.0474377210935
 30
0.0
 10
475.0444518517511
 20
933.055581524558
 30
0.0
 10
475.3033686438262
 20
933.1126252639588
 30
0.0
 10
475.6883336745891
 20
933.1781060097951
 30
0.0
 10
476.176507861866
 20
933.2273177522457
 30
0.0
 10
476.7030728641062
 20
933.2360338201725
 30
0.0
 10
477.2044645732599
 20
933.2022717997861
 30
0.0
 10
477.636984922638
 20
933.1405313201021
 30
0.0
 10
477.9440513520963
 20
933.0790717490163
 30
0.0
 10
478.0973124934139
 20
933.0427128007996
 30
0.0
 10
478.0790780670009
 20
933.0470195808311
 30
0.0
 10
478.0739544689873
 20
933.0482297208773
 30
0.0
  0
SPLINE
  5
1B57
330
A
100
AcDbEntity
  8
MODEL
100
AcDbSpline
210
0.0
220
0.0
230
1.0
 70
     8
 71
     3
 72
    17
 73
    13
 74
     0
 42
0.000000001
 43
0.00000001
 40
0.0
 40
0.0
 40
0.0
 40
0.0
 40
0.1053310076608154
 40
0.2105937162193753
 40
0.3176414209779937
 40
0.4260919189117198
 40
0.532536483393759
 40
0.6366694428446015
 40
0.7417951560746253
 40
0.8496307911510158
 40
0.9577485908222738
 40
1.0
 40
1.0
 40
1.0
 40
1.0
 10
492.4945122361401
 20
933.0433644917475
 30
0.0
 10
492.5111614915854
 20
933.0474377451656
 30
0.0
 10
492.5444492067086
 20
933.0555816108085
 30
0.0
 10
492.8033712497431
 20
933.1126251298574
 30
0.0
 10
493.1883353193339
 20
933.1781060338749
 30
0.0
 10
493.6765098375649
 20
933.2273177170805
 30
0.0
 10
494.2030737139889
 20
933.2360339132829
 30
0.0
 10
494.7044636458954
 20
933.2022715962303
 30
0.0
 10
495.1369835115906
 20
933.1405313427131
 30
0.0
 10
495.4440483822359
 20
933.0790716760812
 30
0.0
 10
495.5973148357311
 20
933.0427128080396
 30
0.0
 10
495.5790800869604
 20
933.0470195838516
 30
0.0
 10
495.5739564061382
 20
933.0482297208773
 30
0.0
  0
SPLINE
  5
1B58
330
A
100
AcDbEntity
  8
MODEL
100
AcDbSpline
210
0.0
220
0.0
230
1.0
 70
     8
 71
     3
 72
    17
 73
    13
 74
     0
 42
0.000000001
 43
0.00000001
 40
0.0
 40
0.0
 40
0.0
 40
0.0
 40
0.1053310248522798
 40
0.2105930239365769
 40
0.3176407461668483
 40
0.4260912618011823
 40
0.5325358436564336
 40
0.6366702948522596
 40
0.741796025240241
 40
0.8496307666086995
 40
0.9577485839262646
 40
1.0
 40
1.0
 40
1.0
 40
1.0
 10
509.9945178985813
 20
933.0433644917475
 30
0.0
 10
510.0111677640102
 20
933.0474376970424
 30
0.0
 10
510.044456583842
 20
933.0555814383715
 30
0.0
 10
510.3033681205375
 20
933.1126253977986
 30
0.0
 10
510.6883341295229
 20
933.1781059867121
 30
0.0
 10
511.1765079215697
 20
933.2273177836664
 30
0.0
 10
511.7030742841421
 20
933.2360337406199
 30
0.0
 10
512.2044669144739
 20
933.2022719537454
 30
0.0
 10
512.6369897421541
 20
933.1405316641694
 30
0.0
 10
512.9440454323926
 20
933.0790713548508
 30
0.0
 10
513.0973131898158
 20
933.0427128241531
 30
0.0
 10
513.0790783300176
 20
933.0470195873863
 30
0.0
 10
513.0739546179989
 20
933.0482297208773
 30
0.0
  0
SPLINE
  5
1B59
330
A
100
AcDbEntity
  8
MODEL
100
AcDbSpline
210
0.0
220
0.0
230
1.0
 70
     8
 71
     3
 72
    17
 73
    13
 74
     0
 42
0.000000001
 43
0.00000001
 40
0.0
 40
0.0
 40
0.0
 40
0.0
 40
0.1053309768975554
 40
0.210592928058554
 40
0.3176406015525292
 40
0.4260910678119084
 40
0.5325356012054591
 40
0.6366700049913323
 40
0.7417956875180551
 40
0.8496312910996773
 40
0.9577486031623351
 40
1.0
 40
1.0
 40
1.0
 40
1.0
 10
527.494516110442
 20
933.0433644917475
 30
0.0
 10
527.5111659755798
 20
933.0474376970215
 30
0.0
 10
527.5444547948287
 20
933.0555814383074
 30
0.0
 10
527.803366335916
 20
933.1126253980578
 30
0.0
 10
528.1883323278694
 20
933.1781059857149
 30
0.0
 10
528.6765061841884
 20
933.2273177874104
 30
0.0
 10
529.2030723122484
 20
933.2360337270643
 30
0.0
 10
529.7044657986457
 20
933.2022720033406
 30
0.0
 10
530.1369866317059
 20
933.1405312974912
 30
0.0
 10
530.4440546199908
 20
933.0790718219496
 30
0.0
 10
530.5973104491181
 20
933.0427127935586
 30
0.0
 10
530.5790763450636
 20
933.0470195778107
 30
0.0
 10
530.5739528298595
 20
933.0482297208773
 30
0.0
  0
SPLINE
  5
1B5A
330
A
100
AcDbEntity
  8
MODEL
100
AcDbSpline
210
0.0
220
0.0
230
1.0
 70
     8
 71
     3
 72
    17
 73
    13
 74
     0
 42
0.000000001
 43
0.00000001
 40
0.0
 40
0.0
 40
0.0
 40
0.0
 40
0.1053309288633421
 40
0.2105928320216052
 40
0.3176404566984999
 40
0.4260908735010813
 40
0.5325353583526022
 40
0.6366697146499368
 40
0.7417953492360669
 40
0.8496309036412879
 40
0.9577486224302908
 40
0.9999999999999999
 40
0.9999999999999999
 40
0.9999999999999999
 40
0.9999999999999999
 10
544.9945143223026
 20
933.0433644917475
 30
0.0
 10
545.0111641875233
 20
933.0474376970228
 30
0.0
 10
545.0444530069367
 20
933.0555814383115
 30
0.0
 10
545.3033645467799
 20
933.1126253980401
 30
0.0
 10
545.6883305435581
 20
933.1781059857831
 30
0.0
 10
546.1765043816736
 20
933.2273177871548
 30
0.0
 10
546.7030705761531
 20
933.2360337279888
 30
0.0
 10
547.204463820091
 20
933.2022719999586
 30
0.0
 10
547.636985570141
 20
933.1405313103937
 30
0.0
 10
547.9440504760864
 20
933.0790716850806
 30
0.0
 10
548.0973169212516
 20
933.0427128072874
 30
0.0
 10
548.079082172982
 20
933.047019583687
 30
0.0
 10
548.0739584923008
 20
933.0482297208773
 30
0.0
  0
SPLINE
  5
1B5B
330
A
100
AcDbEntity
  8
MODEL
100
AcDbSpline
210
0.0
220
0.0
230
1.0
 70
     8
 71
     3
 72
    17
 73
    13
 74
     0
 42
0.000000001
 43
0.00000001
 40
0.0
 40
0.0
 40
0.0
 40
0.0
 40
0.105330963376296
 40
0.2105936276790517
 40
0.3176412874313964
 40
0.4260903362375791
 40
0.532534855966924
 40
0.636669246385141
 40
0.7417961759398415
 40
0.8496308543710333
 40
0.9577486085861155
 40
1.0
 40
1.0
 40
1.0
 40
1.0
 10
562.4945125341633
 20
933.0433644917475
 30
0.0
 10
562.5111617965226
 20
933.0474377409737
 30
0.0
 10
562.5444495254674
 20
933.0555815982352
 30
0.0
 10
562.803371464302
 20
933.1126251804681
 30
0.0
 10
563.1883342535953
 20
933.1781055528936
 30
0.0
 10
563.6765044553708
 20
933.2273180539532
 30
0.0
 10
564.2030692748444
 20
933.2360337495393
 30
0.0
 10
564.7044625559924
 20
933.2022715643029
 30
0.0
 10
565.136991386456
 20
933.1405321500511
 30
0.0
 10
565.444047305929
 20
933.0790712867438
 30
0.0
 10
565.5973152937399
 20
933.0427128298425
 30
0.0
 10
565.5790804200765
 20
933.0470195886346
 30
0.0
 10
565.5739567041614
 20
933.0482297208773
 30
0.0
  0
SPLINE
  5
1B5C
330
A
100
AcDbEntity
  8
MODEL
100
AcDbSpline
210
0.0
220
0.0
230
1.0
 70
     8
 71
     3
 72
    17
 73
    13
 74
     0
 42
0.000000001
 43
0.00000001
 40
0.0
 40
0.0
 40
0.0
 40
0.0
 40
0.105330963376296
 40
0.2105936276790517
 40
0.3176412874313964
 40
0.4260903362375791
 40
0.532534855966924
 40
0.636669246385141
 40
0.7417961759398415
 40
0.8496308543710333
 40
0.9577486085861155
 40
1.0
 40
1.0
 40
1.0
 40
1.0
 10
579.9945107460239
 20
933.0433644917475
 30
0.0
 10
580.0111600083833
 20
933.0474377409737
 30
0.0
 10
580.044447737328
 20
933.0555815982352
 30
0.0
 10
580.3033696761627
 20
933.1126251804681
 30
0.0
 10
580.6883324654559
 20
933.1781055528936
 30
0.0
 10
581.1765026672315
 20
933.2273180539532
 30
0.0
 10
581.7030674867051
 20
933.2360337495393
 30
0.0
 10
582.2044607678531
 20
933.2022715643029
 30
0.0
 10
582.6369895983166
 20
933.1405321500511
 30
0.0
 10
582.9440455177896
 20
933.0790712867438
 30
0.0
 10
583.0973135056006
 20
933.0427128298425
 30
0.0
 10
583.0790786319371
 20
933.0470195886346
 30
0.0
 10
583.0739549160221
 20
933.0482297208773
 30
0.0
  0
SPLINE
  5
1B5D
330
A
100
AcDbEntity
  8
MODEL
100
AcDbSpline
210
0.0
220
0.0
230
1.0
 70
     8
 71
     3
 72
    17
 73
    13
 74
     0
 42
0.000000001
 43
0.00000001
 40
0.0
 40
0.0
 40
0.0
 40
0.0
 40
0.1053309783784084
 40
0.2105936576735487
 40
0.317641332672512
 40
0.4260932039917589
 40
0.5325377388818182
 40
0.6366691946365515
 40
0.7417961391643041
 40
0.8496308329542082
 40
0.9577486025683208
 40
1.0
 40
1.0
 40
1.0
 40
1.0
 10
597.4945089578846
 20
933.0433644917475
 30
0.0
 10
597.5111582076775
 20
933.0474377496334
 30
0.0
 10
597.5444459114983
 20
933.0555816242086
 30
0.0
 10
597.8033680397361
 20
933.112625075918
 30
0.0
 10
598.1883334633098
 20
933.1781065276532
 30
0.0
 10
598.6765120199693
 20
933.2273173321296
 30
0.0
 10
599.2030759676704
 20
933.236034251077
 30
0.0
 10
599.7044628516392
 20
933.2022707217411
 30
0.0
 10
600.1369878521123
 20
933.1405322244245
 30
0.0
 10
600.4440437179742
 20
933.0790712660346
 30
0.0
 10
600.5973117184362
 20
933.0427128315723
 30
0.0
 10
600.5790768440115
 20
933.0470195890139
 30
0.0
 10
600.5739531278828
 20
933.0482297208773
 30
0.0
  0
SPLINE
  5
1B5E
330
A
100
AcDbEntity
  8
MODEL
100
AcDbSpline
210
0.0
220
0.0
230
1.0
 70
     8
 71
     3
 72
    17
 73
    13
 74
     0
 42
0.000000001
 43
0.00000001
 40
0.0
 40
0.0
 40
0.0
 40
0.0
 40
0.1053310863253926
 40
0.2105924202047841
 40
0.3176402049100642
 40
0.4260921873746989
 40
0.5325368313529553
 40
0.6366713433235518
 40
0.7417958745476781
 40
0.8496306788504644
 40
0.9577485592675653
 40
1.0
 40
1.0
 40
1.0
 40
1.0
 10
614.9945220709064
 20
933.0433644917475
 30
0.0
 10
615.0111725394231
 20
933.0474376531124
 30
0.0
 10
615.0444624501702
 20
933.0555812785096
 30
0.0
 10
615.3033635846164
 20
933.112625615127
 30
0.0
 10
615.6883328134095
 20
933.1781064205252
 30
0.0
 10
616.1765101956521
 20
933.2273175133842
 30
0.0
 10
616.7030781013423
 20
933.2360337316964
 30
0.0
 10
617.2044700809033
 20
933.2022723431919
 30
0.0
 10
617.6369869057221
 20
933.1405311782855
 30
0.0
 10
617.9440423667752
 20
933.0790714229597
 30
0.0
 10
618.0973098937989
 20
933.0427128184642
 30
0.0
 10
618.0790750478668
 20
933.0470195861385
 30
0.0
 10
618.0739513397434
 20
933.0482297208773
 30
0.0
  0
SPLINE
  5
1B5F
330
A
100
AcDbEntity
  8
MODEL
100
AcDbSpline
210
0.0
220
0.0
230
1.0
 70
     8
 71
     3
 72
    17
 73
    13
 74
     0
 42
0.000000001
 43
0.00000001
 40
0.0
 40
0.0
 40
0.0
 40
0.0
 40
0.1053310863253926
 40
0.2105924202047841
 40
0.3176402049100642
 40
0.4260921873746989
 40
0.5325368313529553
 40
0.6366713433235518
 40
0.7417958745476781
 40
0.8496306788504644
 40
0.9577485592675653
 40
1.0
 40
1.0
 40
1.0
 40
1.0
 10
632.4945202827671
 20
933.0433644917475
 30
0.0
 10
632.5111707512838
 20
933.0474376531124
 30
0.0
 10
632.5444606620308
 20
933.0555812785096
 30
0.0
 10
632.803361796477
 20
933.112625615127
 30
0.0
 10
633.1883310252701
 20
933.1781064205252
 30
0.0
 10
633.6765084075128
 20
933.2273175133842
 30
0.0
 10
634.2030763132029
 20
933.2360337316964
 30
0.0
 10
634.704468292764
 20
933.2022723431919
 30
0.0
 10
635.1369851175828
 20
933.1405311782855
 30
0.0
 10
635.4440405786358
 20
933.0790714229597
 30
0.0
 10
635.5973081056595
 20
933.0427128184642
 30
0.0
 10
635.5790732597275
 20
933.0470195861385
 30
0.0
 10
635.5739495516041
 20
933.0482297208773
 30
0.0
  0
SPLINE
  5
1B60
330
A
100
AcDbEntity
  8
MODEL
100
AcDbSpline
210
0.0
220
0.0
230
1.0
 70
     8
 71
     3
 72
    17
 73
    13
 74
     0
 42
0.000000001
 43
0.00000001
 40
0.0
 40
0.0
 40
0.0
 40
0.0
 40
0.1053308943459879
 40
0.2105920363731075
 40
0.3176396259700801
 40
0.4260914107670769
 40
0.5325358607363271
 40
0.636670182908429
 40
0.7417945225296239
 40
0.8496309529178244
 40
0.9577486362762313
 40
1.0
 40
1.0
 40
1.0
 40
1.0
 10
649.9945184946278
 20
933.0433644917475
 30
0.0
 10
650.0111689627279
 20
933.0474376530724
 30
0.0
 10
650.0444588726391
 20
933.05558127839
 30
0.0
 10
650.3033600133799
 20
933.1126256156103
 30
0.0
 10
650.6883292177586
 20
933.1781064186675
 30
0.0
 10
651.1765066921375
 20
933.2273175203627
 30
0.0
 10
651.7030742616466
 20
933.2360337064347
 30
0.0
 10
652.2044674683943
 20
933.2022724356184
 30
0.0
 10
652.6369821380654
 20
933.1405304707305
 30
0.0
 10
652.9440560303951
 20
933.079072083422
 30
0.0
 10
653.0973209329518
 20
933.0427127847333
 30
0.0
 10
653.0790863100733
 20
933.0470195787398
 30
0.0
 10
653.0739626646259
 20
933.0482297208773
 30
0.0
  0
SPLINE
  5
1B61
330
A
100
AcDbEntity
  8
MODEL
100
AcDbSpline
210
0.0
220
0.0
230
1.0
 70
     8
 71
     3
 72
    17
 73
    13
 74
     0
 42
0.000000001
 43
0.00000001
 40
0.0
 40
0.0
 40
0.0
 40
0.0
 40
0.1053309776259786
 40
0.2105936561691771
 40
0.3176390864610789
 40
0.4260909570056018
 40
0.5325354911352768
 40
0.6366698956412983
 40
0.7417943183791711
 40
0.8496308340283674
 40
0.9577486028701427
 40
1.0
 40
1.0
 40
1.0
 40
1.0
 10
667.4945167064884
 20
933.0433644917475
 30
0.0
 10
667.5111657715074
 20
933.0474377872779
 30
0.0
 10
667.5444531058988
 20
933.0555817371178
 30
0.0
 10
667.8033761899746
 20
933.1126242184605
 30
0.0
 10
668.1883268131473
 20
933.1781073295851
 30
0.0
 10
668.6765059653167
 20
933.227317370392
 30
0.0
 10
669.2030721982924
 20
933.2360337453242
 30
0.0
 10
669.7044657540341
 20
933.2022724251924
 30
0.0
 10
670.1369803294724
 20
933.1405304736209
 30
0.0
 10
670.4440542479501
 20
933.0790720826171
 30
0.0
 10
670.5973191443368
 20
933.0427127848002
 30
0.0
 10
670.5790845218303
 20
933.0470195787548
 30
0.0
 10
670.5739608764866
 20
933.0482297208773
 30
0.0
  0
SPLINE
  5
1B62
330
A
100
AcDbEntity
  8
MODEL
100
AcDbSpline
210
0.0
220
0.0
230
1.0
 70
     8
 71
     3
 72
    17
 73
    13
 74
     0
 42
0.000000001
 43
0.00000001
 40
0.0
 40
0.0
 40
0.0
 40
0.0
 40
0.1053304208626765
 40
0.2105945015598762
 40
0.3176398797789396
 40
0.4260945046457837
 40
0.5325359305777758
 40
0.6366702844270435
 40
0.741797177064244
 40
0.8496299950545463
 40
0.9577486234235673
 40
1.0
 40
1.0
 40
1.0
 40
1.0
 10
684.9945149183491
 20
933.0433644917475
 30
0.0
 10
685.0111565717002
 20
933.0474379167167
 30
0.0
 10
685.0444293970063
 20
933.0555822010938
 30
0.0
 10
685.3033783051901
 20
933.1126235917181
 30
0.0
 10
685.6883263668083
 20
933.1781083400319
 30
0.0
 10
686.1765108331269
 20
933.2273162700722
 30
0.0
 10
686.7030760576113
 20
933.2360339687757
 30
0.0
 10
687.2044638161601
 20
933.2022713259744
 30
0.0
 10
687.6369963542707
 20
933.1405329219701
 30
0.0
 10
687.9440277557728
 20
933.0790703417938
 30
0.0
 10
688.0973195816146
 20
933.04271289193
 30
0.0
 10
688.0790831975723
 20
933.0470196079837
 30
0.0
 10
688.0739590883472
 20
933.0482297208773
 30
0.0
  0
SPLINE
  5
1B63
330
A
100
AcDbEntity
  8
MODEL
100
AcDbSpline
210
0.0
220
0.0
230
1.0
 70
     8
 71
     3
 72
    17
 73
    13
 74
     0
 42
0.000000001
 43
0.00000001
 40
0.0
 40
0.0
 40
0.0
 40
0.0
 40
0.1053309771549222
 40
0.2105931102350626
 40
0.3176405034955829
 40
0.4260913209034115
 40
0.53253585455705
 40
0.6366698899101151
 40
0.741795572693703
 40
0.8496309487105511
 40
0.9577486030590975
 40
1.0
 40
1.0
 40
1.0
 40
1.0
 10
404.9945155889013
 20
933.0433644917475
 30
0.0
 10
405.0111652771989
 20
933.0474377148857
 30
0.0
 10
405.044453771598
 20
933.0555814989129
 30
0.0
 10
405.3033680775447
 20
933.1126252102722
 30
0.0
 10
405.6883320828306
 20
933.1781062217069
 30
0.0
 10
406.1765071680416
 20
933.2273176773738
 30
0.0
 10
406.7030731119025
 20
933.2360337984683
 30
0.0
 10
407.2044655070308
 20
933.2022718826279
 30
0.0
 10
407.63698680671
 20
933.1405314052699
 30
0.0
 10
407.944050175885
 20
933.0790716340516
 30
0.0
 10
408.097314295916
 20
933.0427128082965
 30
0.0
 10
408.0790796807701
 20
933.0470195831917
 30
0.0
 10
408.0739560336092
 20
933.0482297208773
 30
0.0
  0
SPLINE
  5
1B64
330
A
100
AcDbEntity
  8
MODEL
100
AcDbSpline
210
0.0
220
0.0
230
1.0
 70
     8
 71
     3
 72
    17
 73
    13
 74
     0
 42
0.000000001
 43
0.00000001
 40
0.0
 40
0.0
 40
0.0
 40
0.0
 40
0.105330980608522
 40
0.2105929354780552
 40
0.3176406127434788
 40
0.4260917845908891
 40
0.5325363217346388
 40
0.6366699918148975
 40
0.741795678045354
 40
0.8496308297705263
 40
0.9577486016737556
 40
1.0
 40
1.0
 40
1.0
 40
1.0
 10
387.4945155143955
 20
933.0433644917475
 30
0.0
 10
387.5111653765784
 20
933.0474376991979
 30
0.0
 10
387.5444541899201
 20
933.0555814448348
 30
0.0
 10
387.80336577554
 20
933.1126253717825
 30
0.0
 10
388.1883324369987
 20
933.1781062299365
 30
0.0
 10
388.6765083407922
 20
933.2273176049562
 30
0.0
 10
389.2030744013732
 20
933.2360338596873
 30
0.0
 10
389.7044657392148
 20
933.2022717662121
 30
0.0
 10
390.1369870705762
 20
933.1405315058742
 30
0.0
 10
390.4440473552818
 20
933.0790715147887
 30
0.0
 10
390.5973144597315
 20
933.0427128161527
 30
0.0
 10
390.5790796555061
 20
933.0470195856315
 30
0.0
 10
390.5739559591034
 20
933.0482297208773
 30
0.0
  0
SPLINE
  5
1B65
330
A
100
AcDbEntity
  8
MODEL
100
AcDbSpline
210
0.0
220
0.0
230
1.0
 70
     8
 71
     3
 72
    17
 73
    13
 74
     0
 42
0.000000001
 43
0.00000001
 40
0.0
 40
0.0
 40
0.0
 40
0.0
 40
0.1053308679204905
 40
0.2105931998073624
 40
0.3176408909973829
 40
0.426091375184703
 40
0.5325359261745939
 40
0.6366703471749199
 40
0.741795416821037
 40
0.849631038228957
 40
0.9577485961777589
 40
1.0
 40
1.0
 40
1.0
 40
1.0
 10
369.9945173025349
 20
933.0433644917475
 30
0.0
 10
370.0111653173522
 20
933.0474377273099
 30
0.0
 10
370.0444505145601
 20
933.055581548087
 30
0.0
 10
370.3033684723564
 20
933.112625266388
 30
0.0
 10
370.6883331344793
 20
933.1781059989594
 30
0.0
 10
371.1765075055068
 20
933.2273177933475
 30
0.0
 10
371.703073371667
 20
933.2360336914198
 30
0.0
 10
372.2044663875181
 20
933.202272204856
 30
0.0
 10
372.6369846841267
 20
933.1405310586488
 30
0.0
 10
372.9440510148338
 20
933.0790717882251
 30
0.0
 10
373.0973120372105
 20
933.042712797524
 30
0.0
 10
373.0790776179551
 20
933.0470195801126
 30
0.0
 10
373.0739540219524
 20
933.0482297208773
 30
0.0
  0
SPLINE
  5
1B66
330
A
100
AcDbEntity
  8
MODEL
100
AcDbSpline
210
0.0
220
0.0
230
1.0
 70
     8
 71
     3
 72
    17
 73
    13
 74
     0
 42
0.000000001
 43
0.00000001
 40
0.0
 40
0.0
 40
0.0
 40
0.0
 40
0.1053307589470702
 40
0.2105934715625245
 40
0.3176411804468321
 40
0.4260916825603119
 40
0.5325362511447949
 40
0.6366706893578635
 40
0.7417951461232404
 40
0.8496307853556873
 40
0.9577485891938766
 40
1.0
 40
1.0
 40
1.0
 40
1.0
 10
352.4945190906742
 20
933.0433644917475
 30
0.0
 10
352.5111652551764
 20
933.0474377575979
 30
0.0
 10
352.5444468303381
 20
933.0555816578662
 30
0.0
 10
352.8033712048305
 20
933.1126251347177
 30
0.0
 10
353.1883345371357
 20
933.1781060122034
 30
0.0
 10
353.6765094228726
 20
933.2273177992838
 30
0.0
 10
354.2030750271301
 20
933.2360336557758
 30
0.0
 10
354.7044675724478
 20
933.2022724063722
 30
0.0
 10
355.1369833325748
 20
933.1405308198055
 30
0.0
 10
355.4440480057378
 20
933.0790717544996
 30
0.0
 10
355.5973142213456
 20
933.042712801489
 30
0.0
 10
355.5790794868913
 20
933.0470195824155
 30
0.0
 10
355.5739558100918
 20
933.0482297208773
 30
0.0
  0
SPLINE
  5
1B67
330
A
100
AcDbEntity
  8
MODEL
100
AcDbSpline
210
0.0
220
0.0
230
1.0
 70
     8
 71
     3
 72
    17
 73
    13
 74
     0
 42
0.000000001
 43
0.00000001
 40
0.0
 40
0.0
 40
0.0
 40
0.0
 40
0.1053309363642967
 40
0.210592847018599
 40
0.3176404793186998
 40
0.4260923073789823
 40
0.5325367998107579
 40
0.6366696887760173
 40
0.7417953308484823
 40
0.8496308929330203
 40
0.9577486194214342
 40
1.0
 40
1.0
 40
1.0
 40
1.0
 10
334.9945134282329
 20
933.0433644917475
 30
0.0
 10
335.0111632871699
 20
933.0474377013525
 30
0.0
 10
335.0444520940214
 20
933.0555814512986
 30
0.0
 10
335.3033637285657
 20
933.1126253457664
 30
0.0
 10
335.6883310425033
 20
933.1781064731599
 30
0.0
 10
336.1765090580325
 20
933.2273174262468
 30
0.0
 10
336.7030748166339
 20
933.2360339787551
 30
0.0
 10
337.2044648619681
 20
933.2022715786779
 30
0.0
 10
337.6369846970351
 20
933.1405313475789
 30
0.0
 10
337.9440495761787
 20
933.079071674726
 30
0.0
 10
338.0973160276694
 20
933.0427128081528
 30
0.0
 10
338.0790812790196
 20
933.047019583877
 30
0.0
 10
338.0739575982311
 20
933.0482297208773
 30
0.0
  0
SPLINE
  5
1B68
330
A
100
AcDbEntity
  8
MODEL
100
AcDbSpline
210
0.0
220
0.0
230
1.0
 70
     8
 71
     3
 72
    17
 73
    13
 74
     0
 42
0.000000001
 43
0.00000001
 40
0.0
 40
0.0
 40
0.0
 40
0.0
 40
0.1053309768975554
 40
0.210592928058554
 40
0.3176406015525292
 40
0.4260910678119084
 40
0.5325356012054591
 40
0.6366700049913323
 40
0.7417956875180551
 40
0.8496312910996773
 40
0.9577486031623351
 40
1.0
 40
1.0
 40
1.0
 40
1.0
 10
317.4945152163723
 20
933.0433644917475
 30
0.0
 10
317.5111650815102
 20
933.0474376970215
 30
0.0
 10
317.544453900759
 20
933.0555814383074
 30
0.0
 10
317.8033654418464
 20
933.1126253980578
 30
0.0
 10
318.1883314338006
 20
933.1781059857149
 30
0.0
 10
318.6765052901187
 20
933.2273177874104
 30
0.0
 10
319.2030714181788
 20
933.2360337270643
 30
0.0
 10
319.7044649045761
 20
933.2022720033406
 30
0.0
 10
320.1369857376362
 20
933.1405312974912
 30
0.0
 10
320.4440537259211
 20
933.0790718219496
 30
0.0
 10
320.5973095550485
 20
933.0427127935586
 30
0.0
 10
320.579075450994
 20
933.0470195778107
 30
0.0
 10
320.5739519357899
 20
933.0482297208773
 30
0.0
  0
SPLINE
  5
1B69
330
A
100
AcDbEntity
  8
MODEL
100
AcDbSpline
210
0.0
220
0.0
230
1.0
 70
     8
 71
     3
 72
    17
 73
    13
 74
     0
 42
0.000000001
 43
0.00000001
 40
0.0
 40
0.0
 40
0.0
 40
0.0
 40
0.1053310248522798
 40
0.2105930239365769
 40
0.3176407461668483
 40
0.4260912618011823
 40
0.5325358436564336
 40
0.6366702948522596
 40
0.741796025240241
 40
0.8496307666086995
 40
0.9577485839262646
 40
1.0
 40
1.0
 40
1.0
 40
1.0
 10
299.9945170045116
 20
933.0433644917475
 30
0.0
 10
300.0111668699406
 20
933.0474376970424
 30
0.0
 10
300.0444556897723
 20
933.0555814383715
 30
0.0
 10
300.3033672264678
 20
933.1126253977986
 30
0.0
 10
300.6883332354532
 20
933.1781059867121
 30
0.0
 10
301.1765070275001
 20
933.2273177836664
 30
0.0
 10
301.7030733900724
 20
933.2360337406199
 30
0.0
 10
302.2044660204042
 20
933.2022719537454
 30
0.0
 10
302.6369888480845
 20
933.1405316641694
 30
0.0
 10
302.9440445383229
 20
933.0790713548508
 30
0.0
 10
303.0973122957462
 20
933.0427128241531
 30
0.0
 10
303.079077435948
 20
933.0470195873863
 30
0.0
 10
303.0739537239292
 20
933.0482297208773
 30
0.0
  0
SPLINE
  5
1B6A
330
A
100
AcDbEntity
  8
MODEL
100
AcDbSpline
210
0.0
220
0.0
230
1.0
 70
     8
 71
     3
 72
    17
 73
    13
 74
     0
 42
0.000000001
 43
0.00000001
 40
0.0
 40
0.0
 40
0.0
 40
0.0
 40
0.105330963376296
 40
0.2105936276790517
 40
0.3176412874313964
 40
0.4260903362375791
 40
0.532534855966924
 40
0.636669246385141
 40
0.7417961759398415
 40
0.8496308543710333
 40
0.9577486085861155
 40
1.0
 40
1.0
 40
1.0
 40
1.0
 10
282.4945113420704
 20
933.0433644917475
 30
0.0
 10
282.5111606044297
 20
933.0474377409737
 30
0.0
 10
282.5444483333745
 20
933.0555815982352
 30
0.0
 10
282.8033702722091
 20
933.1126251804681
 30
0.0
 10
283.1883330615024
 20
933.1781055528936
 30
0.0
 10
283.6765032632779
 20
933.2273180539532
 30
0.0
 10
284.2030680827515
 20
933.2360337495393
 30
0.0
 10
284.7044613638996
 20
933.2022715643029
 30
0.0
 10
285.1369901943631
 20
933.1405321500511
 30
0.0
 10
285.4440461138361
 20
933.0790712867438
 30
0.0
 10
285.597314101647
 20
933.0427128298425
 30
0.0
 10
285.5790792279836
 20
933.0470195886346
 30
0.0
 10
285.5739555120686
 20
933.0482297208773
 30
0.0
  0
SPLINE
  5
1B6B
330
A
100
AcDbEntity
  8
MODEL
100
AcDbSpline
210
0.0
220
0.0
230
1.0
 70
     8
 71
     3
 72
    17
 73
    13
 74
     0
 42
0.000000001
 43
0.00000001
 40
0.0
 40
0.0
 40
0.0
 40
0.0
 40
0.105330963376296
 40
0.2105936276790517
 40
0.3176412874313964
 40
0.4260903362375791
 40
0.532534855966924
 40
0.636669246385141
 40
0.7417961759398415
 40
0.8496308543710333
 40
0.9577486085861155
 40
1.0
 40
1.0
 40
1.0
 40
1.0
 10
264.9945131302097
 20
933.0433644917475
 30
0.0
 10
265.0111623925691
 20
933.0474377409737
 30
0.0
 10
265.0444501215138
 20
933.0555815982352
 30
0.0
 10
265.3033720603485
 20
933.1126251804681
 30
0.0
 10
265.6883348496417
 20
933.1781055528936
 30
0.0
 10
266.1765050514173
 20
933.2273180539532
 30
0.0
 10
266.7030698708909
 20
933.2360337495393
 30
0.0
 10
267.2044631520389
 20
933.2022715643029
 30
0.0
 10
267.6369919825024
 20
933.1405321500511
 30
0.0
 10
267.9440479019754
 20
933.0790712867438
 30
0.0
 10
268.0973158897864
 20
933.0427128298425
 30
0.0
 10
268.0790810161229
 20
933.0470195886346
 30
0.0
 10
268.0739573002079
 20
933.0482297208773
 30
0.0
  0
SPLINE
  5
1B6C
330
A
100
AcDbEntity
  8
MODEL
100
AcDbSpline
210
0.0
220
0.0
230
1.0
 70
     8
 71
     3
 72
    17
 73
    13
 74
     0
 42
0.000000001
 43
0.00000001
 40
0.0
 40
0.0
 40
0.0
 40
0.0
 40
0.105330963376296
 40
0.2105936276790517
 40
0.3176412874313964
 40
0.4260903362375791
 40
0.532534855966924
 40
0.636669246385141
 40
0.7417961759398415
 40
0.8496308543710333
 40
0.9577486085861155
 40
1.0
 40
1.0
 40
1.0
 40
1.0
 10
247.4945149183491
 20
933.0433644917475
 30
0.0
 10
247.5111641807084
 20
933.0474377409737
 30
0.0
 10
247.5444519096532
 20
933.0555815982352
 30
0.0
 10
247.8033738484878
 20
933.1126251804681
 30
0.0
 10
248.188336637781
 20
933.1781055528936
 30
0.0
 10
248.6765068395566
 20
933.2273180539532
 30
0.0
 10
249.2030716590302
 20
933.2360337495393
 30
0.0
 10
249.7044649401782
 20
933.2022715643029
 30
0.0
 10
250.1369937706418
 20
933.1405321500511
 30
0.0
 10
250.4440496901148
 20
933.0790712867438
 30
0.0
 10
250.5973176779257
 20
933.0427128298425
 30
0.0
 10
250.5790828042623
 20
933.0470195886346
 30
0.0
 10
250.5739590883472
 20
933.0482297208773
 30
0.0
  0
SPLINE
  5
1B6D
330
A
100
AcDbEntity
  8
MODEL
100
AcDbSpline
210
0.0
220
0.0
230
1.0
 70
     8
 71
     3
 72
    17
 73
    13
 74
     0
 42
0.000000001
 43
0.00000001
 40
0.0
 40
0.0
 40
0.0
 40
0.0
 40
0.1053309776259786
 40
0.2105936561691771
 40
0.3176390864610789
 40
0.4260909570056018
 40
0.5325354911352768
 40
0.6366698956412983
 40
0.7417943183791711
 40
0.8496308340283674
 40
0.9577486028701427
 40
1.0
 40
1.0
 40
1.0
 40
1.0
 10
229.9945167064884
 20
933.0433644917475
 30
0.0
 10
230.0111657715074
 20
933.0474377872779
 30
0.0
 10
230.0444531058988
 20
933.0555817371178
 30
0.0
 10
230.3033761899746
 20
933.1126242184605
 30
0.0
 10
230.6883268131473
 20
933.1781073295851
 30
0.0
 10
231.1765059653167
 20
933.227317370392
 30
0.0
 10
231.7030721982924
 20
933.2360337453242
 30
0.0
 10
232.2044657540341
 20
933.2022724251924
 30
0.0
 10
232.6369803294724
 20
933.1405304736209
 30
0.0
 10
232.9440542479501
 20
933.0790720826171
 30
0.0
 10
233.0973191443368
 20
933.0427127848002
 30
0.0
 10
233.0790845218303
 20
933.0470195787548
 30
0.0
 10
233.0739608764866
 20
933.0482297208773
 30
0.0
  0
SPLINE
  5
1B6E
330
A
100
AcDbEntity
  8
MODEL
100
AcDbSpline
210
0.0
220
0.0
230
1.0
 70
     8
 71
     3
 72
    17
 73
    13
 74
     0
 42
0.000000001
 43
0.00000001
 40
0.0
 40
0.0
 40
0.0
 40
0.0
 40
0.1053308943459879
 40
0.2105920363731075
 40
0.3176396259700801
 40
0.4260914107670769
 40
0.5325358607363271
 40
0.636670182908429
 40
0.7417945225296239
 40
0.8496309529178244
 40
0.9577486362762313
 40
1.0
 40
1.0
 40
1.0
 40
1.0
 10
212.4945184946278
 20
933.0433644917475
 30
0.0
 10
212.5111689627279
 20
933.0474376530724
 30
0.0
 10
212.5444588726391
 20
933.05558127839
 30
0.0
 10
212.8033600133799
 20
933.1126256156103
 30
0.0
 10
213.1883292177586
 20
933.1781064186675
 30
0.0
 10
213.6765066921375
 20
933.2273175203627
 30
0.0
 10
214.2030742616466
 20
933.2360337064347
 30
0.0
 10
214.7044674683943
 20
933.2022724356184
 30
0.0
 10
215.1369821380654
 20
933.1405304707305
 30
0.0
 10
215.4440560303951
 20
933.079072083422
 30
0.0
 10
215.5973209329518
 20
933.0427127847333
 30
0.0
 10
215.5790863100733
 20
933.0470195787398
 30
0.0
 10
215.5739626646259
 20
933.0482297208773
 30
0.0
  0
SPLINE
  5
1B6F
330
A
100
AcDbEntity
  8
MODEL
100
AcDbSpline
210
0.0
220
0.0
230
1.0
 70
     8
 71
     3
 72
    17
 73
    13
 74
     0
 42
0.000000001
 43
0.00000001
 40
0.0
 40
0.0
 40
0.0
 40
0.0
 40
0.1053310863253926
 40
0.2105924202047841
 40
0.3176402049100642
 40
0.4260921873746989
 40
0.5325368313529553
 40
0.6366713433235518
 40
0.7417958745476781
 40
0.8496306788504644
 40
0.9577485592675653
 40
1.0
 40
1.0
 40
1.0
 40
1.0
 10
194.9945202827671
 20
933.0433644917475
 30
0.0
 10
195.0111707512838
 20
933.0474376531124
 30
0.0
 10
195.0444606620299
 20
933.0555812785096
 30
0.0
 10
195.303361796477
 20
933.112625615127
 30
0.0
 10
195.6883310252701
 20
933.1781064205252
 30
0.0
 10
196.1765084075128
 20
933.2273175133842
 30
0.0
 10
196.7030763132029
 20
933.2360337316964
 30
0.0
 10
197.204468292764
 20
933.2022723431919
 30
0.0
 10
197.6369851175828
 20
933.1405311782855
 30
0.0
 10
197.9440405786358
 20
933.0790714229597
 30
0.0
 10
198.0973081056595
 20
933.0427128184642
 30
0.0
 10
198.0790732597275
 20
933.0470195861385
 30
0.0
 10
198.0739495516041
 20
933.0482297208773
 30
0.0
  0
SPLINE
  5
1B70
330
A
100
AcDbEntity
  8
MODEL
100
AcDbSpline
210
0.0
220
0.0
230
1.0
 70
     8
 71
     3
 72
    17
 73
    13
 74
     0
 42
0.000000001
 43
0.00000001
 40
0.0
 40
0.0
 40
0.0
 40
0.0
 40
0.1053310863253926
 40
0.2105924202047841
 40
0.3176402049100642
 40
0.4260921873746989
 40
0.5325368313529553
 40
0.6366713433235518
 40
0.7417958745476781
 40
0.8496306788504644
 40
0.9577485592675653
 40
1.0
 40
1.0
 40
1.0
 40
1.0
 10
177.4945220709064
 20
933.0433644917475
 30
0.0
 10
177.5111725394231
 20
933.0474376531124
 30
0.0
 10
177.5444624501692
 20
933.0555812785096
 30
0.0
 10
177.8033635846164
 20
933.112625615127
 30
0.0
 10
178.1883328134095
 20
933.1781064205252
 30
0.0
 10
178.6765101956521
 20
933.2273175133842
 30
0.0
 10
179.2030781013414
 20
933.2360337316964
 30
0.0
 10
179.7044700809033
 20
933.2022723431919
 30
0.0
 10
180.1369869057221
 20
933.1405311782855
 30
0.0
 10
180.4440423667752
 20
933.0790714229597
 30
0.0
 10
180.5973098937989
 20
933.0427128184642
 30
0.0
 10
180.5790750478668
 20
933.0470195861385
 30
0.0
 10
180.5739513397434
 20
933.0482297208773
 30
0.0
  0
SPLINE
  5
1B71
330
A
100
AcDbEntity
  8
MODEL
100
AcDbSpline
210
0.0
220
0.0
230
1.0
 70
     8
 71
     3
 72
    17
 73
    13
 74
     0
 42
0.000000001
 43
0.00000001
 40
0.0
 40
0.0
 40
0.0
 40
0.0
 40
0.1053314398431151
 40
0.210592621729782
 40
0.3176380079213372
 40
0.4260926408656304
 40
0.532534074725133
 40
0.6366684363300861
 40
0.7417953367968939
 40
0.849631808019834
 40
0.9577486202767826
 40
1.0
 40
1.0
 40
1.0
 40
1.0
 10
159.9945089578846
 20
933.0433644917475
 30
0.0
 10
160.0111654112238
 20
933.0474376738557
 30
0.0
 10
160.0444672077488
 20
933.0555813211877
 30
0.0
 10
160.3033648207324
 20
933.1126246517597
 30
0.0
 10
160.6883233733765
 20
933.178108208474
 30
0.0
 10
161.1765042779612
 20
933.2273163187356
 30
0.0
 10
161.7030695690132
 20
933.2360339058205
 30
0.0
 10
162.2044604895204
 20
933.2022715267003
 30
0.0
 10
162.6369851197592
 20
933.1405314546128
 30
0.0
 10
162.9440656939
 20
933.0790722103793
 30
0.0
 10
163.0973098112777
 20
933.0427127695361
 30
0.0
 10
163.0790764499347
 20
933.0470195696762
 30
0.0
 10
163.0739531278828
 20
933.0482297208773
 30
0.0
  0
LINE
  5
1B72
330
A
100
AcDbEntity
  8
MODEL
100
AcDbLine
 10
492.544513082526
 20
892.0433652219044
 30
0.0
 11
495.5445191621998
 21
892.0433652219044
 31
0.0
  0
LINE
  5
1B73
330
A
100
AcDbEntity
  8
MODEL
100
AcDbLine
 10
422.5445158113012
 20
892.0433652219044
 30
0.0
 11
425.5445158373782
 21
892.0433652219044
 31
0.0
  0
LINE
  5
1B74
330
A
100
AcDbEntity
  8
MODEL
100
AcDbLine
 10
440.0445165842989
 20
892.0433652219044
 30
0.0
 11
443.0445152133921
 21
892.0433652219044
 31
0.0
  0
LINE
  5
1B75
330
A
100
AcDbEntity
  8
MODEL
100
AcDbLine
 10
457.5445166588047
 20
892.0433652219044
 30
0.0
 11
460.5445152878979
 21
892.0433652219044
 31
0.0
  0
LINE
  5
1B76
330
A
100
AcDbEntity
  8
MODEL
100
AcDbLine
 10
212.5445118904331
 20
892.0433652219044
 30
0.0
 11
215.5445179701069
 21
892.0433652219044
 31
0.0
  0
LINE
  5
1B77
330
A
100
AcDbEntity
  8
MODEL
100
AcDbLine
 10
317.5445160627582
 20
892.0433652219044
 30
0.0
 11
320.5445146918514
 21
892.0433652219044
 31
0.0
  0
LINE
  5
1B78
330
A
100
AcDbEntity
  8
MODEL
100
AcDbLine
 10
510.0445187449673
 20
892.0433652219044
 30
0.0
 11
513.0445173740604
 21
892.0433652219044
 31
0.0
  0
LINE
  5
1B79
330
A
100
AcDbEntity
  8
MODEL
100
AcDbLine
 10
527.5445169568279
 20
892.0433652219044
 30
0.0
 11
530.5445155859211
 21
892.0433652219044
 31
0.0
  0
LINE
  5
1B7A
330
A
100
AcDbEntity
  8
MODEL
100
AcDbLine
 10
160.0445172548511
 20
892.0433652219044
 30
0.0
 11
163.0445084333637
 21
892.0433652219044
 31
0.0
  0
LINE
  5
1B7B
330
A
100
AcDbEntity
  8
MODEL
100
AcDbLine
 10
475.0445148706654
 20
892.0433652219044
 30
0.0
 11
478.0445172250488
 21
892.0433652219044
 31
0.0
  0
LINE
  5
1B7C
330
A
100
AcDbEntity
  8
MODEL
100
AcDbLine
 10
195.0445136785725
 20
892.0433652219044
 30
0.0
 11
198.0445197582462
 21
892.0433652219044
 31
0.0
  0
LINE
  5
1B7D
330
A
100
AcDbEntity
  8
MODEL
100
AcDbLine
 10
177.5445154667118
 20
892.0433652219044
 30
0.0
 11
180.5445215463856
 21
892.0433652219044
 31
0.0
  0
LINE
  5
1B7E
330
A
100
AcDbEntity
  8
MODEL
100
AcDbLine
 10
247.5445232153156
 20
892.0433652219044
 30
0.0
 11
250.5445143938282
 21
892.0433652219044
 31
0.0
  0
LINE
  5
1B7F
330
A
100
AcDbEntity
  8
MODEL
100
AcDbLine
 10
230.0445101022938
 20
892.0433652219044
 30
0.0
 11
233.0445161819675
 21
892.0433652219044
 31
0.0
  0
LINE
  5
1B80
330
A
100
AcDbEntity
  8
MODEL
100
AcDbLine
 10
300.0445178508976
 20
892.0433652219044
 30
0.0
 11
303.0445164799908
 21
892.0433652219044
 31
0.0
  0
LINE
  5
1B81
330
A
100
AcDbEntity
  8
MODEL
100
AcDbLine
 10
282.5445196390369
 20
892.0433652219044
 30
0.0
 11
285.5445108175495
 21
892.0433652219044
 31
0.0
  0
LINE
  5
1B82
330
A
100
AcDbEntity
  8
MODEL
100
AcDbLine
 10
265.0445214271763
 20
892.0433652219044
 30
0.0
 11
268.0445126056889
 21
892.0433652219044
 31
0.0
  0
LINE
  5
1B83
330
A
100
AcDbEntity
  8
MODEL
100
AcDbLine
 10
352.5445124864796
 20
892.0433652219044
 30
0.0
 11
355.5445185661533
 21
892.0433652219044
 31
0.0
  0
LINE
  5
1B84
330
A
100
AcDbEntity
  8
MODEL
100
AcDbLine
 10
335.0445142746189
 20
892.0433652219044
 30
0.0
 11
338.0445129037121
 21
892.0433652219044
 31
0.0
  0
LINE
  5
1B85
330
A
100
AcDbEntity
  8
MODEL
100
AcDbLine
 10
545.0445151686886
 20
892.0433652219044
 30
0.0
 11
548.0445137977817
 21
892.0433652219044
 31
0.0
  0
LINE
  5
1B86
330
A
100
AcDbEntity
  8
MODEL
100
AcDbLine
 10
387.5445163607815
 20
892.0433652219044
 30
0.0
 11
390.5445149898746
 21
892.0433652219044
 31
0.0
  0
LINE
  5
1B87
330
A
100
AcDbEntity
  8
MODEL
100
AcDbLine
 10
370.0445144236305
 20
892.0433652219044
 30
0.0
 11
373.044516778014
 21
892.0433652219044
 31
0.0
  0
LINE
  5
1B88
330
A
100
AcDbEntity
  8
MODEL
100
AcDbLine
 10
405.0445164352873
 20
892.0433652219044
 30
0.0
 11
408.0445150643804
 21
892.0433652219044
 31
0.0
  0
LINE
  5
1B89
330
A
100
AcDbEntity
  8
MODEL
100
AcDbLine
 10
650.0445118904331
 20
892.0433652219044
 30
0.0
 11
653.0445179701069
 21
892.0433652219044
 31
0.0
  0
LINE
  5
1B8A
330
A
100
AcDbEntity
  8
MODEL
100
AcDbLine
 10
667.5445101022938
 20
892.0433652219044
 30
0.0
 11
670.5445161819675
 21
892.0433652219044
 31
0.0
  0
LINE
  5
1B8B
330
A
100
AcDbEntity
  8
MODEL
100
AcDbLine
 10
685.0445232153156
 20
892.0433652219044
 30
0.0
 11
688.0445143938282
 21
892.0433652219044
 31
0.0
  0
LINE
  5
1B8C
330
A
100
AcDbEntity
  8
MODEL
100
AcDbLine
 10
615.0445154667118
 20
892.0433652219044
 30
0.0
 11
618.0445215463856
 21
892.0433652219044
 31
0.0
  0
LINE
  5
1B8D
330
A
100
AcDbEntity
  8
MODEL
100
AcDbLine
 10
632.5445136785725
 20
892.0433652219044
 30
0.0
 11
635.5445197582462
 21
892.0433652219044
 31
0.0
  0
LINE
  5
1B8E
330
A
100
AcDbEntity
  8
MODEL
100
AcDbLine
 10
562.5445208311298
 20
892.0433652219044
 30
0.0
 11
565.5445120096424
 21
892.0433652219044
 31
0.0
  0
LINE
  5
1B8F
330
A
100
AcDbEntity
  8
MODEL
100
AcDbLine
 10
580.0445190429905
 20
892.0433652219044
 30
0.0
 11
583.0445102215031
 21
892.0433652219044
 31
0.0
  0
LINE
  5
1B90
330
A
100
AcDbEntity
  8
MODEL
100
AcDbLine
 10
597.5445172548511
 20
892.0433652219044
 30
0.0
 11
600.5445084333637
 21
892.0433652219044
 31
0.0
  0
LINE
  5
1B92
330
A
100
AcDbEntity
  8
MODEL
100
AcDbLine
 10
774.0445098638752
 20
723.7032984916182
 30
0.0
 11
766.0445234537342
 21
723.7032984916182
 31
0.0
  0
LINE
  5
1B93
330
A
100
AcDbEntity
  8
MODEL
100
AcDbLine
 10
766.0445234537342
 20
575.7032965842695
 30
0.0
 11
774.0445098638752
 21
575.7032965842695
 31
0.0
  0
LINE
  5
1B94
330
A
100
AcDbEntity
  8
MODEL
100
AcDbLine
 10
82.04450819494514
 20
723.7032984916182
 30
0.0
 11
74.04452178480415
 21
723.7032984916182
 31
0.0
  0
LINE
  5
1B95
330
A
100
AcDbEntity
  8
MODEL
100
AcDbLine
 10
74.04452178480415
 20
575.7032965842695
 30
0.0
 11
82.04450819494514
 21
575.7032965842695
 31
0.0
  0
LINE
  5
1B96
330
A
100
AcDbEntity
  8
MODEL
100
AcDbLine
 10
492.544513082526
 20
709.7032999221296
 30
0.0
 11
492.544513082526
 21
589.7032988790484
 31
0.0
  0
LINE
  5
1B97
330
A
100
AcDbEntity
  8
MODEL
100
AcDbLine
 10
495.5445191621998
 20
589.7032988790484
 30
0.0
 11
495.5445191621998
 21
709.7032999221296
 31
0.0
  0
LINE
  5
1B98
330
A
100
AcDbEntity
  8
MODEL
100
AcDbLine
 10
422.5445158113012
 20
709.7032999221296
 30
0.0
 11
422.5445158113012
 21
589.7032988790484
 31
0.0
  0
LINE
  5
1B99
330
A
100
AcDbEntity
  8
MODEL
100
AcDbLine
 10
425.5445158373782
 20
589.7032988790484
 30
0.0
 11
425.5445158373782
 21
709.7032999221296
 31
0.0
  0
LINE
  5
1B9A
330
A
100
AcDbEntity
  8
MODEL
100
AcDbLine
 10
440.0445165842989
 20
709.7032999221296
 30
0.0
 11
440.0445165842989
 21
589.7032988790484
 31
0.0
  0
LINE
  5
1B9B
330
A
100
AcDbEntity
  8
MODEL
100
AcDbLine
 10
443.0445152133921
 20
589.7032988790484
 30
0.0
 11
443.0445152133921
 21
709.7032999221296
 31
0.0
  0
LINE
  5
1B9C
330
A
100
AcDbEntity
  8
MODEL
100
AcDbLine
 10
457.5445166588047
 20
709.7032999221296
 30
0.0
 11
457.5445166588047
 21
589.7032988790484
 31
0.0
  0
LINE
  5
1B9D
330
A
100
AcDbEntity
  8
MODEL
100
AcDbLine
 10
460.5445152878979
 20
589.7032988790484
 30
0.0
 11
460.5445152878979
 21
709.7032999221296
 31
0.0
  0
LINE
  5
1B9E
330
A
100
AcDbEntity
  8
MODEL
100
AcDbLine
 10
212.5445118904331
 20
709.7032999221296
 30
0.0
 11
212.5445118904331
 21
589.7032988790484
 31
0.0
  0
LINE
  5
1B9F
330
A
100
AcDbEntity
  8
MODEL
100
AcDbLine
 10
215.5445179701069
 20
589.7032988790484
 30
0.0
 11
215.5445179701069
 21
709.7032999221296
 31
0.0
  0
LINE
  5
1BA0
330
A
100
AcDbEntity
  8
MODEL
100
AcDbLine
 10
317.5445160627582
 20
709.7032999221296
 30
0.0
 11
317.5445160627582
 21
589.7032988790484
 31
0.0
  0
LINE
  5
1BA1
330
A
100
AcDbEntity
  8
MODEL
100
AcDbLine
 10
320.5445146918514
 20
589.7032988790484
 30
0.0
 11
320.5445146918514
 21
709.7032999221296
 31
0.0
  0
LINE
  5
1BA2
330
A
100
AcDbEntity
  8
MODEL
100
AcDbLine
 10
510.0445187449673
 20
709.7032999221296
 30
0.0
 11
510.0445187449673
 21
589.7032988790484
 31
0.0
  0
LINE
  5
1BA3
330
A
100
AcDbEntity
  8
MODEL
100
AcDbLine
 10
513.0445173740604
 20
589.7032988790484
 30
0.0
 11
513.0445173740604
 21
709.7032999221296
 31
0.0
  0
LINE
  5
1BA4
330
A
100
AcDbEntity
  8
MODEL
100
AcDbLine
 10
527.5445169568279
 20
709.7032999221296
 30
0.0
 11
527.5445169568279
 21
589.7032988790484
 31
0.0
  0
LINE
  5
1BA5
330
A
100
AcDbEntity
  8
MODEL
100
AcDbLine
 10
530.5445155859211
 20
589.7032988790484
 30
0.0
 11
530.5445155859211
 21
709.7032999221296
 31
0.0
  0
LINE
  5
1BA6
330
A
100
AcDbEntity
  8
MODEL
100
AcDbLine
 10
160.0445172548511
 20
709.7032999221296
 30
0.0
 11
160.0445172548511
 21
589.7032988790484
 31
0.0
  0
LINE
  5
1BA7
330
A
100
AcDbEntity
  8
MODEL
100
AcDbLine
 10
163.0445084333637
 20
589.7032988790484
 30
0.0
 11
163.0445084333637
 21
709.7032999221296
 31
0.0
  0
LINE
  5
1BA8
330
A
100
AcDbEntity
  8
MODEL
100
AcDbLine
 10
475.0445148706654
 20
709.7032999221296
 30
0.0
 11
475.0445148706654
 21
589.7032988790484
 31
0.0
  0
LINE
  5
1BA9
330
A
100
AcDbEntity
  8
MODEL
100
AcDbLine
 10
478.0445172250488
 20
589.7032988790484
 30
0.0
 11
478.0445172250488
 21
709.7032999221296
 31
0.0
  0
LINE
  5
1BAA
330
A
100
AcDbEntity
  8
MODEL
100
AcDbLine
 10
195.0445136785725
 20
709.7032999221296
 30
0.0
 11
195.0445136785725
 21
589.7032988790484
 31
0.0
  0
LINE
  5
1BAB
330
A
100
AcDbEntity
  8
MODEL
100
AcDbLine
 10
198.0445197582462
 20
589.7032988790484
 30
0.0
 11
198.0445197582462
 21
709.7032999221296
 31
0.0
  0
LINE
  5
1BAC
330
A
100
AcDbEntity
  8
MODEL
100
AcDbLine
 10
177.5445154667118
 20
709.7032999221296
 30
0.0
 11
177.5445154667118
 21
589.7032988790484
 31
0.0
  0
LINE
  5
1BAD
330
A
100
AcDbEntity
  8
MODEL
100
AcDbLine
 10
180.5445215463856
 20
589.7032988790484
 30
0.0
 11
180.5445215463856
 21
709.7032999221296
 31
0.0
  0
LINE
  5
1BAE
330
A
100
AcDbEntity
  8
MODEL
100
AcDbLine
 10
247.5445232153156
 20
709.7032999221296
 30
0.0
 11
247.5445232153156
 21
589.7032988790484
 31
0.0
  0
LINE
  5
1BAF
330
A
100
AcDbEntity
  8
MODEL
100
AcDbLine
 10
250.5445143938282
 20
589.7032988790484
 30
0.0
 11
250.5445143938282
 21
709.7032999221296
 31
0.0
  0
LINE
  5
1BB0
330
A
100
AcDbEntity
  8
MODEL
100
AcDbLine
 10
230.0445101022938
 20
709.7032999221296
 30
0.0
 11
230.0445101022938
 21
589.7032988790484
 31
0.0
  0
LINE
  5
1BB1
330
A
100
AcDbEntity
  8
MODEL
100
AcDbLine
 10
233.0445161819675
 20
589.7032988790484
 30
0.0
 11
233.0445161819675
 21
709.7032999221296
 31
0.0
  0
LINE
  5
1BB2
330
A
100
AcDbEntity
  8
MODEL
100
AcDbLine
 10
300.0445178508976
 20
709.7032999221296
 30
0.0
 11
300.0445178508976
 21
589.7032988790484
 31
0.0
  0
LINE
  5
1BB3
330
A
100
AcDbEntity
  8
MODEL
100
AcDbLine
 10
303.0445164799908
 20
589.7032988790484
 30
0.0
 11
303.0445164799908
 21
709.7032999221296
 31
0.0
  0
LINE
  5
1BB4
330
A
100
AcDbEntity
  8
MODEL
100
AcDbLine
 10
282.5445196390369
 20
709.7032999221296
 30
0.0
 11
282.5445196390369
 21
589.7032988790484
 31
0.0
  0
LINE
  5
1BB5
330
A
100
AcDbEntity
  8
MODEL
100
AcDbLine
 10
285.5445108175495
 20
589.7032988790484
 30
0.0
 11
285.5445108175495
 21
709.7032999221296
 31
0.0
  0
LINE
  5
1BB6
330
A
100
AcDbEntity
  8
MODEL
100
AcDbLine
 10
265.0445214271763
 20
709.7032999221296
 30
0.0
 11
265.0445214271763
 21
589.7032988790484
 31
0.0
  0
LINE
  5
1BB7
330
A
100
AcDbEntity
  8
MODEL
100
AcDbLine
 10
268.0445126056889
 20
589.7032988790484
 30
0.0
 11
268.0445126056889
 21
709.7032999221296
 31
0.0
  0
LINE
  5
1BB8
330
A
100
AcDbEntity
  8
MODEL
100
AcDbLine
 10
352.5445124864796
 20
709.7032999221296
 30
0.0
 11
352.5445124864796
 21
589.7032988790484
 31
0.0
  0
LINE
  5
1BB9
330
A
100
AcDbEntity
  8
MODEL
100
AcDbLine
 10
355.5445185661533
 20
589.7032988790484
 30
0.0
 11
355.5445185661533
 21
709.7032999221296
 31
0.0
  0
LINE
  5
1BBA
330
A
100
AcDbEntity
  8
MODEL
100
AcDbLine
 10
335.0445142746189
 20
709.7032999221296
 30
0.0
 11
335.0445142746189
 21
589.7032988790484
 31
0.0
  0
LINE
  5
1BBB
330
A
100
AcDbEntity
  8
MODEL
100
AcDbLine
 10
338.0445129037121
 20
589.7032988790484
 30
0.0
 11
338.0445129037121
 21
709.7032999221296
 31
0.0
  0
LINE
  5
1BBC
330
A
100
AcDbEntity
  8
MODEL
100
AcDbLine
 10
545.0445151686886
 20
709.7032999221296
 30
0.0
 11
545.0445151686886
 21
589.7032988790484
 31
0.0
  0
LINE
  5
1BBD
330
A
100
AcDbEntity
  8
MODEL
100
AcDbLine
 10
548.0445137977817
 20
589.7032988790484
 30
0.0
 11
548.0445137977817
 21
709.7032999221296
 31
0.0
  0
LINE
  5
1BBE
330
A
100
AcDbEntity
  8
MODEL
100
AcDbLine
 10
387.5445163607815
 20
709.7032999221296
 30
0.0
 11
387.5445163607815
 21
589.7032988790484
 31
0.0
  0
LINE
  5
1BBF
330
A
100
AcDbEntity
  8
MODEL
100
AcDbLine
 10
390.5445149898746
 20
589.7032988790484
 30
0.0
 11
390.5445149898746
 21
709.7032999221296
 31
0.0
  0
LINE
  5
1BC0
330
A
100
AcDbEntity
  8
MODEL
100
AcDbLine
 10
370.0445144236305
 20
709.7032999221296
 30
0.0
 11
370.0445144236305
 21
589.7032988790484
 31
0.0
  0
LINE
  5
1BC1
330
A
100
AcDbEntity
  8
MODEL
100
AcDbLine
 10
373.044516778014
 20
589.7032988790484
 30
0.0
 11
373.044516778014
 21
709.7032999221296
 31
0.0
  0
LINE
  5
1BC2
330
A
100
AcDbEntity
  8
MODEL
100
AcDbLine
 10
405.0445164352873
 20
709.7032999221296
 30
0.0
 11
405.0445164352873
 21
589.7032988790484
 31
0.0
  0
LINE
  5
1BC3
330
A
100
AcDbEntity
  8
MODEL
100
AcDbLine
 10
408.0445150643804
 20
589.7032988790484
 30
0.0
 11
408.0445150643804
 21
709.7032999221296
 31
0.0
  0
LINE
  5
1BC4
330
A
100
AcDbEntity
  8
MODEL
100
AcDbLine
 10
650.0445118904331
 20
709.7032999221296
 30
0.0
 11
650.0445118904331
 21
589.7032988790484
 31
0.0
  0
LINE
  5
1BC5
330
A
100
AcDbEntity
  8
MODEL
100
AcDbLine
 10
653.0445179701069
 20
589.7032988790484
 30
0.0
 11
653.0445179701069
 21
709.7032999221296
 31
0.0
  0
LINE
  5
1BC6
330
A
100
AcDbEntity
  8
MODEL
100
AcDbLine
 10
667.5445101022938
 20
709.7032999221296
 30
0.0
 11
667.5445101022938
 21
589.7032988790484
 31
0.0
  0
LINE
  5
1BC7
330
A
100
AcDbEntity
  8
MODEL
100
AcDbLine
 10
670.5445161819675
 20
589.7032988790484
 30
0.0
 11
670.5445161819675
 21
709.7032999221296
 31
0.0
  0
LINE
  5
1BC8
330
A
100
AcDbEntity
  8
MODEL
100
AcDbLine
 10
685.0445232153156
 20
709.7032999221296
 30
0.0
 11
685.0445232153156
 21
589.7032988790484
 31
0.0
  0
LINE
  5
1BC9
330
A
100
AcDbEntity
  8
MODEL
100
AcDbLine
 10
688.0445143938282
 20
589.7032988790484
 30
0.0
 11
688.0445143938282
 21
709.7032999221296
 31
0.0
  0
LINE
  5
1BCA
330
A
100
AcDbEntity
  8
MODEL
100
AcDbLine
 10
615.0445154667118
 20
709.7032999221296
 30
0.0
 11
615.0445154667118
 21
589.7032988790484
 31
0.0
  0
LINE
  5
1BCB
330
A
100
AcDbEntity
  8
MODEL
100
AcDbLine
 10
618.0445215463856
 20
589.7032988790484
 30
0.0
 11
618.0445215463856
 21
709.7032999221296
 31
0.0
  0
LINE
  5
1BCC
330
A
100
AcDbEntity
  8
MODEL
100
AcDbLine
 10
632.5445136785725
 20
709.7032999221296
 30
0.0
 11
632.5445136785725
 21
589.7032988790484
 31
0.0
  0
LINE
  5
1BCD
330
A
100
AcDbEntity
  8
MODEL
100
AcDbLine
 10
635.5445197582462
 20
589.7032988790484
 30
0.0
 11
635.5445197582462
 21
709.7032999221296
 31
0.0
  0
LINE
  5
1BCE
330
A
100
AcDbEntity
  8
MODEL
100
AcDbLine
 10
562.5445208311298
 20
709.7032999221296
 30
0.0
 11
562.5445208311298
 21
589.7032988790484
 31
0.0
  0
LINE
  5
1BCF
330
A
100
AcDbEntity
  8
MODEL
100
AcDbLine
 10
565.5445120096424
 20
589.7032988790484
 30
0.0
 11
565.5445120096424
 21
709.7032999221296
 31
0.0
  0
LINE
  5
1BD0
330
A
100
AcDbEntity
  8
MODEL
100
AcDbLine
 10
580.0445190429905
 20
709.7032999221296
 30
0.0
 11
580.0445190429905
 21
589.7032988790484
 31
0.0
  0
LINE
  5
1BD1
330
A
100
AcDbEntity
  8
MODEL
100
AcDbLine
 10
583.0445102215031
 20
589.7032988790484
 30
0.0
 11
583.0445102215031
 21
709.7032999221296
 31
0.0
  0
LINE
  5
1BD2
330
A
100
AcDbEntity
  8
MODEL
100
AcDbLine
 10
597.5445172548511
 20
709.7032999221296
 30
0.0
 11
597.5445172548511
 21
589.7032988790484
 31
0.0
  0
LINE
  5
1BD3
330
A
100
AcDbEntity
  8
MODEL
100
AcDbLine
 10
600.5445084333637
 20
589.7032988790484
 30
0.0
 11
600.5445084333637
 21
709.7032999221296
 31
0.0
  0
LINE
  5
1BD4
330
A
100
AcDbEntity
  8
MODEL
100
AcDbLine
 10
82.04450819494514
 20
709.7032999221296
 30
0.0
 11
140.0445065260151
 21
709.7032999221296
 31
0.0
  0
LINE
  5
1BD5
330
A
100
AcDbEntity
  8
MODEL
100
AcDbLine
 10
143.5445210695484
 20
709.7032999221296
 30
0.0
 11
704.5445105791309
 21
709.7032999221296
 31
0.0
  0
LINE
  5
1BD6
330
A
100
AcDbEntity
  8
MODEL
100
AcDbLine
 10
708.0445251226643
 20
709.7032999221296
 30
0.0
 11
766.0445234537342
 21
709.7032999221296
 31
0.0
  0
LINE
  5
1BD7
330
A
100
AcDbEntity
  8
MODEL
100
AcDbLine
 10
766.0445234537342
 20
722.7032964650602
 30
0.0
 11
82.04450819494514
 21
722.7032964650602
 31
0.0
  0
LINE
  5
1BD8
330
A
100
AcDbEntity
  8
MODEL
100
AcDbLine
 10
82.04450819494514
 20
576.7032986108275
 30
0.0
 11
766.0445234537342
 21
576.7032986108275
 31
0.0
  0
LINE
  5
1BD9
330
A
100
AcDbEntity
  8
MODEL
100
AcDbLine
 10
766.0445234537342
 20
589.7032988790484
 30
0.0
 11
708.0445251226643
 21
589.7032988790484
 31
0.0
  0
LINE
  5
1BDA
330
A
100
AcDbEntity
  8
MODEL
100
AcDbLine
 10
704.5445105791309
 20
589.7032988790484
 30
0.0
 11
143.5445210695484
 21
589.7032988790484
 31
0.0
  0
LINE
  5
1BDB
330
A
100
AcDbEntity
  8
MODEL
100
AcDbLine
 10
140.0445065260151
 20
589.7032988790484
 30
0.0
 11
82.04450819494514
 21
589.7032988790484
 31
0.0
  0
LINE
  5
1BDC
330
A
100
AcDbEntity
  8
MODEL
100
AcDbLine
 10
774.0445098638752
 20
723.7032984916182
 30
0.0
 11
774.0445098638752
 21
716.203298193595
 31
0.0
  0
LINE
  5
1BDD
330
A
100
AcDbEntity
  8
MODEL
100
AcDbLine
 10
774.0445098638752
 20
716.203298193595
 30
0.0
 11
766.0445234537342
 21
716.203298193595
 31
0.0
  0
LINE
  5
1BDE
330
A
100
AcDbEntity
  8
MODEL
100
AcDbLine
 10
766.0445234537342
 20
723.7032984916182
 30
0.0
 11
766.0445234537342
 21
716.203298193595
 31
0.0
  0
LINE
  5
1BDF
330
A
100
AcDbEntity
  8
MODEL
100
AcDbLine
 10
774.0445098638752
 20
583.2032968822928
 30
0.0
 11
766.0445234537342
 21
583.2032968822928
 31
0.0
  0
LINE
  5
1BE0
330
A
100
AcDbEntity
  8
MODEL
100
AcDbLine
 10
774.0445098638752
 20
716.203298193595
 30
0.0
 11
774.0445098638752
 21
583.2032968822928
 31
0.0
  0
LINE
  5
1BE1
330
A
100
AcDbEntity
  8
MODEL
100
AcDbLine
 10
766.0445234537342
 20
716.203298193595
 30
0.0
 11
766.0445234537342
 21
583.2032968822928
 31
0.0
  0
LINE
  5
1BE2
330
A
100
AcDbEntity
  8
MODEL
100
AcDbLine
 10
774.0445098638752
 20
583.2032968822928
 30
0.0
 11
774.0445098638752
 21
575.7032965842695
 31
0.0
  0
LINE
  5
1BE3
330
A
100
AcDbEntity
  8
MODEL
100
AcDbLine
 10
766.0445234537342
 20
583.2032968822928
 30
0.0
 11
766.0445234537342
 21
575.7032965842695
 31
0.0
  0
LINE
  5
1BE4
330
A
100
AcDbEntity
  8
MODEL
100
AcDbLine
 10
74.04452178480415
 20
716.203298193595
 30
0.0
 11
82.04450819494514
 21
716.203298193595
 31
0.0
  0
LINE
  5
1BE5
330
A
100
AcDbEntity
  8
MODEL
100
AcDbLine
 10
74.04452178480415
 20
716.203298193595
 30
0.0
 11
74.04452178480415
 21
723.7032984916182
 31
0.0
  0
LINE
  5
1BE6
330
A
100
AcDbEntity
  8
MODEL
100
AcDbLine
 10
82.04450819494514
 20
716.203298193595
 30
0.0
 11
82.04450819494514
 21
723.7032984916182
 31
0.0
  0
LINE
  5
1BE7
330
A
100
AcDbEntity
  8
MODEL
100
AcDbLine
 10
74.04452178480415
 20
583.2032968822928
 30
0.0
 11
82.04450819494514
 21
583.2032968822928
 31
0.0
  0
LINE
  5
1BE8
330
A
100
AcDbEntity
  8
MODEL
100
AcDbLine
 10
74.04452178480415
 20
583.2032968822928
 30
0.0
 11
74.04452178480415
 21
716.203298193595
 31
0.0
  0
LINE
  5
1BE9
330
A
100
AcDbEntity
  8
MODEL
100
AcDbLine
 10
82.04450819494514
 20
583.2032968822928
 30
0.0
 11
82.04450819494514
 21
716.203298193595
 31
0.0
  0
LINE
  5
1BEA
330
A
100
AcDbEntity
  8
MODEL
100
AcDbLine
 10
74.04452178480415
 20
575.7032965842695
 30
0.0
 11
74.04452178480415
 21
583.2032968822928
 31
0.0
  0
LINE
  5
1BEB
330
A
100
AcDbEntity
  8
MODEL
100
AcDbLine
 10
82.04450819494514
 20
575.7032965842695
 30
0.0
 11
82.04450819494514
 21
583.2032968822928
 31
0.0
  0
LINE
  5
1BEC
330
A
100
AcDbEntity
  8
MODEL
100
AcDbLine
 10
708.0445251226643
 20
712.7032985512228
 30
0.0
 11
708.0445251226643
 21
586.7032965246649
 31
0.0
  0
LINE
  5
1BED
330
A
100
AcDbEntity
  8
MODEL
100
AcDbLine
 10
704.5445105791309
 20
586.7032965246649
 30
0.0
 11
708.0445251226643
 21
586.7032965246649
 31
0.0
  0
LINE
  5
1BEE
330
A
100
AcDbEntity
  8
MODEL
100
AcDbLine
 10
704.5445105791309
 20
712.7032985512228
 30
0.0
 11
708.0445251226643
 21
712.7032985512228
 31
0.0
  0
LINE
  5
1BEF
330
A
100
AcDbEntity
  8
MODEL
100
AcDbLine
 10
704.5445105791309
 20
712.7032985512228
 30
0.0
 11
704.5445105791309
 21
586.7032965246649
 31
0.0
  0
LINE
  5
1BF0
330
A
100
AcDbEntity
  8
MODEL
100
AcDbLine
 10
140.0445065260151
 20
712.7032985512228
 30
0.0
 11
140.0445065260151
 21
586.7032965246649
 31
0.0
  0
LINE
  5
1BF1
330
A
100
AcDbEntity
  8
MODEL
100
AcDbLine
 10
140.0445065260151
 20
712.7032985512228
 30
0.0
 11
143.5445210695484
 21
712.7032985512228
 31
0.0
  0
LINE
  5
1BF2
330
A
100
AcDbEntity
  8
MODEL
100
AcDbLine
 10
143.5445210695484
 20
712.7032985512228
 30
0.0
 11
143.5445210695484
 21
586.7032965246649
 31
0.0
  0
LINE
  5
1BF3
330
A
100
AcDbEntity
  8
MODEL
100
AcDbLine
 10
140.0445065260151
 20
586.7032965246649
 30
0.0
 11
143.5445210695484
 21
586.7032965246649
 31
0.0
  0
DIMENSION
  5
1BF5
330
A
100
AcDbEntity
  8
DIM
100
AcDbDimension
  2
*D62
 10
774.0445158243442
 20
1001.21574742836
 30
0.0
 11
424.0445158243415
 21
1001.21574742836
 31
0.0
 70
   160
  1
700～950
 71
     2
 42
700.0000000000045
 73
     0
 74
     0
 75
     0
  3
tfrom線あり
100
AcDbAlignedDimension
 13
74.04451582433967
 23
951.2157474283567
 33
0.0
 14
774.0445158243442
 24
951.2157474283595
 34
0.0
 50
0.0000000000002094
100
AcDbRotatedDimension
1001
ACAD
1000
DSTYLE
1002
{
1070
   340
1005
39
1002
}
  0
LINE
  5
1BF6
330
A
100
AcDbEntity
  8
MODEL
100
AcDbLine
 10
824.0654453188731
 20
932.0433643278348
 30
0.0
 11
824.0654453188731
 21
931.5433633145558
 31
0.0
  0
ARC
  5
1BF7
330
A
100
AcDbEntity
  8
MODEL
100
AcDbCircle
 10
824.5654426576534
 20
931.5433635747145
 30
0.0
 40
0.5000000000001137
100
AcDbArc
 50
180.0
 51
270.0
  0
LINE
  5
1BF8
330
A
100
AcDbEntity
  8
MODEL
100
AcDbLine
 10
947.0654412657573
 20
931.5433633145558
 30
0.0
 11
947.0654412657573
 21
932.0433643278348
 31
0.0
  0
ARC
  5
1BF9
330
A
100
AcDbEntity
  8
MODEL
100
AcDbCircle
 10
946.5654426576525
 20
931.5433635747145
 30
0.0
 40
0.5000000000001137
100
AcDbArc
 50
270.0
 51
0.0
  0
LINE
  5
1BFA
330
A
100
AcDbEntity
  8
MODEL
100
AcDbLine
 10
823.5654443055942
 20
886.0433642384278
 30
0.0
 11
947.5654422790362
 21
886.0433642384278
 31
0.0
  0
LINE
  5
1BFB
330
A
100
AcDbEntity
  8
MODEL
100
AcDbLine
 10
947.5654422790362
 20
889.043362867521
 30
0.0
 11
823.5654443055942
 21
889.043362867521
 31
0.0
  0
LINE
  5
1BFC
330
A
100
AcDbEntity
  8
MODEL
100
AcDbLine
 10
817.5654395968272
 20
932.194894236015
 30
0.0
 11
817.5654395968272
 21
892.0433652219044
 31
0.0
  0
LINE
  5
1BFD
330
A
100
AcDbEntity
  8
MODEL
100
AcDbLine
 10
820.565445676501
 20
892.0433652219044
 30
0.0
 11
820.565445676501
 21
932.0433643278348
 31
0.0
  0
ARC
  5
1BFE
330
A
100
AcDbEntity
  8
MODEL
100
AcDbCircle
 10
823.5654426527967
 20
892.0433635747145
 30
0.0
 40
2.999999999999972
100
AcDbArc
 50
180.0
 51
270.0
  0
ARC
  5
1BFF
330
A
100
AcDbEntity
  8
MODEL
100
AcDbCircle
 10
823.5654426527967
 20
892.0433635747145
 30
0.0
 40
6.000000000000085
100
AcDbArc
 50
179.9999999999957
 51
270.0
  0
ARC
  5
1C00
330
A
100
AcDbEntity
  8
MODEL
100
AcDbCircle
 10
947.5654426527985
 20
892.0433635747145
 30
0.0
 40
2.999999999999972
100
AcDbArc
 50
270.0
 51
0.0
  0
ARC
  5
1C01
330
A
100
AcDbEntity
  8
MODEL
100
AcDbCircle
 10
947.5654426527985
 20
892.0433635747145
 30
0.0
 40
6.000000000000085
100
AcDbArc
 50
270.0
 51
0.0000000000043425
  0
LINE
  5
1C02
330
A
100
AcDbEntity
  8
MODEL
100
AcDbLine
 10
950.5654409081294
 20
932.0433643278348
 30
0.0
 11
950.5654409081294
 21
892.0433652219044
 31
0.0
  0
LINE
  5
1C03
330
A
100
AcDbEntity
  8
MODEL
100
AcDbLine
 10
953.5654432625129
 20
892.0433652219044
 30
0.0
 11
953.5654432625129
 21
932.194894236015
 31
0.0
  0
LINE
  5
1C04
330
A
100
AcDbEntity
  8
MODEL
100
AcDbLine
 10
825.5654409081294
 20
931.5433633145558
 30
0.0
 11
945.5654419512107
 21
931.5433633145558
 31
0.0
  0
LINE
  5
1C05
330
A
100
AcDbEntity
  8
MODEL
100
AcDbLine
 10
945.5654419512107
 20
931.5433633145558
 30
0.0
 11
945.5654419512107
 21
931.043364163922
 31
0.0
  0
LINE
  5
1C06
330
A
100
AcDbEntity
  8
MODEL
100
AcDbLine
 10
945.5654419512107
 20
931.043364163922
 30
0.0
 11
825.5654409081294
 21
931.043364163922
 31
0.0
  0
LINE
  5
1C07
330
A
100
AcDbEntity
  8
MODEL
100
AcDbLine
 10
825.5654409081294
 20
931.5433633145558
 30
0.0
 11
825.5654409081294
 21
931.043364163922
 31
0.0
  0
LINE
  5
1C08
330
A
100
AcDbEntity
  8
MODEL
100
AcDbLine
 10
825.5654409081294
 20
931.043364163922
 30
0.0
 11
824.5654463321521
 21
931.043364163922
 31
0.0
  0
LINE
  5
1C09
330
A
100
AcDbEntity
  8
MODEL
100
AcDbLine
 10
946.5654439777686
 20
931.043364163922
 30
0.0
 11
945.5654419512107
 21
931.043364163922
 31
0.0
  0
LINE
  5
1C0A
330
A
100
AcDbEntity
  8
MODEL
100
AcDbLine
 10
952.0654439479663
 20
947.0433635268973
 30
0.0
 11
819.0654426366641
 21
947.0433635268973
 31
0.0
  0
ARC
  5
1C0B
330
A
100
AcDbEntity
  8
MODEL
100
AcDbCircle
 10
952.0654426576516
 20
939.5433635747145
 30
0.0
 40
7.5
100
AcDbArc
 50
270.0000000000139
 51
90.0
  0
LINE
  5
1C0C
330
A
100
AcDbEntity
  8
MODEL
100
AcDbLine
 10
819.0654426366641
 20
932.0433643278348
 30
0.0
 11
952.0654439479663
 21
932.0433643278348
 31
0.0
  0
ARC
  5
1C0D
330
A
100
AcDbEntity
  8
MODEL
100
AcDbCircle
 10
819.0654426576525
 20
939.5433635747145
 30
0.0
 40
7.5
100
AcDbArc
 50
90.0
 51
270.0
  0
LINE
  5
1C0E
330
A
100
AcDbEntity
  8
MODEL
100
AcDbLine
 10
825.5654409081294
 20
932.0433643278348
 30
0.0
 11
825.5654409081294
 21
931.5433633145558
 31
0.0
  0
LINE
  5
1C0F
330
A
100
AcDbEntity
  8
MODEL
100
AcDbLine
 10
824.0654453188731
 20
931.5433633145558
 30
0.0
 11
825.5654409081294
 21
931.5433633145558
 31
0.0
  0
LINE
  5
1C10
330
A
100
AcDbEntity
  8
MODEL
100
AcDbLine
 10
945.5654419512107
 20
932.0433643278348
 30
0.0
 11
945.5654419512107
 21
931.5433633145558
 31
0.0
  0
LINE
  5
1C11
330
A
100
AcDbEntity
  8
MODEL
100
AcDbLine
 10
945.5654419512107
 20
931.5433633145558
 30
0.0
 11
947.0654412657573
 21
931.5433633145558
 31
0.0
  0
LINE
  5
1C12
330
A
100
AcDbEntity
  8
MODEL
100
AcDbLine
 10
823.5654443055942
 20
889.043362867521
 30
0.0
 11
823.5654443055942
 21
886.0433642384278
 31
0.0
  0
LINE
  5
1C13
330
A
100
AcDbEntity
  8
MODEL
100
AcDbLine
 10
947.5654422790362
 20
889.043362867521
 30
0.0
 11
947.5654422790362
 21
886.0433642384278
 31
0.0
  0
LINE
  5
1C14
330
A
100
AcDbEntity
  8
MODEL
100
AcDbLine
 10
820.565445676501
 20
892.0433652219044
 30
0.0
 11
817.5654395968272
 21
892.0433652219044
 31
0.0
  0
LINE
  5
1C15
330
A
100
AcDbEntity
  8
MODEL
100
AcDbLine
 10
950.5654409081294
 20
892.0433652219044
 30
0.0
 11
953.5654432625129
 21
892.0433652219044
 31
0.0
  0
DIMENSION
  5
1C49
330
A
100
AcDbEntity
  8
DIM
 48
0.05
100
AcDbDimension
  2
*D64
 10
828.5774917749047
 20
723.7032965842695
 30
0.0
 11
817.5774917749047
 21
649.7032965842695
 31
0.0
 70
    32
 71
     5
 42
148.0
 73
     0
 74
     0
 75
     0
  3
tfrom線あり
100
AcDbAlignedDimension
 13
774.0445098638752
 23
575.7032965842695
 33
0.0
 14
774.0445098638752
 24
723.7032965842695
 34
0.0
 50
90.0
100
AcDbRotatedDimension
  0
DIMENSION
  5
1C56
330
A
100
AcDbEntity
  8
DIM
 48
0.05
100
AcDbDimension
  2
*D65
 10
993.8294695507103
 20
886.0433635747145
 30
0.0
 11
982.8294695507103
 21
916.5433635747145
 31
0.0
 70
    32
 71
     5
 42
61.0
 73
     0
 74
     0
 75
     0
  3
tfrom線あり
100
AcDbAlignedDimension
 13
952.0654426576516
 23
947.0433635747145
 33
0.0
 14
952.0654426576516
 24
886.0433635747145
 34
0.0
 50
90.0
100
AcDbRotatedDimension
  0
LINE
  5
1C9C
330
A
100
AcDbEntity
  8
DIM
 48
0.05
100
AcDbLine
 10
725.4425275901453
 20
716.3088833134855
 30
0.0
 11
703.2833052406833
 21
742.2297020494301
 31
0.0
  0
MTEXT
  5
1CCD
330
A
100
AcDbEntity
  8
DIM
390
1D
100
AcDbMText
 10
679.0723030440489
 20
758.6753306497874
 30
0.0
 40
12.21630859375
 41
0.0
 46
12.21630859375
 71
     1
 72
     1
  1
%%c13
  7
ＭＳ ゴシック
 73
     1
 44
0.7828267384257843
1001
ACAD
1000
ACAD_MTEXT_DEFINED_HEIGHT_BEGIN
1070
    46
1040
12.21630859375
1000
ACAD_MTEXT_DEFINED_HEIGHT_END
  0
DIMENSION
  5
1CF2
102
{ACAD_REACTORS
330
1CF4
102
}
102
{ACAD_XDICTIONARY
360
1CF3
102
}
330
A
100
AcDbEntity
  8
DIM
 48
0.05
100
AcDbDimension
  2
*D66
 10
688.044515808038
 20
821.2821576521143
 30
0.0
 11
424.0445158237704
 21
832.2821576521143
 31
0.0
 70
    32
  1
528
 71
     5
 42
527.9999999685352
 73
     0
 74
     0
 75
     0
  3
tfrom線あり
100
AcDbAlignedDimension
 13
160.0445158395028
 23
887.5433635747145
 33
0.0
 14
688.044515808038
 24
887.5433635747145
 34
0.0
100
AcDbRotatedDimension
1001
ACAD
1000
DSTYLE
1002
{
1070
   144
1040
1.0
1002
}
  0
VIEWPORT
  5
349
330
B
100
AcDbEntity
 67
     1
  8
0
100
AcDbViewport
 10
202.5
 20
128.5
 30
0.0
 40
486.0
 41
308.4
 68
     1
 69
     1
 12
202.5
 22
128.5
 13
0.0
 23
0.0
 14
0.5
 24
0.5
 15
0.0
 25
0.0
 16
0.0
 26
0.0
 36
1.0
 17
0.0
 27
0.0
 37
0.0
 42
50.0
 43
0.0
 44
0.0
 45
308.4
 50
0.0
 51
0.0
 72
   100
 90
   557152
  1

281
     0
 71
     1
 74
     0
110
0.0
120
0.0
130
0.0
111
1.0
121
0.0
131
0.0
112
0.0
122
1.0
132
0.0
 79
     0
146
0.0
170
     0
 61
     5
348
26C
292
     1
282
     1
141
0.0
142
0.0
 63
   256
  0
VIEWPORT
  5
34A
330
B
100
AcDbEntity
 67
     1
  8
0
100
AcDbViewport
 10
202.5
 20
128.5
 30
0.0
 40
324.0
 41
205.6
 68
     2
 69
     2
 12
986.6781359294573
 22
1427.077061889956
 13
0.0
 23
0.0
 14
0.5
 24
0.5
 15
0.0
 25
0.0
 16
0.0
 26
0.0
 36
1.0
 17
0.0
 27
0.0
 37
0.0
 42
50.0
 43
0.0
 44
0.0
 45
2890.021615685494
 50
0.0
 51
0.0
 72
   100
 90
   557152
  1

281
     0
 71
     1
 74
     0
110
0.0
120
0.0
130
0.0
111
1.0
121
0.0
131
0.0
112
0.0
122
1.0
132
0.0
 79
     0
146
0.0
170
     0
 61
     5
348
26C
292
     1
282
     1
141
0.0
142
0.0
 63
   256
  0
ENDSEC
  0
SECTION
  2
OBJECTS
  0
DICTIONARY
  5
19
330
0
100
AcDbDictionary
281
     1
  3
ACAD_COLOR
350
674
  3
ACAD_DETAILVIEWSTYLE
350
BBF
  3
ACAD_FIELDLIST
350
1848
  3
ACAD_GROUP
350
1A
  3
ACAD_IMAGE_VARS
350
27B
  3
ACAD_LAYOUT
350
1E
  3
ACAD_MATERIAL
350
263
  3
ACAD_MLEADERSTYLE
350
336
  3
ACAD_MLINESTYLE
350
1B
  3
ACAD_PLOTSETTINGS
350
22
  3
ACAD_PLOTSTYLENAME
350
1F
  3
ACAD_SCALELIST
350
241
  3
ACAD_SECTIONVIEWSTYLE
350
BC0
  3
ACAD_TABLESTYLE
350
278
  3
ACAD_VISUALSTYLE
350
267
  3
ACDB_RECOMPOSE_DATA
350
1D15
  3
AcDbVariableDictionary
350
330
  3
APPDATA
350
27A
  3
DimOffsetDictionary
350
E38
  0
SUN
  5
904
330
15
100
AcDbSun
 90
        1
290
     0
 63
     7
421
 16777215
 40
1.0
291
     1
 91
  2455826
 92
 54000000
292
     0
 70
     2
 71
   256
280
     1
  0
DICTIONARY
  5
2E1
330
2
100
AcDbDictionary
280
     1
281
     1
  3
ACAD_LAYERSTATES
360
2E2
  3
ACLYDICTIONARY
360
DDE
  0
DICTIONARY
  5
1846
330
1844
100
AcDbDictionary
280
     1
281
     1
  3
ACAD_FIELD
360
184A
  0
DICTIONARY
  5
1CF3
330
1CF2
100
AcDbDictionary
280
     1
281
     1
  3
ACAD_DIMASSOC
360
1CF4
  0
DICTIONARY
  5
674
102
{ACAD_REACTORS
330
19
102
}
330
19
100
AcDbDictionary
281
     1
  0
DICTIONARY
  5
BBF
102
{ACAD_REACTORS
330
19
102
}
330
19
100
AcDbDictionary
281
     1
  0
FIELDLIST
  5
1848
102
{ACAD_REACTORS
330
19
102
}
330
19
100
AcDbIdSet
 90
        2
330
1849
330
1845
100
AcDbFieldList
  0
DICTIONARY
  5
1A
102
{ACAD_REACTORS
330
19
102
}
330
19
100
AcDbDictionary
281
     1
  0
RASTERVARIABLES
  5
27B
102
{ACAD_REACTORS
330
19
102
}
330
19
100
AcDbRasterVariables
 90
        0
 70
     1
 71
     1
 72
     1
  0
DICTIONARY
  5
1E
102
{ACAD_REACTORS
330
19
102
}
330
19
100
AcDbDictionary
281
     1
  3
Layout1
350
21
  3
Model
350
20
  0
DICTIONARY
  5
263
102
{ACAD_REACTORS
330
19
102
}
330
19
100
AcDbDictionary
281
     1
  3
ByBlock
350
265
  3
ByLayer
350
264
  3
Global
350
266
  0
DICTIONARY
  5
336
102
{ACAD_REACTORS
330
19
102
}
330
19
100
AcDbDictionary
281
     1
  3
Standard
350
D59
  0
DICTIONARY
  5
1B
102
{ACAD_REACTORS
330
19
102
}
330
19
100
AcDbDictionary
281
     1
  3
Standard
350
1C
  0
DICTIONARY
  5
22
102
{ACAD_REACTORS
330
19
102
}
330
19
100
AcDbDictionary
281
     1
  0
ACDBDICTIONARYWDFLT
  5
1F
102
{ACAD_REACTORS
330
19
102
}
330
19
100
AcDbDictionary
281
     1
  3
Normal
350
1D
100
AcDbDictionaryWithDefault
340
1D
  0
DICTIONARY
  5
241
102
{ACAD_REACTORS
330
19
102
}
330
19
100
AcDbDictionary
281
     1
  3
A0
350
242
  3
A1
350
243
  3
A2
350
244
  3
A3
350
245
  3
A4
350
246
  3
A5
350
247
  3
A6
350
248
  3
A7
350
249
  3
A8
350
24A
  3
A9
350
24B
  3
B0
350
24C
  3
B1
350
24D
  3
B2
350
24E
  3
B3
350
24F
  3
B4
350
250
  3
B5
350
251
  3
B6
350
252
  3
B7
350
253
  3
B8
350
254
  3
B9
350
255
  3
C0
350
256
  3
C1
350
257
  3
C2
350
258
  3
C3
350
259
  3
C4
350
25A
  3
C5
350
25B
  3
C6
350
25C
  3
C7
350
25D
  3
C8
350
25E
  3
C9
350
25F
  3
D0
350
260
  3
D1
350
261
  3
D2
350
262
  0
DICTIONARY
  5
BC0
102
{ACAD_REACTORS
330
19
102
}
330
19
100
AcDbDictionary
281
     1
  0
DICTIONARY
  5
278
102
{ACAD_REACTORS
330
19
102
}
330
19
100
AcDbDictionary
281
     1
  3
Standard
350
279
  0
DICTIONARY
  5
267
102
{ACAD_REACTORS
330
19
102
}
330
19
100
AcDbDictionary
281
     1
  3
2dWireframe
350
26C
  3
3D Hidden
350
26E
  3
3dWireframe
350
26D
  3
Basic
350
26F
  3
Brighten
350
273
  3
ColorChange
350
277
  3
Conceptual
350
271
  3
Dim
350
272
  3
EdgeColorOff
350
8FE
  3
Facepattern
350
276
  3
Flat
350
268
  3
FlatWithEdges
350
269
  3
Gouraud
350
26A
  3
GouraudWithEdges
350
26B
  3
Hidden
350
8FB
  3
JitterOff
350
8FC
  3
Linepattern
350
275
  3
OverhangOff
350
8FD
  3
Realistic
350
270
  3
Shaded
350
903
  3
Shaded with edges
350
902
  3
Shades of Gray
350
8FF
  3
Sketchy
350
900
  3
Thicken
350
274
  3
Wireframe
350
8FA
  3
X-Ray
350
901
  0
XRECORD
  5
1D15
102
{ACAD_REACTORS
330
19
102
}
330
19
100
AcDbXrecord
280
     1
 90
        1
330
279
  0
DICTIONARY
  5
330
102
{ACAD_REACTORS
330
19
102
}
330
19
100
AcDbDictionary
281
     1
  3
CANNOSCALE
350
331
  3
CMLEADERSTYLE
350
D5E
  3
CTABLESTYLE
350
335
  3
HPTRANSPARENCY
350
D52
  3
XCLIPFRAME
350
896
  0
DICTIONARY
  5
27A
102
{ACAD_REACTORS
330
19
102
}
330
19
100
AcDbDictionary
281
     1
  0
DICTIONARY
  5
E38
102
{ACAD_REACTORS
330
19
102
}
330
19
100
AcDbDictionary
281
     1
  3
DIMRAILANGLE
350
17BD
  3
DIMRAILFIRSTOFFSET
350
17BB
  3
DIMRAILOFFSET
350
17BC
  3
DIMRAILSENABLED
350
17BE
  0
DICTIONARY
  5
2E2
102
{ACAD_REACTORS
330
2E1
102
}
330
2E1
100
AcDbDictionary
281
     1
  0
DICTIONARY
  5
DDE
102
{ACAD_REACTORS
330
2E1
102
}
330
2E1
100
AcDbDictionary
281
     1
1001
ACAD
1000
<All
  0
DICTIONARY
  5
184A
102
{ACAD_REACTORS
330
1846
102
}
330
1846
100
AcDbDictionary
280
     1
281
     1
  3
TEXT
360
1845
  0
DIMASSOC
  5
1CF4
102
{ACAD_REACTORS
330
1CF3
102
}
330
1CF3
100
AcDbDimAssoc
330
1CF2
 90
        3
 70
     0
 71
     1
  1
AcDbOsnapPointRef
 72
    13
331
1B3A
 73
     0
 91
        0
 40
0.0
 10
0.0
 20
0.0
 30
0.0
 75
     0
  1
AcDbOsnapPointRef
 72
     1
331
1B4B
 73
     0
 91
        0
 40
0.0
 10
0.0
 20
0.0
 30
0.0
 75
     0
  0
LAYOUT
  5
21
102
{ACAD_REACTORS
330
1E
102
}
330
1E
100
AcDbPlotSettings
  1

  2
none_device
  4
ISO_A3_(420.00_x_297.00_MM)
  6

 40
7.5
 41
20.0
 42
7.5
 43
20.0
 44
420.0
 45
297.0
 46
0.0
 47
0.0
 48
0.0
 49
0.0
140
0.0
141
0.0
142
1.0
143
1.0
 70
     0
 72
     1
 73
     0
 74
     0
  7

 75
     0
 76
     0
 77
     2
 78
   300
147
1.0
148
0.0
149
0.0
100
AcDbLayout
  1
Layout1
 70
     0
 71
     0
 10
-7.5
 20
-20.0
 11
412.5
 21
277.0
 12
0.0
 22
0.0
 32
0.0
 14
0.0
 24
0.0
 34
0.0
 15
0.0
 25
0.0
 35
0.0
146
0.0
 13
0.0
 23
0.0
 33
0.0
 16
0.0
 26
0.0
 36
0.0
 17
0.0
 27
0.0
 37
0.0
 76
     0
330
B
331
349
  0
LAYOUT
  5
20
102
{ACAD_REACTORS
330
1E
102
}
330
1E
100
AcDbPlotSettings
  1

  2
none_device
  4
ISO_A3_(420.00_x_297.00_MM)
  6

 40
7.5
 41
20.0
 42
7.5
 43
20.0
 44
420.0
 45
297.0
 46
0.0
 47
0.0
 48
0.0
 49
0.0
140
0.0
141
0.0
142
1.0
143
1.0
 70
  1024
 72
     1
 73
     0
 74
     0
  7

 75
     0
 76
     0
 77
     2
 78
   300
147
1.0
148
0.0
149
0.0
100
AcDbLayout
  1
Model
 70
     0
 71
     1
 10
0.0
 20
0.0
 11
1050.0
 21
1485.0
 12
0.0
 22
0.0
 32
0.0
 14
0.0
 24
0.0
 34
-0.0000000000000142
 15
1050.0
 25
1485.0
 35
0.0000000000000142
146
0.0
 13
0.0
 23
0.0
 33
0.0
 16
0.0
 26
0.0
 36
0.0
 17
0.0
 27
0.0
 37
0.0
 76
     0
330
A
331
15
  0
MATERIAL
  5
265
102
{ACAD_REACTORS
330
263
102
}
330
263
100
AcDbMaterial
  1
ByBlock
 72
     1
 94
      127
  0
MATERIAL
  5
264
102
{ACAD_REACTORS
330
263
102
}
330
263
100
AcDbMaterial
  1
ByLayer
 72
     1
 94
      127
  0
MATERIAL
  5
266
102
{ACAD_REACTORS
330
263
102
}
330
263
100
AcDbMaterial
  1
Global
 72
     1
 94
      127
  0
MLEADERSTYLE
  5
D59
102
{ACAD_REACTORS
330
336
102
}
330
336
100
AcDbMLeaderStyle
170
     2
171
     1
172
     0
 90
        2
 40
0.0
 41
0.0
173
     1
 91
-1056964608
340
11
 92
       -2
290
     1
 42
2.0
291
     1
 43
8.0
  3
Standard
341
0
 44
4.0
300

342
17
174
     1
178
     6
175
     1
176
     0
 93
-1056964608
 45
4.0
292
     0
297
     0
 46
4.0
343
0
 94
-1056964608
 47
1.0
 49
1.0
140
1.0
293
     1
141
0.0
294
     1
177
     0
142
1.0
295
     0
296
     0
143
3.75
1001
ACAD_MLEADERVER
1070
     2
  0
MLINESTYLE
  5
1C
102
{ACAD_REACTORS
330
1B
102
}
330
1B
100
AcDbMlineStyle
  2
Standard
 70
     0
  3

 62
     0
 51
90.0
 52
90.0
 71
     2
 49
0.5
 62
   256
  6
BYLAYER
 49
-0.5
 62
   256
  6
BYLAYER
  0
ACDBPLACEHOLDER
  5
1D
102
{ACAD_REACTORS
330
1F
102
}
330
1F
  0
SCALE
  5
242
102
{ACAD_REACTORS
330
241
102
}
330
241
100
AcDbScale
 70
     0
300
1:1
140
1.0
141
1.0
290
     1
  0
SCALE
  5
243
102
{ACAD_REACTORS
330
241
102
}
330
241
100
AcDbScale
 70
     0
300
1:2
140
1.0
141
2.0
290
     0
  0
SCALE
  5
244
102
{ACAD_REACTORS
330
241
102
}
330
241
100
AcDbScale
 70
     0
300
1:4
140
1.0
141
4.0
290
     0
  0
SCALE
  5
245
102
{ACAD_REACTORS
330
241
102
}
330
241
100
AcDbScale
 70
     0
300
1:5
140
1.0
141
5.0
290
     0
  0
SCALE
  5
246
102
{ACAD_REACTORS
330
241
102
}
330
241
100
AcDbScale
 70
     0
300
1:8
140
1.0
141
8.0
290
     0
  0
SCALE
  5
247
102
{ACAD_REACTORS
330
241
102
}
330
241
100
AcDbScale
 70
     0
300
1:10
140
1.0
141
10.0
290
     0
  0
SCALE
  5
248
102
{ACAD_REACTORS
330
241
102
}
330
241
100
AcDbScale
 70
     0
300
1:16
140
1.0
141
16.0
290
     0
  0
SCALE
  5
249
102
{ACAD_REACTORS
330
241
102
}
330
241
100
AcDbScale
 70
     0
300
1:20
140
1.0
141
20.0
290
     0
  0
SCALE
  5
24A
102
{ACAD_REACTORS
330
241
102
}
330
241
100
AcDbScale
 70
     0
300
1:30
140
1.0
141
30.0
290
     0
  0
SCALE
  5
24B
102
{ACAD_REACTORS
330
241
102
}
330
241
100
AcDbScale
 70
     0
300
1:40
140
1.0
141
40.0
290
     0
  0
SCALE
  5
24C
102
{ACAD_REACTORS
330
241
102
}
330
241
100
AcDbScale
 70
     0
300
1:50
140
1.0
141
50.0
290
     0
  0
SCALE
  5
24D
102
{ACAD_REACTORS
330
241
102
}
330
241
100
AcDbScale
 70
     0
300
1:100
140
1.0
141
100.0
290
     0
  0
SCALE
  5
24E
102
{ACAD_REACTORS
330
241
102
}
330
241
100
AcDbScale
 70
     0
300
2:1
140
2.0
141
1.0
290
     0
  0
SCALE
  5
24F
102
{ACAD_REACTORS
330
241
102
}
330
241
100
AcDbScale
 70
     0
300
4:1
140
4.0
141
1.0
290
     0
  0
SCALE
  5
250
102
{ACAD_REACTORS
330
241
102
}
330
241
100
AcDbScale
 70
     0
300
8:1
140
8.0
141
1.0
290
     0
  0
SCALE
  5
251
102
{ACAD_REACTORS
330
241
102
}
330
241
100
AcDbScale
 70
     0
300
10:1
140
10.0
141
1.0
290
     0
  0
SCALE
  5
252
102
{ACAD_REACTORS
330
241
102
}
330
241
100
AcDbScale
 70
     0
300
100:1
140
100.0
141
1.0
290
     0
  0
SCALE
  5
253
102
{ACAD_REACTORS
330
241
102
}
330
241
100
AcDbScale
 70
     0
300
1/128" = 1'-0"
140
0.0078125
141
12.0
290
     0
  0
SCALE
  5
254
102
{ACAD_REACTORS
330
241
102
}
330
241
100
AcDbScale
 70
     0
300
1/64" = 1'-0"
140
0.015625
141
12.0
290
     0
  0
SCALE
  5
255
102
{ACAD_REACTORS
330
241
102
}
330
241
100
AcDbScale
 70
     0
300
1/32" = 1'-0"
140
0.03125
141
12.0
290
     0
  0
SCALE
  5
256
102
{ACAD_REACTORS
330
241
102
}
330
241
100
AcDbScale
 70
     0
300
1/16" = 1'-0"
140
0.0625
141
12.0
290
     0
  0
SCALE
  5
257
102
{ACAD_REACTORS
330
241
102
}
330
241
100
AcDbScale
 70
     0
300
3/32" = 1'-0"
140
0.09375
141
12.0
290
     0
  0
SCALE
  5
258
102
{ACAD_REACTORS
330
241
102
}
330
241
100
AcDbScale
 70
     0
300
1/8" = 1'-0"
140
0.125
141
12.0
290
     0
  0
SCALE
  5
259
102
{ACAD_REACTORS
330
241
102
}
330
241
100
AcDbScale
 70
     0
300
3/16" = 1'-0"
140
0.1875
141
12.0
290
     0
  0
SCALE
  5
25A
102
{ACAD_REACTORS
330
241
102
}
330
241
100
AcDbScale
 70
     0
300
1/4" = 1'-0"
140
0.25
141
12.0
290
     0
  0
SCALE
  5
25B
102
{ACAD_REACTORS
330
241
102
}
330
241
100
AcDbScale
 70
     0
300
3/8" = 1'-0"
140
0.375
141
12.0
290
     0
  0
SCALE
  5
25C
102
{ACAD_REACTORS
330
241
102
}
330
241
100
AcDbScale
 70
     0
300
1/2" = 1'-0"
140
0.5
141
12.0
290
     0
  0
SCALE
  5
25D
102
{ACAD_REACTORS
330
241
102
}
330
241
100
AcDbScale
 70
     0
300
3/4" = 1'-0"
140
0.75
141
12.0
290
     0
  0
SCALE
  5
25E
102
{ACAD_REACTORS
330
241
102
}
330
241
100
AcDbScale
 70
     0
300
1" = 1'-0"
140
1.0
141
12.0
290
     0
  0
SCALE
  5
25F
102
{ACAD_REACTORS
330
241
102
}
330
241
100
AcDbScale
 70
     0
300
1-1/2" = 1'-0"
140
1.5
141
12.0
290
     0
  0
SCALE
  5
260
102
{ACAD_REACTORS
330
241
102
}
330
241
100
AcDbScale
 70
     0
300
3" = 1'-0"
140
3.0
141
12.0
290
     0
  0
SCALE
  5
261
102
{ACAD_REACTORS
330
241
102
}
330
241
100
AcDbScale
 70
     0
300
6" = 1'-0"
140
6.0
141
12.0
290
     0
  0
SCALE
  5
262
102
{ACAD_REACTORS
330
241
102
}
330
241
100
AcDbScale
 70
     0
300
1'-0" = 1'-0"
140
12.0
141
12.0
290
     0
  0
TABLESTYLE
  5
279
102
{ACAD_REACTORS
330
278
102
}
102
{ACAD_XDICTIONARY
360
1D13
102
}
330
278
100
AcDbTableStyle
  3
Standard
 70
     0
 71
     0
 40
0.06
 41
0.06
280
     0
281
     0
  7
Standard
140
4.5
170
     2
 62
     0
 63
   257
283
     0
 90
        4
 91
        0
  1

274
    -2
284
     1
 64
     0
275
    -2
285
     1
 65
     0
276
    -2
286
     1
 66
     0
277
    -2
287
     1
 67
     0
278
    -2
288
     1
 68
     0
279
    -2
289
     1
 69
     0
  7
Standard
140
6.0
170
     5
 62
     0
 63
   257
283
     0
 90
        4
 91
        0
  1

274
    -2
284
     1
 64
     0
275
    -2
285
     1
 65
     0
276
    -2
286
     1
 66
     0
277
    -2
287
     1
 67
     0
278
    -2
288
     1
 68
     0
279
    -2
289
     1
 69
     0
  7
Standard
140
4.5
170
     5
 62
     0
 63
   257
283
     0
 90
        4
 91
        0
  1

274
    -2
284
     1
 64
     0
275
    -2
285
     1
 65
     0
276
    -2
286
     1
 66
     0
277
    -2
287
     1
 67
     0
278
    -2
288
     1
 68
     0
279
    -2
289
     1
 69
     0
  0
VISUALSTYLE
  5
26C
102
{ACAD_REACTORS
330
267
102
}
330
267
100
AcDbVisualStyle
  2
2dWireframe
 70
     4
 71
     0
 72
     2
 73
     0
 90
        0
 40
-0.6
 41
-30.0
 62
     5
 63
     7
421
 16777215
 74
     1
 91
        4
 64
     7
 65
   257
 75
     1
175
     1
 42
1.0
 92
        0
 66
   257
 43
1.0
 76
     1
 77
     6
 78
     2
 67
     7
 79
     5
170
     0
171
     0
290
     0
174
     0
 93
        1
 44
0.0
173
     0
291
     0
 45
0.0
  0
VISUALSTYLE
  5
26E
102
{ACAD_REACTORS
330
267
102
}
330
267
100
AcDbVisualStyle
  2
3D Hidden
 70
     6
 71
     1
 72
     2
 73
     2
 90
        0
 40
-0.6
 41
-30.0
 62
     5
 63
     7
421
 16777215
 74
     2
 91
        2
 64
     7
 65
   257
 75
     2
175
     1
 42
40.0
 92
        0
 66
   257
 43
1.0
 76
     1
 77
     6
 78
     2
 67
     7
 79
     3
170
     0
171
     0
290
     0
174
     0
 93
        1
 44
0.0
173
     0
291
     0
 45
0.0
  0
VISUALSTYLE
  5
26D
102
{ACAD_REACTORS
330
267
102
}
330
267
100
AcDbVisualStyle
  2
3dWireframe
 70
     5
 71
     0
 72
     2
 73
     0
 90
        0
 40
-0.6
 41
-30.0
 62
     5
 63
     7
421
 16777215
 74
     1
 91
        4
 64
     7
 65
   257
 75
     1
175
     1
 42
1.0
 92
        0
 66
   257
 43
1.0
 76
     1
 77
     6
 78
     2
 67
     7
 79
     5
170
     0
171
     0
290
     0
174
     0
 93
        1
 44
0.0
173
     0
291
     0
 45
0.0
  0
VISUALSTYLE
  5
26F
102
{ACAD_REACTORS
330
267
102
}
330
267
100
AcDbVisualStyle
  2
Basic
 70
     7
 71
     1
 72
     0
 73
     1
 90
        0
 40
-0.6
 41
-30.0
 62
     5
 63
     7
421
 16777215
 74
     0
 91
        4
 64
     7
 65
   257
 75
     1
175
     1
 42
1.0
 92
        8
 66
     7
 43
1.0
 76
     1
 77
     6
 78
     2
 67
     7
 79
     5
170
     0
171
     0
290
     0
174
     0
 93
        1
 44
0.0
173
     0
291
     1
 45
0.0
  0
VISUALSTYLE
  5
273
102
{ACAD_REACTORS
330
267
102
}
330
267
100
AcDbVisualStyle
  2
Brighten
 70
    12
 71
     2
 72
     2
 73
     0
 90
        0
 40
-0.6
 41
-30.0
 62
     5
 63
     7
421
 16777215
 74
     1
 91
        4
 64
     7
 65
   257
 75
     1
175
     1
 42
1.0
 92
        8
 66
     7
 43
1.0
 76
     1
 77
     6
 78
     2
 67
     7
 79
     5
170
     0
171
     0
290
     0
174
     0
 93
        1
 44
50.0
173
     0
291
     1
 45
0.0
  0
VISUALSTYLE
  5
277
102
{ACAD_REACTORS
330
267
102
}
330
267
100
AcDbVisualStyle
  2
ColorChange
 70
    16
 71
     2
 72
     2
 73
     3
 90
        0
 40
-0.6
 41
-30.0
 62
     5
 63
     8
421
  8421504
 74
     1
 91
        4
 64
     7
 65
   257
 75
     1
175
     1
 42
1.0
 92
        8
 66
     8
424
  8421504
 43
1.0
 76
     1
 77
     6
 78
     2
 67
     7
 79
     5
170
     0
171
     0
290
     0
174
     0
 93
        1
 44
0.0
173
     0
291
     1
 45
0.0
  0
VISUALSTYLE
  5
271
102
{ACAD_REACTORS
330
267
102
}
330
267
100
AcDbVisualStyle
  2
Conceptual
 70
     9
 71
     3
 72
     2
 73
     0
 90
        0
 40
-0.6
 41
-30.0
 62
     5
 63
     7
421
 16777215
 74
     2
 91
        2
 64
     7
 65
   257
 75
     1
175
     1
 42
40.0
 92
        8
 66
     7
 43
1.0
 76
     1
 77
     6
 78
     2
 67
     7
 79
     3
170
     0
171
     0
290
     0
174
     0
 93
        1
 44
0.0
173
     0
291
     0
 45
0.0
  0
VISUALSTYLE
  5
272
102
{ACAD_REACTORS
330
267
102
}
330
267
100
AcDbVisualStyle
  2
Dim
 70
    11
 71
     2
 72
     2
 73
     0
 90
        0
 40
-0.6
 41
-30.0
 62
     5
 63
     7
421
 16777215
 74
     1
 91
        4
 64
     7
 65
   257
 75
     1
175
     1
 42
1.0
 92
        8
 66
     7
 43
1.0
 76
     1
 77
     6
 78
     2
 67
     7
 79
     5
170
     0
171
     0
290
     0
174
     0
 93
        1
 44
-50.0
173
     0
291
     1
 45
0.0
  0
VISUALSTYLE
  5
8FE
102
{ACAD_REACTORS
330
267
102
}
330
267
100
AcDbVisualStyle
  2
EdgeColorOff
 70
    22
 71
     2
 72
     2
 73
     0
 90
        0
 40
0.6
 41
30.0
 62
     5
 63
     7
421
 16777215
 74
     1
 91
        4
 64
     7
 65
   257
 75
     1
175
     1
 42
1.0
 92
        8
 66
     7
 43
1.0
 76
     1
 77
     6
 78
     2
 67
     7
 79
     5
170
     0
171
     0
290
     0
174
     0
 93
        1
 44
0.0
173
     0
291
     1
 45
0.0
  0
VISUALSTYLE
  5
276
102
{ACAD_REACTORS
330
267
102
}
330
267
100
AcDbVisualStyle
  2
Facepattern
 70
    15
 71
     2
 72
     2
 73
     0
 90
        0
 40
-0.6
 41
-30.0
 62
     5
 63
     7
421
 16777215
 74
     1
 91
        4
 64
     7
 65
   257
 75
     1
175
     1
 42
1.0
 92
        8
 66
     7
 43
1.0
 76
     1
 77
     6
 78
     2
 67
     7
 79
     5
170
     0
171
     0
290
     0
174
     0
 93
        1
 44
0.0
173
     0
291
     1
 45
0.0
  0
VISUALSTYLE
  5
268
102
{ACAD_REACTORS
330
267
102
}
330
267
100
AcDbVisualStyle
  2
Flat
 70
     0
 71
     2
 72
     1
 73
     1
 90
        2
 40
-0.6
 41
30.0
 62
     5
 63
     7
421
 16777215
 74
     0
 91
        4
 64
     7
 65
   257
 75
     1
175
     1
 42
1.0
 92
        8
 66
     7
 43
1.0
 76
     1
 77
     6
 78
     2
 67
     7
 79
     5
170
     0
171
     0
290
     0
174
     0
 93
       13
 44
0.0
173
     0
291
     1
 45
0.0
  0
VISUALSTYLE
  5
269
102
{ACAD_REACTORS
330
267
102
}
330
267
100
AcDbVisualStyle
  2
FlatWithEdges
 70
     1
 71
     2
 72
     1
 73
     1
 90
        2
 40
-0.6
 41
30.0
 62
     5
 63
     7
421
 16777215
 74
     1
 91
        4
 64
     7
 65
   257
 75
     1
175
     1
 42
1.0
 92
        0
 66
   257
 43
1.0
 76
     1
 77
     6
 78
     2
 67
     7
 79
     5
170
     0
171
     0
290
     0
174
     0
 93
       13
 44
0.0
173
     0
291
     1
 45
0.0
  0
VISUALSTYLE
  5
26A
102
{ACAD_REACTORS
330
267
102
}
330
267
100
AcDbVisualStyle
  2
Gouraud
 70
     2
 71
     2
 72
     2
 73
     1
 90
        2
 40
-0.6
 41
30.0
 62
     5
 63
     7
421
 16777215
 74
     0
 91
        4
 64
     7
 65
   257
 75
     1
175
     1
 42
1.0
 92
        0
 66
     7
 43
1.0
 76
     1
 77
     6
 78
     2
 67
     7
 79
     5
170
     0
171
     0
290
     0
174
     0
 93
       13
 44
0.0
173
     0
291
     1
 45
0.0
  0
VISUALSTYLE
  5
26B
102
{ACAD_REACTORS
330
267
102
}
330
267
100
AcDbVisualStyle
  2
GouraudWithEdges
 70
     3
 71
     2
 72
     2
 73
     1
 90
        2
 40
-0.6
 41
30.0
 62
     5
 63
     7
421
 16777215
 74
     1
 91
        4
 64
     7
 65
   257
 75
     1
175
     1
 42
1.0
 92
        0
 66
   257
 43
1.0
 76
     1
 77
     6
 78
     2
 67
     7
 79
     5
170
     0
171
     0
290
     0
174
     0
 93
       13
 44
0.0
173
     0
291
     1
 45
0.0
  0
VISUALSTYLE
  5
8FB
102
{ACAD_REACTORS
330
267
102
}
330
267
100
AcDbVisualStyle
  2
Hidden
 70
     6
 71
     1
 72
     2
 73
     2
 90
        0
 40
0.6
 41
30.0
 62
     5
 63
     7
421
 16777215
 74
     2
 91
        2
 64
     7
 65
   257
 75
     2
175
     1
 42
40.0
 92
        0
 66
   257
 43
1.0
 76
     1
 77
     6
 78
     2
 67
     7
 79
     3
170
     0
171
     0
290
     0
174
     0
 93
        1
 44
0.0
173
     0
291
     0
 45
0.0
  0
VISUALSTYLE
  5
8FC
102
{ACAD_REACTORS
330
267
102
}
330
267
100
AcDbVisualStyle
  2
JitterOff
 70
    20
 71
     2
 72
     2
 73
     0
 90
        0
 40
0.6
 41
30.0
 62
     5
 63
     7
421
 16777215
 74
     1
 91
        4
 64
     7
 65
   257
 75
     1
175
     1
 42
1.0
 92
       10
 66
     7
 43
1.0
 76
     1
 77
     6
 78
     2
 67
     7
 79
     5
170
     0
171
     0
290
     0
174
     0
 93
        1
 44
0.0
173
     0
291
     1
 45
0.0
  0
VISUALSTYLE
  5
275
102
{ACAD_REACTORS
330
267
102
}
330
267
100
AcDbVisualStyle
  2
Linepattern
 70
    14
 71
     2
 72
     2
 73
     0
 90
        0
 40
-0.6
 41
-30.0
 62
     5
 63
     7
421
 16777215
 74
     1
 91
        4
 64
     7
 65
   257
 75
     7
175
     7
 42
1.0
 92
        8
 66
     7
 43
1.0
 76
     1
 77
     6
 78
     2
 67
     7
 79
     5
170
     0
171
     0
290
     0
174
     0
 93
        1
 44
0.0
173
     0
291
     1
 45
0.0
  0
VISUALSTYLE
  5
8FD
102
{ACAD_REACTORS
330
267
102
}
330
267
100
AcDbVisualStyle
  2
OverhangOff
 70
    21
 71
     2
 72
     2
 73
     0
 90
        0
 40
0.6
 41
30.0
 62
     5
 63
     7
421
 16777215
 74
     1
 91
        4
 64
     7
 65
   257
 75
     1
175
     1
 42
1.0
 92
        9
 66
     7
 43
1.0
 76
     1
 77
     6
 78
     2
 67
     7
 79
     5
170
     0
171
     0
290
     0
174
     0
 93
        1
 44
0.0
173
     0
291
     1
 45
0.0
  0
VISUALSTYLE
  5
270
102
{ACAD_REACTORS
330
267
102
}
330
267
100
AcDbVisualStyle
  2
Realistic
 70
     8
 71
     2
 72
     2
 73
     0
 90
        0
 40
-0.6
 41
-30.0
 62
     5
 63
     7
421
 16777215
 74
     1
 91
        0
 64
     7
 65
   257
 75
     1
175
     1
 42
1.0
 92
        8
 66
     8
424
  7895160
 43
1.0
 76
     1
 77
     6
 78
     2
 67
     7
 79
     5
170
     0
171
     0
290
     0
174
     0
 93
       13
 44
0.0
173
     0
291
     0
 45
0.0
  0
VISUALSTYLE
  5
903
102
{ACAD_REACTORS
330
267
102
}
330
267
100
AcDbVisualStyle
  2
Shaded
 70
    27
 71
     2
 72
     2
 73
     1
 90
        2
 40
0.6
 41
30.0
 62
     5
 63
     7
421
 16777215
 74
     0
 91
        4
 64
     7
 65
   257
 75
     1
175
     1
 42
1.0
 92
        8
 66
   257
 43
1.0
 76
     1
 77
     6
 78
     2
 67
     8
425
  7895160
 79
     3
170
     0
171
     0
290
     0
174
     0
 93
        5
 44
0.0
173
     0
291
     0
 45
0.0
  0
VISUALSTYLE
  5
902
102
{ACAD_REACTORS
330
267
102
}
330
267
100
AcDbVisualStyle
  2
Shaded with edges
 70
    26
 71
     2
 72
     2
 73
     1
 90
        2
 40
0.6
 41
30.0
 62
     5
 63
     7
421
 16777215
 74
     1
 91
       10
 64
     7
 65
   257
 75
     2
175
     1
 42
1.0
 92
        8
 66
   257
 43
1.0
 76
     1
 77
     6
 78
     2
 67
     7
 79
     3
170
     0
171
     0
290
     0
174
     0
 93
        5
 44
0.0
173
     0
291
     0
 45
0.0
  0
VISUALSTYLE
  5
8FF
102
{ACAD_REACTORS
330
267
102
}
330
267
100
AcDbVisualStyle
  2
Shades of Gray
 70
    23
 71
     2
 72
     2
 73
     3
 90
        0
 40
0.6
 41
30.0
 62
     5
 63
     7
421
 16777215
 74
     2
 91
        2
 64
     7
 65
     7
 75
     1
175
     1
 42
40.0
 92
        8
 66
     7
 43
1.0
 76
     1
 77
     6
 78
     2
 67
     7
 79
     3
170
     0
171
     0
290
     0
174
     0
 93
        1
 44
0.0
173
     0
291
     0
 45
0.0
  0
VISUALSTYLE
  5
900
102
{ACAD_REACTORS
330
267
102
}
330
267
100
AcDbVisualStyle
  2
Sketchy
 70
    24
 71
     1
 72
     2
 73
     2
 90
        0
 40
0.6
 41
30.0
 62
     5
 63
     7
421
 16777215
 74
     2
 91
        2
 64
     7
 65
     7
 75
     1
175
     1
 42
40.0
 92
       11
 66
     7
 43
1.0
 76
     1
 77
     6
 78
     2
 67
     7
 79
     6
170
     0
171
     0
290
     0
174
     0
 93
        1
 44
0.0
173
     0
291
     0
 45
0.0
  0
VISUALSTYLE
  5
274
102
{ACAD_REACTORS
330
267
102
}
330
267
100
AcDbVisualStyle
  2
Thicken
 70
    13
 71
     2
 72
     2
 73
     0
 90
        0
 40
-0.6
 41
-30.0
 62
     5
 63
     7
421
 16777215
 74
     1
 91
        4
 64
     7
 65
   257
 75
     1
175
     1
 42
1.0
 92
       12
 66
     7
 43
1.0
 76
     1
 77
     6
 78
     2
 67
     7
 79
     5
170
     0
171
     0
290
     0
174
     0
 93
        1
 44
0.0
173
     0
291
     1
 45
0.0
  0
VISUALSTYLE
  5
8FA
102
{ACAD_REACTORS
330
267
102
}
330
267
100
AcDbVisualStyle
  2
Wireframe
 70
     5
 71
     0
 72
     2
 73
     0
 90
        0
 40
0.6
 41
30.0
 62
     5
 63
     7
421
 16777215
 74
     1
 91
        4
 64
     7
 65
   257
 75
     1
175
     1
 42
1.0
 92
        0
 66
   257
 43
1.0
 76
     1
 77
     6
 78
     2
 67
     7
 79
     3
170
     0
171
     0
290
     0
174
     0
 93
        1
 44
0.0
173
     0
291
     0
 45
0.0
  0
VISUALSTYLE
  5
901
102
{ACAD_REACTORS
330
267
102
}
330
267
100
AcDbVisualStyle
  2
X-Ray
 70
    25
 71
     2
 72
     2
 73
     1
 90
        1
 40
0.5
 41
30.0
 62
     5
 63
     7
421
 16777215
 74
     1
 91
        0
 64
     7
 65
   257
 75
     1
175
     1
 42
1.0
 92
        8
 66
     7
 43
1.0
 76
     1
 77
     6
 78
     2
 67
     7
 79
     3
170
     0
171
     0
290
     0
174
     0
 93
       13
 44
0.0
173
     0
291
     0
 45
0.0
  0
DICTIONARYVAR
  5
331
102
{ACAD_REACTORS
330
330
102
}
330
330
100
DictionaryVariables
280
     0
  1
1:1
  0
DICTIONARYVAR
  5
D5E
102
{ACAD_REACTORS
330
330
102
}
330
330
100
DictionaryVariables
280
     0
  1
Standard
  0
DICTIONARYVAR
  5
335
102
{ACAD_REACTORS
330
330
102
}
330
330
100
DictionaryVariables
280
     0
  1
Standard
  0
DICTIONARYVAR
  5
D52
102
{ACAD_REACTORS
330
330
102
}
330
330
100
DictionaryVariables
280
     0
  1
ByLayer
  0
DICTIONARYVAR
  5
896
102
{ACAD_REACTORS
330
330
102
}
330
330
100
DictionaryVariables
280
     0
  1
0
  0
DICTIONARYVAR
  5
17BD
102
{ACAD_REACTORS
330
E38
102
}
330
E38
100
DictionaryVariables
280
     0
  1
0.261799
  0
DICTIONARYVAR
  5
17BB
102
{ACAD_REACTORS
330
E38
102
}
330
E38
100
DictionaryVariables
280
     0
  1
0.400000
  0
DICTIONARYVAR
  5
17BC
102
{ACAD_REACTORS
330
E38
102
}
330
E38
100
DictionaryVariables
280
     0
  1
0.250000
  0
DICTIONARYVAR
  5
17BE
102
{ACAD_REACTORS
330
E38
102
}
330
E38
100
DictionaryVariables
280
     0
  1
1
  0
FIELD
  5
1845
102
{ACAD_REACTORS
330
184A
102
}
330
184A
100
AcDbField
  1
_text
  2
{%<\_FldIdx 0>%N}
 90
        1
360
1849
 97
        0
 91
       63
 92
        0
 94
        8
 95
        2
 96
        0
300

 93
        1
  6
ACFD_FIELDTEXT_CHECKSUM
 93
        2
 90
        2
140
4466.0
 94
        0
300

302

304
ACVALUE_END
  7
ACFD_FIELD_VALUE
 93
        6
 90
        4
  1
{20161202N}
 94
        0
300

302

304
ACVALUE_END
301
{20161202N}
 98
       11
  0
DICTIONARY
  5
1D13
330
279
100
AcDbDictionary
280
     1
281
     1
  3
ACAD_ROUNDTRIP_2008_TABLESTYLE_CELLSTYLEMAP
360
1D14
  0
FIELD
  5
1849
330
1845
100
AcDbField
  1
AcVar
  2
\AcVar Date \f "yyyyMMdd"
 90
        0
 97
        0
 91
       63
 92
        0
 94
        8
 95
       64
 96
        0
300
Variable not supported
 93
        1
  6
Variable
 93
        2
 90
        4
  1
Date
 94
        0
300

302

304
ACVALUE_END
  7
ACFD_FIELD_VALUE
 93
        6
 90
        8
 92
       16
310
E0070C0000000200070006001F000000
 94
        0
300
yyyyMMdd
302

304
ACVALUE_END
301
20161202
 98
        8
  0
CELLSTYLEMAP
  5
1D14
102
{ACAD_REACTORS
330
1D13
102
}
330
1D13
100
AcDbCellStyleMap
 90
        3
300
CELLSTYLE
  1
TABLEFORMAT_BEGIN
 90
        5
170
     1
 91
        0
 92
    32768
 62
   257
 93
        1
300
CONTENTFORMAT
  1
CONTENTFORMAT_BEGIN
 90
        0
 91
        0
 92
        4
 93
        0
300

 40
0.0
140
1.0
 94
        5
 62
     0
340
17
144
6.0
309
CONTENTFORMAT_END
171
     1
301
MARGIN
  1
CELLMARGIN_BEGIN
 40
0.06
 40
0.06
 40
0.06
 40
0.06
 40
0.18
 40
0.18
309
CELLMARGIN_END
 94
        6
 95
        1
302
GRIDFORMAT
  1
GRIDFORMAT_BEGIN
 90
        0
 91
        1
 62
     0
 92
       -2
340
0
 93
        0
 40
0.045
309
GRIDFORMAT_END
 95
        2
302
GRIDFORMAT
  1
GRIDFORMAT_BEGIN
 90
        0
 91
        1
 62
     0
 92
       -2
340
0
 93
        0
 40
0.045
309
GRIDFORMAT_END
 95
        4
302
GRIDFORMAT
  1
GRIDFORMAT_BEGIN
 90
        0
 91
        1
 62
     0
 92
       -2
340
0
 93
        0
 40
0.045
309
GRIDFORMAT_END
 95
        8
302
GRIDFORMAT
  1
GRIDFORMAT_BEGIN
 90
        0
 91
        1
 62
     0
 92
       -2
340
0
 93
        0
 40
0.045
309
GRIDFORMAT_END
 95
       16
302
GRIDFORMAT
  1
GRIDFORMAT_BEGIN
 90
        0
 91
        1
 62
     0
 92
       -2
340
0
 93
        0
 40
0.045
309
GRIDFORMAT_END
 95
       32
302
GRIDFORMAT
  1
GRIDFORMAT_BEGIN
 90
        0
 91
        1
 62
     0
 92
       -2
340
0
 93
        0
 40
0.045
309
GRIDFORMAT_END
309
TABLEFORMAT_END
  1
CELLSTYLE_BEGIN
 90
        1
 91
        1
300
_TITLE
309
CELLSTYLE_END
300
CELLSTYLE
  1
TABLEFORMAT_BEGIN
 90
        5
170
     1
 91
        0
 92
        0
 62
   257
 93
        1
300
CONTENTFORMAT
  1
CONTENTFORMAT_BEGIN
 90
        0
 91
        0
 92
        4
 93
        0
300

 40
0.0
140
1.0
 94
        5
 62
     0
340
17
144
4.5
309
CONTENTFORMAT_END
171
     1
301
MARGIN
  1
CELLMARGIN_BEGIN
 40
0.06
 40
0.06
 40
0.06
 40
0.06
 40
0.18
 40
0.18
309
CELLMARGIN_END
 94
        6
 95
        1
302
GRIDFORMAT
  1
GRIDFORMAT_BEGIN
 90
        0
 91
        1
 62
     0
 92
       -2
340
0
 93
        0
 40
0.045
309
GRIDFORMAT_END
 95
        2
302
GRIDFORMAT
  1
GRIDFORMAT_BEGIN
 90
        0
 91
        1
 62
     0
 92
       -2
340
0
 93
        0
 40
0.045
309
GRIDFORMAT_END
 95
        4
302
GRIDFORMAT
  1
GRIDFORMAT_BEGIN
 90
        0
 91
        1
 62
     0
 92
       -2
340
0
 93
        0
 40
0.045
309
GRIDFORMAT_END
 95
        8
302
GRIDFORMAT
  1
GRIDFORMAT_BEGIN
 90
        0
 91
        1
 62
     0
 92
       -2
340
0
 93
        0
 40
0.045
309
GRIDFORMAT_END
 95
       16
302
GRIDFORMAT
  1
GRIDFORMAT_BEGIN
 90
        0
 91
        1
 62
     0
 92
       -2
340
0
 93
        0
 40
0.045
309
GRIDFORMAT_END
 95
       32
302
GRIDFORMAT
  1
GRIDFORMAT_BEGIN
 90
        0
 91
        1
 62
     0
 92
       -2
340
0
 93
        0
 40
0.045
309
GRIDFORMAT_END
309
TABLEFORMAT_END
  1
CELLSTYLE_BEGIN
 90
        2
 91
        1
300
_HEADER
309
CELLSTYLE_END
300
CELLSTYLE
  1
TABLEFORMAT_BEGIN
 90
        5
170
     1
 91
        0
 92
        0
 62
   257
 93
        1
300
CONTENTFORMAT
  1
CONTENTFORMAT_BEGIN
 90
        0
 91
        0
 92
        4
 93
        0
300

 40
0.0
140
1.0
 94
        2
 62
     0
340
17
144
4.5
309
CONTENTFORMAT_END
171
     1
301
MARGIN
  1
CELLMARGIN_BEGIN
 40
0.06
 40
0.06
 40
0.06
 40
0.06
 40
0.18
 40
0.18
309
CELLMARGIN_END
 94
        6
 95
        1
302
GRIDFORMAT
  1
GRIDFORMAT_BEGIN
 90
        0
 91
        1
 62
     0
 92
       -2
340
0
 93
        0
 40
0.045
309
GRIDFORMAT_END
 95
        2
302
GRIDFORMAT
  1
GRIDFORMAT_BEGIN
 90
        0
 91
        1
 62
     0
 92
       -2
340
0
 93
        0
 40
0.045
309
GRIDFORMAT_END
 95
        4
302
GRIDFORMAT
  1
GRIDFORMAT_BEGIN
 90
        0
 91
        1
 62
     0
 92
       -2
340
0
 93
        0
 40
0.045
309
GRIDFORMAT_END
 95
        8
302
GRIDFORMAT
  1
GRIDFORMAT_BEGIN
 90
        0
 91
        1
 62
     0
 92
       -2
340
0
 93
        0
 40
0.045
309
GRIDFORMAT_END
 95
       16
302
GRIDFORMAT
  1
GRIDFORMAT_BEGIN
 90
        0
 91
        1
 62
     0
 92
       -2
340
0
 93
        0
 40
0.045
309
GRIDFORMAT_END
 95
       32
302
GRIDFORMAT
  1
GRIDFORMAT_BEGIN
 90
        0
 91
        1
 62
     0
 92
       -2
340
0
 93
        0
 40
0.045
309
GRIDFORMAT_END
309
TABLEFORMAT_END
  1
CELLSTYLE_BEGIN
 90
        3
 91
        2
300
_DATA
309
CELLSTYLE_END
  0
ENDSEC
  0
EOF
