  0
SECTION
  2
HEADER
  9
$ACADVER
  1
AC1021
  9
$ACADMAINTVER
 70
    25
  9
$DWGCODEPAGE
  3
ANSI_932
  9
$LASTSAVEDBY
  1
howeNelson
  9
$INSBASE
 10
0.0
 20
0.0
 30
0.0
  9
$EXTMIN
 10
0.0
 20
0.0
 30
0.0
  9
$EXTMAX
 10
630.0
 20
891.0
 30
0.0
  9
$LIMMIN
 10
0.0
 20
0.0
  9
$LIMMAX
 10
630.0
 20
891.0
  9
$ORTHOMODE
 70
     0
  9
$REGENMODE
 70
     1
  9
$FILLMODE
 70
     1
  9
$QTEXTMODE
 70
     0
  9
$MIRRTEXT
 70
     1
  9
$LTSCALE
 40
2.5
  9
$ATTMODE
 70
     1
  9
$TEXTSIZE
 40
2.5
  9
$TRACEWID
 40
1.0
  9
$TEXTSTYLE
  7
ＭＳ ゴシック
  9
$CLAYER
  8
DIM
  9
$CELTYPE
  6
ByLayer
  9
$CECOLOR
 62
   256
  9
$CELTSCALE
 40
1.0
  9
$DISPSILH
 70
     0
  9
$DIMSCALE
 40
1.0
  9
$DIMASZ
 40
3.0
  9
$DIMEXO
 40
10.0
  9
$DIMDLI
 40
0.0
  9
$DIMRND
 40
0.0
  9
$DIMDLE
 40
0.0
  9
$DIMEXE
 40
0.0
  9
$DIMTP
 40
0.0
  9
$DIMTM
 40
0.0
  9
$DIMTXT
 40
7.0
  9
$DIMCEN
 40
0.0
  9
$DIMTSZ
 40
0.0
  9
$DIMTOL
 70
     0
  9
$DIMLIM
 70
     0
  9
$DIMTIH
 70
     0
  9
$DIMTOH
 70
     0
  9
$DIMSE1
 70
     0
  9
$DIMSE2
 70
     0
  9
$DIMTAD
 70
     1
  9
$DIMZIN
 70
    11
  9
$DIMBLK
  1
DOT
  9
$DIMASO
 70
     1
  9
$DIMSHO
 70
     1
  9
$DIMPOST
  1
<>
  9
$DIMAPOST
  1
[]
  9
$DIMALT
 70
     0
  9
$DIMALTD
 70
     1
  9
$DIMALTF
 40
1.0
  9
$DIMLFAC
 40
1.0
  9
$DIMTOFL
 70
     0
  9
$DIMTVP
 40
0.0
  9
$DIMTIX
 70
     1
  9
$DIMSOXD
 70
     0
  9
$DIMSAH
 70
     0
  9
$DIMBLK1
  1

  9
$DIMBLK2
  1

  9
$DIMSTYLE
  2
tfrom線あり
  9
$DIMCLRD
 70
     0
  9
$DIMCLRE
 70
     0
  9
$DIMCLRT
 70
     0
  9
$DIMTFAC
 40
1.0
  9
$DIMGAP
 40
4.0
  9
$DIMJUST
 70
     0
  9
$DIMSD1
 70
     0
  9
$DIMSD2
 70
     0
  9
$DIMTOLJ
 70
     1
  9
$DIMTZIN
 70
    11
  9
$DIMALTZ
 70
    11
  9
$DIMALTTZ
 70
    11
  9
$DIMUPT
 70
     0
  9
$DIMDEC
 70
     0
  9
$DIMTDEC
 70
     1
  9
$DIMALTU
 70
     2
  9
$DIMALTTD
 70
     2
  9
$DIMTXSTY
  7
ＭＳ ゴシック
  9
$DIMAUNIT
 70
     0
  9
$DIMADEC
 70
     2
  9
$DIMALTRND
 40
0.0
  9
$DIMAZIN
 70
     0
  9
$DIMDSEP
 70
    46
  9
$DIMATFIT
 70
     0
  9
$DIMFRAC
 70
     2
  9
$DIMLDRBLK
  1
DOT
  9
$DIMLUNIT
 70
     2
  9
$DIMLWD
 70
    -2
  9
$DIMLWE
 70
    -2
  9
$DIMTMOVE
 70
     0
  9
$DIMFXL
 40
1.0
  9
$DIMFXLON
 70
     0
  9
$DIMJOGANG
 40
0.7853981633974483
  9
$DIMTFILL
 70
     0
  9
$DIMTFILLCLR
 70
     0
  9
$DIMARCSYM
 70
     0
  9
$DIMLTYPE
  6

  9
$DIMLTEX1
  6

  9
$DIMLTEX2
  6

  9
$LUNITS
 70
     2
  9
$LUPREC
 70
     0
  9
$SKETCHINC
 40
0.1
  9
$FILLETRAD
 40
0.0
  9
$AUNITS
 70
     0
  9
$AUPREC
 70
     0
  9
$MENU
  1
acad
  9
$ELEVATION
 40
0.0
  9
$PELEVATION
 40
0.0
  9
$THICKNESS
 40
0.0
  9
$LIMCHECK
 70
     0
  9
$CHAMFERA
 40
0.0
  9
$CHAMFERB
 40
0.0
  9
$CHAMFERC
 40
0.0
  9
$CHAMFERD
 40
0.0
  9
$SKPOLY
 70
     0
  9
$TDCREATE
 40
2447893.375
  9
$TDUCREATE
 40
0.0
  9
$TDUPDATE
 40
2457989.66511287
  9
$TDUUPDATE
 40
2457989.29011287
  9
$TDINDWG
 40
0.0
  9
$TDUSRTIMER
 40
0.0
  9
$USRTIMER
 70
     1
  9
$ANGBASE
 50
0.0
  9
$ANGDIR
 70
     0
  9
$PDMODE
 70
     1
  9
$PDSIZE
 40
-2.0
  9
$PLINEWID
 40
0.0
  9
$SPLFRAME
 70
     0
  9
$SPLINETYPE
 70
     6
  9
$SPLINESEGS
 70
     8
  9
$HANDSEED
  5
22F1
  9
$SURFTAB1
 70
     6
  9
$SURFTAB2
 70
     6
  9
$SURFTYPE
 70
     6
  9
$SURFU
 70
     6
  9
$SURFV
 70
     6
  9
$UCSBASE
  2

  9
$UCSNAME
  2

  9
$UCSORG
 10
0.0
 20
0.0
 30
0.0
  9
$UCSXDIR
 10
1.0
 20
0.0
 30
0.0
  9
$UCSYDIR
 10
0.0
 20
1.0
 30
0.0
  9
$UCSORTHOREF
  2

  9
$UCSORTHOVIEW
 70
     0
  9
$UCSORGTOP
 10
0.0
 20
0.0
 30
0.0
  9
$UCSORGBOTTOM
 10
0.0
 20
0.0
 30
0.0
  9
$UCSORGLEFT
 10
0.0
 20
0.0
 30
0.0
  9
$UCSORGRIGHT
 10
0.0
 20
0.0
 30
0.0
  9
$UCSORGFRONT
 10
0.0
 20
0.0
 30
0.0
  9
$UCSORGBACK
 10
0.0
 20
0.0
 30
0.0
  9
$PUCSBASE
  2

  9
$PUCSNAME
  2

  9
$PUCSORG
 10
0.0
 20
0.0
 30
0.0
  9
$PUCSXDIR
 10
1.0
 20
0.0
 30
0.0
  9
$PUCSYDIR
 10
0.0
 20
1.0
 30
0.0
  9
$PUCSORTHOREF
  2

  9
$PUCSORTHOVIEW
 70
     0
  9
$PUCSORGTOP
 10
0.0
 20
0.0
 30
0.0
  9
$PUCSORGBOTTOM
 10
0.0
 20
0.0
 30
0.0
  9
$PUCSORGLEFT
 10
0.0
 20
0.0
 30
0.0
  9
$PUCSORGRIGHT
 10
0.0
 20
0.0
 30
0.0
  9
$PUCSORGFRONT
 10
0.0
 20
0.0
 30
0.0
  9
$PUCSORGBACK
 10
0.0
 20
0.0
 30
0.0
  9
$USERI1
 70
     0
  9
$USERI2
 70
     0
  9
$USERI3
 70
     0
  9
$USERI4
 70
     0
  9
$USERI5
 70
     0
  9
$USERR1
 40
0.0
  9
$USERR2
 40
0.0
  9
$USERR3
 40
0.0
  9
$USERR4
 40
0.0
  9
$USERR5
 40
0.0
  9
$WORLDVIEW
 70
     1
  9
$SHADEDGE
 70
     3
  9
$SHADEDIF
 70
    70
  9
$TILEMODE
 70
     1
  9
$MAXACTVP
 70
    64
  9
$PINSBASE
 10
0.0
 20
0.0
 30
0.0
  9
$PLIMCHECK
 70
     0
  9
$PEXTMIN
 10
0.0
 20
0.0
 30
0.0
  9
$PEXTMAX
 10
0.0
 20
0.0
 30
0.0
  9
$PLIMMIN
 10
-7.5
 20
-20.0
  9
$PLIMMAX
 10
412.5
 20
277.0
  9
$UNITMODE
 70
     0
  9
$VISRETAIN
 70
     0
  9
$PLINEGEN
 70
     1
  9
$PSLTSCALE
 70
     0
  9
$TREEDEPTH
 70
  3020
  9
$CMLSTYLE
  2
Standard
  9
$CMLJUST
 70
     0
  9
$CMLSCALE
 40
1.0
  9
$PROXYGRAPHICS
 70
     0
  9
$MEASUREMENT
 70
     1
  9
$CELWEIGHT
370
    -1
  9
$ENDCAPS
280
     0
  9
$JOINSTYLE
280
     0
  9
$LWDISPLAY
290
     1
  9
$INSUNITS
 70
     4
  9
$HYPERLINKBASE
  1

  9
$STYLESHEET
  1

  9
$XEDIT
290
     1
  9
$CEPSNTYPE
380
     0
  9
$PSTYLEMODE
290
     1
  9
$FINGERPRINTGUID
  2

  9
$VERSIONGUID
  2

  9
$EXTNAMES
290
     1
  9
$PSVPSCALE
 40
0.0
  9
$OLESTARTUP
290
     0
  9
$SORTENTS
280
   127
  9
$INDEXCTL
280
     0
  9
$HIDETEXT
280
     1
  9
$XCLIPFRAME
290
     0
  9
$HALOGAP
280
     0
  9
$OBSCOLOR
 70
   257
  9
$OBSLTYPE
280
     0
  9
$INTERSECTIONDISPLAY
280
     0
  9
$INTERSECTIONCOLOR
 70
   257
  9
$DIMASSOC
280
     2
  9
$PROJECTNAME
  1

  9
$CAMERADISPLAY
290
     0
  9
$LENSLENGTH
 40
50.0
  9
$CAMERAHEIGHT
 40
0.0
  9
$STEPSPERSEC
 40
2.0
  9
$STEPSIZE
 40
6.0
  9
$3DDWFPREC
 40
2.0
  9
$PSOLWIDTH
 40
0.25
  9
$PSOLHEIGHT
 40
4.0
  9
$LOFTANG1
 40
1.570796326794897
  9
$LOFTANG2
 40
1.570796326794897
  9
$LOFTMAG1
 40
0.0
  9
$LOFTMAG2
 40
0.0
  9
$LOFTPARAM
 70
     7
  9
$LOFTNORMALS
280
     1
  9
$LATITUDE
 40
37.795
  9
$LONGITUDE
 40
-122.394
  9
$NORTHDIRECTION
 40
0.0
  9
$TIMEZONE
 70
 -8000
  9
$LIGHTGLYPHDISPLAY
280
     1
  9
$TILEMODELIGHTSYNCH
280
     1
  9
$SOLIDHIST
280
     1
  9
$SHOWHIST
280
     1
  9
$DWFFRAME
280
     2
  9
$DGNFRAME
280
     2
  9
$REALWORLDSCALE
290
     1
  9
$INTERFERECOLOR
 62
   256
  9
$CSHADOW
280
     0
  9
$SHADOWPLANELOCATION
 40
0.0
  0
ENDSEC
  0
SECTION
  2
CLASSES
  0
CLASS
  1
LWPOLYLINE
  2
AcDbPolyline
  3
ObjectDBX Classes
 90
        0
 91
        1
280
     0
281
     1
  0
CLASS
  1
IMAGE
  2
AcDbRasterImage
  3
ISM
 90
      127
 91
       10
280
     0
281
     1
  0
CLASS
  1
OLE2FRAME
  2
AcDbOle2Frame
  3
ObjectDBX Classes
 90
        0
 91
        1
280
     0
281
     1
  0
CLASS
  1
HATCH
  2
AcDbHatch
  3
ObjectDBX Classes
 90
        0
 91
        1
280
     0
281
     1
  0
CLASS
  1
DICTIONARYVAR
  2
AcDbDictionaryVar
  3
ObjectDBX Classes
 90
        0
 91
        9
280
     0
281
     0
  0
CLASS
  1
RASTERVARIABLES
  2
AcDbRasterVariables
  3
ISM
 90
        0
 91
        9
280
     0
281
     0
  0
CLASS
  1
IMAGEDEF
  2
AcDbRasterImageDef
  3
ISM
 90
        0
 91
        9
280
     0
281
     0
  0
CLASS
  1
IMAGEDEF_REACTOR
  2
AcDbRasterImageDefReactor
  3
ISM
 90
        1
 91
        9
280
     0
281
     0
  0
CLASS
  1
IDBUFFER
  2
AcDbIdBuffer
  3
ObjectDBX Classes
 90
        0
 91
        9
280
     0
281
     0
  0
CLASS
  1
SPATIAL_FILTER
  2
AcDbSpatialFilter
  3
ObjectDBX Classes
 90
        0
 91
        9
280
     0
281
     0
  0
CLASS
  1
XRECORD
  2
AcDbXrecord
  3
ObjectDBX Classes
 90
        0
 91
        1
280
     0
281
     0
  0
CLASS
  1
SORTENTSTABLE
  2
AcDbSortentsTable
  3
ObjectDBX Classes
 90
        0
 91
        9
280
     0
281
     0
  0
CLASS
  1
LAYER_INDEX
  2
AcDbLayerIndex
  3
ObjectDBX Classes
 90
        0
 91
        9
280
     0
281
     0
  0
CLASS
  1
SPATIAL_INDEX
  2
AcDbSpatialIndex
  3
AutoCAD 2000
 90
        0
 91
        9
280
     0
281
     0
  0
CLASS
  1
OBJECT_PTR
  2
CAseDLPNTableRecord
  3
ASE-LPNTableRecord
 90
        1
 91
        9
280
     0
281
     0
  0
CLASS
  1
LAYOUT
  2
AcDbLayout
  3
ObjectDBX Classes
 90
        0
 91
        1
280
     0
281
     0
  0
CLASS
  1
PLOTSETTINGS
  2
AcDbPlotSettings
  3
ObjectDBX Classes
 90
        0
 91
        9
280
     0
281
     0
  0
CLASS
  1
ACDBDICTIONARYWDFLT
  2
AcDbDictionaryWithDefault
  3
ObjectDBX Classes
 90
        0
 91
        9
280
     0
281
     0
  0
CLASS
  1
ACDBPLACEHOLDER
  2
AcDbPlaceHolder
  3
ObjectDBX Classes
 90
        0
 91
        1
280
     0
281
     0
  0
CLASS
  1
SCALE
  2
AcDbScale
  3
ObjectDBX Classes
 90
     1153
 91
        9
280
     0
281
     0
  0
CLASS
  1
MATERIAL
  2
AcDbMaterial
  3
ObjectDBX Classes
 90
     1153
 91
        9
280
     0
281
     0
  0
CLASS
  1
VISUALSTYLE
  2
AcDbVisualStyle
  3
ObjectDBX Classes
 90
     4095
 91
        9
280
     0
281
     0
  0
CLASS
  1
TABLESTYLE
  2
AcDbTableStyle
  3
ObjectDBX Classes
 90
     4095
 91
        9
280
     0
281
     0
  0
CLASS
  1
DIMASSOC
  2
AcDbDimAssoc
  3
"AcDbDimAssoc|Product Desc:     AcDim ARX App For Dimension|Company:          Autodesk, Inc.|WEB Address:      www.autodesk.com"
 90
        0
 91
        9
280
     0
281
     0
  0
CLASS
  1
CELLSTYLEMAP
  2
AcDbCellStyleMap
  3
ObjectDBX Classes
 90
     1152
 91
        9
280
     0
281
     0
  0
CLASS
  1
SUN
  2
AcDbSun
  3
SCENEOE
 90
     1153
 91
        9
280
     0
281
     0
  0
CLASS
  1
MLEADERSTYLE
  2
AcDbMLeaderStyle
  3
ACDB_MLEADERSTYLE_CLASS
 90
     4095
 91
        9
280
     0
281
     0
  0
CLASS
  1
FIELD
  2
AcDbField
  3
ObjectDBX Classes
 90
     1152
 91
        9
280
     0
281
     0
  0
CLASS
  1
FIELDLIST
  2
AcDbFieldList
  3
ObjectDBX Classes
 90
     1152
 91
        9
280
     0
281
     0
  0
ENDSEC
  0
SECTION
  2
TABLES
  0
TABLE
  2
VPORT
  5
7
330
0
100
AcDbSymbolTable
 70
     1
  0
VPORT
  5
15
330
7
100
AcDbSymbolTableRecord
100
AcDbViewportTableRecord
  2
*ACTIVE
 70
     0
 10
0.0
 20
0.0
 11
1.0
 21
1.0
 12
406.0201356708985
 22
371.901285469834
 13
0.0
 23
0.0
 14
1.0
 24
1.0
 15
0.0
 25
0.0
 16
0.0
 26
0.0
 36
1.0
 17
-91.02013567089847
 27
73.59871453016603
 37
-46.86809886248109
 40
908.82
 41
2.209859154929577
 42
50.0
 43
0.0
 44
0.0
 50
0.0
 51
0.0
 71
    16
 72
  2000
 73
     1
 74
     1
 75
     0
 76
     0
 77
     0
 78
     0
281
     0
 65
     1
110
0.0
120
0.0
130
0.0
111
1.0
121
0.0
131
0.0
112
0.0
122
1.0
132
0.0
 79
     0
146
0.0
348
213A
 60
     3
 61
     5
292
     1
282
     1
141
0.0
142
0.0
 63
   256
361
904
  0
ENDTAB
  0
TABLE
  2
LTYPE
  5
4
330
0
100
AcDbSymbolTable
 70
     3
  0
LTYPE
  5
11
330
4
100
AcDbSymbolTableRecord
100
AcDbLinetypeTableRecord
  2
ByBlock
 70
     0
  3

 72
    65
 73
     0
 40
0.0
  0
LTYPE
  5
12
330
4
100
AcDbSymbolTableRecord
100
AcDbLinetypeTableRecord
  2
ByLayer
 70
     0
  3

 72
    65
 73
     0
 40
0.0
  0
LTYPE
  5
13
330
4
100
AcDbSymbolTableRecord
100
AcDbLinetypeTableRecord
  2
Continuous
 70
     0
  3
Solid line
 72
    65
 73
     0
 40
0.0
  0
LTYPE
  5
D6C
330
4
100
AcDbSymbolTableRecord
100
AcDbLinetypeTableRecord
  2
BORDER
 70
     0
  3
Border __  __  . __  __  . __  __  . __  __  . 
 72
    65
 73
     6
 40
44.45
 49
12.7
 74
     0
 49
-6.35
 74
     0
 49
12.7
 74
     0
 49
-6.35
 74
     0
 49
0.0
 74
     0
 49
-6.35
 74
     0
  0
LTYPE
  5
21F3
330
4
100
AcDbSymbolTableRecord
100
AcDbLinetypeTableRecord
  2
CENTER
 70
     0
  3
 Center _____  _  _____  _  _____  _  _____  _ 
 72
    65
 73
     4
 40
50.8
 49
31.75
 74
     0
 49
-6.35
 74
     0
 49
6.35
 74
     0
 49
-6.35
 74
     0
  0
ENDTAB
  0
TABLE
  2
LAYER
  5
2
102
{ACAD_XDICTIONARY
360
2E1
102
}
330
0
100
AcDbSymbolTable
 70
     7
  0
LAYER
  5
14
330
2
100
AcDbSymbolTableRecord
100
AcDbLayerTableRecord
  2
0
 70
     0
 62
     7
  6
Continuous
370
    -3
390
1D
347
266
  0
LAYER
  5
4B
330
2
100
AcDbSymbolTableRecord
100
AcDbLayerTableRecord
  2
TEMPLATE
 70
     0
 62
     7
  6
Continuous
370
    20
390
1D
347
266
  0
LAYER
  5
4C
330
2
100
AcDbSymbolTableRecord
100
AcDbLayerTableRecord
  2
DIM
 70
     0
 62
     3
  6
Continuous
370
    13
390
1D
347
266
  0
LAYER
  5
4D
330
2
100
AcDbSymbolTableRecord
100
AcDbLayerTableRecord
  2
MODEL
 70
     0
 62
     7
  6
Continuous
370
    20
390
1D
347
266
  0
LAYER
  5
667
330
2
100
AcDbSymbolTableRecord
100
AcDbLayerTableRecord
  2
LOGO
 70
     0
 62
     7
  6
Continuous
370
    -3
390
1D
347
266
  0
LAYER
  5
D6B
330
2
100
AcDbSymbolTableRecord
100
AcDbLayerTableRecord
  2
BORDER
 70
     0
 62
     4
  6
BORDER
290
     0
370
    20
390
1D
347
266
1001
AcAecLayerStandard
1000

1000

  0
LAYER
  5
D8C
330
2
100
AcDbSymbolTableRecord
100
AcDbLayerTableRecord
  2
Defpoints
 70
     0
 62
     7
  6
Continuous
290
     0
370
    -3
390
1D
347
266
  0
ENDTAB
  0
TABLE
  2
STYLE
  5
3
330
0
100
AcDbSymbolTable
 70
     5
  0
STYLE
  5
17
330
3
100
AcDbSymbolTableRecord
100
AcDbTextStyleTableRecord
  2
Standard
 70
     0
 40
0.0
 41
1.0
 50
0.0
 71
     0
 42
2.5
  3
txt
  4
BIGFONT.SHX
  0
STYLE
  5
39
330
3
100
AcDbSymbolTableRecord
100
AcDbTextStyleTableRecord
  2
ＭＳ ゴシック
 70
     0
 40
0.0
 41
1.0
 50
0.0
 71
     0
 42
2.5
  3
msgothic.ttc
  4
ＭＳ ゴシック
1001
ACAD
1000
ＭＳ ゴシック
1071
        0
  0
STYLE
  5
384
330
3
100
AcDbSymbolTableRecord
100
AcDbTextStyleTableRecord
  2
ARIAL
 70
     0
 40
0.0
 41
1.0
 50
0.0
 71
     0
 42
12.0
  3
ARIAL.TTF
  4

1001
ACAD
1000
Arial
1071
       34
  0
STYLE
  5
385
330
3
100
AcDbSymbolTableRecord
100
AcDbTextStyleTableRecord
  2
ROMANS
 70
     0
 40
0.0
 41
1.0
 50
0.0
 71
     0
 42
5.0
  3
romans.shx
  4

  0
STYLE
  5
1799
330
3
100
AcDbSymbolTableRecord
100
AcDbTextStyleTableRecord
  2
SLDTEXTSTYLE0
 70
     0
 40
0.0
 41
0.75
 50
0.0
 71
     0
 42
2.5
  3
TXT
  4

  0
ENDTAB
  0
TABLE
  2
VIEW
  5
5
330
0
100
AcDbSymbolTable
 70
     0
  0
ENDTAB
  0
TABLE
  2
UCS
  5
6
330
0
100
AcDbSymbolTable
 70
     0
  0
ENDTAB
  0
TABLE
  2
APPID
  5
8
330
0
100
AcDbSymbolTable
 70
     3
  0
APPID
  5
16
330
8
100
AcDbSymbolTableRecord
100
AcDbRegAppTableRecord
  2
ACAD
 70
     0
  0
APPID
  5
7AC
330
8
100
AcDbSymbolTableRecord
100
AcDbRegAppTableRecord
  2
AcAecLayerStandard
 70
     0
  0
APPID
  5
E29
330
8
100
AcDbSymbolTableRecord
100
AcDbRegAppTableRecord
  2
ACAD_MLEADERVER
 70
     0
  0
ENDTAB
  0
TABLE
  2
DIMSTYLE
  5
9
330
0
100
AcDbSymbolTable
 70
     2
100
AcDbDimStyleTable
  0
DIMSTYLE
105
18
330
9
100
AcDbSymbolTableRecord
100
AcDbDimStyleTableRecord
  2
Standard
 70
     0
178
     0
340
17
  0
DIMSTYLE
105
57
102
{ACAD_REACTORS
330
202F
330
2030
330
2031
330
2032
330
2043
330
2044
330
207D
330
202E
330
21E2
330
22C2
330
22D2
102
}
330
9
100
AcDbSymbolTableRecord
100
AcDbDimStyleTableRecord
  2
tfrom線あり
 70
     0
  3
<>
  4
[]
 41
3.0
 42
10.0
 43
0.0
 44
0.0
 73
     0
 74
     0
 77
     1
 78
    11
140
7.0
141
0.0
143
1.0
147
4.0
171
     1
174
     1
178
     0
179
     2
271
     0
272
     1
276
     2
284
    11
285
    11
286
    11
289
     0
340
39
341
4E
342
4E
  0
ENDTAB
  0
TABLE
  2
BLOCK_RECORD
  5
1
330
0
100
AcDbSymbolTable
 70
    18
  0
BLOCK_RECORD
  5
A
330
1
100
AcDbSymbolTableRecord
100
AcDbBlockTableRecord
  2
*MODEL_SPACE
340
20
 70
     0
280
     1
281
     0
  0
BLOCK_RECORD
  5
B
330
1
100
AcDbSymbolTableRecord
100
AcDbBlockTableRecord
  2
*PAPER_SPACE
340
21
 70
     0
280
     1
281
     0
  0
BLOCK_RECORD
  5
4E
330
1
100
AcDbSymbolTableRecord
100
AcDbBlockTableRecord
  2
_DOT
340
0
102
{BLKREFS
331
20C4
331
20C5
331
20D1
331
20D2
331
20E0
331
20E1
331
20ED
331
20EE
331
20FB
331
20FC
331
2107
331
2108
331
2113
331
2114
331
211F
331
2120
331
21E9
331
21EA
331
0
331
22CC
331
22DC
331
22DB
102
}
 70
     0
280
     1
281
     0
  0
BLOCK_RECORD
  5
68A
330
1
100
AcDbSymbolTableRecord
100
AcDbBlockTableRecord
  2
名称未設定-1
340
0
102
{BLKREFS
331
6B5
102
}
 70
     1
280
     1
281
     0
  0
BLOCK_RECORD
  5
68D
330
1
100
AcDbSymbolTableRecord
100
AcDbBlockTableRecord
  2
block 2
340
0
102
{BLKREFS
331
68C
331
1343
102
}
 70
     0
280
     1
281
     0
  0
BLOCK_RECORD
  5
690
330
1
100
AcDbSymbolTableRecord
100
AcDbBlockTableRecord
  2
block 3
340
0
102
{BLKREFS
331
68F
102
}
 70
     0
280
     1
281
     0
  0
BLOCK_RECORD
  5
693
330
1
100
AcDbSymbolTableRecord
100
AcDbBlockTableRecord
  2
block 4
340
0
102
{BLKREFS
331
692
102
}
 70
     0
280
     1
281
     0
  0
BLOCK_RECORD
  5
6A2
330
1
100
AcDbSymbolTableRecord
100
AcDbBlockTableRecord
  2
block 5
340
0
102
{BLKREFS
331
6A1
102
}
 70
     0
280
     1
281
     0
  0
BLOCK_RECORD
  5
20BE
330
1
100
AcDbSymbolTableRecord
100
AcDbBlockTableRecord
  2
*D6
340
0
 70
     0
280
     1
281
     0
  0
BLOCK_RECORD
  5
20CB
330
1
100
AcDbSymbolTableRecord
100
AcDbBlockTableRecord
  2
*D7
340
0
 70
     0
280
     1
281
     0
  0
BLOCK_RECORD
  5
20D9
330
1
100
AcDbSymbolTableRecord
100
AcDbBlockTableRecord
  2
*D8
340
0
 70
     0
280
     1
281
     0
  0
BLOCK_RECORD
  5
20E7
330
1
100
AcDbSymbolTableRecord
100
AcDbBlockTableRecord
  2
*D9
340
0
 70
     0
280
     1
281
     0
  0
BLOCK_RECORD
  5
20F3
330
1
100
AcDbSymbolTableRecord
100
AcDbBlockTableRecord
  2
*D10
340
0
 70
     0
280
     1
281
     0
  0
BLOCK_RECORD
  5
2101
330
1
100
AcDbSymbolTableRecord
100
AcDbBlockTableRecord
  2
*D11
340
0
 70
     0
280
     1
281
     0
  0
BLOCK_RECORD
  5
210D
330
1
100
AcDbSymbolTableRecord
100
AcDbBlockTableRecord
  2
*D12
340
0
 70
     0
280
     1
281
     0
  0
BLOCK_RECORD
  5
2119
330
1
100
AcDbSymbolTableRecord
100
AcDbBlockTableRecord
  2
*D13
340
0
 70
     0
280
     1
281
     0
  0
BLOCK_RECORD
  5
21E3
330
1
100
AcDbSymbolTableRecord
100
AcDbBlockTableRecord
  2
*D14
340
0
 70
     0
280
     1
281
     0
  0
BLOCK_RECORD
  5
22C5
330
1
100
AcDbSymbolTableRecord
100
AcDbBlockTableRecord
  2
*D16
340
0
 70
     0
280
     1
281
     0
  0
BLOCK_RECORD
  5
22D5
330
1
100
AcDbSymbolTableRecord
100
AcDbBlockTableRecord
  2
*D17
340
0
 70
     0
280
     1
281
     0
  0
ENDTAB
  0
ENDSEC
  0
SECTION
  2
BLOCKS
  0
BLOCK
  5
D
330
A
100
AcDbEntity
  8
0
390
1D
100
AcDbBlockBegin
  2
*MODEL_SPACE
 70
     0
 10
0.0
 20
0.0
 30
0.0
  3
*MODEL_SPACE
  1
*MODEL_SPACE
  0
ENDBLK
  5
E
330
A
100
AcDbEntity
  8
0
390
1D
100
AcDbBlockEnd
  0
BLOCK
  5
F
330
B
100
AcDbEntity
 67
     1
  8
0
390
1D
100
AcDbBlockBegin
  2
*PAPER_SPACE
 70
     0
 10
0.0
 20
0.0
 30
0.0
  3
*PAPER_SPACE
  1
*PAPER_SPACE
  0
ENDBLK
  5
10
330
B
100
AcDbEntity
 67
     1
  8
0
390
1D
100
AcDbBlockEnd
  0
BLOCK
  5
21BD
330
4E
100
AcDbEntity
  8
0
390
1D
100
AcDbBlockBegin
  2
_DOT
 70
     0
 10
0.0
 20
0.0
 30
0.0
  3
_DOT
  1
_DOT
  0
POLYLINE
  5
21BF
330
4E
100
AcDbEntity
  8
0
  6
ByBlock
 62
     0
370
    -2
390
1D
100
AcDb2dPolyline
 66
     1
 10
0.0
 20
0.0
 30
0.0
 70
     1
 40
0.5
 41
0.5
  0
VERTEX
  5
21C0
330
21BF
100
AcDbEntity
  8
0
  6
ByBlock
 62
     0
370
    -2
390
1D
100
AcDbVertex
100
AcDb2dVertex
 10
-0.25
 20
0.0
 30
0.0
 42
1.0
  0
VERTEX
  5
21C1
330
21BF
100
AcDbEntity
  8
0
  6
ByBlock
 62
     0
370
    -2
390
1D
100
AcDbVertex
100
AcDb2dVertex
 10
0.25
 20
0.0
 30
0.0
 42
1.0
  0
SEQEND
  5
21C2
330
21BF
100
AcDbEntity
  8
0
390
1D
  0
LINE
  5
21C3
330
4E
100
AcDbEntity
  8
0
  6
ByBlock
 62
     0
370
    -2
390
1D
100
AcDbLine
 10
-0.5
 20
0.0
 30
0.0
 11
-1.0
 21
0.0
 31
0.0
  0
ENDBLK
  5
21C4
330
4E
100
AcDbEntity
  8
0
390
1D
100
AcDbBlockEnd
  0
BLOCK
  5
68B
330
68A
100
AcDbEntity
  8
0
100
AcDbBlockBegin
  2
名称未設定-1
 70
     0
 10
0.0
 20
0.0
 30
0.0
  3
名称未設定-1
  1
名称未設定-1
  0
INSERT
  5
68F
330
68A
100
AcDbEntity
  8
LOGO
100
AcDbBlockReference
  2
block 3
 10
0.0
 20
0.0
 30
0.0
  0
ENDBLK
  5
6B1
330
68A
100
AcDbEntity
  8
0
100
AcDbBlockEnd
  0
BLOCK
  5
68E
330
68D
100
AcDbEntity
  8
0
100
AcDbBlockBegin
  2
block 2
 70
     0
 10
0.0
 20
0.0
 30
0.0
  3
block 2
  1
block 2
  0
ENDBLK
  5
6B0
330
68D
100
AcDbEntity
  8
0
100
AcDbBlockEnd
  0
BLOCK
  5
691
330
690
100
AcDbEntity
  8
0
100
AcDbBlockBegin
  2
block 3
 70
     0
 10
0.0
 20
0.0
 30
0.0
  3
block 3
  1
block 3
  0
INSERT
  5
692
330
690
100
AcDbEntity
  8
LOGO
100
AcDbBlockReference
  2
block 4
 10
0.0
 20
0.0
 30
0.0
  0
INSERT
  5
6A1
330
690
100
AcDbEntity
  8
LOGO
100
AcDbBlockReference
  2
block 5
 10
0.0
 20
0.0
 30
0.0
  0
ENDBLK
  5
6AF
330
690
100
AcDbEntity
  8
0
100
AcDbBlockEnd
  0
BLOCK
  5
694
330
693
100
AcDbEntity
  8
0
100
AcDbBlockBegin
  2
block 4
 70
     0
 10
0.0
 20
0.0
 30
0.0
  3
block 4
  1
block 4
  0
POLYLINE
  5
695
330
693
100
AcDbEntity
  8
LOGO
370
     0
100
AcDb2dPolyline
 66
     1
 10
0.0
 20
0.0
 30
0.0
  0
VERTEX
  5
696
330
695
100
AcDbEntity
  8
LOGO
370
     0
100
AcDbVertex
100
AcDb2dVertex
 10
83.79545727667795
 20
167.6444858234922
 30
0.0
  0
VERTEX
  5
697
330
695
100
AcDbEntity
  8
LOGO
370
     0
100
AcDbVertex
100
AcDb2dVertex
 10
83.79545727667795
 20
159.7968976406313
 30
0.0
  0
VERTEX
  5
698
330
695
100
AcDbEntity
  8
LOGO
370
     0
100
AcDbVertex
100
AcDb2dVertex
 10
71.3631329975216
 20
159.7968976406313
 30
0.0
  0
VERTEX
  5
699
330
695
100
AcDbEntity
  8
LOGO
370
     0
100
AcDbVertex
100
AcDb2dVertex
 10
71.3631329975216
 20
127.8027915271048
 30
0.0
  0
VERTEX
  5
69A
330
695
100
AcDbEntity
  8
LOGO
370
     0
100
AcDbVertex
100
AcDb2dVertex
 10
60.43011526263018
 20
127.8027915271048
 30
0.0
  0
VERTEX
  5
69B
330
695
100
AcDbEntity
  8
LOGO
370
     0
100
AcDbVertex
100
AcDb2dVertex
 10
60.43011526263018
 20
159.7968976406313
 30
0.0
  0
VERTEX
  5
69C
330
695
100
AcDbEntity
  8
LOGO
370
     0
100
AcDbVertex
100
AcDb2dVertex
 10
48.21793273020759
 20
159.7968976406313
 30
0.0
  0
VERTEX
  5
69D
330
695
100
AcDbEntity
  8
LOGO
370
     0
100
AcDbVertex
100
AcDb2dVertex
 10
48.21793273020759
 20
167.6444858234922
 30
0.0
  0
VERTEX
  5
69E
330
695
100
AcDbEntity
  8
LOGO
370
     0
100
AcDbVertex
100
AcDb2dVertex
 10
83.79545727667795
 20
167.6444858234922
 30
0.0
  0
SEQEND
  5
69F
330
695
100
AcDbEntity
  8
LOGO
370
     0
  0
HATCH
  5
6A0
330
693
100
AcDbEntity
  8
LOGO
 62
   250
420
  2234388
100
AcDbHatch
 10
0.0
 20
0.0
 30
0.0
210
0.0
220
0.0
230
1.0
  2
SOLID
 70
     1
 71
     0
 91
        1
 92
        1
 93
        8
 72
     1
 10
83.79545727667795
 20
167.6444858234922
 11
83.79545727667795
 21
159.7968976406313
 72
     1
 10
83.79545727667795
 20
159.7968976406313
 11
71.3631329975216
 21
159.7968976406313
 72
     1
 10
71.3631329975216
 20
159.7968976406313
 11
71.3631329975216
 21
127.8027915271048
 72
     1
 10
71.3631329975216
 20
127.8027915271048
 11
60.43011526263018
 21
127.8027915271048
 72
     1
 10
60.43011526263018
 20
127.8027915271048
 11
60.43011526263018
 21
159.7968976406313
 72
     1
 10
60.43011526263018
 20
159.7968976406313
 11
48.21793273020759
 21
159.7968976406313
 72
     1
 10
48.21793273020759
 20
159.7968976406313
 11
48.21793273020759
 21
167.6444858234922
 72
     1
 10
48.21793273020759
 20
167.6444858234922
 11
83.79545727667795
 21
167.6444858234922
 97
        0
 75
     2
 76
     1
 98
        0
  0
ENDBLK
  5
6AE
330
693
100
AcDbEntity
  8
0
100
AcDbBlockEnd
  0
BLOCK
  5
6A3
330
6A2
100
AcDbEntity
  8
0
100
AcDbBlockBegin
  2
block 5
 70
     0
 10
0.0
 20
0.0
 30
0.0
  3
block 5
  1
block 5
  0
SPLINE
  5
6A4
330
6A2
100
AcDbEntity
  8
LOGO
370
     0
100
AcDbSpline
210
0.0
220
0.0
230
1.0
 70
    11
 71
     3
 72
    56
 73
    52
 74
     0
 42
0.000000001
 43
0.0000000001
 40
0.0
 40
0.0
 40
0.0
 40
0.0
 40
1.0
 40
1.0
 40
1.0
 40
2.0
 40
2.0
 40
2.0
 40
3.0
 40
3.0
 40
3.0
 40
4.0
 40
4.0
 40
4.0
 40
5.0
 40
5.0
 40
5.0
 40
6.0
 40
6.0
 40
6.0
 40
7.0
 40
7.0
 40
7.0
 40
8.0
 40
8.0
 40
8.0
 40
9.0
 40
9.0
 40
9.0
 40
10.0
 40
10.0
 40
10.0
 40
11.0
 40
11.0
 40
11.0
 40
12.0
 40
12.0
 40
12.0
 40
13.0
 40
13.0
 40
13.0
 40
14.0
 40
14.0
 40
14.0
 40
15.0
 40
15.0
 40
15.0
 40
16.0
 40
16.0
 40
16.0
 40
17.0
 40
17.0
 40
17.0
 40
17.0
 10
100.4504378777679
 20
166.69157178364
 30
0.0
 10
101.9848844191641
 20
167.1313385124438
 30
0.0
 10
103.9637485713373
 20
166.7649523658846
 30
0.0
 10
103.9637485713373
 20
166.7649523658846
 30
0.0
 10
103.9637485713373
 20
166.7649523658846
 30
0.0
 10
103.0132460999156
 20
163.911205638077
 30
0.0
 10
103.0132460999156
 20
163.911205638077
 30
0.0
 10
103.0132460999156
 20
163.911205638077
 30
0.0
 10
101.0674548862189
 20
164.3601018759394
 30
0.0
 10
99.57090442016032
 20
163.1805004036133
 30
0.0
 10
98.40508333886608
 20
162.258247733807
 30
0.0
 10
97.65301849830304
 20
159.804132345923
 30
0.0
 10
97.3598406791005
 20
158.8699940888517
 30
0.0
 10
97.3598406791005
 20
158.8699940888517
 30
0.0
 10
96.07137411762282
 20
154.9119212747295
 30
0.0
 10
96.07137411762282
 20
154.9119212747295
 30
0.0
 10
96.07137411762282
 20
154.9119212747295
 30
0.0
 10
100.3012651448482
 20
154.9119212747295
 30
0.0
 10
100.3012651448482
 20
154.9119212747295
 30
0.0
 10
100.3012651448482
 20
154.9119212747295
 30
0.0
 10
99.64152892419852
 20
152.4199098115079
 30
0.0
 10
99.64152892419852
 20
152.4199098115079
 30
0.0
 10
99.64152892419852
 20
152.4199098115079
 30
0.0
 10
95.38097652692731
 20
152.4199098115079
 30
0.0
 10
95.38097652692731
 20
152.4199098115079
 30
0.0
 10
95.38097652692731
 20
152.4199098115079
 30
0.0
 10
87.75353009080013
 20
127.8027915271048
 30
0.0
 10
87.75353009080013
 20
127.8027915271048
 30
0.0
 10
87.75353009080013
 20
127.8027915271048
 30
0.0
 10
85.36538832498108
 20
127.8027915271048
 30
0.0
 10
85.36538832498108
 20
127.8027915271048
 30
0.0
 10
85.36538832498108
 20
127.8027915271048
 30
0.0
 10
93.00006946639998
 20
152.4199098115079
 30
0.0
 10
93.00006946639998
 20
152.4199098115079
 30
0.0
 10
93.00006946639998
 20
152.4199098115079
 30
0.0
 10
89.85297266450198
 20
152.4199098115079
 30
0.0
 10
89.85297266450198
 20
152.4199098115079
 30
0.0
 10
89.85297266450198
 20
152.4199098115079
 30
0.0
 10
90.51270888515164
 20
154.9119212747295
 30
0.0
 10
90.51270888515164
 20
154.9119212747295
 30
0.0
 10
90.51270888515164
 20
154.9119212747295
 30
0.0
 10
93.6904670570955
 20
154.9119212747295
 30
0.0
 10
93.6904670570955
 20
154.9119212747295
 30
0.0
 10
93.6904670570955
 20
154.9119212747295
 30
0.0
 10
94.81598049462158
 20
158.3616699146644
 30
0.0
 10
94.81598049462158
 20
158.3616699146644
 30
0.0
 10
95.7237637538445
 20
161.2605474231013
 30
0.0
 10
96.4968436907311
 20
162.8139420021662
 30
0.0
 10
97.15657991138076
 20
163.9844139654337
 30
0.0
 10
97.81183750494507
 20
165.1523021053827
 30
0.0
 10
99.1047826935081
 20
166.3084769129547
 30
0.0
 10
100.4504378777679
 20
166.69157178364
 30
0.0
  0
HATCH
  5
6A5
330
6A2
100
AcDbEntity
  8
LOGO
 62
   250
420
  2234388
100
AcDbHatch
 10
0.0
 20
0.0
 30
0.0
210
0.0
220
0.0
230
1.0
  2
SOLID
 70
     1
 71
     0
 91
        1
 92
        1
 93
        1
 72
     4
 94
        3
 73
     0
 74
     1
 95
       56
 96
       52
 40
0.0
 40
0.0
 40
0.0
 40
0.0
 40
1.0
 40
1.0
 40
1.0
 40
2.0
 40
2.0
 40
2.0
 40
3.0
 40
3.0
 40
3.0
 40
4.0
 40
4.0
 40
4.0
 40
5.0
 40
5.0
 40
5.0
 40
6.0
 40
6.0
 40
6.0
 40
7.0
 40
7.0
 40
7.0
 40
8.0
 40
8.0
 40
8.0
 40
9.0
 40
9.0
 40
9.0
 40
10.0
 40
10.0
 40
10.0
 40
11.0
 40
11.0
 40
11.0
 40
12.0
 40
12.0
 40
12.0
 40
13.0
 40
13.0
 40
13.0
 40
14.0
 40
14.0
 40
14.0
 40
15.0
 40
15.0
 40
15.0
 40
16.0
 40
16.0
 40
16.0
 40
17.0
 40
17.0
 40
17.0
 40
17.0
 10
100.4504378777679
 20
166.69157178364
 10
101.9848844191641
 20
167.1313385124438
 10
103.9637485713373
 20
166.7649523658846
 10
103.9637485713373
 20
166.7649523658846
 10
103.9637485713373
 20
166.7649523658846
 10
103.0132460999156
 20
163.911205638077
 10
103.0132460999156
 20
163.911205638077
 10
103.0132460999156
 20
163.911205638077
 10
101.0674548862189
 20
164.3601018759394
 10
99.57090442016032
 20
163.1805004036133
 10
98.40508333886608
 20
162.258247733807
 10
97.65301849830304
 20
159.804132345923
 10
97.3598406791005
 20
158.8699940888517
 10
97.3598406791005
 20
158.8699940888517
 10
96.07137411762282
 20
154.9119212747295
 10
96.07137411762282
 20
154.9119212747295
 10
96.07137411762282
 20
154.9119212747295
 10
100.3012651448482
 20
154.9119212747295
 10
100.3012651448482
 20
154.9119212747295
 10
100.3012651448482
 20
154.9119212747295
 10
99.64152892419852
 20
152.4199098115079
 10
99.64152892419852
 20
152.4199098115079
 10
99.64152892419852
 20
152.4199098115079
 10
95.38097652692731
 20
152.4199098115079
 10
95.38097652692731
 20
152.4199098115079
 10
95.38097652692731
 20
152.4199098115079
 10
87.75353009080013
 20
127.8027915271048
 10
87.75353009080013
 20
127.8027915271048
 10
87.75353009080013
 20
127.8027915271048
 10
85.36538832498108
 20
127.8027915271048
 10
85.36538832498108
 20
127.8027915271048
 10
85.36538832498108
 20
127.8027915271048
 10
93.00006946639998
 20
152.4199098115079
 10
93.00006946639998
 20
152.4199098115079
 10
93.00006946639998
 20
152.4199098115079
 10
89.85297266450198
 20
152.4199098115079
 10
89.85297266450198
 20
152.4199098115079
 10
89.85297266450198
 20
152.4199098115079
 10
90.51270888515164
 20
154.9119212747295
 10
90.51270888515164
 20
154.9119212747295
 10
90.51270888515164
 20
154.9119212747295
 10
93.6904670570955
 20
154.9119212747295
 10
93.6904670570955
 20
154.9119212747295
 10
93.6904670570955
 20
154.9119212747295
 10
94.81598049462158
 20
158.3616699146644
 10
94.81598049462158
 20
158.3616699146644
 10
95.7237637538445
 20
161.2605474231013
 10
96.4968436907311
 20
162.8139420021662
 10
97.15657991138076
 20
163.9844139654337
 10
97.81183750494507
 20
165.1523021053827
 10
99.1047826935081
 20
166.3084769129547
 10
100.4504378777679
 20
166.69157178364
 97
        0
 75
     2
 76
     1
 98
        0
  0
SPLINE
  5
6A6
330
6A2
100
AcDbEntity
  8
LOGO
370
     0
100
AcDbSpline
210
0.0
220
0.0
230
1.0
 70
    11
 71
     3
 72
    38
 73
    34
 74
     0
 42
0.000000001
 43
0.0000000001
 40
0.0
 40
0.0
 40
0.0
 40
0.0
 40
1.0
 40
1.0
 40
1.0
 40
2.0
 40
2.0
 40
2.0
 40
3.0
 40
3.0
 40
3.0
 40
4.0
 40
4.0
 40
4.0
 40
5.0
 40
5.0
 40
5.0
 40
6.0
 40
6.0
 40
6.0
 40
7.0
 40
7.0
 40
7.0
 40
8.0
 40
8.0
 40
8.0
 40
9.0
 40
9.0
 40
9.0
 40
10.0
 40
10.0
 40
10.0
 40
11.0
 40
11.0
 40
11.0
 40
11.0
 10
126.377554584636
 20
154.8151140277308
 30
0.0
 10
126.377554584636
 20
154.8151140277308
 30
0.0
 10
128.8311532078563
 20
154.8151140277308
 30
0.0
 10
128.8311532078563
 20
154.8151140277308
 30
0.0
 10
128.8311532078563
 20
154.8151140277308
 30
0.0
 10
127.7345785914971
 20
151.3062819612468
 30
0.0
 10
127.7345785914971
 20
151.3062819612468
 30
0.0
 10
128.571392836906
 20
152.2922689395754
 30
0.0
 10
129.8860421413442
 20
153.604506675583
 30
0.0
 10
131.0163787157314
 20
154.2664822097754
 30
0.0
 10
132.7044766171327
 20
155.2500576196734
 30
0.0
 10
133.6642808525008
 20
155.3847609420097
 30
0.0
 10
134.7284715499351
 20
155.3565111403944
 30
0.0
 10
134.7284715499351
 20
155.3565111403944
 30
0.0
 10
133.6877075172549
 20
152.0345756272799
 30
0.0
 10
133.6877075172549
 20
152.0345756272799
 30
0.0
 10
133.011434827367
 20
152.3184516825359
 30
0.0
 10
130.930940291334
 20
151.7768823149844
 30
0.0
 10
129.739280976855
 20
150.9162968950455
 30
0.0
 10
128.66613302525
 20
150.1454562717016
 30
0.0
 10
127.9192358313239
 20
149.4857200510519
 30
0.0
 10
127.0393578639405
 20
147.8282835196966
 30
0.0
 10
126.164647543194
 20
146.1699857139017
 30
0.0
 10
125.4742499524985
 20
143.5262176944419
 30
0.0
 10
124.2822461282437
 20
139.6959580071401
 30
0.0
 10
124.2822461282437
 20
139.6959580071401
 30
0.0
 10
120.5753209406769
 20
127.8027915271048
 30
0.0
 10
120.5753209406769
 20
127.8027915271048
 30
0.0
 10
120.5753209406769
 20
127.8027915271048
 30
0.0
 10
118.1964809388044
 20
127.8027915271048
 30
0.0
 10
118.1964809388044
 20
127.8027915271048
 30
0.0
 10
118.1964809388044
 20
127.8027915271048
 30
0.0
 10
126.377554584636
 20
154.8151140277308
 30
0.0
 10
126.377554584636
 20
154.8151140277308
 30
0.0
  0
HATCH
  5
6A7
330
6A2
100
AcDbEntity
  8
LOGO
 62
   250
420
  2234388
100
AcDbHatch
 10
0.0
 20
0.0
 30
0.0
210
0.0
220
0.0
230
1.0
  2
SOLID
 70
     1
 71
     0
 91
        1
 92
        1
 93
        1
 72
     4
 94
        3
 73
     0
 74
     1
 95
       38
 96
       34
 40
0.0
 40
0.0
 40
0.0
 40
0.0
 40
1.0
 40
1.0
 40
1.0
 40
2.0
 40
2.0
 40
2.0
 40
3.0
 40
3.0
 40
3.0
 40
4.0
 40
4.0
 40
4.0
 40
5.0
 40
5.0
 40
5.0
 40
6.0
 40
6.0
 40
6.0
 40
7.0
 40
7.0
 40
7.0
 40
8.0
 40
8.0
 40
8.0
 40
9.0
 40
9.0
 40
9.0
 40
10.0
 40
10.0
 40
10.0
 40
11.0
 40
11.0
 40
11.0
 40
11.0
 10
126.377554584636
 20
154.8151140277308
 10
126.377554584636
 20
154.8151140277308
 10
128.8311532078563
 20
154.8151140277308
 10
128.8311532078563
 20
154.8151140277308
 10
128.8311532078563
 20
154.8151140277308
 10
127.7345785914971
 20
151.3062819612468
 10
127.7345785914971
 20
151.3062819612468
 10
128.571392836906
 20
152.2922689395754
 10
129.8860421413442
 20
153.604506675583
 10
131.0163787157314
 20
154.2664822097754
 10
132.7044766171327
 20
155.2500576196734
 10
133.6642808525008
 20
155.3847609420097
 10
134.7284715499351
 20
155.3565111403944
 10
134.7284715499351
 20
155.3565111403944
 10
133.6877075172549
 20
152.0345756272799
 10
133.6877075172549
 20
152.0345756272799
 10
133.011434827367
 20
152.3184516825359
 10
130.930940291334
 20
151.7768823149844
 10
129.739280976855
 20
150.9162968950455
 10
128.66613302525
 20
150.1454562717016
 10
127.9192358313239
 20
149.4857200510519
 10
127.0393578639405
 20
147.8282835196966
 10
126.164647543194
 20
146.1699857139017
 10
125.4742499524985
 20
143.5262176944419
 10
124.2822461282437
 20
139.6959580071401
 10
124.2822461282437
 20
139.6959580071401
 10
120.5753209406769
 20
127.8027915271048
 10
120.5753209406769
 20
127.8027915271048
 10
120.5753209406769
 20
127.8027915271048
 10
118.1964809388044
 20
127.8027915271048
 10
118.1964809388044
 20
127.8027915271048
 10
118.1964809388044
 20
127.8027915271048
 10
126.377554584636
 20
154.8151140277308
 10
126.377554584636
 20
154.8151140277308
 97
        0
 75
     2
 76
     1
 98
        0
  0
SPLINE
  5
6A8
330
6A2
100
AcDbEntity
  8
LOGO
370
     0
100
AcDbSpline
210
0.0
220
0.0
230
1.0
 70
    11
 71
     3
 72
   104
 73
   100
 74
     0
 42
0.000000001
 43
0.0000000001
 40
0.0
 40
0.0
 40
0.0
 40
0.0
 40
1.0
 40
1.0
 40
1.0
 40
2.0
 40
2.0
 40
2.0
 40
3.0
 40
3.0
 40
3.0
 40
4.0
 40
4.0
 40
4.0
 40
5.0
 40
5.0
 40
5.0
 40
6.0
 40
6.0
 40
6.0
 40
7.0
 40
7.0
 40
7.0
 40
8.0
 40
8.0
 40
8.0
 40
9.0
 40
9.0
 40
9.0
 40
10.0
 40
10.0
 40
10.0
 40
11.0
 40
11.0
 40
11.0
 40
12.0
 40
12.0
 40
12.0
 40
13.0
 40
13.0
 40
13.0
 40
14.0
 40
14.0
 40
14.0
 40
15.0
 40
15.0
 40
15.0
 40
16.0
 40
16.0
 40
16.0
 40
17.0
 40
17.0
 40
17.0
 40
18.0
 40
18.0
 40
18.0
 40
19.0
 40
19.0
 40
19.0
 40
20.0
 40
20.0
 40
20.0
 40
21.0
 40
21.0
 40
21.0
 40
22.0
 40
22.0
 40
22.0
 40
23.0
 40
23.0
 40
23.0
 40
24.0
 40
24.0
 40
24.0
 40
25.0
 40
25.0
 40
25.0
 40
26.0
 40
26.0
 40
26.0
 40
27.0
 40
27.0
 40
27.0
 40
28.0
 40
28.0
 40
28.0
 40
29.0
 40
29.0
 40
29.0
 40
30.0
 40
30.0
 40
30.0
 40
31.0
 40
31.0
 40
31.0
 40
32.0
 40
32.0
 40
32.0
 40
33.0
 40
33.0
 40
33.0
 40
33.0
 10
139.8926730891197
 20
154.8294111834263
 30
0.0
 10
139.8926730891197
 20
154.8294111834263
 30
0.0
 10
142.0344903652445
 20
154.8294111834263
 30
0.0
 10
142.0344903652445
 20
154.8294111834263
 30
0.0
 10
142.0344903652445
 20
154.8294111834263
 30
0.0
 10
140.9516961399171
 20
151.3157559800812
 30
0.0
 10
140.9516961399171
 20
151.3157559800812
 30
0.0
 10
141.8928968473923
 20
152.7887075264977
 30
0.0
 10
142.7341897198865
 20
153.4484437471474
 30
0.0
 10
143.8552245303272
 20
154.2926649527359
 30
0.0
 10
144.9803934580775
 20
155.1296514530327
 30
0.0
 10
146.3139908001845
 20
155.3044901642492
 30
0.0
 10
147.241066606852
 20
155.3044901642492
 30
0.0
 10
148.3855280820469
 20
155.3044901642492
 30
0.0
 10
149.4969166187653
 20
155.0752189084569
 30
0.0
 10
150.0784491203092
 20
153.8172414621372
 30
0.0
 10
150.5228667310863
 20
152.833838307127
 30
0.0
 10
150.5414702589793
 20
152.7201500811143
 30
0.0
 10
150.4140016419347
 20
150.7765981809602
 30
0.0
 10
151.5818897818837
 20
152.7699317437168
 30
0.0
 10
152.4424752018226
 20
153.6256940267945
 30
0.0
 10
153.9038856707499
 20
154.4507949398263
 30
0.0
 10
155.4455669174378
 20
155.3044901642492
 30
0.0
 10
156.339225275853
 20
155.3659851592288
 30
0.0
 10
157.3748216618963
 20
155.2147453676543
 30
0.0
 10
158.911679771723
 20
154.9877134254046
 30
0.0
 10
159.8859534176746
 20
154.4390816074493
 30
0.0
 10
160.3965169054045
 20
152.7816450760939
 30
0.0
 10
160.9070803931344
 20
151.1219692311958
 30
0.0
 10
160.6328506116007
 20
150.2303779314354
 30
0.0
 10
159.9992971339115
 20
147.597634224801
 30
0.0
 10
159.7105979417943
 20
146.4014962832367
 30
0.0
 10
159.2947746424084
 20
144.9400858143094
 30
0.0
 10
158.7463150793409
 20
143.2092687007094
 30
0.0
 10
158.7463150793409
 20
143.2092687007094
 30
0.0
 10
153.9038856707499
 20
127.8027915271048
 30
0.0
 10
153.9038856707499
 20
127.8027915271048
 30
0.0
 10
153.9038856707499
 20
127.8027915271048
 30
0.0
 10
151.3882752878863
 20
127.8027915271048
 30
0.0
 10
151.3882752878863
 20
127.8027915271048
 30
0.0
 10
151.3882752878863
 20
127.8027915271048
 30
0.0
 10
155.6250565106276
 20
141.2751908193897
 30
0.0
 10
155.6250565106276
 20
141.2751908193897
 30
0.0
 10
156.5094131050963
 20
144.0936252951782
 30
0.0
 10
157.109893644309
 20
146.1506931664571
 30
0.0
 10
157.4220195011804
 20
147.4415712963654
 30
0.0
 10
157.8095929989511
 20
149.0530157726519
 30
0.0
 10
157.9656559273867
 20
149.5826995529385
 30
0.0
 10
157.7816877071116
 20
150.7529992613181
 30
0.0
 10
157.6111553680925
 20
151.8430281919372
 30
0.0
 10
157.0582171779396
 20
152.5547853887321
 30
0.0
 10
156.1170164704645
 20
152.5547853887321
 30
0.0
 10
155.1096698860365
 20
152.5547853887321
 30
0.0
 10
154.2962823053817
 20
152.4412694176073
 30
0.0
 10
153.156643967048
 20
151.2945686288697
 30
0.0
 10
152.0170056287143
 20
150.1476955852443
 30
0.0
 10
151.076149431015
 20
148.7930831468137
 30
0.0
 10
150.3337308641742
 20
147.2290087646991
 30
0.0
 10
149.5957909244188
 20
145.6683794803425
 30
0.0
 10
148.8530278478023
 20
143.6822806228776
 30
0.0
 10
148.0964843801539
 20
141.2751908193897
 30
0.0
 10
148.0964843801539
 20
141.2751908193897
 30
0.0
 10
143.8552245303272
 20
127.8027915271048
 30
0.0
 10
143.8552245303272
 20
127.8027915271048
 30
0.0
 10
143.8552245303272
 20
127.8027915271048
 30
0.0
 10
141.486030802177
 20
127.8027915271048
 30
0.0
 10
141.486030802177
 20
127.8027915271048
 30
0.0
 10
141.486030802177
 20
127.8027915271048
 30
0.0
 10
146.3329388378533
 20
143.2092687007094
 30
0.0
 10
146.3329388378533
 20
143.2092687007094
 30
0.0
 10
146.8483254624444
 20
144.8408669988801
 30
0.0
 10
147.2314203331297
 20
146.1837661049335
 30
0.0
 10
147.4867020769946
 20
147.224185627838
 30
0.0
 10
147.9169947869641
 20
149.0197705792876
 30
0.0
 10
148.0306830129768
 20
150.2400242051577
 30
0.0
 10
147.709255392159
 20
151.3157559800812
 30
0.0
 10
147.3874832615654
 20
152.3916600098926
 30
0.0
 10
146.8245542879144
 20
152.6683013598569
 30
0.0
 10
145.8840425999909
 20
152.6683013598569
 30
0.0
 10
145.0989048209514
 20
152.6683013598569
 30
0.0
 10
144.3282364524954
 20
152.3275811915945
 30
0.0
 10
143.4531816219731
 20
151.6538923250251
 30
0.0
 10
142.34627171234
 20
150.8074318058939
 30
0.0
 10
141.901854101563
 20
150.1097995099067
 30
0.0
 10
141.3578731655808
 20
149.289521733736
 30
0.0
 10
140.6299240093235
 20
148.192602607601
 30
0.0
 10
140.2850697237515
 20
147.455696197173
 30
0.0
 10
139.6652966370942
 20
145.8385673095858
 30
0.0
 10
139.0506911970739
 20
144.2214384219986
 30
0.0
 10
138.463991048893
 20
142.3252566160164
 30
0.0
 10
138.0571250036777
 20
141.0154304484394
 30
0.0
 10
138.0571250036777
 20
141.0154304484394
 30
0.0
 10
133.9009590684727
 20
127.8027915271048
 30
0.0
 10
133.9009590684727
 20
127.8027915271048
 30
0.0
 10
133.9009590684727
 20
127.8027915271048
 30
0.0
 10
131.4180771143097
 20
127.8027915271048
 30
0.0
 10
131.4180771143097
 20
127.8027915271048
 30
0.0
 10
131.4180771143097
 20
127.8027915271048
 30
0.0
 10
139.8926730891197
 20
154.8294111834263
 30
0.0
 10
139.8926730891197
 20
154.8294111834263
 30
0.0
  0
HATCH
  5
6A9
330
6A2
100
AcDbEntity
  8
LOGO
 62
   250
420
  2234388
100
AcDbHatch
 10
0.0
 20
0.0
 30
0.0
210
0.0
220
0.0
230
1.0
  2
SOLID
 70
     1
 71
     0
 91
        1
 92
        1
 93
        1
 72
     4
 94
        3
 73
     0
 74
     1
 95
      104
 96
      100
 40
0.0
 40
0.0
 40
0.0
 40
0.0
 40
1.0
 40
1.0
 40
1.0
 40
2.0
 40
2.0
 40
2.0
 40
3.0
 40
3.0
 40
3.0
 40
4.0
 40
4.0
 40
4.0
 40
5.0
 40
5.0
 40
5.0
 40
6.0
 40
6.0
 40
6.0
 40
7.0
 40
7.0
 40
7.0
 40
8.0
 40
8.0
 40
8.0
 40
9.0
 40
9.0
 40
9.0
 40
10.0
 40
10.0
 40
10.0
 40
11.0
 40
11.0
 40
11.0
 40
12.0
 40
12.0
 40
12.0
 40
13.0
 40
13.0
 40
13.0
 40
14.0
 40
14.0
 40
14.0
 40
15.0
 40
15.0
 40
15.0
 40
16.0
 40
16.0
 40
16.0
 40
17.0
 40
17.0
 40
17.0
 40
18.0
 40
18.0
 40
18.0
 40
19.0
 40
19.0
 40
19.0
 40
20.0
 40
20.0
 40
20.0
 40
21.0
 40
21.0
 40
21.0
 40
22.0
 40
22.0
 40
22.0
 40
23.0
 40
23.0
 40
23.0
 40
24.0
 40
24.0
 40
24.0
 40
25.0
 40
25.0
 40
25.0
 40
26.0
 40
26.0
 40
26.0
 40
27.0
 40
27.0
 40
27.0
 40
28.0
 40
28.0
 40
28.0
 40
29.0
 40
29.0
 40
29.0
 40
30.0
 40
30.0
 40
30.0
 40
31.0
 40
31.0
 40
31.0
 40
32.0
 40
32.0
 40
32.0
 40
33.0
 40
33.0
 40
33.0
 40
33.0
 10
139.8926730891197
 20
154.8294111834263
 10
139.8926730891197
 20
154.8294111834263
 10
142.0344903652445
 20
154.8294111834263
 10
142.0344903652445
 20
154.8294111834263
 10
142.0344903652445
 20
154.8294111834263
 10
140.9516961399171
 20
151.3157559800812
 10
140.9516961399171
 20
151.3157559800812
 10
141.8928968473923
 20
152.7887075264977
 10
142.7341897198865
 20
153.4484437471474
 10
143.8552245303272
 20
154.2926649527359
 10
144.9803934580775
 20
155.1296514530327
 10
146.3139908001845
 20
155.3044901642492
 10
147.241066606852
 20
155.3044901642492
 10
148.3855280820469
 20
155.3044901642492
 10
149.4969166187653
 20
155.0752189084569
 10
150.0784491203092
 20
153.8172414621372
 10
150.5228667310863
 20
152.833838307127
 10
150.5414702589793
 20
152.7201500811143
 10
150.4140016419347
 20
150.7765981809602
 10
151.5818897818837
 20
152.7699317437168
 10
152.4424752018226
 20
153.6256940267945
 10
153.9038856707499
 20
154.4507949398263
 10
155.4455669174378
 20
155.3044901642492
 10
156.339225275853
 20
155.3659851592288
 10
157.3748216618963
 20
155.2147453676543
 10
158.911679771723
 20
154.9877134254046
 10
159.8859534176746
 20
154.4390816074493
 10
160.3965169054045
 20
152.7816450760939
 10
160.9070803931344
 20
151.1219692311958
 10
160.6328506116007
 20
150.2303779314354
 10
159.9992971339115
 20
147.597634224801
 10
159.7105979417943
 20
146.4014962832367
 10
159.2947746424084
 20
144.9400858143094
 10
158.7463150793409
 20
143.2092687007094
 10
158.7463150793409
 20
143.2092687007094
 10
153.9038856707499
 20
127.8027915271048
 10
153.9038856707499
 20
127.8027915271048
 10
153.9038856707499
 20
127.8027915271048
 10
151.3882752878863
 20
127.8027915271048
 10
151.3882752878863
 20
127.8027915271048
 10
151.3882752878863
 20
127.8027915271048
 10
155.6250565106276
 20
141.2751908193897
 10
155.6250565106276
 20
141.2751908193897
 10
156.5094131050963
 20
144.0936252951782
 10
157.109893644309
 20
146.1506931664571
 10
157.4220195011804
 20
147.4415712963654
 10
157.8095929989511
 20
149.0530157726519
 10
157.9656559273867
 20
149.5826995529385
 10
157.7816877071116
 20
150.7529992613181
 10
157.6111553680925
 20
151.8430281919372
 10
157.0582171779396
 20
152.5547853887321
 10
156.1170164704645
 20
152.5547853887321
 10
155.1096698860365
 20
152.5547853887321
 10
154.2962823053817
 20
152.4412694176073
 10
153.156643967048
 20
151.2945686288697
 10
152.0170056287143
 20
150.1476955852443
 10
151.076149431015
 20
148.7930831468137
 10
150.3337308641742
 20
147.2290087646991
 10
149.5957909244188
 20
145.6683794803425
 10
148.8530278478023
 20
143.6822806228776
 10
148.0964843801539
 20
141.2751908193897
 10
148.0964843801539
 20
141.2751908193897
 10
143.8552245303272
 20
127.8027915271048
 10
143.8552245303272
 20
127.8027915271048
 10
143.8552245303272
 20
127.8027915271048
 10
141.486030802177
 20
127.8027915271048
 10
141.486030802177
 20
127.8027915271048
 10
141.486030802177
 20
127.8027915271048
 10
146.3329388378533
 20
143.2092687007094
 10
146.3329388378533
 20
143.2092687007094
 10
146.8483254624444
 20
144.8408669988801
 10
147.2314203331297
 20
146.1837661049335
 10
147.4867020769946
 20
147.224185627838
 10
147.9169947869641
 20
149.0197705792876
 10
148.0306830129768
 20
150.2400242051577
 10
147.709255392159
 20
151.3157559800812
 10
147.3874832615654
 20
152.3916600098926
 10
146.8245542879144
 20
152.6683013598569
 10
145.8840425999909
 20
152.6683013598569
 10
145.0989048209514
 20
152.6683013598569
 10
144.3282364524954
 20
152.3275811915945
 10
143.4531816219731
 20
151.6538923250251
 10
142.34627171234
 20
150.8074318058939
 10
141.901854101563
 20
150.1097995099067
 10
141.3578731655808
 20
149.289521733736
 10
140.6299240093235
 20
148.192602607601
 10
140.2850697237515
 20
147.455696197173
 10
139.6652966370942
 20
145.8385673095858
 10
139.0506911970739
 20
144.2214384219986
 10
138.463991048893
 20
142.3252566160164
 10
138.0571250036777
 20
141.0154304484394
 10
138.0571250036777
 20
141.0154304484394
 10
133.9009590684727
 20
127.8027915271048
 10
133.9009590684727
 20
127.8027915271048
 10
133.9009590684727
 20
127.8027915271048
 10
131.4180771143097
 20
127.8027915271048
 10
131.4180771143097
 20
127.8027915271048
 10
131.4180771143097
 20
127.8027915271048
 10
139.8926730891197
 20
154.8294111834263
 10
139.8926730891197
 20
154.8294111834263
 97
        0
 75
     2
 76
     1
 98
        0
  0
SPLINE
  5
6AA
330
6A2
100
AcDbEntity
  8
LOGO
370
     0
100
AcDbSpline
210
0.0
220
0.0
230
1.0
 70
    11
 71
     3
 72
    29
 73
    25
 74
     0
 42
0.000000001
 43
0.0000000001
 40
0.0
 40
0.0
 40
0.0
 40
0.0
 40
1.0
 40
1.0
 40
1.0
 40
2.0
 40
2.0
 40
2.0
 40
3.0
 40
3.0
 40
3.0
 40
4.0
 40
4.0
 40
4.0
 40
5.0
 40
5.0
 40
5.0
 40
6.0
 40
6.0
 40
6.0
 40
7.0
 40
7.0
 40
7.0
 40
8.0
 40
8.0
 40
8.0
 40
8.0
 10
101.6420971922469
 20
132.8388354296931
 30
0.0
 10
101.630039350094
 20
134.7164137077823
 30
0.0
 10
102.2236296937908
 20
138.0598810818841
 30
0.0
 10
103.7487744712405
 20
142.5378191476827
 30
0.0
 10
105.819967243327
 20
148.5896501242061
 30
0.0
 10
107.0602024361932
 20
150.8074318058939
 30
0.0
 10
108.1522984254671
 20
151.8833358357054
 30
0.0
 10
109.741177511439
 20
153.4532668840085
 30
0.0
 10
111.8740375333931
 20
153.5290590346837
 30
0.0
 10
112.5075910110823
 20
153.4532668840085
 30
0.0
 10
113.4012493694975
 20
153.3490526768302
 30
0.0
 10
114.6683563248758
 20
152.7580461564518
 30
0.0
 10
114.7493161221879
 20
150.7838328862519
 30
0.0
 10
114.8106388622796
 20
149.0909118479895
 30
0.0
 10
114.3186789024427
 20
145.9191825971221
 30
0.0
 10
112.6164561002338
 20
140.9489400617108
 30
0.0
 10
110.6444821435766
 20
135.1746117095912
 30
0.0
 10
109.4669477299053
 20
132.8960240524753
 30
0.0
 10
108.5212683953448
 20
131.9072809959403
 30
0.0
 10
106.7346406980658
 20
130.0538184021569
 30
0.0
 10
104.8222669326213
 20
130.2336525051225
 30
0.0
 10
104.5408024457958
 20
130.2336525051225
 30
0.0
 10
104.1721769856939
 20
130.2336525051225
 30
0.0
 10
101.6465758193322
 20
130.6305277668397
 30
0.0
 10
101.6420971922469
 20
132.8388354296931
 30
0.0
  0
SPLINE
  5
6AB
330
6A2
100
AcDbEntity
  8
LOGO
370
     0
100
AcDbSpline
210
0.0
220
0.0
230
1.0
 70
    11
 71
     3
 72
    32
 73
    28
 74
     0
 42
0.000000001
 43
0.0000000001
 40
0.0
 40
0.0
 40
0.0
 40
0.0
 40
1.0
 40
1.0
 40
1.0
 40
2.0
 40
2.0
 40
2.0
 40
3.0
 40
3.0
 40
3.0
 40
4.0
 40
4.0
 40
4.0
 40
5.0
 40
5.0
 40
5.0
 40
6.0
 40
6.0
 40
6.0
 40
7.0
 40
7.0
 40
7.0
 40
8.0
 40
8.0
 40
8.0
 40
9.0
 40
9.0
 40
9.0
 40
9.0
 10
106.2595617172429
 20
153.4105476718098
 30
0.0
 10
104.8222669326213
 20
151.5474388043041
 30
0.0
 10
103.7177685914188
 20
149.8758773721411
 30
0.0
 10
101.9232171692965
 20
144.6141795664062
 30
0.0
 10
100.2754269116635
 20
139.7999999594306
 30
0.0
 10
99.22777268346732
 20
136.3052927937542
 30
0.0
 10
99.06964269637689
 20
132.039572749846
 30
0.0
 10
98.94665270641765
 20
128.8673267343149
 30
0.0
 10
100.8807305877373
 20
127.8027915271048
 30
0.0
 10
103.7129454545577
 20
127.8027915271048
 30
0.0
 10
104.9352661390825
 20
127.8027915271048
 30
0.0
 10
108.0151835347002
 20
127.8827177950895
 30
0.0
 10
110.2045431598849
 20
130.5926316915021
 30
0.0
 10
111.7417457794874
 20
132.4984597712065
 30
0.0
 10
113.155269389579
 20
134.475256864725
 30
0.0
 10
115.0562743324223
 20
140.9489400617108
 30
0.0
 10
116.6361961642235
 20
146.3680788349845
 30
0.0
 10
117.7282921534974
 20
149.8639917848761
 30
0.0
 10
117.6480213757369
 20
151.8595646611754
 30
0.0
 10
117.6480213757369
 20
151.8595646611754
 30
0.0
 10
117.6480213757369
 20
151.8595646611754
 30
0.0
 10
117.6480213757369
 20
151.8595646611754
 30
0.0
 10
117.13229024137
 20
155.18150017429
 30
0.0
 10
114.7162431837115
 20
155.886194920681
 30
0.0
 10
113.3351034925446
 20
155.886194920681
 30
0.0
 10
111.9829026225447
 20
155.886194920681
 30
0.0
 10
108.3414342923792
 20
156.1251124501957
 30
0.0
 10
106.2595617172429
 20
153.4105476718098
 30
0.0
  0
HATCH
  5
6AC
330
6A2
100
AcDbEntity
  8
LOGO
 62
   250
420
  2234388
100
AcDbHatch
 10
0.0
 20
0.0
 30
0.0
210
0.0
220
0.0
230
1.0
  2
SOLID
 70
     1
 71
     0
 91
        2
 92
        1
 93
        1
 72
     4
 94
        3
 73
     0
 74
     1
 95
       29
 96
       25
 40
0.0
 40
0.0
 40
0.0
 40
0.0
 40
1.0
 40
1.0
 40
1.0
 40
2.0
 40
2.0
 40
2.0
 40
3.0
 40
3.0
 40
3.0
 40
4.0
 40
4.0
 40
4.0
 40
5.0
 40
5.0
 40
5.0
 40
6.0
 40
6.0
 40
6.0
 40
7.0
 40
7.0
 40
7.0
 40
8.0
 40
8.0
 40
8.0
 40
8.0
 10
101.6420971922469
 20
132.8388354296931
 10
101.630039350094
 20
134.7164137077823
 10
102.2236296937908
 20
138.0598810818841
 10
103.7487744712405
 20
142.5378191476827
 10
105.819967243327
 20
148.5896501242061
 10
107.0602024361932
 20
150.8074318058939
 10
108.1522984254671
 20
151.8833358357054
 10
109.741177511439
 20
153.4532668840085
 10
111.8740375333931
 20
153.5290590346837
 10
112.5075910110823
 20
153.4532668840085
 10
113.4012493694975
 20
153.3490526768302
 10
114.6683563248758
 20
152.7580461564518
 10
114.7493161221879
 20
150.7838328862519
 10
114.8106388622796
 20
149.0909118479895
 10
114.3186789024427
 20
145.9191825971221
 10
112.6164561002338
 20
140.9489400617108
 10
110.6444821435766
 20
135.1746117095912
 10
109.4669477299053
 20
132.8960240524753
 10
108.5212683953448
 20
131.9072809959403
 10
106.7346406980658
 20
130.0538184021569
 10
104.8222669326213
 20
130.2336525051225
 10
104.5408024457958
 20
130.2336525051225
 10
104.1721769856939
 20
130.2336525051225
 10
101.6465758193322
 20
130.6305277668397
 10
101.6420971922469
 20
132.8388354296931
 97
        0
 92
        1
 93
        1
 72
     4
 94
        3
 73
     0
 74
     1
 95
       32
 96
       28
 40
0.0
 40
0.0
 40
0.0
 40
0.0
 40
1.0
 40
1.0
 40
1.0
 40
2.0
 40
2.0
 40
2.0
 40
3.0
 40
3.0
 40
3.0
 40
4.0
 40
4.0
 40
4.0
 40
5.0
 40
5.0
 40
5.0
 40
6.0
 40
6.0
 40
6.0
 40
7.0
 40
7.0
 40
7.0
 40
8.0
 40
8.0
 40
8.0
 40
9.0
 40
9.0
 40
9.0
 40
9.0
 10
106.2595617172429
 20
153.4105476718098
 10
104.8222669326213
 20
151.5474388043041
 10
103.7177685914188
 20
149.8758773721411
 10
101.9232171692965
 20
144.6141795664062
 10
100.2754269116635
 20
139.7999999594306
 10
99.22777268346732
 20
136.3052927937542
 10
99.06964269637689
 20
132.039572749846
 10
98.94665270641765
 20
128.8673267343149
 10
100.8807305877373
 20
127.8027915271048
 10
103.7129454545577
 20
127.8027915271048
 10
104.9352661390825
 20
127.8027915271048
 10
108.0151835347002
 20
127.8827177950895
 10
110.2045431598849
 20
130.5926316915021
 10
111.7417457794874
 20
132.4984597712065
 10
113.155269389579
 20
134.475256864725
 10
115.0562743324223
 20
140.9489400617108
 10
116.6361961642235
 20
146.3680788349845
 10
117.7282921534974
 20
149.8639917848761
 10
117.6480213757369
 20
151.8595646611754
 10
117.6480213757369
 20
151.8595646611754
 10
117.6480213757369
 20
151.8595646611754
 10
117.6480213757369
 20
151.8595646611754
 10
117.13229024137
 20
155.18150017429
 10
114.7162431837115
 20
155.886194920681
 10
113.3351034925446
 20
155.886194920681
 10
111.9829026225447
 20
155.886194920681
 10
108.3414342923792
 20
156.1251124501957
 10
106.2595617172429
 20
153.4105476718098
 97
        0
 75
     2
 76
     1
 98
        0
  0
ENDBLK
  5
6AD
330
6A2
100
AcDbEntity
  8
0
100
AcDbBlockEnd
  0
BLOCK
  5
20BF
330
20BE
100
AcDbEntity
  8
0
100
AcDbBlockBegin
  2
*D6
 70
     1
 10
0.0
 20
0.0
 30
0.0
  3
*D6
  1

  0
LINE
  5
20C1
330
20BE
100
AcDbEntity
  8
DIM
 62
     0
370
    -2
100
AcDbLine
 10
421.6415807289937
 20
334.8979690190789
 30
0.0
 11
372.1265307583095
 21
334.8979690190789
 31
0.0
  0
LINE
  5
20C2
330
20BE
100
AcDbEntity
  8
DIM
 62
     0
370
    -2
100
AcDbLine
 10
421.6415807289937
 20
366.8979690190771
 30
0.0
 11
372.1265307583095
 21
366.8979690190771
 31
0.0
  0
LINE
  5
20C3
330
20BE
100
AcDbEntity
  8
DIM
 62
     0
370
    -2
100
AcDbLine
 10
372.1265307583095
 20
337.8979690190789
 30
0.0
 11
372.1265307583095
 21
363.8979690190771
 31
0.0
  0
INSERT
  5
20C4
330
20BE
100
AcDbEntity
  8
DIM
 62
     0
370
    -2
100
AcDbBlockReference
  2
_DOT
 10
372.1265307583095
 20
334.8979690190789
 30
0.0
 41
3.0
 42
3.0
 43
3.0
 50
270.0
  0
INSERT
  5
20C5
330
20BE
100
AcDbEntity
  8
DIM
 62
     0
370
    -2
100
AcDbBlockReference
  2
_DOT
 10
372.1265307583095
 20
366.8979690190771
 30
0.0
 41
3.0
 42
3.0
 43
3.0
 50
90.0
  0
MTEXT
  5
20C6
330
20BE
100
AcDbEntity
  8
DIM
 62
     0
100
AcDbMText
 10
361.1265307583095
 20
346.7959690190789
 30
0.0
 40
7.0
 41
0.0
 46
0.0
 71
     1
 72
     1
  1
\A1;32
  7
ＭＳ ゴシック
 11
0.0
 21
1.0
 31
0.0
 73
     1
 44
1.0
  0
POINT
  5
20C7
330
20BE
100
AcDbEntity
  8
Defpoints
 62
     0
100
AcDbPoint
 10
431.6415807289937
 20
334.8979690190789
 30
0.0
  0
POINT
  5
20C8
330
20BE
100
AcDbEntity
  8
Defpoints
 62
     0
100
AcDbPoint
 10
431.6415807289937
 20
366.8979690190771
 30
0.0
  0
POINT
  5
215C
330
20BE
100
AcDbEntity
  8
Defpoints
 62
     0
100
AcDbPoint
 10
372.1265307583095
 20
366.8979690190771
 30
0.0
  0
ENDBLK
  5
20C0
330
20BE
100
AcDbEntity
  8
0
100
AcDbBlockEnd
  0
BLOCK
  5
20CC
330
20CB
100
AcDbEntity
  8
0
100
AcDbBlockBegin
  2
*D7
 70
     1
 10
0.0
 20
0.0
 30
0.0
  3
*D7
  1

  0
LINE
  5
20CE
330
20CB
100
AcDbEntity
  8
DIM
 62
     0
370
    -2
100
AcDbLine
 10
430.6109832074977
 20
355.5979690190778
 30
0.0
 11
395.6904871416851
 21
355.5979690190778
 31
0.0
  0
LINE
  5
20CF
330
20CB
100
AcDbEntity
  8
DIM
 62
     0
370
    -2
100
AcDbLine
 10
430.6109832074977
 20
346.1979690190782
 30
0.0
 11
395.6904871416851
 21
346.1979690190782
 31
0.0
  0
LINE
  5
20D0
330
20CB
100
AcDbEntity
  8
DIM
 62
     0
370
    -2
100
AcDbLine
 10
395.6904871416851
 20
352.5979690190778
 30
0.0
 11
395.6904871416851
 21
349.1979690190782
 31
0.0
  0
INSERT
  5
20D1
330
20CB
100
AcDbEntity
  8
DIM
 62
     0
370
    -2
100
AcDbBlockReference
  2
_DOT
 10
395.6904871416851
 20
355.5979690190778
 30
0.0
 41
3.0
 42
3.0
 43
3.0
 50
90.0
  0
INSERT
  5
20D2
330
20CB
100
AcDbEntity
  8
DIM
 62
     0
370
    -2
100
AcDbBlockReference
  2
_DOT
 10
395.6904871416851
 20
346.1979690190782
 30
0.0
 41
3.0
 42
3.0
 43
3.0
 50
270.0
  0
MTEXT
  5
20D3
330
20CB
100
AcDbEntity
  8
DIM
 62
     0
100
AcDbMText
 10
384.6904871416851
 20
344.4649690190789
 30
0.0
 40
7.0
 41
0.0
 46
0.0
 71
     1
 72
     1
  1
\A1;9.4
  7
ＭＳ ゴシック
 11
0.0
 21
1.0
 31
0.0
 73
     1
 44
1.0
  0
POINT
  5
20D4
330
20CB
100
AcDbEntity
  8
Defpoints
 62
     0
100
AcDbPoint
 10
440.6109832074977
 20
355.5979690190778
 30
0.0
  0
POINT
  5
20D5
330
20CB
100
AcDbEntity
  8
Defpoints
 62
     0
100
AcDbPoint
 10
440.6109832074977
 20
346.1979690190782
 30
0.0
  0
POINT
  5
20D6
330
20CB
100
AcDbEntity
  8
Defpoints
 62
     0
100
AcDbPoint
 10
395.6904871416851
 20
346.1979690190782
 30
0.0
  0
ENDBLK
  5
20CD
330
20CB
100
AcDbEntity
  8
0
100
AcDbBlockEnd
  0
BLOCK
  5
20DA
330
20D9
100
AcDbEntity
  8
0
100
AcDbBlockBegin
  2
*D8
 70
     1
 10
0.0
 20
0.0
 30
0.0
  3
*D8
  1

  0
LINE
  5
20DC
330
20D9
100
AcDbEntity
  8
DIM
 62
     0
370
    -2
100
AcDbLine
 10
477.9491942745132
 20
344.6979690190781
 30
0.0
 11
511.1084750514403
 21
344.6979690190776
 31
0.0
  0
LINE
  5
20DD
330
20D9
100
AcDbEntity
  8
DIM
 62
     0
370
    -2
100
AcDbLine
 10
477.9491942745132
 20
357.0979690190777
 30
0.0
 11
511.1084750514405
 21
357.0979690190773
 31
0.0
  0
LINE
  5
20DE
330
20D9
100
AcDbEntity
  8
DIM
 62
     0
370
    -2
100
AcDbLine
 10
511.1084750514403
 20
344.6979690190776
 30
0.0
 11
511.1084750514409
 21
388.0869690190773
 31
0.0
  0
LINE
  5
20DF
330
20D9
100
AcDbEntity
  8
DIM
 62
     0
370
    -2
100
AcDbLine
 10
511.1084750514405
 20
354.0979690190773
 30
0.0
 11
511.1084750514404
 21
351.0979690190773
 31
0.0
  0
INSERT
  5
20E0
330
20D9
100
AcDbEntity
  8
DIM
 62
     0
370
    -2
100
AcDbBlockReference
  2
_DOT
 10
511.1084750514403
 20
344.6979690190776
 30
0.0
 41
3.0
 42
3.0
 43
3.0
 50
269.9999999999992
  0
INSERT
  5
20E1
330
20D9
100
AcDbEntity
  8
DIM
 62
     0
370
    -2
100
AcDbBlockReference
  2
_DOT
 10
511.1084750514405
 20
357.0979690190773
 30
0.0
 41
3.0
 42
3.0
 43
3.0
 50
89.9999999999992
  0
MTEXT
  5
20E2
330
20D9
100
AcDbEntity
  8
DIM
 62
     0
100
AcDbMText
 10
500.1084750514406
 20
367.0979690190775
 30
0.0
 40
7.0
 41
0.0
 46
0.0
 71
     1
 72
     1
  1
\A1;12.4
  7
ＭＳ ゴシック
 11
1.375244004697008E-14
 21
1.0
 31
0.0
 73
     1
 44
1.0
  0
POINT
  5
20E3
330
20D9
100
AcDbEntity
  8
Defpoints
 62
     0
100
AcDbPoint
 10
467.9491942745132
 20
344.6979690190782
 30
0.0
  0
POINT
  5
20E4
330
20D9
100
AcDbEntity
  8
Defpoints
 62
     0
100
AcDbPoint
 10
467.9491942745132
 20
357.0979690190778
 30
0.0
  0
POINT
  5
212C
330
20D9
100
AcDbEntity
  8
Defpoints
 62
     0
100
AcDbPoint
 10
511.1084750514406
 20
357.0979690190773
 30
0.0
  0
ENDBLK
  5
20DB
330
20D9
100
AcDbEntity
  8
0
100
AcDbBlockEnd
  0
BLOCK
  5
20E8
330
20E7
100
AcDbEntity
  8
0
100
AcDbBlockBegin
  2
*D9
 70
     1
 10
0.0
 20
0.0
 30
0.0
  3
*D9
  1

  0
LINE
  5
20EA
330
20E7
100
AcDbEntity
  8
DIM
 62
     0
370
    -2
100
AcDbLine
 10
487.9077720350602
 20
209.6979690190782
 30
0.0
 11
540.1189241128993
 21
209.6979690190782
 31
0.0
  0
LINE
  5
20EB
330
20E7
100
AcDbEntity
  8
DIM
 62
     0
370
    -2
100
AcDbLine
 10
487.9077720350602
 20
492.0979690190778
 30
0.0
 11
540.1189241128993
 21
492.0979690190778
 31
0.0
  0
LINE
  5
20EC
330
20E7
100
AcDbEntity
  8
DIM
 62
     0
370
    -2
100
AcDbLine
 10
540.1189241128993
 20
212.6979690190782
 30
0.0
 11
540.1189241128993
 21
489.0979690190778
 31
0.0
  0
INSERT
  5
20ED
330
20E7
100
AcDbEntity
  8
DIM
 62
     0
370
    -2
100
AcDbBlockReference
  2
_DOT
 10
540.1189241128993
 20
209.6979690190782
 30
0.0
 41
3.0
 42
3.0
 43
3.0
 50
270.0
  0
INSERT
  5
20EE
330
20E7
100
AcDbEntity
  8
DIM
 62
     0
370
    -2
100
AcDbBlockReference
  2
_DOT
 10
540.1189241128993
 20
492.0979690190778
 30
0.0
 41
3.0
 42
3.0
 43
3.0
 50
90.0
  0
MTEXT
  5
20EF
330
20E7
100
AcDbEntity
  8
DIM
 62
     0
100
AcDbMText
 10
529.1189241128993
 20
339.8974690190789
 30
0.0
 40
7.0
 41
0.0
 46
0.0
 71
     1
 72
     1
  1
\A1;282.4
  7
ＭＳ ゴシック
 11
0.0
 21
1.0
 31
0.0
 73
     1
 44
1.0
  0
POINT
  5
20F0
330
20E7
100
AcDbEntity
  8
Defpoints
 62
     0
100
AcDbPoint
 10
477.9077720350602
 20
209.6979690190782
 30
0.0
  0
POINT
  5
20F1
330
20E7
100
AcDbEntity
  8
Defpoints
 62
     0
100
AcDbPoint
 10
477.9077720350602
 20
492.0979690190778
 30
0.0
  0
POINT
  5
20F2
330
20E7
100
AcDbEntity
  8
Defpoints
 62
     0
100
AcDbPoint
 10
540.1189241128993
 20
492.0979690190778
 30
0.0
  0
ENDBLK
  5
20E9
330
20E7
100
AcDbEntity
  8
0
100
AcDbBlockEnd
  0
BLOCK
  5
20F4
330
20F3
100
AcDbEntity
  8
0
100
AcDbBlockBegin
  2
*D10
 70
     1
 10
0.0
 20
0.0
 30
0.0
  3
*D10
  1

  0
LINE
  5
20F6
330
20F3
100
AcDbEntity
  8
DIM
 62
     0
370
    -2
100
AcDbLine
 10
434.6109832074977
 20
200.8979690190789
 30
0.0
 11
448.58422190135
 21
200.8979690190789
 31
0.0
  0
LINE
  5
20F7
330
20F3
100
AcDbEntity
  8
DIM
 62
     0
370
    -2
100
AcDbLine
 10
457.9491942745132
 20
209.6979690190782
 30
0.0
 11
448.58422190135
 21
209.6979690190782
 31
0.0
  0
LINE
  5
20F8
330
20F3
100
AcDbEntity
  8
DIM
 62
     0
370
    -2
100
AcDbLine
 10
448.58422190135
 20
200.8979690190789
 30
0.0
 11
448.58422190135
 21
173.1761032095198
 31
0.0
  0
LINE
  5
20F9
330
20F3
100
AcDbEntity
  8
DIM
 62
     0
370
    -2
100
AcDbLine
 10
448.58422190135
 20
203.8979690190789
 30
0.0
 11
448.58422190135
 21
206.6979690190782
 31
0.0
  0
LINE
  5
20FA
330
20F3
100
AcDbEntity
  8
DIM
 62
     0
370
    -2
100
AcDbLine
 10
448.58422190135
 20
203.8979690190789
 30
0.0
 11
448.58422190135
 21
206.8979690190789
 31
0.0
  0
INSERT
  5
20FB
330
20F3
100
AcDbEntity
  8
DIM
 62
     0
370
    -2
100
AcDbBlockReference
  2
_DOT
 10
448.58422190135
 20
200.8979690190789
 30
0.0
 41
3.0
 42
3.0
 43
3.0
 50
270.0
  0
INSERT
  5
20FC
330
20F3
100
AcDbEntity
  8
DIM
 62
     0
370
    -2
100
AcDbBlockReference
  2
_DOT
 10
448.58422190135
 20
209.6979690190782
 30
0.0
 41
3.0
 42
3.0
 43
3.0
 50
90.0
  0
MTEXT
  5
20FD
330
20F3
100
AcDbEntity
  8
DIM
 62
     0
100
AcDbMText
 10
437.58422190135
 20
177.1761032095198
 30
0.0
 40
7.0
 41
0.0
 46
0.0
 71
     1
 72
     1
  1
\A1;8.8
  7
ＭＳ ゴシック
 11
0.0
 21
1.0
 31
0.0
 73
     1
 44
1.0
  0
POINT
  5
20FE
330
20F3
100
AcDbEntity
  8
Defpoints
 62
     0
100
AcDbPoint
 10
424.6109832074977
 20
200.8979690190789
 30
0.0
  0
POINT
  5
20FF
330
20F3
100
AcDbEntity
  8
Defpoints
 62
     0
100
AcDbPoint
 10
467.9491942745132
 20
209.6979690190782
 30
0.0
  0
POINT
  5
2128
330
20F3
100
AcDbEntity
  8
Defpoints
 62
     0
100
AcDbPoint
 10
448.58422190135
 20
209.6979690190782
 30
0.0
  0
ENDBLK
  5
20F5
330
20F3
100
AcDbEntity
  8
0
100
AcDbBlockEnd
  0
BLOCK
  5
2102
330
2101
100
AcDbEntity
  8
0
100
AcDbBlockBegin
  2
*D11
 70
     1
 10
0.0
 20
0.0
 30
0.0
  3
*D11
  1

  0
LINE
  5
2104
330
2101
100
AcDbEntity
  8
DIM
 62
     0
370
    -2
100
AcDbLine
 10
142.7141683291351
 20
510.8979749795416
 30
0.0
 11
142.714168329135
 21
530.4395900394029
 31
0.0
  0
LINE
  5
2105
330
2101
100
AcDbEntity
  8
DIM
 62
     0
370
    -2
100
AcDbLine
 10
268.7141685153995
 20
497.897969019078
 30
0.0
 11
268.7141685153994
 21
530.4395900394034
 31
0.0
  0
LINE
  5
2106
330
2101
100
AcDbEntity
  8
DIM
 62
     0
370
    -2
100
AcDbLine
 10
145.714168329135
 20
530.4395900394029
 30
0.0
 11
265.7141685153994
 21
530.4395900394034
 31
0.0
  0
INSERT
  5
2107
330
2101
100
AcDbEntity
  8
DIM
 62
     0
370
    -2
100
AcDbBlockReference
  2
_DOT
 10
142.714168329135
 20
530.4395900394029
 30
0.0
 41
3.0
 42
3.0
 43
3.0
 50
180.0000000000002
  0
INSERT
  5
2108
330
2101
100
AcDbEntity
  8
DIM
 62
     0
370
    -2
100
AcDbBlockReference
  2
_DOT
 10
268.7141685153994
 20
530.4395900394034
 30
0.0
 41
3.0
 42
3.0
 43
3.0
 50
0.0000000000002068
  0
MTEXT
  5
2109
330
2101
100
AcDbEntity
  8
DIM
 62
     0
100
AcDbMText
 10
199.5856685153996
 20
541.4395900394031
 30
0.0
 40
7.0
 41
0.0
 46
0.0
 71
     1
 72
     1
  1
\A1;126
  7
ＭＳ ゴシック
 73
     1
 44
1.0
  0
POINT
  5
210A
330
2101
100
AcDbEntity
  8
Defpoints
 62
     0
100
AcDbPoint
 10
142.7141683291351
 20
500.8979749795416
 30
0.0
  0
POINT
  5
210B
330
2101
100
AcDbEntity
  8
Defpoints
 62
     0
100
AcDbPoint
 10
268.7141685153996
 20
487.897969019078
 30
0.0
  0
POINT
  5
210C
330
2101
100
AcDbEntity
  8
Defpoints
 62
     0
100
AcDbPoint
 10
268.7141685153994
 20
530.4395900394034
 30
0.0
  0
ENDBLK
  5
2103
330
2101
100
AcDbEntity
  8
0
100
AcDbBlockEnd
  0
BLOCK
  5
210E
330
210D
100
AcDbEntity
  8
0
100
AcDbBlockBegin
  2
*D12
 70
     1
 10
0.0
 20
0.0
 30
0.0
  3
*D12
  1

  0
LINE
  5
2110
330
210D
100
AcDbEntity
  8
DIM
 62
     0
370
    -2
100
AcDbLine
 10
132.7141685153996
 20
500.8979690190789
 30
0.0
 11
87.51860105439704
 21
500.8979690190789
 31
0.0
  0
LINE
  5
2111
330
210D
100
AcDbEntity
  8
DIM
 62
     0
370
    -2
100
AcDbLine
 10
132.7141685153996
 20
200.8979690190789
 30
0.0
 11
87.51860105439702
 21
200.8979690190789
 31
0.0
  0
LINE
  5
2112
330
210D
100
AcDbEntity
  8
DIM
 62
     0
370
    -2
100
AcDbLine
 10
87.51860105439704
 20
497.8979690190789
 30
0.0
 11
87.51860105439702
 21
203.8979690190789
 31
0.0
  0
INSERT
  5
2113
330
210D
100
AcDbEntity
  8
DIM
 62
     0
370
    -2
100
AcDbBlockReference
  2
_DOT
 10
87.51860105439704
 20
500.8979690190789
 30
0.0
 41
3.0
 42
3.0
 43
3.0
 50
90.0
  0
INSERT
  5
2114
330
210D
100
AcDbEntity
  8
DIM
 62
     0
370
    -2
100
AcDbBlockReference
  2
_DOT
 10
87.51860105439702
 20
200.8979690190789
 30
0.0
 41
3.0
 42
3.0
 43
3.0
 50
270.0
  0
MTEXT
  5
2115
330
210D
100
AcDbEntity
  8
DIM
 62
     0
100
AcDbMText
 10
76.51860105439704
 20
344.4474690190789
 30
0.0
 40
7.0
 41
0.0
 46
0.0
 71
     1
 72
     1
  1
\A1;300
  7
ＭＳ ゴシック
 11
4.736951571734002E-17
 21
1.0
 31
0.0
 73
     1
 44
1.0
  0
POINT
  5
2116
330
210D
100
AcDbEntity
  8
Defpoints
 62
     0
100
AcDbPoint
 10
142.7141685153996
 20
500.8979690190789
 30
0.0
  0
POINT
  5
2117
330
210D
100
AcDbEntity
  8
Defpoints
 62
     0
100
AcDbPoint
 10
142.7141685153996
 20
200.8979690190789
 30
0.0
  0
POINT
  5
2118
330
210D
100
AcDbEntity
  8
Defpoints
 62
     0
100
AcDbPoint
 10
87.51860105439702
 20
200.8979690190789
 30
0.0
  0
ENDBLK
  5
210F
330
210D
100
AcDbEntity
  8
0
100
AcDbBlockEnd
  0
BLOCK
  5
211A
330
2119
100
AcDbEntity
  8
0
100
AcDbBlockBegin
  2
*D13
 70
     1
 10
0.0
 20
0.0
 30
0.0
  3
*D13
  1

  0
LINE
  5
211C
330
2119
100
AcDbEntity
  8
MODEL
 62
     0
370
    -2
100
AcDbLine
 10
404.6109832074977
 20
773.0124144768414
 30
0.0
 11
404.6109832074977
 21
798.0559509929546
 31
0.0
  0
LINE
  5
211D
330
2119
100
AcDbEntity
  8
MODEL
 62
     0
370
    -2
100
AcDbLine
 10
442.6109832074977
 20
764.5124144768432
 30
0.0
 11
442.6109832074977
 21
798.0559509929546
 31
0.0
  0
LINE
  5
211E
330
2119
100
AcDbEntity
  8
MODEL
 62
     0
370
    -2
100
AcDbLine
 10
407.6109832074977
 20
798.0559509929546
 30
0.0
 11
439.6109832074977
 21
798.0559509929546
 31
0.0
  0
INSERT
  5
211F
330
2119
100
AcDbEntity
  8
MODEL
 62
     0
370
    -2
100
AcDbBlockReference
  2
_DOT
 10
404.6109832074977
 20
798.0559509929546
 30
0.0
 41
3.0
 42
3.0
 43
3.0
 50
179.9999999999998
  0
INSERT
  5
2120
330
2119
100
AcDbEntity
  8
MODEL
 62
     0
370
    -2
100
AcDbBlockReference
  2
_DOT
 10
442.6109832074977
 20
798.0559509929546
 30
0.0
 41
3.0
 42
3.0
 43
3.0
 50
359.9999999999998
  0
MTEXT
  5
2121
330
2119
100
AcDbEntity
  8
MODEL
 62
     0
100
AcDbMText
 10
419.4879832074977
 20
809.0559509929546
 30
0.0
 40
7.0
 41
0.0
 46
0.0
 71
     1
 72
     1
  1
\A1;38
  7
ＭＳ ゴシック
 73
     1
 44
1.0
  0
POINT
  5
2122
330
2119
100
AcDbEntity
  8
Defpoints
 62
     0
100
AcDbPoint
 10
404.6109832074977
 20
763.0124144768414
 30
0.0
  0
POINT
  5
2123
330
2119
100
AcDbEntity
  8
Defpoints
 62
     0
100
AcDbPoint
 10
442.6109832074977
 20
754.5124144768432
 30
0.0
  0
POINT
  5
2124
330
2119
100
AcDbEntity
  8
Defpoints
 62
     0
100
AcDbPoint
 10
442.6109832074977
 20
798.0559509929546
 30
0.0
  0
ENDBLK
  5
211B
330
2119
100
AcDbEntity
  8
0
100
AcDbBlockEnd
  0
BLOCK
  5
21E4
330
21E3
100
AcDbEntity
  8
0
100
AcDbBlockBegin
  2
*D14
 70
     1
 10
0.0
 20
0.0
 30
0.0
  3
*D14
  1

  0
LINE
  5
21E6
330
21E3
100
AcDbEntity
  8
DIM
 62
     0
370
    -2
100
AcDbLine
 10
126.7138585358783
 20
250.897969019078
 30
0.0
 11
113.0294586125356
 21
250.897969019078
 31
0.0
  0
LINE
  5
21E7
330
21E3
100
AcDbEntity
  8
DIM
 62
     0
370
    -2
100
AcDbLine
 10
126.7138585358783
 20
450.897969019078
 30
0.0
 11
113.0294586125356
 21
450.897969019078
 31
0.0
  0
LINE
  5
21E8
330
21E3
100
AcDbEntity
  8
DIM
 62
     0
370
    -2
100
AcDbLine
 10
113.0294586125356
 20
253.897969019078
 30
0.0
 11
113.0294586125356
 21
447.897969019078
 31
0.0
  0
INSERT
  5
21E9
330
21E3
100
AcDbEntity
  8
DIM
 62
     0
370
    -2
100
AcDbBlockReference
  2
_DOT
 10
113.0294586125356
 20
250.897969019078
 30
0.0
 41
3.0
 42
3.0
 43
3.0
 50
270.0
  0
INSERT
  5
21EA
330
21E3
100
AcDbEntity
  8
DIM
 62
     0
370
    -2
100
AcDbBlockReference
  2
_DOT
 10
113.0294586125356
 20
450.897969019078
 30
0.0
 41
3.0
 42
3.0
 43
3.0
 50
90.0
  0
MTEXT
  5
21EB
330
21E3
100
AcDbEntity
  8
DIM
 62
     0
100
AcDbMText
 10
105.5294586125356
 20
350.8979690190781
 30
0.0
 40
7.0
 41
0.0
 46
0.0
 71
     5
 72
     1
  1
\A1;200
  7
ＭＳ ゴシック
 11
7.105427357601002E-17
 21
1.0
 31
0.0
 73
     1
 44
1.0
  0
POINT
  5
21EC
330
21E3
100
AcDbEntity
  8
Defpoints
 62
     0
100
AcDbPoint
 10
136.7138585358783
 20
250.897969019078
 30
0.0
  0
POINT
  5
21ED
330
21E3
100
AcDbEntity
  8
Defpoints
 62
     0
100
AcDbPoint
 10
136.7138585358783
 20
450.897969019078
 30
0.0
  0
POINT
  5
21EE
330
21E3
100
AcDbEntity
  8
Defpoints
 62
     0
100
AcDbPoint
 10
113.0294586125356
 20
450.897969019078
 30
0.0
  0
ENDBLK
  5
21E5
330
21E3
100
AcDbEntity
  8
0
100
AcDbBlockEnd
  0
BLOCK
  5
22C6
330
22C5
100
AcDbEntity
  8
0
100
AcDbBlockBegin
  2
*D16
 70
     1
 10
0.0
 20
0.0
 30
0.0
  3
*D16
  1

  0
LINE
  5
22C8
330
22C5
100
AcDbEntity
  8
DIM
 62
     0
370
    -2
100
AcDbLine
 10
404.6109834310151
 20
773.0124146631077
 30
0.0
 11
404.6109834310151
 21
781.3430064563768
 31
0.0
  0
LINE
  5
22C9
330
22C5
100
AcDbEntity
  8
DIM
 62
     0
370
    -2
100
AcDbLine
 10
414.552116498338
 20
774.0958690173746
 30
0.0
 11
414.552116498338
 21
781.3430064563768
 31
0.0
  0
LINE
  5
22CA
330
22C5
100
AcDbEntity
  8
DIM
 62
     0
370
    -2
100
AcDbLine
 10
407.6109834310151
 20
781.3430064563768
 30
0.0
 11
411.552116498338
 21
781.3430064563768
 31
0.0
  0
INSERT
  5
22CB
330
22C5
100
AcDbEntity
  8
DIM
 62
     0
370
    -2
100
AcDbBlockReference
  2
_DOT
 10
404.6109834310151
 20
781.3430064563768
 30
0.0
 41
3.0
 42
3.0
 43
3.0
 50
180.0
  0
INSERT
  5
22CC
330
22C5
100
AcDbEntity
  8
DIM
 62
     0
370
    -2
100
AcDbBlockReference
  2
_DOT
 10
414.552116498338
 20
781.3430064563768
 30
0.0
 41
3.0
 42
3.0
 43
3.0
  0
MTEXT
  5
22CD
330
22C5
100
AcDbEntity
  8
DIM
 62
     0
100
AcDbMText
 10
409.5815499646765
 20
788.8430064563768
 30
0.0
 40
7.0
 41
0.0
 46
0.0
 71
     5
 72
     1
  1
\A1;10
  7
ＭＳ ゴシック
 73
     1
 44
1.0
  0
POINT
  5
22CE
330
22C5
100
AcDbEntity
  8
Defpoints
 62
     0
100
AcDbPoint
 10
404.6109834310151
 20
763.0124146631077
 30
0.0
  0
POINT
  5
22CF
330
22C5
100
AcDbEntity
  8
Defpoints
 62
     0
100
AcDbPoint
 10
414.552116498338
 20
764.0958690173746
 30
0.0
  0
POINT
  5
22D0
330
22C5
100
AcDbEntity
  8
Defpoints
 62
     0
100
AcDbPoint
 10
414.552116498338
 20
781.3430064563768
 30
0.0
  0
ENDBLK
  5
22C7
330
22C5
100
AcDbEntity
  8
0
100
AcDbBlockEnd
  0
BLOCK
  5
22D6
330
22D5
100
AcDbEntity
  8
0
100
AcDbBlockBegin
  2
*D17
 70
     1
 10
0.0
 20
0.0
 30
0.0
  3
*D17
  1

  0
LINE
  5
22D8
330
22D5
100
AcDbEntity
  8
DIM
 62
     0
370
    -2
100
AcDbLine
 10
404.6109834310151
 20
510.8979749795416
 30
0.0
 11
404.6109834310151
 21
530.4395900394032
 31
0.0
  0
LINE
  5
22D9
330
22D5
100
AcDbEntity
  8
DIM
 62
     0
370
    -2
100
AcDbLine
 10
424.6109829839804
 20
510.8979749795416
 30
0.0
 11
424.6109829839804
 21
530.4395900394032
 31
0.0
  0
LINE
  5
22DA
330
22D5
100
AcDbEntity
  8
DIM
 62
     0
370
    -2
100
AcDbLine
 10
407.6109834310151
 20
530.4395900394032
 30
0.0
 11
421.6109829839804
 21
530.4395900394032
 31
0.0
  0
INSERT
  5
22DB
330
22D5
100
AcDbEntity
  8
DIM
 62
     0
370
    -2
100
AcDbBlockReference
  2
_DOT
 10
404.6109834310151
 20
530.4395900394032
 30
0.0
 41
3.0
 42
3.0
 43
3.0
 50
180.0
  0
INSERT
  5
22DC
330
22D5
100
AcDbEntity
  8
DIM
 62
     0
370
    -2
100
AcDbBlockReference
  2
_DOT
 10
424.6109829839804
 20
530.4395900394032
 30
0.0
 41
3.0
 42
3.0
 43
3.0
  0
MTEXT
  5
22DD
330
22D5
100
AcDbEntity
  8
DIM
 62
     0
100
AcDbMText
 10
414.6109832074977
 20
537.9395900394032
 30
0.0
 40
7.0
 41
0.0
 46
0.0
 71
     5
 72
     1
  1
\A1;20
  7
ＭＳ ゴシック
 73
     1
 44
1.0
  0
POINT
  5
22DE
330
22D5
100
AcDbEntity
  8
Defpoints
 62
     0
100
AcDbPoint
 10
404.6109834310151
 20
500.8979749795416
 30
0.0
  0
POINT
  5
22DF
330
22D5
100
AcDbEntity
  8
Defpoints
 62
     0
100
AcDbPoint
 10
424.6109829839804
 20
500.8979749795416
 30
0.0
  0
POINT
  5
22E0
330
22D5
100
AcDbEntity
  8
Defpoints
 62
     0
100
AcDbPoint
 10
424.6109829839804
 20
530.4395900394032
 30
0.0
  0
ENDBLK
  5
22D7
330
22D5
100
AcDbEntity
  8
0
100
AcDbBlockEnd
  0
ENDSEC
  0
SECTION
  2
ENTITIES
  0
MTEXT
  5
177
330
A
100
AcDbEntity
  8
TEMPLATE
390
1D
100
AcDbMText
 10
23.76064336431923
 20
103.1195254894285
 30
0.0
 40
4.886523437499998
 41
0.0
 46
0.0
 71
     1
 72
     1
  1
品名
  7
ＭＳ ゴシック
 73
     1
 44
0.7828267384257843
  0
MTEXT
  5
178
330
A
100
AcDbEntity
  8
TEMPLATE
390
1D
100
AcDbMText
 10
23.76064336431923
 20
77.6195254894284
 30
0.0
 40
4.886523437499998
 41
0.0
 46
0.0
 71
     1
 72
     1
  1
仕様
  7
ＭＳ ゴシック
 73
     1
 44
0.7828267384257843
  0
LINE
  5
179
330
A
100
AcDbEntity
  8
TEMPLATE
390
1D
100
AcDbLine
 10
606.6606433641745
 20
80.14400205192852
 30
0.0
 11
21.66064336417462
 21
80.14400205192852
 31
0.0
  0
LWPOLYLINE
  5
17A
330
A
100
AcDbEntity
  8
TEMPLATE
390
1D
100
AcDbPolyline
 90
        5
 70
   128
 43
0.0
 10
606.6606433641745
 20
869.1440020519278
 10
21.66064336417462
 20
869.1440020519278
 10
21.66064336417462
 20
29.14400205192848
 10
606.6606433641745
 20
29.14400205192848
 10
606.6606433641745
 20
869.1440020519278
  0
LINE
  5
17B
330
A
100
AcDbEntity
  8
TEMPLATE
390
1D
100
AcDbLine
 10
606.6606433641745
 20
105.6440020519285
 30
0.0
 11
21.66064336417462
 21
105.6440020519285
 31
0.0
  0
LINE
  5
17C
330
A
100
AcDbEntity
  8
TEMPLATE
390
1D
100
AcDbLine
 10
606.6606433643196
 20
54.64400205192847
 30
0.0
 11
380.760643364319
 21
54.64400205192847
 31
0.0
  0
MTEXT
  5
17E
330
A
100
AcDbEntity
  8
TEMPLATE
390
1D
100
AcDbMText
 10
389.7220652399974
 20
45.67088370993604
 30
0.0
 40
7.329785156250001
 41
0.0
 46
0.0
 71
     1
 72
     1
  1
大洋金物株式会社 ティーフォルム事業部
  7
ＭＳ ゴシック
 73
     1
 44
0.7828267384257843
  0
MTEXT
  5
180
330
A
100
AcDbEntity
  8
TEMPLATE
390
1D
100
AcDbMText
 10
549.360643364397
 20
69.04478720817846
 30
0.0
 40
7.329785156250001
 41
0.0
 46
7.329785156250001
 71
     1
 72
     1
  1
{1:3}
  7
ＭＳ ゴシック
 73
     1
 44
0.7828267384257843
1001
ACAD
1000
ACAD_MTEXT_DEFINED_HEIGHT_BEGIN
1070
    46
1040
7.329785156250001
1000
ACAD_MTEXT_DEFINED_HEIGHT_END
  0
MTEXT
  5
181
330
A
100
AcDbEntity
  8
TEMPLATE
390
1D
100
AcDbMText
 10
533.460643364397
 20
77.6195254894284
 30
0.0
 40
4.886523437499998
 41
0.0
 46
0.0
 71
     1
 72
     1
  1
縮尺
  7
ＭＳ ゴシック
 73
     1
 44
0.7828267384257843
  0
LINE
  5
182
330
A
100
AcDbEntity
  8
TEMPLATE
390
1D
100
AcDbLine
 10
531.360643364397
 20
54.64400205192847
 30
0.0
 11
531.360643364397
 21
80.14400205192852
 31
0.0
  0
MTEXT
  5
183
330
A
100
AcDbEntity
  8
TEMPLATE
390
1D
100
AcDbMText
 10
458.1606433643969
 20
77.6195254894284
 30
0.0
 40
4.886523437499998
 41
0.0
 46
0.0
 71
     1
 72
     1
  1
容量
  7
ＭＳ ゴシック
 73
     1
 44
0.7828267384257843
  0
LINE
  5
184
330
A
100
AcDbEntity
  8
TEMPLATE
390
1D
100
AcDbLine
 10
456.060643364397
 20
54.64400205192847
 30
0.0
 11
456.060643364397
 21
80.14400205192852
 31
0.0
  0
MTEXT
  5
185
330
A
100
AcDbEntity
  8
TEMPLATE
390
1D
100
AcDbMText
 10
382.860643364397
 20
103.1195254894285
 30
0.0
 40
4.886523437499998
 41
0.0
 46
0.0
 71
     1
 72
     1
  1
品番
  7
ＭＳ ゴシック
 73
     1
 44
0.7828267384257843
  0
MTEXT
  5
186
330
A
100
AcDbEntity
  8
TEMPLATE
390
1D
100
AcDbMText
 10
382.860643364397
 20
77.6195254894284
 30
0.0
 40
4.886523437499998
 41
0.0
 46
0.0
 71
     1
 72
     1
  1
重量
  7
ＭＳ ゴシック
 73
     1
 44
0.7828267384257843
  0
LINE
  5
188
330
A
100
AcDbEntity
  8
TEMPLATE
390
1D
100
AcDbLine
 10
380.760643364397
 20
29.14400205192848
 30
0.0
 11
380.760643364397
 21
105.6440020519285
 31
0.0
  0
INSERT
  5
6B5
330
A
100
AcDbEntity
  8
TEMPLATE
100
AcDbBlockReference
  2
名称未設定-1
 10
561.225224426535
 20
7.784029726996147
 30
0.0
 41
0.2286
 42
0.2286
 43
0.2286
  0
INSERT
  5
68C
330
A
100
AcDbEntity
  8
TEMPLATE
100
AcDbBlockReference
  2
block 2
 10
919.2743017702577
 20
8.373076514336368
 30
0.0
 41
0.3809999999999999
 42
0.3809999999999999
 43
0.3809999999999999
  0
LWPOLYLINE
  5
D69
330
A
100
AcDbEntity
  8
BORDER
100
AcDbPolyline
 90
        4
 70
     1
 43
0.0
 10
0.0
 20
0.0
 10
0.0
 20
891.0
 10
630.0
 20
891.0
 10
630.0
 20
0.0
  0
INSERT
  5
1343
330
A
100
AcDbEntity
  8
TEMPLATE
100
AcDbBlockReference
  2
block 2
 10
2096.743470866468
 20
24.43532141229569
 30
0.0
 41
0.3809999999999999
 42
0.3809999999999999
 43
0.3809999999999999
  0
MTEXT
  5
16ED
330
A
100
AcDbEntity
  8
TEMPLATE
390
1D
100
AcDbMText
 10
398.760643364397
 20
94.54478720817846
 30
0.0
 40
7.329785156250001
 41
0.0
 46
7.329785156250001
 71
     1
 72
     1
  1
{FRF74-2619}
  7
ＭＳ ゴシック
 73
     1
 44
0.7828267384257843
1001
ACAD
1000
ACAD_MTEXT_DEFINED_HEIGHT_BEGIN
1070
    46
1040
7.329785156250001
1000
ACAD_MTEXT_DEFINED_HEIGHT_END
  0
MTEXT
  5
16EE
330
A
100
AcDbEntity
  8
TEMPLATE
390
1D
100
AcDbMText
 10
39.66064336431923
 20
94.54478720817846
 30
0.0
 40
7.329785156250001
 41
0.0
 46
13.32799267578125
 71
     1
 72
     1
  1
{ペーパーホルダー　-LANGBERGER-}
  7
ＭＳ ゴシック
 73
     1
 44
0.7828267384257843
1001
ACAD
1000
ACAD_MTEXT_DEFINED_HEIGHT_BEGIN
1070
    46
1040
13.32799267578125
1000
ACAD_MTEXT_DEFINED_HEIGHT_END
  0
MTEXT
  5
16EF
330
A
100
AcDbEntity
  8
TEMPLATE
390
1D
100
AcDbMText
 10
37.57630358281081
 20
68.04359280881856
 30
0.0
 40
7.329785156250001
 41
0.0
 46
8.18737001953125
 71
     1
 72
     1
  1
{タッピングネジ、プラグ付属}
  7
ＭＳ ゴシック
 73
     1
 44
0.9331787841240657
1001
ACAD
1000
ACAD_MTEXT_DEFINED_HEIGHT_BEGIN
1070
    46
1040
8.18737001953125
1000
ACAD_MTEXT_DEFINED_HEIGHT_END
  0
MTEXT
  5
16F0
102
{ACAD_XDICTIONARY
360
16F1
102
}
330
A
100
AcDbEntity
  8
TEMPLATE
100
AcDbMText
 10
22.41859696457118
 20
25.15851631542851
 30
0.0
 40
6.600000000000001
 41
0.0
 46
22.0
 71
     1
 72
     1
  1
{20170824N}
  7
ＭＳ ゴシック
 73
     1
 44
1.0
1001
ACAD
1000
ACAD_MTEXT_DEFINED_HEIGHT_BEGIN
1070
    46
1040
22.0
1000
ACAD_MTEXT_DEFINED_HEIGHT_END
  0
LINE
  5
1FBC
330
A
100
AcDbEntity
  8
MODEL
  6
Continuous
100
AcDbLine
 10
435.1109837737419
 20
361.3979688775161
 30
0.0
 11
435.1109837737419
 21
361.0979693871358
 31
0.0
  0
LINE
  5
1FBD
330
A
100
AcDbEntity
  8
MODEL
  6
Continuous
100
AcDbLine
 10
438.110982402835
 20
361.0979693871358
 30
0.0
 11
438.110982402835
 21
361.3979688775161
 31
0.0
  0
LINE
  5
1FBE
330
A
100
AcDbEntity
  8
MODEL
  6
Continuous
100
AcDbLine
 10
439.3609830733872
 20
338.8979689147708
 30
0.0
 11
439.3609830733872
 21
339.1979693364736
 31
0.0
  0
LINE
  5
1FBF
330
A
100
AcDbEntity
  8
MODEL
  6
Continuous
100
AcDbLine
 10
433.8609831031897
 20
339.1979693364736
 30
0.0
 11
433.8609831031897
 21
338.8979689147708
 31
0.0
  0
LINE
  5
1FC0
330
A
100
AcDbEntity
  8
MODEL
  6
Continuous
100
AcDbLine
 10
417.6109832335748
 20
455.5669662472227
 30
0.0
 11
417.1109831516184
 21
455.0669726845252
 31
0.0
  0
LINE
  5
1FC1
330
A
100
AcDbEntity
  8
MODEL
  6
Continuous
100
AcDbLine
 10
417.1109831516184
 20
446.728968333863
 30
0.0
 11
417.6109832335748
 21
446.2289673205831
 31
0.0
  0
LINE
  5
1FC2
330
A
100
AcDbEntity
  8
MODEL
  6
Continuous
100
AcDbLine
 10
417.6109832335748
 20
255.5669707175729
 30
0.0
 11
417.1109831516184
 21
255.0669697042921
 31
0.0
  0
LINE
  5
1FC3
330
A
100
AcDbEntity
  8
MODEL
  6
Continuous
100
AcDbLine
 10
417.1109831516184
 20
246.7289653536299
 30
0.0
 11
417.6109832335748
 21
246.2289717909333
 31
0.0
  0
LINE
  5
1FC4
330
A
100
AcDbEntity
  8
MODEL
  6
Continuous
100
AcDbLine
 10
441.6109839078524
 20
339.1979693364736
 30
0.0
 11
441.6109839078524
 21
340.6979686510202
 31
0.0
  0
LINE
  5
1FC5
330
A
100
AcDbEntity
  8
MODEL
  6
Continuous
100
AcDbLine
 10
431.6109841313697
 20
340.6979686510202
 30
0.0
 11
431.6109841313697
 21
339.1979693364736
 31
0.0
  0
LINE
  5
1FC6
330
A
100
AcDbEntity
  8
MODEL
  6
Continuous
100
AcDbLine
 10
441.6109839078524
 20
344.69796884101
 30
0.0
 11
441.6109839078524
 21
346.1979690868792
 31
0.0
  0
LINE
  5
1FC7
330
A
100
AcDbEntity
  8
MODEL
  6
Continuous
100
AcDbLine
 10
431.6109841313697
 20
346.1979690868792
 30
0.0
 11
431.6109841313697
 21
344.69796884101
 31
0.0
  0
LINE
  5
1FC8
330
A
100
AcDbEntity
  8
MODEL
  6
Continuous
100
AcDbLine
 10
441.6109839078524
 20
355.5979689512786
 30
0.0
 11
441.6109839078524
 21
357.0979691971478
 31
0.0
  0
LINE
  5
1FC9
330
A
100
AcDbEntity
  8
MODEL
  6
Continuous
100
AcDbLine
 10
431.6109841313697
 20
357.0979691971478
 30
0.0
 11
431.6109841313697
 21
355.5979689512786
 31
0.0
  0
LINE
  5
1FCA
330
A
100
AcDbEntity
  8
MODEL
  6
Continuous
100
AcDbLine
 10
441.6109839078524
 20
361.3979688775161
 30
0.0
 11
441.6109839078524
 21
362.8979691233852
 31
0.0
  0
LINE
  5
1FCB
330
A
100
AcDbEntity
  8
MODEL
  6
Continuous
100
AcDbLine
 10
431.6109841313697
 20
362.8979691233852
 30
0.0
 11
431.6109841313697
 21
361.3979688775161
 31
0.0
  0
LINE
  5
1FCC
330
A
100
AcDbEntity
  8
MODEL
  6
Continuous
100
AcDbLine
 10
464.1787273433544
 20
492.0979750272262
 30
0.0
 11
464.1787273433544
 21
488.0979669209954
 31
0.0
  0
LINE
  5
1FCD
330
A
100
AcDbEntity
  8
MODEL
  6
Continuous
100
AcDbLine
 10
430.1109829541779
 20
361.0979693871358
 30
0.0
 11
430.1109829541779
 21
357.0979691971478
 31
0.0
  0
LINE
  5
1FCE
330
A
100
AcDbEntity
  8
MODEL
  6
Continuous
100
AcDbLine
 10
464.1787273433544
 20
213.6979711171624
 30
0.0
 11
464.1787273433544
 21
209.6979630109289
 31
0.0
  0
LINE
  5
1FCF
330
A
100
AcDbEntity
  8
MODEL
  6
Continuous
100
AcDbLine
 10
430.1109829541779
 20
344.69796884101
 30
0.0
 11
430.1109829541779
 21
340.6979686510202
 31
0.0
  0
LINE
  5
1FD0
330
A
100
AcDbEntity
  8
MODEL
  6
Continuous
100
AcDbLine
 10
431.6109841313697
 20
339.1979693364736
 30
0.0
 11
441.6109839078524
 21
339.1979693364736
 31
0.0
  0
LINE
  5
1FD1
330
A
100
AcDbEntity
  8
MODEL
  6
Continuous
100
AcDbLine
 10
431.6109841313697
 20
361.3979688775161
 30
0.0
 11
441.6109839078524
 21
361.3979688775161
 31
0.0
  0
LINE
  5
1FD2
330
A
100
AcDbEntity
  8
MODEL
  6
Continuous
100
AcDbLine
 10
440.6109837439395
 20
362.8979691233852
 30
0.0
 11
429.1109827902653
 21
362.8979691233852
 31
0.0
  0
LINE
  5
1FD3
330
A
100
AcDbEntity
  8
MODEL
  6
Continuous
100
AcDbLine
 10
429.1109827902653
 20
362.8979691233852
 30
0.0
 11
429.1109827902653
 21
355.5979689512786
 31
0.0
  0
LINE
  5
1FD4
330
A
100
AcDbEntity
  8
MODEL
  6
Continuous
100
AcDbLine
 10
429.1109827902653
 20
355.5979689512786
 30
0.0
 11
440.6109837439395
 21
355.5979689512786
 31
0.0
  0
LINE
  5
1FD5
330
A
100
AcDbEntity
  8
MODEL
  6
Continuous
100
AcDbLine
 10
440.6109837439395
 20
346.1979690868792
 30
0.0
 11
429.1109827902653
 21
346.1979690868792
 31
0.0
  0
LINE
  5
1FD6
330
A
100
AcDbEntity
  8
MODEL
  6
Continuous
100
AcDbLine
 10
429.1109827902653
 20
346.1979690868792
 30
0.0
 11
429.1109827902653
 21
338.8979689147708
 31
0.0
  0
LINE
  5
1FD7
330
A
100
AcDbEntity
  8
MODEL
  6
Continuous
100
AcDbLine
 10
429.1109827902653
 20
338.8979689147708
 30
0.0
 11
440.6109837439395
 21
338.8979689147708
 31
0.0
  0
LINE
  5
1FD8
330
A
100
AcDbEntity
  8
MODEL
  6
Continuous
100
AcDbLine
 10
424.6109829839804
 20
334.8979682591197
 30
0.0
 11
440.6109837439395
 21
334.8979682591197
 31
0.0
  0
LINE
  5
1FD9
330
A
100
AcDbEntity
  8
MODEL
  6
Continuous
100
AcDbLine
 10
424.6109829839804
 20
366.8979697790363
 30
0.0
 11
440.6109837439395
 21
366.8979697790363
 31
0.0
  0
LINE
  5
1FDA
330
A
100
AcDbEntity
  8
MODEL
  6
Continuous
100
AcDbLine
 10
442.610984071765
 20
338.8979689147708
 30
0.0
 11
442.610984071765
 21
334.8979682591197
 31
0.0
  0
LINE
  5
1FDB
330
A
100
AcDbEntity
  8
MODEL
  6
Continuous
100
AcDbLine
 10
440.6109837439395
 20
338.8979689147708
 30
0.0
 11
442.610984071765
 21
338.8979689147708
 31
0.0
  0
LINE
  5
1FDC
330
A
100
AcDbEntity
  8
MODEL
  6
Continuous
100
AcDbLine
 10
442.610984071765
 20
334.8979682591197
 30
0.0
 11
440.6109837439395
 21
334.8979682591197
 31
0.0
  0
LINE
  5
1FDD
330
A
100
AcDbEntity
  8
MODEL
  6
Continuous
100
AcDbLine
 10
442.610984071765
 20
355.5979689512786
 30
0.0
 11
442.610984071765
 21
346.1979690868792
 31
0.0
  0
LINE
  5
1FDE
330
A
100
AcDbEntity
  8
MODEL
  6
Continuous
100
AcDbLine
 10
440.6109837439395
 20
355.5979689512786
 30
0.0
 11
442.610984071765
 21
355.5979689512786
 31
0.0
  0
LINE
  5
1FDF
330
A
100
AcDbEntity
  8
MODEL
  6
Continuous
100
AcDbLine
 10
442.610984071765
 20
346.1979690868792
 30
0.0
 11
440.6109837439395
 21
346.1979690868792
 31
0.0
  0
LINE
  5
1FE0
330
A
100
AcDbEntity
  8
MODEL
  6
Continuous
100
AcDbLine
 10
442.610984071765
 20
366.8979697790363
 30
0.0
 11
442.610984071765
 21
362.8979691233852
 31
0.0
  0
LINE
  5
1FE1
330
A
100
AcDbEntity
  8
MODEL
  6
Continuous
100
AcDbLine
 10
442.610984071765
 20
362.8979691233852
 30
0.0
 11
440.6109837439395
 21
362.8979691233852
 31
0.0
  0
LINE
  5
1FE2
330
A
100
AcDbEntity
  8
MODEL
  6
Continuous
100
AcDbLine
 10
440.6109837439395
 20
366.8979697790363
 30
0.0
 11
442.610984071765
 21
366.8979697790363
 31
0.0
  0
LWPOLYLINE
  5
1FE3
330
A
100
AcDbEntity
  8
MODEL
  6
Continuous
100
AcDbPolyline
 90
       17
 70
   128
 43
0.0
 10
476.9482215490676
 20
478.0979764577386
 10
476.9048889723159
 20
479.470209490917
 10
476.7753084745742
 20
480.8292400952795
 10
476.5607243028023
 20
482.1619552489746
 10
476.2632114436962
 20
483.4555399533737
 10
475.8856271949149
 20
484.6975219365576
 10
475.4316111650803
 20
485.8759504672506
 10
474.9055368450024
 20
486.9794708606231
 10
474.3124669041969
 20
487.997458588742
 10
473.6581159379817
 20
488.9201086875436
 10
472.948787137542
 20
489.7385400649545
 10
472.1913052347041
 20
490.4448700067022
 10
471.3929717984535
 20
491.0322886821258
 10
470.5614721026756
 20
491.495133649967
 10
469.7048155215122
 20
491.8289643641946
 10
468.8312535729743
 20
492.0305621739852
 10
467.9491942372658
 20
492.0979750272262
  0
LINE
  5
1FE4
330
A
100
AcDbEntity
  8
MODEL
  6
Continuous
100
AcDbLine
 10
477.9077706482745
 20
492.0979750272262
 30
0.0
 11
467.9491942372658
 21
492.0979750272262
 31
0.0
  0
LWPOLYLINE
  5
1FE5
330
A
100
AcDbEntity
  8
MODEL
  6
Continuous
100
AcDbPolyline
 90
       17
 70
   128
 43
0.0
 10
477.9077706482745
 20
492.0979750272262
 10
478.7898299839832
 20
492.0305621739852
 10
479.6633956578112
 20
491.8289643641946
 10
480.5200485136845
 20
491.495133649967
 10
481.3515482094622
 20
491.0322886821258
 10
482.1498853710032
 20
490.4448700067022
 10
482.9073635485507
 20
489.7385400649545
 10
483.6166960742809
 20
488.9201086875436
 10
484.2710433152058
 20
487.997458588742
 10
484.8641169813014
 20
486.9794708606231
 10
485.390187576089
 20
485.8759504672506
 10
485.8442036059237
 20
484.6975219365576
 10
486.2217915799952
 20
483.4555399533737
 10
486.519300713811
 20
482.1619552489746
 10
486.7338848855831
 20
480.8292400952795
 10
486.8634653833248
 20
479.470209490917
 10
486.9067979600765
 20
478.0979764577386
  0
LINE
  5
1FE6
330
A
100
AcDbEntity
  8
MODEL
  6
Continuous
100
AcDbLine
 10
474.3770708885527
 20
371.0979682322958
 30
0.0
 11
474.3770708885527
 21
478.0979764577386
 31
0.0
  0
LINE
  5
1FE7
330
A
100
AcDbEntity
  8
MODEL
  6
Continuous
100
AcDbLine
 10
476.9482215490676
 20
371.0979682322958
 30
0.0
 11
476.9482215490676
 21
478.0979764577386
 31
0.0
  0
LINE
  5
1FE8
330
A
100
AcDbEntity
  8
MODEL
  6
Continuous
100
AcDbLine
 10
486.9067979600765
 20
478.0979764577386
 30
0.0
 11
486.9067979600765
 21
371.0979682322958
 31
0.0
  0
LWPOLYLINE
  5
1FE9
330
A
100
AcDbEntity
  8
MODEL
  6
Continuous
100
AcDbPolyline
 90
       15
 70
   128
 43
0.0
 10
474.3770708885527
 20
478.0979764577386
 10
474.3366514888144
 20
479.2176199075219
 10
474.215911104951
 20
480.323181759977
 10
474.0163584795333
 20
481.4007592317101
 10
473.7405119088032
 20
482.436807167196
 10
473.3918321874476
 20
483.4182870503881
 10
472.974711432729
 20
484.3328607198235
 10
472.4943874028065
 20
485.1690393802163
 10
471.9569099691249
 20
485.9162879106033
 10
471.3690293577052
 20
486.565203678273
 10
470.7381439950801
 20
487.1076506492135
 10
470.0721887495852
 20
487.5368040915963
 10
469.3795306232311
 20
487.847254883908
 10
468.6688867953159
 20
488.0350840207556
 10
467.9491942372658
 20
488.0979669209954
  0
LWPOLYLINE
  5
1FEA
330
A
100
AcDbEntity
  8
MODEL
  6
Continuous
100
AcDbPolyline
 90
       17
 70
   128
 43
0.0
 10
486.9067979600765
 20
371.0979682322958
 10
486.8634653833248
 20
369.7257296111819
 10
486.7338848855831
 20
368.3667045947549
 10
486.519300713811
 20
367.0339838531253
 10
486.2217915799952
 20
365.7404010113695
 10
485.8442036059237
 20
364.4984143715736
 10
485.390187576089
 20
363.3199858408806
 10
484.8641169813014
 20
362.2164626535413
 10
484.2710433152058
 20
361.198473994098
 10
483.6166960742809
 20
360.2758229639766
 10
482.9073635485507
 20
359.4573943805334
 10
482.1498853710032
 20
358.7510709580419
 10
481.3515482094622
 20
358.1636555422482
 10
480.5200485136845
 20
357.7008045208094
 10
479.6633956578112
 20
357.3669752035674
 10
478.7898299839832
 20
357.1653829817095
 10
477.9077706482745
 20
357.0979691971478
  0
LINE
  5
1FEB
330
A
100
AcDbEntity
  8
MODEL
  6
Continuous
100
AcDbLine
 10
467.9491942372658
 20
357.0979691971478
 30
0.0
 11
477.9077706482745
 21
357.0979691971478
 31
0.0
  0
LWPOLYLINE
  5
1FEC
330
A
100
AcDbEntity
  8
MODEL
  6
Continuous
100
AcDbPolyline
 90
       17
 70
   128
 43
0.0
 10
467.9491942372658
 20
357.0979691971478
 10
468.8312535729743
 20
357.1653829817095
 10
469.7048155215122
 20
357.3669752035674
 10
470.5614721026756
 20
357.7008045208094
 10
471.3929717984535
 20
358.1636555422482
 10
472.1913052347041
 20
358.7510709580419
 10
472.948787137542
 20
359.4573943805334
 10
473.6581159379817
 20
360.2758229639766
 10
474.3124669041969
 20
361.198473994098
 10
474.9055368450024
 20
362.2164626535413
 10
475.4316111650803
 20
363.3199858408806
 10
475.8856271949149
 20
364.4984143715736
 10
476.2632114436962
 20
365.7404010113695
 10
476.5607243028023
 20
367.0339838531253
 10
476.7753084745742
 20
368.3667045947549
 10
476.9048889723159
 20
369.7257296111819
 10
476.9482215490676
 20
371.0979682322958
  0
LWPOLYLINE
  5
1FED
330
A
100
AcDbEntity
  8
MODEL
  6
Continuous
100
AcDbPolyline
 90
       15
 70
   128
 43
0.0
 10
467.9491942372658
 20
361.0979693871358
 10
468.6688867953159
 20
361.1608466994402
 10
469.3795306232311
 20
361.3486898061273
 10
470.0721887495852
 20
361.659135941827
 10
470.7381439950801
 20
362.0882800709823
 10
471.3690293577052
 20
362.6307270419237
 10
471.9569099691249
 20
363.2796539854643
 10
472.4943874028065
 20
364.0269015845296
 10
472.974711432729
 20
364.8630709316966
 10
473.3918321874476
 20
365.7776483264205
 10
473.7405119088032
 20
366.7591319349029
 10
474.0163584795333
 20
367.7951780077454
 10
474.215911104951
 20
368.8727592047688
 10
474.3366514888144
 20
369.9783247825125
 10
474.3770708885527
 20
371.0979682322958
  0
LINE
  5
1FEE
330
A
100
AcDbEntity
  8
MODEL
  6
Continuous
100
AcDbLine
 10
465.6994392719603
 20
488.0979669209954
 30
0.0
 11
467.9491942372658
 21
488.0979669209954
 31
0.0
  0
LINE
  5
1FEF
330
A
100
AcDbEntity
  8
MODEL
  6
Continuous
100
AcDbLine
 10
465.6994392719603
 20
492.0979750272262
 30
0.0
 11
467.9491942372658
 21
492.0979750272262
 31
0.0
  0
LINE
  5
1FF0
330
A
100
AcDbEntity
  8
MODEL
  6
Continuous
100
AcDbLine
 10
467.9491942372658
 20
357.0979691971478
 30
0.0
 11
431.631694882784
 21
357.0979691971478
 31
0.0
  0
LINE
  5
1FF1
330
A
100
AcDbEntity
  8
MODEL
  6
Continuous
100
AcDbLine
 10
467.9491942372658
 20
361.0979693871358
 30
0.0
 11
431.631694882784
 21
361.0979693871358
 31
0.0
  0
LINE
  5
1FF2
330
A
100
AcDbEntity
  8
MODEL
  6
Continuous
100
AcDbLine
 10
465.6994392719603
 20
488.0979669209954
 30
0.0
 11
464.1787273433544
 21
488.0979669209954
 31
0.0
  0
LINE
  5
1FF3
330
A
100
AcDbEntity
  8
MODEL
  6
Continuous
100
AcDbLine
 10
464.1787273433544
 20
492.0979750272262
 30
0.0
 11
465.6994392719603
 21
492.0979750272262
 31
0.0
  0
LINE
  5
1FF4
330
A
100
AcDbEntity
  8
MODEL
  6
Continuous
100
AcDbLine
 10
430.1109829541779
 20
361.0979693871358
 30
0.0
 11
431.631694882784
 21
361.0979693871358
 31
0.0
  0
LINE
  5
1FF5
330
A
100
AcDbEntity
  8
MODEL
  6
Continuous
100
AcDbLine
 10
431.631694882784
 20
357.0979691971478
 30
0.0
 11
430.1109829541779
 21
357.0979691971478
 31
0.0
  0
LWPOLYLINE
  5
1FF6
330
A
100
AcDbEntity
  8
MODEL
  6
Continuous
100
AcDbPolyline
 90
       17
 70
   128
 43
0.0
 10
486.9067979600765
 20
223.6979615804192
 10
486.8634653833248
 20
222.325728547239
 10
486.7338848855831
 20
220.9666979428765
 10
486.519300713811
 20
219.6339827891805
 10
486.2217915799952
 20
218.3403980847814
 10
485.8442036059237
 20
217.0984161015984
 10
485.390187576089
 20
215.9199875709054
 10
484.8641169813014
 20
214.816467177532
 10
484.2710433152058
 20
213.7984794494131
 10
483.6166960742809
 20
212.8758293506143
 10
482.9073635485507
 20
212.0573979732034
 10
482.1498853710032
 20
211.3510680314538
 10
481.3515482094622
 20
210.7636493560293
 10
480.5200485136845
 20
210.300804388189
 10
479.6633956578112
 20
209.9669736739633
 10
478.7898299839832
 20
209.7653758641699
 10
477.9077706482745
 20
209.6979630109289
  0
LINE
  5
1FF7
330
A
100
AcDbEntity
  8
MODEL
  6
Continuous
100
AcDbLine
 10
467.9491942372658
 20
209.6979630109289
 30
0.0
 11
477.9077706482745
 21
209.6979630109289
 31
0.0
  0
LWPOLYLINE
  5
1FF8
330
A
100
AcDbEntity
  8
MODEL
  6
Continuous
100
AcDbPolyline
 90
       17
 70
   128
 43
0.0
 10
467.9491942372658
 20
209.6979630109289
 10
468.8312535729743
 20
209.7653758641699
 10
469.7048155215122
 20
209.9669736739633
 10
470.5614721026756
 20
210.300804388189
 10
471.3929717984535
 20
210.7636493560293
 10
472.1913052347041
 20
211.3510680314538
 10
472.948787137542
 20
212.0573979732034
 10
473.6581159379817
 20
212.8758293506143
 10
474.3124669041969
 20
213.7984794494131
 10
474.9055368450024
 20
214.816467177532
 10
475.4316111650803
 20
215.9199875709054
 10
475.8856271949149
 20
217.0984161015984
 10
476.2632114436962
 20
218.3403980847814
 10
476.5607243028023
 20
219.6339827891805
 10
476.7753084745742
 20
220.9666979428765
 10
476.9048889723159
 20
222.325728547239
 10
476.9482215490676
 20
223.6979615804192
  0
LWPOLYLINE
  5
1FF9
330
A
100
AcDbEntity
  8
MODEL
  6
Continuous
100
AcDbPolyline
 90
       15
 70
   128
 43
0.0
 10
467.9491942372658
 20
213.6979711171624
 10
468.6688867953159
 20
213.7608540174004
 10
469.3795306232311
 20
213.9486831542471
 10
470.0721887495852
 20
214.2591339465615
 10
470.7381439950801
 20
214.6882873889443
 10
471.3690293577052
 20
215.2307343598821
 10
471.9569099691249
 20
215.8796501275518
 10
472.4943874028065
 20
216.6268986579415
 10
472.974711432729
 20
217.4630773183343
 10
473.3918321874476
 20
218.3776509877679
 10
473.7405119088032
 20
219.3591308709618
 10
474.0163584795333
 20
220.3951788064477
 10
474.215911104951
 20
221.4727562781808
 10
474.3366514888144
 20
222.5783181306359
 10
474.3770708885527
 20
223.6979615804192
  0
LINE
  5
1FFA
330
A
100
AcDbEntity
  8
MODEL
  6
Continuous
100
AcDbLine
 10
486.9067979600765
 20
330.6979698058602
 30
0.0
 11
486.9067979600765
 21
223.6979615804192
 31
0.0
  0
LINE
  5
1FFB
330
A
100
AcDbEntity
  8
MODEL
  6
Continuous
100
AcDbLine
 10
476.9482215490676
 20
223.6979615804192
 30
0.0
 11
476.9482215490676
 21
330.6979698058602
 31
0.0
  0
LINE
  5
1FFC
330
A
100
AcDbEntity
  8
MODEL
  6
Continuous
100
AcDbLine
 10
474.3770708885527
 20
223.6979615804192
 30
0.0
 11
474.3770708885527
 21
330.6979698058602
 31
0.0
  0
LWPOLYLINE
  5
1FFD
330
A
100
AcDbEntity
  8
MODEL
  6
Continuous
100
AcDbPolyline
 90
       17
 70
   128
 43
0.0
 10
476.9482215490676
 20
330.6979698058602
 10
476.9048889723159
 20
332.0702084269759
 10
476.7753084745742
 20
333.4292334434029
 10
476.5607243028023
 20
334.7619541850307
 10
476.2632114436962
 20
336.0555370267865
 10
475.8856271949149
 20
337.2975236665842
 10
475.4316111650803
 20
338.4759521972773
 10
474.9055368450024
 20
339.5794753846147
 10
474.3124669041969
 20
340.597464044058
 10
473.6581159379817
 20
341.5201150741794
 10
472.948787137542
 20
342.3385436576226
 10
472.1913052347041
 20
343.0448670801142
 10
471.3929717984535
 20
343.6322824959096
 10
470.5614721026756
 20
344.0951335173467
 10
469.7048155215122
 20
344.4289628345904
 10
468.8312535729743
 20
344.6305550564465
 10
467.9491942372658
 20
344.69796884101
  0
LINE
  5
1FFE
330
A
100
AcDbEntity
  8
MODEL
  6
Continuous
100
AcDbLine
 10
477.9077706482745
 20
344.69796884101
 30
0.0
 11
467.9491942372658
 21
344.69796884101
 31
0.0
  0
LWPOLYLINE
  5
1FFF
330
A
100
AcDbEntity
  8
MODEL
  6
Continuous
100
AcDbPolyline
 90
       17
 70
   128
 43
0.0
 10
477.9077706482745
 20
344.69796884101
 10
478.7898299839832
 20
344.6305550564465
 10
479.6633956578112
 20
344.4289628345904
 10
480.5200485136845
 20
344.0951335173467
 10
481.3515482094622
 20
343.6322824959096
 10
482.1498853710032
 20
343.0448670801142
 10
482.9073635485507
 20
342.3385436576226
 10
483.6166960742809
 20
341.5201150741794
 10
484.2710433152058
 20
340.597464044058
 10
484.8641169813014
 20
339.5794753846147
 10
485.390187576089
 20
338.4759521972773
 10
485.8442036059237
 20
337.2975236665842
 10
486.2217915799952
 20
336.0555370267865
 10
486.519300713811
 20
334.7619541850307
 10
486.7338848855831
 20
333.4292334434029
 10
486.8634653833248
 20
332.0702084269759
 10
486.9067979600765
 20
330.6979698058602
  0
LWPOLYLINE
  5
2000
330
A
100
AcDbEntity
  8
MODEL
  6
Continuous
100
AcDbPolyline
 90
       15
 70
   128
 43
0.0
 10
474.3770708885527
 20
330.6979698058602
 10
474.3366514888144
 20
331.8176132556436
 10
474.215911104951
 20
332.923178833389
 10
474.0163584795333
 20
334.0007600304106
 10
473.7405119088032
 20
335.0368061032531
 10
473.3918321874476
 20
336.0182897117355
 10
472.974711432729
 20
336.9328671064594
 10
472.4943874028065
 20
337.7690364536282
 10
471.9569099691249
 20
338.5162840526917
 10
471.3690293577052
 20
339.1652109962323
 10
470.7381439950801
 20
339.7076579671738
 10
470.0721887495852
 20
340.136802096329
 10
469.3795306232311
 20
340.4472482320288
 10
468.6688867953159
 20
340.6350913387176
 10
467.9491942372658
 20
340.6979686510202
  0
LINE
  5
2001
330
A
100
AcDbEntity
  8
MODEL
  6
Continuous
100
AcDbLine
 10
467.9491942372658
 20
209.6979630109289
 30
0.0
 11
465.6994392719603
 21
209.6979630109289
 31
0.0
  0
LINE
  5
2002
330
A
100
AcDbEntity
  8
MODEL
  6
Continuous
100
AcDbLine
 10
467.9491942372658
 20
213.6979711171624
 30
0.0
 11
465.6994392719603
 21
213.6979711171624
 31
0.0
  0
LINE
  5
2003
330
A
100
AcDbEntity
  8
MODEL
  6
Continuous
100
AcDbLine
 10
431.631694882784
 20
344.69796884101
 30
0.0
 11
467.9491942372658
 21
344.69796884101
 31
0.0
  0
LINE
  5
2004
330
A
100
AcDbEntity
  8
MODEL
  6
Continuous
100
AcDbLine
 10
431.631694882784
 20
340.6979686510202
 30
0.0
 11
467.9491942372658
 21
340.6979686510202
 31
0.0
  0
LINE
  5
2005
330
A
100
AcDbEntity
  8
MODEL
  6
Continuous
100
AcDbLine
 10
464.1787273433544
 20
213.6979711171624
 30
0.0
 11
465.6994392719603
 21
213.6979711171624
 31
0.0
  0
LINE
  5
2006
330
A
100
AcDbEntity
  8
MODEL
  6
Continuous
100
AcDbLine
 10
465.6994392719603
 20
209.6979630109289
 30
0.0
 11
464.1787273433544
 21
209.6979630109289
 31
0.0
  0
LINE
  5
2007
330
A
100
AcDbEntity
  8
MODEL
  6
Continuous
100
AcDbLine
 10
430.1109829541779
 20
344.69796884101
 30
0.0
 11
431.631694882784
 21
344.69796884101
 31
0.0
  0
LINE
  5
2008
330
A
100
AcDbEntity
  8
MODEL
  6
Continuous
100
AcDbLine
 10
431.631694882784
 20
340.6979686510202
 30
0.0
 11
430.1109829541779
 21
340.6979686510202
 31
0.0
  0
LINE
  5
2009
330
A
100
AcDbEntity
  8
MODEL
  6
Continuous
100
AcDbLine
 10
417.1109831516184
 20
213.8979745027062
 30
0.0
 11
417.1109831516184
 21
201.8979650851705
 31
0.0
  0
LINE
  5
200A
330
A
100
AcDbEntity
  8
MODEL
  6
Continuous
100
AcDbLine
 10
417.1109831516184
 20
201.8979650851705
 30
0.0
 11
416.1109832205362
 21
200.8979630586144
 31
0.0
  0
LINE
  5
200B
330
A
100
AcDbEntity
  8
MODEL
  6
Continuous
100
AcDbLine
 10
416.1109832205362
 20
200.8979630586144
 30
0.0
 11
416.1109832205362
 21
213.8979745027062
 31
0.0
  0
LINE
  5
200C
330
A
100
AcDbEntity
  8
MODEL
  6
Continuous
100
AcDbLine
 10
416.1109832205362
 20
213.8979745027062
 30
0.0
 11
416.1109832205362
 21
487.8979635354516
 31
0.0
  0
LINE
  5
200D
330
A
100
AcDbEntity
  8
MODEL
  6
Continuous
100
AcDbLine
 10
417.1109831516184
 20
487.8979635354516
 30
0.0
 11
417.1109831516184
 21
213.8979745027062
 31
0.0
  0
LINE
  5
200E
330
A
100
AcDbEntity
  8
MODEL
  6
Continuous
100
AcDbLine
 10
410.1109834012128
 20
500.8979749795416
 30
0.0
 11
410.1109834012128
 21
487.8979635354516
 31
0.0
  0
LINE
  5
200F
330
A
100
AcDbEntity
  8
MODEL
  6
Continuous
100
AcDbLine
 10
410.1109834012128
 20
500.8979749795416
 30
0.0
 11
416.1109832205362
 21
500.8979749795416
 31
0.0
  0
LINE
  5
2010
330
A
100
AcDbEntity
  8
MODEL
  6
Continuous
100
AcDbLine
 10
416.1109832205362
 20
487.8979635354516
 30
0.0
 11
416.1109832205362
 21
500.8979749795416
 31
0.0
  0
LINE
  5
2011
330
A
100
AcDbEntity
  8
MODEL
  6
Continuous
100
AcDbLine
 10
410.1109834012128
 20
213.8979745027062
 30
0.0
 11
410.1109834012128
 21
200.8979630586144
 31
0.0
  0
LINE
  5
2012
330
A
100
AcDbEntity
  8
MODEL
  6
Continuous
100
AcDbLine
 10
416.1109832205362
 20
200.8979630586144
 30
0.0
 11
410.1109834012128
 21
200.8979630586144
 31
0.0
  0
LINE
  5
2013
330
A
100
AcDbEntity
  8
MODEL
  6
Continuous
100
AcDbLine
 10
410.1109834012128
 20
487.8979635354516
 30
0.0
 11
410.1109834012128
 21
213.8979745027062
 31
0.0
  0
LINE
  5
2014
330
A
100
AcDbEntity
  8
MODEL
  6
Continuous
100
AcDbLine
 10
409.1109832373
 20
487.8979635354516
 30
0.0
 11
409.1109832373
 21
499.8979729529846
 31
0.0
  0
LINE
  5
2015
330
A
100
AcDbEntity
  8
MODEL
  6
Continuous
100
AcDbLine
 10
410.1109834012128
 20
500.8979749795416
 30
0.0
 11
409.1109832373
 21
499.8979729529846
 31
0.0
  0
LINE
  5
2016
330
A
100
AcDbEntity
  8
MODEL
  6
Continuous
100
AcDbLine
 10
409.1109832373
 20
213.8979745027062
 30
0.0
 11
409.1109832373
 21
487.8979635354516
 31
0.0
  0
LINE
  5
2017
330
A
100
AcDbEntity
  8
MODEL
  6
Continuous
100
AcDbLine
 10
409.1109832373
 20
201.8979650851705
 30
0.0
 11
409.1109832373
 21
213.8979745027062
 31
0.0
  0
LINE
  5
2018
330
A
100
AcDbEntity
  8
MODEL
  6
Continuous
100
AcDbLine
 10
409.1109832373
 20
201.8979650851705
 30
0.0
 11
410.1109834012128
 21
200.8979630586144
 31
0.0
  0
LINE
  5
2019
330
A
100
AcDbEntity
  8
MODEL
  6
Continuous
100
AcDbLine
 10
416.1109832205362
 20
500.8979749795416
 30
0.0
 11
417.1109831516184
 21
499.8979729529846
 31
0.0
  0
LINE
  5
201A
330
A
100
AcDbEntity
  8
MODEL
  6
Continuous
100
AcDbLine
 10
417.1109831516184
 20
499.8979729529846
 30
0.0
 11
417.1109831516184
 21
487.8979635354516
 31
0.0
  0
LINE
  5
201B
330
A
100
AcDbEntity
  8
MODEL
  6
Continuous
100
AcDbLine
 10
404.6109834310151
 20
500.8979749795416
 30
0.0
 11
409.1109832373
 21
500.8979749795416
 31
0.0
  0
LINE
  5
201C
330
A
100
AcDbEntity
  8
MODEL
  6
Continuous
100
AcDbLine
 10
409.1109832373
 20
500.8979749795416
 30
0.0
 11
409.1109832373
 21
499.8979729529846
 31
0.0
  0
LINE
  5
201D
102
{ACAD_REACTORS
330
22D4
102
}
330
A
100
AcDbEntity
  8
MODEL
  6
Continuous
100
AcDbLine
 10
404.6109834310151
 20
496.8979668733108
 30
0.0
 11
404.6109834310151
 21
500.8979749795416
 31
0.0
  0
LINE
  5
201E
330
A
100
AcDbEntity
  8
MODEL
  6
Continuous
100
AcDbLine
 10
417.6109832335748
 20
500.8979749795416
 30
0.0
 11
424.6109829839804
 21
500.8979749795416
 31
0.0
  0
LINE
  5
201F
330
A
100
AcDbEntity
  8
MODEL
  6
Continuous
100
AcDbLine
 10
417.6109832335748
 20
496.8979668733108
 30
0.0
 11
417.6109832335748
 21
500.8979749795416
 31
0.0
  0
LINE
  5
2020
102
{ACAD_REACTORS
330
22D4
102
}
330
A
100
AcDbEntity
  8
MODEL
  6
Continuous
100
AcDbLine
 10
424.6109829839804
 20
500.8979749795416
 30
0.0
 11
424.6109829839804
 21
496.8979668733108
 31
0.0
  0
LINE
  5
2021
330
A
100
AcDbEntity
  8
MODEL
  6
Continuous
100
AcDbLine
 10
409.1109832373
 20
200.8979630586144
 30
0.0
 11
404.6109834310151
 21
200.8979630586144
 31
0.0
  0
LINE
  5
2022
330
A
100
AcDbEntity
  8
MODEL
  6
Continuous
100
AcDbLine
 10
409.1109832373
 20
201.8979650851705
 30
0.0
 11
409.1109832373
 21
200.8979630586144
 31
0.0
  0
LINE
  5
2023
330
A
100
AcDbEntity
  8
MODEL
  6
Continuous
100
AcDbLine
 10
404.6109834310151
 20
200.8979630586144
 30
0.0
 11
404.6109834310151
 21
204.8979711648443
 31
0.0
  0
LINE
  5
2024
330
A
100
AcDbEntity
  8
MODEL
  6
Continuous
100
AcDbLine
 10
404.6109834310151
 20
496.8979668733108
 30
0.0
 11
404.6109834310151
 21
204.8979711648443
 31
0.0
  0
LINE
  5
2025
330
A
100
AcDbEntity
  8
MODEL
  6
Continuous
100
AcDbLine
 10
424.6109829839804
 20
200.8979630586144
 30
0.0
 11
417.6109832335748
 21
200.8979630586144
 31
0.0
  0
LINE
  5
2026
330
A
100
AcDbEntity
  8
MODEL
  6
Continuous
100
AcDbLine
 10
417.6109832335748
 20
200.8979630586144
 30
0.0
 11
417.6109832335748
 21
204.8979711648443
 31
0.0
  0
LINE
  5
2027
330
A
100
AcDbEntity
  8
MODEL
  6
Continuous
100
AcDbLine
 10
424.6109829839804
 20
204.8979711648443
 30
0.0
 11
424.6109829839804
 21
200.8979630586144
 31
0.0
  0
LINE
  5
2028
330
A
100
AcDbEntity
  8
MODEL
  6
Continuous
100
AcDbLine
 10
417.6109832335748
 20
496.8979668733108
 30
0.0
 11
417.6109832335748
 21
204.8979711648443
 31
0.0
  0
LINE
  5
2029
330
A
100
AcDbEntity
  8
MODEL
  6
Continuous
100
AcDbLine
 10
424.6109829839804
 20
496.8979668733108
 30
0.0
 11
424.6109829839804
 21
204.8979711648443
 31
0.0
  0
LINE
  5
202A
330
A
100
AcDbEntity
  8
MODEL
  6
Continuous
100
AcDbLine
 10
417.6109832335748
 20
200.8979630586144
 30
0.0
 11
416.1109832205362
 21
200.8979630586144
 31
0.0
  0
LINE
  5
202B
330
A
100
AcDbEntity
  8
MODEL
  6
Continuous
100
AcDbLine
 10
410.1109834012128
 20
200.8979630586144
 30
0.0
 11
409.1109832373
 21
200.8979630586144
 31
0.0
  0
LINE
  5
202C
330
A
100
AcDbEntity
  8
MODEL
  6
Continuous
100
AcDbLine
 10
417.6109832335748
 20
500.8979749795416
 30
0.0
 11
416.1109832205362
 21
500.8979749795416
 31
0.0
  0
LINE
  5
202D
330
A
100
AcDbEntity
  8
MODEL
  6
Continuous
100
AcDbLine
 10
410.1109834012128
 20
500.8979749795416
 30
0.0
 11
409.1109832373
 21
500.8979749795416
 31
0.0
  0
DIMENSION
  5
202E
330
A
100
AcDbEntity
  8
DIM
100
AcDbDimension
  2
*D6
 10
372.1265307583095
 20
366.8979690190771
 30
0.0
 11
372.1265307583095
 21
350.8979690190789
 31
0.0
 70
   160
 71
     1
 42
31.99999999999818
 73
     0
 74
     0
 75
     0
  3
tfrom線あり
100
AcDbAlignedDimension
 13
431.6415807289937
 23
334.8979690190789
 33
0.0
 14
431.6415807289937
 24
366.8979690190771
 34
0.0
 50
90.0
100
AcDbRotatedDimension
1001
ACAD
1000
DSTYLE
1002
{
1070
   281
1070
     0
1002
}
  0
DIMENSION
  5
202F
330
A
100
AcDbEntity
  8
DIM
100
AcDbDimension
  2
*D7
 10
395.6904871416851
 20
346.1979690190782
 30
0.0
 11
395.6904871416851
 21
350.8979690190789
 31
0.0
 70
   160
 71
     1
 42
9.399999999999636
 73
     0
 74
     0
 75
     0
  3
tfrom線あり
100
AcDbAlignedDimension
 13
440.6109832074977
 23
355.5979690190778
 33
0.0
 14
440.6109832074977
 24
346.1979690190782
 34
0.0
 50
90.0
100
AcDbRotatedDimension
1001
ACAD
1000
DSTYLE
1002
{
1070
   172
1070
     1
1070
   271
1070
     2
1002
}
  0
DIMENSION
  5
2030
330
A
100
AcDbEntity
  8
DIM
100
AcDbDimension
  2
*D8
 10
511.1084750514405
 20
357.0979690190773
 30
0.0
 11
511.1084750514407
 21
375.5924690190773
 31
0.0
 70
   160
 71
     1
 42
12.39999999999964
 73
     0
 74
     1
 75
     1
  3
tfrom線あり
100
AcDbAlignedDimension
 13
467.9491942745132
 23
344.6979690190782
 33
0.0
 14
467.9491942745132
 24
357.0979690190778
 34
0.0
 50
89.9999999999992
100
AcDbRotatedDimension
1001
ACAD
1000
DSTYLE
1002
{
1070
   175
1070
     1
1070
   271
1070
     2
1002
}
  0
DIMENSION
  5
2031
330
A
100
AcDbEntity
  8
DIM
100
AcDbDimension
  2
*D9
 10
540.1189241128993
 20
492.0979690190778
 30
0.0
 11
540.1189241128993
 21
350.8979690190789
 31
0.0
 70
   160
 71
     1
 42
282.3999999999996
 73
     0
 74
     0
 75
     0
  3
tfrom線あり
100
AcDbAlignedDimension
 13
477.9077720350602
 23
209.6979690190782
 33
0.0
 14
477.9077720350602
 24
492.0979690190778
 34
0.0
 50
90.0
100
AcDbRotatedDimension
1001
ACAD
1000
DSTYLE
1002
{
1070
   271
1070
     2
1002
}
  0
DIMENSION
  5
2032
330
A
100
AcDbEntity
  8
DIM
100
AcDbDimension
  2
*D10
 10
448.58422190135
 20
209.6979690190782
 30
0.0
 11
448.58422190135
 21
183.5741032095198
 31
0.0
 70
   160
 71
     1
 42
8.799999999999303
 73
     0
 74
     1
 75
     1
  3
tfrom線あり
100
AcDbAlignedDimension
 13
424.6109832074977
 23
200.8979690190789
 33
0.0
 14
467.9491942745132
 24
209.6979690190782
 34
0.0
 50
90.0
100
AcDbRotatedDimension
1001
ACAD
1000
DSTYLE
1002
{
1070
   271
1070
     2
1070
   172
1070
     1
1002
}
  0
LINE
  5
2033
330
A
100
AcDbEntity
  8
MODEL
  6
Continuous
100
AcDbLine
 10
166.3599195073997
 20
201.8979650851705
 30
0.0
 11
256.7141655947724
 21
201.8979650851705
 31
0.0
  0
LINE
  5
2034
330
A
100
AcDbEntity
  8
MODEL
  6
Continuous
100
AcDbLine
 10
256.7141655947724
 20
200.8979630586144
 30
0.0
 11
163.7141689773356
 21
200.8979630586144
 31
0.0
  0
LINE
  5
2035
330
A
100
AcDbEntity
  8
MODEL
  6
Continuous
100
AcDbLine
 10
256.7141655947724
 20
499.8979729529846
 30
0.0
 11
166.3599195073997
 21
499.8979729529846
 31
0.0
  0
LINE
  5
2036
330
A
100
AcDbEntity
  8
MODEL
  6
Continuous
100
AcDbLine
 10
163.7141689773356
 20
500.8979749795416
 30
0.0
 11
256.7141655947724
 21
500.8979749795416
 31
0.0
  0
ARC
  5
2037
330
A
100
AcDbEntity
  8
MODEL
  6
Continuous
100
AcDbCircle
 10
256.7141685153996
 20
487.897969019078
 30
0.0
 40
12.0
100
AcDbArc
 50
0.0000000000043425
 51
90.0
  0
LINE
  5
2038
330
A
100
AcDbEntity
  8
MODEL
  6
Continuous
100
AcDbLine
 10
268.7141675617257
 20
213.8979745027062
 30
0.0
 11
268.7141675617257
 21
487.8979635354516
 31
0.0
  0
ARC
  5
2039
330
A
100
AcDbEntity
  8
MODEL
  6
Continuous
100
AcDbCircle
 10
256.7141685153996
 20
213.8979690190771
 30
0.0
 40
12.0
100
AcDbArc
 50
270.0
 51
0.0
  0
ARC
  5
203A
330
A
100
AcDbEntity
  8
MODEL
  6
Continuous
100
AcDbCircle
 10
256.7141685153996
 20
487.897969019078
 30
0.0
 40
13.00000000000003
100
AcDbArc
 50
0.0000000000040085
 51
90.0
  0
ARC
  5
203B
330
A
100
AcDbEntity
  8
MODEL
  6
Continuous
100
AcDbCircle
 10
256.7141685153996
 20
213.8979690190771
 30
0.0
 40
13.00000000000001
100
AcDbArc
 50
270.0
 51
0.0000000000040085
  0
LINE
  5
203C
330
A
100
AcDbEntity
  8
MODEL
  6
Continuous
100
AcDbLine
 10
269.7141695882832
 20
487.8979635354516
 30
0.0
 11
269.7141695882832
 21
213.8979745027062
 31
0.0
  0
ARC
  5
203D
330
A
100
AcDbEntity
  8
MODEL
  6
Continuous
100
AcDbCircle
 10
163.7141685153996
 20
204.8979690190771
 30
0.0
 40
4.000000000000007
100
AcDbArc
 50
270.0
 51
0.0
  0
LINE
  5
203E
330
A
100
AcDbEntity
  8
MODEL
  6
Continuous
100
AcDbLine
 10
142.7141683291351
 20
200.8979630586144
 30
0.0
 11
163.7141689773356
 21
200.8979630586144
 31
0.0
  0
LINE
  5
203F
330
A
100
AcDbEntity
  8
MODEL
  6
Continuous
100
AcDbLine
 10
142.7141683291351
 20
500.8979749795416
 30
0.0
 11
142.7141683291351
 21
200.8979630586144
 31
0.0
  0
LINE
  5
2040
330
A
100
AcDbEntity
  8
MODEL
  6
Continuous
100
AcDbLine
 10
142.7141683291351
 20
500.8979749795416
 30
0.0
 11
163.7141689773356
 21
500.8979749795416
 31
0.0
  0
ARC
  5
2041
330
A
100
AcDbEntity
  8
MODEL
  6
Continuous
100
AcDbCircle
 10
163.7141685153996
 20
496.897969019078
 30
0.0
 40
4.000000000000028
100
AcDbArc
 50
0.0000000000130276
 51
90.0
  0
LINE
  5
2042
330
A
100
AcDbEntity
  8
MODEL
  6
Continuous
100
AcDbLine
 10
167.7141687016641
 20
496.8979668733108
 30
0.0
 11
167.7141687016641
 21
204.8979711648443
 31
0.0
  0
DIMENSION
  5
2043
330
A
100
AcDbEntity
  8
DIM
100
AcDbDimension
  2
*D11
 10
268.7141685153994
 20
530.4395900394034
 30
0.0
 11
205.7141685153996
 21
530.4395900394031
 31
0.0
 70
   160
 71
     1
 42
126.0000001862644
 73
     0
 74
     0
 75
     0
  3
tfrom線あり
100
AcDbAlignedDimension
 13
142.7141683291351
 23
500.8979749795416
 33
0.0
 14
268.7141685153996
 24
487.897969019078
 34
0.0
 50
-179.9999999999998
100
AcDbRotatedDimension
  0
DIMENSION
  5
2044
330
A
100
AcDbEntity
  8
DIM
100
AcDbDimension
  2
*D12
 10
87.51860105439702
 20
200.8979690190789
 30
0.0
 11
87.51860105439704
 21
350.8979690190789
 31
0.0
 70
   160
 71
     1
 42
300.0
 73
     0
 74
     0
 75
     0
  3
tfrom線あり
100
AcDbAlignedDimension
 13
142.7141685153996
 23
500.8979690190789
 33
0.0
 14
142.7141685153996
 24
200.8979690190789
 34
0.0
 50
90.0
100
AcDbRotatedDimension
1001
ACAD
1000
DSTYLE
1002
{
1070
    73
1070
     0
1070
   174
1070
     1
1002
}
  0
LINE
  5
2045
330
A
100
AcDbEntity
  8
MODEL
  6
Continuous
100
AcDbLine
 10
417.6109832335748
 20
742.3434144398278
 30
0.0
 11
417.1109831516184
 21
742.8434145217842
 31
0.0
  0
LINE
  5
2046
330
A
100
AcDbEntity
  8
MODEL
  6
Continuous
100
AcDbLine
 10
417.1109831516184
 20
751.1814144486642
 30
0.0
 11
417.6109832335748
 21
751.6814145306206
 31
0.0
  0
CIRCLE
  5
2047
330
A
100
AcDbEntity
  8
MODEL
  6
Continuous
100
AcDbCircle
 10
436.6109832074977
 20
750.5124144768423
 30
0.0
 40
2.750000000000057
  0
LINE
  5
2048
330
A
100
AcDbEntity
  8
MODEL
  6
Continuous
100
AcDbLine
 10
435.3609824177361
 20
749.7907266183837
 30
0.0
 11
435.3609824177361
 21
751.2341023353018
 31
0.0
  0
LINE
  5
2049
330
A
100
AcDbEntity
  8
MODEL
  6
Continuous
100
AcDbLine
 10
435.3609824177361
 20
751.2341023353018
 30
0.0
 11
436.6109830882884
 21
751.9557901937595
 31
0.0
  0
LINE
  5
204A
330
A
100
AcDbEntity
  8
MODEL
  6
Continuous
100
AcDbLine
 10
436.6109830882884
 20
751.9557901937595
 30
0.0
 11
437.8609837588406
 21
751.2341023353018
 31
0.0
  0
LINE
  5
204B
330
A
100
AcDbEntity
  8
MODEL
  6
Continuous
100
AcDbLine
 10
437.8609837588406
 20
751.2341023353018
 30
0.0
 11
437.8609837588406
 21
749.7907266183837
 31
0.0
  0
LINE
  5
204C
330
A
100
AcDbEntity
  8
MODEL
  6
Continuous
100
AcDbLine
 10
437.8609837588406
 20
749.7907266183837
 30
0.0
 11
436.6109830882884
 21
749.069038759926
 31
0.0
  0
LINE
  5
204D
330
A
100
AcDbEntity
  8
MODEL
  6
Continuous
100
AcDbLine
 10
436.6109830882884
 20
749.069038759926
 30
0.0
 11
435.3609824177361
 21
749.7907266183837
 31
0.0
  0
ARC
  5
204E
330
A
100
AcDbEntity
  8
MODEL
  6
Continuous
100
AcDbCircle
 10
436.6109832074977
 20
750.5124144768423
 30
0.0
 40
1.249999999999945
100
AcDbArc
 50
240.0000000000233
 51
299.9999999999766
  0
ARC
  5
204F
330
A
100
AcDbEntity
  8
MODEL
  6
Continuous
100
AcDbCircle
 10
436.6109832074977
 20
750.5124144768423
 30
0.0
 40
1.249999999999886
100
AcDbArc
 50
299.9999999999815
 51
0.0
  0
ARC
  5
2050
330
A
100
AcDbEntity
  8
MODEL
  6
Continuous
100
AcDbCircle
 10
436.6109832074977
 20
750.5124144768423
 30
0.0
 40
1.249999999999933
100
AcDbArc
 50
0.0
 51
59.99999999994612
  0
ARC
  5
2051
330
A
100
AcDbEntity
  8
MODEL
  6
Continuous
100
AcDbCircle
 10
436.6109832074977
 20
750.5124144768423
 30
0.0
 40
1.250000000000061
100
AcDbArc
 50
59.99999999997686
 51
120.0000000000231
  0
ARC
  5
2052
330
A
100
AcDbEntity
  8
MODEL
  6
Continuous
100
AcDbCircle
 10
436.6109832074977
 20
750.5124144768423
 30
0.0
 40
1.250000000000061
100
AcDbArc
 50
120.0000000000231
 51
180.0
  0
ARC
  5
2053
330
A
100
AcDbEntity
  8
MODEL
  6
Continuous
100
AcDbCircle
 10
436.6109832074977
 20
750.5124144768423
 30
0.0
 40
1.250000000000057
100
AcDbArc
 50
180.0
 51
240.0000000000283
  0
LINE
  5
2054
330
A
100
AcDbEntity
  8
MODEL
  6
Continuous
100
AcDbLine
 10
424.6109829839804
 20
744.5124144246892
 30
0.0
 11
440.6109837439395
 21
744.5124144246892
 31
0.0
  0
ARC
  5
2055
330
A
100
AcDbEntity
  8
MODEL
  6
Continuous
100
AcDbCircle
 10
440.6109832074977
 20
746.5124144768423
 30
0.0
 40
2.000000000000057
100
AcDbArc
 50
270.0
 51
0.0
  0
LINE
  5
2056
330
A
100
AcDbEntity
  8
MODEL
  6
Continuous
100
AcDbLine
 10
442.610984071765
 20
746.5124142868525
 30
0.0
 11
442.610984071765
 21
754.512414666833
 31
0.0
  0
CIRCLE
  5
2057
330
A
100
AcDbEntity
  8
MODEL
  6
Continuous
100
AcDbCircle
 10
436.6109832074977
 20
750.5124144768423
 30
0.0
 40
3.0
  0
LINE
  5
2058
330
A
100
AcDbEntity
  8
MODEL
  6
Continuous
100
AcDbLine
 10
440.6109837439395
 20
756.5124145289964
 30
0.0
 11
424.6109829839804
 21
756.5124145289964
 31
0.0
  0
ARC
  5
2059
330
A
100
AcDbEntity
  8
MODEL
  6
Continuous
100
AcDbCircle
 10
440.6109832074977
 20
754.5124144768432
 30
0.0
 40
2.000000000000057
100
AcDbArc
 50
0.0
 51
90.0
  0
LINE
  5
205A
330
A
100
AcDbEntity
  8
MODEL
  6
Continuous
100
AcDbLine
 10
475.6580156829692
 20
714.0901767229751
 30
0.0
 11
477.9077706482745
 21
711.4090219652361
 31
0.0
  0
ARC
  5
205B
330
A
100
AcDbEntity
  8
MODEL
  6
Continuous
100
AcDbCircle
 10
470.6787265208837
 20
709.9120589915364
 30
0.0
 40
6.499999999999959
100
AcDbArc
 50
39.99999999999811
 51
219.9999999999967
  0
LINE
  5
205C
330
A
100
AcDbEntity
  8
MODEL
  6
Continuous
100
AcDbLine
 10
467.9491942372658
 20
703.0527823185629
 30
0.0
 11
465.6994392719603
 21
705.7339408015913
 31
0.0
  0
LWPOLYLINE
  5
205D
330
A
100
AcDbEntity
  8
MODEL
  6
Continuous
100
AcDbPolyline
 90
       17
 70
   128
 43
0.0
 10
486.9067979600765
 20
700.6843992089933
 10
486.8634653833248
 20
700.7360429084009
 10
486.7338848855831
 20
700.8904710924334
 10
486.519300713811
 20
701.1462010955519
 10
486.2217915799952
 20
701.5007630502886
 10
485.8442036059237
 20
701.9507520413107
 10
485.390187576089
 20
702.4918243801311
 10
484.8641169813014
 20
703.1187795614914
 10
484.2710433152058
 20
703.825571439237
 10
483.6166960742809
 20
704.6053939079956
 10
482.9073635485507
 20
705.4507405078119
 10
482.1498853710032
 20
706.3534714793867
 10
481.3515482094622
 20
707.3048882698721
 10
480.5200485136845
 20
708.2958303904242
 10
479.6633956578112
 20
709.3167536472982
 10
478.7898299839832
 20
710.3578269993976
 10
477.9077706482745
 20
711.4090219652361
  0
LWPOLYLINE
  5
205E
330
A
100
AcDbEntity
  8
MODEL
  6
Continuous
100
AcDbPolyline
 90
       17
 70
   128
 43
0.0
 10
467.9491942372658
 20
703.0527823185629
 10
468.8312535729743
 20
702.0015873527235
 10
469.7048155215122
 20
700.960514000625
 10
470.5614721026756
 20
699.9395907437519
 10
471.3929717984535
 20
698.9486486231998
 10
472.1913052347041
 20
697.9972318327135
 10
472.948787137542
 20
697.0945045864299
 10
473.6581159379817
 20
696.2491542613215
 10
474.3124669041969
 20
695.4693317925647
 10
474.9055368450024
 20
694.7625399148172
 10
475.4316111650803
 20
694.135584733457
 10
475.8856271949149
 20
693.5945123946384
 10
476.2632114436962
 20
693.1445234036154
 10
476.5607243028023
 20
692.7899614488796
 10
476.7753084745742
 20
692.5342314457602
 10
476.9048889723159
 20
692.3798032617277
 10
476.9482215490676
 20
692.3281632876113
  0
LINE
  5
205F
330
A
100
AcDbEntity
  8
MODEL
  6
Continuous
100
AcDbLine
 10
476.9482215490676
 20
692.3281632876113
 30
0.0
 11
486.9067979600765
 21
700.6843992089933
 31
0.0
  0
LINE
  5
2060
330
A
100
AcDbEntity
  8
MODEL
  6
Continuous
100
AcDbLine
 10
475.6580156829692
 20
714.0901767229751
 30
0.0
 11
442.610984071765
 21
753.4740977967239
 31
0.0
  0
ARC
  5
2061
330
A
100
AcDbEntity
  8
MODEL
  6
Continuous
100
AcDbCircle
 10
436.6109832074977
 20
750.5124144768423
 30
0.0
 40
6.500000000000017
100
AcDbArc
 50
67.38013505196405
 51
112.619864948036
  0
LINE
  5
2062
330
A
100
AcDbEntity
  8
MODEL
  6
Continuous
100
AcDbLine
 10
433.160432949338
 20
744.5124144246892
 30
0.0
 11
465.6994392719603
 21
705.7339408015913
 31
0.0
  0
LINE
  5
2063
330
A
100
AcDbEntity
  8
MODEL
  6
Continuous
100
AcDbLine
 10
410.1109834012128
 20
649.0124173974699
 30
0.0
 11
410.1109834012128
 21
756.01241444704
 31
0.0
  0
LINE
  5
2064
330
A
100
AcDbEntity
  8
MODEL
  6
Continuous
100
AcDbLine
 10
416.1109832205362
 20
756.01241444704
 30
0.0
 11
416.1109832205362
 21
649.0124173974699
 31
0.0
  0
LINE
  5
2065
330
A
100
AcDbEntity
  8
MODEL
  6
Continuous
100
AcDbLine
 10
410.1109834012128
 20
756.01241444704
 30
0.0
 11
416.1109832205362
 21
756.01241444704
 31
0.0
  0
LINE
  5
2066
330
A
100
AcDbEntity
  8
MODEL
  6
Continuous
100
AcDbLine
 10
409.1109832373
 20
739.3666634848431
 30
0.0
 11
409.1109832373
 21
649.0124173974699
 31
0.0
  0
LINE
  5
2067
330
A
100
AcDbEntity
  8
MODEL
  6
Continuous
100
AcDbLine
 10
409.1109832373
 20
755.0124142831272
 30
0.0
 11
410.1109834012128
 21
756.01241444704
 31
0.0
  0
LINE
  5
2068
330
A
100
AcDbEntity
  8
MODEL
  6
Continuous
100
AcDbLine
 10
417.1109831516184
 20
649.0124173974699
 30
0.0
 11
417.1109831516184
 21
755.0124142831272
 31
0.0
  0
LINE
  5
2069
330
A
100
AcDbEntity
  8
MODEL
  6
Continuous
100
AcDbLine
 10
417.1109831516184
 20
755.0124142831272
 30
0.0
 11
416.1109832205362
 21
756.01241444704
 31
0.0
  0
LINE
  5
206A
330
A
100
AcDbEntity
  8
MODEL
  6
Continuous
100
AcDbLine
 10
409.1109832373
 20
649.0124173974699
 30
0.0
 11
409.1109832373
 21
637.0124154305166
 31
0.0
  0
LINE
  5
206B
330
A
100
AcDbEntity
  8
MODEL
  6
Continuous
100
AcDbLine
 10
410.1109834012128
 20
636.0124134039596
 30
0.0
 11
409.1109832373
 21
637.0124154305166
 31
0.0
  0
LINE
  5
206C
330
A
100
AcDbEntity
  8
MODEL
  6
Continuous
100
AcDbLine
 10
410.1109834012128
 20
636.0124134039596
 30
0.0
 11
410.1109834012128
 21
649.0124173974699
 31
0.0
  0
LINE
  5
206D
330
A
100
AcDbEntity
  8
MODEL
  6
Continuous
100
AcDbLine
 10
417.1109831516184
 20
637.0124154305166
 30
0.0
 11
417.1109831516184
 21
649.0124173974699
 31
0.0
  0
LINE
  5
206E
330
A
100
AcDbEntity
  8
MODEL
  6
Continuous
100
AcDbLine
 10
416.1109832205362
 20
649.0124173974699
 30
0.0
 11
416.1109832205362
 21
636.0124134039596
 31
0.0
  0
LINE
  5
206F
330
A
100
AcDbEntity
  8
MODEL
  6
Continuous
100
AcDbLine
 10
417.1109831516184
 20
637.0124154305166
 30
0.0
 11
416.1109832205362
 21
636.0124134039596
 31
0.0
  0
LINE
  5
2070
330
A
100
AcDbEntity
  8
MODEL
  6
Continuous
100
AcDbLine
 10
410.1109834012128
 20
636.0124134039596
 30
0.0
 11
416.1109832205362
 21
636.0124134039596
 31
0.0
  0
LINE
  5
2071
330
A
100
AcDbEntity
  8
MODEL
  6
Continuous
100
AcDbLine
 10
417.6109832335748
 20
756.01241444704
 30
0.0
 11
409.1109832373
 21
756.01241444704
 31
0.0
  0
LINE
  5
2072
330
A
100
AcDbEntity
  8
MODEL
  6
Continuous
100
AcDbLine
 10
417.6109832335748
 20
742.0124140149072
 30
0.0
 11
417.6109832335748
 21
756.01241444704
 31
0.0
  0
LINE
  5
2073
330
A
100
AcDbEntity
  8
MODEL
  6
Continuous
100
AcDbLine
 10
424.6109829839804
 20
742.0124140149072
 30
0.0
 11
424.6109829839804
 21
763.0124146631077
 31
0.0
  0
LINE
  5
2074
330
A
100
AcDbEntity
  8
MODEL
  6
Continuous
100
AcDbLine
 10
424.6109829839804
 20
763.0124146631077
 30
0.0
 11
404.6109834310151
 21
763.0124146631077
 31
0.0
  0
LINE
  5
2075
102
{ACAD_REACTORS
330
22C4
102
}
330
A
100
AcDbEntity
  8
MODEL
  6
Continuous
100
AcDbLine
 10
404.6109834310151
 20
763.0124146631077
 30
0.0
 11
404.6109834310151
 21
742.0124140149072
 31
0.0
  0
LINE
  5
2076
330
A
100
AcDbEntity
  8
MODEL
  6
Continuous
100
AcDbLine
 10
409.1109832373
 20
756.01241444704
 30
0.0
 11
409.1109832373
 21
742.0124140149072
 31
0.0
  0
LINE
  5
2077
330
A
100
AcDbEntity
  8
MODEL
  6
Continuous
100
AcDbLine
 10
404.6109834310151
 20
738.0124142905778
 30
0.0
 11
409.1109832373
 21
738.0124142905778
 31
0.0
  0
LINE
  5
2078
330
A
100
AcDbEntity
  8
MODEL
  6
Continuous
100
AcDbLine
 10
409.1109832373
 20
739.3666634848431
 30
0.0
 11
409.1109832373
 21
742.0124140149072
 31
0.0
  0
LINE
  5
2079
330
A
100
AcDbEntity
  8
MODEL
  6
Continuous
100
AcDbLine
 10
404.6109834310151
 20
742.0124140149072
 30
0.0
 11
404.6109834310151
 21
738.0124142905778
 31
0.0
  0
LINE
  5
207A
330
A
100
AcDbEntity
  8
MODEL
  6
Continuous
100
AcDbLine
 10
417.6109832335748
 20
738.0124142905778
 30
0.0
 11
424.6109829839804
 21
738.0124142905778
 31
0.0
  0
LINE
  5
207B
330
A
100
AcDbEntity
  8
MODEL
  6
Continuous
100
AcDbLine
 10
417.6109832335748
 20
742.0124140149072
 30
0.0
 11
417.6109832335748
 21
738.0124142905778
 31
0.0
  0
LINE
  5
207C
330
A
100
AcDbEntity
  8
MODEL
  6
Continuous
100
AcDbLine
 10
424.6109829839804
 20
738.0124142905778
 30
0.0
 11
424.6109829839804
 21
742.0124140149072
 31
0.0
  0
DIMENSION
  5
207D
330
A
100
AcDbEntity
  8
MODEL
 62
     3
100
AcDbDimension
  2
*D13
 10
442.6109832074977
 20
798.0559509929546
 30
0.0
 11
423.6109832074977
 21
798.0559509929546
 31
0.0
 70
   160
 71
     1
 42
38.00000000000003
 73
     0
 74
     0
 75
     0
 52
-90.00000000000001
  3
tfrom線あり
100
AcDbAlignedDimension
 13
404.6109832074977
 23
763.0124144768414
 33
0.0
 14
442.6109832074977
 24
754.5124144768432
 34
0.0
 50
179.9999999999998
100
AcDbRotatedDimension
  0
DIMENSION
  5
21E2
330
A
100
AcDbEntity
  8
DIM
100
AcDbDimension
  2
*D14
 10
113.0294586125356
 20
450.897969019078
 30
0.0
 11
113.0294586125356
 21
350.8979690190781
 31
0.0
 70
   160
 71
     5
 42
200.0
 73
     0
 74
     0
 75
     0
  3
tfrom線あり
100
AcDbAlignedDimension
 13
136.7138585358783
 23
250.897969019078
 33
0.0
 14
136.7138585358783
 24
450.897969019078
 34
0.0
 50
90.0
100
AcDbRotatedDimension
1001
ACAD
1000
DSTYLE
1002
{
1070
   144
1040
1.0
1002
}
  0
LINE
  5
2224
102
{ACAD_REACTORS
330
2227
102
}
330
A
100
AcDbEntity
  8
DIM
  6
CENTER
 48
0.09
100
AcDbLine
 10
136.7138585358783
 20
450.897969019078
 30
0.0
 11
148.7144781223919
 21
450.897969019078
 31
0.0
  0
LINE
  5
2225
102
{ACAD_REACTORS
330
2227
102
}
330
A
100
AcDbEntity
  8
DIM
  6
CENTER
 48
0.305
100
AcDbLine
 10
139.1077035767961
 20
453.2730173935576
 30
0.0
 11
146.3206330814741
 21
453.2730173935576
 31
0.0
  0
LINE
  5
2226
102
{ACAD_REACTORS
330
2227
102
}
330
A
100
AcDbEntity
  8
DIM
  6
CENTER
 48
0.305
100
AcDbLine
 10
139.1077035767961
 20
448.5229206445985
 30
0.0
 11
146.3206330814741
 21
448.5229206445985
 31
0.0
  0
LINE
  5
2228
102
{ACAD_REACTORS
330
222B
102
}
330
A
100
AcDbEntity
  8
DIM
  6
CENTER
 48
0.09
100
AcDbLine
 10
136.7138585358783
 20
250.897969019078
 30
0.0
 11
148.7144781223919
 21
250.897969019078
 31
0.0
  0
LINE
  5
2229
102
{ACAD_REACTORS
330
222B
102
}
330
A
100
AcDbEntity
  8
DIM
  6
CENTER
 48
0.305
100
AcDbLine
 10
139.1077035767961
 20
253.2730173935576
 30
0.0
 11
146.3206330814741
 21
253.2730173935576
 31
0.0
  0
LINE
  5
222A
102
{ACAD_REACTORS
330
222B
102
}
330
A
100
AcDbEntity
  8
DIM
  6
CENTER
 48
0.305
100
AcDbLine
 10
139.1077035767961
 20
248.5229206445985
 30
0.0
 11
146.3206330814741
 21
248.5229206445985
 31
0.0
  0
LINE
  5
22BF
330
A
100
AcDbEntity
  8
DIM
  6
CENTER
 48
0.09
100
AcDbLine
 10
414.6109832074977
 20
769.0127244563645
 30
0.0
 11
414.6109832074977
 21
757.0121048698509
 31
0.0
  0
LINE
  5
22C0
330
A
100
AcDbEntity
  8
DIM
  6
CENTER
 48
0.305
100
AcDbLine
 10
416.9860315819773
 20
766.6188794154467
 30
0.0
 11
416.9860315819773
 21
759.4059499107685
 31
0.0
  0
LINE
  5
22C1
330
A
100
AcDbEntity
  8
DIM
  6
CENTER
 48
0.305
100
AcDbLine
 10
412.2359348330182
 20
766.6188794154467
 30
0.0
 11
412.2359348330182
 21
759.4059499107686
 31
0.0
  0
DIMENSION
  5
22C2
102
{ACAD_REACTORS
330
22C4
102
}
102
{ACAD_XDICTIONARY
360
22C3
102
}
330
A
100
AcDbEntity
  8
DIM
100
AcDbDimension
  2
*D16
 10
414.552116498338
 20
781.3430064563768
 30
0.0
 11
409.5815499646765
 21
781.3430064563768
 31
0.0
 70
   160
 71
     5
 42
9.94113306732288
 73
     0
 74
     0
 75
     0
  3
tfrom線あり
100
AcDbAlignedDimension
 13
404.6109834310151
 23
763.0124146631077
 33
0.0
 14
414.552116498338
 24
764.0958690173746
 34
0.0
100
AcDbRotatedDimension
1001
ACAD
1000
DSTYLE
1002
{
1070
   144
1040
1.0
1002
}
  0
DIMENSION
  5
22D2
102
{ACAD_REACTORS
330
22D4
102
}
102
{ACAD_XDICTIONARY
360
22D3
102
}
330
A
100
AcDbEntity
  8
DIM
100
AcDbDimension
  2
*D17
 10
424.6109829839804
 20
530.4395900394032
 30
0.0
 11
414.6109832074977
 21
537.9395900394032
 31
0.0
 70
    32
 71
     5
 42
19.99999955296533
 73
     0
 74
     0
 75
     0
  3
tfrom線あり
100
AcDbAlignedDimension
 13
404.6109834310151
 23
500.8979749795416
 33
0.0
 14
424.6109829839804
 24
500.8979749795416
 34
0.0
100
AcDbRotatedDimension
1001
ACAD
1000
DSTYLE
1002
{
1070
   144
1040
1.0
1002
}
  0
MTEXT
  5
22E4
330
A
100
AcDbEntity
  8
TEMPLATE
390
1D
100
AcDbMText
 10
37.57630358281081
 20
55.67381478010149
 30
0.0
 40
7.329785156250001
 41
0.0
 46
12.39955322265625
 71
     1
 72
     1
  1
{クローム/フロストガラス}
  7
ＭＳ ゴシック
 73
     1
 44
0.9331787841240657
1001
ACAD
1000
ACAD_MTEXT_DEFINED_HEIGHT_BEGIN
1070
    46
1040
12.39955322265625
1000
ACAD_MTEXT_DEFINED_HEIGHT_END
  0
VIEWPORT
  5
349
330
B
100
AcDbEntity
 67
     1
  8
0
100
AcDbViewport
 10
202.5
 20
128.5
 30
0.0
 40
486.0
 41
308.4
 68
     1
 69
     1
 12
202.5
 22
128.5
 13
0.0
 23
0.0
 14
0.5
 24
0.5
 15
0.0
 25
0.0
 16
0.0
 26
0.0
 36
1.0
 17
0.0
 27
0.0
 37
0.0
 42
50.0
 43
0.0
 44
0.0
 45
308.4
 50
0.0
 51
0.0
 72
   100
 90
   557152
  1

281
     0
 71
     1
 74
     0
110
0.0
120
0.0
130
0.0
111
1.0
121
0.0
131
0.0
112
0.0
122
1.0
132
0.0
 79
     0
146
0.0
170
     0
 61
     5
348
26C
292
     1
282
     1
141
0.0
142
0.0
 63
   256
  0
VIEWPORT
  5
34A
330
B
100
AcDbEntity
 67
     1
  8
0
100
AcDbViewport
 10
202.5
 20
128.5
 30
0.0
 40
324.0
 41
205.6
 68
     2
 69
     2
 12
986.6781359294573
 22
1427.077061889956
 13
0.0
 23
0.0
 14
0.5
 24
0.5
 15
0.0
 25
0.0
 16
0.0
 26
0.0
 36
1.0
 17
0.0
 27
0.0
 37
0.0
 42
50.0
 43
0.0
 44
0.0
 45
2890.021615685494
 50
0.0
 51
0.0
 72
   100
 90
   557152
  1

281
     0
 71
     1
 74
     0
110
0.0
120
0.0
130
0.0
111
1.0
121
0.0
131
0.0
112
0.0
122
1.0
132
0.0
 79
     0
146
0.0
170
     0
 61
     5
348
26C
292
     1
282
     1
141
0.0
142
0.0
 63
   256
  0
ENDSEC
  0
SECTION
  2
OBJECTS
  0
DICTIONARY
  5
19
330
0
100
AcDbDictionary
281
     1
  3
ACAD_COLOR
350
674
  3
ACAD_DETAILVIEWSTYLE
350
BBF
  3
ACAD_FIELDLIST
350
16CE
  3
ACAD_GROUP
350
1A
  3
ACAD_IMAGE_VARS
350
27B
  3
ACAD_LAYOUT
350
1E
  3
ACAD_MATERIAL
350
263
  3
ACAD_MLEADERSTYLE
350
336
  3
ACAD_MLINESTYLE
350
1B
  3
ACAD_PLOTSETTINGS
350
22
  3
ACAD_PLOTSTYLENAME
350
1F
  3
ACAD_SCALELIST
350
241
  3
ACAD_SECTIONVIEWSTYLE
350
BC0
  3
ACAD_TABLESTYLE
350
278
  3
ACAD_VISUALSTYLE
350
267
  3
ACDB_RECOMPOSE_DATA
350
22F0
  3
AcDbVariableDictionary
350
330
  3
APPDATA
350
27A
  3
CENTERLINE
350
213F
  3
DimOffsetDictionary
350
E38
  0
SUN
  5
904
330
15
100
AcDbSun
 90
        1
290
     0
 63
     7
421
 16777215
 40
1.0
291
     1
 91
  2455826
 92
 54000000
292
     0
 70
     2
 71
   256
280
     1
  0
DICTIONARY
  5
2E1
330
2
100
AcDbDictionary
280
     1
281
     1
  3
ACAD_LAYERSTATES
360
2E2
  3
ACLYDICTIONARY
360
DDE
  0
DICTIONARY
  5
16F1
330
16F0
100
AcDbDictionary
280
     1
281
     1
  3
ACAD_FIELD
360
16F2
  0
DICTIONARY
  5
22C3
330
22C2
100
AcDbDictionary
280
     1
281
     1
  3
ACAD_DIMASSOC
360
22C4
  0
DICTIONARY
  5
22D3
330
22D2
100
AcDbDictionary
280
     1
281
     1
  3
ACAD_DIMASSOC
360
22D4
  0
DICTIONARY
  5
674
102
{ACAD_REACTORS
330
19
102
}
330
19
100
AcDbDictionary
281
     1
  0
DICTIONARY
  5
BBF
102
{ACAD_REACTORS
330
19
102
}
330
19
100
AcDbDictionary
281
     1
  0
FIELDLIST
  5
16CE
102
{ACAD_REACTORS
330
19
102
}
330
19
100
AcDbIdSet
 90
        1
330
16F3
100
AcDbFieldList
  0
DICTIONARY
  5
1A
102
{ACAD_REACTORS
330
19
102
}
330
19
100
AcDbDictionary
281
     1
  3
*A1
350
2227
  3
*A2
350
222B
  0
RASTERVARIABLES
  5
27B
102
{ACAD_REACTORS
330
19
102
}
330
19
100
AcDbRasterVariables
 90
        0
 70
     1
 71
     1
 72
     1
  0
DICTIONARY
  5
1E
102
{ACAD_REACTORS
330
19
102
}
330
19
100
AcDbDictionary
281
     1
  3
Layout1
350
21
  3
Model
350
20
  0
DICTIONARY
  5
263
102
{ACAD_REACTORS
330
19
102
}
330
19
100
AcDbDictionary
281
     1
  3
ByBlock
350
265
  3
ByLayer
350
264
  3
Global
350
266
  0
DICTIONARY
  5
336
102
{ACAD_REACTORS
330
19
102
}
330
19
100
AcDbDictionary
281
     1
  3
Standard
350
D59
  0
DICTIONARY
  5
1B
102
{ACAD_REACTORS
330
19
102
}
330
19
100
AcDbDictionary
281
     1
  3
Standard
350
1C
  0
DICTIONARY
  5
22
102
{ACAD_REACTORS
330
19
102
}
330
19
100
AcDbDictionary
281
     1
  0
ACDBDICTIONARYWDFLT
  5
1F
102
{ACAD_REACTORS
330
19
102
}
330
19
100
AcDbDictionary
281
     1
  3
Normal
350
1D
100
AcDbDictionaryWithDefault
340
1D
  0
DICTIONARY
  5
241
102
{ACAD_REACTORS
330
19
102
}
330
19
100
AcDbDictionary
281
     1
  3
A0
350
242
  3
A1
350
243
  3
A2
350
244
  3
A3
350
245
  3
A4
350
246
  3
A5
350
247
  3
A6
350
248
  3
A7
350
249
  3
A8
350
24A
  3
A9
350
24B
  3
B0
350
24C
  3
B1
350
24D
  3
B2
350
24E
  3
B3
350
24F
  3
B4
350
250
  3
B5
350
251
  3
B6
350
252
  3
B7
350
253
  3
B8
350
254
  3
B9
350
255
  3
C0
350
256
  3
C1
350
257
  3
C2
350
258
  3
C3
350
259
  3
C4
350
25A
  3
C5
350
25B
  3
C6
350
25C
  3
C7
350
25D
  3
C8
350
25E
  3
C9
350
25F
  3
D0
350
260
  3
D1
350
261
  3
D2
350
262
  0
DICTIONARY
  5
BC0
102
{ACAD_REACTORS
330
19
102
}
330
19
100
AcDbDictionary
281
     1
  0
DICTIONARY
  5
278
102
{ACAD_REACTORS
330
19
102
}
330
19
100
AcDbDictionary
281
     1
  3
Standard
350
279
  0
DICTIONARY
  5
267
102
{ACAD_REACTORS
330
19
102
}
330
19
100
AcDbDictionary
281
     1
  3
*A1
350
213A
  3
2dWireframe
350
26C
  3
3D Hidden
350
26E
  3
3dWireframe
350
26D
  3
Basic
350
26F
  3
Brighten
350
273
  3
ColorChange
350
277
  3
Conceptual
350
271
  3
Dim
350
272
  3
EdgeColorOff
350
8FE
  3
Facepattern
350
276
  3
Flat
350
268
  3
FlatWithEdges
350
269
  3
Gouraud
350
26A
  3
GouraudWithEdges
350
26B
  3
Hidden
350
8FB
  3
JitterOff
350
8FC
  3
Linepattern
350
275
  3
OverhangOff
350
8FD
  3
Realistic
350
270
  3
Shaded
350
903
  3
Shaded with edges
350
902
  3
Shades of Gray
350
8FF
  3
Sketchy
350
900
  3
Thicken
350
274
  3
Wireframe
350
8FA
  3
X-Ray
350
901
  0
XRECORD
  5
22F0
102
{ACAD_REACTORS
330
19
102
}
330
19
100
AcDbXrecord
280
     1
 90
        1
330
279
  0
DICTIONARY
  5
330
102
{ACAD_REACTORS
330
19
102
}
330
19
100
AcDbDictionary
281
     1
  3
CANNOSCALE
350
331
  3
CMLEADERSTYLE
350
D5E
  3
CTABLESTYLE
350
335
  3
HPTRANSPARENCY
350
D52
  3
XCLIPFRAME
350
896
  0
DICTIONARY
  5
27A
102
{ACAD_REACTORS
330
19
102
}
330
19
100
AcDbDictionary
281
     1
  0
DICTIONARY
  5
213F
102
{ACAD_REACTORS
330
19
102
}
330
19
100
AcDbDictionary
281
     1
  3
CLEXTENSION
350
21C9
  0
DICTIONARY
  5
E38
102
{ACAD_REACTORS
330
19
102
}
330
19
100
AcDbDictionary
281
     1
  3
DIMRAILANGLE
350
21C7
  3
DIMRAILFIRSTOFFSET
350
21C5
  3
DIMRAILOFFSET
350
21C6
  3
DIMRAILSENABLED
350
21C8
  0
DICTIONARY
  5
2E2
102
{ACAD_REACTORS
330
2E1
102
}
330
2E1
100
AcDbDictionary
281
     1
  0
DICTIONARY
  5
DDE
102
{ACAD_REACTORS
330
2E1
102
}
330
2E1
100
AcDbDictionary
281
     1
1001
ACAD
1000
<All
  0
DICTIONARY
  5
16F2
102
{ACAD_REACTORS
330
16F1
102
}
330
16F1
100
AcDbDictionary
280
     1
281
     1
  3
TEXT
360
16F3
  0
DIMASSOC
  5
22C4
102
{ACAD_REACTORS
330
22C3
102
}
330
22C3
100
AcDbDimAssoc
330
22C2
 90
        1
 70
     0
 71
     1
  1
AcDbOsnapPointRef
 72
    13
331
2075
 73
     0
 91
        0
 40
0.0
 10
0.0
 20
0.0
 30
0.0
 75
     0
  0
DIMASSOC
  5
22D4
102
{ACAD_REACTORS
330
22D3
102
}
330
22D3
100
AcDbDimAssoc
330
22D2
 90
        3
 70
     0
 71
     1
  1
AcDbOsnapPointRef
 72
     1
331
201D
 73
     0
 91
        0
 40
0.0
 10
0.0
 20
0.0
 30
0.0
 75
     0
  1
AcDbOsnapPointRef
 72
    13
331
2020
 73
     0
 91
        0
 40
0.0
 10
0.0
 20
0.0
 30
0.0
 75
     0
  0
GROUP
  5
2227
102
{ACAD_REACTORS
330
1A
102
}
330
1A
100
AcDbGroup
300

 70
     1
 71
     1
340
2224
340
2225
340
2226
  0
GROUP
  5
222B
102
{ACAD_REACTORS
330
1A
102
}
330
1A
100
AcDbGroup
300

 70
     1
 71
     1
340
2228
340
2229
340
222A
  0
LAYOUT
  5
21
102
{ACAD_REACTORS
330
1E
102
}
330
1E
100
AcDbPlotSettings
  1

  2
none_device
  4
ISO_A3_(420.00_x_297.00_MM)
  6

 40
7.5
 41
20.0
 42
7.5
 43
20.0
 44
420.0
 45
297.0
 46
0.0
 47
0.0
 48
0.0
 49
0.0
140
0.0
141
0.0
142
1.0
143
1.0
 70
     0
 72
     1
 73
     0
 74
     0
  7

 75
     0
 76
     0
 77
     2
 78
   300
147
1.0
148
0.0
149
0.0
100
AcDbLayout
  1
Layout1
 70
     0
 71
     0
 10
-7.5
 20
-20.0
 11
412.5
 21
277.0
 12
0.0
 22
0.0
 32
0.0
 14
0.0
 24
0.0
 34
0.0
 15
0.0
 25
0.0
 35
0.0
146
0.0
 13
0.0
 23
0.0
 33
0.0
 16
0.0
 26
0.0
 36
0.0
 17
0.0
 27
0.0
 37
0.0
 76
     0
330
B
331
349
  0
LAYOUT
  5
20
102
{ACAD_REACTORS
330
1E
102
}
330
1E
100
AcDbPlotSettings
  1

  2
none_device
  4
ISO_A3_(420.00_x_297.00_MM)
  6

 40
7.5
 41
20.0
 42
7.5
 43
20.0
 44
420.0
 45
297.0
 46
0.0
 47
0.0
 48
0.0
 49
0.0
140
0.0
141
0.0
142
1.0
143
1.0
 70
  1024
 72
     1
 73
     0
 74
     0
  7

 75
     0
 76
     0
 77
     2
 78
   300
147
1.0
148
0.0
149
0.0
100
AcDbLayout
  1
Model
 70
     0
 71
     1
 10
0.0
 20
0.0
 11
630.0
 21
891.0
 12
0.0
 22
0.0
 32
0.0
 14
0.0
 24
0.0
 34
0.0
 15
630.0
 25
891.0
 35
0.0
146
0.0
 13
0.0
 23
0.0
 33
0.0
 16
0.0
 26
0.0
 36
0.0
 17
0.0
 27
0.0
 37
0.0
 76
     0
330
A
331
15
  0
MATERIAL
  5
265
102
{ACAD_REACTORS
330
263
102
}
330
263
100
AcDbMaterial
  1
ByBlock
 72
     1
 94
      127
  0
MATERIAL
  5
264
102
{ACAD_REACTORS
330
263
102
}
330
263
100
AcDbMaterial
  1
ByLayer
 72
     1
 94
      127
  0
MATERIAL
  5
266
102
{ACAD_REACTORS
330
263
102
}
330
263
100
AcDbMaterial
  1
Global
 72
     1
 94
      127
  0
MLEADERSTYLE
  5
D59
102
{ACAD_REACTORS
330
336
102
}
330
336
100
AcDbMLeaderStyle
170
     2
171
     1
172
     0
 90
        2
 40
0.0
 41
0.0
173
     1
 91
-1056964608
340
11
 92
       -2
290
     1
 42
2.0
291
     1
 43
8.0
  3
Standard
341
0
 44
4.0
300

342
17
174
     1
178
     6
175
     1
176
     0
 93
-1056964608
 45
4.0
292
     0
297
     0
 46
4.0
343
0
 94
-1056964608
 47
1.0
 49
1.0
140
1.0
293
     1
141
0.0
294
     1
177
     0
142
1.0
295
     0
296
     0
143
3.75
1001
ACAD_MLEADERVER
1070
     2
  0
MLINESTYLE
  5
1C
102
{ACAD_REACTORS
330
1B
102
}
330
1B
100
AcDbMlineStyle
  2
Standard
 70
     0
  3

 62
     0
 51
90.0
 52
90.0
 71
     2
 49
0.5
 62
   256
  6
BYLAYER
 49
-0.5
 62
   256
  6
BYLAYER
  0
ACDBPLACEHOLDER
  5
1D
102
{ACAD_REACTORS
330
1F
102
}
330
1F
  0
SCALE
  5
242
102
{ACAD_REACTORS
330
241
102
}
330
241
100
AcDbScale
 70
     0
300
1:1
140
1.0
141
1.0
290
     1
  0
SCALE
  5
243
102
{ACAD_REACTORS
330
241
102
}
330
241
100
AcDbScale
 70
     0
300
1:2
140
1.0
141
2.0
290
     0
  0
SCALE
  5
244
102
{ACAD_REACTORS
330
241
102
}
330
241
100
AcDbScale
 70
     0
300
1:4
140
1.0
141
4.0
290
     0
  0
SCALE
  5
245
102
{ACAD_REACTORS
330
241
102
}
330
241
100
AcDbScale
 70
     0
300
1:5
140
1.0
141
5.0
290
     0
  0
SCALE
  5
246
102
{ACAD_REACTORS
330
241
102
}
330
241
100
AcDbScale
 70
     0
300
1:8
140
1.0
141
8.0
290
     0
  0
SCALE
  5
247
102
{ACAD_REACTORS
330
241
102
}
330
241
100
AcDbScale
 70
     0
300
1:10
140
1.0
141
10.0
290
     0
  0
SCALE
  5
248
102
{ACAD_REACTORS
330
241
102
}
330
241
100
AcDbScale
 70
     0
300
1:16
140
1.0
141
16.0
290
     0
  0
SCALE
  5
249
102
{ACAD_REACTORS
330
241
102
}
330
241
100
AcDbScale
 70
     0
300
1:20
140
1.0
141
20.0
290
     0
  0
SCALE
  5
24A
102
{ACAD_REACTORS
330
241
102
}
330
241
100
AcDbScale
 70
     0
300
1:30
140
1.0
141
30.0
290
     0
  0
SCALE
  5
24B
102
{ACAD_REACTORS
330
241
102
}
330
241
100
AcDbScale
 70
     0
300
1:40
140
1.0
141
40.0
290
     0
  0
SCALE
  5
24C
102
{ACAD_REACTORS
330
241
102
}
330
241
100
AcDbScale
 70
     0
300
1:50
140
1.0
141
50.0
290
     0
  0
SCALE
  5
24D
102
{ACAD_REACTORS
330
241
102
}
330
241
100
AcDbScale
 70
     0
300
1:100
140
1.0
141
100.0
290
     0
  0
SCALE
  5
24E
102
{ACAD_REACTORS
330
241
102
}
330
241
100
AcDbScale
 70
     0
300
2:1
140
2.0
141
1.0
290
     0
  0
SCALE
  5
24F
102
{ACAD_REACTORS
330
241
102
}
330
241
100
AcDbScale
 70
     0
300
4:1
140
4.0
141
1.0
290
     0
  0
SCALE
  5
250
102
{ACAD_REACTORS
330
241
102
}
330
241
100
AcDbScale
 70
     0
300
8:1
140
8.0
141
1.0
290
     0
  0
SCALE
  5
251
102
{ACAD_REACTORS
330
241
102
}
330
241
100
AcDbScale
 70
     0
300
10:1
140
10.0
141
1.0
290
     0
  0
SCALE
  5
252
102
{ACAD_REACTORS
330
241
102
}
330
241
100
AcDbScale
 70
     0
300
100:1
140
100.0
141
1.0
290
     0
  0
SCALE
  5
253
102
{ACAD_REACTORS
330
241
102
}
330
241
100
AcDbScale
 70
     0
300
1/128" = 1'-0"
140
0.0078125
141
12.0
290
     0
  0
SCALE
  5
254
102
{ACAD_REACTORS
330
241
102
}
330
241
100
AcDbScale
 70
     0
300
1/64" = 1'-0"
140
0.015625
141
12.0
290
     0
  0
SCALE
  5
255
102
{ACAD_REACTORS
330
241
102
}
330
241
100
AcDbScale
 70
     0
300
1/32" = 1'-0"
140
0.03125
141
12.0
290
     0
  0
SCALE
  5
256
102
{ACAD_REACTORS
330
241
102
}
330
241
100
AcDbScale
 70
     0
300
1/16" = 1'-0"
140
0.0625
141
12.0
290
     0
  0
SCALE
  5
257
102
{ACAD_REACTORS
330
241
102
}
330
241
100
AcDbScale
 70
     0
300
3/32" = 1'-0"
140
0.09375
141
12.0
290
     0
  0
SCALE
  5
258
102
{ACAD_REACTORS
330
241
102
}
330
241
100
AcDbScale
 70
     0
300
1/8" = 1'-0"
140
0.125
141
12.0
290
     0
  0
SCALE
  5
259
102
{ACAD_REACTORS
330
241
102
}
330
241
100
AcDbScale
 70
     0
300
3/16" = 1'-0"
140
0.1875
141
12.0
290
     0
  0
SCALE
  5
25A
102
{ACAD_REACTORS
330
241
102
}
330
241
100
AcDbScale
 70
     0
300
1/4" = 1'-0"
140
0.25
141
12.0
290
     0
  0
SCALE
  5
25B
102
{ACAD_REACTORS
330
241
102
}
330
241
100
AcDbScale
 70
     0
300
3/8" = 1'-0"
140
0.375
141
12.0
290
     0
  0
SCALE
  5
25C
102
{ACAD_REACTORS
330
241
102
}
330
241
100
AcDbScale
 70
     0
300
1/2" = 1'-0"
140
0.5
141
12.0
290
     0
  0
SCALE
  5
25D
102
{ACAD_REACTORS
330
241
102
}
330
241
100
AcDbScale
 70
     0
300
3/4" = 1'-0"
140
0.75
141
12.0
290
     0
  0
SCALE
  5
25E
102
{ACAD_REACTORS
330
241
102
}
330
241
100
AcDbScale
 70
     0
300
1" = 1'-0"
140
1.0
141
12.0
290
     0
  0
SCALE
  5
25F
102
{ACAD_REACTORS
330
241
102
}
330
241
100
AcDbScale
 70
     0
300
1-1/2" = 1'-0"
140
1.5
141
12.0
290
     0
  0
SCALE
  5
260
102
{ACAD_REACTORS
330
241
102
}
330
241
100
AcDbScale
 70
     0
300
3" = 1'-0"
140
3.0
141
12.0
290
     0
  0
SCALE
  5
261
102
{ACAD_REACTORS
330
241
102
}
330
241
100
AcDbScale
 70
     0
300
6" = 1'-0"
140
6.0
141
12.0
290
     0
  0
SCALE
  5
262
102
{ACAD_REACTORS
330
241
102
}
330
241
100
AcDbScale
 70
     0
300
1'-0" = 1'-0"
140
12.0
141
12.0
290
     0
  0
TABLESTYLE
  5
279
102
{ACAD_REACTORS
330
278
102
}
102
{ACAD_XDICTIONARY
360
22EE
102
}
330
278
100
AcDbTableStyle
  3
Standard
 70
     0
 71
     0
 40
0.06
 41
0.06
280
     0
281
     0
  7
Standard
140
4.5
170
     2
 62
     0
 63
   257
283
     0
 90
        4
 91
        0
  1

274
    -2
284
     1
 64
     0
275
    -2
285
     1
 65
     0
276
    -2
286
     1
 66
     0
277
    -2
287
     1
 67
     0
278
    -2
288
     1
 68
     0
279
    -2
289
     1
 69
     0
  7
Standard
140
6.0
170
     5
 62
     0
 63
   257
283
     0
 90
        4
 91
        0
  1

274
    -2
284
     1
 64
     0
275
    -2
285
     1
 65
     0
276
    -2
286
     1
 66
     0
277
    -2
287
     1
 67
     0
278
    -2
288
     1
 68
     0
279
    -2
289
     1
 69
     0
  7
Standard
140
4.5
170
     5
 62
     0
 63
   257
283
     0
 90
        4
 91
        0
  1

274
    -2
284
     1
 64
     0
275
    -2
285
     1
 65
     0
276
    -2
286
     1
 66
     0
277
    -2
287
     1
 67
     0
278
    -2
288
     1
 68
     0
279
    -2
289
     1
 69
     0
  0
VISUALSTYLE
  5
213A
102
{ACAD_REACTORS
330
267
102
}
330
267
100
AcDbVisualStyle
  2
*
 70
    10
 71
     0
 72
     2
 73
     0
 90
        0
 40
-0.6
 41
-30.0
 62
     5
 63
     7
421
 16777215
 74
     1
 91
        4
 64
     7
 65
   257
 75
     1
175
     1
 42
1.0
 92
        8
 66
     7
 43
1.0
 76
     1
 77
     6
 78
     2
 67
     7
 79
     5
170
     0
171
     0
290
     0
174
     0
 93
        1
 44
0.0
173
     0
291
     0
 45
0.0
  0
VISUALSTYLE
  5
26C
102
{ACAD_REACTORS
330
267
102
}
330
267
100
AcDbVisualStyle
  2
2dWireframe
 70
     4
 71
     0
 72
     2
 73
     0
 90
        0
 40
-0.6
 41
-30.0
 62
     5
 63
     7
421
 16777215
 74
     1
 91
        4
 64
     7
 65
   257
 75
     1
175
     1
 42
1.0
 92
        0
 66
   257
 43
1.0
 76
     1
 77
     6
 78
     2
 67
     7
 79
     5
170
     0
171
     0
290
     0
174
     0
 93
        1
 44
0.0
173
     0
291
     0
 45
0.0
  0
VISUALSTYLE
  5
26E
102
{ACAD_REACTORS
330
267
102
}
330
267
100
AcDbVisualStyle
  2
3D Hidden
 70
     6
 71
     1
 72
     2
 73
     2
 90
        0
 40
-0.6
 41
-30.0
 62
     5
 63
     7
421
 16777215
 74
     2
 91
        2
 64
     7
 65
   257
 75
     2
175
     1
 42
40.0
 92
        0
 66
   257
 43
1.0
 76
     1
 77
     6
 78
     2
 67
     7
 79
     3
170
     0
171
     0
290
     0
174
     0
 93
        1
 44
0.0
173
     0
291
     0
 45
0.0
  0
VISUALSTYLE
  5
26D
102
{ACAD_REACTORS
330
267
102
}
330
267
100
AcDbVisualStyle
  2
3dWireframe
 70
     5
 71
     0
 72
     2
 73
     0
 90
        0
 40
-0.6
 41
-30.0
 62
     5
 63
     7
421
 16777215
 74
     1
 91
        4
 64
     7
 65
   257
 75
     1
175
     1
 42
1.0
 92
        0
 66
   257
 43
1.0
 76
     1
 77
     6
 78
     2
 67
     7
 79
     5
170
     0
171
     0
290
     0
174
     0
 93
        1
 44
0.0
173
     0
291
     0
 45
0.0
  0
VISUALSTYLE
  5
26F
102
{ACAD_REACTORS
330
267
102
}
330
267
100
AcDbVisualStyle
  2
Basic
 70
     7
 71
     1
 72
     0
 73
     1
 90
        0
 40
-0.6
 41
-30.0
 62
     5
 63
     7
421
 16777215
 74
     0
 91
        4
 64
     7
 65
   257
 75
     1
175
     1
 42
1.0
 92
        8
 66
     7
 43
1.0
 76
     1
 77
     6
 78
     2
 67
     7
 79
     5
170
     0
171
     0
290
     0
174
     0
 93
        1
 44
0.0
173
     0
291
     1
 45
0.0
  0
VISUALSTYLE
  5
273
102
{ACAD_REACTORS
330
267
102
}
330
267
100
AcDbVisualStyle
  2
Brighten
 70
    12
 71
     2
 72
     2
 73
     0
 90
        0
 40
-0.6
 41
-30.0
 62
     5
 63
     7
421
 16777215
 74
     1
 91
        4
 64
     7
 65
   257
 75
     1
175
     1
 42
1.0
 92
        8
 66
     7
 43
1.0
 76
     1
 77
     6
 78
     2
 67
     7
 79
     5
170
     0
171
     0
290
     0
174
     0
 93
        1
 44
50.0
173
     0
291
     1
 45
0.0
  0
VISUALSTYLE
  5
277
102
{ACAD_REACTORS
330
267
102
}
330
267
100
AcDbVisualStyle
  2
ColorChange
 70
    16
 71
     2
 72
     2
 73
     3
 90
        0
 40
-0.6
 41
-30.0
 62
     5
 63
     8
421
  8421504
 74
     1
 91
        4
 64
     7
 65
   257
 75
     1
175
     1
 42
1.0
 92
        8
 66
     8
424
  8421504
 43
1.0
 76
     1
 77
     6
 78
     2
 67
     7
 79
     5
170
     0
171
     0
290
     0
174
     0
 93
        1
 44
0.0
173
     0
291
     1
 45
0.0
  0
VISUALSTYLE
  5
271
102
{ACAD_REACTORS
330
267
102
}
330
267
100
AcDbVisualStyle
  2
Conceptual
 70
     9
 71
     3
 72
     2
 73
     0
 90
        0
 40
-0.6
 41
-30.0
 62
     5
 63
     7
421
 16777215
 74
     2
 91
        2
 64
     7
 65
   257
 75
     1
175
     1
 42
40.0
 92
        8
 66
     7
 43
1.0
 76
     1
 77
     6
 78
     2
 67
     7
 79
     3
170
     0
171
     0
290
     0
174
     0
 93
        1
 44
0.0
173
     0
291
     0
 45
0.0
  0
VISUALSTYLE
  5
272
102
{ACAD_REACTORS
330
267
102
}
330
267
100
AcDbVisualStyle
  2
Dim
 70
    11
 71
     2
 72
     2
 73
     0
 90
        0
 40
-0.6
 41
-30.0
 62
     5
 63
     7
421
 16777215
 74
     1
 91
        4
 64
     7
 65
   257
 75
     1
175
     1
 42
1.0
 92
        8
 66
     7
 43
1.0
 76
     1
 77
     6
 78
     2
 67
     7
 79
     5
170
     0
171
     0
290
     0
174
     0
 93
        1
 44
-50.0
173
     0
291
     1
 45
0.0
  0
VISUALSTYLE
  5
8FE
102
{ACAD_REACTORS
330
267
102
}
330
267
100
AcDbVisualStyle
  2
EdgeColorOff
 70
    22
 71
     2
 72
     2
 73
     0
 90
        0
 40
0.6
 41
30.0
 62
     5
 63
     7
421
 16777215
 74
     1
 91
        4
 64
     7
 65
   257
 75
     1
175
     1
 42
1.0
 92
        8
 66
     7
 43
1.0
 76
     1
 77
     6
 78
     2
 67
     7
 79
     5
170
     0
171
     0
290
     0
174
     0
 93
        1
 44
0.0
173
     0
291
     1
 45
0.0
  0
VISUALSTYLE
  5
276
102
{ACAD_REACTORS
330
267
102
}
330
267
100
AcDbVisualStyle
  2
Facepattern
 70
    15
 71
     2
 72
     2
 73
     0
 90
        0
 40
-0.6
 41
-30.0
 62
     5
 63
     7
421
 16777215
 74
     1
 91
        4
 64
     7
 65
   257
 75
     1
175
     1
 42
1.0
 92
        8
 66
     7
 43
1.0
 76
     1
 77
     6
 78
     2
 67
     7
 79
     5
170
     0
171
     0
290
     0
174
     0
 93
        1
 44
0.0
173
     0
291
     1
 45
0.0
  0
VISUALSTYLE
  5
268
102
{ACAD_REACTORS
330
267
102
}
330
267
100
AcDbVisualStyle
  2
Flat
 70
     0
 71
     2
 72
     1
 73
     1
 90
        2
 40
-0.6
 41
30.0
 62
     5
 63
     7
421
 16777215
 74
     0
 91
        4
 64
     7
 65
   257
 75
     1
175
     1
 42
1.0
 92
        8
 66
     7
 43
1.0
 76
     1
 77
     6
 78
     2
 67
     7
 79
     5
170
     0
171
     0
290
     0
174
     0
 93
       13
 44
0.0
173
     0
291
     1
 45
0.0
  0
VISUALSTYLE
  5
269
102
{ACAD_REACTORS
330
267
102
}
330
267
100
AcDbVisualStyle
  2
FlatWithEdges
 70
     1
 71
     2
 72
     1
 73
     1
 90
        2
 40
-0.6
 41
30.0
 62
     5
 63
     7
421
 16777215
 74
     1
 91
        4
 64
     7
 65
   257
 75
     1
175
     1
 42
1.0
 92
        0
 66
   257
 43
1.0
 76
     1
 77
     6
 78
     2
 67
     7
 79
     5
170
     0
171
     0
290
     0
174
     0
 93
       13
 44
0.0
173
     0
291
     1
 45
0.0
  0
VISUALSTYLE
  5
26A
102
{ACAD_REACTORS
330
267
102
}
330
267
100
AcDbVisualStyle
  2
Gouraud
 70
     2
 71
     2
 72
     2
 73
     1
 90
        2
 40
-0.6
 41
30.0
 62
     5
 63
     7
421
 16777215
 74
     0
 91
        4
 64
     7
 65
   257
 75
     1
175
     1
 42
1.0
 92
        0
 66
     7
 43
1.0
 76
     1
 77
     6
 78
     2
 67
     7
 79
     5
170
     0
171
     0
290
     0
174
     0
 93
       13
 44
0.0
173
     0
291
     1
 45
0.0
  0
VISUALSTYLE
  5
26B
102
{ACAD_REACTORS
330
267
102
}
330
267
100
AcDbVisualStyle
  2
GouraudWithEdges
 70
     3
 71
     2
 72
     2
 73
     1
 90
        2
 40
-0.6
 41
30.0
 62
     5
 63
     7
421
 16777215
 74
     1
 91
        4
 64
     7
 65
   257
 75
     1
175
     1
 42
1.0
 92
        0
 66
   257
 43
1.0
 76
     1
 77
     6
 78
     2
 67
     7
 79
     5
170
     0
171
     0
290
     0
174
     0
 93
       13
 44
0.0
173
     0
291
     1
 45
0.0
  0
VISUALSTYLE
  5
8FB
102
{ACAD_REACTORS
330
267
102
}
330
267
100
AcDbVisualStyle
  2
Hidden
 70
     6
 71
     1
 72
     2
 73
     2
 90
        0
 40
0.6
 41
30.0
 62
     5
 63
     7
421
 16777215
 74
     2
 91
        2
 64
     7
 65
   257
 75
     2
175
     1
 42
40.0
 92
        0
 66
   257
 43
1.0
 76
     1
 77
     6
 78
     2
 67
     7
 79
     3
170
     0
171
     0
290
     0
174
     0
 93
        1
 44
0.0
173
     0
291
     0
 45
0.0
  0
VISUALSTYLE
  5
8FC
102
{ACAD_REACTORS
330
267
102
}
330
267
100
AcDbVisualStyle
  2
JitterOff
 70
    20
 71
     2
 72
     2
 73
     0
 90
        0
 40
0.6
 41
30.0
 62
     5
 63
     7
421
 16777215
 74
     1
 91
        4
 64
     7
 65
   257
 75
     1
175
     1
 42
1.0
 92
       10
 66
     7
 43
1.0
 76
     1
 77
     6
 78
     2
 67
     7
 79
     5
170
     0
171
     0
290
     0
174
     0
 93
        1
 44
0.0
173
     0
291
     1
 45
0.0
  0
VISUALSTYLE
  5
275
102
{ACAD_REACTORS
330
267
102
}
330
267
100
AcDbVisualStyle
  2
Linepattern
 70
    14
 71
     2
 72
     2
 73
     0
 90
        0
 40
-0.6
 41
-30.0
 62
     5
 63
     7
421
 16777215
 74
     1
 91
        4
 64
     7
 65
   257
 75
     7
175
     7
 42
1.0
 92
        8
 66
     7
 43
1.0
 76
     1
 77
     6
 78
     2
 67
     7
 79
     5
170
     0
171
     0
290
     0
174
     0
 93
        1
 44
0.0
173
     0
291
     1
 45
0.0
  0
VISUALSTYLE
  5
8FD
102
{ACAD_REACTORS
330
267
102
}
330
267
100
AcDbVisualStyle
  2
OverhangOff
 70
    21
 71
     2
 72
     2
 73
     0
 90
        0
 40
0.6
 41
30.0
 62
     5
 63
     7
421
 16777215
 74
     1
 91
        4
 64
     7
 65
   257
 75
     1
175
     1
 42
1.0
 92
        9
 66
     7
 43
1.0
 76
     1
 77
     6
 78
     2
 67
     7
 79
     5
170
     0
171
     0
290
     0
174
     0
 93
        1
 44
0.0
173
     0
291
     1
 45
0.0
  0
VISUALSTYLE
  5
270
102
{ACAD_REACTORS
330
267
102
}
330
267
100
AcDbVisualStyle
  2
Realistic
 70
     8
 71
     2
 72
     2
 73
     0
 90
        0
 40
-0.6
 41
-30.0
 62
     5
 63
     7
421
 16777215
 74
     1
 91
        0
 64
     7
 65
   257
 75
     1
175
     1
 42
1.0
 92
        8
 66
     8
424
  7895160
 43
1.0
 76
     1
 77
     6
 78
     2
 67
     7
 79
     5
170
     0
171
     0
290
     0
174
     0
 93
       13
 44
0.0
173
     0
291
     0
 45
0.0
  0
VISUALSTYLE
  5
903
102
{ACAD_REACTORS
330
267
102
}
330
267
100
AcDbVisualStyle
  2
Shaded
 70
    27
 71
     2
 72
     2
 73
     1
 90
        2
 40
0.6
 41
30.0
 62
     5
 63
     7
421
 16777215
 74
     0
 91
        4
 64
     7
 65
   257
 75
     1
175
     1
 42
1.0
 92
        8
 66
   257
 43
1.0
 76
     1
 77
     6
 78
     2
 67
     8
425
  7895160
 79
     3
170
     0
171
     0
290
     0
174
     0
 93
        5
 44
0.0
173
     0
291
     0
 45
0.0
  0
VISUALSTYLE
  5
902
102
{ACAD_REACTORS
330
267
102
}
330
267
100
AcDbVisualStyle
  2
Shaded with edges
 70
    26
 71
     2
 72
     2
 73
     1
 90
        2
 40
0.6
 41
30.0
 62
     5
 63
     7
421
 16777215
 74
     1
 91
       10
 64
     7
 65
   257
 75
     2
175
     1
 42
1.0
 92
        8
 66
   257
 43
1.0
 76
     1
 77
     6
 78
     2
 67
     7
 79
     3
170
     0
171
     0
290
     0
174
     0
 93
        5
 44
0.0
173
     0
291
     0
 45
0.0
  0
VISUALSTYLE
  5
8FF
102
{ACAD_REACTORS
330
267
102
}
330
267
100
AcDbVisualStyle
  2
Shades of Gray
 70
    23
 71
     2
 72
     2
 73
     3
 90
        0
 40
0.6
 41
30.0
 62
     5
 63
     7
421
 16777215
 74
     2
 91
        2
 64
     7
 65
     7
 75
     1
175
     1
 42
40.0
 92
        8
 66
     7
 43
1.0
 76
     1
 77
     6
 78
     2
 67
     7
 79
     3
170
     0
171
     0
290
     0
174
     0
 93
        1
 44
0.0
173
     0
291
     0
 45
0.0
  0
VISUALSTYLE
  5
900
102
{ACAD_REACTORS
330
267
102
}
330
267
100
AcDbVisualStyle
  2
Sketchy
 70
    24
 71
     1
 72
     2
 73
     2
 90
        0
 40
0.6
 41
30.0
 62
     5
 63
     7
421
 16777215
 74
     2
 91
        2
 64
     7
 65
     7
 75
     1
175
     1
 42
40.0
 92
       11
 66
     7
 43
1.0
 76
     1
 77
     6
 78
     2
 67
     7
 79
     6
170
     0
171
     0
290
     0
174
     0
 93
        1
 44
0.0
173
     0
291
     0
 45
0.0
  0
VISUALSTYLE
  5
274
102
{ACAD_REACTORS
330
267
102
}
330
267
100
AcDbVisualStyle
  2
Thicken
 70
    13
 71
     2
 72
     2
 73
     0
 90
        0
 40
-0.6
 41
-30.0
 62
     5
 63
     7
421
 16777215
 74
     1
 91
        4
 64
     7
 65
   257
 75
     1
175
     1
 42
1.0
 92
       12
 66
     7
 43
1.0
 76
     1
 77
     6
 78
     2
 67
     7
 79
     5
170
     0
171
     0
290
     0
174
     0
 93
        1
 44
0.0
173
     0
291
     1
 45
0.0
  0
VISUALSTYLE
  5
8FA
102
{ACAD_REACTORS
330
267
102
}
330
267
100
AcDbVisualStyle
  2
Wireframe
 70
     5
 71
     0
 72
     2
 73
     0
 90
        0
 40
0.6
 41
30.0
 62
     5
 63
     7
421
 16777215
 74
     1
 91
        4
 64
     7
 65
   257
 75
     1
175
     1
 42
1.0
 92
        0
 66
   257
 43
1.0
 76
     1
 77
     6
 78
     2
 67
     7
 79
     3
170
     0
171
     0
290
     0
174
     0
 93
        1
 44
0.0
173
     0
291
     0
 45
0.0
  0
VISUALSTYLE
  5
901
102
{ACAD_REACTORS
330
267
102
}
330
267
100
AcDbVisualStyle
  2
X-Ray
 70
    25
 71
     2
 72
     2
 73
     1
 90
        1
 40
0.5
 41
30.0
 62
     5
 63
     7
421
 16777215
 74
     1
 91
        0
 64
     7
 65
   257
 75
     1
175
     1
 42
1.0
 92
        8
 66
     7
 43
1.0
 76
     1
 77
     6
 78
     2
 67
     7
 79
     3
170
     0
171
     0
290
     0
174
     0
 93
       13
 44
0.0
173
     0
291
     0
 45
0.0
  0
DICTIONARYVAR
  5
331
102
{ACAD_REACTORS
330
330
102
}
330
330
100
DictionaryVariables
280
     0
  1
1:1
  0
DICTIONARYVAR
  5
D5E
102
{ACAD_REACTORS
330
330
102
}
330
330
100
DictionaryVariables
280
     0
  1
Standard
  0
DICTIONARYVAR
  5
335
102
{ACAD_REACTORS
330
330
102
}
330
330
100
DictionaryVariables
280
     0
  1
Standard
  0
DICTIONARYVAR
  5
D52
102
{ACAD_REACTORS
330
330
102
}
330
330
100
DictionaryVariables
280
     0
  1
ByLayer
  0
DICTIONARYVAR
  5
896
102
{ACAD_REACTORS
330
330
102
}
330
330
100
DictionaryVariables
280
     0
  1
0
  0
DICTIONARYVAR
  5
21C9
102
{ACAD_REACTORS
330
213F
102
}
330
213F
100
DictionaryVariables
280
     0
  1
0.250000
  0
DICTIONARYVAR
  5
21C7
102
{ACAD_REACTORS
330
E38
102
}
330
E38
100
DictionaryVariables
280
     0
  1
0.261799
  0
DICTIONARYVAR
  5
21C5
102
{ACAD_REACTORS
330
E38
102
}
330
E38
100
DictionaryVariables
280
     0
  1
0.400000
  0
DICTIONARYVAR
  5
21C6
102
{ACAD_REACTORS
330
E38
102
}
330
E38
100
DictionaryVariables
280
     0
  1
0.250000
  0
DICTIONARYVAR
  5
21C8
102
{ACAD_REACTORS
330
E38
102
}
330
E38
100
DictionaryVariables
280
     0
  1
1
  0
FIELD
  5
16F3
102
{ACAD_REACTORS
330
16F2
102
}
330
16F2
100
AcDbField
  1
_text
  2
{%<\_FldIdx 0>%N}
 90
        1
360
16F4
 97
        0
 91
       63
 92
        0
 94
        8
 95
        2
 96
        0
300

 93
        1
  6
ACFD_FIELDTEXT_CHECKSUM
 93
        2
 90
        2
140
4541.0
 94
        0
300

302

304
ACVALUE_END
  7
ACFD_FIELD_VALUE
 93
        6
 90
        4
  1
{20170824N}
 94
        0
300

302

304
ACVALUE_END
301
{20170824N}
 98
       11
  0
DICTIONARY
  5
22EE
330
279
100
AcDbDictionary
280
     1
281
     1
  3
ACAD_ROUNDTRIP_2008_TABLESTYLE_CELLSTYLEMAP
360
22EF
  0
FIELD
  5
16F4
330
16F3
100
AcDbField
  1
AcVar
  2
\AcVar Date \f "yyyyMMdd"
 90
        0
 97
        0
 91
       63
 92
        0
 94
        8
 95
        2
 96
        0
300

 93
        1
  6
Variable
 93
        2
 90
        4
  1
Date
 94
        0
300

302

304
ACVALUE_END
  7
ACFD_FIELD_VALUE
 93
        6
 90
        8
 92
       16
310
E1070800000017000F0039000A000000
 94
        0
300
yyyyMMdd
302

304
ACVALUE_END
301
20170824
 98
        8
  0
CELLSTYLEMAP
  5
22EF
102
{ACAD_REACTORS
330
22EE
102
}
330
22EE
100
AcDbCellStyleMap
 90
        3
300
CELLSTYLE
  1
TABLEFORMAT_BEGIN
 90
        5
170
     1
 91
        0
 92
    32768
 62
   257
 93
        1
300
CONTENTFORMAT
  1
CONTENTFORMAT_BEGIN
 90
        0
 91
        0
 92
        4
 93
        0
300

 40
0.0
140
1.0
 94
        5
 62
     0
340
17
144
6.0
309
CONTENTFORMAT_END
171
     1
301
MARGIN
  1
CELLMARGIN_BEGIN
 40
0.06
 40
0.06
 40
0.06
 40
0.06
 40
0.18
 40
0.18
309
CELLMARGIN_END
 94
        6
 95
        1
302
GRIDFORMAT
  1
GRIDFORMAT_BEGIN
 90
        0
 91
        1
 62
     0
 92
       -2
340
0
 93
        0
 40
0.045
309
GRIDFORMAT_END
 95
        2
302
GRIDFORMAT
  1
GRIDFORMAT_BEGIN
 90
        0
 91
        1
 62
     0
 92
       -2
340
0
 93
        0
 40
0.045
309
GRIDFORMAT_END
 95
        4
302
GRIDFORMAT
  1
GRIDFORMAT_BEGIN
 90
        0
 91
        1
 62
     0
 92
       -2
340
0
 93
        0
 40
0.045
309
GRIDFORMAT_END
 95
        8
302
GRIDFORMAT
  1
GRIDFORMAT_BEGIN
 90
        0
 91
        1
 62
     0
 92
       -2
340
0
 93
        0
 40
0.045
309
GRIDFORMAT_END
 95
       16
302
GRIDFORMAT
  1
GRIDFORMAT_BEGIN
 90
        0
 91
        1
 62
     0
 92
       -2
340
0
 93
        0
 40
0.045
309
GRIDFORMAT_END
 95
       32
302
GRIDFORMAT
  1
GRIDFORMAT_BEGIN
 90
        0
 91
        1
 62
     0
 92
       -2
340
0
 93
        0
 40
0.045
309
GRIDFORMAT_END
309
TABLEFORMAT_END
  1
CELLSTYLE_BEGIN
 90
        1
 91
        1
300
_TITLE
309
CELLSTYLE_END
300
CELLSTYLE
  1
TABLEFORMAT_BEGIN
 90
        5
170
     1
 91
        0
 92
        0
 62
   257
 93
        1
300
CONTENTFORMAT
  1
CONTENTFORMAT_BEGIN
 90
        0
 91
        0
 92
        4
 93
        0
300

 40
0.0
140
1.0
 94
        5
 62
     0
340
17
144
4.5
309
CONTENTFORMAT_END
171
     1
301
MARGIN
  1
CELLMARGIN_BEGIN
 40
0.06
 40
0.06
 40
0.06
 40
0.06
 40
0.18
 40
0.18
309
CELLMARGIN_END
 94
        6
 95
        1
302
GRIDFORMAT
  1
GRIDFORMAT_BEGIN
 90
        0
 91
        1
 62
     0
 92
       -2
340
0
 93
        0
 40
0.045
309
GRIDFORMAT_END
 95
        2
302
GRIDFORMAT
  1
GRIDFORMAT_BEGIN
 90
        0
 91
        1
 62
     0
 92
       -2
340
0
 93
        0
 40
0.045
309
GRIDFORMAT_END
 95
        4
302
GRIDFORMAT
  1
GRIDFORMAT_BEGIN
 90
        0
 91
        1
 62
     0
 92
       -2
340
0
 93
        0
 40
0.045
309
GRIDFORMAT_END
 95
        8
302
GRIDFORMAT
  1
GRIDFORMAT_BEGIN
 90
        0
 91
        1
 62
     0
 92
       -2
340
0
 93
        0
 40
0.045
309
GRIDFORMAT_END
 95
       16
302
GRIDFORMAT
  1
GRIDFORMAT_BEGIN
 90
        0
 91
        1
 62
     0
 92
       -2
340
0
 93
        0
 40
0.045
309
GRIDFORMAT_END
 95
       32
302
GRIDFORMAT
  1
GRIDFORMAT_BEGIN
 90
        0
 91
        1
 62
     0
 92
       -2
340
0
 93
        0
 40
0.045
309
GRIDFORMAT_END
309
TABLEFORMAT_END
  1
CELLSTYLE_BEGIN
 90
        2
 91
        1
300
_HEADER
309
CELLSTYLE_END
300
CELLSTYLE
  1
TABLEFORMAT_BEGIN
 90
        5
170
     1
 91
        0
 92
        0
 62
   257
 93
        1
300
CONTENTFORMAT
  1
CONTENTFORMAT_BEGIN
 90
        0
 91
        0
 92
        4
 93
        0
300

 40
0.0
140
1.0
 94
        2
 62
     0
340
17
144
4.5
309
CONTENTFORMAT_END
171
     1
301
MARGIN
  1
CELLMARGIN_BEGIN
 40
0.06
 40
0.06
 40
0.06
 40
0.06
 40
0.18
 40
0.18
309
CELLMARGIN_END
 94
        6
 95
        1
302
GRIDFORMAT
  1
GRIDFORMAT_BEGIN
 90
        0
 91
        1
 62
     0
 92
       -2
340
0
 93
        0
 40
0.045
309
GRIDFORMAT_END
 95
        2
302
GRIDFORMAT
  1
GRIDFORMAT_BEGIN
 90
        0
 91
        1
 62
     0
 92
       -2
340
0
 93
        0
 40
0.045
309
GRIDFORMAT_END
 95
        4
302
GRIDFORMAT
  1
GRIDFORMAT_BEGIN
 90
        0
 91
        1
 62
     0
 92
       -2
340
0
 93
        0
 40
0.045
309
GRIDFORMAT_END
 95
        8
302
GRIDFORMAT
  1
GRIDFORMAT_BEGIN
 90
        0
 91
        1
 62
     0
 92
       -2
340
0
 93
        0
 40
0.045
309
GRIDFORMAT_END
 95
       16
302
GRIDFORMAT
  1
GRIDFORMAT_BEGIN
 90
        0
 91
        1
 62
     0
 92
       -2
340
0
 93
        0
 40
0.045
309
GRIDFORMAT_END
 95
       32
302
GRIDFORMAT
  1
GRIDFORMAT_BEGIN
 90
        0
 91
        1
 62
     0
 92
       -2
340
0
 93
        0
 40
0.045
309
GRIDFORMAT_END
309
TABLEFORMAT_END
  1
CELLSTYLE_BEGIN
 90
        3
 91
        2
300
_DATA
309
CELLSTYLE_END
  0
ENDSEC
  0
EOF
