  0
SECTION
  2
HEADER
  9
$ACADVER
  1
AC1021
  9
$ACADMAINTVER
 70
    25
  9
$DWGCODEPAGE
  3
ANSI_932
  9
$LASTSAVEDBY
  1
howeNelson
  9
$INSBASE
 10
0.0
 20
0.0
 30
0.0
  9
$EXTMIN
 10
0.0
 20
0.0
 30
0.0
  9
$EXTMAX
 10
210.0
 20
297.0
 30
0.0000000000000142
  9
$LIMMIN
 10
0.0
 20
0.0
  9
$LIMMAX
 10
210.0
 20
297.0
  9
$ORTHOMODE
 70
     0
  9
$REGENMODE
 70
     1
  9
$FILLMODE
 70
     1
  9
$QTEXTMODE
 70
     0
  9
$MIRRTEXT
 70
     1
  9
$LTSCALE
 40
1.0
  9
$ATTMODE
 70
     1
  9
$TEXTSIZE
 40
2.5
  9
$TRACEWID
 40
1.0
  9
$TEXTSTYLE
  7
ＭＳ ゴシック
  9
$CLAYER
  8
DIM
  9
$CELTYPE
  6
ByLayer
  9
$CECOLOR
 62
   256
  9
$CELTSCALE
 40
1.0
  9
$DISPSILH
 70
     0
  9
$DIMSCALE
 40
1.0
  9
$DIMASZ
 40
1.0
  9
$DIMEXO
 40
3.0
  9
$DIMDLI
 40
0.9999999999999999
  9
$DIMRND
 40
0.0
  9
$DIMDLE
 40
0.0
  9
$DIMEXE
 40
0.0
  9
$DIMTP
 40
0.0
  9
$DIMTM
 40
0.0
  9
$DIMTXT
 40
2.5
  9
$DIMCEN
 40
0.0
  9
$DIMTSZ
 40
0.0
  9
$DIMTOL
 70
     0
  9
$DIMLIM
 70
     0
  9
$DIMTIH
 70
     0
  9
$DIMTOH
 70
     0
  9
$DIMSE1
 70
     0
  9
$DIMSE2
 70
     0
  9
$DIMTAD
 70
     1
  9
$DIMZIN
 70
    11
  9
$DIMBLK
  1
DOT
  9
$DIMASO
 70
     1
  9
$DIMSHO
 70
     1
  9
$DIMPOST
  1
<>
  9
$DIMAPOST
  1
[]
  9
$DIMALT
 70
     0
  9
$DIMALTD
 70
     1
  9
$DIMALTF
 40
1.0
  9
$DIMLFAC
 40
1.0
  9
$DIMTOFL
 70
     0
  9
$DIMTVP
 40
0.0
  9
$DIMTIX
 70
     1
  9
$DIMSOXD
 70
     0
  9
$DIMSAH
 70
     0
  9
$DIMBLK1
  1

  9
$DIMBLK2
  1

  9
$DIMSTYLE
  2
tfrom線あり
  9
$DIMCLRD
 70
     0
  9
$DIMCLRE
 70
     0
  9
$DIMCLRT
 70
     0
  9
$DIMTFAC
 40
1.0
  9
$DIMGAP
 40
1.0
  9
$DIMJUST
 70
     0
  9
$DIMSD1
 70
     0
  9
$DIMSD2
 70
     0
  9
$DIMTOLJ
 70
     1
  9
$DIMTZIN
 70
    11
  9
$DIMALTZ
 70
    11
  9
$DIMALTTZ
 70
    11
  9
$DIMUPT
 70
     0
  9
$DIMDEC
 70
     0
  9
$DIMTDEC
 70
     1
  9
$DIMALTU
 70
     2
  9
$DIMALTTD
 70
     2
  9
$DIMTXSTY
  7
ＭＳ ゴシック
  9
$DIMAUNIT
 70
     0
  9
$DIMADEC
 70
     2
  9
$DIMALTRND
 40
0.0
  9
$DIMAZIN
 70
     0
  9
$DIMDSEP
 70
    46
  9
$DIMATFIT
 70
     0
  9
$DIMFRAC
 70
     2
  9
$DIMLDRBLK
  1
DOT
  9
$DIMLUNIT
 70
     2
  9
$DIMLWD
 70
    -2
  9
$DIMLWE
 70
    -2
  9
$DIMTMOVE
 70
     0
  9
$DIMFXL
 40
1.0
  9
$DIMFXLON
 70
     0
  9
$DIMJOGANG
 40
0.7853981633974483
  9
$DIMTFILL
 70
     0
  9
$DIMTFILLCLR
 70
     0
  9
$DIMARCSYM
 70
     0
  9
$DIMLTYPE
  6

  9
$DIMLTEX1
  6

  9
$DIMLTEX2
  6

  9
$LUNITS
 70
     2
  9
$LUPREC
 70
     0
  9
$SKETCHINC
 40
0.1
  9
$FILLETRAD
 40
0.0
  9
$AUNITS
 70
     0
  9
$AUPREC
 70
     0
  9
$MENU
  1
acad
  9
$ELEVATION
 40
0.0
  9
$PELEVATION
 40
0.0
  9
$THICKNESS
 40
0.0
  9
$LIMCHECK
 70
     0
  9
$CHAMFERA
 40
0.0
  9
$CHAMFERB
 40
0.0
  9
$CHAMFERC
 40
0.0
  9
$CHAMFERD
 40
0.0
  9
$SKPOLY
 70
     0
  9
$TDCREATE
 40
2447893.375
  9
$TDUCREATE
 40
0.0
  9
$TDUPDATE
 40
2457725.677475092
  9
$TDUUPDATE
 40
2457725.302475092
  9
$TDINDWG
 40
0.0002172454
  9
$TDUSRTIMER
 40
2457725.302257894
  9
$USRTIMER
 70
     1
  9
$ANGBASE
 50
0.0
  9
$ANGDIR
 70
     0
  9
$PDMODE
 70
     1
  9
$PDSIZE
 40
-2.0
  9
$PLINEWID
 40
0.0
  9
$SPLFRAME
 70
     0
  9
$SPLINETYPE
 70
     6
  9
$SPLINESEGS
 70
     8
  9
$HANDSEED
  5
4819
  9
$SURFTAB1
 70
     6
  9
$SURFTAB2
 70
     6
  9
$SURFTYPE
 70
     6
  9
$SURFU
 70
     6
  9
$SURFV
 70
     6
  9
$UCSBASE
  2

  9
$UCSNAME
  2

  9
$UCSORG
 10
0.0
 20
0.0
 30
0.0
  9
$UCSXDIR
 10
1.0
 20
0.0
 30
0.0
  9
$UCSYDIR
 10
0.0
 20
1.0
 30
0.0
  9
$UCSORTHOREF
  2

  9
$UCSORTHOVIEW
 70
     0
  9
$UCSORGTOP
 10
0.0
 20
0.0
 30
0.0
  9
$UCSORGBOTTOM
 10
0.0
 20
0.0
 30
0.0
  9
$UCSORGLEFT
 10
0.0
 20
0.0
 30
0.0
  9
$UCSORGRIGHT
 10
0.0
 20
0.0
 30
0.0
  9
$UCSORGFRONT
 10
0.0
 20
0.0
 30
0.0
  9
$UCSORGBACK
 10
0.0
 20
0.0
 30
0.0
  9
$PUCSBASE
  2

  9
$PUCSNAME
  2

  9
$PUCSORG
 10
0.0
 20
0.0
 30
0.0
  9
$PUCSXDIR
 10
1.0
 20
0.0
 30
0.0
  9
$PUCSYDIR
 10
0.0
 20
1.0
 30
0.0
  9
$PUCSORTHOREF
  2

  9
$PUCSORTHOVIEW
 70
     0
  9
$PUCSORGTOP
 10
0.0
 20
0.0
 30
0.0
  9
$PUCSORGBOTTOM
 10
0.0
 20
0.0
 30
0.0
  9
$PUCSORGLEFT
 10
0.0
 20
0.0
 30
0.0
  9
$PUCSORGRIGHT
 10
0.0
 20
0.0
 30
0.0
  9
$PUCSORGFRONT
 10
0.0
 20
0.0
 30
0.0
  9
$PUCSORGBACK
 10
0.0
 20
0.0
 30
0.0
  9
$USERI1
 70
     0
  9
$USERI2
 70
     0
  9
$USERI3
 70
     0
  9
$USERI4
 70
     0
  9
$USERI5
 70
     0
  9
$USERR1
 40
0.0
  9
$USERR2
 40
0.0
  9
$USERR3
 40
0.0
  9
$USERR4
 40
0.0
  9
$USERR5
 40
0.0
  9
$WORLDVIEW
 70
     1
  9
$SHADEDGE
 70
     3
  9
$SHADEDIF
 70
    70
  9
$TILEMODE
 70
     1
  9
$MAXACTVP
 70
    64
  9
$PINSBASE
 10
0.0
 20
0.0
 30
0.0
  9
$PLIMCHECK
 70
     0
  9
$PEXTMIN
 10
0.0
 20
0.0
 30
0.0
  9
$PEXTMAX
 10
0.0
 20
0.0
 30
0.0
  9
$PLIMMIN
 10
-95.87226993865028
 20
-25.69999999999999
  9
$PLIMMAX
 10
201.1277300613497
 20
184.3
  9
$UNITMODE
 70
     0
  9
$VISRETAIN
 70
     0
  9
$PLINEGEN
 70
     1
  9
$PSLTSCALE
 70
     0
  9
$TREEDEPTH
 70
  3020
  9
$CMLSTYLE
  2
Standard
  9
$CMLJUST
 70
     0
  9
$CMLSCALE
 40
1.0
  9
$PROXYGRAPHICS
 70
     0
  9
$MEASUREMENT
 70
     1
  9
$CELWEIGHT
370
    -1
  9
$ENDCAPS
280
     0
  9
$JOINSTYLE
280
     0
  9
$LWDISPLAY
290
     1
  9
$INSUNITS
 70
     4
  9
$HYPERLINKBASE
  1

  9
$STYLESHEET
  1

  9
$XEDIT
290
     1
  9
$CEPSNTYPE
380
     0
  9
$PSTYLEMODE
290
     1
  9
$FINGERPRINTGUID
  2

  9
$VERSIONGUID
  2

  9
$EXTNAMES
290
     1
  9
$PSVPSCALE
 40
0.0
  9
$OLESTARTUP
290
     0
  9
$SORTENTS
280
   127
  9
$INDEXCTL
280
     0
  9
$HIDETEXT
280
     1
  9
$XCLIPFRAME
290
     0
  9
$HALOGAP
280
     0
  9
$OBSCOLOR
 70
   257
  9
$OBSLTYPE
280
     0
  9
$INTERSECTIONDISPLAY
280
     0
  9
$INTERSECTIONCOLOR
 70
   257
  9
$DIMASSOC
280
     2
  9
$PROJECTNAME
  1

  9
$CAMERADISPLAY
290
     0
  9
$LENSLENGTH
 40
50.0
  9
$CAMERAHEIGHT
 40
0.0
  9
$STEPSPERSEC
 40
2.0
  9
$STEPSIZE
 40
6.0
  9
$3DDWFPREC
 40
2.0
  9
$PSOLWIDTH
 40
0.25
  9
$PSOLHEIGHT
 40
4.0
  9
$LOFTANG1
 40
1.570796326794897
  9
$LOFTANG2
 40
1.570796326794897
  9
$LOFTMAG1
 40
0.0
  9
$LOFTMAG2
 40
0.0
  9
$LOFTPARAM
 70
     7
  9
$LOFTNORMALS
280
     1
  9
$LATITUDE
 40
37.795
  9
$LONGITUDE
 40
-122.394
  9
$NORTHDIRECTION
 40
0.0
  9
$TIMEZONE
 70
 -8000
  9
$LIGHTGLYPHDISPLAY
280
     1
  9
$TILEMODELIGHTSYNCH
280
     1
  9
$SOLIDHIST
280
     1
  9
$SHOWHIST
280
     1
  9
$DWFFRAME
280
     2
  9
$DGNFRAME
280
     2
  9
$REALWORLDSCALE
290
     1
  9
$INTERFERECOLOR
 62
   256
  9
$CSHADOW
280
     0
  9
$SHADOWPLANELOCATION
 40
0.0
  0
ENDSEC
  0
SECTION
  2
CLASSES
  0
CLASS
  1
LWPOLYLINE
  2
AcDbPolyline
  3
ObjectDBX Classes
 90
        0
 91
        1
280
     0
281
     1
  0
CLASS
  1
IMAGE
  2
AcDbRasterImage
  3
ISM
 90
      127
 91
       14
280
     0
281
     1
  0
CLASS
  1
OLE2FRAME
  2
AcDbOle2Frame
  3
ObjectDBX Classes
 90
        0
 91
        1
280
     0
281
     1
  0
CLASS
  1
HATCH
  2
AcDbHatch
  3
ObjectDBX Classes
 90
        0
 91
        1
280
     0
281
     1
  0
CLASS
  1
DICTIONARYVAR
  2
AcDbDictionaryVar
  3
ObjectDBX Classes
 90
        0
 91
       13
280
     0
281
     0
  0
CLASS
  1
RASTERVARIABLES
  2
AcDbRasterVariables
  3
ISM
 90
        0
 91
       13
280
     0
281
     0
  0
CLASS
  1
IMAGEDEF
  2
AcDbRasterImageDef
  3
ISM
 90
        0
 91
       13
280
     0
281
     0
  0
CLASS
  1
IMAGEDEF_REACTOR
  2
AcDbRasterImageDefReactor
  3
ISM
 90
        1
 91
       13
280
     0
281
     0
  0
CLASS
  1
IDBUFFER
  2
AcDbIdBuffer
  3
ObjectDBX Classes
 90
        0
 91
       13
280
     0
281
     0
  0
CLASS
  1
SPATIAL_FILTER
  2
AcDbSpatialFilter
  3
ObjectDBX Classes
 90
        0
 91
       13
280
     0
281
     0
  0
CLASS
  1
XRECORD
  2
AcDbXrecord
  3
ObjectDBX Classes
 90
        0
 91
        1
280
     0
281
     0
  0
CLASS
  1
SORTENTSTABLE
  2
AcDbSortentsTable
  3
ObjectDBX Classes
 90
        0
 91
       13
280
     0
281
     0
  0
CLASS
  1
LAYER_INDEX
  2
AcDbLayerIndex
  3
ObjectDBX Classes
 90
        0
 91
       13
280
     0
281
     0
  0
CLASS
  1
SPATIAL_INDEX
  2
AcDbSpatialIndex
  3
AutoCAD 2000
 90
        0
 91
       13
280
     0
281
     0
  0
CLASS
  1
OBJECT_PTR
  2
CAseDLPNTableRecord
  3
ASE-LPNTableRecord
 90
        1
 91
       13
280
     0
281
     0
  0
CLASS
  1
LAYOUT
  2
AcDbLayout
  3
ObjectDBX Classes
 90
        0
 91
        1
280
     0
281
     0
  0
CLASS
  1
PLOTSETTINGS
  2
AcDbPlotSettings
  3
ObjectDBX Classes
 90
        0
 91
       13
280
     0
281
     0
  0
CLASS
  1
ACDBDICTIONARYWDFLT
  2
AcDbDictionaryWithDefault
  3
ObjectDBX Classes
 90
        0
 91
       13
280
     0
281
     0
  0
CLASS
  1
ACDBPLACEHOLDER
  2
AcDbPlaceHolder
  3
ObjectDBX Classes
 90
        0
 91
        1
280
     0
281
     0
  0
CLASS
  1
SCALE
  2
AcDbScale
  3
ObjectDBX Classes
 90
     1153
 91
       13
280
     0
281
     0
  0
CLASS
  1
MATERIAL
  2
AcDbMaterial
  3
ObjectDBX Classes
 90
     1153
 91
       13
280
     0
281
     0
  0
CLASS
  1
VISUALSTYLE
  2
AcDbVisualStyle
  3
ObjectDBX Classes
 90
     4095
 91
       13
280
     0
281
     0
  0
CLASS
  1
TABLESTYLE
  2
AcDbTableStyle
  3
ObjectDBX Classes
 90
     4095
 91
       13
280
     0
281
     0
  0
CLASS
  1
DIMASSOC
  2
AcDbDimAssoc
  3
"AcDbDimAssoc|Product Desc:     AcDim ARX App For Dimension|Company:          Autodesk, Inc.|WEB Address:      www.autodesk.com"
 90
        0
 91
       13
280
     0
281
     0
  0
CLASS
  1
CELLSTYLEMAP
  2
AcDbCellStyleMap
  3
ObjectDBX Classes
 90
     1152
 91
       13
280
     0
281
     0
  0
CLASS
  1
SUN
  2
AcDbSun
  3
SCENEOE
 90
     1153
 91
       13
280
     0
281
     0
  0
CLASS
  1
MLEADERSTYLE
  2
AcDbMLeaderStyle
  3
ACDB_MLEADERSTYLE_CLASS
 90
     4095
 91
       13
280
     0
281
     0
  0
CLASS
  1
FIELD
  2
AcDbField
  3
ObjectDBX Classes
 90
     1152
 91
       13
280
     0
281
     0
  0
CLASS
  1
FIELDLIST
  2
AcDbFieldList
  3
ObjectDBX Classes
 90
     1152
 91
       13
280
     0
281
     0
  0
ENDSEC
  0
SECTION
  2
TABLES
  0
TABLE
  2
VPORT
  5
7
330
0
100
AcDbSymbolTable
 70
     1
  0
VPORT
  5
15
330
7
100
AcDbSymbolTableRecord
100
AcDbViewportTableRecord
  2
*ACTIVE
 70
     0
 10
0.0
 20
0.0
 11
1.0
 21
1.0
 12
196.0201356709
 22
74.90128546983397
 13
0.0
 23
0.0
 14
1.0
 24
1.0
 15
0.0
 25
0.0
 16
0.0
 26
0.0
 36
1.0
 17
-91.0201356709
 27
73.59871453016603
 37
-46.86809886248109
 40
302.94
 41
2.120310478654592
 42
50.0
 43
0.0
 44
0.0
 50
0.0
 51
0.0
 71
    16
 72
  2000
 73
     1
 74
     1
 75
     0
 76
     0
 77
     0
 78
     0
281
     0
 65
     1
110
0.0
120
0.0
130
0.0
111
1.0
121
0.0
131
0.0
112
0.0
122
1.0
132
0.0
 79
     0
146
0.0
348
26C
 60
     3
 61
     5
292
     1
282
     1
141
0.0
142
0.0
 63
   256
361
904
  0
ENDTAB
  0
TABLE
  2
LTYPE
  5
4
330
0
100
AcDbSymbolTable
 70
     5
  0
LTYPE
  5
11
330
4
100
AcDbSymbolTableRecord
100
AcDbLinetypeTableRecord
  2
ByBlock
 70
     0
  3

 72
    65
 73
     0
 40
0.0
  0
LTYPE
  5
12
330
4
100
AcDbSymbolTableRecord
100
AcDbLinetypeTableRecord
  2
ByLayer
 70
     0
  3

 72
    65
 73
     0
 40
0.0
  0
LTYPE
  5
13
330
4
100
AcDbSymbolTableRecord
100
AcDbLinetypeTableRecord
  2
Continuous
 70
     0
  3
Solid line
 72
    65
 73
     0
 40
0.0
  0
LTYPE
  5
D6C
330
4
100
AcDbSymbolTableRecord
100
AcDbLinetypeTableRecord
  2
BORDER
 70
     0
  3
Border __  __  . __  __  . __  __  . __  __  . 
 72
    65
 73
     6
 40
44.45
 49
12.7
 74
     0
 49
-6.35
 74
     0
 49
12.7
 74
     0
 49
-6.35
 74
     0
 49
0.0
 74
     0
 49
-6.35
 74
     0
  0
LTYPE
  5
3DFE
330
4
100
AcDbSymbolTableRecord
100
AcDbLinetypeTableRecord
  2
HIDDEN
 70
     0
  3
Hidden _ _ _ _ _ _ _ _ _ _ _ _ _ _ _ _ _ _ _ _ 
 72
    65
 73
     2
 40
9.524999999999999
 49
6.35
 74
     0
 49
-3.175
 74
     0
  0
LTYPE
  5
4293
330
4
100
AcDbSymbolTableRecord
100
AcDbLinetypeTableRecord
  2
CENTERX2
 70
     0
  3
Center (2x) ________  __  ________  __  _____
 72
    65
 73
     4
 40
20.32
 49
12.7
 74
     0
 49
-2.54
 74
     0
 49
2.54
 74
     0
 49
-2.54
 74
     0
  0
LTYPE
  5
43C6
330
4
100
AcDbSymbolTableRecord
100
AcDbLinetypeTableRecord
  2
CENTER
 70
     0
  3
 Center _____  _  _____  _  _____  _  _____  _ 
 72
    65
 73
     4
 40
50.8
 49
31.75
 74
     0
 49
-6.35
 74
     0
 49
6.35
 74
     0
 49
-6.35
 74
     0
  0
ENDTAB
  0
TABLE
  2
LAYER
  5
2
102
{ACAD_XDICTIONARY
360
2E1
102
}
330
0
100
AcDbSymbolTable
 70
    11
  0
LAYER
  5
14
330
2
100
AcDbSymbolTableRecord
100
AcDbLayerTableRecord
  2
0
 70
     0
 62
     7
  6
Continuous
370
    -3
390
1D
347
266
  0
LAYER
  5
4B
330
2
100
AcDbSymbolTableRecord
100
AcDbLayerTableRecord
  2
TEMPLATE
 70
     0
 62
     7
  6
Continuous
370
    20
390
1D
347
266
  0
LAYER
  5
4C
330
2
100
AcDbSymbolTableRecord
100
AcDbLayerTableRecord
  2
DIM
 70
     0
 62
     3
  6
Continuous
370
    13
390
1D
347
266
  0
LAYER
  5
4D
330
2
100
AcDbSymbolTableRecord
100
AcDbLayerTableRecord
  2
MODEL
 70
     0
 62
     7
  6
Continuous
370
    20
390
1D
347
266
  0
LAYER
  5
667
330
2
100
AcDbSymbolTableRecord
100
AcDbLayerTableRecord
  2
LOGO
 70
     0
 62
     7
  6
Continuous
370
    -3
390
1D
347
266
  0
LAYER
  5
D6B
330
2
100
AcDbSymbolTableRecord
100
AcDbLayerTableRecord
  2
BORDER
 70
     0
 62
     4
  6
BORDER
290
     0
370
    20
390
1D
347
266
1001
AcAecLayerStandard
1000

1000

  0
LAYER
  5
D8C
330
2
100
AcDbSymbolTableRecord
100
AcDbLayerTableRecord
  2
Defpoints
 70
     0
 62
     7
  6
Continuous
290
     0
370
    -3
390
1D
347
266
  0
LAYER
  5
3DFD
330
2
100
AcDbSymbolTableRecord
100
AcDbLayerTableRecord
  2
HIDDEN
 70
     0
 62
   253
  6
HIDDEN
370
    -3
390
1D
347
266
1001
AcAecLayerStandard
1000

1000

  0
LAYER
  5
3E8E
330
2
100
AcDbSymbolTableRecord
100
AcDbLayerTableRecord
  2
注释
 70
     0
 62
     7
  6
Continuous
370
    -1
390
1D
347
266
  0
LAYER
  5
4291
330
2
100
AcDbSymbolTableRecord
100
AcDbLayerTableRecord
  2
SLD-0
 70
     0
 62
   179
  6
Continuous
370
    -1
390
1D
347
266
  0
LAYER
  5
47BE
330
2
100
AcDbSymbolTableRecord
100
AcDbLayerTableRecord
  2
モデル
 70
     0
 62
     7
  6
Continuous
370
    20
390
1D
347
266
1001
AcAecLayerStandard
1000

1000

  0
ENDTAB
  0
TABLE
  2
STYLE
  5
3
330
0
100
AcDbSymbolTable
 70
     3
  0
STYLE
  5
17
330
3
100
AcDbSymbolTableRecord
100
AcDbTextStyleTableRecord
  2
Standard
 70
     0
 40
0.0
 41
1.0
 50
0.0
 71
     0
 42
2.5
  3
txt
  4
BIGFONT.SHX
  0
STYLE
  5
39
330
3
100
AcDbSymbolTableRecord
100
AcDbTextStyleTableRecord
  2
ＭＳ ゴシック
 70
     0
 40
0.0
 41
1.0
 50
0.0
 71
     0
 42
2.5
  3
msgothic.ttc
  4
ＭＳ ゴシック
1001
ACAD
1000
ＭＳ ゴシック
1071
        0
  0
STYLE
  5
3E93
330
3
100
AcDbSymbolTableRecord
100
AcDbTextStyleTableRecord
  2
SLDTEXTSTYLE0
 70
     0
 40
0.0
 41
0.75
 50
0.0
 71
     0
 42
2.5
  3
TXT
  4

  0
ENDTAB
  0
TABLE
  2
VIEW
  5
5
330
0
100
AcDbSymbolTable
 70
     0
  0
ENDTAB
  0
TABLE
  2
UCS
  5
6
330
0
100
AcDbSymbolTable
 70
     0
  0
ENDTAB
  0
TABLE
  2
APPID
  5
8
330
0
100
AcDbSymbolTable
 70
     3
  0
APPID
  5
16
330
8
100
AcDbSymbolTableRecord
100
AcDbRegAppTableRecord
  2
ACAD
 70
     0
  0
APPID
  5
7AC
330
8
100
AcDbSymbolTableRecord
100
AcDbRegAppTableRecord
  2
AcAecLayerStandard
 70
     0
  0
APPID
  5
E29
330
8
100
AcDbSymbolTableRecord
100
AcDbRegAppTableRecord
  2
ACAD_MLEADERVER
 70
     0
  0
ENDTAB
  0
TABLE
  2
DIMSTYLE
  5
9
330
0
100
AcDbSymbolTable
 70
     7
100
AcDbDimStyleTable
  0
DIMSTYLE
105
18
330
9
100
AcDbSymbolTableRecord
100
AcDbDimStyleTableRecord
  2
Standard
 70
     0
178
     0
340
17
  0
DIMSTYLE
105
57
102
{ACAD_REACTORS
330
46E7
330
46E8
330
46E9
330
46EA
102
}
330
9
100
AcDbSymbolTableRecord
100
AcDbDimStyleTableRecord
  2
tfrom線あり
 70
     0
  3
<>
  4
[]
 41
1.0
 42
3.0
 43
0.9999999999999999
 44
0.0
 73
     0
 74
     0
 77
     1
 78
    11
140
2.5
141
0.0
143
1.0
147
1.0
171
     1
174
     1
178
     0
179
     2
271
     0
272
     1
276
     2
284
    11
285
    11
286
    11
289
     0
340
39
341
4E
342
4E
  0
DIMSTYLE
105
3E90
330
9
100
AcDbSymbolTableRecord
100
AcDbDimStyleTableRecord
  2
ISO-25
 70
     0
 41
2.5
 42
0.625
 43
3.75
 44
1.25
 73
     0
 74
     0
 77
     1
 78
     8
140
2.5
141
2.5
143
0.03937007874016
147
0.625
171
     3
172
     1
178
     0
271
     2
272
     2
274
     3
278
    44
283
     0
284
     8
340
17
  0
DIMSTYLE
105
3E92
330
9
100
AcDbSymbolTableRecord
100
AcDbDimStyleTableRecord
  2
SLDDIMSTYLE0
 70
     0
 41
2.5
 44
0.0
 45
0.000000001
 73
     0
 74
     0
 77
     1
 78
    12
 79
     3
140
2.5
144
3.0
147
0.625
173
     1
178
     0
271
     0
272
     0
276
     2
284
    12
340
3E93
  0
DIMSTYLE
105
3E94
330
9
100
AcDbSymbolTableRecord
100
AcDbDimStyleTableRecord
  2
SLDDIMSTYLE1
 70
     0
 41
2.5
 44
0.0
 45
0.000000001
 73
     0
 74
     0
 77
     1
 78
    12
 79
     3
140
2.5
144
3.0
147
0.625
173
     1
178
     0
271
     0
272
     2
276
     2
284
    12
340
3E93
  0
DIMSTYLE
105
3E95
330
9
100
AcDbSymbolTableRecord
100
AcDbDimStyleTableRecord
  2
SLDDIMSTYLE2
 70
     0
 41
2.5
 44
0.0
 45
0.000000001
 73
     0
 74
     0
 77
     1
 78
    12
 79
     3
140
2.5
144
3.0
147
0.625
173
     1
178
     0
271
     2
272
     2
276
     2
284
    12
340
3E93
  0
DIMSTYLE
105
429A
330
9
100
AcDbSymbolTableRecord
100
AcDbDimStyleTableRecord
  2
SLDDIMSTYLE3
 70
     0
 41
3.0
 44
0.0
 45
0.000000001
 73
     0
 74
     0
 77
     1
 78
    12
 79
     3
140
2.5
141
0.0
144
0.6666666666666666
147
0.625
172
     1
173
     1
178
     0
271
     2
272
     2
276
     2
284
    12
340
3E93
341
429B
343
429B
  0
ENDTAB
  0
TABLE
  2
BLOCK_RECORD
  5
1
330
0
100
AcDbSymbolTable
 70
    66
  0
BLOCK_RECORD
  5
A
330
1
100
AcDbSymbolTableRecord
100
AcDbBlockTableRecord
  2
*MODEL_SPACE
340
20
 70
     0
280
     1
281
     0
  0
BLOCK_RECORD
  5
B
330
1
100
AcDbSymbolTableRecord
100
AcDbBlockTableRecord
  2
*PAPER_SPACE
340
21
 70
     0
280
     1
281
     0
  0
BLOCK_RECORD
  5
4E
330
1
100
AcDbSymbolTableRecord
100
AcDbBlockTableRecord
  2
_DOT
340
0
102
{BLKREFS
331
39E8
331
39E9
331
39F4
331
39F5
331
3A00
331
3A01
331
3AC0
331
3AC1
331
3AED
331
3AEE
331
3D37
331
3D38
331
3D43
331
3D44
331
3D50
331
3D51
331
3D5C
331
3D5D
331
3D68
331
3D69
331
3D74
331
3D75
331
3D80
331
3D81
331
3D8F
331
3D90
331
3D9B
331
3D9C
331
3DCA
331
3DCB
331
3DE3
331
3DE4
331
3E32
331
3E33
331
413F
331
4140
331
414B
331
414C
331
4157
331
4158
331
4163
331
4164
331
4176
331
4177
331
4250
331
4251
331
4272
331
4273
331
439E
331
439F
331
43AA
331
43AB
331
43B6
331
43B7
331
43C1
331
43E1
331
43E2
331
450C
331
450D
331
4518
331
4519
331
4523
331
4531
331
4532
331
4540
331
4541
331
46FF
331
4700
331
470B
331
470C
331
4717
331
4718
331
4723
331
4724
102
}
 70
     0
280
     1
281
     0
  0
BLOCK_RECORD
  5
68A
330
1
100
AcDbSymbolTableRecord
100
AcDbBlockTableRecord
  2
名称未設定-1
340
0
102
{BLKREFS
331
6B5
102
}
 70
     1
280
     1
281
     0
  0
BLOCK_RECORD
  5
68D
330
1
100
AcDbSymbolTableRecord
100
AcDbBlockTableRecord
  2
block 2
340
0
102
{BLKREFS
331
68C
331
1343
102
}
 70
     0
280
     1
281
     0
  0
BLOCK_RECORD
  5
690
330
1
100
AcDbSymbolTableRecord
100
AcDbBlockTableRecord
  2
block 3
340
0
102
{BLKREFS
331
68F
102
}
 70
     0
280
     1
281
     0
  0
BLOCK_RECORD
  5
693
330
1
100
AcDbSymbolTableRecord
100
AcDbBlockTableRecord
  2
block 4
340
0
102
{BLKREFS
331
692
102
}
 70
     0
280
     1
281
     0
  0
BLOCK_RECORD
  5
6A2
330
1
100
AcDbSymbolTableRecord
100
AcDbBlockTableRecord
  2
block 5
340
0
102
{BLKREFS
331
6A1
102
}
 70
     0
280
     1
281
     0
  0
BLOCK_RECORD
  5
39E2
330
1
100
AcDbSymbolTableRecord
100
AcDbBlockTableRecord
  2
*D6
340
0
 70
     0
280
     1
281
     0
  0
BLOCK_RECORD
  5
39EE
330
1
100
AcDbSymbolTableRecord
100
AcDbBlockTableRecord
  2
*D7
340
0
 70
     0
280
     1
281
     0
  0
BLOCK_RECORD
  5
39FA
330
1
100
AcDbSymbolTableRecord
100
AcDbBlockTableRecord
  2
*D8
340
0
 70
     0
280
     1
281
     0
  0
BLOCK_RECORD
  5
3ABA
330
1
100
AcDbSymbolTableRecord
100
AcDbBlockTableRecord
  2
*D9
340
0
 70
     0
280
     1
281
     0
  0
BLOCK_RECORD
  5
3AE7
330
1
100
AcDbSymbolTableRecord
100
AcDbBlockTableRecord
  2
*D10
340
0
 70
     0
280
     1
281
     0
  0
BLOCK_RECORD
  5
3D31
330
1
100
AcDbSymbolTableRecord
100
AcDbBlockTableRecord
  2
*D11
340
0
 70
     0
280
     1
281
     0
  0
BLOCK_RECORD
  5
3D3D
330
1
100
AcDbSymbolTableRecord
100
AcDbBlockTableRecord
  2
*D12
340
0
 70
     0
280
     1
281
     0
  0
BLOCK_RECORD
  5
3D4A
330
1
100
AcDbSymbolTableRecord
100
AcDbBlockTableRecord
  2
*D13
340
0
 70
     0
280
     1
281
     0
  0
BLOCK_RECORD
  5
3D56
330
1
100
AcDbSymbolTableRecord
100
AcDbBlockTableRecord
  2
*D14
340
0
 70
     0
280
     1
281
     0
  0
BLOCK_RECORD
  5
3D62
330
1
100
AcDbSymbolTableRecord
100
AcDbBlockTableRecord
  2
*D15
340
0
 70
     0
280
     1
281
     0
  0
BLOCK_RECORD
  5
3D6E
330
1
100
AcDbSymbolTableRecord
100
AcDbBlockTableRecord
  2
*D16
340
0
 70
     0
280
     1
281
     0
  0
BLOCK_RECORD
  5
3D7A
330
1
100
AcDbSymbolTableRecord
100
AcDbBlockTableRecord
  2
*D17
340
0
 70
     0
280
     1
281
     0
  0
BLOCK_RECORD
  5
3D89
330
1
100
AcDbSymbolTableRecord
100
AcDbBlockTableRecord
  2
*D18
340
0
 70
     0
280
     1
281
     0
  0
BLOCK_RECORD
  5
3D95
330
1
100
AcDbSymbolTableRecord
100
AcDbBlockTableRecord
  2
*D19
340
0
 70
     0
280
     1
281
     0
  0
BLOCK_RECORD
  5
3DC4
330
1
100
AcDbSymbolTableRecord
100
AcDbBlockTableRecord
  2
*D20
340
0
 70
     0
280
     1
281
     0
  0
BLOCK_RECORD
  5
3DDD
330
1
100
AcDbSymbolTableRecord
100
AcDbBlockTableRecord
  2
*D21
340
0
 70
     0
280
     1
281
     0
  0
BLOCK_RECORD
  5
3E2C
330
1
100
AcDbSymbolTableRecord
100
AcDbBlockTableRecord
  2
*D22
340
0
 70
     0
280
     1
281
     0
  0
BLOCK_RECORD
  5
3ECD
330
1
100
AcDbSymbolTableRecord
100
AcDbBlockTableRecord
  2
*D23
340
0
 70
     0
280
     1
281
     0
  0
BLOCK_RECORD
  5
3F2A
330
1
100
AcDbSymbolTableRecord
100
AcDbBlockTableRecord
  2
*D24
340
0
 70
     0
280
     1
281
     0
  0
BLOCK_RECORD
  5
3F34
330
1
100
AcDbSymbolTableRecord
100
AcDbBlockTableRecord
  2
*D25
340
0
 70
     0
280
     1
281
     0
  0
BLOCK_RECORD
  5
3F3E
330
1
100
AcDbSymbolTableRecord
100
AcDbBlockTableRecord
  2
*D26
340
0
 70
     0
280
     1
281
     0
  0
BLOCK_RECORD
  5
4139
330
1
100
AcDbSymbolTableRecord
100
AcDbBlockTableRecord
  2
*D27
340
0
 70
     0
280
     1
281
     0
  0
BLOCK_RECORD
  5
4145
330
1
100
AcDbSymbolTableRecord
100
AcDbBlockTableRecord
  2
*D28
340
0
 70
     0
280
     1
281
     0
  0
BLOCK_RECORD
  5
4151
330
1
100
AcDbSymbolTableRecord
100
AcDbBlockTableRecord
  2
*D29
340
0
 70
     0
280
     1
281
     0
  0
BLOCK_RECORD
  5
415D
330
1
100
AcDbSymbolTableRecord
100
AcDbBlockTableRecord
  2
*D30
340
0
 70
     0
280
     1
281
     0
  0
BLOCK_RECORD
  5
4170
330
1
100
AcDbSymbolTableRecord
100
AcDbBlockTableRecord
  2
*D31
340
0
 70
     0
280
     1
281
     0
  0
BLOCK_RECORD
  5
424A
330
1
100
AcDbSymbolTableRecord
100
AcDbBlockTableRecord
  2
*D32
340
0
 70
     0
280
     1
281
     0
  0
BLOCK_RECORD
  5
426C
330
1
100
AcDbSymbolTableRecord
100
AcDbBlockTableRecord
  2
*D33
340
0
 70
     0
280
     1
281
     0
  0
BLOCK_RECORD
  5
429B
330
1
100
AcDbSymbolTableRecord
100
AcDbBlockTableRecord
  2
_NONE
340
0
 70
     0
280
     1
281
     0
  0
BLOCK_RECORD
  5
42F9
330
1
100
AcDbSymbolTableRecord
100
AcDbBlockTableRecord
  2
*D35
340
0
 70
     0
280
     1
281
     0
  0
BLOCK_RECORD
  5
4303
330
1
100
AcDbSymbolTableRecord
100
AcDbBlockTableRecord
  2
*D36
340
0
 70
     0
280
     1
281
     0
  0
BLOCK_RECORD
  5
4310
330
1
100
AcDbSymbolTableRecord
100
AcDbBlockTableRecord
  2
*D37
340
0
 70
     0
280
     1
281
     0
  0
BLOCK_RECORD
  5
432C
330
1
100
AcDbSymbolTableRecord
100
AcDbBlockTableRecord
  2
*D38
340
0
 70
     0
280
     1
281
     0
  0
BLOCK_RECORD
  5
4335
330
1
100
AcDbSymbolTableRecord
100
AcDbBlockTableRecord
  2
SW_CENTERMARKSYMBOL_0
340
0
 70
     0
280
     1
281
     0
  0
BLOCK_RECORD
  5
4398
330
1
100
AcDbSymbolTableRecord
100
AcDbBlockTableRecord
  2
*D40
340
0
 70
     0
280
     1
281
     0
  0
BLOCK_RECORD
  5
43A4
330
1
100
AcDbSymbolTableRecord
100
AcDbBlockTableRecord
  2
*D41
340
0
 70
     0
280
     1
281
     0
  0
BLOCK_RECORD
  5
43B0
330
1
100
AcDbSymbolTableRecord
100
AcDbBlockTableRecord
  2
*D42
340
0
 70
     0
280
     1
281
     0
  0
BLOCK_RECORD
  5
43BC
330
1
100
AcDbSymbolTableRecord
100
AcDbBlockTableRecord
  2
*D43
340
0
 70
     0
280
     1
281
     0
  0
BLOCK_RECORD
  5
43DB
330
1
100
AcDbSymbolTableRecord
100
AcDbBlockTableRecord
  2
*D44
340
0
 70
     0
280
     1
281
     0
  0
BLOCK_RECORD
  5
4483
330
1
100
AcDbSymbolTableRecord
100
AcDbBlockTableRecord
  2
*D45
340
0
 70
     0
280
     1
281
     0
  0
BLOCK_RECORD
  5
448D
330
1
100
AcDbSymbolTableRecord
100
AcDbBlockTableRecord
  2
*D46
340
0
 70
     0
280
     1
281
     0
  0
BLOCK_RECORD
  5
44A9
330
1
100
AcDbSymbolTableRecord
100
AcDbBlockTableRecord
  2
*D47
340
0
 70
     0
280
     1
281
     0
  0
BLOCK_RECORD
  5
4506
330
1
100
AcDbSymbolTableRecord
100
AcDbBlockTableRecord
  2
*D48
340
0
 70
     0
280
     1
281
     0
  0
BLOCK_RECORD
  5
4512
330
1
100
AcDbSymbolTableRecord
100
AcDbBlockTableRecord
  2
*D49
340
0
 70
     0
280
     1
281
     0
  0
BLOCK_RECORD
  5
451E
330
1
100
AcDbSymbolTableRecord
100
AcDbBlockTableRecord
  2
*D50
340
0
 70
     0
280
     1
281
     0
  0
BLOCK_RECORD
  5
452B
330
1
100
AcDbSymbolTableRecord
100
AcDbBlockTableRecord
  2
*D51
340
0
 70
     0
280
     1
281
     0
  0
BLOCK_RECORD
  5
453A
330
1
100
AcDbSymbolTableRecord
100
AcDbBlockTableRecord
  2
*D52
340
0
 70
     0
280
     1
281
     0
  0
BLOCK_RECORD
  5
45E2
330
1
100
AcDbSymbolTableRecord
100
AcDbBlockTableRecord
  2
*D53
340
0
 70
     0
280
     1
281
     0
  0
BLOCK_RECORD
  5
45EF
330
1
100
AcDbSymbolTableRecord
100
AcDbBlockTableRecord
  2
*D54
340
0
 70
     0
280
     1
281
     0
  0
BLOCK_RECORD
  5
460B
330
1
100
AcDbSymbolTableRecord
100
AcDbBlockTableRecord
  2
*D55
340
0
 70
     0
280
     1
281
     0
  0
BLOCK_RECORD
  5
466C
330
1
100
AcDbSymbolTableRecord
100
AcDbBlockTableRecord
  2
*D56
340
0
 70
     0
280
     1
281
     0
  0
BLOCK_RECORD
  5
4677
330
1
100
AcDbSymbolTableRecord
100
AcDbBlockTableRecord
  2
*D57
340
0
 70
     0
280
     1
281
     0
  0
BLOCK_RECORD
  5
4683
330
1
100
AcDbSymbolTableRecord
100
AcDbBlockTableRecord
  2
*D58
340
0
 70
     0
280
     1
281
     0
  0
BLOCK_RECORD
  5
468E
330
1
100
AcDbSymbolTableRecord
100
AcDbBlockTableRecord
  2
*D59
340
0
 70
     0
280
     1
281
     0
  0
BLOCK_RECORD
  5
46B0
330
1
100
AcDbSymbolTableRecord
100
AcDbBlockTableRecord
  2
SW_CENTERMARKSYMBOL_1
340
0
 70
     0
280
     1
281
     0
  0
BLOCK_RECORD
  5
46F9
330
1
100
AcDbSymbolTableRecord
100
AcDbBlockTableRecord
  2
*D61
340
0
 70
     0
280
     1
281
     0
  0
BLOCK_RECORD
  5
4705
330
1
100
AcDbSymbolTableRecord
100
AcDbBlockTableRecord
  2
*D62
340
0
 70
     0
280
     1
281
     0
  0
BLOCK_RECORD
  5
4711
330
1
100
AcDbSymbolTableRecord
100
AcDbBlockTableRecord
  2
*D63
340
0
 70
     0
280
     1
281
     0
  0
BLOCK_RECORD
  5
471D
330
1
100
AcDbSymbolTableRecord
100
AcDbBlockTableRecord
  2
*D64
340
0
 70
     0
280
     1
281
     0
  0
ENDTAB
  0
ENDSEC
  0
SECTION
  2
BLOCKS
  0
BLOCK
  5
D
330
A
100
AcDbEntity
  8
0
390
1D
100
AcDbBlockBegin
  2
*MODEL_SPACE
 70
     0
 10
0.0
 20
0.0
 30
0.0
  3
*MODEL_SPACE
  1
*MODEL_SPACE
  0
ENDBLK
  5
E
330
A
100
AcDbEntity
  8
0
390
1D
100
AcDbBlockEnd
  0
BLOCK
  5
F
330
B
100
AcDbEntity
 67
     1
  8
0
390
1D
100
AcDbBlockBegin
  2
*PAPER_SPACE
 70
     0
 10
0.0
 20
0.0
 30
0.0
  3
*PAPER_SPACE
  1
*PAPER_SPACE
  0
ENDBLK
  5
10
330
B
100
AcDbEntity
 67
     1
  8
0
390
1D
100
AcDbBlockEnd
  0
BLOCK
  5
47A6
330
4E
100
AcDbEntity
  8
0
390
1D
100
AcDbBlockBegin
  2
_DOT
 70
     0
 10
0.0
 20
0.0
 30
0.0
  3
_DOT
  1
_DOT
  0
POLYLINE
  5
47A8
330
4E
100
AcDbEntity
  8
0
  6
ByBlock
 62
     0
370
    -2
390
1D
100
AcDb2dPolyline
 66
     1
 10
0.0
 20
0.0
 30
0.0
 70
     1
 40
0.5
 41
0.5
  0
VERTEX
  5
47A9
330
47A8
100
AcDbEntity
  8
0
  6
ByBlock
 62
     0
370
    -2
390
1D
100
AcDbVertex
100
AcDb2dVertex
 10
-0.25
 20
0.0
 30
0.0
 42
1.0
  0
VERTEX
  5
47AA
330
47A8
100
AcDbEntity
  8
0
  6
ByBlock
 62
     0
370
    -2
390
1D
100
AcDbVertex
100
AcDb2dVertex
 10
0.25
 20
0.0
 30
0.0
 42
1.0
  0
SEQEND
  5
47AB
330
47A8
100
AcDbEntity
  8
0
390
1D
  0
LINE
  5
47AC
330
4E
100
AcDbEntity
  8
0
  6
ByBlock
 62
     0
370
    -2
390
1D
100
AcDbLine
 10
-0.5
 20
0.0
 30
0.0
 11
-1.0
 21
0.0
 31
0.0
  0
ENDBLK
  5
47AD
330
4E
100
AcDbEntity
  8
0
390
1D
100
AcDbBlockEnd
  0
BLOCK
  5
68B
330
68A
100
AcDbEntity
  8
0
100
AcDbBlockBegin
  2
名称未設定-1
 70
     0
 10
0.0
 20
0.0
 30
0.0
  3
名称未設定-1
  1
名称未設定-1
  0
INSERT
  5
68F
330
68A
100
AcDbEntity
  8
LOGO
100
AcDbBlockReference
  2
block 3
 10
0.0
 20
0.0
 30
0.0
  0
ENDBLK
  5
6B1
330
68A
100
AcDbEntity
  8
0
100
AcDbBlockEnd
  0
BLOCK
  5
68E
330
68D
100
AcDbEntity
  8
0
100
AcDbBlockBegin
  2
block 2
 70
     0
 10
0.0
 20
0.0
 30
0.0
  3
block 2
  1
block 2
  0
ENDBLK
  5
6B0
330
68D
100
AcDbEntity
  8
0
100
AcDbBlockEnd
  0
BLOCK
  5
691
330
690
100
AcDbEntity
  8
0
100
AcDbBlockBegin
  2
block 3
 70
     0
 10
0.0
 20
0.0
 30
0.0
  3
block 3
  1
block 3
  0
INSERT
  5
692
330
690
100
AcDbEntity
  8
LOGO
100
AcDbBlockReference
  2
block 4
 10
0.0
 20
0.0
 30
0.0
  0
INSERT
  5
6A1
330
690
100
AcDbEntity
  8
LOGO
100
AcDbBlockReference
  2
block 5
 10
0.0
 20
0.0
 30
0.0
  0
ENDBLK
  5
6AF
330
690
100
AcDbEntity
  8
0
100
AcDbBlockEnd
  0
BLOCK
  5
694
330
693
100
AcDbEntity
  8
0
100
AcDbBlockBegin
  2
block 4
 70
     0
 10
0.0
 20
0.0
 30
0.0
  3
block 4
  1
block 4
  0
POLYLINE
  5
695
330
693
100
AcDbEntity
  8
LOGO
370
     0
100
AcDb2dPolyline
 66
     1
 10
0.0
 20
0.0
 30
0.0
  0
VERTEX
  5
696
330
695
100
AcDbEntity
  8
LOGO
370
     0
100
AcDbVertex
100
AcDb2dVertex
 10
83.79545727667795
 20
167.6444858234922
 30
0.0
  0
VERTEX
  5
697
330
695
100
AcDbEntity
  8
LOGO
370
     0
100
AcDbVertex
100
AcDb2dVertex
 10
83.79545727667795
 20
159.7968976406313
 30
0.0
  0
VERTEX
  5
698
330
695
100
AcDbEntity
  8
LOGO
370
     0
100
AcDbVertex
100
AcDb2dVertex
 10
71.3631329975216
 20
159.7968976406313
 30
0.0
  0
VERTEX
  5
699
330
695
100
AcDbEntity
  8
LOGO
370
     0
100
AcDbVertex
100
AcDb2dVertex
 10
71.3631329975216
 20
127.8027915271048
 30
0.0
  0
VERTEX
  5
69A
330
695
100
AcDbEntity
  8
LOGO
370
     0
100
AcDbVertex
100
AcDb2dVertex
 10
60.43011526263018
 20
127.8027915271048
 30
0.0
  0
VERTEX
  5
69B
330
695
100
AcDbEntity
  8
LOGO
370
     0
100
AcDbVertex
100
AcDb2dVertex
 10
60.43011526263018
 20
159.7968976406313
 30
0.0
  0
VERTEX
  5
69C
330
695
100
AcDbEntity
  8
LOGO
370
     0
100
AcDbVertex
100
AcDb2dVertex
 10
48.21793273020759
 20
159.7968976406313
 30
0.0
  0
VERTEX
  5
69D
330
695
100
AcDbEntity
  8
LOGO
370
     0
100
AcDbVertex
100
AcDb2dVertex
 10
48.21793273020759
 20
167.6444858234922
 30
0.0
  0
VERTEX
  5
69E
330
695
100
AcDbEntity
  8
LOGO
370
     0
100
AcDbVertex
100
AcDb2dVertex
 10
83.79545727667795
 20
167.6444858234922
 30
0.0
  0
SEQEND
  5
69F
330
695
100
AcDbEntity
  8
LOGO
370
     0
  0
HATCH
  5
6A0
330
693
100
AcDbEntity
  8
LOGO
 62
   250
420
  2234388
100
AcDbHatch
 10
0.0
 20
0.0
 30
0.0
210
0.0
220
0.0
230
1.0
  2
SOLID
 70
     1
 71
     0
 91
        1
 92
        1
 93
        8
 72
     1
 10
83.79545727667795
 20
167.6444858234922
 11
83.79545727667795
 21
159.7968976406313
 72
     1
 10
83.79545727667795
 20
159.7968976406313
 11
71.3631329975216
 21
159.7968976406313
 72
     1
 10
71.3631329975216
 20
159.7968976406313
 11
71.3631329975216
 21
127.8027915271048
 72
     1
 10
71.3631329975216
 20
127.8027915271048
 11
60.43011526263018
 21
127.8027915271048
 72
     1
 10
60.43011526263018
 20
127.8027915271048
 11
60.43011526263018
 21
159.7968976406313
 72
     1
 10
60.43011526263018
 20
159.7968976406313
 11
48.21793273020759
 21
159.7968976406313
 72
     1
 10
48.21793273020759
 20
159.7968976406313
 11
48.21793273020759
 21
167.6444858234922
 72
     1
 10
48.21793273020759
 20
167.6444858234922
 11
83.79545727667795
 21
167.6444858234922
 97
        0
 75
     2
 76
     1
 98
        0
  0
ENDBLK
  5
6AE
330
693
100
AcDbEntity
  8
0
100
AcDbBlockEnd
  0
BLOCK
  5
6A3
330
6A2
100
AcDbEntity
  8
0
100
AcDbBlockBegin
  2
block 5
 70
     0
 10
0.0
 20
0.0
 30
0.0
  3
block 5
  1
block 5
  0
SPLINE
  5
6A4
330
6A2
100
AcDbEntity
  8
LOGO
370
     0
100
AcDbSpline
210
0.0
220
0.0
230
1.0
 70
    11
 71
     3
 72
    56
 73
    52
 74
     0
 42
0.000000001
 43
0.0000000001
 40
0.0
 40
0.0
 40
0.0
 40
0.0
 40
1.0
 40
1.0
 40
1.0
 40
2.0
 40
2.0
 40
2.0
 40
3.0
 40
3.0
 40
3.0
 40
4.0
 40
4.0
 40
4.0
 40
5.0
 40
5.0
 40
5.0
 40
6.0
 40
6.0
 40
6.0
 40
7.0
 40
7.0
 40
7.0
 40
8.0
 40
8.0
 40
8.0
 40
9.0
 40
9.0
 40
9.0
 40
10.0
 40
10.0
 40
10.0
 40
11.0
 40
11.0
 40
11.0
 40
12.0
 40
12.0
 40
12.0
 40
13.0
 40
13.0
 40
13.0
 40
14.0
 40
14.0
 40
14.0
 40
15.0
 40
15.0
 40
15.0
 40
16.0
 40
16.0
 40
16.0
 40
17.0
 40
17.0
 40
17.0
 40
17.0
 10
100.4504378777679
 20
166.69157178364
 30
0.0
 10
101.9848844191641
 20
167.1313385124438
 30
0.0
 10
103.9637485713373
 20
166.7649523658846
 30
0.0
 10
103.9637485713373
 20
166.7649523658846
 30
0.0
 10
103.9637485713373
 20
166.7649523658846
 30
0.0
 10
103.0132460999156
 20
163.911205638077
 30
0.0
 10
103.0132460999156
 20
163.911205638077
 30
0.0
 10
103.0132460999156
 20
163.911205638077
 30
0.0
 10
101.0674548862189
 20
164.3601018759394
 30
0.0
 10
99.57090442016032
 20
163.1805004036133
 30
0.0
 10
98.40508333886608
 20
162.258247733807
 30
0.0
 10
97.65301849830304
 20
159.804132345923
 30
0.0
 10
97.3598406791005
 20
158.8699940888517
 30
0.0
 10
97.3598406791005
 20
158.8699940888517
 30
0.0
 10
96.07137411762282
 20
154.9119212747295
 30
0.0
 10
96.07137411762282
 20
154.9119212747295
 30
0.0
 10
96.07137411762282
 20
154.9119212747295
 30
0.0
 10
100.3012651448482
 20
154.9119212747295
 30
0.0
 10
100.3012651448482
 20
154.9119212747295
 30
0.0
 10
100.3012651448482
 20
154.9119212747295
 30
0.0
 10
99.64152892419852
 20
152.4199098115079
 30
0.0
 10
99.64152892419852
 20
152.4199098115079
 30
0.0
 10
99.64152892419852
 20
152.4199098115079
 30
0.0
 10
95.38097652692731
 20
152.4199098115079
 30
0.0
 10
95.38097652692731
 20
152.4199098115079
 30
0.0
 10
95.38097652692731
 20
152.4199098115079
 30
0.0
 10
87.75353009080013
 20
127.8027915271048
 30
0.0
 10
87.75353009080013
 20
127.8027915271048
 30
0.0
 10
87.75353009080013
 20
127.8027915271048
 30
0.0
 10
85.36538832498108
 20
127.8027915271048
 30
0.0
 10
85.36538832498108
 20
127.8027915271048
 30
0.0
 10
85.36538832498108
 20
127.8027915271048
 30
0.0
 10
93.00006946639998
 20
152.4199098115079
 30
0.0
 10
93.00006946639998
 20
152.4199098115079
 30
0.0
 10
93.00006946639998
 20
152.4199098115079
 30
0.0
 10
89.85297266450198
 20
152.4199098115079
 30
0.0
 10
89.85297266450198
 20
152.4199098115079
 30
0.0
 10
89.85297266450198
 20
152.4199098115079
 30
0.0
 10
90.51270888515164
 20
154.9119212747295
 30
0.0
 10
90.51270888515164
 20
154.9119212747295
 30
0.0
 10
90.51270888515164
 20
154.9119212747295
 30
0.0
 10
93.6904670570955
 20
154.9119212747295
 30
0.0
 10
93.6904670570955
 20
154.9119212747295
 30
0.0
 10
93.6904670570955
 20
154.9119212747295
 30
0.0
 10
94.81598049462158
 20
158.3616699146644
 30
0.0
 10
94.81598049462158
 20
158.3616699146644
 30
0.0
 10
95.7237637538445
 20
161.2605474231013
 30
0.0
 10
96.4968436907311
 20
162.8139420021662
 30
0.0
 10
97.15657991138076
 20
163.9844139654337
 30
0.0
 10
97.81183750494507
 20
165.1523021053827
 30
0.0
 10
99.1047826935081
 20
166.3084769129547
 30
0.0
 10
100.4504378777679
 20
166.69157178364
 30
0.0
  0
HATCH
  5
6A5
330
6A2
100
AcDbEntity
  8
LOGO
 62
   250
420
  2234388
100
AcDbHatch
 10
0.0
 20
0.0
 30
0.0
210
0.0
220
0.0
230
1.0
  2
SOLID
 70
     1
 71
     0
 91
        1
 92
        1
 93
        1
 72
     4
 94
        3
 73
     0
 74
     1
 95
       56
 96
       52
 40
0.0
 40
0.0
 40
0.0
 40
0.0
 40
1.0
 40
1.0
 40
1.0
 40
2.0
 40
2.0
 40
2.0
 40
3.0
 40
3.0
 40
3.0
 40
4.0
 40
4.0
 40
4.0
 40
5.0
 40
5.0
 40
5.0
 40
6.0
 40
6.0
 40
6.0
 40
7.0
 40
7.0
 40
7.0
 40
8.0
 40
8.0
 40
8.0
 40
9.0
 40
9.0
 40
9.0
 40
10.0
 40
10.0
 40
10.0
 40
11.0
 40
11.0
 40
11.0
 40
12.0
 40
12.0
 40
12.0
 40
13.0
 40
13.0
 40
13.0
 40
14.0
 40
14.0
 40
14.0
 40
15.0
 40
15.0
 40
15.0
 40
16.0
 40
16.0
 40
16.0
 40
17.0
 40
17.0
 40
17.0
 40
17.0
 10
100.4504378777679
 20
166.69157178364
 10
101.9848844191641
 20
167.1313385124438
 10
103.9637485713373
 20
166.7649523658846
 10
103.9637485713373
 20
166.7649523658846
 10
103.9637485713373
 20
166.7649523658846
 10
103.0132460999156
 20
163.911205638077
 10
103.0132460999156
 20
163.911205638077
 10
103.0132460999156
 20
163.911205638077
 10
101.0674548862189
 20
164.3601018759394
 10
99.57090442016032
 20
163.1805004036133
 10
98.40508333886608
 20
162.258247733807
 10
97.65301849830304
 20
159.804132345923
 10
97.3598406791005
 20
158.8699940888517
 10
97.3598406791005
 20
158.8699940888517
 10
96.07137411762282
 20
154.9119212747295
 10
96.07137411762282
 20
154.9119212747295
 10
96.07137411762282
 20
154.9119212747295
 10
100.3012651448482
 20
154.9119212747295
 10
100.3012651448482
 20
154.9119212747295
 10
100.3012651448482
 20
154.9119212747295
 10
99.64152892419852
 20
152.4199098115079
 10
99.64152892419852
 20
152.4199098115079
 10
99.64152892419852
 20
152.4199098115079
 10
95.38097652692731
 20
152.4199098115079
 10
95.38097652692731
 20
152.4199098115079
 10
95.38097652692731
 20
152.4199098115079
 10
87.75353009080013
 20
127.8027915271048
 10
87.75353009080013
 20
127.8027915271048
 10
87.75353009080013
 20
127.8027915271048
 10
85.36538832498108
 20
127.8027915271048
 10
85.36538832498108
 20
127.8027915271048
 10
85.36538832498108
 20
127.8027915271048
 10
93.00006946639998
 20
152.4199098115079
 10
93.00006946639998
 20
152.4199098115079
 10
93.00006946639998
 20
152.4199098115079
 10
89.85297266450198
 20
152.4199098115079
 10
89.85297266450198
 20
152.4199098115079
 10
89.85297266450198
 20
152.4199098115079
 10
90.51270888515164
 20
154.9119212747295
 10
90.51270888515164
 20
154.9119212747295
 10
90.51270888515164
 20
154.9119212747295
 10
93.6904670570955
 20
154.9119212747295
 10
93.6904670570955
 20
154.9119212747295
 10
93.6904670570955
 20
154.9119212747295
 10
94.81598049462158
 20
158.3616699146644
 10
94.81598049462158
 20
158.3616699146644
 10
95.7237637538445
 20
161.2605474231013
 10
96.4968436907311
 20
162.8139420021662
 10
97.15657991138076
 20
163.9844139654337
 10
97.81183750494507
 20
165.1523021053827
 10
99.1047826935081
 20
166.3084769129547
 10
100.4504378777679
 20
166.69157178364
 97
        0
 75
     2
 76
     1
 98
        0
  0
SPLINE
  5
6A6
330
6A2
100
AcDbEntity
  8
LOGO
370
     0
100
AcDbSpline
210
0.0
220
0.0
230
1.0
 70
    11
 71
     3
 72
    38
 73
    34
 74
     0
 42
0.000000001
 43
0.0000000001
 40
0.0
 40
0.0
 40
0.0
 40
0.0
 40
1.0
 40
1.0
 40
1.0
 40
2.0
 40
2.0
 40
2.0
 40
3.0
 40
3.0
 40
3.0
 40
4.0
 40
4.0
 40
4.0
 40
5.0
 40
5.0
 40
5.0
 40
6.0
 40
6.0
 40
6.0
 40
7.0
 40
7.0
 40
7.0
 40
8.0
 40
8.0
 40
8.0
 40
9.0
 40
9.0
 40
9.0
 40
10.0
 40
10.0
 40
10.0
 40
11.0
 40
11.0
 40
11.0
 40
11.0
 10
126.377554584636
 20
154.8151140277308
 30
0.0
 10
126.377554584636
 20
154.8151140277308
 30
0.0
 10
128.8311532078563
 20
154.8151140277308
 30
0.0
 10
128.8311532078563
 20
154.8151140277308
 30
0.0
 10
128.8311532078563
 20
154.8151140277308
 30
0.0
 10
127.7345785914971
 20
151.3062819612468
 30
0.0
 10
127.7345785914971
 20
151.3062819612468
 30
0.0
 10
128.571392836906
 20
152.2922689395754
 30
0.0
 10
129.8860421413442
 20
153.604506675583
 30
0.0
 10
131.0163787157314
 20
154.2664822097754
 30
0.0
 10
132.7044766171327
 20
155.2500576196734
 30
0.0
 10
133.6642808525008
 20
155.3847609420097
 30
0.0
 10
134.7284715499351
 20
155.3565111403944
 30
0.0
 10
134.7284715499351
 20
155.3565111403944
 30
0.0
 10
133.6877075172549
 20
152.0345756272799
 30
0.0
 10
133.6877075172549
 20
152.0345756272799
 30
0.0
 10
133.011434827367
 20
152.3184516825359
 30
0.0
 10
130.930940291334
 20
151.7768823149844
 30
0.0
 10
129.739280976855
 20
150.9162968950455
 30
0.0
 10
128.66613302525
 20
150.1454562717016
 30
0.0
 10
127.9192358313239
 20
149.4857200510519
 30
0.0
 10
127.0393578639405
 20
147.8282835196966
 30
0.0
 10
126.164647543194
 20
146.1699857139017
 30
0.0
 10
125.4742499524985
 20
143.5262176944419
 30
0.0
 10
124.2822461282437
 20
139.6959580071401
 30
0.0
 10
124.2822461282437
 20
139.6959580071401
 30
0.0
 10
120.5753209406769
 20
127.8027915271048
 30
0.0
 10
120.5753209406769
 20
127.8027915271048
 30
0.0
 10
120.5753209406769
 20
127.8027915271048
 30
0.0
 10
118.1964809388044
 20
127.8027915271048
 30
0.0
 10
118.1964809388044
 20
127.8027915271048
 30
0.0
 10
118.1964809388044
 20
127.8027915271048
 30
0.0
 10
126.377554584636
 20
154.8151140277308
 30
0.0
 10
126.377554584636
 20
154.8151140277308
 30
0.0
  0
HATCH
  5
6A7
330
6A2
100
AcDbEntity
  8
LOGO
 62
   250
420
  2234388
100
AcDbHatch
 10
0.0
 20
0.0
 30
0.0
210
0.0
220
0.0
230
1.0
  2
SOLID
 70
     1
 71
     0
 91
        1
 92
        1
 93
        1
 72
     4
 94
        3
 73
     0
 74
     1
 95
       38
 96
       34
 40
0.0
 40
0.0
 40
0.0
 40
0.0
 40
1.0
 40
1.0
 40
1.0
 40
2.0
 40
2.0
 40
2.0
 40
3.0
 40
3.0
 40
3.0
 40
4.0
 40
4.0
 40
4.0
 40
5.0
 40
5.0
 40
5.0
 40
6.0
 40
6.0
 40
6.0
 40
7.0
 40
7.0
 40
7.0
 40
8.0
 40
8.0
 40
8.0
 40
9.0
 40
9.0
 40
9.0
 40
10.0
 40
10.0
 40
10.0
 40
11.0
 40
11.0
 40
11.0
 40
11.0
 10
126.377554584636
 20
154.8151140277308
 10
126.377554584636
 20
154.8151140277308
 10
128.8311532078563
 20
154.8151140277308
 10
128.8311532078563
 20
154.8151140277308
 10
128.8311532078563
 20
154.8151140277308
 10
127.7345785914971
 20
151.3062819612468
 10
127.7345785914971
 20
151.3062819612468
 10
128.571392836906
 20
152.2922689395754
 10
129.8860421413442
 20
153.604506675583
 10
131.0163787157314
 20
154.2664822097754
 10
132.7044766171327
 20
155.2500576196734
 10
133.6642808525008
 20
155.3847609420097
 10
134.7284715499351
 20
155.3565111403944
 10
134.7284715499351
 20
155.3565111403944
 10
133.6877075172549
 20
152.0345756272799
 10
133.6877075172549
 20
152.0345756272799
 10
133.011434827367
 20
152.3184516825359
 10
130.930940291334
 20
151.7768823149844
 10
129.739280976855
 20
150.9162968950455
 10
128.66613302525
 20
150.1454562717016
 10
127.9192358313239
 20
149.4857200510519
 10
127.0393578639405
 20
147.8282835196966
 10
126.164647543194
 20
146.1699857139017
 10
125.4742499524985
 20
143.5262176944419
 10
124.2822461282437
 20
139.6959580071401
 10
124.2822461282437
 20
139.6959580071401
 10
120.5753209406769
 20
127.8027915271048
 10
120.5753209406769
 20
127.8027915271048
 10
120.5753209406769
 20
127.8027915271048
 10
118.1964809388044
 20
127.8027915271048
 10
118.1964809388044
 20
127.8027915271048
 10
118.1964809388044
 20
127.8027915271048
 10
126.377554584636
 20
154.8151140277308
 10
126.377554584636
 20
154.8151140277308
 97
        0
 75
     2
 76
     1
 98
        0
  0
SPLINE
  5
6A8
330
6A2
100
AcDbEntity
  8
LOGO
370
     0
100
AcDbSpline
210
0.0
220
0.0
230
1.0
 70
    11
 71
     3
 72
   104
 73
   100
 74
     0
 42
0.000000001
 43
0.0000000001
 40
0.0
 40
0.0
 40
0.0
 40
0.0
 40
1.0
 40
1.0
 40
1.0
 40
2.0
 40
2.0
 40
2.0
 40
3.0
 40
3.0
 40
3.0
 40
4.0
 40
4.0
 40
4.0
 40
5.0
 40
5.0
 40
5.0
 40
6.0
 40
6.0
 40
6.0
 40
7.0
 40
7.0
 40
7.0
 40
8.0
 40
8.0
 40
8.0
 40
9.0
 40
9.0
 40
9.0
 40
10.0
 40
10.0
 40
10.0
 40
11.0
 40
11.0
 40
11.0
 40
12.0
 40
12.0
 40
12.0
 40
13.0
 40
13.0
 40
13.0
 40
14.0
 40
14.0
 40
14.0
 40
15.0
 40
15.0
 40
15.0
 40
16.0
 40
16.0
 40
16.0
 40
17.0
 40
17.0
 40
17.0
 40
18.0
 40
18.0
 40
18.0
 40
19.0
 40
19.0
 40
19.0
 40
20.0
 40
20.0
 40
20.0
 40
21.0
 40
21.0
 40
21.0
 40
22.0
 40
22.0
 40
22.0
 40
23.0
 40
23.0
 40
23.0
 40
24.0
 40
24.0
 40
24.0
 40
25.0
 40
25.0
 40
25.0
 40
26.0
 40
26.0
 40
26.0
 40
27.0
 40
27.0
 40
27.0
 40
28.0
 40
28.0
 40
28.0
 40
29.0
 40
29.0
 40
29.0
 40
30.0
 40
30.0
 40
30.0
 40
31.0
 40
31.0
 40
31.0
 40
32.0
 40
32.0
 40
32.0
 40
33.0
 40
33.0
 40
33.0
 40
33.0
 10
139.8926730891197
 20
154.8294111834263
 30
0.0
 10
139.8926730891197
 20
154.8294111834263
 30
0.0
 10
142.0344903652445
 20
154.8294111834263
 30
0.0
 10
142.0344903652445
 20
154.8294111834263
 30
0.0
 10
142.0344903652445
 20
154.8294111834263
 30
0.0
 10
140.9516961399171
 20
151.3157559800812
 30
0.0
 10
140.9516961399171
 20
151.3157559800812
 30
0.0
 10
141.8928968473923
 20
152.7887075264977
 30
0.0
 10
142.7341897198865
 20
153.4484437471474
 30
0.0
 10
143.8552245303272
 20
154.2926649527359
 30
0.0
 10
144.9803934580775
 20
155.1296514530327
 30
0.0
 10
146.3139908001845
 20
155.3044901642492
 30
0.0
 10
147.241066606852
 20
155.3044901642492
 30
0.0
 10
148.3855280820469
 20
155.3044901642492
 30
0.0
 10
149.4969166187653
 20
155.0752189084569
 30
0.0
 10
150.0784491203092
 20
153.8172414621372
 30
0.0
 10
150.5228667310863
 20
152.833838307127
 30
0.0
 10
150.5414702589793
 20
152.7201500811143
 30
0.0
 10
150.4140016419347
 20
150.7765981809602
 30
0.0
 10
151.5818897818837
 20
152.7699317437168
 30
0.0
 10
152.4424752018226
 20
153.6256940267945
 30
0.0
 10
153.9038856707499
 20
154.4507949398263
 30
0.0
 10
155.4455669174378
 20
155.3044901642492
 30
0.0
 10
156.339225275853
 20
155.3659851592288
 30
0.0
 10
157.3748216618963
 20
155.2147453676543
 30
0.0
 10
158.911679771723
 20
154.9877134254046
 30
0.0
 10
159.8859534176746
 20
154.4390816074493
 30
0.0
 10
160.3965169054045
 20
152.7816450760939
 30
0.0
 10
160.9070803931344
 20
151.1219692311958
 30
0.0
 10
160.6328506116007
 20
150.2303779314354
 30
0.0
 10
159.9992971339115
 20
147.597634224801
 30
0.0
 10
159.7105979417943
 20
146.4014962832367
 30
0.0
 10
159.2947746424084
 20
144.9400858143094
 30
0.0
 10
158.7463150793409
 20
143.2092687007094
 30
0.0
 10
158.7463150793409
 20
143.2092687007094
 30
0.0
 10
153.9038856707499
 20
127.8027915271048
 30
0.0
 10
153.9038856707499
 20
127.8027915271048
 30
0.0
 10
153.9038856707499
 20
127.8027915271048
 30
0.0
 10
151.3882752878863
 20
127.8027915271048
 30
0.0
 10
151.3882752878863
 20
127.8027915271048
 30
0.0
 10
151.3882752878863
 20
127.8027915271048
 30
0.0
 10
155.6250565106276
 20
141.2751908193897
 30
0.0
 10
155.6250565106276
 20
141.2751908193897
 30
0.0
 10
156.5094131050963
 20
144.0936252951782
 30
0.0
 10
157.109893644309
 20
146.1506931664571
 30
0.0
 10
157.4220195011804
 20
147.4415712963654
 30
0.0
 10
157.8095929989511
 20
149.0530157726519
 30
0.0
 10
157.9656559273867
 20
149.5826995529385
 30
0.0
 10
157.7816877071116
 20
150.7529992613181
 30
0.0
 10
157.6111553680925
 20
151.8430281919372
 30
0.0
 10
157.0582171779396
 20
152.5547853887321
 30
0.0
 10
156.1170164704645
 20
152.5547853887321
 30
0.0
 10
155.1096698860365
 20
152.5547853887321
 30
0.0
 10
154.2962823053817
 20
152.4412694176073
 30
0.0
 10
153.156643967048
 20
151.2945686288697
 30
0.0
 10
152.0170056287143
 20
150.1476955852443
 30
0.0
 10
151.076149431015
 20
148.7930831468137
 30
0.0
 10
150.3337308641742
 20
147.2290087646991
 30
0.0
 10
149.5957909244188
 20
145.6683794803425
 30
0.0
 10
148.8530278478023
 20
143.6822806228776
 30
0.0
 10
148.0964843801539
 20
141.2751908193897
 30
0.0
 10
148.0964843801539
 20
141.2751908193897
 30
0.0
 10
143.8552245303272
 20
127.8027915271048
 30
0.0
 10
143.8552245303272
 20
127.8027915271048
 30
0.0
 10
143.8552245303272
 20
127.8027915271048
 30
0.0
 10
141.486030802177
 20
127.8027915271048
 30
0.0
 10
141.486030802177
 20
127.8027915271048
 30
0.0
 10
141.486030802177
 20
127.8027915271048
 30
0.0
 10
146.3329388378533
 20
143.2092687007094
 30
0.0
 10
146.3329388378533
 20
143.2092687007094
 30
0.0
 10
146.8483254624444
 20
144.8408669988801
 30
0.0
 10
147.2314203331297
 20
146.1837661049335
 30
0.0
 10
147.4867020769946
 20
147.224185627838
 30
0.0
 10
147.9169947869641
 20
149.0197705792876
 30
0.0
 10
148.0306830129768
 20
150.2400242051577
 30
0.0
 10
147.709255392159
 20
151.3157559800812
 30
0.0
 10
147.3874832615654
 20
152.3916600098926
 30
0.0
 10
146.8245542879144
 20
152.6683013598569
 30
0.0
 10
145.8840425999909
 20
152.6683013598569
 30
0.0
 10
145.0989048209514
 20
152.6683013598569
 30
0.0
 10
144.3282364524954
 20
152.3275811915945
 30
0.0
 10
143.4531816219731
 20
151.6538923250251
 30
0.0
 10
142.34627171234
 20
150.8074318058939
 30
0.0
 10
141.901854101563
 20
150.1097995099067
 30
0.0
 10
141.3578731655808
 20
149.289521733736
 30
0.0
 10
140.6299240093235
 20
148.192602607601
 30
0.0
 10
140.2850697237515
 20
147.455696197173
 30
0.0
 10
139.6652966370942
 20
145.8385673095858
 30
0.0
 10
139.0506911970739
 20
144.2214384219986
 30
0.0
 10
138.463991048893
 20
142.3252566160164
 30
0.0
 10
138.0571250036777
 20
141.0154304484394
 30
0.0
 10
138.0571250036777
 20
141.0154304484394
 30
0.0
 10
133.9009590684727
 20
127.8027915271048
 30
0.0
 10
133.9009590684727
 20
127.8027915271048
 30
0.0
 10
133.9009590684727
 20
127.8027915271048
 30
0.0
 10
131.4180771143097
 20
127.8027915271048
 30
0.0
 10
131.4180771143097
 20
127.8027915271048
 30
0.0
 10
131.4180771143097
 20
127.8027915271048
 30
0.0
 10
139.8926730891197
 20
154.8294111834263
 30
0.0
 10
139.8926730891197
 20
154.8294111834263
 30
0.0
  0
HATCH
  5
6A9
330
6A2
100
AcDbEntity
  8
LOGO
 62
   250
420
  2234388
100
AcDbHatch
 10
0.0
 20
0.0
 30
0.0
210
0.0
220
0.0
230
1.0
  2
SOLID
 70
     1
 71
     0
 91
        1
 92
        1
 93
        1
 72
     4
 94
        3
 73
     0
 74
     1
 95
      104
 96
      100
 40
0.0
 40
0.0
 40
0.0
 40
0.0
 40
1.0
 40
1.0
 40
1.0
 40
2.0
 40
2.0
 40
2.0
 40
3.0
 40
3.0
 40
3.0
 40
4.0
 40
4.0
 40
4.0
 40
5.0
 40
5.0
 40
5.0
 40
6.0
 40
6.0
 40
6.0
 40
7.0
 40
7.0
 40
7.0
 40
8.0
 40
8.0
 40
8.0
 40
9.0
 40
9.0
 40
9.0
 40
10.0
 40
10.0
 40
10.0
 40
11.0
 40
11.0
 40
11.0
 40
12.0
 40
12.0
 40
12.0
 40
13.0
 40
13.0
 40
13.0
 40
14.0
 40
14.0
 40
14.0
 40
15.0
 40
15.0
 40
15.0
 40
16.0
 40
16.0
 40
16.0
 40
17.0
 40
17.0
 40
17.0
 40
18.0
 40
18.0
 40
18.0
 40
19.0
 40
19.0
 40
19.0
 40
20.0
 40
20.0
 40
20.0
 40
21.0
 40
21.0
 40
21.0
 40
22.0
 40
22.0
 40
22.0
 40
23.0
 40
23.0
 40
23.0
 40
24.0
 40
24.0
 40
24.0
 40
25.0
 40
25.0
 40
25.0
 40
26.0
 40
26.0
 40
26.0
 40
27.0
 40
27.0
 40
27.0
 40
28.0
 40
28.0
 40
28.0
 40
29.0
 40
29.0
 40
29.0
 40
30.0
 40
30.0
 40
30.0
 40
31.0
 40
31.0
 40
31.0
 40
32.0
 40
32.0
 40
32.0
 40
33.0
 40
33.0
 40
33.0
 40
33.0
 10
139.8926730891197
 20
154.8294111834263
 10
139.8926730891197
 20
154.8294111834263
 10
142.0344903652445
 20
154.8294111834263
 10
142.0344903652445
 20
154.8294111834263
 10
142.0344903652445
 20
154.8294111834263
 10
140.9516961399171
 20
151.3157559800812
 10
140.9516961399171
 20
151.3157559800812
 10
141.8928968473923
 20
152.7887075264977
 10
142.7341897198865
 20
153.4484437471474
 10
143.8552245303272
 20
154.2926649527359
 10
144.9803934580775
 20
155.1296514530327
 10
146.3139908001845
 20
155.3044901642492
 10
147.241066606852
 20
155.3044901642492
 10
148.3855280820469
 20
155.3044901642492
 10
149.4969166187653
 20
155.0752189084569
 10
150.0784491203092
 20
153.8172414621372
 10
150.5228667310863
 20
152.833838307127
 10
150.5414702589793
 20
152.7201500811143
 10
150.4140016419347
 20
150.7765981809602
 10
151.5818897818837
 20
152.7699317437168
 10
152.4424752018226
 20
153.6256940267945
 10
153.9038856707499
 20
154.4507949398263
 10
155.4455669174378
 20
155.3044901642492
 10
156.339225275853
 20
155.3659851592288
 10
157.3748216618963
 20
155.2147453676543
 10
158.911679771723
 20
154.9877134254046
 10
159.8859534176746
 20
154.4390816074493
 10
160.3965169054045
 20
152.7816450760939
 10
160.9070803931344
 20
151.1219692311958
 10
160.6328506116007
 20
150.2303779314354
 10
159.9992971339115
 20
147.597634224801
 10
159.7105979417943
 20
146.4014962832367
 10
159.2947746424084
 20
144.9400858143094
 10
158.7463150793409
 20
143.2092687007094
 10
158.7463150793409
 20
143.2092687007094
 10
153.9038856707499
 20
127.8027915271048
 10
153.9038856707499
 20
127.8027915271048
 10
153.9038856707499
 20
127.8027915271048
 10
151.3882752878863
 20
127.8027915271048
 10
151.3882752878863
 20
127.8027915271048
 10
151.3882752878863
 20
127.8027915271048
 10
155.6250565106276
 20
141.2751908193897
 10
155.6250565106276
 20
141.2751908193897
 10
156.5094131050963
 20
144.0936252951782
 10
157.109893644309
 20
146.1506931664571
 10
157.4220195011804
 20
147.4415712963654
 10
157.8095929989511
 20
149.0530157726519
 10
157.9656559273867
 20
149.5826995529385
 10
157.7816877071116
 20
150.7529992613181
 10
157.6111553680925
 20
151.8430281919372
 10
157.0582171779396
 20
152.5547853887321
 10
156.1170164704645
 20
152.5547853887321
 10
155.1096698860365
 20
152.5547853887321
 10
154.2962823053817
 20
152.4412694176073
 10
153.156643967048
 20
151.2945686288697
 10
152.0170056287143
 20
150.1476955852443
 10
151.076149431015
 20
148.7930831468137
 10
150.3337308641742
 20
147.2290087646991
 10
149.5957909244188
 20
145.6683794803425
 10
148.8530278478023
 20
143.6822806228776
 10
148.0964843801539
 20
141.2751908193897
 10
148.0964843801539
 20
141.2751908193897
 10
143.8552245303272
 20
127.8027915271048
 10
143.8552245303272
 20
127.8027915271048
 10
143.8552245303272
 20
127.8027915271048
 10
141.486030802177
 20
127.8027915271048
 10
141.486030802177
 20
127.8027915271048
 10
141.486030802177
 20
127.8027915271048
 10
146.3329388378533
 20
143.2092687007094
 10
146.3329388378533
 20
143.2092687007094
 10
146.8483254624444
 20
144.8408669988801
 10
147.2314203331297
 20
146.1837661049335
 10
147.4867020769946
 20
147.224185627838
 10
147.9169947869641
 20
149.0197705792876
 10
148.0306830129768
 20
150.2400242051577
 10
147.709255392159
 20
151.3157559800812
 10
147.3874832615654
 20
152.3916600098926
 10
146.8245542879144
 20
152.6683013598569
 10
145.8840425999909
 20
152.6683013598569
 10
145.0989048209514
 20
152.6683013598569
 10
144.3282364524954
 20
152.3275811915945
 10
143.4531816219731
 20
151.6538923250251
 10
142.34627171234
 20
150.8074318058939
 10
141.901854101563
 20
150.1097995099067
 10
141.3578731655808
 20
149.289521733736
 10
140.6299240093235
 20
148.192602607601
 10
140.2850697237515
 20
147.455696197173
 10
139.6652966370942
 20
145.8385673095858
 10
139.0506911970739
 20
144.2214384219986
 10
138.463991048893
 20
142.3252566160164
 10
138.0571250036777
 20
141.0154304484394
 10
138.0571250036777
 20
141.0154304484394
 10
133.9009590684727
 20
127.8027915271048
 10
133.9009590684727
 20
127.8027915271048
 10
133.9009590684727
 20
127.8027915271048
 10
131.4180771143097
 20
127.8027915271048
 10
131.4180771143097
 20
127.8027915271048
 10
131.4180771143097
 20
127.8027915271048
 10
139.8926730891197
 20
154.8294111834263
 10
139.8926730891197
 20
154.8294111834263
 97
        0
 75
     2
 76
     1
 98
        0
  0
SPLINE
  5
6AA
330
6A2
100
AcDbEntity
  8
LOGO
370
     0
100
AcDbSpline
210
0.0
220
0.0
230
1.0
 70
    11
 71
     3
 72
    29
 73
    25
 74
     0
 42
0.000000001
 43
0.0000000001
 40
0.0
 40
0.0
 40
0.0
 40
0.0
 40
1.0
 40
1.0
 40
1.0
 40
2.0
 40
2.0
 40
2.0
 40
3.0
 40
3.0
 40
3.0
 40
4.0
 40
4.0
 40
4.0
 40
5.0
 40
5.0
 40
5.0
 40
6.0
 40
6.0
 40
6.0
 40
7.0
 40
7.0
 40
7.0
 40
8.0
 40
8.0
 40
8.0
 40
8.0
 10
101.6420971922469
 20
132.8388354296931
 30
0.0
 10
101.630039350094
 20
134.7164137077823
 30
0.0
 10
102.2236296937908
 20
138.0598810818841
 30
0.0
 10
103.7487744712405
 20
142.5378191476827
 30
0.0
 10
105.819967243327
 20
148.5896501242061
 30
0.0
 10
107.0602024361932
 20
150.8074318058939
 30
0.0
 10
108.1522984254671
 20
151.8833358357054
 30
0.0
 10
109.741177511439
 20
153.4532668840085
 30
0.0
 10
111.8740375333931
 20
153.5290590346837
 30
0.0
 10
112.5075910110823
 20
153.4532668840085
 30
0.0
 10
113.4012493694975
 20
153.3490526768302
 30
0.0
 10
114.6683563248758
 20
152.7580461564518
 30
0.0
 10
114.7493161221879
 20
150.7838328862519
 30
0.0
 10
114.8106388622796
 20
149.0909118479895
 30
0.0
 10
114.3186789024427
 20
145.9191825971221
 30
0.0
 10
112.6164561002338
 20
140.9489400617108
 30
0.0
 10
110.6444821435766
 20
135.1746117095912
 30
0.0
 10
109.4669477299053
 20
132.8960240524753
 30
0.0
 10
108.5212683953448
 20
131.9072809959403
 30
0.0
 10
106.7346406980658
 20
130.0538184021569
 30
0.0
 10
104.8222669326213
 20
130.2336525051225
 30
0.0
 10
104.5408024457958
 20
130.2336525051225
 30
0.0
 10
104.1721769856939
 20
130.2336525051225
 30
0.0
 10
101.6465758193322
 20
130.6305277668397
 30
0.0
 10
101.6420971922469
 20
132.8388354296931
 30
0.0
  0
SPLINE
  5
6AB
330
6A2
100
AcDbEntity
  8
LOGO
370
     0
100
AcDbSpline
210
0.0
220
0.0
230
1.0
 70
    11
 71
     3
 72
    32
 73
    28
 74
     0
 42
0.000000001
 43
0.0000000001
 40
0.0
 40
0.0
 40
0.0
 40
0.0
 40
1.0
 40
1.0
 40
1.0
 40
2.0
 40
2.0
 40
2.0
 40
3.0
 40
3.0
 40
3.0
 40
4.0
 40
4.0
 40
4.0
 40
5.0
 40
5.0
 40
5.0
 40
6.0
 40
6.0
 40
6.0
 40
7.0
 40
7.0
 40
7.0
 40
8.0
 40
8.0
 40
8.0
 40
9.0
 40
9.0
 40
9.0
 40
9.0
 10
106.2595617172429
 20
153.4105476718098
 30
0.0
 10
104.8222669326213
 20
151.5474388043041
 30
0.0
 10
103.7177685914188
 20
149.8758773721411
 30
0.0
 10
101.9232171692965
 20
144.6141795664062
 30
0.0
 10
100.2754269116635
 20
139.7999999594306
 30
0.0
 10
99.22777268346732
 20
136.3052927937542
 30
0.0
 10
99.06964269637689
 20
132.039572749846
 30
0.0
 10
98.94665270641765
 20
128.8673267343149
 30
0.0
 10
100.8807305877373
 20
127.8027915271048
 30
0.0
 10
103.7129454545577
 20
127.8027915271048
 30
0.0
 10
104.9352661390825
 20
127.8027915271048
 30
0.0
 10
108.0151835347002
 20
127.8827177950895
 30
0.0
 10
110.2045431598849
 20
130.5926316915021
 30
0.0
 10
111.7417457794874
 20
132.4984597712065
 30
0.0
 10
113.155269389579
 20
134.475256864725
 30
0.0
 10
115.0562743324223
 20
140.9489400617108
 30
0.0
 10
116.6361961642235
 20
146.3680788349845
 30
0.0
 10
117.7282921534974
 20
149.8639917848761
 30
0.0
 10
117.6480213757369
 20
151.8595646611754
 30
0.0
 10
117.6480213757369
 20
151.8595646611754
 30
0.0
 10
117.6480213757369
 20
151.8595646611754
 30
0.0
 10
117.6480213757369
 20
151.8595646611754
 30
0.0
 10
117.13229024137
 20
155.18150017429
 30
0.0
 10
114.7162431837115
 20
155.886194920681
 30
0.0
 10
113.3351034925446
 20
155.886194920681
 30
0.0
 10
111.9829026225447
 20
155.886194920681
 30
0.0
 10
108.3414342923792
 20
156.1251124501957
 30
0.0
 10
106.2595617172429
 20
153.4105476718098
 30
0.0
  0
HATCH
  5
6AC
330
6A2
100
AcDbEntity
  8
LOGO
 62
   250
420
  2234388
100
AcDbHatch
 10
0.0
 20
0.0
 30
0.0
210
0.0
220
0.0
230
1.0
  2
SOLID
 70
     1
 71
     0
 91
        2
 92
        1
 93
        1
 72
     4
 94
        3
 73
     0
 74
     1
 95
       29
 96
       25
 40
0.0
 40
0.0
 40
0.0
 40
0.0
 40
1.0
 40
1.0
 40
1.0
 40
2.0
 40
2.0
 40
2.0
 40
3.0
 40
3.0
 40
3.0
 40
4.0
 40
4.0
 40
4.0
 40
5.0
 40
5.0
 40
5.0
 40
6.0
 40
6.0
 40
6.0
 40
7.0
 40
7.0
 40
7.0
 40
8.0
 40
8.0
 40
8.0
 40
8.0
 10
101.6420971922469
 20
132.8388354296931
 10
101.630039350094
 20
134.7164137077823
 10
102.2236296937908
 20
138.0598810818841
 10
103.7487744712405
 20
142.5378191476827
 10
105.819967243327
 20
148.5896501242061
 10
107.0602024361932
 20
150.8074318058939
 10
108.1522984254671
 20
151.8833358357054
 10
109.741177511439
 20
153.4532668840085
 10
111.8740375333931
 20
153.5290590346837
 10
112.5075910110823
 20
153.4532668840085
 10
113.4012493694975
 20
153.3490526768302
 10
114.6683563248758
 20
152.7580461564518
 10
114.7493161221879
 20
150.7838328862519
 10
114.8106388622796
 20
149.0909118479895
 10
114.3186789024427
 20
145.9191825971221
 10
112.6164561002338
 20
140.9489400617108
 10
110.6444821435766
 20
135.1746117095912
 10
109.4669477299053
 20
132.8960240524753
 10
108.5212683953448
 20
131.9072809959403
 10
106.7346406980658
 20
130.0538184021569
 10
104.8222669326213
 20
130.2336525051225
 10
104.5408024457958
 20
130.2336525051225
 10
104.1721769856939
 20
130.2336525051225
 10
101.6465758193322
 20
130.6305277668397
 10
101.6420971922469
 20
132.8388354296931
 97
        0
 92
        1
 93
        1
 72
     4
 94
        3
 73
     0
 74
     1
 95
       32
 96
       28
 40
0.0
 40
0.0
 40
0.0
 40
0.0
 40
1.0
 40
1.0
 40
1.0
 40
2.0
 40
2.0
 40
2.0
 40
3.0
 40
3.0
 40
3.0
 40
4.0
 40
4.0
 40
4.0
 40
5.0
 40
5.0
 40
5.0
 40
6.0
 40
6.0
 40
6.0
 40
7.0
 40
7.0
 40
7.0
 40
8.0
 40
8.0
 40
8.0
 40
9.0
 40
9.0
 40
9.0
 40
9.0
 10
106.2595617172429
 20
153.4105476718098
 10
104.8222669326213
 20
151.5474388043041
 10
103.7177685914188
 20
149.8758773721411
 10
101.9232171692965
 20
144.6141795664062
 10
100.2754269116635
 20
139.7999999594306
 10
99.22777268346732
 20
136.3052927937542
 10
99.06964269637689
 20
132.039572749846
 10
98.94665270641765
 20
128.8673267343149
 10
100.8807305877373
 20
127.8027915271048
 10
103.7129454545577
 20
127.8027915271048
 10
104.9352661390825
 20
127.8027915271048
 10
108.0151835347002
 20
127.8827177950895
 10
110.2045431598849
 20
130.5926316915021
 10
111.7417457794874
 20
132.4984597712065
 10
113.155269389579
 20
134.475256864725
 10
115.0562743324223
 20
140.9489400617108
 10
116.6361961642235
 20
146.3680788349845
 10
117.7282921534974
 20
149.8639917848761
 10
117.6480213757369
 20
151.8595646611754
 10
117.6480213757369
 20
151.8595646611754
 10
117.6480213757369
 20
151.8595646611754
 10
117.6480213757369
 20
151.8595646611754
 10
117.13229024137
 20
155.18150017429
 10
114.7162431837115
 20
155.886194920681
 10
113.3351034925446
 20
155.886194920681
 10
111.9829026225447
 20
155.886194920681
 10
108.3414342923792
 20
156.1251124501957
 10
106.2595617172429
 20
153.4105476718098
 97
        0
 75
     2
 76
     1
 98
        0
  0
ENDBLK
  5
6AD
330
6A2
100
AcDbEntity
  8
0
100
AcDbBlockEnd
  0
BLOCK
  5
39E3
330
39E2
100
AcDbEntity
  8
0
100
AcDbBlockBegin
  2
*D6
 70
     1
 10
0.0
 20
0.0
 30
0.0
  3
*D6
  1
*D98
  0
LINE
  5
39E5
330
39E2
100
AcDbEntity
  8
DIM
 62
     0
370
    -2
100
AcDbLine
 10
-293.7615083859627
 20
441.3282771353843
 30
0.0
 11
-345.0614823370526
 21
441.328277135384
 31
0.0
  0
LINE
  5
39E6
330
39E2
100
AcDbEntity
  8
DIM
 62
     0
370
    -2
100
AcDbLine
 10
-324.7615083859627
 20
312.1244566450241
 30
0.0
 11
-345.0614823370522
 21
312.124456645024
 31
0.0
  0
LINE
  5
39E7
330
39E2
100
AcDbEntity
  8
DIM
 62
     0
370
    -2
100
AcDbLine
 10
-345.0614823370526
 20
439.328277135384
 30
0.0
 11
-345.0614823370522
 21
314.124456645024
 31
0.0
  0
INSERT
  5
39E8
330
39E2
100
AcDbEntity
  8
DIM
 62
     0
370
    -2
100
AcDbBlockReference
  2
_DOT
 10
-345.0614823370526
 20
441.328277135384
 30
0.0
 41
2.0
 42
2.0
 43
2.0
 50
90.0000000000002
  0
INSERT
  5
39E9
330
39E2
100
AcDbEntity
  8
DIM
 62
     0
370
    -2
100
AcDbBlockReference
  2
_DOT
 10
-345.0614823370522
 20
312.124456645024
 30
0.0
 41
2.0
 42
2.0
 43
2.0
 50
270.0000000000002
  0
MTEXT
  5
39EA
330
39E2
100
AcDbEntity
  8
DIM
 62
     0
 48
0.05
100
AcDbMText
 10
-352.0614823370524
 20
376.7263668902042
 30
0.0
 40
5.0
 41
0.0
 46
0.0
 71
     2
 72
     1
  1
\A1;129
  7
ＭＳ ゴシック
 11
-3.519612261933021E-15
 21
1.0
 31
0.0
 73
     1
 44
1.0
  0
POINT
  5
39EB
330
39E2
100
AcDbEntity
  8
Defpoints
 62
     0
100
AcDbPoint
 10
-288.7615083859627
 20
441.3282771353843
 30
0.0
  0
POINT
  5
39EC
330
39E2
100
AcDbEntity
  8
Defpoints
 62
     0
100
AcDbPoint
 10
-319.7615083859627
 20
312.1244566450241
 30
0.0
  0
POINT
  5
39ED
330
39E2
100
AcDbEntity
  8
Defpoints
 62
     0
100
AcDbPoint
 10
-345.0614823370522
 20
312.124456645024
 30
0.0
  0
ENDBLK
  5
39E4
330
39E2
100
AcDbEntity
  8
0
100
AcDbBlockEnd
  0
BLOCK
  5
39EF
330
39EE
100
AcDbEntity
  8
0
100
AcDbBlockBegin
  2
*D7
 70
     1
 10
0.0
 20
0.0
 30
0.0
  3
*D7
  1
*D99
  0
LINE
  5
39F1
330
39EE
100
AcDbEntity
  8
DIM
 62
     0
370
    -2
100
AcDbLine
 10
-324.7615083859627
 20
311.5571559021581
 30
0.0
 11
-324.7615083859627
 21
291.9321087620858
 31
0.0
  0
LINE
  5
39F2
330
39EE
100
AcDbEntity
  8
DIM
 62
     0
370
    -2
100
AcDbLine
 10
-199.7615083859627
 20
311.5571559021582
 30
0.0
 11
-199.7615083859627
 21
291.9321087620858
 31
0.0
  0
LINE
  5
39F3
330
39EE
100
AcDbEntity
  8
DIM
 62
     0
370
    -2
100
AcDbLine
 10
-322.7615083859627
 20
291.9321087620858
 30
0.0
 11
-201.7615083859627
 21
291.9321087620858
 31
0.0
  0
INSERT
  5
39F4
330
39EE
100
AcDbEntity
  8
DIM
 62
     0
370
    -2
100
AcDbBlockReference
  2
_DOT
 10
-324.7615083859627
 20
291.9321087620858
 30
0.0
 41
2.0
 42
2.0
 43
2.0
 50
180.0
  0
INSERT
  5
39F5
330
39EE
100
AcDbEntity
  8
DIM
 62
     0
370
    -2
100
AcDbBlockReference
  2
_DOT
 10
-199.7615083859627
 20
291.9321087620858
 30
0.0
 41
2.0
 42
2.0
 43
2.0
  0
MTEXT
  5
39F6
330
39EE
100
AcDbEntity
  8
DIM
 62
     0
 48
0.05
100
AcDbMText
 10
-262.2615083859627
 20
298.9321087620858
 30
0.0
 40
5.0
 41
0.0
 46
0.0
 71
     2
 72
     1
  1
\A1;125
  7
ＭＳ ゴシック
 73
     1
 44
1.0
  0
POINT
  5
39F7
330
39EE
100
AcDbEntity
  8
Defpoints
 62
     0
100
AcDbPoint
 10
-324.7615083859627
 20
316.5571559021581
 30
0.0
  0
POINT
  5
39F8
330
39EE
100
AcDbEntity
  8
Defpoints
 62
     0
100
AcDbPoint
 10
-199.7615083859627
 20
316.5571559021582
 30
0.0
  0
POINT
  5
39F9
330
39EE
100
AcDbEntity
  8
Defpoints
 62
     0
100
AcDbPoint
 10
-199.7615083859627
 20
291.9321087620858
 30
0.0
  0
ENDBLK
  5
39F0
330
39EE
100
AcDbEntity
  8
0
100
AcDbBlockEnd
  0
BLOCK
  5
39FB
330
39FA
100
AcDbEntity
  8
0
100
AcDbBlockBegin
  2
*D8
 70
     1
 10
0.0
 20
0.0
 30
0.0
  3
*D8
  1
*D100
  0
LINE
  5
39FD
330
39FA
100
AcDbEntity
  8
DIM
 62
     0
370
    -2
100
AcDbLine
 10
-235.7615083859627
 20
446.3282771353843
 30
0.0
 11
-235.7615083859627
 21
458.2370304717419
 31
0.0
  0
LINE
  5
39FE
330
39FA
100
AcDbEntity
  8
DIM
 62
     0
370
    -2
100
AcDbLine
 10
-288.7615083859627
 20
446.3282771353843
 30
0.0
 11
-288.7615083859627
 21
458.2370304717419
 31
0.0
  0
LINE
  5
39FF
330
39FA
100
AcDbEntity
  8
DIM
 62
     0
370
    -2
100
AcDbLine
 10
-237.7615083859627
 20
458.2370304717419
 30
0.0
 11
-286.7615083859627
 21
458.2370304717419
 31
0.0
  0
INSERT
  5
3A00
330
39FA
100
AcDbEntity
  8
DIM
 62
     0
370
    -2
100
AcDbBlockReference
  2
_DOT
 10
-235.7615083859627
 20
458.2370304717419
 30
0.0
 41
2.0
 42
2.0
 43
2.0
  0
INSERT
  5
3A01
330
39FA
100
AcDbEntity
  8
DIM
 62
     0
370
    -2
100
AcDbBlockReference
  2
_DOT
 10
-288.7615083859627
 20
458.2370304717419
 30
0.0
 41
2.0
 42
2.0
 43
2.0
 50
180.0
  0
MTEXT
  5
3A02
330
39FA
100
AcDbEntity
  8
DIM
 62
     0
 48
0.05
100
AcDbMText
 10
-262.2615083859627
 20
465.2370304717419
 30
0.0
 40
5.0
 41
0.0
 46
0.0
 71
     2
 72
     1
  1
\A1;53
  7
ＭＳ ゴシック
 73
     1
 44
1.0
  0
POINT
  5
3A03
330
39FA
100
AcDbEntity
  8
Defpoints
 62
     0
100
AcDbPoint
 10
-235.7615083859627
 20
441.3282771353843
 30
0.0
  0
POINT
  5
3A04
330
39FA
100
AcDbEntity
  8
Defpoints
 62
     0
100
AcDbPoint
 10
-288.7615083859627
 20
441.3282771353843
 30
0.0
  0
POINT
  5
3A05
330
39FA
100
AcDbEntity
  8
Defpoints
 62
     0
100
AcDbPoint
 10
-288.7615083859627
 20
458.2370304717419
 30
0.0
  0
ENDBLK
  5
39FC
330
39FA
100
AcDbEntity
  8
0
100
AcDbBlockEnd
  0
BLOCK
  5
3ABB
330
3ABA
100
AcDbEntity
  8
0
100
AcDbBlockBegin
  2
*D9
 70
     1
 10
0.0
 20
0.0
 30
0.0
  3
*D9
  1
*D103
  0
LINE
  5
3ABD
330
3ABA
100
AcDbEntity
  8
DIM
 62
     0
370
    -2
100
AcDbLine
 10
-49.93992225873922
 20
446.0794090617831
 30
0.0
 11
-49.93992225873922
 21
458.2370304717419
 31
0.0
  0
LINE
  5
3ABE
330
3ABA
100
AcDbEntity
  8
DIM
 62
     0
370
    -2
100
AcDbLine
 10
-125.6039447519327
 20
375.69892201093
 30
0.0
 11
-125.6039447519327
 21
458.2370304717419
 31
0.0
  0
LINE
  5
3ABF
330
3ABA
100
AcDbEntity
  8
DIM
 62
     0
370
    -2
100
AcDbLine
 10
-51.93992225873922
 20
458.2370304717419
 30
0.0
 11
-123.6039447519327
 21
458.2370304717419
 31
0.0
  0
INSERT
  5
3AC0
330
3ABA
100
AcDbEntity
  8
DIM
 62
     0
370
    -2
100
AcDbBlockReference
  2
_DOT
 10
-49.93992225873922
 20
458.2370304717419
 30
0.0
 41
2.0
 42
2.0
 43
2.0
  0
INSERT
  5
3AC1
330
3ABA
100
AcDbEntity
  8
DIM
 62
     0
370
    -2
100
AcDbBlockReference
  2
_DOT
 10
-125.6039447519327
 20
458.2370304717419
 30
0.0
 41
2.0
 42
2.0
 43
2.0
 50
180.0
  0
MTEXT
  5
3AC2
330
3ABA
100
AcDbEntity
  8
DIM
 62
     0
 48
0.05
100
AcDbMText
 10
-87.77193350533594
 20
465.2370304717419
 30
0.0
 40
5.0
 41
0.0
 46
0.0
 71
     2
 72
     1
  1
\A1;76
  7
ＭＳ ゴシック
 73
     1
 44
1.0
  0
POINT
  5
3AC3
330
3ABA
100
AcDbEntity
  8
Defpoints
 62
     0
100
AcDbPoint
 10
-49.93992225873922
 20
441.0794090617831
 30
0.0
  0
POINT
  5
3AC4
330
3ABA
100
AcDbEntity
  8
Defpoints
 62
     0
100
AcDbPoint
 10
-125.6039447519327
 20
370.69892201093
 30
0.0
  0
POINT
  5
3AC5
330
3ABA
100
AcDbEntity
  8
Defpoints
 62
     0
100
AcDbPoint
 10
-125.6039447519327
 20
458.2370304717419
 30
0.0
  0
ENDBLK
  5
3ABC
330
3ABA
100
AcDbEntity
  8
0
100
AcDbBlockEnd
  0
BLOCK
  5
3AE8
330
3AE7
100
AcDbEntity
  8
0
100
AcDbBlockBegin
  2
*D10
 70
     1
 10
0.0
 20
0.0
 30
0.0
  3
*D10
  1
*D104
  0
LINE
  5
3AEA
330
3AE7
100
AcDbEntity
  8
DIM
 62
     0
 48
0.05
370
    -2
100
AcDbLine
 10
-44.93992247400956
 20
441.3282763564007
 30
0.0
 11
-26.43959559641581
 21
441.3282763564007
 31
0.0
  0
LINE
  5
3AEB
330
3AE7
100
AcDbEntity
  8
DIM
 62
     0
 48
0.05
370
    -2
100
AcDbLine
 10
-44.93992247400956
 20
388.3282769822495
 30
0.0
 11
-26.43959559641581
 21
388.3282769822495
 31
0.0
  0
LINE
  5
3AEC
330
3AE7
100
AcDbEntity
  8
DIM
 62
     0
 48
0.05
370
    -2
100
AcDbLine
 10
-26.43959559641581
 20
439.3282763564007
 30
0.0
 11
-26.43959559641581
 21
390.3282769822495
 31
0.0
  0
INSERT
  5
3AED
330
3AE7
100
AcDbEntity
  8
DIM
 62
     0
370
    -2
100
AcDbBlockReference
  2
_DOT
 10
-26.43959559641581
 20
441.3282763564007
 30
0.0
 41
2.0
 42
2.0
 43
2.0
 50
90.0
  0
INSERT
  5
3AEE
330
3AE7
100
AcDbEntity
  8
DIM
 62
     0
370
    -2
100
AcDbBlockReference
  2
_DOT
 10
-26.43959559641581
 20
388.3282769822495
 30
0.0
 41
2.0
 42
2.0
 43
2.0
 50
270.0
  0
MTEXT
  5
3AEF
330
3AE7
100
AcDbEntity
  8
DIM
 62
     0
 48
0.05
100
AcDbMText
 10
-30.93959559641581
 20
414.8282766693251
 30
0.0
 40
5.0
 41
0.0
 46
0.0
 71
     5
 72
     1
  1
\A1;53
  7
ＭＳ ゴシック
 11
6.703233435382273E-17
 21
1.0
 31
0.0
 73
     1
 44
1.0
  0
POINT
  5
3AF0
330
3AE7
100
AcDbEntity
  8
Defpoints
 62
     0
100
AcDbPoint
 10
-49.93992247400956
 20
441.3282763564007
 30
0.0
  0
POINT
  5
3AF1
330
3AE7
100
AcDbEntity
  8
Defpoints
 62
     0
100
AcDbPoint
 10
-49.93992247400956
 20
388.3282769822495
 30
0.0
  0
POINT
  5
3AF2
330
3AE7
100
AcDbEntity
  8
Defpoints
 62
     0
100
AcDbPoint
 10
-26.43959559641581
 20
388.3282769822495
 30
0.0
  0
ENDBLK
  5
3AE9
330
3AE7
100
AcDbEntity
  8
0
100
AcDbBlockEnd
  0
BLOCK
  5
3D32
330
3D31
100
AcDbEntity
  8
0
100
AcDbBlockBegin
  2
*D11
 70
     1
 10
0.0
 20
0.0
 30
0.0
  3
*D11
  1
*D115
  0
LINE
  5
3D34
330
3D31
100
AcDbEntity
  8
DIM
 62
     0
370
    -2
100
AcDbLine
 10
53.79232036240001
 20
294.591964154549
 30
0.0
 11
38.79232036239987
 21
294.5919641545489
 31
0.0
  0
LINE
  5
3D35
330
3D31
100
AcDbEntity
  8
DIM
 62
     0
370
    -2
100
AcDbLine
 10
64.7923203624
 20
214.341964154549
 30
0.0
 11
38.79232036240015
 21
214.3419641545489
 31
0.0
  0
LINE
  5
3D36
330
3D31
100
AcDbEntity
  8
DIM
 62
     0
370
    -2
100
AcDbLine
 10
38.79232036239988
 20
292.5919641545489
 30
0.0
 11
38.79232036240014
 21
216.3419641545489
 31
0.0
  0
INSERT
  5
3D37
330
3D31
100
AcDbEntity
  8
DIM
 62
     0
370
    -2
100
AcDbBlockReference
  2
_DOT
 10
38.79232036239987
 20
294.5919641545489
 30
0.0
 41
2.0
 42
2.0
 43
2.0
 50
90.0000000000002
  0
INSERT
  5
3D38
330
3D31
100
AcDbEntity
  8
DIM
 62
     0
370
    -2
100
AcDbBlockReference
  2
_DOT
 10
38.79232036240015
 20
214.3419641545489
 30
0.0
 41
2.0
 42
2.0
 43
2.0
 50
270.0000000000002
  0
MTEXT
  5
3D39
330
3D31
100
AcDbEntity
  8
DIM
 62
     0
 48
0.05
100
AcDbMText
 10
31.79232036240001
 20
256.0755129008112
 30
0.0
 40
5.0
 41
0.0
 46
0.0
 71
     2
 72
     1
  1
\A1;80
  7
ＭＳ ゴシック
 11
-3.453104884067774E-15
 21
1.0
 31
0.0
 73
     1
 44
1.0
  0
POINT
  5
3D3A
330
3D31
100
AcDbEntity
  8
Defpoints
 62
     0
100
AcDbPoint
 10
58.79232036240001
 20
294.591964154549
 30
0.0
  0
POINT
  5
3D3B
330
3D31
100
AcDbEntity
  8
Defpoints
 62
     0
100
AcDbPoint
 10
69.7923203624
 20
214.341964154549
 30
0.0
  0
POINT
  5
3D3C
330
3D31
100
AcDbEntity
  8
Defpoints
 62
     0
100
AcDbPoint
 10
38.79232036240018
 20
214.3419641545489
 30
0.0
  0
ENDBLK
  5
3D33
330
3D31
100
AcDbEntity
  8
0
100
AcDbBlockEnd
  0
BLOCK
  5
3D3E
330
3D3D
100
AcDbEntity
  8
0
100
AcDbBlockBegin
  2
*D12
 70
     1
 10
0.0
 20
0.0
 30
0.0
  3
*D12
  1
*D116
  0
LINE
  5
3D40
330
3D3D
100
AcDbEntity
  8
DIM
 62
     0
370
    -2
100
AcDbLine
 10
135.2923203624
 20
284.341964154549
 30
0.0
 11
152.9765457971003
 21
284.341964154549
 31
0.0
  0
LINE
  5
3D41
330
3D3D
100
AcDbEntity
  8
DIM
 62
     0
370
    -2
100
AcDbLine
 10
135.7923203624
 20
294.591964154549
 30
0.0
 11
152.9765457971002
 21
294.591964154549
 31
0.0
  0
LINE
  5
3D42
330
3D3D
100
AcDbEntity
  8
DIM
 62
     0
370
    -2
100
AcDbLine
 10
152.9765457971003
 20
286.341964154549
 30
0.0
 11
152.9765457971002
 21
292.591964154549
 31
0.0
  0
INSERT
  5
3D43
330
3D3D
100
AcDbEntity
  8
DIM
 62
     0
370
    -2
100
AcDbBlockReference
  2
_DOT
 10
152.9765457971003
 20
284.341964154549
 30
0.0
 41
2.0
 42
2.0
 43
2.0
 50
270.0000000000002
  0
INSERT
  5
3D44
330
3D3D
100
AcDbEntity
  8
DIM
 62
     0
370
    -2
100
AcDbBlockReference
  2
_DOT
 10
152.9765457971002
 20
294.591964154549
 30
0.0
 41
2.0
 42
2.0
 43
2.0
 50
90.00000000000016
  0
MTEXT
  5
3D45
330
3D3D
100
AcDbEntity
  8
DIM
 62
     0
 48
0.05
100
AcDbMText
 10
145.9765457971002
 20
289.5088873085332
 30
0.0
 40
5.0
 41
0.0
 46
0.0
 71
     2
 72
     1
  1
\A1;10
  7
ＭＳ ゴシック
 11
-2.772849700527220E-15
 21
1.0
 31
0.0
 73
     1
 44
1.0
  0
POINT
  5
3D46
330
3D3D
100
AcDbEntity
  8
Defpoints
 62
     0
100
AcDbPoint
 10
130.2923203624
 20
284.341964154549
 30
0.0
  0
POINT
  5
3D47
330
3D3D
100
AcDbEntity
  8
Defpoints
 62
     0
100
AcDbPoint
 10
130.7923203624
 20
294.591964154549
 30
0.0
  0
POINT
  5
3D48
330
3D3D
100
AcDbEntity
  8
Defpoints
 62
     0
100
AcDbPoint
 10
152.9765457971002
 20
294.591964154549
 30
0.0
  0
ENDBLK
  5
3D3F
330
3D3D
100
AcDbEntity
  8
0
100
AcDbBlockEnd
  0
BLOCK
  5
3D4B
330
3D4A
100
AcDbEntity
  8
0
100
AcDbBlockBegin
  2
*D13
 70
     1
 10
0.0
 20
0.0
 30
0.0
  3
*D13
  1
*D117
  0
LINE
  5
3D4D
330
3D4A
100
AcDbEntity
  8
DIM
 62
     0
370
    -2
100
AcDbLine
 10
244.7923203624
 20
236.3419641545489
 30
0.0
 11
264.3964517208358
 21
236.3419641545489
 31
0.0
  0
LINE
  5
3D4E
330
3D4A
100
AcDbEntity
  8
DIM
 62
     0
370
    -2
100
AcDbLine
 10
244.7923203624
 20
214.341964154549
 30
0.0
 11
264.3964517208358
 21
214.3419641545491
 31
0.0
  0
LINE
  5
3D4F
330
3D4A
100
AcDbEntity
  8
DIM
 62
     0
370
    -2
100
AcDbLine
 10
264.3964517208358
 20
234.3419641545489
 30
0.0
 11
264.3964517208358
 21
216.3419641545491
 31
0.0
  0
INSERT
  5
3D50
330
3D4A
100
AcDbEntity
  8
DIM
 62
     0
370
    -2
100
AcDbBlockReference
  2
_DOT
 10
264.3964517208358
 20
236.3419641545489
 30
0.0
 41
2.0
 42
2.0
 43
2.0
 50
90.00000000000016
  0
INSERT
  5
3D51
330
3D4A
100
AcDbEntity
  8
DIM
 62
     0
370
    -2
100
AcDbBlockReference
  2
_DOT
 10
264.3964517208358
 20
214.3419641545491
 30
0.0
 41
2.0
 42
2.0
 43
2.0
 50
270.0000000000002
  0
MTEXT
  5
3D52
330
3D4A
100
AcDbEntity
  8
DIM
 62
     0
 48
0.05
100
AcDbMText
 10
257.3964517208358
 20
225.4246629398198
 30
0.0
 40
5.0
 41
0.0
 46
0.0
 71
     2
 72
     1
  1
\A1;22
  7
ＭＳ ゴシック
 11
-2.583791766400378E-15
 21
1.0
 31
0.0
 73
     1
 44
1.0
  0
POINT
  5
3D53
330
3D4A
100
AcDbEntity
  8
Defpoints
 62
     0
100
AcDbPoint
 10
239.7923203624
 20
236.3419641545489
 30
0.0
  0
POINT
  5
3D54
330
3D4A
100
AcDbEntity
  8
Defpoints
 62
     0
100
AcDbPoint
 10
239.7923203624
 20
214.341964154549
 30
0.0
  0
POINT
  5
3D55
330
3D4A
100
AcDbEntity
  8
Defpoints
 62
     0
100
AcDbPoint
 10
264.3964517208359
 20
214.3419641545491
 30
0.0
  0
ENDBLK
  5
3D4C
330
3D4A
100
AcDbEntity
  8
0
100
AcDbBlockEnd
  0
BLOCK
  5
3D57
330
3D56
100
AcDbEntity
  8
0
100
AcDbBlockBegin
  2
*D14
 70
     1
 10
0.0
 20
0.0
 30
0.0
  3
*D14
  1
*D118
  0
LINE
  5
3D59
330
3D56
100
AcDbEntity
  8
DIM
 62
     0
370
    -2
100
AcDbLine
 10
-356.9588514914565
 20
365.9339077284096
 30
0.0
 11
-356.9588514914565
 21
348.6669622511874
 31
0.0
  0
LINE
  5
3D5A
330
3D56
100
AcDbEntity
  8
DIM
 62
     0
370
    -2
100
AcDbLine
 10
-335.9588514914565
 20
365.9339077284096
 30
0.0
 11
-335.9588514914565
 21
348.6669622511874
 31
0.0
  0
LINE
  5
3D5B
330
3D56
100
AcDbEntity
  8
DIM
 62
     0
370
    -2
100
AcDbLine
 10
-354.9588514914565
 20
348.6669622511874
 30
0.0
 11
-337.9588514914565
 21
348.6669622511874
 31
0.0
  0
INSERT
  5
3D5C
330
3D56
100
AcDbEntity
  8
DIM
 62
     0
370
    -2
100
AcDbBlockReference
  2
_DOT
 10
-356.9588514914565
 20
348.6669622511874
 30
0.0
 41
2.0
 42
2.0
 43
2.0
 50
180.0
  0
INSERT
  5
3D5D
330
3D56
100
AcDbEntity
  8
DIM
 62
     0
370
    -2
100
AcDbBlockReference
  2
_DOT
 10
-335.9588514914565
 20
348.6669622511874
 30
0.0
 41
2.0
 42
2.0
 43
2.0
  0
MTEXT
  5
3D5E
330
3D56
100
AcDbEntity
  8
DIM
 62
     0
 48
0.05
100
AcDbMText
 10
-346.4588514914565
 20
355.6669622511874
 30
0.0
 40
5.0
 41
0.0
 46
0.0
 71
     2
 72
     1
  1
\A1;21
  7
ＭＳ ゴシック
 73
     1
 44
1.0
  0
POINT
  5
3D5F
330
3D56
100
AcDbEntity
  8
Defpoints
 62
     0
100
AcDbPoint
 10
-356.9588514914565
 20
370.9339077284096
 30
0.0
  0
POINT
  5
3D60
330
3D56
100
AcDbEntity
  8
Defpoints
 62
     0
100
AcDbPoint
 10
-335.9588514914565
 20
370.9339077284096
 30
0.0
  0
POINT
  5
3D61
330
3D56
100
AcDbEntity
  8
Defpoints
 62
     0
100
AcDbPoint
 10
-335.9588514914565
 20
348.6669622511874
 30
0.0
  0
ENDBLK
  5
3D58
330
3D56
100
AcDbEntity
  8
0
100
AcDbBlockEnd
  0
BLOCK
  5
3D63
330
3D62
100
AcDbEntity
  8
0
100
AcDbBlockBegin
  2
*D15
 70
     1
 10
0.0
 20
0.0
 30
0.0
  3
*D15
  1
*D119
  0
LINE
  5
3D65
330
3D62
100
AcDbEntity
  8
DIM
 62
     0
370
    -2
100
AcDbLine
 10
-382.4588514914565
 20
395.1590706118434
 30
0.0
 11
-382.4588514914565
 21
405.4789913798658
 31
0.0
  0
LINE
  5
3D66
330
3D62
100
AcDbEntity
  8
DIM
 62
     0
370
    -2
100
AcDbLine
 10
-310.4588514914565
 20
395.1590706118434
 30
0.0
 11
-310.4588514914565
 21
405.4789913798658
 31
0.0
  0
LINE
  5
3D67
330
3D62
100
AcDbEntity
  8
DIM
 62
     0
370
    -2
100
AcDbLine
 10
-380.4588514914565
 20
405.4789913798658
 30
0.0
 11
-312.4588514914565
 21
405.4789913798658
 31
0.0
  0
INSERT
  5
3D68
330
3D62
100
AcDbEntity
  8
DIM
 62
     0
370
    -2
100
AcDbBlockReference
  2
_DOT
 10
-382.4588514914565
 20
405.4789913798658
 30
0.0
 41
2.0
 42
2.0
 43
2.0
 50
180.0
  0
INSERT
  5
3D69
330
3D62
100
AcDbEntity
  8
DIM
 62
     0
370
    -2
100
AcDbBlockReference
  2
_DOT
 10
-310.4588514914565
 20
405.4789913798658
 30
0.0
 41
2.0
 42
2.0
 43
2.0
  0
MTEXT
  5
3D6A
330
3D62
100
AcDbEntity
  8
DIM
 62
     0
 48
0.05
100
AcDbMText
 10
-344.869429433747
 20
412.4789913798658
 30
0.0
 40
5.0
 41
0.0
 46
0.0
 71
     2
 72
     1
  1
\A1;72
  7
ＭＳ ゴシック
 73
     1
 44
1.0
  0
POINT
  5
3D6B
330
3D62
100
AcDbEntity
  8
Defpoints
 62
     0
100
AcDbPoint
 10
-382.4588514914565
 20
390.1590706118434
 30
0.0
  0
POINT
  5
3D6C
330
3D62
100
AcDbEntity
  8
Defpoints
 62
     0
100
AcDbPoint
 10
-310.4588514914565
 20
390.1590706118434
 30
0.0
  0
POINT
  5
3D6D
330
3D62
100
AcDbEntity
  8
Defpoints
 62
     0
100
AcDbPoint
 10
-310.4588514914565
 20
405.4789913798658
 30
0.0
  0
ENDBLK
  5
3D64
330
3D62
100
AcDbEntity
  8
0
100
AcDbBlockEnd
  0
BLOCK
  5
3D6F
330
3D6E
100
AcDbEntity
  8
0
100
AcDbBlockBegin
  2
*D16
 70
     1
 10
0.0
 20
0.0
 30
0.0
  3
*D16
  1
*D120
  0
LINE
  5
3D71
330
3D6E
100
AcDbEntity
  8
DIM
 62
     0
370
    -2
100
AcDbLine
 10
-66.53561123218788
 20
392.1590706118434
 30
0.0
 11
-52.03917253838512
 21
392.1590706118433
 31
0.0
  0
LINE
  5
3D72
330
3D6E
100
AcDbEntity
  8
DIM
 62
     0
370
    -2
100
AcDbLine
 10
-66.53561123218788
 20
362.1590706118434
 30
0.0
 11
-52.03917253838522
 21
362.1590706118433
 31
0.0
  0
LINE
  5
3D73
330
3D6E
100
AcDbEntity
  8
DIM
 62
     0
370
    -2
100
AcDbLine
 10
-52.03917253838513
 20
390.1590706118433
 30
0.0
 11
-52.03917253838522
 21
364.1590706118433
 31
0.0
  0
INSERT
  5
3D74
330
3D6E
100
AcDbEntity
  8
DIM
 62
     0
370
    -2
100
AcDbBlockReference
  2
_DOT
 10
-52.03917253838512
 20
392.1590706118433
 30
0.0
 41
2.0
 42
2.0
 43
2.0
 50
89.99999999999982
  0
INSERT
  5
3D75
330
3D6E
100
AcDbEntity
  8
DIM
 62
     0
370
    -2
100
AcDbBlockReference
  2
_DOT
 10
-52.03917253838522
 20
362.1590706118433
 30
0.0
 41
2.0
 42
2.0
 43
2.0
 50
269.9999999999998
  0
MTEXT
  5
3D76
330
3D6E
100
AcDbEntity
  8
DIM
 62
     0
 48
0.05
100
AcDbMText
 10
-59.03917253838517
 20
377.0294310821685
 30
0.0
 40
5.0
 41
0.0
 46
0.0
 71
     2
 72
     1
  1
\A1;30
  7
ＭＳ ゴシック
 11
3.315866100213801E-15
 21
1.0
 31
0.0
 73
     1
 44
1.0
  0
POINT
  5
3D77
330
3D6E
100
AcDbEntity
  8
Defpoints
 62
     0
100
AcDbPoint
 10
-71.53561123218788
 20
392.1590706118434
 30
0.0
  0
POINT
  5
3D78
330
3D6E
100
AcDbEntity
  8
Defpoints
 62
     0
100
AcDbPoint
 10
-71.53561123218788
 20
362.1590706118434
 30
0.0
  0
POINT
  5
3D79
330
3D6E
100
AcDbEntity
  8
Defpoints
 62
     0
100
AcDbPoint
 10
-52.03917253838523
 20
362.1590706118433
 30
0.0
  0
ENDBLK
  5
3D70
330
3D6E
100
AcDbEntity
  8
0
100
AcDbBlockEnd
  0
BLOCK
  5
3D7B
330
3D7A
100
AcDbEntity
  8
0
100
AcDbBlockBegin
  2
*D17
 70
     1
 10
0.0
 20
0.0
 30
0.0
  3
*D17
  1
*D121
  0
LINE
  5
3D7D
330
3D7A
100
AcDbEntity
  8
DIM
 62
     0
370
    -2
100
AcDbLine
 10
-141.8697494276144
 20
389.1590706118433
 30
0.0
 11
-141.8697494276144
 21
394.3946690006945
 31
0.0
  0
LINE
  5
3D7E
330
3D7A
100
AcDbEntity
  8
DIM
 62
     0
370
    -2
100
AcDbLine
 10
-135.8697494276144
 20
389.1590706118433
 30
0.0
 11
-135.8697494276144
 21
394.3946690006945
 31
0.0
  0
LINE
  5
3D7F
330
3D7A
100
AcDbEntity
  8
DIM
 62
     0
370
    -2
100
AcDbLine
 10
-139.8697494276144
 20
394.3946690006945
 30
0.0
 11
-137.8697494276144
 21
394.3946690006945
 31
0.0
  0
INSERT
  5
3D80
330
3D7A
100
AcDbEntity
  8
DIM
 62
     0
370
    -2
100
AcDbBlockReference
  2
_DOT
 10
-141.8697494276144
 20
394.3946690006945
 30
0.0
 41
2.0
 42
2.0
 43
2.0
 50
180.0
  0
INSERT
  5
3D81
330
3D7A
100
AcDbEntity
  8
DIM
 62
     0
370
    -2
100
AcDbBlockReference
  2
_DOT
 10
-135.8697494276144
 20
394.3946690006945
 30
0.0
 41
2.0
 42
2.0
 43
2.0
  0
MTEXT
  5
3D82
330
3D7A
100
AcDbEntity
  8
DIM
 62
     0
 48
0.05
100
AcDbMText
 10
-138.8697494276144
 20
401.7696690006945
 30
0.0
 40
5.0
 41
0.0
 46
0.0
 71
     2
 72
     1
  1
\A1;%%c6
  7
ＭＳ ゴシック
 73
     1
 44
1.0
  0
POINT
  5
3D83
330
3D7A
100
AcDbEntity
  8
Defpoints
 62
     0
100
AcDbPoint
 10
-141.8697494276144
 20
384.1590706118433
 30
0.0
  0
POINT
  5
3D84
330
3D7A
100
AcDbEntity
  8
Defpoints
 62
     0
100
AcDbPoint
 10
-135.8697494276144
 20
384.1590706118433
 30
0.0
  0
POINT
  5
3D85
330
3D7A
100
AcDbEntity
  8
Defpoints
 62
     0
100
AcDbPoint
 10
-135.8697494276144
 20
394.3946690006945
 30
0.0
  0
ENDBLK
  5
3D7C
330
3D7A
100
AcDbEntity
  8
0
100
AcDbBlockEnd
  0
BLOCK
  5
3D8A
330
3D89
100
AcDbEntity
  8
0
100
AcDbBlockBegin
  2
*D18
 70
     1
 10
0.0
 20
0.0
 30
0.0
  3
*D18
  1
*D122
  0
LINE
  5
3D8C
330
3D89
100
AcDbEntity
  8
DIM
 62
     0
370
    -2
100
AcDbLine
 10
-153.3561223589644
 20
379.1590706118434
 30
0.0
 11
-162.7733298009054
 21
379.1590706118434
 31
0.0
  0
LINE
  5
3D8D
330
3D89
100
AcDbEntity
  8
DIM
 62
     0
370
    -2
100
AcDbLine
 10
-153.3561223589644
 20
369.1590706118434
 30
0.0
 11
-162.7733298009054
 21
369.1590706118434
 31
0.0
  0
LINE
  5
3D8E
330
3D89
100
AcDbEntity
  8
DIM
 62
     0
370
    -2
100
AcDbLine
 10
-162.7733298009054
 20
377.1590706118434
 30
0.0
 11
-162.7733298009054
 21
371.1590706118434
 31
0.0
  0
INSERT
  5
3D8F
330
3D89
100
AcDbEntity
  8
DIM
 62
     0
370
    -2
100
AcDbBlockReference
  2
_DOT
 10
-162.7733298009054
 20
379.1590706118434
 30
0.0
 41
2.0
 42
2.0
 43
2.0
 50
89.99999999999982
  0
INSERT
  5
3D90
330
3D89
100
AcDbEntity
  8
DIM
 62
     0
370
    -2
100
AcDbBlockReference
  2
_DOT
 10
-162.7733298009054
 20
369.1590706118434
 30
0.0
 41
2.0
 42
2.0
 43
2.0
 50
269.9999999999998
  0
MTEXT
  5
3D91
330
3D89
100
AcDbEntity
  8
DIM
 62
     0
 48
0.05
100
AcDbMText
 10
-169.7733298009054
 20
374.1795147052219
 30
0.0
 40
5.0
 41
0.0
 46
0.0
 71
     2
 72
     1
  1
\A1;10
  7
ＭＳ ゴシック
 11
2.842170943040401E-15
 21
1.0
 31
0.0
 73
     1
 44
1.0
  0
POINT
  5
3D92
330
3D89
100
AcDbEntity
  8
Defpoints
 62
     0
100
AcDbPoint
 10
-148.3561223589644
 20
379.1590706118434
 30
0.0
  0
POINT
  5
3D93
330
3D89
100
AcDbEntity
  8
Defpoints
 62
     0
100
AcDbPoint
 10
-148.3561223589644
 20
369.1590706118434
 30
0.0
  0
POINT
  5
3D94
330
3D89
100
AcDbEntity
  8
Defpoints
 62
     0
100
AcDbPoint
 10
-162.7733298009055
 20
369.1590706118434
 30
0.0
  0
ENDBLK
  5
3D8B
330
3D89
100
AcDbEntity
  8
0
100
AcDbBlockEnd
  0
BLOCK
  5
3D96
330
3D95
100
AcDbEntity
  8
0
100
AcDbBlockBegin
  2
*D19
 70
     1
 10
0.0
 20
0.0
 30
0.0
  3
*D19
  1
*D123
  0
LINE
  5
3D98
330
3D95
100
AcDbEntity
  8
DIM
 62
     0
370
    -2
100
AcDbLine
 10
-382.4588514914565
 20
396.499523244068
 30
0.0
 11
-382.4588514914565
 21
419.4598186394233
 31
0.0
  0
LINE
  5
3D99
330
3D95
100
AcDbEntity
  8
DIM
 62
     0
370
    -2
100
AcDbLine
 10
-201.4588514914565
 20
383.9270591637549
 30
0.0
 11
-201.4588514914565
 21
419.4598186394233
 31
0.0
  0
LINE
  5
3D9A
330
3D95
100
AcDbEntity
  8
DIM
 62
     0
370
    -2
100
AcDbLine
 10
-380.4588514914565
 20
419.4598186394233
 30
0.0
 11
-203.4588514914565
 21
419.4598186394233
 31
0.0
  0
INSERT
  5
3D9B
330
3D95
100
AcDbEntity
  8
DIM
 62
     0
370
    -2
100
AcDbBlockReference
  2
_DOT
 10
-382.4588514914565
 20
419.4598186394233
 30
0.0
 41
2.0
 42
2.0
 43
2.0
 50
180.0
  0
INSERT
  5
3D9C
330
3D95
100
AcDbEntity
  8
DIM
 62
     0
370
    -2
100
AcDbBlockReference
  2
_DOT
 10
-201.4588514914565
 20
419.4598186394233
 30
0.0
 41
2.0
 42
2.0
 43
2.0
  0
MTEXT
  5
3D9D
330
3D95
100
AcDbEntity
  8
DIM
 62
     0
 48
0.05
100
AcDbMText
 10
-287.5912882443288
 20
426.4598186394233
 30
0.0
 40
5.0
 41
0.0
 46
0.0
 71
     2
 72
     1
  1
\A1;181
  7
ＭＳ ゴシック
 73
     1
 44
1.0
  0
POINT
  5
3D9E
330
3D95
100
AcDbEntity
  8
Defpoints
 62
     0
100
AcDbPoint
 10
-382.4588514914565
 20
391.499523244068
 30
0.0
  0
POINT
  5
3D9F
330
3D95
100
AcDbEntity
  8
Defpoints
 62
     0
100
AcDbPoint
 10
-201.4588514914565
 20
378.9270591637549
 30
0.0
  0
POINT
  5
3DA0
330
3D95
100
AcDbEntity
  8
Defpoints
 62
     0
100
AcDbPoint
 10
-201.4588514914565
 20
419.4598186394233
 30
0.0
  0
ENDBLK
  5
3D97
330
3D95
100
AcDbEntity
  8
0
100
AcDbBlockEnd
  0
BLOCK
  5
3DC5
330
3DC4
100
AcDbEntity
  8
0
100
AcDbBlockBegin
  2
*D20
 70
     1
 10
0.0
 20
0.0
 30
0.0
  3
*D20
  1
*D124
  0
LINE
  5
3DC7
330
3DC4
100
AcDbEntity
  8
DIM
 62
     0
 48
0.05
370
    -2
100
AcDbLine
 10
-69.61974942761412
 20
397.1590706118434
 30
0.0
 11
-69.61974942761412
 21
419.4598186394233
 31
0.0
  0
LINE
  5
3DC8
330
3DC4
100
AcDbEntity
  8
DIM
 62
     0
 48
0.05
370
    -2
100
AcDbLine
 10
-149.5508737855781
 20
386.0536007389887
 30
0.0
 11
-149.5508737855781
 21
419.4598186394233
 31
0.0
  0
LINE
  5
3DC9
330
3DC4
100
AcDbEntity
  8
DIM
 62
     0
 48
0.05
370
    -2
100
AcDbLine
 10
-71.61974942761412
 20
419.4598186394233
 30
0.0
 11
-147.5508737855781
 21
419.4598186394233
 31
0.0
  0
INSERT
  5
3DCA
330
3DC4
100
AcDbEntity
  8
DIM
 62
     0
370
    -2
100
AcDbBlockReference
  2
_DOT
 10
-69.61974942761412
 20
419.4598186394233
 30
0.0
 41
2.0
 42
2.0
 43
2.0
  0
INSERT
  5
3DCB
330
3DC4
100
AcDbEntity
  8
DIM
 62
     0
370
    -2
100
AcDbBlockReference
  2
_DOT
 10
-149.5508737855781
 20
419.4598186394233
 30
0.0
 41
2.0
 42
2.0
 43
2.0
 50
180.0
  0
MTEXT
  5
3DCC
330
3DC4
100
AcDbEntity
  8
DIM
 62
     0
 48
0.05
100
AcDbMText
 10
-109.5853116065961
 20
423.9598186394233
 30
0.0
 40
5.0
 41
0.0
 46
0.0
 71
     5
 72
     1
  1
\A1;80
  7
ＭＳ ゴシック
 73
     1
 44
1.0
  0
POINT
  5
3DCD
330
3DC4
100
AcDbEntity
  8
Defpoints
 62
     0
100
AcDbPoint
 10
-69.61974942761412
 20
392.1590706118434
 30
0.0
  0
POINT
  5
3DCE
330
3DC4
100
AcDbEntity
  8
Defpoints
 62
     0
100
AcDbPoint
 10
-149.5508737855781
 20
381.0536007389887
 30
0.0
  0
POINT
  5
3DCF
330
3DC4
100
AcDbEntity
  8
Defpoints
 62
     0
100
AcDbPoint
 10
-149.5508737855781
 20
419.4598186394233
 30
0.0
  0
ENDBLK
  5
3DC6
330
3DC4
100
AcDbEntity
  8
0
100
AcDbBlockEnd
  0
BLOCK
  5
3DDE
330
3DDD
100
AcDbEntity
  8
0
100
AcDbBlockBegin
  2
*D21
 70
     1
 10
0.0
 20
0.0
 30
0.0
  3
*D21
  1
*D125
  0
LINE
  5
3DE0
330
3DDD
100
AcDbEntity
  8
DIM
 62
     0
 48
0.05
370
    -2
100
AcDbLine
 10
-69.61974942761412
 20
397.1590706118434
 30
0.0
 11
-69.61974942761412
 21
405.4789913798658
 31
0.0
  0
LINE
  5
3DE1
330
3DDD
100
AcDbEntity
  8
DIM
 62
     0
 48
0.05
370
    -2
100
AcDbLine
 10
-79.61974942761412
 20
397.1590706118434
 30
0.0
 11
-79.61974942761412
 21
405.4789913798658
 31
0.0
  0
LINE
  5
3DE2
330
3DDD
100
AcDbEntity
  8
DIM
 62
     0
 48
0.05
370
    -2
100
AcDbLine
 10
-71.61974942761412
 20
405.4789913798658
 30
0.0
 11
-77.61974942761412
 21
405.4789913798658
 31
0.0
  0
INSERT
  5
3DE3
330
3DDD
100
AcDbEntity
  8
DIM
 62
     0
370
    -2
100
AcDbBlockReference
  2
_DOT
 10
-69.61974942761412
 20
405.4789913798658
 30
0.0
 41
2.0
 42
2.0
 43
2.0
  0
INSERT
  5
3DE4
330
3DDD
100
AcDbEntity
  8
DIM
 62
     0
370
    -2
100
AcDbBlockReference
  2
_DOT
 10
-79.61974942761412
 20
405.4789913798658
 30
0.0
 41
2.0
 42
2.0
 43
2.0
 50
180.0
  0
MTEXT
  5
3DE5
330
3DDD
100
AcDbEntity
  8
DIM
 62
     0
 48
0.05
100
AcDbMText
 10
-74.61974942761412
 20
409.9789913798658
 30
0.0
 40
5.0
 41
0.0
 46
0.0
 71
     5
 72
     1
  1
\A1;10
  7
ＭＳ ゴシック
 73
     1
 44
1.0
  0
POINT
  5
3DE6
330
3DDD
100
AcDbEntity
  8
Defpoints
 62
     0
100
AcDbPoint
 10
-69.61974942761412
 20
392.1590706118434
 30
0.0
  0
POINT
  5
3DE7
330
3DDD
100
AcDbEntity
  8
Defpoints
 62
     0
100
AcDbPoint
 10
-79.61974942761412
 20
392.1590706118434
 30
0.0
  0
POINT
  5
3DE8
330
3DDD
100
AcDbEntity
  8
Defpoints
 62
     0
100
AcDbPoint
 10
-79.61974942761412
 20
405.4789913798658
 30
0.0
  0
ENDBLK
  5
3DDF
330
3DDD
100
AcDbEntity
  8
0
100
AcDbBlockEnd
  0
BLOCK
  5
3E2D
330
3E2C
100
AcDbEntity
  8
0
100
AcDbBlockBegin
  2
*D22
 70
     1
 10
0.0
 20
0.0
 30
0.0
  3
*D22
  1
*D126
  0
LINE
  5
3E2F
330
3E2C
100
AcDbEntity
  8
DIM
 62
     0
 48
0.05
370
    -2
100
AcDbLine
 10
-149.8697494276141
 20
364.1590706118434
 30
0.0
 11
-149.8697494276141
 21
348.6669622511874
 31
0.0
  0
LINE
  5
3E30
330
3E2C
100
AcDbEntity
  8
DIM
 62
     0
 48
0.05
370
    -2
100
AcDbLine
 10
-127.8697494276144
 20
364.1590706118434
 30
0.0
 11
-127.8697494276144
 21
348.6669622511874
 31
0.0
  0
LINE
  5
3E31
330
3E2C
100
AcDbEntity
  8
DIM
 62
     0
 48
0.05
370
    -2
100
AcDbLine
 10
-147.8697494276141
 20
348.6669622511874
 30
0.0
 11
-129.8697494276144
 21
348.6669622511874
 31
0.0
  0
INSERT
  5
3E32
330
3E2C
100
AcDbEntity
  8
DIM
 62
     0
370
    -2
100
AcDbBlockReference
  2
_DOT
 10
-149.8697494276141
 20
348.6669622511874
 30
0.0
 41
2.0
 42
2.0
 43
2.0
 50
180.0
  0
INSERT
  5
3E33
330
3E2C
100
AcDbEntity
  8
DIM
 62
     0
370
    -2
100
AcDbBlockReference
  2
_DOT
 10
-127.8697494276144
 20
348.6669622511874
 30
0.0
 41
2.0
 42
2.0
 43
2.0
  0
MTEXT
  5
3E34
330
3E2C
100
AcDbEntity
  8
DIM
 62
     0
 48
0.05
100
AcDbMText
 10
-138.8697494276142
 20
353.1669622511874
 30
0.0
 40
5.0
 41
0.0
 46
0.0
 71
     5
 72
     1
  1
\A1;22
  7
ＭＳ ゴシック
 73
     1
 44
1.0
  0
POINT
  5
3E35
330
3E2C
100
AcDbEntity
  8
Defpoints
 62
     0
100
AcDbPoint
 10
-149.8697494276141
 20
369.1590706118434
 30
0.0
  0
POINT
  5
3E36
330
3E2C
100
AcDbEntity
  8
Defpoints
 62
     0
100
AcDbPoint
 10
-127.8697494276144
 20
369.1590706118434
 30
0.0
  0
POINT
  5
3E37
330
3E2C
100
AcDbEntity
  8
Defpoints
 62
     0
100
AcDbPoint
 10
-127.8697494276144
 20
348.6669622511874
 30
0.0
  0
ENDBLK
  5
3E2E
330
3E2C
100
AcDbEntity
  8
0
100
AcDbBlockEnd
  0
BLOCK
  5
3ECE
330
3ECD
100
AcDbEntity
  8
0
100
AcDbBlockBegin
  2
*D23
 70
     1
 10
0.0
 20
0.0
 30
0.0
  3
*D23
  1
*D128
  0
LINE
  5
3ECF
330
3ECD
100
AcDbEntity
  8
注释
 62
     0
370
    -2
100
AcDbLine
 10
42.66016917480694
 20
115.2813663333939
 30
0.0
 11
3.222669174806942
 21
115.2813663333938
 31
0.0
  0
LINE
  5
3ED0
330
3ECD
100
AcDbEntity
  8
注释
 62
     0
370
    -2
100
AcDbLine
 10
13.16016917480695
 20
105.1146996667273
 30
0.0
 11
3.222669174806978
 21
105.1146996667272
 31
0.0
  0
LINE
  5
3ED1
330
3ECD
100
AcDbEntity
  8
注释
 62
     0
370
    -2
100
AcDbLine
 10
3.222669174806951
 20
112.7813663333938
 30
0.0
 11
3.222669174806969
 21
107.6146996667272
 31
0.0
  0
SOLID
  5
3ED2
330
3ECD
100
AcDbEntity
  8
注释
 62
     0
100
AcDbTrace
 10
3.639335841473617
 20
112.7813663333938
 30
0.0
 11
2.806002508140284
 21
112.7813663333938
 31
0.0
 12
3.222669174806942
 22
115.2813663333938
 32
0.0
 13
3.222669174806942
 23
115.2813663333938
 33
0.0
  0
SOLID
  5
3ED3
330
3ECD
100
AcDbEntity
  8
注释
 62
     0
100
AcDbTrace
 10
2.806002508140302
 20
107.6146996667272
 30
0.0
 11
3.639335841473635
 21
107.6146996667272
 31
0.0
 12
3.222669174806978
 22
105.1146996667272
 32
0.0
 13
3.222669174806978
 23
105.1146996667272
 33
0.0
  0
MTEXT
  5
3ED4
330
3ECD
100
AcDbEntity
  8
注释
 62
     0
 48
0.05
100
AcDbMText
 10
0.0976691748069598
 20
110.1980330000606
 30
0.0
 40
2.5
 41
0.0
 46
0.0
 71
     2
 72
     1
  1
\A1;31
  7
SLDTEXTSTYLE0
 11
-3.494472470951340E-15
 21
1.0
 31
0.0
 73
     1
 44
1.0
  0
POINT
  5
4003
330
3ECD
100
AcDbEntity
  8
Defpoints
 62
     0
100
AcDbPoint
 10
42.72266917480694
 20
115.2813663333939
 30
0.0
  0
POINT
  5
4004
330
3ECD
100
AcDbEntity
  8
Defpoints
 62
     0
100
AcDbPoint
 10
13.22266917480695
 20
105.1146996667273
 30
0.0
  0
POINT
  5
4005
330
3ECD
100
AcDbEntity
  8
Defpoints
 62
     0
100
AcDbPoint
 10
3.22266917480696
 20
105.1146996667272
 30
0.0
  0
ENDBLK
  5
3ED5
330
3ECD
100
AcDbEntity
  8
0
100
AcDbBlockEnd
  0
BLOCK
  5
3F2B
330
3F2A
100
AcDbEntity
  8
0
100
AcDbBlockBegin
  2
*D24
 70
     1
 10
0.0
 20
0.0
 30
0.0
  3
*D24
  1
*D129
  0
LINE
  5
3F2C
330
3F2A
100
AcDbEntity
  8
注释
 62
     0
370
    -2
100
AcDbLine
 10
41.99350250814028
 20
76.00877297239805
 30
0.0
 11
3.222669174806867
 21
76.0087729723979
 31
0.0
  0
LINE
  5
3F2D
330
3F2A
100
AcDbEntity
  8
注释
 62
     0
370
    -2
100
AcDbLine
 10
16.16016917480695
 20
26.59210630573138
 30
0.0
 11
3.222669174807039
 21
26.59210630573133
 31
0.0
  0
LINE
  5
3F2E
330
3F2A
100
AcDbEntity
  8
注释
 62
     0
370
    -2
100
AcDbLine
 10
3.222669174806875
 20
73.5087729723979
 30
0.0
 11
3.22266917480703
 21
29.09210630573133
 31
0.0
  0
SOLID
  5
3F2F
330
3F2A
100
AcDbEntity
  8
注释
 62
     0
100
AcDbTrace
 10
3.639335841473542
 20
73.5087729723979
 30
0.0
 11
2.806002508140209
 21
73.5087729723979
 31
0.0
 12
3.222669174806867
 22
76.0087729723979
 32
0.0
 13
3.222669174806867
 23
76.0087729723979
 33
0.0
  0
SOLID
  5
3F30
330
3F2A
100
AcDbEntity
  8
注释
 62
     0
100
AcDbTrace
 10
2.806002508140364
 20
29.09210630573133
 30
0.0
 11
3.639335841473697
 21
29.09210630573133
 31
0.0
 12
3.222669174807039
 22
26.59210630573133
 32
0.0
 13
3.222669174807039
 23
26.59210630573133
 33
0.0
  0
MTEXT
  5
3F31
330
3F2A
100
AcDbEntity
  8
注释
 62
     0
 48
0.05
100
AcDbMText
 10
0.0976691748069527
 20
51.30043963906471
 30
0.0
 40
2.5
 41
0.0
 46
0.0
 71
     2
 72
     1
  1
\A1;148
  7
SLDTEXTSTYLE0
 11
-3.495798366914158E-15
 21
1.0
 31
0.0
 73
     1
 44
1.0
  0
POINT
  5
4006
330
3F2A
100
AcDbEntity
  8
Defpoints
 62
     0
100
AcDbPoint
 10
42.05600250814028
 20
76.00877297239805
 30
0.0
  0
POINT
  5
4007
330
3F2A
100
AcDbEntity
  8
Defpoints
 62
     0
100
AcDbPoint
 10
16.22266917480695
 20
26.59210630573138
 30
0.0
  0
POINT
  5
4008
330
3F2A
100
AcDbEntity
  8
Defpoints
 62
     0
100
AcDbPoint
 10
3.222669174806953
 20
26.59210630573133
 30
0.0
  0
ENDBLK
  5
3F32
330
3F2A
100
AcDbEntity
  8
0
100
AcDbBlockEnd
  0
BLOCK
  5
3F35
330
3F34
100
AcDbEntity
  8
0
100
AcDbBlockBegin
  2
*D25
 70
     1
 10
0.0
 20
0.0
 30
0.0
  3
*D25
  1
*D130
  0
LINE
  5
3F36
330
3F34
100
AcDbEntity
  8
注释
 62
     0
370
    -2
100
AcDbLine
 10
66.05600250814027
 20
76.07127297239805
 30
0.0
 11
66.05600250814027
 21
84.2648721696745
 31
0.0
  0
LINE
  5
3F37
330
3F34
100
AcDbEntity
  8
注释
 62
     0
370
    -2
100
AcDbLine
 10
42.05600250814027
 20
76.07127297239805
 30
0.0
 11
42.05600250814027
 21
84.2648721696745
 31
0.0
  0
LINE
  5
3F38
330
3F34
100
AcDbEntity
  8
注释
 62
     0
370
    -2
100
AcDbLine
 10
63.55600250814027
 20
84.2648721696745
 30
0.0
 11
44.55600250814027
 21
84.2648721696745
 31
0.0
  0
SOLID
  5
3F39
330
3F34
100
AcDbEntity
  8
注释
 62
     0
100
AcDbTrace
 10
63.55600250814027
 20
83.84820550300783
 30
0.0
 11
63.55600250814027
 21
84.68153883634118
 31
0.0
 12
66.05600250814027
 22
84.2648721696745
 32
0.0
 13
66.05600250814027
 23
84.2648721696745
 33
0.0
  0
SOLID
  5
3F3A
330
3F34
100
AcDbEntity
  8
注释
 62
     0
100
AcDbTrace
 10
44.55600250814027
 20
84.68153883634118
 30
0.0
 11
44.55600250814027
 21
83.84820550300783
 31
0.0
 12
42.05600250814027
 22
84.2648721696745
 32
0.0
 13
42.05600250814027
 23
84.2648721696745
 33
0.0
  0
MTEXT
  5
3F3B
330
3F34
100
AcDbEntity
  8
注释
 62
     0
 48
0.05
100
AcDbMText
 10
54.05600250814027
 20
87.3898721696745
 30
0.0
 40
2.5
 41
0.0
 46
0.0
 71
     2
 72
     1
  1
\A1;72
  7
SLDTEXTSTYLE0
 73
     1
 44
1.0
  0
POINT
  5
4009
330
3F34
100
AcDbEntity
  8
Defpoints
 62
     0
100
AcDbPoint
 10
66.05600250814027
 20
76.00877297239805
 30
0.0
  0
POINT
  5
400A
330
3F34
100
AcDbEntity
  8
Defpoints
 62
     0
100
AcDbPoint
 10
42.05600250814027
 20
76.00877297239805
 30
0.0
  0
POINT
  5
400B
330
3F34
100
AcDbEntity
  8
Defpoints
 62
     0
100
AcDbPoint
 10
42.05600250814027
 20
84.2648721696745
 30
0.0
  0
ENDBLK
  5
3F3C
330
3F34
100
AcDbEntity
  8
0
100
AcDbBlockEnd
  0
BLOCK
  5
3F3F
330
3F3E
100
AcDbEntity
  8
0
100
AcDbBlockBegin
  2
*D26
 70
     1
 10
0.0
 20
0.0
 30
0.0
  3
*D26
  1
*D131
  0
LINE
  5
3F40
330
3F3E
100
AcDbEntity
  8
注释
 62
     0
370
    -2
100
AcDbLine
 10
13.22266917480695
 20
29.52960630573139
 30
0.0
 11
13.22266917480695
 21
16.59210630573138
 31
0.0
  0
LINE
  5
3F41
330
3F3E
100
AcDbEntity
  8
注释
 62
     0
370
    -2
100
AcDbLine
 10
94.8893358414736
 20
48.19627297239805
 30
0.0
 11
94.8893358414736
 21
16.59210630573138
 31
0.0
  0
LINE
  5
3F42
330
3F3E
100
AcDbEntity
  8
注释
 62
     0
370
    -2
100
AcDbLine
 10
15.72266917480695
 20
16.59210630573138
 30
0.0
 11
92.3893358414736
 21
16.59210630573138
 31
0.0
  0
SOLID
  5
3F43
330
3F3E
100
AcDbEntity
  8
注释
 62
     0
100
AcDbTrace
 10
15.72266917480695
 20
17.00877297239805
 30
0.0
 11
15.72266917480695
 21
16.17543963906471
 31
0.0
 12
13.22266917480695
 22
16.59210630573138
 32
0.0
 13
13.22266917480695
 23
16.59210630573138
 33
0.0
  0
SOLID
  5
3F44
330
3F3E
100
AcDbEntity
  8
注释
 62
     0
100
AcDbTrace
 10
92.3893358414736
 20
16.17543963906471
 30
0.0
 11
92.3893358414736
 21
17.00877297239805
 31
0.0
 12
94.8893358414736
 22
16.59210630573138
 32
0.0
 13
94.8893358414736
 23
16.59210630573138
 33
0.0
  0
MTEXT
  5
3F45
330
3F3E
100
AcDbEntity
  8
注释
 62
     0
 48
0.05
100
AcDbMText
 10
54.05600250814028
 20
19.71710630573138
 30
0.0
 40
2.5
 41
0.0
 46
0.0
 71
     2
 72
     1
  1
\A1;245
  7
SLDTEXTSTYLE0
 73
     1
 44
1.0
  0
POINT
  5
400C
330
3F3E
100
AcDbEntity
  8
Defpoints
 62
     0
100
AcDbPoint
 10
13.22266917480695
 20
29.59210630573139
 30
0.0
  0
POINT
  5
400D
330
3F3E
100
AcDbEntity
  8
Defpoints
 62
     0
100
AcDbPoint
 10
94.8893358414736
 20
48.25877297239805
 30
0.0
  0
POINT
  5
400E
330
3F3E
100
AcDbEntity
  8
Defpoints
 62
     0
100
AcDbPoint
 10
94.8893358414736
 20
16.59210630573136
 30
0.0
  0
ENDBLK
  5
3F46
330
3F3E
100
AcDbEntity
  8
0
100
AcDbBlockEnd
  0
BLOCK
  5
413A
330
4139
100
AcDbEntity
  8
0
100
AcDbBlockBegin
  2
*D27
 70
     1
 10
0.0
 20
0.0
 30
0.0
  3
*D27
  1
*D132
  0
LINE
  5
413C
330
4139
100
AcDbEntity
  8
DIM
 62
     0
370
    -2
100
AcDbLine
 10
-84.53780208129149
 20
403.353233343378
 30
0.0
 11
-72.40419132316836
 21
403.353233343378
 31
0.0
  0
LINE
  5
413D
330
4139
100
AcDbEntity
  8
DIM
 62
     0
370
    -2
100
AcDbLine
 10
-109.1851461626379
 20
383.0199000100445
 30
0.0
 11
-72.40419132316843
 21
383.0199000100444
 31
0.0
  0
LINE
  5
413E
330
4139
100
AcDbEntity
  8
DIM
 62
     0
370
    -2
100
AcDbLine
 10
-72.40419132316836
 20
401.353233343378
 30
0.0
 11
-72.40419132316843
 21
385.0199000100444
 31
0.0
  0
INSERT
  5
413F
330
4139
100
AcDbEntity
  8
DIM
 62
     0
370
    -2
100
AcDbBlockReference
  2
_DOT
 10
-72.40419132316836
 20
403.353233343378
 30
0.0
 41
2.0
 42
2.0
 43
2.0
 50
89.99999999999982
  0
INSERT
  5
4140
330
4139
100
AcDbEntity
  8
DIM
 62
     0
370
    -2
100
AcDbBlockReference
  2
_DOT
 10
-72.40419132316843
 20
383.0199000100444
 30
0.0
 41
2.0
 42
2.0
 43
2.0
 50
269.9999999999998
  0
MTEXT
  5
4141
330
4139
100
AcDbEntity
  8
DIM
 62
     0
 48
0.05
100
AcDbMText
 10
-79.40419132316839
 20
393.1865666767113
 30
0.0
 40
5.0
 41
0.0
 46
0.0
 71
     2
 72
     1
  1
\A1;20
  7
ＭＳ ゴシック
 11
3.494472470951267E-15
 21
1.0
 31
0.0
 73
     1
 44
1.0
  0
POINT
  5
4142
330
4139
100
AcDbEntity
  8
Defpoints
 62
     0
100
AcDbPoint
 10
-89.53780208129149
 20
403.353233343378
 30
0.0
  0
POINT
  5
4143
330
4139
100
AcDbEntity
  8
Defpoints
 62
     0
100
AcDbPoint
 10
-114.1851461626379
 20
383.0199000100445
 30
0.0
  0
POINT
  5
4144
330
4139
100
AcDbEntity
  8
Defpoints
 62
     0
100
AcDbPoint
 10
-72.4041913231685
 20
383.0199000100444
 30
0.0
  0
ENDBLK
  5
413B
330
4139
100
AcDbEntity
  8
0
100
AcDbBlockEnd
  0
BLOCK
  5
4146
330
4145
100
AcDbEntity
  8
0
100
AcDbBlockBegin
  2
*D28
 70
     1
 10
0.0
 20
0.0
 30
0.0
  3
*D28
  1
*D133
  0
LINE
  5
4148
330
4145
100
AcDbEntity
  8
DIM
 62
     0
370
    -2
100
AcDbLine
 10
584.7921327211616
 20
349.4039870814673
 30
0.0
 11
512.1254660544947
 21
349.403987081467
 31
0.0
  0
LINE
  5
4149
330
4145
100
AcDbEntity
  8
DIM
 62
     0
370
    -2
100
AcDbLine
 10
533.1254660544948
 20
250.5706537481339
 30
0.0
 11
512.1254660544951
 21
250.5706537481338
 31
0.0
  0
LINE
  5
414A
330
4145
100
AcDbEntity
  8
DIM
 62
     0
370
    -2
100
AcDbLine
 10
512.1254660544947
 20
347.403987081467
 30
0.0
 11
512.1254660544951
 21
252.5706537481338
 31
0.0
  0
INSERT
  5
414B
330
4145
100
AcDbEntity
  8
DIM
 62
     0
370
    -2
100
AcDbBlockReference
  2
_DOT
 10
512.1254660544947
 20
349.403987081467
 30
0.0
 41
2.0
 42
2.0
 43
2.0
 50
90.0000000000002
  0
INSERT
  5
414C
330
4145
100
AcDbEntity
  8
DIM
 62
     0
370
    -2
100
AcDbBlockReference
  2
_DOT
 10
512.1254660544951
 20
250.5706537481338
 30
0.0
 41
2.0
 42
2.0
 43
2.0
 50
270.0000000000002
  0
MTEXT
  5
414D
330
4145
100
AcDbEntity
  8
DIM
 62
     0
 48
0.05
100
AcDbMText
 10
505.1254660544948
 20
299.9873204148006
 30
0.0
 40
5.0
 41
0.0
 46
0.0
 71
     2
 72
     1
  1
\A1;99
  7
ＭＳ ゴシック
 11
-3.450865225951251E-15
 21
1.0
 31
0.0
 73
     1
 44
1.0
  0
POINT
  5
414E
330
4145
100
AcDbEntity
  8
Defpoints
 62
     0
100
AcDbPoint
 10
589.7921327211616
 20
349.4039870814673
 30
0.0
  0
POINT
  5
414F
330
4145
100
AcDbEntity
  8
Defpoints
 62
     0
100
AcDbPoint
 10
538.1254660544948
 20
250.5706537481339
 30
0.0
  0
POINT
  5
4150
330
4145
100
AcDbEntity
  8
Defpoints
 62
     0
100
AcDbPoint
 10
512.1254660544951
 20
250.5706537481338
 30
0.0
  0
ENDBLK
  5
4147
330
4145
100
AcDbEntity
  8
0
100
AcDbBlockEnd
  0
BLOCK
  5
4152
330
4151
100
AcDbEntity
  8
0
100
AcDbBlockBegin
  2
*D29
 70
     1
 10
0.0
 20
0.0
 30
0.0
  3
*D29
  1
*D134
  0
LINE
  5
4154
330
4151
100
AcDbEntity
  8
DIM
 62
     0
370
    -2
100
AcDbLine
 10
-294.1890445454149
 20
408.7249414522386
 30
0.0
 11
-294.1890445454149
 21
418.0694758345264
 31
0.0
  0
LINE
  5
4155
330
4151
100
AcDbEntity
  8
DIM
 62
     0
370
    -2
100
AcDbLine
 10
-342.1890445454149
 20
408.7249414522386
 30
0.0
 11
-342.1890445454149
 21
418.0694758345264
 31
0.0
  0
LINE
  5
4156
330
4151
100
AcDbEntity
  8
DIM
 62
     0
370
    -2
100
AcDbLine
 10
-296.1890445454149
 20
418.0694758345264
 30
0.0
 11
-340.1890445454149
 21
418.0694758345264
 31
0.0
  0
INSERT
  5
4157
330
4151
100
AcDbEntity
  8
DIM
 62
     0
370
    -2
100
AcDbBlockReference
  2
_DOT
 10
-294.1890445454149
 20
418.0694758345264
 30
0.0
 41
2.0
 42
2.0
 43
2.0
  0
INSERT
  5
4158
330
4151
100
AcDbEntity
  8
DIM
 62
     0
370
    -2
100
AcDbBlockReference
  2
_DOT
 10
-342.1890445454149
 20
418.0694758345264
 30
0.0
 41
2.0
 42
2.0
 43
2.0
 50
180.0
  0
MTEXT
  5
4159
330
4151
100
AcDbEntity
  8
DIM
 62
     0
 48
0.05
100
AcDbMText
 10
-318.1890445454149
 20
425.0694758345264
 30
0.0
 40
5.0
 41
0.0
 46
0.0
 71
     2
 72
     1
  1
\A1;48
  7
ＭＳ ゴシック
 73
     1
 44
1.0
  0
POINT
  5
415A
330
4151
100
AcDbEntity
  8
Defpoints
 62
     0
100
AcDbPoint
 10
-294.1890445454149
 20
403.7249414522386
 30
0.0
  0
POINT
  5
415B
330
4151
100
AcDbEntity
  8
Defpoints
 62
     0
100
AcDbPoint
 10
-342.1890445454149
 20
403.7249414522386
 30
0.0
  0
POINT
  5
415C
330
4151
100
AcDbEntity
  8
Defpoints
 62
     0
100
AcDbPoint
 10
-342.1890445454149
 20
418.0694758345264
 30
0.0
  0
ENDBLK
  5
4153
330
4151
100
AcDbEntity
  8
0
100
AcDbBlockEnd
  0
BLOCK
  5
415E
330
415D
100
AcDbEntity
  8
0
100
AcDbBlockBegin
  2
*D30
 70
     1
 10
0.0
 20
0.0
 30
0.0
  3
*D30
  1
*D135
  0
LINE
  5
4160
330
415D
100
AcDbEntity
  8
DIM
 62
     0
370
    -2
100
AcDbLine
 10
-399.8557112120817
 20
403.9637234635924
 30
0.0
 11
-399.8557112120817
 21
431.3275141661096
 31
0.0
  0
LINE
  5
4161
330
415D
100
AcDbEntity
  8
DIM
 62
     0
370
    -2
100
AcDbLine
 10
-236.5223778787484
 20
404.1479234510339
 30
0.0
 11
-236.5223778787484
 21
431.3275141661096
 31
0.0
  0
LINE
  5
4162
330
415D
100
AcDbEntity
  8
DIM
 62
     0
370
    -2
100
AcDbLine
 10
-397.8557112120817
 20
431.3275141661096
 30
0.0
 11
-238.5223778787484
 21
431.3275141661096
 31
0.0
  0
INSERT
  5
4163
330
415D
100
AcDbEntity
  8
DIM
 62
     0
370
    -2
100
AcDbBlockReference
  2
_DOT
 10
-399.8557112120817
 20
431.3275141661096
 30
0.0
 41
2.0
 42
2.0
 43
2.0
 50
180.0
  0
INSERT
  5
4164
330
415D
100
AcDbEntity
  8
DIM
 62
     0
370
    -2
100
AcDbBlockReference
  2
_DOT
 10
-236.5223778787484
 20
431.3275141661096
 30
0.0
 41
2.0
 42
2.0
 43
2.0
  0
MTEXT
  5
4165
330
415D
100
AcDbEntity
  8
DIM
 62
     0
 48
0.05
100
AcDbMText
 10
-318.1890445454149
 20
438.3275141661096
 30
0.0
 40
5.0
 41
0.0
 46
0.0
 71
     2
 72
     1
  1
\A1;163
  7
ＭＳ ゴシック
 73
     1
 44
1.0
  0
POINT
  5
4166
330
415D
100
AcDbEntity
  8
Defpoints
 62
     0
100
AcDbPoint
 10
-399.8557112120817
 20
398.9637234635924
 30
0.0
  0
POINT
  5
4167
330
415D
100
AcDbEntity
  8
Defpoints
 62
     0
100
AcDbPoint
 10
-236.5223778787484
 20
399.1479234510339
 30
0.0
  0
POINT
  5
4168
330
415D
100
AcDbEntity
  8
Defpoints
 62
     0
100
AcDbPoint
 10
-236.5223778787484
 20
431.3275141661096
 30
0.0
  0
ENDBLK
  5
415F
330
415D
100
AcDbEntity
  8
0
100
AcDbBlockEnd
  0
BLOCK
  5
4171
330
4170
100
AcDbEntity
  8
0
100
AcDbBlockBegin
  2
*D31
 70
     1
 10
0.0
 20
0.0
 30
0.0
  3
*D31
  1
*D136
  0
LINE
  5
4173
330
4170
100
AcDbEntity
  8
DIM
 62
     0
 48
0.05
370
    -2
100
AcDbLine
 10
-88.94545096262044
 20
408.3532333701517
 30
0.0
 11
-88.94545096262044
 21
418.0694758345264
 31
0.0
  0
LINE
  5
4174
330
4170
100
AcDbEntity
  8
DIM
 62
     0
 48
0.05
370
    -2
100
AcDbLine
 10
-187.9454509626204
 20
406.0979778304344
 30
0.0
 11
-187.9454509626204
 21
418.0694758345264
 31
0.0
  0
LINE
  5
4175
330
4170
100
AcDbEntity
  8
DIM
 62
     0
 48
0.05
370
    -2
100
AcDbLine
 10
-90.94545096262044
 20
418.0694758345264
 30
0.0
 11
-185.9454509626204
 21
418.0694758345264
 31
0.0
  0
INSERT
  5
4176
330
4170
100
AcDbEntity
  8
DIM
 62
     0
370
    -2
100
AcDbBlockReference
  2
_DOT
 10
-88.94545096262044
 20
418.0694758345264
 30
0.0
 41
2.0
 42
2.0
 43
2.0
  0
INSERT
  5
4177
330
4170
100
AcDbEntity
  8
DIM
 62
     0
370
    -2
100
AcDbBlockReference
  2
_DOT
 10
-187.9454509626204
 20
418.0694758345264
 30
0.0
 41
2.0
 42
2.0
 43
2.0
 50
180.0
  0
MTEXT
  5
4178
330
4170
100
AcDbEntity
  8
DIM
 62
     0
 48
0.05
100
AcDbMText
 10
-138.4454509626204
 20
422.5694758345264
 30
0.0
 40
5.0
 41
0.0
 46
0.0
 71
     5
 72
     1
  1
\A1;99
  7
ＭＳ ゴシック
 73
     1
 44
1.0
  0
POINT
  5
4179
330
4170
100
AcDbEntity
  8
Defpoints
 62
     0
100
AcDbPoint
 10
-88.94545096262044
 20
403.3532333701517
 30
0.0
  0
POINT
  5
417A
330
4170
100
AcDbEntity
  8
Defpoints
 62
     0
100
AcDbPoint
 10
-187.9454509626204
 20
401.0979778304344
 30
0.0
  0
POINT
  5
417B
330
4170
100
AcDbEntity
  8
Defpoints
 62
     0
100
AcDbPoint
 10
-187.9454509626204
 20
418.0694758345264
 30
0.0
  0
ENDBLK
  5
4172
330
4170
100
AcDbEntity
  8
0
100
AcDbBlockEnd
  0
BLOCK
  5
424B
330
424A
100
AcDbEntity
  8
0
100
AcDbBlockBegin
  2
*D32
 70
     1
 10
0.0
 20
0.0
 30
0.0
  3
*D32
  1
*D32
  0
LINE
  5
424D
330
424A
100
AcDbEntity
  8
DIM
 62
     0
 48
0.05
370
    -2
100
AcDbLine
 10
76.09976995940463
 20
111.0720027063599
 30
0.0
 11
76.09976995940463
 21
145.0155751014885
 31
0.0
  0
LINE
  5
424E
330
424A
100
AcDbEntity
  8
DIM
 62
     0
 48
0.05
370
    -2
100
AcDbLine
 10
130.2108389715832
 20
111.0720027063599
 30
0.0
 11
130.2108389715832
 21
145.0155751014885
 31
0.0
  0
LINE
  5
424F
330
424A
100
AcDbEntity
  8
DIM
 62
     0
 48
0.05
370
    -2
100
AcDbLine
 10
77.09976995940463
 20
145.0155751014885
 30
0.0
 11
129.2108389715832
 21
145.0155751014885
 31
0.0
  0
INSERT
  5
4250
330
424A
100
AcDbEntity
  8
DIM
 62
     0
370
    -2
100
AcDbBlockReference
  2
_DOT
 10
76.09976995940463
 20
145.0155751014885
 30
0.0
 50
180.0
  0
INSERT
  5
4251
330
424A
100
AcDbEntity
  8
DIM
 62
     0
370
    -2
100
AcDbBlockReference
  2
_DOT
 10
130.2108389715832
 20
145.0155751014885
 30
0.0
  0
MTEXT
  5
4252
330
424A
100
AcDbEntity
  8
DIM
 62
     0
 48
0.05
100
AcDbMText
 10
103.1553044654939
 20
148.0155751014885
 30
0.0
 40
2.0
 41
0.0
 46
0.0
 71
     5
 72
     1
  1
\A1;54
  7
ＭＳ ゴシック
 73
     1
 44
1.0
  0
POINT
  5
4253
330
424A
100
AcDbEntity
  8
Defpoints
 62
     0
100
AcDbPoint
 10
76.09976995940463
 20
106.0720027063599
 30
0.0
  0
POINT
  5
4254
330
424A
100
AcDbEntity
  8
Defpoints
 62
     0
100
AcDbPoint
 10
130.2108389715832
 20
106.0720027063599
 30
0.0
  0
POINT
  5
4255
330
424A
100
AcDbEntity
  8
Defpoints
 62
     0
100
AcDbPoint
 10
130.2108389715832
 20
145.0155751014885
 30
0.0
  0
ENDBLK
  5
424C
330
424A
100
AcDbEntity
  8
0
100
AcDbBlockEnd
  0
BLOCK
  5
426D
330
426C
100
AcDbEntity
  8
0
100
AcDbBlockBegin
  2
*D33
 70
     1
 10
0.0
 20
0.0
 30
0.0
  3
*D33
  1
*D33
  0
LINE
  5
426F
330
426C
100
AcDbEntity
  8
DIM
 62
     0
 48
0.05
370
    -2
100
AcDbLine
 10
59.94699276211097
 20
116.5064593537213
 30
0.0
 11
59.94699276211097
 21
130.1337849288228
 31
0.0
  0
LINE
  5
4270
330
426C
100
AcDbEntity
  8
DIM
 62
     0
 48
0.05
370
    -2
100
AcDbLine
 10
117.9278230733424
 20
116.5064593537213
 30
0.0
 11
117.9278230733424
 21
130.1337849288228
 31
0.0
  0
LINE
  5
4271
330
426C
100
AcDbEntity
  8
DIM
 62
     0
 48
0.05
370
    -2
100
AcDbLine
 10
60.94699276211097
 20
130.1337849288228
 30
0.0
 11
116.9278230733424
 21
130.1337849288228
 31
0.0
  0
INSERT
  5
4272
330
426C
100
AcDbEntity
  8
DIM
 62
     0
370
    -2
100
AcDbBlockReference
  2
_DOT
 10
59.94699276211097
 20
130.1337849288228
 30
0.0
 50
180.0
  0
INSERT
  5
4273
330
426C
100
AcDbEntity
  8
DIM
 62
     0
370
    -2
100
AcDbBlockReference
  2
_DOT
 10
117.9278230733424
 20
130.1337849288228
 30
0.0
  0
MTEXT
  5
4274
330
426C
100
AcDbEntity
  8
DIM
 62
     0
 48
0.05
100
AcDbMText
 10
88.93740791772667
 20
132.1337849288228
 30
0.0
 40
2.0
 41
0.0
 46
0.0
 71
     5
 72
     1
  1
\A1;58
  7
ＭＳ ゴシック
 73
     1
 44
1.0
  0
POINT
  5
4275
330
426C
100
AcDbEntity
  8
Defpoints
 62
     0
100
AcDbPoint
 10
59.94699276211097
 20
111.5064593537213
 30
0.0
  0
POINT
  5
4276
330
426C
100
AcDbEntity
  8
Defpoints
 62
     0
100
AcDbPoint
 10
117.9278230733424
 20
111.5064593537213
 30
0.0
  0
POINT
  5
4277
330
426C
100
AcDbEntity
  8
Defpoints
 62
     0
100
AcDbPoint
 10
117.9278230733424
 20
130.1337849288228
 30
0.0
  0
ENDBLK
  5
426E
330
426C
100
AcDbEntity
  8
0
100
AcDbBlockEnd
  0
BLOCK
  5
429C
330
429B
100
AcDbEntity
  8
0
100
AcDbBlockBegin
  2
_NONE
 70
     0
 10
0.0
 20
0.0
 30
0.0
  3
_NONE
  1
_NONE
  0
ENDBLK
  5
429D
330
429B
100
AcDbEntity
  8
0
100
AcDbBlockEnd
  0
BLOCK
  5
42FA
330
42F9
100
AcDbEntity
  8
0
100
AcDbBlockBegin
  2
*D35
 70
     1
 10
0.0
 20
0.0
 30
0.0
  3
*D35
  1
*D36
  0
LINE
  5
42FB
330
42F9
100
AcDbEntity
  8
SLD-0
 62
     0
370
    -2
100
AcDbLine
 10
13.26086376132986
 20
31.28687181963716
 30
0.0
 11
13.26086376132986
 21
60.52818225244476
 31
0.0
  0
LINE
  5
42FC
330
42F9
100
AcDbEntity
  8
SLD-0
 62
     0
370
    -2
100
AcDbLine
 10
98.76086376132986
 20
31.28687181963716
 30
0.0
 11
98.76086376132986
 21
60.52818225244476
 31
0.0
  0
LINE
  5
42FD
330
42F9
100
AcDbEntity
  8
SLD-0
 62
     0
370
    -2
100
AcDbLine
 10
15.76086376132986
 20
60.52818225244476
 30
0.0
 11
96.26086376132986
 21
60.52818225244476
 31
0.0
  0
SOLID
  5
42FE
330
42F9
100
AcDbEntity
  8
SLD-0
 62
     0
100
AcDbTrace
 10
15.76086376132986
 20
60.94484891911143
 30
0.0
 11
15.76086376132986
 21
60.1115155857781
 31
0.0
 12
13.26086376132986
 22
60.52818225244476
 32
0.0
 13
13.26086376132986
 23
60.52818225244476
 33
0.0
  0
SOLID
  5
42FF
330
42F9
100
AcDbEntity
  8
SLD-0
 62
     0
100
AcDbTrace
 10
96.26086376132986
 20
60.1115155857781
 30
0.0
 11
96.26086376132986
 21
60.94484891911143
 31
0.0
 12
98.76086376132986
 22
60.52818225244476
 32
0.0
 13
98.76086376132986
 23
60.52818225244476
 33
0.0
  0
MTEXT
  5
4300
330
42F9
100
AcDbEntity
  8
SLD-0
 62
     0
 48
0.05
100
AcDbMText
 10
55.98354411451332
 20
63.65318225244476
 30
0.0
 40
2.5
 41
0.0
 46
0.0
 71
     2
 72
     1
  1
\A1;257
  7
SLDTEXTSTYLE0
 73
     1
 44
1.0
  0
POINT
  5
4342
330
42F9
100
AcDbEntity
  8
Defpoints
 62
     0
100
AcDbPoint
 10
13.26086376132986
 20
31.22437181963716
 30
0.0
  0
POINT
  5
4343
330
42F9
100
AcDbEntity
  8
Defpoints
 62
     0
100
AcDbPoint
 10
98.76086376132986
 20
31.22437181963716
 30
0.0
  0
POINT
  5
4344
330
42F9
100
AcDbEntity
  8
Defpoints
 62
     0
100
AcDbPoint
 10
98.76086376132986
 20
60.52818225244476
 30
0.0
  0
ENDBLK
  5
4301
330
42F9
100
AcDbEntity
  8
0
100
AcDbBlockEnd
  0
BLOCK
  5
4304
330
4303
100
AcDbEntity
  8
0
100
AcDbBlockBegin
  2
*D36
 70
     1
 10
0.0
 20
0.0
 30
0.0
  3
*D36
  1
*D37
  0
LINE
  5
4305
330
4303
100
AcDbEntity
  8
SLD-0
 62
     0
370
    -2
100
AcDbLine
 10
95.07336376132986
 20
32.85000000000002
 30
0.0
 11
108.7608637613299
 21
32.85000000000007
 31
0.0
  0
LINE
  5
4306
330
4303
100
AcDbEntity
  8
SLD-0
 62
     0
370
    -2
100
AcDbLine
 10
95.07336376132986
 20
19.65000000000003
 30
0.0
 11
108.7608637613299
 21
19.65000000000008
 31
0.0
  0
LINE
  5
4307
330
4303
100
AcDbEntity
  8
SLD-0
 62
     0
370
    -2
100
AcDbLine
 10
108.7608637613299
 20
30.35000000000007
 30
0.0
 11
108.7608637613299
 21
22.15000000000008
 31
0.0
  0
SOLID
  5
4308
330
4303
100
AcDbEntity
  8
SLD-0
 62
     0
100
AcDbTrace
 10
109.1775304279965
 20
30.35000000000007
 30
0.0
 11
108.3441970946632
 21
30.35000000000007
 31
0.0
 12
108.7608637613299
 22
32.85000000000007
 32
0.0
 13
108.7608637613299
 23
32.85000000000007
 33
0.0
  0
SOLID
  5
4309
330
4303
100
AcDbEntity
  8
SLD-0
 62
     0
100
AcDbTrace
 10
108.3441970946632
 20
22.15000000000008
 30
0.0
 11
109.1775304279966
 21
22.15000000000008
 31
0.0
 12
108.7608637613299
 22
19.65000000000008
 32
0.0
 13
108.7608637613299
 23
19.65000000000008
 33
0.0
  0
MTEXT
  5
430A
330
4303
100
AcDbEntity
  8
SLD-0
 62
     0
 48
0.05
100
AcDbMText
 10
105.6358637613299
 20
26.15037231651128
 30
0.0
 40
2.5
 41
0.0
 46
0.0
 71
     2
 72
     1
  1
\A1;%%c40
  7
SLDTEXTSTYLE0
 11
-3.229739708000458E-15
 21
1.0
 31
0.0
 73
     1
 44
1.0
  0
POINT
  5
430B
330
4303
100
AcDbEntity
  8
Defpoints
 62
     0
100
AcDbPoint
 10
95.01086376132986
 20
32.85000000000002
 30
0.0
  0
POINT
  5
430C
330
4303
100
AcDbEntity
  8
Defpoints
 62
     0
100
AcDbPoint
 10
95.01086376132986
 20
19.65000000000003
 30
0.0
  0
POINT
  5
430D
330
4303
100
AcDbEntity
  8
Defpoints
 62
     0
100
AcDbPoint
 10
108.7608637613299
 20
19.65000000000008
 30
0.0
  0
ENDBLK
  5
430E
330
4303
100
AcDbEntity
  8
0
100
AcDbBlockEnd
  0
BLOCK
  5
4311
330
4310
100
AcDbEntity
  8
0
100
AcDbBlockBegin
  2
*D37
 70
     1
 10
0.0
 20
0.0
 30
0.0
  3
*D37
  1
*D38
  0
LINE
  5
4312
330
4310
100
AcDbEntity
  8
SLD-0
 62
     0
370
    -2
100
AcDbLine
 10
16.94836376132987
 20
32.85000000000002
 30
0.0
 11
3.260863761329842
 21
32.84999999999997
 31
0.0
  0
LINE
  5
4313
330
4310
100
AcDbEntity
  8
SLD-0
 62
     0
370
    -2
100
AcDbLine
 10
16.94836376132987
 20
19.65000000000003
 30
0.0
 11
3.260863761329888
 21
19.64999999999998
 31
0.0
  0
LINE
  5
4314
330
4310
100
AcDbEntity
  8
SLD-0
 62
     0
370
    -2
100
AcDbLine
 10
3.260863761329851
 20
30.34999999999997
 30
0.0
 11
3.260863761329879
 21
22.14999999999998
 31
0.0
  0
SOLID
  5
4315
330
4310
100
AcDbEntity
  8
SLD-0
 62
     0
100
AcDbTrace
 10
3.677530427996517
 20
30.34999999999997
 30
0.0
 11
2.844197094663184
 21
30.34999999999997
 31
0.0
 12
3.260863761329842
 22
32.84999999999997
 32
0.0
 13
3.260863761329842
 23
32.84999999999997
 33
0.0
  0
SOLID
  5
4316
330
4310
100
AcDbEntity
  8
SLD-0
 62
     0
100
AcDbTrace
 10
2.844197094663213
 20
22.14999999999998
 30
0.0
 11
3.677530427996546
 21
22.14999999999998
 31
0.0
 12
3.260863761329888
 22
19.64999999999998
 32
0.0
 13
3.260863761329888
 23
19.64999999999998
 33
0.0
  0
MTEXT
  5
4317
330
4310
100
AcDbEntity
  8
SLD-0
 62
     0
 48
0.05
100
AcDbMText
 10
0.1358637613298654
 20
26.15037231651131
 30
0.0
 40
2.5
 41
0.0
 46
0.0
 71
     2
 72
     1
  1
\A1;%%c39.6
  7
SLDTEXTSTYLE0
 11
-3.498884683667163E-15
 21
1.0
 31
0.0
 73
     1
 44
1.0
  0
POINT
  5
4318
330
4310
100
AcDbEntity
  8
Defpoints
 62
     0
100
AcDbPoint
 10
17.01086376132987
 20
32.85000000000002
 30
0.0
  0
POINT
  5
4319
330
4310
100
AcDbEntity
  8
Defpoints
 62
     0
100
AcDbPoint
 10
17.01086376132987
 20
19.65000000000003
 30
0.0
  0
POINT
  5
431A
330
4310
100
AcDbEntity
  8
Defpoints
 62
     0
100
AcDbPoint
 10
3.260863761329865
 20
19.64999999999998
 30
0.0
  0
ENDBLK
  5
431B
330
4310
100
AcDbEntity
  8
0
100
AcDbBlockEnd
  0
BLOCK
  5
432D
330
432C
100
AcDbEntity
  8
0
100
AcDbBlockBegin
  2
*D38
 70
     1
 10
0.0
 20
0.0
 30
0.0
  3
*D38
  1
*D39
  0
LINE
  5
432E
330
432C
100
AcDbEntity
  8
SLD-0
 62
     0
370
    -2
100
AcDbLine
 10
142.886186458549
 20
44.2812229202569
 30
0.0
 11
135.0588715523048
 21
52.10853782650099
 31
0.0
  0
LINE
  5
432F
330
432C
100
AcDbEntity
  8
SLD-0
 62
     0
370
    -2
100
AcDbLine
 10
176.8273119555036
 20
10.34009742330278
 30
0.0
 11
176.8273119555036
 21
10.34009742330278
 31
0.0
  0
MTEXT
  5
4330
330
432C
100
AcDbEntity
  8
SLD-0
 62
     0
 48
0.05
100
AcDbMText
 10
137.7105219817544
 20
53.87630477946738
 30
0.0
 40
2.5
 41
0.0
 46
0.0
 71
     1
 72
     1
  1
\A1;%%c30
  7
SLDTEXTSTYLE0
 11
0.7071067811865526
 21
-0.7071067811865425
 31
0.0
 73
     1
 44
1.0
  0
LINE
  5
4331
330
432C
100
AcDbEntity
  8
SLD-0
 62
     0
370
    -2
100
AcDbLine
 10
176.8273119555036
 20
10.34009742330278
 30
0.0
 11
145.0075068021087
 21
42.15990257669728
 31
0.0
  0
SOLID
  5
4332
330
432C
100
AcDbEntity
  8
SLD-0
 62
     0
100
AcDbTrace
 10
142.5326330679557
 20
43.92766952966362
 30
0.0
 11
143.2397398491423
 21
44.63477631085018
 31
0.0
 12
145.0075068021087
 22
42.15990257669728
 32
0.0
 13
145.0075068021087
 23
42.15990257669728
 33
0.0
  0
POINT
  5
4345
330
432C
100
AcDbEntity
  8
Defpoints
 62
     0
100
AcDbPoint
 10
145.0075068021087
 20
42.15990257669728
 30
0.0
  0
POINT
  5
4346
330
432C
100
AcDbEntity
  8
Defpoints
 62
     0
100
AcDbPoint
 10
176.8273119555036
 20
10.34009742330278
 30
0.0
  0
ENDBLK
  5
4333
330
432C
100
AcDbEntity
  8
0
100
AcDbBlockEnd
  0
BLOCK
  5
4336
330
4335
100
AcDbEntity
  8
0
100
AcDbBlockBegin
  2
SW_CENTERMARKSYMBOL_0
 70
     0
 10
0.0
 20
0.0
 30
0.0
  3
SW_CENTERMARKSYMBOL_0
  1
SW_CENTERMARKSYMBOL_0
  0
LINE
  5
4337
330
4335
100
AcDbEntity
  8
SLD-0
 62
     0
100
AcDbLine
 10
0.0
 20
0.0
 30
0.0
 11
0.0
 21
3.750000000000004
 31
0.0
  0
LINE
  5
4338
330
4335
100
AcDbEntity
  8
SLD-0
 62
     0
100
AcDbLine
 10
0.0
 20
0.0
 30
0.0
 11
-3.750000000000004
 21
0.0
 31
0.0
  0
LINE
  5
4339
330
4335
100
AcDbEntity
  8
SLD-0
 62
     0
100
AcDbLine
 10
0.0
 20
0.0
 30
0.0
 11
0.0
 21
-3.750000000000004
 31
0.0
  0
LINE
  5
433A
330
4335
100
AcDbEntity
  8
SLD-0
 62
     0
100
AcDbLine
 10
0.0
 20
0.0
 30
0.0
 11
3.750000000000004
 21
0.0
 31
0.0
  0
LINE
  5
433B
330
4335
100
AcDbEntity
  8
SLD-0
 62
     0
100
AcDbLine
 10
0.0
 20
7.500000000000007
 30
0.0
 11
0.0
 21
26.25000000000002
 31
0.0
  0
LINE
  5
433C
330
4335
100
AcDbEntity
  8
SLD-0
 62
     0
100
AcDbLine
 10
-7.500000000000007
 20
0.0
 30
0.0
 11
-26.25000000000002
 21
0.0
 31
0.0
  0
LINE
  5
433D
330
4335
100
AcDbEntity
  8
SLD-0
 62
     0
100
AcDbLine
 10
0.0
 20
-7.500000000000007
 30
0.0
 11
0.0
 21
-26.25000000000002
 31
0.0
  0
LINE
  5
433E
330
4335
100
AcDbEntity
  8
SLD-0
 62
     0
100
AcDbLine
 10
7.500000000000007
 20
0.0
 30
0.0
 11
26.25000000000002
 21
0.0
 31
0.0
  0
ENDBLK
  5
433F
330
4335
100
AcDbEntity
  8
0
100
AcDbBlockEnd
  0
BLOCK
  5
4399
330
4398
100
AcDbEntity
  8
0
100
AcDbBlockBegin
  2
*D40
 70
     1
 10
0.0
 20
0.0
 30
0.0
  3
*D40
  1
*D41
  0
LINE
  5
439B
330
4398
100
AcDbEntity
  8
DIM
 62
     0
370
    -2
100
AcDbLine
 10
-133.1205794923187
 20
159.5074820659077
 30
0.0
 11
-133.1205794923187
 21
174.0433556877794
 31
0.0
  0
LINE
  5
439C
330
4398
100
AcDbEntity
  8
DIM
 62
     0
370
    -2
100
AcDbLine
 10
-76.12057949231868
 20
159.5074820659077
 30
0.0
 11
-76.12057949231868
 21
174.0433556877794
 31
0.0
  0
LINE
  5
439D
330
4398
100
AcDbEntity
  8
DIM
 62
     0
370
    -2
100
AcDbLine
 10
-132.1205794923187
 20
174.0433556877794
 30
0.0
 11
-77.12057949231868
 21
174.0433556877794
 31
0.0
  0
INSERT
  5
439E
330
4398
100
AcDbEntity
  8
DIM
 62
     0
370
    -2
100
AcDbBlockReference
  2
_DOT
 10
-133.1205794923187
 20
174.0433556877794
 30
0.0
 50
180.0
  0
INSERT
  5
439F
330
4398
100
AcDbEntity
  8
DIM
 62
     0
370
    -2
100
AcDbBlockReference
  2
_DOT
 10
-76.12057949231868
 20
174.0433556877794
 30
0.0
  0
MTEXT
  5
43A0
330
4398
100
AcDbEntity
  8
DIM
 62
     0
100
AcDbMText
 10
-104.6387925901963
 20
177.0433556877794
 30
0.0
 40
2.0
 41
0.0
 46
0.0
 71
     2
 72
     1
  1
\A1;57
  7
ＭＳ ゴシック
 73
     1
 44
1.0
  0
POINT
  5
43A1
330
4398
100
AcDbEntity
  8
Defpoints
 62
     0
100
AcDbPoint
 10
-133.1205794923187
 20
154.5074820659077
 30
0.0
  0
POINT
  5
43A2
330
4398
100
AcDbEntity
  8
Defpoints
 62
     0
100
AcDbPoint
 10
-76.12057949231868
 20
154.5074820659077
 30
0.0
  0
POINT
  5
43A3
330
4398
100
AcDbEntity
  8
Defpoints
 62
     0
100
AcDbPoint
 10
-76.12057949231868
 20
174.0433556877794
 30
0.0
  0
ENDBLK
  5
439A
330
4398
100
AcDbEntity
  8
0
100
AcDbBlockEnd
  0
BLOCK
  5
43A5
330
43A4
100
AcDbEntity
  8
0
100
AcDbBlockBegin
  2
*D41
 70
     1
 10
0.0
 20
0.0
 30
0.0
  3
*D41
  1
*D42
  0
LINE
  5
43A7
330
43A4
100
AcDbEntity
  8
DIM
 62
     0
370
    -2
100
AcDbLine
 10
-73.62057949231868
 20
155.5912341861496
 30
0.0
 11
-69.453912825652
 21
155.5912341861496
 31
0.0
  0
LINE
  5
43A8
330
43A4
100
AcDbEntity
  8
DIM
 62
     0
370
    -2
100
AcDbLine
 10
-73.62057949231868
 20
146.7912341861496
 30
0.0
 11
-69.45391282565197
 21
146.7912341861496
 31
0.0
  0
LINE
  5
43A9
330
43A4
100
AcDbEntity
  8
DIM
 62
     0
370
    -2
100
AcDbLine
 10
-69.453912825652
 20
154.5912341861496
 30
0.0
 11
-69.45391282565197
 21
147.7912341861496
 31
0.0
  0
INSERT
  5
43AA
330
43A4
100
AcDbEntity
  8
DIM
 62
     0
370
    -2
100
AcDbBlockReference
  2
_DOT
 10
-69.453912825652
 20
155.5912341861496
 30
0.0
 50
90.0000000000002
  0
INSERT
  5
43AB
330
43A4
100
AcDbEntity
  8
DIM
 62
     0
370
    -2
100
AcDbBlockReference
  2
_DOT
 10
-69.45391282565197
 20
146.7912341861496
 30
0.0
 50
270.0000000000002
  0
MTEXT
  5
43AC
330
43A4
100
AcDbEntity
  8
DIM
 62
     0
100
AcDbMText
 10
-72.60391282565197
 20
151.1248157304904
 30
0.0
 40
2.0
 41
0.0
 46
0.0
 71
     2
 72
     1
  1
\A1;%%c8.8
  7
ＭＳ ゴシック
 11
-3.229739708000462E-15
 21
1.0
 31
0.0
 73
     1
 44
1.0
  0
POINT
  5
43AD
330
43A4
100
AcDbEntity
  8
Defpoints
 62
     0
100
AcDbPoint
 10
-78.62057949231868
 20
155.5912341861496
 30
0.0
  0
POINT
  5
43AE
330
43A4
100
AcDbEntity
  8
Defpoints
 62
     0
100
AcDbPoint
 10
-78.62057949231868
 20
146.7912341861496
 30
0.0
  0
POINT
  5
43AF
330
43A4
100
AcDbEntity
  8
Defpoints
 62
     0
100
AcDbPoint
 10
-69.45391282565198
 20
146.7912341861496
 30
0.0
  0
ENDBLK
  5
43A6
330
43A4
100
AcDbEntity
  8
0
100
AcDbBlockEnd
  0
BLOCK
  5
43B1
330
43B0
100
AcDbEntity
  8
0
100
AcDbBlockBegin
  2
*D42
 70
     1
 10
0.0
 20
0.0
 30
0.0
  3
*D42
  1
*D43
  0
LINE
  5
43B3
330
43B0
100
AcDbEntity
  8
DIM
 62
     0
370
    -2
100
AcDbLine
 10
-135.6205794923187
 20
155.5912341861496
 30
0.0
 11
-139.7872461589854
 21
155.5912341861496
 31
0.0
  0
LINE
  5
43B4
330
43B0
100
AcDbEntity
  8
DIM
 62
     0
370
    -2
100
AcDbLine
 10
-135.6205794923187
 20
146.7912341861496
 30
0.0
 11
-139.7872461589853
 21
146.7912341861496
 31
0.0
  0
LINE
  5
43B5
330
43B0
100
AcDbEntity
  8
DIM
 62
     0
370
    -2
100
AcDbLine
 10
-139.7872461589854
 20
154.5912341861496
 30
0.0
 11
-139.7872461589853
 21
147.7912341861496
 31
0.0
  0
INSERT
  5
43B6
330
43B0
100
AcDbEntity
  8
DIM
 62
     0
370
    -2
100
AcDbBlockReference
  2
_DOT
 10
-139.7872461589854
 20
155.5912341861496
 30
0.0
 50
90.0000000000002
  0
INSERT
  5
43B7
330
43B0
100
AcDbEntity
  8
DIM
 62
     0
370
    -2
100
AcDbBlockReference
  2
_DOT
 10
-139.7872461589853
 20
146.7912341861496
 30
0.0
 50
270.0000000000002
  0
MTEXT
  5
43B8
330
43B0
100
AcDbEntity
  8
DIM
 62
     0
100
AcDbMText
 10
-142.9372461589853
 20
151.1248157304904
 30
0.0
 40
2.0
 41
0.0
 46
0.0
 71
     2
 72
     1
  1
\A1;%%c8.8
  7
ＭＳ ゴシック
 11
-3.229739708000462E-15
 21
1.0
 31
0.0
 73
     1
 44
1.0
  0
POINT
  5
43B9
330
43B0
100
AcDbEntity
  8
Defpoints
 62
     0
100
AcDbPoint
 10
-130.6205794923187
 20
155.5912341861496
 30
0.0
  0
POINT
  5
43BA
330
43B0
100
AcDbEntity
  8
Defpoints
 62
     0
100
AcDbPoint
 10
-130.6205794923187
 20
146.7912341861496
 30
0.0
  0
POINT
  5
43BB
330
43B0
100
AcDbEntity
  8
Defpoints
 62
     0
100
AcDbPoint
 10
-139.7872461589853
 20
146.7912341861496
 30
0.0
  0
ENDBLK
  5
43B2
330
43B0
100
AcDbEntity
  8
0
100
AcDbBlockEnd
  0
BLOCK
  5
43BD
330
43BC
100
AcDbEntity
  8
0
100
AcDbBlockBegin
  2
*D43
 70
     1
 10
0.0
 20
0.0
 30
0.0
  3
*D43
  1
*D44
  0
LINE
  5
43BF
330
43BC
100
AcDbEntity
  8
DIM
 62
     0
370
    -2
100
AcDbLine
 10
136.1016962585093
 20
162.5049426851343
 30
0.0
 11
130.025176539783
 21
168.5814624038606
 31
0.0
  0
MTEXT
  5
43C0
330
43BC
100
AcDbEntity
  8
DIM
 62
     0
100
AcDbMText
 10
132.8536036645291
 20
169.9956759662337
 30
0.0
 40
2.0
 41
0.0
 46
0.0
 71
     1
 72
     1
  1
\A1;30
  7
ＭＳ ゴシック
 11
0.7071067811865527
 21
-0.7071067811865422
 31
0.0
 73
     1
 44
1.0
  0
INSERT
  5
43C1
330
43BC
100
AcDbEntity
  8
DIM
 62
     0
370
    -2
100
AcDbBlockReference
  2
_DOT
 10
136.8088030396959
 20
161.7978359039477
 30
0.0
 50
315.0000000000004
  0
POINT
  5
43C2
330
43BC
100
AcDbEntity
  8
Defpoints
 62
     0
100
AcDbPoint
 10
136.8088030396959
 20
161.7978359039477
 30
0.0
  0
POINT
  5
43C3
330
43BC
100
AcDbEntity
  8
Defpoints
 62
     0
100
AcDbPoint
 10
158.0220064752925
 20
140.5846324683514
 30
0.0
  0
ENDBLK
  5
43BE
330
43BC
100
AcDbEntity
  8
0
100
AcDbBlockEnd
  0
BLOCK
  5
43DC
330
43DB
100
AcDbEntity
  8
0
100
AcDbBlockBegin
  2
*D44
 70
     1
 10
0.0
 20
0.0
 30
0.0
  3
*D44
  1
*D45
  0
LINE
  5
43DE
330
43DB
100
AcDbEntity
  8
DIM
 62
     0
370
    -2
100
AcDbLine
 10
-31.06104207965248
 20
166.1912341861496
 30
0.0
 11
-9.080443586067387
 21
166.1912341861496
 31
0.0
  0
LINE
  5
43DF
330
43DB
100
AcDbEntity
  8
DIM
 62
     0
370
    -2
100
AcDbLine
 10
-31.06104207965248
 20
136.1912341861495
 30
0.0
 11
-9.080443586067389
 21
136.1912341861495
 31
0.0
  0
LINE
  5
43E0
330
43DB
100
AcDbEntity
  8
DIM
 62
     0
370
    -2
100
AcDbLine
 10
-9.080443586067387
 20
165.1912341861496
 30
0.0
 11
-9.080443586067389
 21
137.1912341861495
 31
0.0
  0
INSERT
  5
43E1
330
43DB
100
AcDbEntity
  8
DIM
 62
     0
370
    -2
100
AcDbBlockReference
  2
_DOT
 10
-9.080443586067387
 20
166.1912341861496
 30
0.0
 50
90.0
  0
INSERT
  5
43E2
330
43DB
100
AcDbEntity
  8
DIM
 62
     0
370
    -2
100
AcDbBlockReference
  2
_DOT
 10
-9.080443586067389
 20
136.1912341861495
 30
0.0
 50
270.0
  0
MTEXT
  5
43E3
330
43DB
100
AcDbEntity
  8
DIM
 62
     0
100
AcDbMText
 10
-11.15544358606738
 20
151.1912341861495
 30
0.0
 40
2.0
 41
0.0
 46
0.0
 71
     5
 72
     1
  1
\A1;%%c30
  7
ＭＳ ゴシック
 11
5.921189464667484E-17
 21
1.0
 31
0.0
 73
     1
 44
1.0
  0
POINT
  5
43E4
330
43DB
100
AcDbEntity
  8
Defpoints
 62
     0
100
AcDbPoint
 10
-36.06104207965248
 20
166.1912341861496
 30
0.0
  0
POINT
  5
43E5
330
43DB
100
AcDbEntity
  8
Defpoints
 62
     0
100
AcDbPoint
 10
-36.06104207965248
 20
136.1912341861495
 30
0.0
  0
POINT
  5
43E6
330
43DB
100
AcDbEntity
  8
Defpoints
 62
     0
100
AcDbPoint
 10
-9.080443586067389
 20
136.1912341861495
 30
0.0
  0
ENDBLK
  5
43DD
330
43DB
100
AcDbEntity
  8
0
100
AcDbBlockEnd
  0
BLOCK
  5
4484
330
4483
100
AcDbEntity
  8
0
100
AcDbBlockBegin
  2
*D45
 70
     1
 10
0.0
 20
0.0
 30
0.0
  3
*D45
  1
*D46
  0
LINE
  5
4485
330
4483
100
AcDbEntity
  8
SLD-0
 62
     0
370
    -2
100
AcDbLine
 10
13.26086376132984
 20
31.28687181963716
 30
0.0
 11
13.26086376132984
 21
61.62168114070593
 31
0.0
  0
LINE
  5
4486
330
4483
100
AcDbEntity
  8
SLD-0
 62
     0
370
    -2
100
AcDbLine
 10
71.01086376132983
 20
48.36250000000001
 30
0.0
 11
71.01086376132983
 21
61.62168114070593
 31
0.0
  0
LINE
  5
4487
330
4483
100
AcDbEntity
  8
SLD-0
 62
     0
370
    -2
100
AcDbLine
 10
15.76086376132984
 20
61.62168114070593
 30
0.0
 11
68.51086376132983
 21
61.62168114070593
 31
0.0
  0
SOLID
  5
4488
330
4483
100
AcDbEntity
  8
SLD-0
 62
     0
100
AcDbTrace
 10
15.76086376132984
 20
62.0383478073726
 30
0.0
 11
15.76086376132984
 21
61.20501447403927
 31
0.0
 12
13.26086376132984
 22
61.62168114070593
 32
0.0
 13
13.26086376132984
 23
61.62168114070593
 33
0.0
  0
SOLID
  5
4489
330
4483
100
AcDbEntity
  8
SLD-0
 62
     0
100
AcDbTrace
 10
68.51086376132983
 20
61.20501447403927
 30
0.0
 11
68.51086376132983
 21
62.0383478073726
 31
0.0
 12
71.01086376132983
 22
61.62168114070593
 32
0.0
 13
71.01086376132983
 23
61.62168114070593
 33
0.0
  0
MTEXT
  5
448A
330
4483
100
AcDbEntity
  8
SLD-0
 62
     0
100
AcDbMText
 10
42.3835238781638
 20
64.74668114070593
 30
0.0
 40
2.5
 41
0.0
 46
0.0
 71
     2
 72
     1
  1
\A1;173
  7
SLDTEXTSTYLE0
 73
     1
 44
1.0
  0
POINT
  5
44BF
330
4483
100
AcDbEntity
  8
Defpoints
 62
     0
100
AcDbPoint
 10
13.26086376132984
 20
31.22437181963716
 30
0.0
  0
POINT
  5
44C0
330
4483
100
AcDbEntity
  8
Defpoints
 62
     0
100
AcDbPoint
 10
71.01086376132983
 20
48.30000000000001
 30
0.0
  0
POINT
  5
44C1
330
4483
100
AcDbEntity
  8
Defpoints
 62
     0
100
AcDbPoint
 10
71.01086376132983
 20
61.62168114070593
 30
0.0
  0
ENDBLK
  5
448B
330
4483
100
AcDbEntity
  8
0
100
AcDbBlockEnd
  0
BLOCK
  5
448E
330
448D
100
AcDbEntity
  8
0
100
AcDbBlockBegin
  2
*D46
 70
     1
 10
0.0
 20
0.0
 30
0.0
  3
*D46
  1
*D47
  0
LINE
  5
448F
330
448D
100
AcDbEntity
  8
SLD-0
 62
     0
370
    -2
100
AcDbLine
 10
16.94836376132984
 20
32.85000000000002
 30
0.0
 11
3.260863761329808
 21
32.84999999999997
 31
0.0
  0
LINE
  5
4490
330
448D
100
AcDbEntity
  8
SLD-0
 62
     0
370
    -2
100
AcDbLine
 10
16.94836376132984
 20
19.65000000000003
 30
0.0
 11
3.260863761329854
 21
19.64999999999998
 31
0.0
  0
LINE
  5
4491
330
448D
100
AcDbEntity
  8
SLD-0
 62
     0
370
    -2
100
AcDbLine
 10
3.260863761329817
 20
30.34999999999997
 30
0.0
 11
3.260863761329845
 21
22.14999999999998
 31
0.0
  0
SOLID
  5
4492
330
448D
100
AcDbEntity
  8
SLD-0
 62
     0
100
AcDbTrace
 10
3.677530427996483
 20
30.34999999999997
 30
0.0
 11
2.84419709466315
 21
30.34999999999997
 31
0.0
 12
3.260863761329808
 22
32.84999999999997
 32
0.0
 13
3.260863761329808
 23
32.84999999999997
 33
0.0
  0
SOLID
  5
4493
330
448D
100
AcDbEntity
  8
SLD-0
 62
     0
100
AcDbTrace
 10
2.844197094663178
 20
22.14999999999998
 30
0.0
 11
3.677530427996512
 21
22.14999999999998
 31
0.0
 12
3.260863761329854
 22
19.64999999999998
 32
0.0
 13
3.260863761329854
 23
19.64999999999998
 33
0.0
  0
MTEXT
  5
4494
330
448D
100
AcDbEntity
  8
SLD-0
 62
     0
100
AcDbMText
 10
0.1358637613298299
 20
26.50554675827333
 30
0.0
 40
2.5
 41
0.0
 46
0.0
 71
     2
 72
     1
  1
\A1;%%c40
  7
SLDTEXTSTYLE0
 11
-3.498884683667163E-15
 21
1.0
 31
0.0
 73
     1
 44
1.0
  0
POINT
  5
4495
330
448D
100
AcDbEntity
  8
Defpoints
 62
     0
100
AcDbPoint
 10
17.01086376132984
 20
32.85000000000002
 30
0.0
  0
POINT
  5
4496
330
448D
100
AcDbEntity
  8
Defpoints
 62
     0
100
AcDbPoint
 10
17.01086376132984
 20
19.65000000000003
 30
0.0
  0
POINT
  5
4497
330
448D
100
AcDbEntity
  8
Defpoints
 62
     0
100
AcDbPoint
 10
3.26086376132983
 20
19.64999999999998
 30
0.0
  0
ENDBLK
  5
4498
330
448D
100
AcDbEntity
  8
0
100
AcDbBlockEnd
  0
BLOCK
  5
44AA
330
44A9
100
AcDbEntity
  8
0
100
AcDbBlockBegin
  2
*D47
 70
     1
 10
0.0
 20
0.0
 30
0.0
  3
*D47
  1
*D48
  0
LINE
  5
44AB
330
44A9
100
AcDbEntity
  8
SLD-0
 62
     0
370
    -2
100
AcDbLine
 10
124.0297735349624
 20
43.92766952926475
 30
0.0
 11
113.2675622054838
 21
54.68988085825755
 31
0.0
  0
MTEXT
  5
44AC
330
44A9
100
AcDbEntity
  8
SLD-0
 62
     0
100
AcDbMText
 10
115.9192126348935
 20
56.45764781128376
 30
0.0
 40
2.5
 41
0.0
 46
0.0
 71
     1
 72
     1
  1
\A1;%%c135
  7
SLDTEXTSTYLE0
 11
0.7071067812025073
 21
-0.7071067811705878
 31
0.0
 73
     1
 44
1.0
  0
SOLID
  5
44AD
330
44A9
100
AcDbEntity
  8
SLD-0
 62
     0
100
AcDbTrace
 10
123.7351457094747
 20
43.63304170376371
 30
0.0
 11
124.3244013604502
 21
44.2222973547658
 31
0.0
 12
125.7975404879687
 22
42.15990257633828
 32
0.0
 13
125.7975404879687
 23
42.15990257633828
 33
0.0
  0
LINE
  5
44AE
330
44A9
100
AcDbEntity
  8
SLD-0
 62
     0
100
AcDbLine
 10
141.6174430650251
 20
26.25000000000003
 30
0.0
 11
141.7974430650251
 21
26.25000000000003
 31
0.0
  0
LINE
  5
44AF
330
44A9
100
AcDbEntity
  8
SLD-0
 62
     0
100
AcDbLine
 10
141.7074430650251
 20
26.16000000000003
 30
0.0
 11
141.7074430650251
 21
26.34000000000003
 31
0.0
  0
POINT
  5
44C2
330
44A9
100
AcDbEntity
  8
Defpoints
 62
     0
100
AcDbPoint
 10
125.7975404879687
 20
42.15990257633828
 30
0.0
  0
POINT
  5
44C3
330
44A9
100
AcDbEntity
  8
Defpoints
 62
     0
100
AcDbPoint
 10
157.6173456420816
 20
10.34009742366177
 30
0.0
  0
ENDBLK
  5
44B0
330
44A9
100
AcDbEntity
  8
0
100
AcDbBlockEnd
  0
BLOCK
  5
4507
330
4506
100
AcDbEntity
  8
0
100
AcDbBlockBegin
  2
*D48
 70
     1
 10
0.0
 20
0.0
 30
0.0
  3
*D48
  1
*D49
  0
LINE
  5
4509
330
4506
100
AcDbEntity
  8
DIM
 62
     0
370
    -2
100
AcDbLine
 10
50.99365335089588
 20
160.548251417847
 30
0.0
 11
50.99365335089588
 21
175.8131242985595
 31
0.0
  0
LINE
  5
450A
330
4506
100
AcDbEntity
  8
DIM
 62
     0
370
    -2
100
AcDbLine
 10
89.49365335089587
 20
171.9320035380888
 30
0.0
 11
89.49365335089587
 21
175.8131242985595
 31
0.0
  0
LINE
  5
450B
330
4506
100
AcDbEntity
  8
DIM
 62
     0
370
    -2
100
AcDbLine
 10
51.99365335089588
 20
175.8131242985595
 30
0.0
 11
88.49365335089587
 21
175.8131242985595
 31
0.0
  0
INSERT
  5
450C
330
4506
100
AcDbEntity
  8
DIM
 62
     0
370
    -2
100
AcDbBlockReference
  2
_DOT
 10
50.99365335089588
 20
175.8131242985595
 30
0.0
 50
180.0
  0
INSERT
  5
450D
330
4506
100
AcDbEntity
  8
DIM
 62
     0
370
    -2
100
AcDbBlockReference
  2
_DOT
 10
89.49365335089587
 20
175.8131242985595
 30
0.0
  0
MTEXT
  5
450E
330
4506
100
AcDbEntity
  8
DIM
 62
     0
100
AcDbMText
 10
70.40876009545185
 20
178.8131242985595
 30
0.0
 40
2.0
 41
0.0
 46
0.0
 71
     2
 72
     1
  1
\A1;38.5
  7
ＭＳ ゴシック
 73
     1
 44
1.0
  0
POINT
  5
450F
330
4506
100
AcDbEntity
  8
Defpoints
 62
     0
100
AcDbPoint
 10
50.99365335089588
 20
155.548251417847
 30
0.0
  0
POINT
  5
4510
330
4506
100
AcDbEntity
  8
Defpoints
 62
     0
100
AcDbPoint
 10
89.49365335089587
 20
166.9320035380888
 30
0.0
  0
POINT
  5
4511
330
4506
100
AcDbEntity
  8
Defpoints
 62
     0
100
AcDbPoint
 10
89.49365335089587
 20
175.8131242985595
 30
0.0
  0
ENDBLK
  5
4508
330
4506
100
AcDbEntity
  8
0
100
AcDbBlockEnd
  0
BLOCK
  5
4513
330
4512
100
AcDbEntity
  8
0
100
AcDbBlockBegin
  2
*D49
 70
     1
 10
0.0
 20
0.0
 30
0.0
  3
*D49
  1
*D50
  0
LINE
  5
4515
330
4512
100
AcDbEntity
  8
DIM
 62
     0
370
    -2
100
AcDbLine
 10
48.49365335089588
 20
156.6320035380889
 30
0.0
 11
44.3269866842292
 21
156.6320035380889
 31
0.0
  0
LINE
  5
4516
330
4512
100
AcDbEntity
  8
DIM
 62
     0
370
    -2
100
AcDbLine
 10
48.49365335089588
 20
147.8320035380889
 30
0.0
 11
44.32698668422923
 21
147.8320035380889
 31
0.0
  0
LINE
  5
4517
330
4512
100
AcDbEntity
  8
DIM
 62
     0
370
    -2
100
AcDbLine
 10
44.3269866842292
 20
155.6320035380889
 30
0.0
 11
44.32698668422923
 21
148.8320035380889
 31
0.0
  0
INSERT
  5
4518
330
4512
100
AcDbEntity
  8
DIM
 62
     0
370
    -2
100
AcDbBlockReference
  2
_DOT
 10
44.3269866842292
 20
156.6320035380889
 30
0.0
 50
90.0000000000002
  0
INSERT
  5
4519
330
4512
100
AcDbEntity
  8
DIM
 62
     0
370
    -2
100
AcDbBlockReference
  2
_DOT
 10
44.32698668422923
 20
147.8320035380889
 30
0.0
 50
270.0000000000002
  0
MTEXT
  5
451A
330
4512
100
AcDbEntity
  8
DIM
 62
     0
100
AcDbMText
 10
41.17698668422922
 20
152.4023680436044
 30
0.0
 40
2.0
 41
0.0
 46
0.0
 71
     2
 72
     1
  1
\A1;%%c8.8
  7
ＭＳ ゴシック
 11
-3.229739708000451E-15
 21
1.0
 31
0.0
 73
     1
 44
1.0
  0
POINT
  5
451B
330
4512
100
AcDbEntity
  8
Defpoints
 62
     0
100
AcDbPoint
 10
53.49365335089588
 20
156.6320035380889
 30
0.0
  0
POINT
  5
451C
330
4512
100
AcDbEntity
  8
Defpoints
 62
     0
100
AcDbPoint
 10
53.49365335089588
 20
147.8320035380889
 30
0.0
  0
POINT
  5
451D
330
4512
100
AcDbEntity
  8
Defpoints
 62
     0
100
AcDbPoint
 10
44.32698668422923
 20
147.8320035380889
 30
0.0
  0
ENDBLK
  5
4514
330
4512
100
AcDbEntity
  8
0
100
AcDbBlockEnd
  0
BLOCK
  5
451F
330
451E
100
AcDbEntity
  8
0
100
AcDbBlockBegin
  2
*D50
 70
     1
 10
0.0
 20
0.0
 30
0.0
  3
*D50
  1
*D51
  0
LINE
  5
4521
330
451E
100
AcDbEntity
  8
MODEL
 62
     0
370
    -2
100
AcDbLine
 10
116.1116925390902
 20
142.4459206505464
 30
0.0
 11
108.6825622471319
 21
149.8750509421693
 31
0.0
  0
MTEXT
  5
4522
330
451E
100
AcDbEntity
  8
MODEL
 62
     0
100
AcDbMText
 10
111.5109893718462
 20
151.2892645046063
 30
0.0
 40
2.0
 41
0.0
 46
0.0
 71
     1
 72
     1
  1
\A1;30
  7
ＭＳ ゴシック
 11
0.7071067812025068
 21
-0.7071067811705883
 31
0.0
 73
     1
 44
1.0
  0
INSERT
  5
4523
330
451E
100
AcDbEntity
  8
MODEL
 62
     0
370
    -2
100
AcDbBlockReference
  2
_DOT
 10
116.8187993202927
 20
141.7388138693759
 30
0.0
 50
315.0000000012931
  0
POINT
  5
4524
330
451E
100
AcDbEntity
  8
Defpoints
 62
     0
100
AcDbPoint
 10
116.8187993202927
 20
141.7388138693759
 30
0.0
  0
POINT
  5
4525
330
451E
100
AcDbEntity
  8
Defpoints
 62
     0
100
AcDbPoint
 10
138.0320027563679
 20
120.5256104342582
 30
0.0
  0
ENDBLK
  5
4520
330
451E
100
AcDbEntity
  8
0
100
AcDbBlockEnd
  0
BLOCK
  5
452C
330
452B
100
AcDbEntity
  8
0
100
AcDbBlockBegin
  2
*D51
 70
     1
 10
0.0
 20
0.0
 30
0.0
  3
*D51
  1
*D52
  0
LINE
  5
452E
330
452B
100
AcDbEntity
  8
DIM
 62
     0
370
    -2
100
AcDbLine
 10
167.7806941443481
 20
166.8744549125169
 30
0.0
 11
184.2743273646527
 21
166.8744549125169
 31
0.0
  0
LINE
  5
452F
330
452B
100
AcDbEntity
  8
DIM
 62
     0
370
    -2
100
AcDbLine
 10
167.7806941443481
 20
121.8744549125169
 30
0.0
 11
184.2743273646527
 21
121.8744549125169
 31
0.0
  0
LINE
  5
4530
330
452B
100
AcDbEntity
  8
DIM
 62
     0
370
    -2
100
AcDbLine
 10
184.2743273646527
 20
165.8744549125169
 30
0.0
 11
184.2743273646527
 21
122.8744549125169
 31
0.0
  0
INSERT
  5
4531
330
452B
100
AcDbEntity
  8
DIM
 62
     0
370
    -2
100
AcDbBlockReference
  2
_DOT
 10
184.2743273646527
 20
166.8744549125169
 30
0.0
 50
90.0
  0
INSERT
  5
4532
330
452B
100
AcDbEntity
  8
DIM
 62
     0
370
    -2
100
AcDbBlockReference
  2
_DOT
 10
184.2743273646527
 20
121.8744549125169
 30
0.0
 50
270.0
  0
MTEXT
  5
4533
330
452B
100
AcDbEntity
  8
DIM
 62
     0
100
AcDbMText
 10
182.2743273646527
 20
144.3744549125169
 30
0.0
 40
2.0
 41
0.0
 46
0.0
 71
     5
 72
     1
  1
\A1;45
  7
ＭＳ ゴシック
 11
0.0
 21
1.0
 31
0.0
 73
     1
 44
1.0
  0
POINT
  5
4534
330
452B
100
AcDbEntity
  8
Defpoints
 62
     0
100
AcDbPoint
 10
162.7806941443481
 20
166.8744549125169
 30
0.0
  0
POINT
  5
4535
330
452B
100
AcDbEntity
  8
Defpoints
 62
     0
100
AcDbPoint
 10
162.7806941443481
 20
121.8744549125169
 30
0.0
  0
POINT
  5
4536
330
452B
100
AcDbEntity
  8
Defpoints
 62
     0
100
AcDbPoint
 10
184.2743273646527
 20
121.8744549125169
 30
0.0
  0
ENDBLK
  5
452D
330
452B
100
AcDbEntity
  8
0
100
AcDbBlockEnd
  0
BLOCK
  5
453B
330
453A
100
AcDbEntity
  8
0
100
AcDbBlockBegin
  2
*D52
 70
     1
 10
0.0
 20
0.0
 30
0.0
  3
*D52
  1
*D53
  0
LINE
  5
453D
330
453A
100
AcDbEntity
  8
DIM
 62
     0
370
    -2
100
AcDbLine
 10
141.6247062200261
 20
167.2320035380889
 30
0.0
 11
163.216164745541
 21
167.2320035380889
 31
0.0
  0
LINE
  5
453E
330
453A
100
AcDbEntity
  8
DIM
 62
     0
370
    -2
100
AcDbLine
 10
141.6247062200261
 20
137.2320035380889
 30
0.0
 11
163.216164745541
 21
137.2320035380889
 31
0.0
  0
LINE
  5
453F
330
453A
100
AcDbEntity
  8
DIM
 62
     0
370
    -2
100
AcDbLine
 10
163.216164745541
 20
166.2320035380889
 30
0.0
 11
163.216164745541
 21
138.2320035380889
 31
0.0
  0
INSERT
  5
4540
330
453A
100
AcDbEntity
  8
DIM
 62
     0
370
    -2
100
AcDbBlockReference
  2
_DOT
 10
163.216164745541
 20
167.2320035380889
 30
0.0
 50
90.0
  0
INSERT
  5
4541
330
453A
100
AcDbEntity
  8
DIM
 62
     0
370
    -2
100
AcDbBlockReference
  2
_DOT
 10
163.216164745541
 20
137.2320035380889
 30
0.0
 50
270.0
  0
MTEXT
  5
4542
330
453A
100
AcDbEntity
  8
DIM
 62
     0
100
AcDbMText
 10
161.141164745541
 20
152.2320035380889
 30
0.0
 40
2.0
 41
0.0
 46
0.0
 71
     5
 72
     1
  1
\A1;%%c30
  7
ＭＳ ゴシック
 11
0.0
 21
1.0
 31
0.0
 73
     1
 44
1.0
  0
POINT
  5
4543
330
453A
100
AcDbEntity
  8
Defpoints
 62
     0
100
AcDbPoint
 10
136.6247062200261
 20
167.2320035380889
 30
0.0
  0
POINT
  5
4544
330
453A
100
AcDbEntity
  8
Defpoints
 62
     0
100
AcDbPoint
 10
136.6247062200261
 20
137.2320035380889
 30
0.0
  0
POINT
  5
4545
330
453A
100
AcDbEntity
  8
Defpoints
 62
     0
100
AcDbPoint
 10
163.216164745541
 20
137.2320035380889
 30
0.0
  0
ENDBLK
  5
453C
330
453A
100
AcDbEntity
  8
0
100
AcDbBlockEnd
  0
BLOCK
  5
45E3
330
45E2
100
AcDbEntity
  8
0
100
AcDbBlockBegin
  2
*D53
 70
     1
 10
0.0
 20
0.0
 30
0.0
  3
*D53
  1
*D54
  0
LINE
  5
45E4
330
45E2
100
AcDbEntity
  8
SLD-0
 62
     0
370
    -2
100
AcDbLine
 10
13.12500000000003
 20
31.28687181963716
 30
0.0
 11
13.12500000000003
 21
61.62168114070593
 31
0.0
  0
LINE
  5
45E5
330
45E2
100
AcDbEntity
  8
SLD-0
 62
     0
370
    -2
100
AcDbLine
 10
70.87500000000001
 20
48.36250000000001
 30
0.0
 11
70.87500000000001
 21
61.62168114070593
 31
0.0
  0
LINE
  5
45E6
330
45E2
100
AcDbEntity
  8
SLD-0
 62
     0
370
    -2
100
AcDbLine
 10
15.62500000000003
 20
61.62168114070593
 30
0.0
 11
68.37500000000001
 21
61.62168114070593
 31
0.0
  0
SOLID
  5
45E7
330
45E2
100
AcDbEntity
  8
SLD-0
 62
     0
100
AcDbTrace
 10
15.62500000000003
 20
62.0383478073726
 30
0.0
 11
15.62500000000003
 21
61.20501447403927
 31
0.0
 12
13.12500000000003
 22
61.62168114070593
 32
0.0
 13
13.12500000000003
 23
61.62168114070593
 33
0.0
  0
SOLID
  5
45E8
330
45E2
100
AcDbEntity
  8
SLD-0
 62
     0
100
AcDbTrace
 10
68.37500000000001
 20
61.20501447403927
 30
0.0
 11
68.37500000000001
 21
62.0383478073726
 31
0.0
 12
70.87500000000001
 22
61.62168114070593
 32
0.0
 13
70.87500000000001
 23
61.62168114070593
 33
0.0
  0
MTEXT
  5
45E9
330
45E2
100
AcDbEntity
  8
SLD-0
 62
     0
100
AcDbMText
 10
42.24766011683398
 20
64.74668114070593
 30
0.0
 40
2.5
 41
0.0
 46
0.0
 71
     2
 72
     1
  1
\A1;173
  7
SLDTEXTSTYLE0
 73
     1
 44
1.0
  0
POINT
  5
45EA
330
45E2
100
AcDbEntity
  8
Defpoints
 62
     0
100
AcDbPoint
 10
13.12500000000003
 20
31.22437181963716
 30
0.0
  0
POINT
  5
45EB
330
45E2
100
AcDbEntity
  8
Defpoints
 62
     0
100
AcDbPoint
 10
70.87500000000001
 20
48.30000000000001
 30
0.0
  0
POINT
  5
45EC
330
45E2
100
AcDbEntity
  8
Defpoints
 62
     0
100
AcDbPoint
 10
70.87500000000001
 20
61.62168114070593
 30
0.0
  0
ENDBLK
  5
45ED
330
45E2
100
AcDbEntity
  8
0
100
AcDbBlockEnd
  0
BLOCK
  5
45F0
330
45EF
100
AcDbEntity
  8
0
100
AcDbBlockBegin
  2
*D54
 70
     1
 10
0.0
 20
0.0
 30
0.0
  3
*D54
  1
*D55
  0
LINE
  5
45F1
330
45EF
100
AcDbEntity
  8
SLD-0
 62
     0
370
    -2
100
AcDbLine
 10
16.81250000000003
 20
32.85000000000002
 30
0.0
 11
3.124999999999992
 21
32.84999999999997
 31
0.0
  0
LINE
  5
45F2
330
45EF
100
AcDbEntity
  8
SLD-0
 62
     0
370
    -2
100
AcDbLine
 10
16.81250000000003
 20
19.65000000000003
 30
0.0
 11
3.125000000000038
 21
19.64999999999998
 31
0.0
  0
LINE
  5
45F3
330
45EF
100
AcDbEntity
  8
SLD-0
 62
     0
370
    -2
100
AcDbLine
 10
3.125000000000001
 20
30.34999999999997
 30
0.0
 11
3.125000000000029
 21
22.14999999999998
 31
0.0
  0
SOLID
  5
45F4
330
45EF
100
AcDbEntity
  8
SLD-0
 62
     0
100
AcDbTrace
 10
3.541666666666667
 20
30.34999999999997
 30
0.0
 11
2.708333333333334
 21
30.34999999999997
 31
0.0
 12
3.124999999999992
 22
32.84999999999997
 32
0.0
 13
3.124999999999992
 23
32.84999999999997
 33
0.0
  0
SOLID
  5
45F5
330
45EF
100
AcDbEntity
  8
SLD-0
 62
     0
100
AcDbTrace
 10
2.708333333333363
 20
22.14999999999998
 30
0.0
 11
3.541666666666696
 21
22.14999999999998
 31
0.0
 12
3.125000000000038
 22
19.64999999999998
 32
0.0
 13
3.125000000000038
 23
19.64999999999998
 33
0.0
  0
MTEXT
  5
45F6
330
45EF
100
AcDbEntity
  8
SLD-0
 62
     0
100
AcDbMText
 10
0.0000000000000142
 20
26.50554675827333
 30
0.0
 40
2.5
 41
0.0
 46
0.0
 71
     2
 72
     1
  1
\A1;%%c40
  7
SLDTEXTSTYLE0
 11
-3.498884683667163E-15
 21
1.0
 31
0.0
 73
     1
 44
1.0
  0
POINT
  5
45F7
330
45EF
100
AcDbEntity
  8
Defpoints
 62
     0
100
AcDbPoint
 10
16.87500000000003
 20
32.85000000000002
 30
0.0
  0
POINT
  5
45F8
330
45EF
100
AcDbEntity
  8
Defpoints
 62
     0
100
AcDbPoint
 10
16.87500000000003
 20
19.65000000000003
 30
0.0
  0
POINT
  5
45F9
330
45EF
100
AcDbEntity
  8
Defpoints
 62
     0
100
AcDbPoint
 10
3.125000000000038
 20
19.64999999999998
 30
0.0
  0
ENDBLK
  5
45FA
330
45EF
100
AcDbEntity
  8
0
100
AcDbBlockEnd
  0
BLOCK
  5
460C
330
460B
100
AcDbEntity
  8
0
100
AcDbBlockBegin
  2
*D55
 70
     1
 10
0.0
 20
0.0
 30
0.0
  3
*D55
  1
*D56
  0
LINE
  5
460D
330
460B
100
AcDbEntity
  8
SLD-0
 62
     0
370
    -2
100
AcDbLine
 10
123.8939097736326
 20
43.92766952926475
 30
0.0
 11
113.131698444154
 21
54.68988085825755
 31
0.0
  0
MTEXT
  5
460E
330
460B
100
AcDbEntity
  8
SLD-0
 62
     0
100
AcDbMText
 10
115.7833488735637
 20
56.45764781128376
 30
0.0
 40
2.5
 41
0.0
 46
0.0
 71
     1
 72
     1
  1
\A1;%%c135
  7
SLDTEXTSTYLE0
 11
0.707106781202507
 21
-0.7071067811705879
 31
0.0
 73
     1
 44
1.0
  0
SOLID
  5
460F
330
460B
100
AcDbEntity
  8
SLD-0
 62
     0
100
AcDbTrace
 10
123.5992819481448
 20
43.63304170376371
 30
0.0
 11
124.1885375991204
 21
44.2222973547658
 31
0.0
 12
125.6616767266389
 22
42.15990257633828
 32
0.0
 13
125.6616767266389
 23
42.15990257633828
 33
0.0
  0
LINE
  5
4610
330
460B
100
AcDbEntity
  8
SLD-0
 62
     0
100
AcDbLine
 10
141.4815793036953
 20
26.25000000000003
 30
0.0
 11
141.6615793036953
 21
26.25000000000003
 31
0.0
  0
LINE
  5
4611
330
460B
100
AcDbEntity
  8
SLD-0
 62
     0
100
AcDbLine
 10
141.5715793036953
 20
26.16000000000003
 30
0.0
 11
141.5715793036953
 21
26.34000000000003
 31
0.0
  0
POINT
  5
4612
330
460B
100
AcDbEntity
  8
Defpoints
 62
     0
100
AcDbPoint
 10
125.6616767266389
 20
42.15990257633828
 30
0.0
  0
POINT
  5
4613
330
460B
100
AcDbEntity
  8
Defpoints
 62
     0
100
AcDbPoint
 10
157.4814818807517
 20
10.34009742366177
 30
0.0
  0
ENDBLK
  5
4614
330
460B
100
AcDbEntity
  8
0
100
AcDbBlockEnd
  0
BLOCK
  5
466D
330
466C
100
AcDbEntity
  8
0
100
AcDbBlockBegin
  2
*D56
 70
     1
 10
0.0
 20
0.0
 30
0.0
  3
*D56
  1
*D58
  0
LINE
  5
466E
330
466C
100
AcDbEntity
  8
SLD-0
 62
     0
370
    -2
100
AcDbLine
 10
13.79836376132982
 20
64.99999999999991
 30
0.0
 11
3.260863761329754
 21
64.99999999999987
 31
0.0
  0
LINE
  5
466F
330
466C
100
AcDbEntity
  8
SLD-0
 62
     0
370
    -2
100
AcDbLine
 10
13.79836376132982
 20
28.99999999999993
 30
0.0
 11
3.26086376132988
 21
28.99999999999989
 31
0.0
  0
LINE
  5
4670
330
466C
100
AcDbEntity
  8
SLD-0
 62
     0
370
    -2
100
AcDbLine
 10
3.260863761329763
 20
62.49999999999987
 30
0.0
 11
3.260863761329871
 21
31.49999999999989
 31
0.0
  0
SOLID
  5
4671
330
466C
100
AcDbEntity
  8
SLD-0
 62
     0
100
AcDbTrace
 10
3.67753042799643
 20
62.49999999999987
 30
0.0
 11
2.844197094663097
 21
62.49999999999987
 31
0.0
 12
3.260863761329754
 22
64.99999999999987
 32
0.0
 13
3.260863761329754
 23
64.99999999999987
 33
0.0
  0
SOLID
  5
4672
330
466C
100
AcDbEntity
  8
SLD-0
 62
     0
100
AcDbTrace
 10
2.844197094663205
 20
31.49999999999989
 30
0.0
 11
3.677530427996538
 21
31.49999999999989
 31
0.0
 12
3.26086376132988
 22
28.99999999999989
 32
0.0
 13
3.26086376132988
 23
28.99999999999989
 33
0.0
  0
MTEXT
  5
4673
330
466C
100
AcDbEntity
  8
SLD-0
 62
     0
100
AcDbMText
 10
0.1358637613298157
 20
47.39484272938707
 30
0.0
 40
2.5
 41
0.0
 46
0.0
 71
     2
 72
     1
  1
\A1;%%c108
  7
SLDTEXTSTYLE0
 11
-3.491034621876883E-15
 21
1.0
 31
0.0
 73
     1
 44
1.0
  0
POINT
  5
4674
330
466C
100
AcDbEntity
  8
Defpoints
 62
     0
100
AcDbPoint
 10
13.86086376132982
 20
64.99999999999991
 30
0.0
  0
POINT
  5
46BD
330
466C
100
AcDbEntity
  8
Defpoints
 62
     0
100
AcDbPoint
 10
13.86086376132982
 20
28.99999999999993
 30
0.0
  0
POINT
  5
46BE
330
466C
100
AcDbEntity
  8
Defpoints
 62
     0
100
AcDbPoint
 10
3.26086376132988
 20
28.99999999999989
 30
0.0
  0
ENDBLK
  5
4675
330
466C
100
AcDbEntity
  8
0
100
AcDbBlockEnd
  0
BLOCK
  5
4678
330
4677
100
AcDbEntity
  8
0
100
AcDbBlockBegin
  2
*D57
 70
     1
 10
0.0
 20
0.0
 30
0.0
  3
*D57
  1
*D59
  0
LINE
  5
4679
330
4677
100
AcDbEntity
  8
SLD-0
 62
     0
370
    -2
100
AcDbLine
 10
55.26086376132984
 20
16.93749999999991
 30
0.0
 11
55.26086376132984
 21
0.9999999999999716
 31
0.0
  0
LINE
  5
467A
330
4677
100
AcDbEntity
  8
SLD-0
 62
     0
370
    -2
100
AcDbLine
 10
67.26086376132982
 20
17.53749999999992
 30
0.0
 11
67.26086376132982
 21
0.9999999999999716
 31
0.0
  0
LINE
  5
467B
330
4677
100
AcDbEntity
  8
SLD-0
 62
     0
370
    -2
100
AcDbLine
 10
57.76086376132984
 20
0.9999999999999716
 30
0.0
 11
64.76086376132982
 21
0.9999999999999716
 31
0.0
  0
SOLID
  5
467C
330
4677
100
AcDbEntity
  8
SLD-0
 62
     0
100
AcDbTrace
 10
57.76086376132984
 20
1.416666666666638
 30
0.0
 11
57.76086376132984
 21
0.5833333333333048
 31
0.0
 12
55.26086376132984
 22
0.9999999999999716
 32
0.0
 13
55.26086376132984
 23
0.9999999999999716
 33
0.0
  0
SOLID
  5
467D
330
4677
100
AcDbEntity
  8
SLD-0
 62
     0
100
AcDbTrace
 10
64.76086376132982
 20
0.5833333333333048
 30
0.0
 11
64.76086376132982
 21
1.416666666666638
 31
0.0
 12
67.26086376132982
 22
0.9999999999999716
 32
0.0
 13
67.26086376132982
 23
0.9999999999999716
 33
0.0
  0
MTEXT
  5
467E
330
4677
100
AcDbEntity
  8
SLD-0
 62
     0
100
AcDbMText
 10
61.06215350086721
 20
4.124999999999972
 30
0.0
 40
2.5
 41
0.0
 46
0.0
 71
     2
 72
     1
  1
\A1;36
  7
SLDTEXTSTYLE0
 73
     1
 44
1.0
  0
POINT
  5
467F
330
4677
100
AcDbEntity
  8
Defpoints
 62
     0
100
AcDbPoint
 10
55.26086376132984
 20
16.99999999999991
 30
0.0
  0
POINT
  5
4680
330
4677
100
AcDbEntity
  8
Defpoints
 62
     0
100
AcDbPoint
 10
67.26086376132982
 20
17.59999999999992
 30
0.0
  0
POINT
  5
46BF
330
4677
100
AcDbEntity
  8
Defpoints
 62
     0
100
AcDbPoint
 10
67.26086376132982
 20
0.9999999999999716
 30
0.0
  0
ENDBLK
  5
4681
330
4677
100
AcDbEntity
  8
0
100
AcDbBlockEnd
  0
BLOCK
  5
4684
330
4683
100
AcDbEntity
  8
0
100
AcDbBlockBegin
  2
*D58
 70
     1
 10
0.0
 20
0.0
 30
0.0
  3
*D58
  1
*D60
  0
LINE
  5
4685
330
4683
100
AcDbEntity
  8
SLD-0
 62
     0
370
    -2
100
AcDbLine
 10
66.72336376132985
 20
76.99999999999991
 30
0.0
 11
83.26086376132974
 21
76.99999999999999
 31
0.0
  0
LINE
  5
4686
330
4683
100
AcDbEntity
  8
SLD-0
 62
     0
370
    -2
100
AcDbLine
 10
66.72336376132985
 20
16.99999999999991
 30
0.0
 11
83.26086376132996
 21
16.99999999999999
 31
0.0
  0
LINE
  5
4687
330
4683
100
AcDbEntity
  8
SLD-0
 62
     0
370
    -2
100
AcDbLine
 10
83.26086376132976
 20
74.49999999999999
 30
0.0
 11
83.26086376132994
 21
19.49999999999999
 31
0.0
  0
SOLID
  5
4688
330
4683
100
AcDbEntity
  8
SLD-0
 62
     0
100
AcDbTrace
 10
83.67753042799643
 20
74.49999999999999
 30
0.0
 11
82.84419709466309
 21
74.49999999999999
 31
0.0
 12
83.26086376132974
 22
76.99999999999999
 32
0.0
 13
83.26086376132974
 23
76.99999999999999
 33
0.0
  0
SOLID
  5
4689
330
4683
100
AcDbEntity
  8
SLD-0
 62
     0
100
AcDbTrace
 10
82.84419709466327
 20
19.49999999999999
 30
0.0
 11
83.67753042799662
 21
19.49999999999999
 31
0.0
 12
83.26086376132996
 22
16.99999999999999
 32
0.0
 13
83.26086376132996
 23
16.99999999999999
 33
0.0
  0
MTEXT
  5
468A
330
4683
100
AcDbEntity
  8
SLD-0
 62
     0
100
AcDbMText
 10
80.13586376132984
 20
47.39484272938707
 30
0.0
 40
2.5
 41
0.0
 46
0.0
 71
     2
 72
     1
  1
\A1;%%c180
  7
SLDTEXTSTYLE0
 11
-3.552713678800500E-15
 21
1.0
 31
0.0
 73
     1
 44
1.0
  0
POINT
  5
468B
330
4683
100
AcDbEntity
  8
Defpoints
 62
     0
100
AcDbPoint
 10
66.66086376132985
 20
76.99999999999991
 30
0.0
  0
POINT
  5
46C0
330
4683
100
AcDbEntity
  8
Defpoints
 62
     0
100
AcDbPoint
 10
66.66086376132985
 20
16.99999999999991
 30
0.0
  0
POINT
  5
46C1
330
4683
100
AcDbEntity
  8
Defpoints
 62
     0
100
AcDbPoint
 10
83.26086376132996
 20
16.99999999999998
 30
0.0
  0
ENDBLK
  5
468C
330
4683
100
AcDbEntity
  8
0
100
AcDbBlockEnd
  0
BLOCK
  5
468F
330
468E
100
AcDbEntity
  8
0
100
AcDbBlockBegin
  2
*D59
 70
     1
 10
0.0
 20
0.0
 30
0.0
  3
*D59
  1
*D61
  0
LINE
  5
4690
330
468E
100
AcDbEntity
  8
SLD-0
 62
     0
370
    -2
100
AcDbLine
 10
13.26086376132983
 20
64.46249999999992
 30
0.0
 11
13.26086376132983
 21
83.85961497537491
 31
0.0
  0
LINE
  5
4691
330
468E
100
AcDbEntity
  8
SLD-0
 62
     0
370
    -2
100
AcDbLine
 10
67.26086376132982
 20
76.46249999999992
 30
0.0
 11
67.26086376132982
 21
83.85961497537491
 31
0.0
  0
LINE
  5
4692
330
468E
100
AcDbEntity
  8
SLD-0
 62
     0
370
    -2
100
AcDbLine
 10
15.76086376132983
 20
83.85961497537491
 30
0.0
 11
64.76086376132982
 21
83.85961497537491
 31
0.0
  0
SOLID
  5
4693
330
468E
100
AcDbEntity
  8
SLD-0
 62
     0
100
AcDbTrace
 10
15.76086376132983
 20
84.27628164204158
 30
0.0
 11
15.76086376132983
 21
83.44294830870824
 31
0.0
 12
13.26086376132983
 22
83.85961497537491
 32
0.0
 13
13.26086376132983
 23
83.85961497537491
 33
0.0
  0
SOLID
  5
4694
330
468E
100
AcDbEntity
  8
SLD-0
 62
     0
100
AcDbTrace
 10
64.76086376132982
 20
83.44294830870824
 30
0.0
 11
64.76086376132982
 21
84.27628164204158
 31
0.0
 12
67.26086376132982
 22
83.85961497537491
 32
0.0
 13
67.26086376132982
 23
83.85961497537491
 33
0.0
  0
MTEXT
  5
4695
330
468E
100
AcDbEntity
  8
SLD-0
 62
     0
100
AcDbMText
 10
42.21568417336518
 20
86.98461497537491
 30
0.0
 40
2.5
 41
0.0
 46
0.0
 71
     2
 72
     1
  1
\A1;162
  7
SLDTEXTSTYLE0
 73
     1
 44
1.0
  0
POINT
  5
46C2
330
468E
100
AcDbEntity
  8
Defpoints
 62
     0
100
AcDbPoint
 10
13.26086376132983
 20
64.39999999999992
 30
0.0
  0
POINT
  5
46C3
330
468E
100
AcDbEntity
  8
Defpoints
 62
     0
100
AcDbPoint
 10
67.26086376132982
 20
76.39999999999992
 30
0.0
  0
POINT
  5
46C4
330
468E
100
AcDbEntity
  8
Defpoints
 62
     0
100
AcDbPoint
 10
67.26086376132982
 20
83.85961497537491
 30
0.0
  0
ENDBLK
  5
4696
330
468E
100
AcDbEntity
  8
0
100
AcDbBlockEnd
  0
BLOCK
  5
46B1
330
46B0
100
AcDbEntity
  8
0
100
AcDbBlockBegin
  2
SW_CENTERMARKSYMBOL_1
 70
     0
 10
0.0
 20
0.0
 30
0.0
  3
SW_CENTERMARKSYMBOL_1
  1
SW_CENTERMARKSYMBOL_1
  0
LINE
  5
46B2
330
46B0
100
AcDbEntity
  8
SLD-0
 62
     0
100
AcDbLine
 10
0.0
 20
0.0
 30
0.0
 11
0.0
 21
5.000000000000004
 31
0.0
  0
LINE
  5
46B3
330
46B0
100
AcDbEntity
  8
SLD-0
 62
     0
100
AcDbLine
 10
0.0
 20
0.0
 30
0.0
 11
-5.000000000000004
 21
0.0
 31
0.0
  0
LINE
  5
46B4
330
46B0
100
AcDbEntity
  8
SLD-0
 62
     0
100
AcDbLine
 10
0.0
 20
0.0
 30
0.0
 11
0.0
 21
-5.000000000000004
 31
0.0
  0
LINE
  5
46B5
330
46B0
100
AcDbEntity
  8
SLD-0
 62
     0
100
AcDbLine
 10
0.0
 20
0.0
 30
0.0
 11
5.000000000000004
 21
0.0
 31
0.0
  0
LINE
  5
46B6
330
46B0
100
AcDbEntity
  8
SLD-0
 62
     0
100
AcDbLine
 10
0.0
 20
10.00000000000001
 30
0.0
 11
0.0
 21
35.0
 31
0.0
  0
LINE
  5
46B7
330
46B0
100
AcDbEntity
  8
SLD-0
 62
     0
100
AcDbLine
 10
-10.00000000000001
 20
0.0
 30
0.0
 11
-35.0
 21
0.0
 31
0.0
  0
LINE
  5
46B8
330
46B0
100
AcDbEntity
  8
SLD-0
 62
     0
100
AcDbLine
 10
0.0
 20
-10.00000000000001
 30
0.0
 11
0.0
 21
-35.0
 31
0.0
  0
LINE
  5
46B9
330
46B0
100
AcDbEntity
  8
SLD-0
 62
     0
100
AcDbLine
 10
10.00000000000001
 20
0.0
 30
0.0
 11
35.0
 21
0.0
 31
0.0
  0
ENDBLK
  5
46BA
330
46B0
100
AcDbEntity
  8
0
100
AcDbBlockEnd
  0
BLOCK
  5
46FA
330
46F9
100
AcDbEntity
  8
0
100
AcDbBlockBegin
  2
*D61
 70
     1
 10
0.0
 20
0.0
 30
0.0
  3
*D61
  1
*D63
  0
LINE
  5
46FC
330
46F9
100
AcDbEntity
  8
DIM
 62
     0
370
    -2
100
AcDbLine
 10
147.1239372201697
 20
161.2945969916554
 30
0.0
 11
153.6126172420134
 21
161.2945969916554
 31
0.0
  0
LINE
  5
46FD
330
46F9
100
AcDbEntity
  8
DIM
 62
     0
370
    -2
100
AcDbLine
 10
147.1239372201697
 20
143.2945969916554
 30
0.0
 11
153.6126172420134
 21
143.2945969916554
 31
0.0
  0
LINE
  5
46FE
330
46F9
100
AcDbEntity
  8
DIM
 62
     0
370
    -2
100
AcDbLine
 10
153.6126172420134
 20
160.2945969916554
 30
0.0
 11
153.6126172420134
 21
144.2945969916554
 31
0.0
  0
INSERT
  5
46FF
330
46F9
100
AcDbEntity
  8
DIM
 62
     0
370
    -2
100
AcDbBlockReference
  2
_DOT
 10
153.6126172420134
 20
161.2945969916554
 30
0.0
 50
89.99999999999982
  0
INSERT
  5
4700
330
46F9
100
AcDbEntity
  8
DIM
 62
     0
370
    -2
100
AcDbBlockReference
  2
_DOT
 10
153.6126172420134
 20
143.2945969916554
 30
0.0
 50
269.9999999999998
  0
MTEXT
  5
4701
330
46F9
100
AcDbEntity
  8
DIM
 62
     0
100
AcDbMText
 10
149.9251172420134
 20
152.492018356349
 30
0.0
 40
2.5
 41
0.0
 46
0.0
 71
     2
 72
     1
  1
\A1;%%c18
  7
ＭＳ ゴシック
 11
3.157967714489334E-15
 21
1.0
 31
0.0
 73
     1
 44
1.0
  0
POINT
  5
4702
330
46F9
100
AcDbEntity
  8
Defpoints
 62
     0
100
AcDbPoint
 10
144.1239372201697
 20
161.2945969916554
 30
0.0
  0
POINT
  5
4703
330
46F9
100
AcDbEntity
  8
Defpoints
 62
     0
100
AcDbPoint
 10
144.1239372201697
 20
143.2945969916554
 30
0.0
  0
POINT
  5
4704
330
46F9
100
AcDbEntity
  8
Defpoints
 62
     0
100
AcDbPoint
 10
153.6126172420134
 20
143.2945969916554
 30
0.0
  0
ENDBLK
  5
46FB
330
46F9
100
AcDbEntity
  8
0
100
AcDbBlockEnd
  0
BLOCK
  5
4706
330
4705
100
AcDbEntity
  8
0
100
AcDbBlockBegin
  2
*D62
 70
     1
 10
0.0
 20
0.0
 30
0.0
  3
*D62
  1
*D64
  0
LINE
  5
4708
330
4705
100
AcDbEntity
  8
DIM
 62
     0
370
    -2
100
AcDbLine
 10
118.425963255163
 20
133.9945969916554
 30
0.0
 11
118.425963255163
 21
127.5976403606568
 31
0.0
  0
LINE
  5
4709
330
4705
100
AcDbEntity
  8
DIM
 62
     0
370
    -2
100
AcDbLine
 10
124.425963255163
 20
134.2945969916554
 30
0.0
 11
124.425963255163
 21
127.5976403606568
 31
0.0
  0
LINE
  5
470A
330
4705
100
AcDbEntity
  8
DIM
 62
     0
370
    -2
100
AcDbLine
 10
119.425963255163
 20
127.5976403606568
 30
0.0
 11
123.425963255163
 21
127.5976403606568
 31
0.0
  0
INSERT
  5
470B
330
4705
100
AcDbEntity
  8
DIM
 62
     0
370
    -2
100
AcDbBlockReference
  2
_DOT
 10
118.425963255163
 20
127.5976403606568
 30
0.0
 50
180.0
  0
INSERT
  5
470C
330
4705
100
AcDbEntity
  8
DIM
 62
     0
370
    -2
100
AcDbBlockReference
  2
_DOT
 10
124.425963255163
 20
127.5976403606568
 30
0.0
  0
MTEXT
  5
470D
330
4705
100
AcDbEntity
  8
DIM
 62
     0
100
AcDbMText
 10
121.3266081249317
 20
131.0976403606568
 30
0.0
 40
2.5
 41
0.0
 46
0.0
 71
     2
 72
     1
  1
\A1;6
  7
ＭＳ ゴシック
 73
     1
 44
1.0
  0
POINT
  5
470E
330
4705
100
AcDbEntity
  8
Defpoints
 62
     0
100
AcDbPoint
 10
118.425963255163
 20
136.9945969916554
 30
0.0
  0
POINT
  5
470F
330
4705
100
AcDbEntity
  8
Defpoints
 62
     0
100
AcDbPoint
 10
124.425963255163
 20
137.2945969916554
 30
0.0
  0
POINT
  5
4710
330
4705
100
AcDbEntity
  8
Defpoints
 62
     0
100
AcDbPoint
 10
124.425963255163
 20
127.5976403606568
 30
0.0
  0
ENDBLK
  5
4707
330
4705
100
AcDbEntity
  8
0
100
AcDbBlockEnd
  0
BLOCK
  5
4712
330
4711
100
AcDbEntity
  8
0
100
AcDbBlockBegin
  2
*D63
 70
     1
 10
0.0
 20
0.0
 30
0.0
  3
*D63
  1
*D65
  0
LINE
  5
4714
330
4711
100
AcDbEntity
  8
DIM
 62
     0
370
    -2
100
AcDbLine
 10
127.1708474760622
 20
167.2945969916554
 30
0.0
 11
162.3869015718377
 21
167.2945969916553
 31
0.0
  0
LINE
  5
4715
330
4711
100
AcDbEntity
  8
DIM
 62
     0
370
    -2
100
AcDbLine
 10
127.1708474760622
 20
137.2945969916554
 30
0.0
 11
162.3869015718377
 21
137.2945969916553
 31
0.0
  0
LINE
  5
4716
330
4711
100
AcDbEntity
  8
DIM
 62
     0
370
    -2
100
AcDbLine
 10
162.3869015718377
 20
166.2945969916553
 30
0.0
 11
162.3869015718377
 21
138.2945969916553
 31
0.0
  0
INSERT
  5
4717
330
4711
100
AcDbEntity
  8
DIM
 62
     0
370
    -2
100
AcDbBlockReference
  2
_DOT
 10
162.3869015718377
 20
167.2945969916553
 30
0.0
 50
89.99999999999982
  0
INSERT
  5
4718
330
4711
100
AcDbEntity
  8
DIM
 62
     0
370
    -2
100
AcDbBlockReference
  2
_DOT
 10
162.3869015718377
 20
137.2945969916553
 30
0.0
 50
269.9999999999998
  0
MTEXT
  5
4719
330
4711
100
AcDbEntity
  8
DIM
 62
     0
100
AcDbMText
 10
158.6994015718377
 20
152.492018356349
 30
0.0
 40
2.5
 41
0.0
 46
0.0
 71
     2
 72
     1
  1
\A1;%%c30
  7
ＭＳ ゴシック
 11
2.842170943040401E-15
 21
1.0
 31
0.0
 73
     1
 44
1.0
  0
POINT
  5
471A
330
4711
100
AcDbEntity
  8
Defpoints
 62
     0
100
AcDbPoint
 10
124.1708474760622
 20
167.2945969916554
 30
0.0
  0
POINT
  5
471B
330
4711
100
AcDbEntity
  8
Defpoints
 62
     0
100
AcDbPoint
 10
124.1708474760622
 20
137.2945969916554
 30
0.0
  0
POINT
  5
471C
330
4711
100
AcDbEntity
  8
Defpoints
 62
     0
100
AcDbPoint
 10
162.3869015718376
 20
137.2945969916553
 30
0.0
  0
ENDBLK
  5
4713
330
4711
100
AcDbEntity
  8
0
100
AcDbBlockEnd
  0
BLOCK
  5
471E
330
471D
100
AcDbEntity
  8
0
100
AcDbBlockBegin
  2
*D64
 70
     1
 10
0.0
 20
0.0
 30
0.0
  3
*D64
  1
*D66
  0
LINE
  5
4720
330
471D
100
AcDbEntity
  8
DIM
 62
     0
370
    -2
100
AcDbLine
 10
118.425963255163
 20
170.1226371223401
 30
0.0
 11
118.425963255163
 21
175.1938770228371
 31
0.0
  0
LINE
  5
4721
330
471D
100
AcDbEntity
  8
DIM
 62
     0
370
    -2
100
AcDbLine
 10
145.425963255163
 20
163.9945969916554
 30
0.0
 11
145.425963255163
 21
175.1938770228371
 31
0.0
  0
LINE
  5
4722
330
471D
100
AcDbEntity
  8
DIM
 62
     0
370
    -2
100
AcDbLine
 10
119.425963255163
 20
175.1938770228371
 30
0.0
 11
144.425963255163
 21
175.1938770228371
 31
0.0
  0
INSERT
  5
4723
330
471D
100
AcDbEntity
  8
DIM
 62
     0
370
    -2
100
AcDbBlockReference
  2
_DOT
 10
118.425963255163
 20
175.1938770228371
 30
0.0
 50
180.0
  0
INSERT
  5
4724
330
471D
100
AcDbEntity
  8
DIM
 62
     0
370
    -2
100
AcDbBlockReference
  2
_DOT
 10
145.425963255163
 20
175.1938770228371
 30
0.0
  0
MTEXT
  5
4725
330
471D
100
AcDbEntity
  8
DIM
 62
     0
100
AcDbMText
 10
132.9033734611807
 20
178.6938770228371
 30
0.0
 40
2.5
 41
0.0
 46
0.0
 71
     2
 72
     1
  1
\A1;27
  7
ＭＳ ゴシック
 73
     1
 44
1.0
  0
POINT
  5
4726
330
471D
100
AcDbEntity
  8
Defpoints
 62
     0
100
AcDbPoint
 10
118.425963255163
 20
167.1226371223401
 30
0.0
  0
POINT
  5
4727
330
471D
100
AcDbEntity
  8
Defpoints
 62
     0
100
AcDbPoint
 10
145.425963255163
 20
160.9945969916554
 30
0.0
  0
POINT
  5
4728
330
471D
100
AcDbEntity
  8
Defpoints
 62
     0
100
AcDbPoint
 10
145.425963255163
 20
175.1938770228371
 30
0.0
  0
ENDBLK
  5
471F
330
471D
100
AcDbEntity
  8
0
100
AcDbBlockEnd
  0
ENDSEC
  0
SECTION
  2
ENTITIES
  0
MTEXT
  5
177
330
A
100
AcDbEntity
  8
TEMPLATE
390
1D
100
AcDbMText
 10
7.920214454773075
 20
34.37317516314283
 30
0.0
 40
1.628841145833333
 41
0.0
 46
0.0
 71
     1
 72
     1
  1
品名
  7
ＭＳ ゴシック
 73
     1
 44
0.7828267384257843
  0
MTEXT
  5
178
330
A
100
AcDbEntity
  8
TEMPLATE
390
1D
100
AcDbMText
 10
7.920214454773075
 20
25.8731751631428
 30
0.0
 40
1.628841145833333
 41
0.0
 46
0.0
 71
     1
 72
     1
  1
仕様
  7
ＭＳ ゴシック
 73
     1
 44
0.7828267384257843
  0
LINE
  5
179
330
A
100
AcDbEntity
  8
TEMPLATE
390
1D
100
AcDbLine
 10
202.2202144547248
 20
26.71466735064284
 30
0.0
 11
7.220214454724875
 21
26.71466735064284
 31
0.0
  0
LWPOLYLINE
  5
17A
330
A
100
AcDbEntity
  8
TEMPLATE
390
1D
100
AcDbPolyline
 90
        5
 70
   128
 43
0.0
 10
202.2202144547248
 20
289.7146673506426
 10
7.220214454724875
 20
289.7146673506426
 10
7.220214454724875
 20
9.714667350642825
 10
202.2202144547248
 20
9.714667350642825
 10
202.2202144547248
 20
289.7146673506426
  0
LINE
  5
17B
330
A
100
AcDbEntity
  8
TEMPLATE
390
1D
100
AcDbLine
 10
202.2202144547248
 20
35.21466735064282
 30
0.0
 11
7.220214454724875
 21
35.21466735064282
 31
0.0
  0
LINE
  5
17C
330
A
100
AcDbEntity
  8
TEMPLATE
390
1D
100
AcDbLine
 10
202.2202144547732
 20
18.21466735064282
 30
0.0
 11
126.920214454773
 21
18.21466735064282
 31
0.0
  0
MTEXT
  5
17E
330
A
100
AcDbEntity
  8
TEMPLATE
390
1D
100
AcDbMText
 10
129.9073550799991
 20
15.22362790331202
 30
0.0
 40
2.44326171875
 41
0.0
 46
0.0
 71
     1
 72
     1
  1
大洋金物株式会社 ティーフォルム事業部
  7
ＭＳ ゴシック
 73
     1
 44
0.7828267384257843
  0
MTEXT
  5
180
330
A
100
AcDbEntity
  8
TEMPLATE
390
1D
100
AcDbMText
 10
183.120214454799
 20
23.01492906939282
 30
0.0
 40
2.44326171875
 41
0.0
 46
2.44326171875
 71
     1
 72
     1
  1
{1:1}
  7
ＭＳ ゴシック
 73
     1
 44
0.7828267384257843
1001
ACAD
1000
ACAD_MTEXT_DEFINED_HEIGHT_BEGIN
1070
    46
1040
2.44326171875
1000
ACAD_MTEXT_DEFINED_HEIGHT_END
  0
MTEXT
  5
181
330
A
100
AcDbEntity
  8
TEMPLATE
390
1D
100
AcDbMText
 10
177.820214454799
 20
25.8731751631428
 30
0.0
 40
1.628841145833333
 41
0.0
 46
0.0
 71
     1
 72
     1
  1
縮尺
  7
ＭＳ ゴシック
 73
     1
 44
0.7828267384257843
  0
LINE
  5
182
330
A
100
AcDbEntity
  8
TEMPLATE
390
1D
100
AcDbLine
 10
177.120214454799
 20
18.21466735064282
 30
0.0
 11
177.120214454799
 21
26.71466735064284
 31
0.0
  0
MTEXT
  5
183
330
A
100
AcDbEntity
  8
TEMPLATE
390
1D
100
AcDbMText
 10
152.720214454799
 20
25.8731751631428
 30
0.0
 40
1.628841145833333
 41
0.0
 46
0.0
 71
     1
 72
     1
  1
容量
  7
ＭＳ ゴシック
 73
     1
 44
0.7828267384257843
  0
LINE
  5
184
330
A
100
AcDbEntity
  8
TEMPLATE
390
1D
100
AcDbLine
 10
152.020214454799
 20
18.21466735064282
 30
0.0
 11
152.020214454799
 21
26.71466735064284
 31
0.0
  0
MTEXT
  5
185
330
A
100
AcDbEntity
  8
TEMPLATE
390
1D
100
AcDbMText
 10
127.620214454799
 20
34.37317516314283
 30
0.0
 40
1.628841145833333
 41
0.0
 46
0.0
 71
     1
 72
     1
  1
品番
  7
ＭＳ ゴシック
 73
     1
 44
0.7828267384257843
  0
MTEXT
  5
186
330
A
100
AcDbEntity
  8
TEMPLATE
390
1D
100
AcDbMText
 10
127.620214454799
 20
25.8731751631428
 30
0.0
 40
1.628841145833333
 41
0.0
 46
0.0
 71
     1
 72
     1
  1
重量
  7
ＭＳ ゴシック
 73
     1
 44
0.7828267384257843
  0
MTEXT
  5
187
330
A
100
AcDbEntity
  8
TEMPLATE
390
1D
100
AcDbMText
 10
132.920214454799
 20
31.51492906939282
 30
0.0
 40
2.44326171875
 41
0.0
 46
2.44326171875
 71
     1
 72
     1
  1
{FRF74-2658}
  7
ＭＳ ゴシック
 73
     1
 44
0.7828267384257843
1001
ACAD
1000
ACAD_MTEXT_DEFINED_HEIGHT_BEGIN
1070
    46
1040
2.44326171875
1000
ACAD_MTEXT_DEFINED_HEIGHT_END
  0
LINE
  5
188
330
A
100
AcDbEntity
  8
TEMPLATE
390
1D
100
AcDbLine
 10
126.920214454799
 20
9.714667350642825
 30
0.0
 11
126.920214454799
 21
35.21466735064282
 31
0.0
  0
MTEXT
  5
189
330
A
100
AcDbEntity
  8
TEMPLATE
390
1D
100
AcDbMText
 10
13.22021445477307
 20
31.51492906939282
 30
0.0
 40
2.44326171875
 41
0.0
 46
2.70469072265625
 71
     1
 72
     1
  1
{フック/ツマミ（ガラスシステム用）　-LANGBERGER-}
  7
ＭＳ ゴシック
 73
     1
 44
0.7828267384257843
1001
ACAD
1000
ACAD_MTEXT_DEFINED_HEIGHT_BEGIN
1070
    46
1040
2.70469072265625
1000
ACAD_MTEXT_DEFINED_HEIGHT_END
  0
INSERT
  5
6B5
330
A
100
AcDbEntity
  8
TEMPLATE
100
AcDbBlockReference
  2
名称未設定-1
 10
187.075074808845
 20
2.594676575665382
 30
0.0
 41
0.0762
 42
0.0762
 43
0.0762
  0
MTEXT
  5
7D9
330
A
100
AcDbEntity
  8
TEMPLATE
390
1D
100
AcDbMText
 10
12.52543452760364
 20
22.68119760293952
 30
0.0
 40
2.44326171875
 41
0.0
 46
4.9598212890625
 71
     1
 72
     1
  1
{クローム}
  7
ＭＳ ゴシック
 73
     1
 44
0.7828267384257843
1001
ACAD
1000
ACAD_MTEXT_DEFINED_HEIGHT_BEGIN
1070
    46
1040
4.9598212890625
1000
ACAD_MTEXT_DEFINED_HEIGHT_END
  0
INSERT
  5
68C
330
A
100
AcDbEntity
  8
TEMPLATE
100
AcDbBlockReference
  2
block 2
 10
367.7097207081031
 20
3.349230605734547
 30
0.0
 41
0.1524
 42
0.1524
 43
0.1524
  0
LWPOLYLINE
  5
D69
330
A
100
AcDbEntity
  8
BORDER
 48
0.5
100
AcDbPolyline
 90
        4
 70
     1
 43
0.0
 10
0.0
 20
0.0
 10
0.0
 20
297.0
 10
210.0
 20
297.0
 10
210.0
 20
0.0
  0
INSERT
  5
1343
330
A
100
AcDbEntity
  8
TEMPLATE
100
AcDbBlockReference
  2
block 2
 10
838.6973883465873
 20
9.774128564918277
 30
0.0
 41
0.1524
 42
0.1524
 43
0.1524
  0
MTEXT
  5
37C4
102
{ACAD_XDICTIONARY
360
37C6
102
}
330
A
100
AcDbEntity
  8
TEMPLATE
 62
     0
 48
0.05
100
AcDbMText
 10
7.583458083456945
 20
8.578999994807235
 30
0.0
 40
2.0
 41
0.0
 46
4.0
 71
     1
 72
     1
  1
{20161202N}
  7
ＭＳ ゴシック
 73
     1
 44
1.0
1001
ACAD
1000
ACAD_MTEXT_DEFINED_HEIGHT_BEGIN
1070
    46
1040
4.0
1000
ACAD_MTEXT_DEFINED_HEIGHT_END
  0
LINE
  5
46C6
330
A
100
AcDbEntity
  8
MODEL
100
AcDbLine
 10
124.425963255163
 20
137.2945969916554
 30
0.0
 11
118.725963255163
 21
137.2945969916554
 31
0.0
  0
LINE
  5
46C7
330
A
100
AcDbEntity
  8
MODEL
100
AcDbLine
 10
118.725963255163
 20
167.2945969916554
 30
0.0
 11
124.425963255163
 21
167.2945969916554
 31
0.0
  0
ARC
  5
46C8
330
A
100
AcDbEntity
  8
MODEL
100
AcDbCircle
 10
118.725963255163
 20
137.5945969916554
 30
0.0
 40
0.3000000000000043
100
AcDbArc
 50
180.0
 51
270.0
  0
ARC
  5
46C9
330
A
100
AcDbEntity
  8
MODEL
100
AcDbCircle
 10
118.725963255163
 20
166.9945969916554
 30
0.0
 40
0.2999999999999972
100
AcDbArc
 50
90.0
 51
180.0
  0
ARC
  5
46CA
330
A
100
AcDbEntity
  8
MODEL
100
AcDbCircle
 10
124.925963255163
 20
161.7945969916554
 30
0.0
 40
0.5
100
AcDbArc
 50
180.0
 51
270.0
  0
ARC
  5
46CB
330
A
100
AcDbEntity
  8
MODEL
100
AcDbCircle
 10
124.925963255163
 20
142.7945969916554
 30
0.0
 40
0.5000000000000071
100
AcDbArc
 50
90.0
 51
180.0
  0
ARC
  5
46CC
330
A
100
AcDbEntity
  8
MODEL
100
AcDbCircle
 10
145.125963255163
 20
160.9945969916554
 30
0.0
 40
0.2999999999999972
100
AcDbArc
 50
0.0
 51
90.0
  0
ARC
  5
46CD
330
A
100
AcDbEntity
  8
MODEL
100
AcDbCircle
 10
145.125963255163
 20
143.5945969916554
 30
0.0
 40
0.2999999999999972
100
AcDbArc
 50
270.0
 51
0.0
  0
LINE
  5
46CE
330
A
100
AcDbEntity
  8
MODEL
100
AcDbLine
 10
145.125963255163
 20
143.2945969916554
 30
0.0
 11
124.925963255163
 21
143.2945969916554
 31
0.0
  0
LINE
  5
46CF
330
A
100
AcDbEntity
  8
MODEL
100
AcDbLine
 10
124.925963255163
 20
161.2945969916554
 30
0.0
 11
145.125963255163
 21
161.2945969916554
 31
0.0
  0
LINE
  5
46DD
330
A
100
AcDbEntity
  8
MODEL
100
AcDbLine
 10
124.425963255163
 20
152.2945969916554
 30
0.0
 11
124.425963255163
 21
167.2945969916554
 31
0.0
  0
LINE
  5
46DE
330
A
100
AcDbEntity
  8
MODEL
100
AcDbLine
 10
124.425963255163
 20
137.2945969916554
 30
0.0
 11
124.425963255163
 21
152.2945969916554
 31
0.0
  0
LINE
  5
46DF
330
A
100
AcDbEntity
  8
MODEL
100
AcDbLine
 10
118.425963255163
 20
152.2945969916554
 30
0.0
 11
118.425963255163
 21
137.5945969916554
 31
0.0
  0
LINE
  5
46E0
330
A
100
AcDbEntity
  8
MODEL
100
AcDbLine
 10
118.425963255163
 20
166.9945969916554
 30
0.0
 11
118.425963255163
 21
152.2945969916554
 31
0.0
  0
LINE
  5
46E1
330
A
100
AcDbEntity
  8
MODEL
100
AcDbLine
 10
145.425963255163
 20
143.5945969916554
 30
0.0
 11
145.425963255163
 21
160.9945969916554
 31
0.0
  0
LINE
  5
46E3
330
A
100
AcDbEntity
  8
MODEL
100
AcDbLine
 10
118.725963255163
 20
152.2945969916554
 30
0.0
 11
118.725963255163
 21
167.2945969916554
 31
0.0
  0
LINE
  5
46E4
330
A
100
AcDbEntity
  8
MODEL
100
AcDbLine
 10
118.725963255163
 20
137.2945969916554
 30
0.0
 11
118.725963255163
 21
152.2945969916554
 31
0.0
  0
LINE
  5
46E5
330
A
100
AcDbEntity
  8
MODEL
100
AcDbLine
 10
124.925963255163
 20
143.2945969916554
 30
0.0
 11
124.925963255163
 21
161.2945969916554
 31
0.0
  0
LINE
  5
46E6
330
A
100
AcDbEntity
  8
MODEL
100
AcDbLine
 10
145.125963255163
 20
161.2945969916554
 30
0.0
 11
145.125963255163
 21
143.2945969916554
 31
0.0
  0
DIMENSION
  5
46E7
330
A
100
AcDbEntity
  8
DIM
100
AcDbDimension
  2
*D61
 10
153.6126172420134
 20
143.2945969916554
 30
0.0
 11
153.6126172420134
 21
152.492018356349
 31
0.0
 70
   160
  1
%%c<>
 71
     2
 42
18.0
 73
     0
 74
     0
 75
     0
 52
-90.00000000000001
  3
tfrom線あり
100
AcDbAlignedDimension
 13
144.1239372201697
 23
161.2945969916554
 33
0.0
 14
144.1239372201697
 24
143.2945969916554
 34
0.0
 50
89.99999999999982
100
AcDbRotatedDimension
1001
ACAD
1000
DSTYLE
1002
{
1070
   340
1005
39
1002
}
  0
DIMENSION
  5
46E8
330
A
100
AcDbEntity
  8
DIM
100
AcDbDimension
  2
*D62
 10
124.425963255163
 20
127.5976403606568
 30
0.0
 11
121.3266081249317
 21
127.5976403606568
 31
0.0
 70
   160
 71
     2
 42
6.0
 73
     0
 74
     0
 75
     0
  3
tfrom線あり
100
AcDbAlignedDimension
 13
118.425963255163
 23
136.9945969916554
 33
0.0
 14
124.425963255163
 24
137.2945969916554
 34
0.0
100
AcDbRotatedDimension
1001
ACAD
1000
DSTYLE
1002
{
1070
   340
1005
39
1002
}
  0
DIMENSION
  5
46E9
330
A
100
AcDbEntity
  8
DIM
100
AcDbDimension
  2
*D63
 10
162.3869015718377
 20
137.2945969916553
 30
0.0
 11
162.3869015718377
 21
152.492018356349
 31
0.0
 70
   160
  1
%%c<>
 71
     2
 42
30.0
 73
     0
 74
     0
 75
     0
 52
-90.00000000000001
  3
tfrom線あり
100
AcDbAlignedDimension
 13
124.1708474760622
 23
167.2945969916554
 33
0.0
 14
124.1708474760622
 24
137.2945969916554
 34
0.0
 50
89.99999999999982
100
AcDbRotatedDimension
1001
ACAD
1000
DSTYLE
1002
{
1070
   340
1005
39
1002
}
  0
DIMENSION
  5
46EA
330
A
100
AcDbEntity
  8
DIM
100
AcDbDimension
  2
*D64
 10
145.425963255163
 20
175.1938770228371
 30
0.0
 11
132.9033734611807
 21
175.1938770228371
 31
0.0
 70
   160
 71
     2
 42
27.0
 73
     0
 74
     0
 75
     0
  3
tfrom線あり
100
AcDbAlignedDimension
 13
118.425963255163
 23
167.1226371223401
 33
0.0
 14
145.425963255163
 24
160.9945969916554
 34
0.0
100
AcDbRotatedDimension
1001
ACAD
1000
DSTYLE
1002
{
1070
   340
1005
39
1002
}
  0
LINE
  5
46ED
330
A
100
AcDbEntity
  8
MODEL
100
AcDbLine
 10
66.12062492299404
 20
143.5586420315258
 30
0.0
 11
66.28466996286443
 21
143.3945969916554
 31
0.0
  0
LINE
  5
46EE
330
A
100
AcDbEntity
  8
MODEL
100
AcDbLine
 10
70.28466996286443
 20
143.3945969916554
 30
0.0
 11
70.44871500273493
 21
143.5586420315258
 31
0.0
  0
SPLINE
  5
46EF
330
A
100
AcDbEntity
  8
MODEL
100
AcDbSpline
210
0.0
220
0.0
230
1.0
 70
     8
 71
     3
 72
     9
 73
     5
 74
     0
 42
0.000000001
 43
0.00000001
 40
0.0
 40
0.0
 40
0.0
 40
0.0
 40
0.4999999999999983
 40
1.0
 40
1.0
 40
1.0
 40
1.0
 10
69.66707177051813
 20
148.0121951840017
 30
0.0
 10
69.20627116796692
 20
148.7033960878285
 30
0.0
 10
68.28466996286443
 20
150.0857978954822
 30
0.0
 10
67.36306875776194
 20
148.7033960878285
 30
0.0
 10
66.90226815521072
 20
148.0121951840017
 30
0.0
  0
LINE
  5
46F0
330
A
100
AcDbEntity
  8
MODEL
100
AcDbLine
 10
70.28466996286443
 20
143.3945969916554
 30
0.0
 11
69.62257877889033
 21
143.3945969916554
 31
0.0
  0
LINE
  5
46F1
330
A
100
AcDbEntity
  8
MODEL
100
AcDbLine
 10
66.94676114683853
 20
143.3945969916554
 30
0.0
 11
66.28466996286434
 21
143.3945969916554
 31
0.0
  0
CIRCLE
  5
46F2
330
A
100
AcDbEntity
  8
MODEL
100
AcDbCircle
 10
68.28466996286443
 20
152.2945969916554
 30
0.0
 40
4.5
  0
CIRCLE
  5
46F3
330
A
100
AcDbEntity
  8
MODEL
100
AcDbCircle
 10
68.28466996286443
 20
152.2945969916554
 30
0.0
 40
5.0
  0
CIRCLE
  5
46F4
330
A
100
AcDbEntity
  8
MODEL
100
AcDbCircle
 10
68.28466996286443
 20
152.2945969916554
 30
0.0
 40
8.700000000000003
  0
CIRCLE
  5
46F5
330
A
100
AcDbEntity
  8
MODEL
100
AcDbCircle
 10
68.28466996286443
 20
152.2945969916554
 30
0.0
 40
8.999999999999986
  0
CIRCLE
  5
46F6
330
A
100
AcDbEntity
  8
MODEL
100
AcDbCircle
 10
68.28466996286443
 20
152.2945969916554
 30
0.0
 40
9.499999999999986
  0
CIRCLE
  5
46F7
330
A
100
AcDbEntity
  8
MODEL
100
AcDbCircle
 10
68.28466996286443
 20
152.2945969916554
 30
0.0
 40
15.0
  0
LINE
  5
47F9
330
A
100
AcDbEntity
  8
HIDDEN
  6
CENTER
 48
0.2
100
AcDbLine
 10
130.3318704049059
 20
140.6457544981044
 30
0.0
 11
130.3318704049059
 21
122.4407013726165
 31
0.0
  0
LINE
  5
47FA
330
A
100
AcDbEntity
  8
モデル
100
AcDbLine
 10
130.3318704049059
 20
119.5644422354114
 30
0.0
 11
128.426030486354
 21
118.2542746416657
 31
0.0
  0
LINE
  5
47FB
330
A
100
AcDbEntity
  8
モデル
100
AcDbLine
 10
128.426030486354
 20
118.2542746416657
 30
0.0
 11
130.3318704049059
 21
118.2542746416657
 31
0.0
  0
LINE
  5
47FC
330
A
100
AcDbEntity
  8
モデル
100
AcDbLine
 10
128.426030486354
 20
118.2542746416657
 30
0.0
 11
128.426030486354
 21
113.9961184062742
 31
0.0
  0
LINE
  5
47FD
330
A
100
AcDbEntity
  8
モデル
100
AcDbLine
 10
128.426030486354
 20
113.9961184062742
 30
0.0
 11
130.3318704049059
 21
113.9961184062742
 31
0.0
  0
LINE
  5
47FE
330
A
100
AcDbEntity
  8
モデル
100
AcDbLine
 10
130.3318704049059
 20
119.5644422354114
 30
0.0
 11
132.2377103234572
 21
118.2542746416657
 31
0.0
  0
LINE
  5
47FF
330
A
100
AcDbEntity
  8
モデル
100
AcDbLine
 10
132.2377103234572
 20
118.2542746416657
 30
0.0
 11
130.3318704049059
 21
118.2542746416657
 31
0.0
  0
LINE
  5
4800
330
A
100
AcDbEntity
  8
モデル
100
AcDbLine
 10
132.2377103234572
 20
118.2542746416657
 30
0.0
 11
132.2377103234572
 21
113.9961184062742
 31
0.0
  0
LINE
  5
4801
330
A
100
AcDbEntity
  8
モデル
100
AcDbLine
 10
132.2377103234572
 20
113.9961184062742
 30
0.0
 11
130.3318704049059
 21
113.9961184062742
 31
0.0
  0
LINE
  5
4802
330
A
100
AcDbEntity
  8
モデル
100
AcDbLine
 10
128.426030486354
 20
118.2542746416657
 30
0.0
 11
132.2377103234572
 21
117.5137451321573
 31
0.0
  0
LINE
  5
4803
330
A
100
AcDbEntity
  8
モデル
100
AcDbLine
 10
128.426030486354
 20
117.2858898984624
 30
0.0
 11
132.2377103234572
 21
116.5453603889537
 31
0.0
  0
LINE
  5
4804
330
A
100
AcDbEntity
  8
モデル
100
AcDbLine
 10
128.426030486354
 20
116.2605413468353
 30
0.0
 11
132.2377103234572
 21
115.5200118373268
 31
0.0
  0
LINE
  5
4805
330
A
100
AcDbEntity
  8
モデル
100
AcDbLine
 10
128.426030486354
 20
115.1782289867842
 30
0.0
 11
132.2377103234572
 21
114.4376994772759
 31
0.0
  0
LINE
  5
4806
330
A
100
AcDbEntity
  8
モデル
100
AcDbLine
 10
128.426030486354
 20
114.1528804351572
 30
0.0
 11
129.232921578531
 21
113.9961184062742
 31
0.0
  0
VIEWPORT
  5
349
330
B
100
AcDbEntity
 67
     1
  8
0
100
AcDbViewport
 10
202.5
 20
128.5
 30
0.0
 40
486.0
 41
308.4
 68
     1
 69
     1
 12
202.5
 22
128.5
 13
0.0
 23
0.0
 14
0.5
 24
0.5
 15
0.0
 25
0.0
 16
0.0
 26
0.0
 36
1.0
 17
0.0
 27
0.0
 37
0.0
 42
50.0
 43
0.0
 44
0.0
 45
308.4
 50
0.0
 51
0.0
 72
   100
 90
   557152
  1

281
     0
 71
     1
 74
     0
110
0.0
120
0.0
130
0.0
111
1.0
121
0.0
131
0.0
112
0.0
122
1.0
132
0.0
 79
     0
146
0.0
170
     0
 61
     5
348
26C
292
     1
282
     1
141
0.0
142
0.0
 63
   256
  0
VIEWPORT
  5
34A
330
B
100
AcDbEntity
 67
     1
  8
0
100
AcDbViewport
 10
202.5
 20
128.5
 30
0.0
 40
324.0
 41
205.6
 68
     2
 69
     2
 12
986.6781359294573
 22
1427.077061889956
 13
0.0
 23
0.0
 14
0.5
 24
0.5
 15
0.0
 25
0.0
 16
0.0
 26
0.0
 36
1.0
 17
0.0
 27
0.0
 37
0.0
 42
50.0
 43
0.0
 44
0.0
 45
2890.021615685494
 50
0.0
 51
0.0
 72
   100
 90
   557152
  1

281
     0
 71
     1
 74
     0
110
0.0
120
0.0
130
0.0
111
1.0
121
0.0
131
0.0
112
0.0
122
1.0
132
0.0
 79
     0
146
0.0
170
     0
 61
     5
348
26C
292
     1
282
     1
141
0.0
142
0.0
 63
   256
  0
ENDSEC
  0
SECTION
  2
OBJECTS
  0
DICTIONARY
  5
19
330
0
100
AcDbDictionary
281
     1
  3
ACAD_COLOR
350
674
  3
ACAD_DETAILVIEWSTYLE
350
BBF
  3
ACAD_FIELDLIST
350
37C8
  3
ACAD_GROUP
350
1A
  3
ACAD_IMAGE_VARS
350
27B
  3
ACAD_LAYOUT
350
1E
  3
ACAD_MATERIAL
350
263
  3
ACAD_MLEADERSTYLE
350
336
  3
ACAD_MLINESTYLE
350
1B
  3
ACAD_PLOTSETTINGS
350
22
  3
ACAD_PLOTSTYLENAME
350
1F
  3
ACAD_SCALELIST
350
241
  3
ACAD_SECTIONVIEWSTYLE
350
BC0
  3
ACAD_TABLESTYLE
350
278
  3
ACAD_VISUALSTYLE
350
267
  3
ACDB_RECOMPOSE_DATA
350
4818
  3
AcDbVariableDictionary
350
330
  3
APPDATA
350
27A
  3
DimOffsetDictionary
350
E38
  0
SUN
  5
904
330
15
100
AcDbSun
 90
        1
290
     0
 63
     7
421
 16777215
 40
1.0
291
     1
 91
  2455826
 92
 54000000
292
     0
 70
     2
 71
   256
280
     1
  0
DICTIONARY
  5
2E1
330
2
100
AcDbDictionary
280
     1
281
     1
  3
ACAD_LAYERSTATES
360
2E2
  3
ACLYDICTIONARY
360
4815
  0
DICTIONARY
  5
37C6
330
37C4
100
AcDbDictionary
280
     1
281
     1
  3
ACAD_FIELD
360
37CA
  0
DICTIONARY
  5
674
102
{ACAD_REACTORS
330
19
102
}
330
19
100
AcDbDictionary
281
     1
  0
DICTIONARY
  5
BBF
102
{ACAD_REACTORS
330
19
102
}
330
19
100
AcDbDictionary
281
     1
  0
FIELDLIST
  5
37C8
102
{ACAD_REACTORS
330
19
102
}
330
19
100
AcDbIdSet
 90
        2
330
37C9
330
37C5
100
AcDbFieldList
  0
DICTIONARY
  5
1A
102
{ACAD_REACTORS
330
19
102
}
330
19
100
AcDbDictionary
281
     1
  0
RASTERVARIABLES
  5
27B
102
{ACAD_REACTORS
330
19
102
}
330
19
100
AcDbRasterVariables
 90
        0
 70
     1
 71
     1
 72
     1
  0
DICTIONARY
  5
1E
102
{ACAD_REACTORS
330
19
102
}
330
19
100
AcDbDictionary
281
     1
  3
Layout1
350
21
  3
Model
350
20
  0
DICTIONARY
  5
263
102
{ACAD_REACTORS
330
19
102
}
330
19
100
AcDbDictionary
281
     1
  3
ByBlock
350
3DBA
  3
ByLayer
350
264
  3
Global
350
266
  0
DICTIONARY
  5
336
102
{ACAD_REACTORS
330
19
102
}
330
19
100
AcDbDictionary
281
     1
  3
Standard
350
D59
  0
DICTIONARY
  5
1B
102
{ACAD_REACTORS
330
19
102
}
330
19
100
AcDbDictionary
281
     1
  3
Standard
350
1C
  0
DICTIONARY
  5
22
102
{ACAD_REACTORS
330
19
102
}
330
19
100
AcDbDictionary
281
     1
  0
ACDBDICTIONARYWDFLT
  5
1F
102
{ACAD_REACTORS
330
19
102
}
330
19
100
AcDbDictionary
281
     1
  3
Normal
350
1D
100
AcDbDictionaryWithDefault
340
1D
  0
DICTIONARY
  5
241
102
{ACAD_REACTORS
330
19
102
}
330
19
100
AcDbDictionary
281
     1
  3
A0
350
242
  3
A1
350
243
  3
A2
350
244
  3
A3
350
245
  3
A4
350
246
  3
A5
350
247
  3
A6
350
248
  3
A7
350
249
  3
A8
350
24A
  3
A9
350
24B
  3
B0
350
24C
  3
B1
350
24D
  3
B2
350
24E
  3
B3
350
24F
  3
B4
350
250
  3
B5
350
251
  3
B6
350
252
  3
B7
350
253
  3
B8
350
254
  3
B9
350
255
  3
C0
350
256
  3
C1
350
257
  3
C2
350
258
  3
C3
350
259
  3
C4
350
25A
  3
C5
350
25B
  3
C6
350
25C
  3
C7
350
25D
  3
C8
350
25E
  3
C9
350
25F
  3
D0
350
260
  3
D1
350
261
  3
D2
350
262
  0
DICTIONARY
  5
BC0
102
{ACAD_REACTORS
330
19
102
}
330
19
100
AcDbDictionary
281
     1
  0
DICTIONARY
  5
278
102
{ACAD_REACTORS
330
19
102
}
330
19
100
AcDbDictionary
281
     1
  3
Standard
350
279
  0
DICTIONARY
  5
267
102
{ACAD_REACTORS
330
19
102
}
330
19
100
AcDbDictionary
281
     1
  3
2dWireframe
350
26C
  3
3D Hidden
350
26E
  3
3dWireframe
350
26D
  3
Basic
350
26F
  3
Brighten
350
273
  3
ColorChange
350
277
  3
Conceptual
350
271
  3
Dim
350
272
  3
EdgeColorOff
350
8FE
  3
Facepattern
350
276
  3
Flat
350
268
  3
FlatWithEdges
350
269
  3
Gouraud
350
26A
  3
GouraudWithEdges
350
26B
  3
Hidden
350
8FB
  3
JitterOff
350
8FC
  3
Linepattern
350
275
  3
OverhangOff
350
8FD
  3
Realistic
350
270
  3
Shaded
350
903
  3
Shaded with edges
350
902
  3
Shades of Gray
350
8FF
  3
Sketchy
350
900
  3
Thicken
350
274
  3
Wireframe
350
8FA
  3
X-Ray
350
901
  0
XRECORD
  5
4818
102
{ACAD_REACTORS
330
19
102
}
330
19
100
AcDbXrecord
280
     1
 90
        1
330
279
  0
DICTIONARY
  5
330
102
{ACAD_REACTORS
330
19
102
}
330
19
100
AcDbDictionary
281
     1
  3
CANNOSCALE
350
331
  3
CMLEADERSTYLE
350
D5E
  3
CTABLESTYLE
350
335
  3
HPTRANSPARENCY
350
D52
  3
XCLIPFRAME
350
896
  0
DICTIONARY
  5
27A
102
{ACAD_REACTORS
330
19
102
}
330
19
100
AcDbDictionary
281
     1
  0
DICTIONARY
  5
E38
102
{ACAD_REACTORS
330
19
102
}
330
19
100
AcDbDictionary
281
     1
  3
DIMRAILANGLE
350
47B0
  3
DIMRAILFIRSTOFFSET
350
47AE
  3
DIMRAILOFFSET
350
47AF
  3
DIMRAILSENABLED
350
47B1
  0
DICTIONARY
  5
2E2
102
{ACAD_REACTORS
330
2E1
102
}
330
2E1
100
AcDbDictionary
281
     1
  3
ARGON_LAYERP_9
350
7AA
  0
DICTIONARY
  5
4815
102
{ACAD_REACTORS
330
2E1
102
}
330
2E1
100
AcDbDictionary
281
     1
1001
ACAD
1000
<All
  0
DICTIONARY
  5
37CA
102
{ACAD_REACTORS
330
37C6
102
}
330
37C6
100
AcDbDictionary
280
     1
281
     1
  3
TEXT
360
37C5
  0
LAYOUT
  5
21
102
{ACAD_REACTORS
330
1E
102
}
330
1E
100
AcDbPlotSettings
  1

  2
none_device
  4
ISO_A3_(420.00_x_297.00_MM)
  6

 40
7.5
 41
20.0
 42
7.5
 43
20.0
 44
420.0
 45
297.0
 46
0.0
 47
0.0
 48
0.0
 49
0.0
140
0.0
141
0.0
142
1.0
143
1.0
 70
     0
 72
     1
 73
     0
 74
     0
  7

 75
     0
 76
     0
 77
     2
 78
   300
147
1.0
148
0.0
149
0.0
100
AcDbLayout
  1
Layout1
 70
     0
 71
     0
 10
-7.5
 20
-20.0
 11
412.5
 21
277.0
 12
0.0
 22
0.0
 32
0.0
 14
0.0
 24
0.0
 34
0.0
 15
0.0
 25
0.0
 35
0.0
146
0.0
 13
0.0
 23
0.0
 33
0.0
 16
0.0
 26
0.0
 36
0.0
 17
0.0
 27
0.0
 37
0.0
 76
     0
330
B
331
349
  0
LAYOUT
  5
20
102
{ACAD_REACTORS
330
1E
102
}
330
1E
100
AcDbPlotSettings
  1

  2
none_device
  4
ISO_A3_(420.00_x_297.00_MM)
  6

 40
7.5
 41
20.0
 42
7.5
 43
20.0
 44
420.0
 45
297.0
 46
0.0
 47
0.0
 48
0.0
 49
0.0
140
0.0
141
0.0
142
1.0
143
1.0
 70
  1024
 72
     1
 73
     0
 74
     0
  7

 75
     0
 76
     0
 77
     2
 78
   300
147
1.0
148
0.0
149
0.0
100
AcDbLayout
  1
Model
 70
     0
 71
     1
 10
0.0
 20
0.0
 11
210.0
 21
297.0
 12
0.0
 22
0.0
 32
0.0
 14
0.0
 24
0.0
 34
0.0
 15
210.0
 25
297.0
 35
0.0000000000000142
146
0.0
 13
0.0
 23
0.0
 33
0.0
 16
0.0
 26
0.0
 36
0.0
 17
0.0
 27
0.0
 37
0.0
 76
     0
330
A
331
15
  0
MATERIAL
  5
3DBA
102
{ACAD_REACTORS
330
263
102
}
330
263
100
AcDbMaterial
  1
ByBlock
 72
     1
 94
      127
  0
MATERIAL
  5
264
102
{ACAD_REACTORS
330
263
102
}
330
263
100
AcDbMaterial
  1
ByLayer
 72
     1
 94
      127
  0
MATERIAL
  5
266
102
{ACAD_REACTORS
330
263
102
}
330
263
100
AcDbMaterial
  1
Global
 72
     1
 94
      127
  0
MLEADERSTYLE
  5
D59
102
{ACAD_REACTORS
330
336
102
}
330
336
100
AcDbMLeaderStyle
170
     2
171
     1
172
     0
 90
        2
 40
0.0
 41
0.0
173
     1
 91
-1056964608
340
11
 92
       -2
290
     1
 42
2.0
291
     1
 43
8.0
  3
Standard
341
0
 44
4.0
300

342
17
174
     1
178
     6
175
     1
176
     0
 93
-1056964608
 45
4.0
292
     0
297
     0
 46
4.0
343
0
 94
-1056964608
 47
1.0
 49
1.0
140
1.0
293
     1
141
0.0
294
     1
177
     0
142
1.0
295
     0
296
     0
143
3.75
1001
ACAD_MLEADERVER
1070
     2
  0
MLINESTYLE
  5
1C
102
{ACAD_REACTORS
330
1B
102
}
330
1B
100
AcDbMlineStyle
  2
Standard
 70
     0
  3

 62
     0
 51
90.0
 52
90.0
 71
     2
 49
0.5
 62
   256
  6
BYLAYER
 49
-0.5
 62
   256
  6
BYLAYER
  0
ACDBPLACEHOLDER
  5
1D
102
{ACAD_REACTORS
330
1F
102
}
330
1F
  0
SCALE
  5
242
102
{ACAD_REACTORS
330
241
102
}
330
241
100
AcDbScale
 70
     0
300
1:1
140
1.0
141
1.0
290
     1
  0
SCALE
  5
243
102
{ACAD_REACTORS
330
241
102
}
330
241
100
AcDbScale
 70
     0
300
1:2
140
1.0
141
2.0
290
     0
  0
SCALE
  5
244
102
{ACAD_REACTORS
330
241
102
}
330
241
100
AcDbScale
 70
     0
300
1:4
140
1.0
141
4.0
290
     0
  0
SCALE
  5
245
102
{ACAD_REACTORS
330
241
102
}
330
241
100
AcDbScale
 70
     0
300
1:5
140
1.0
141
5.0
290
     0
  0
SCALE
  5
246
102
{ACAD_REACTORS
330
241
102
}
330
241
100
AcDbScale
 70
     0
300
1:8
140
1.0
141
8.0
290
     0
  0
SCALE
  5
247
102
{ACAD_REACTORS
330
241
102
}
330
241
100
AcDbScale
 70
     0
300
1:10
140
1.0
141
10.0
290
     0
  0
SCALE
  5
248
102
{ACAD_REACTORS
330
241
102
}
330
241
100
AcDbScale
 70
     0
300
1:16
140
1.0
141
16.0
290
     0
  0
SCALE
  5
249
102
{ACAD_REACTORS
330
241
102
}
330
241
100
AcDbScale
 70
     0
300
1:20
140
1.0
141
20.0
290
     0
  0
SCALE
  5
24A
102
{ACAD_REACTORS
330
241
102
}
330
241
100
AcDbScale
 70
     0
300
1:30
140
1.0
141
30.0
290
     0
  0
SCALE
  5
24B
102
{ACAD_REACTORS
330
241
102
}
330
241
100
AcDbScale
 70
     0
300
1:40
140
1.0
141
40.0
290
     0
  0
SCALE
  5
24C
102
{ACAD_REACTORS
330
241
102
}
330
241
100
AcDbScale
 70
     0
300
1:50
140
1.0
141
50.0
290
     0
  0
SCALE
  5
24D
102
{ACAD_REACTORS
330
241
102
}
330
241
100
AcDbScale
 70
     0
300
1:100
140
1.0
141
100.0
290
     0
  0
SCALE
  5
24E
102
{ACAD_REACTORS
330
241
102
}
330
241
100
AcDbScale
 70
     0
300
2:1
140
2.0
141
1.0
290
     0
  0
SCALE
  5
24F
102
{ACAD_REACTORS
330
241
102
}
330
241
100
AcDbScale
 70
     0
300
4:1
140
4.0
141
1.0
290
     0
  0
SCALE
  5
250
102
{ACAD_REACTORS
330
241
102
}
330
241
100
AcDbScale
 70
     0
300
8:1
140
8.0
141
1.0
290
     0
  0
SCALE
  5
251
102
{ACAD_REACTORS
330
241
102
}
330
241
100
AcDbScale
 70
     0
300
10:1
140
10.0
141
1.0
290
     0
  0
SCALE
  5
252
102
{ACAD_REACTORS
330
241
102
}
330
241
100
AcDbScale
 70
     0
300
100:1
140
100.0
141
1.0
290
     0
  0
SCALE
  5
253
102
{ACAD_REACTORS
330
241
102
}
330
241
100
AcDbScale
 70
     0
300
1/128" = 1'-0"
140
0.0078125
141
12.0
290
     0
  0
SCALE
  5
254
102
{ACAD_REACTORS
330
241
102
}
330
241
100
AcDbScale
 70
     0
300
1/64" = 1'-0"
140
0.015625
141
12.0
290
     0
  0
SCALE
  5
255
102
{ACAD_REACTORS
330
241
102
}
330
241
100
AcDbScale
 70
     0
300
1/32" = 1'-0"
140
0.03125
141
12.0
290
     0
  0
SCALE
  5
256
102
{ACAD_REACTORS
330
241
102
}
330
241
100
AcDbScale
 70
     0
300
1/16" = 1'-0"
140
0.0625
141
12.0
290
     0
  0
SCALE
  5
257
102
{ACAD_REACTORS
330
241
102
}
330
241
100
AcDbScale
 70
     0
300
3/32" = 1'-0"
140
0.09375
141
12.0
290
     0
  0
SCALE
  5
258
102
{ACAD_REACTORS
330
241
102
}
330
241
100
AcDbScale
 70
     0
300
1/8" = 1'-0"
140
0.125
141
12.0
290
     0
  0
SCALE
  5
259
102
{ACAD_REACTORS
330
241
102
}
330
241
100
AcDbScale
 70
     0
300
3/16" = 1'-0"
140
0.1875
141
12.0
290
     0
  0
SCALE
  5
25A
102
{ACAD_REACTORS
330
241
102
}
330
241
100
AcDbScale
 70
     0
300
1/4" = 1'-0"
140
0.25
141
12.0
290
     0
  0
SCALE
  5
25B
102
{ACAD_REACTORS
330
241
102
}
330
241
100
AcDbScale
 70
     0
300
3/8" = 1'-0"
140
0.375
141
12.0
290
     0
  0
SCALE
  5
25C
102
{ACAD_REACTORS
330
241
102
}
330
241
100
AcDbScale
 70
     0
300
1/2" = 1'-0"
140
0.5
141
12.0
290
     0
  0
SCALE
  5
25D
102
{ACAD_REACTORS
330
241
102
}
330
241
100
AcDbScale
 70
     0
300
3/4" = 1'-0"
140
0.75
141
12.0
290
     0
  0
SCALE
  5
25E
102
{ACAD_REACTORS
330
241
102
}
330
241
100
AcDbScale
 70
     0
300
1" = 1'-0"
140
1.0
141
12.0
290
     0
  0
SCALE
  5
25F
102
{ACAD_REACTORS
330
241
102
}
330
241
100
AcDbScale
 70
     0
300
1-1/2" = 1'-0"
140
1.5
141
12.0
290
     0
  0
SCALE
  5
260
102
{ACAD_REACTORS
330
241
102
}
330
241
100
AcDbScale
 70
     0
300
3" = 1'-0"
140
3.0
141
12.0
290
     0
  0
SCALE
  5
261
102
{ACAD_REACTORS
330
241
102
}
330
241
100
AcDbScale
 70
     0
300
6" = 1'-0"
140
6.0
141
12.0
290
     0
  0
SCALE
  5
262
102
{ACAD_REACTORS
330
241
102
}
330
241
100
AcDbScale
 70
     0
300
1'-0" = 1'-0"
140
12.0
141
12.0
290
     0
  0
TABLESTYLE
  5
279
102
{ACAD_REACTORS
330
278
102
}
102
{ACAD_XDICTIONARY
360
4816
102
}
330
278
100
AcDbTableStyle
  3
Standard
 70
     0
 71
     0
 40
0.06
 41
0.06
280
     0
281
     0
  7
Standard
140
4.5
170
     2
 62
     0
 63
   257
283
     0
 90
        4
 91
        0
  1

274
    -2
284
     1
 64
     0
275
    -2
285
     1
 65
     0
276
    -2
286
     1
 66
     0
277
    -2
287
     1
 67
     0
278
    -2
288
     1
 68
     0
279
    -2
289
     1
 69
     0
  7
Standard
140
6.0
170
     5
 62
     0
 63
   257
283
     0
 90
        4
 91
        0
  1

274
    -2
284
     1
 64
     0
275
    -2
285
     1
 65
     0
276
    -2
286
     1
 66
     0
277
    -2
287
     1
 67
     0
278
    -2
288
     1
 68
     0
279
    -2
289
     1
 69
     0
  7
Standard
140
4.5
170
     5
 62
     0
 63
   257
283
     0
 90
        4
 91
        0
  1

274
    -2
284
     1
 64
     0
275
    -2
285
     1
 65
     0
276
    -2
286
     1
 66
     0
277
    -2
287
     1
 67
     0
278
    -2
288
     1
 68
     0
279
    -2
289
     1
 69
     0
  0
VISUALSTYLE
  5
26C
102
{ACAD_REACTORS
330
267
102
}
330
267
100
AcDbVisualStyle
  2
2dWireframe
 70
     4
 71
     0
 72
     2
 73
     0
 90
        0
 40
-0.6
 41
-30.0
 62
     5
 63
     7
421
 16777215
 74
     1
 91
        4
 64
     7
 65
   257
 75
     1
175
     1
 42
1.0
 92
        0
 66
   257
 43
1.0
 76
     1
 77
     6
 78
     2
 67
     7
 79
     5
170
     0
171
     0
290
     0
174
     0
 93
        1
 44
0.0
173
     0
291
     0
 45
0.0
  0
VISUALSTYLE
  5
26E
102
{ACAD_REACTORS
330
267
102
}
330
267
100
AcDbVisualStyle
  2
3D Hidden
 70
     6
 71
     1
 72
     2
 73
     2
 90
        0
 40
-0.6
 41
-30.0
 62
     5
 63
     7
421
 16777215
 74
     2
 91
        2
 64
     7
 65
   257
 75
     2
175
     1
 42
40.0
 92
        0
 66
   257
 43
1.0
 76
     1
 77
     6
 78
     2
 67
     7
 79
     3
170
     0
171
     0
290
     0
174
     0
 93
        1
 44
0.0
173
     0
291
     0
 45
0.0
  0
VISUALSTYLE
  5
26D
102
{ACAD_REACTORS
330
267
102
}
330
267
100
AcDbVisualStyle
  2
3dWireframe
 70
     5
 71
     0
 72
     2
 73
     0
 90
        0
 40
-0.6
 41
-30.0
 62
     5
 63
     7
421
 16777215
 74
     1
 91
        4
 64
     7
 65
   257
 75
     1
175
     1
 42
1.0
 92
        0
 66
   257
 43
1.0
 76
     1
 77
     6
 78
     2
 67
     7
 79
     5
170
     0
171
     0
290
     0
174
     0
 93
        1
 44
0.0
173
     0
291
     0
 45
0.0
  0
VISUALSTYLE
  5
26F
102
{ACAD_REACTORS
330
267
102
}
330
267
100
AcDbVisualStyle
  2
Basic
 70
     7
 71
     1
 72
     0
 73
     1
 90
        0
 40
-0.6
 41
-30.0
 62
     5
 63
     7
421
 16777215
 74
     0
 91
        4
 64
     7
 65
   257
 75
     1
175
     1
 42
1.0
 92
        8
 66
     7
 43
1.0
 76
     1
 77
     6
 78
     2
 67
     7
 79
     5
170
     0
171
     0
290
     0
174
     0
 93
        1
 44
0.0
173
     0
291
     1
 45
0.0
  0
VISUALSTYLE
  5
273
102
{ACAD_REACTORS
330
267
102
}
330
267
100
AcDbVisualStyle
  2
Brighten
 70
    12
 71
     2
 72
     2
 73
     0
 90
        0
 40
-0.6
 41
-30.0
 62
     5
 63
     7
421
 16777215
 74
     1
 91
        4
 64
     7
 65
   257
 75
     1
175
     1
 42
1.0
 92
        8
 66
     7
 43
1.0
 76
     1
 77
     6
 78
     2
 67
     7
 79
     5
170
     0
171
     0
290
     0
174
     0
 93
        1
 44
50.0
173
     0
291
     1
 45
0.0
  0
VISUALSTYLE
  5
277
102
{ACAD_REACTORS
330
267
102
}
330
267
100
AcDbVisualStyle
  2
ColorChange
 70
    16
 71
     2
 72
     2
 73
     3
 90
        0
 40
-0.6
 41
-30.0
 62
     5
 63
     8
421
  8421504
 74
     1
 91
        4
 64
     7
 65
   257
 75
     1
175
     1
 42
1.0
 92
        8
 66
     8
424
  8421504
 43
1.0
 76
     1
 77
     6
 78
     2
 67
     7
 79
     5
170
     0
171
     0
290
     0
174
     0
 93
        1
 44
0.0
173
     0
291
     1
 45
0.0
  0
VISUALSTYLE
  5
271
102
{ACAD_REACTORS
330
267
102
}
330
267
100
AcDbVisualStyle
  2
Conceptual
 70
     9
 71
     3
 72
     2
 73
     0
 90
        0
 40
-0.6
 41
-30.0
 62
     5
 63
     7
421
 16777215
 74
     2
 91
        2
 64
     7
 65
   257
 75
     1
175
     1
 42
40.0
 92
        8
 66
     7
 43
1.0
 76
     1
 77
     6
 78
     2
 67
     7
 79
     3
170
     0
171
     0
290
     0
174
     0
 93
        1
 44
0.0
173
     0
291
     0
 45
0.0
  0
VISUALSTYLE
  5
272
102
{ACAD_REACTORS
330
267
102
}
330
267
100
AcDbVisualStyle
  2
Dim
 70
    11
 71
     2
 72
     2
 73
     0
 90
        0
 40
-0.6
 41
-30.0
 62
     5
 63
     7
421
 16777215
 74
     1
 91
        4
 64
     7
 65
   257
 75
     1
175
     1
 42
1.0
 92
        8
 66
     7
 43
1.0
 76
     1
 77
     6
 78
     2
 67
     7
 79
     5
170
     0
171
     0
290
     0
174
     0
 93
        1
 44
-50.0
173
     0
291
     1
 45
0.0
  0
VISUALSTYLE
  5
8FE
102
{ACAD_REACTORS
330
267
102
}
330
267
100
AcDbVisualStyle
  2
EdgeColorOff
 70
    22
 71
     2
 72
     2
 73
     0
 90
        0
 40
0.6
 41
30.0
 62
     5
 63
     7
421
 16777215
 74
     1
 91
        4
 64
     7
 65
   257
 75
     1
175
     1
 42
1.0
 92
        8
 66
     7
 43
1.0
 76
     1
 77
     6
 78
     2
 67
     7
 79
     5
170
     0
171
     0
290
     0
174
     0
 93
        1
 44
0.0
173
     0
291
     1
 45
0.0
  0
VISUALSTYLE
  5
276
102
{ACAD_REACTORS
330
267
102
}
330
267
100
AcDbVisualStyle
  2
Facepattern
 70
    15
 71
     2
 72
     2
 73
     0
 90
        0
 40
-0.6
 41
-30.0
 62
     5
 63
     7
421
 16777215
 74
     1
 91
        4
 64
     7
 65
   257
 75
     1
175
     1
 42
1.0
 92
        8
 66
     7
 43
1.0
 76
     1
 77
     6
 78
     2
 67
     7
 79
     5
170
     0
171
     0
290
     0
174
     0
 93
        1
 44
0.0
173
     0
291
     1
 45
0.0
  0
VISUALSTYLE
  5
268
102
{ACAD_REACTORS
330
267
102
}
330
267
100
AcDbVisualStyle
  2
Flat
 70
     0
 71
     2
 72
     1
 73
     1
 90
        2
 40
-0.6
 41
30.0
 62
     5
 63
     7
421
 16777215
 74
     0
 91
        4
 64
     7
 65
   257
 75
     1
175
     1
 42
1.0
 92
        8
 66
     7
 43
1.0
 76
     1
 77
     6
 78
     2
 67
     7
 79
     5
170
     0
171
     0
290
     0
174
     0
 93
       13
 44
0.0
173
     0
291
     1
 45
0.0
  0
VISUALSTYLE
  5
269
102
{ACAD_REACTORS
330
267
102
}
330
267
100
AcDbVisualStyle
  2
FlatWithEdges
 70
     1
 71
     2
 72
     1
 73
     1
 90
        2
 40
-0.6
 41
30.0
 62
     5
 63
     7
421
 16777215
 74
     1
 91
        4
 64
     7
 65
   257
 75
     1
175
     1
 42
1.0
 92
        0
 66
   257
 43
1.0
 76
     1
 77
     6
 78
     2
 67
     7
 79
     5
170
     0
171
     0
290
     0
174
     0
 93
       13
 44
0.0
173
     0
291
     1
 45
0.0
  0
VISUALSTYLE
  5
26A
102
{ACAD_REACTORS
330
267
102
}
330
267
100
AcDbVisualStyle
  2
Gouraud
 70
     2
 71
     2
 72
     2
 73
     1
 90
        2
 40
-0.6
 41
30.0
 62
     5
 63
     7
421
 16777215
 74
     0
 91
        4
 64
     7
 65
   257
 75
     1
175
     1
 42
1.0
 92
        0
 66
     7
 43
1.0
 76
     1
 77
     6
 78
     2
 67
     7
 79
     5
170
     0
171
     0
290
     0
174
     0
 93
       13
 44
0.0
173
     0
291
     1
 45
0.0
  0
VISUALSTYLE
  5
26B
102
{ACAD_REACTORS
330
267
102
}
330
267
100
AcDbVisualStyle
  2
GouraudWithEdges
 70
     3
 71
     2
 72
     2
 73
     1
 90
        2
 40
-0.6
 41
30.0
 62
     5
 63
     7
421
 16777215
 74
     1
 91
        4
 64
     7
 65
   257
 75
     1
175
     1
 42
1.0
 92
        0
 66
   257
 43
1.0
 76
     1
 77
     6
 78
     2
 67
     7
 79
     5
170
     0
171
     0
290
     0
174
     0
 93
       13
 44
0.0
173
     0
291
     1
 45
0.0
  0
VISUALSTYLE
  5
8FB
102
{ACAD_REACTORS
330
267
102
}
330
267
100
AcDbVisualStyle
  2
Hidden
 70
     6
 71
     1
 72
     2
 73
     2
 90
        0
 40
0.6
 41
30.0
 62
     5
 63
     7
421
 16777215
 74
     2
 91
        2
 64
     7
 65
   257
 75
     2
175
     1
 42
40.0
 92
        0
 66
   257
 43
1.0
 76
     1
 77
     6
 78
     2
 67
     7
 79
     3
170
     0
171
     0
290
     0
174
     0
 93
        1
 44
0.0
173
     0
291
     0
 45
0.0
  0
VISUALSTYLE
  5
8FC
102
{ACAD_REACTORS
330
267
102
}
330
267
100
AcDbVisualStyle
  2
JitterOff
 70
    20
 71
     2
 72
     2
 73
     0
 90
        0
 40
0.6
 41
30.0
 62
     5
 63
     7
421
 16777215
 74
     1
 91
        4
 64
     7
 65
   257
 75
     1
175
     1
 42
1.0
 92
       10
 66
     7
 43
1.0
 76
     1
 77
     6
 78
     2
 67
     7
 79
     5
170
     0
171
     0
290
     0
174
     0
 93
        1
 44
0.0
173
     0
291
     1
 45
0.0
  0
VISUALSTYLE
  5
275
102
{ACAD_REACTORS
330
267
102
}
330
267
100
AcDbVisualStyle
  2
Linepattern
 70
    14
 71
     2
 72
     2
 73
     0
 90
        0
 40
-0.6
 41
-30.0
 62
     5
 63
     7
421
 16777215
 74
     1
 91
        4
 64
     7
 65
   257
 75
     7
175
     7
 42
1.0
 92
        8
 66
     7
 43
1.0
 76
     1
 77
     6
 78
     2
 67
     7
 79
     5
170
     0
171
     0
290
     0
174
     0
 93
        1
 44
0.0
173
     0
291
     1
 45
0.0
  0
VISUALSTYLE
  5
8FD
102
{ACAD_REACTORS
330
267
102
}
330
267
100
AcDbVisualStyle
  2
OverhangOff
 70
    21
 71
     2
 72
     2
 73
     0
 90
        0
 40
0.6
 41
30.0
 62
     5
 63
     7
421
 16777215
 74
     1
 91
        4
 64
     7
 65
   257
 75
     1
175
     1
 42
1.0
 92
        9
 66
     7
 43
1.0
 76
     1
 77
     6
 78
     2
 67
     7
 79
     5
170
     0
171
     0
290
     0
174
     0
 93
        1
 44
0.0
173
     0
291
     1
 45
0.0
  0
VISUALSTYLE
  5
270
102
{ACAD_REACTORS
330
267
102
}
330
267
100
AcDbVisualStyle
  2
Realistic
 70
     8
 71
     2
 72
     2
 73
     0
 90
        0
 40
-0.6
 41
-30.0
 62
     5
 63
     7
421
 16777215
 74
     1
 91
        0
 64
     7
 65
   257
 75
     1
175
     1
 42
1.0
 92
        8
 66
     8
424
  7895160
 43
1.0
 76
     1
 77
     6
 78
     2
 67
     7
 79
     5
170
     0
171
     0
290
     0
174
     0
 93
       13
 44
0.0
173
     0
291
     0
 45
0.0
  0
VISUALSTYLE
  5
903
102
{ACAD_REACTORS
330
267
102
}
330
267
100
AcDbVisualStyle
  2
Shaded
 70
    27
 71
     2
 72
     2
 73
     1
 90
        2
 40
0.6
 41
30.0
 62
     5
 63
     7
421
 16777215
 74
     0
 91
        4
 64
     7
 65
   257
 75
     1
175
     1
 42
1.0
 92
        8
 66
   257
 43
1.0
 76
     1
 77
     6
 78
     2
 67
     8
425
  7895160
 79
     3
170
     0
171
     0
290
     0
174
     0
 93
        5
 44
0.0
173
     0
291
     0
 45
0.0
  0
VISUALSTYLE
  5
902
102
{ACAD_REACTORS
330
267
102
}
330
267
100
AcDbVisualStyle
  2
Shaded with edges
 70
    26
 71
     2
 72
     2
 73
     1
 90
        2
 40
0.6
 41
30.0
 62
     5
 63
     7
421
 16777215
 74
     1
 91
       10
 64
     7
 65
   257
 75
     2
175
     1
 42
1.0
 92
        8
 66
   257
 43
1.0
 76
     1
 77
     6
 78
     2
 67
     7
 79
     3
170
     0
171
     0
290
     0
174
     0
 93
        5
 44
0.0
173
     0
291
     0
 45
0.0
  0
VISUALSTYLE
  5
8FF
102
{ACAD_REACTORS
330
267
102
}
330
267
100
AcDbVisualStyle
  2
Shades of Gray
 70
    23
 71
     2
 72
     2
 73
     3
 90
        0
 40
0.6
 41
30.0
 62
     5
 63
     7
421
 16777215
 74
     2
 91
        2
 64
     7
 65
     7
 75
     1
175
     1
 42
40.0
 92
        8
 66
     7
 43
1.0
 76
     1
 77
     6
 78
     2
 67
     7
 79
     3
170
     0
171
     0
290
     0
174
     0
 93
        1
 44
0.0
173
     0
291
     0
 45
0.0
  0
VISUALSTYLE
  5
900
102
{ACAD_REACTORS
330
267
102
}
330
267
100
AcDbVisualStyle
  2
Sketchy
 70
    24
 71
     1
 72
     2
 73
     2
 90
        0
 40
0.6
 41
30.0
 62
     5
 63
     7
421
 16777215
 74
     2
 91
        2
 64
     7
 65
     7
 75
     1
175
     1
 42
40.0
 92
       11
 66
     7
 43
1.0
 76
     1
 77
     6
 78
     2
 67
     7
 79
     6
170
     0
171
     0
290
     0
174
     0
 93
        1
 44
0.0
173
     0
291
     0
 45
0.0
  0
VISUALSTYLE
  5
274
102
{ACAD_REACTORS
330
267
102
}
330
267
100
AcDbVisualStyle
  2
Thicken
 70
    13
 71
     2
 72
     2
 73
     0
 90
        0
 40
-0.6
 41
-30.0
 62
     5
 63
     7
421
 16777215
 74
     1
 91
        4
 64
     7
 65
   257
 75
     1
175
     1
 42
1.0
 92
       12
 66
     7
 43
1.0
 76
     1
 77
     6
 78
     2
 67
     7
 79
     5
170
     0
171
     0
290
     0
174
     0
 93
        1
 44
0.0
173
     0
291
     1
 45
0.0
  0
VISUALSTYLE
  5
8FA
102
{ACAD_REACTORS
330
267
102
}
330
267
100
AcDbVisualStyle
  2
Wireframe
 70
     5
 71
     0
 72
     2
 73
     0
 90
        0
 40
0.6
 41
30.0
 62
     5
 63
     7
421
 16777215
 74
     1
 91
        4
 64
     7
 65
   257
 75
     1
175
     1
 42
1.0
 92
        0
 66
   257
 43
1.0
 76
     1
 77
     6
 78
     2
 67
     7
 79
     3
170
     0
171
     0
290
     0
174
     0
 93
        1
 44
0.0
173
     0
291
     0
 45
0.0
  0
VISUALSTYLE
  5
901
102
{ACAD_REACTORS
330
267
102
}
330
267
100
AcDbVisualStyle
  2
X-Ray
 70
    25
 71
     2
 72
     2
 73
     1
 90
        1
 40
0.5
 41
30.0
 62
     5
 63
     7
421
 16777215
 74
     1
 91
        0
 64
     7
 65
   257
 75
     1
175
     1
 42
1.0
 92
        8
 66
     7
 43
1.0
 76
     1
 77
     6
 78
     2
 67
     7
 79
     3
170
     0
171
     0
290
     0
174
     0
 93
       13
 44
0.0
173
     0
291
     0
 45
0.0
  0
DICTIONARYVAR
  5
331
102
{ACAD_REACTORS
330
330
102
}
330
330
100
DictionaryVariables
280
     0
  1
1:1
  0
DICTIONARYVAR
  5
D5E
102
{ACAD_REACTORS
330
330
102
}
330
330
100
DictionaryVariables
280
     0
  1
Standard
  0
DICTIONARYVAR
  5
335
102
{ACAD_REACTORS
330
330
102
}
330
330
100
DictionaryVariables
280
     0
  1
Standard
  0
DICTIONARYVAR
  5
D52
102
{ACAD_REACTORS
330
330
102
}
330
330
100
DictionaryVariables
280
     0
  1
ByLayer
  0
DICTIONARYVAR
  5
896
102
{ACAD_REACTORS
330
330
102
}
330
330
100
DictionaryVariables
280
     0
  1
0
  0
DICTIONARYVAR
  5
47B0
102
{ACAD_REACTORS
330
E38
102
}
330
E38
100
DictionaryVariables
280
     0
  1
0.261799
  0
DICTIONARYVAR
  5
47AE
102
{ACAD_REACTORS
330
E38
102
}
330
E38
100
DictionaryVariables
280
     0
  1
0.400000
  0
DICTIONARYVAR
  5
47AF
102
{ACAD_REACTORS
330
E38
102
}
330
E38
100
DictionaryVariables
280
     0
  1
0.250000
  0
DICTIONARYVAR
  5
47B1
102
{ACAD_REACTORS
330
E38
102
}
330
E38
100
DictionaryVariables
280
     0
  1
1
  0
XRECORD
  5
7AA
102
{ACAD_REACTORS
330
2E2
102
}
330
2E2
100
AcDbXrecord
280
     1
 91
    34815
301

290
     0
302
HIDDEN
330
14
 90
        8
 62
     7
370
    -3
331
13
  1
Color_7
440
 33554687
330
4B
 90
        8
 62
     7
370
    20
331
13
  1
Color_7
440
 33554687
330
4C
 90
        8
 62
     3
370
    13
331
13
  1
Color_3
440
 33554687
330
4D
 90
        8
 62
     7
370
    20
331
13
  1
Color_7
440
 33554687
330
667
 90
        8
 62
     7
370
    -3
331
13
  1
Color_7
440
 33554687
330
0
 90
        8
 62
     8
370
    20
331
0
  1
Color_8
440
 33554687
330
D6B
 90
        0
 62
     4
370
    20
331
D6C
  1
Color_4
440
 33554687
330
D8C
 90
        0
 62
     7
370
    -3
331
13
  1
Color_7
440
 33554687
  0
FIELD
  5
37C5
102
{ACAD_REACTORS
330
37CA
102
}
330
37CA
100
AcDbField
  1
_text
  2
{%<\_FldIdx 0>%N}
 90
        1
360
37C9
 97
        0
 91
       63
 92
        0
 94
        8
 95
        2
 96
        0
300

 93
        1
  6
ACFD_FIELDTEXT_CHECKSUM
 93
        2
 90
        2
140
4466.0
 94
        0
300

302

304
ACVALUE_END
  7
ACFD_FIELD_VALUE
 93
        6
 90
        4
  1
{20161202N}
 94
        0
300

302

304
ACVALUE_END
301
{20161202N}
 98
       11
  0
DICTIONARY
  5
4816
330
279
100
AcDbDictionary
280
     1
281
     1
  3
ACAD_ROUNDTRIP_2008_TABLESTYLE_CELLSTYLEMAP
360
4817
  0
FIELD
  5
37C9
330
37C5
100
AcDbField
  1
AcVar
  2
\AcVar Date \f "yyyyMMdd"
 90
        0
 97
        0
 91
       63
 92
        0
 94
        8
 95
        2
 96
        0
300

 93
        1
  6
Variable
 93
        2
 90
        4
  1
Date
 94
        0
300

302

304
ACVALUE_END
  7
ACFD_FIELD_VALUE
 93
        6
 90
        8
 92
       16
310
E0070C000000020007000F0021000000
 94
        0
300
yyyyMMdd
302

304
ACVALUE_END
301
20161202
 98
        8
  0
CELLSTYLEMAP
  5
4817
102
{ACAD_REACTORS
330
4816
102
}
330
4816
100
AcDbCellStyleMap
 90
        3
300
CELLSTYLE
  1
TABLEFORMAT_BEGIN
 90
        5
170
     1
 91
        0
 92
    32768
 62
   257
 93
        1
300
CONTENTFORMAT
  1
CONTENTFORMAT_BEGIN
 90
        0
 91
        0
 92
        4
 93
        0
300

 40
0.0
140
1.0
 94
        5
 62
     0
340
17
144
6.0
309
CONTENTFORMAT_END
171
     1
301
MARGIN
  1
CELLMARGIN_BEGIN
 40
0.06
 40
0.06
 40
0.06
 40
0.06
 40
0.18
 40
0.18
309
CELLMARGIN_END
 94
        6
 95
        1
302
GRIDFORMAT
  1
GRIDFORMAT_BEGIN
 90
        0
 91
        1
 62
     0
 92
       -2
340
0
 93
        0
 40
0.045
309
GRIDFORMAT_END
 95
        2
302
GRIDFORMAT
  1
GRIDFORMAT_BEGIN
 90
        0
 91
        1
 62
     0
 92
       -2
340
0
 93
        0
 40
0.045
309
GRIDFORMAT_END
 95
        4
302
GRIDFORMAT
  1
GRIDFORMAT_BEGIN
 90
        0
 91
        1
 62
     0
 92
       -2
340
0
 93
        0
 40
0.045
309
GRIDFORMAT_END
 95
        8
302
GRIDFORMAT
  1
GRIDFORMAT_BEGIN
 90
        0
 91
        1
 62
     0
 92
       -2
340
0
 93
        0
 40
0.045
309
GRIDFORMAT_END
 95
       16
302
GRIDFORMAT
  1
GRIDFORMAT_BEGIN
 90
        0
 91
        1
 62
     0
 92
       -2
340
0
 93
        0
 40
0.045
309
GRIDFORMAT_END
 95
       32
302
GRIDFORMAT
  1
GRIDFORMAT_BEGIN
 90
        0
 91
        1
 62
     0
 92
       -2
340
0
 93
        0
 40
0.045
309
GRIDFORMAT_END
309
TABLEFORMAT_END
  1
CELLSTYLE_BEGIN
 90
        1
 91
        1
300
_TITLE
309
CELLSTYLE_END
300
CELLSTYLE
  1
TABLEFORMAT_BEGIN
 90
        5
170
     1
 91
        0
 92
        0
 62
   257
 93
        1
300
CONTENTFORMAT
  1
CONTENTFORMAT_BEGIN
 90
        0
 91
        0
 92
        4
 93
        0
300

 40
0.0
140
1.0
 94
        5
 62
     0
340
17
144
4.5
309
CONTENTFORMAT_END
171
     1
301
MARGIN
  1
CELLMARGIN_BEGIN
 40
0.06
 40
0.06
 40
0.06
 40
0.06
 40
0.18
 40
0.18
309
CELLMARGIN_END
 94
        6
 95
        1
302
GRIDFORMAT
  1
GRIDFORMAT_BEGIN
 90
        0
 91
        1
 62
     0
 92
       -2
340
0
 93
        0
 40
0.045
309
GRIDFORMAT_END
 95
        2
302
GRIDFORMAT
  1
GRIDFORMAT_BEGIN
 90
        0
 91
        1
 62
     0
 92
       -2
340
0
 93
        0
 40
0.045
309
GRIDFORMAT_END
 95
        4
302
GRIDFORMAT
  1
GRIDFORMAT_BEGIN
 90
        0
 91
        1
 62
     0
 92
       -2
340
0
 93
        0
 40
0.045
309
GRIDFORMAT_END
 95
        8
302
GRIDFORMAT
  1
GRIDFORMAT_BEGIN
 90
        0
 91
        1
 62
     0
 92
       -2
340
0
 93
        0
 40
0.045
309
GRIDFORMAT_END
 95
       16
302
GRIDFORMAT
  1
GRIDFORMAT_BEGIN
 90
        0
 91
        1
 62
     0
 92
       -2
340
0
 93
        0
 40
0.045
309
GRIDFORMAT_END
 95
       32
302
GRIDFORMAT
  1
GRIDFORMAT_BEGIN
 90
        0
 91
        1
 62
     0
 92
       -2
340
0
 93
        0
 40
0.045
309
GRIDFORMAT_END
309
TABLEFORMAT_END
  1
CELLSTYLE_BEGIN
 90
        2
 91
        1
300
_HEADER
309
CELLSTYLE_END
300
CELLSTYLE
  1
TABLEFORMAT_BEGIN
 90
        5
170
     1
 91
        0
 92
        0
 62
   257
 93
        1
300
CONTENTFORMAT
  1
CONTENTFORMAT_BEGIN
 90
        0
 91
        0
 92
        4
 93
        0
300

 40
0.0
140
1.0
 94
        2
 62
     0
340
17
144
4.5
309
CONTENTFORMAT_END
171
     1
301
MARGIN
  1
CELLMARGIN_BEGIN
 40
0.06
 40
0.06
 40
0.06
 40
0.06
 40
0.18
 40
0.18
309
CELLMARGIN_END
 94
        6
 95
        1
302
GRIDFORMAT
  1
GRIDFORMAT_BEGIN
 90
        0
 91
        1
 62
     0
 92
       -2
340
0
 93
        0
 40
0.045
309
GRIDFORMAT_END
 95
        2
302
GRIDFORMAT
  1
GRIDFORMAT_BEGIN
 90
        0
 91
        1
 62
     0
 92
       -2
340
0
 93
        0
 40
0.045
309
GRIDFORMAT_END
 95
        4
302
GRIDFORMAT
  1
GRIDFORMAT_BEGIN
 90
        0
 91
        1
 62
     0
 92
       -2
340
0
 93
        0
 40
0.045
309
GRIDFORMAT_END
 95
        8
302
GRIDFORMAT
  1
GRIDFORMAT_BEGIN
 90
        0
 91
        1
 62
     0
 92
       -2
340
0
 93
        0
 40
0.045
309
GRIDFORMAT_END
 95
       16
302
GRIDFORMAT
  1
GRIDFORMAT_BEGIN
 90
        0
 91
        1
 62
     0
 92
       -2
340
0
 93
        0
 40
0.045
309
GRIDFORMAT_END
 95
       32
302
GRIDFORMAT
  1
GRIDFORMAT_BEGIN
 90
        0
 91
        1
 62
     0
 92
       -2
340
0
 93
        0
 40
0.045
309
GRIDFORMAT_END
309
TABLEFORMAT_END
  1
CELLSTYLE_BEGIN
 90
        3
 91
        2
300
_DATA
309
CELLSTYLE_END
  0
ENDSEC
  0
EOF
