  0
SECTION
  2
HEADER
  9
$ACADVER
  1
AC1032
  9
$ACADMAINTVER
 90
      228
  9
$DWGCODEPAGE
  3
ANSI_932
  9
$LASTSAVEDBY
  1
T-HOWE-PC
  9
$REQUIREDVERSIONS
160
                 0
  9
$INSBASE
 10
0.0
 20
0.0
 30
0.0
  9
$EXTMIN
 10
0.0
 20
0.0
 30
-0.0000000000000001
  9
$EXTMAX
 10
630.0
 20
891.0
 30
0.0000000000000071
  9
$LIMMIN
 10
0.0
 20
0.0
  9
$LIMMAX
 10
630.0
 20
891.0
  9
$ORTHOMODE
 70
     1
  9
$REGENMODE
 70
     1
  9
$FILLMODE
 70
     1
  9
$QTEXTMODE
 70
     0
  9
$MIRRTEXT
 70
     1
  9
$LTSCALE
 40
1.5
  9
$ATTMODE
 70
     1
  9
$TEXTSIZE
 40
2.5
  9
$TRACEWID
 40
1.0
  9
$TEXTSTYLE
  7
ＭＳ ゴシック
  9
$CLAYER
  8
DIM
  9
$CELTYPE
  6
ByLayer
  9
$CECOLOR
 62
   256
  9
$CELTSCALE
 40
1.0
  9
$DISPSILH
 70
     0
  9
$DIMSCALE
 40
1.0
  9
$DIMASZ
 40
3.0
  9
$DIMEXO
 40
10.0
  9
$DIMDLI
 40
1.0
  9
$DIMRND
 40
0.0
  9
$DIMDLE
 40
0.0
  9
$DIMEXE
 40
0.0
  9
$DIMTP
 40
0.0
  9
$DIMTM
 40
0.0
  9
$DIMTXT
 40
8.0
  9
$DIMCEN
 40
0.0
  9
$DIMTSZ
 40
0.0
  9
$DIMTOL
 70
     0
  9
$DIMLIM
 70
     0
  9
$DIMTIH
 70
     0
  9
$DIMTOH
 70
     0
  9
$DIMSE1
 70
     0
  9
$DIMSE2
 70
     0
  9
$DIMTAD
 70
     1
  9
$DIMZIN
 70
    11
  9
$DIMBLK
  1
DOT
  9
$DIMASO
 70
     1
  9
$DIMSHO
 70
     1
  9
$DIMPOST
  1
<>
  9
$DIMAPOST
  1
[]
  9
$DIMALT
 70
     0
  9
$DIMALTD
 70
     1
  9
$DIMALTF
 40
1.0
  9
$DIMLFAC
 40
1.0
  9
$DIMTOFL
 70
     0
  9
$DIMTVP
 40
0.0
  9
$DIMTIX
 70
     1
  9
$DIMSOXD
 70
     0
  9
$DIMSAH
 70
     0
  9
$DIMBLK1
  1

  9
$DIMBLK2
  1

  9
$DIMSTYLE
  2
tfrom線あり
  9
$DIMCLRD
 70
     0
  9
$DIMCLRE
 70
     0
  9
$DIMCLRT
 70
     0
  9
$DIMTFAC
 40
1.0
  9
$DIMGAP
 40
6.0
  9
$DIMJUST
 70
     0
  9
$DIMSD1
 70
     0
  9
$DIMSD2
 70
     0
  9
$DIMTOLJ
 70
     1
  9
$DIMTZIN
 70
    11
  9
$DIMALTZ
 70
    11
  9
$DIMALTTZ
 70
    11
  9
$DIMUPT
 70
     0
  9
$DIMDEC
 70
     0
  9
$DIMTDEC
 70
     1
  9
$DIMALTU
 70
     2
  9
$DIMALTTD
 70
     2
  9
$DIMTXSTY
  7
ＭＳ ゴシック
  9
$DIMAUNIT
 70
     0
  9
$DIMADEC
 70
     2
  9
$DIMALTRND
 40
0.0
  9
$DIMAZIN
 70
     0
  9
$DIMDSEP
 70
    46
  9
$DIMATFIT
 70
     0
  9
$DIMFRAC
 70
     2
  9
$DIMLDRBLK
  1
DOT
  9
$DIMLUNIT
 70
     2
  9
$DIMLWD
 70
    -2
  9
$DIMLWE
 70
    -2
  9
$DIMTMOVE
 70
     0
  9
$DIMFXL
 40
1.0
  9
$DIMFXLON
 70
     0
  9
$DIMJOGANG
 40
0.7853981633974483
  9
$DIMTFILL
 70
     0
  9
$DIMTFILLCLR
 70
     0
  9
$DIMARCSYM
 70
     0
  9
$DIMLTYPE
  6

  9
$DIMLTEX1
  6

  9
$DIMLTEX2
  6

  9
$DIMTXTDIRECTION
 70
     0
  9
$LUNITS
 70
     2
  9
$LUPREC
 70
     0
  9
$SKETCHINC
 40
0.1
  9
$FILLETRAD
 40
0.0
  9
$AUNITS
 70
     0
  9
$AUPREC
 70
     0
  9
$MENU
  1
acad
  9
$ELEVATION
 40
0.0
  9
$PELEVATION
 40
0.0
  9
$THICKNESS
 40
0.0
  9
$LIMCHECK
 70
     0
  9
$CHAMFERA
 40
0.0
  9
$CHAMFERB
 40
0.0
  9
$CHAMFERC
 40
0.0
  9
$CHAMFERD
 40
0.0
  9
$SKPOLY
 70
     0
  9
$TDCREATE
 40
2460221.715196760
  9
$TDUCREATE
 40
2460221.340196759
  9
$TDUPDATE
 40
2460221.731180556
  9
$TDUUPDATE
 40
2460221.356180556
  9
$TDINDWG
 40
0.0125758565
  9
$TDUSRTIMER
 40
0.0133317014
  9
$USRTIMER
 70
     1
  9
$ANGBASE
 50
0.0
  9
$ANGDIR
 70
     0
  9
$PDMODE
 70
     1
  9
$PDSIZE
 40
-2.0
  9
$PLINEWID
 40
0.0
  9
$SPLFRAME
 70
     0
  9
$SPLINETYPE
 70
     6
  9
$SPLINESEGS
 70
     8
  9
$HANDSEED
  5
17AAA
  9
$SURFTAB1
 70
     6
  9
$SURFTAB2
 70
     6
  9
$SURFTYPE
 70
     6
  9
$SURFU
 70
     6
  9
$SURFV
 70
     6
  9
$UCSBASE
  2

  9
$UCSNAME
  2

  9
$UCSORG
 10
0.0
 20
0.0
 30
0.0
  9
$UCSXDIR
 10
1.0
 20
0.0
 30
0.0
  9
$UCSYDIR
 10
0.0
 20
1.0
 30
0.0
  9
$UCSORTHOREF
  2

  9
$UCSORTHOVIEW
 70
     0
  9
$UCSORGTOP
 10
0.0
 20
0.0
 30
0.0
  9
$UCSORGBOTTOM
 10
0.0
 20
0.0
 30
0.0
  9
$UCSORGLEFT
 10
0.0
 20
0.0
 30
0.0
  9
$UCSORGRIGHT
 10
0.0
 20
0.0
 30
0.0
  9
$UCSORGFRONT
 10
0.0
 20
0.0
 30
0.0
  9
$UCSORGBACK
 10
0.0
 20
0.0
 30
0.0
  9
$PUCSBASE
  2

  9
$PUCSNAME
  2

  9
$PUCSORG
 10
0.0
 20
0.0
 30
0.0
  9
$PUCSXDIR
 10
1.0
 20
0.0
 30
0.0
  9
$PUCSYDIR
 10
0.0
 20
1.0
 30
0.0
  9
$PUCSORTHOREF
  2

  9
$PUCSORTHOVIEW
 70
     0
  9
$PUCSORGTOP
 10
0.0
 20
0.0
 30
0.0
  9
$PUCSORGBOTTOM
 10
0.0
 20
0.0
 30
0.0
  9
$PUCSORGLEFT
 10
0.0
 20
0.0
 30
0.0
  9
$PUCSORGRIGHT
 10
0.0
 20
0.0
 30
0.0
  9
$PUCSORGFRONT
 10
0.0
 20
0.0
 30
0.0
  9
$PUCSORGBACK
 10
0.0
 20
0.0
 30
0.0
  9
$USERI1
 70
     0
  9
$USERI2
 70
     0
  9
$USERI3
 70
     0
  9
$USERI4
 70
     0
  9
$USERI5
 70
     0
  9
$USERR1
 40
0.0
  9
$USERR2
 40
0.0
  9
$USERR3
 40
0.0
  9
$USERR4
 40
0.0
  9
$USERR5
 40
0.0
  9
$WORLDVIEW
 70
     1
  9
$SHADEDGE
 70
     3
  9
$SHADEDIF
 70
    70
  9
$TILEMODE
 70
     1
  9
$MAXACTVP
 70
    64
  9
$PINSBASE
 10
0.0
 20
0.0
 30
0.0
  9
$PLIMCHECK
 70
     0
  9
$PEXTMIN
 10
0.0
 20
0.0
 30
0.0
  9
$PEXTMAX
 10
0.0
 20
0.0
 30
0.0
  9
$PLIMMIN
 10
-7.5
 20
-20.0
  9
$PLIMMAX
 10
412.5
 20
277.0
  9
$UNITMODE
 70
     0
  9
$VISRETAIN
 70
     0
  9
$PLINEGEN
 70
     1
  9
$PSLTSCALE
 70
     0
  9
$TREEDEPTH
 70
  3020
  9
$CMLSTYLE
  2
Standard
  9
$CMLJUST
 70
     0
  9
$CMLSCALE
 40
1.0
  9
$PROXYGRAPHICS
 70
     0
  9
$MEASUREMENT
 70
     1
  9
$CELWEIGHT
370
    -1
  9
$ENDCAPS
280
     0
  9
$JOINSTYLE
280
     0
  9
$LWDISPLAY
290
     1
  9
$INSUNITS
 70
     4
  9
$HYPERLINKBASE
  1

  9
$STYLESHEET
  1
monochrome.ctb
  9
$XEDIT
290
     1
  9
$CEPSNTYPE
380
     0
  9
$PSTYLEMODE
290
     1
  9
$FINGERPRINTGUID
  2

  9
$VERSIONGUID
  2
{AE6F55F8-0D96-8947-A9B6-1745998B770F}
  9
$EXTNAMES
290
     1
  9
$PSVPSCALE
 40
0.0
  9
$OLESTARTUP
290
     0
  9
$SORTENTS
280
   127
  9
$INDEXCTL
280
     0
  9
$HIDETEXT
280
     1
  9
$XCLIPFRAME
280
     0
  9
$HALOGAP
280
     0
  9
$OBSCOLOR
 70
   257
  9
$OBSLTYPE
280
     0
  9
$INTERSECTIONDISPLAY
280
     0
  9
$INTERSECTIONCOLOR
 70
   257
  9
$DIMASSOC
280
     2
  9
$PROJECTNAME
  1

  9
$CAMERADISPLAY
290
     0
  9
$LENSLENGTH
 40
50.0
  9
$CAMERAHEIGHT
 40
0.0
  9
$STEPSPERSEC
 40
2.0
  9
$STEPSIZE
 40
6.0
  9
$3DDWFPREC
 40
2.0
  9
$PSOLWIDTH
 40
0.25
  9
$PSOLHEIGHT
 40
4.0
  9
$LOFTANG1
 40
1.570796326794897
  9
$LOFTANG2
 40
1.570796326794897
  9
$LOFTMAG1
 40
0.0
  9
$LOFTMAG2
 40
0.0
  9
$LOFTPARAM
 70
     7
  9
$LOFTNORMALS
280
     1
  9
$LATITUDE
 40
37.795
  9
$LONGITUDE
 40
-122.394
  9
$NORTHDIRECTION
 40
0.0
  9
$TIMEZONE
 70
 -8000
  9
$LIGHTGLYPHDISPLAY
280
     1
  9
$TILEMODELIGHTSYNCH
280
     1
  9
$CMATERIAL
347
264
  9
$SOLIDHIST
280
     1
  9
$SHOWHIST
280
     1
  9
$DWFFRAME
280
     2
  9
$DGNFRAME
280
     2
  9
$REALWORLDSCALE
290
     1
  9
$INTERFERECOLOR
 62
   256
  9
$INTERFEREOBJVS
345
270
  9
$INTERFEREVPVS
346
8FA
  9
$CSHADOW
280
     0
  9
$SHADOWPLANELOCATION
 40
0.0
  0
ENDSEC
  0
SECTION
  2
CLASSES
  0
CLASS
  1
IMAGE
  2
AcDbRasterImage
  3
ISM
 90
     2175
 91
        0
280
     0
281
     1
  0
CLASS
  1
DICTIONARYVAR
  2
AcDbDictionaryVar
  3
ObjectDBX Classes
 90
        0
 91
       14
280
     0
281
     0
  0
CLASS
  1
RASTERVARIABLES
  2
AcDbRasterVariables
  3
ISM
 90
        0
 91
        1
280
     0
281
     0
  0
CLASS
  1
IMAGEDEF
  2
AcDbRasterImageDef
  3
ISM
 90
        0
 91
        0
280
     0
281
     0
  0
CLASS
  1
IMAGEDEF_REACTOR
  2
AcDbRasterImageDefReactor
  3
ISM
 90
        1
 91
        0
280
     0
281
     0
  0
CLASS
  1
IDBUFFER
  2
AcDbIdBuffer
  3
ObjectDBX Classes
 90
        0
 91
        0
280
     0
281
     0
  0
CLASS
  1
SPATIAL_FILTER
  2
AcDbSpatialFilter
  3
ObjectDBX Classes
 90
        0
 91
        0
280
     0
281
     0
  0
CLASS
  1
SORTENTSTABLE
  2
AcDbSortentsTable
  3
ObjectDBX Classes
 90
        0
 91
        2
280
     0
281
     0
  0
CLASS
  1
LAYER_INDEX
  2
AcDbLayerIndex
  3
ObjectDBX Classes
 90
        0
 91
        0
280
     0
281
     0
  0
CLASS
  1
SPATIAL_INDEX
  2
AcDbSpatialIndex
  3
ObjectDBX Classes
 90
        0
 91
        0
280
     0
281
     0
  0
CLASS
  1
OBJECT_PTR
  2
CAseDLPNTableRecord
  3
ASE-LPNTableRecord
 90
        1
 91
        0
280
     0
281
     0
  0
CLASS
  1
PLOTSETTINGS
  2
AcDbPlotSettings
  3
ObjectDBX Classes
 90
        0
 91
        0
280
     0
281
     0
  0
CLASS
  1
ACDBDICTIONARYWDFLT
  2
AcDbDictionaryWithDefault
  3
ObjectDBX Classes
 90
        0
 91
        1
280
     0
281
     0
  0
CLASS
  1
SCALE
  2
AcDbScale
  3
ObjectDBX Classes
 90
     1153
 91
       33
280
     0
281
     0
  0
CLASS
  1
MATERIAL
  2
AcDbMaterial
  3
ObjectDBX Classes
 90
     1153
 91
        3
280
     0
281
     0
  0
CLASS
  1
VISUALSTYLE
  2
AcDbVisualStyle
  3
ObjectDBX Classes
 90
     4095
 91
       27
280
     0
281
     0
  0
CLASS
  1
TABLESTYLE
  2
AcDbTableStyle
  3
ObjectDBX Classes
 90
     4095
 91
        1
280
     0
281
     0
  0
CLASS
  1
DIMASSOC
  2
AcDbDimAssoc
  3
"AcDbDimAssoc|Product Desc:     AcDim ARX App For Dimension|Company:          Autodesk, Inc.|WEB Address:      www.autodesk.com"
 90
        0
 91
        6
280
     0
281
     0
  0
CLASS
  1
CELLSTYLEMAP
  2
AcDbCellStyleMap
  3
ObjectDBX Classes
 90
     1152
 91
        2
280
     0
281
     0
  0
CLASS
  1
SUN
  2
AcDbSun
  3
SCENEOE
 90
     1153
 91
        1
280
     0
281
     0
  0
CLASS
  1
MLEADERSTYLE
  2
AcDbMLeaderStyle
  3
ACDB_MLEADERSTYLE_CLASS
 90
     4095
 91
        1
280
     0
281
     0
  0
CLASS
  1
FIELD
  2
AcDbField
  3
ObjectDBX Classes
 90
     1152
 91
        2
280
     0
281
     0
  0
CLASS
  1
FIELDLIST
  2
AcDbFieldList
  3
ObjectDBX Classes
 90
     1152
 91
        1
280
     0
281
     0
  0
CLASS
  1
ACDBSECTIONVIEWSTYLE
  2
AcDbSectionViewStyle
  3
ObjectDBX Classes
 90
     1025
 91
        1
280
     0
281
     0
  0
CLASS
  1
ACDBDETAILVIEWSTYLE
  2
AcDbDetailViewStyle
  3
ObjectDBX Classes
 90
     1025
 91
        1
280
     0
281
     0
  0
CLASS
  1
SOLID_BACKGROUND
  2
AcDbSolidBackground
  3
SCENEOE
 90
     4095
 91
        1
280
     0
281
     0
  0
CLASS
  1
NPOCOLLECTION
  2
AcDbImpNonPersistentObjectsCollection
  3
ObjectDBX Classes
 90
     1153
 91
        1
280
     0
281
     0
  0
CLASS
  1
RAPIDRTRENDERSETTINGS
  2
AcDbRapidRTRenderSettings
  3
ObjectDBX Classes
 90
     1024
 91
        6
280
     0
281
     0
  0
ENDSEC
  0
SECTION
  2
TABLES
  0
TABLE
  2
VPORT
  5
7
330
0
100
AcDbSymbolTable
 70
     1
  0
VPORT
  5
15
330
7
100
AcDbSymbolTableRecord
100
AcDbViewportTableRecord
  2
*ACTIVE
 70
     0
 10
0.0
 20
0.0
 11
1.0
 21
1.0
 12
0.0
 22
0.0
 13
0.0
 23
0.0
 14
1.0
 24
1.0
 15
0.0
 25
0.0
 16
0.0
 26
0.0
 36
2187.719602029262
 17
439.8579681898864
 27
445.5
 37
-46.86809886248109
 40
893.7443531827517
 41
1.926972909305064
 42
50.0
 43
0.0
 44
0.0
 50
0.0
 51
0.0
 71
     0
 72
  2000
 73
     1
 74
     1
 75
     0
 76
     0
 77
     0
 78
     0
281
     1
 65
     1
110
0.0
120
0.0
130
0.0
111
1.0
121
0.0
131
0.0
112
0.0
122
1.0
132
0.0
 79
     0
146
0.0
348
3666
 60
     3
 61
     5
292
     1
282
     1
141
0.0
142
0.0
 63
   250
421
  3355443
361
904
1001
ACAD_NAV_VCDISPLAY
1070
     3
  0
ENDTAB
  0
TABLE
  2
LTYPE
  5
4
330
0
100
AcDbSymbolTable
 70
     3
  0
LTYPE
  5
11
330
4
100
AcDbSymbolTableRecord
100
AcDbLinetypeTableRecord
  2
ByBlock
 70
     0
  3

 72
    65
 73
     0
 40
0.0
  0
LTYPE
  5
12
330
4
100
AcDbSymbolTableRecord
100
AcDbLinetypeTableRecord
  2
ByLayer
 70
     0
  3

 72
    65
 73
     0
 40
0.0
  0
LTYPE
  5
13
330
4
100
AcDbSymbolTableRecord
100
AcDbLinetypeTableRecord
  2
Continuous
 70
     0
  3
Solid line
 72
    65
 73
     0
 40
0.0
  0
LTYPE
  5
D6C
330
4
100
AcDbSymbolTableRecord
100
AcDbLinetypeTableRecord
  2
BORDER
 70
     0
  3
Border __  __  . __  __  . __  __  . __  __  . 
 72
    65
 73
     6
 40
44.45
 49
12.7
 74
     0
 49
-6.349999999999998
 74
     0
 49
12.7
 74
     0
 49
-6.349999999999998
 74
     0
 49
0.0
 74
     0
 49
-6.349999999999998
 74
     0
  0
LTYPE
  5
D6D
330
4
100
AcDbSymbolTableRecord
100
AcDbLinetypeTableRecord
  2
HIDDEN
 70
     0
  3
Hidden _ _ _ _ _ _ _ _ _ _ _ _ _ _ _ _ _ _ _ _ 
 72
    65
 73
     2
 40
9.525
 49
6.349999999999998
 74
     0
 49
-3.174999999999998
 74
     0
  0
ENDTAB
  0
TABLE
  2
LAYER
  5
2
102
{ACAD_XDICTIONARY
360
2E1
102
}
330
0
100
AcDbSymbolTable
 70
     8
  0
LAYER
  5
14
102
{ACAD_XDICTIONARY
360
17A5E
102
}
330
2
100
AcDbSymbolTableRecord
100
AcDbLayerTableRecord
  2
0
 70
     0
 62
     7
  6
Continuous
370
    -3
390
1D
347
266
348
0
  0
LAYER
  5
4B
102
{ACAD_XDICTIONARY
360
17A60
102
}
330
2
100
AcDbSymbolTableRecord
100
AcDbLayerTableRecord
  2
TEMPLATE
 70
     0
 62
     7
  6
Continuous
370
    20
390
1D
347
266
348
0
  0
LAYER
  5
4C
102
{ACAD_XDICTIONARY
360
17A62
102
}
330
2
100
AcDbSymbolTableRecord
100
AcDbLayerTableRecord
  2
DIM
 70
     0
 62
     3
  6
Continuous
370
    13
390
1D
347
266
348
0
  0
LAYER
  5
4D
102
{ACAD_XDICTIONARY
360
17A64
102
}
330
2
100
AcDbSymbolTableRecord
100
AcDbLayerTableRecord
  2
MODEL
 70
     0
 62
     7
  6
Continuous
370
    20
390
1D
347
266
348
0
  0
LAYER
  5
88C
102
{ACAD_XDICTIONARY
360
17A66
102
}
330
2
100
AcDbSymbolTableRecord
100
AcDbLayerTableRecord
  2
HIDDEN
 70
     0
 62
     8
  6
HIDDEN
370
    20
390
1D
347
266
348
0
1001
AcAecLayerStandard
1000

1000

  0
LAYER
  5
D6B
102
{ACAD_XDICTIONARY
360
17A68
102
}
330
2
100
AcDbSymbolTableRecord
100
AcDbLayerTableRecord
  2
BORDER
 70
     0
 62
     4
  6
BORDER
290
     0
370
    20
390
1D
347
266
348
0
1001
AcAecLayerStandard
1000

1000

  0
LAYER
  5
A5DF
330
2
100
AcDbSymbolTableRecord
100
AcDbLayerTableRecord
  2
Defpoints
 70
     0
 62
     7
  6
Continuous
290
     0
370
    -3
390
1D
347
266
348
0
  0
LAYER
  5
17561
102
{ACAD_XDICTIONARY
360
17562
102
}
330
2
100
AcDbSymbolTableRecord
100
AcDbLayerTableRecord
  2
注释
 70
     0
 62
     7
  6
Continuous
370
    -1
390
1D
347
266
348
0
1001
AcadStringInfo
1000
MIFCodePage
1070
     5
  0
ENDTAB
  0
TABLE
  2
STYLE
  5
3
330
0
100
AcDbSymbolTable
 70
     5
  0
STYLE
  5
17
330
3
100
AcDbSymbolTableRecord
100
AcDbTextStyleTableRecord
  2
Standard
 70
     0
 40
0.0
 41
1.0
 50
0.0
 71
     0
 42
2.5
  3
txt
  4
BIGFONT.SHX
  0
STYLE
  5
39
330
3
100
AcDbSymbolTableRecord
100
AcDbTextStyleTableRecord
  2
ＭＳ ゴシック
 70
     0
 40
0.0
 41
1.0
 50
0.0
 71
     0
 42
2.5
  3
msgothic.ttc
  4
ＭＳ ゴシック
1001
ACAD
1000
ＭＳ ゴシック
1071
        0
  0
STYLE
  5
17569
330
3
100
AcDbSymbolTableRecord
100
AcDbTextStyleTableRecord
  2
SLDTEXTSTYLE0
 70
     0
 40
0.0
 41
0.75
 50
0.0
 71
     0
 42
2.5
  3
TXT
  4

  0
STYLE
  5
176ED
330
3
100
AcDbSymbolTableRecord
100
AcDbTextStyleTableRecord
  2
EXTFONT
 70
     0
 40
0.0
 41
0.75
 50
0.0
 71
     0
 42
2.5
  3
romans.shx
  4
extfont.shx
  0
ENDTAB
  0
TABLE
  2
VIEW
  5
5
330
0
100
AcDbSymbolTable
 70
     1
  0
ENDTAB
  0
TABLE
  2
UCS
  5
6
330
0
100
AcDbSymbolTable
 70
     0
  0
ENDTAB
  0
TABLE
  2
APPID
  5
8
330
0
100
AcDbSymbolTable
 70
    12
  0
APPID
  5
16
330
8
100
AcDbSymbolTableRecord
100
AcDbRegAppTableRecord
  2
ACAD
 70
     0
  0
APPID
  5
7AC
330
8
100
AcDbSymbolTableRecord
100
AcDbRegAppTableRecord
  2
AcAecLayerStandard
 70
     0
  0
APPID
  5
E29
330
8
100
AcDbSymbolTableRecord
100
AcDbRegAppTableRecord
  2
ACAD_MLEADERVER
 70
     0
  0
APPID
  5
17545
330
8
100
AcDbSymbolTableRecord
100
AcDbRegAppTableRecord
  2
ACAD_DSTYLE_DIMRADIAL_EXTENSION
 70
     0
  0
APPID
  5
1755C
330
8
100
AcDbSymbolTableRecord
100
AcDbRegAppTableRecord
  2
PLOTTRANSPARENCY
 70
     0
  0
APPID
  5
17565
330
8
100
AcDbSymbolTableRecord
100
AcDbRegAppTableRecord
  2
AcadStringInfo
 70
     0
  0
APPID
  5
1756B
330
8
100
AcDbSymbolTableRecord
100
AcDbRegAppTableRecord
  2
ACAD_NAV_VCDISPLAY
 70
     0
  0
APPID
  5
176FB
330
8
100
AcDbSymbolTableRecord
100
AcDbRegAppTableRecord
  2
ACAD_DSTYLE_DIMJAG
 70
     0
  0
APPID
  5
176FC
330
8
100
AcDbSymbolTableRecord
100
AcDbRegAppTableRecord
  2
ACAD_DSTYLE_DIMTALN
 70
     0
  0
APPID
  5
17A55
330
8
100
AcDbSymbolTableRecord
100
AcDbRegAppTableRecord
  2
DCO15
 70
     0
  0
APPID
  5
17A5C
330
8
100
AcDbSymbolTableRecord
100
AcDbRegAppTableRecord
  2
ACAD_EXEMPT_FROM_CAD_STANDARDS
 70
     0
  0
APPID
  5
17AA0
330
8
100
AcDbSymbolTableRecord
100
AcDbRegAppTableRecord
  2
ACAD_PSEXT
 70
     0
  0
ENDTAB
  0
TABLE
  2
DIMSTYLE
  5
9
330
0
100
AcDbSymbolTable
 70
    10
100
AcDbDimStyleTable
 71
     1
340
57
  0
DIMSTYLE
105
18
330
9
100
AcDbSymbolTableRecord
100
AcDbDimStyleTableRecord
  2
Standard
 70
     0
340
17
  0
DIMSTYLE
105
57
102
{ACAD_REACTORS
330
17691
330
176A0
330
176BE
330
176CD
330
179E7
330
179F7
330
17A08
330
17A17
330
17A29
102
}
330
9
100
AcDbSymbolTableRecord
100
AcDbDimStyleTableRecord
  2
tfrom線あり
 70
     0
  3
<>
  4
[]
 41
3.0
 42
10.0
 43
1.0
 44
0.0
 73
     0
 74
     0
 77
     1
 78
    11
140
8.0
141
0.0
143
1.0
147
6.0
171
     1
174
     1
179
     2
271
     0
272
     1
276
     2
284
    11
285
    11
286
    11
289
     0
340
39
341
4E
342
4E
  0
DIMSTYLE
105
17566
330
9
100
AcDbSymbolTableRecord
100
AcDbDimStyleTableRecord
  2
ISO-25
 70
     0
 41
2.5
 42
0.625
 43
3.75
 44
1.25
 73
     0
 74
     0
 77
     1
 78
     8
140
2.5
141
2.5
143
0.03937007874016
147
0.625
171
     3
172
     1
271
     2
272
     2
274
     3
278
    44
283
     0
284
     8
340
17
  0
DIMSTYLE
105
17568
330
9
100
AcDbSymbolTableRecord
100
AcDbDimStyleTableRecord
  2
SLDDIMSTYLE0
 70
     0
 41
2.5
 44
0.0
 45
0.000000001
 73
     0
 74
     0
 77
     1
 78
    12
 79
     3
140
2.5
144
3.0
147
0.625
173
     1
271
     3
272
     3
276
     2
284
    12
340
17569
  0
DIMSTYLE
105
1756A
330
9
100
AcDbSymbolTableRecord
100
AcDbDimStyleTableRecord
  2
SLDDIMSTYLE1
 70
     0
 41
2.5
 44
0.0
 45
0.000000001
 73
     0
 74
     0
 77
     1
 78
    12
 79
     3
140
2.5
144
3.0
147
0.625
172
     1
173
     1
271
     3
272
     3
276
     2
284
    12
289
     0
340
17569
  0
DIMSTYLE
105
176EC
330
9
100
AcDbSymbolTableRecord
100
AcDbDimStyleTableRecord
  2
1
 70
     0
 40
2.0
 41
0.8
 42
3.5
 43
3.0
 44
0.0
 46
1.5
 69
     1
 73
     0
 74
     0
 77
     1
 78
     9
140
3.5
141
0.0
144
10.0
145
1.0
147
1.0
172
     1
176
   256
177
   256
178
     4
271
     1
272
     1
279
     2
284
     9
285
    13
286
    13
340
176ED
341
176EE
342
176F6
1001
ACAD_DSTYLE_DIMJAG
1070
   388
1040
1.5
1001
ACAD_DSTYLE_DIMTALN
1070
   392
1070
     0
  0
DIMSTYLE
105
176FD
330
9
100
AcDbSymbolTableRecord
100
AcDbDimStyleTableRecord
  2
6
 70
     0
 40
2.0
 41
1.5
 42
1.0
 43
4.0
 44
0.0
 46
1.5
 49
0.0
 69
     1
 73
     0
 74
     0
 77
     1
 78
     9
140
4.0
141
0.0
145
1.0
147
1.5
172
     1
176
   256
177
   256
178
     4
271
     1
272
     1
279
     2
284
     9
285
    13
286
    13
340
176ED
341
176EE
342
176F6
1001
ACAD_DSTYLE_DIMJAG
1070
   388
1040
1.5
1001
ACAD_DSTYLE_DIMTALN
1070
   392
1070
     0
  0
DIMSTYLE
105
17773
330
9
100
AcDbSymbolTableRecord
100
AcDbDimStyleTableRecord
  2
SLDDIMSTYLE2
 70
     0
 41
2.5
 44
0.0
 45
0.000000001
 73
     0
 74
     0
 77
     1
 78
    12
 79
     3
140
2.5
144
2.0
147
0.625
173
     1
271
     0
272
     0
276
     2
284
    12
340
17569
  0
DIMSTYLE
105
17777
330
9
100
AcDbSymbolTableRecord
100
AcDbDimStyleTableRecord
  2
tform線あり
 70
     0
  3
<>
  4
[]
 41
9.999389648437498
 42
25.0
 43
1.0
 44
0.0
 73
     0
 74
     0
 77
     1
 78
    11
140
24.4326171875
141
0.0
143
1.0
146
0.8
147
10.0
171
     1
172
     1
174
     1
179
     2
271
     1
272
     1
276
     2
284
    11
285
    11
286
    11
289
     0
340
39
341
4E
342
4E
  0
ENDTAB
  0
TABLE
  2
BLOCK_RECORD
  5
1
330
0
100
AcDbSymbolTable
 70
    38
  0
BLOCK_RECORD
  5
A
102
{ACAD_XDICTIONARY
360
1733E
102
}
330
1
100
AcDbSymbolTableRecord
100
AcDbBlockTableRecord
  2
*MODEL_SPACE
340
20
 70
     0
280
     1
281
     0
  0
BLOCK_RECORD
  5
B
330
1
100
AcDbSymbolTableRecord
100
AcDbBlockTableRecord
  2
*PAPER_SPACE
340
21
 70
     0
280
     1
281
     0
  0
BLOCK_RECORD
  5
4E
330
1
100
AcDbSymbolTableRecord
100
AcDbBlockTableRecord
  2
_DOT
340
0
102
{BLKREFS
331
176C8
331
179E0
331
179E1
331
179F0
331
179F1
331
17A11
331
17A12
331
176D8
331
176D9
331
17862
331
17863
331
179AC
331
179AD
331
179FF
331
17A00
331
17A1E
331
17A1F
331
17A32
331
17A33
331
17559
331
176B8
331
176B9
331
17326
331
17327
331
17335
331
17336
331
173AB
331
173AC
331
173BA
331
173BB
331
173D8
331
173D9
331
173E4
331
173E5
331
1754E
331
1769A
331
1769B
331
176A9
331
176AA
331
176C7
102
}
 70
     0
280
     1
281
     0
  0
BLOCK_RECORD
  5
68D
330
1
100
AcDbSymbolTableRecord
100
AcDbBlockTableRecord
  2
block 2
340
0
102
{BLKREFS
331
68C
331
1343
102
}
 70
     0
280
     1
281
     0
  0
BLOCK_RECORD
  5
17320
330
1
100
AcDbSymbolTableRecord
100
AcDbBlockTableRecord
  2
*D2
340
0
 70
     0
280
     1
281
     0
  0
BLOCK_RECORD
  5
1732F
330
1
100
AcDbSymbolTableRecord
100
AcDbBlockTableRecord
  2
*D3
340
0
 70
     0
280
     1
281
     0
  0
BLOCK_RECORD
  5
173A6
330
1
100
AcDbSymbolTableRecord
100
AcDbBlockTableRecord
  2
*D4
340
0
 70
     0
280
     1
281
     0
  0
BLOCK_RECORD
  5
173B5
330
1
100
AcDbSymbolTableRecord
100
AcDbBlockTableRecord
  2
*D5
340
0
 70
     0
280
     1
281
     0
  0
BLOCK_RECORD
  5
173D2
330
1
100
AcDbSymbolTableRecord
100
AcDbBlockTableRecord
  2
*D6
340
0
 70
     0
280
     1
281
     0
  0
BLOCK_RECORD
  5
173DE
330
1
100
AcDbSymbolTableRecord
100
AcDbBlockTableRecord
  2
*D7
340
0
 70
     0
280
     1
281
     0
  0
BLOCK_RECORD
  5
17549
330
1
100
AcDbSymbolTableRecord
100
AcDbBlockTableRecord
  2
*D8
340
0
 70
     0
280
     1
281
     0
  0
BLOCK_RECORD
  5
17554
330
1
100
AcDbSymbolTableRecord
100
AcDbBlockTableRecord
  2
*D9
340
0
 70
     0
280
     1
281
     0
  0
BLOCK_RECORD
  5
17588
330
1
100
AcDbSymbolTableRecord
100
AcDbBlockTableRecord
  2
_D
340
0
 70
     0
280
     1
281
     0
  0
BLOCK_RECORD
  5
17592
330
1
100
AcDbSymbolTableRecord
100
AcDbBlockTableRecord
  2
_D_1
340
0
 70
     0
280
     1
281
     0
  0
BLOCK_RECORD
  5
175B2
330
1
100
AcDbSymbolTableRecord
100
AcDbBlockTableRecord
  2
_D_2
340
0
 70
     0
280
     1
281
     0
  0
BLOCK_RECORD
  5
175DC
330
1
100
AcDbSymbolTableRecord
100
AcDbBlockTableRecord
  2
_D_3
340
0
 70
     0
280
     1
281
     0
  0
BLOCK_RECORD
  5
175E6
330
1
100
AcDbSymbolTableRecord
100
AcDbBlockTableRecord
  2
_D_4
340
0
 70
     0
280
     1
281
     0
  0
BLOCK_RECORD
  5
1764F
330
1
100
AcDbSymbolTableRecord
100
AcDbBlockTableRecord
  2
*D15
340
0
 70
     0
280
     1
281
     0
  0
BLOCK_RECORD
  5
1765B
330
1
100
AcDbSymbolTableRecord
100
AcDbBlockTableRecord
  2
*D16
340
0
 70
     0
280
     1
281
     0
  0
BLOCK_RECORD
  5
17667
330
1
100
AcDbSymbolTableRecord
100
AcDbBlockTableRecord
  2
*D17
340
0
 70
     0
280
     1
281
     0
  0
BLOCK_RECORD
  5
17673
330
1
100
AcDbSymbolTableRecord
100
AcDbBlockTableRecord
  2
*D18
340
0
 70
     0
280
     1
281
     0
  0
BLOCK_RECORD
  5
1767F
330
1
100
AcDbSymbolTableRecord
100
AcDbBlockTableRecord
  2
*D19
340
0
 70
     0
280
     1
281
     0
  0
BLOCK_RECORD
  5
17694
330
1
100
AcDbSymbolTableRecord
100
AcDbBlockTableRecord
  2
*D20
340
0
 70
     0
280
     1
281
     0
  0
BLOCK_RECORD
  5
176A3
330
1
100
AcDbSymbolTableRecord
100
AcDbBlockTableRecord
  2
*D21
340
0
 70
     0
280
     1
281
     0
  0
BLOCK_RECORD
  5
176B2
330
1
100
AcDbSymbolTableRecord
100
AcDbBlockTableRecord
  2
*D22
340
0
 70
     0
280
     1
281
     0
  0
BLOCK_RECORD
  5
176C1
330
1
100
AcDbSymbolTableRecord
100
AcDbBlockTableRecord
  2
*D23
340
0
 70
     0
280
     1
281
     0
  0
BLOCK_RECORD
  5
176D0
330
1
100
AcDbSymbolTableRecord
100
AcDbBlockTableRecord
  2
*D24
340
0
 70
     0
280
     1
281
     0
  0
BLOCK_RECORD
  5
176EE
102
{ACAD_XDICTIONARY
360
176EF
102
}
330
1
100
AcDbSymbolTableRecord
100
AcDbBlockTableRecord
  2
_Open30
340
0
310
2800000020000000200000000100080000000000000400000000000000000000000000000000000000000000000080000080000000808000800000008000800080800000C0C0C000C0DCC000F0CAA6000020400000206000002080000020A0000020C0000020E00000400000004020000040400000406000004080000040A0
310
000040C0000040E00000600000006020000060400000606000006080000060A0000060C0000060E00000800000008020000080400000806000008080000080A0000080C0000080E00000A0000000A0200000A0400000A0600000A0800000A0A00000A0C00000A0E00000C0000000C0200000C0400000C0600000C0800000C0
310
A00000C0C00000C0E00000E0000000E0200000E0400000E0600000E0800000E0A00000E0C00000E0E00040000000400020004000400040006000400080004000A0004000C0004000E00040200000402020004020400040206000402080004020A0004020C0004020E000404000004040200040404000404060004040800040
310
40A0004040C0004040E00040600000406020004060400040606000406080004060A0004060C0004060E00040800000408020004080400040806000408080004080A0004080C0004080E00040A0000040A0200040A0400040A0600040A0800040A0A00040A0C00040A0E00040C0000040C0200040C0400040C0600040C08000
310
40C0A00040C0C00040C0E00040E0000040E0200040E0400040E0600040E0800040E0A00040E0C00040E0E00080000000800020008000400080006000800080008000A0008000C0008000E00080200000802020008020400080206000802080008020A0008020C0008020E00080400000804020008040400080406000804080
310
008040A0008040C0008040E00080600000806020008060400080606000806080008060A0008060C0008060E00080800000808020008080400080806000808080008080A0008080C0008080E00080A0000080A0200080A0400080A0600080A0800080A0A00080A0C00080A0E00080C0000080C0200080C0400080C0600080C0
310
800080C0A00080C0C00080C0E00080E0000080E0200080E0400080E0600080E0800080E0A00080E0C00080E0E000C0000000C0002000C0004000C0006000C0008000C000A000C000C000C000E000C0200000C0202000C0204000C0206000C0208000C020A000C020C000C020E000C0400000C0402000C0404000C0406000C0
310
408000C040A000C040C000C040E000C0600000C0602000C0604000C0606000C0608000C060A000C060C000C060E000C0800000C0802000C0804000C0806000C0808000C080A000C080C000C080E000C0A00000C0A02000C0A04000C0A06000C0A08000C0A0A000C0A0C000C0A0E000C0C00000C0C02000C0C04000C0C06000
310
C0C08000C0C0A000F0FBFF00A4A0A000808080000000FF0000FF000000FFFF00FF000000FF00FF00FFFF0000FFFFFF0000000000000000000000000000000000000000000000000000000000000000000000000000000000000000000000000000000000000000000000000000000000000000000000000000000000000000
310
00000000000000000000000000000000000000000000000000000000000000000000000000000000000000000000000000000000000000000000000000000000000000000000000000000000000000000000000000000000000000000000000000000000000000000000000000000000000000000000000000000000000000
310
000000000000000000000000000000000000000000000000000000000000000000000000000000000000000000000000000000FFFF0000000000000000000000000000000000000000000000000000000000000000FFFFFFFF0000000000000000000000000000000000000000000000000000000000000000FFFFFFFF0000
310
000000000000000000000000000000000000000000000000000000000000FFFFFF0000000000000000000000000000000000000000000000000000000000000000FFFFFFFF0000000000000000000000000000000000000000000000000000000000000000FFFFFF0000000000000000000000000000000000000000000000
310
000000000000000000FFFFFFFF0000000000000000000000000000000000000000000000000000000000000000FFFFFFFF00000000FFFFFFFFFFFFFFFFFFFFFFFFFFFFFFFFFFFFFFFFFFFFFFFFFFFFFFFFFFFF00000000000000000000000000000000000000000000000000FFFFFFFF000000000000000000000000000000
310
000000000000000000FFFFFFFF000000000000000000000000000000000000000000000000FFFFFFFF000000000000000000000000000000000000000000000000FFFFFFFF000000000000000000000000000000000000000000000000FFFFFFFF000000000000000000000000000000000000000000000000FFFFFFFF0000
310
0000000000000000000000000000000000000000000000FFFFFF0000000000000000000000000000000000000000000000000000000000000000000000000000000000000000000000000000000000000000000000000000000000000000000000000000000000000000000000000000000000000000000000000000000000
310
00000000000000000000000000000000000000000000000000000000000000000000000000000000000000000000000000000000000000000000000000000000000000000000000000000000000000000000000000000000000000000000000000000000000000000000000000000000000000000000000000000000000000
310
0000000000000000000000000000000000000000000000000000000000000000000000000000000000000000000000000000000000000000
 70
     0
280
     1
281
     0
  0
BLOCK_RECORD
  5
176F6
330
1
100
AcDbSymbolTableRecord
100
AcDbBlockTableRecord
  2
_Origin
340
0
 70
     0
280
     1
281
     0
  0
BLOCK_RECORD
  5
1782A
330
1
100
AcDbSymbolTableRecord
100
AcDbBlockTableRecord
  2
*D27
340
0
 70
     0
280
     1
281
     0
  0
BLOCK_RECORD
  5
1784D
330
1
100
AcDbSymbolTableRecord
100
AcDbBlockTableRecord
  2
*D28
340
0
 70
     0
280
     1
281
     0
  0
BLOCK_RECORD
  5
1785C
330
1
100
AcDbSymbolTableRecord
100
AcDbBlockTableRecord
  2
*D29
340
0
 70
     0
280
     1
281
     0
  0
BLOCK_RECORD
  5
179A6
330
1
100
AcDbSymbolTableRecord
100
AcDbBlockTableRecord
  2
*D30
340
0
 70
     0
280
     1
281
     0
  0
BLOCK_RECORD
  5
179D9
330
1
100
AcDbSymbolTableRecord
100
AcDbBlockTableRecord
  2
*D31
340
0
 70
     0
280
     1
281
     0
  0
BLOCK_RECORD
  5
179EA
330
1
100
AcDbSymbolTableRecord
100
AcDbBlockTableRecord
  2
*D32
340
0
 70
     0
280
     1
281
     0
  0
BLOCK_RECORD
  5
179FA
330
1
100
AcDbSymbolTableRecord
100
AcDbBlockTableRecord
  2
*D33
340
0
 70
     0
280
     1
281
     0
  0
BLOCK_RECORD
  5
17A0B
330
1
100
AcDbSymbolTableRecord
100
AcDbBlockTableRecord
  2
*D34
340
0
 70
     0
280
     1
281
     0
  0
BLOCK_RECORD
  5
17A18
330
1
100
AcDbSymbolTableRecord
100
AcDbBlockTableRecord
  2
*D35
340
0
 70
     0
280
     1
281
     0
  0
BLOCK_RECORD
  5
17A2C
330
1
100
AcDbSymbolTableRecord
100
AcDbBlockTableRecord
  2
*D36
340
0
 70
     0
280
     1
281
     0
  0
ENDTAB
  0
ENDSEC
  0
SECTION
  2
BLOCKS
  0
BLOCK
  5
D
330
A
100
AcDbEntity
  8
0
390
1D
100
AcDbBlockBegin
  2
*MODEL_SPACE
 70
     0
 10
0.0
 20
0.0
 30
0.0
  3
*MODEL_SPACE
  1
*MODEL_SPACE
  0
ENDBLK
  5
E
330
A
100
AcDbEntity
  8
0
390
1D
100
AcDbBlockEnd
  0
BLOCK
  5
F
330
B
100
AcDbEntity
 67
     1
  8
0
390
1D
100
AcDbBlockBegin
  2
*PAPER_SPACE
 70
     0
 10
0.0
 20
0.0
 30
0.0
  3
*PAPER_SPACE
  1
*PAPER_SPACE
  0
ENDBLK
  5
10
330
B
100
AcDbEntity
 67
     1
  8
0
390
1D
100
AcDbBlockEnd
  0
BLOCK
  5
369F
330
4E
100
AcDbEntity
  8
0
390
1D
100
AcDbBlockBegin
  2
_DOT
 70
     0
 10
0.0
 20
0.0
 30
0.0
  3
_DOT
  1
_DOT
  0
POLYLINE
  5
36A1
330
4E
100
AcDbEntity
  8
0
  6
ByBlock
 62
     0
370
    -2
390
1D
100
AcDb2dPolyline
 66
     1
 10
0.0
 20
0.0
 30
0.0
 70
     1
 40
0.5
 41
0.5
  0
VERTEX
  5
36A2
330
36A1
100
AcDbEntity
  8
0
  6
ByBlock
 62
     0
370
    -2
390
1D
100
AcDbVertex
100
AcDb2dVertex
 10
-0.25
 20
0.0
 30
0.0
 42
1.0
  0
VERTEX
  5
36A3
330
36A1
100
AcDbEntity
  8
0
  6
ByBlock
 62
     0
370
    -2
390
1D
100
AcDbVertex
100
AcDb2dVertex
 10
0.25
 20
0.0
 30
0.0
 42
1.0
  0
SEQEND
  5
36A4
330
36A1
100
AcDbEntity
  8
0
390
1D
  0
LINE
  5
36A5
330
4E
100
AcDbEntity
  8
0
  6
ByBlock
 62
     0
370
    -2
390
1D
100
AcDbLine
 10
-0.5
 20
0.0
 30
0.0
 11
-1.0
 21
0.0
 31
0.0
  0
ENDBLK
  5
36A6
330
4E
100
AcDbEntity
  8
0
390
1D
100
AcDbBlockEnd
  0
BLOCK
  5
68E
330
68D
100
AcDbEntity
  8
0
100
AcDbBlockBegin
  2
block 2
 70
     0
 10
0.0
 20
0.0
 30
0.0
  3
block 2
  1
block 2
  0
ENDBLK
  5
6B0
330
68D
100
AcDbEntity
  8
0
100
AcDbBlockEnd
  0
BLOCK
  5
17321
330
17320
100
AcDbEntity
  8
0
100
AcDbBlockBegin
  2
*D2
 70
     1
 10
0.0
 20
0.0
 30
0.0
  3
*D2
  1

  0
LINE
  5
17323
330
17320
100
AcDbEntity
  8
DIM
 62
     0
370
    -2
100
AcDbLine
 10
405.9245501690547
 20
309.7529598971253
 30
0.0
 11
405.9245501690547
 21
297.8784471131835
 31
0.0
  0
LINE
  5
17324
330
17320
100
AcDbEntity
  8
DIM
 62
     0
370
    -2
100
AcDbLine
 10
370.465565794055
 20
307.7217551386165
 30
0.0
 11
370.465565794055
 21
297.8784471131835
 31
0.0
  0
LINE
  5
17325
330
17320
100
AcDbEntity
  8
DIM
 62
     0
370
    -2
100
AcDbLine
 10
402.9245501690548
 20
297.8784471131835
 30
0.0
 11
373.465565794055
 21
297.8784471131835
 31
0.0
  0
INSERT
  5
17326
330
17320
100
AcDbEntity
  8
DIM
 62
     0
370
    -2
100
AcDbBlockReference
  2
_DOT
 10
405.9245501690547
 20
297.8784471131835
 30
0.0
 41
3.0
 42
3.0
 43
3.0
  0
INSERT
  5
17327
330
17320
100
AcDbEntity
  8
DIM
 62
     0
370
    -2
100
AcDbBlockReference
  2
_DOT
 10
370.465565794055
 20
297.8784471131835
 30
0.0
 41
3.0
 42
3.0
 43
3.0
 50
180.0
  0
MTEXT
  5
17328
330
17320
100
AcDbEntity
  8
DIM
 62
     0
100
AcDbMText
 10
388.1950579815549
 20
307.8784471131835
 30
0.0
 40
8.0
 41
0.0
 46
0.0
 71
     5
 72
     1
  1
\A1;35
  7
ＭＳ ゴシック
 73
     1
 44
1.0
  0
POINT
  5
17329
330
17320
100
AcDbEntity
  8
Defpoints
 62
     0
100
AcDbPoint
 10
405.9245501690547
 20
319.7529598971253
 30
0.0
  0
POINT
  5
1732A
330
17320
100
AcDbEntity
  8
Defpoints
 62
     0
100
AcDbPoint
 10
370.465565794055
 20
317.7217551386164
 30
0.0
  0
POINT
  5
1732B
330
17320
100
AcDbEntity
  8
Defpoints
 62
     0
100
AcDbPoint
 10
370.465565794055
 20
297.8784471131835
 30
0.0
  0
ENDBLK
  5
17322
330
17320
100
AcDbEntity
  8
0
100
AcDbBlockEnd
  0
BLOCK
  5
17330
330
1732F
100
AcDbEntity
  8
0
100
AcDbBlockBegin
  2
*D3
 70
     1
 10
0.0
 20
0.0
 30
0.0
  3
*D3
  1

  0
LINE
  5
17332
330
1732F
100
AcDbEntity
  8
DIM
 62
     0
370
    -2
100
AcDbLine
 10
336.4182475173941
 20
457.0429158371508
 30
0.0
 11
315.1384266419194
 21
457.0429158371508
 31
0.0
  0
LINE
  5
17333
330
1732F
100
AcDbEntity
  8
DIM
 62
     0
370
    -2
100
AcDbLine
 10
331.4592515249408
 20
386.1825642746509
 30
0.0
 11
315.1384266419194
 21
386.1825642746509
 31
0.0
  0
LINE
  5
17334
330
1732F
100
AcDbEntity
  8
DIM
 62
     0
370
    -2
100
AcDbLine
 10
315.1384266419194
 20
454.0429158371508
 30
0.0
 11
315.1384266419194
 21
389.1825642746509
 31
0.0
  0
INSERT
  5
17335
330
1732F
100
AcDbEntity
  8
DIM
 62
     0
370
    -2
100
AcDbBlockReference
  2
_DOT
 10
315.1384266419194
 20
457.0429158371508
 30
0.0
 41
3.0
 42
3.0
 43
3.0
 50
90.0
  0
INSERT
  5
17336
330
1732F
100
AcDbEntity
  8
DIM
 62
     0
370
    -2
100
AcDbBlockReference
  2
_DOT
 10
315.1384266419194
 20
386.1825642746509
 30
0.0
 41
3.0
 42
3.0
 43
3.0
 50
270.0
  0
MTEXT
  5
17337
330
1732F
100
AcDbEntity
  8
DIM
 62
     0
100
AcDbMText
 10
305.1384266419193
 20
421.6127400559008
 30
0.0
 40
8.0
 41
0.0
 46
0.0
 71
     5
 72
     1
  1
\A1;71
  7
ＭＳ ゴシック
 11
0.0
 21
1.0
 31
0.0
 73
     1
 44
1.0
  0
POINT
  5
17338
330
1732F
100
AcDbEntity
  8
Defpoints
 62
     0
100
AcDbPoint
 10
346.4182475173941
 20
457.0429158371508
 30
0.0
  0
POINT
  5
17339
330
1732F
100
AcDbEntity
  8
Defpoints
 62
     0
100
AcDbPoint
 10
341.4592515249408
 20
386.1825642746509
 30
0.0
  0
POINT
  5
1733A
330
1732F
100
AcDbEntity
  8
Defpoints
 62
     0
100
AcDbPoint
 10
315.1384266419194
 20
386.1825642746509
 30
0.0
  0
ENDBLK
  5
17331
330
1732F
100
AcDbEntity
  8
0
100
AcDbBlockEnd
  0
BLOCK
  5
173A7
330
173A6
100
AcDbEntity
  8
0
100
AcDbBlockBegin
  2
*D4
 70
     1
 10
0.0
 20
0.0
 30
0.0
  3
*D4
  1

  0
LINE
  5
173A8
330
173A6
100
AcDbEntity
  8
DIM
 62
     0
370
    -2
100
AcDbLine
 10
1.0
 20
135.0035410091185
 30
0.0
 11
1.0
 21
195.1497860279634
 31
0.0
  0
LINE
  5
173A9
330
173A6
100
AcDbEntity
  8
DIM
 62
     0
370
    -2
100
AcDbLine
 10
115.1779939209722
 20
135.0035410091185
 30
0.0
 11
115.1779939209722
 21
195.1497860279634
 31
0.0
  0
LINE
  5
173AA
330
173A6
100
AcDbEntity
  8
DIM
 62
     0
370
    -2
100
AcDbLine
 10
4.0
 20
195.1497860279634
 30
0.0
 11
112.1779939209723
 21
195.1497860279634
 31
0.0
  0
INSERT
  5
173AB
330
173A6
100
AcDbEntity
  8
DIM
 62
     0
370
    -2
100
AcDbBlockReference
  2
_DOT
 10
1.0
 20
195.1497860279634
 30
0.0
 41
3.0
 42
3.0
 43
3.0
 50
180.0
  0
INSERT
  5
173AC
330
173A6
100
AcDbEntity
  8
DIM
 62
     0
370
    -2
100
AcDbBlockReference
  2
_DOT
 10
115.1779939209722
 20
195.1497860279634
 30
0.0
 41
3.0
 42
3.0
 43
3.0
  0
MTEXT
  5
173AD
330
173A6
100
AcDbEntity
  8
DIM
 62
     0
100
AcDbMText
 10
58.08899696048616
 20
205.1497860279634
 30
0.0
 40
8.0
 41
0.0
 46
0.0
 71
     5
 72
     1
  1
\A1;114
  7
ＭＳ ゴシック
 73
     1
 44
1.0
  0
POINT
  5
173AE
330
173A6
100
AcDbEntity
  8
Defpoints
 62
     0
100
AcDbPoint
 10
1.0
 20
125.0035410091185
 30
0.0
  0
POINT
  5
173AF
330
173A6
100
AcDbEntity
  8
Defpoints
 62
     0
100
AcDbPoint
 10
115.1779939209722
 20
125.0035410091185
 30
0.0
  0
POINT
  5
173B0
330
173A6
100
AcDbEntity
  8
Defpoints
 62
     0
100
AcDbPoint
 10
115.1779939209722
 20
195.1497860279634
 30
0.0
  0
ENDBLK
  5
173B1
330
173A6
100
AcDbEntity
  8
0
100
AcDbBlockEnd
  0
BLOCK
  5
173B6
330
173B5
100
AcDbEntity
  8
0
100
AcDbBlockBegin
  2
*D5
 70
     1
 10
0.0
 20
0.0
 30
0.0
  3
*D5
  1

  0
LINE
  5
173B7
330
173B5
100
AcDbEntity
  8
DIM
 62
     0
370
    -2
100
AcDbLine
 10
20.20208557550177
 20
115.0035410091185
 30
0.0
 11
20.20208557550177
 21
38.30487537993926
 31
0.0
  0
LINE
  5
173B8
330
173B5
100
AcDbEntity
  8
DIM
 62
     0
370
    -2
100
AcDbLine
 10
95.97590834547053
 20
115.0035410091185
 30
0.0
 11
95.97590834547053
 21
38.30487537993926
 31
0.0
  0
LINE
  5
173B9
330
173B5
100
AcDbEntity
  8
DIM
 62
     0
370
    -2
100
AcDbLine
 10
23.20208557550177
 20
38.30487537993926
 30
0.0
 11
92.97590834547056
 21
38.30487537993926
 31
0.0
  0
INSERT
  5
173BA
330
173B5
100
AcDbEntity
  8
DIM
 62
     0
370
    -2
100
AcDbBlockReference
  2
_DOT
 10
20.20208557550177
 20
38.30487537993926
 30
0.0
 41
3.0
 42
3.0
 43
3.0
 50
180.0
  0
INSERT
  5
173BB
330
173B5
100
AcDbEntity
  8
DIM
 62
     0
370
    -2
100
AcDbBlockReference
  2
_DOT
 10
95.97590834547053
 20
38.30487537993926
 30
0.0
 41
3.0
 42
3.0
 43
3.0
  0
MTEXT
  5
173BC
330
173B5
100
AcDbEntity
  8
DIM
 62
     0
100
AcDbMText
 10
58.08899696048616
 20
48.30487537993926
 30
0.0
 40
8.0
 41
0.0
 46
0.0
 71
     5
 72
     1
  1
\A1;76
  7
ＭＳ ゴシック
 73
     1
 44
1.0
  0
POINT
  5
173BD
330
173B5
100
AcDbEntity
  8
Defpoints
 62
     0
100
AcDbPoint
 10
20.20208557550177
 20
125.0035410091185
 30
0.0
  0
POINT
  5
173BE
330
173B5
100
AcDbEntity
  8
Defpoints
 62
     0
100
AcDbPoint
 10
95.97590834547053
 20
125.0035410091185
 30
0.0
  0
POINT
  5
173BF
330
173B5
100
AcDbEntity
  8
Defpoints
 62
     0
100
AcDbPoint
 10
95.97590834547053
 20
38.30487537993926
 30
0.0
  0
ENDBLK
  5
173C0
330
173B5
100
AcDbEntity
  8
0
100
AcDbBlockEnd
  0
BLOCK
  5
173D3
330
173D2
100
AcDbEntity
  8
0
100
AcDbBlockBegin
  2
*D6
 70
     1
 10
0.0
 20
0.0
 30
0.0
  3
*D6
  1

  0
LINE
  5
173D5
330
173D2
100
AcDbEntity
  8
DIM
 62
     0
370
    -2
100
AcDbLine
 10
228.7947264437692
 20
485.5501747355622
 30
0.0
 11
228.7947264437692
 21
580.7695422638293
 31
0.0
  0
LINE
  5
173D6
330
173D2
100
AcDbEntity
  8
DIM
 62
     0
370
    -2
100
AcDbLine
 10
400.0617173252273
 20
485.5501747355622
 30
0.0
 11
400.0617173252273
 21
580.7695422638293
 31
0.0
  0
LINE
  5
173D7
330
173D2
100
AcDbEntity
  8
DIM
 62
     0
370
    -2
100
AcDbLine
 10
231.7947264437692
 20
580.7695422638293
 30
0.0
 11
397.0617173252273
 21
580.7695422638293
 31
0.0
  0
INSERT
  5
173D8
330
173D2
100
AcDbEntity
  8
DIM
 62
     0
370
    -2
100
AcDbBlockReference
  2
_DOT
 10
228.7947264437692
 20
580.7695422638293
 30
0.0
 41
3.0
 42
3.0
 43
3.0
 50
180.0
  0
INSERT
  5
173D9
330
173D2
100
AcDbEntity
  8
DIM
 62
     0
370
    -2
100
AcDbBlockReference
  2
_DOT
 10
400.0617173252273
 20
580.7695422638293
 30
0.0
 41
3.0
 42
3.0
 43
3.0
  0
MTEXT
  5
173DA
330
173D2
100
AcDbEntity
  8
DIM
 62
     0
100
AcDbMText
 10
314.4282218844983
 20
590.7695422638292
 30
0.0
 40
8.0
 41
0.0
 46
0.0
 71
     5
 72
     1
  1
\A1;171
  7
ＭＳ ゴシック
 73
     1
 44
1.0
  0
POINT
  5
173DB
330
173D2
100
AcDbEntity
  8
Defpoints
 62
     0
100
AcDbPoint
 10
228.7947264437692
 20
475.5501747355622
 30
0.0
  0
POINT
  5
173DC
330
173D2
100
AcDbEntity
  8
Defpoints
 62
     0
100
AcDbPoint
 10
400.0617173252273
 20
475.5501747355622
 30
0.0
  0
POINT
  5
173DD
330
173D2
100
AcDbEntity
  8
Defpoints
 62
     0
100
AcDbPoint
 10
400.0617173252273
 20
580.7695422638293
 30
0.0
  0
ENDBLK
  5
173D4
330
173D2
100
AcDbEntity
  8
0
100
AcDbBlockEnd
  0
BLOCK
  5
173DF
330
173DE
100
AcDbEntity
  8
0
100
AcDbBlockBegin
  2
*D7
 70
     1
 10
0.0
 20
0.0
 30
0.0
  3
*D7
  1

  0
LINE
  5
173E1
330
173DE
100
AcDbEntity
  8
DIM
 62
     0
370
    -2
100
AcDbLine
 10
257.5978548070218
 20
465.5501747355621
 30
0.0
 11
257.5978548070218
 21
345.5021762917933
 31
0.0
  0
LINE
  5
173E2
330
173DE
100
AcDbEntity
  8
DIM
 62
     0
370
    -2
100
AcDbLine
 10
371.2585889619747
 20
465.5501747355621
 30
0.0
 11
371.2585889619747
 21
345.5021762917933
 31
0.0
  0
LINE
  5
173E3
330
173DE
100
AcDbEntity
  8
DIM
 62
     0
370
    -2
100
AcDbLine
 10
260.5978548070218
 20
345.5021762917933
 30
0.0
 11
368.2585889619748
 21
345.5021762917933
 31
0.0
  0
INSERT
  5
173E4
330
173DE
100
AcDbEntity
  8
DIM
 62
     0
370
    -2
100
AcDbBlockReference
  2
_DOT
 10
257.5978548070218
 20
345.5021762917933
 30
0.0
 41
3.0
 42
3.0
 43
3.0
 50
180.0
  0
INSERT
  5
173E5
330
173DE
100
AcDbEntity
  8
DIM
 62
     0
370
    -2
100
AcDbBlockReference
  2
_DOT
 10
371.2585889619747
 20
345.5021762917933
 30
0.0
 41
3.0
 42
3.0
 43
3.0
  0
MTEXT
  5
173E6
330
173DE
100
AcDbEntity
  8
DIM
 62
     0
100
AcDbMText
 10
314.4282218844983
 20
355.5021762917933
 30
0.0
 40
8.0
 41
0.0
 46
0.0
 71
     5
 72
     1
  1
\A1;114
  7
ＭＳ ゴシック
 73
     1
 44
1.0
  0
POINT
  5
173E7
330
173DE
100
AcDbEntity
  8
Defpoints
 62
     0
100
AcDbPoint
 10
257.5978548070218
 20
475.5501747355622
 30
0.0
  0
POINT
  5
173E8
330
173DE
100
AcDbEntity
  8
Defpoints
 62
     0
100
AcDbPoint
 10
371.2585889619747
 20
475.5501747355622
 30
0.0
  0
POINT
  5
173E9
330
173DE
100
AcDbEntity
  8
Defpoints
 62
     0
100
AcDbPoint
 10
371.2585889619747
 20
345.5021762917933
 30
0.0
  0
ENDBLK
  5
173E0
330
173DE
100
AcDbEntity
  8
0
100
AcDbBlockEnd
  0
BLOCK
  5
1754A
330
17549
100
AcDbEntity
  8
0
100
AcDbBlockBegin
  2
*D8
 70
     1
 10
0.0
 20
0.0
 30
0.0
  3
*D8
  1

  0
LINE
  5
1754C
330
17549
100
AcDbEntity
  8
DIM
 62
     0
370
    -2
100
AcDbLine
 10
341.6454557578078
 20
622.1225633307629
 30
0.0
 11
404.5596742679405
 21
671.4274364809718
 31
0.0
  0
MTEXT
  5
1754D
330
17549
100
AcDbEntity
  8
DIM
 62
     0
100
AcDbMText
 10
390.198715287876
 20
672.8798503558532
 30
0.0
 40
8.0
 41
0.0
 46
0.0
 71
     5
 72
     1
  1
\A1;16
  7
ＭＳ ゴシック
 11
0.7870940051534154
 21
0.6168330625473601
 31
0.0
 73
     1
 44
1.0
  0
INSERT
  5
1754E
330
17549
100
AcDbEntity
  8
DIM
 62
     0
370
    -2
100
AcDbBlockReference
  2
_DOT
 10
339.2841737423475
 20
620.2720641431207
 30
0.0
 41
3.0
 42
3.0
 43
3.0
 50
218.0852349539064
  0
POINT
  5
1754F
330
17549
100
AcDbEntity
  8
Defpoints
 62
     0
100
AcDbPoint
 10
339.2841737423475
 20
620.2720641431207
 30
0.0
  0
POINT
  5
17550
330
17549
100
AcDbEntity
  8
Defpoints
 62
     0
100
AcDbPoint
 10
326.8166047007174
 20
610.5014284323706
 30
0.0
  0
ENDBLK
  5
1754B
330
17549
100
AcDbEntity
  8
0
100
AcDbBlockEnd
  0
BLOCK
  5
17555
330
17554
100
AcDbEntity
  8
0
100
AcDbBlockBegin
  2
*D9
 70
     1
 10
0.0
 20
0.0
 30
0.0
  3
*D9
  1

  0
LINE
  5
17557
330
17554
100
AcDbEntity
  8
DIM
 62
     0
370
    -2
100
AcDbLine
 10
347.5703756368899
 20
615.3668843182141
 30
0.0
 11
441.6537646295605
 21
615.2381871313072
 31
0.0
  0
MTEXT
  5
17558
330
17554
100
AcDbEntity
  8
DIM
 62
     0
100
AcDbMText
 10
431.0177120343959
 20
625.2542461662747
 30
0.0
 40
8.0
 41
0.0
 46
0.0
 71
     5
 72
     1
  1
\A1;23
  7
ＭＳ ゴシック
 11
0.9999990644185604
 21
-0.0013679042376986
 31
0.0
 73
     1
 44
1.0
  0
INSERT
  5
17559
330
17554
100
AcDbEntity
  8
DIM
 62
     0
370
    -2
100
AcDbBlockReference
  2
_DOT
 10
344.5703784436342
 20
615.3709880309272
 30
0.0
 41
3.0
 42
3.0
 43
3.0
 50
179.9216248359597
  0
POINT
  5
1755A
330
17554
100
AcDbEntity
  8
Defpoints
 62
     0
100
AcDbPoint
 10
344.5703784436342
 20
615.3709880309272
 30
0.0
  0
POINT
  5
1755B
330
17554
100
AcDbEntity
  8
Defpoints
 62
     0
100
AcDbPoint
 10
321.5303999994306
 20
615.4025045445637
 30
0.0
  0
ENDBLK
  5
17556
330
17554
100
AcDbEntity
  8
0
100
AcDbBlockEnd
  0
BLOCK
  5
17589
330
17588
100
AcDbEntity
  8
0
100
AcDbBlockBegin
  2
_D
 70
     0
 10
0.0
 20
0.0
 30
0.0
  3
_D
  1

  0
LINE
  5
1758A
330
17588
100
AcDbEntity
  8
注释
 62
     0
370
    -2
100
AcDbLine
 10
44.21303339613382
 20
112.4490468663911
 30
0.0
 11
3.222669174806822
 21
112.4490468663909
 31
0.0
  0
LINE
  5
1758B
330
17588
100
AcDbEntity
  8
注释
 62
     0
370
    -2
100
AcDbLine
 10
44.29636672946717
 20
50.449046866391
 30
0.0
 11
3.222669174807008
 21
50.44904686639085
 31
0.0
  0
LINE
  5
1758C
330
17588
100
AcDbEntity
  8
注释
 62
     0
370
    -2
100
AcDbLine
 10
3.222669174806827
 20
109.9490468663909
 30
0.0
 11
3.222669174807003
 21
52.94904686639085
 31
0.0
  0
SOLID
  5
1758D
330
17588
100
AcDbEntity
  8
注释
 62
     0
100
AcDbTrace
 10
3.639335841473495
 20
109.9490468663909
 30
0.0
 11
2.806002508140162
 21
109.9490468663909
 31
0.0
 12
3.222669174806822
 22
112.4490468663909
 32
0.0
 13
3.222669174806822
 23
112.4490468663909
 33
0.0
  0
SOLID
  5
1758E
330
17588
100
AcDbEntity
  8
注释
 62
     0
100
AcDbTrace
 10
2.806002508140334
 20
52.94904686639085
 30
0.0
 11
3.639335841473668
 21
52.94904686639085
 31
0.0
 12
3.222669174807008
 22
50.44904686639085
 32
0.0
 13
3.222669174807008
 23
50.44904686639085
 33
0.0
  0
MTEXT
  5
1758F
330
17588
100
AcDbEntity
  8
注释
 62
     0
100
AcDbMText
 10
0.0976691748069101
 20
83.44618395830309
 30
0.0
 40
2.5
 41
0.0
 46
0.0
 71
     2
 72
     1
  1
\A1;186
  7
SLDTEXTSTYLE0
 11
-0.000000000000003
 21
1.0
 31
0.0
 73
     1
 44
1.0
  0
POINT
  5
175F2
330
17588
100
AcDbEntity
  8
Defpoints
 62
     0
100
AcDbPoint
 10
44.27553339613382
 20
112.4490468663911
 30
0.0
  0
POINT
  5
175F3
330
17588
100
AcDbEntity
  8
Defpoints
 62
     0
100
AcDbPoint
 10
44.35886672946717
 20
50.449046866391
 30
0.0
  0
POINT
  5
175F4
330
17588
100
AcDbEntity
  8
Defpoints
 62
     0
100
AcDbPoint
 10
3.22266917480691
 20
50.44904686639085
 30
0.0
  0
ENDBLK
  5
17590
330
17588
100
AcDbEntity
  8
0
100
AcDbBlockEnd
  0
BLOCK
  5
17593
330
17592
100
AcDbEntity
  8
0
100
AcDbBlockBegin
  2
_D_1
 70
     0
 10
0.0
 20
0.0
 30
0.0
  3
_D_1
  1

  0
LINE
  5
17594
330
17592
100
AcDbEntity
  8
注释
 62
     0
370
    -2
100
AcDbLine
 10
16.35886672946714
 20
78.3865468663911
 30
0.0
 11
16.35886672946714
 21
40.449046866391
 31
0.0
  0
LINE
  5
17595
330
17592
100
AcDbEntity
  8
注释
 62
     0
370
    -2
100
AcDbLine
 10
72.35886672946719
 20
78.386546866391
 30
0.0
 11
72.35886672946719
 21
40.449046866391
 31
0.0
  0
LINE
  5
17596
330
17592
100
AcDbEntity
  8
注释
 62
     0
370
    -2
100
AcDbLine
 10
18.85886672946714
 20
40.449046866391
 30
0.0
 11
69.85886672946718
 21
40.449046866391
 31
0.0
  0
SOLID
  5
17597
330
17592
100
AcDbEntity
  8
注释
 62
     0
100
AcDbTrace
 10
18.85886672946714
 20
40.86571353305767
 30
0.0
 11
18.85886672946714
 21
40.03238019972434
 31
0.0
 12
16.35886672946714
 22
40.449046866391
 32
0.0
 13
16.35886672946714
 23
40.449046866391
 33
0.0
  0
SOLID
  5
17598
330
17592
100
AcDbEntity
  8
注释
 62
     0
100
AcDbTrace
 10
69.85886672946718
 20
40.03238019972434
 30
0.0
 11
69.85886672946718
 21
40.86571353305767
 31
0.0
 12
72.35886672946719
 22
40.449046866391
 32
0.0
 13
72.35886672946719
 23
40.449046866391
 33
0.0
  0
MTEXT
  5
17599
330
17592
100
AcDbEntity
  8
注释
 62
     0
100
AcDbMText
 10
44.22610543605224
 20
43.574046866391
 30
0.0
 40
2.5
 41
0.0
 46
0.0
 71
     2
 72
     1
  1
\A1;%%c168
  7
SLDTEXTSTYLE0
 73
     1
 44
1.0
  0
POINT
  5
1759A
330
17592
100
AcDbEntity
  8
Defpoints
 62
     0
100
AcDbPoint
 10
16.35886672946714
 20
78.4490468663911
 30
0.0
  0
POINT
  5
175F5
330
17592
100
AcDbEntity
  8
Defpoints
 62
     0
100
AcDbPoint
 10
72.35886672946719
 20
78.449046866391
 30
0.0
  0
POINT
  5
175F6
330
17592
100
AcDbEntity
  8
Defpoints
 62
     0
100
AcDbPoint
 10
72.35886672946719
 20
40.449046866391
 30
0.0
  0
ENDBLK
  5
1759B
330
17592
100
AcDbEntity
  8
0
100
AcDbBlockEnd
  0
BLOCK
  5
175B3
330
175B2
100
AcDbEntity
  8
0
100
AcDbBlockBegin
  2
_D_2
 70
     0
 10
0.0
 20
0.0
 30
0.0
  3
_D_2
  1

  0
LINE
  5
175B4
330
175B2
100
AcDbEntity
  8
注释
 62
     0
370
    -2
100
AcDbLine
 10
51.60886672946714
 20
11.72916666666666
 30
0.0
 11
51.60886672946714
 21
16.08263247388291
 31
0.0
  0
LINE
  5
175B5
330
175B2
100
AcDbEntity
  8
注释
 62
     0
370
    -2
100
AcDbLine
 10
36.9422000628005
 20
11.72916666666666
 30
0.0
 11
36.9422000628005
 21
16.08263247388291
 31
0.0
  0
LINE
  5
175B6
330
175B2
100
AcDbEntity
  8
注释
 62
     0
370
    -2
100
AcDbLine
 10
49.10886672946714
 20
16.08263247388291
 30
0.0
 11
39.4422000628005
 21
16.08263247388291
 31
0.0
  0
SOLID
  5
175B7
330
175B2
100
AcDbEntity
  8
注释
 62
     0
100
AcDbTrace
 10
49.10886672946714
 20
15.66596580721624
 30
0.0
 11
49.10886672946714
 21
16.49929914054958
 31
0.0
 12
51.60886672946714
 22
16.08263247388291
 32
0.0
 13
51.60886672946714
 23
16.08263247388291
 33
0.0
  0
SOLID
  5
175B8
330
175B2
100
AcDbEntity
  8
注释
 62
     0
100
AcDbTrace
 10
39.4422000628005
 20
16.49929914054958
 30
0.0
 11
39.4422000628005
 21
15.66596580721624
 31
0.0
 12
36.9422000628005
 22
16.08263247388291
 32
0.0
 13
36.9422000628005
 23
16.08263247388291
 33
0.0
  0
MTEXT
  5
175B9
330
175B2
100
AcDbEntity
  8
注释
 62
     0
100
AcDbMText
 10
43.29407778180583
 20
19.20763247388291
 30
0.0
 40
2.5
 41
0.0
 46
0.0
 71
     2
 72
     1
  1
\A1;%%c44
  7
SLDTEXTSTYLE0
 73
     1
 44
1.0
  0
POINT
  5
175BA
330
175B2
100
AcDbEntity
  8
Defpoints
 62
     0
100
AcDbPoint
 10
51.60886672946714
 20
11.66666666666666
 30
0.0
  0
POINT
  5
175F7
330
175B2
100
AcDbEntity
  8
Defpoints
 62
     0
100
AcDbPoint
 10
36.9422000628005
 20
11.66666666666666
 30
0.0
  0
POINT
  5
175F8
330
175B2
100
AcDbEntity
  8
Defpoints
 62
     0
100
AcDbPoint
 10
36.9422000628005
 20
16.08263247388291
 30
0.0
  0
ENDBLK
  5
175BB
330
175B2
100
AcDbEntity
  8
0
100
AcDbBlockEnd
  0
BLOCK
  5
175DD
330
175DC
100
AcDbEntity
  8
0
100
AcDbBlockBegin
  2
_D_3
 70
     0
 10
0.0
 20
0.0
 30
0.0
  3
_D_3
  1

  0
LINE
  5
175DE
330
175DC
100
AcDbEntity
  8
注释
 62
     0
370
    -2
100
AcDbLine
 10
111.8144252154851
 20
112.5115468663911
 30
0.0
 11
111.8144252154851
 21
118.7042583458507
 31
0.0
  0
LINE
  5
175DF
330
175DC
100
AcDbEntity
  8
注释
 62
     0
370
    -2
100
AcDbLine
 10
123.4810918821517
 20
108.1782135330578
 30
0.0
 11
123.4810918821517
 21
118.7042583458507
 31
0.0
  0
LINE
  5
175E0
330
175DC
100
AcDbEntity
  8
注释
 62
     0
370
    -2
100
AcDbLine
 10
114.3144252154851
 20
118.7042583458507
 30
0.0
 11
120.9810918821517
 21
118.7042583458507
 31
0.0
  0
SOLID
  5
175E1
330
175DC
100
AcDbEntity
  8
注释
 62
     0
100
AcDbTrace
 10
114.3144252154851
 20
119.1209250125174
 30
0.0
 11
114.3144252154851
 21
118.287591679184
 31
0.0
 12
111.8144252154851
 22
118.7042583458507
 32
0.0
 13
111.8144252154851
 23
118.7042583458507
 33
0.0
  0
SOLID
  5
175E2
330
175DC
100
AcDbEntity
  8
注释
 62
     0
100
AcDbTrace
 10
120.9810918821517
 20
118.287591679184
 30
0.0
 11
120.9810918821517
 21
119.1209250125174
 31
0.0
 12
123.4810918821517
 22
118.7042583458507
 32
0.0
 13
123.4810918821517
 23
118.7042583458507
 33
0.0
  0
MTEXT
  5
175E3
330
175DC
100
AcDbEntity
  8
注释
 62
     0
100
AcDbMText
 10
117.1769933955
 20
121.8292583458507
 30
0.0
 40
2.5
 41
0.0
 46
0.0
 71
     2
 72
     1
  1
\A1;35
  7
SLDTEXTSTYLE0
 73
     1
 44
1.0
  0
POINT
  5
175F9
330
175DC
100
AcDbEntity
  8
Defpoints
 62
     0
100
AcDbPoint
 10
111.8144252154851
 20
112.4490468663911
 30
0.0
  0
POINT
  5
175FA
330
175DC
100
AcDbEntity
  8
Defpoints
 62
     0
100
AcDbPoint
 10
123.4810918821517
 20
108.1157135330578
 30
0.0
  0
POINT
  5
175FB
330
175DC
100
AcDbEntity
  8
Defpoints
 62
     0
100
AcDbPoint
 10
123.4810918821517
 20
118.7042583458507
 30
0.0
  0
ENDBLK
  5
175E4
330
175DC
100
AcDbEntity
  8
0
100
AcDbBlockEnd
  0
BLOCK
  5
175E7
330
175E6
100
AcDbEntity
  8
0
100
AcDbBlockBegin
  2
_D_4
 70
     0
 10
0.0
 20
0.0
 30
0.0
  3
_D_4
  1

  0
LINE
  5
175E8
330
175E6
100
AcDbEntity
  8
注释
 62
     0
370
    -2
100
AcDbLine
 10
119.8144252154851
 20
51.8448801997244
 30
0.0
 11
119.8144252154851
 21
59.76658369274139
 31
0.0
  0
LINE
  5
175E9
330
175E6
100
AcDbEntity
  8
注释
 62
     0
370
    -2
100
AcDbLine
 10
122.4810918821517
 20
51.8448801997244
 30
0.0
 11
122.4810918821517
 21
59.76658369274139
 31
0.0
  0
LINE
  5
175EA
330
175E6
100
AcDbEntity
  8
注释
 62
     0
370
    -2
100
AcDbLine
 10
119.8144252154851
 20
59.76658369274139
 30
0.0
 11
110.4394252154851
 21
59.76658369274139
 31
0.0
  0
LINE
  5
175EB
330
175E6
100
AcDbEntity
  8
注释
 62
     0
370
    -2
100
AcDbLine
 10
119.8144252154851
 20
59.76658369274139
 30
0.0
 11
122.4810918821517
 21
59.76658369274139
 31
0.0
  0
LINE
  5
175EC
330
175E6
100
AcDbEntity
  8
注释
 62
     0
370
    -2
100
AcDbLine
 10
117.3144252154851
 20
59.76658369274139
 30
0.0
 11
114.8144252154851
 21
59.76658369274139
 31
0.0
  0
LINE
  5
175ED
330
175E6
100
AcDbEntity
  8
注释
 62
     0
370
    -2
100
AcDbLine
 10
124.9810918821517
 20
59.76658369274139
 30
0.0
 11
127.4810918821517
 21
59.76658369274139
 31
0.0
  0
SOLID
  5
175EE
330
175E6
100
AcDbEntity
  8
注释
 62
     0
100
AcDbTrace
 10
117.3144252154851
 20
59.34991702607471
 30
0.0
 11
117.3144252154851
 21
60.18325035940806
 31
0.0
 12
119.8144252154851
 22
59.76658369274139
 32
0.0
 13
119.8144252154851
 23
59.76658369274139
 33
0.0
  0
SOLID
  5
175FC
330
175E6
100
AcDbEntity
  8
注释
 62
     0
100
AcDbTrace
 10
124.9810918821517
 20
60.18325035940806
 30
0.0
 11
124.9810918821517
 21
59.34991702607471
 31
0.0
 12
122.4810918821517
 22
59.76658369274139
 32
0.0
 13
122.4810918821517
 23
59.76658369274139
 33
0.0
  0
MTEXT
  5
175FD
330
175E6
100
AcDbEntity
  8
注释
 62
     0
100
AcDbMText
 10
112.6269252154851
 20
62.89158369274139
 30
0.0
 40
2.5
 41
0.0
 46
0.0
 71
     2
 72
     1
  1
\A1;%%c8
  7
SLDTEXTSTYLE0
 73
     1
 44
1.0
  0
POINT
  5
175FE
330
175E6
100
AcDbEntity
  8
Defpoints
 62
     0
100
AcDbPoint
 10
119.8144252154851
 20
51.7823801997244
 30
0.0
  0
POINT
  5
175FF
330
175E6
100
AcDbEntity
  8
Defpoints
 62
     0
100
AcDbPoint
 10
122.4810918821517
 20
51.7823801997244
 30
0.0
  0
POINT
  5
17600
330
175E6
100
AcDbEntity
  8
Defpoints
 62
     0
100
AcDbPoint
 10
122.4810918821517
 20
59.76658369274139
 30
0.0
  0
ENDBLK
  5
175EF
330
175E6
100
AcDbEntity
  8
0
100
AcDbBlockEnd
  0
BLOCK
  5
17650
330
1764F
100
AcDbEntity
  8
0
100
AcDbBlockBegin
  2
*D15
 70
     1
 10
0.0
 20
0.0
 30
0.0
  3
*D15
  1

  0
LINE
  5
17652
330
1764F
100
AcDbEntity
  8
注释
 62
     0
370
    -2
100
AcDbLine
 10
262.9639148242098
 20
637.0043025621145
 30
0.0
 11
139.8678221602289
 21
637.0043025621143
 31
0.0
  0
LINE
  5
17653
330
1764F
100
AcDbEntity
  8
注释
 62
     0
370
    -2
100
AcDbLine
 10
263.2139148242099
 20
451.0043025621143
 30
0.0
 11
139.8678221602295
 21
451.0043025621138
 31
0.0
  0
LINE
  5
17654
330
1764F
100
AcDbEntity
  8
注释
 62
     0
370
    -2
100
AcDbLine
 10
139.8678221602289
 20
634.5043025621142
 30
0.0
 11
139.8678221602295
 21
453.5043025621138
 31
0.0
  0
SOLID
  5
17655
330
1764F
100
AcDbEntity
  8
注释
 62
     0
100
AcDbTrace
 10
140.2844888268955
 20
634.5043025621142
 30
0.0
 11
139.4511554935622
 21
634.5043025621142
 31
0.0
 12
139.8678221602289
 22
637.0043025621143
 32
0.0
 13
139.8678221602289
 23
637.0043025621143
 33
0.0
  0
SOLID
  5
17656
330
1764F
100
AcDbEntity
  8
注释
 62
     0
100
AcDbTrace
 10
139.4511554935628
 20
453.5043025621138
 30
0.0
 11
140.2844888268961
 21
453.5043025621138
 31
0.0
 12
139.8678221602295
 22
451.0043025621138
 32
0.0
 13
139.8678221602295
 23
451.0043025621138
 33
0.0
  0
MTEXT
  5
17657
330
1764F
100
AcDbEntity
  8
注释
 62
     0
100
AcDbMText
 10
136.7428221602291
 20
549.9957138378506
 30
0.0
 40
2.5
 41
0.0
 46
0.0
 71
     2
 72
     1
  1
\A1;558
  7
SLDTEXTSTYLE0
 11
-0.0000000000000031
 21
1.0
 31
0.0
 73
     1
 44
1.0
  0
POINT
  5
17658
330
1764F
100
AcDbEntity
  8
Defpoints
 62
     0
100
AcDbPoint
 10
263.0264148242098
 20
637.0043025621145
 30
0.0
  0
POINT
  5
17659
330
1764F
100
AcDbEntity
  8
Defpoints
 62
     0
100
AcDbPoint
 10
263.2764148242098
 20
451.0043025621143
 30
0.0
  0
POINT
  5
1765A
330
1764F
100
AcDbEntity
  8
Defpoints
 62
     0
100
AcDbPoint
 10
139.8678221602294
 20
451.0043025621138
 30
0.0
  0
ENDBLK
  5
17651
330
1764F
100
AcDbEntity
  8
0
100
AcDbBlockEnd
  0
BLOCK
  5
1765C
330
1765B
100
AcDbEntity
  8
0
100
AcDbBlockBegin
  2
*D16
 70
     1
 10
0.0
 20
0.0
 30
0.0
  3
*D16
  1

  0
LINE
  5
1765E
330
1765B
100
AcDbEntity
  8
注释
 62
     0
370
    -2
100
AcDbLine
 10
179.2764148242098
 20
534.9418025621146
 30
0.0
 11
179.2764148242098
 21
421.0043025621144
 31
0.0
  0
LINE
  5
1765F
330
1765B
100
AcDbEntity
  8
注释
 62
     0
370
    -2
100
AcDbLine
 10
347.27641482421
 20
534.9418025621144
 30
0.0
 11
347.27641482421
 21
421.0043025621144
 31
0.0
  0
LINE
  5
17660
330
1765B
100
AcDbEntity
  8
注释
 62
     0
370
    -2
100
AcDbLine
 10
181.7764148242098
 20
421.0043025621144
 30
0.0
 11
344.77641482421
 21
421.0043025621144
 31
0.0
  0
SOLID
  5
17661
330
1765B
100
AcDbEntity
  8
注释
 62
     0
100
AcDbTrace
 10
181.7764148242098
 20
421.4209692287811
 30
0.0
 11
181.7764148242098
 21
420.5876358954475
 31
0.0
 12
179.2764148242098
 22
421.0043025621144
 32
0.0
 13
179.2764148242098
 23
421.0043025621144
 33
0.0
  0
SOLID
  5
17662
330
1765B
100
AcDbEntity
  8
注释
 62
     0
100
AcDbTrace
 10
344.77641482421
 20
420.5876358954475
 30
0.0
 11
344.77641482421
 21
421.4209692287811
 31
0.0
 12
347.27641482421
 22
421.0043025621144
 32
0.0
 13
347.27641482421
 23
421.0043025621144
 33
0.0
  0
MTEXT
  5
17663
330
1765B
100
AcDbEntity
  8
注释
 62
     0
100
AcDbMText
 10
262.8781309439652
 20
424.1293025621144
 30
0.0
 40
2.5
 41
0.0
 46
0.0
 71
     2
 72
     1
  1
\A1;%%c504
  7
SLDTEXTSTYLE0
 73
     1
 44
1.0
  0
POINT
  5
17664
330
1765B
100
AcDbEntity
  8
Defpoints
 62
     0
100
AcDbPoint
 10
179.2764148242098
 20
535.0043025621146
 30
0.0
  0
POINT
  5
17665
330
1765B
100
AcDbEntity
  8
Defpoints
 62
     0
100
AcDbPoint
 10
347.27641482421
 20
535.0043025621143
 30
0.0
  0
POINT
  5
17666
330
1765B
100
AcDbEntity
  8
Defpoints
 62
     0
100
AcDbPoint
 10
347.27641482421
 20
421.0043025621144
 30
0.0
  0
ENDBLK
  5
1765D
330
1765B
100
AcDbEntity
  8
0
100
AcDbBlockEnd
  0
BLOCK
  5
17668
330
17667
100
AcDbEntity
  8
0
100
AcDbBlockBegin
  2
*D17
 70
     1
 10
0.0
 20
0.0
 30
0.0
  3
*D17
  1

  0
LINE
  5
1766A
330
17667
100
AcDbEntity
  8
注释
 62
     0
370
    -2
100
AcDbLine
 10
285.0264148242098
 20
334.7196619629415
 30
0.0
 11
285.0264148242098
 21
347.9050593845902
 31
0.0
  0
LINE
  5
1766B
330
17667
100
AcDbEntity
  8
注释
 62
     0
370
    -2
100
AcDbLine
 10
241.0264148242098
 20
334.7196619629415
 30
0.0
 11
241.0264148242098
 21
347.9050593845902
 31
0.0
  0
LINE
  5
1766C
330
17667
100
AcDbEntity
  8
注释
 62
     0
370
    -2
100
AcDbLine
 10
282.5264148242098
 20
347.9050593845902
 30
0.0
 11
243.5264148242098
 21
347.9050593845902
 31
0.0
  0
SOLID
  5
1766D
330
17667
100
AcDbEntity
  8
注释
 62
     0
100
AcDbTrace
 10
282.5264148242098
 20
347.4883927179235
 30
0.0
 11
282.5264148242098
 21
348.3217260512569
 31
0.0
 12
285.0264148242098
 22
347.9050593845902
 32
0.0
 13
285.0264148242098
 23
347.9050593845902
 33
0.0
  0
SOLID
  5
1766E
330
17667
100
AcDbEntity
  8
注释
 62
     0
100
AcDbTrace
 10
243.5264148242098
 20
348.3217260512569
 30
0.0
 11
243.5264148242098
 21
347.4883927179235
 31
0.0
 12
241.0264148242098
 22
347.9050593845902
 32
0.0
 13
241.0264148242098
 23
347.9050593845902
 33
0.0
  0
MTEXT
  5
1766F
330
17667
100
AcDbEntity
  8
注释
 62
     0
100
AcDbMText
 10
260.082047981226
 20
351.0300593845902
 30
0.0
 40
2.5
 41
0.0
 46
0.0
 71
     2
 72
     1
  1
\A1;%%c132
  7
SLDTEXTSTYLE0
 73
     1
 44
1.0
  0
POINT
  5
17670
330
17667
100
AcDbEntity
  8
Defpoints
 62
     0
100
AcDbPoint
 10
285.0264148242098
 20
334.6571619629415
 30
0.0
  0
POINT
  5
17671
330
17667
100
AcDbEntity
  8
Defpoints
 62
     0
100
AcDbPoint
 10
241.0264148242098
 20
334.6571619629415
 30
0.0
  0
POINT
  5
17672
330
17667
100
AcDbEntity
  8
Defpoints
 62
     0
100
AcDbPoint
 10
241.0264148242098
 20
347.9050593845902
 30
0.0
  0
ENDBLK
  5
17669
330
17667
100
AcDbEntity
  8
0
100
AcDbBlockEnd
  0
BLOCK
  5
17674
330
17673
100
AcDbEntity
  8
0
100
AcDbBlockBegin
  2
*D18
 70
     1
 10
0.0
 20
0.0
 30
0.0
  3
*D18
  1

  0
LINE
  5
17676
330
17673
100
AcDbEntity
  8
注释
 62
     0
370
    -2
100
AcDbLine
 10
465.6430902822636
 20
637.0668025621146
 30
0.0
 11
465.6430902822636
 21
655.7699370004938
 31
0.0
  0
LINE
  5
17677
330
17673
100
AcDbEntity
  8
注释
 62
     0
370
    -2
100
AcDbLine
 10
500.6430902822633
 20
624.066802562115
 30
0.0
 11
500.6430902822633
 21
655.7699370004938
 31
0.0
  0
LINE
  5
17678
330
17673
100
AcDbEntity
  8
注释
 62
     0
370
    -2
100
AcDbLine
 10
468.1430902822636
 20
655.7699370004938
 30
0.0
 11
498.1430902822634
 21
655.7699370004938
 31
0.0
  0
SOLID
  5
17679
330
17673
100
AcDbEntity
  8
注释
 62
     0
100
AcDbTrace
 10
468.1430902822636
 20
656.1866036671602
 30
0.0
 11
468.1430902822636
 21
655.3532703338269
 31
0.0
 12
465.6430902822636
 22
655.7699370004938
 32
0.0
 13
465.6430902822636
 23
655.7699370004938
 33
0.0
  0
SOLID
  5
1767A
330
17673
100
AcDbEntity
  8
注释
 62
     0
100
AcDbTrace
 10
498.1430902822634
 20
655.3532703338269
 30
0.0
 11
498.1430902822634
 21
656.1866036671602
 31
0.0
 12
500.6430902822633
 22
655.7699370004938
 32
0.0
 13
500.6430902822633
 23
655.7699370004938
 33
0.0
  0
MTEXT
  5
1767B
330
17673
100
AcDbEntity
  8
注释
 62
     0
100
AcDbMText
 10
481.730794822308
 20
658.8949370004938
 30
0.0
 40
2.5
 41
0.0
 46
0.0
 71
     2
 72
     1
  1
\A1;105
  7
SLDTEXTSTYLE0
 73
     1
 44
1.0
  0
POINT
  5
1767C
330
17673
100
AcDbEntity
  8
Defpoints
 62
     0
100
AcDbPoint
 10
465.6430902822636
 20
637.0043025621145
 30
0.0
  0
POINT
  5
1767D
330
17673
100
AcDbEntity
  8
Defpoints
 62
     0
100
AcDbPoint
 10
500.6430902822633
 20
624.004302562115
 30
0.0
  0
POINT
  5
1767E
330
17673
100
AcDbEntity
  8
Defpoints
 62
     0
100
AcDbPoint
 10
500.6430902822633
 20
655.7699370004938
 30
0.0
  0
ENDBLK
  5
17675
330
17673
100
AcDbEntity
  8
0
100
AcDbBlockEnd
  0
BLOCK
  5
17680
330
1767F
100
AcDbEntity
  8
0
100
AcDbBlockBegin
  2
*D19
 70
     1
 10
0.0
 20
0.0
 30
0.0
  3
*D19
  1

  0
LINE
  5
17682
330
1767F
100
AcDbEntity
  8
注释
 62
     0
370
    -2
100
AcDbLine
 10
489.6430902822636
 20
455.0668025621147
 30
0.0
 11
489.6430902822636
 21
478.9569130411658
 31
0.0
  0
LINE
  5
17683
330
1767F
100
AcDbEntity
  8
注释
 62
     0
370
    -2
100
AcDbLine
 10
497.6430902822634
 20
455.0668025621147
 30
0.0
 11
497.6430902822634
 21
478.9569130411658
 31
0.0
  0
LINE
  5
17684
330
1767F
100
AcDbEntity
  8
注释
 62
     0
370
    -2
100
AcDbLine
 10
489.6430902822636
 20
478.9569130411658
 30
0.0
 11
464.9555902822636
 21
478.9569130411658
 31
0.0
  0
LINE
  5
17685
330
1767F
100
AcDbEntity
  8
注释
 62
     0
370
    -2
100
AcDbLine
 10
489.6430902822636
 20
478.9569130411658
 30
0.0
 11
497.6430902822634
 21
478.9569130411658
 31
0.0
  0
LINE
  5
17686
330
1767F
100
AcDbEntity
  8
注释
 62
     0
370
    -2
100
AcDbLine
 10
487.1430902822636
 20
478.9569130411658
 30
0.0
 11
484.6430902822636
 21
478.9569130411658
 31
0.0
  0
LINE
  5
17687
330
1767F
100
AcDbEntity
  8
注释
 62
     0
370
    -2
100
AcDbLine
 10
500.1430902822633
 20
478.9569130411658
 30
0.0
 11
502.6430902822633
 21
478.9569130411658
 31
0.0
  0
SOLID
  5
17688
330
1767F
100
AcDbEntity
  8
注释
 62
     0
100
AcDbTrace
 10
487.1430902822636
 20
478.5402463744991
 30
0.0
 11
487.1430902822636
 21
479.3735797078324
 31
0.0
 12
489.6430902822636
 22
478.9569130411658
 32
0.0
 13
489.6430902822636
 23
478.9569130411658
 33
0.0
  0
SOLID
  5
17689
330
1767F
100
AcDbEntity
  8
注释
 62
     0
100
AcDbTrace
 10
500.1430902822633
 20
479.3735797078324
 30
0.0
 11
500.1430902822633
 21
478.5402463744991
 31
0.0
 12
497.6430902822634
 22
478.9569130411658
 32
0.0
 13
497.6430902822634
 23
478.9569130411658
 33
0.0
  0
MTEXT
  5
1768A
330
1767F
100
AcDbEntity
  8
注释
 62
     0
100
AcDbMText
 10
468.0805902822636
 20
482.0819130411658
 30
0.0
 40
2.5
 41
0.0
 46
0.0
 71
     2
 72
     1
  1
\A1;%%c24
  7
SLDTEXTSTYLE0
 73
     1
 44
1.0
  0
POINT
  5
1768B
330
1767F
100
AcDbEntity
  8
Defpoints
 62
     0
100
AcDbPoint
 10
489.6430902822636
 20
455.0043025621148
 30
0.0
  0
POINT
  5
1768C
330
1767F
100
AcDbEntity
  8
Defpoints
 62
     0
100
AcDbPoint
 10
497.6430902822634
 20
455.0043025621148
 30
0.0
  0
POINT
  5
1768D
330
1767F
100
AcDbEntity
  8
Defpoints
 62
     0
100
AcDbPoint
 10
497.6430902822634
 20
478.9569130411658
 30
0.0
  0
ENDBLK
  5
17681
330
1767F
100
AcDbEntity
  8
0
100
AcDbBlockEnd
  0
BLOCK
  5
17695
330
17694
100
AcDbEntity
  8
0
100
AcDbBlockBegin
  2
*D20
 70
     1
 10
0.0
 20
0.0
 30
0.0
  3
*D20
  1

  0
LINE
  5
17697
330
17694
100
AcDbEntity
  8
DIM
 62
     0
440
 16777216
370
    -2
100
AcDbLine
 10
179.2764148242098
 20
501.4157069535273
 30
0.0
 11
179.2764148242098
 21
414.8138858127812
 31
0.0
  0
LINE
  5
17698
330
17694
100
AcDbEntity
  8
DIM
 62
     0
440
 16777216
370
    -2
100
AcDbLine
 10
347.2764148242098
 20
505.5203926580607
 30
0.0
 11
347.2764148242098
 21
414.8138858127812
 31
0.0
  0
LINE
  5
17699
330
17694
100
AcDbEntity
  8
DIM
 62
     0
440
 16777216
370
    -2
100
AcDbLine
 10
182.2764148242098
 20
414.8138858127812
 30
0.0
 11
344.2764148242098
 21
414.8138858127812
 31
0.0
  0
INSERT
  5
1769A
330
17694
100
AcDbEntity
  8
DIM
 62
     0
440
 16777216
370
    -2
100
AcDbBlockReference
  2
_DOT
 10
179.2764148242098
 20
414.8138858127812
 30
0.0
 41
3.0
 42
3.0
 43
3.0
 50
180.0
  0
INSERT
  5
1769B
330
17694
100
AcDbEntity
  8
DIM
 62
     0
440
 16777216
370
    -2
100
AcDbBlockReference
  2
_DOT
 10
347.2764148242098
 20
414.8138858127812
 30
0.0
 41
3.0
 42
3.0
 43
3.0
  0
MTEXT
  5
1769C
330
17694
100
AcDbEntity
  8
DIM
 62
     0
440
 16777216
100
AcDbMText
 10
263.2764148242098
 20
424.8153863754921
 30
0.0
 40
8.0
 41
0.0
 46
0.0
 71
     5
 72
     1
  1
\A1;168
  7
ＭＳ ゴシック
 73
     1
 44
1.0
  0
POINT
  5
1769D
330
17694
100
AcDbEntity
  8
Defpoints
 62
     0
440
 16777216
100
AcDbPoint
 10
179.2764148242098
 20
511.4157069535274
 30
0.0
  0
POINT
  5
1769E
330
17694
100
AcDbEntity
  8
Defpoints
 62
     0
440
 16777216
100
AcDbPoint
 10
347.2764148242098
 20
515.5203926580607
 30
0.0
  0
POINT
  5
1769F
330
17694
100
AcDbEntity
  8
Defpoints
 62
     0
440
 16777216
100
AcDbPoint
 10
347.2764148242098
 20
414.8138858127812
 30
0.0
  0
ENDBLK
  5
17696
330
17694
100
AcDbEntity
  8
0
100
AcDbBlockEnd
  0
BLOCK
  5
176A4
330
176A3
100
AcDbEntity
  8
0
100
AcDbBlockBegin
  2
*D21
 70
     1
 10
0.0
 20
0.0
 30
0.0
  3
*D21
  1

  0
LINE
  5
176A6
330
176A3
100
AcDbEntity
  8
DIM
 62
     0
440
 16777216
370
    -2
100
AcDbLine
 10
230.7433781354101
 20
637.0041951410265
 30
0.0
 11
111.9090262122101
 21
637.0041951410265
 31
0.0
  0
LINE
  5
176A7
330
176A3
100
AcDbEntity
  8
DIM
 62
     0
440
 16777216
370
    -2
100
AcDbLine
 10
237.42247957541
 20
451.0047127153603
 30
0.0
 11
111.9090262122101
 21
451.0047127153603
 31
0.0
  0
LINE
  5
176A8
330
176A3
100
AcDbEntity
  8
DIM
 62
     0
440
 16777216
370
    -2
100
AcDbLine
 10
111.9090262122101
 20
634.0041951410265
 30
0.0
 11
111.9090262122101
 21
454.0047127153603
 31
0.0
  0
INSERT
  5
176A9
330
176A3
100
AcDbEntity
  8
DIM
 62
     0
440
 16777216
370
    -2
100
AcDbBlockReference
  2
_DOT
 10
111.9090262122101
 20
637.0041951410265
 30
0.0
 41
3.0
 42
3.0
 43
3.0
 50
90.0
  0
INSERT
  5
176AA
330
176A3
100
AcDbEntity
  8
DIM
 62
     0
440
 16777216
370
    -2
100
AcDbBlockReference
  2
_DOT
 10
111.9090262122101
 20
451.0047127153603
 30
0.0
 41
3.0
 42
3.0
 43
3.0
 50
270.0
  0
MTEXT
  5
176AB
330
176A3
100
AcDbEntity
  8
DIM
 62
     0
440
 16777216
100
AcDbMText
 10
101.907525649499
 20
544.0044539281934
 30
0.0
 40
8.0
 41
0.0
 46
0.0
 71
     5
 72
     1
  1
\A1;186
  7
ＭＳ ゴシック
 11
0.0000000000000001
 21
1.0
 31
0.0
 73
     1
 44
1.0
  0
POINT
  5
176AC
330
176A3
100
AcDbEntity
  8
Defpoints
 62
     0
440
 16777216
100
AcDbPoint
 10
240.7433781354101
 20
637.0041951410265
 30
0.0
  0
POINT
  5
176AD
330
176A3
100
AcDbEntity
  8
Defpoints
 62
     0
440
 16777216
100
AcDbPoint
 10
247.42247957541
 20
451.0047127153603
 30
0.0
  0
POINT
  5
176AE
330
176A3
100
AcDbEntity
  8
Defpoints
 62
     0
440
 16777216
100
AcDbPoint
 10
111.9090262122101
 20
451.0047127153603
 30
0.0
  0
ENDBLK
  5
176A5
330
176A3
100
AcDbEntity
  8
0
100
AcDbBlockEnd
  0
BLOCK
  5
176B3
330
176B2
100
AcDbEntity
  8
0
100
AcDbBlockBegin
  2
*D22
 70
     1
 10
0.0
 20
0.0
 30
0.0
  3
*D22
  1

  0
LINE
  5
176B5
330
176B2
100
AcDbEntity
  8
DIM
 62
     0
370
    -2
100
AcDbLine
 10
455.6430902822636
 20
637.0043025621145
 30
0.0
 11
431.5043262689976
 21
637.0043025621145
 31
0.0
  0
LINE
  5
176B6
330
176B2
100
AcDbEntity
  8
DIM
 62
     0
370
    -2
100
AcDbLine
 10
455.6430902822636
 20
593.0043025621147
 30
0.0
 11
431.5043262689976
 21
593.0043025621147
 31
0.0
  0
LINE
  5
176B7
330
176B2
100
AcDbEntity
  8
DIM
 62
     0
370
    -2
100
AcDbLine
 10
431.5043262689976
 20
634.0043025621146
 30
0.0
 11
431.5043262689976
 21
596.0043025621147
 31
0.0
  0
INSERT
  5
176B8
330
176B2
100
AcDbEntity
  8
DIM
 62
     0
370
    -2
100
AcDbBlockReference
  2
_DOT
 10
431.5043262689976
 20
637.0043025621145
 30
0.0
 41
3.0
 42
3.0
 43
3.0
 50
90.0
  0
INSERT
  5
176B9
330
176B2
100
AcDbEntity
  8
DIM
 62
     0
370
    -2
100
AcDbBlockReference
  2
_DOT
 10
431.5043262689976
 20
593.0043025621147
 30
0.0
 41
3.0
 42
3.0
 43
3.0
 50
270.0
  0
MTEXT
  5
176BA
330
176B2
100
AcDbEntity
  8
DIM
 62
     0
100
AcDbMText
 10
421.5043262689976
 20
615.0043025621147
 30
0.0
 40
8.0
 41
0.0
 46
0.0
 71
     5
 72
     1
  1
\A1;44
  7
ＭＳ ゴシック
 11
0.0
 21
1.0
 31
0.0
 73
     1
 44
1.0
  0
POINT
  5
176BB
330
176B2
100
AcDbEntity
  8
Defpoints
 62
     0
100
AcDbPoint
 10
465.6430902822636
 20
637.0043025621145
 30
0.0
  0
POINT
  5
176BC
330
176B2
100
AcDbEntity
  8
Defpoints
 62
     0
100
AcDbPoint
 10
465.6430902822636
 20
593.0043025621147
 30
0.0
  0
POINT
  5
176BD
330
176B2
100
AcDbEntity
  8
Defpoints
 62
     0
100
AcDbPoint
 10
431.5043262689976
 20
593.0043025621147
 30
0.0
  0
ENDBLK
  5
176B4
330
176B2
100
AcDbEntity
  8
0
100
AcDbBlockEnd
  0
BLOCK
  5
176C2
330
176C1
100
AcDbEntity
  8
0
100
AcDbBlockBegin
  2
*D23
 70
     1
 10
0.0
 20
0.0
 30
0.0
  3
*D23
  1

  0
LINE
  5
176C4
330
176C1
100
AcDbEntity
  8
DIM
 62
     0
440
 16777216
370
    -2
100
AcDbLine
 10
465.6430902822636
 20
647.0043025621146
 30
0.0
 11
465.6430902822636
 21
667.9574458239986
 31
0.0
  0
LINE
  5
176C5
330
176C1
100
AcDbEntity
  8
DIM
 62
     0
440
 16777216
370
    -2
100
AcDbLine
 10
500.6430902822633
 20
634.0043025621151
 30
0.0
 11
500.6430902822633
 21
667.9574458239986
 31
0.0
  0
LINE
  5
176C6
330
176C1
100
AcDbEntity
  8
DIM
 62
     0
440
 16777216
370
    -2
100
AcDbLine
 10
468.6430902822636
 20
667.9574458239986
 30
0.0
 11
497.6430902822634
 21
667.9574458239986
 31
0.0
  0
INSERT
  5
176C7
330
176C1
100
AcDbEntity
  8
DIM
 62
     0
440
 16777216
370
    -2
100
AcDbBlockReference
  2
_DOT
 10
465.6430902822636
 20
667.9574458239986
 30
0.0
 41
3.0
 42
3.0
 43
3.0
 50
180.0
  0
INSERT
  5
176C8
330
176C1
100
AcDbEntity
  8
DIM
 62
     0
440
 16777216
370
    -2
100
AcDbBlockReference
  2
_DOT
 10
500.6430902822633
 20
667.9574458239986
 30
0.0
 41
3.0
 42
3.0
 43
3.0
  0
MTEXT
  5
176C9
330
176C1
100
AcDbEntity
  8
DIM
 62
     0
440
 16777216
100
AcDbMText
 10
483.1430902822634
 20
677.9589463867097
 30
0.0
 40
8.0
 41
0.0
 46
0.0
 71
     5
 72
     1
  1
\A1;35
  7
ＭＳ ゴシック
 73
     1
 44
1.0
  0
POINT
  5
176CA
330
176C1
100
AcDbEntity
  8
Defpoints
 62
     0
440
 16777216
100
AcDbPoint
 10
465.6430902822636
 20
637.0043025621145
 30
0.0
  0
POINT
  5
176CB
330
176C1
100
AcDbEntity
  8
Defpoints
 62
     0
440
 16777216
100
AcDbPoint
 10
500.6430902822633
 20
624.004302562115
 30
0.0
  0
POINT
  5
176CC
330
176C1
100
AcDbEntity
  8
Defpoints
 62
     0
440
 16777216
100
AcDbPoint
 10
500.6430902822633
 20
667.9574458239986
 30
0.0
  0
ENDBLK
  5
176C3
330
176C1
100
AcDbEntity
  8
0
100
AcDbBlockEnd
  0
BLOCK
  5
176D1
330
176D0
100
AcDbEntity
  8
0
100
AcDbBlockBegin
  2
*D24
 70
     1
 10
0.0
 20
0.0
 30
0.0
  3
*D24
  1

  0
LINE
  5
176D3
330
176D0
100
AcDbEntity
  8
DIM
 62
     0
440
 16777216
370
    -2
100
AcDbLine
 10
489.6430902822636
 20
494.6087504984688
 30
0.0
 11
489.6430902822636
 21
496.9094660526021
 31
0.0
  0
LINE
  5
176D4
330
176D0
100
AcDbEntity
  8
DIM
 62
     0
440
 16777216
370
    -2
100
AcDbLine
 10
497.6430902822634
 20
494.6087504984688
 30
0.0
 11
497.6430902822634
 21
496.9094660526021
 31
0.0
  0
LINE
  5
176D5
330
176D0
100
AcDbEntity
  8
DIM
 62
     0
440
 16777216
370
    -2
100
AcDbLine
 10
489.6430902822636
 20
496.9094660526021
 30
0.0
 11
461.9742144538277
 21
496.9094660526021
 31
0.0
  0
LINE
  5
176D6
330
176D0
100
AcDbEntity
  8
DIM
 62
     0
440
 16777216
370
    -2
100
AcDbLine
 10
492.6430902822636
 20
496.9094660526021
 30
0.0
 11
494.6430902822633
 21
496.9094660526021
 31
0.0
  0
LINE
  5
176D7
330
176D0
100
AcDbEntity
  8
DIM
 62
     0
440
 16777216
370
    -2
100
AcDbLine
 10
492.6430902822636
 20
496.9094660526021
 30
0.0
 11
495.6430902822636
 21
496.9094660526021
 31
0.0
  0
INSERT
  5
176D8
330
176D0
100
AcDbEntity
  8
DIM
 62
     0
440
 16777216
370
    -2
100
AcDbBlockReference
  2
_DOT
 10
489.6430902822636
 20
496.9094660526021
 30
0.0
 41
3.0
 42
3.0
 43
3.0
 50
180.0
  0
INSERT
  5
176D9
330
176D0
100
AcDbEntity
  8
DIM
 62
     0
440
 16777216
370
    -2
100
AcDbBlockReference
  2
_DOT
 10
497.6430902822634
 20
496.9094660526021
 30
0.0
 41
3.0
 42
3.0
 43
3.0
  0
MTEXT
  5
176DA
330
176D0
100
AcDbEntity
  8
DIM
 62
     0
440
 16777216
100
AcDbMText
 10
472.8086523680458
 20
506.9094660526022
 30
0.0
 40
8.0
 41
0.0
 46
0.0
 71
     5
 72
     1
  1
\A1;%%c8
  7
ＭＳ ゴシック
 73
     1
 44
1.0
  0
POINT
  5
176DB
330
176D0
100
AcDbEntity
  8
Defpoints
 62
     0
440
 16777216
100
AcDbPoint
 10
489.6430902822636
 20
484.6087504984687
 30
0.0
  0
POINT
  5
176DC
330
176D0
100
AcDbEntity
  8
Defpoints
 62
     0
440
 16777216
100
AcDbPoint
 10
497.6430902822634
 20
484.6087504984687
 30
0.0
  0
POINT
  5
176DD
330
176D0
100
AcDbEntity
  8
Defpoints
 62
     0
440
 16777216
100
AcDbPoint
 10
497.6430902822634
 20
496.9094660526021
 30
0.0
  0
ENDBLK
  5
176D2
330
176D0
100
AcDbEntity
  8
0
100
AcDbBlockEnd
  0
BLOCK
  5
176F1
330
176EE
100
AcDbEntity
  8
0
100
AcDbBlockBegin
  2
_Open30
 70
     0
 10
0.0
 20
0.0
 30
0.0
  3
_Open30
  1

  0
LINE
  5
176F2
330
176EE
100
AcDbEntity
  8
0
 62
     0
370
    -2
100
AcDbLine
 10
-1.0
 20
0.2679491899998538
 30
0.0
 11
0.0
 21
0.0
 31
0.0
  0
LINE
  5
176F3
330
176EE
100
AcDbEntity
  8
0
 62
     0
370
    -2
100
AcDbLine
 10
0.0
 20
0.0
 30
0.0
 11
-1.0
 21
-0.2679491899998538
 31
0.0
  0
LINE
  5
176F4
330
176EE
100
AcDbEntity
  8
0
 62
     0
370
    -2
100
AcDbLine
 10
0.0
 20
0.0
 30
0.0
 11
-1.0
 21
0.0
 31
0.0
  0
ENDBLK
  5
176F5
330
176EE
100
AcDbEntity
  8
0
100
AcDbBlockEnd
  0
BLOCK
  5
176F7
330
176F6
100
AcDbEntity
  8
0
100
AcDbBlockBegin
  2
_Origin
 70
     0
 10
0.0
 20
0.0
 30
0.0
  3
_Origin
  1

  0
CIRCLE
  5
176F8
330
176F6
100
AcDbEntity
  8
0
  6
ByBlock
 62
     0
370
    -2
100
AcDbCircle
 10
0.0
 20
0.0
 30
0.0
 40
0.5
  0
LINE
  5
176F9
330
176F6
100
AcDbEntity
  8
0
  6
ByBlock
 62
     0
370
    -2
100
AcDbLine
 10
0.0
 20
0.0
 30
0.0
 11
-1.0
 21
0.0
 31
0.0
  0
ENDBLK
  5
176FA
330
176F6
100
AcDbEntity
  8
0
100
AcDbBlockEnd
  0
BLOCK
  5
1782B
330
1782A
100
AcDbEntity
  8
0
100
AcDbBlockBegin
  2
*D27
 70
     1
 10
0.0
 20
0.0
 30
0.0
  3
*D27
  1

  0
LINE
  5
1782D
330
1782A
100
AcDbEntity
  8
注释
 62
     0
370
    -2
100
AcDbLine
 10
35.25000000000001
 20
11.72916666666666
 30
0.0
 11
35.25000000000001
 21
16.08263247388291
 31
0.0
  0
LINE
  5
1782E
330
1782A
100
AcDbEntity
  8
注释
 62
     0
370
    -2
100
AcDbLine
 10
20.58333333333336
 20
11.72916666666666
 30
0.0
 11
20.58333333333336
 21
16.08263247388291
 31
0.0
  0
LINE
  5
1782F
330
1782A
100
AcDbEntity
  8
注释
 62
     0
370
    -2
100
AcDbLine
 10
32.75000000000001
 20
16.08263247388291
 30
0.0
 11
23.08333333333336
 21
16.08263247388291
 31
0.0
  0
SOLID
  5
17830
330
1782A
100
AcDbEntity
  8
注释
 62
     0
100
AcDbTrace
 10
32.75000000000001
 20
15.66596580721624
 30
0.0
 11
32.75000000000001
 21
16.49929914054958
 31
0.0
 12
35.25000000000001
 22
16.08263247388291
 32
0.0
 13
35.25000000000001
 23
16.08263247388291
 33
0.0
  0
SOLID
  5
17831
330
1782A
100
AcDbEntity
  8
注释
 62
     0
100
AcDbTrace
 10
23.08333333333336
 20
16.49929914054958
 30
0.0
 11
23.08333333333336
 21
15.66596580721624
 31
0.0
 12
20.58333333333336
 22
16.08263247388291
 32
0.0
 13
20.58333333333336
 23
16.08263247388291
 33
0.0
  0
MTEXT
  5
17832
330
1782A
100
AcDbEntity
  8
注释
 62
     0
100
AcDbMText
 10
26.93521105233872
 20
19.20763247388291
 30
0.0
 40
2.5
 41
0.0
 46
0.0
 71
     2
 72
     1
  1
\A1;%%c44
  7
SLDTEXTSTYLE0
 73
     1
 44
1.0
  0
POINT
  5
17833
330
1782A
100
AcDbEntity
  8
Defpoints
 62
     0
100
AcDbPoint
 10
35.25000000000001
 20
11.66666666666666
 30
0.0
  0
POINT
  5
17834
330
1782A
100
AcDbEntity
  8
Defpoints
 62
     0
100
AcDbPoint
 10
20.58333333333336
 20
11.66666666666666
 30
0.0
  0
POINT
  5
17835
330
1782A
100
AcDbEntity
  8
Defpoints
 62
     0
100
AcDbPoint
 10
20.58333333333336
 20
16.08263247388291
 30
0.0
  0
ENDBLK
  5
1782C
330
1782A
100
AcDbEntity
  8
0
100
AcDbBlockEnd
  0
BLOCK
  5
1784E
330
1784D
100
AcDbEntity
  8
0
100
AcDbBlockBegin
  2
*D28
 70
     1
 10
0.0
 20
0.0
 30
0.0
  3
*D28
  1

  0
LINE
  5
17850
330
1784D
100
AcDbEntity
  8
注释
 62
     0
370
    -2
100
AcDbLine
 10
368.7845547447048
 20
354.2107353033947
 30
0.0
 11
368.7845547447048
 21
367.3961327250434
 31
0.0
  0
LINE
  5
17851
330
1784D
100
AcDbEntity
  8
注释
 62
     0
370
    -2
100
AcDbLine
 10
324.7845547447052
 20
354.2107353033947
 30
0.0
 11
324.7845547447052
 21
367.3961327250434
 31
0.0
  0
LINE
  5
17852
330
1784D
100
AcDbEntity
  8
注释
 62
     0
370
    -2
100
AcDbLine
 10
366.2845547447048
 20
367.3961327250434
 30
0.0
 11
327.2845547447051
 21
367.3961327250434
 31
0.0
  0
SOLID
  5
17853
330
1784D
100
AcDbEntity
  8
注释
 62
     0
100
AcDbTrace
 10
366.2845547447048
 20
366.9794660583767
 30
0.0
 11
366.2845547447048
 21
367.81279939171
 31
0.0
 12
368.7845547447048
 22
367.3961327250434
 32
0.0
 13
368.7845547447048
 23
367.3961327250434
 33
0.0
  0
SOLID
  5
17854
330
1784D
100
AcDbEntity
  8
注释
 62
     0
100
AcDbTrace
 10
327.2845547447051
 20
367.81279939171
 30
0.0
 11
327.2845547447051
 21
366.9794660583767
 31
0.0
 12
324.7845547447052
 22
367.3961327250434
 32
0.0
 13
324.7845547447052
 23
367.3961327250434
 33
0.0
  0
MTEXT
  5
17855
330
1784D
100
AcDbEntity
  8
注释
 62
     0
100
AcDbMText
 10
343.8401879017211
 20
370.5211327250434
 30
0.0
 40
2.5
 41
0.0
 46
0.0
 71
     2
 72
     1
  1
\A1;%%c132
  7
SLDTEXTSTYLE0
 73
     1
 44
1.0
  0
POINT
  5
17856
330
1784D
100
AcDbEntity
  8
Defpoints
 62
     0
100
AcDbPoint
 10
368.7845547447048
 20
354.1482353033946
 30
0.0
  0
POINT
  5
17857
330
1784D
100
AcDbEntity
  8
Defpoints
 62
     0
100
AcDbPoint
 10
324.7845547447052
 20
354.1482353033946
 30
0.0
  0
POINT
  5
17858
330
1784D
100
AcDbEntity
  8
Defpoints
 62
     0
100
AcDbPoint
 10
324.7845547447052
 20
367.3961327250434
 30
0.0
  0
ENDBLK
  5
1784F
330
1784D
100
AcDbEntity
  8
0
100
AcDbBlockEnd
  0
BLOCK
  5
1785D
330
1785C
100
AcDbEntity
  8
0
100
AcDbBlockBegin
  2
*D29
 70
     1
 10
0.0
 20
0.0
 30
0.0
  3
*D29
  1

  0
LINE
  5
1785F
330
1785C
100
AcDbEntity
  8
DIM
 62
     0
370
    -2
100
AcDbLine
 10
263.0345547447048
 20
316.1482353033945
 30
0.0
 11
263.0345547447048
 21
268.0456826168022
 31
0.0
  0
LINE
  5
17860
330
1785C
100
AcDbEntity
  8
DIM
 62
     0
370
    -2
100
AcDbLine
 10
431.0345547447048
 20
316.1482353033946
 30
0.0
 11
431.0345547447048
 21
268.0456826168022
 31
0.0
  0
LINE
  5
17861
330
1785C
100
AcDbEntity
  8
DIM
 62
     0
370
    -2
100
AcDbLine
 10
266.0345547447048
 20
268.0456826168022
 30
0.0
 11
428.0345547447048
 21
268.0456826168022
 31
0.0
  0
INSERT
  5
17862
330
1785C
100
AcDbEntity
  8
DIM
 62
     0
370
    -2
100
AcDbBlockReference
  2
_DOT
 10
263.0345547447048
 20
268.0456826168022
 30
0.0
 41
3.0
 42
3.0
 43
3.0
 50
180.0
  0
INSERT
  5
17863
330
1785C
100
AcDbEntity
  8
DIM
 62
     0
370
    -2
100
AcDbBlockReference
  2
_DOT
 10
431.0345547447048
 20
268.0456826168022
 30
0.0
 41
3.0
 42
3.0
 43
3.0
  0
MTEXT
  5
17864
330
1785C
100
AcDbEntity
  8
DIM
 62
     0
100
AcDbMText
 10
347.0345547447048
 20
278.0471831795132
 30
0.0
 40
8.0
 41
0.0
 46
0.0
 71
     5
 72
     1
  1
\A1;168
  7
ＭＳ ゴシック
 73
     1
 44
1.0
  0
POINT
  5
17865
330
1785C
100
AcDbEntity
  8
Defpoints
 62
     0
100
AcDbPoint
 10
263.0345547447048
 20
326.1482353033945
 30
0.0
  0
POINT
  5
17866
330
1785C
100
AcDbEntity
  8
Defpoints
 62
     0
100
AcDbPoint
 10
431.0345547447048
 20
326.1482353033946
 30
0.0
  0
POINT
  5
17867
330
1785C
100
AcDbEntity
  8
Defpoints
 62
     0
100
AcDbPoint
 10
431.0345547447048
 20
268.0456826168022
 30
0.0
  0
ENDBLK
  5
1785E
330
1785C
100
AcDbEntity
  8
0
100
AcDbBlockEnd
  0
BLOCK
  5
179A7
330
179A6
100
AcDbEntity
  8
0
100
AcDbBlockBegin
  2
*D30
 70
     1
 10
0.0
 20
0.0
 30
0.0
  3
*D30
  1

  0
LINE
  5
179A8
330
179A6
100
AcDbEntity
  8
DIM
 62
     0
370
    -2
100
AcDbLine
 10
2.820079681533512
 20
42.13668267993859
 30
0.0
 11
2.820079681533512
 21
52.93602200132878
 31
0.0
  0
LINE
  5
179A9
330
179A6
100
AcDbEntity
  8
DIM
 62
     0
370
    -2
100
AcDbLine
 10
20.82007968153351
 20
42.13668267993859
 30
0.0
 11
20.82007968153351
 21
52.93602200132878
 31
0.0
  0
LINE
  5
179AA
330
179A6
100
AcDbEntity
  8
DIM
 62
     0
370
    -2
100
AcDbLine
 10
-0.1799203184664862
 20
52.93602200132878
 30
0.0
 11
-3.179920318466486
 21
52.93602200132878
 31
0.0
  0
LINE
  5
179AB
330
179A6
100
AcDbEntity
  8
DIM
 62
     0
370
    -2
100
AcDbLine
 10
23.82007968153351
 20
52.93602200132878
 30
0.0
 11
26.82007968153352
 21
52.93602200132878
 31
0.0
  0
INSERT
  5
179AC
330
179A6
100
AcDbEntity
  8
DIM
 62
     0
370
    -2
100
AcDbBlockReference
  2
_DOT
 10
2.820079681533512
 20
52.93602200132878
 30
0.0
 41
3.0
 42
3.0
 43
3.0
  0
INSERT
  5
179AD
330
179A6
100
AcDbEntity
  8
DIM
 62
     0
370
    -2
100
AcDbBlockReference
  2
_DOT
 10
20.82007968153351
 20
52.93602200132878
 30
0.0
 41
3.0
 42
3.0
 43
3.0
 50
180.0
  0
MTEXT
  5
179AE
330
179A6
100
AcDbEntity
  8
DIM
 62
     0
100
AcDbMText
 10
11.82007968153351
 20
62.9375225640398
 30
0.0
 40
8.0
 41
0.0
 46
0.0
 71
     5
 72
     1
  1
\A1;18
  7
ＭＳ ゴシック
 73
     1
 44
1.0
  0
POINT
  5
179AF
330
179A6
100
AcDbEntity
  8
Defpoints
 62
     0
100
AcDbPoint
 10
2.820079681533512
 20
32.13668267993859
 30
0.0
  0
POINT
  5
179B0
330
179A6
100
AcDbEntity
  8
Defpoints
 62
     0
100
AcDbPoint
 10
20.82007968153351
 20
32.13668267993859
 30
0.0
  0
POINT
  5
179B4
330
179A6
100
AcDbEntity
  8
Defpoints
 62
     0
100
AcDbPoint
 10
20.82007968153351
 20
52.93602200132878
 30
0.0
  0
ENDBLK
  5
179B1
330
179A6
100
AcDbEntity
  8
0
100
AcDbBlockEnd
  0
BLOCK
  5
179DA
330
179D9
100
AcDbEntity
  8
0
100
AcDbBlockBegin
  2
*D31
 70
     1
 10
0.0
 20
0.0
 30
0.0
  3
*D31
  1

  0
LINE
  5
179DC
330
179D9
100
AcDbEntity
  8
DIM
 62
     0
370
    -2
100
AcDbLine
 10
259.2439551730925
 20
381.1212094560877
 30
0.0
 11
259.2439551730925
 21
391.920548777478
 31
0.0
  0
LINE
  5
179DD
330
179D9
100
AcDbEntity
  8
DIM
 62
     0
370
    -2
100
AcDbLine
 10
277.2439551730924
 20
381.1212094560877
 30
0.0
 11
277.2439551730924
 21
391.920548777478
 31
0.0
  0
LINE
  5
179DE
330
179D9
100
AcDbEntity
  8
DIM
 62
     0
370
    -2
100
AcDbLine
 10
256.2439551730924
 20
391.920548777478
 30
0.0
 11
253.2439551730924
 21
391.920548777478
 31
0.0
  0
LINE
  5
179DF
330
179D9
100
AcDbEntity
  8
DIM
 62
     0
370
    -2
100
AcDbLine
 10
280.2439551730925
 20
391.920548777478
 30
0.0
 11
283.2439551730924
 21
391.920548777478
 31
0.0
  0
INSERT
  5
179E0
330
179D9
100
AcDbEntity
  8
DIM
 62
     0
370
    -2
100
AcDbBlockReference
  2
_DOT
 10
259.2439551730925
 20
391.920548777478
 30
0.0
 41
3.0
 42
3.0
 43
3.0
  0
INSERT
  5
179E1
330
179D9
100
AcDbEntity
  8
DIM
 62
     0
370
    -2
100
AcDbBlockReference
  2
_DOT
 10
277.2439551730924
 20
391.920548777478
 30
0.0
 41
3.0
 42
3.0
 43
3.0
 50
180.0
  0
MTEXT
  5
179E2
330
179D9
100
AcDbEntity
  8
DIM
 62
     0
100
AcDbMText
 10
268.2439551730924
 20
401.9220493401888
 30
0.0
 40
8.0
 41
0.0
 46
0.0
 71
     5
 72
     1
  1
\A1;18
  7
ＭＳ ゴシック
 73
     1
 44
1.0
  0
POINT
  5
179E3
330
179D9
100
AcDbEntity
  8
Defpoints
 62
     0
100
AcDbPoint
 10
259.2439551730925
 20
371.1212094560877
 30
0.0
  0
POINT
  5
179E4
330
179D9
100
AcDbEntity
  8
Defpoints
 62
     0
100
AcDbPoint
 10
277.2439551730924
 20
371.1212094560877
 30
0.0
  0
POINT
  5
179E5
330
179D9
100
AcDbEntity
  8
Defpoints
 62
     0
100
AcDbPoint
 10
277.2439551730924
 20
391.920548777478
 30
0.0
  0
ENDBLK
  5
179DB
330
179D9
100
AcDbEntity
  8
0
100
AcDbBlockEnd
  0
BLOCK
  5
179EB
330
179EA
100
AcDbEntity
  8
0
100
AcDbBlockBegin
  2
*D32
 70
     1
 10
0.0
 20
0.0
 30
0.0
  3
*D32
  1

  0
LINE
  5
179ED
330
179EA
100
AcDbEntity
  8
DIM
 62
     0
440
 16777216
370
    -2
100
AcDbLine
 10
254.0264148242093
 20
352.2346302118037
 30
0.0
 11
254.0264148242093
 21
370.5153061147815
 31
0.0
  0
LINE
  5
179EE
330
179EA
100
AcDbEntity
  8
DIM
 62
     0
440
 16777216
370
    -2
100
AcDbLine
 10
272.0264148242093
 20
352.2346302118037
 30
0.0
 11
272.0264148242093
 21
370.5153061147815
 31
0.0
  0
LINE
  5
179EF
330
179EA
100
AcDbEntity
  8
DIM
 62
     0
440
 16777216
370
    -2
100
AcDbLine
 10
257.0264148242093
 20
370.5153061147815
 30
0.0
 11
269.0264148242093
 21
370.5153061147815
 31
0.0
  0
INSERT
  5
179F0
330
179EA
100
AcDbEntity
  8
DIM
 62
     0
440
 16777216
370
    -2
100
AcDbBlockReference
  2
_DOT
 10
254.0264148242093
 20
370.5153061147815
 30
0.0
 41
3.0
 42
3.0
 43
3.0
 50
180.0
  0
INSERT
  5
179F1
330
179EA
100
AcDbEntity
  8
DIM
 62
     0
440
 16777216
370
    -2
100
AcDbBlockReference
  2
_DOT
 10
272.0264148242093
 20
370.5153061147815
 30
0.0
 41
3.0
 42
3.0
 43
3.0
  0
MTEXT
  5
179F2
330
179EA
100
AcDbEntity
  8
DIM
 62
     0
440
 16777216
100
AcDbMText
 10
263.0264148242093
 20
380.5168066774926
 30
0.0
 40
8.0
 41
0.0
 46
0.0
 71
     5
 72
     1
  1
\A1;18
  7
ＭＳ ゴシック
 73
     1
 44
1.0
  0
POINT
  5
179F3
330
179EA
100
AcDbEntity
  8
Defpoints
 62
     0
440
 16777216
100
AcDbPoint
 10
254.0264148242093
 20
342.2346302118037
 30
0.0
  0
POINT
  5
179F4
330
179EA
100
AcDbEntity
  8
Defpoints
 62
     0
440
 16777216
100
AcDbPoint
 10
272.0264148242093
 20
342.2346302118037
 30
0.0
  0
POINT
  5
179F5
330
179EA
100
AcDbEntity
  8
Defpoints
 62
     0
440
 16777216
100
AcDbPoint
 10
272.0264148242093
 20
370.5153061147815
 30
0.0
  0
ENDBLK
  5
179EC
330
179EA
100
AcDbEntity
  8
0
100
AcDbBlockEnd
  0
BLOCK
  5
179FB
330
179FA
100
AcDbEntity
  8
0
100
AcDbBlockBegin
  2
*D33
 70
     1
 10
0.0
 20
0.0
 30
0.0
  3
*D33
  1

  0
LINE
  5
179FD
330
179FA
100
AcDbEntity
  8
DIM
 62
     0
440
 16777216
370
    -2
100
AcDbLine
 10
241.0264148242098
 20
320.0979475318651
 30
0.0
 11
241.0264148242098
 21
370.5153061147815
 31
0.0
  0
LINE
  5
179FE
330
179FA
100
AcDbEntity
  8
DIM
 62
     0
440
 16777216
370
    -2
100
AcDbLine
 10
251.0264148242093
 20
370.5153061147815
 30
0.0
 11
244.0264148242099
 21
370.5153061147815
 31
0.0
  0
INSERT
  5
179FF
330
179FA
100
AcDbEntity
  8
DIM
 62
     0
440
 16777216
370
    -2
100
AcDbBlockReference
  2
_DOT
 10
254.0264148242093
 20
370.5153061147815
 30
0.0
 41
3.0
 42
3.0
 43
3.0
  0
INSERT
  5
17A00
330
179FA
100
AcDbEntity
  8
DIM
 62
     0
440
 16777216
370
    -2
100
AcDbBlockReference
  2
_DOT
 10
241.0264148242098
 20
370.5153061147815
 30
0.0
 41
3.0
 42
3.0
 43
3.0
 50
180.0
  0
MTEXT
  5
17A01
330
179FA
100
AcDbEntity
  8
DIM
 62
     0
440
 16777216
100
AcDbMText
 10
247.5264148242096
 20
380.5168066774926
 30
0.0
 40
8.0
 41
0.0
 46
0.0
 71
     5
 72
     1
  1
\A1;13
  7
ＭＳ ゴシック
 73
     1
 44
1.0
  0
POINT
  5
17A02
330
179FA
100
AcDbEntity
  8
Defpoints
 62
     0
440
 16777216
100
AcDbPoint
 10
254.0264148242093
 20
370.5153061147815
 30
0.0
  0
POINT
  5
17A03
330
179FA
100
AcDbEntity
  8
Defpoints
 62
     0
440
 16777216
100
AcDbPoint
 10
241.0264148242098
 20
310.0979475318652
 30
0.0
  0
POINT
  5
17A04
330
179FA
100
AcDbEntity
  8
Defpoints
 62
     0
440
 16777216
100
AcDbPoint
 10
241.0264148242098
 20
370.5153061147815
 30
0.0
  0
ENDBLK
  5
179FC
330
179FA
100
AcDbEntity
  8
0
100
AcDbBlockEnd
  0
BLOCK
  5
17A0C
330
17A0B
100
AcDbEntity
  8
0
100
AcDbBlockBegin
  2
*D34
 70
     1
 10
0.0
 20
0.0
 30
0.0
  3
*D34
  1

  0
LINE
  5
17A0E
330
17A0B
100
AcDbEntity
  8
DIM
 62
     0
440
 16777216
370
    -2
100
AcDbLine
 10
295.0264148242095
 20
310.0979475318652
 30
0.0
 11
386.8164718102947
 21
310.0979475318652
 31
0.0
  0
LINE
  5
17A0F
330
17A0B
100
AcDbEntity
  8
DIM
 62
     0
440
 16777216
370
    -2
100
AcDbLine
 10
357.2764148242096
 20
282.0979475318651
 30
0.0
 11
386.8164718102947
 21
282.0979475318651
 31
0.0
  0
LINE
  5
17A10
330
17A0B
100
AcDbEntity
  8
DIM
 62
     0
440
 16777216
370
    -2
100
AcDbLine
 10
386.8164718102947
 20
307.0979475318651
 30
0.0
 11
386.8164718102947
 21
285.097947531865
 31
0.0
  0
INSERT
  5
17A11
330
17A0B
100
AcDbEntity
  8
DIM
 62
     0
440
 16777216
370
    -2
100
AcDbBlockReference
  2
_DOT
 10
386.8164718102947
 20
310.0979475318652
 30
0.0
 41
3.0
 42
3.0
 43
3.0
 50
90.0
  0
INSERT
  5
17A12
330
17A0B
100
AcDbEntity
  8
DIM
 62
     0
440
 16777216
370
    -2
100
AcDbBlockReference
  2
_DOT
 10
386.8164718102947
 20
282.0979475318651
 30
0.0
 41
3.0
 42
3.0
 43
3.0
 50
270.0
  0
MTEXT
  5
17A13
330
17A0B
100
AcDbEntity
  8
DIM
 62
     0
440
 16777216
100
AcDbMText
 10
376.8149712475834
 20
296.0979475318652
 30
0.0
 40
8.0
 41
0.0
 46
0.0
 71
     5
 72
     1
  1
\A1;28
  7
ＭＳ ゴシック
 11
0.0
 21
1.0
 31
0.0
 73
     1
 44
1.0
  0
POINT
  5
17A14
330
17A0B
100
AcDbEntity
  8
Defpoints
 62
     0
440
 16777216
100
AcDbPoint
 10
285.0264148242095
 20
310.0979475318652
 30
0.0
  0
POINT
  5
17A15
330
17A0B
100
AcDbEntity
  8
Defpoints
 62
     0
440
 16777216
100
AcDbPoint
 10
347.2764148242096
 20
282.0979475318651
 30
0.0
  0
POINT
  5
17A16
330
17A0B
100
AcDbEntity
  8
Defpoints
 62
     0
440
 16777216
100
AcDbPoint
 10
386.8164718102947
 20
282.0979475318651
 30
0.0
  0
ENDBLK
  5
17A0D
330
17A0B
100
AcDbEntity
  8
0
100
AcDbBlockEnd
  0
BLOCK
  5
17A19
330
17A18
100
AcDbEntity
  8
0
100
AcDbBlockBegin
  2
*D35
 70
     1
 10
0.0
 20
0.0
 30
0.0
  3
*D35
  1

  0
LINE
  5
17A1B
330
17A18
100
AcDbEntity
  8
DIM
 62
     0
440
 16777216
370
    -2
100
AcDbLine
 10
240.9561133353117
 20
624.8150996427081
 30
0.0
 11
240.9561133353117
 21
667.9574458239986
 31
0.0
  0
LINE
  5
17A1C
330
17A18
100
AcDbEntity
  8
DIM
 62
     0
440
 16777216
370
    -2
100
AcDbLine
 10
285.1298519746717
 20
624.8150996427083
 30
0.0
 11
285.1298519746717
 21
667.9574458239986
 31
0.0
  0
LINE
  5
17A1D
330
17A18
100
AcDbEntity
  8
DIM
 62
     0
440
 16777216
370
    -2
100
AcDbLine
 10
243.9561133353117
 20
667.9574458239986
 30
0.0
 11
282.1298519746717
 21
667.9574458239986
 31
0.0
  0
INSERT
  5
17A1E
330
17A18
100
AcDbEntity
  8
DIM
 62
     0
440
 16777216
370
    -2
100
AcDbBlockReference
  2
_DOT
 10
240.9561133353117
 20
667.9574458239986
 30
0.0
 41
3.0
 42
3.0
 43
3.0
 50
180.0
  0
INSERT
  5
17A1F
330
17A18
100
AcDbEntity
  8
DIM
 62
     0
440
 16777216
370
    -2
100
AcDbBlockReference
  2
_DOT
 10
285.1298519746717
 20
667.9574458239986
 30
0.0
 41
3.0
 42
3.0
 43
3.0
  0
MTEXT
  5
17A20
330
17A18
100
AcDbEntity
  8
DIM
 62
     0
440
 16777216
100
AcDbMText
 10
263.0429826549917
 20
677.9574458239986
 30
0.0
 40
8.0
 41
0.0
 46
0.0
 71
     5
 72
     1
  1
\A1;%%c44
  7
ＭＳ ゴシック
 73
     1
 44
1.0
  0
POINT
  5
17A21
330
17A18
100
AcDbEntity
  8
Defpoints
 62
     0
440
 16777216
100
AcDbPoint
 10
240.9561133353117
 20
614.8150996427081
 30
0.0
  0
POINT
  5
17A22
330
17A18
100
AcDbEntity
  8
Defpoints
 62
     0
440
 16777216
100
AcDbPoint
 10
285.1298519746717
 20
614.8150996427083
 30
0.0
  0
POINT
  5
17A23
330
17A18
100
AcDbEntity
  8
Defpoints
 62
     0
440
 16777216
100
AcDbPoint
 10
285.1298519746717
 20
667.9574458239986
 30
0.0
  0
ENDBLK
  5
17A1A
330
17A18
100
AcDbEntity
  8
0
100
AcDbBlockEnd
  0
BLOCK
  5
17A2D
330
17A2C
100
AcDbEntity
  8
0
100
AcDbBlockBegin
  2
*D36
 70
     1
 10
0.0
 20
0.0
 30
0.0
  3
*D36
  1

  0
LINE
  5
17A2F
330
17A2C
100
AcDbEntity
  8
DIM
 62
     0
440
 16777216
370
    -2
100
AcDbLine
 10
455.6430902822636
 20
637.0043025621145
 30
0.0
 11
395.2906152106665
 21
637.0043025621145
 31
0.0
  0
LINE
  5
17A30
330
17A2C
100
AcDbEntity
  8
DIM
 62
     0
440
 16777216
370
    -2
100
AcDbLine
 10
423.5064076023248
 20
617.0043025621147
 30
0.0
 11
395.2906152106665
 21
617.0043025621147
 31
0.0
  0
LINE
  5
17A31
330
17A2C
100
AcDbEntity
  8
DIM
 62
     0
440
 16777216
370
    -2
100
AcDbLine
 10
395.2906152106665
 20
634.0043025621146
 30
0.0
 11
395.2906152106665
 21
620.0043025621147
 31
0.0
  0
INSERT
  5
17A32
330
17A2C
100
AcDbEntity
  8
DIM
 62
     0
440
 16777216
370
    -2
100
AcDbBlockReference
  2
_DOT
 10
395.2906152106665
 20
637.0043025621145
 30
0.0
 41
3.0
 42
3.0
 43
3.0
 50
90.0
  0
INSERT
  5
17A33
330
17A2C
100
AcDbEntity
  8
DIM
 62
     0
440
 16777216
370
    -2
100
AcDbBlockReference
  2
_DOT
 10
395.2906152106665
 20
617.0043025621147
 30
0.0
 41
3.0
 42
3.0
 43
3.0
 50
270.0
  0
MTEXT
  5
17A34
330
17A2C
100
AcDbEntity
  8
DIM
 62
     0
440
 16777216
100
AcDbMText
 10
385.2891146479554
 20
627.0043025621147
 30
0.0
 40
8.0
 41
0.0
 46
0.0
 71
     5
 72
     1
  1
\A1;20
  7
ＭＳ ゴシック
 11
0.0
 21
1.0
 31
0.0
 73
     1
 44
1.0
  0
POINT
  5
17A35
330
17A2C
100
AcDbEntity
  8
Defpoints
 62
     0
440
 16777216
100
AcDbPoint
 10
465.6430902822636
 20
637.0043025621145
 30
0.0
  0
POINT
  5
17A36
330
17A2C
100
AcDbEntity
  8
Defpoints
 62
     0
440
 16777216
100
AcDbPoint
 10
433.5064076023249
 20
617.0043025621147
 30
0.0
  0
POINT
  5
17A37
330
17A2C
100
AcDbEntity
  8
Defpoints
 62
     0
440
 16777216
100
AcDbPoint
 10
395.2906152106665
 20
617.0043025621147
 30
0.0
  0
ENDBLK
  5
17A2E
330
17A2C
100
AcDbEntity
  8
0
100
AcDbBlockEnd
  0
ENDSEC
  0
SECTION
  2
ENTITIES
  0
MTEXT
  5
177
330
A
100
AcDbEntity
  8
TEMPLATE
390
1D
100
AcDbMText
 10
23.76064336431923
 20
103.1195254894285
 30
0.0
 40
4.886523437499998
 41
0.0
 46
0.0
 71
     1
 72
     1
  1
品名
  7
ＭＳ ゴシック
 73
     1
 44
0.7828267384257845
  0
MTEXT
  5
178
330
A
100
AcDbEntity
  8
TEMPLATE
390
1D
100
AcDbMText
 10
23.76064336431923
 20
77.61952548942841
 30
0.0
 40
4.886523437499998
 41
0.0
 46
0.0
 71
     1
 72
     1
  1
仕様
  7
ＭＳ ゴシック
 73
     1
 44
0.7828267384257845
  0
LINE
  5
179
330
A
100
AcDbEntity
  8
TEMPLATE
390
1D
100
AcDbLine
 10
606.6606433641744
 20
80.14400205192853
 30
0.0
 11
21.66064336417462
 21
80.14400205192853
 31
0.0
  0
LWPOLYLINE
  5
17A
330
A
100
AcDbEntity
  8
TEMPLATE
390
1D
100
AcDbPolyline
 90
        5
 70
   128
 43
0.0
 10
606.6606433641744
 20
869.1440020519278
 10
21.66064336417462
 20
869.1440020519278
 10
21.66064336417462
 20
29.14400205192847
 10
606.6606433641744
 20
29.14400205192847
 10
606.6606433641744
 20
869.1440020519278
  0
LINE
  5
17B
330
A
100
AcDbEntity
  8
TEMPLATE
390
1D
100
AcDbLine
 10
606.6606433641744
 20
105.6440020519285
 30
0.0
 11
21.66064336417462
 21
105.6440020519285
 31
0.0
  0
LINE
  5
17C
330
A
100
AcDbEntity
  8
TEMPLATE
390
1D
100
AcDbLine
 10
606.6606433643196
 20
54.64400205192847
 30
0.0
 11
380.760643364319
 21
54.64400205192847
 31
0.0
  0
MTEXT
  5
17E
330
A
100
AcDbEntity
  8
TEMPLATE
390
1D
100
AcDbMText
 10
389.7220652399973
 20
45.67088370993603
 30
0.0
 40
7.329785156250001
 41
0.0
 46
0.0
 71
     1
 72
     1
  1
大洋金物株式会社 ティーフォルム事業部
  7
ＭＳ ゴシック
 73
     1
 44
0.7828267384257845
  0
MTEXT
  5
180
330
A
100
AcDbEntity
  8
TEMPLATE
390
1D
100
AcDbMText
 10
549.360643364397
 20
69.04478720817846
 30
0.0
 40
7.329785156250001
 41
0.0
 46
7.329785156250001
 71
     1
 72
     1
  1
{1:3}
  7
ＭＳ ゴシック
 73
     1
 44
0.7828267384257845
1001
ACAD
1000
ACAD_MTEXT_DEFINED_HEIGHT_BEGIN
1070
    46
1040
7.329785156250001
1000
ACAD_MTEXT_DEFINED_HEIGHT_END
  0
MTEXT
  5
181
330
A
100
AcDbEntity
  8
TEMPLATE
390
1D
100
AcDbMText
 10
533.4606433643967
 20
77.61952548942841
 30
0.0
 40
4.886523437499998
 41
0.0
 46
0.0
 71
     1
 72
     1
  1
縮尺
  7
ＭＳ ゴシック
 73
     1
 44
0.7828267384257845
  0
LINE
  5
182
330
A
100
AcDbEntity
  8
TEMPLATE
390
1D
100
AcDbLine
 10
531.3606433643968
 20
54.64400205192847
 30
0.0
 11
531.3606433643968
 21
80.14400205192853
 31
0.0
  0
MTEXT
  5
183
330
A
100
AcDbEntity
  8
TEMPLATE
390
1D
100
AcDbMText
 10
458.1606433643968
 20
77.61952548942841
 30
0.0
 40
4.886523437499998
 41
0.0
 46
0.0
 71
     1
 72
     1
  1
容量
  7
ＭＳ ゴシック
 73
     1
 44
0.7828267384257845
  0
LINE
  5
184
330
A
100
AcDbEntity
  8
TEMPLATE
390
1D
100
AcDbLine
 10
456.0606433643969
 20
54.64400205192847
 30
0.0
 11
456.0606433643969
 21
80.14400205192853
 31
0.0
  0
MTEXT
  5
185
330
A
100
AcDbEntity
  8
TEMPLATE
390
1D
100
AcDbMText
 10
382.860643364397
 20
103.1195254894285
 30
0.0
 40
4.886523437499998
 41
0.0
 46
0.0
 71
     1
 72
     1
  1
品番
  7
ＭＳ ゴシック
 73
     1
 44
0.7828267384257845
  0
MTEXT
  5
186
330
A
100
AcDbEntity
  8
TEMPLATE
390
1D
100
AcDbMText
 10
382.860643364397
 20
77.61952548942841
 30
0.0
 40
4.886523437499998
 41
0.0
 46
0.0
 71
     1
 72
     1
  1
重量
  7
ＭＳ ゴシック
 73
     1
 44
0.7828267384257845
  0
MTEXT
  5
187
330
A
100
AcDbEntity
  8
TEMPLATE
390
1D
100
AcDbMText
 10
398.760643364397
 20
94.54478720817844
 30
0.0
 40
7.329785156250001
 41
0.0
 46
7.329785156250001
 71
     1
 72
     1
  1
{FRF74-3103}
  7
ＭＳ ゴシック
 73
     1
 44
0.7828267384257845
1001
ACAD
1000
ACAD_MTEXT_DEFINED_HEIGHT_BEGIN
1070
    46
1040
7.329785156250001
1000
ACAD_MTEXT_DEFINED_HEIGHT_END
  0
LINE
  5
188
330
A
100
AcDbEntity
  8
TEMPLATE
390
1D
100
AcDbLine
 10
380.760643364397
 20
29.14400205192847
 30
0.0
 11
380.760643364397
 21
105.6440020519285
 31
0.0
  0
INSERT
  5
68C
330
A
100
AcDbEntity
  8
TEMPLATE
100
AcDbBlockReference
  2
block 2
 10
367.7097207081031
 20
3.349230605734546
 30
0.0
 41
0.1524
 42
0.1524
 43
0.1524
  0
LWPOLYLINE
  5
D69
330
A
100
AcDbEntity
  8
BORDER
100
AcDbPolyline
 90
        4
 70
     1
 43
0.0
 10
0.0
 20
0.0
 10
0.0
 20
891.0
 10
630.0
 20
891.0
 10
630.0
 20
0.0
  0
INSERT
  5
1343
330
A
100
AcDbEntity
  8
TEMPLATE
100
AcDbBlockReference
  2
block 2
 10
838.6973883465872
 20
9.774128564918273
 30
0.0
 41
0.1524
 42
0.1524
 43
0.1524
  0
MTEXT
  5
36AC
102
{ACAD_XDICTIONARY
360
36AE
102
}
330
A
100
AcDbEntity
  8
TEMPLATE
 48
0.05
100
AcDbMText
 10
22.06848147481188
 20
25.15049698669364
 30
0.0
 40
7.0
 41
0.0
 46
7.0
 71
     1
 72
     1
  1
{----M}
  7
ＭＳ ゴシック
 73
     1
 44
1.0
1001
ACAD
1000
ACAD_MTEXT_DEFINED_HEIGHT_BEGIN
1070
    46
1040
7.0
1000
ACAD_MTEXT_DEFINED_HEIGHT_END
  0
HATCH
  5
172F9
102
{ACAD_REACTORS
330
1730A
102
}
330
A
100
AcDbEntity
  8
TEMPLATE
100
AcDbHatch
 10
0.0
 20
0.0
 30
0.0
210
0.0
220
0.0
230
1.0
  2
SOLID
 70
     1
 71
     1
 91
        6
 92
        1
 93
        8
 72
     1
 10
580.3195574690817
 20
45.81237511424546
 11
580.3195574690817
 21
44.03955282504735
 72
     1
 10
580.3195574690817
 20
44.03955282504735
 11
577.5113800039879
 21
44.03955282504735
 72
     1
 10
577.5113800039879
 20
44.03955282504735
 11
577.5113800039879
 21
36.81237511467916
 72
     1
 10
577.5113800039879
 20
36.81237511467916
 11
575.0415960580052
 21
36.81237511467916
 72
     1
 10
575.0415960580052
 20
36.81237511467916
 11
575.0415960580052
 21
44.03955282504735
 72
     1
 10
575.0415960580052
 20
44.03955282504735
 11
572.2831856276421
 21
44.03955282504735
 72
     1
 10
572.2831856276421
 20
44.03955282504735
 11
572.2831856276421
 21
45.81237511424546
 72
     1
 10
572.2831856276421
 20
45.81237511424546
 11
580.3195574690817
 21
45.81237511424546
 97
        1
330
172FA
 92
        1
 93
        1
 72
     4
 94
        3
 73
     0
 74
     0
 95
       56
 96
       52
 40
0.0
 40
0.0
 40
0.0
 40
0.0
 40
1.0
 40
1.0
 40
1.0
 40
2.0
 40
2.0
 40
2.0
 40
3.0
 40
3.0
 40
3.0
 40
4.0
 40
4.0
 40
4.0
 40
5.0
 40
5.0
 40
5.0
 40
6.0
 40
6.0
 40
6.0
 40
7.0
 40
7.0
 40
7.0
 40
8.0
 40
8.0
 40
8.0
 40
9.0
 40
9.0
 40
9.0
 40
10.0
 40
10.0
 40
10.0
 40
11.0
 40
11.0
 40
11.0
 40
12.0
 40
12.0
 40
12.0
 40
13.0
 40
13.0
 40
13.0
 40
14.0
 40
14.0
 40
14.0
 40
15.0
 40
15.0
 40
15.0
 40
16.0
 40
16.0
 40
16.0
 40
17.0
 40
17.0
 40
17.0
 40
17.0
 10
584.0822130993691
 20
45.59806442612168
 10
584.4283729539446
 20
45.69550069232488
 10
584.875249681945
 20
45.61399880405779
 10
584.875249681945
 20
45.61399880405779
 10
584.875249681945
 20
45.61399880405779
 10
584.6605596038704
 20
44.96972771633077
 10
584.6605596038704
 20
44.96972771633077
 10
584.6605596038704
 20
44.96972771633077
 10
584.2218509183412
 20
45.07124800376956
 10
583.8834797162866
 20
44.80442528303579
 10
583.6205401632851
 20
44.59576081006296
 10
583.4501940753495
 20
44.04131587246591
 10
583.3848497355777
 20
43.83050896212374
 10
583.3848497355777
 20
43.83050896212374
 10
583.0935228874299
 20
42.93630916500407
 10
583.0935228874299
 20
42.93630916500407
 10
583.0935228874299
 20
42.93630916500407
 10
584.0487598325259
 20
42.93630916500407
 10
584.0487598325259
 20
42.93630916500407
 10
584.0487598325259
 20
42.93630916500407
 10
583.9001951911804
 20
42.37351764848811
 10
583.9001951911804
 20
42.37351764848811
 10
583.9001951911804
 20
42.37351764848811
 10
582.9371695935638
 20
42.37351764848811
 10
582.9371695935638
 20
42.37351764848811
 10
582.9371695935638
 20
42.37351764848811
 10
581.2141366561519
 20
36.81237511467916
 10
581.2141366561519
 20
36.81237511467916
 10
581.2141366561519
 20
36.81237511467916
 10
580.6746664630858
 20
36.81237511467916
 10
580.6746664630858
 20
36.81237511467916
 10
580.6746664630858
 20
36.81237511467916
 10
582.3992615944128
 20
42.37351764848811
 10
582.3992615944128
 20
42.37351764848811
 10
582.3992615944128
 20
42.37351764848811
 10
581.6886418993972
 20
42.37351764848811
 10
581.6886418993972
 20
42.37351764848811
 10
581.6886418993972
 20
42.37351764848811
 10
581.8376082477493
 20
42.93630916500407
 10
581.8376082477493
 20
42.93630916500407
 10
581.8376082477493
 20
42.93630916500407
 10
582.5556148882789
 20
42.93630916500407
 10
582.5556148882789
 20
42.93630916500407
 10
582.5556148882789
 20
42.93630916500407
 10
582.8095829847954
 20
43.71615636752356
 10
582.8095829847954
 20
43.71615636752356
 10
583.0149445334897
 20
44.36997915518984
 10
583.1891961062141
 20
44.72100412795849
 10
583.3385641615731
 20
44.98566209426688
 10
583.4863477059606
 20
45.25054323113452
 10
583.7788350410172
 20
45.51073778625616
 10
584.0822130993691
 20
45.59806442612168
 97
        0
 97
        1
330
17305
 92
        1
 93
        1
 72
     4
 94
        3
 73
     0
 74
     0
 95
       32
 96
       28
 40
0.0
 40
0.0
 40
0.0
 40
0.0
 40
1.0
 40
1.0
 40
1.0
 40
2.0
 40
2.0
 40
2.0
 40
3.0
 40
3.0
 40
3.0
 40
4.0
 40
4.0
 40
4.0
 40
5.0
 40
5.0
 40
5.0
 40
6.0
 40
6.0
 40
6.0
 40
7.0
 40
7.0
 40
7.0
 40
8.0
 40
8.0
 40
8.0
 40
9.0
 40
9.0
 40
9.0
 40
9.0
 10
585.394880012287
 20
42.5961972325865
 10
585.0701222143512
 20
42.17612328876155
 10
584.8200372855671
 20
41.79807236125814
 10
584.4151612568322
 20
40.60984535222242
 10
584.0429350809272
 20
39.52296009417805
 10
583.8060618492555
 20
38.73222216836346
 10
583.7702876085951
 20
37.76919657074652
 10
583.7430608003566
 20
37.05255127062911
 10
584.1794485120689
 20
36.81237511467916
 10
584.8192785056652
 20
36.81237511467916
 10
585.0950280487722
 20
36.81237511467916
 10
585.7908738527602
 20
36.82991632064247
 10
586.2864017626947
 20
37.44247487188884
 10
586.6332980801157
 20
37.87283697849896
 10
586.9530122234106
 20
38.3189549265978
 10
587.3816335996577
 20
39.78237355234213
 10
587.7383047875777
 20
41.00579455858404
 10
587.9852653285309
 20
41.79651016734281
 10
587.967009976778
 20
42.24671213667735
 10
587.967009976778
 20
42.24671213667735
 10
587.967009976778
 20
42.24671213667735
 10
587.967009976778
 20
42.24671213667735
 10
587.8506934812556
 20
42.99777033704319
 10
587.305398536591
 20
43.1564669217822
 10
586.9938524357677
 20
43.1564669217822
 10
586.6869929166901
 20
43.1564669217822
 10
585.8647433078982
 20
43.20955919784657
 10
585.394880012287
 20
42.5961972325865
 97
        0
 97
        1
330
17308
 92
        1
 93
        1
 72
     4
 94
        3
 73
     0
 74
     0
 95
       38
 96
       34
 40
0.0
 40
0.0
 40
0.0
 40
0.0
 40
1.0
 40
1.0
 40
1.0
 40
2.0
 40
2.0
 40
2.0
 40
3.0
 40
3.0
 40
3.0
 40
4.0
 40
4.0
 40
4.0
 40
5.0
 40
5.0
 40
5.0
 40
6.0
 40
6.0
 40
6.0
 40
7.0
 40
7.0
 40
7.0
 40
8.0
 40
8.0
 40
8.0
 40
9.0
 40
9.0
 40
9.0
 40
10.0
 40
10.0
 40
10.0
 40
11.0
 40
11.0
 40
11.0
 40
11.0
 10
589.9393467460162
 20
42.91472857191693
 10
589.9393467460162
 20
42.91472857191693
 10
590.4939702200607
 20
42.91472857191693
 10
590.4939702200607
 20
42.91472857191693
 10
590.4939702200607
 20
42.91472857191693
 10
590.2462062650937
 20
42.12146881878184
 10
590.2462062650937
 20
42.12146881878184
 10
590.4344729489438
 20
42.34414840288034
 10
590.7316022316344
 20
42.6407197591727
 10
590.9867754491711
 20
42.79026635097919
 10
591.3679507645053
 20
43.01294593507767
 10
591.5857652304103
 20
43.04231518068535
 10
591.8253165087942
 20
43.03646811203097
 10
591.8253165087942
 20
43.03646811203097
 10
591.591210592058
 20
42.28639186212602
 10
591.591210592058
 20
42.28639186212602
 10
591.4387404659245
 20
42.35095510493986
 10
590.9688771703129
 20
42.22805507791734
 10
590.6993317687555
 20
42.03416449597225
 10
590.4562543955343
 20
41.85933267979383
 10
590.2882069643594
 20
41.71056718494513
 10
590.0890941913261
 20
41.3365779616216
 10
589.8914989780961
 20
40.96203081189956
 10
589.7355473912369
 20
40.36480407807901
 10
589.4671624765877
 20
39.49841133265191
 10
589.4671624765877
 20
39.49841133265191
 10
588.6289784898597
 20
36.81237511467916
 10
588.6289784898597
 20
36.81237511467916
 10
588.6289784898597
 20
36.81237511467916
 10
588.0906911007581
 20
36.81237511467916
 10
588.0906911007581
 20
36.81237511467916
 10
588.0906911007581
 20
36.81237511467916
 10
589.9393467460162
 20
42.91472857191693
 10
589.9393467460162
 20
42.91472857191693
 97
        0
 97
        1
330
17306
 92
        1
 93
        1
 72
     4
 94
        3
 73
     0
 74
     0
 95
      104
 96
      100
 40
0.0
 40
0.0
 40
0.0
 40
0.0
 40
1.0
 40
1.0
 40
1.0
 40
2.0
 40
2.0
 40
2.0
 40
3.0
 40
3.0
 40
3.0
 40
4.0
 40
4.0
 40
4.0
 40
5.0
 40
5.0
 40
5.0
 40
6.0
 40
6.0
 40
6.0
 40
7.0
 40
7.0
 40
7.0
 40
8.0
 40
8.0
 40
8.0
 40
9.0
 40
9.0
 40
9.0
 40
10.0
 40
10.0
 40
10.0
 40
11.0
 40
11.0
 40
11.0
 40
12.0
 40
12.0
 40
12.0
 40
13.0
 40
13.0
 40
13.0
 40
14.0
 40
14.0
 40
14.0
 40
15.0
 40
15.0
 40
15.0
 40
16.0
 40
16.0
 40
16.0
 40
17.0
 40
17.0
 40
17.0
 40
18.0
 40
18.0
 40
18.0
 40
19.0
 40
19.0
 40
19.0
 40
20.0
 40
20.0
 40
20.0
 40
21.0
 40
21.0
 40
21.0
 40
22.0
 40
22.0
 40
22.0
 40
23.0
 40
23.0
 40
23.0
 40
24.0
 40
24.0
 40
24.0
 40
25.0
 40
25.0
 40
25.0
 40
26.0
 40
26.0
 40
26.0
 40
27.0
 40
27.0
 40
27.0
 40
28.0
 40
28.0
 40
28.0
 40
29.0
 40
29.0
 40
29.0
 40
30.0
 40
30.0
 40
30.0
 40
31.0
 40
31.0
 40
31.0
 40
32.0
 40
32.0
 40
32.0
 40
33.0
 40
33.0
 40
33.0
 40
33.0
 10
592.9921860953021
 20
42.91803149619497
 10
592.9921860953021
 20
42.91803149619497
 10
593.4764215749342
 20
42.91803149619497
 10
593.4764215749342
 20
42.91803149619497
 10
593.4764215749342
 20
42.91803149619497
 10
593.2317820077977
 20
42.12401296315815
 10
593.2317820077977
 20
42.12401296315815
 10
593.4441064779437
 20
42.4569388035653
 10
593.6346941356106
 20
42.6053249084632
 10
593.8879034522252
 20
42.79707305303871
 10
594.1418715487417
 20
42.9860985167904
 10
594.4433303402832
 20
43.02461775533059
 10
594.6525750567102
 20
43.02461775533059
 10
594.9116314419795
 20
43.02461775533059
 10
595.1617163707637
 20
42.97346706313235
 10
595.2931638302082
 20
42.68952716049803
 10
595.3939030206897
 20
42.46686989345536
 10
595.3985896024351
 20
42.44060271862234
 10
595.369800600282
 20
42.0010906190797
 10
595.6330972261784
 20
42.451694295421
 10
595.8275680515779
 20
42.64578573086949
 10
596.1581729181679
 20
42.83226705024477
 10
596.5051138697007
 20
43.02461775533059
 10
596.7073510305647
 20
43.03901225640728
 10
596.9423049954265
 20
43.00437618559953
 10
597.2884425329456
 20
42.9532478104571
 10
597.5093813866816
 20
42.8297452229244
 10
597.6248944681901
 20
42.45441697624481
 10
597.7408092567058
 20
42.08024921647378
 10
597.678187597758
 20
41.87955193246918
 10
597.5350460010043
 20
41.28388739256386
 10
597.4697016612327
 20
41.01260126064356
 10
597.3751666123011
 20
40.68411651436711
 10
597.2514854883208
 20
40.29325559675824
 10
597.2514854883208
 20
40.29325559675824
 10
596.1581729181679
 20
36.81237511467916
 10
596.1581729181679
 20
36.81237511467916
 10
596.1581729181679
 20
36.81237511467916
 10
595.5895343329975
 20
36.81237511467916
 10
595.5895343329975
 20
36.81237511467916
 10
595.5895343329975
 20
36.81237511467916
 10
596.5467574960716
 20
39.85548422757835
 10
596.5467574960716
 20
39.85548422757835
 10
596.7466736831187
 20
40.49218983334411
 10
596.8820043102957
 20
40.95716569370618
 10
596.9520352318129
 20
41.24869339535778
 10
597.0399197980767
 20
41.61234982178448
 10
597.0749129417797
 20
41.73234863153571
 10
597.0333139495209
 20
41.99702891489992
 10
596.9951964179876
 20
42.24340921239921
 10
596.8707118799938
 20
42.4038465275009
 10
596.6575839958343
 20
42.4038465275009
 10
596.4304410005492
 20
42.4038465275009
 10
596.2464591914383
 20
42.37856130312887
 10
595.9890096341962
 20
42.11992894192245
 10
595.7315154428426
 20
41.85933267979383
 10
595.5187446315782
 20
41.55343279412156
 10
595.3519023214237
 20
41.20162672439525
 10
595.1854170841643
 20
40.8476782172995
 10
595.0166108730877
 20
40.39903844188015
 10
594.8454836881942
 20
39.85548422757835
 10
594.8454836881942
 20
39.85548422757835
 10
593.8879034522252
 20
36.81237511467916
 10
593.8879034522252
 20
36.81237511467916
 10
593.8879034522252
 20
36.81237511467916
 10
593.3530975238491
 20
36.81237511467916
 10
593.3530975238491
 20
36.81237511467916
 10
593.3530975238491
 20
36.81237511467916
 10
594.4479722879174
 20
40.29169340284293
 10
594.4479722879174
 20
40.29169340284293
 10
594.5634853694261
 20
40.66197799488166
 10
594.6502540828931
 20
40.96379385931832
 10
594.7074303801932
 20
41.19968514052912
 10
594.804643475837
 20
41.60574397322828
 10
594.8318702840752
 20
41.88033302942674
 10
594.7583579018322
 20
42.12401296315815
 10
594.6860060064977
 20
42.36691179993202
 10
594.5588434217921
 20
42.42895321542549
 10
594.3464743175346
 20
42.42895321542549
 10
594.168339577078
 20
42.42895321542549
 10
593.9944897113607
 20
42.3525172988552
 10
593.7961357182293
 20
42.20042656267251
 10
593.5464078623398
 20
42.00908012510374
 10
593.4464720858723
 20
41.85194573428018
 10
593.3239514488007
 20
41.66524124434543
 10
593.1586266984497
 20
41.41825838633597
 10
593.0812311484743
 20
41.25199631963583
 10
592.941615646558
 20
40.8871570892447
 10
592.8019555105301
 20
40.52017542148403
 10
592.6697492711836
 20
40.09311623915196
 10
592.5775351960687
 20
39.7977276868239
 10
592.5775351960687
 20
39.7977276868239
 10
591.6382549459647
 20
36.81237511467916
 10
591.6382549459647
 20
36.81237511467916
 10
591.6382549459647
 20
36.81237511467916
 10
591.0781861102722
 20
36.81237511467916
 10
591.0781861102722
 20
36.81237511467916
 10
591.0781861102722
 20
36.81237511467916
 10
592.9921860953021
 20
42.91803149619497
 10
592.9921860953021
 20
42.91803149619497
 97
        0
 97
        1
330
17307
 92
       16
 93
        1
 72
     4
 94
        3
 73
     0
 74
     0
 95
       29
 96
       25
 40
0.0
 40
0.0
 40
0.0
 40
0.0
 40
1.0
 40
1.0
 40
1.0
 40
2.0
 40
2.0
 40
2.0
 40
3.0
 40
3.0
 40
3.0
 40
4.0
 40
4.0
 40
4.0
 40
5.0
 40
5.0
 40
5.0
 40
6.0
 40
6.0
 40
6.0
 40
7.0
 40
7.0
 40
7.0
 40
8.0
 40
8.0
 40
8.0
 40
8.0
 10
584.3513791109763
 20
37.94925057801331
 10
584.3490135030472
 20
38.37439049353518
 10
584.4832282774278
 20
39.12973356864029
 10
584.82704484113
 20
40.1403837636178
 10
585.2953459428261
 20
41.50888795047953
 10
585.5761837746857
 20
42.00908012510374
 10
585.8219391946189
 20
42.25255920533161
 10
586.1809759904676
 20
42.60708795588196
 10
586.6636492761844
 20
42.62476306418077
 10
586.8060320930363
 20
42.60708795588196
 10
587.0086709609071
 20
42.58276236491495
 10
587.2949095203023
 20
42.45013210150577
 10
587.3120043851471
 20
42.00363476345613
 10
587.3256624233778
 20
41.621499814717
 10
587.2155500694051
 20
40.90583646506057
 10
586.8301345134438
 20
39.78237355234213
 10
586.3859358321552
 20
38.47687041437903
 10
586.1191131114212
 20
37.96366739614585
 10
585.9052264473606
 20
37.74000586158636
 10
585.5022696854359
 20
37.32071301471897
 10
585.0701222143512
 20
37.36097298362186
 10
585.0063400684948
 20
37.36097298362186
 10
584.923499156872
 20
37.36097298362186
 10
584.3525395978846
 20
37.45086608491963
 10
584.3513791109763
 20
37.94925057801331
 97
        0
 97
        1
330
17309
 75
     0
 76
     1
 98
        1
 10
557.7769876859738
 20
21.56103299246715
450
        0
451
        0
460
0.0
461
0.0
452
        0
462
0.0
453
        0
470

1001
ACAD
1010
0.0
1020
0.0
1030
0.0
  0
POLYLINE
  5
172FA
102
{ACAD_REACTORS
330
172F9
330
1730A
102
}
330
A
100
AcDbEntity
  8
TEMPLATE
100
AcDb2dPolyline
 66
     1
 10
0.0
 20
0.0
 30
0.0
  0
VERTEX
  5
172FB
330
172FA
100
AcDbEntity
  8
TEMPLATE
100
AcDbVertex
100
AcDb2dVertex
 10
580.3195574690817
 20
45.81237511424546
 30
0.0
  0
VERTEX
  5
172FC
330
172FA
100
AcDbEntity
  8
TEMPLATE
100
AcDbVertex
100
AcDb2dVertex
 10
580.3195574690817
 20
44.03955282504735
 30
0.0
  0
VERTEX
  5
172FD
330
172FA
100
AcDbEntity
  8
TEMPLATE
100
AcDbVertex
100
AcDb2dVertex
 10
577.5113800039879
 20
44.03955282504735
 30
0.0
  0
VERTEX
  5
172FE
330
172FA
100
AcDbEntity
  8
TEMPLATE
100
AcDbVertex
100
AcDb2dVertex
 10
577.5113800039879
 20
36.81237511467916
 30
0.0
  0
VERTEX
  5
172FF
330
172FA
100
AcDbEntity
  8
TEMPLATE
100
AcDbVertex
100
AcDb2dVertex
 10
575.0415960580052
 20
36.81237511467916
 30
0.0
  0
VERTEX
  5
17300
330
172FA
100
AcDbEntity
  8
TEMPLATE
100
AcDbVertex
100
AcDb2dVertex
 10
575.0415960580052
 20
44.03955282504735
 30
0.0
  0
VERTEX
  5
17301
330
172FA
100
AcDbEntity
  8
TEMPLATE
100
AcDbVertex
100
AcDb2dVertex
 10
572.2831856276421
 20
44.03955282504735
 30
0.0
  0
VERTEX
  5
17302
330
172FA
100
AcDbEntity
  8
TEMPLATE
100
AcDbVertex
100
AcDb2dVertex
 10
572.2831856276421
 20
45.81237511424546
 30
0.0
  0
VERTEX
  5
17303
330
172FA
100
AcDbEntity
  8
TEMPLATE
100
AcDbVertex
100
AcDb2dVertex
 10
580.3195574690817
 20
45.81237511424546
 30
0.0
  0
SEQEND
  5
17304
330
172FA
100
AcDbEntity
  8
TEMPLATE
  0
SPLINE
  5
17305
102
{ACAD_REACTORS
330
172F9
330
1730A
102
}
330
A
100
AcDbEntity
  8
TEMPLATE
100
AcDbSpline
210
0.0
220
0.0
230
1.0
 70
     9
 71
     3
 72
    56
 73
    52
 74
     0
 42
0.000000001
 43
0.0000000001
 40
0.0
 40
0.0
 40
0.0
 40
0.0
 40
1.0
 40
1.0
 40
1.0
 40
2.0
 40
2.0
 40
2.0
 40
3.0
 40
3.0
 40
3.0
 40
4.0
 40
4.0
 40
4.0
 40
5.0
 40
5.0
 40
5.0
 40
6.0
 40
6.0
 40
6.0
 40
7.0
 40
7.0
 40
7.0
 40
8.0
 40
8.0
 40
8.0
 40
9.0
 40
9.0
 40
9.0
 40
10.0
 40
10.0
 40
10.0
 40
11.0
 40
11.0
 40
11.0
 40
12.0
 40
12.0
 40
12.0
 40
13.0
 40
13.0
 40
13.0
 40
14.0
 40
14.0
 40
14.0
 40
15.0
 40
15.0
 40
15.0
 40
16.0
 40
16.0
 40
16.0
 40
17.0
 40
17.0
 40
17.0
 40
17.0
 10
584.0822130993691
 20
45.59806442612168
 30
0.0
 10
584.4283729539446
 20
45.69550069232488
 30
0.0
 10
584.875249681945
 20
45.61399880405779
 30
0.0
 10
584.875249681945
 20
45.61399880405779
 30
0.0
 10
584.875249681945
 20
45.61399880405779
 30
0.0
 10
584.6605596038704
 20
44.96972771633077
 30
0.0
 10
584.6605596038704
 20
44.96972771633077
 30
0.0
 10
584.6605596038704
 20
44.96972771633077
 30
0.0
 10
584.2218509183412
 20
45.07124800376956
 30
0.0
 10
583.8834797162866
 20
44.80442528303579
 30
0.0
 10
583.6205401632851
 20
44.59576081006296
 30
0.0
 10
583.4501940753495
 20
44.04131587246591
 30
0.0
 10
583.3848497355777
 20
43.83050896212374
 30
0.0
 10
583.3848497355777
 20
43.83050896212374
 30
0.0
 10
583.0935228874299
 20
42.93630916500407
 30
0.0
 10
583.0935228874299
 20
42.93630916500407
 30
0.0
 10
583.0935228874299
 20
42.93630916500407
 30
0.0
 10
584.0487598325259
 20
42.93630916500407
 30
0.0
 10
584.0487598325259
 20
42.93630916500407
 30
0.0
 10
584.0487598325259
 20
42.93630916500407
 30
0.0
 10
583.9001951911804
 20
42.37351764848811
 30
0.0
 10
583.9001951911804
 20
42.37351764848811
 30
0.0
 10
583.9001951911804
 20
42.37351764848811
 30
0.0
 10
582.9371695935638
 20
42.37351764848811
 30
0.0
 10
582.9371695935638
 20
42.37351764848811
 30
0.0
 10
582.9371695935638
 20
42.37351764848811
 30
0.0
 10
581.2141366561519
 20
36.81237511467916
 30
0.0
 10
581.2141366561519
 20
36.81237511467916
 30
0.0
 10
581.2141366561519
 20
36.81237511467916
 30
0.0
 10
580.6746664630858
 20
36.81237511467916
 30
0.0
 10
580.6746664630858
 20
36.81237511467916
 30
0.0
 10
580.6746664630858
 20
36.81237511467916
 30
0.0
 10
582.3992615944128
 20
42.37351764848811
 30
0.0
 10
582.3992615944128
 20
42.37351764848811
 30
0.0
 10
582.3992615944128
 20
42.37351764848811
 30
0.0
 10
581.6886418993972
 20
42.37351764848811
 30
0.0
 10
581.6886418993972
 20
42.37351764848811
 30
0.0
 10
581.6886418993972
 20
42.37351764848811
 30
0.0
 10
581.8376082477493
 20
42.93630916500407
 30
0.0
 10
581.8376082477493
 20
42.93630916500407
 30
0.0
 10
581.8376082477493
 20
42.93630916500407
 30
0.0
 10
582.5556148882789
 20
42.93630916500407
 30
0.0
 10
582.5556148882789
 20
42.93630916500407
 30
0.0
 10
582.5556148882789
 20
42.93630916500407
 30
0.0
 10
582.8095829847954
 20
43.71615636752356
 30
0.0
 10
582.8095829847954
 20
43.71615636752356
 30
0.0
 10
583.0149445334897
 20
44.36997915518984
 30
0.0
 10
583.1891961062141
 20
44.72100412795849
 30
0.0
 10
583.3385641615731
 20
44.98566209426688
 30
0.0
 10
583.4863477059606
 20
45.25054323113452
 30
0.0
 10
583.7788350410172
 20
45.51073778625616
 30
0.0
 10
584.0822130993691
 20
45.59806442612168
 30
0.0
  0
SPLINE
  5
17306
102
{ACAD_REACTORS
330
172F9
330
1730A
102
}
330
A
100
AcDbEntity
  8
TEMPLATE
100
AcDbSpline
210
0.0
220
0.0
230
1.0
 70
    11
 71
     3
 72
    38
 73
    34
 74
     0
 42
0.000000001
 43
0.0000000001
 40
0.0
 40
0.0
 40
0.0
 40
0.0
 40
1.0
 40
1.0
 40
1.0
 40
2.0
 40
2.0
 40
2.0
 40
3.0
 40
3.0
 40
3.0
 40
4.0
 40
4.0
 40
4.0
 40
5.0
 40
5.0
 40
5.0
 40
6.0
 40
6.0
 40
6.0
 40
7.0
 40
7.0
 40
7.0
 40
8.0
 40
8.0
 40
8.0
 40
9.0
 40
9.0
 40
9.0
 40
10.0
 40
10.0
 40
10.0
 40
11.0
 40
11.0
 40
11.0
 40
11.0
 10
589.9393467460162
 20
42.91472857191693
 30
0.0
 10
589.9393467460162
 20
42.91472857191693
 30
0.0
 10
590.4939702200607
 20
42.91472857191693
 30
0.0
 10
590.4939702200607
 20
42.91472857191693
 30
0.0
 10
590.4939702200607
 20
42.91472857191693
 30
0.0
 10
590.2462062650937
 20
42.12146881878184
 30
0.0
 10
590.2462062650937
 20
42.12146881878184
 30
0.0
 10
590.4344729489438
 20
42.34414840288034
 30
0.0
 10
590.7316022316344
 20
42.6407197591727
 30
0.0
 10
590.9867754491711
 20
42.79026635097919
 30
0.0
 10
591.3679507645053
 20
43.01294593507767
 30
0.0
 10
591.5857652304103
 20
43.04231518068535
 30
0.0
 10
591.8253165087942
 20
43.03646811203097
 30
0.0
 10
591.8253165087942
 20
43.03646811203097
 30
0.0
 10
591.591210592058
 20
42.28639186212602
 30
0.0
 10
591.591210592058
 20
42.28639186212602
 30
0.0
 10
591.4387404659245
 20
42.35095510493986
 30
0.0
 10
590.9688771703129
 20
42.22805507791734
 30
0.0
 10
590.6993317687555
 20
42.03416449597225
 30
0.0
 10
590.4562543955343
 20
41.85933267979383
 30
0.0
 10
590.2882069643594
 20
41.71056718494513
 30
0.0
 10
590.0890941913261
 20
41.3365779616216
 30
0.0
 10
589.8914989780961
 20
40.96203081189956
 30
0.0
 10
589.7355473912369
 20
40.36480407807901
 30
0.0
 10
589.4671624765877
 20
39.49841133265191
 30
0.0
 10
589.4671624765877
 20
39.49841133265191
 30
0.0
 10
588.6289784898597
 20
36.81237511467916
 30
0.0
 10
588.6289784898597
 20
36.81237511467916
 30
0.0
 10
588.6289784898597
 20
36.81237511467916
 30
0.0
 10
588.0906911007581
 20
36.81237511467916
 30
0.0
 10
588.0906911007581
 20
36.81237511467916
 30
0.0
 10
588.0906911007581
 20
36.81237511467916
 30
0.0
 10
589.9393467460162
 20
42.91472857191693
 30
0.0
 10
589.9393467460162
 20
42.91472857191693
 30
0.0
  0
SPLINE
  5
17307
102
{ACAD_REACTORS
330
172F9
330
1730A
102
}
330
A
100
AcDbEntity
  8
TEMPLATE
100
AcDbSpline
210
0.0
220
0.0
230
1.0
 70
    11
 71
     3
 72
   104
 73
   100
 74
     0
 42
0.000000001
 43
0.0000000001
 40
0.0
 40
0.0
 40
0.0
 40
0.0
 40
1.0
 40
1.0
 40
1.0
 40
2.0
 40
2.0
 40
2.0
 40
3.0
 40
3.0
 40
3.0
 40
4.0
 40
4.0
 40
4.0
 40
5.0
 40
5.0
 40
5.0
 40
6.0
 40
6.0
 40
6.0
 40
7.0
 40
7.0
 40
7.0
 40
8.0
 40
8.0
 40
8.0
 40
9.0
 40
9.0
 40
9.0
 40
10.0
 40
10.0
 40
10.0
 40
11.0
 40
11.0
 40
11.0
 40
12.0
 40
12.0
 40
12.0
 40
13.0
 40
13.0
 40
13.0
 40
14.0
 40
14.0
 40
14.0
 40
15.0
 40
15.0
 40
15.0
 40
16.0
 40
16.0
 40
16.0
 40
17.0
 40
17.0
 40
17.0
 40
18.0
 40
18.0
 40
18.0
 40
19.0
 40
19.0
 40
19.0
 40
20.0
 40
20.0
 40
20.0
 40
21.0
 40
21.0
 40
21.0
 40
22.0
 40
22.0
 40
22.0
 40
23.0
 40
23.0
 40
23.0
 40
24.0
 40
24.0
 40
24.0
 40
25.0
 40
25.0
 40
25.0
 40
26.0
 40
26.0
 40
26.0
 40
27.0
 40
27.0
 40
27.0
 40
28.0
 40
28.0
 40
28.0
 40
29.0
 40
29.0
 40
29.0
 40
30.0
 40
30.0
 40
30.0
 40
31.0
 40
31.0
 40
31.0
 40
32.0
 40
32.0
 40
32.0
 40
33.0
 40
33.0
 40
33.0
 40
33.0
 10
592.9921860953021
 20
42.91803149619497
 30
0.0
 10
592.9921860953021
 20
42.91803149619497
 30
0.0
 10
593.4764215749342
 20
42.91803149619497
 30
0.0
 10
593.4764215749342
 20
42.91803149619497
 30
0.0
 10
593.4764215749342
 20
42.91803149619497
 30
0.0
 10
593.2317820077977
 20
42.12401296315815
 30
0.0
 10
593.2317820077977
 20
42.12401296315815
 30
0.0
 10
593.4441064779437
 20
42.4569388035653
 30
0.0
 10
593.6346941356106
 20
42.6053249084632
 30
0.0
 10
593.8879034522252
 20
42.79707305303871
 30
0.0
 10
594.1418715487417
 20
42.9860985167904
 30
0.0
 10
594.4433303402832
 20
43.02461775533059
 30
0.0
 10
594.6525750567102
 20
43.02461775533059
 30
0.0
 10
594.9116314419795
 20
43.02461775533059
 30
0.0
 10
595.1617163707637
 20
42.97346706313235
 30
0.0
 10
595.2931638302082
 20
42.68952716049803
 30
0.0
 10
595.3939030206897
 20
42.46686989345536
 30
0.0
 10
595.3985896024351
 20
42.44060271862234
 30
0.0
 10
595.369800600282
 20
42.0010906190797
 30
0.0
 10
595.6330972261784
 20
42.451694295421
 30
0.0
 10
595.8275680515779
 20
42.64578573086949
 30
0.0
 10
596.1581729181679
 20
42.83226705024477
 30
0.0
 10
596.5051138697007
 20
43.02461775533059
 30
0.0
 10
596.7073510305647
 20
43.03901225640728
 30
0.0
 10
596.9423049954265
 20
43.00437618559953
 30
0.0
 10
597.2884425329456
 20
42.9532478104571
 30
0.0
 10
597.5093813866816
 20
42.8297452229244
 30
0.0
 10
597.6248944681901
 20
42.45441697624481
 30
0.0
 10
597.7408092567058
 20
42.08024921647378
 30
0.0
 10
597.678187597758
 20
41.87955193246918
 30
0.0
 10
597.5350460010043
 20
41.28388739256386
 30
0.0
 10
597.4697016612327
 20
41.01260126064356
 30
0.0
 10
597.3751666123011
 20
40.68411651436711
 30
0.0
 10
597.2514854883208
 20
40.29325559675824
 30
0.0
 10
597.2514854883208
 20
40.29325559675824
 30
0.0
 10
596.1581729181679
 20
36.81237511467916
 30
0.0
 10
596.1581729181679
 20
36.81237511467916
 30
0.0
 10
596.1581729181679
 20
36.81237511467916
 30
0.0
 10
595.5895343329975
 20
36.81237511467916
 30
0.0
 10
595.5895343329975
 20
36.81237511467916
 30
0.0
 10
595.5895343329975
 20
36.81237511467916
 30
0.0
 10
596.5467574960716
 20
39.85548422757835
 30
0.0
 10
596.5467574960716
 20
39.85548422757835
 30
0.0
 10
596.7466736831187
 20
40.49218983334411
 30
0.0
 10
596.8820043102957
 20
40.95716569370618
 30
0.0
 10
596.9520352318129
 20
41.24869339535778
 30
0.0
 10
597.0399197980767
 20
41.61234982178448
 30
0.0
 10
597.0749129417797
 20
41.73234863153571
 30
0.0
 10
597.0333139495209
 20
41.99702891489992
 30
0.0
 10
596.9951964179876
 20
42.24340921239921
 30
0.0
 10
596.8707118799938
 20
42.4038465275009
 30
0.0
 10
596.6575839958343
 20
42.4038465275009
 30
0.0
 10
596.4304410005492
 20
42.4038465275009
 30
0.0
 10
596.2464591914383
 20
42.37856130312887
 30
0.0
 10
595.9890096341962
 20
42.11992894192245
 30
0.0
 10
595.7315154428426
 20
41.85933267979383
 30
0.0
 10
595.5187446315782
 20
41.55343279412156
 30
0.0
 10
595.3519023214237
 20
41.20162672439525
 30
0.0
 10
595.1854170841643
 20
40.8476782172995
 30
0.0
 10
595.0166108730877
 20
40.39903844188015
 30
0.0
 10
594.8454836881942
 20
39.85548422757835
 30
0.0
 10
594.8454836881942
 20
39.85548422757835
 30
0.0
 10
593.8879034522252
 20
36.81237511467916
 30
0.0
 10
593.8879034522252
 20
36.81237511467916
 30
0.0
 10
593.8879034522252
 20
36.81237511467916
 30
0.0
 10
593.3530975238491
 20
36.81237511467916
 30
0.0
 10
593.3530975238491
 20
36.81237511467916
 30
0.0
 10
593.3530975238491
 20
36.81237511467916
 30
0.0
 10
594.4479722879174
 20
40.29169340284293
 30
0.0
 10
594.4479722879174
 20
40.29169340284293
 30
0.0
 10
594.5634853694261
 20
40.66197799488166
 30
0.0
 10
594.6502540828931
 20
40.96379385931832
 30
0.0
 10
594.7074303801932
 20
41.19968514052912
 30
0.0
 10
594.804643475837
 20
41.60574397322828
 30
0.0
 10
594.8318702840752
 20
41.88033302942674
 30
0.0
 10
594.7583579018322
 20
42.12401296315815
 30
0.0
 10
594.6860060064977
 20
42.36691179993202
 30
0.0
 10
594.5588434217921
 20
42.42895321542549
 30
0.0
 10
594.3464743175346
 20
42.42895321542549
 30
0.0
 10
594.168339577078
 20
42.42895321542549
 30
0.0
 10
593.9944897113607
 20
42.3525172988552
 30
0.0
 10
593.7961357182293
 20
42.20042656267251
 30
0.0
 10
593.5464078623398
 20
42.00908012510374
 30
0.0
 10
593.4464720858723
 20
41.85194573428018
 30
0.0
 10
593.3239514488007
 20
41.66524124434543
 30
0.0
 10
593.1586266984497
 20
41.41825838633597
 30
0.0
 10
593.0812311484743
 20
41.25199631963583
 30
0.0
 10
592.941615646558
 20
40.8871570892447
 30
0.0
 10
592.8019555105301
 20
40.52017542148403
 30
0.0
 10
592.6697492711836
 20
40.09311623915196
 30
0.0
 10
592.5775351960687
 20
39.7977276868239
 30
0.0
 10
592.5775351960687
 20
39.7977276868239
 30
0.0
 10
591.6382549459647
 20
36.81237511467916
 30
0.0
 10
591.6382549459647
 20
36.81237511467916
 30
0.0
 10
591.6382549459647
 20
36.81237511467916
 30
0.0
 10
591.0781861102722
 20
36.81237511467916
 30
0.0
 10
591.0781861102722
 20
36.81237511467916
 30
0.0
 10
591.0781861102722
 20
36.81237511467916
 30
0.0
 10
592.9921860953021
 20
42.91803149619497
 30
0.0
 10
592.9921860953021
 20
42.91803149619497
 30
0.0
  0
SPLINE
  5
17308
102
{ACAD_REACTORS
330
172F9
330
1730A
102
}
330
A
100
AcDbEntity
  8
TEMPLATE
100
AcDbSpline
210
0.0
220
0.0
230
1.0
 70
     9
 71
     3
 72
    32
 73
    28
 74
     0
 42
0.000000001
 43
0.0000000001
 40
0.0
 40
0.0
 40
0.0
 40
0.0
 40
1.0
 40
1.0
 40
1.0
 40
2.0
 40
2.0
 40
2.0
 40
3.0
 40
3.0
 40
3.0
 40
4.0
 40
4.0
 40
4.0
 40
5.0
 40
5.0
 40
5.0
 40
6.0
 40
6.0
 40
6.0
 40
7.0
 40
7.0
 40
7.0
 40
8.0
 40
8.0
 40
8.0
 40
9.0
 40
9.0
 40
9.0
 40
9.0
 10
585.394880012287
 20
42.5961972325865
 30
0.0
 10
585.0701222143512
 20
42.17612328876155
 30
0.0
 10
584.8200372855671
 20
41.79807236125814
 30
0.0
 10
584.4151612568322
 20
40.60984535222242
 30
0.0
 10
584.0429350809272
 20
39.52296009417805
 30
0.0
 10
583.8060618492555
 20
38.73222216836346
 30
0.0
 10
583.7702876085951
 20
37.76919657074652
 30
0.0
 10
583.7430608003566
 20
37.05255127062911
 30
0.0
 10
584.1794485120689
 20
36.81237511467916
 30
0.0
 10
584.8192785056652
 20
36.81237511467916
 30
0.0
 10
585.0950280487722
 20
36.81237511467916
 30
0.0
 10
585.7908738527602
 20
36.82991632064247
 30
0.0
 10
586.2864017626947
 20
37.44247487188884
 30
0.0
 10
586.6332980801157
 20
37.87283697849896
 30
0.0
 10
586.9530122234106
 20
38.3189549265978
 30
0.0
 10
587.3816335996577
 20
39.78237355234213
 30
0.0
 10
587.7383047875777
 20
41.00579455858404
 30
0.0
 10
587.9852653285309
 20
41.79651016734281
 30
0.0
 10
587.967009976778
 20
42.24671213667735
 30
0.0
 10
587.967009976778
 20
42.24671213667735
 30
0.0
 10
587.967009976778
 20
42.24671213667735
 30
0.0
 10
587.967009976778
 20
42.24671213667735
 30
0.0
 10
587.8506934812556
 20
42.99777033704319
 30
0.0
 10
587.305398536591
 20
43.1564669217822
 30
0.0
 10
586.9938524357677
 20
43.1564669217822
 30
0.0
 10
586.6869929166901
 20
43.1564669217822
 30
0.0
 10
585.8647433078982
 20
43.20955919784657
 30
0.0
 10
585.394880012287
 20
42.5961972325865
 30
0.0
  0
SPLINE
  5
17309
102
{ACAD_REACTORS
330
172F9
330
1730A
102
}
330
A
100
AcDbEntity
  8
TEMPLATE
100
AcDbSpline
210
0.0
220
0.0
230
1.0
 70
     9
 71
     3
 72
    29
 73
    25
 74
     0
 42
0.000000001
 43
0.0000000001
 40
0.0
 40
0.0
 40
0.0
 40
0.0
 40
1.0
 40
1.0
 40
1.0
 40
2.0
 40
2.0
 40
2.0
 40
3.0
 40
3.0
 40
3.0
 40
4.0
 40
4.0
 40
4.0
 40
5.0
 40
5.0
 40
5.0
 40
6.0
 40
6.0
 40
6.0
 40
7.0
 40
7.0
 40
7.0
 40
8.0
 40
8.0
 40
8.0
 40
8.0
 10
584.3513791109763
 20
37.94925057801331
 30
0.0
 10
584.3490135030472
 20
38.37439049353518
 30
0.0
 10
584.4832282774278
 20
39.12973356864029
 30
0.0
 10
584.82704484113
 20
40.1403837636178
 30
0.0
 10
585.2953459428261
 20
41.50888795047953
 30
0.0
 10
585.5761837746857
 20
42.00908012510374
 30
0.0
 10
585.8219391946189
 20
42.25255920533161
 30
0.0
 10
586.1809759904676
 20
42.60708795588196
 30
0.0
 10
586.6636492761844
 20
42.62476306418077
 30
0.0
 10
586.8060320930363
 20
42.60708795588196
 30
0.0
 10
587.0086709609071
 20
42.58276236491495
 30
0.0
 10
587.2949095203023
 20
42.45013210150577
 30
0.0
 10
587.3120043851471
 20
42.00363476345613
 30
0.0
 10
587.3256624233778
 20
41.621499814717
 30
0.0
 10
587.2155500694051
 20
40.90583646506057
 30
0.0
 10
586.8301345134438
 20
39.78237355234213
 30
0.0
 10
586.3859358321552
 20
38.47687041437903
 30
0.0
 10
586.1191131114212
 20
37.96366739614585
 30
0.0
 10
585.9052264473606
 20
37.74000586158636
 30
0.0
 10
585.5022696854359
 20
37.32071301471897
 30
0.0
 10
585.0701222143512
 20
37.36097298362186
 30
0.0
 10
585.0063400684948
 20
37.36097298362186
 30
0.0
 10
584.923499156872
 20
37.36097298362186
 30
0.0
 10
584.3525395978846
 20
37.45086608491963
 30
0.0
 10
584.3513791109763
 20
37.94925057801331
 30
0.0
  0
ARC
  5
17602
330
A
100
AcDbEntity
  8
0
  6
Continuous
 62
     7
370
    15
100
AcDbCircle
 10
263.2764148242098
 20
535.0043025621143
 30
0.0
 40
76.0000000000001
100
AcDbArc
 50
96.10570385349449
 51
84.25239360278348
  0
ARC
  5
17603
330
A
100
AcDbEntity
  8
0
  6
Continuous
 62
     7
370
    15
100
AcDbCircle
 10
263.2764148242098
 20
535.0043025621143
 30
0.0
 40
84.00000000000007
100
AcDbArc
 50
95.8164538763798
 51
84.54164357989819
  0
LINE
  5
17604
330
A
100
AcDbEntity
  8
0
  6
Continuous
 62
     7
370
    15
100
AcDbLine
 10
260.73713343056
 20
593.1237360543502
 30
0.0
 11
261.0995487362053
 21
592.7864706099037
 31
0.0
  0
LINE
  5
17605
330
A
100
AcDbEntity
  8
0
  6
Continuous
 62
     7
370
    15
100
AcDbLine
 10
264.9532809122144
 20
592.7864706099037
 30
0.0
 11
265.3156962178597
 21
593.1237360543502
 31
0.0
  0
LINE
  5
17606
330
A
100
AcDbEntity
  8
0
  6
Continuous
 62
     7
370
    15
100
AcDbLine
 10
260.2764148242098
 20
593.1768542458319
 30
0.0
 11
260.2764148242098
 21
593.1756745259636
 31
0.0
  0
LINE
  5
17607
330
A
100
AcDbEntity
  8
0
  6
Continuous
 62
     7
370
    15
100
AcDbLine
 10
265.7764148242098
 20
593.1751163410606
 30
0.0
 11
265.7764148242098
 21
593.1768542458319
 31
0.0
  0
CIRCLE
  5
17608
330
A
100
AcDbEntity
  8
0
  6
Continuous
 62
     7
370
    15
100
AcDbCircle
 10
263.0264148242098
 20
615.0043025621146
 30
0.0
 40
9.000000000000042
  0
LWPOLYLINE
  5
17609
330
A
100
AcDbEntity
  8
0
  6
Continuous
 62
     7
370
    15
100
AcDbPolyline
 90
        9
 70
   128
 43
0.0
 10
262.5380365285679
 20
592.4232033640837
 10
263.1313982744276
 20
592.4082468649977
 10
263.7154317800231
 20
592.4392213720598
 10
264.2382431053934
 20
592.5133746643872
 10
264.6533781699599
 20
592.6241178965417
 10
264.9239504014453
 20
592.7616110463566
 10
265.0259182696956
 20
592.9136372440922
 10
264.9502214821382
 20
593.066688294924
 10
264.9267602265755
 20
593.0865315223464
  0
LWPOLYLINE
  5
1760A
330
A
100
AcDbEntity
  8
0
  6
Continuous
 62
     7
370
    15
100
AcDbPolyline
 90
        7
 70
   128
 43
0.0
 10
261.1260694218441
 20
593.0865315223464
 10
261.0558861354967
 20
593.0137073655668
 10
261.0426022248439
 20
592.8594457666783
 10
261.2055887694627
 20
592.7110241714692
 10
261.5303636996093
 20
592.581630490012
 10
261.9880693374891
 20
592.4827619187388
 10
262.5380365285679
 20
592.4232033640837
  0
LINE
  5
1760B
330
A
100
AcDbEntity
  8
0
  6
Continuous
 62
     7
370
    15
100
AcDbLine
 10
261.8452536265098
 20
593.0360332123219
 30
0.0
 11
261.6380269594302
 21
592.8230402373487
 31
0.0
  0
LINE
  5
1760C
330
A
100
AcDbEntity
  8
0
  6
Continuous
 62
     7
370
    15
100
AcDbLine
 10
261.6380269594302
 20
592.8230402373487
 30
0.0
 11
262.673958148641
 21
592.5629071513932
 31
0.0
  0
LINE
  5
1760D
330
A
100
AcDbEntity
  8
0
  6
Continuous
 62
     7
370
    15
100
AcDbLine
 10
262.673958148641
 20
592.5629071513932
 30
0.0
 11
264.0623460134204
 21
592.6650382321904
 31
0.0
  0
LINE
  5
1760E
330
A
100
AcDbEntity
  8
0
  6
Continuous
 62
     7
370
    15
100
AcDbLine
 10
264.0623460134204
 20
592.6650382321904
 30
0.0
 11
264.4148026889894
 21
593.0273023989432
 31
0.0
  0
LINE
  5
1760F
330
A
100
AcDbEntity
  8
0
  6
Continuous
 62
     7
370
    15
100
AcDbLine
 10
264.4148026889894
 20
593.0273023989432
 30
0.0
 11
264.3481401961095
 21
593.0440420435941
 31
0.0
  0
LINE
  5
17610
330
A
100
AcDbEntity
  8
0
  6
Continuous
 62
     7
370
    15
100
AcDbLine
 10
264.0623460134206
 20
593.0287059474327
 30
0.0
 11
264.0623460134204
 21
592.6650382321904
 31
0.0
  0
LINE
  5
17611
330
A
100
AcDbEntity
  8
0
  6
Continuous
 62
     7
370
    15
100
AcDbLine
 10
262.673958148641
 20
593.0071260548477
 30
0.0
 11
262.673958148641
 21
592.5629071513932
 31
0.0
  0
ARC
  5
17612
330
A
100
AcDbEntity
  8
0
  6
Continuous
 62
     7
370
    15
100
AcDbCircle
 10
263.0264148242098
 20
615.0043025621146
 30
0.0
 40
22.00000000000002
100
AcDbArc
 50
198.5271218529944
 51
341.8309756032858
  0
ARC
  5
17613
330
A
100
AcDbEntity
  8
0
  6
Continuous
 62
     7
370
    15
100
AcDbCircle
 10
263.0264148242098
 20
615.0043025621146
 30
0.0
 40
22.00000000000001
100
AcDbArc
 50
2.978811950430058
 51
177.3792855058472
  0
ARC
  5
17614
330
A
100
AcDbEntity
  8
0
  6
Continuous
 62
     7
370
    15
100
AcDbCircle
 10
263.0264148242098
 20
615.0043025621146
 30
0.0
 40
21.50000000000002
100
AcDbArc
 50
3.406750453201556
 51
176.9513470030764
  0
ARC
  5
17615
330
A
100
AcDbEntity
  8
0
  6
Continuous
 62
     7
370
    15
100
AcDbCircle
 10
263.0264148242098
 20
615.0043025621146
 30
0.0
 40
21.50000000000003
100
AcDbArc
 50
198.5873780450631
 51
341.7707194112162
  0
ARC
  5
1762E
330
A
100
AcDbEntity
  8
0
  6
Continuous
 62
     7
370
    15
100
AcDbCircle
 10
493.6430902822634
 20
455.0043025621146
 30
0.0
 40
4.000000000000026
100
AcDbArc
 50
180.0
 51
0.0
  0
LINE
  5
1762F
102
{ACAD_REACTORS
330
176CF
102
}
330
A
100
AcDbEntity
  8
0
  6
Continuous
 62
     7
370
    15
100
AcDbLine
 10
489.6430902822636
 20
614.6147800315742
 30
0.0
 11
489.6430902822636
 21
455.0043025621146
 31
0.0
  0
LINE
  5
17630
102
{ACAD_REACTORS
330
176CF
102
}
330
A
100
AcDbEntity
  8
0
  6
Continuous
 62
     7
370
    15
100
AcDbLine
 10
497.6430902822634
 20
455.0043025621146
 30
0.0
 11
497.6430902822636
 21
614.6147800315742
 31
0.0
  0
LINE
  5
17631
330
A
100
AcDbEntity
  8
0
  6
Continuous
 62
     7
370
    15
100
AcDbLine
 10
475.6430902822635
 20
606.0043025621146
 30
0.0
 11
489.6430902822636
 21
606.0043025621146
 31
0.0
  0
LINE
  5
17632
330
A
100
AcDbEntity
  8
0
  6
Continuous
 62
     7
370
    15
100
AcDbLine
 10
497.6430902822636
 20
606.0043025621146
 30
0.0
 11
500.6430902822633
 21
606.0043025621146
 31
0.0
  0
LINE
  5
17633
330
A
100
AcDbEntity
  8
0
  6
Continuous
 62
     7
370
    15
100
AcDbLine
 10
500.6430902822633
 20
624.004302562115
 30
0.0
 11
475.6430902822635
 21
624.004302562115
 31
0.0
  0
LINE
  5
17634
330
A
100
AcDbEntity
  8
0
  6
Continuous
 62
     7
370
    15
100
AcDbLine
 10
468.5548998312383
 20
593.0043025621147
 30
0.0
 11
468.6200693469071
 21
592.7610866185346
 31
0.0
  0
LINE
  5
17635
330
A
100
AcDbEntity
  8
0
  6
Continuous
 62
     7
370
    15
100
AcDbLine
 10
468.6200693469071
 20
592.7610866185346
 30
0.0
 11
469.2324417826028
 21
592.4075332279413
 31
0.0
  0
LINE
  5
17636
330
A
100
AcDbEntity
  8
0
  6
Continuous
 62
     7
370
    15
100
AcDbLine
 10
473.9900997783911
 20
593.0043025621147
 30
0.0
 11
475.1430902822636
 21
593.0043025621147
 31
0.0
  0
LINE
  5
17637
330
A
100
AcDbEntity
  8
0
  6
Continuous
 62
     7
370
    15
100
AcDbLine
 10
465.6430902822636
 20
593.0043025621147
 30
0.0
 11
468.5548998312383
 21
593.0043025621147
 31
0.0
  0
LINE
  5
17638
330
A
100
AcDbEntity
  8
0
  6
Continuous
 62
     7
370
    15
100
AcDbLine
 10
475.1430902822636
 20
637.0043025621145
 30
0.0
 11
465.6430902822636
 21
637.0043025621145
 31
0.0
  0
ARC
  5
17639
330
A
100
AcDbEntity
  8
0
  6
Continuous
 62
     7
370
    15
100
AcDbCircle
 10
475.1430902822636
 20
636.5043025621147
 30
0.0
 40
0.5000000000000569
100
AcDbArc
 50
0.0
 51
90.0
  0
ARC
  5
1763A
330
A
100
AcDbEntity
  8
0
  6
Continuous
 62
     7
370
    15
100
AcDbCircle
 10
475.1430902822636
 20
593.5043025621146
 30
0.0
 40
0.5000000000000569
100
AcDbArc
 50
270.0
 51
0.0
  0
SPLINE
  5
1763B
330
A
100
AcDbEntity
  8
0
  6
Continuous
 62
     7
370
    15
100
AcDbSpline
210
0.0
220
0.0
230
1.0
 70
     8
 71
     3
 72
    12
 73
     8
 74
     0
 42
0.000000001
 43
0.0000000001
 40
0.0
 40
0.0
 40
0.0
 40
0.0
 40
0.1707893728092451
 40
0.3750254178203561
 40
0.5868136316591998
 40
0.8076172396086461
 40
1.0
 40
1.0
 40
1.0
 40
1.0
 10
497.4215948688089
 20
616.2302413775522
 30
0.0
 10
497.4214334370493
 20
616.2255998770915
 30
0.0
 10
497.4210789594139
 20
616.215407904248
 30
0.0
 10
497.472473669944
 20
616.0452546793814
 30
0.0
 10
497.5438237251542
 20
615.7661970322611
 30
0.0
 10
497.613464694585
 20
615.405389096213
 30
0.0
 10
497.629889892747
 20
615.135906945358
 30
0.0
 10
497.637537591714
 20
615.0104339771526
 30
0.0
  0
SPLINE
  5
1763C
330
A
100
AcDbEntity
  8
0
  6
Continuous
 62
     7
370
    15
100
AcDbSpline
210
0.0
220
0.0
230
1.0
 70
     8
 71
     3
 72
    13
 73
     9
 74
     0
 42
0.000000001
 43
0.0000000001
 40
0.0
 40
0.0
 40
0.0
 40
0.0
 40
0.1058676418198246
 40
0.2894971359927711
 40
0.4756173281468039
 40
0.6698140345625469
 40
0.8665234556472821
 40
1.0
 40
1.0
 40
1.0
 40
1.0
 10
489.649104465183
 20
614.7735576636452
 30
0.0
 10
489.6468349431856
 20
614.8496476980401
 30
0.0
 10
489.6406288909201
 20
615.0577173844551
 30
0.0
 10
489.6767386852687
 20
615.4071566230665
 30
0.0
 10
489.7424739860711
 20
615.7710651401076
 30
0.0
 10
489.8163732645423
 20
616.0544469361037
 30
0.0
 10
489.8672330250517
 20
616.2222883735842
 30
0.0
 10
489.8643258614361
 20
616.2249725372069
 30
0.0
 10
489.8631506505126
 20
616.2260576011474
 30
0.0
  0
ARC
  5
1763D
330
A
100
AcDbEntity
  8
0
  6
Continuous
 62
     7
370
    15
100
AcDbCircle
 10
493.6430902822634
 20
615.0043025621146
 30
0.0
 40
4.5
100
AcDbArc
 50
332.7339555492653
 51
0.0
  0
ARC
  5
1763E
330
A
100
AcDbEntity
  8
0
  6
Continuous
 62
     7
370
    15
100
AcDbCircle
 10
493.6430902822634
 20
615.0043025621146
 30
0.0
 40
4.5
100
AcDbArc
 50
0.0
 51
207.2660444507347
  0
ARC
  5
1763F
330
A
100
AcDbEntity
  8
0
  6
Continuous
 62
     7
370
    15
100
AcDbCircle
 10
493.6430902822634
 20
615.0043025621146
 30
0.0
 40
4.000000000000055
100
AcDbArc
 50
356.8644115434279
 51
182.5367632946276
  0
SPLINE
  5
17640
330
A
100
AcDbEntity
  8
0
  6
Continuous
 62
     7
370
    15
100
AcDbSpline
210
0.0
220
0.0
230
1.0
 70
     8
 71
     3
 72
     9
 73
     5
 74
     0
 42
0.000000001
 43
0.0000000001
 40
0.0
 40
0.0
 40
0.0
 40
0.0
 40
0.6288613343758658
 40
1.0
 40
1.0
 40
1.0
 40
1.0
 10
498.2430902822637
 20
615.0043025621146
 30
0.0
 10
498.2113284034381
 20
614.5142322093782
 30
0.0
 10
498.1608214361799
 20
613.7349342529797
 30
0.0
 10
497.7832293173839
 20
613.0827831539577
 30
0.0
 10
497.6430902822636
 20
612.8407446652812
 30
0.0
  0
ARC
  5
17641
330
A
100
AcDbEntity
  8
0
  6
Continuous
 62
     7
370
    15
100
AcDbCircle
 10
493.6645281953117
 20
615.0379750764378
 30
0.0
 40
4.578685905617172
100
AcDbArc
 50
359.5786323003618
 51
208.5626051412409
  0
LINE
  5
17642
102
{ACAD_REACTORS
330
176C0
102
}
330
A
100
AcDbEntity
  8
0
  6
Continuous
 62
     7
370
    15
100
AcDbLine
 10
500.6430902822633
 20
624.004302562115
 30
0.0
 11
500.6430902822633
 21
606.0043025621146
 31
0.0
  0
LINE
  5
17643
330
A
100
AcDbEntity
  8
0
  6
Continuous
 62
     7
370
    15
100
AcDbLine
 10
468.6200693469071
 20
592.7610866185346
 30
0.0
 11
469.9925381234828
 21
593.1288385188548
 31
0.0
  0
LINE
  5
17644
330
A
100
AcDbEntity
  8
0
  6
Continuous
 62
     7
370
    15
100
AcDbLine
 10
469.29092352685
 20
592.4232033640837
 30
0.0
 11
469.2324417826028
 21
592.4075332279413
 31
0.0
  0
LINE
  5
17645
330
A
100
AcDbEntity
  8
0
  6
Continuous
 62
     7
370
    15
100
AcDbLine
 10
472.0402469408366
 20
593.159882352594
 30
0.0
 11
469.29092352685
 21
592.4232033640837
 31
0.0
  0
SPLINE
  5
17646
330
A
100
AcDbEntity
  8
0
  6
Continuous
 62
     7
370
    15
100
AcDbSpline
210
0.0
220
0.0
230
1.0
 70
     8
 71
     3
 72
    11
 73
     7
 74
     0
 42
0.000000001
 43
0.0000000001
 40
0.0
 40
0.0
 40
0.0
 40
0.0
 40
0.1207580685645234
 40
0.4369053846655524
 40
0.7608321702426786
 40
1.0
 40
1.0
 40
1.0
 40
1.0
 10
469.4841094498166
 20
593.0894029487117
 30
0.0
 10
469.5251972748232
 20
593.0932667297861
 30
0.0
 10
469.6738539418523
 20
593.107245975865
 30
0.0
 10
469.9890035678105
 20
593.1316408650472
 30
0.0
 10
470.3779815834003
 20
593.1568716461526
 30
0.0
 10
470.6470655698372
 20
593.1692021665615
 30
0.0
 10
470.7613558352845
 20
593.1744394104021
 30
0.0
  0
SPLINE
  5
17647
330
A
100
AcDbEntity
  8
0
  6
Continuous
 62
     7
370
    15
100
AcDbSpline
210
0.0
220
0.0
230
1.0
 70
     8
 71
     3
 72
    22
 73
    18
 74
     0
 42
0.000000001
 43
0.0000000001
 40
0.0
 40
0.0
 40
0.0
 40
0.0
 40
0.1249999999999998
 40
0.1249999999999998
 40
0.2499999999999996
 40
0.2499999999999996
 40
0.3749999999999993
 40
0.3749999999999993
 40
0.4999999999999992
 40
0.4999999999999992
 40
0.6249999999999993
 40
0.6249999999999993
 40
0.7499999999999996
 40
0.7499999999999996
 40
0.8749999999999998
 40
0.8749999999999998
 40
1.0
 40
1.0
 40
1.0
 40
1.0
 10
470.7613558352845
 20
593.1744394104021
 30
0.0
 10
470.960564340087
 20
593.1773124922442
 30
0.0
 10
471.1586277033481
 20
593.1775965246223
 30
0.0
 10
471.5526031228892
 20
593.1732584453702
 30
0.0
 10
471.7506819749011
 20
593.1685409960257
 30
0.0
 10
472.1315981859397
 20
593.154999634517
 30
0.0
 10
472.3145568529338
 20
593.1462453232495
 30
0.0
 10
472.6654484062501
 20
593.1258742563847
 30
0.0
 10
472.8332060162065
 20
593.1142199772621
 30
0.0
 10
473.1379306237902
 20
593.0904681803565
 30
0.0
 10
473.2770502955065
 20
593.0782488909294
 30
0.0
 10
473.5267205366254
 20
593.0546978195405
 30
0.0
 10
473.6330189007679
 20
593.0437788111088
 30
0.0
 10
473.80714888459
 20
593.0252085362915
 30
0.0
 10
473.8757392218164
 20
593.0174687903911
 30
0.0
 10
473.9668653717948
 20
593.0070492263005
 30
0.0
 10
473.9900997783911
 20
593.0043025621147
 30
0.0
 10
473.9900997783911
 20
593.0043025621147
 30
0.0
  0
LINE
  5
17648
102
{ACAD_REACTORS
330
176C0
330
17A2B
102
}
330
A
100
AcDbEntity
  8
0
  6
Continuous
 62
     7
370
    15
100
AcDbLine
 10
465.6430902822636
 20
637.0043025621145
 30
0.0
 11
465.6430902822636
 21
593.0043025621147
 31
0.0
  0
LINE
  5
17649
330
A
100
AcDbEntity
  8
0
  6
Continuous
 62
     7
370
    15
100
AcDbLine
 10
475.6430902822635
 20
636.5043025621147
 30
0.0
 11
475.6430902822635
 21
593.5043025621146
 31
0.0
  0
LWPOLYLINE
  5
1764A
330
A
100
AcDbEntity
  8
0
  6
Continuous
 62
     7
370
    15
100
AcDbPolyline
 90
        3
 70
   128
 43
0.0
 10
497.8430902822638
 20
615.0043025621146
 10
497.7513102053456
 20
614.1310734606802
 10
497.6430902822636
 20
613.7236777146277
  0
ARC
  5
1764B
330
A
100
AcDbEntity
  8
0
  6
Continuous
 62
     7
370
    15
100
AcDbCircle
 10
493.6430902822634
 20
615.0043025621146
 30
0.0
 40
4.200000000000033
100
AcDbArc
 50
0.0
 51
197.7527901619519
  0
LINE
  5
1764C
330
A
100
AcDbEntity
  8
0
  6
Continuous
 62
     7
370
    15
100
AcDbLine
 10
475.1430902822636
 20
593.0043025621147
 30
0.0
 11
475.1430902822636
 21
637.0043025621145
 31
0.0
  0
DIMENSION
  5
17691
330
A
100
AcDbEntity
  8
DIM
100
AcDbDimension
280
     0
  2
*D20
 10
347.2764148242098
 20
414.8138858127812
 30
0.0
 11
263.2764148242098
 21
424.8153863754921
 31
0.0
 70
    32
 71
     5
 42
168.0000000000001
 73
     0
 74
     0
 75
     0
  3
tfrom線あり
100
AcDbAlignedDimension
 13
179.2764148242098
 23
511.4157069535274
 33
0.0
 14
347.2764148242098
 24
515.5203926580607
 34
0.0
100
AcDbRotatedDimension
  0
DIMENSION
  5
176A0
330
A
100
AcDbEntity
  8
DIM
100
AcDbDimension
280
     0
  2
*D21
 10
111.9090262122101
 20
451.0047127153603
 30
0.0
 11
101.907525649499
 21
544.0044539281934
 31
0.0
 70
    32
 71
     5
 42
185.9994824256661
 73
     0
 74
     0
 75
     0
  3
tfrom線あり
100
AcDbAlignedDimension
 13
240.7433781354101
 23
637.0041951410265
 33
0.0
 14
247.42247957541
 24
451.0047127153603
 34
0.0
 50
90.0
100
AcDbRotatedDimension
  0
DIMENSION
  5
176BE
102
{ACAD_XDICTIONARY
360
176BF
102
}
102
{ACAD_REACTORS
330
176C0
102
}
330
A
100
AcDbEntity
  8
DIM
100
AcDbDimension
280
     0
  2
*D23
 10
500.6430902822633
 20
667.9574458239986
 30
0.0
 11
483.1430902822634
 21
667.9574458239986
 31
0.0
 70
   160
 71
     5
 42
34.99999999999972
 73
     0
 74
     0
 75
     0
  3
tfrom線あり
100
AcDbAlignedDimension
 13
465.6430902822636
 23
637.0043025621145
 33
0.0
 14
500.6430902822633
 24
624.004302562115
 34
0.0
100
AcDbRotatedDimension
  0
DIMENSION
  5
176CD
102
{ACAD_XDICTIONARY
360
176CE
102
}
102
{ACAD_REACTORS
330
176CF
102
}
330
A
100
AcDbEntity
  8
DIM
100
AcDbDimension
280
     0
  2
*D24
 10
497.6430902822634
 20
496.9094660526021
 30
0.0
 11
472.8086523680458
 21
496.9094660526021
 31
0.0
 70
   160
 71
     5
 42
7.999999999999716
 73
     0
 74
     1
 75
     1
  3
tfrom線あり
100
AcDbAlignedDimension
 13
489.6430902822636
 23
484.6087504984687
 33
0.0
 14
497.6430902822634
 24
484.6087504984687
 34
0.0
100
AcDbRotatedDimension
1001
ACAD
1000
DSTYLE
1002
{
1070
   172
1070
     1
1070
     3
1000
%%c<>
1002
}
  0
MTEXT
  5
1770E
330
A
100
AcDbEntity
  8
TEMPLATE
390
1D
100
AcDbMText
 10
39.17566679327058
 20
96.19212162042629
 30
0.0
 40
7.0
 41
0.0
 46
8.172611604351633
 71
     1
 72
     1
  1
{タオルリング　-LANGBERGER,Campo-}
  7
ＭＳ ゴシック
 73
     1
 44
0.7828267384257845
1001
ACAD
1000
ACAD_MTEXT_DEFINED_HEIGHT_BEGIN
1070
    46
1040
8.172611604351633
1000
ACAD_MTEXT_DEFINED_HEIGHT_END
  0
MTEXT
  5
17742
330
A
100
AcDbEntity
  8
TEMPLATE
390
1D
100
AcDbMText
 10
40.33380255757985
 20
66.79499007243697
 30
0.0
 40
7.0
 41
0.0
 46
13.64252481368746
 71
     1
 72
     1
  1
{固定ビス付属}
  7
ＭＳ ゴシック
 73
     1
 44
0.9331787841240656
1001
ACAD
1000
ACAD_MTEXT_DEFINED_HEIGHT_BEGIN
1070
    46
1040
13.64252481368746
1000
ACAD_MTEXT_DEFINED_HEIGHT_END
  0
MTEXT
  5
17743
330
A
100
AcDbEntity
  8
TEMPLATE
390
1D
100
AcDbMText
 10
39.30898974701819
 20
54.15530157764374
 30
0.0
 40
7.0
 41
0.0
 46
8.137051394272852
 71
     1
 72
     1
  1
耐荷重：2kgf
  7
ＭＳ ゴシック
 73
     1
 44
0.9331787841240656
1001
ACAD
1000
ACAD_MTEXT_DEFINED_HEIGHT_BEGIN
1070
    46
1040
8.137051394272852
1000
ACAD_MTEXT_DEFINED_HEIGHT_END
  0
MTEXT
  5
17746
330
A
100
AcDbEntity
  8
TEMPLATE
390
1D
100
AcDbMText
 10
398.760643364397
 20
116.2092822964369
 30
0.0
 40
7.329785156250001
 41
0.0
 46
8.187691734498093
 71
     1
 72
     1
  1
{FRF74-3103-025(マットブラック)}
  7
ＭＳ ゴシック
 73
     1
 44
0.7828267384257845
1001
ACAD
1000
ACAD_MTEXT_DEFINED_HEIGHT_BEGIN
1070
    46
1040
8.187691734498093
1000
ACAD_MTEXT_DEFINED_HEIGHT_END
  0
MTEXT
  5
17747
330
A
100
AcDbEntity
  8
TEMPLATE
390
1D
100
AcDbMText
 10
398.760643364397
 20
126.6670802697703
 30
0.0
 40
7.329785156250001
 41
0.0
 46
8.187691734498093
 71
     1
 72
     1
  1
{FRF74-3103-001(クローム)}
  7
ＭＳ ゴシック
 73
     1
 44
0.7828267384257845
1001
ACAD
1000
ACAD_MTEXT_DEFINED_HEIGHT_BEGIN
1070
    46
1040
8.187691734498093
1000
ACAD_MTEXT_DEFINED_HEIGHT_END
  0
LINE
  5
17793
102
{ACAD_REACTORS
330
177F2
102
}
330
A
100
AcDbEntity
  8
MODEL
 62
     0
370
     5
100
AcDbLine
 10
433.5064076023249
 20
617.0043025621147
 30
0.0
 11
437.5860191612848
 21
615.4288853523232
 31
0.0
  0
LINE
  5
17794
102
{ACAD_REACTORS
330
177F2
330
17A2B
102
}
330
A
100
AcDbEntity
  8
MODEL
 62
     0
370
     5
100
AcDbLine
 10
433.5064076023249
 20
617.0043025621147
 30
0.0
 11
437.5860191612846
 21
618.5797197719051
 31
0.0
  0
LINE
  5
17795
102
{ACAD_REACTORS
330
177F2
102
}
330
A
100
AcDbEntity
  8
MODEL
 62
     0
370
     5
100
AcDbLine
 10
435.1797823379591
 20
618.9288479934671
 30
0.0
 11
438.8786423653502
 21
614.5403699948674
 31
0.0
  0
LINE
  5
17796
102
{ACAD_REACTORS
330
177F2
102
}
330
A
100
AcDbEntity
  8
MODEL
 62
     0
370
     5
100
AcDbLine
 10
437.8234493545165
 20
619.5015467054122
 30
0.0
 11
441.9227399118008
 21
614.6379816374483
 31
0.0
  0
LINE
  5
17797
102
{ACAD_REACTORS
330
177F2
102
}
330
A
100
AcDbEntity
  8
MODEL
 62
     0
370
     5
100
AcDbLine
 10
440.5905871468157
 20
619.4894952264029
 30
0.0
 11
444.7858747894406
 21
614.5120353114243
 31
0.0
  0
LINE
  5
17798
102
{ACAD_REACTORS
330
177F2
102
}
330
A
100
AcDbEntity
  8
MODEL
 62
     0
370
     5
100
AcDbLine
 10
443.486756628503
 20
619.6981831148491
 30
0.0
 11
448.1342373973864
 21
614.1842228805812
 31
0.0
  0
LINE
  5
17799
102
{ACAD_REACTORS
330
177F2
102
}
330
A
100
AcDbEntity
  8
MODEL
 62
     0
370
     5
100
AcDbLine
 10
446.7951327690641
 20
619.6981831148491
 30
0.0
 11
451.4426135379472
 21
614.1842228805812
 31
0.0
  0
LINE
  5
1779A
102
{ACAD_REACTORS
330
177F2
102
}
330
A
100
AcDbEntity
  8
MODEL
 62
     0
370
     5
100
AcDbLine
 10
437.5860191612848
 20
615.4288853523232
 30
0.0
 11
465.6430902822633
 21
615.4288853523232
 31
0.0
  0
LINE
  5
1779B
102
{ACAD_REACTORS
330
177F2
102
}
330
A
100
AcDbEntity
  8
MODEL
 62
     0
370
     5
100
AcDbLine
 10
449.9751189948063
 20
619.7233926068467
 30
0.0
 11
454.6225997636891
 21
614.2094323725786
 31
0.0
  0
LINE
  5
1779C
102
{ACAD_REACTORS
330
177F2
102
}
330
A
100
AcDbEntity
  8
MODEL
 62
     0
370
     5
100
AcDbLine
 10
453.2834951353668
 20
619.7233926068467
 30
0.0
 11
457.9309759042498
 21
614.2094323725786
 31
0.0
  0
LINE
  5
1779D
102
{ACAD_REACTORS
330
177F2
102
}
330
A
100
AcDbEntity
  8
MODEL
 62
     0
370
     5
100
AcDbLine
 10
456.7799868423921
 20
619.7233926068467
 30
0.0
 11
461.4274676112751
 21
614.2094323725786
 31
0.0
  0
LINE
  5
1779E
102
{ACAD_REACTORS
330
177F2
102
}
330
A
100
AcDbEntity
  8
MODEL
 62
     0
370
     5
100
AcDbLine
 10
437.586019161285
 20
618.5797197719051
 30
0.0
 11
465.6430902822633
 21
618.5797197719057
 31
0.0
  0
LINE
  5
1779F
102
{ACAD_REACTORS
330
177F2
102
}
330
A
100
AcDbEntity
  8
MODEL
 62
     0
370
     5
100
AcDbLine
 10
460.1610868469217
 20
619.6981831148491
 30
0.0
 11
464.8085676158049
 21
614.1842228805812
 31
0.0
  0
LINE
  5
177A0
102
{ACAD_REACTORS
330
177F2
102
}
330
A
100
AcDbEntity
  8
MODEL
 62
     0
370
     5
100
AcDbLine
 10
463.4694629874825
 20
619.6981831148491
 30
0.0
 11
465.6430902822633
 21
617.1193032735837
 31
0.0
  0
LINE
  5
177A1
102
{ACAD_REACTORS
330
177F2
102
}
330
A
100
AcDbEntity
  8
MODEL
 62
     0
370
     5
100
AcDbLine
 10
433.5143021890419
 20
618.180882359896
 30
0.0
 11
436.1592179316578
 21
615.0428467330637
 31
0.0
  0
LINE
  5
177A2
102
{ACAD_REACTORS
330
177F2
102
}
330
A
100
AcDbEntity
  8
MODEL
370
     5
100
AcDbLine
 10
465.6430902822633
 20
615.4288853523232
 30
0.0
 11
465.6430902822633
 21
618.5797197719057
 31
0.0
  0
LWPOLYLINE
  5
177E3
102
{ACAD_REACTORS
330
177F1
102
}
330
A
100
AcDbEntity
  8
HIDDEN
 48
0.35
370
     5
100
AcDbPolyline
 90
        4
 70
     1
 43
0.0
 10
465.6430902822633
 20
628.5933212672972
 10
465.6430902822633
 20
605.4152838569317
 10
467.6430902822635
 20
605.4152838569317
 10
467.6430902822635
 20
628.5933212672972
  0
LINE
  5
177E4
102
{ACAD_REACTORS
330
177F1
102
}
330
A
100
AcDbEntity
  8
HIDDEN
 48
0.35
370
     5
100
AcDbLine
 10
465.6430902822633
 20
605.4152838569317
 30
0.0
 11
466.3388663785942
 21
602.4239902245843
 31
0.0
  0
LINE
  5
177E5
102
{ACAD_REACTORS
330
177F1
102
}
330
A
100
AcDbEntity
  8
HIDDEN
 48
0.35
370
     5
100
AcDbLine
 10
466.3388663785942
 20
602.4239902245843
 30
0.0
 11
471.4121035827736
 21
599.0069398352767
 31
0.0
  0
LINE
  5
177E6
102
{ACAD_REACTORS
330
177F1
102
}
330
A
100
AcDbEntity
  8
HIDDEN
 48
0.35
370
     5
100
AcDbLine
 10
467.6430902822635
 20
605.4152838569317
 30
0.0
 11
468.1506489498693
 21
603.2331781213956
 31
0.0
  0
LINE
  5
177E7
102
{ACAD_REACTORS
330
177F1
102
}
330
A
100
AcDbEntity
  8
HIDDEN
 48
0.35
370
     5
100
AcDbLine
 10
468.1506489498693
 20
603.2331781213956
 30
0.0
 11
472.3470927169578
 21
600.4066870209552
 31
0.0
  0
LINE
  5
177E8
102
{ACAD_REACTORS
330
177F1
102
}
330
A
100
AcDbEntity
  8
HIDDEN
 48
0.35
370
     5
100
AcDbLine
 10
471.4121035827736
 20
599.0069398352767
 30
0.0
 11
472.3470927169578
 21
600.4066870209552
 31
0.0
  0
LINE
  5
177E9
102
{ACAD_REACTORS
330
177F1
102
}
330
A
100
AcDbEntity
  8
HIDDEN
 48
0.35
370
     5
100
AcDbLine
 10
465.6430902822633
 20
628.5933212672972
 30
0.0
 11
466.3388663785942
 21
631.5846148996447
 31
0.0
  0
LINE
  5
177EA
102
{ACAD_REACTORS
330
177F1
102
}
330
A
100
AcDbEntity
  8
HIDDEN
 48
0.35
370
     5
100
AcDbLine
 10
466.3388663785942
 20
631.5846148996447
 30
0.0
 11
471.4121035827736
 21
635.0016652889522
 31
0.0
  0
LINE
  5
177EB
102
{ACAD_REACTORS
330
177F1
102
}
330
A
100
AcDbEntity
  8
HIDDEN
 48
0.35
370
     5
100
AcDbLine
 10
467.6430902822635
 20
628.5933212672972
 30
0.0
 11
468.1506489498693
 21
630.7754270028336
 31
0.0
  0
LINE
  5
177EC
102
{ACAD_REACTORS
330
177F1
102
}
330
A
100
AcDbEntity
  8
HIDDEN
 48
0.35
370
     5
100
AcDbLine
 10
468.1506489498693
 20
630.7754270028336
 30
0.0
 11
472.3470927169578
 21
633.6019181032739
 31
0.0
  0
LINE
  5
177ED
102
{ACAD_REACTORS
330
177F1
102
}
330
A
100
AcDbEntity
  8
HIDDEN
 48
0.35
370
     5
100
AcDbLine
 10
471.4121035827736
 20
635.0016652889522
 30
0.0
 11
472.3470927169578
 21
633.6019181032739
 31
0.0
  0
LINE
  5
177EE
102
{ACAD_REACTORS
330
177F1
102
}
330
A
100
AcDbEntity
  8
HIDDEN
 48
0.35
370
     5
100
AcDbLine
 10
465.6430902822633
 20
614.7407643427448
 30
0.0000000000000071
 11
467.6430902822635
 21
614.7407643427448
 31
0.0000000000000071
  0
LINE
  5
177EF
102
{ACAD_REACTORS
330
177F1
102
}
330
A
100
AcDbEntity
  8
HIDDEN
 48
0.35
370
     5
100
AcDbLine
 10
465.6430902822633
 20
619.2407643427448
 30
0.0000000000000071
 11
467.6430902822635
 21
619.2407643427448
 31
0.0000000000000071
  0
ARC
  5
17837
330
A
100
AcDbEntity
  8
0
  6
Continuous
 62
     7
370
    15
100
AcDbCircle
 10
343.2764148242096
 20
282.0979475318651
 30
-0.0000000000000001
 40
4.000000000000026
100
AcDbArc
 50
270.0000000000015
 51
90.0
  0
ARC
  5
17838
330
A
100
AcDbEntity
  8
0
  6
Continuous
 62
     7
370
    15
100
AcDbCircle
 10
183.2764148242095
 20
282.0979475318651
 30
-0.0000000000000001
 40
4.000000000000026
100
AcDbArc
 50
90.0
 51
270.0
  0
LINE
  5
17839
330
A
100
AcDbEntity
  8
0
  6
Continuous
 62
     7
370
    15
100
AcDbLine
 10
254.3078342353311
 20
286.0979475318652
 30
-0.0000000000000001
 11
183.2764148242095
 21
286.0979475318652
 31
-0.0000000000000001
  0
LINE
  5
1783A
330
A
100
AcDbEntity
  8
0
  6
Continuous
 62
     7
370
    15
100
AcDbLine
 10
343.2764148242096
 20
286.0979475318652
 30
-0.0000000000000001
 11
271.7444341958306
 21
286.0979475318652
 31
-0.0000000000000001
  0
LINE
  5
1783B
330
A
100
AcDbEntity
  8
0
  6
Continuous
 62
     7
370
    15
100
AcDbLine
 10
271.7422560821518
 20
278.0979475318651
 30
-0.0000000000000001
 11
343.2764148242096
 21
278.0979475318651
 31
-0.0000000000000001
  0
LINE
  5
1783C
330
A
100
AcDbEntity
  8
0
  6
Continuous
 62
     7
370
    15
100
AcDbLine
 10
183.2764148242095
 20
278.0979475318651
 30
-0.0000000000000001
 11
254.3069485008337
 21
278.0979475318651
 31
-0.0000000000000001
  0
LINE
  5
1783D
330
A
100
AcDbEntity
  8
0
  6
Continuous
 62
     7
370
    15
100
AcDbLine
 10
254.0264148242096
 20
277.4979475318651
 30
-0.0000000000000001
 11
254.0264148242096
 21
275.0979475318651
 31
-0.0000000000000001
  0
LINE
  5
1783E
330
A
100
AcDbEntity
  8
0
  6
Continuous
 62
     7
370
    15
100
AcDbLine
 10
254.0264148242096
 20
300.097947531865
 30
-0.0000000000000001
 11
254.0264148242096
 21
286.6466153292238
 31
-0.0000000000000001
  0
LINE
  5
1783F
330
A
100
AcDbEntity
  8
0
  6
Continuous
 62
     7
370
    15
100
AcDbLine
 10
272.0264148242096
 20
286.697947531865
 30
-0.0000000000000001
 11
272.0264148242096
 21
300.097947531865
 31
-0.0000000000000001
  0
LINE
  5
17840
330
A
100
AcDbEntity
  8
0
  6
Continuous
 62
     7
370
    15
100
AcDbLine
 10
272.0264148242096
 20
275.0979475318651
 30
-0.0000000000000001
 11
272.0264148242096
 21
277.5492797345062
 31
-0.0000000000000001
  0
LINE
  5
17841
330
A
100
AcDbEntity
  8
0
  6
Continuous
 62
     7
370
    15
100
AcDbLine
 10
241.0264148242098
 20
310.0979475318652
 30
-0.0000000000000001
 11
241.0264148242098
 21
300.5979475318651
 31
-0.0000000000000001
  0
LINE
  5
17842
330
A
100
AcDbEntity
  8
0
  6
Continuous
 62
     7
370
    15
100
AcDbLine
 10
285.0264148242095
 20
300.5979475318651
 30
-0.0000000000000001
 11
285.0264148242095
 21
310.0979475318652
 31
-0.0000000000000001
  0
ARC
  5
17843
330
A
100
AcDbEntity
  8
0
  6
Continuous
 62
     7
370
    15
100
AcDbCircle
 10
284.5264148242097
 20
300.5979475318651
 30
-0.0000000000000001
 40
0.5000000000000142
100
AcDbArc
 50
270.0
 51
0.0
  0
ARC
  5
17844
330
A
100
AcDbEntity
  8
0
  6
Continuous
 62
     7
370
    15
100
AcDbCircle
 10
241.5264148242098
 20
300.5979475318651
 30
-0.0000000000000001
 40
0.5000000000000569
100
AcDbArc
 50
180.0
 51
270.0
  0
LINE
  5
17845
330
A
100
AcDbEntity
  8
0
  6
Continuous
 62
     7
370
    15
100
AcDbLine
 10
270.7764148242096
 20
281.7256111143253
 30
-0.0000000000000001
 11
270.7764148242096
 21
281.9503851494725
 31
-0.0000000000000001
  0
SPLINE
  5
17846
330
A
100
AcDbEntity
  8
0
  6
Continuous
 62
     7
370
    15
100
AcDbSpline
210
0.0
220
0.0
230
1.0
 70
     8
 71
     3
 72
    17
 73
    13
 74
     0
 42
0.000000001
 43
0.0000000001
 40
0.0
 40
0.0
 40
0.0
 40
0.0
 40
0.0984527821958165
 40
0.1966692764664964
 40
0.3010623208810077
 40
0.4138960202853709
 40
0.5196920751028192
 40
0.6122092127301068
 40
0.7069661361684695
 40
0.8143531650510686
 40
0.9270292502151573
 40
1.0
 40
1.0
 40
1.0
 40
1.0
 10
272.0264148242096
 20
286.697947531865
 30
-0.0000000000000001
 10
272.0031359334373
 20
286.6532164855993
 30
-0.0000000000000001
 10
271.9566340215254
 20
286.5638617481458
 30
-0.0000000000000001
 10
271.6235138863176
 20
285.8745984571545
 30
-0.0000000000000001
 10
271.1999087594625
 20
284.8216611462998
 30
-0.0000000000000001
 10
270.8216808758548
 20
283.4125930199898
 30
-0.0000000000000001
 10
270.7176085524294
 20
281.8658447664526
 30
-0.0000000000000001
 10
270.901514636645
 20
280.4536646882879
 30
-0.0000000000000001
 10
271.2593252407985
 20
279.2132834137975
 30
-0.0000000000000001
 10
271.6776996677395
 20
278.1972631220717
 30
-0.0000000000000001
 10
271.9916326276027
 20
277.5651987223129
 30
-0.0000000000000001
 10
271.9979113716915
 20
277.5537713876057
 30
-0.0000000000000001
 10
272.000379308535
 20
277.5492797345062
 30
-0.0000000000000001
  0
SPLINE
  5
17847
330
A
100
AcDbEntity
  8
0
  6
Continuous
 62
     7
370
    15
100
AcDbSpline
210
0.0
220
0.0
230
1.0
 70
     8
 71
     3
 72
    19
 73
    15
 74
     0
 42
0.000000001
 43
0.0000000001
 40
0.0
 40
0.0
 40
0.0
 40
0.0
 40
0.0300062021898604
 40
0.1245593303043358
 40
0.2217871619844114
 40
0.3289137017524908
 40
0.3845786665775015
 40
0.4421994493174534
 40
0.5439301568547782
 40
0.6352377394888486
 40
0.7327137364645912
 40
0.8427463270854083
 40
0.9538941191778292
 40
1.0
 40
1.0
 40
1.0
 40
1.0
 10
254.0524503398842
 20
286.6466153292238
 30
-0.0000000000000001
 10
254.044818511909
 20
286.6616801127988
 30
-0.0000000000000001
 10
254.013137882165
 20
286.7242158292946
 30
-0.0000000000000001
 10
254.1898838408156
 20
286.3781239474259
 30
-0.0000000000000001
 10
254.5263459343824
 20
285.6527862235422
 30
-0.0000000000000001
 10
254.885396921806
 20
284.6985423249959
 30
-0.0000000000000001
 10
255.1274382059159
 20
283.752156033971
 30
-0.0000000000000001
 10
255.2927280193553
 20
282.7482185565425
 30
-0.0000000000000001
 10
255.311109975301
 20
281.4911887422054
 30
-0.0000000000000001
 10
255.0740224315066
 20
280.1267190416919
 30
-0.0000000000000001
 10
254.6882647909299
 20
278.9305998120461
 30
-0.0000000000000001
 10
254.2726091517041
 20
277.9827029277011
 30
-0.0000000000000001
 10
254.0491417309438
 20
277.5424892069299
 30
-0.0000000000000001
 10
254.0315674911687
 20
277.5080460648547
 30
-0.0000000000000001
 10
254.0264148242096
 20
277.4979475318651
 30
-0.0000000000000001
  0
LINE
  5
17848
330
A
100
AcDbEntity
  8
0
  6
Continuous
 62
     7
370
    15
100
AcDbLine
 10
272.0264148242096
 20
275.0979475318651
 30
-0.0000000000000001
 11
254.0264148242096
 21
275.0979475318651
 31
-0.0000000000000001
  0
LINE
  5
17849
102
{ACAD_REACTORS
330
179F9
330
17A0A
102
}
330
A
100
AcDbEntity
  8
0
  6
Continuous
 62
     7
370
    15
100
AcDbLine
 10
285.0264148242095
 20
310.0979475318652
 30
-0.0000000000000001
 11
241.0264148242098
 21
310.0979475318652
 31
-0.0000000000000001
  0
LINE
  5
1784A
330
A
100
AcDbEntity
  8
0
  6
Continuous
 62
     7
370
    15
100
AcDbLine
 10
284.5264148242097
 20
300.097947531865
 30
-0.0000000000000001
 11
241.5264148242098
 21
300.097947531865
 31
-0.0000000000000001
  0
LINE
  5
1784B
330
A
100
AcDbEntity
  8
0
  6
Continuous
 62
     7
370
    15
100
AcDbLine
 10
241.0264148242098
 20
300.5979475318651
 30
-0.0000000000000001
 11
285.0264148242095
 21
300.5979475318651
 31
-0.0000000000000001
  0
LWPOLYLINE
  5
17952
330
A
100
AcDbEntity
  8
HIDDEN
 48
0.35
370
     5
100
AcDbPolyline
 90
        4
 70
     1
 43
0.0
 10
245.5264148242096
 20
308.0979475318652
 10
280.5264148242096
 20
308.0979475318652
 10
280.5264148242096
 20
310.0979475318652
 10
245.5264148242096
 20
310.0979475318652
  0
LINE
  5
17953
330
A
100
AcDbEntity
  8
HIDDEN
100
AcDbLine
 10
275.7764148242092
 20
308.0979475318652
 30
0.0
 11
275.7764148242092
 21
310.0979475318652
 31
0.0
  0
LINE
  5
17954
330
A
100
AcDbEntity
  8
HIDDEN
100
AcDbLine
 10
268.2764148242092
 20
308.0979475318652
 30
0.0
 11
268.2764148242092
 21
310.0979475318652
 31
0.0
  0
LINE
  5
17955
330
A
100
AcDbEntity
  8
HIDDEN
100
AcDbLine
 10
251.7764148242091
 20
308.0979475318652
 30
0.0000000000000002
 11
251.7764148242091
 21
310.0979475318652
 31
0.0000000000000001
  0
LINE
  5
17956
330
A
100
AcDbEntity
  8
HIDDEN
100
AcDbLine
 10
256.2764148242091
 20
308.0979475318652
 30
0.0
 11
256.2764148242091
 21
310.0979475318652
 31
0.0
  0
LINE
  5
179B6
330
A
100
AcDbEntity
  8
MODEL
 62
     0
370
     5
100
AcDbLine
 10
254.0264148242093
 20
342.2346302118037
 30
0.0
 11
252.450997614418
 21
338.1550186528438
 31
0.0
  0
LINE
  5
179B7
102
{ACAD_REACTORS
330
179E9
102
}
330
A
100
AcDbEntity
  8
MODEL
 62
     0
370
     5
100
AcDbLine
 10
254.0264148242093
 20
342.2346302118037
 30
0.0
 11
255.6018320339998
 21
338.155018652844
 31
0.0
  0
LINE
  5
179B8
330
A
100
AcDbEntity
  8
MODEL
 62
     0
370
     5
100
AcDbLine
 10
255.9509602555617
 20
340.5612554761694
 30
0.0
 11
251.5624822569623
 21
336.8623954487784
 31
0.0
  0
LINE
  5
179B9
330
A
100
AcDbEntity
  8
MODEL
 62
     0
370
     5
100
AcDbLine
 10
256.523658967507
 20
337.9175884596119
 30
0.0
 11
251.6600938995429
 21
333.8182979023278
 31
0.0
  0
LINE
  5
179BA
330
A
100
AcDbEntity
  8
MODEL
 62
     0
370
     5
100
AcDbLine
 10
256.5116074884975
 20
335.1504506673126
 30
0.0
 11
251.534147573519
 21
330.9551630246879
 31
0.0
  0
LINE
  5
179BB
330
A
100
AcDbEntity
  8
MODEL
 62
     0
370
     5
100
AcDbLine
 10
256.7202953769436
 20
332.2542811856254
 30
0.0
 11
251.2063351426758
 21
327.6068004167421
 31
0.0
  0
LINE
  5
179BC
330
A
100
AcDbEntity
  8
MODEL
 62
     0
370
     5
100
AcDbLine
 10
256.7202953769436
 20
328.9459050450644
 30
0.0
 11
251.2063351426758
 21
324.2984242761814
 31
0.0
  0
LINE
  5
179BD
330
A
100
AcDbEntity
  8
MODEL
 62
     0
370
     5
100
AcDbLine
 10
252.450997614418
 20
338.1550186528438
 30
0.0
 11
252.450997614418
 21
310.0979475318652
 31
0.0
  0
LINE
  5
179BE
330
A
100
AcDbEntity
  8
MODEL
 62
     0
370
     5
100
AcDbLine
 10
256.7455048689413
 20
325.7659188193222
 30
0.0
 11
251.2315446346732
 21
321.1184380504394
 31
0.0
  0
LINE
  5
179BF
330
A
100
AcDbEntity
  8
MODEL
 62
     0
370
     5
100
AcDbLine
 10
256.7455048689413
 20
322.4575426787615
 30
0.0
 11
251.2315446346732
 21
317.8100619098787
 31
0.0
  0
LINE
  5
179C0
330
A
100
AcDbEntity
  8
MODEL
 62
     0
370
     5
100
AcDbLine
 10
256.7455048689413
 20
318.9610509717365
 30
0.0
 11
251.2315446346732
 21
314.3135702028535
 31
0.0
  0
LINE
  5
179C1
330
A
100
AcDbEntity
  8
MODEL
 62
     0
370
     5
100
AcDbLine
 10
255.6018320339998
 20
338.1550186528436
 30
0.0
 11
255.6018320340003
 21
310.0979475318652
 31
0.0
  0
LINE
  5
179C2
330
A
100
AcDbEntity
  8
MODEL
 62
     0
370
     5
100
AcDbLine
 10
256.7202953769436
 20
315.5799509672069
 30
0.0
 11
251.2063351426758
 21
310.9324701983236
 31
0.0
  0
LINE
  5
179C3
330
A
100
AcDbEntity
  8
MODEL
 62
     0
370
     5
100
AcDbLine
 10
256.7202953769436
 20
312.2715748266459
 30
0.0
 11
254.1414155356783
 21
310.0979475318652
 31
0.0
  0
LINE
  5
179C4
330
A
100
AcDbEntity
  8
MODEL
 62
     0
370
     5
100
AcDbLine
 10
255.2029946219906
 20
342.2267356250866
 30
0.0
 11
252.0649589951583
 21
339.5818198824708
 31
0.0
  0
LINE
  5
179C5
330
A
100
AcDbEntity
  8
MODEL
370
     5
100
AcDbLine
 10
252.450997614418
 20
310.0979475318652
 30
0.0
 11
255.6018320340003
 21
310.0979475318652
 31
0.0
  0
LINE
  5
179C6
330
A
100
AcDbEntity
  8
MODEL
 62
     0
370
     5
100
AcDbLine
 10
272.0264148242093
 20
342.2346302118037
 30
0.0
 11
270.450997614418
 21
338.1550186528437
 31
0.0
  0
LINE
  5
179C7
102
{ACAD_REACTORS
330
179E9
102
}
330
A
100
AcDbEntity
  8
MODEL
 62
     0
370
     5
100
AcDbLine
 10
272.0264148242093
 20
342.2346302118037
 30
0.0
 11
273.6018320339998
 21
338.155018652844
 31
0.0
  0
LINE
  5
179C8
330
A
100
AcDbEntity
  8
MODEL
 62
     0
370
     5
100
AcDbLine
 10
273.9509602555616
 20
340.5612554761694
 30
0.0
 11
269.5624822569623
 21
336.8623954487784
 31
0.0
  0
LINE
  5
179C9
330
A
100
AcDbEntity
  8
MODEL
 62
     0
370
     5
100
AcDbLine
 10
274.523658967507
 20
337.9175884596119
 30
0.0
 11
269.6600938995429
 21
333.8182979023277
 31
0.0
  0
LINE
  5
179CA
330
A
100
AcDbEntity
  8
MODEL
 62
     0
370
     5
100
AcDbLine
 10
274.5116074884975
 20
335.1504506673126
 30
0.0
 11
269.534147573519
 21
330.9551630246878
 31
0.0
  0
LINE
  5
179CB
330
A
100
AcDbEntity
  8
MODEL
 62
     0
370
     5
100
AcDbLine
 10
274.7202953769436
 20
332.2542811856253
 30
0.0
 11
269.2063351426758
 21
327.6068004167421
 31
0.0
  0
LINE
  5
179CC
330
A
100
AcDbEntity
  8
MODEL
 62
     0
370
     5
100
AcDbLine
 10
274.7202953769436
 20
328.9459050450643
 30
0.0
 11
269.2063351426758
 21
324.2984242761814
 31
0.0
  0
LINE
  5
179CD
330
A
100
AcDbEntity
  8
MODEL
 62
     0
370
     5
100
AcDbLine
 10
270.450997614418
 20
338.1550186528437
 30
0.0
 11
270.450997614418
 21
310.0979475318652
 31
0.0
  0
LINE
  5
179CE
330
A
100
AcDbEntity
  8
MODEL
 62
     0
370
     5
100
AcDbLine
 10
274.7455048689413
 20
325.7659188193222
 30
0.0
 11
269.2315446346732
 21
321.1184380504394
 31
0.0
  0
LINE
  5
179CF
330
A
100
AcDbEntity
  8
MODEL
 62
     0
370
     5
100
AcDbLine
 10
274.7455048689413
 20
322.4575426787615
 30
0.0
 11
269.2315446346732
 21
317.8100619098787
 31
0.0
  0
LINE
  5
179D0
330
A
100
AcDbEntity
  8
MODEL
 62
     0
370
     5
100
AcDbLine
 10
274.7455048689413
 20
318.9610509717365
 30
0.0
 11
269.2315446346732
 21
314.3135702028535
 31
0.0
  0
LINE
  5
179D1
330
A
100
AcDbEntity
  8
MODEL
 62
     0
370
     5
100
AcDbLine
 10
273.6018320339998
 20
338.1550186528436
 30
0.0
 11
273.6018320340003
 21
310.0979475318652
 31
0.0
  0
LINE
  5
179D2
330
A
100
AcDbEntity
  8
MODEL
 62
     0
370
     5
100
AcDbLine
 10
274.7202953769436
 20
315.5799509672068
 30
0.0
 11
269.2063351426758
 21
310.9324701983236
 31
0.0
  0
LINE
  5
179D3
330
A
100
AcDbEntity
  8
MODEL
 62
     0
370
     5
100
AcDbLine
 10
274.7202953769436
 20
312.2715748266459
 30
0.0
 11
272.1414155356783
 21
310.0979475318652
 31
0.0
  0
LINE
  5
179D4
330
A
100
AcDbEntity
  8
MODEL
 62
     0
370
     5
100
AcDbLine
 10
273.2029946219906
 20
342.2267356250866
 30
0.0
 11
270.0649589951583
 21
339.5818198824708
 31
0.0
  0
LINE
  5
179D5
330
A
100
AcDbEntity
  8
MODEL
370
     5
100
AcDbLine
 10
270.450997614418
 20
310.0979475318652
 30
0.0
 11
273.6018320340003
 21
310.0979475318652
 31
0.0
  0
DIMENSION
  5
179E7
102
{ACAD_XDICTIONARY
360
179E8
102
}
102
{ACAD_REACTORS
330
179E9
102
}
330
A
100
AcDbEntity
  8
DIM
100
AcDbDimension
280
     0
  2
*D32
 10
272.0264148242093
 20
370.5153061147815
 30
-0.0000000000000001
 11
263.0264148242093
 21
370.5153061147815
 31
-0.0000000000000001
 70
   160
 71
     5
 42
18.0
 73
     0
 74
     0
 75
     0
  3
tfrom線あり
100
AcDbAlignedDimension
 13
254.0264148242093
 23
342.2346302118037
 33
0.0
 14
272.0264148242093
 24
342.2346302118037
 34
0.0
100
AcDbRotatedDimension
  0
DIMENSION
  5
179F7
102
{ACAD_XDICTIONARY
360
179F8
102
}
102
{ACAD_REACTORS
330
179F9
102
}
330
A
100
AcDbEntity
  8
DIM
100
AcDbDimension
280
     0
  2
*D33
 10
241.0264148242098
 20
370.5153061147815
 30
-0.0000000000000001
 11
247.5264148242096
 21
380.5168066774926
 31
-0.0000000000000001
 70
    32
 71
     5
 42
12.99999999999957
 73
     0
 74
     1
 75
     1
  3
tfrom線あり
100
AcDbAlignedDimension
 13
254.0264148242093
 23
370.5153061147815
 33
-0.0000000000000001
 14
241.0264148242098
 24
310.0979475318652
 34
-0.0000000000000001
100
AcDbRotatedDimension
1001
ACAD
1000
DSTYLE
1002
{
1070
    75
1070
     1
1070
    76
1070
     0
1070
   290
1070
     0
1070
   172
1070
     1
1002
}
  0
DIMENSION
  5
17A08
102
{ACAD_XDICTIONARY
360
17A09
102
}
102
{ACAD_REACTORS
330
17A0A
102
}
330
A
100
AcDbEntity
  8
DIM
100
AcDbDimension
280
     0
  2
*D34
 10
386.8164718102947
 20
282.0979475318651
 30
0.0
 11
376.8149712475834
 21
296.0979475318652
 31
0.0
 70
    32
 71
     5
 42
28.00000000000006
 73
     0
 74
     0
 75
     0
  3
tfrom線あり
100
AcDbAlignedDimension
 13
285.0264148242095
 23
310.0979475318652
 33
-0.0000000000000001
 14
347.2764148242096
 24
282.0979475318651
 34
-0.0000000000000001
 50
90.0
100
AcDbRotatedDimension
  0
DIMENSION
  5
17A17
330
A
100
AcDbEntity
  8
DIM
100
AcDbDimension
280
     0
  2
*D35
 10
285.1298519746717
 20
667.9574458239986
 30
0.0
 11
263.0429826549917
 21
677.9574458239986
 31
0.0
 70
    32
 71
     5
 42
44.17373863936007
 73
     0
 74
     0
 75
     0
  3
tfrom線あり
100
AcDbAlignedDimension
 13
240.9561133353117
 23
614.8150996427081
 33
0.0
 14
285.1298519746717
 24
614.8150996427083
 34
0.0
100
AcDbRotatedDimension
1001
ACAD
1000
DSTYLE
1002
{
1070
     3
1000
%%c<>
1002
}
  0
DIMENSION
  5
17A29
102
{ACAD_XDICTIONARY
360
17A2A
102
}
102
{ACAD_REACTORS
330
17A2B
102
}
330
A
100
AcDbEntity
  8
DIM
100
AcDbDimension
280
     0
  2
*D36
 10
395.2906152106665
 20
617.0043025621147
 30
0.0
 11
385.2891146479554
 21
627.0043025621147
 31
0.0
 70
    32
 71
     5
 42
19.99999999999978
 73
     0
 74
     1
 75
     1
  3
tfrom線あり
100
AcDbAlignedDimension
 13
465.6430902822636
 23
637.0043025621145
 33
0.0
 14
433.5064076023249
 24
617.0043025621147
 34
0.0
 50
90.0
100
AcDbRotatedDimension
1001
ACAD
1000
DSTYLE
1002
{
1070
   172
1070
     1
1002
}
  0
VIEWPORT
  5
349
330
B
100
AcDbEntity
 67
     1
  8
0
348
26C
100
AcDbViewport
 10
202.5
 20
128.5
 30
0.0
 40
486.0
 41
308.4
 68
     1
 69
     1
 12
202.5
 22
128.5
 13
0.0
 23
0.0
 14
0.5
 24
0.5
 15
0.0
 25
0.0
 16
0.0
 26
0.0
 36
1.0
 17
0.0
 27
0.0
 37
0.0
 42
50.0
 43
0.0
 44
0.0
 45
308.4
 50
0.0
 51
0.0
 72
   100
 90
   557152
  1

281
     0
 71
     1
 74
     0
110
0.0
120
0.0
130
0.0
111
1.0
121
0.0
131
0.0
112
0.0
122
1.0
132
0.0
 79
     0
146
0.0
170
     0
 61
     5
292
     1
282
     1
141
0.0
142
0.0
 63
   250
421
  3355443
  0
VIEWPORT
  5
34A
330
B
100
AcDbEntity
 67
     1
  8
0
348
26C
100
AcDbViewport
 10
202.5
 20
128.5
 30
0.0
 40
324.0
 41
205.6
 68
     2
 69
     2
 12
986.6781359294572
 22
1427.077061889956
 13
0.0
 23
0.0
 14
0.5
 24
0.5
 15
0.0
 25
0.0
 16
0.0
 26
0.0
 36
1.0
 17
0.0
 27
0.0
 37
0.0
 42
50.0
 43
0.0
 44
0.0
 45
2890.021615685494
 50
0.0
 51
0.0
 72
   100
 90
   557152
  1

281
     0
 71
     1
 74
     0
110
0.0
120
0.0
130
0.0
111
1.0
121
0.0
131
0.0
112
0.0
122
1.0
132
0.0
 79
     0
146
0.0
170
     0
 61
     5
292
     1
282
     1
141
0.0
142
0.0
 63
   250
421
  3355443
  0
ENDSEC
  0
SECTION
  2
OBJECTS
  0
DICTIONARY
  5
19
330
0
100
AcDbDictionary
281
     1
  3
ACAD_BACKGROUND
350
17A4D
  3
ACAD_CIP_PREVIOUS_PRODUCT_INFO
350
17A51
  3
ACAD_COLOR
350
674
  3
ACAD_DETAILVIEWSTYLE
350
BBF
  3
ACAD_FIELDLIST
350
36B0
  3
ACAD_GROUP
350
1A
  3
ACAD_IMAGE_VARS
350
27B
  3
ACAD_LAYOUT
350
1E
  3
ACAD_MATERIAL
350
263
  3
ACAD_MLEADERSTYLE
350
336
  3
ACAD_MLINESTYLE
350
1B
  3
ACAD_PLOTSETTINGS
350
22
  3
ACAD_PLOTSTYLENAME
350
1F
  3
ACAD_RENDER_RAPIDRT_SETTINGS
350
17A91
  3
ACAD_SCALELIST
350
241
  3
ACAD_SECTIONVIEWSTYLE
350
BC0
  3
ACAD_TABLESTYLE
350
278
  3
ACAD_VISUALSTYLE
350
267
  3
ACDB_RECOMPOSE_DATA
350
17AA9
  3
AcDbVariableDictionary
350
330
  3
APPDATA
350
27A
  3
ASE_INDEX_DICTIONARY
350
17A54
  3
CENTERLINE
350
366B
  3
DimOffsetDictionary
350
E38
  0
SUN
  5
904
330
15
100
AcDbSun
 90
        1
290
     1
 63
     7
421
 16777215
 40
1.0
291
     1
 91
  2455826
 92
 54000000
292
     0
 70
     0
 71
   256
280
     1
  0
DICTIONARY
  5
2E1
330
2
100
AcDbDictionary
280
     1
281
     1
  3
ACAD_LAYERSTATES
360
2E2
  3
ACLYDICTIONARY
360
DDE
  0
DICTIONARY
  5
17A5E
330
14
100
AcDbDictionary
280
     1
281
     1
  3
ADSK_XREC_LAYER_RECONCILED
360
17A5F
  0
DICTIONARY
  5
17A60
330
4B
100
AcDbDictionary
280
     1
281
     1
  3
ADSK_XREC_LAYER_RECONCILED
360
17A61
  0
DICTIONARY
  5
17A62
330
4C
100
AcDbDictionary
280
     1
281
     1
  3
ADSK_XREC_LAYER_RECONCILED
360
17A63
  0
DICTIONARY
  5
17A64
330
4D
100
AcDbDictionary
280
     1
281
     1
  3
ADSK_XREC_LAYER_RECONCILED
360
17A65
  0
DICTIONARY
  5
17A66
330
88C
100
AcDbDictionary
280
     1
281
     1
  3
ADSK_XREC_LAYER_RECONCILED
360
17A67
  0
DICTIONARY
  5
17A68
330
D6B
100
AcDbDictionary
280
     1
281
     1
  3
ADSK_XREC_LAYER_RECONCILED
360
17A69
  0
DICTIONARY
  5
17562
330
17561
100
AcDbDictionary
280
     1
281
     1
  3
ADSK_XREC_LAYER_RECONCILED
360
17563
  0
DICTIONARY
  5
1733E
330
A
100
AcDbDictionary
280
     1
281
     1
  3
ACAD_SORTENTS
360
1733F
  0
DICTIONARY
  5
176EF
330
176EE
100
AcDbDictionary
280
     1
281
     1
  3
ACAD_SORTENTS
360
176F0
  0
DICTIONARY
  5
36AE
330
36AC
100
AcDbDictionary
280
     1
281
     1
  3
ACAD_FIELD
360
17A25
  0
DICTIONARY
  5
176BF
330
176BE
100
AcDbDictionary
280
     1
281
     1
  3
ACAD_DIMASSOC
360
176C0
  0
DICTIONARY
  5
176CE
330
176CD
100
AcDbDictionary
280
     1
281
     1
  3
ACAD_DIMASSOC
360
176CF
  0
DICTIONARY
  5
179E8
330
179E7
100
AcDbDictionary
280
     1
281
     1
  3
ACAD_DIMASSOC
360
179E9
  0
DICTIONARY
  5
179F8
330
179F7
100
AcDbDictionary
280
     1
281
     1
  3
ACAD_DIMASSOC
360
179F9
  0
DICTIONARY
  5
17A09
330
17A08
100
AcDbDictionary
280
     1
281
     1
  3
ACAD_DIMASSOC
360
17A0A
  0
DICTIONARY
  5
17A2A
330
17A29
100
AcDbDictionary
280
     1
281
     1
  3
ACAD_DIMASSOC
360
17A2B
  0
DICTIONARY
  5
17A4D
102
{ACAD_REACTORS
330
19
102
}
330
19
100
AcDbDictionary
281
     1
  0
XRECORD
  5
17A51
102
{ACAD_REACTORS
330
19
102
}
330
19
100
AcDbXrecord
280
     1
300
ACD
300
2023
300

  0
DICTIONARY
  5
674
102
{ACAD_REACTORS
330
19
102
}
330
19
100
AcDbDictionary
281
     1
  0
DICTIONARY
  5
BBF
102
{ACAD_REACTORS
330
19
102
}
330
19
100
AcDbDictionary
281
     1
  3
Metric50
350
17A45
  0
FIELDLIST
  5
36B0
102
{ACAD_REACTORS
330
19
102
}
330
19
100
AcDbIdSet
 90
        2
330
36B1
330
36AD
100
AcDbFieldList
  0
DICTIONARY
  5
1A
102
{ACAD_REACTORS
330
19
102
}
330
19
100
AcDbDictionary
281
     1
  3
*A1
350
1730A
  3
*A2
350
177F1
  3
*A3
350
177F2
  0
RASTERVARIABLES
  5
27B
102
{ACAD_REACTORS
330
19
102
}
330
19
100
AcDbRasterVariables
 90
        0
 70
     1
 71
     1
 72
     1
  0
DICTIONARY
  5
1E
102
{ACAD_REACTORS
330
19
102
}
330
19
100
AcDbDictionary
281
     1
  3
Layout1
350
21
  3
Model
350
20
  0
DICTIONARY
  5
263
102
{ACAD_REACTORS
330
19
102
}
330
19
100
AcDbDictionary
281
     1
  3
ByBlock
350
265
  3
ByLayer
350
264
  3
Global
350
266
  0
DICTIONARY
  5
336
102
{ACAD_REACTORS
330
19
102
}
330
19
100
AcDbDictionary
281
     1
  3
Standard
350
D59
  0
DICTIONARY
  5
1B
102
{ACAD_REACTORS
330
19
102
}
330
19
100
AcDbDictionary
281
     1
  3
Standard
350
1C
  0
DICTIONARY
  5
22
102
{ACAD_REACTORS
330
19
102
}
330
19
100
AcDbDictionary
281
     1
  0
ACDBDICTIONARYWDFLT
  5
1F
102
{ACAD_REACTORS
330
19
102
}
330
19
100
AcDbDictionary
281
     1
  3
Normal
350
1D
100
AcDbDictionaryWithDefault
340
1D
  0
DICTIONARY
  5
17A91
102
{ACAD_REACTORS
330
19
102
}
330
19
100
AcDbDictionary
281
     1
  3
Coffee-Break Quality
350
17A95
  3
High
350
17A94
  3
Low
350
17A92
  3
Lunch Quality
350
17A96
  3
Medium
350
17A93
  3
Overnight Quality
350
17A97
  0
DICTIONARY
  5
241
102
{ACAD_REACTORS
330
19
102
}
330
19
100
AcDbDictionary
281
     1
  3
A0
350
242
  3
A1
350
243
  3
A2
350
244
  3
A3
350
245
  3
A4
350
246
  3
A5
350
247
  3
A6
350
248
  3
A7
350
249
  3
A8
350
24A
  3
A9
350
24B
  3
B0
350
24C
  3
B1
350
24D
  3
B2
350
24E
  3
B3
350
24F
  3
B4
350
250
  3
B5
350
251
  3
B6
350
252
  3
B7
350
253
  3
B8
350
254
  3
B9
350
255
  3
C0
350
256
  3
C1
350
257
  3
C2
350
258
  3
C3
350
259
  3
C4
350
25A
  3
C5
350
25B
  3
C6
350
25C
  3
C7
350
25D
  3
C8
350
25E
  3
C9
350
25F
  3
D0
350
260
  3
D1
350
261
  3
D2
350
262
  0
DICTIONARY
  5
BC0
102
{ACAD_REACTORS
330
19
102
}
330
19
100
AcDbDictionary
281
     1
  3
Metric50
350
17A44
  0
DICTIONARY
  5
278
102
{ACAD_REACTORS
330
19
102
}
330
19
100
AcDbDictionary
281
     1
  3
Standard
350
279
  0
DICTIONARY
  5
267
102
{ACAD_REACTORS
330
19
102
}
330
19
100
AcDbDictionary
281
     1
  3
*A1
350
3666
  3
2dWireframe
350
26C
  3
3D Hidden
350
26E
  3
3dWireframe
350
26D
  3
Basic
350
26F
  3
Brighten
350
273
  3
ColorChange
350
277
  3
Conceptual
350
271
  3
Dim
350
272
  3
EdgeColorOff
350
8FE
  3
Facepattern
350
276
  3
Flat
350
268
  3
FlatWithEdges
350
269
  3
Gouraud
350
26A
  3
GouraudWithEdges
350
26B
  3
Hidden
350
8FB
  3
JitterOff
350
8FC
  3
Linepattern
350
275
  3
OverhangOff
350
8FD
  3
Realistic
350
270
  3
Shaded
350
903
  3
Shaded with edges
350
902
  3
Shades of Gray
350
8FF
  3
Sketchy
350
900
  3
Thicken
350
274
  3
Wireframe
350
8FA
  3
X-Ray
350
901
  0
XRECORD
  5
17AA9
102
{ACAD_REACTORS
330
19
102
}
330
19
100
AcDbXrecord
280
     1
 90
        1
330
279
  0
DICTIONARY
  5
330
102
{ACAD_REACTORS
330
19
102
}
330
19
100
AcDbDictionary
281
     1
  3
CANNOSCALE
350
331
  3
CMLEADERSTYLE
350
D5E
  3
CTABLESTYLE
350
335
  3
CVIEWDETAILSTYLE
350
17A71
  3
CVIEWSECTIONSTYLE
350
17A72
  3
HPTRANSPARENCY
350
D52
  3
LAYEREVAL
350
17A73
  3
LAYERNOTIFY
350
17A74
  0
DICTIONARY
  5
27A
102
{ACAD_REACTORS
330
19
102
}
330
19
100
AcDbDictionary
281
     1
  0
DICTIONARY
  5
17A54
102
{ACAD_REACTORS
330
19
102
}
330
19
100
AcDbDictionary
281
     1
  3
ASEBlockHierarchyIndexRecord
350
17A56
1001
DCO15
1040
2109759460.0
  0
DICTIONARY
  5
366B
102
{ACAD_REACTORS
330
19
102
}
330
19
100
AcDbDictionary
281
     1
  3
CLEXTENSION
350
36AB
  0
DICTIONARY
  5
E38
102
{ACAD_REACTORS
330
19
102
}
330
19
100
AcDbDictionary
281
     1
  3
DIMRAILANGLE
350
36A9
  3
DIMRAILFIRSTOFFSET
350
36A7
  3
DIMRAILOFFSET
350
36A8
  3
DIMRAILSENABLED
350
36AA
  0
DICTIONARY
  5
2E2
102
{ACAD_REACTORS
330
2E1
102
}
330
2E1
100
AcDbDictionary
281
     1
  0
DICTIONARY
  5
DDE
102
{ACAD_REACTORS
330
2E1
102
}
330
2E1
100
AcDbDictionary
281
     1
1001
ACAD
1000
<All
  0
XRECORD
  5
17A5F
102
{ACAD_REACTORS
330
17A5E
102
}
330
17A5E
100
AcDbXrecord
280
     1
290
     1
  0
XRECORD
  5
17A61
102
{ACAD_REACTORS
330
17A60
102
}
330
17A60
100
AcDbXrecord
280
     1
290
     1
  0
XRECORD
  5
17A63
102
{ACAD_REACTORS
330
17A62
102
}
330
17A62
100
AcDbXrecord
280
     1
290
     1
  0
XRECORD
  5
17A65
102
{ACAD_REACTORS
330
17A64
102
}
330
17A64
100
AcDbXrecord
280
     1
290
     1
  0
XRECORD
  5
17A67
102
{ACAD_REACTORS
330
17A66
102
}
330
17A66
100
AcDbXrecord
280
     1
290
     1
  0
XRECORD
  5
17A69
102
{ACAD_REACTORS
330
17A68
102
}
330
17A68
100
AcDbXrecord
280
     1
290
     1
  0
XRECORD
  5
17563
102
{ACAD_REACTORS
330
17562
102
}
330
17562
100
AcDbXrecord
280
     1
290
     1
  0
SORTENTSTABLE
  5
1733F
102
{ACAD_REACTORS
330
1733E
102
}
330
1733E
100
AcDbSortentsTable
330
A
331
172F9
  5
172B7
331
172FA
  5
172F8
331
17305
  5
172F9
331
17306
  5
172FA
331
17307
  5
17305
331
17308
  5
17306
331
17309
  5
17307
  0
SORTENTSTABLE
  5
176F0
102
{ACAD_REACTORS
330
176EF
102
}
330
176EF
100
AcDbSortentsTable
330
176EE
  0
DICTIONARY
  5
17A25
102
{ACAD_REACTORS
330
36AE
102
}
330
36AE
100
AcDbDictionary
280
     1
281
     1
  3
TEXT
360
36AD
  0
DIMASSOC
  5
176C0
102
{ACAD_REACTORS
330
176BF
102
}
330
176BF
100
AcDbDimAssoc
330
176BE
 90
        3
 70
     0
 71
     1
  1
AcDbOsnapPointRef
 72
    13
331
17648
 73
     0
 91
        0
 40
0.0
 10
0.0
 20
0.0
 30
0.0
 75
     0
  1
AcDbOsnapPointRef
 72
    13
331
17642
 73
     0
 91
        0
 40
0.0
 10
0.0
 20
0.0
 30
0.0
 75
     0
  0
DIMASSOC
  5
176CF
102
{ACAD_REACTORS
330
176CE
102
}
330
176CE
100
AcDbDimAssoc
330
176CD
 90
        3
 70
     0
 71
     1
  1
AcDbOsnapPointRef
 72
    10
331
1762F
 73
     0
 91
        0
 40
0.8145206479817787
 10
0.0
 20
0.0
 30
0.0
 75
     0
  1
AcDbOsnapPointRef
 72
     8
331
17630
 73
     0
 91
        0
 40
0.1854793520182212
 10
0.0
 20
0.0
 30
0.0
 75
     1
  1
AcDbOsnapPointRef
 72
    10
331
1762F
 73
     0
 91
        0
 40
0.8145206479817787
 10
0.0
 20
0.0
 30
0.0
 75
     0
  0
DIMASSOC
  5
179E9
102
{ACAD_REACTORS
330
179E8
102
}
330
179E8
100
AcDbDimAssoc
330
179E7
 90
        3
 70
     0
 71
     1
  1
AcDbOsnapPointRef
 72
    13
331
179B7
 73
     0
 91
        0
 40
0.0
 10
0.0
 20
0.0
 30
0.0
 75
     0
  1
AcDbOsnapPointRef
 72
    13
331
179C7
 73
     0
 91
        0
 40
0.0
 10
0.0
 20
0.0
 30
0.0
 75
     0
  0
DIMASSOC
  5
179F9
102
{ACAD_REACTORS
330
179F8
102
}
330
179F8
100
AcDbDimAssoc
330
179F7
 90
        2
 70
     0
 71
     1
  1
AcDbOsnapPointRef
 72
     1
331
17849
 73
     0
 91
        0
 40
0.0
 10
0.0
 20
0.0
 30
0.0
 75
     0
  0
DIMASSOC
  5
17A0A
102
{ACAD_REACTORS
330
17A09
102
}
330
17A09
100
AcDbDimAssoc
330
17A08
 90
        1
 70
     0
 71
     1
  1
AcDbOsnapPointRef
 72
    13
331
17849
 73
     0
 91
        0
 40
0.0
 10
0.0
 20
0.0
 30
0.0
 75
     0
  0
DIMASSOC
  5
17A2B
102
{ACAD_REACTORS
330
17A2A
102
}
330
17A2A
100
AcDbDimAssoc
330
17A29
 90
        3
 70
     0
 71
     1
  1
AcDbOsnapPointRef
 72
    13
331
17648
 73
     0
 91
        0
 40
0.0
 10
0.0
 20
0.0
 30
0.0
 75
     0
  1
AcDbOsnapPointRef
 72
    13
331
17794
 73
     0
 91
        0
 40
0.0
 10
0.0
 20
0.0
 30
0.0
 75
     0
  0
ACDBDETAILVIEWSTYLE
  5
17A45
102
{ACAD_REACTORS
330
BBF
102
}
330
BBF
100
AcDbModelDocViewStyle
 70
     0
  3
Metric50
290
     0
300
Metric50
 90
        0
100
AcDbDetailViewStyle
 70
     0
 71
     0
 90
        3
 71
     1
340
17
 62
   256
 40
5.0
340
0
 62
   256
 40
5.0
300

 40
0.0
280
     1
 71
     2
340
13
 90
       25
 62
   256
 71
     3
340
17
 62
   256
 40
5.0
 90
        0
 40
15.0
 90
        1
300
%<\AcVar ViewDetailId>% (%<\AcVar ViewScale \f "%sn">%)
 71
     4
340
13
 90
       25
 62
   256
340
13
 90
       25
 62
   256
280
     0
  0
GROUP
  5
1730A
102
{ACAD_REACTORS
330
1A
102
}
330
1A
100
AcDbGroup
300

 70
     1
 71
     1
340
172F9
340
172FA
340
17305
340
17306
340
17307
340
17308
340
17309
  0
GROUP
  5
177F1
102
{ACAD_REACTORS
330
1A
102
}
330
1A
100
AcDbGroup
300

 70
     1
 71
     1
340
177E3
340
177E4
340
177E5
340
177E6
340
177E7
340
177E8
340
177E9
340
177EA
340
177EB
340
177EC
340
177ED
340
177EE
340
177EF
  0
GROUP
  5
177F2
102
{ACAD_REACTORS
330
1A
102
}
330
1A
100
AcDbGroup
300

 70
     1
 71
     1
340
17793
340
17794
340
17795
340
17796
340
17797
340
17798
340
17799
340
1779A
340
1779B
340
1779C
340
1779D
340
1779E
340
1779F
340
177A0
340
177A1
340
177A2
  0
LAYOUT
  5
21
102
{ACAD_REACTORS
330
1E
102
}
330
1E
100
AcDbPlotSettings
  1

  2
none_device
  4
ISO_A3_(420.00_x_297.00_MM)
  6

 40
7.5
 41
20.0
 42
7.5
 43
20.0
 44
420.0
 45
297.0
 46
0.0
 47
0.0
 48
0.0
 49
0.0
140
0.0
141
0.0
142
1.0
143
1.0
 70
     0
 72
     1
 73
     0
 74
     0
  7

 75
     0
147
1.0
 76
     0
 77
     2
 78
   300
148
0.0
149
0.0
100
AcDbLayout
  1
Layout1
 70
     0
 71
     1
 10
-7.5
 20
-20.0
 11
412.5
 21
277.0
 12
0.0
 22
0.0
 32
0.0
 14
0.0
 24
0.0
 34
0.0
 15
0.0
 25
0.0
 35
0.0
146
0.0
 13
0.0
 23
0.0
 33
0.0
 16
1.0
 26
0.0
 36
0.0
 17
0.0
 27
1.0
 37
0.0
 76
     0
330
B
331
349
  0
LAYOUT
  5
20
102
{ACAD_REACTORS
330
1E
102
}
330
1E
100
AcDbPlotSettings
  1

  2
Adobe PDF
  4
A4
  6

 40
0.0
 41
0.010498046875
 42
0.0901641845703125
 43
0.0
 44
210.0
 45
297.0
 46
0.0
 47
0.0585099356515002
 48
0.0
 49
0.0
140
0.0
141
0.0
142
1.0
143
3.001288613049789
 70
  3764
 72
     1
 73
     0
 74
     2
  7
monochrome.ctb
 75
     0
147
0.3331902155800471
 76
     0
 77
     4
 78
   300
148
0.0
149
0.0
100
AcDbLayout
  1
Model
 70
     0
 71
     0
 10
0.0
 20
0.0
 11
630.0
 21
891.0
 12
0.0
 22
0.0
 32
0.0
 14
0.0
 24
0.0
 34
-0.0000000000000071
 15
630.0
 25
891.0
 35
0.0000000000000142
146
0.0
 13
0.0
 23
0.0
 33
0.0
 16
0.0
 26
0.0
 36
0.0
 17
0.0
 27
0.0
 37
0.0
 76
     0
330
A
331
15
1001
PLOTTRANSPARENCY
1071
        0
1001
ACAD_PSEXT
1000
Adobe PDF
1000
Adobe PDF Converter
1000
Documents\*.pdf
1000

1070
     0
  0
MATERIAL
  5
265
102
{ACAD_REACTORS
330
263
102
}
330
263
100
AcDbMaterial
  1
ByBlock
  0
MATERIAL
  5
264
102
{ACAD_REACTORS
330
263
102
}
330
263
100
AcDbMaterial
  1
ByLayer
  0
MATERIAL
  5
266
102
{ACAD_REACTORS
330
263
102
}
330
263
100
AcDbMaterial
  1
Global
  0
MLEADERSTYLE
  5
D59
102
{ACAD_REACTORS
330
336
102
}
330
336
100
AcDbMLeaderStyle
179
     2
170
     2
171
     1
172
     0
 90
        2
 40
0.0
 41
0.0
173
     1
 91
-1056964608
340
11
 92
       -2
290
     1
 42
2.0
291
     1
 43
8.0
  3
Standard
 44
4.0
300

342
17
174
     1
178
     6
175
     1
176
     0
 93
-1056964608
 45
4.0
292
     0
297
     0
 46
4.0
 94
-1056964608
 47
1.0
 49
1.0
140
1.0
293
     1
141
0.0
294
     1
177
     0
142
1.0
295
     0
296
     0
143
3.75
271
     0
272
     9
273
     9
298
     0
1001
ACAD_MLEADERVER
1070
     2
  0
MLINESTYLE
  5
1C
102
{ACAD_REACTORS
330
1B
102
}
330
1B
100
AcDbMlineStyle
  2
STANDARD
 70
     0
  3

 62
     0
 51
90.0
 52
90.0
 71
     2
 49
0.5
 62
   256
  6
BYLAYER
 49
-0.5
 62
   256
  6
BYLAYER
  0
ACDBPLACEHOLDER
  5
1D
102
{ACAD_REACTORS
330
1F
102
}
330
1F
  0
RAPIDRTRENDERSETTINGS
  5
17A95
102
{ACAD_REACTORS
330
17A91
102
}
330
17A91
100
AcDbRenderSettings
 90
        2
  1
Coffee-Break Quality
290
     1
290
     0
290
     1
290
     1
  1

  1
Renders for 10 minutes
 90
        3
100
AcDbRapidRTRenderSettings
 90
        3
 70
     1
 90
        1
 90
       10
 70
     1
 70
     2
 40
3.0
 40
3.0
290
     1
  0
RAPIDRTRENDERSETTINGS
  5
17A94
102
{ACAD_REACTORS
330
17A91
102
}
330
17A91
100
AcDbRenderSettings
 90
        2
  1
High
290
     1
290
     0
290
     1
290
     1
  1

  1
Applies 10 rendering levels
 90
        2
100
AcDbRapidRTRenderSettings
 90
        3
 70
     0
 90
       10
 90
        1
 70
     2
 70
     2
 40
3.0
 40
3.0
290
     1
  0
RAPIDRTRENDERSETTINGS
  5
17A92
102
{ACAD_REACTORS
330
17A91
102
}
330
17A91
100
AcDbRenderSettings
 90
        2
  1
Low
290
     1
290
     0
290
     1
290
     1
  1

  1
Applies 1 rendering level
 90
        0
100
AcDbRapidRTRenderSettings
 90
        3
 70
     0
 90
        1
 90
        1
 70
     0
 70
     2
 40
3.0
 40
3.0
290
     1
  0
RAPIDRTRENDERSETTINGS
  5
17A96
102
{ACAD_REACTORS
330
17A91
102
}
330
17A91
100
AcDbRenderSettings
 90
        2
  1
Lunch Quality
290
     1
290
     0
290
     1
290
     1
  1

  1
Renders for 60 minutes
 90
        4
100
AcDbRapidRTRenderSettings
 90
        3
 70
     1
 90
        1
 90
       60
 70
     2
 70
     2
 40
3.0
 40
3.0
290
     1
  0
RAPIDRTRENDERSETTINGS
  5
17A93
102
{ACAD_REACTORS
330
17A91
102
}
330
17A91
100
AcDbRenderSettings
 90
        2
  1
Medium
290
     1
290
     0
290
     1
290
     1
  1

  1
Applies 5 rendering levels
 90
        1
100
AcDbRapidRTRenderSettings
 90
        3
 70
     0
 90
        5
 90
        1
 70
     1
 70
     2
 40
3.0
 40
3.0
290
     1
  0
RAPIDRTRENDERSETTINGS
  5
17A97
102
{ACAD_REACTORS
330
17A91
102
}
330
17A91
100
AcDbRenderSettings
 90
        2
  1
Overnight Quality
290
     1
290
     0
290
     1
290
     1
  1

  1
Renders for 12 hours
 90
        5
100
AcDbRapidRTRenderSettings
 90
        3
 70
     1
 90
        1
 90
      720
 70
     2
 70
     2
 40
3.0
 40
3.0
290
     1
  0
SCALE
  5
242
102
{ACAD_REACTORS
330
241
102
}
330
241
100
AcDbScale
 70
     0
300
1:1
140
1.0
141
1.0
290
     1
  0
SCALE
  5
243
102
{ACAD_REACTORS
330
241
102
}
330
241
100
AcDbScale
 70
     0
300
1:2
140
1.0
141
2.0
290
     0
  0
SCALE
  5
244
102
{ACAD_REACTORS
330
241
102
}
330
241
100
AcDbScale
 70
     0
300
1:4
140
1.0
141
4.0
290
     0
  0
SCALE
  5
245
102
{ACAD_REACTORS
330
241
102
}
330
241
100
AcDbScale
 70
     0
300
1:5
140
1.0
141
5.0
290
     0
  0
SCALE
  5
246
102
{ACAD_REACTORS
330
241
102
}
330
241
100
AcDbScale
 70
     0
300
1:8
140
1.0
141
8.0
290
     0
  0
SCALE
  5
247
102
{ACAD_REACTORS
330
241
102
}
330
241
100
AcDbScale
 70
     0
300
1:10
140
1.0
141
10.0
290
     0
  0
SCALE
  5
248
102
{ACAD_REACTORS
330
241
102
}
330
241
100
AcDbScale
 70
     0
300
1:16
140
1.0
141
16.0
290
     0
  0
SCALE
  5
249
102
{ACAD_REACTORS
330
241
102
}
330
241
100
AcDbScale
 70
     0
300
1:20
140
1.0
141
20.0
290
     0
  0
SCALE
  5
24A
102
{ACAD_REACTORS
330
241
102
}
330
241
100
AcDbScale
 70
     0
300
1:30
140
1.0
141
30.0
290
     0
  0
SCALE
  5
24B
102
{ACAD_REACTORS
330
241
102
}
330
241
100
AcDbScale
 70
     0
300
1:40
140
1.0
141
40.0
290
     0
  0
SCALE
  5
24C
102
{ACAD_REACTORS
330
241
102
}
330
241
100
AcDbScale
 70
     0
300
1:50
140
1.0
141
50.0
290
     0
  0
SCALE
  5
24D
102
{ACAD_REACTORS
330
241
102
}
330
241
100
AcDbScale
 70
     0
300
1:100
140
1.0
141
100.0
290
     0
  0
SCALE
  5
24E
102
{ACAD_REACTORS
330
241
102
}
330
241
100
AcDbScale
 70
     0
300
2:1
140
2.0
141
1.0
290
     0
  0
SCALE
  5
24F
102
{ACAD_REACTORS
330
241
102
}
330
241
100
AcDbScale
 70
     0
300
4:1
140
4.0
141
1.0
290
     0
  0
SCALE
  5
250
102
{ACAD_REACTORS
330
241
102
}
330
241
100
AcDbScale
 70
     0
300
8:1
140
8.0
141
1.0
290
     0
  0
SCALE
  5
251
102
{ACAD_REACTORS
330
241
102
}
330
241
100
AcDbScale
 70
     0
300
10:1
140
10.0
141
1.0
290
     0
  0
SCALE
  5
252
102
{ACAD_REACTORS
330
241
102
}
330
241
100
AcDbScale
 70
     0
300
100:1
140
100.0
141
1.0
290
     0
  0
SCALE
  5
253
102
{ACAD_REACTORS
330
241
102
}
330
241
100
AcDbScale
 70
     0
300
1/128" = 1'-0"
140
0.0078125
141
12.0
290
     0
  0
SCALE
  5
254
102
{ACAD_REACTORS
330
241
102
}
330
241
100
AcDbScale
 70
     0
300
1/64" = 1'-0"
140
0.015625
141
12.0
290
     0
  0
SCALE
  5
255
102
{ACAD_REACTORS
330
241
102
}
330
241
100
AcDbScale
 70
     0
300
1/32" = 1'-0"
140
0.03125
141
12.0
290
     0
  0
SCALE
  5
256
102
{ACAD_REACTORS
330
241
102
}
330
241
100
AcDbScale
 70
     0
300
1/16" = 1'-0"
140
0.0625
141
12.0
290
     0
  0
SCALE
  5
257
102
{ACAD_REACTORS
330
241
102
}
330
241
100
AcDbScale
 70
     0
300
3/32" = 1'-0"
140
0.09375
141
12.0
290
     0
  0
SCALE
  5
258
102
{ACAD_REACTORS
330
241
102
}
330
241
100
AcDbScale
 70
     0
300
1/8" = 1'-0"
140
0.125
141
12.0
290
     0
  0
SCALE
  5
259
102
{ACAD_REACTORS
330
241
102
}
330
241
100
AcDbScale
 70
     0
300
3/16" = 1'-0"
140
0.1875
141
12.0
290
     0
  0
SCALE
  5
25A
102
{ACAD_REACTORS
330
241
102
}
330
241
100
AcDbScale
 70
     0
300
1/4" = 1'-0"
140
0.25
141
12.0
290
     0
  0
SCALE
  5
25B
102
{ACAD_REACTORS
330
241
102
}
330
241
100
AcDbScale
 70
     0
300
3/8" = 1'-0"
140
0.375
141
12.0
290
     0
  0
SCALE
  5
25C
102
{ACAD_REACTORS
330
241
102
}
330
241
100
AcDbScale
 70
     0
300
1/2" = 1'-0"
140
0.5
141
12.0
290
     0
  0
SCALE
  5
25D
102
{ACAD_REACTORS
330
241
102
}
330
241
100
AcDbScale
 70
     0
300
3/4" = 1'-0"
140
0.75
141
12.0
290
     0
  0
SCALE
  5
25E
102
{ACAD_REACTORS
330
241
102
}
330
241
100
AcDbScale
 70
     0
300
1" = 1'-0"
140
1.0
141
12.0
290
     0
  0
SCALE
  5
25F
102
{ACAD_REACTORS
330
241
102
}
330
241
100
AcDbScale
 70
     0
300
1-1/2" = 1'-0"
140
1.5
141
12.0
290
     0
  0
SCALE
  5
260
102
{ACAD_REACTORS
330
241
102
}
330
241
100
AcDbScale
 70
     0
300
3" = 1'-0"
140
3.0
141
12.0
290
     0
  0
SCALE
  5
261
102
{ACAD_REACTORS
330
241
102
}
330
241
100
AcDbScale
 70
     0
300
6" = 1'-0"
140
6.0
141
12.0
290
     0
  0
SCALE
  5
262
102
{ACAD_REACTORS
330
241
102
}
330
241
100
AcDbScale
 70
     0
300
1'-0" = 1'-0"
140
12.0
141
12.0
290
     0
  0
ACDBSECTIONVIEWSTYLE
  5
17A44
102
{ACAD_REACTORS
330
BC0
102
}
330
BC0
100
AcDbModelDocViewStyle
 70
     0
  3
Metric50
290
     0
300
Metric50
 90
        0
100
AcDbSectionViewStyle
 70
     0
 71
     0
 90
      102
 71
     1
340
17
 62
   256
 40
5.0
340
0
340
0
 62
   256
 40
5.0
300
I, O, Q, S, X, Z
 40
10.0
 90
        0
 40
2.5
 90
        0
 71
     2
340
13
 90
       25
 62
   256
340
13
 90
       50
 62
   256
 40
5.0
 40
2.5
 40
5.0
 71
     3
340
17
 62
   256
 40
5.0
 90
        0
 40
15.0
 90
        1
300
%<\AcVar ViewSectionStartId>%-%<\AcVar ViewSectionEndId>% (%<\AcVar ViewScale \f "%sn">%)
 71
     4
 62
   256
 62
   257
300
ANSI31
 40
1.0
 90
        0
290
     0
290
     0
 90
        6
 40
0.0
 40
1.570796326794896
 40
0.2617993877991494
 40
1.308996938995747
 40
-0.2617993877991494
 40
1.832595714594045
  0
TABLESTYLE
  5
279
102
{ACAD_XDICTIONARY
360
17A3C
102
}
102
{ACAD_REACTORS
330
278
102
}
330
278
100
AcDbTableStyle
280
     0
  3
Standard
 70
     0
 71
     0
 40
0.06
 41
0.06
280
     0
281
     0
  7
Standard
140
4.5
170
     2
 62
     0
 63
     7
283
     0
 90
        4
 91
        0
  1

274
    -2
284
     1
 64
     0
275
    -2
285
     1
 65
     0
276
    -2
286
     1
 66
     0
277
    -2
287
     1
 67
     0
278
    -2
288
     1
 68
     0
279
    -2
289
     1
 69
     0
  7
Standard
140
6.0
170
     5
 62
     0
 63
     7
283
     0
 90
        4
 91
        0
  1

274
    -2
284
     1
 64
     0
275
    -2
285
     1
 65
     0
276
    -2
286
     1
 66
     0
277
    -2
287
     1
 67
     0
278
    -2
288
     1
 68
     0
279
    -2
289
     1
 69
     0
  7
Standard
140
4.5
170
     5
 62
     0
 63
     7
283
     0
 90
        4
 91
        0
  1

274
    -2
284
     1
 64
     0
275
    -2
285
     1
 65
     0
276
    -2
286
     1
 66
     0
277
    -2
287
     1
 67
     0
278
    -2
288
     1
 68
     0
279
    -2
289
     1
 69
     0
  0
VISUALSTYLE
  5
3666
102
{ACAD_REACTORS
330
267
102
}
330
267
100
AcDbVisualStyle
  2

 70
    10
177
     3
291
     0
 70
    58
 90
        0
176
     1
 90
        2
176
     1
 90
        0
176
     1
 90
        0
176
     1
 40
0.6
176
     1
 40
30.0
176
     1
 62
     7
420
 16777215
176
     1
 90
        1
176
     1
 90
        4
176
     1
 62
     7
176
     1
 62
   257
176
     1
 90
        1
176
     1
 90
        1
176
     1
 40
1.0
176
     1
 90
        8
176
     1
 62
     7
176
     1
 40
1.0
176
     1
 90
        1
176
     1
 90
        6
176
     1
 90
        2
176
     1
 62
     7
176
     1
 90
        5
176
     1
 90
        0
176
     1
 90
        0
176
     1
290
     0
176
     1
 90
        1
176
     1
 40
0.0
176
     1
 90
        0
176
     1
290
     0
176
     1
290
     1
176
     1
290
     1
176
     1
290
     0
176
     1
290
     0
176
     1
290
     0
176
     1
290
     0
176
     1
290
     0
176
     1
290
     0
176
     1
 90
       50
176
     1
 40
0.0
176
     1
 40
1.0
176
     1
 90
        0
176
     1
 62
    18
176
     1
 90
       50
176
     1
 90
        3
176
     1
 62
     5
420
      255
176
     1
290
     0
176
     1
 90
       50
176
     1
 90
       50
176
     1
 90
       50
176
     1
290
     0
176
     1
 90
       50
176
     1
 62
   256
176
     0
 40
1.0
176
     0
 90
        2
176
     1
  1
strokes_ogs.tif
176
     1
290
     0
176
     1
 40
1.0
176
     1
 40
1.0
176
     1
  0
VISUALSTYLE
  5
26C
102
{ACAD_REACTORS
330
267
102
}
330
267
100
AcDbVisualStyle
  2

 70
     4
177
     3
291
     0
 70
    58
 90
        0
176
     1
 90
        2
176
     1
 90
        0
176
     1
 90
        0
176
     1
 40
0.6
176
     1
 40
30.0
176
     1
 62
     7
420
 16777215
176
     1
 90
        1
176
     1
 90
        4
176
     1
 62
     7
176
     1
 62
   257
176
     1
 90
        1
176
     1
 90
        1
176
     1
 40
1.0
176
     1
 90
        0
176
     1
 62
   257
176
     1
 40
1.0
176
     1
 90
        1
176
     1
 90
        6
176
     1
 90
        2
176
     1
 62
     7
176
     1
 90
        5
176
     1
 90
        0
176
     1
 90
        0
176
     1
290
     0
176
     1
 90
        1
176
     1
 40
0.0
176
     1
 90
        0
176
     1
290
     1
176
     1
290
     1
176
     1
290
     0
176
     1
290
     0
176
     1
290
     0
176
     1
290
     0
176
     1
290
     0
176
     1
290
     0
176
     1
290
     0
176
     1
 90
       50
176
     1
 40
0.0
176
     1
 40
1.0
176
     1
 90
        0
176
     1
 62
    18
176
     1
 90
       50
176
     1
 90
        3
176
     1
 62
     5
420
      255
176
     1
290
     0
176
     1
 90
       50
176
     1
 90
       50
176
     1
 90
       50
176
     1
290
     0
176
     1
 90
       50
176
     1
 62
   256
176
     0
 40
1.0
176
     0
 90
        2
176
     1
  1
strokes_ogs.tif
176
     1
290
     0
176
     1
 40
1.0
176
     1
 40
1.0
176
     1
  0
VISUALSTYLE
  5
26E
102
{ACAD_REACTORS
330
267
102
}
330
267
100
AcDbVisualStyle
  2

 70
     6
177
     3
291
     0
 70
    58
 90
        1
176
     1
 90
        2
176
     1
 90
        2
176
     1
 90
        0
176
     1
 40
0.6
176
     1
 40
30.0
176
     1
 62
     7
420
 16777215
176
     1
 90
        2
176
     1
 90
        2
176
     1
 62
     7
176
     1
 62
   257
176
     1
 90
        2
176
     1
 90
        1
176
     1
 40
40.0
176
     1
 90
        0
176
     1
 62
   257
176
     1
 40
1.0
176
     1
 90
        1
176
     1
 90
        6
176
     1
 90
        2
176
     1
 62
     7
176
     1
 90
        3
176
     1
 90
        0
176
     1
 90
        0
176
     1
290
     0
176
     1
 90
        1
176
     1
 40
0.0
176
     1
 90
        0
176
     1
290
     0
176
     1
290
     1
176
     1
290
     1
176
     1
290
     0
176
     1
290
     0
176
     1
290
     0
176
     1
290
     0
176
     1
290
     0
176
     1
290
     0
176
     1
 90
       50
176
     1
 40
0.0
176
     1
 40
1.0
176
     1
 90
        0
176
     1
 62
    18
176
     1
 90
       50
176
     1
 90
        3
176
     1
 62
     5
420
      255
176
     1
290
     0
176
     1
 90
       50
176
     1
 90
       50
176
     1
 90
       50
176
     1
290
     0
176
     1
 90
       50
176
     1
 62
   256
176
     0
 40
1.0
176
     0
 90
        2
176
     1
  1
strokes_ogs.tif
176
     1
290
     0
176
     1
 40
1.0
176
     1
 40
1.0
176
     1
  0
VISUALSTYLE
  5
26D
102
{ACAD_REACTORS
330
267
102
}
330
267
100
AcDbVisualStyle
  2

 70
     5
177
     3
291
     0
 70
    58
 90
        0
176
     1
 90
        2
176
     1
 90
        0
176
     1
 90
        0
176
     1
 40
0.6
176
     1
 40
30.0
176
     1
 62
     7
420
 16777215
176
     1
 90
        1
176
     1
 90
        4
176
     1
 62
     7
176
     1
 62
   257
176
     1
 90
        1
176
     1
 90
        1
176
     1
 40
1.0
176
     1
 90
        0
176
     1
 62
   257
176
     1
 40
1.0
176
     1
 90
        1
176
     1
 90
        6
176
     1
 90
        2
176
     1
 62
     7
176
     1
 90
        5
176
     1
 90
        0
176
     1
 90
        0
176
     1
290
     0
176
     1
 90
        1
176
     1
 40
0.0
176
     1
 90
        0
176
     1
290
     0
176
     1
290
     1
176
     1
290
     1
176
     1
290
     0
176
     1
290
     0
176
     1
290
     0
176
     1
290
     0
176
     1
290
     0
176
     1
290
     0
176
     1
 90
       50
176
     1
 40
0.0
176
     1
 40
1.0
176
     1
 90
        0
176
     1
 62
    18
176
     1
 90
       50
176
     1
 90
        3
176
     1
 62
     5
420
      255
176
     1
290
     0
176
     1
 90
       50
176
     1
 90
       50
176
     1
 90
       50
176
     1
290
     0
176
     1
 90
       50
176
     1
 62
   256
176
     0
 40
1.0
176
     0
 90
        2
176
     1
  1
strokes_ogs.tif
176
     1
290
     0
176
     1
 40
1.0
176
     1
 40
1.0
176
     1
  0
VISUALSTYLE
  5
26F
102
{ACAD_REACTORS
330
267
102
}
330
267
100
AcDbVisualStyle
  2

 70
     7
177
     3
291
     1
 70
    58
 90
        1
176
     1
 90
        0
176
     1
 90
        1
176
     1
 90
        0
176
     1
 40
0.6
176
     1
 40
30.0
176
     1
 62
     7
420
 16777215
176
     1
 90
        0
176
     1
 90
        4
176
     1
 62
     7
176
     1
 62
   257
176
     1
 90
        1
176
     1
 90
        1
176
     1
 40
1.0
176
     1
 90
        8
176
     1
 62
     7
176
     1
 40
1.0
176
     1
 90
        1
176
     1
 90
        6
176
     1
 90
        2
176
     1
 62
     7
176
     1
 90
        5
176
     1
 90
        0
176
     1
 90
        0
176
     1
290
     0
176
     1
 90
        1
176
     1
 40
0.0
176
     1
 90
        0
176
     1
290
     0
176
     1
290
     1
176
     1
290
     1
176
     1
290
     0
176
     1
290
     0
176
     1
290
     0
176
     1
290
     0
176
     1
290
     0
176
     1
290
     0
176
     1
 90
       50
176
     1
 40
0.0
176
     1
 40
1.0
176
     1
 90
        0
176
     1
 62
    18
176
     1
 90
       50
176
     1
 90
        3
176
     1
 62
     5
420
      255
176
     1
290
     0
176
     1
 90
       50
176
     1
 90
       50
176
     1
 90
       50
176
     1
290
     0
176
     1
 90
       50
176
     1
 62
   256
176
     0
 40
1.0
176
     0
 90
        2
176
     1
  1
strokes_ogs.tif
176
     1
290
     0
176
     1
 40
1.0
176
     1
 40
1.0
176
     1
  0
VISUALSTYLE
  5
273
102
{ACAD_REACTORS
330
267
102
}
330
267
100
AcDbVisualStyle
  2

 70
    12
177
     3
291
     1
 70
    58
 90
        2
176
     1
 90
        2
176
     1
 90
        0
176
     1
 90
        0
176
     1
 40
0.6
176
     1
 40
30.0
176
     1
 62
     7
420
 16777215
176
     1
 90
        1
176
     1
 90
        4
176
     1
 62
     7
176
     1
 62
   257
176
     1
 90
        1
176
     1
 90
        1
176
     1
 40
1.0
176
     1
 90
        8
176
     1
 62
     7
176
     1
 40
1.0
176
     1
 90
        1
176
     1
 90
        6
176
     1
 90
        2
176
     1
 62
     7
176
     1
 90
        5
176
     1
 90
        0
176
     1
 90
        0
176
     1
290
     0
176
     1
 90
        1
176
     1
 40
50.0
176
     1
 90
        0
176
     1
290
     0
176
     1
290
     1
176
     1
290
     1
176
     1
290
     0
176
     1
290
     0
176
     1
290
     0
176
     1
290
     0
176
     1
290
     0
176
     1
290
     0
176
     1
 90
       50
176
     1
 40
0.0
176
     1
 40
1.0
176
     1
 90
        0
176
     1
 62
    18
176
     1
 90
       50
176
     1
 90
        3
176
     1
 62
     5
420
      255
176
     1
290
     0
176
     1
 90
       50
176
     1
 90
       50
176
     1
 90
       50
176
     1
290
     0
176
     1
 90
       50
176
     1
 62
   256
176
     0
 40
1.0
176
     0
 90
        2
176
     1
  1
strokes_ogs.tif
176
     1
290
     0
176
     1
 40
1.0
176
     1
 40
1.0
176
     1
  0
VISUALSTYLE
  5
277
102
{ACAD_REACTORS
330
267
102
}
330
267
100
AcDbVisualStyle
  2

 70
    16
177
     3
291
     1
 70
    58
 90
        2
176
     1
 90
        2
176
     1
 90
        3
176
     1
 90
        0
176
     1
 40
0.6
176
     1
 40
30.0
176
     1
 62
     8
420
  8421504
176
     1
 90
        1
176
     1
 90
        4
176
     1
 62
     7
176
     1
 62
   257
176
     1
 90
        1
176
     1
 90
        1
176
     1
 40
1.0
176
     1
 90
        8
176
     1
 62
     8
420
  8421504
176
     1
 40
1.0
176
     1
 90
        1
176
     1
 90
        6
176
     1
 90
        2
176
     1
 62
     7
176
     1
 90
        5
176
     1
 90
        0
176
     1
 90
        0
176
     1
290
     0
176
     1
 90
        1
176
     1
 40
0.0
176
     1
 90
        0
176
     1
290
     0
176
     1
290
     1
176
     1
290
     1
176
     1
290
     0
176
     1
290
     0
176
     1
290
     0
176
     1
290
     0
176
     1
290
     0
176
     1
290
     0
176
     1
 90
       50
176
     1
 40
0.0
176
     1
 40
1.0
176
     1
 90
        0
176
     1
 62
    18
176
     1
 90
       50
176
     1
 90
        3
176
     1
 62
     5
420
      255
176
     1
290
     0
176
     1
 90
       50
176
     1
 90
       50
176
     1
 90
       50
176
     1
290
     0
176
     1
 90
       50
176
     1
 62
   256
176
     0
 40
1.0
176
     0
 90
        2
176
     1
  1
strokes_ogs.tif
176
     1
290
     0
176
     1
 40
1.0
176
     1
 40
1.0
176
     1
  0
VISUALSTYLE
  5
271
102
{ACAD_REACTORS
330
267
102
}
330
267
100
AcDbVisualStyle
  2

 70
     9
177
     3
291
     0
 70
    58
 90
        3
176
     1
 90
        2
176
     1
 90
        0
176
     1
 90
        0
176
     1
 40
0.6
176
     1
 40
30.0
176
     1
 62
     7
420
 16777215
176
     1
 90
        2
176
     1
 90
        2
176
     1
 62
     7
176
     1
 62
   257
176
     1
 90
        1
176
     1
 90
        1
176
     1
 40
40.0
176
     1
 90
        8
176
     1
 62
     7
176
     1
 40
1.0
176
     1
 90
        1
176
     1
 90
        6
176
     1
 90
        2
176
     1
 62
     7
176
     1
 90
        3
176
     1
 90
        0
176
     1
 90
        0
176
     1
290
     0
176
     1
 90
        1
176
     1
 40
0.0
176
     1
 90
        0
176
     1
290
     0
176
     1
290
     1
176
     1
290
     1
176
     1
290
     0
176
     1
290
     0
176
     1
290
     0
176
     1
290
     0
176
     1
290
     0
176
     1
290
     0
176
     1
 90
       50
176
     1
 40
0.0
176
     1
 40
1.0
176
     1
 90
        0
176
     1
 62
    18
176
     1
 90
       50
176
     1
 90
        3
176
     1
 62
     5
420
      255
176
     1
290
     0
176
     1
 90
       50
176
     1
 90
       50
176
     1
 90
       50
176
     1
290
     0
176
     1
 90
       50
176
     1
 62
   256
176
     0
 40
1.0
176
     0
 90
        2
176
     1
  1
strokes_ogs.tif
176
     1
290
     0
176
     1
 40
1.0
176
     1
 40
1.0
176
     1
  0
VISUALSTYLE
  5
272
102
{ACAD_REACTORS
330
267
102
}
330
267
100
AcDbVisualStyle
  2

 70
    11
177
     3
291
     1
 70
    58
 90
        2
176
     1
 90
        2
176
     1
 90
        0
176
     1
 90
        0
176
     1
 40
0.6
176
     1
 40
30.0
176
     1
 62
     7
420
 16777215
176
     1
 90
        1
176
     1
 90
        4
176
     1
 62
     7
176
     1
 62
   257
176
     1
 90
        1
176
     1
 90
        1
176
     1
 40
1.0
176
     1
 90
        8
176
     1
 62
     7
176
     1
 40
1.0
176
     1
 90
        1
176
     1
 90
        6
176
     1
 90
        2
176
     1
 62
     7
176
     1
 90
        5
176
     1
 90
        0
176
     1
 90
        0
176
     1
290
     0
176
     1
 90
        1
176
     1
 40
-50.0
176
     1
 90
        0
176
     1
290
     0
176
     1
290
     1
176
     1
290
     1
176
     1
290
     0
176
     1
290
     0
176
     1
290
     0
176
     1
290
     0
176
     1
290
     0
176
     1
290
     0
176
     1
 90
       50
176
     1
 40
0.0
176
     1
 40
1.0
176
     1
 90
        0
176
     1
 62
    18
176
     1
 90
       50
176
     1
 90
        3
176
     1
 62
     5
420
      255
176
     1
290
     0
176
     1
 90
       50
176
     1
 90
       50
176
     1
 90
       50
176
     1
290
     0
176
     1
 90
       50
176
     1
 62
   256
176
     0
 40
1.0
176
     0
 90
        2
176
     1
  1
strokes_ogs.tif
176
     1
290
     0
176
     1
 40
1.0
176
     1
 40
1.0
176
     1
  0
VISUALSTYLE
  5
8FE
102
{ACAD_REACTORS
330
267
102
}
330
267
100
AcDbVisualStyle
  2

 70
    22
177
     3
291
     1
 70
    58
 90
        2
176
     1
 90
        2
176
     1
 90
        0
176
     1
 90
        0
176
     1
 40
0.6
176
     1
 40
30.0
176
     1
 62
     7
420
 16777215
176
     1
 90
        1
176
     1
 90
        4
176
     1
 62
     7
176
     1
 62
   257
176
     1
 90
        1
176
     1
 90
        1
176
     1
 40
1.0
176
     1
 90
        8
176
     1
 62
     7
176
     1
 40
1.0
176
     1
 90
        1
176
     1
 90
        6
176
     1
 90
        2
176
     1
 62
     7
176
     1
 90
        5
176
     1
 90
        0
176
     1
 90
        0
176
     1
290
     0
176
     1
 90
        1
176
     1
 40
0.0
176
     1
 90
        0
176
     1
290
     0
176
     1
290
     1
176
     1
290
     1
176
     1
290
     0
176
     1
290
     0
176
     1
290
     0
176
     1
290
     0
176
     1
290
     0
176
     1
290
     0
176
     1
 90
       50
176
     1
 40
0.0
176
     1
 40
1.0
176
     1
 90
        0
176
     1
 62
    18
176
     1
 90
       50
176
     1
 90
        3
176
     1
 62
     5
420
      255
176
     1
290
     0
176
     1
 90
       50
176
     1
 90
       50
176
     1
 90
       50
176
     1
290
     0
176
     1
 90
       50
176
     1
 62
   256
176
     0
 40
1.0
176
     0
 90
        2
176
     1
  1
strokes_ogs.tif
176
     1
290
     0
176
     1
 40
1.0
176
     1
 40
1.0
176
     1
  0
VISUALSTYLE
  5
276
102
{ACAD_REACTORS
330
267
102
}
330
267
100
AcDbVisualStyle
  2

 70
    15
177
     3
291
     1
 70
    58
 90
        2
176
     1
 90
        2
176
     1
 90
        0
176
     1
 90
        0
176
     1
 40
0.6
176
     1
 40
30.0
176
     1
 62
     7
420
 16777215
176
     1
 90
        1
176
     1
 90
        4
176
     1
 62
     7
176
     1
 62
   257
176
     1
 90
        1
176
     1
 90
        1
176
     1
 40
1.0
176
     1
 90
        8
176
     1
 62
     7
176
     1
 40
1.0
176
     1
 90
        1
176
     1
 90
        6
176
     1
 90
        2
176
     1
 62
     7
176
     1
 90
        5
176
     1
 90
        0
176
     1
 90
        0
176
     1
290
     0
176
     1
 90
        1
176
     1
 40
0.0
176
     1
 90
        0
176
     1
290
     0
176
     1
290
     1
176
     1
290
     1
176
     1
290
     0
176
     1
290
     0
176
     1
290
     0
176
     1
290
     0
176
     1
290
     0
176
     1
290
     0
176
     1
 90
       50
176
     1
 40
0.0
176
     1
 40
1.0
176
     1
 90
        0
176
     1
 62
    18
176
     1
 90
       50
176
     1
 90
        3
176
     1
 62
     5
420
      255
176
     1
290
     0
176
     1
 90
       50
176
     1
 90
       50
176
     1
 90
       50
176
     1
290
     0
176
     1
 90
       50
176
     1
 62
   256
176
     0
 40
1.0
176
     0
 90
        2
176
     1
  1
strokes_ogs.tif
176
     1
290
     0
176
     1
 40
1.0
176
     1
 40
1.0
176
     1
  0
VISUALSTYLE
  5
268
102
{ACAD_REACTORS
330
267
102
}
330
267
100
AcDbVisualStyle
  2

 70
     0
177
     3
291
     1
 70
    58
 90
        2
176
     1
 90
        1
176
     1
 90
        1
176
     1
 90
        2
176
     1
 40
0.6
176
     1
 40
30.0
176
     1
 62
     7
420
 16777215
176
     1
 90
        0
176
     1
 90
        4
176
     1
 62
     7
176
     1
 62
   257
176
     1
 90
        1
176
     1
 90
        1
176
     1
 40
1.0
176
     1
 90
        8
176
     1
 62
     7
176
     1
 40
1.0
176
     1
 90
        1
176
     1
 90
        6
176
     1
 90
        2
176
     1
 62
     7
176
     1
 90
        5
176
     1
 90
        0
176
     1
 90
        0
176
     1
290
     0
176
     1
 90
       13
176
     1
 40
0.0
176
     1
 90
        0
176
     1
290
     0
176
     1
290
     1
176
     1
290
     1
176
     1
290
     0
176
     1
290
     0
176
     1
290
     0
176
     1
290
     0
176
     1
290
     0
176
     1
290
     0
176
     1
 90
       50
176
     1
 40
0.0
176
     1
 40
1.0
176
     1
 90
        0
176
     1
 62
    18
176
     1
 90
       50
176
     1
 90
        3
176
     1
 62
     5
420
      255
176
     1
290
     0
176
     1
 90
       50
176
     1
 90
       50
176
     1
 90
       50
176
     1
290
     0
176
     1
 90
       50
176
     1
 62
   256
176
     0
 40
1.0
176
     0
 90
        2
176
     1
  1
strokes_ogs.tif
176
     1
290
     0
176
     1
 40
1.0
176
     1
 40
1.0
176
     1
  0
VISUALSTYLE
  5
269
102
{ACAD_REACTORS
330
267
102
}
330
267
100
AcDbVisualStyle
  2

 70
     1
177
     3
291
     1
 70
    58
 90
        2
176
     1
 90
        1
176
     1
 90
        1
176
     1
 90
        2
176
     1
 40
0.6
176
     1
 40
30.0
176
     1
 62
     7
420
 16777215
176
     1
 90
        1
176
     1
 90
        4
176
     1
 62
     7
176
     1
 62
   257
176
     1
 90
        1
176
     1
 90
        1
176
     1
 40
1.0
176
     1
 90
        0
176
     1
 62
   257
176
     1
 40
1.0
176
     1
 90
        1
176
     1
 90
        6
176
     1
 90
        2
176
     1
 62
     7
176
     1
 90
        5
176
     1
 90
        0
176
     1
 90
        0
176
     1
290
     0
176
     1
 90
       13
176
     1
 40
0.0
176
     1
 90
        0
176
     1
290
     0
176
     1
290
     1
176
     1
290
     1
176
     1
290
     0
176
     1
290
     0
176
     1
290
     0
176
     1
290
     0
176
     1
290
     0
176
     1
290
     0
176
     1
 90
       50
176
     1
 40
0.0
176
     1
 40
1.0
176
     1
 90
        0
176
     1
 62
    18
176
     1
 90
       50
176
     1
 90
        3
176
     1
 62
     5
420
      255
176
     1
290
     0
176
     1
 90
       50
176
     1
 90
       50
176
     1
 90
       50
176
     1
290
     0
176
     1
 90
       50
176
     1
 62
   256
176
     0
 40
1.0
176
     0
 90
        2
176
     1
  1
strokes_ogs.tif
176
     1
290
     0
176
     1
 40
1.0
176
     1
 40
1.0
176
     1
  0
VISUALSTYLE
  5
26A
102
{ACAD_REACTORS
330
267
102
}
330
267
100
AcDbVisualStyle
  2

 70
     2
177
     3
291
     1
 70
    58
 90
        2
176
     1
 90
        2
176
     1
 90
        1
176
     1
 90
        2
176
     1
 40
0.6
176
     1
 40
30.0
176
     1
 62
     7
420
 16777215
176
     1
 90
        0
176
     1
 90
        4
176
     1
 62
     7
176
     1
 62
   257
176
     1
 90
        1
176
     1
 90
        1
176
     1
 40
1.0
176
     1
 90
        0
176
     1
 62
     7
176
     1
 40
1.0
176
     1
 90
        1
176
     1
 90
        6
176
     1
 90
        2
176
     1
 62
     7
176
     1
 90
        5
176
     1
 90
        0
176
     1
 90
        0
176
     1
290
     0
176
     1
 90
       13
176
     1
 40
0.0
176
     1
 90
        0
176
     1
290
     0
176
     1
290
     1
176
     1
290
     1
176
     1
290
     0
176
     1
290
     0
176
     1
290
     0
176
     1
290
     0
176
     1
290
     0
176
     1
290
     0
176
     1
 90
       50
176
     1
 40
0.0
176
     1
 40
1.0
176
     1
 90
        0
176
     1
 62
    18
176
     1
 90
       50
176
     1
 90
        3
176
     1
 62
     5
420
      255
176
     1
290
     0
176
     1
 90
       50
176
     1
 90
       50
176
     1
 90
       50
176
     1
290
     0
176
     1
 90
       50
176
     1
 62
   256
176
     0
 40
1.0
176
     0
 90
        2
176
     1
  1
strokes_ogs.tif
176
     1
290
     0
176
     1
 40
1.0
176
     1
 40
1.0
176
     1
  0
VISUALSTYLE
  5
26B
102
{ACAD_REACTORS
330
267
102
}
330
267
100
AcDbVisualStyle
  2

 70
     3
177
     3
291
     1
 70
    58
 90
        2
176
     1
 90
        2
176
     1
 90
        1
176
     1
 90
        2
176
     1
 40
0.6
176
     1
 40
30.0
176
     1
 62
     7
420
 16777215
176
     1
 90
        1
176
     1
 90
        4
176
     1
 62
     7
176
     1
 62
   257
176
     1
 90
        1
176
     1
 90
        1
176
     1
 40
1.0
176
     1
 90
        0
176
     1
 62
   257
176
     1
 40
1.0
176
     1
 90
        1
176
     1
 90
        6
176
     1
 90
        2
176
     1
 62
     7
176
     1
 90
        5
176
     1
 90
        0
176
     1
 90
        0
176
     1
290
     0
176
     1
 90
       13
176
     1
 40
0.0
176
     1
 90
        0
176
     1
290
     0
176
     1
290
     1
176
     1
290
     1
176
     1
290
     0
176
     1
290
     0
176
     1
290
     0
176
     1
290
     0
176
     1
290
     0
176
     1
290
     0
176
     1
 90
       50
176
     1
 40
0.0
176
     1
 40
1.0
176
     1
 90
        0
176
     1
 62
    18
176
     1
 90
       50
176
     1
 90
        3
176
     1
 62
     5
420
      255
176
     1
290
     0
176
     1
 90
       50
176
     1
 90
       50
176
     1
 90
       50
176
     1
290
     0
176
     1
 90
       50
176
     1
 62
   256
176
     0
 40
1.0
176
     0
 90
        2
176
     1
  1
strokes_ogs.tif
176
     1
290
     0
176
     1
 40
1.0
176
     1
 40
1.0
176
     1
  0
VISUALSTYLE
  5
8FB
102
{ACAD_REACTORS
330
267
102
}
330
267
100
AcDbVisualStyle
  2

 70
     6
177
     3
291
     0
 70
    58
 90
        1
176
     1
 90
        2
176
     1
 90
        2
176
     1
 90
        0
176
     1
 40
0.6
176
     1
 40
30.0
176
     1
 62
     7
420
 16777215
176
     1
 90
        2
176
     1
 90
        2
176
     1
 62
     7
176
     1
 62
   257
176
     1
 90
        2
176
     1
 90
        1
176
     1
 40
40.0
176
     1
 90
        0
176
     1
 62
   257
176
     1
 40
1.0
176
     1
 90
        1
176
     1
 90
        6
176
     1
 90
        2
176
     1
 62
     7
176
     1
 90
        3
176
     1
 90
        0
176
     1
 90
        0
176
     1
290
     0
176
     1
 90
        1
176
     1
 40
0.0
176
     1
 90
        0
176
     1
290
     0
176
     1
290
     1
176
     1
290
     1
176
     1
290
     0
176
     1
290
     0
176
     1
290
     0
176
     1
290
     0
176
     1
290
     0
176
     1
290
     0
176
     1
 90
       50
176
     1
 40
0.0
176
     1
 40
1.0
176
     1
 90
        0
176
     1
 62
    18
176
     1
 90
       50
176
     1
 90
        3
176
     1
 62
     5
420
      255
176
     1
290
     0
176
     1
 90
       50
176
     1
 90
       50
176
     1
 90
       50
176
     1
290
     0
176
     1
 90
       50
176
     1
 62
   256
176
     0
 40
1.0
176
     0
 90
        2
176
     1
  1
strokes_ogs.tif
176
     1
290
     0
176
     1
 40
1.0
176
     1
 40
1.0
176
     1
  0
VISUALSTYLE
  5
8FC
102
{ACAD_REACTORS
330
267
102
}
330
267
100
AcDbVisualStyle
  2

 70
    20
177
     3
291
     1
 70
    58
 90
        2
176
     1
 90
        2
176
     1
 90
        0
176
     1
 90
        0
176
     1
 40
0.6
176
     1
 40
30.0
176
     1
 62
     7
420
 16777215
176
     1
 90
        1
176
     1
 90
        4
176
     1
 62
     7
176
     1
 62
   257
176
     1
 90
        1
176
     1
 90
        1
176
     1
 40
1.0
176
     1
 90
       10
176
     1
 62
     7
176
     1
 40
1.0
176
     1
 90
        1
176
     1
 90
        6
176
     1
 90
        2
176
     1
 62
     7
176
     1
 90
        5
176
     1
 90
        0
176
     1
 90
        0
176
     1
290
     0
176
     1
 90
        1
176
     1
 40
0.0
176
     1
 90
        0
176
     1
290
     0
176
     1
290
     1
176
     1
290
     1
176
     1
290
     0
176
     1
290
     0
176
     1
290
     0
176
     1
290
     0
176
     1
290
     0
176
     1
290
     0
176
     1
 90
       50
176
     1
 40
0.0
176
     1
 40
1.0
176
     1
 90
        0
176
     1
 62
    18
176
     1
 90
       50
176
     1
 90
        3
176
     1
 62
     5
420
      255
176
     1
290
     0
176
     1
 90
       50
176
     1
 90
       50
176
     1
 90
       50
176
     1
290
     0
176
     1
 90
       50
176
     1
 62
   256
176
     0
 40
1.0
176
     0
 90
        2
176
     1
  1
strokes_ogs.tif
176
     1
290
     0
176
     1
 40
1.0
176
     1
 40
1.0
176
     1
  0
VISUALSTYLE
  5
275
102
{ACAD_REACTORS
330
267
102
}
330
267
100
AcDbVisualStyle
  2

 70
    14
177
     3
291
     1
 70
    58
 90
        2
176
     1
 90
        2
176
     1
 90
        0
176
     1
 90
        0
176
     1
 40
0.6
176
     1
 40
30.0
176
     1
 62
     7
420
 16777215
176
     1
 90
        1
176
     1
 90
        4
176
     1
 62
     7
176
     1
 62
   257
176
     1
 90
        7
176
     1
 90
        7
176
     1
 40
1.0
176
     1
 90
        8
176
     1
 62
     7
176
     1
 40
1.0
176
     1
 90
        1
176
     1
 90
        6
176
     1
 90
        2
176
     1
 62
     7
176
     1
 90
        5
176
     1
 90
        0
176
     1
 90
        0
176
     1
290
     0
176
     1
 90
        1
176
     1
 40
0.0
176
     1
 90
        0
176
     1
290
     0
176
     1
290
     1
176
     1
290
     1
176
     1
290
     0
176
     1
290
     0
176
     1
290
     0
176
     1
290
     0
176
     1
290
     0
176
     1
290
     0
176
     1
 90
       50
176
     1
 40
0.0
176
     1
 40
1.0
176
     1
 90
        0
176
     1
 62
    18
176
     1
 90
       50
176
     1
 90
        3
176
     1
 62
     5
420
      255
176
     1
290
     0
176
     1
 90
       50
176
     1
 90
       50
176
     1
 90
       50
176
     1
290
     0
176
     1
 90
       50
176
     1
 62
   256
176
     0
 40
1.0
176
     0
 90
        2
176
     1
  1
strokes_ogs.tif
176
     1
290
     0
176
     1
 40
1.0
176
     1
 40
1.0
176
     1
  0
VISUALSTYLE
  5
8FD
102
{ACAD_REACTORS
330
267
102
}
330
267
100
AcDbVisualStyle
  2

 70
    21
177
     3
291
     1
 70
    58
 90
        2
176
     1
 90
        2
176
     1
 90
        0
176
     1
 90
        0
176
     1
 40
0.6
176
     1
 40
30.0
176
     1
 62
     7
420
 16777215
176
     1
 90
        1
176
     1
 90
        4
176
     1
 62
     7
176
     1
 62
   257
176
     1
 90
        1
176
     1
 90
        1
176
     1
 40
1.0
176
     1
 90
        9
176
     1
 62
     7
176
     1
 40
1.0
176
     1
 90
        1
176
     1
 90
        6
176
     1
 90
        2
176
     1
 62
     7
176
     1
 90
        5
176
     1
 90
        0
176
     1
 90
        0
176
     1
290
     0
176
     1
 90
        1
176
     1
 40
0.0
176
     1
 90
        0
176
     1
290
     0
176
     1
290
     1
176
     1
290
     1
176
     1
290
     0
176
     1
290
     0
176
     1
290
     0
176
     1
290
     0
176
     1
290
     0
176
     1
290
     0
176
     1
 90
       50
176
     1
 40
0.0
176
     1
 40
1.0
176
     1
 90
        0
176
     1
 62
    18
176
     1
 90
       50
176
     1
 90
        3
176
     1
 62
     5
420
      255
176
     1
290
     0
176
     1
 90
       50
176
     1
 90
       50
176
     1
 90
       50
176
     1
290
     0
176
     1
 90
       50
176
     1
 62
   256
176
     0
 40
1.0
176
     0
 90
        2
176
     1
  1
strokes_ogs.tif
176
     1
290
     0
176
     1
 40
1.0
176
     1
 40
1.0
176
     1
  0
VISUALSTYLE
  5
270
102
{ACAD_REACTORS
330
267
102
}
330
267
100
AcDbVisualStyle
  2

 70
     8
177
     3
291
     0
 70
    58
 90
        2
176
     1
 90
        2
176
     1
 90
        0
176
     1
 90
        0
176
     1
 40
0.6
176
     1
 40
30.0
176
     1
 62
     7
420
 16777215
176
     1
 90
        1
176
     1
 90
        0
176
     1
 62
     7
176
     1
 62
   257
176
     1
 90
        1
176
     1
 90
        1
176
     1
 40
1.0
176
     1
 90
        8
176
     1
 62
     8
420
  7895160
176
     1
 40
1.0
176
     1
 90
        1
176
     1
 90
        6
176
     1
 90
        2
176
     1
 62
     7
176
     1
 90
        5
176
     1
 90
        0
176
     1
 90
        0
176
     1
290
     0
176
     1
 90
       13
176
     1
 40
0.0
176
     1
 90
        0
176
     1
290
     0
176
     1
290
     1
176
     1
290
     1
176
     1
290
     0
176
     1
290
     0
176
     1
290
     0
176
     1
290
     0
176
     1
290
     0
176
     1
290
     0
176
     1
 90
       50
176
     1
 40
0.0
176
     1
 40
1.0
176
     1
 90
        0
176
     1
 62
    18
176
     1
 90
       50
176
     1
 90
        3
176
     1
 62
     5
420
      255
176
     1
290
     0
176
     1
 90
       50
176
     1
 90
       50
176
     1
 90
       50
176
     1
290
     0
176
     1
 90
       50
176
     1
 62
   256
176
     0
 40
1.0
176
     0
 90
        2
176
     1
  1
strokes_ogs.tif
176
     1
290
     0
176
     1
 40
1.0
176
     1
 40
1.0
176
     1
  0
VISUALSTYLE
  5
903
102
{ACAD_REACTORS
330
267
102
}
330
267
100
AcDbVisualStyle
  2

 70
    27
177
     3
291
     0
 70
    58
 90
        2
176
     1
 90
        2
176
     1
 90
        1
176
     1
 90
        2
176
     1
 40
0.6
176
     1
 40
30.0
176
     1
 62
     7
420
 16777215
176
     1
 90
        0
176
     1
 90
        4
176
     1
 62
     7
176
     1
 62
   257
176
     1
 90
        1
176
     1
 90
        1
176
     1
 40
1.0
176
     1
 90
        8
176
     1
 62
   257
176
     1
 40
1.0
176
     1
 90
        1
176
     1
 90
        6
176
     1
 90
        2
176
     1
 62
     8
420
  7895160
176
     1
 90
        3
176
     1
 90
        0
176
     1
 90
        0
176
     1
290
     0
176
     1
 90
        5
176
     1
 40
0.0
176
     1
 90
        0
176
     1
290
     0
176
     1
290
     1
176
     1
290
     1
176
     1
290
     0
176
     1
290
     0
176
     1
290
     0
176
     1
290
     0
176
     1
290
     0
176
     1
290
     0
176
     1
 90
       50
176
     1
 40
0.0
176
     1
 40
1.0
176
     1
 90
        0
176
     1
 62
    18
176
     1
 90
       50
176
     1
 90
        3
176
     1
 62
     5
420
      255
176
     1
290
     0
176
     1
 90
       50
176
     1
 90
       50
176
     1
 90
       50
176
     1
290
     0
176
     1
 90
       50
176
     1
 62
   256
176
     0
 40
1.0
176
     0
 90
        2
176
     1
  1
strokes_ogs.tif
176
     1
290
     0
176
     1
 40
1.0
176
     1
 40
1.0
176
     1
  0
VISUALSTYLE
  5
902
102
{ACAD_REACTORS
330
267
102
}
330
267
100
AcDbVisualStyle
  2

 70
    26
177
     3
291
     0
 70
    58
 90
        2
176
     1
 90
        2
176
     1
 90
        1
176
     1
 90
        2
176
     1
 40
0.6
176
     1
 40
30.0
176
     1
 62
     7
420
 16777215
176
     1
 90
        1
176
     1
 90
       10
176
     1
 62
     7
176
     1
 62
   257
176
     1
 90
        2
176
     1
 90
        1
176
     1
 40
1.0
176
     1
 90
        8
176
     1
 62
   257
176
     1
 40
1.0
176
     1
 90
        1
176
     1
 90
        6
176
     1
 90
        2
176
     1
 62
     7
176
     1
 90
        3
176
     1
 90
        0
176
     1
 90
        0
176
     1
290
     0
176
     1
 90
        5
176
     1
 40
0.0
176
     1
 90
        0
176
     1
290
     0
176
     1
290
     1
176
     1
290
     1
176
     1
290
     0
176
     1
290
     0
176
     1
290
     0
176
     1
290
     0
176
     1
290
     0
176
     1
290
     0
176
     1
 90
       50
176
     1
 40
0.0
176
     1
 40
1.0
176
     1
 90
        0
176
     1
 62
    18
176
     1
 90
       50
176
     1
 90
        3
176
     1
 62
     5
420
      255
176
     1
290
     0
176
     1
 90
       50
176
     1
 90
       50
176
     1
 90
       50
176
     1
290
     0
176
     1
 90
       50
176
     1
 62
   256
176
     0
 40
1.0
176
     0
 90
        2
176
     1
  1
strokes_ogs.tif
176
     1
290
     0
176
     1
 40
1.0
176
     1
 40
1.0
176
     1
  0
VISUALSTYLE
  5
8FF
102
{ACAD_REACTORS
330
267
102
}
330
267
100
AcDbVisualStyle
  2

 70
    23
177
     3
291
     0
 70
    58
 90
        2
176
     1
 90
        2
176
     1
 90
        3
176
     1
 90
        0
176
     1
 40
0.6
176
     1
 40
30.0
176
     1
 62
     7
420
 16777215
176
     1
 90
        2
176
     1
 90
        2
176
     1
 62
     7
176
     1
 62
     7
176
     1
 90
        1
176
     1
 90
        1
176
     1
 40
40.0
176
     1
 90
        8
176
     1
 62
     7
176
     1
 40
1.0
176
     1
 90
        1
176
     1
 90
        6
176
     1
 90
        2
176
     1
 62
     7
176
     1
 90
        3
176
     1
 90
        0
176
     1
 90
        0
176
     1
290
     0
176
     1
 90
        1
176
     1
 40
0.0
176
     1
 90
        0
176
     1
290
     0
176
     1
290
     1
176
     1
290
     1
176
     1
290
     0
176
     1
290
     0
176
     1
290
     0
176
     1
290
     0
176
     1
290
     0
176
     1
290
     0
176
     1
 90
       50
176
     1
 40
0.0
176
     1
 40
1.0
176
     1
 90
        0
176
     1
 62
    18
176
     1
 90
       50
176
     1
 90
        3
176
     1
 62
     5
420
      255
176
     1
290
     0
176
     1
 90
       50
176
     1
 90
       50
176
     1
 90
       50
176
     1
290
     0
176
     1
 90
       50
176
     1
 62
   256
176
     0
 40
1.0
176
     0
 90
        2
176
     1
  1
strokes_ogs.tif
176
     1
290
     0
176
     1
 40
1.0
176
     1
 40
1.0
176
     1
  0
VISUALSTYLE
  5
900
102
{ACAD_REACTORS
330
267
102
}
330
267
100
AcDbVisualStyle
  2

 70
    24
177
     3
291
     0
 70
    58
 90
        1
176
     1
 90
        2
176
     1
 90
        2
176
     1
 90
        0
176
     1
 40
0.6
176
     1
 40
30.0
176
     1
 62
     7
420
 16777215
176
     1
 90
        2
176
     1
 90
        2
176
     1
 62
     7
176
     1
 62
     7
176
     1
 90
        1
176
     1
 90
        1
176
     1
 40
40.0
176
     1
 90
       11
176
     1
 62
     7
176
     1
 40
1.0
176
     1
 90
        1
176
     1
 90
        6
176
     1
 90
        2
176
     1
 62
     7
176
     1
 90
        6
176
     1
 90
        0
176
     1
 90
        0
176
     1
290
     0
176
     1
 90
        1
176
     1
 40
0.0
176
     1
 90
        0
176
     1
290
     0
176
     1
290
     1
176
     1
290
     1
176
     1
290
     0
176
     1
290
     0
176
     1
290
     0
176
     1
290
     0
176
     1
290
     0
176
     1
290
     0
176
     1
 90
       50
176
     1
 40
0.0
176
     1
 40
1.0
176
     1
 90
        0
176
     1
 62
    18
176
     1
 90
       50
176
     1
 90
        3
176
     1
 62
     5
420
      255
176
     1
290
     0
176
     1
 90
       50
176
     1
 90
       50
176
     1
 90
       50
176
     1
290
     0
176
     1
 90
       50
176
     1
 62
   256
176
     0
 40
1.0
176
     0
 90
        2
176
     1
  1
strokes_ogs.tif
176
     1
290
     0
176
     1
 40
1.0
176
     1
 40
1.0
176
     1
  0
VISUALSTYLE
  5
274
102
{ACAD_REACTORS
330
267
102
}
330
267
100
AcDbVisualStyle
  2

 70
    13
177
     3
291
     1
 70
    58
 90
        2
176
     1
 90
        2
176
     1
 90
        0
176
     1
 90
        0
176
     1
 40
0.6
176
     1
 40
30.0
176
     1
 62
     7
420
 16777215
176
     1
 90
        1
176
     1
 90
        4
176
     1
 62
     7
176
     1
 62
   257
176
     1
 90
        1
176
     1
 90
        1
176
     1
 40
1.0
176
     1
 90
       12
176
     1
 62
     7
176
     1
 40
1.0
176
     1
 90
        1
176
     1
 90
        6
176
     1
 90
        2
176
     1
 62
     7
176
     1
 90
        5
176
     1
 90
        0
176
     1
 90
        0
176
     1
290
     0
176
     1
 90
        1
176
     1
 40
0.0
176
     1
 90
        0
176
     1
290
     0
176
     1
290
     1
176
     1
290
     1
176
     1
290
     0
176
     1
290
     0
176
     1
290
     0
176
     1
290
     0
176
     1
290
     0
176
     1
290
     0
176
     1
 90
       50
176
     1
 40
0.0
176
     1
 40
1.0
176
     1
 90
        0
176
     1
 62
    18
176
     1
 90
       50
176
     1
 90
        3
176
     1
 62
     5
420
      255
176
     1
290
     0
176
     1
 90
       50
176
     1
 90
       50
176
     1
 90
       50
176
     1
290
     0
176
     1
 90
       50
176
     1
 62
   256
176
     0
 40
1.0
176
     0
 90
        2
176
     1
  1
strokes_ogs.tif
176
     1
290
     0
176
     1
 40
1.0
176
     1
 40
1.0
176
     1
  0
VISUALSTYLE
  5
8FA
102
{ACAD_REACTORS
330
267
102
}
330
267
100
AcDbVisualStyle
  2

 70
     5
177
     3
291
     0
 70
    58
 90
        0
176
     1
 90
        2
176
     1
 90
        0
176
     1
 90
        0
176
     1
 40
0.6
176
     1
 40
30.0
176
     1
 62
     7
420
 16777215
176
     1
 90
        1
176
     1
 90
        4
176
     1
 62
     7
176
     1
 62
   257
176
     1
 90
        1
176
     1
 90
        1
176
     1
 40
1.0
176
     1
 90
        0
176
     1
 62
   257
176
     1
 40
1.0
176
     1
 90
        1
176
     1
 90
        6
176
     1
 90
        2
176
     1
 62
     7
176
     1
 90
        3
176
     1
 90
        0
176
     1
 90
        0
176
     1
290
     0
176
     1
 90
        1
176
     1
 40
0.0
176
     1
 90
        0
176
     1
290
     0
176
     1
290
     1
176
     1
290
     1
176
     1
290
     0
176
     1
290
     0
176
     1
290
     0
176
     1
290
     0
176
     1
290
     0
176
     1
290
     0
176
     1
 90
       50
176
     1
 40
0.0
176
     1
 40
1.0
176
     1
 90
        0
176
     1
 62
    18
176
     1
 90
       50
176
     1
 90
        3
176
     1
 62
     5
420
      255
176
     1
290
     0
176
     1
 90
       50
176
     1
 90
       50
176
     1
 90
       50
176
     1
290
     0
176
     1
 90
       50
176
     1
 62
   256
176
     0
 40
1.0
176
     0
 90
        2
176
     1
  1
strokes_ogs.tif
176
     1
290
     0
176
     1
 40
1.0
176
     1
 40
1.0
176
     1
  0
VISUALSTYLE
  5
901
102
{ACAD_REACTORS
330
267
102
}
330
267
100
AcDbVisualStyle
  2

 70
    25
177
     3
291
     0
 70
    58
 90
        2
176
     1
 90
        2
176
     1
 90
        1
176
     1
 90
        1
176
     1
 40
0.5
176
     1
 40
30.0
176
     1
 62
     7
420
 16777215
176
     1
 90
        1
176
     1
 90
        0
176
     1
 62
     7
176
     1
 62
   257
176
     1
 90
        1
176
     1
 90
        1
176
     1
 40
1.0
176
     1
 90
        8
176
     1
 62
     7
176
     1
 40
1.0
176
     1
 90
        1
176
     1
 90
        6
176
     1
 90
        2
176
     1
 62
     7
176
     1
 90
        3
176
     1
 90
        0
176
     1
 90
        0
176
     1
290
     0
176
     1
 90
       13
176
     1
 40
0.0
176
     1
 90
        0
176
     1
290
     0
176
     1
290
     1
176
     1
290
     1
176
     1
290
     0
176
     1
290
     0
176
     1
290
     0
176
     1
290
     0
176
     1
290
     0
176
     1
290
     0
176
     1
 90
       50
176
     1
 40
0.0
176
     1
 40
1.0
176
     1
 90
        0
176
     1
 62
    18
176
     1
 90
       50
176
     1
 90
        3
176
     1
 62
     5
420
      255
176
     1
290
     0
176
     1
 90
       50
176
     1
 90
       50
176
     1
 90
       50
176
     1
290
     0
176
     1
 90
       50
176
     1
 62
   256
176
     0
 40
1.0
176
     0
 90
        2
176
     1
  1
strokes_ogs.tif
176
     1
290
     0
176
     1
 40
1.0
176
     1
 40
1.0
176
     1
  0
DICTIONARYVAR
  5
331
102
{ACAD_REACTORS
330
330
102
}
330
330
100
DictionaryVariables
280
     0
  1
1:1
  0
DICTIONARYVAR
  5
D5E
102
{ACAD_REACTORS
330
330
102
}
330
330
100
DictionaryVariables
280
     0
  1
STANDARD
  0
DICTIONARYVAR
  5
335
102
{ACAD_REACTORS
330
330
102
}
330
330
100
DictionaryVariables
280
     0
  1
STANDARD
  0
DICTIONARYVAR
  5
17A71
102
{ACAD_REACTORS
330
330
102
}
330
330
100
DictionaryVariables
280
     0
  1
Metric50
  0
DICTIONARYVAR
  5
17A72
102
{ACAD_REACTORS
330
330
102
}
330
330
100
DictionaryVariables
280
     0
  1
Metric50
  0
DICTIONARYVAR
  5
D52
102
{ACAD_REACTORS
330
330
102
}
330
330
100
DictionaryVariables
280
     0
  1
ByLayer
  0
DICTIONARYVAR
  5
17A73
102
{ACAD_REACTORS
330
330
102
}
330
330
100
DictionaryVariables
280
     0
  1
1
  0
DICTIONARYVAR
  5
17A74
102
{ACAD_REACTORS
330
330
102
}
330
330
100
DictionaryVariables
280
     0
  1
15
  0
XRECORD
  5
17A56
102
{ACAD_REACTORS
330
17A54
102
}
330
17A54
100
AcDbXrecord
280
     1
330
68C
330
1343
330
17326
330
17327
330
17335
330
17336
330
173AB
330
173AC
330
173BA
330
173BB
330
173D8
330
173D9
330
173E4
330
173E5
330
1754E
330
17559
330
1769A
330
1769B
330
176A9
330
176AA
330
176B8
330
176B9
330
176C7
330
176C8
330
176D8
330
176D9
330
17862
330
17863
330
179AC
330
179AD
330
179E0
330
179E1
330
179F0
330
179F1
330
179FF
330
17A00
330
17A11
330
17A12
330
17A1E
330
17A1F
330
17A32
330
17A33
  0
DICTIONARYVAR
  5
36AB
102
{ACAD_REACTORS
330
366B
102
}
330
366B
100
DictionaryVariables
280
     0
  1
0.250000
  0
DICTIONARYVAR
  5
36A9
102
{ACAD_REACTORS
330
E38
102
}
330
E38
100
DictionaryVariables
280
     0
  1
0.261799
  0
DICTIONARYVAR
  5
36A7
102
{ACAD_REACTORS
330
E38
102
}
330
E38
100
DictionaryVariables
280
     0
  1
0.400000
  0
DICTIONARYVAR
  5
36A8
102
{ACAD_REACTORS
330
E38
102
}
330
E38
100
DictionaryVariables
280
     0
  1
0.250000
  0
DICTIONARYVAR
  5
36AA
102
{ACAD_REACTORS
330
E38
102
}
330
E38
100
DictionaryVariables
280
     0
  1
1
  0
FIELD
  5
36AD
102
{ACAD_REACTORS
330
17A25
102
}
330
17A25
100
AcDbField
  1
_text
  2
{%<\_FldIdx 0>%M}
 90
        1
360
36B1
 97
        0
 91
       63
 92
        0
 94
       13
 95
        2
 96
        0
300

 93
        1
  6
ACFD_FIELDTEXT_CHECKSUM
 93
        2
 90
        2
140
2090.0
 94
        0
300

302

304
ACVALUE_END
  7
ACFD_FIELD_VALUE
 93
        3
 90
        0
 94
        0
300

302

304
ACVALUE_END
301

 98
        0
  0
DICTIONARY
  5
17A3C
330
279
100
AcDbDictionary
280
     1
281
     1
  3
ACAD_ROUNDTRIP_2008_TABLESTYLE_CELLSTYLEMAP
360
17AA8
  0
FIELD
  5
36B1
330
36AD
100
AcDbField
  1
AcVar
  2
\AcVar Date \f "yyyyMMdd"
 90
        0
 97
        0
 91
       32
 92
        0
 94
       43
 95
       64
 96
        0
300
Variable not supported
 93
        1
  6
Variable
 93
        2
 90
        4
  1
Date
 94
        0
300

302

304
ACVALUE_END
  7
ACFD_FIELD_VALUE
 93
        6
 90
        8
 92
       16
310
E707070000000E00040010000B000000
 94
        0
300
yyyyMMdd
302

304
ACVALUE_END
301
----
 98
        4
  0
CELLSTYLEMAP
  5
17AA8
102
{ACAD_REACTORS
330
17A3C
102
}
330
17A3C
100
AcDbCellStyleMap
 90
        3
300
CELLSTYLE
  1
TABLEFORMAT_BEGIN
 90
        5
170
     1
 91
        0
 92
    32768
 62
   257
 93
        1
300
CONTENTFORMAT
  1
CONTENTFORMAT_BEGIN
 90
        0
 91
        0
 92
        4
 93
        0
300

 40
0.0
140
1.0
 94
        5
 62
     0
340
17
144
6.0
309
CONTENTFORMAT_END
171
     1
301
MARGIN
  1
CELLMARGIN_BEGIN
 40
0.06
 40
0.06
 40
0.06
 40
0.06
 40
0.18
 40
0.18
309
CELLMARGIN_END
 94
        6
 95
        1
302
GRIDFORMAT
  1
GRIDFORMAT_BEGIN
 90
        0
 91
        1
 62
     0
 92
       -2
340
0
 93
        0
 40
0.045
309
GRIDFORMAT_END
 95
        2
302
GRIDFORMAT
  1
GRIDFORMAT_BEGIN
 90
        0
 91
        1
 62
     0
 92
       -2
340
0
 93
        0
 40
0.045
309
GRIDFORMAT_END
 95
        4
302
GRIDFORMAT
  1
GRIDFORMAT_BEGIN
 90
        0
 91
        1
 62
     0
 92
       -2
340
0
 93
        0
 40
0.045
309
GRIDFORMAT_END
 95
        8
302
GRIDFORMAT
  1
GRIDFORMAT_BEGIN
 90
        0
 91
        1
 62
     0
 92
       -2
340
0
 93
        0
 40
0.045
309
GRIDFORMAT_END
 95
       16
302
GRIDFORMAT
  1
GRIDFORMAT_BEGIN
 90
        0
 91
        1
 62
     0
 92
       -2
340
0
 93
        0
 40
0.045
309
GRIDFORMAT_END
 95
       32
302
GRIDFORMAT
  1
GRIDFORMAT_BEGIN
 90
        0
 91
        1
 62
     0
 92
       -2
340
0
 93
        0
 40
0.045
309
GRIDFORMAT_END
309
TABLEFORMAT_END
  1
CELLSTYLE_BEGIN
 90
        1
 91
        1
300
_TITLE
309
CELLSTYLE_END
300
CELLSTYLE
  1
TABLEFORMAT_BEGIN
 90
        5
170
     1
 91
        0
 92
        0
 62
   257
 93
        1
300
CONTENTFORMAT
  1
CONTENTFORMAT_BEGIN
 90
        0
 91
        0
 92
        4
 93
        0
300

 40
0.0
140
1.0
 94
        5
 62
     0
340
17
144
4.5
309
CONTENTFORMAT_END
171
     1
301
MARGIN
  1
CELLMARGIN_BEGIN
 40
0.06
 40
0.06
 40
0.06
 40
0.06
 40
0.18
 40
0.18
309
CELLMARGIN_END
 94
        6
 95
        1
302
GRIDFORMAT
  1
GRIDFORMAT_BEGIN
 90
        0
 91
        1
 62
     0
 92
       -2
340
0
 93
        0
 40
0.045
309
GRIDFORMAT_END
 95
        2
302
GRIDFORMAT
  1
GRIDFORMAT_BEGIN
 90
        0
 91
        1
 62
     0
 92
       -2
340
0
 93
        0
 40
0.045
309
GRIDFORMAT_END
 95
        4
302
GRIDFORMAT
  1
GRIDFORMAT_BEGIN
 90
        0
 91
        1
 62
     0
 92
       -2
340
0
 93
        0
 40
0.045
309
GRIDFORMAT_END
 95
        8
302
GRIDFORMAT
  1
GRIDFORMAT_BEGIN
 90
        0
 91
        1
 62
     0
 92
       -2
340
0
 93
        0
 40
0.045
309
GRIDFORMAT_END
 95
       16
302
GRIDFORMAT
  1
GRIDFORMAT_BEGIN
 90
        0
 91
        1
 62
     0
 92
       -2
340
0
 93
        0
 40
0.045
309
GRIDFORMAT_END
 95
       32
302
GRIDFORMAT
  1
GRIDFORMAT_BEGIN
 90
        0
 91
        1
 62
     0
 92
       -2
340
0
 93
        0
 40
0.045
309
GRIDFORMAT_END
309
TABLEFORMAT_END
  1
CELLSTYLE_BEGIN
 90
        2
 91
        1
300
_HEADER
309
CELLSTYLE_END
300
CELLSTYLE
  1
TABLEFORMAT_BEGIN
 90
        5
170
     1
 91
        0
 92
        0
 62
   257
 93
        1
300
CONTENTFORMAT
  1
CONTENTFORMAT_BEGIN
 90
        0
 91
        0
 92
        4
 93
        0
300

 40
0.0
140
1.0
 94
        2
 62
     0
340
17
144
4.5
309
CONTENTFORMAT_END
171
     1
301
MARGIN
  1
CELLMARGIN_BEGIN
 40
0.06
 40
0.06
 40
0.06
 40
0.06
 40
0.18
 40
0.18
309
CELLMARGIN_END
 94
        6
 95
        1
302
GRIDFORMAT
  1
GRIDFORMAT_BEGIN
 90
        0
 91
        1
 62
     0
 92
       -2
340
0
 93
        0
 40
0.045
309
GRIDFORMAT_END
 95
        2
302
GRIDFORMAT
  1
GRIDFORMAT_BEGIN
 90
        0
 91
        1
 62
     0
 92
       -2
340
0
 93
        0
 40
0.045
309
GRIDFORMAT_END
 95
        4
302
GRIDFORMAT
  1
GRIDFORMAT_BEGIN
 90
        0
 91
        1
 62
     0
 92
       -2
340
0
 93
        0
 40
0.045
309
GRIDFORMAT_END
 95
        8
302
GRIDFORMAT
  1
GRIDFORMAT_BEGIN
 90
        0
 91
        1
 62
     0
 92
       -2
340
0
 93
        0
 40
0.045
309
GRIDFORMAT_END
 95
       16
302
GRIDFORMAT
  1
GRIDFORMAT_BEGIN
 90
        0
 91
        1
 62
     0
 92
       -2
340
0
 93
        0
 40
0.045
309
GRIDFORMAT_END
 95
       32
302
GRIDFORMAT
  1
GRIDFORMAT_BEGIN
 90
        0
 91
        1
 62
     0
 92
       -2
340
0
 93
        0
 40
0.045
309
GRIDFORMAT_END
309
TABLEFORMAT_END
  1
CELLSTYLE_BEGIN
 90
        3
 91
        2
300
_DATA
309
CELLSTYLE_END
  0
ENDSEC
  0
SECTION
  2
ACDSDATA
 70
     2
 71
     8
  0
ACDSSCHEMA
 90
        0
  1
AcDb_Thumbnail_Schema
  2
AcDbDs::ID
280
    10
 91
        8
  2
Thumbnail_Data
280
    15
 91
        0
101
ACDSRECORD
 95
        0
 90
        1
  2
AcDbDs::TreatedAsObjectData
280
     1
291
     1
101
ACDSRECORD
 95
        0
 90
        2
  2
AcDbDs::Legacy
280
     1
291
     1
101
ACDSRECORD
  1
AcDbDs::ID
 90
        3
  2
AcDs:Indexable
280
     1
291
     1
101
ACDSRECORD
  1
AcDbDs::ID
 90
        4
  2
AcDbDs::HandleAttribute
280
     7
282
     1
  0
ACDSSCHEMA
 90
        1
  1
AcDbDs::TreatedAsObjectDataSchema
  2
AcDbDs::TreatedAsObjectData
280
     1
 91
        0
  0
ACDSSCHEMA
 90
        2
  1
AcDbDs::LegacySchema
  2
AcDbDs::Legacy
280
     1
 91
        0
  0
ACDSSCHEMA
 90
        3
  1
AcDbDs::IndexedPropertySchema
  2
AcDs:Indexable
280
     1
 91
        0
  0
ACDSSCHEMA
 90
        4
  1
AcDbDs::HandleAttributeSchema
  2
AcDbDs::HandleAttribute
280
     7
 91
        1
284
     1
  0
ACDSRECORD
 90
        0
  2
AcDbDs::ID
280
    10
320
20
  2
Thumbnail_Data
280
    15
 94
     1704
310
89504E470D0A1A0A0000000D4948445200000100000000840802000000F046624B000004DE4944415478DAEDDD3D929B401040E1C1E58B4891C9A49B38DCCC475171C25546B63A0A0EB02916B12C887FE67B912D61248B7E74F70C0CC9E9D725EC9647FEDE78E5945E5B5F6F7DF7945EEB5B76FC75D06E57FF4AE55BE843B2
310
77011C6CBFC9187EF80910333F8FF1DFF8F8A2C0888A737A55FFC42540FD609FE33EF0D5294009145109F470E2871E0020005ACA4210203A948504000800100020004000E0780218F243D40218F2831208200094857A00280BF50080120820801E0004D00380000001000200040008000433C120C08E31E4072510F03A3FFD
310
040373CEFD7FF575D9E6FE95857A80D9A35F5928036CE5602FE340B9F46C1292BA0C4528265C91F7237FAFEFBFFCC4B3D33901B6401292537A39854F654992278D57C67FC4A79DA717BFBC12082000A0049AA3947F6D0FAF95E68D2ABF41118A9007753F0166E785DAFA91DFEB4F611A2A529FC1CDEC2D0B21DC6E3741A904
310
9AB1971D737EADFE6DF9872214433FBD67A2F8C8DF87EE1C32C08C94E1582581D79EC9578422C9937A22AAEF27CBB2CA2ECFFC23C0867A86E73CF06C427762F957F9E4C1C8A61268DA6AFE3A6BF49FD3EBF9E94194CF56F43C673F4B52EEBFF129234FFF2E8588488005A6FDEB1A3494A862B77C7D64E056EDEFC851209742
310
6882272B7ECAC86E9CFE5B4742A775007A80F5A3BFB562E9A86D2A075E3B851BFE9701B612FD2F47B0D11B0244ED000D0870CCE247F41300034A791A6882B7C52E6EE6820C0010609F0DC04630131C9100FD0FF629BD44721D8E99E0880498FC601BC62140BC887E0244CD242345631A89477E1FFF1DF40004189504C214A3
310
F82B8EBAEA0108B01A234FFFABCB1321AE066DEF04C65C0EF46AE9521BA4CA1D0719601BA7F3FE1B5BCC900087EA04AA54D027FA1BB7354209748442A8DE13B7C677F596D33F015660D621BF465877AC10B17CC3000284307C79F42214E7701DE4406B06A82F8B22F409B0B3D6B66385B6D621C872FB222F1A628000BBEC6E
310
BF5AD4FF91DF3B2E981B943A26F99E1B2C0B8F8785B18E8699E0880458FE609797EB98AC2500A0073816E5232A7A2E62DE9D04860E37290B09B0F51679D8AEC26A51B8D89333954000010025500CD48B7ECFB9900100024443F9D4BAEAC175EE9D5702454AF5B42FC80011513E5FB59A2218F3A86D100020C07EEB1FA34004
310
D84C442E3AE559DD22BCE526D834704402B8F4D76FA2045A1A63A004000E8279805E14A1C8DEB22CCBAA57FEBCFDBEDD6EFDC7438B50B89398004763C07090B93302EC9ADBEDF66A577A0F21242199E44E03106005AA05821A7F00018EC3D0D570BB3768B4072BDE240902AC2049B33DD00310601775CE1E77FE593C796600
310
2E85381A66822312C0C146D402000480B2900050161200200040008000000180E30A60C80F510B60C80F4A2080005016EA01A02CD403004A2080007A0010400F0002005FE0A6F8E5E8BFA244B5FA5058F06E7A02607FAA800011C9201B1020EAB3A6CC40804F3C0FF96DF31C5905EE7C5F8F1B310AF0C8DF1B0E8C8F835915
310
6AFD7A0A9B1539CE30E839BD764452F7BB0BC4A228DF26C9E9D78E17ADAF32800280637A801DF700136EF05C16228A1EE0FC5D2A58D78D6F3FBDE70666C7F400800CB037BEED52066DA0E791018EDC20AA706480A843C7099E005210670870A00810A00450088100221E5BC23CC0D1300D1C5706A8DF037E4AAF1DB78477BF
310
3BE89FCFB1E5B41F2AB27BF21734337057755080CA0000000049454E44AE42608218608275519002E9A24000000100040004A3406A28718C02A921108008000210014000000100048014300CAA8692C630A81A0201000400100098600200134C00100108400D89001BC3FE005BA2B5C0E8FE70EAB3E468B39855DAA540D1EA
310
E1C36204808DF1B23BDF1F4EAD32F16D5E2F0512018615F8A4DDDB1F20CE24818492B55849EC0FB075E7B7AC858DBB13496214E86515D65BD98D957CCFD3165BA340467898E0D72EF0F3D6BF48A778F71F91E08900A375D89BE83EF5F1049068FEAAB3270026F8F53FF246C997859B250D836ECC043FCAEF37671FFB7FC3A1
310
259B77C45E7E36BE61D04427C3C92890440400639DB4094ED0CD4F5132624C868BB09FAE0B57770F5ABF3E39DAFE77FBD4E72E8A0820CA6F266E34A782F6FC6CEBD279222C12131C710AD492FDB8BD787C4F8465BBAF63AC26588E3B7A08351B7493D576379A03910B4004800800162B25138CA92D1601400490026DA797DA
310
1D4ED5D8C5F7EFB31AEF16EBD677F7532F0FD5E7F82B39D4DD02CF0F159906FE03797AD49658CA2F890000000049454E44AE426082
  0
ENDSEC
  0
EOF
