  0
SECTION
  2
HEADER
  9
$ACADVER
  1
AC1032
  9
$ACADMAINTVER
 90
      228
  9
$DWGCODEPAGE
  3
ANSI_932
  9
$LASTSAVEDBY
  1
T-HOWE-PC
  9
$REQUIREDVERSIONS
160
                 0
  9
$INSBASE
 10
0.0
 20
0.0
 30
0.0
  9
$EXTMIN
 10
0.0
 20
0.0
 30
0.0
  9
$EXTMAX
 10
630.0
 20
891.0
 30
0.0
  9
$LIMMIN
 10
0.0
 20
0.0
  9
$LIMMAX
 10
630.0
 20
891.0
  9
$ORTHOMODE
 70
     1
  9
$REGENMODE
 70
     1
  9
$FILLMODE
 70
     1
  9
$QTEXTMODE
 70
     0
  9
$MIRRTEXT
 70
     1
  9
$LTSCALE
 40
1.5
  9
$ATTMODE
 70
     1
  9
$TEXTSIZE
 40
2.5
  9
$TRACEWID
 40
1.0
  9
$TEXTSTYLE
  7
ＭＳ ゴシック
  9
$CLAYER
  8
DIM
  9
$CELTYPE
  6
ByLayer
  9
$CECOLOR
 62
   256
  9
$CELTSCALE
 40
1.0
  9
$DISPSILH
 70
     0
  9
$DIMSCALE
 40
1.0
  9
$DIMASZ
 40
3.0
  9
$DIMEXO
 40
10.0
  9
$DIMDLI
 40
1.0
  9
$DIMRND
 40
0.0
  9
$DIMDLE
 40
0.0
  9
$DIMEXE
 40
0.0
  9
$DIMTP
 40
0.0
  9
$DIMTM
 40
0.0
  9
$DIMTXT
 40
8.0
  9
$DIMCEN
 40
0.0
  9
$DIMTSZ
 40
0.0
  9
$DIMTOL
 70
     0
  9
$DIMLIM
 70
     0
  9
$DIMTIH
 70
     0
  9
$DIMTOH
 70
     0
  9
$DIMSE1
 70
     0
  9
$DIMSE2
 70
     0
  9
$DIMTAD
 70
     1
  9
$DIMZIN
 70
    11
  9
$DIMBLK
  1
DOT
  9
$DIMASO
 70
     1
  9
$DIMSHO
 70
     1
  9
$DIMPOST
  1
<>
  9
$DIMAPOST
  1
[]
  9
$DIMALT
 70
     0
  9
$DIMALTD
 70
     1
  9
$DIMALTF
 40
1.0
  9
$DIMLFAC
 40
1.0
  9
$DIMTOFL
 70
     0
  9
$DIMTVP
 40
0.0
  9
$DIMTIX
 70
     1
  9
$DIMSOXD
 70
     0
  9
$DIMSAH
 70
     0
  9
$DIMBLK1
  1

  9
$DIMBLK2
  1

  9
$DIMSTYLE
  2
tfrom線あり
  9
$DIMCLRD
 70
     0
  9
$DIMCLRE
 70
     0
  9
$DIMCLRT
 70
     0
  9
$DIMTFAC
 40
1.0
  9
$DIMGAP
 40
6.0
  9
$DIMJUST
 70
     0
  9
$DIMSD1
 70
     0
  9
$DIMSD2
 70
     0
  9
$DIMTOLJ
 70
     1
  9
$DIMTZIN
 70
    11
  9
$DIMALTZ
 70
    11
  9
$DIMALTTZ
 70
    11
  9
$DIMUPT
 70
     0
  9
$DIMDEC
 70
     0
  9
$DIMTDEC
 70
     1
  9
$DIMALTU
 70
     2
  9
$DIMALTTD
 70
     2
  9
$DIMTXSTY
  7
ＭＳ ゴシック
  9
$DIMAUNIT
 70
     0
  9
$DIMADEC
 70
     2
  9
$DIMALTRND
 40
0.0
  9
$DIMAZIN
 70
     0
  9
$DIMDSEP
 70
    46
  9
$DIMATFIT
 70
     0
  9
$DIMFRAC
 70
     2
  9
$DIMLDRBLK
  1
DOT
  9
$DIMLUNIT
 70
     2
  9
$DIMLWD
 70
    -2
  9
$DIMLWE
 70
    -2
  9
$DIMTMOVE
 70
     0
  9
$DIMFXL
 40
1.0
  9
$DIMFXLON
 70
     0
  9
$DIMJOGANG
 40
0.7853981633974483
  9
$DIMTFILL
 70
     0
  9
$DIMTFILLCLR
 70
     0
  9
$DIMARCSYM
 70
     0
  9
$DIMLTYPE
  6

  9
$DIMLTEX1
  6

  9
$DIMLTEX2
  6

  9
$DIMTXTDIRECTION
 70
     0
  9
$LUNITS
 70
     2
  9
$LUPREC
 70
     0
  9
$SKETCHINC
 40
0.1
  9
$FILLETRAD
 40
0.0
  9
$AUNITS
 70
     0
  9
$AUPREC
 70
     0
  9
$MENU
  1
acad
  9
$ELEVATION
 40
0.0
  9
$PELEVATION
 40
0.0
  9
$THICKNESS
 40
0.0
  9
$LIMCHECK
 70
     0
  9
$CHAMFERA
 40
0.0
  9
$CHAMFERB
 40
0.0
  9
$CHAMFERC
 40
0.0
  9
$CHAMFERD
 40
0.0
  9
$SKPOLY
 70
     0
  9
$TDCREATE
 40
2460221.715335648
  9
$TDUCREATE
 40
2460221.340335648
  9
$TDUPDATE
 40
2460221.731168982
  9
$TDUUPDATE
 40
2460221.356168982
  9
$TDINDWG
 40
0.2072679514
  9
$TDUSRTIMER
 40
0.0118781019
  9
$USRTIMER
 70
     1
  9
$ANGBASE
 50
0.0
  9
$ANGDIR
 70
     0
  9
$PDMODE
 70
     1
  9
$PDSIZE
 40
-2.0
  9
$PLINEWID
 40
0.0
  9
$SPLFRAME
 70
     0
  9
$SPLINETYPE
 70
     6
  9
$SPLINESEGS
 70
     8
  9
$HANDSEED
  5
18C66
  9
$SURFTAB1
 70
     6
  9
$SURFTAB2
 70
     6
  9
$SURFTYPE
 70
     6
  9
$SURFU
 70
     6
  9
$SURFV
 70
     6
  9
$UCSBASE
  2

  9
$UCSNAME
  2

  9
$UCSORG
 10
0.0
 20
0.0
 30
0.0
  9
$UCSXDIR
 10
1.0
 20
0.0
 30
0.0
  9
$UCSYDIR
 10
0.0
 20
1.0
 30
0.0
  9
$UCSORTHOREF
  2

  9
$UCSORTHOVIEW
 70
     0
  9
$UCSORGTOP
 10
0.0
 20
0.0
 30
0.0
  9
$UCSORGBOTTOM
 10
0.0
 20
0.0
 30
0.0
  9
$UCSORGLEFT
 10
0.0
 20
0.0
 30
0.0
  9
$UCSORGRIGHT
 10
0.0
 20
0.0
 30
0.0
  9
$UCSORGFRONT
 10
0.0
 20
0.0
 30
0.0
  9
$UCSORGBACK
 10
0.0
 20
0.0
 30
0.0
  9
$PUCSBASE
  2

  9
$PUCSNAME
  2

  9
$PUCSORG
 10
0.0
 20
0.0
 30
0.0
  9
$PUCSXDIR
 10
1.0
 20
0.0
 30
0.0
  9
$PUCSYDIR
 10
0.0
 20
1.0
 30
0.0
  9
$PUCSORTHOREF
  2

  9
$PUCSORTHOVIEW
 70
     0
  9
$PUCSORGTOP
 10
0.0
 20
0.0
 30
0.0
  9
$PUCSORGBOTTOM
 10
0.0
 20
0.0
 30
0.0
  9
$PUCSORGLEFT
 10
0.0
 20
0.0
 30
0.0
  9
$PUCSORGRIGHT
 10
0.0
 20
0.0
 30
0.0
  9
$PUCSORGFRONT
 10
0.0
 20
0.0
 30
0.0
  9
$PUCSORGBACK
 10
0.0
 20
0.0
 30
0.0
  9
$USERI1
 70
     0
  9
$USERI2
 70
     0
  9
$USERI3
 70
     0
  9
$USERI4
 70
     0
  9
$USERI5
 70
     0
  9
$USERR1
 40
0.0
  9
$USERR2
 40
0.0
  9
$USERR3
 40
0.0
  9
$USERR4
 40
0.0
  9
$USERR5
 40
0.0
  9
$WORLDVIEW
 70
     1
  9
$SHADEDGE
 70
     3
  9
$SHADEDIF
 70
    70
  9
$TILEMODE
 70
     1
  9
$MAXACTVP
 70
    64
  9
$PINSBASE
 10
0.0
 20
0.0
 30
0.0
  9
$PLIMCHECK
 70
     0
  9
$PEXTMIN
 10
0.0
 20
0.0
 30
0.0
  9
$PEXTMAX
 10
0.0
 20
0.0
 30
0.0
  9
$PLIMMIN
 10
-7.5
 20
-20.0
  9
$PLIMMAX
 10
412.5
 20
277.0
  9
$UNITMODE
 70
     0
  9
$VISRETAIN
 70
     0
  9
$PLINEGEN
 70
     1
  9
$PSLTSCALE
 70
     0
  9
$TREEDEPTH
 70
  3020
  9
$CMLSTYLE
  2
Standard
  9
$CMLJUST
 70
     0
  9
$CMLSCALE
 40
1.0
  9
$PROXYGRAPHICS
 70
     0
  9
$MEASUREMENT
 70
     1
  9
$CELWEIGHT
370
    -1
  9
$ENDCAPS
280
     0
  9
$JOINSTYLE
280
     0
  9
$LWDISPLAY
290
     1
  9
$INSUNITS
 70
     4
  9
$HYPERLINKBASE
  1

  9
$STYLESHEET
  1
monochrome.ctb
  9
$XEDIT
290
     1
  9
$CEPSNTYPE
380
     0
  9
$PSTYLEMODE
290
     1
  9
$FINGERPRINTGUID
  2

  9
$VERSIONGUID
  2
{8EF6B9CD-0BC2-2240-A557-E65858DE1999}
  9
$EXTNAMES
290
     1
  9
$PSVPSCALE
 40
0.0
  9
$OLESTARTUP
290
     0
  9
$SORTENTS
280
   127
  9
$INDEXCTL
280
     0
  9
$HIDETEXT
280
     1
  9
$XCLIPFRAME
280
     0
  9
$HALOGAP
280
     0
  9
$OBSCOLOR
 70
   257
  9
$OBSLTYPE
280
     0
  9
$INTERSECTIONDISPLAY
280
     0
  9
$INTERSECTIONCOLOR
 70
   257
  9
$DIMASSOC
280
     2
  9
$PROJECTNAME
  1

  9
$CAMERADISPLAY
290
     0
  9
$LENSLENGTH
 40
50.0
  9
$CAMERAHEIGHT
 40
0.0
  9
$STEPSPERSEC
 40
2.0
  9
$STEPSIZE
 40
6.0
  9
$3DDWFPREC
 40
2.0
  9
$PSOLWIDTH
 40
0.25
  9
$PSOLHEIGHT
 40
4.0
  9
$LOFTANG1
 40
1.570796326794897
  9
$LOFTANG2
 40
1.570796326794897
  9
$LOFTMAG1
 40
0.0
  9
$LOFTMAG2
 40
0.0
  9
$LOFTPARAM
 70
     7
  9
$LOFTNORMALS
280
     1
  9
$LATITUDE
 40
37.795
  9
$LONGITUDE
 40
-122.394
  9
$NORTHDIRECTION
 40
0.0
  9
$TIMEZONE
 70
 -8000
  9
$LIGHTGLYPHDISPLAY
280
     1
  9
$TILEMODELIGHTSYNCH
280
     1
  9
$CMATERIAL
347
264
  9
$SOLIDHIST
280
     1
  9
$SHOWHIST
280
     1
  9
$DWFFRAME
280
     2
  9
$DGNFRAME
280
     2
  9
$REALWORLDSCALE
290
     1
  9
$INTERFERECOLOR
 62
   256
  9
$INTERFEREOBJVS
345
270
  9
$INTERFEREVPVS
346
8FA
  9
$CSHADOW
280
     0
  9
$SHADOWPLANELOCATION
 40
0.0
  0
ENDSEC
  0
SECTION
  2
CLASSES
  0
CLASS
  1
IMAGE
  2
AcDbRasterImage
  3
ISM
 90
     2175
 91
        0
280
     0
281
     1
  0
CLASS
  1
DICTIONARYVAR
  2
AcDbDictionaryVar
  3
ObjectDBX Classes
 90
        0
 91
       14
280
     0
281
     0
  0
CLASS
  1
RASTERVARIABLES
  2
AcDbRasterVariables
  3
ISM
 90
        0
 91
        1
280
     0
281
     0
  0
CLASS
  1
IMAGEDEF
  2
AcDbRasterImageDef
  3
ISM
 90
        0
 91
        0
280
     0
281
     0
  0
CLASS
  1
IMAGEDEF_REACTOR
  2
AcDbRasterImageDefReactor
  3
ISM
 90
        1
 91
        0
280
     0
281
     0
  0
CLASS
  1
IDBUFFER
  2
AcDbIdBuffer
  3
ObjectDBX Classes
 90
        0
 91
        0
280
     0
281
     0
  0
CLASS
  1
SPATIAL_FILTER
  2
AcDbSpatialFilter
  3
ObjectDBX Classes
 90
        0
 91
        0
280
     0
281
     0
  0
CLASS
  1
SORTENTSTABLE
  2
AcDbSortentsTable
  3
ObjectDBX Classes
 90
        0
 91
        2
280
     0
281
     0
  0
CLASS
  1
LAYER_INDEX
  2
AcDbLayerIndex
  3
ObjectDBX Classes
 90
        0
 91
        0
280
     0
281
     0
  0
CLASS
  1
SPATIAL_INDEX
  2
AcDbSpatialIndex
  3
ObjectDBX Classes
 90
        0
 91
        0
280
     0
281
     0
  0
CLASS
  1
OBJECT_PTR
  2
CAseDLPNTableRecord
  3
ASE-LPNTableRecord
 90
        1
 91
        0
280
     0
281
     0
  0
CLASS
  1
PLOTSETTINGS
  2
AcDbPlotSettings
  3
ObjectDBX Classes
 90
        0
 91
        0
280
     0
281
     0
  0
CLASS
  1
ACDBDICTIONARYWDFLT
  2
AcDbDictionaryWithDefault
  3
ObjectDBX Classes
 90
        0
 91
        1
280
     0
281
     0
  0
CLASS
  1
SCALE
  2
AcDbScale
  3
ObjectDBX Classes
 90
     1153
 91
       33
280
     0
281
     0
  0
CLASS
  1
MATERIAL
  2
AcDbMaterial
  3
ObjectDBX Classes
 90
     1153
 91
        3
280
     0
281
     0
  0
CLASS
  1
VISUALSTYLE
  2
AcDbVisualStyle
  3
ObjectDBX Classes
 90
     4095
 91
       27
280
     0
281
     0
  0
CLASS
  1
TABLESTYLE
  2
AcDbTableStyle
  3
ObjectDBX Classes
 90
     4095
 91
        1
280
     0
281
     0
  0
CLASS
  1
DIMASSOC
  2
AcDbDimAssoc
  3
"AcDbDimAssoc|Product Desc:     AcDim ARX App For Dimension|Company:          Autodesk, Inc.|WEB Address:      www.autodesk.com"
 90
        0
 91
        5
280
     0
281
     0
  0
CLASS
  1
CELLSTYLEMAP
  2
AcDbCellStyleMap
  3
ObjectDBX Classes
 90
     1152
 91
        2
280
     0
281
     0
  0
CLASS
  1
SUN
  2
AcDbSun
  3
SCENEOE
 90
     1153
 91
        1
280
     0
281
     0
  0
CLASS
  1
MLEADERSTYLE
  2
AcDbMLeaderStyle
  3
ACDB_MLEADERSTYLE_CLASS
 90
     4095
 91
        1
280
     0
281
     0
  0
CLASS
  1
FIELD
  2
AcDbField
  3
ObjectDBX Classes
 90
     1152
 91
        2
280
     0
281
     0
  0
CLASS
  1
FIELDLIST
  2
AcDbFieldList
  3
ObjectDBX Classes
 90
     1152
 91
        1
280
     0
281
     0
  0
CLASS
  1
ACDBSECTIONVIEWSTYLE
  2
AcDbSectionViewStyle
  3
ObjectDBX Classes
 90
     1025
 91
        1
280
     0
281
     0
  0
CLASS
  1
ACDBDETAILVIEWSTYLE
  2
AcDbDetailViewStyle
  3
ObjectDBX Classes
 90
     1025
 91
        1
280
     0
281
     0
  0
CLASS
  1
SOLID_BACKGROUND
  2
AcDbSolidBackground
  3
SCENEOE
 90
     4095
 91
        1
280
     0
281
     0
  0
CLASS
  1
NPOCOLLECTION
  2
AcDbImpNonPersistentObjectsCollection
  3
ObjectDBX Classes
 90
     1153
 91
        1
280
     0
281
     0
  0
CLASS
  1
RAPIDRTRENDERSETTINGS
  2
AcDbRapidRTRenderSettings
  3
ObjectDBX Classes
 90
     1024
 91
        6
280
     0
281
     0
  0
ENDSEC
  0
SECTION
  2
TABLES
  0
TABLE
  2
VPORT
  5
7
330
0
100
AcDbSymbolTable
 70
     1
  0
VPORT
  5
15
330
7
100
AcDbSymbolTableRecord
100
AcDbViewportTableRecord
  2
*ACTIVE
 70
     0
 10
0.0
 20
0.0
 11
1.0
 21
1.0
 12
0.0
 22
0.0
 13
0.0
 23
0.0
 14
1.0
 24
1.0
 15
0.0
 25
0.0
 16
0.0
 26
0.0
 36
2187.719602029261
 17
439.8579681898866
 27
445.4999999999999
 37
-46.86809886248109
 40
893.7443531827513
 41
1.987452948557089
 42
50.0
 43
0.0
 44
0.0
 50
0.0
 51
0.0
 71
     0
 72
  2000
 73
     1
 74
     1
 75
     0
 76
     0
 77
     0
 78
     0
281
     1
 65
     1
110
0.0
120
0.0
130
0.0
111
1.0
121
0.0
131
0.0
112
0.0
122
1.0
132
0.0
 79
     0
146
0.0
348
3666
 60
     3
 61
     5
292
     1
282
     1
141
0.0
142
0.0
 63
   250
421
  3355443
361
904
1001
ACAD_NAV_VCDISPLAY
1070
     3
  0
ENDTAB
  0
TABLE
  2
LTYPE
  5
4
330
0
100
AcDbSymbolTable
 70
     3
  0
LTYPE
  5
11
330
4
100
AcDbSymbolTableRecord
100
AcDbLinetypeTableRecord
  2
ByBlock
 70
     0
  3

 72
    65
 73
     0
 40
0.0
  0
LTYPE
  5
12
330
4
100
AcDbSymbolTableRecord
100
AcDbLinetypeTableRecord
  2
ByLayer
 70
     0
  3

 72
    65
 73
     0
 40
0.0
  0
LTYPE
  5
13
330
4
100
AcDbSymbolTableRecord
100
AcDbLinetypeTableRecord
  2
Continuous
 70
     0
  3
Solid line
 72
    65
 73
     0
 40
0.0
  0
LTYPE
  5
D6C
330
4
100
AcDbSymbolTableRecord
100
AcDbLinetypeTableRecord
  2
BORDER
 70
     0
  3
Border __  __  . __  __  . __  __  . __  __  . 
 72
    65
 73
     6
 40
44.45
 49
12.7
 74
     0
 49
-6.349999999999998
 74
     0
 49
12.7
 74
     0
 49
-6.349999999999998
 74
     0
 49
0.0
 74
     0
 49
-6.349999999999998
 74
     0
  0
LTYPE
  5
D6D
330
4
100
AcDbSymbolTableRecord
100
AcDbLinetypeTableRecord
  2
HIDDEN
 70
     0
  3
Hidden _ _ _ _ _ _ _ _ _ _ _ _ _ _ _ _ _ _ _ _ 
 72
    65
 73
     2
 40
9.525
 49
6.349999999999998
 74
     0
 49
-3.174999999999998
 74
     0
  0
ENDTAB
  0
TABLE
  2
LAYER
  5
2
102
{ACAD_XDICTIONARY
360
2E1
102
}
330
0
100
AcDbSymbolTable
 70
     9
  0
LAYER
  5
14
102
{ACAD_XDICTIONARY
360
18C22
102
}
330
2
100
AcDbSymbolTableRecord
100
AcDbLayerTableRecord
  2
0
 70
     0
 62
     7
  6
Continuous
370
    -3
390
1D
347
266
348
0
  0
LAYER
  5
4B
102
{ACAD_XDICTIONARY
360
18C24
102
}
330
2
100
AcDbSymbolTableRecord
100
AcDbLayerTableRecord
  2
TEMPLATE
 70
     0
 62
     7
  6
Continuous
370
    20
390
1D
347
266
348
0
  0
LAYER
  5
4C
102
{ACAD_XDICTIONARY
360
18C26
102
}
330
2
100
AcDbSymbolTableRecord
100
AcDbLayerTableRecord
  2
DIM
 70
     0
 62
     3
  6
Continuous
370
    13
390
1D
347
266
348
0
  0
LAYER
  5
4D
102
{ACAD_XDICTIONARY
360
18C28
102
}
330
2
100
AcDbSymbolTableRecord
100
AcDbLayerTableRecord
  2
MODEL
 70
     0
 62
     7
  6
Continuous
370
    20
390
1D
347
266
348
0
  0
LAYER
  5
88C
102
{ACAD_XDICTIONARY
360
18C2A
102
}
330
2
100
AcDbSymbolTableRecord
100
AcDbLayerTableRecord
  2
HIDDEN
 70
     0
 62
     8
  6
HIDDEN
370
    20
390
1D
347
266
348
0
1001
AcAecLayerStandard
1000

1000

  0
LAYER
  5
D6B
102
{ACAD_XDICTIONARY
360
18C2C
102
}
330
2
100
AcDbSymbolTableRecord
100
AcDbLayerTableRecord
  2
BORDER
 70
     0
 62
     4
  6
BORDER
290
     0
370
    20
390
1D
347
266
348
0
1001
AcAecLayerStandard
1000

1000

  0
LAYER
  5
A5DF
330
2
100
AcDbSymbolTableRecord
100
AcDbLayerTableRecord
  2
Defpoints
 70
     0
 62
     7
  6
Continuous
290
     0
370
    -3
390
1D
347
266
348
0
  0
LAYER
  5
17561
102
{ACAD_XDICTIONARY
360
17562
102
}
330
2
100
AcDbSymbolTableRecord
100
AcDbLayerTableRecord
  2
注释
 70
     0
 62
     7
  6
Continuous
370
    -1
390
1D
347
266
348
0
1001
AcadStringInfo
1000
MIFCodePage
1070
     5
  0
LAYER
  5
17692
102
{ACAD_XDICTIONARY
360
18C2E
102
}
330
2
100
AcDbSymbolTableRecord
100
AcDbLayerTableRecord
  2
レイヤー 1
 70
     0
 62
     7
  6
Continuous
370
    -3
390
1D
347
266
348
0
  0
ENDTAB
  0
TABLE
  2
STYLE
  5
3
330
0
100
AcDbSymbolTable
 70
     5
  0
STYLE
  5
17
330
3
100
AcDbSymbolTableRecord
100
AcDbTextStyleTableRecord
  2
Standard
 70
     0
 40
0.0
 41
1.0
 50
0.0
 71
     0
 42
2.5
  3
txt
  4
BIGFONT.SHX
  0
STYLE
  5
39
330
3
100
AcDbSymbolTableRecord
100
AcDbTextStyleTableRecord
  2
ＭＳ ゴシック
 70
     0
 40
0.0
 41
1.0
 50
0.0
 71
     0
 42
2.5
  3
msgothic.ttc
  4
ＭＳ ゴシック
1001
ACAD
1000
ＭＳ ゴシック
1071
        0
  0
STYLE
  5
17569
330
3
100
AcDbSymbolTableRecord
100
AcDbTextStyleTableRecord
  2
SLDTEXTSTYLE0
 70
     0
 40
0.0
 41
0.75
 50
0.0
 71
     0
 42
2.5
  3
TXT
  4

  0
STYLE
  5
18B45
330
3
100
AcDbSymbolTableRecord
100
AcDbTextStyleTableRecord
  2
EXTFONT
 70
     0
 40
0.0
 41
0.75
 50
0.0
 71
     0
 42
2.5
  3
romans.shx
  4
extfont.shx
  0
ENDTAB
  0
TABLE
  2
VIEW
  5
5
330
0
100
AcDbSymbolTable
 70
     1
  0
ENDTAB
  0
TABLE
  2
UCS
  5
6
330
0
100
AcDbSymbolTable
 70
     0
  0
ENDTAB
  0
TABLE
  2
APPID
  5
8
330
0
100
AcDbSymbolTable
 70
    12
  0
APPID
  5
16
330
8
100
AcDbSymbolTableRecord
100
AcDbRegAppTableRecord
  2
ACAD
 70
     0
  0
APPID
  5
7AC
330
8
100
AcDbSymbolTableRecord
100
AcDbRegAppTableRecord
  2
AcAecLayerStandard
 70
     0
  0
APPID
  5
E29
330
8
100
AcDbSymbolTableRecord
100
AcDbRegAppTableRecord
  2
ACAD_MLEADERVER
 70
     0
  0
APPID
  5
17545
330
8
100
AcDbSymbolTableRecord
100
AcDbRegAppTableRecord
  2
ACAD_DSTYLE_DIMRADIAL_EXTENSION
 70
     0
  0
APPID
  5
1755C
330
8
100
AcDbSymbolTableRecord
100
AcDbRegAppTableRecord
  2
PLOTTRANSPARENCY
 70
     0
  0
APPID
  5
17565
330
8
100
AcDbSymbolTableRecord
100
AcDbRegAppTableRecord
  2
AcadStringInfo
 70
     0
  0
APPID
  5
1756B
330
8
100
AcDbSymbolTableRecord
100
AcDbRegAppTableRecord
  2
ACAD_NAV_VCDISPLAY
 70
     0
  0
APPID
  5
18B53
330
8
100
AcDbSymbolTableRecord
100
AcDbRegAppTableRecord
  2
ACAD_DSTYLE_DIMJAG
 70
     0
  0
APPID
  5
18B54
330
8
100
AcDbSymbolTableRecord
100
AcDbRegAppTableRecord
  2
ACAD_DSTYLE_DIMTALN
 70
     0
  0
APPID
  5
18C19
330
8
100
AcDbSymbolTableRecord
100
AcDbRegAppTableRecord
  2
DCO15
 70
     0
  0
APPID
  5
18C20
330
8
100
AcDbSymbolTableRecord
100
AcDbRegAppTableRecord
  2
ACAD_EXEMPT_FROM_CAD_STANDARDS
 70
     0
  0
APPID
  5
18C5C
330
8
100
AcDbSymbolTableRecord
100
AcDbRegAppTableRecord
  2
ACAD_PSEXT
 70
     0
  0
ENDTAB
  0
TABLE
  2
DIMSTYLE
  5
9
330
0
100
AcDbSymbolTable
 70
     9
100
AcDbDimStyleTable
 71
     1
340
57
  0
DIMSTYLE
105
18
330
9
100
AcDbSymbolTableRecord
100
AcDbDimStyleTableRecord
  2
Standard
 70
     0
340
17
  0
DIMSTYLE
105
57
102
{ACAD_REACTORS
330
18B17
330
18B1A
330
18BC3
330
18BD2
330
18BE2
102
}
330
9
100
AcDbSymbolTableRecord
100
AcDbDimStyleTableRecord
  2
tfrom線あり
 70
     0
  3
<>
  4
[]
 41
3.0
 42
10.0
 43
1.0
 44
0.0
 73
     0
 74
     0
 77
     1
 78
    11
140
8.0
141
0.0
143
1.0
147
6.0
171
     1
174
     1
179
     2
271
     0
272
     1
276
     2
284
    11
285
    11
286
    11
289
     0
340
39
341
4E
342
4E
  0
DIMSTYLE
105
17566
330
9
100
AcDbSymbolTableRecord
100
AcDbDimStyleTableRecord
  2
ISO-25
 70
     0
 41
2.5
 42
0.625
 43
3.75
 44
1.25
 73
     0
 74
     0
 77
     1
 78
     8
140
2.5
141
2.5
143
0.03937007874016
147
0.625
171
     3
172
     1
271
     2
272
     2
274
     3
278
    44
283
     0
284
     8
340
17
  0
DIMSTYLE
105
17568
330
9
100
AcDbSymbolTableRecord
100
AcDbDimStyleTableRecord
  2
SLDDIMSTYLE0
 70
     0
 41
2.5
 44
0.0
 45
0.000000001
 73
     0
 74
     0
 77
     1
 78
    12
 79
     3
140
2.5
144
3.0
147
0.625
173
     1
271
     3
272
     3
276
     2
284
    12
340
17569
  0
DIMSTYLE
105
1756A
330
9
100
AcDbSymbolTableRecord
100
AcDbDimStyleTableRecord
  2
SLDDIMSTYLE1
 70
     0
 41
2.5
 44
0.0
 45
0.000000001
 73
     0
 74
     0
 77
     1
 78
    12
 79
     3
140
2.5
144
3.0
147
0.625
172
     1
173
     1
271
     3
272
     3
276
     2
284
    12
289
     0
340
17569
  0
DIMSTYLE
105
18A6E
330
9
100
AcDbSymbolTableRecord
100
AcDbDimStyleTableRecord
  2
SLDDIMSTYLE2
 70
     0
 41
2.5
 44
0.0
 45
0.000000001
 73
     0
 74
     0
 77
     1
 78
    12
 79
     3
140
2.5
144
2.0
147
0.625
173
     1
271
     0
272
     0
276
     2
284
    12
340
17569
  0
DIMSTYLE
105
18A6F
330
9
100
AcDbSymbolTableRecord
100
AcDbDimStyleTableRecord
  2
tform線あり
 70
     0
  3
<>
  4
[]
 41
9.999389648437498
 42
25.0
 43
1.0
 44
0.0
 73
     0
 74
     0
 77
     1
 78
    11
140
24.4326171875
141
0.0
143
1.0
146
0.8
147
10.0
171
     1
172
     1
174
     1
179
     2
271
     1
272
     1
276
     2
284
    11
285
    11
286
    11
289
     0
340
39
341
4E
342
4E
  0
DIMSTYLE
105
18B44
330
9
100
AcDbSymbolTableRecord
100
AcDbDimStyleTableRecord
  2
6
 70
     0
 40
2.0
 41
1.5
 42
1.0
 43
4.0
 44
0.0
 46
1.5
 49
0.0
 69
     1
 73
     0
 74
     0
 77
     1
 78
     9
140
4.0
141
0.0
145
1.0
147
1.5
172
     1
176
   256
177
   256
178
     4
271
     1
272
     1
279
     2
284
     9
285
    13
286
    13
340
18B45
341
18B46
342
18B4E
1001
ACAD_DSTYLE_DIMJAG
1070
   388
1040
1.5
1001
ACAD_DSTYLE_DIMTALN
1070
   392
1070
     0
  0
ENDTAB
  0
TABLE
  2
BLOCK_RECORD
  5
1
330
0
100
AcDbSymbolTable
 70
    32
  0
BLOCK_RECORD
  5
A
102
{ACAD_XDICTIONARY
360
1733E
102
}
330
1
100
AcDbSymbolTableRecord
100
AcDbBlockTableRecord
  2
*MODEL_SPACE
340
20
 70
     0
280
     1
281
     0
  0
BLOCK_RECORD
  5
B
330
1
100
AcDbSymbolTableRecord
100
AcDbBlockTableRecord
  2
*PAPER_SPACE
340
21
 70
     0
280
     1
281
     0
  0
BLOCK_RECORD
  5
4E
330
1
100
AcDbSymbolTableRecord
100
AcDbBlockTableRecord
  2
_DOT
340
0
102
{BLKREFS
331
17326
331
17327
331
17335
331
17336
331
173AB
331
173AC
331
173BA
331
173BB
331
173D8
331
173D9
331
173E4
331
173E5
331
1754E
331
18ABE
331
18ABF
331
18ACD
331
18ACE
331
18B23
331
18B24
331
18B2F
331
18B30
331
18BCC
331
18BCD
331
18BDB
331
18BDC
331
17559
331
18BED
331
18BEE
102
}
 70
     0
280
     1
281
     0
  0
BLOCK_RECORD
  5
68D
330
1
100
AcDbSymbolTableRecord
100
AcDbBlockTableRecord
  2
block 2
340
0
102
{BLKREFS
331
68C
331
1343
102
}
 70
     0
280
     1
281
     0
  0
BLOCK_RECORD
  5
17320
330
1
100
AcDbSymbolTableRecord
100
AcDbBlockTableRecord
  2
*D2
340
0
 70
     0
280
     1
281
     0
  0
BLOCK_RECORD
  5
1732F
330
1
100
AcDbSymbolTableRecord
100
AcDbBlockTableRecord
  2
*D3
340
0
 70
     0
280
     1
281
     0
  0
BLOCK_RECORD
  5
173A6
330
1
100
AcDbSymbolTableRecord
100
AcDbBlockTableRecord
  2
*D4
340
0
 70
     0
280
     1
281
     0
  0
BLOCK_RECORD
  5
173B5
330
1
100
AcDbSymbolTableRecord
100
AcDbBlockTableRecord
  2
*D5
340
0
 70
     0
280
     1
281
     0
  0
BLOCK_RECORD
  5
173D2
330
1
100
AcDbSymbolTableRecord
100
AcDbBlockTableRecord
  2
*D6
340
0
 70
     0
280
     1
281
     0
  0
BLOCK_RECORD
  5
173DE
330
1
100
AcDbSymbolTableRecord
100
AcDbBlockTableRecord
  2
*D7
340
0
 70
     0
280
     1
281
     0
  0
BLOCK_RECORD
  5
17549
330
1
100
AcDbSymbolTableRecord
100
AcDbBlockTableRecord
  2
*D8
340
0
 70
     0
280
     1
281
     0
  0
BLOCK_RECORD
  5
17554
330
1
100
AcDbSymbolTableRecord
100
AcDbBlockTableRecord
  2
*D9
340
0
 70
     0
280
     1
281
     0
  0
BLOCK_RECORD
  5
17588
330
1
100
AcDbSymbolTableRecord
100
AcDbBlockTableRecord
  2
_D
340
0
 70
     0
280
     1
281
     0
  0
BLOCK_RECORD
  5
17592
330
1
100
AcDbSymbolTableRecord
100
AcDbBlockTableRecord
  2
_D_1
340
0
 70
     0
280
     1
281
     0
  0
BLOCK_RECORD
  5
175B2
330
1
100
AcDbSymbolTableRecord
100
AcDbBlockTableRecord
  2
_D_2
340
0
 70
     0
280
     1
281
     0
  0
BLOCK_RECORD
  5
175DC
330
1
100
AcDbSymbolTableRecord
100
AcDbBlockTableRecord
  2
_D_3
340
0
 70
     0
280
     1
281
     0
  0
BLOCK_RECORD
  5
175E6
330
1
100
AcDbSymbolTableRecord
100
AcDbBlockTableRecord
  2
_D_4
340
0
 70
     0
280
     1
281
     0
  0
BLOCK_RECORD
  5
1764F
330
1
100
AcDbSymbolTableRecord
100
AcDbBlockTableRecord
  2
*D15
340
0
 70
     0
280
     1
281
     0
  0
BLOCK_RECORD
  5
1765B
330
1
100
AcDbSymbolTableRecord
100
AcDbBlockTableRecord
  2
*D16
340
0
 70
     0
280
     1
281
     0
  0
BLOCK_RECORD
  5
17667
330
1
100
AcDbSymbolTableRecord
100
AcDbBlockTableRecord
  2
*D17
340
0
 70
     0
280
     1
281
     0
  0
BLOCK_RECORD
  5
17673
330
1
100
AcDbSymbolTableRecord
100
AcDbBlockTableRecord
  2
*D18
340
0
 70
     0
280
     1
281
     0
  0
BLOCK_RECORD
  5
1767F
330
1
100
AcDbSymbolTableRecord
100
AcDbBlockTableRecord
  2
*D19
340
0
 70
     0
280
     1
281
     0
  0
BLOCK_RECORD
  5
1806C
330
1
100
AcDbSymbolTableRecord
100
AcDbBlockTableRecord
  2
*D20
340
0
 70
     0
280
     1
281
     0
  0
BLOCK_RECORD
  5
18A4B
330
1
100
AcDbSymbolTableRecord
100
AcDbBlockTableRecord
  2
*D21
340
0
 70
     0
280
     1
281
     0
  0
BLOCK_RECORD
  5
18AB9
330
1
100
AcDbSymbolTableRecord
100
AcDbBlockTableRecord
  2
*D22
340
0
 70
     0
280
     1
281
     0
  0
BLOCK_RECORD
  5
18AC8
330
1
100
AcDbSymbolTableRecord
100
AcDbBlockTableRecord
  2
*D23
340
0
 70
     0
280
     1
281
     0
  0
BLOCK_RECORD
  5
18B1D
330
1
100
AcDbSymbolTableRecord
100
AcDbBlockTableRecord
  2
*D24
340
0
 70
     0
280
     1
281
     0
  0
BLOCK_RECORD
  5
18B29
330
1
100
AcDbSymbolTableRecord
100
AcDbBlockTableRecord
  2
*D25
340
0
 70
     0
280
     1
281
     0
  0
BLOCK_RECORD
  5
18B46
102
{ACAD_XDICTIONARY
360
18B47
102
}
330
1
100
AcDbSymbolTableRecord
100
AcDbBlockTableRecord
  2
_Open30
340
0
310
2800000020000000200000000100080000000000000400000000000000000000000000000000000000000000000080000080000000808000800000008000800080800000C0C0C000C0DCC000F0CAA6000020400000206000002080000020A0000020C0000020E00000400000004020000040400000406000004080000040A0
310
000040C0000040E00000600000006020000060400000606000006080000060A0000060C0000060E00000800000008020000080400000806000008080000080A0000080C0000080E00000A0000000A0200000A0400000A0600000A0800000A0A00000A0C00000A0E00000C0000000C0200000C0400000C0600000C0800000C0
310
A00000C0C00000C0E00000E0000000E0200000E0400000E0600000E0800000E0A00000E0C00000E0E00040000000400020004000400040006000400080004000A0004000C0004000E00040200000402020004020400040206000402080004020A0004020C0004020E000404000004040200040404000404060004040800040
310
40A0004040C0004040E00040600000406020004060400040606000406080004060A0004060C0004060E00040800000408020004080400040806000408080004080A0004080C0004080E00040A0000040A0200040A0400040A0600040A0800040A0A00040A0C00040A0E00040C0000040C0200040C0400040C0600040C08000
310
40C0A00040C0C00040C0E00040E0000040E0200040E0400040E0600040E0800040E0A00040E0C00040E0E00080000000800020008000400080006000800080008000A0008000C0008000E00080200000802020008020400080206000802080008020A0008020C0008020E00080400000804020008040400080406000804080
310
008040A0008040C0008040E00080600000806020008060400080606000806080008060A0008060C0008060E00080800000808020008080400080806000808080008080A0008080C0008080E00080A0000080A0200080A0400080A0600080A0800080A0A00080A0C00080A0E00080C0000080C0200080C0400080C0600080C0
310
800080C0A00080C0C00080C0E00080E0000080E0200080E0400080E0600080E0800080E0A00080E0C00080E0E000C0000000C0002000C0004000C0006000C0008000C000A000C000C000C000E000C0200000C0202000C0204000C0206000C0208000C020A000C020C000C020E000C0400000C0402000C0404000C0406000C0
310
408000C040A000C040C000C040E000C0600000C0602000C0604000C0606000C0608000C060A000C060C000C060E000C0800000C0802000C0804000C0806000C0808000C080A000C080C000C080E000C0A00000C0A02000C0A04000C0A06000C0A08000C0A0A000C0A0C000C0A0E000C0C00000C0C02000C0C04000C0C06000
310
C0C08000C0C0A000F0FBFF00A4A0A000808080000000FF0000FF000000FFFF00FF000000FF00FF00FFFF0000FFFFFF0000000000000000000000000000000000000000000000000000000000000000000000000000000000000000000000000000000000000000000000000000000000000000000000000000000000000000
310
00000000000000000000000000000000000000000000000000000000000000000000000000000000000000000000000000000000000000000000000000000000000000000000000000000000000000000000000000000000000000000000000000000000000000000000000000000000000000000000000000000000000000
310
000000000000000000000000000000000000000000000000000000000000000000000000000000000000000000000000000000FFFF0000000000000000000000000000000000000000000000000000000000000000FFFFFFFF0000000000000000000000000000000000000000000000000000000000000000FFFFFFFF0000
310
000000000000000000000000000000000000000000000000000000000000FFFFFF0000000000000000000000000000000000000000000000000000000000000000FFFFFFFF0000000000000000000000000000000000000000000000000000000000000000FFFFFF0000000000000000000000000000000000000000000000
310
000000000000000000FFFFFFFF0000000000000000000000000000000000000000000000000000000000000000FFFFFFFF00000000FFFFFFFFFFFFFFFFFFFFFFFFFFFFFFFFFFFFFFFFFFFFFFFFFFFFFFFFFFFF00000000000000000000000000000000000000000000000000FFFFFFFF000000000000000000000000000000
310
000000000000000000FFFFFFFF000000000000000000000000000000000000000000000000FFFFFFFF000000000000000000000000000000000000000000000000FFFFFFFF000000000000000000000000000000000000000000000000FFFFFFFF000000000000000000000000000000000000000000000000FFFFFFFF0000
310
0000000000000000000000000000000000000000000000FFFFFF0000000000000000000000000000000000000000000000000000000000000000000000000000000000000000000000000000000000000000000000000000000000000000000000000000000000000000000000000000000000000000000000000000000000
310
00000000000000000000000000000000000000000000000000000000000000000000000000000000000000000000000000000000000000000000000000000000000000000000000000000000000000000000000000000000000000000000000000000000000000000000000000000000000000000000000000000000000000
310
0000000000000000000000000000000000000000000000000000000000000000000000000000000000000000000000000000000000000000
 70
     0
280
     1
281
     0
  0
BLOCK_RECORD
  5
18B4E
330
1
100
AcDbSymbolTableRecord
100
AcDbBlockTableRecord
  2
_Origin
340
0
 70
     0
280
     1
281
     0
  0
BLOCK_RECORD
  5
18BC6
330
1
100
AcDbSymbolTableRecord
100
AcDbBlockTableRecord
  2
*D28
340
0
 70
     0
280
     1
281
     0
  0
BLOCK_RECORD
  5
18BD5
330
1
100
AcDbSymbolTableRecord
100
AcDbBlockTableRecord
  2
*D29
340
0
 70
     0
280
     1
281
     0
  0
BLOCK_RECORD
  5
18BE5
330
1
100
AcDbSymbolTableRecord
100
AcDbBlockTableRecord
  2
*D30
340
0
 70
     0
280
     1
281
     0
  0
ENDTAB
  0
ENDSEC
  0
SECTION
  2
BLOCKS
  0
BLOCK
  5
D
330
A
100
AcDbEntity
  8
0
390
1D
100
AcDbBlockBegin
  2
*MODEL_SPACE
 70
     0
 10
0.0
 20
0.0
 30
0.0
  3
*MODEL_SPACE
  1
*MODEL_SPACE
  0
ENDBLK
  5
E
330
A
100
AcDbEntity
  8
0
390
1D
100
AcDbBlockEnd
  0
BLOCK
  5
F
330
B
100
AcDbEntity
 67
     1
  8
0
390
1D
100
AcDbBlockBegin
  2
*PAPER_SPACE
 70
     0
 10
0.0
 20
0.0
 30
0.0
  3
*PAPER_SPACE
  1
*PAPER_SPACE
  0
ENDBLK
  5
10
330
B
100
AcDbEntity
 67
     1
  8
0
390
1D
100
AcDbBlockEnd
  0
BLOCK
  5
369F
330
4E
100
AcDbEntity
  8
0
390
1D
100
AcDbBlockBegin
  2
_DOT
 70
     0
 10
0.0
 20
0.0
 30
0.0
  3
_DOT
  1
_DOT
  0
POLYLINE
  5
36A1
330
4E
100
AcDbEntity
  8
0
  6
ByBlock
 62
     0
370
    -2
390
1D
100
AcDb2dPolyline
 66
     1
 10
0.0
 20
0.0
 30
0.0
 70
     1
 40
0.5
 41
0.5
  0
VERTEX
  5
36A2
330
36A1
100
AcDbEntity
  8
0
  6
ByBlock
 62
     0
370
    -2
390
1D
100
AcDbVertex
100
AcDb2dVertex
 10
-0.25
 20
0.0
 30
0.0
 42
1.0
  0
VERTEX
  5
36A3
330
36A1
100
AcDbEntity
  8
0
  6
ByBlock
 62
     0
370
    -2
390
1D
100
AcDbVertex
100
AcDb2dVertex
 10
0.25
 20
0.0
 30
0.0
 42
1.0
  0
SEQEND
  5
36A4
330
36A1
100
AcDbEntity
  8
0
390
1D
  0
LINE
  5
36A5
330
4E
100
AcDbEntity
  8
0
  6
ByBlock
 62
     0
370
    -2
390
1D
100
AcDbLine
 10
-0.5
 20
0.0
 30
0.0
 11
-1.0
 21
0.0
 31
0.0
  0
ENDBLK
  5
36A6
330
4E
100
AcDbEntity
  8
0
390
1D
100
AcDbBlockEnd
  0
BLOCK
  5
68E
330
68D
100
AcDbEntity
  8
0
100
AcDbBlockBegin
  2
block 2
 70
     0
 10
0.0
 20
0.0
 30
0.0
  3
block 2
  1
block 2
  0
ENDBLK
  5
6B0
330
68D
100
AcDbEntity
  8
0
100
AcDbBlockEnd
  0
BLOCK
  5
17321
330
17320
100
AcDbEntity
  8
0
100
AcDbBlockBegin
  2
*D2
 70
     1
 10
0.0
 20
0.0
 30
0.0
  3
*D2
  1

  0
LINE
  5
17323
330
17320
100
AcDbEntity
  8
DIM
 62
     0
370
    -2
100
AcDbLine
 10
405.9245501690547
 20
309.7529598971253
 30
0.0
 11
405.9245501690547
 21
297.8784471131835
 31
0.0
  0
LINE
  5
17324
330
17320
100
AcDbEntity
  8
DIM
 62
     0
370
    -2
100
AcDbLine
 10
370.465565794055
 20
307.7217551386165
 30
0.0
 11
370.465565794055
 21
297.8784471131835
 31
0.0
  0
LINE
  5
17325
330
17320
100
AcDbEntity
  8
DIM
 62
     0
370
    -2
100
AcDbLine
 10
402.9245501690548
 20
297.8784471131835
 30
0.0
 11
373.465565794055
 21
297.8784471131835
 31
0.0
  0
INSERT
  5
17326
330
17320
100
AcDbEntity
  8
DIM
 62
     0
370
    -2
100
AcDbBlockReference
  2
_DOT
 10
405.9245501690547
 20
297.8784471131835
 30
0.0
 41
3.0
 42
3.0
 43
3.0
  0
INSERT
  5
17327
330
17320
100
AcDbEntity
  8
DIM
 62
     0
370
    -2
100
AcDbBlockReference
  2
_DOT
 10
370.465565794055
 20
297.8784471131835
 30
0.0
 41
3.0
 42
3.0
 43
3.0
 50
180.0
  0
MTEXT
  5
17328
330
17320
100
AcDbEntity
  8
DIM
 62
     0
100
AcDbMText
 10
388.1950579815549
 20
307.8784471131835
 30
0.0
 40
8.0
 41
0.0
 46
0.0
 71
     5
 72
     1
  1
\A1;35
  7
ＭＳ ゴシック
 73
     1
 44
1.0
  0
POINT
  5
17329
330
17320
100
AcDbEntity
  8
Defpoints
 62
     0
100
AcDbPoint
 10
405.9245501690547
 20
319.7529598971253
 30
0.0
  0
POINT
  5
1732A
330
17320
100
AcDbEntity
  8
Defpoints
 62
     0
100
AcDbPoint
 10
370.465565794055
 20
317.7217551386164
 30
0.0
  0
POINT
  5
1732B
330
17320
100
AcDbEntity
  8
Defpoints
 62
     0
100
AcDbPoint
 10
370.465565794055
 20
297.8784471131835
 30
0.0
  0
ENDBLK
  5
17322
330
17320
100
AcDbEntity
  8
0
100
AcDbBlockEnd
  0
BLOCK
  5
17330
330
1732F
100
AcDbEntity
  8
0
100
AcDbBlockBegin
  2
*D3
 70
     1
 10
0.0
 20
0.0
 30
0.0
  3
*D3
  1

  0
LINE
  5
17332
330
1732F
100
AcDbEntity
  8
DIM
 62
     0
370
    -2
100
AcDbLine
 10
336.4182475173941
 20
457.0429158371508
 30
0.0
 11
315.1384266419194
 21
457.0429158371508
 31
0.0
  0
LINE
  5
17333
330
1732F
100
AcDbEntity
  8
DIM
 62
     0
370
    -2
100
AcDbLine
 10
331.4592515249408
 20
386.1825642746509
 30
0.0
 11
315.1384266419194
 21
386.1825642746509
 31
0.0
  0
LINE
  5
17334
330
1732F
100
AcDbEntity
  8
DIM
 62
     0
370
    -2
100
AcDbLine
 10
315.1384266419194
 20
454.0429158371508
 30
0.0
 11
315.1384266419194
 21
389.1825642746509
 31
0.0
  0
INSERT
  5
17335
330
1732F
100
AcDbEntity
  8
DIM
 62
     0
370
    -2
100
AcDbBlockReference
  2
_DOT
 10
315.1384266419194
 20
457.0429158371508
 30
0.0
 41
3.0
 42
3.0
 43
3.0
 50
90.0
  0
INSERT
  5
17336
330
1732F
100
AcDbEntity
  8
DIM
 62
     0
370
    -2
100
AcDbBlockReference
  2
_DOT
 10
315.1384266419194
 20
386.1825642746509
 30
0.0
 41
3.0
 42
3.0
 43
3.0
 50
270.0
  0
MTEXT
  5
17337
330
1732F
100
AcDbEntity
  8
DIM
 62
     0
100
AcDbMText
 10
305.1384266419193
 20
421.6127400559008
 30
0.0
 40
8.0
 41
0.0
 46
0.0
 71
     5
 72
     1
  1
\A1;71
  7
ＭＳ ゴシック
 11
0.0
 21
1.0
 31
0.0
 73
     1
 44
1.0
  0
POINT
  5
17338
330
1732F
100
AcDbEntity
  8
Defpoints
 62
     0
100
AcDbPoint
 10
346.4182475173941
 20
457.0429158371508
 30
0.0
  0
POINT
  5
17339
330
1732F
100
AcDbEntity
  8
Defpoints
 62
     0
100
AcDbPoint
 10
341.4592515249408
 20
386.1825642746509
 30
0.0
  0
POINT
  5
1733A
330
1732F
100
AcDbEntity
  8
Defpoints
 62
     0
100
AcDbPoint
 10
315.1384266419194
 20
386.1825642746509
 30
0.0
  0
ENDBLK
  5
17331
330
1732F
100
AcDbEntity
  8
0
100
AcDbBlockEnd
  0
BLOCK
  5
173A7
330
173A6
100
AcDbEntity
  8
0
100
AcDbBlockBegin
  2
*D4
 70
     1
 10
0.0
 20
0.0
 30
0.0
  3
*D4
  1

  0
LINE
  5
173A8
330
173A6
100
AcDbEntity
  8
DIM
 62
     0
370
    -2
100
AcDbLine
 10
1.0
 20
135.0035410091185
 30
0.0
 11
1.0
 21
195.1497860279634
 31
0.0
  0
LINE
  5
173A9
330
173A6
100
AcDbEntity
  8
DIM
 62
     0
370
    -2
100
AcDbLine
 10
115.1779939209722
 20
135.0035410091185
 30
0.0
 11
115.1779939209722
 21
195.1497860279634
 31
0.0
  0
LINE
  5
173AA
330
173A6
100
AcDbEntity
  8
DIM
 62
     0
370
    -2
100
AcDbLine
 10
4.0
 20
195.1497860279634
 30
0.0
 11
112.1779939209723
 21
195.1497860279634
 31
0.0
  0
INSERT
  5
173AB
330
173A6
100
AcDbEntity
  8
DIM
 62
     0
370
    -2
100
AcDbBlockReference
  2
_DOT
 10
1.0
 20
195.1497860279634
 30
0.0
 41
3.0
 42
3.0
 43
3.0
 50
180.0
  0
INSERT
  5
173AC
330
173A6
100
AcDbEntity
  8
DIM
 62
     0
370
    -2
100
AcDbBlockReference
  2
_DOT
 10
115.1779939209722
 20
195.1497860279634
 30
0.0
 41
3.0
 42
3.0
 43
3.0
  0
MTEXT
  5
173AD
330
173A6
100
AcDbEntity
  8
DIM
 62
     0
100
AcDbMText
 10
58.08899696048616
 20
205.1497860279634
 30
0.0
 40
8.0
 41
0.0
 46
0.0
 71
     5
 72
     1
  1
\A1;114
  7
ＭＳ ゴシック
 73
     1
 44
1.0
  0
POINT
  5
173AE
330
173A6
100
AcDbEntity
  8
Defpoints
 62
     0
100
AcDbPoint
 10
1.0
 20
125.0035410091185
 30
0.0
  0
POINT
  5
173AF
330
173A6
100
AcDbEntity
  8
Defpoints
 62
     0
100
AcDbPoint
 10
115.1779939209722
 20
125.0035410091185
 30
0.0
  0
POINT
  5
173B0
330
173A6
100
AcDbEntity
  8
Defpoints
 62
     0
100
AcDbPoint
 10
115.1779939209722
 20
195.1497860279634
 30
0.0
  0
ENDBLK
  5
173B1
330
173A6
100
AcDbEntity
  8
0
100
AcDbBlockEnd
  0
BLOCK
  5
173B6
330
173B5
100
AcDbEntity
  8
0
100
AcDbBlockBegin
  2
*D5
 70
     1
 10
0.0
 20
0.0
 30
0.0
  3
*D5
  1

  0
LINE
  5
173B7
330
173B5
100
AcDbEntity
  8
DIM
 62
     0
370
    -2
100
AcDbLine
 10
20.20208557550177
 20
115.0035410091185
 30
0.0
 11
20.20208557550177
 21
38.30487537993926
 31
0.0
  0
LINE
  5
173B8
330
173B5
100
AcDbEntity
  8
DIM
 62
     0
370
    -2
100
AcDbLine
 10
95.97590834547053
 20
115.0035410091185
 30
0.0
 11
95.97590834547053
 21
38.30487537993926
 31
0.0
  0
LINE
  5
173B9
330
173B5
100
AcDbEntity
  8
DIM
 62
     0
370
    -2
100
AcDbLine
 10
23.20208557550177
 20
38.30487537993926
 30
0.0
 11
92.97590834547056
 21
38.30487537993926
 31
0.0
  0
INSERT
  5
173BA
330
173B5
100
AcDbEntity
  8
DIM
 62
     0
370
    -2
100
AcDbBlockReference
  2
_DOT
 10
20.20208557550177
 20
38.30487537993926
 30
0.0
 41
3.0
 42
3.0
 43
3.0
 50
180.0
  0
INSERT
  5
173BB
330
173B5
100
AcDbEntity
  8
DIM
 62
     0
370
    -2
100
AcDbBlockReference
  2
_DOT
 10
95.97590834547053
 20
38.30487537993926
 30
0.0
 41
3.0
 42
3.0
 43
3.0
  0
MTEXT
  5
173BC
330
173B5
100
AcDbEntity
  8
DIM
 62
     0
100
AcDbMText
 10
58.08899696048616
 20
48.30487537993926
 30
0.0
 40
8.0
 41
0.0
 46
0.0
 71
     5
 72
     1
  1
\A1;76
  7
ＭＳ ゴシック
 73
     1
 44
1.0
  0
POINT
  5
173BD
330
173B5
100
AcDbEntity
  8
Defpoints
 62
     0
100
AcDbPoint
 10
20.20208557550177
 20
125.0035410091185
 30
0.0
  0
POINT
  5
173BE
330
173B5
100
AcDbEntity
  8
Defpoints
 62
     0
100
AcDbPoint
 10
95.97590834547053
 20
125.0035410091185
 30
0.0
  0
POINT
  5
173BF
330
173B5
100
AcDbEntity
  8
Defpoints
 62
     0
100
AcDbPoint
 10
95.97590834547053
 20
38.30487537993926
 30
0.0
  0
ENDBLK
  5
173C0
330
173B5
100
AcDbEntity
  8
0
100
AcDbBlockEnd
  0
BLOCK
  5
173D3
330
173D2
100
AcDbEntity
  8
0
100
AcDbBlockBegin
  2
*D6
 70
     1
 10
0.0
 20
0.0
 30
0.0
  3
*D6
  1

  0
LINE
  5
173D5
330
173D2
100
AcDbEntity
  8
DIM
 62
     0
370
    -2
100
AcDbLine
 10
228.7947264437692
 20
485.5501747355622
 30
0.0
 11
228.7947264437692
 21
580.7695422638293
 31
0.0
  0
LINE
  5
173D6
330
173D2
100
AcDbEntity
  8
DIM
 62
     0
370
    -2
100
AcDbLine
 10
400.0617173252273
 20
485.5501747355622
 30
0.0
 11
400.0617173252273
 21
580.7695422638293
 31
0.0
  0
LINE
  5
173D7
330
173D2
100
AcDbEntity
  8
DIM
 62
     0
370
    -2
100
AcDbLine
 10
231.7947264437692
 20
580.7695422638293
 30
0.0
 11
397.0617173252273
 21
580.7695422638293
 31
0.0
  0
INSERT
  5
173D8
330
173D2
100
AcDbEntity
  8
DIM
 62
     0
370
    -2
100
AcDbBlockReference
  2
_DOT
 10
228.7947264437692
 20
580.7695422638293
 30
0.0
 41
3.0
 42
3.0
 43
3.0
 50
180.0
  0
INSERT
  5
173D9
330
173D2
100
AcDbEntity
  8
DIM
 62
     0
370
    -2
100
AcDbBlockReference
  2
_DOT
 10
400.0617173252273
 20
580.7695422638293
 30
0.0
 41
3.0
 42
3.0
 43
3.0
  0
MTEXT
  5
173DA
330
173D2
100
AcDbEntity
  8
DIM
 62
     0
100
AcDbMText
 10
314.4282218844983
 20
590.7695422638292
 30
0.0
 40
8.0
 41
0.0
 46
0.0
 71
     5
 72
     1
  1
\A1;171
  7
ＭＳ ゴシック
 73
     1
 44
1.0
  0
POINT
  5
173DB
330
173D2
100
AcDbEntity
  8
Defpoints
 62
     0
100
AcDbPoint
 10
228.7947264437692
 20
475.5501747355622
 30
0.0
  0
POINT
  5
173DC
330
173D2
100
AcDbEntity
  8
Defpoints
 62
     0
100
AcDbPoint
 10
400.0617173252273
 20
475.5501747355622
 30
0.0
  0
POINT
  5
173DD
330
173D2
100
AcDbEntity
  8
Defpoints
 62
     0
100
AcDbPoint
 10
400.0617173252273
 20
580.7695422638293
 30
0.0
  0
ENDBLK
  5
173D4
330
173D2
100
AcDbEntity
  8
0
100
AcDbBlockEnd
  0
BLOCK
  5
173DF
330
173DE
100
AcDbEntity
  8
0
100
AcDbBlockBegin
  2
*D7
 70
     1
 10
0.0
 20
0.0
 30
0.0
  3
*D7
  1

  0
LINE
  5
173E1
330
173DE
100
AcDbEntity
  8
DIM
 62
     0
370
    -2
100
AcDbLine
 10
257.5978548070218
 20
465.5501747355621
 30
0.0
 11
257.5978548070218
 21
345.5021762917933
 31
0.0
  0
LINE
  5
173E2
330
173DE
100
AcDbEntity
  8
DIM
 62
     0
370
    -2
100
AcDbLine
 10
371.2585889619747
 20
465.5501747355621
 30
0.0
 11
371.2585889619747
 21
345.5021762917933
 31
0.0
  0
LINE
  5
173E3
330
173DE
100
AcDbEntity
  8
DIM
 62
     0
370
    -2
100
AcDbLine
 10
260.5978548070218
 20
345.5021762917933
 30
0.0
 11
368.2585889619748
 21
345.5021762917933
 31
0.0
  0
INSERT
  5
173E4
330
173DE
100
AcDbEntity
  8
DIM
 62
     0
370
    -2
100
AcDbBlockReference
  2
_DOT
 10
257.5978548070218
 20
345.5021762917933
 30
0.0
 41
3.0
 42
3.0
 43
3.0
 50
180.0
  0
INSERT
  5
173E5
330
173DE
100
AcDbEntity
  8
DIM
 62
     0
370
    -2
100
AcDbBlockReference
  2
_DOT
 10
371.2585889619747
 20
345.5021762917933
 30
0.0
 41
3.0
 42
3.0
 43
3.0
  0
MTEXT
  5
173E6
330
173DE
100
AcDbEntity
  8
DIM
 62
     0
100
AcDbMText
 10
314.4282218844983
 20
355.5021762917933
 30
0.0
 40
8.0
 41
0.0
 46
0.0
 71
     5
 72
     1
  1
\A1;114
  7
ＭＳ ゴシック
 73
     1
 44
1.0
  0
POINT
  5
173E7
330
173DE
100
AcDbEntity
  8
Defpoints
 62
     0
100
AcDbPoint
 10
257.5978548070218
 20
475.5501747355622
 30
0.0
  0
POINT
  5
173E8
330
173DE
100
AcDbEntity
  8
Defpoints
 62
     0
100
AcDbPoint
 10
371.2585889619747
 20
475.5501747355622
 30
0.0
  0
POINT
  5
173E9
330
173DE
100
AcDbEntity
  8
Defpoints
 62
     0
100
AcDbPoint
 10
371.2585889619747
 20
345.5021762917933
 30
0.0
  0
ENDBLK
  5
173E0
330
173DE
100
AcDbEntity
  8
0
100
AcDbBlockEnd
  0
BLOCK
  5
1754A
330
17549
100
AcDbEntity
  8
0
100
AcDbBlockBegin
  2
*D8
 70
     1
 10
0.0
 20
0.0
 30
0.0
  3
*D8
  1

  0
LINE
  5
1754C
330
17549
100
AcDbEntity
  8
DIM
 62
     0
370
    -2
100
AcDbLine
 10
341.6454557578078
 20
622.1225633307629
 30
0.0
 11
404.5596742679405
 21
671.4274364809718
 31
0.0
  0
MTEXT
  5
1754D
330
17549
100
AcDbEntity
  8
DIM
 62
     0
100
AcDbMText
 10
390.198715287876
 20
672.8798503558532
 30
0.0
 40
8.0
 41
0.0
 46
0.0
 71
     5
 72
     1
  1
\A1;16
  7
ＭＳ ゴシック
 11
0.7870940051534154
 21
0.6168330625473601
 31
0.0
 73
     1
 44
1.0
  0
INSERT
  5
1754E
330
17549
100
AcDbEntity
  8
DIM
 62
     0
370
    -2
100
AcDbBlockReference
  2
_DOT
 10
339.2841737423475
 20
620.2720641431207
 30
0.0
 41
3.0
 42
3.0
 43
3.0
 50
218.0852349539064
  0
POINT
  5
1754F
330
17549
100
AcDbEntity
  8
Defpoints
 62
     0
100
AcDbPoint
 10
339.2841737423475
 20
620.2720641431207
 30
0.0
  0
POINT
  5
17550
330
17549
100
AcDbEntity
  8
Defpoints
 62
     0
100
AcDbPoint
 10
326.8166047007174
 20
610.5014284323706
 30
0.0
  0
ENDBLK
  5
1754B
330
17549
100
AcDbEntity
  8
0
100
AcDbBlockEnd
  0
BLOCK
  5
17555
330
17554
100
AcDbEntity
  8
0
100
AcDbBlockBegin
  2
*D9
 70
     1
 10
0.0
 20
0.0
 30
0.0
  3
*D9
  1

  0
LINE
  5
17557
330
17554
100
AcDbEntity
  8
DIM
 62
     0
370
    -2
100
AcDbLine
 10
347.5703756368899
 20
615.3668843182141
 30
0.0
 11
441.6537646295605
 21
615.2381871313072
 31
0.0
  0
MTEXT
  5
17558
330
17554
100
AcDbEntity
  8
DIM
 62
     0
100
AcDbMText
 10
431.0177120343959
 20
625.2542461662747
 30
0.0
 40
8.0
 41
0.0
 46
0.0
 71
     5
 72
     1
  1
\A1;23
  7
ＭＳ ゴシック
 11
0.9999990644185604
 21
-0.0013679042376986
 31
0.0
 73
     1
 44
1.0
  0
INSERT
  5
17559
330
17554
100
AcDbEntity
  8
DIM
 62
     0
370
    -2
100
AcDbBlockReference
  2
_DOT
 10
344.5703784436342
 20
615.3709880309272
 30
0.0
 41
3.0
 42
3.0
 43
3.0
 50
179.9216248359597
  0
POINT
  5
1755A
330
17554
100
AcDbEntity
  8
Defpoints
 62
     0
100
AcDbPoint
 10
344.5703784436342
 20
615.3709880309272
 30
0.0
  0
POINT
  5
1755B
330
17554
100
AcDbEntity
  8
Defpoints
 62
     0
100
AcDbPoint
 10
321.5303999994306
 20
615.4025045445637
 30
0.0
  0
ENDBLK
  5
17556
330
17554
100
AcDbEntity
  8
0
100
AcDbBlockEnd
  0
BLOCK
  5
17589
330
17588
100
AcDbEntity
  8
0
100
AcDbBlockBegin
  2
_D
 70
     0
 10
0.0
 20
0.0
 30
0.0
  3
_D
  1

  0
LINE
  5
1758A
330
17588
100
AcDbEntity
  8
注释
 62
     0
370
    -2
100
AcDbLine
 10
44.21303339613382
 20
112.4490468663911
 30
0.0
 11
3.222669174806822
 21
112.4490468663909
 31
0.0
  0
LINE
  5
1758B
330
17588
100
AcDbEntity
  8
注释
 62
     0
370
    -2
100
AcDbLine
 10
44.29636672946717
 20
50.449046866391
 30
0.0
 11
3.222669174807008
 21
50.44904686639085
 31
0.0
  0
LINE
  5
1758C
330
17588
100
AcDbEntity
  8
注释
 62
     0
370
    -2
100
AcDbLine
 10
3.222669174806827
 20
109.9490468663909
 30
0.0
 11
3.222669174807003
 21
52.94904686639085
 31
0.0
  0
SOLID
  5
1758D
330
17588
100
AcDbEntity
  8
注释
 62
     0
100
AcDbTrace
 10
3.639335841473495
 20
109.9490468663909
 30
0.0
 11
2.806002508140162
 21
109.9490468663909
 31
0.0
 12
3.222669174806822
 22
112.4490468663909
 32
0.0
 13
3.222669174806822
 23
112.4490468663909
 33
0.0
  0
SOLID
  5
1758E
330
17588
100
AcDbEntity
  8
注释
 62
     0
100
AcDbTrace
 10
2.806002508140334
 20
52.94904686639085
 30
0.0
 11
3.639335841473668
 21
52.94904686639085
 31
0.0
 12
3.222669174807008
 22
50.44904686639085
 32
0.0
 13
3.222669174807008
 23
50.44904686639085
 33
0.0
  0
MTEXT
  5
1758F
330
17588
100
AcDbEntity
  8
注释
 62
     0
100
AcDbMText
 10
0.0976691748069101
 20
83.44618395830309
 30
0.0
 40
2.5
 41
0.0
 46
0.0
 71
     2
 72
     1
  1
\A1;186
  7
SLDTEXTSTYLE0
 11
-0.000000000000003
 21
1.0
 31
0.0
 73
     1
 44
1.0
  0
POINT
  5
175F2
330
17588
100
AcDbEntity
  8
Defpoints
 62
     0
100
AcDbPoint
 10
44.27553339613382
 20
112.4490468663911
 30
0.0
  0
POINT
  5
175F3
330
17588
100
AcDbEntity
  8
Defpoints
 62
     0
100
AcDbPoint
 10
44.35886672946717
 20
50.449046866391
 30
0.0
  0
POINT
  5
175F4
330
17588
100
AcDbEntity
  8
Defpoints
 62
     0
100
AcDbPoint
 10
3.22266917480691
 20
50.44904686639085
 30
0.0
  0
ENDBLK
  5
17590
330
17588
100
AcDbEntity
  8
0
100
AcDbBlockEnd
  0
BLOCK
  5
17593
330
17592
100
AcDbEntity
  8
0
100
AcDbBlockBegin
  2
_D_1
 70
     0
 10
0.0
 20
0.0
 30
0.0
  3
_D_1
  1

  0
LINE
  5
17594
330
17592
100
AcDbEntity
  8
注释
 62
     0
370
    -2
100
AcDbLine
 10
16.35886672946714
 20
78.3865468663911
 30
0.0
 11
16.35886672946714
 21
40.449046866391
 31
0.0
  0
LINE
  5
17595
330
17592
100
AcDbEntity
  8
注释
 62
     0
370
    -2
100
AcDbLine
 10
72.35886672946719
 20
78.386546866391
 30
0.0
 11
72.35886672946719
 21
40.449046866391
 31
0.0
  0
LINE
  5
17596
330
17592
100
AcDbEntity
  8
注释
 62
     0
370
    -2
100
AcDbLine
 10
18.85886672946714
 20
40.449046866391
 30
0.0
 11
69.85886672946718
 21
40.449046866391
 31
0.0
  0
SOLID
  5
17597
330
17592
100
AcDbEntity
  8
注释
 62
     0
100
AcDbTrace
 10
18.85886672946714
 20
40.86571353305767
 30
0.0
 11
18.85886672946714
 21
40.03238019972434
 31
0.0
 12
16.35886672946714
 22
40.449046866391
 32
0.0
 13
16.35886672946714
 23
40.449046866391
 33
0.0
  0
SOLID
  5
17598
330
17592
100
AcDbEntity
  8
注释
 62
     0
100
AcDbTrace
 10
69.85886672946718
 20
40.03238019972434
 30
0.0
 11
69.85886672946718
 21
40.86571353305767
 31
0.0
 12
72.35886672946719
 22
40.449046866391
 32
0.0
 13
72.35886672946719
 23
40.449046866391
 33
0.0
  0
MTEXT
  5
17599
330
17592
100
AcDbEntity
  8
注释
 62
     0
100
AcDbMText
 10
44.22610543605224
 20
43.574046866391
 30
0.0
 40
2.5
 41
0.0
 46
0.0
 71
     2
 72
     1
  1
\A1;%%c168
  7
SLDTEXTSTYLE0
 73
     1
 44
1.0
  0
POINT
  5
1759A
330
17592
100
AcDbEntity
  8
Defpoints
 62
     0
100
AcDbPoint
 10
16.35886672946714
 20
78.4490468663911
 30
0.0
  0
POINT
  5
175F5
330
17592
100
AcDbEntity
  8
Defpoints
 62
     0
100
AcDbPoint
 10
72.35886672946719
 20
78.449046866391
 30
0.0
  0
POINT
  5
175F6
330
17592
100
AcDbEntity
  8
Defpoints
 62
     0
100
AcDbPoint
 10
72.35886672946719
 20
40.449046866391
 30
0.0
  0
ENDBLK
  5
1759B
330
17592
100
AcDbEntity
  8
0
100
AcDbBlockEnd
  0
BLOCK
  5
175B3
330
175B2
100
AcDbEntity
  8
0
100
AcDbBlockBegin
  2
_D_2
 70
     0
 10
0.0
 20
0.0
 30
0.0
  3
_D_2
  1

  0
LINE
  5
175B4
330
175B2
100
AcDbEntity
  8
注释
 62
     0
370
    -2
100
AcDbLine
 10
51.60886672946714
 20
11.72916666666666
 30
0.0
 11
51.60886672946714
 21
16.08263247388291
 31
0.0
  0
LINE
  5
175B5
330
175B2
100
AcDbEntity
  8
注释
 62
     0
370
    -2
100
AcDbLine
 10
36.9422000628005
 20
11.72916666666666
 30
0.0
 11
36.9422000628005
 21
16.08263247388291
 31
0.0
  0
LINE
  5
175B6
330
175B2
100
AcDbEntity
  8
注释
 62
     0
370
    -2
100
AcDbLine
 10
49.10886672946714
 20
16.08263247388291
 30
0.0
 11
39.4422000628005
 21
16.08263247388291
 31
0.0
  0
SOLID
  5
175B7
330
175B2
100
AcDbEntity
  8
注释
 62
     0
100
AcDbTrace
 10
49.10886672946714
 20
15.66596580721624
 30
0.0
 11
49.10886672946714
 21
16.49929914054958
 31
0.0
 12
51.60886672946714
 22
16.08263247388291
 32
0.0
 13
51.60886672946714
 23
16.08263247388291
 33
0.0
  0
SOLID
  5
175B8
330
175B2
100
AcDbEntity
  8
注释
 62
     0
100
AcDbTrace
 10
39.4422000628005
 20
16.49929914054958
 30
0.0
 11
39.4422000628005
 21
15.66596580721624
 31
0.0
 12
36.9422000628005
 22
16.08263247388291
 32
0.0
 13
36.9422000628005
 23
16.08263247388291
 33
0.0
  0
MTEXT
  5
175B9
330
175B2
100
AcDbEntity
  8
注释
 62
     0
100
AcDbMText
 10
43.29407778180583
 20
19.20763247388291
 30
0.0
 40
2.5
 41
0.0
 46
0.0
 71
     2
 72
     1
  1
\A1;%%c44
  7
SLDTEXTSTYLE0
 73
     1
 44
1.0
  0
POINT
  5
175BA
330
175B2
100
AcDbEntity
  8
Defpoints
 62
     0
100
AcDbPoint
 10
51.60886672946714
 20
11.66666666666666
 30
0.0
  0
POINT
  5
175F7
330
175B2
100
AcDbEntity
  8
Defpoints
 62
     0
100
AcDbPoint
 10
36.9422000628005
 20
11.66666666666666
 30
0.0
  0
POINT
  5
175F8
330
175B2
100
AcDbEntity
  8
Defpoints
 62
     0
100
AcDbPoint
 10
36.9422000628005
 20
16.08263247388291
 30
0.0
  0
ENDBLK
  5
175BB
330
175B2
100
AcDbEntity
  8
0
100
AcDbBlockEnd
  0
BLOCK
  5
175DD
330
175DC
100
AcDbEntity
  8
0
100
AcDbBlockBegin
  2
_D_3
 70
     0
 10
0.0
 20
0.0
 30
0.0
  3
_D_3
  1

  0
LINE
  5
175DE
330
175DC
100
AcDbEntity
  8
注释
 62
     0
370
    -2
100
AcDbLine
 10
111.8144252154851
 20
112.5115468663911
 30
0.0
 11
111.8144252154851
 21
118.7042583458507
 31
0.0
  0
LINE
  5
175DF
330
175DC
100
AcDbEntity
  8
注释
 62
     0
370
    -2
100
AcDbLine
 10
123.4810918821517
 20
108.1782135330578
 30
0.0
 11
123.4810918821517
 21
118.7042583458507
 31
0.0
  0
LINE
  5
175E0
330
175DC
100
AcDbEntity
  8
注释
 62
     0
370
    -2
100
AcDbLine
 10
114.3144252154851
 20
118.7042583458507
 30
0.0
 11
120.9810918821517
 21
118.7042583458507
 31
0.0
  0
SOLID
  5
175E1
330
175DC
100
AcDbEntity
  8
注释
 62
     0
100
AcDbTrace
 10
114.3144252154851
 20
119.1209250125174
 30
0.0
 11
114.3144252154851
 21
118.287591679184
 31
0.0
 12
111.8144252154851
 22
118.7042583458507
 32
0.0
 13
111.8144252154851
 23
118.7042583458507
 33
0.0
  0
SOLID
  5
175E2
330
175DC
100
AcDbEntity
  8
注释
 62
     0
100
AcDbTrace
 10
120.9810918821517
 20
118.287591679184
 30
0.0
 11
120.9810918821517
 21
119.1209250125174
 31
0.0
 12
123.4810918821517
 22
118.7042583458507
 32
0.0
 13
123.4810918821517
 23
118.7042583458507
 33
0.0
  0
MTEXT
  5
175E3
330
175DC
100
AcDbEntity
  8
注释
 62
     0
100
AcDbMText
 10
117.1769933955
 20
121.8292583458507
 30
0.0
 40
2.5
 41
0.0
 46
0.0
 71
     2
 72
     1
  1
\A1;35
  7
SLDTEXTSTYLE0
 73
     1
 44
1.0
  0
POINT
  5
175F9
330
175DC
100
AcDbEntity
  8
Defpoints
 62
     0
100
AcDbPoint
 10
111.8144252154851
 20
112.4490468663911
 30
0.0
  0
POINT
  5
175FA
330
175DC
100
AcDbEntity
  8
Defpoints
 62
     0
100
AcDbPoint
 10
123.4810918821517
 20
108.1157135330578
 30
0.0
  0
POINT
  5
175FB
330
175DC
100
AcDbEntity
  8
Defpoints
 62
     0
100
AcDbPoint
 10
123.4810918821517
 20
118.7042583458507
 30
0.0
  0
ENDBLK
  5
175E4
330
175DC
100
AcDbEntity
  8
0
100
AcDbBlockEnd
  0
BLOCK
  5
175E7
330
175E6
100
AcDbEntity
  8
0
100
AcDbBlockBegin
  2
_D_4
 70
     0
 10
0.0
 20
0.0
 30
0.0
  3
_D_4
  1

  0
LINE
  5
175E8
330
175E6
100
AcDbEntity
  8
注释
 62
     0
370
    -2
100
AcDbLine
 10
119.8144252154851
 20
51.8448801997244
 30
0.0
 11
119.8144252154851
 21
59.76658369274139
 31
0.0
  0
LINE
  5
175E9
330
175E6
100
AcDbEntity
  8
注释
 62
     0
370
    -2
100
AcDbLine
 10
122.4810918821517
 20
51.8448801997244
 30
0.0
 11
122.4810918821517
 21
59.76658369274139
 31
0.0
  0
LINE
  5
175EA
330
175E6
100
AcDbEntity
  8
注释
 62
     0
370
    -2
100
AcDbLine
 10
119.8144252154851
 20
59.76658369274139
 30
0.0
 11
110.4394252154851
 21
59.76658369274139
 31
0.0
  0
LINE
  5
175EB
330
175E6
100
AcDbEntity
  8
注释
 62
     0
370
    -2
100
AcDbLine
 10
119.8144252154851
 20
59.76658369274139
 30
0.0
 11
122.4810918821517
 21
59.76658369274139
 31
0.0
  0
LINE
  5
175EC
330
175E6
100
AcDbEntity
  8
注释
 62
     0
370
    -2
100
AcDbLine
 10
117.3144252154851
 20
59.76658369274139
 30
0.0
 11
114.8144252154851
 21
59.76658369274139
 31
0.0
  0
LINE
  5
175ED
330
175E6
100
AcDbEntity
  8
注释
 62
     0
370
    -2
100
AcDbLine
 10
124.9810918821517
 20
59.76658369274139
 30
0.0
 11
127.4810918821517
 21
59.76658369274139
 31
0.0
  0
SOLID
  5
175EE
330
175E6
100
AcDbEntity
  8
注释
 62
     0
100
AcDbTrace
 10
117.3144252154851
 20
59.34991702607471
 30
0.0
 11
117.3144252154851
 21
60.18325035940806
 31
0.0
 12
119.8144252154851
 22
59.76658369274139
 32
0.0
 13
119.8144252154851
 23
59.76658369274139
 33
0.0
  0
SOLID
  5
175FC
330
175E6
100
AcDbEntity
  8
注释
 62
     0
100
AcDbTrace
 10
124.9810918821517
 20
60.18325035940806
 30
0.0
 11
124.9810918821517
 21
59.34991702607471
 31
0.0
 12
122.4810918821517
 22
59.76658369274139
 32
0.0
 13
122.4810918821517
 23
59.76658369274139
 33
0.0
  0
MTEXT
  5
175FD
330
175E6
100
AcDbEntity
  8
注释
 62
     0
100
AcDbMText
 10
112.6269252154851
 20
62.89158369274139
 30
0.0
 40
2.5
 41
0.0
 46
0.0
 71
     2
 72
     1
  1
\A1;%%c8
  7
SLDTEXTSTYLE0
 73
     1
 44
1.0
  0
POINT
  5
175FE
330
175E6
100
AcDbEntity
  8
Defpoints
 62
     0
100
AcDbPoint
 10
119.8144252154851
 20
51.7823801997244
 30
0.0
  0
POINT
  5
175FF
330
175E6
100
AcDbEntity
  8
Defpoints
 62
     0
100
AcDbPoint
 10
122.4810918821517
 20
51.7823801997244
 30
0.0
  0
POINT
  5
17600
330
175E6
100
AcDbEntity
  8
Defpoints
 62
     0
100
AcDbPoint
 10
122.4810918821517
 20
59.76658369274139
 30
0.0
  0
ENDBLK
  5
175EF
330
175E6
100
AcDbEntity
  8
0
100
AcDbBlockEnd
  0
BLOCK
  5
17650
330
1764F
100
AcDbEntity
  8
0
100
AcDbBlockBegin
  2
*D15
 70
     1
 10
0.0
 20
0.0
 30
0.0
  3
*D15
  1

  0
LINE
  5
17652
330
1764F
100
AcDbEntity
  8
注释
 62
     0
370
    -2
100
AcDbLine
 10
262.9639148242098
 20
637.0043025621145
 30
0.0
 11
139.8678221602289
 21
637.0043025621143
 31
0.0
  0
LINE
  5
17653
330
1764F
100
AcDbEntity
  8
注释
 62
     0
370
    -2
100
AcDbLine
 10
263.2139148242099
 20
451.0043025621143
 30
0.0
 11
139.8678221602295
 21
451.0043025621138
 31
0.0
  0
LINE
  5
17654
330
1764F
100
AcDbEntity
  8
注释
 62
     0
370
    -2
100
AcDbLine
 10
139.8678221602289
 20
634.5043025621142
 30
0.0
 11
139.8678221602295
 21
453.5043025621138
 31
0.0
  0
SOLID
  5
17655
330
1764F
100
AcDbEntity
  8
注释
 62
     0
100
AcDbTrace
 10
140.2844888268955
 20
634.5043025621142
 30
0.0
 11
139.4511554935622
 21
634.5043025621142
 31
0.0
 12
139.8678221602289
 22
637.0043025621143
 32
0.0
 13
139.8678221602289
 23
637.0043025621143
 33
0.0
  0
SOLID
  5
17656
330
1764F
100
AcDbEntity
  8
注释
 62
     0
100
AcDbTrace
 10
139.4511554935628
 20
453.5043025621138
 30
0.0
 11
140.2844888268961
 21
453.5043025621138
 31
0.0
 12
139.8678221602295
 22
451.0043025621138
 32
0.0
 13
139.8678221602295
 23
451.0043025621138
 33
0.0
  0
MTEXT
  5
17657
330
1764F
100
AcDbEntity
  8
注释
 62
     0
100
AcDbMText
 10
136.7428221602291
 20
549.9957138378506
 30
0.0
 40
2.5
 41
0.0
 46
0.0
 71
     2
 72
     1
  1
\A1;558
  7
SLDTEXTSTYLE0
 11
-0.0000000000000031
 21
1.0
 31
0.0
 73
     1
 44
1.0
  0
POINT
  5
17658
330
1764F
100
AcDbEntity
  8
Defpoints
 62
     0
100
AcDbPoint
 10
263.0264148242098
 20
637.0043025621145
 30
0.0
  0
POINT
  5
17659
330
1764F
100
AcDbEntity
  8
Defpoints
 62
     0
100
AcDbPoint
 10
263.2764148242098
 20
451.0043025621143
 30
0.0
  0
POINT
  5
1765A
330
1764F
100
AcDbEntity
  8
Defpoints
 62
     0
100
AcDbPoint
 10
139.8678221602294
 20
451.0043025621138
 30
0.0
  0
ENDBLK
  5
17651
330
1764F
100
AcDbEntity
  8
0
100
AcDbBlockEnd
  0
BLOCK
  5
1765C
330
1765B
100
AcDbEntity
  8
0
100
AcDbBlockBegin
  2
*D16
 70
     1
 10
0.0
 20
0.0
 30
0.0
  3
*D16
  1

  0
LINE
  5
1765E
330
1765B
100
AcDbEntity
  8
注释
 62
     0
370
    -2
100
AcDbLine
 10
179.2764148242098
 20
534.9418025621146
 30
0.0
 11
179.2764148242098
 21
421.0043025621144
 31
0.0
  0
LINE
  5
1765F
330
1765B
100
AcDbEntity
  8
注释
 62
     0
370
    -2
100
AcDbLine
 10
347.27641482421
 20
534.9418025621144
 30
0.0
 11
347.27641482421
 21
421.0043025621144
 31
0.0
  0
LINE
  5
17660
330
1765B
100
AcDbEntity
  8
注释
 62
     0
370
    -2
100
AcDbLine
 10
181.7764148242098
 20
421.0043025621144
 30
0.0
 11
344.77641482421
 21
421.0043025621144
 31
0.0
  0
SOLID
  5
17661
330
1765B
100
AcDbEntity
  8
注释
 62
     0
100
AcDbTrace
 10
181.7764148242098
 20
421.4209692287811
 30
0.0
 11
181.7764148242098
 21
420.5876358954475
 31
0.0
 12
179.2764148242098
 22
421.0043025621144
 32
0.0
 13
179.2764148242098
 23
421.0043025621144
 33
0.0
  0
SOLID
  5
17662
330
1765B
100
AcDbEntity
  8
注释
 62
     0
100
AcDbTrace
 10
344.77641482421
 20
420.5876358954475
 30
0.0
 11
344.77641482421
 21
421.4209692287811
 31
0.0
 12
347.27641482421
 22
421.0043025621144
 32
0.0
 13
347.27641482421
 23
421.0043025621144
 33
0.0
  0
MTEXT
  5
17663
330
1765B
100
AcDbEntity
  8
注释
 62
     0
100
AcDbMText
 10
262.8781309439652
 20
424.1293025621144
 30
0.0
 40
2.5
 41
0.0
 46
0.0
 71
     2
 72
     1
  1
\A1;%%c504
  7
SLDTEXTSTYLE0
 73
     1
 44
1.0
  0
POINT
  5
17664
330
1765B
100
AcDbEntity
  8
Defpoints
 62
     0
100
AcDbPoint
 10
179.2764148242098
 20
535.0043025621146
 30
0.0
  0
POINT
  5
17665
330
1765B
100
AcDbEntity
  8
Defpoints
 62
     0
100
AcDbPoint
 10
347.27641482421
 20
535.0043025621143
 30
0.0
  0
POINT
  5
17666
330
1765B
100
AcDbEntity
  8
Defpoints
 62
     0
100
AcDbPoint
 10
347.27641482421
 20
421.0043025621144
 30
0.0
  0
ENDBLK
  5
1765D
330
1765B
100
AcDbEntity
  8
0
100
AcDbBlockEnd
  0
BLOCK
  5
17668
330
17667
100
AcDbEntity
  8
0
100
AcDbBlockBegin
  2
*D17
 70
     1
 10
0.0
 20
0.0
 30
0.0
  3
*D17
  1

  0
LINE
  5
1766A
330
17667
100
AcDbEntity
  8
注释
 62
     0
370
    -2
100
AcDbLine
 10
285.0264148242098
 20
334.7196619629415
 30
0.0
 11
285.0264148242098
 21
347.9050593845902
 31
0.0
  0
LINE
  5
1766B
330
17667
100
AcDbEntity
  8
注释
 62
     0
370
    -2
100
AcDbLine
 10
241.0264148242098
 20
334.7196619629415
 30
0.0
 11
241.0264148242098
 21
347.9050593845902
 31
0.0
  0
LINE
  5
1766C
330
17667
100
AcDbEntity
  8
注释
 62
     0
370
    -2
100
AcDbLine
 10
282.5264148242098
 20
347.9050593845902
 30
0.0
 11
243.5264148242098
 21
347.9050593845902
 31
0.0
  0
SOLID
  5
1766D
330
17667
100
AcDbEntity
  8
注释
 62
     0
100
AcDbTrace
 10
282.5264148242098
 20
347.4883927179235
 30
0.0
 11
282.5264148242098
 21
348.3217260512569
 31
0.0
 12
285.0264148242098
 22
347.9050593845902
 32
0.0
 13
285.0264148242098
 23
347.9050593845902
 33
0.0
  0
SOLID
  5
1766E
330
17667
100
AcDbEntity
  8
注释
 62
     0
100
AcDbTrace
 10
243.5264148242098
 20
348.3217260512569
 30
0.0
 11
243.5264148242098
 21
347.4883927179235
 31
0.0
 12
241.0264148242098
 22
347.9050593845902
 32
0.0
 13
241.0264148242098
 23
347.9050593845902
 33
0.0
  0
MTEXT
  5
1766F
330
17667
100
AcDbEntity
  8
注释
 62
     0
100
AcDbMText
 10
260.082047981226
 20
351.0300593845902
 30
0.0
 40
2.5
 41
0.0
 46
0.0
 71
     2
 72
     1
  1
\A1;%%c132
  7
SLDTEXTSTYLE0
 73
     1
 44
1.0
  0
POINT
  5
17670
330
17667
100
AcDbEntity
  8
Defpoints
 62
     0
100
AcDbPoint
 10
285.0264148242098
 20
334.6571619629415
 30
0.0
  0
POINT
  5
17671
330
17667
100
AcDbEntity
  8
Defpoints
 62
     0
100
AcDbPoint
 10
241.0264148242098
 20
334.6571619629415
 30
0.0
  0
POINT
  5
17672
330
17667
100
AcDbEntity
  8
Defpoints
 62
     0
100
AcDbPoint
 10
241.0264148242098
 20
347.9050593845902
 30
0.0
  0
ENDBLK
  5
17669
330
17667
100
AcDbEntity
  8
0
100
AcDbBlockEnd
  0
BLOCK
  5
17674
330
17673
100
AcDbEntity
  8
0
100
AcDbBlockBegin
  2
*D18
 70
     1
 10
0.0
 20
0.0
 30
0.0
  3
*D18
  1

  0
LINE
  5
17676
330
17673
100
AcDbEntity
  8
注释
 62
     0
370
    -2
100
AcDbLine
 10
465.6430902822636
 20
637.0668025621146
 30
0.0
 11
465.6430902822636
 21
655.7699370004938
 31
0.0
  0
LINE
  5
17677
330
17673
100
AcDbEntity
  8
注释
 62
     0
370
    -2
100
AcDbLine
 10
500.6430902822633
 20
624.066802562115
 30
0.0
 11
500.6430902822633
 21
655.7699370004938
 31
0.0
  0
LINE
  5
17678
330
17673
100
AcDbEntity
  8
注释
 62
     0
370
    -2
100
AcDbLine
 10
468.1430902822636
 20
655.7699370004938
 30
0.0
 11
498.1430902822634
 21
655.7699370004938
 31
0.0
  0
SOLID
  5
17679
330
17673
100
AcDbEntity
  8
注释
 62
     0
100
AcDbTrace
 10
468.1430902822636
 20
656.1866036671602
 30
0.0
 11
468.1430902822636
 21
655.3532703338269
 31
0.0
 12
465.6430902822636
 22
655.7699370004938
 32
0.0
 13
465.6430902822636
 23
655.7699370004938
 33
0.0
  0
SOLID
  5
1767A
330
17673
100
AcDbEntity
  8
注释
 62
     0
100
AcDbTrace
 10
498.1430902822634
 20
655.3532703338269
 30
0.0
 11
498.1430902822634
 21
656.1866036671602
 31
0.0
 12
500.6430902822633
 22
655.7699370004938
 32
0.0
 13
500.6430902822633
 23
655.7699370004938
 33
0.0
  0
MTEXT
  5
1767B
330
17673
100
AcDbEntity
  8
注释
 62
     0
100
AcDbMText
 10
481.730794822308
 20
658.8949370004938
 30
0.0
 40
2.5
 41
0.0
 46
0.0
 71
     2
 72
     1
  1
\A1;105
  7
SLDTEXTSTYLE0
 73
     1
 44
1.0
  0
POINT
  5
1767C
330
17673
100
AcDbEntity
  8
Defpoints
 62
     0
100
AcDbPoint
 10
465.6430902822636
 20
637.0043025621145
 30
0.0
  0
POINT
  5
1767D
330
17673
100
AcDbEntity
  8
Defpoints
 62
     0
100
AcDbPoint
 10
500.6430902822633
 20
624.004302562115
 30
0.0
  0
POINT
  5
1767E
330
17673
100
AcDbEntity
  8
Defpoints
 62
     0
100
AcDbPoint
 10
500.6430902822633
 20
655.7699370004938
 30
0.0
  0
ENDBLK
  5
17675
330
17673
100
AcDbEntity
  8
0
100
AcDbBlockEnd
  0
BLOCK
  5
17680
330
1767F
100
AcDbEntity
  8
0
100
AcDbBlockBegin
  2
*D19
 70
     1
 10
0.0
 20
0.0
 30
0.0
  3
*D19
  1

  0
LINE
  5
17682
330
1767F
100
AcDbEntity
  8
注释
 62
     0
370
    -2
100
AcDbLine
 10
489.6430902822636
 20
455.0668025621147
 30
0.0
 11
489.6430902822636
 21
478.9569130411658
 31
0.0
  0
LINE
  5
17683
330
1767F
100
AcDbEntity
  8
注释
 62
     0
370
    -2
100
AcDbLine
 10
497.6430902822634
 20
455.0668025621147
 30
0.0
 11
497.6430902822634
 21
478.9569130411658
 31
0.0
  0
LINE
  5
17684
330
1767F
100
AcDbEntity
  8
注释
 62
     0
370
    -2
100
AcDbLine
 10
489.6430902822636
 20
478.9569130411658
 30
0.0
 11
464.9555902822636
 21
478.9569130411658
 31
0.0
  0
LINE
  5
17685
330
1767F
100
AcDbEntity
  8
注释
 62
     0
370
    -2
100
AcDbLine
 10
489.6430902822636
 20
478.9569130411658
 30
0.0
 11
497.6430902822634
 21
478.9569130411658
 31
0.0
  0
LINE
  5
17686
330
1767F
100
AcDbEntity
  8
注释
 62
     0
370
    -2
100
AcDbLine
 10
487.1430902822636
 20
478.9569130411658
 30
0.0
 11
484.6430902822636
 21
478.9569130411658
 31
0.0
  0
LINE
  5
17687
330
1767F
100
AcDbEntity
  8
注释
 62
     0
370
    -2
100
AcDbLine
 10
500.1430902822633
 20
478.9569130411658
 30
0.0
 11
502.6430902822633
 21
478.9569130411658
 31
0.0
  0
SOLID
  5
17688
330
1767F
100
AcDbEntity
  8
注释
 62
     0
100
AcDbTrace
 10
487.1430902822636
 20
478.5402463744991
 30
0.0
 11
487.1430902822636
 21
479.3735797078324
 31
0.0
 12
489.6430902822636
 22
478.9569130411658
 32
0.0
 13
489.6430902822636
 23
478.9569130411658
 33
0.0
  0
SOLID
  5
17689
330
1767F
100
AcDbEntity
  8
注释
 62
     0
100
AcDbTrace
 10
500.1430902822633
 20
479.3735797078324
 30
0.0
 11
500.1430902822633
 21
478.5402463744991
 31
0.0
 12
497.6430902822634
 22
478.9569130411658
 32
0.0
 13
497.6430902822634
 23
478.9569130411658
 33
0.0
  0
MTEXT
  5
1768A
330
1767F
100
AcDbEntity
  8
注释
 62
     0
100
AcDbMText
 10
468.0805902822636
 20
482.0819130411658
 30
0.0
 40
2.5
 41
0.0
 46
0.0
 71
     2
 72
     1
  1
\A1;%%c24
  7
SLDTEXTSTYLE0
 73
     1
 44
1.0
  0
POINT
  5
1768B
330
1767F
100
AcDbEntity
  8
Defpoints
 62
     0
100
AcDbPoint
 10
489.6430902822636
 20
455.0043025621148
 30
0.0
  0
POINT
  5
1768C
330
1767F
100
AcDbEntity
  8
Defpoints
 62
     0
100
AcDbPoint
 10
497.6430902822634
 20
455.0043025621148
 30
0.0
  0
POINT
  5
1768D
330
1767F
100
AcDbEntity
  8
Defpoints
 62
     0
100
AcDbPoint
 10
497.6430902822634
 20
478.9569130411658
 30
0.0
  0
ENDBLK
  5
17681
330
1767F
100
AcDbEntity
  8
0
100
AcDbBlockEnd
  0
BLOCK
  5
1806D
330
1806C
100
AcDbEntity
  8
0
100
AcDbBlockBegin
  2
*D20
 70
     1
 10
0.0
 20
0.0
 30
0.0
  3
*D20
  1

  0
LINE
  5
1806E
330
1806C
100
AcDbEntity
  8
0
 62
     0
370
    -2
100
AcDbLine
 10
544.9328549940547
 20
473.6680369892562
 30
0.0
 11
544.9328549940547
 21
498.8774045504456
 31
0.0
  0
LINE
  5
1806F
330
1806C
100
AcDbEntity
  8
0
 62
     0
370
    -2
100
AcDbLine
 10
299.0654899591752
 20
307.2613211396921
 30
0.0
 11
299.0654899591752
 21
498.8774045504456
 31
0.0
  0
LINE
  5
18070
330
1806C
100
AcDbEntity
  8
0
 62
     0
370
    -2
100
AcDbLine
 10
544.7528549940547
 20
498.6974045504456
 30
0.0
 11
299.2454899591752
 21
498.6974045504456
 31
0.0
  0
LINE
  5
18071
330
1806C
100
AcDbEntity
  8
0
 62
     0
370
    -2
100
AcDbLine
 10
299.2454899591752
 20
498.6974045504456
 30
0.0
 11
544.7528549940547
 21
498.6974045504456
 31
0.0
  0
SOLID
  5
18072
330
1806C
100
AcDbEntity
  8
0
 62
     0
100
AcDbTrace
 10
544.7528549940547
 20
498.6674045504456
 30
0.0
 11
544.7528549940547
 21
498.7274045504456
 31
0.0
 12
544.9328549940547
 22
498.6974045504456
 32
0.0
 13
544.9328549940547
 23
498.6974045504456
 33
0.0
  0
SOLID
  5
18073
330
1806C
100
AcDbEntity
  8
0
 62
     0
100
AcDbTrace
 10
299.2454899591752
 20
498.7274045504456
 30
0.0
 11
299.2454899591752
 21
498.6674045504456
 31
0.0
 12
299.0654899591752
 22
498.6974045504456
 32
0.0
 13
299.0654899591752
 23
498.6974045504456
 33
0.0
  0
MTEXT
  5
18074
330
1806C
100
AcDbEntity
  8
0
 62
     0
100
AcDbMText
 10
421.9991724766148
 20
503.1974045504456
 30
0.0
 40
5.0
 41
0.0
 46
0.0
 71
     5
 72
     1
  1
\A1;245.8674
 73
     1
 44
1.0
  0
POINT
  5
18075
330
1806C
100
AcDbEntity
  8
Defpoints
 62
     0
100
AcDbPoint
 10
544.9328549940547
 20
473.6055369892563
 30
0.0
  0
POINT
  5
18076
330
1806C
100
AcDbEntity
  8
Defpoints
 62
     0
100
AcDbPoint
 10
299.0654899591752
 20
307.1988211396921
 30
0.0
  0
POINT
  5
18077
330
1806C
100
AcDbEntity
  8
Defpoints
 62
     0
100
AcDbPoint
 10
299.0654899591752
 20
498.6974045504456
 30
0.0
  0
ENDBLK
  5
18078
330
1806C
100
AcDbEntity
  8
0
100
AcDbBlockEnd
  0
BLOCK
  5
18A4C
330
18A4B
100
AcDbEntity
  8
0
100
AcDbBlockBegin
  2
*D21
 70
     1
 10
0.0
 20
0.0
 30
0.0
  3
*D21
  1

  0
LINE
  5
18A4E
330
18A4B
100
AcDbEntity
  8
0
 62
     0
370
    -2
100
AcDbLine
 10
1283.054473984931
 20
599.9573478847041
 30
0.0
 11
1283.054473984931
 21
625.1667154458933
 31
0.0
  0
LINE
  5
18A4F
330
18A4B
100
AcDbEntity
  8
0
 62
     0
370
    -2
100
AcDbLine
 10
1037.187108950052
 20
433.5506320351398
 30
0.0
 11
1037.187108950052
 21
625.1667154458933
 31
0.0
  0
LINE
  5
18A50
330
18A4B
100
AcDbEntity
  8
0
 62
     0
370
    -2
100
AcDbLine
 10
1282.874473984931
 20
624.9867154458931
 30
0.0
 11
1037.367108950052
 21
624.9867154458931
 31
0.0
  0
LINE
  5
18A51
330
18A4B
100
AcDbEntity
  8
0
 62
     0
370
    -2
100
AcDbLine
 10
1037.367108950052
 20
624.9867154458931
 30
0.0
 11
1282.874473984931
 21
624.9867154458931
 31
0.0
  0
SOLID
  5
18A52
330
18A4B
100
AcDbEntity
  8
0
 62
     0
100
AcDbTrace
 10
1282.874473984931
 20
624.9567154458932
 30
0.0
 11
1282.874473984931
 21
625.0167154458933
 31
0.0
 12
1283.054473984931
 22
624.9867154458931
 32
0.0
 13
1283.054473984931
 23
624.9867154458931
 33
0.0
  0
SOLID
  5
18A53
330
18A4B
100
AcDbEntity
  8
0
 62
     0
100
AcDbTrace
 10
1037.367108950052
 20
625.0167154458933
 30
0.0
 11
1037.367108950052
 21
624.9567154458932
 31
0.0
 12
1037.187108950052
 22
624.9867154458931
 32
0.0
 13
1037.187108950052
 23
624.9867154458931
 33
0.0
  0
MTEXT
  5
18A54
330
18A4B
100
AcDbEntity
  8
0
 62
     0
100
AcDbMText
 10
1160.120791467491
 20
629.486715445893
 30
0.0
 40
5.0
 41
0.0
 46
0.0
 71
     5
 72
     1
  1
\A1;245.8674
 73
     1
 44
1.0
  0
POINT
  5
18A55
330
18A4B
100
AcDbEntity
  8
Defpoints
 62
     0
100
AcDbPoint
 10
1283.054473984931
 20
599.8948478847041
 30
0.0
  0
POINT
  5
18A56
330
18A4B
100
AcDbEntity
  8
Defpoints
 62
     0
100
AcDbPoint
 10
1037.187108950052
 20
433.4881320351398
 30
0.0
  0
POINT
  5
18A57
330
18A4B
100
AcDbEntity
  8
Defpoints
 62
     0
100
AcDbPoint
 10
1037.187108950052
 20
624.9867154458931
 30
0.0
  0
ENDBLK
  5
18A4D
330
18A4B
100
AcDbEntity
  8
0
100
AcDbBlockEnd
  0
BLOCK
  5
18ABA
330
18AB9
100
AcDbEntity
  8
0
100
AcDbBlockBegin
  2
*D22
 70
     1
 10
0.0
 20
0.0
 30
0.0
  3
*D22
  1

  0
LINE
  5
18ABB
330
18AB9
100
AcDbEntity
  8
DIM
 62
     0
370
    -2
100
AcDbLine
 10
7.200002670288682
 20
108.8132936712834
 30
0.0
 11
7.200002670288682
 21
129.9043090826806
 31
0.0
  0
LINE
  5
18ABC
330
18AB9
100
AcDbEntity
  8
DIM
 62
     0
370
    -2
100
AcDbLine
 10
227.3436427915616
 20
108.8132936712835
 30
0.0
 11
227.3436427915616
 21
129.9043090826806
 31
0.0
  0
LINE
  5
18ABD
330
18AB9
100
AcDbEntity
  8
DIM
 62
     0
370
    -2
100
AcDbLine
 10
10.20000267028868
 20
129.9043090826806
 30
0.0
 11
224.3436427915616
 21
129.9043090826806
 31
0.0
  0
INSERT
  5
18ABE
330
18AB9
100
AcDbEntity
  8
DIM
 62
     0
370
    -2
100
AcDbBlockReference
  2
_DOT
 10
7.200002670288682
 20
129.9043090826806
 30
0.0
 41
3.0
 42
3.0
 43
3.0
 50
180.0
  0
INSERT
  5
18ABF
330
18AB9
100
AcDbEntity
  8
DIM
 62
     0
370
    -2
100
AcDbBlockReference
  2
_DOT
 10
227.3436427915616
 20
129.9043090826806
 30
0.0
 41
3.0
 42
3.0
 43
3.0
  0
MTEXT
  5
18AC0
330
18AB9
100
AcDbEntity
  8
DIM
 62
     0
100
AcDbMText
 10
117.2718227309251
 20
139.9058096453916
 30
0.0
 40
8.0
 41
0.0
 46
0.0
 71
     5
 72
     1
  1
\A1;220
  7
ＭＳ ゴシック
 73
     1
 44
1.0
  0
POINT
  5
18AC1
330
18AB9
100
AcDbEntity
  8
Defpoints
 62
     0
100
AcDbPoint
 10
7.200002670288682
 20
98.81329367128342
 30
0.0
  0
POINT
  5
18AC2
330
18AB9
100
AcDbEntity
  8
Defpoints
 62
     0
100
AcDbPoint
 10
227.3436427915616
 20
98.81329367128349
 30
0.0
  0
POINT
  5
18AC3
330
18AB9
100
AcDbEntity
  8
Defpoints
 62
     0
100
AcDbPoint
 10
227.3436427915616
 20
129.9043090826806
 30
0.0
  0
ENDBLK
  5
18AC4
330
18AB9
100
AcDbEntity
  8
0
100
AcDbBlockEnd
  0
BLOCK
  5
18AC9
330
18AC8
100
AcDbEntity
  8
0
100
AcDbBlockBegin
  2
*D23
 70
     1
 10
0.0
 20
0.0
 30
0.0
  3
*D23
  1

  0
LINE
  5
18ACA
330
18AC8
100
AcDbEntity
  8
DIM
 62
     0
370
    -2
100
AcDbLine
 10
244.5436454618495
 20
11.47661237417256
 30
0.0
 11
269.265029578572
 21
11.47661237417256
 31
0.0
  0
LINE
  5
18ACB
330
18AC8
100
AcDbEntity
  8
DIM
 62
     0
370
    -2
100
AcDbLine
 10
244.5436454618495
 20
66.6766109913448
 30
0.0
 11
269.265029578572
 21
66.6766109913448
 31
0.0
  0
LINE
  5
18ACC
330
18AC8
100
AcDbEntity
  8
DIM
 62
     0
370
    -2
100
AcDbLine
 10
269.265029578572
 20
14.47661237417256
 30
0.0
 11
269.265029578572
 21
63.6766109913448
 31
0.0
  0
INSERT
  5
18ACD
330
18AC8
100
AcDbEntity
  8
DIM
 62
     0
370
    -2
100
AcDbBlockReference
  2
_DOT
 10
269.265029578572
 20
11.47661237417256
 30
0.0
 41
3.0
 42
3.0
 43
3.0
 50
270.0
  0
INSERT
  5
18ACE
330
18AC8
100
AcDbEntity
  8
DIM
 62
     0
370
    -2
100
AcDbBlockReference
  2
_DOT
 10
269.265029578572
 20
66.6766109913448
 30
0.0
 41
3.0
 42
3.0
 43
3.0
 50
90.0
  0
MTEXT
  5
18ACF
330
18AC8
100
AcDbEntity
  8
DIM
 62
     0
100
AcDbMText
 10
259.263529015861
 20
39.07661168275868
 30
0.0
 40
8.0
 41
0.0
 46
0.0
 71
     5
 72
     1
  1
\A1;55
  7
ＭＳ ゴシック
 11
0.0
 21
1.0
 31
0.0
 73
     1
 44
1.0
  0
POINT
  5
18AD0
330
18AC8
100
AcDbEntity
  8
Defpoints
 62
     0
100
AcDbPoint
 10
234.5436454618495
 20
11.47661237417256
 30
0.0
  0
POINT
  5
18AD1
330
18AC8
100
AcDbEntity
  8
Defpoints
 62
     0
100
AcDbPoint
 10
234.5436454618495
 20
66.6766109913448
 30
0.0
  0
POINT
  5
18AD2
330
18AC8
100
AcDbEntity
  8
Defpoints
 62
     0
100
AcDbPoint
 10
269.265029578572
 20
66.6766109913448
 30
0.0
  0
ENDBLK
  5
18AD3
330
18AC8
100
AcDbEntity
  8
0
100
AcDbBlockEnd
  0
BLOCK
  5
18B1E
330
18B1D
100
AcDbEntity
  8
0
100
AcDbBlockBegin
  2
*D24
 70
     1
 10
0.0
 20
0.0
 30
0.0
  3
*D24
  1

  0
LINE
  5
18B20
330
18B1D
100
AcDbEntity
  8
DIM
 62
     0
440
 16777216
370
    -2
100
AcDbLine
 10
86.59930480841456
 20
438.1186047996918
 30
0.0
 11
86.59930480841456
 21
467.1236968612631
 31
0.0
  0
LINE
  5
18B21
330
18B1D
100
AcDbEntity
  8
DIM
 62
     0
440
 16777216
370
    -2
100
AcDbLine
 10
362.779507869648
 20
438.1186047996918
 30
0.0
 11
362.779507869648
 21
467.1236968612631
 31
0.0
  0
LINE
  5
18B22
330
18B1D
100
AcDbEntity
  8
DIM
 62
     0
440
 16777216
370
    -2
100
AcDbLine
 10
89.59930480841455
 20
467.1236968612631
 30
0.0
 11
359.779507869648
 21
467.1236968612631
 31
0.0
  0
INSERT
  5
18B23
330
18B1D
100
AcDbEntity
  8
DIM
 62
     0
440
 16777216
370
    -2
100
AcDbBlockReference
  2
_DOT
 10
86.59930480841456
 20
467.1236968612631
 30
0.0
 41
3.0
 42
3.0
 43
3.0
 50
180.0
  0
INSERT
  5
18B24
330
18B1D
100
AcDbEntity
  8
DIM
 62
     0
440
 16777216
370
    -2
100
AcDbBlockReference
  2
_DOT
 10
362.779507869648
 20
467.1236968612631
 30
0.0
 41
3.0
 42
3.0
 43
3.0
  0
MTEXT
  5
18B25
330
18B1D
100
AcDbEntity
  8
DIM
 62
     0
440
 16777216
100
AcDbMText
 10
224.6894063390313
 20
477.1251974239741
 30
0.0
 40
8.0
 41
0.0
 46
0.0
 71
     5
 72
     1
  1
\A1;432
  7
ＭＳ ゴシック
 73
     1
 44
1.0
  0
POINT
  5
18B26
330
18B1D
100
AcDbEntity
  8
Defpoints
 62
     0
440
 16777216
100
AcDbPoint
 10
86.59930480841458
 20
428.118604799692
 30
0.0
  0
POINT
  5
18B27
330
18B1D
100
AcDbEntity
  8
Defpoints
 62
     0
440
 16777216
100
AcDbPoint
 10
362.779507869648
 20
428.118604799692
 30
0.0
  0
POINT
  5
18B28
330
18B1D
100
AcDbEntity
  8
Defpoints
 62
     0
440
 16777216
100
AcDbPoint
 10
362.779507869648
 20
467.1236968612631
 30
0.0
  0
ENDBLK
  5
18B1F
330
18B1D
100
AcDbEntity
  8
0
100
AcDbBlockEnd
  0
BLOCK
  5
18B2A
330
18B29
100
AcDbEntity
  8
0
100
AcDbBlockBegin
  2
*D25
 70
     1
 10
0.0
 20
0.0
 30
0.0
  3
*D25
  1

  0
LINE
  5
18B2C
330
18B29
100
AcDbEntity
  8
DIM
 62
     0
440
 16777216
370
    -2
100
AcDbLine
 10
381.8122384923729
 20
318.5507682633166
 30
0.0
 11
415.3717931115338
 21
318.5507682633166
 31
0.0
  0
LINE
  5
18B2D
330
18B29
100
AcDbEntity
  8
DIM
 62
     0
440
 16777216
370
    -2
100
AcDbLine
 10
381.8122384923729
 20
387.8016756194053
 30
0.0
 11
415.3717931115338
 21
387.8016756194053
 31
0.0
  0
LINE
  5
18B2E
330
18B29
100
AcDbEntity
  8
DIM
 62
     0
440
 16777216
370
    -2
100
AcDbLine
 10
415.3717931115338
 20
321.5507682633166
 30
0.0
 11
415.3717931115338
 21
384.8016756194053
 31
0.0
  0
INSERT
  5
18B2F
330
18B29
100
AcDbEntity
  8
DIM
 62
     0
440
 16777216
370
    -2
100
AcDbBlockReference
  2
_DOT
 10
415.3717931115338
 20
318.5507682633166
 30
0.0
 41
3.0
 42
3.0
 43
3.0
 50
270.0
  0
INSERT
  5
18B30
330
18B29
100
AcDbEntity
  8
DIM
 62
     0
440
 16777216
370
    -2
100
AcDbBlockReference
  2
_DOT
 10
415.3717931115338
 20
387.8016756194053
 30
0.0
 41
3.0
 42
3.0
 43
3.0
 50
90.0
  0
MTEXT
  5
18B31
330
18B29
100
AcDbEntity
  8
DIM
 62
     0
440
 16777216
100
AcDbMText
 10
405.3717931115338
 20
353.176221941361
 30
0.0
 40
8.0
 41
0.0
 46
0.0
 71
     5
 72
     1
  1
\A1;69
  7
ＭＳ ゴシック
 11
0.0
 21
1.0
 31
0.0
 73
     1
 44
1.0
  0
POINT
  5
18B32
330
18B29
100
AcDbEntity
  8
Defpoints
 62
     0
440
 16777216
100
AcDbPoint
 10
371.8122384923729
 20
318.5507682633166
 30
0.0
  0
POINT
  5
18B33
330
18B29
100
AcDbEntity
  8
Defpoints
 62
     0
440
 16777216
100
AcDbPoint
 10
371.8122384923729
 20
387.8016756194053
 30
0.0
  0
POINT
  5
18B34
330
18B29
100
AcDbEntity
  8
Defpoints
 62
     0
440
 16777216
100
AcDbPoint
 10
415.3717931115338
 20
387.8016756194053
 30
0.0
  0
ENDBLK
  5
18B2B
330
18B29
100
AcDbEntity
  8
0
100
AcDbBlockEnd
  0
BLOCK
  5
18B49
330
18B46
100
AcDbEntity
  8
0
100
AcDbBlockBegin
  2
_Open30
 70
     0
 10
0.0
 20
0.0
 30
0.0
  3
_Open30
  1

  0
LINE
  5
18B4A
330
18B46
100
AcDbEntity
  8
0
 62
     0
370
    -2
100
AcDbLine
 10
-1.0
 20
0.2679491899998538
 30
0.0
 11
0.0
 21
0.0
 31
0.0
  0
LINE
  5
18B4B
330
18B46
100
AcDbEntity
  8
0
 62
     0
370
    -2
100
AcDbLine
 10
0.0
 20
0.0
 30
0.0
 11
-1.0
 21
-0.2679491899998538
 31
0.0
  0
LINE
  5
18B4C
330
18B46
100
AcDbEntity
  8
0
 62
     0
370
    -2
100
AcDbLine
 10
0.0
 20
0.0
 30
0.0
 11
-1.0
 21
0.0
 31
0.0
  0
ENDBLK
  5
18B4D
330
18B46
100
AcDbEntity
  8
0
100
AcDbBlockEnd
  0
BLOCK
  5
18B4F
330
18B4E
100
AcDbEntity
  8
0
100
AcDbBlockBegin
  2
_Origin
 70
     0
 10
0.0
 20
0.0
 30
0.0
  3
_Origin
  1

  0
CIRCLE
  5
18B50
330
18B4E
100
AcDbEntity
  8
0
  6
ByBlock
 62
     0
370
    -2
100
AcDbCircle
 10
0.0
 20
0.0
 30
0.0
 40
0.5
  0
LINE
  5
18B51
330
18B4E
100
AcDbEntity
  8
0
  6
ByBlock
 62
     0
370
    -2
100
AcDbLine
 10
0.0
 20
0.0
 30
0.0
 11
-1.0
 21
0.0
 31
0.0
  0
ENDBLK
  5
18B52
330
18B4E
100
AcDbEntity
  8
0
100
AcDbBlockEnd
  0
BLOCK
  5
18BC7
330
18BC6
100
AcDbEntity
  8
0
100
AcDbBlockBegin
  2
*D28
 70
     1
 10
0.0
 20
0.0
 30
0.0
  3
*D28
  1

  0
LINE
  5
18BC9
330
18BC6
100
AcDbEntity
  8
DIM
 62
     0
440
 16777216
370
    -2
100
AcDbLine
 10
77.56657418568905
 20
615.29465163417
 30
0.0
 11
77.56657418568903
 21
673.3498500867579
 31
0.0
  0
LINE
  5
18BCA
330
18BC6
100
AcDbEntity
  8
DIM
 62
     0
440
 16777216
370
    -2
100
AcDbLine
 10
371.8122384923726
 20
615.2946516341702
 30
0.0
 11
371.8122384923726
 21
673.3498500867579
 31
0.0
  0
LINE
  5
18BCB
330
18BC6
100
AcDbEntity
  8
DIM
 62
     0
440
 16777216
370
    -2
100
AcDbLine
 10
80.56657418568903
 20
673.3498500867579
 30
0.0
 11
368.8122384923726
 21
673.3498500867579
 31
0.0
  0
INSERT
  5
18BCC
330
18BC6
100
AcDbEntity
  8
DIM
 62
     0
440
 16777216
370
    -2
100
AcDbBlockReference
  2
_DOT
 10
77.56657418568903
 20
673.3498500867579
 30
0.0
 41
3.0
 42
3.0
 43
3.0
 50
180.0
  0
INSERT
  5
18BCD
330
18BC6
100
AcDbEntity
  8
DIM
 62
     0
440
 16777216
370
    -2
100
AcDbBlockReference
  2
_DOT
 10
371.8122384923726
 20
673.3498500867579
 30
0.0
 41
3.0
 42
3.0
 43
3.0
  0
MTEXT
  5
18BCE
330
18BC6
100
AcDbEntity
  8
DIM
 62
     0
440
 16777216
100
AcDbMText
 10
224.6894063390308
 20
683.3513506494687
 30
0.0
 40
8.0
 41
0.0
 46
0.0
 71
     5
 72
     1
  1
\A1;450
  7
ＭＳ ゴシック
 73
     1
 44
1.0
  0
POINT
  5
18BCF
330
18BC6
100
AcDbEntity
  8
Defpoints
 62
     0
440
 16777216
100
AcDbPoint
 10
77.56657418568905
 20
605.29465163417
 30
0.0
  0
POINT
  5
18BD0
330
18BC6
100
AcDbEntity
  8
Defpoints
 62
     0
440
 16777216
100
AcDbPoint
 10
371.8122384923726
 20
605.2946516341702
 30
0.0
  0
POINT
  5
18BD1
330
18BC6
100
AcDbEntity
  8
Defpoints
 62
     0
440
 16777216
100
AcDbPoint
 10
371.8122384923726
 20
673.3498500867579
 30
0.0
  0
ENDBLK
  5
18BC8
330
18BC6
100
AcDbEntity
  8
0
100
AcDbBlockEnd
  0
BLOCK
  5
18BD6
330
18BD5
100
AcDbEntity
  8
0
100
AcDbBlockBegin
  2
*D29
 70
     1
 10
0.0
 20
0.0
 30
0.0
  3
*D29
  1

  0
LINE
  5
18BD8
330
18BD5
100
AcDbEntity
  8
DIM
 62
     0
440
 16777216
370
    -2
100
AcDbLine
 10
468.4130666666666
 20
614.3273788999572
 30
0.0
 11
411.8758179164126
 21
614.3273788999572
 31
0.0
  0
LINE
  5
18BD9
330
18BD5
100
AcDbEntity
  8
DIM
 62
     0
440
 16777216
370
    -2
100
AcDbLine
 10
428.09613748638
 20
605.2946516272307
 30
0.0
 11
411.8758179164126
 21
605.2946516272307
 31
0.0
  0
LINE
  5
18BDA
330
18BD5
100
AcDbEntity
  8
DIM
 62
     0
440
 16777216
370
    -2
100
AcDbLine
 10
411.8758179164126
 20
611.3273788999572
 30
0.0
 11
411.8758179164126
 21
608.2946516272308
 31
0.0
  0
INSERT
  5
18BDB
330
18BD5
100
AcDbEntity
  8
DIM
 62
     0
440
 16777216
370
    -2
100
AcDbBlockReference
  2
_DOT
 10
411.8758179164126
 20
614.3273788999572
 30
0.0
 41
3.0
 42
3.0
 43
3.0
 50
90.0
  0
INSERT
  5
18BDC
330
18BD5
100
AcDbEntity
  8
DIM
 62
     0
440
 16777216
370
    -2
100
AcDbBlockReference
  2
_DOT
 10
411.8758179164126
 20
605.2946516272307
 30
0.0
 41
3.0
 42
3.0
 43
3.0
 50
270.0
  0
MTEXT
  5
18BDD
330
18BD5
100
AcDbEntity
  8
DIM
 62
     0
440
 16777216
100
AcDbMText
 10
401.8758179164126
 20
609.8110152635939
 30
0.0
 40
8.0
 41
0.0
 46
0.0
 71
     5
 72
     1
  1
\A1;9
  7
ＭＳ ゴシック
 11
0.0
 21
1.0
 31
0.0
 73
     1
 44
1.0
  0
POINT
  5
18BDE
330
18BD5
100
AcDbEntity
  8
Defpoints
 62
     0
440
 16777216
100
AcDbPoint
 10
478.4130666666666
 20
614.3273788999572
 30
0.0
  0
POINT
  5
18BDF
330
18BD5
100
AcDbEntity
  8
Defpoints
 62
     0
440
 16777216
100
AcDbPoint
 10
438.09613748638
 20
605.2946516272307
 30
0.0
  0
POINT
  5
18BE0
330
18BD5
100
AcDbEntity
  8
Defpoints
 62
     0
440
 16777216
100
AcDbPoint
 10
411.8758179164126
 20
605.2946516272307
 30
0.0
  0
ENDBLK
  5
18BD7
330
18BD5
100
AcDbEntity
  8
0
100
AcDbBlockEnd
  0
BLOCK
  5
18BE6
330
18BE5
100
AcDbEntity
  8
0
100
AcDbBlockBegin
  2
*D30
 70
     1
 10
0.0
 20
0.0
 30
0.0
  3
*D30
  1

  0
LINE
  5
18BE8
330
18BE5
100
AcDbEntity
  8
DIM
 62
     0
440
 16777216
370
    -2
100
AcDbLine
 10
289.7026581510793
 20
336.486293713156
 30
0.0
 11
296.6824909217015
 21
336.486293713156
 31
0.0
  0
LINE
  5
18BE9
330
18BE5
100
AcDbEntity
  8
DIM
 62
     0
440
 16777216
370
    -2
100
AcDbLine
 10
289.7026581510793
 20
318.5507682633166
 30
0.0
 11
296.6824909217015
 21
318.5507682633166
 31
0.0
  0
LINE
  5
18BEA
330
18BE5
100
AcDbEntity
  8
DIM
 62
     0
440
 16777216
370
    -2
100
AcDbLine
 10
296.6824909217015
 20
318.5507682633166
 30
0.0
 11
296.6824909217015
 21
285.6799417033566
 31
0.0
  0
LINE
  5
18BEB
330
18BE5
100
AcDbEntity
  8
DIM
 62
     0
440
 16777216
370
    -2
100
AcDbLine
 10
296.6824909217015
 20
333.486293713156
 30
0.0
 11
296.6824909217015
 21
321.5507682633166
 31
0.0
  0
LINE
  5
18BEC
330
18BE5
100
AcDbEntity
  8
DIM
 62
     0
440
 16777216
370
    -2
100
AcDbLine
 10
296.6824909217015
 20
321.5507682633166
 30
0.0
 11
296.6824909217015
 21
324.5507682633166
 31
0.0
  0
INSERT
  5
18BED
330
18BE5
100
AcDbEntity
  8
DIM
 62
     0
440
 16777216
370
    -2
100
AcDbBlockReference
  2
_DOT
 10
296.6824909217015
 20
336.486293713156
 30
0.0
 41
3.0
 42
3.0
 43
3.0
 50
90.0
  0
INSERT
  5
18BEE
330
18BE5
100
AcDbEntity
  8
DIM
 62
     0
440
 16777216
370
    -2
100
AcDbBlockReference
  2
_DOT
 10
296.6824909217015
 20
318.5507682633166
 30
0.0
 41
3.0
 42
3.0
 43
3.0
 50
270.0
  0
MTEXT
  5
18BEF
330
18BE5
100
AcDbEntity
  8
DIM
 62
     0
440
 16777216
100
AcDbMText
 10
286.6809903589905
 20
299.1153549833367
 30
0.0
 40
8.0
 41
0.0
 46
0.0
 71
     5
 72
     1
  1
\A1;%%c18
  7
ＭＳ ゴシック
 11
0.0
 21
1.0
 31
0.0
 73
     1
 44
1.0
  0
POINT
  5
18BF0
330
18BE5
100
AcDbEntity
  8
Defpoints
 62
     0
440
 16777216
100
AcDbPoint
 10
299.7026581510793
 20
336.486293713156
 30
0.0
  0
POINT
  5
18BF1
330
18BE5
100
AcDbEntity
  8
Defpoints
 62
     0
440
 16777216
100
AcDbPoint
 10
299.7026581510793
 20
318.5507682633166
 30
0.0
  0
POINT
  5
18BF2
330
18BE5
100
AcDbEntity
  8
Defpoints
 62
     0
440
 16777216
100
AcDbPoint
 10
296.6824909217015
 20
318.5507682633166
 30
0.0
  0
ENDBLK
  5
18BE7
330
18BE5
100
AcDbEntity
  8
0
100
AcDbBlockEnd
  0
ENDSEC
  0
SECTION
  2
ENTITIES
  0
MTEXT
  5
177
330
A
100
AcDbEntity
  8
TEMPLATE
390
1D
100
AcDbMText
 10
23.76064336431923
 20
103.1195254894285
 30
0.0
 40
4.886523437499998
 41
0.0
 46
0.0
 71
     1
 72
     1
  1
品名
  7
ＭＳ ゴシック
 73
     1
 44
0.7828267384257845
  0
MTEXT
  5
178
330
A
100
AcDbEntity
  8
TEMPLATE
390
1D
100
AcDbMText
 10
23.76064336431923
 20
77.61952548942841
 30
0.0
 40
4.886523437499998
 41
0.0
 46
0.0
 71
     1
 72
     1
  1
仕様
  7
ＭＳ ゴシック
 73
     1
 44
0.7828267384257845
  0
LINE
  5
179
330
A
100
AcDbEntity
  8
TEMPLATE
390
1D
100
AcDbLine
 10
606.6606433641744
 20
80.14400205192853
 30
0.0
 11
21.66064336417462
 21
80.14400205192853
 31
0.0
  0
LWPOLYLINE
  5
17A
330
A
100
AcDbEntity
  8
TEMPLATE
390
1D
100
AcDbPolyline
 90
        5
 70
   128
 43
0.0
 10
606.6606433641744
 20
869.1440020519278
 10
21.66064336417462
 20
869.1440020519278
 10
21.66064336417462
 20
29.14400205192847
 10
606.6606433641744
 20
29.14400205192847
 10
606.6606433641744
 20
869.1440020519278
  0
LINE
  5
17B
330
A
100
AcDbEntity
  8
TEMPLATE
390
1D
100
AcDbLine
 10
606.6606433641744
 20
105.6440020519285
 30
0.0
 11
21.66064336417462
 21
105.6440020519285
 31
0.0
  0
LINE
  5
17C
330
A
100
AcDbEntity
  8
TEMPLATE
390
1D
100
AcDbLine
 10
606.6606433643196
 20
54.64400205192847
 30
0.0
 11
380.760643364319
 21
54.64400205192847
 31
0.0
  0
MTEXT
  5
17E
330
A
100
AcDbEntity
  8
TEMPLATE
390
1D
100
AcDbMText
 10
389.7220652399973
 20
45.67088370993603
 30
0.0
 40
7.329785156250001
 41
0.0
 46
0.0
 71
     1
 72
     1
  1
大洋金物株式会社 ティーフォルム事業部
  7
ＭＳ ゴシック
 73
     1
 44
0.7828267384257845
  0
MTEXT
  5
180
330
A
100
AcDbEntity
  8
TEMPLATE
390
1D
100
AcDbMText
 10
549.360643364397
 20
69.04478720817846
 30
0.0
 40
7.329785156250001
 41
0.0
 46
7.329785156250001
 71
     1
 72
     1
  1
{1:3}
  7
ＭＳ ゴシック
 73
     1
 44
0.7828267384257845
1001
ACAD
1000
ACAD_MTEXT_DEFINED_HEIGHT_BEGIN
1070
    46
1040
7.329785156250001
1000
ACAD_MTEXT_DEFINED_HEIGHT_END
  0
MTEXT
  5
181
330
A
100
AcDbEntity
  8
TEMPLATE
390
1D
100
AcDbMText
 10
533.4606433643967
 20
77.61952548942841
 30
0.0
 40
4.886523437499998
 41
0.0
 46
0.0
 71
     1
 72
     1
  1
縮尺
  7
ＭＳ ゴシック
 73
     1
 44
0.7828267384257845
  0
LINE
  5
182
330
A
100
AcDbEntity
  8
TEMPLATE
390
1D
100
AcDbLine
 10
531.3606433643968
 20
54.64400205192847
 30
0.0
 11
531.3606433643968
 21
80.14400205192853
 31
0.0
  0
MTEXT
  5
183
330
A
100
AcDbEntity
  8
TEMPLATE
390
1D
100
AcDbMText
 10
458.1606433643968
 20
77.61952548942841
 30
0.0
 40
4.886523437499998
 41
0.0
 46
0.0
 71
     1
 72
     1
  1
容量
  7
ＭＳ ゴシック
 73
     1
 44
0.7828267384257845
  0
LINE
  5
184
330
A
100
AcDbEntity
  8
TEMPLATE
390
1D
100
AcDbLine
 10
456.0606433643969
 20
54.64400205192847
 30
0.0
 11
456.0606433643969
 21
80.14400205192853
 31
0.0
  0
MTEXT
  5
185
330
A
100
AcDbEntity
  8
TEMPLATE
390
1D
100
AcDbMText
 10
382.860643364397
 20
103.1195254894285
 30
0.0
 40
4.886523437499998
 41
0.0
 46
0.0
 71
     1
 72
     1
  1
品番
  7
ＭＳ ゴシック
 73
     1
 44
0.7828267384257845
  0
MTEXT
  5
186
330
A
100
AcDbEntity
  8
TEMPLATE
390
1D
100
AcDbMText
 10
382.860643364397
 20
77.61952548942841
 30
0.0
 40
4.886523437499998
 41
0.0
 46
0.0
 71
     1
 72
     1
  1
重量
  7
ＭＳ ゴシック
 73
     1
 44
0.7828267384257845
  0
LINE
  5
188
330
A
100
AcDbEntity
  8
TEMPLATE
390
1D
100
AcDbLine
 10
380.760643364397
 20
29.14400205192847
 30
0.0
 11
380.760643364397
 21
105.6440020519285
 31
0.0
  0
INSERT
  5
68C
330
A
100
AcDbEntity
  8
TEMPLATE
100
AcDbBlockReference
  2
block 2
 10
367.7097207081031
 20
3.349230605734546
 30
0.0
 41
0.1524
 42
0.1524
 43
0.1524
  0
LWPOLYLINE
  5
D69
330
A
100
AcDbEntity
  8
BORDER
100
AcDbPolyline
 90
        4
 70
     1
 43
0.0
 10
0.0
 20
0.0
 10
0.0
 20
891.0
 10
630.0
 20
891.0
 10
630.0
 20
0.0
  0
INSERT
  5
1343
330
A
100
AcDbEntity
  8
TEMPLATE
100
AcDbBlockReference
  2
block 2
 10
838.6973883465872
 20
9.774128564918273
 30
0.0
 41
0.1524
 42
0.1524
 43
0.1524
  0
MTEXT
  5
36AC
102
{ACAD_XDICTIONARY
360
36AE
102
}
330
A
100
AcDbEntity
  8
TEMPLATE
 48
0.05
100
AcDbMText
 10
22.06848147481188
 20
25.15049698669364
 30
0.0
 40
7.0
 41
0.0
 46
7.0
 71
     1
 72
     1
  1
{----M}
  7
ＭＳ ゴシック
 73
     1
 44
1.0
1001
ACAD
1000
ACAD_MTEXT_DEFINED_HEIGHT_BEGIN
1070
    46
1040
7.0
1000
ACAD_MTEXT_DEFINED_HEIGHT_END
  0
HATCH
  5
172F9
102
{ACAD_REACTORS
330
1730A
102
}
330
A
100
AcDbEntity
  8
TEMPLATE
100
AcDbHatch
 10
0.0
 20
0.0
 30
0.0
210
0.0
220
0.0
230
1.0
  2
SOLID
 70
     1
 71
     1
 91
        6
 92
        1
 93
        8
 72
     1
 10
580.3195574690817
 20
45.81237511424546
 11
580.3195574690817
 21
44.03955282504735
 72
     1
 10
580.3195574690817
 20
44.03955282504735
 11
577.5113800039879
 21
44.03955282504735
 72
     1
 10
577.5113800039879
 20
44.03955282504735
 11
577.5113800039879
 21
36.81237511467916
 72
     1
 10
577.5113800039879
 20
36.81237511467916
 11
575.0415960580052
 21
36.81237511467916
 72
     1
 10
575.0415960580052
 20
36.81237511467916
 11
575.0415960580052
 21
44.03955282504735
 72
     1
 10
575.0415960580052
 20
44.03955282504735
 11
572.2831856276421
 21
44.03955282504735
 72
     1
 10
572.2831856276421
 20
44.03955282504735
 11
572.2831856276421
 21
45.81237511424546
 72
     1
 10
572.2831856276421
 20
45.81237511424546
 11
580.3195574690817
 21
45.81237511424546
 97
        1
330
172FA
 92
        1
 93
        1
 72
     4
 94
        3
 73
     0
 74
     0
 95
       56
 96
       52
 40
0.0
 40
0.0
 40
0.0
 40
0.0
 40
1.0
 40
1.0
 40
1.0
 40
2.0
 40
2.0
 40
2.0
 40
3.0
 40
3.0
 40
3.0
 40
4.0
 40
4.0
 40
4.0
 40
5.0
 40
5.0
 40
5.0
 40
6.0
 40
6.0
 40
6.0
 40
7.0
 40
7.0
 40
7.0
 40
8.0
 40
8.0
 40
8.0
 40
9.0
 40
9.0
 40
9.0
 40
10.0
 40
10.0
 40
10.0
 40
11.0
 40
11.0
 40
11.0
 40
12.0
 40
12.0
 40
12.0
 40
13.0
 40
13.0
 40
13.0
 40
14.0
 40
14.0
 40
14.0
 40
15.0
 40
15.0
 40
15.0
 40
16.0
 40
16.0
 40
16.0
 40
17.0
 40
17.0
 40
17.0
 40
17.0
 10
584.0822130993691
 20
45.59806442612168
 10
584.4283729539446
 20
45.69550069232488
 10
584.875249681945
 20
45.61399880405779
 10
584.875249681945
 20
45.61399880405779
 10
584.875249681945
 20
45.61399880405779
 10
584.6605596038704
 20
44.96972771633077
 10
584.6605596038704
 20
44.96972771633077
 10
584.6605596038704
 20
44.96972771633077
 10
584.2218509183412
 20
45.07124800376956
 10
583.8834797162866
 20
44.80442528303579
 10
583.6205401632851
 20
44.59576081006296
 10
583.4501940753495
 20
44.04131587246591
 10
583.3848497355777
 20
43.83050896212374
 10
583.3848497355777
 20
43.83050896212374
 10
583.0935228874299
 20
42.93630916500407
 10
583.0935228874299
 20
42.93630916500407
 10
583.0935228874299
 20
42.93630916500407
 10
584.0487598325259
 20
42.93630916500407
 10
584.0487598325259
 20
42.93630916500407
 10
584.0487598325259
 20
42.93630916500407
 10
583.9001951911804
 20
42.37351764848811
 10
583.9001951911804
 20
42.37351764848811
 10
583.9001951911804
 20
42.37351764848811
 10
582.9371695935638
 20
42.37351764848811
 10
582.9371695935638
 20
42.37351764848811
 10
582.9371695935638
 20
42.37351764848811
 10
581.2141366561519
 20
36.81237511467916
 10
581.2141366561519
 20
36.81237511467916
 10
581.2141366561519
 20
36.81237511467916
 10
580.6746664630858
 20
36.81237511467916
 10
580.6746664630858
 20
36.81237511467916
 10
580.6746664630858
 20
36.81237511467916
 10
582.3992615944128
 20
42.37351764848811
 10
582.3992615944128
 20
42.37351764848811
 10
582.3992615944128
 20
42.37351764848811
 10
581.6886418993972
 20
42.37351764848811
 10
581.6886418993972
 20
42.37351764848811
 10
581.6886418993972
 20
42.37351764848811
 10
581.8376082477493
 20
42.93630916500407
 10
581.8376082477493
 20
42.93630916500407
 10
581.8376082477493
 20
42.93630916500407
 10
582.5556148882789
 20
42.93630916500407
 10
582.5556148882789
 20
42.93630916500407
 10
582.5556148882789
 20
42.93630916500407
 10
582.8095829847954
 20
43.71615636752356
 10
582.8095829847954
 20
43.71615636752356
 10
583.0149445334897
 20
44.36997915518984
 10
583.1891961062141
 20
44.72100412795849
 10
583.3385641615731
 20
44.98566209426688
 10
583.4863477059606
 20
45.25054323113452
 10
583.7788350410172
 20
45.51073778625616
 10
584.0822130993691
 20
45.59806442612168
 97
        0
 97
        1
330
17305
 92
        1
 93
        1
 72
     4
 94
        3
 73
     0
 74
     0
 95
       32
 96
       28
 40
0.0
 40
0.0
 40
0.0
 40
0.0
 40
1.0
 40
1.0
 40
1.0
 40
2.0
 40
2.0
 40
2.0
 40
3.0
 40
3.0
 40
3.0
 40
4.0
 40
4.0
 40
4.0
 40
5.0
 40
5.0
 40
5.0
 40
6.0
 40
6.0
 40
6.0
 40
7.0
 40
7.0
 40
7.0
 40
8.0
 40
8.0
 40
8.0
 40
9.0
 40
9.0
 40
9.0
 40
9.0
 10
585.394880012287
 20
42.5961972325865
 10
585.0701222143512
 20
42.17612328876155
 10
584.8200372855671
 20
41.79807236125814
 10
584.4151612568322
 20
40.60984535222242
 10
584.0429350809272
 20
39.52296009417805
 10
583.8060618492555
 20
38.73222216836346
 10
583.7702876085951
 20
37.76919657074652
 10
583.7430608003566
 20
37.05255127062911
 10
584.1794485120689
 20
36.81237511467916
 10
584.8192785056652
 20
36.81237511467916
 10
585.0950280487722
 20
36.81237511467916
 10
585.7908738527602
 20
36.82991632064247
 10
586.2864017626947
 20
37.44247487188884
 10
586.6332980801157
 20
37.87283697849896
 10
586.9530122234106
 20
38.3189549265978
 10
587.3816335996577
 20
39.78237355234213
 10
587.7383047875777
 20
41.00579455858404
 10
587.9852653285309
 20
41.79651016734281
 10
587.967009976778
 20
42.24671213667735
 10
587.967009976778
 20
42.24671213667735
 10
587.967009976778
 20
42.24671213667735
 10
587.967009976778
 20
42.24671213667735
 10
587.8506934812556
 20
42.99777033704319
 10
587.305398536591
 20
43.1564669217822
 10
586.9938524357677
 20
43.1564669217822
 10
586.6869929166901
 20
43.1564669217822
 10
585.8647433078982
 20
43.20955919784657
 10
585.394880012287
 20
42.5961972325865
 97
        0
 97
        1
330
17308
 92
        1
 93
        1
 72
     4
 94
        3
 73
     0
 74
     0
 95
       38
 96
       34
 40
0.0
 40
0.0
 40
0.0
 40
0.0
 40
1.0
 40
1.0
 40
1.0
 40
2.0
 40
2.0
 40
2.0
 40
3.0
 40
3.0
 40
3.0
 40
4.0
 40
4.0
 40
4.0
 40
5.0
 40
5.0
 40
5.0
 40
6.0
 40
6.0
 40
6.0
 40
7.0
 40
7.0
 40
7.0
 40
8.0
 40
8.0
 40
8.0
 40
9.0
 40
9.0
 40
9.0
 40
10.0
 40
10.0
 40
10.0
 40
11.0
 40
11.0
 40
11.0
 40
11.0
 10
589.9393467460162
 20
42.91472857191693
 10
589.9393467460162
 20
42.91472857191693
 10
590.4939702200607
 20
42.91472857191693
 10
590.4939702200607
 20
42.91472857191693
 10
590.4939702200607
 20
42.91472857191693
 10
590.2462062650937
 20
42.12146881878184
 10
590.2462062650937
 20
42.12146881878184
 10
590.4344729489438
 20
42.34414840288034
 10
590.7316022316344
 20
42.6407197591727
 10
590.9867754491711
 20
42.79026635097919
 10
591.3679507645053
 20
43.01294593507767
 10
591.5857652304103
 20
43.04231518068535
 10
591.8253165087942
 20
43.03646811203097
 10
591.8253165087942
 20
43.03646811203097
 10
591.591210592058
 20
42.28639186212602
 10
591.591210592058
 20
42.28639186212602
 10
591.4387404659245
 20
42.35095510493986
 10
590.9688771703129
 20
42.22805507791734
 10
590.6993317687555
 20
42.03416449597225
 10
590.4562543955343
 20
41.85933267979383
 10
590.2882069643594
 20
41.71056718494513
 10
590.0890941913261
 20
41.3365779616216
 10
589.8914989780961
 20
40.96203081189956
 10
589.7355473912369
 20
40.36480407807901
 10
589.4671624765877
 20
39.49841133265191
 10
589.4671624765877
 20
39.49841133265191
 10
588.6289784898597
 20
36.81237511467916
 10
588.6289784898597
 20
36.81237511467916
 10
588.6289784898597
 20
36.81237511467916
 10
588.0906911007581
 20
36.81237511467916
 10
588.0906911007581
 20
36.81237511467916
 10
588.0906911007581
 20
36.81237511467916
 10
589.9393467460162
 20
42.91472857191693
 10
589.9393467460162
 20
42.91472857191693
 97
        0
 97
        1
330
17306
 92
        1
 93
        1
 72
     4
 94
        3
 73
     0
 74
     0
 95
      104
 96
      100
 40
0.0
 40
0.0
 40
0.0
 40
0.0
 40
1.0
 40
1.0
 40
1.0
 40
2.0
 40
2.0
 40
2.0
 40
3.0
 40
3.0
 40
3.0
 40
4.0
 40
4.0
 40
4.0
 40
5.0
 40
5.0
 40
5.0
 40
6.0
 40
6.0
 40
6.0
 40
7.0
 40
7.0
 40
7.0
 40
8.0
 40
8.0
 40
8.0
 40
9.0
 40
9.0
 40
9.0
 40
10.0
 40
10.0
 40
10.0
 40
11.0
 40
11.0
 40
11.0
 40
12.0
 40
12.0
 40
12.0
 40
13.0
 40
13.0
 40
13.0
 40
14.0
 40
14.0
 40
14.0
 40
15.0
 40
15.0
 40
15.0
 40
16.0
 40
16.0
 40
16.0
 40
17.0
 40
17.0
 40
17.0
 40
18.0
 40
18.0
 40
18.0
 40
19.0
 40
19.0
 40
19.0
 40
20.0
 40
20.0
 40
20.0
 40
21.0
 40
21.0
 40
21.0
 40
22.0
 40
22.0
 40
22.0
 40
23.0
 40
23.0
 40
23.0
 40
24.0
 40
24.0
 40
24.0
 40
25.0
 40
25.0
 40
25.0
 40
26.0
 40
26.0
 40
26.0
 40
27.0
 40
27.0
 40
27.0
 40
28.0
 40
28.0
 40
28.0
 40
29.0
 40
29.0
 40
29.0
 40
30.0
 40
30.0
 40
30.0
 40
31.0
 40
31.0
 40
31.0
 40
32.0
 40
32.0
 40
32.0
 40
33.0
 40
33.0
 40
33.0
 40
33.0
 10
592.9921860953021
 20
42.91803149619497
 10
592.9921860953021
 20
42.91803149619497
 10
593.4764215749342
 20
42.91803149619497
 10
593.4764215749342
 20
42.91803149619497
 10
593.4764215749342
 20
42.91803149619497
 10
593.2317820077977
 20
42.12401296315815
 10
593.2317820077977
 20
42.12401296315815
 10
593.4441064779437
 20
42.4569388035653
 10
593.6346941356106
 20
42.6053249084632
 10
593.8879034522252
 20
42.79707305303871
 10
594.1418715487417
 20
42.9860985167904
 10
594.4433303402832
 20
43.02461775533059
 10
594.6525750567102
 20
43.02461775533059
 10
594.9116314419795
 20
43.02461775533059
 10
595.1617163707637
 20
42.97346706313235
 10
595.2931638302082
 20
42.68952716049803
 10
595.3939030206897
 20
42.46686989345536
 10
595.3985896024351
 20
42.44060271862234
 10
595.369800600282
 20
42.0010906190797
 10
595.6330972261784
 20
42.451694295421
 10
595.8275680515779
 20
42.64578573086949
 10
596.1581729181679
 20
42.83226705024477
 10
596.5051138697007
 20
43.02461775533059
 10
596.7073510305647
 20
43.03901225640728
 10
596.9423049954265
 20
43.00437618559953
 10
597.2884425329456
 20
42.9532478104571
 10
597.5093813866816
 20
42.8297452229244
 10
597.6248944681901
 20
42.45441697624481
 10
597.7408092567058
 20
42.08024921647378
 10
597.678187597758
 20
41.87955193246918
 10
597.5350460010043
 20
41.28388739256386
 10
597.4697016612327
 20
41.01260126064356
 10
597.3751666123011
 20
40.68411651436711
 10
597.2514854883208
 20
40.29325559675824
 10
597.2514854883208
 20
40.29325559675824
 10
596.1581729181679
 20
36.81237511467916
 10
596.1581729181679
 20
36.81237511467916
 10
596.1581729181679
 20
36.81237511467916
 10
595.5895343329975
 20
36.81237511467916
 10
595.5895343329975
 20
36.81237511467916
 10
595.5895343329975
 20
36.81237511467916
 10
596.5467574960716
 20
39.85548422757835
 10
596.5467574960716
 20
39.85548422757835
 10
596.7466736831187
 20
40.49218983334411
 10
596.8820043102957
 20
40.95716569370618
 10
596.9520352318129
 20
41.24869339535778
 10
597.0399197980767
 20
41.61234982178448
 10
597.0749129417797
 20
41.73234863153571
 10
597.0333139495209
 20
41.99702891489992
 10
596.9951964179876
 20
42.24340921239921
 10
596.8707118799938
 20
42.4038465275009
 10
596.6575839958343
 20
42.4038465275009
 10
596.4304410005492
 20
42.4038465275009
 10
596.2464591914383
 20
42.37856130312887
 10
595.9890096341962
 20
42.11992894192245
 10
595.7315154428426
 20
41.85933267979383
 10
595.5187446315782
 20
41.55343279412156
 10
595.3519023214237
 20
41.20162672439525
 10
595.1854170841643
 20
40.8476782172995
 10
595.0166108730877
 20
40.39903844188015
 10
594.8454836881942
 20
39.85548422757835
 10
594.8454836881942
 20
39.85548422757835
 10
593.8879034522252
 20
36.81237511467916
 10
593.8879034522252
 20
36.81237511467916
 10
593.8879034522252
 20
36.81237511467916
 10
593.3530975238491
 20
36.81237511467916
 10
593.3530975238491
 20
36.81237511467916
 10
593.3530975238491
 20
36.81237511467916
 10
594.4479722879174
 20
40.29169340284293
 10
594.4479722879174
 20
40.29169340284293
 10
594.5634853694261
 20
40.66197799488166
 10
594.6502540828931
 20
40.96379385931832
 10
594.7074303801932
 20
41.19968514052912
 10
594.804643475837
 20
41.60574397322828
 10
594.8318702840752
 20
41.88033302942674
 10
594.7583579018322
 20
42.12401296315815
 10
594.6860060064977
 20
42.36691179993202
 10
594.5588434217921
 20
42.42895321542549
 10
594.3464743175346
 20
42.42895321542549
 10
594.168339577078
 20
42.42895321542549
 10
593.9944897113607
 20
42.3525172988552
 10
593.7961357182293
 20
42.20042656267251
 10
593.5464078623398
 20
42.00908012510374
 10
593.4464720858723
 20
41.85194573428018
 10
593.3239514488007
 20
41.66524124434543
 10
593.1586266984497
 20
41.41825838633597
 10
593.0812311484743
 20
41.25199631963583
 10
592.941615646558
 20
40.8871570892447
 10
592.8019555105301
 20
40.52017542148403
 10
592.6697492711836
 20
40.09311623915196
 10
592.5775351960687
 20
39.7977276868239
 10
592.5775351960687
 20
39.7977276868239
 10
591.6382549459647
 20
36.81237511467916
 10
591.6382549459647
 20
36.81237511467916
 10
591.6382549459647
 20
36.81237511467916
 10
591.0781861102722
 20
36.81237511467916
 10
591.0781861102722
 20
36.81237511467916
 10
591.0781861102722
 20
36.81237511467916
 10
592.9921860953021
 20
42.91803149619497
 10
592.9921860953021
 20
42.91803149619497
 97
        0
 97
        1
330
17307
 92
       16
 93
        1
 72
     4
 94
        3
 73
     0
 74
     0
 95
       29
 96
       25
 40
0.0
 40
0.0
 40
0.0
 40
0.0
 40
1.0
 40
1.0
 40
1.0
 40
2.0
 40
2.0
 40
2.0
 40
3.0
 40
3.0
 40
3.0
 40
4.0
 40
4.0
 40
4.0
 40
5.0
 40
5.0
 40
5.0
 40
6.0
 40
6.0
 40
6.0
 40
7.0
 40
7.0
 40
7.0
 40
8.0
 40
8.0
 40
8.0
 40
8.0
 10
584.3513791109763
 20
37.94925057801331
 10
584.3490135030472
 20
38.37439049353518
 10
584.4832282774278
 20
39.12973356864029
 10
584.82704484113
 20
40.1403837636178
 10
585.2953459428261
 20
41.50888795047953
 10
585.5761837746857
 20
42.00908012510374
 10
585.8219391946189
 20
42.25255920533161
 10
586.1809759904676
 20
42.60708795588196
 10
586.6636492761844
 20
42.62476306418077
 10
586.8060320930363
 20
42.60708795588196
 10
587.0086709609071
 20
42.58276236491495
 10
587.2949095203023
 20
42.45013210150577
 10
587.3120043851471
 20
42.00363476345613
 10
587.3256624233778
 20
41.621499814717
 10
587.2155500694051
 20
40.90583646506057
 10
586.8301345134438
 20
39.78237355234213
 10
586.3859358321552
 20
38.47687041437903
 10
586.1191131114212
 20
37.96366739614585
 10
585.9052264473606
 20
37.74000586158636
 10
585.5022696854359
 20
37.32071301471897
 10
585.0701222143512
 20
37.36097298362186
 10
585.0063400684948
 20
37.36097298362186
 10
584.923499156872
 20
37.36097298362186
 10
584.3525395978846
 20
37.45086608491963
 10
584.3513791109763
 20
37.94925057801331
 97
        0
 97
        1
330
17309
 75
     0
 76
     1
 98
        1
 10
557.7769876859738
 20
21.56103299246715
450
        0
451
        0
460
0.0
461
0.0
452
        0
462
0.0
453
        0
470

1001
ACAD
1010
0.0
1020
0.0
1030
0.0
  0
POLYLINE
  5
172FA
102
{ACAD_REACTORS
330
172F9
330
1730A
102
}
330
A
100
AcDbEntity
  8
TEMPLATE
100
AcDb2dPolyline
 66
     1
 10
0.0
 20
0.0
 30
0.0
  0
VERTEX
  5
172FB
330
172FA
100
AcDbEntity
  8
TEMPLATE
100
AcDbVertex
100
AcDb2dVertex
 10
580.3195574690817
 20
45.81237511424546
 30
0.0
  0
VERTEX
  5
172FC
330
172FA
100
AcDbEntity
  8
TEMPLATE
100
AcDbVertex
100
AcDb2dVertex
 10
580.3195574690817
 20
44.03955282504735
 30
0.0
  0
VERTEX
  5
172FD
330
172FA
100
AcDbEntity
  8
TEMPLATE
100
AcDbVertex
100
AcDb2dVertex
 10
577.5113800039879
 20
44.03955282504735
 30
0.0
  0
VERTEX
  5
172FE
330
172FA
100
AcDbEntity
  8
TEMPLATE
100
AcDbVertex
100
AcDb2dVertex
 10
577.5113800039879
 20
36.81237511467916
 30
0.0
  0
VERTEX
  5
172FF
330
172FA
100
AcDbEntity
  8
TEMPLATE
100
AcDbVertex
100
AcDb2dVertex
 10
575.0415960580052
 20
36.81237511467916
 30
0.0
  0
VERTEX
  5
17300
330
172FA
100
AcDbEntity
  8
TEMPLATE
100
AcDbVertex
100
AcDb2dVertex
 10
575.0415960580052
 20
44.03955282504735
 30
0.0
  0
VERTEX
  5
17301
330
172FA
100
AcDbEntity
  8
TEMPLATE
100
AcDbVertex
100
AcDb2dVertex
 10
572.2831856276421
 20
44.03955282504735
 30
0.0
  0
VERTEX
  5
17302
330
172FA
100
AcDbEntity
  8
TEMPLATE
100
AcDbVertex
100
AcDb2dVertex
 10
572.2831856276421
 20
45.81237511424546
 30
0.0
  0
VERTEX
  5
17303
330
172FA
100
AcDbEntity
  8
TEMPLATE
100
AcDbVertex
100
AcDb2dVertex
 10
580.3195574690817
 20
45.81237511424546
 30
0.0
  0
SEQEND
  5
17304
330
172FA
100
AcDbEntity
  8
TEMPLATE
  0
SPLINE
  5
17305
102
{ACAD_REACTORS
330
172F9
330
1730A
102
}
330
A
100
AcDbEntity
  8
TEMPLATE
100
AcDbSpline
210
0.0
220
0.0
230
1.0
 70
     9
 71
     3
 72
    56
 73
    52
 74
     0
 42
0.000000001
 43
0.0000000001
 40
0.0
 40
0.0
 40
0.0
 40
0.0
 40
1.0
 40
1.0
 40
1.0
 40
2.0
 40
2.0
 40
2.0
 40
3.0
 40
3.0
 40
3.0
 40
4.0
 40
4.0
 40
4.0
 40
5.0
 40
5.0
 40
5.0
 40
6.0
 40
6.0
 40
6.0
 40
7.0
 40
7.0
 40
7.0
 40
8.0
 40
8.0
 40
8.0
 40
9.0
 40
9.0
 40
9.0
 40
10.0
 40
10.0
 40
10.0
 40
11.0
 40
11.0
 40
11.0
 40
12.0
 40
12.0
 40
12.0
 40
13.0
 40
13.0
 40
13.0
 40
14.0
 40
14.0
 40
14.0
 40
15.0
 40
15.0
 40
15.0
 40
16.0
 40
16.0
 40
16.0
 40
17.0
 40
17.0
 40
17.0
 40
17.0
 10
584.0822130993691
 20
45.59806442612168
 30
0.0
 10
584.4283729539446
 20
45.69550069232488
 30
0.0
 10
584.875249681945
 20
45.61399880405779
 30
0.0
 10
584.875249681945
 20
45.61399880405779
 30
0.0
 10
584.875249681945
 20
45.61399880405779
 30
0.0
 10
584.6605596038704
 20
44.96972771633077
 30
0.0
 10
584.6605596038704
 20
44.96972771633077
 30
0.0
 10
584.6605596038704
 20
44.96972771633077
 30
0.0
 10
584.2218509183412
 20
45.07124800376956
 30
0.0
 10
583.8834797162866
 20
44.80442528303579
 30
0.0
 10
583.6205401632851
 20
44.59576081006296
 30
0.0
 10
583.4501940753495
 20
44.04131587246591
 30
0.0
 10
583.3848497355777
 20
43.83050896212374
 30
0.0
 10
583.3848497355777
 20
43.83050896212374
 30
0.0
 10
583.0935228874299
 20
42.93630916500407
 30
0.0
 10
583.0935228874299
 20
42.93630916500407
 30
0.0
 10
583.0935228874299
 20
42.93630916500407
 30
0.0
 10
584.0487598325259
 20
42.93630916500407
 30
0.0
 10
584.0487598325259
 20
42.93630916500407
 30
0.0
 10
584.0487598325259
 20
42.93630916500407
 30
0.0
 10
583.9001951911804
 20
42.37351764848811
 30
0.0
 10
583.9001951911804
 20
42.37351764848811
 30
0.0
 10
583.9001951911804
 20
42.37351764848811
 30
0.0
 10
582.9371695935638
 20
42.37351764848811
 30
0.0
 10
582.9371695935638
 20
42.37351764848811
 30
0.0
 10
582.9371695935638
 20
42.37351764848811
 30
0.0
 10
581.2141366561519
 20
36.81237511467916
 30
0.0
 10
581.2141366561519
 20
36.81237511467916
 30
0.0
 10
581.2141366561519
 20
36.81237511467916
 30
0.0
 10
580.6746664630858
 20
36.81237511467916
 30
0.0
 10
580.6746664630858
 20
36.81237511467916
 30
0.0
 10
580.6746664630858
 20
36.81237511467916
 30
0.0
 10
582.3992615944128
 20
42.37351764848811
 30
0.0
 10
582.3992615944128
 20
42.37351764848811
 30
0.0
 10
582.3992615944128
 20
42.37351764848811
 30
0.0
 10
581.6886418993972
 20
42.37351764848811
 30
0.0
 10
581.6886418993972
 20
42.37351764848811
 30
0.0
 10
581.6886418993972
 20
42.37351764848811
 30
0.0
 10
581.8376082477493
 20
42.93630916500407
 30
0.0
 10
581.8376082477493
 20
42.93630916500407
 30
0.0
 10
581.8376082477493
 20
42.93630916500407
 30
0.0
 10
582.5556148882789
 20
42.93630916500407
 30
0.0
 10
582.5556148882789
 20
42.93630916500407
 30
0.0
 10
582.5556148882789
 20
42.93630916500407
 30
0.0
 10
582.8095829847954
 20
43.71615636752356
 30
0.0
 10
582.8095829847954
 20
43.71615636752356
 30
0.0
 10
583.0149445334897
 20
44.36997915518984
 30
0.0
 10
583.1891961062141
 20
44.72100412795849
 30
0.0
 10
583.3385641615731
 20
44.98566209426688
 30
0.0
 10
583.4863477059606
 20
45.25054323113452
 30
0.0
 10
583.7788350410172
 20
45.51073778625616
 30
0.0
 10
584.0822130993691
 20
45.59806442612168
 30
0.0
  0
SPLINE
  5
17306
102
{ACAD_REACTORS
330
172F9
330
1730A
102
}
330
A
100
AcDbEntity
  8
TEMPLATE
100
AcDbSpline
210
0.0
220
0.0
230
1.0
 70
    11
 71
     3
 72
    38
 73
    34
 74
     0
 42
0.000000001
 43
0.0000000001
 40
0.0
 40
0.0
 40
0.0
 40
0.0
 40
1.0
 40
1.0
 40
1.0
 40
2.0
 40
2.0
 40
2.0
 40
3.0
 40
3.0
 40
3.0
 40
4.0
 40
4.0
 40
4.0
 40
5.0
 40
5.0
 40
5.0
 40
6.0
 40
6.0
 40
6.0
 40
7.0
 40
7.0
 40
7.0
 40
8.0
 40
8.0
 40
8.0
 40
9.0
 40
9.0
 40
9.0
 40
10.0
 40
10.0
 40
10.0
 40
11.0
 40
11.0
 40
11.0
 40
11.0
 10
589.9393467460162
 20
42.91472857191693
 30
0.0
 10
589.9393467460162
 20
42.91472857191693
 30
0.0
 10
590.4939702200607
 20
42.91472857191693
 30
0.0
 10
590.4939702200607
 20
42.91472857191693
 30
0.0
 10
590.4939702200607
 20
42.91472857191693
 30
0.0
 10
590.2462062650937
 20
42.12146881878184
 30
0.0
 10
590.2462062650937
 20
42.12146881878184
 30
0.0
 10
590.4344729489438
 20
42.34414840288034
 30
0.0
 10
590.7316022316344
 20
42.6407197591727
 30
0.0
 10
590.9867754491711
 20
42.79026635097919
 30
0.0
 10
591.3679507645053
 20
43.01294593507767
 30
0.0
 10
591.5857652304103
 20
43.04231518068535
 30
0.0
 10
591.8253165087942
 20
43.03646811203097
 30
0.0
 10
591.8253165087942
 20
43.03646811203097
 30
0.0
 10
591.591210592058
 20
42.28639186212602
 30
0.0
 10
591.591210592058
 20
42.28639186212602
 30
0.0
 10
591.4387404659245
 20
42.35095510493986
 30
0.0
 10
590.9688771703129
 20
42.22805507791734
 30
0.0
 10
590.6993317687555
 20
42.03416449597225
 30
0.0
 10
590.4562543955343
 20
41.85933267979383
 30
0.0
 10
590.2882069643594
 20
41.71056718494513
 30
0.0
 10
590.0890941913261
 20
41.3365779616216
 30
0.0
 10
589.8914989780961
 20
40.96203081189956
 30
0.0
 10
589.7355473912369
 20
40.36480407807901
 30
0.0
 10
589.4671624765877
 20
39.49841133265191
 30
0.0
 10
589.4671624765877
 20
39.49841133265191
 30
0.0
 10
588.6289784898597
 20
36.81237511467916
 30
0.0
 10
588.6289784898597
 20
36.81237511467916
 30
0.0
 10
588.6289784898597
 20
36.81237511467916
 30
0.0
 10
588.0906911007581
 20
36.81237511467916
 30
0.0
 10
588.0906911007581
 20
36.81237511467916
 30
0.0
 10
588.0906911007581
 20
36.81237511467916
 30
0.0
 10
589.9393467460162
 20
42.91472857191693
 30
0.0
 10
589.9393467460162
 20
42.91472857191693
 30
0.0
  0
SPLINE
  5
17307
102
{ACAD_REACTORS
330
172F9
330
1730A
102
}
330
A
100
AcDbEntity
  8
TEMPLATE
100
AcDbSpline
210
0.0
220
0.0
230
1.0
 70
    11
 71
     3
 72
   104
 73
   100
 74
     0
 42
0.000000001
 43
0.0000000001
 40
0.0
 40
0.0
 40
0.0
 40
0.0
 40
1.0
 40
1.0
 40
1.0
 40
2.0
 40
2.0
 40
2.0
 40
3.0
 40
3.0
 40
3.0
 40
4.0
 40
4.0
 40
4.0
 40
5.0
 40
5.0
 40
5.0
 40
6.0
 40
6.0
 40
6.0
 40
7.0
 40
7.0
 40
7.0
 40
8.0
 40
8.0
 40
8.0
 40
9.0
 40
9.0
 40
9.0
 40
10.0
 40
10.0
 40
10.0
 40
11.0
 40
11.0
 40
11.0
 40
12.0
 40
12.0
 40
12.0
 40
13.0
 40
13.0
 40
13.0
 40
14.0
 40
14.0
 40
14.0
 40
15.0
 40
15.0
 40
15.0
 40
16.0
 40
16.0
 40
16.0
 40
17.0
 40
17.0
 40
17.0
 40
18.0
 40
18.0
 40
18.0
 40
19.0
 40
19.0
 40
19.0
 40
20.0
 40
20.0
 40
20.0
 40
21.0
 40
21.0
 40
21.0
 40
22.0
 40
22.0
 40
22.0
 40
23.0
 40
23.0
 40
23.0
 40
24.0
 40
24.0
 40
24.0
 40
25.0
 40
25.0
 40
25.0
 40
26.0
 40
26.0
 40
26.0
 40
27.0
 40
27.0
 40
27.0
 40
28.0
 40
28.0
 40
28.0
 40
29.0
 40
29.0
 40
29.0
 40
30.0
 40
30.0
 40
30.0
 40
31.0
 40
31.0
 40
31.0
 40
32.0
 40
32.0
 40
32.0
 40
33.0
 40
33.0
 40
33.0
 40
33.0
 10
592.9921860953021
 20
42.91803149619497
 30
0.0
 10
592.9921860953021
 20
42.91803149619497
 30
0.0
 10
593.4764215749342
 20
42.91803149619497
 30
0.0
 10
593.4764215749342
 20
42.91803149619497
 30
0.0
 10
593.4764215749342
 20
42.91803149619497
 30
0.0
 10
593.2317820077977
 20
42.12401296315815
 30
0.0
 10
593.2317820077977
 20
42.12401296315815
 30
0.0
 10
593.4441064779437
 20
42.4569388035653
 30
0.0
 10
593.6346941356106
 20
42.6053249084632
 30
0.0
 10
593.8879034522252
 20
42.79707305303871
 30
0.0
 10
594.1418715487417
 20
42.9860985167904
 30
0.0
 10
594.4433303402832
 20
43.02461775533059
 30
0.0
 10
594.6525750567102
 20
43.02461775533059
 30
0.0
 10
594.9116314419795
 20
43.02461775533059
 30
0.0
 10
595.1617163707637
 20
42.97346706313235
 30
0.0
 10
595.2931638302082
 20
42.68952716049803
 30
0.0
 10
595.3939030206897
 20
42.46686989345536
 30
0.0
 10
595.3985896024351
 20
42.44060271862234
 30
0.0
 10
595.369800600282
 20
42.0010906190797
 30
0.0
 10
595.6330972261784
 20
42.451694295421
 30
0.0
 10
595.8275680515779
 20
42.64578573086949
 30
0.0
 10
596.1581729181679
 20
42.83226705024477
 30
0.0
 10
596.5051138697007
 20
43.02461775533059
 30
0.0
 10
596.7073510305647
 20
43.03901225640728
 30
0.0
 10
596.9423049954265
 20
43.00437618559953
 30
0.0
 10
597.2884425329456
 20
42.9532478104571
 30
0.0
 10
597.5093813866816
 20
42.8297452229244
 30
0.0
 10
597.6248944681901
 20
42.45441697624481
 30
0.0
 10
597.7408092567058
 20
42.08024921647378
 30
0.0
 10
597.678187597758
 20
41.87955193246918
 30
0.0
 10
597.5350460010043
 20
41.28388739256386
 30
0.0
 10
597.4697016612327
 20
41.01260126064356
 30
0.0
 10
597.3751666123011
 20
40.68411651436711
 30
0.0
 10
597.2514854883208
 20
40.29325559675824
 30
0.0
 10
597.2514854883208
 20
40.29325559675824
 30
0.0
 10
596.1581729181679
 20
36.81237511467916
 30
0.0
 10
596.1581729181679
 20
36.81237511467916
 30
0.0
 10
596.1581729181679
 20
36.81237511467916
 30
0.0
 10
595.5895343329975
 20
36.81237511467916
 30
0.0
 10
595.5895343329975
 20
36.81237511467916
 30
0.0
 10
595.5895343329975
 20
36.81237511467916
 30
0.0
 10
596.5467574960716
 20
39.85548422757835
 30
0.0
 10
596.5467574960716
 20
39.85548422757835
 30
0.0
 10
596.7466736831187
 20
40.49218983334411
 30
0.0
 10
596.8820043102957
 20
40.95716569370618
 30
0.0
 10
596.9520352318129
 20
41.24869339535778
 30
0.0
 10
597.0399197980767
 20
41.61234982178448
 30
0.0
 10
597.0749129417797
 20
41.73234863153571
 30
0.0
 10
597.0333139495209
 20
41.99702891489992
 30
0.0
 10
596.9951964179876
 20
42.24340921239921
 30
0.0
 10
596.8707118799938
 20
42.4038465275009
 30
0.0
 10
596.6575839958343
 20
42.4038465275009
 30
0.0
 10
596.4304410005492
 20
42.4038465275009
 30
0.0
 10
596.2464591914383
 20
42.37856130312887
 30
0.0
 10
595.9890096341962
 20
42.11992894192245
 30
0.0
 10
595.7315154428426
 20
41.85933267979383
 30
0.0
 10
595.5187446315782
 20
41.55343279412156
 30
0.0
 10
595.3519023214237
 20
41.20162672439525
 30
0.0
 10
595.1854170841643
 20
40.8476782172995
 30
0.0
 10
595.0166108730877
 20
40.39903844188015
 30
0.0
 10
594.8454836881942
 20
39.85548422757835
 30
0.0
 10
594.8454836881942
 20
39.85548422757835
 30
0.0
 10
593.8879034522252
 20
36.81237511467916
 30
0.0
 10
593.8879034522252
 20
36.81237511467916
 30
0.0
 10
593.8879034522252
 20
36.81237511467916
 30
0.0
 10
593.3530975238491
 20
36.81237511467916
 30
0.0
 10
593.3530975238491
 20
36.81237511467916
 30
0.0
 10
593.3530975238491
 20
36.81237511467916
 30
0.0
 10
594.4479722879174
 20
40.29169340284293
 30
0.0
 10
594.4479722879174
 20
40.29169340284293
 30
0.0
 10
594.5634853694261
 20
40.66197799488166
 30
0.0
 10
594.6502540828931
 20
40.96379385931832
 30
0.0
 10
594.7074303801932
 20
41.19968514052912
 30
0.0
 10
594.804643475837
 20
41.60574397322828
 30
0.0
 10
594.8318702840752
 20
41.88033302942674
 30
0.0
 10
594.7583579018322
 20
42.12401296315815
 30
0.0
 10
594.6860060064977
 20
42.36691179993202
 30
0.0
 10
594.5588434217921
 20
42.42895321542549
 30
0.0
 10
594.3464743175346
 20
42.42895321542549
 30
0.0
 10
594.168339577078
 20
42.42895321542549
 30
0.0
 10
593.9944897113607
 20
42.3525172988552
 30
0.0
 10
593.7961357182293
 20
42.20042656267251
 30
0.0
 10
593.5464078623398
 20
42.00908012510374
 30
0.0
 10
593.4464720858723
 20
41.85194573428018
 30
0.0
 10
593.3239514488007
 20
41.66524124434543
 30
0.0
 10
593.1586266984497
 20
41.41825838633597
 30
0.0
 10
593.0812311484743
 20
41.25199631963583
 30
0.0
 10
592.941615646558
 20
40.8871570892447
 30
0.0
 10
592.8019555105301
 20
40.52017542148403
 30
0.0
 10
592.6697492711836
 20
40.09311623915196
 30
0.0
 10
592.5775351960687
 20
39.7977276868239
 30
0.0
 10
592.5775351960687
 20
39.7977276868239
 30
0.0
 10
591.6382549459647
 20
36.81237511467916
 30
0.0
 10
591.6382549459647
 20
36.81237511467916
 30
0.0
 10
591.6382549459647
 20
36.81237511467916
 30
0.0
 10
591.0781861102722
 20
36.81237511467916
 30
0.0
 10
591.0781861102722
 20
36.81237511467916
 30
0.0
 10
591.0781861102722
 20
36.81237511467916
 30
0.0
 10
592.9921860953021
 20
42.91803149619497
 30
0.0
 10
592.9921860953021
 20
42.91803149619497
 30
0.0
  0
SPLINE
  5
17308
102
{ACAD_REACTORS
330
172F9
330
1730A
102
}
330
A
100
AcDbEntity
  8
TEMPLATE
100
AcDbSpline
210
0.0
220
0.0
230
1.0
 70
     9
 71
     3
 72
    32
 73
    28
 74
     0
 42
0.000000001
 43
0.0000000001
 40
0.0
 40
0.0
 40
0.0
 40
0.0
 40
1.0
 40
1.0
 40
1.0
 40
2.0
 40
2.0
 40
2.0
 40
3.0
 40
3.0
 40
3.0
 40
4.0
 40
4.0
 40
4.0
 40
5.0
 40
5.0
 40
5.0
 40
6.0
 40
6.0
 40
6.0
 40
7.0
 40
7.0
 40
7.0
 40
8.0
 40
8.0
 40
8.0
 40
9.0
 40
9.0
 40
9.0
 40
9.0
 10
585.394880012287
 20
42.5961972325865
 30
0.0
 10
585.0701222143512
 20
42.17612328876155
 30
0.0
 10
584.8200372855671
 20
41.79807236125814
 30
0.0
 10
584.4151612568322
 20
40.60984535222242
 30
0.0
 10
584.0429350809272
 20
39.52296009417805
 30
0.0
 10
583.8060618492555
 20
38.73222216836346
 30
0.0
 10
583.7702876085951
 20
37.76919657074652
 30
0.0
 10
583.7430608003566
 20
37.05255127062911
 30
0.0
 10
584.1794485120689
 20
36.81237511467916
 30
0.0
 10
584.8192785056652
 20
36.81237511467916
 30
0.0
 10
585.0950280487722
 20
36.81237511467916
 30
0.0
 10
585.7908738527602
 20
36.82991632064247
 30
0.0
 10
586.2864017626947
 20
37.44247487188884
 30
0.0
 10
586.6332980801157
 20
37.87283697849896
 30
0.0
 10
586.9530122234106
 20
38.3189549265978
 30
0.0
 10
587.3816335996577
 20
39.78237355234213
 30
0.0
 10
587.7383047875777
 20
41.00579455858404
 30
0.0
 10
587.9852653285309
 20
41.79651016734281
 30
0.0
 10
587.967009976778
 20
42.24671213667735
 30
0.0
 10
587.967009976778
 20
42.24671213667735
 30
0.0
 10
587.967009976778
 20
42.24671213667735
 30
0.0
 10
587.967009976778
 20
42.24671213667735
 30
0.0
 10
587.8506934812556
 20
42.99777033704319
 30
0.0
 10
587.305398536591
 20
43.1564669217822
 30
0.0
 10
586.9938524357677
 20
43.1564669217822
 30
0.0
 10
586.6869929166901
 20
43.1564669217822
 30
0.0
 10
585.8647433078982
 20
43.20955919784657
 30
0.0
 10
585.394880012287
 20
42.5961972325865
 30
0.0
  0
SPLINE
  5
17309
102
{ACAD_REACTORS
330
172F9
330
1730A
102
}
330
A
100
AcDbEntity
  8
TEMPLATE
100
AcDbSpline
210
0.0
220
0.0
230
1.0
 70
     9
 71
     3
 72
    29
 73
    25
 74
     0
 42
0.000000001
 43
0.0000000001
 40
0.0
 40
0.0
 40
0.0
 40
0.0
 40
1.0
 40
1.0
 40
1.0
 40
2.0
 40
2.0
 40
2.0
 40
3.0
 40
3.0
 40
3.0
 40
4.0
 40
4.0
 40
4.0
 40
5.0
 40
5.0
 40
5.0
 40
6.0
 40
6.0
 40
6.0
 40
7.0
 40
7.0
 40
7.0
 40
8.0
 40
8.0
 40
8.0
 40
8.0
 10
584.3513791109763
 20
37.94925057801331
 30
0.0
 10
584.3490135030472
 20
38.37439049353518
 30
0.0
 10
584.4832282774278
 20
39.12973356864029
 30
0.0
 10
584.82704484113
 20
40.1403837636178
 30
0.0
 10
585.2953459428261
 20
41.50888795047953
 30
0.0
 10
585.5761837746857
 20
42.00908012510374
 30
0.0
 10
585.8219391946189
 20
42.25255920533161
 30
0.0
 10
586.1809759904676
 20
42.60708795588196
 30
0.0
 10
586.6636492761844
 20
42.62476306418077
 30
0.0
 10
586.8060320930363
 20
42.60708795588196
 30
0.0
 10
587.0086709609071
 20
42.58276236491495
 30
0.0
 10
587.2949095203023
 20
42.45013210150577
 30
0.0
 10
587.3120043851471
 20
42.00363476345613
 30
0.0
 10
587.3256624233778
 20
41.621499814717
 30
0.0
 10
587.2155500694051
 20
40.90583646506057
 30
0.0
 10
586.8301345134438
 20
39.78237355234213
 30
0.0
 10
586.3859358321552
 20
38.47687041437903
 30
0.0
 10
586.1191131114212
 20
37.96366739614585
 30
0.0
 10
585.9052264473606
 20
37.74000586158636
 30
0.0
 10
585.5022696854359
 20
37.32071301471897
 30
0.0
 10
585.0701222143512
 20
37.36097298362186
 30
0.0
 10
585.0063400684948
 20
37.36097298362186
 30
0.0
 10
584.923499156872
 20
37.36097298362186
 30
0.0
 10
584.3525395978846
 20
37.45086608491963
 30
0.0
 10
584.3513791109763
 20
37.94925057801331
 30
0.0
  0
ARC
  5
18AD7
330
A
100
AcDbEntity
  8
0
  6
Continuous
 62
     7
370
    15
100
AcDbCircle
 10
362.7795111411275
 20
605.2946516341702
 30
0.0
 40
9.032727351245132
100
AcDbArc
 50
270.0000407599047
 51
89.99995924009608
  0
ARC
  5
18AD8
330
A
100
AcDbEntity
  8
0
  6
Continuous
 62
     7
370
    15
100
AcDbCircle
 10
86.59931094239547
 20
605.2946519846861
 30
0.0
 40
9.032727351244931
100
AcDbArc
 50
90.00003890865192
 51
269.999961091349
  0
ARC
  5
18AD9
330
A
100
AcDbEntity
  8
0
  6
Continuous
 62
     7
370
    15
100
AcDbCircle
 10
86.59932522504247
 20
605.2946756728053
 30
0.0
 40
9.032751039385667
100
AcDbArc
 50
180.0001524798333
 51
269.9998704949765
  0
ARC
  5
18ADA
102
{ACAD_REACTORS
330
18BC5
102
}
330
A
100
AcDbEntity
  8
0
  6
Continuous
 62
     7
370
    15
100
AcDbCircle
 10
86.59932579137803
 20
605.2946277302327
 30
0.0
 40
9.032751605720633
100
AcDbArc
 50
90.0001330973469
 51
179.9998483745839
  0
LINE
  5
18ADB
330
A
100
AcDbEntity
  8
0
  6
Continuous
 62
     7
370
    15
100
AcDbLine
 10
478.4130666666666
 20
596.2619243545037
 30
0.0
 11
538.631248484849
 21
596.2619243545037
 31
0.0
  0
LINE
  5
18ADC
330
A
100
AcDbEntity
  8
0
  6
Continuous
 62
     7
370
    15
100
AcDbLine
 10
538.631248484849
 20
614.3273788999572
 30
0.0
 11
478.4130666666666
 21
614.3273788999572
 31
0.0
  0
ARC
  5
18ADD
330
A
100
AcDbEntity
  8
0
  6
Continuous
 62
     7
370
    15
100
AcDbCircle
 10
538.631248484849
 20
605.2946516272298
 30
0.0
 40
9.032727272727047
100
AcDbArc
 50
270.0000000000036
 51
90.0
  0
LINE
  5
18ADE
102
{ACAD_REACTORS
330
18BD4
102
}
330
A
100
AcDbEntity
  8
0
  6
Continuous
 62
     7
370
    15
100
AcDbLine
 10
478.4130666666666
 20
596.2619243545037
 30
0.0
 11
478.4130666666666
 21
614.3273788999572
 31
0.0
  0
ARC
  5
18ADF
330
A
100
AcDbEntity
  8
0
  6
Continuous
 62
     7
370
    15
100
AcDbCircle
 10
538.6312484848532
 20
605.2946516272307
 30
0.0
 40
9.032727272727273
100
AcDbArc
 50
270.0000000000021
 51
0.0
  0
ARC
  5
18AE0
330
A
100
AcDbEntity
  8
0
  6
Continuous
 62
     7
370
    15
100
AcDbCircle
 10
538.6312484848532
 20
605.2946516272307
 30
0.0
 40
9.032727272727273
100
AcDbArc
 50
0.0
 51
90.0
  0
LINE
  5
18AE1
330
A
100
AcDbEntity
  8
0
  6
Continuous
 62
     7
370
    15
100
AcDbLine
 10
353.7467772469226
 20
387.8016756194053
 30
0.0
 11
353.7467772469226
 21
336.6162220310931
 31
0.0
  0
LINE
  5
18AE2
330
A
100
AcDbEntity
  8
0
  6
Continuous
 62
     7
370
    15
100
AcDbLine
 10
371.8122384923729
 20
318.5507682633166
 30
0.0
 11
371.8122384923729
 21
387.8016756194053
 31
0.0
  0
LWPOLYLINE
  5
18AE3
330
A
100
AcDbEntity
  8
0
  6
Continuous
 62
     7
370
    15
100
AcDbPolyline
 90
       20
 70
   128
 43
0.0
 10
371.8122384923729
 20
318.5507682633166
 10
371.7796956567904
 20
318.5833073600621
 10
371.5207587747713
 20
318.8422255478971
 10
371.010392595045
 20
319.3526141606443
 10
370.2631935365123
 20
320.0997907861562
 10
369.3007272098854
 20
321.0622608516198
 10
368.1506610075484
 20
322.2123345316306
 10
366.8460761575839
 20
323.5169268592687
 10
365.4244806708563
 20
324.9385055212306
 10
363.9268222880937
 20
326.436176989922
 10
362.3961424986372
 20
327.9668530405417
 10
360.8764997554398
 20
329.4865032614127
 10
359.411593583121
 20
330.9514056948947
 10
358.0435681501875
 20
332.3194180418994
 10
356.8118158412552
 20
333.5511890450157
 10
355.7517210078811
 20
334.6112782701344
 10
354.8937925584239
 20
335.4691917642446
 10
354.2627367265147
 20
336.1002494655722
 10
353.8767093036964
 20
336.486293713156
 10
353.7467772469226
 20
336.6162220310931
  0
LINE
  5
18AE4
102
{ACAD_REACTORS
330
18B1C
102
}
330
A
100
AcDbEntity
  8
0
  6
Continuous
 62
     7
370
    15
100
AcDbLine
 10
353.7467772469226
 20
387.8016756194053
 30
0.0
 11
371.8122384923729
 21
387.8016756194053
 31
0.0
  0
LWPOLYLINE
  5
18AE5
330
A
100
AcDbEntity
  8
0
  6
Continuous
 62
     7
370
    15
100
AcDbPolyline
 90
       20
 70
   128
 43
0.0
 10
371.8122384923729
 20
318.5507682633166
 10
371.7796956567904
 20
318.5833073600621
 10
371.5207587747713
 20
318.8422255478971
 10
371.010392595045
 20
319.3526141606443
 10
370.2631935365123
 20
320.0997907861562
 10
369.3007272098854
 20
321.0622608516198
 10
368.1506610075484
 20
322.2123345316306
 10
366.8460761575839
 20
323.5169268592687
 10
365.4244806708563
 20
324.9385055212306
 10
363.9268222880937
 20
326.436176989922
 10
362.3961424986372
 20
327.9668530405417
 10
360.8764997554398
 20
329.4865032614127
 10
359.411593583121
 20
330.9514056948947
 10
358.0435681501875
 20
332.3194180418994
 10
356.8118158412552
 20
333.5511890450157
 10
355.7517210078811
 20
334.6112782701344
 10
354.8937925584239
 20
335.4691917642446
 10
354.2627367265147
 20
336.1002494655722
 10
353.8767093036964
 20
336.486293713156
 10
353.7467772469226
 20
336.6162220310931
  0
LINE
  5
18AE6
330
A
100
AcDbEntity
  8
0
  6
Continuous
 62
     7
370
    15
100
AcDbLine
 10
77.56657418568919
 20
387.8016756194052
 30
0.0
 11
77.56657418568919
 21
318.5507682633165
 31
0.0
  0
LINE
  5
18AE7
330
A
100
AcDbEntity
  8
0
  6
Continuous
 62
     7
370
    15
100
AcDbLine
 10
95.63203543113946
 20
336.6162220310929
 30
0.0
 11
95.63203543113946
 21
387.8016756194052
 31
0.0
  0
LWPOLYLINE
  5
18AE8
330
A
100
AcDbEntity
  8
0
  6
Continuous
 62
     7
370
    15
100
AcDbPolyline
 90
       20
 70
   128
 43
0.0
 10
95.63203543113946
 20
336.6162220310929
 10
95.50210337436551
 20
336.486293713156
 10
95.11607595154725
 20
336.1002494655721
 10
94.48502011963819
 20
335.4691917642445
 10
93.62709167018083
 20
334.6112782701344
 10
92.56699683680679
 20
333.5511890450157
 10
91.3352445278746
 20
332.3194180418993
 10
89.96721909494116
 20
330.9514056948947
 10
88.50231292262224
 20
329.4865032614126
 10
86.98267017942475
 20
327.9668530405417
 10
85.4519903899683
 20
326.436176989922
 10
83.95433200720573
 20
324.9385055212306
 10
82.53273652047827
 20
323.5169268592686
 10
81.22815167051362
 20
322.2123345316305
 10
80.07808546817669
 20
321.0622608516198
 10
79.11561914154981
 20
320.0997907861561
 10
78.36842008301708
 20
319.3526141606442
 10
77.85805390329063
 20
318.842225547897
 10
77.59911702127171
 20
318.5833073600621
 10
77.56657418568919
 20
318.5507682633165
  0
LINE
  5
18AE9
330
A
100
AcDbEntity
  8
0
  6
Continuous
 62
     7
370
    15
100
AcDbLine
 10
77.56657418568919
 20
387.8016756194052
 30
0.0
 11
95.63203543113946
 21
387.8016756194052
 31
0.0
  0
LWPOLYLINE
  5
18AEA
330
A
100
AcDbEntity
  8
0
  6
Continuous
 62
     7
370
    15
100
AcDbPolyline
 90
       20
 70
   128
 43
0.0
 10
95.63203543113946
 20
336.6162220310929
 10
95.59949259555692
 20
336.583681064929
 10
95.34058562423249
 20
336.3247610076756
 10
94.83018953381169
 20
335.8143723949283
 10
94.08302038597344
 20
335.0671957694165
 10
93.12055405934644
 20
334.1047257039528
 10
91.97045794631485
 20
332.9546538933606
 10
90.66587309635037
 20
331.6500615657225
 10
89.24430752031737
 20
330.2284829037604
 10
87.74661922686034
 20
328.7308114350691
 10
86.21593943740373
 20
327.200133515031
 10
84.69629669420637
 20
325.6804851635785
 10
83.23139052188762
 20
324.2155827300964
 10
81.8633949996485
 20
322.8475685136733
 10
80.63161278002178
 20
321.6157993799754
 10
79.5715179466479
 20
320.5557082854382
 10
78.71361940788503
 20
319.6977947913282
 10
78.08256357597585
 20
319.066738959419
 10
77.69650624246311
 20
318.6806928424166
 10
77.56657418568919
 20
318.5507682633165
  0
LINE
  5
18AEB
330
A
100
AcDbEntity
  8
MODEL
100
AcDbLine
 10
77.56657418568919
 20
318.5507682633165
 30
0.0
 11
221.1685528876055
 21
318.5507682633164
 31
0.0
  0
LINE
  5
18AEC
102
{ACAD_REACTORS
330
18B1C
330
18BE4
102
}
330
A
100
AcDbEntity
  8
MODEL
100
AcDbLine
 10
237.9271807938067
 20
318.5507682633166
 30
0.0
 11
371.8122384923729
 21
318.5507682633166
 31
0.0
  0
LINE
  5
18AED
330
A
100
AcDbEntity
  8
MODEL
100
AcDbLine
 10
95.50210337436551
 20
336.486293713156
 30
0.0
 11
211.451631884255
 21
336.486293713156
 31
0.0
  0
LINE
  5
18AEE
102
{ACAD_REACTORS
330
18BE4
102
}
330
A
100
AcDbEntity
  8
MODEL
100
AcDbLine
 10
228.5779595851241
 20
336.486293713156
 30
0.0
 11
353.8767093036964
 21
336.486293713156
 31
0.0
  0
LINE
  5
18AEF
330
A
100
AcDbEntity
  8
MODEL
100
AcDbLine
 10
86.59930480841412
 20
614.3273793359289
 30
0.0
 11
211.4516318842551
 21
614.3273792610074
 31
0.0
  0
LINE
  5
18AF0
330
A
100
AcDbEntity
  8
MODEL
100
AcDbLine
 10
229.5428746961102
 20
614.3273790603342
 30
0.0
 11
362.7795175669603
 21
614.327378985413
 31
0.0
  0
LINE
  5
18AF1
330
A
100
AcDbEntity
  8
MODEL
100
AcDbLine
 10
86.59930480841429
 20
596.2619246334432
 30
0.0
 11
221.0810027135107
 21
596.2619245585217
 31
0.0
  0
LINE
  5
18AF2
330
A
100
AcDbEntity
  8
MODEL
100
AcDbLine
 10
237.9271807938065
 20
596.2619243578483
 30
0.0
 11
362.7795175669604
 21
596.2619242829268
 31
0.0
  0
SPLINE
  5
18AF3
330
A
100
AcDbEntity
  8
MODEL
100
AcDbSpline
210
0.0
220
0.0
230
1.0
 70
  1064
 71
     3
 72
    10
 73
     6
 74
     4
 42
0.000000001
 43
0.0000000001
 44
0.0000000001
 40
0.0
 40
0.0
 40
0.0
 40
0.0
 40
16.02910849605203
 40
27.9311658753498
 40
49.22221337311945
 40
49.22221337311945
 40
49.22221337311945
 40
49.22221337311945
 10
219.8942510416543
 20
625.318185773816
 30
0.0
 10
215.7239910617126
 20
620.0294394816852
 30
0.0
 10
208.4571974485947
 20
610.8136524655495
 30
0.0
 10
228.4344933208258
 20
600.7979945915863
 30
0.0
 10
220.167202264698
 20
589.3356460959085
 30
0.0
 10
214.8643151980677
 20
581.9833538906058
 30
0.0
 11
219.8942510416543
 21
625.318185773816
 31
0.0
 11
213.5101017017172
 21
610.6152963848698
 31
0.0
 11
221.8288417507263
 21
602.1030972649533
 31
0.0
 11
214.8643151980677
 21
581.9833538906058
 31
0.0
  0
SPLINE
  5
18AF4
330
A
100
AcDbEntity
  8
MODEL
100
AcDbSpline
210
0.0
220
0.0
230
1.0
 70
  1064
 71
     3
 72
    10
 73
     6
 74
     4
 42
0.000000001
 43
0.0000000001
 44
0.0000000001
 40
0.0
 40
0.0
 40
0.0
 40
0.0
 40
16.02910849605212
 40
27.93116587534925
 40
49.22221337311926
 40
49.22221337311926
 40
49.22221337311926
 40
49.22221337311926
 10
234.3682978963196
 20
626.0384022311106
 30
0.0
 10
230.1980379163778
 20
620.7496559389796
 30
0.0
 10
222.93124430326
 20
611.5338689228441
 30
0.0
 10
242.908540175491
 20
601.5182110488813
 30
0.0
 10
234.6412491193631
 20
590.0558625532035
 30
0.0
 10
229.3383620527327
 20
582.7035703479006
 30
0.0
 11
234.3682978963196
 21
626.0384022311106
 31
0.0
 11
227.9841485563825
 21
611.3355128421642
 31
0.0
 11
236.3028886053914
 21
602.8233137222484
 31
0.0
 11
229.3383620527327
 21
582.7035703479006
 31
0.0
  0
SPLINE
  5
18AF5
330
A
100
AcDbEntity
  8
MODEL
100
AcDbSpline
210
0.0
220
0.0
230
1.0
 70
  1064
 71
     3
 72
    10
 73
     6
 74
     4
 42
0.000000001
 43
0.0000000001
 44
0.0000000001
 40
0.0
 40
0.0
 40
0.0
 40
0.0
 40
16.02910849605196
 40
27.93116587534965
 40
49.22221337311933
 40
49.22221337311933
 40
49.22221337311933
 40
49.22221337311933
 10
219.8942510416545
 20
347.4876682589283
 30
0.0
 10
215.7239910617128
 20
342.1989219667975
 30
0.0
 10
208.4571974485949
 20
332.983134950662
 30
0.0
 10
228.4344933208258
 20
322.9674770766987
 30
0.0
 10
220.1672022646981
 20
311.505128581021
 30
0.0
 10
214.8643151980679
 20
304.1528363757182
 30
0.0
 11
219.8942510416545
 21
347.4876682589283
 31
0.0
 11
213.5101017017173
 21
332.7847788699822
 31
0.0
 11
221.8288417507264
 21
324.2725797500657
 31
0.0
 11
214.8643151980679
 21
304.1528363757182
 31
0.0
  0
SPLINE
  5
18AF6
330
A
100
AcDbEntity
  8
MODEL
100
AcDbSpline
210
0.0
220
0.0
230
1.0
 70
  1064
 71
     3
 72
    10
 73
     6
 74
     4
 42
0.000000001
 43
0.0000000001
 44
0.0000000001
 40
0.0
 40
0.0
 40
0.0
 40
0.0
 40
16.02910849605196
 40
27.93116587534939
 40
49.22221337311917
 40
49.22221337311917
 40
49.22221337311917
 40
49.22221337311917
 10
234.3682978963197
 20
348.2078847162228
 30
0.0
 10
230.198037916378
 20
342.9191384240921
 30
0.0
 10
222.9312443032601
 20
333.7033514079565
 30
0.0
 10
242.908540175491
 20
323.6876935339934
 30
0.0
 10
234.6412491193632
 20
312.2253450383158
 30
0.0
 10
229.3383620527328
 20
304.873052833013
 30
0.0
 11
234.3682978963197
 21
348.2078847162228
 31
0.0
 11
227.9841485563826
 21
333.5049953272767
 31
0.0
 11
236.3028886053916
 21
324.9927962073605
 31
0.0
 11
229.3383620527328
 21
304.873052833013
 31
0.0
  0
LINE
  5
18AF7
330
A
100
AcDbEntity
  8
MODEL
 62
     0
370
     5
100
AcDbLine
 10
86.59930480841458
 20
428.118604799692
 30
0.0
 11
84.62287230885811
 21
423.0005466620876
 31
0.0
  0
LINE
  5
18AF8
102
{ACAD_REACTORS
330
18B19
102
}
330
A
100
AcDbEntity
  8
MODEL
 62
     0
370
     5
100
AcDbLine
 10
86.59930480841458
 20
428.118604799692
 30
0.0
 11
88.5757373079698
 21
423.0005466620879
 31
0.0
  0
LINE
  5
18AF9
330
A
100
AcDbEntity
  8
MODEL
 62
     0
370
     5
100
AcDbLine
 10
89.01373453138381
 20
426.0192801313507
 30
0.0
 11
83.50818940586803
 21
421.3788920969873
 31
0.0
  0
LINE
  5
18AFA
330
A
100
AcDbEntity
  8
MODEL
 62
     0
370
     5
100
AcDbLine
 10
89.7322110972788
 20
422.7026796923968
 30
0.0
 11
83.63064764837856
 21
417.5599333568949
 31
0.0
  0
LINE
  5
18AFB
330
A
100
AcDbEntity
  8
MODEL
 62
     0
370
     5
100
AcDbLine
 10
89.71709196906706
 20
419.2311795529668
 30
0.0
 11
83.47264225754846
 21
413.9680005104011
 31
0.0
  0
LINE
  5
18AFC
330
A
100
AcDbEntity
  8
MODEL
 62
     0
370
     5
100
AcDbLine
 10
89.97890041093581
 20
415.5978032941228
 30
0.0
 11
83.0613866624906
 21
409.7673274204328
 31
0.0
  0
LINE
  5
18AFD
330
A
100
AcDbEntity
  8
MODEL
 62
     0
370
     5
100
AcDbLine
 10
89.97890041093581
 20
411.4472950450553
 30
0.0
 11
83.0613866624906
 21
405.6168191713657
 31
0.0
  0
LINE
  5
18AFE
330
A
100
AcDbEntity
  8
MODEL
 62
     0
370
     5
100
AcDbLine
 10
84.62287230885811
 20
423.0005466620876
 30
0.0
 11
84.62287230885811
 21
387.8016756194052
 31
0.0
  0
LINE
  5
18AFF
330
A
100
AcDbEntity
  8
MODEL
 62
     0
370
     5
100
AcDbLine
 10
90.01052686453279
 20
407.4578577800335
 30
0.0
 11
83.09301311608738
 21
401.6273819063441
 31
0.0
  0
LINE
  5
18B00
330
A
100
AcDbEntity
  8
MODEL
 62
     0
370
     5
100
AcDbLine
 10
90.01052686453279
 20
403.3073495309663
 30
0.0
 11
83.09301311608738
 21
397.4768736572768
 31
0.0
  0
LINE
  5
18B01
330
A
100
AcDbEntity
  8
MODEL
 62
     0
370
     5
100
AcDbLine
 10
90.01052686453279
 20
398.9208417530623
 30
0.0
 11
83.09301311608738
 21
393.0903658793725
 31
0.0
  0
LINE
  5
18B02
330
A
100
AcDbEntity
  8
MODEL
 62
     0
370
     5
100
AcDbLine
 10
88.5757373079698
 20
423.0005466620873
 30
0.0
 11
88.57573730797042
 21
387.8016756194052
 31
0.0
  0
LINE
  5
18B03
330
A
100
AcDbEntity
  8
MODEL
 62
     0
370
     5
100
AcDbLine
 10
89.97890041093581
 20
394.679098111016
 30
0.0
 11
83.0613866624906
 21
388.8486222373261
 31
0.0
  0
LINE
  5
18B04
330
A
100
AcDbEntity
  8
MODEL
 62
     0
370
     5
100
AcDbLine
 10
89.97890041093581
 20
390.5285898619487
 30
0.0
 11
86.7435784282574
 21
387.8016756194052
 31
0.0
  0
LINE
  5
18B05
330
A
100
AcDbEntity
  8
MODEL
 62
     0
370
     5
100
AcDbLine
 10
88.07537764563113
 20
428.1087006818105
 30
0.0
 11
84.13856931378687
 21
424.7905336592561
 31
0.0
  0
LINE
  5
18B06
330
A
100
AcDbEntity
  8
MODEL
370
     5
100
AcDbLine
 10
84.62287230885811
 20
387.8016756194052
 30
0.0
 11
88.57573730797042
 21
387.8016756194052
 31
0.0
  0
LINE
  5
18B07
330
A
100
AcDbEntity
  8
MODEL
 62
     0
370
     5
100
AcDbLine
 10
362.779507869648
 20
428.118604799692
 30
0.0
 11
360.8030753700916
 21
423.0005466620877
 31
0.0
  0
LINE
  5
18B08
102
{ACAD_REACTORS
330
18B19
102
}
330
A
100
AcDbEntity
  8
MODEL
 62
     0
370
     5
100
AcDbLine
 10
362.779507869648
 20
428.118604799692
 30
0.0
 11
364.7559403692032
 21
423.0005466620879
 31
0.0
  0
LINE
  5
18B09
330
A
100
AcDbEntity
  8
MODEL
 62
     0
370
     5
100
AcDbLine
 10
365.1939375926172
 20
426.0192801313507
 30
0.0
 11
359.6883924671015
 21
421.3788920969875
 31
0.0
  0
LINE
  5
18B0A
330
A
100
AcDbEntity
  8
MODEL
 62
     0
370
     5
100
AcDbLine
 10
365.9124141585123
 20
422.7026796923968
 30
0.0
 11
359.8108507096119
 21
417.559933356895
 31
0.0
  0
LINE
  5
18B0B
330
A
100
AcDbEntity
  8
MODEL
 62
     0
370
     5
100
AcDbLine
 10
365.8972950303005
 20
419.2311795529668
 30
0.0
 11
359.6528453187819
 21
413.9680005104011
 31
0.0
  0
LINE
  5
18B0C
330
A
100
AcDbEntity
  8
MODEL
 62
     0
370
     5
100
AcDbLine
 10
366.1591034721692
 20
415.5978032941228
 30
0.0
 11
359.2415897237239
 21
409.7673274204329
 31
0.0
  0
LINE
  5
18B0D
330
A
100
AcDbEntity
  8
MODEL
 62
     0
370
     5
100
AcDbLine
 10
366.1591034721692
 20
411.4472950450553
 30
0.0
 11
359.2415897237239
 21
405.6168191713657
 31
0.0
  0
LINE
  5
18B0E
330
A
100
AcDbEntity
  8
MODEL
 62
     0
370
     5
100
AcDbLine
 10
360.8030753700916
 20
423.0005466620877
 30
0.0
 11
360.8030753700916
 21
387.8016756194053
 31
0.0
  0
LINE
  5
18B0F
330
A
100
AcDbEntity
  8
MODEL
 62
     0
370
     5
100
AcDbLine
 10
366.1907299257663
 20
407.4578577800336
 30
0.0
 11
359.2732161773207
 21
401.6273819063441
 31
0.0
  0
LINE
  5
18B10
330
A
100
AcDbEntity
  8
MODEL
 62
     0
370
     5
100
AcDbLine
 10
366.1907299257663
 20
403.3073495309663
 30
0.0
 11
359.2732161773207
 21
397.4768736572768
 31
0.0
  0
LINE
  5
18B11
330
A
100
AcDbEntity
  8
MODEL
 62
     0
370
     5
100
AcDbLine
 10
366.1907299257663
 20
398.9208417530623
 30
0.0
 11
359.2732161773207
 21
393.0903658793727
 31
0.0
  0
LINE
  5
18B12
330
A
100
AcDbEntity
  8
MODEL
 62
     0
370
     5
100
AcDbLine
 10
364.7559403692032
 20
423.0005466620876
 30
0.0
 11
364.7559403692038
 21
387.8016756194053
 31
0.0
  0
LINE
  5
18B13
330
A
100
AcDbEntity
  8
MODEL
 62
     0
370
     5
100
AcDbLine
 10
366.1591034721692
 20
394.679098111016
 30
0.0
 11
359.2415897237239
 21
388.8486222373262
 31
0.0
  0
LINE
  5
18B14
330
A
100
AcDbEntity
  8
MODEL
 62
     0
370
     5
100
AcDbLine
 10
366.1591034721692
 20
390.5285898619487
 30
0.0
 11
362.9237814894909
 21
387.8016756194053
 31
0.0
  0
LINE
  5
18B15
330
A
100
AcDbEntity
  8
MODEL
 62
     0
370
     5
100
AcDbLine
 10
364.2555807068645
 20
428.1087006818108
 30
0.0
 11
360.3187723750203
 21
424.7905336592561
 31
0.0
  0
LINE
  5
18B16
330
A
100
AcDbEntity
  8
MODEL
370
     5
100
AcDbLine
 10
360.8030753700916
 20
387.8016756194053
 30
0.0
 11
364.7559403692038
 21
387.8016756194053
 31
0.0
  0
DIMENSION
  5
18B17
102
{ACAD_XDICTIONARY
360
18B18
102
}
102
{ACAD_REACTORS
330
18B19
102
}
330
A
100
AcDbEntity
  8
DIM
100
AcDbDimension
280
     0
  2
*D24
 10
362.779507869648
 20
467.1236968612631
 30
0.0
 11
224.6894063390313
 21
477.1251974239741
 31
0.0
 70
    32
  1
432
 71
     5
 42
276.1802030612334
 73
     0
 74
     0
 75
     0
  3
tfrom線あり
100
AcDbAlignedDimension
 13
86.59930480841458
 23
428.118604799692
 33
0.0
 14
362.779507869648
 24
428.118604799692
 34
0.0
100
AcDbRotatedDimension
  0
DIMENSION
  5
18B1A
102
{ACAD_XDICTIONARY
360
18B1B
102
}
102
{ACAD_REACTORS
330
18B1C
102
}
330
A
100
AcDbEntity
  8
DIM
100
AcDbDimension
280
     0
  2
*D25
 10
415.3717931115338
 20
387.8016756194053
 30
0.0
 11
405.3717931115338
 21
353.176221941361
 31
0.0
 70
    32
 71
     5
 42
69.25090735608876
 73
     0
 74
     0
 75
     0
  3
tfrom線あり
100
AcDbAlignedDimension
 13
371.8122384923729
 23
318.5507682633166
 33
0.0
 14
371.8122384923729
 24
387.8016756194053
 34
0.0
 50
90.0
100
AcDbRotatedDimension
  0
MTEXT
  5
18B6B
330
A
100
AcDbEntity
  8
TEMPLATE
390
1D
100
AcDbMText
 10
397.8109909698283
 20
94.17151282327916
 30
0.0
 40
7.0
 41
0.0
 46
7.0
 71
     1
 72
     1
  1
{FRF74-3202}
  7
ＭＳ ゴシック
 73
     1
 44
0.7828267384257845
1001
ACAD
1000
ACAD_MTEXT_DEFINED_HEIGHT_BEGIN
1070
    46
1040
7.0
1000
ACAD_MTEXT_DEFINED_HEIGHT_END
  0
MTEXT
  5
18B6C
330
A
100
AcDbEntity
  8
TEMPLATE
390
1D
100
AcDbMText
 10
39.98532165720937
 20
94.78811697262242
 30
0.0
 40
7.0
 41
0.0
 46
14.26273505366026
 71
     1
 72
     1
  1
{タオルバー　-LANGBERGER,Campo-}
  7
ＭＳ ゴシック
 73
     1
 44
0.7828267384257845
1001
ACAD
1000
ACAD_MTEXT_DEFINED_HEIGHT_BEGIN
1070
    46
1040
14.26273505366026
1000
ACAD_MTEXT_DEFINED_HEIGHT_END
  0
MTEXT
  5
18B6D
330
A
100
AcDbEntity
  8
TEMPLATE
390
1D
100
AcDbMText
 10
38.76156431810858
 20
67.46303468995586
 30
0.0
 40
7.0
 41
0.0
 46
13.64252481368746
 71
     1
 72
     1
  1
{固定ビス付属}
  7
ＭＳ ゴシック
 73
     1
 44
0.9331787841240656
1001
ACAD
1000
ACAD_MTEXT_DEFINED_HEIGHT_BEGIN
1070
    46
1040
13.64252481368746
1000
ACAD_MTEXT_DEFINED_HEIGHT_END
  0
MTEXT
  5
18B6E
330
A
100
AcDbEntity
  8
TEMPLATE
390
1D
100
AcDbMText
 10
39.13693279662274
 20
56.00861296314204
 30
0.0
 40
7.0
 41
0.0
 46
14.20067583937727
 71
     1
 72
     1
  1
耐荷重：3kgf
  7
ＭＳ ゴシック
 73
     1
 44
0.9331787841240656
1001
ACAD
1000
ACAD_MTEXT_DEFINED_HEIGHT_BEGIN
1070
    46
1040
14.20067583937727
1000
ACAD_MTEXT_DEFINED_HEIGHT_END
  0
MTEXT
  5
18B6F
330
A
100
AcDbEntity
  8
TEMPLATE
390
1D
100
AcDbMText
 10
397.8109909698283
 20
117.555310862649
 30
0.0
 40
7.0
 41
0.0
 46
7.81930724021508
 71
     1
 72
     1
  1
{FRF74-3202-081(ブラッシュドガンメタル)}
  7
ＭＳ ゴシック
 73
     1
 44
0.7828267384257845
1001
ACAD
1000
ACAD_MTEXT_DEFINED_HEIGHT_BEGIN
1070
    46
1040
7.81930724021508
1000
ACAD_MTEXT_DEFINED_HEIGHT_END
  0
MTEXT
  5
18B70
330
A
100
AcDbEntity
  8
TEMPLATE
390
1D
100
AcDbMText
 10
397.8109909698283
 20
129.044590862649
 30
0.0
 40
7.0
 41
0.0
 46
7.81930724021508
 71
     1
 72
     1
  1
{FRF74-3202-001(クローム)}
  7
ＭＳ ゴシック
 73
     1
 44
0.7828267384257845
1001
ACAD
1000
ACAD_MTEXT_DEFINED_HEIGHT_BEGIN
1070
    46
1040
7.81930724021508
1000
ACAD_MTEXT_DEFINED_HEIGHT_END
  0
LINE
  5
18BB3
330
A
100
AcDbEntity
  8
MODEL
 62
     0
370
     5
100
AcDbLine
 10
438.09613748638
 20
605.2946516272307
 30
0.0
 11
443.2141956239842
 21
603.3182191276742
 31
0.0
  0
LINE
  5
18BB4
102
{ACAD_REACTORS
330
18BD4
102
}
330
A
100
AcDbEntity
  8
MODEL
 62
     0
370
     5
100
AcDbLine
 10
438.09613748638
 20
605.2946516272307
 30
0.0
 11
443.2141956239838
 21
607.2710841267859
 31
0.0
  0
LINE
  5
18BB5
330
A
100
AcDbEntity
  8
MODEL
 62
     0
370
     5
100
AcDbLine
 10
440.1954621547211
 20
607.7090813501999
 30
0.0
 11
444.8358501890844
 21
602.2035362246842
 31
0.0
  0
LINE
  5
18BB6
330
A
100
AcDbEntity
  8
MODEL
 62
     0
370
     5
100
AcDbLine
 10
443.5120625936748
 20
608.427557916095
 30
0.0
 11
448.654808929177
 21
602.3259944671946
 31
0.0
  0
LINE
  5
18BB7
330
A
100
AcDbEntity
  8
MODEL
 62
     0
370
     5
100
AcDbLine
 10
446.9835627331049
 20
608.4124387878833
 30
0.0
 11
452.2467417756707
 21
602.1679890763647
 31
0.0
  0
LINE
  5
18BB8
330
A
100
AcDbEntity
  8
MODEL
 62
     0
370
     5
100
AcDbLine
 10
450.6169389919491
 20
608.6742472297519
 30
0.0
 11
456.4474148656388
 21
601.7567334813068
 31
0.0
  0
LINE
  5
18BB9
330
A
100
AcDbEntity
  8
MODEL
 62
     0
370
     5
100
AcDbLine
 10
454.7674472410164
 20
608.6742472297519
 30
0.0
 11
460.5979231147061
 21
601.7567334813068
 31
0.0
  0
LINE
  5
18BBA
330
A
100
AcDbEntity
  8
MODEL
 62
     0
370
     5
100
AcDbLine
 10
443.2141956239842
 20
603.3182191276742
 30
0.0
 11
478.4130666666666
 21
603.3182191276742
 31
0.0
  0
LINE
  5
18BBB
330
A
100
AcDbEntity
  8
MODEL
 62
     0
370
     5
100
AcDbLine
 10
458.7568845060381
 20
608.7058736833491
 30
0.0
 11
464.5873603797276
 21
601.7883599349033
 31
0.0
  0
LINE
  5
18BBC
330
A
100
AcDbEntity
  8
MODEL
 62
     0
370
     5
100
AcDbLine
 10
462.9073927551053
 20
608.7058736833491
 30
0.0
 11
468.7378686287948
 21
601.7883599349033
 31
0.0
  0
LINE
  5
18BBD
330
A
100
AcDbEntity
  8
MODEL
 62
     0
370
     5
100
AcDbLine
 10
467.2939005330096
 20
608.7058736833491
 30
0.0
 11
473.1243764066992
 21
601.7883599349033
 31
0.0
  0
LINE
  5
18BBE
330
A
100
AcDbEntity
  8
MODEL
 62
     0
370
     5
100
AcDbLine
 10
443.2141956239843
 20
607.2710841267859
 30
0.0
 11
478.4130666666666
 21
607.2710841267864
 31
0.0
  0
LINE
  5
18BBF
330
A
100
AcDbEntity
  8
MODEL
 62
     0
370
     5
100
AcDbLine
 10
471.5356441750558
 20
608.6742472297519
 30
0.0
 11
477.3661200487458
 21
601.7567334813068
 31
0.0
  0
LINE
  5
18BC0
330
A
100
AcDbEntity
  8
MODEL
 62
     0
370
     5
100
AcDbLine
 10
475.6861524241233
 20
608.6742472297519
 30
0.0
 11
478.4130666666666
 21
605.4389252470736
 31
0.0
  0
LINE
  5
18BC1
330
A
100
AcDbEntity
  8
MODEL
 62
     0
370
     5
100
AcDbLine
 10
438.106041604261
 20
606.7707244644472
 30
0.0
 11
441.4242086268158
 21
602.8339161326031
 31
0.0
  0
LINE
  5
18BC2
330
A
100
AcDbEntity
  8
MODEL
370
     5
100
AcDbLine
 10
478.4130666666666
 20
603.3182191276742
 30
0.0
 11
478.4130666666666
 21
607.2710841267864
 31
0.0
  0
DIMENSION
  5
18BC3
102
{ACAD_XDICTIONARY
360
18BC4
102
}
102
{ACAD_REACTORS
330
18BC5
102
}
330
A
100
AcDbEntity
  8
DIM
100
AcDbDimension
280
     0
  2
*D28
 10
371.8122384923726
 20
673.3498500867579
 30
0.0
 11
224.6894063390308
 21
683.3513506494687
 31
0.0
 70
    32
  1
450
 71
     5
 42
294.2456643066837
 73
     0
 74
     0
 75
     0
  3
tfrom線あり
100
AcDbAlignedDimension
 13
77.56657418568905
 23
605.29465163417
 33
0.0
 14
371.8122384923726
 24
605.2946516341702
 34
0.0
100
AcDbRotatedDimension
  0
DIMENSION
  5
18BD2
102
{ACAD_XDICTIONARY
360
18BD3
102
}
102
{ACAD_REACTORS
330
18BD4
102
}
330
A
100
AcDbEntity
  8
DIM
100
AcDbDimension
280
     0
  2
*D29
 10
411.8758179164126
 20
605.2946516272307
 30
0.0
 11
401.8758179164126
 21
609.8110152635939
 31
0.0
 70
    32
 71
     5
 42
9.032727272726564
 73
     0
 74
     1
 75
     1
  3
tfrom線あり
100
AcDbAlignedDimension
 13
478.4130666666666
 23
614.3273788999572
 33
0.0
 14
438.09613748638
 24
605.2946516272307
 34
0.0
 50
90.0
100
AcDbRotatedDimension
1001
ACAD
1000
DSTYLE
1002
{
1070
   172
1070
     1
1002
}
  0
DIMENSION
  5
18BE2
102
{ACAD_XDICTIONARY
360
18BE3
102
}
102
{ACAD_REACTORS
330
18BE4
102
}
330
A
100
AcDbEntity
  8
DIM
100
AcDbDimension
280
     0
  2
*D30
 10
296.6824909217015
 20
318.5507682633166
 30
0.0
 11
296.6824909217015
 21
299.1153549833367
 31
0.0
 70
   160
 71
     5
 42
17.93552544983942
 73
     0
 74
     1
 75
     1
  3
tfrom線あり
100
AcDbAlignedDimension
 13
299.7026581510793
 23
336.486293713156
 33
0.0
 14
299.7026581510793
 24
318.5507682633166
 34
0.0
 50
90.0
100
AcDbRotatedDimension
1001
ACAD
1000
DSTYLE
1002
{
1070
     3
1000
%%c<>
1070
   172
1070
     1
1002
}
  0
VIEWPORT
  5
349
330
B
100
AcDbEntity
 67
     1
  8
0
348
26C
100
AcDbViewport
 10
202.5
 20
128.5
 30
0.0
 40
486.0
 41
308.4
 68
     1
 69
     1
 12
202.5
 22
128.5
 13
0.0
 23
0.0
 14
0.5
 24
0.5
 15
0.0
 25
0.0
 16
0.0
 26
0.0
 36
1.0
 17
0.0
 27
0.0
 37
0.0
 42
50.0
 43
0.0
 44
0.0
 45
308.4
 50
0.0
 51
0.0
 72
   100
 90
   557152
  1

281
     0
 71
     1
 74
     0
110
0.0
120
0.0
130
0.0
111
1.0
121
0.0
131
0.0
112
0.0
122
1.0
132
0.0
 79
     0
146
0.0
170
     0
 61
     5
292
     1
282
     1
141
0.0
142
0.0
 63
   250
421
  3355443
  0
VIEWPORT
  5
34A
330
B
100
AcDbEntity
 67
     1
  8
0
348
26C
100
AcDbViewport
 10
202.5
 20
128.5
 30
0.0
 40
324.0
 41
205.6
 68
     2
 69
     2
 12
986.6781359294572
 22
1427.077061889956
 13
0.0
 23
0.0
 14
0.5
 24
0.5
 15
0.0
 25
0.0
 16
0.0
 26
0.0
 36
1.0
 17
0.0
 27
0.0
 37
0.0
 42
50.0
 43
0.0
 44
0.0
 45
2890.021615685494
 50
0.0
 51
0.0
 72
   100
 90
   557152
  1

281
     0
 71
     1
 74
     0
110
0.0
120
0.0
130
0.0
111
1.0
121
0.0
131
0.0
112
0.0
122
1.0
132
0.0
 79
     0
146
0.0
170
     0
 61
     5
292
     1
282
     1
141
0.0
142
0.0
 63
   250
421
  3355443
  0
ENDSEC
  0
SECTION
  2
OBJECTS
  0
DICTIONARY
  5
19
330
0
100
AcDbDictionary
281
     1
  3
ACAD_BACKGROUND
350
18C11
  3
ACAD_CIP_PREVIOUS_PRODUCT_INFO
350
18C15
  3
ACAD_COLOR
350
674
  3
ACAD_DETAILVIEWSTYLE
350
BBF
  3
ACAD_FIELDLIST
350
36B0
  3
ACAD_GROUP
350
1A
  3
ACAD_IMAGE_VARS
350
27B
  3
ACAD_LAYOUT
350
1E
  3
ACAD_MATERIAL
350
263
  3
ACAD_MLEADERSTYLE
350
336
  3
ACAD_MLINESTYLE
350
1B
  3
ACAD_PLOTSETTINGS
350
22
  3
ACAD_PLOTSTYLENAME
350
1F
  3
ACAD_RENDER_RAPIDRT_SETTINGS
350
18C4D
  3
ACAD_SCALELIST
350
241
  3
ACAD_SECTIONVIEWSTYLE
350
BC0
  3
ACAD_TABLESTYLE
350
278
  3
ACAD_VISUALSTYLE
350
267
  3
ACDB_RECOMPOSE_DATA
350
18C65
  3
AcDbVariableDictionary
350
330
  3
APPDATA
350
27A
  3
ASE_INDEX_DICTIONARY
350
18C18
  3
CENTERLINE
350
366B
  3
DimOffsetDictionary
350
E38
  0
SUN
  5
904
330
15
100
AcDbSun
 90
        1
290
     1
 63
     7
421
 16777215
 40
1.0
291
     1
 91
  2455826
 92
 54000000
292
     0
 70
     0
 71
   256
280
     1
  0
DICTIONARY
  5
2E1
330
2
100
AcDbDictionary
280
     1
281
     1
  3
ACAD_LAYERSTATES
360
2E2
  3
ACLYDICTIONARY
360
DDE
  0
DICTIONARY
  5
18C22
330
14
100
AcDbDictionary
280
     1
281
     1
  3
ADSK_XREC_LAYER_RECONCILED
360
18C23
  0
DICTIONARY
  5
18C24
330
4B
100
AcDbDictionary
280
     1
281
     1
  3
ADSK_XREC_LAYER_RECONCILED
360
18C25
  0
DICTIONARY
  5
18C26
330
4C
100
AcDbDictionary
280
     1
281
     1
  3
ADSK_XREC_LAYER_RECONCILED
360
18C27
  0
DICTIONARY
  5
18C28
330
4D
100
AcDbDictionary
280
     1
281
     1
  3
ADSK_XREC_LAYER_RECONCILED
360
18C29
  0
DICTIONARY
  5
18C2A
330
88C
100
AcDbDictionary
280
     1
281
     1
  3
ADSK_XREC_LAYER_RECONCILED
360
18C2B
  0
DICTIONARY
  5
18C2C
330
D6B
100
AcDbDictionary
280
     1
281
     1
  3
ADSK_XREC_LAYER_RECONCILED
360
18C2D
  0
DICTIONARY
  5
17562
330
17561
100
AcDbDictionary
280
     1
281
     1
  3
ADSK_XREC_LAYER_RECONCILED
360
17563
  0
DICTIONARY
  5
18C2E
330
17692
100
AcDbDictionary
280
     1
281
     1
  3
ADSK_XREC_LAYER_RECONCILED
360
18C2F
  0
DICTIONARY
  5
1733E
330
A
100
AcDbDictionary
280
     1
281
     1
  3
ACAD_SORTENTS
360
1733F
  0
DICTIONARY
  5
18B47
330
18B46
100
AcDbDictionary
280
     1
281
     1
  3
ACAD_SORTENTS
360
18B48
  0
DICTIONARY
  5
36AE
330
36AC
100
AcDbDictionary
280
     1
281
     1
  3
ACAD_FIELD
360
18BF3
  0
DICTIONARY
  5
18B18
330
18B17
100
AcDbDictionary
280
     1
281
     1
  3
ACAD_DIMASSOC
360
18B19
  0
DICTIONARY
  5
18B1B
330
18B1A
100
AcDbDictionary
280
     1
281
     1
  3
ACAD_DIMASSOC
360
18B1C
  0
DICTIONARY
  5
18BC4
330
18BC3
100
AcDbDictionary
280
     1
281
     1
  3
ACAD_DIMASSOC
360
18BC5
  0
DICTIONARY
  5
18BD3
330
18BD2
100
AcDbDictionary
280
     1
281
     1
  3
ACAD_DIMASSOC
360
18BD4
  0
DICTIONARY
  5
18BE3
330
18BE2
100
AcDbDictionary
280
     1
281
     1
  3
ACAD_DIMASSOC
360
18BE4
  0
DICTIONARY
  5
18C11
102
{ACAD_REACTORS
330
19
102
}
330
19
100
AcDbDictionary
281
     1
  0
XRECORD
  5
18C15
102
{ACAD_REACTORS
330
19
102
}
330
19
100
AcDbXrecord
280
     1
300
ACD
300
2023
300

  0
DICTIONARY
  5
674
102
{ACAD_REACTORS
330
19
102
}
330
19
100
AcDbDictionary
281
     1
  0
DICTIONARY
  5
BBF
102
{ACAD_REACTORS
330
19
102
}
330
19
100
AcDbDictionary
281
     1
  3
Metric50
350
18C09
  0
FIELDLIST
  5
36B0
102
{ACAD_REACTORS
330
19
102
}
330
19
100
AcDbIdSet
 90
        2
330
36B1
330
36AD
100
AcDbFieldList
  0
DICTIONARY
  5
1A
102
{ACAD_REACTORS
330
19
102
}
330
19
100
AcDbDictionary
281
     1
  3
*A1
350
1730A
  0
RASTERVARIABLES
  5
27B
102
{ACAD_REACTORS
330
19
102
}
330
19
100
AcDbRasterVariables
 90
        0
 70
     1
 71
     1
 72
     1
  0
DICTIONARY
  5
1E
102
{ACAD_REACTORS
330
19
102
}
330
19
100
AcDbDictionary
281
     1
  3
Layout1
350
21
  3
Model
350
20
  0
DICTIONARY
  5
263
102
{ACAD_REACTORS
330
19
102
}
330
19
100
AcDbDictionary
281
     1
  3
ByBlock
350
265
  3
ByLayer
350
264
  3
Global
350
266
  0
DICTIONARY
  5
336
102
{ACAD_REACTORS
330
19
102
}
330
19
100
AcDbDictionary
281
     1
  3
Standard
350
D59
  0
DICTIONARY
  5
1B
102
{ACAD_REACTORS
330
19
102
}
330
19
100
AcDbDictionary
281
     1
  3
Standard
350
1C
  0
DICTIONARY
  5
22
102
{ACAD_REACTORS
330
19
102
}
330
19
100
AcDbDictionary
281
     1
  0
ACDBDICTIONARYWDFLT
  5
1F
102
{ACAD_REACTORS
330
19
102
}
330
19
100
AcDbDictionary
281
     1
  3
Normal
350
1D
100
AcDbDictionaryWithDefault
340
1D
  0
DICTIONARY
  5
18C4D
102
{ACAD_REACTORS
330
19
102
}
330
19
100
AcDbDictionary
281
     1
  3
Coffee-Break Quality
350
18C51
  3
High
350
18C50
  3
Low
350
18C4E
  3
Lunch Quality
350
18C52
  3
Medium
350
18C4F
  3
Overnight Quality
350
18C53
  0
DICTIONARY
  5
241
102
{ACAD_REACTORS
330
19
102
}
330
19
100
AcDbDictionary
281
     1
  3
A0
350
242
  3
A1
350
243
  3
A2
350
244
  3
A3
350
245
  3
A4
350
246
  3
A5
350
247
  3
A6
350
248
  3
A7
350
249
  3
A8
350
24A
  3
A9
350
24B
  3
B0
350
24C
  3
B1
350
24D
  3
B2
350
24E
  3
B3
350
24F
  3
B4
350
250
  3
B5
350
251
  3
B6
350
252
  3
B7
350
253
  3
B8
350
254
  3
B9
350
255
  3
C0
350
256
  3
C1
350
257
  3
C2
350
258
  3
C3
350
259
  3
C4
350
25A
  3
C5
350
25B
  3
C6
350
25C
  3
C7
350
25D
  3
C8
350
25E
  3
C9
350
25F
  3
D0
350
260
  3
D1
350
261
  3
D2
350
262
  0
DICTIONARY
  5
BC0
102
{ACAD_REACTORS
330
19
102
}
330
19
100
AcDbDictionary
281
     1
  3
Metric50
350
18C08
  0
DICTIONARY
  5
278
102
{ACAD_REACTORS
330
19
102
}
330
19
100
AcDbDictionary
281
     1
  3
Standard
350
279
  0
DICTIONARY
  5
267
102
{ACAD_REACTORS
330
19
102
}
330
19
100
AcDbDictionary
281
     1
  3
*A1
350
3666
  3
2dWireframe
350
26C
  3
3D Hidden
350
26E
  3
3dWireframe
350
26D
  3
Basic
350
26F
  3
Brighten
350
273
  3
ColorChange
350
277
  3
Conceptual
350
271
  3
Dim
350
272
  3
EdgeColorOff
350
8FE
  3
Facepattern
350
276
  3
Flat
350
268
  3
FlatWithEdges
350
269
  3
Gouraud
350
26A
  3
GouraudWithEdges
350
26B
  3
Hidden
350
8FB
  3
JitterOff
350
8FC
  3
Linepattern
350
275
  3
OverhangOff
350
8FD
  3
Realistic
350
270
  3
Shaded
350
903
  3
Shaded with edges
350
902
  3
Shades of Gray
350
8FF
  3
Sketchy
350
900
  3
Thicken
350
274
  3
Wireframe
350
8FA
  3
X-Ray
350
901
  0
XRECORD
  5
18C65
102
{ACAD_REACTORS
330
19
102
}
330
19
100
AcDbXrecord
280
     1
 90
        1
330
279
  0
DICTIONARY
  5
330
102
{ACAD_REACTORS
330
19
102
}
330
19
100
AcDbDictionary
281
     1
  3
CANNOSCALE
350
331
  3
CMLEADERSTYLE
350
D5E
  3
CTABLESTYLE
350
335
  3
CVIEWDETAILSTYLE
350
18C37
  3
CVIEWSECTIONSTYLE
350
18C38
  3
HPTRANSPARENCY
350
D52
  3
LAYEREVAL
350
18C39
  3
LAYERNOTIFY
350
18C3A
  0
DICTIONARY
  5
27A
102
{ACAD_REACTORS
330
19
102
}
330
19
100
AcDbDictionary
281
     1
  0
DICTIONARY
  5
18C18
102
{ACAD_REACTORS
330
19
102
}
330
19
100
AcDbDictionary
281
     1
  3
ASEBlockHierarchyIndexRecord
350
18C1A
1001
DCO15
1040
2109759413.0
  0
DICTIONARY
  5
366B
102
{ACAD_REACTORS
330
19
102
}
330
19
100
AcDbDictionary
281
     1
  3
CLEXTENSION
350
36AB
  0
DICTIONARY
  5
E38
102
{ACAD_REACTORS
330
19
102
}
330
19
100
AcDbDictionary
281
     1
  3
DIMRAILANGLE
350
36A9
  3
DIMRAILFIRSTOFFSET
350
36A7
  3
DIMRAILOFFSET
350
36A8
  3
DIMRAILSENABLED
350
36AA
  0
DICTIONARY
  5
2E2
102
{ACAD_REACTORS
330
2E1
102
}
330
2E1
100
AcDbDictionary
281
     1
  0
DICTIONARY
  5
DDE
102
{ACAD_REACTORS
330
2E1
102
}
330
2E1
100
AcDbDictionary
281
     1
1001
ACAD
1000
<All
  0
XRECORD
  5
18C23
102
{ACAD_REACTORS
330
18C22
102
}
330
18C22
100
AcDbXrecord
280
     1
290
     1
  0
XRECORD
  5
18C25
102
{ACAD_REACTORS
330
18C24
102
}
330
18C24
100
AcDbXrecord
280
     1
290
     1
  0
XRECORD
  5
18C27
102
{ACAD_REACTORS
330
18C26
102
}
330
18C26
100
AcDbXrecord
280
     1
290
     1
  0
XRECORD
  5
18C29
102
{ACAD_REACTORS
330
18C28
102
}
330
18C28
100
AcDbXrecord
280
     1
290
     1
  0
XRECORD
  5
18C2B
102
{ACAD_REACTORS
330
18C2A
102
}
330
18C2A
100
AcDbXrecord
280
     1
290
     1
  0
XRECORD
  5
18C2D
102
{ACAD_REACTORS
330
18C2C
102
}
330
18C2C
100
AcDbXrecord
280
     1
290
     1
  0
XRECORD
  5
17563
102
{ACAD_REACTORS
330
17562
102
}
330
17562
100
AcDbXrecord
280
     1
290
     1
  0
XRECORD
  5
18C2F
102
{ACAD_REACTORS
330
18C2E
102
}
330
18C2E
100
AcDbXrecord
280
     1
290
     1
  0
SORTENTSTABLE
  5
1733F
102
{ACAD_REACTORS
330
1733E
102
}
330
1733E
100
AcDbSortentsTable
330
A
331
172F9
  5
172B7
331
172FA
  5
172F8
331
17305
  5
172F9
331
17306
  5
172FA
331
17307
  5
17305
331
17308
  5
17306
331
17309
  5
17307
  0
SORTENTSTABLE
  5
18B48
102
{ACAD_REACTORS
330
18B47
102
}
330
18B47
100
AcDbSortentsTable
330
18B46
  0
DICTIONARY
  5
18BF3
102
{ACAD_REACTORS
330
36AE
102
}
330
36AE
100
AcDbDictionary
280
     1
281
     1
  3
TEXT
360
36AD
  0
DIMASSOC
  5
18B19
102
{ACAD_REACTORS
330
18B18
102
}
330
18B18
100
AcDbDimAssoc
330
18B17
 90
        3
 70
     0
 71
     1
  1
AcDbOsnapPointRef
 72
    13
331
18AF8
 73
     0
 91
        0
 40
0.0
 10
0.0
 20
0.0
 30
0.0
 75
     0
  1
AcDbOsnapPointRef
 72
    13
331
18B08
 73
     0
 91
        0
 40
0.0
 10
0.0
 20
0.0
 30
0.0
 75
     0
  0
DIMASSOC
  5
18B1C
102
{ACAD_REACTORS
330
18B1B
102
}
330
18B1B
100
AcDbDimAssoc
330
18B1A
 90
        3
 70
     0
 71
     1
  1
AcDbOsnapPointRef
 72
     1
331
18AEC
 73
     0
 91
        0
 40
0.0
 10
0.0
 20
0.0
 30
0.0
 75
     0
  1
AcDbOsnapPointRef
 72
     1
331
18AE4
 73
     0
 91
        0
 40
0.0
 10
0.0
 20
0.0
 30
0.0
 75
     0
  0
DIMASSOC
  5
18BC5
102
{ACAD_REACTORS
330
18BC4
102
}
330
18BC4
100
AcDbDimAssoc
330
18BC3
 90
        1
 70
     0
 71
     1
  1
AcDbOsnapPointRef
 72
     1
331
18ADA
 73
     0
 91
        0
 40
0.0
 10
0.0
 20
0.0
 30
0.0
 75
     0
  0
DIMASSOC
  5
18BD4
102
{ACAD_REACTORS
330
18BD3
102
}
330
18BD3
100
AcDbDimAssoc
330
18BD2
 90
        3
 70
     0
 71
     1
  1
AcDbOsnapPointRef
 72
     1
331
18ADE
 73
     0
 91
        0
 40
0.0
 10
0.0
 20
0.0
 30
0.0
 75
     0
  1
AcDbOsnapPointRef
 72
    13
331
18BB4
 73
     0
 91
        0
 40
0.0
 10
0.0
 20
0.0
 30
0.0
 75
     0
  0
DIMASSOC
  5
18BE4
102
{ACAD_REACTORS
330
18BE3
102
}
330
18BE3
100
AcDbDimAssoc
330
18BE2
 90
        3
 70
     0
 71
     1
  1
AcDbOsnapPointRef
 72
    10
331
18AEE
 73
     0
 91
        0
 40
0.5676409279877497
 10
0.0
 20
0.0
 30
0.0
 75
     0
  1
AcDbOsnapPointRef
 72
     8
331
18AEC
 73
     0
 91
        0
 40
0.4614068098350173
 10
0.0
 20
0.0
 30
0.0
 75
     1
  1
AcDbOsnapPointRef
 72
    10
331
18AEE
 73
     0
 91
        0
 40
0.5676409279877497
 10
0.0
 20
0.0
 30
0.0
 75
     0
  0
ACDBDETAILVIEWSTYLE
  5
18C09
102
{ACAD_REACTORS
330
BBF
102
}
330
BBF
100
AcDbModelDocViewStyle
 70
     0
  3
Metric50
290
     0
300
Metric50
 90
        0
100
AcDbDetailViewStyle
 70
     0
 71
     0
 90
        3
 71
     1
340
17
 62
   256
 40
5.0
340
0
 62
   256
 40
5.0
300

 40
0.0
280
     1
 71
     2
340
13
 90
       25
 62
   256
 71
     3
340
17
 62
   256
 40
5.0
 90
        0
 40
15.0
 90
        1
300
%<\AcVar ViewDetailId>% (%<\AcVar ViewScale \f "%sn">%)
 71
     4
340
13
 90
       25
 62
   256
340
13
 90
       25
 62
   256
280
     0
  0
GROUP
  5
1730A
102
{ACAD_REACTORS
330
1A
102
}
330
1A
100
AcDbGroup
300

 70
     1
 71
     1
340
172F9
340
172FA
340
17305
340
17306
340
17307
340
17308
340
17309
  0
LAYOUT
  5
21
102
{ACAD_REACTORS
330
1E
102
}
330
1E
100
AcDbPlotSettings
  1

  2
none_device
  4
ISO_A3_(420.00_x_297.00_MM)
  6

 40
7.5
 41
20.0
 42
7.5
 43
20.0
 44
420.0
 45
297.0
 46
0.0
 47
0.0
 48
0.0
 49
0.0
140
0.0
141
0.0
142
1.0
143
1.0
 70
     0
 72
     1
 73
     0
 74
     0
  7

 75
     0
147
1.0
 76
     0
 77
     2
 78
   300
148
0.0
149
0.0
100
AcDbLayout
  1
Layout1
 70
     0
 71
     1
 10
-7.5
 20
-20.0
 11
412.5
 21
277.0
 12
0.0
 22
0.0
 32
0.0
 14
0.0
 24
0.0
 34
0.0
 15
0.0
 25
0.0
 35
0.0
146
0.0
 13
0.0
 23
0.0
 33
0.0
 16
1.0
 26
0.0
 36
0.0
 17
0.0
 27
1.0
 37
0.0
 76
     0
330
B
331
349
  0
LAYOUT
  5
20
102
{ACAD_REACTORS
330
1E
102
}
330
1E
100
AcDbPlotSettings
  1

  2
Adobe PDF
  4
A4
  6

 40
0.0
 41
0.010498046875
 42
0.0901641845703125
 43
0.0
 44
210.0
 45
297.0
 46
0.0
 47
0.0585099356515002
 48
0.0
 49
0.0
140
0.0
141
0.0
142
1.0
143
3.001288613049789
 70
  3764
 72
     1
 73
     0
 74
     2
  7
monochrome.ctb
 75
     0
147
0.3331902155800471
 76
     0
 77
     4
 78
   300
148
0.0
149
0.0
100
AcDbLayout
  1
Model
 70
     0
 71
     0
 10
0.0
 20
0.0
 11
630.0
 21
891.0
 12
0.0
 22
0.0
 32
0.0
 14
0.0
 24
0.0
 34
-0.0000000000000142
 15
630.0
 25
891.0
 35
0.0000000000000142
146
0.0
 13
0.0
 23
0.0
 33
0.0
 16
0.0
 26
0.0
 36
0.0
 17
0.0
 27
0.0
 37
0.0
 76
     0
330
A
331
15
1001
PLOTTRANSPARENCY
1071
        0
1001
ACAD_PSEXT
1000
Adobe PDF
1000
Adobe PDF Converter
1000
Documents\*.pdf
1000

1070
     0
  0
MATERIAL
  5
265
102
{ACAD_REACTORS
330
263
102
}
330
263
100
AcDbMaterial
  1
ByBlock
  0
MATERIAL
  5
264
102
{ACAD_REACTORS
330
263
102
}
330
263
100
AcDbMaterial
  1
ByLayer
  0
MATERIAL
  5
266
102
{ACAD_REACTORS
330
263
102
}
330
263
100
AcDbMaterial
  1
Global
  0
MLEADERSTYLE
  5
D59
102
{ACAD_REACTORS
330
336
102
}
330
336
100
AcDbMLeaderStyle
179
     2
170
     2
171
     1
172
     0
 90
        2
 40
0.0
 41
0.0
173
     1
 91
-1056964608
340
11
 92
       -2
290
     1
 42
2.0
291
     1
 43
8.0
  3
Standard
 44
4.0
300

342
17
174
     1
178
     6
175
     1
176
     0
 93
-1056964608
 45
4.0
292
     0
297
     0
 46
4.0
 94
-1056964608
 47
1.0
 49
1.0
140
1.0
293
     1
141
0.0
294
     1
177
     0
142
1.0
295
     0
296
     0
143
3.75
271
     0
272
     9
273
     9
298
     0
1001
ACAD_MLEADERVER
1070
     2
  0
MLINESTYLE
  5
1C
102
{ACAD_REACTORS
330
1B
102
}
330
1B
100
AcDbMlineStyle
  2
STANDARD
 70
     0
  3

 62
     0
 51
90.0
 52
90.0
 71
     2
 49
0.5
 62
   256
  6
BYLAYER
 49
-0.5
 62
   256
  6
BYLAYER
  0
ACDBPLACEHOLDER
  5
1D
102
{ACAD_REACTORS
330
1F
102
}
330
1F
  0
RAPIDRTRENDERSETTINGS
  5
18C51
102
{ACAD_REACTORS
330
18C4D
102
}
330
18C4D
100
AcDbRenderSettings
 90
        2
  1
Coffee-Break Quality
290
     1
290
     0
290
     1
290
     1
  1

  1
Renders for 10 minutes
 90
        3
100
AcDbRapidRTRenderSettings
 90
        3
 70
     1
 90
        1
 90
       10
 70
     1
 70
     2
 40
3.0
 40
3.0
290
     1
  0
RAPIDRTRENDERSETTINGS
  5
18C50
102
{ACAD_REACTORS
330
18C4D
102
}
330
18C4D
100
AcDbRenderSettings
 90
        2
  1
High
290
     1
290
     0
290
     1
290
     1
  1

  1
Applies 10 rendering levels
 90
        2
100
AcDbRapidRTRenderSettings
 90
        3
 70
     0
 90
       10
 90
        1
 70
     2
 70
     2
 40
3.0
 40
3.0
290
     1
  0
RAPIDRTRENDERSETTINGS
  5
18C4E
102
{ACAD_REACTORS
330
18C4D
102
}
330
18C4D
100
AcDbRenderSettings
 90
        2
  1
Low
290
     1
290
     0
290
     1
290
     1
  1

  1
Applies 1 rendering level
 90
        0
100
AcDbRapidRTRenderSettings
 90
        3
 70
     0
 90
        1
 90
        1
 70
     0
 70
     2
 40
3.0
 40
3.0
290
     1
  0
RAPIDRTRENDERSETTINGS
  5
18C52
102
{ACAD_REACTORS
330
18C4D
102
}
330
18C4D
100
AcDbRenderSettings
 90
        2
  1
Lunch Quality
290
     1
290
     0
290
     1
290
     1
  1

  1
Renders for 60 minutes
 90
        4
100
AcDbRapidRTRenderSettings
 90
        3
 70
     1
 90
        1
 90
       60
 70
     2
 70
     2
 40
3.0
 40
3.0
290
     1
  0
RAPIDRTRENDERSETTINGS
  5
18C4F
102
{ACAD_REACTORS
330
18C4D
102
}
330
18C4D
100
AcDbRenderSettings
 90
        2
  1
Medium
290
     1
290
     0
290
     1
290
     1
  1

  1
Applies 5 rendering levels
 90
        1
100
AcDbRapidRTRenderSettings
 90
        3
 70
     0
 90
        5
 90
        1
 70
     1
 70
     2
 40
3.0
 40
3.0
290
     1
  0
RAPIDRTRENDERSETTINGS
  5
18C53
102
{ACAD_REACTORS
330
18C4D
102
}
330
18C4D
100
AcDbRenderSettings
 90
        2
  1
Overnight Quality
290
     1
290
     0
290
     1
290
     1
  1

  1
Renders for 12 hours
 90
        5
100
AcDbRapidRTRenderSettings
 90
        3
 70
     1
 90
        1
 90
      720
 70
     2
 70
     2
 40
3.0
 40
3.0
290
     1
  0
SCALE
  5
242
102
{ACAD_REACTORS
330
241
102
}
330
241
100
AcDbScale
 70
     0
300
1:1
140
1.0
141
1.0
290
     1
  0
SCALE
  5
243
102
{ACAD_REACTORS
330
241
102
}
330
241
100
AcDbScale
 70
     0
300
1:2
140
1.0
141
2.0
290
     0
  0
SCALE
  5
244
102
{ACAD_REACTORS
330
241
102
}
330
241
100
AcDbScale
 70
     0
300
1:4
140
1.0
141
4.0
290
     0
  0
SCALE
  5
245
102
{ACAD_REACTORS
330
241
102
}
330
241
100
AcDbScale
 70
     0
300
1:5
140
1.0
141
5.0
290
     0
  0
SCALE
  5
246
102
{ACAD_REACTORS
330
241
102
}
330
241
100
AcDbScale
 70
     0
300
1:8
140
1.0
141
8.0
290
     0
  0
SCALE
  5
247
102
{ACAD_REACTORS
330
241
102
}
330
241
100
AcDbScale
 70
     0
300
1:10
140
1.0
141
10.0
290
     0
  0
SCALE
  5
248
102
{ACAD_REACTORS
330
241
102
}
330
241
100
AcDbScale
 70
     0
300
1:16
140
1.0
141
16.0
290
     0
  0
SCALE
  5
249
102
{ACAD_REACTORS
330
241
102
}
330
241
100
AcDbScale
 70
     0
300
1:20
140
1.0
141
20.0
290
     0
  0
SCALE
  5
24A
102
{ACAD_REACTORS
330
241
102
}
330
241
100
AcDbScale
 70
     0
300
1:30
140
1.0
141
30.0
290
     0
  0
SCALE
  5
24B
102
{ACAD_REACTORS
330
241
102
}
330
241
100
AcDbScale
 70
     0
300
1:40
140
1.0
141
40.0
290
     0
  0
SCALE
  5
24C
102
{ACAD_REACTORS
330
241
102
}
330
241
100
AcDbScale
 70
     0
300
1:50
140
1.0
141
50.0
290
     0
  0
SCALE
  5
24D
102
{ACAD_REACTORS
330
241
102
}
330
241
100
AcDbScale
 70
     0
300
1:100
140
1.0
141
100.0
290
     0
  0
SCALE
  5
24E
102
{ACAD_REACTORS
330
241
102
}
330
241
100
AcDbScale
 70
     0
300
2:1
140
2.0
141
1.0
290
     0
  0
SCALE
  5
24F
102
{ACAD_REACTORS
330
241
102
}
330
241
100
AcDbScale
 70
     0
300
4:1
140
4.0
141
1.0
290
     0
  0
SCALE
  5
250
102
{ACAD_REACTORS
330
241
102
}
330
241
100
AcDbScale
 70
     0
300
8:1
140
8.0
141
1.0
290
     0
  0
SCALE
  5
251
102
{ACAD_REACTORS
330
241
102
}
330
241
100
AcDbScale
 70
     0
300
10:1
140
10.0
141
1.0
290
     0
  0
SCALE
  5
252
102
{ACAD_REACTORS
330
241
102
}
330
241
100
AcDbScale
 70
     0
300
100:1
140
100.0
141
1.0
290
     0
  0
SCALE
  5
253
102
{ACAD_REACTORS
330
241
102
}
330
241
100
AcDbScale
 70
     0
300
1/128" = 1'-0"
140
0.0078125
141
12.0
290
     0
  0
SCALE
  5
254
102
{ACAD_REACTORS
330
241
102
}
330
241
100
AcDbScale
 70
     0
300
1/64" = 1'-0"
140
0.015625
141
12.0
290
     0
  0
SCALE
  5
255
102
{ACAD_REACTORS
330
241
102
}
330
241
100
AcDbScale
 70
     0
300
1/32" = 1'-0"
140
0.03125
141
12.0
290
     0
  0
SCALE
  5
256
102
{ACAD_REACTORS
330
241
102
}
330
241
100
AcDbScale
 70
     0
300
1/16" = 1'-0"
140
0.0625
141
12.0
290
     0
  0
SCALE
  5
257
102
{ACAD_REACTORS
330
241
102
}
330
241
100
AcDbScale
 70
     0
300
3/32" = 1'-0"
140
0.09375
141
12.0
290
     0
  0
SCALE
  5
258
102
{ACAD_REACTORS
330
241
102
}
330
241
100
AcDbScale
 70
     0
300
1/8" = 1'-0"
140
0.125
141
12.0
290
     0
  0
SCALE
  5
259
102
{ACAD_REACTORS
330
241
102
}
330
241
100
AcDbScale
 70
     0
300
3/16" = 1'-0"
140
0.1875
141
12.0
290
     0
  0
SCALE
  5
25A
102
{ACAD_REACTORS
330
241
102
}
330
241
100
AcDbScale
 70
     0
300
1/4" = 1'-0"
140
0.25
141
12.0
290
     0
  0
SCALE
  5
25B
102
{ACAD_REACTORS
330
241
102
}
330
241
100
AcDbScale
 70
     0
300
3/8" = 1'-0"
140
0.375
141
12.0
290
     0
  0
SCALE
  5
25C
102
{ACAD_REACTORS
330
241
102
}
330
241
100
AcDbScale
 70
     0
300
1/2" = 1'-0"
140
0.5
141
12.0
290
     0
  0
SCALE
  5
25D
102
{ACAD_REACTORS
330
241
102
}
330
241
100
AcDbScale
 70
     0
300
3/4" = 1'-0"
140
0.75
141
12.0
290
     0
  0
SCALE
  5
25E
102
{ACAD_REACTORS
330
241
102
}
330
241
100
AcDbScale
 70
     0
300
1" = 1'-0"
140
1.0
141
12.0
290
     0
  0
SCALE
  5
25F
102
{ACAD_REACTORS
330
241
102
}
330
241
100
AcDbScale
 70
     0
300
1-1/2" = 1'-0"
140
1.5
141
12.0
290
     0
  0
SCALE
  5
260
102
{ACAD_REACTORS
330
241
102
}
330
241
100
AcDbScale
 70
     0
300
3" = 1'-0"
140
3.0
141
12.0
290
     0
  0
SCALE
  5
261
102
{ACAD_REACTORS
330
241
102
}
330
241
100
AcDbScale
 70
     0
300
6" = 1'-0"
140
6.0
141
12.0
290
     0
  0
SCALE
  5
262
102
{ACAD_REACTORS
330
241
102
}
330
241
100
AcDbScale
 70
     0
300
1'-0" = 1'-0"
140
12.0
141
12.0
290
     0
  0
ACDBSECTIONVIEWSTYLE
  5
18C08
102
{ACAD_REACTORS
330
BC0
102
}
330
BC0
100
AcDbModelDocViewStyle
 70
     0
  3
Metric50
290
     0
300
Metric50
 90
        0
100
AcDbSectionViewStyle
 70
     0
 71
     0
 90
      102
 71
     1
340
17
 62
   256
 40
5.0
340
0
340
0
 62
   256
 40
5.0
300
I, O, Q, S, X, Z
 40
10.0
 90
        0
 40
2.5
 90
        0
 71
     2
340
13
 90
       25
 62
   256
340
13
 90
       50
 62
   256
 40
5.0
 40
2.5
 40
5.0
 71
     3
340
17
 62
   256
 40
5.0
 90
        0
 40
15.0
 90
        1
300
%<\AcVar ViewSectionStartId>%-%<\AcVar ViewSectionEndId>% (%<\AcVar ViewScale \f "%sn">%)
 71
     4
 62
   256
 62
   257
300
ANSI31
 40
1.0
 90
        0
290
     0
290
     0
 90
        6
 40
0.0
 40
1.570796326794896
 40
0.2617993877991494
 40
1.308996938995747
 40
-0.2617993877991494
 40
1.832595714594045
  0
TABLESTYLE
  5
279
102
{ACAD_XDICTIONARY
360
18C00
102
}
102
{ACAD_REACTORS
330
278
102
}
330
278
100
AcDbTableStyle
280
     0
  3
Standard
 70
     0
 71
     0
 40
0.06
 41
0.06
280
     0
281
     0
  7
Standard
140
4.5
170
     2
 62
     0
 63
     7
283
     0
 90
        4
 91
        0
  1

274
    -2
284
     1
 64
     0
275
    -2
285
     1
 65
     0
276
    -2
286
     1
 66
     0
277
    -2
287
     1
 67
     0
278
    -2
288
     1
 68
     0
279
    -2
289
     1
 69
     0
  7
Standard
140
6.0
170
     5
 62
     0
 63
     7
283
     0
 90
        4
 91
        0
  1

274
    -2
284
     1
 64
     0
275
    -2
285
     1
 65
     0
276
    -2
286
     1
 66
     0
277
    -2
287
     1
 67
     0
278
    -2
288
     1
 68
     0
279
    -2
289
     1
 69
     0
  7
Standard
140
4.5
170
     5
 62
     0
 63
     7
283
     0
 90
        4
 91
        0
  1

274
    -2
284
     1
 64
     0
275
    -2
285
     1
 65
     0
276
    -2
286
     1
 66
     0
277
    -2
287
     1
 67
     0
278
    -2
288
     1
 68
     0
279
    -2
289
     1
 69
     0
  0
VISUALSTYLE
  5
3666
102
{ACAD_REACTORS
330
267
102
}
330
267
100
AcDbVisualStyle
  2

 70
    10
177
     3
291
     0
 70
    58
 90
        0
176
     1
 90
        2
176
     1
 90
        0
176
     1
 90
        0
176
     1
 40
0.6
176
     1
 40
30.0
176
     1
 62
     7
420
 16777215
176
     1
 90
        1
176
     1
 90
        4
176
     1
 62
     7
176
     1
 62
   257
176
     1
 90
        1
176
     1
 90
        1
176
     1
 40
1.0
176
     1
 90
        8
176
     1
 62
     7
176
     1
 40
1.0
176
     1
 90
        1
176
     1
 90
        6
176
     1
 90
        2
176
     1
 62
     7
176
     1
 90
        5
176
     1
 90
        0
176
     1
 90
        0
176
     1
290
     0
176
     1
 90
        1
176
     1
 40
0.0
176
     1
 90
        0
176
     1
290
     0
176
     1
290
     1
176
     1
290
     1
176
     1
290
     0
176
     1
290
     0
176
     1
290
     0
176
     1
290
     0
176
     1
290
     0
176
     1
290
     0
176
     1
 90
       50
176
     1
 40
0.0
176
     1
 40
1.0
176
     1
 90
        0
176
     1
 62
    18
176
     1
 90
       50
176
     1
 90
        3
176
     1
 62
     5
420
      255
176
     1
290
     0
176
     1
 90
       50
176
     1
 90
       50
176
     1
 90
       50
176
     1
290
     0
176
     1
 90
       50
176
     1
 62
   256
176
     0
 40
1.0
176
     0
 90
        2
176
     1
  1
strokes_ogs.tif
176
     1
290
     0
176
     1
 40
1.0
176
     1
 40
1.0
176
     1
  0
VISUALSTYLE
  5
26C
102
{ACAD_REACTORS
330
267
102
}
330
267
100
AcDbVisualStyle
  2

 70
     4
177
     3
291
     0
 70
    58
 90
        0
176
     1
 90
        2
176
     1
 90
        0
176
     1
 90
        0
176
     1
 40
0.6
176
     1
 40
30.0
176
     1
 62
     7
420
 16777215
176
     1
 90
        1
176
     1
 90
        4
176
     1
 62
     7
176
     1
 62
   257
176
     1
 90
        1
176
     1
 90
        1
176
     1
 40
1.0
176
     1
 90
        0
176
     1
 62
   257
176
     1
 40
1.0
176
     1
 90
        1
176
     1
 90
        6
176
     1
 90
        2
176
     1
 62
     7
176
     1
 90
        5
176
     1
 90
        0
176
     1
 90
        0
176
     1
290
     0
176
     1
 90
        1
176
     1
 40
0.0
176
     1
 90
        0
176
     1
290
     1
176
     1
290
     1
176
     1
290
     0
176
     1
290
     0
176
     1
290
     0
176
     1
290
     0
176
     1
290
     0
176
     1
290
     0
176
     1
290
     0
176
     1
 90
       50
176
     1
 40
0.0
176
     1
 40
1.0
176
     1
 90
        0
176
     1
 62
    18
176
     1
 90
       50
176
     1
 90
        3
176
     1
 62
     5
420
      255
176
     1
290
     0
176
     1
 90
       50
176
     1
 90
       50
176
     1
 90
       50
176
     1
290
     0
176
     1
 90
       50
176
     1
 62
   256
176
     0
 40
1.0
176
     0
 90
        2
176
     1
  1
strokes_ogs.tif
176
     1
290
     0
176
     1
 40
1.0
176
     1
 40
1.0
176
     1
  0
VISUALSTYLE
  5
26E
102
{ACAD_REACTORS
330
267
102
}
330
267
100
AcDbVisualStyle
  2

 70
     6
177
     3
291
     0
 70
    58
 90
        1
176
     1
 90
        2
176
     1
 90
        2
176
     1
 90
        0
176
     1
 40
0.6
176
     1
 40
30.0
176
     1
 62
     7
420
 16777215
176
     1
 90
        2
176
     1
 90
        2
176
     1
 62
     7
176
     1
 62
   257
176
     1
 90
        2
176
     1
 90
        1
176
     1
 40
40.0
176
     1
 90
        0
176
     1
 62
   257
176
     1
 40
1.0
176
     1
 90
        1
176
     1
 90
        6
176
     1
 90
        2
176
     1
 62
     7
176
     1
 90
        3
176
     1
 90
        0
176
     1
 90
        0
176
     1
290
     0
176
     1
 90
        1
176
     1
 40
0.0
176
     1
 90
        0
176
     1
290
     0
176
     1
290
     1
176
     1
290
     1
176
     1
290
     0
176
     1
290
     0
176
     1
290
     0
176
     1
290
     0
176
     1
290
     0
176
     1
290
     0
176
     1
 90
       50
176
     1
 40
0.0
176
     1
 40
1.0
176
     1
 90
        0
176
     1
 62
    18
176
     1
 90
       50
176
     1
 90
        3
176
     1
 62
     5
420
      255
176
     1
290
     0
176
     1
 90
       50
176
     1
 90
       50
176
     1
 90
       50
176
     1
290
     0
176
     1
 90
       50
176
     1
 62
   256
176
     0
 40
1.0
176
     0
 90
        2
176
     1
  1
strokes_ogs.tif
176
     1
290
     0
176
     1
 40
1.0
176
     1
 40
1.0
176
     1
  0
VISUALSTYLE
  5
26D
102
{ACAD_REACTORS
330
267
102
}
330
267
100
AcDbVisualStyle
  2

 70
     5
177
     3
291
     0
 70
    58
 90
        0
176
     1
 90
        2
176
     1
 90
        0
176
     1
 90
        0
176
     1
 40
0.6
176
     1
 40
30.0
176
     1
 62
     7
420
 16777215
176
     1
 90
        1
176
     1
 90
        4
176
     1
 62
     7
176
     1
 62
   257
176
     1
 90
        1
176
     1
 90
        1
176
     1
 40
1.0
176
     1
 90
        0
176
     1
 62
   257
176
     1
 40
1.0
176
     1
 90
        1
176
     1
 90
        6
176
     1
 90
        2
176
     1
 62
     7
176
     1
 90
        5
176
     1
 90
        0
176
     1
 90
        0
176
     1
290
     0
176
     1
 90
        1
176
     1
 40
0.0
176
     1
 90
        0
176
     1
290
     0
176
     1
290
     1
176
     1
290
     1
176
     1
290
     0
176
     1
290
     0
176
     1
290
     0
176
     1
290
     0
176
     1
290
     0
176
     1
290
     0
176
     1
 90
       50
176
     1
 40
0.0
176
     1
 40
1.0
176
     1
 90
        0
176
     1
 62
    18
176
     1
 90
       50
176
     1
 90
        3
176
     1
 62
     5
420
      255
176
     1
290
     0
176
     1
 90
       50
176
     1
 90
       50
176
     1
 90
       50
176
     1
290
     0
176
     1
 90
       50
176
     1
 62
   256
176
     0
 40
1.0
176
     0
 90
        2
176
     1
  1
strokes_ogs.tif
176
     1
290
     0
176
     1
 40
1.0
176
     1
 40
1.0
176
     1
  0
VISUALSTYLE
  5
26F
102
{ACAD_REACTORS
330
267
102
}
330
267
100
AcDbVisualStyle
  2

 70
     7
177
     3
291
     1
 70
    58
 90
        1
176
     1
 90
        0
176
     1
 90
        1
176
     1
 90
        0
176
     1
 40
0.6
176
     1
 40
30.0
176
     1
 62
     7
420
 16777215
176
     1
 90
        0
176
     1
 90
        4
176
     1
 62
     7
176
     1
 62
   257
176
     1
 90
        1
176
     1
 90
        1
176
     1
 40
1.0
176
     1
 90
        8
176
     1
 62
     7
176
     1
 40
1.0
176
     1
 90
        1
176
     1
 90
        6
176
     1
 90
        2
176
     1
 62
     7
176
     1
 90
        5
176
     1
 90
        0
176
     1
 90
        0
176
     1
290
     0
176
     1
 90
        1
176
     1
 40
0.0
176
     1
 90
        0
176
     1
290
     0
176
     1
290
     1
176
     1
290
     1
176
     1
290
     0
176
     1
290
     0
176
     1
290
     0
176
     1
290
     0
176
     1
290
     0
176
     1
290
     0
176
     1
 90
       50
176
     1
 40
0.0
176
     1
 40
1.0
176
     1
 90
        0
176
     1
 62
    18
176
     1
 90
       50
176
     1
 90
        3
176
     1
 62
     5
420
      255
176
     1
290
     0
176
     1
 90
       50
176
     1
 90
       50
176
     1
 90
       50
176
     1
290
     0
176
     1
 90
       50
176
     1
 62
   256
176
     0
 40
1.0
176
     0
 90
        2
176
     1
  1
strokes_ogs.tif
176
     1
290
     0
176
     1
 40
1.0
176
     1
 40
1.0
176
     1
  0
VISUALSTYLE
  5
273
102
{ACAD_REACTORS
330
267
102
}
330
267
100
AcDbVisualStyle
  2

 70
    12
177
     3
291
     1
 70
    58
 90
        2
176
     1
 90
        2
176
     1
 90
        0
176
     1
 90
        0
176
     1
 40
0.6
176
     1
 40
30.0
176
     1
 62
     7
420
 16777215
176
     1
 90
        1
176
     1
 90
        4
176
     1
 62
     7
176
     1
 62
   257
176
     1
 90
        1
176
     1
 90
        1
176
     1
 40
1.0
176
     1
 90
        8
176
     1
 62
     7
176
     1
 40
1.0
176
     1
 90
        1
176
     1
 90
        6
176
     1
 90
        2
176
     1
 62
     7
176
     1
 90
        5
176
     1
 90
        0
176
     1
 90
        0
176
     1
290
     0
176
     1
 90
        1
176
     1
 40
50.0
176
     1
 90
        0
176
     1
290
     0
176
     1
290
     1
176
     1
290
     1
176
     1
290
     0
176
     1
290
     0
176
     1
290
     0
176
     1
290
     0
176
     1
290
     0
176
     1
290
     0
176
     1
 90
       50
176
     1
 40
0.0
176
     1
 40
1.0
176
     1
 90
        0
176
     1
 62
    18
176
     1
 90
       50
176
     1
 90
        3
176
     1
 62
     5
420
      255
176
     1
290
     0
176
     1
 90
       50
176
     1
 90
       50
176
     1
 90
       50
176
     1
290
     0
176
     1
 90
       50
176
     1
 62
   256
176
     0
 40
1.0
176
     0
 90
        2
176
     1
  1
strokes_ogs.tif
176
     1
290
     0
176
     1
 40
1.0
176
     1
 40
1.0
176
     1
  0
VISUALSTYLE
  5
277
102
{ACAD_REACTORS
330
267
102
}
330
267
100
AcDbVisualStyle
  2

 70
    16
177
     3
291
     1
 70
    58
 90
        2
176
     1
 90
        2
176
     1
 90
        3
176
     1
 90
        0
176
     1
 40
0.6
176
     1
 40
30.0
176
     1
 62
     8
420
  8421504
176
     1
 90
        1
176
     1
 90
        4
176
     1
 62
     7
176
     1
 62
   257
176
     1
 90
        1
176
     1
 90
        1
176
     1
 40
1.0
176
     1
 90
        8
176
     1
 62
     8
420
  8421504
176
     1
 40
1.0
176
     1
 90
        1
176
     1
 90
        6
176
     1
 90
        2
176
     1
 62
     7
176
     1
 90
        5
176
     1
 90
        0
176
     1
 90
        0
176
     1
290
     0
176
     1
 90
        1
176
     1
 40
0.0
176
     1
 90
        0
176
     1
290
     0
176
     1
290
     1
176
     1
290
     1
176
     1
290
     0
176
     1
290
     0
176
     1
290
     0
176
     1
290
     0
176
     1
290
     0
176
     1
290
     0
176
     1
 90
       50
176
     1
 40
0.0
176
     1
 40
1.0
176
     1
 90
        0
176
     1
 62
    18
176
     1
 90
       50
176
     1
 90
        3
176
     1
 62
     5
420
      255
176
     1
290
     0
176
     1
 90
       50
176
     1
 90
       50
176
     1
 90
       50
176
     1
290
     0
176
     1
 90
       50
176
     1
 62
   256
176
     0
 40
1.0
176
     0
 90
        2
176
     1
  1
strokes_ogs.tif
176
     1
290
     0
176
     1
 40
1.0
176
     1
 40
1.0
176
     1
  0
VISUALSTYLE
  5
271
102
{ACAD_REACTORS
330
267
102
}
330
267
100
AcDbVisualStyle
  2

 70
     9
177
     3
291
     0
 70
    58
 90
        3
176
     1
 90
        2
176
     1
 90
        0
176
     1
 90
        0
176
     1
 40
0.6
176
     1
 40
30.0
176
     1
 62
     7
420
 16777215
176
     1
 90
        2
176
     1
 90
        2
176
     1
 62
     7
176
     1
 62
   257
176
     1
 90
        1
176
     1
 90
        1
176
     1
 40
40.0
176
     1
 90
        8
176
     1
 62
     7
176
     1
 40
1.0
176
     1
 90
        1
176
     1
 90
        6
176
     1
 90
        2
176
     1
 62
     7
176
     1
 90
        3
176
     1
 90
        0
176
     1
 90
        0
176
     1
290
     0
176
     1
 90
        1
176
     1
 40
0.0
176
     1
 90
        0
176
     1
290
     0
176
     1
290
     1
176
     1
290
     1
176
     1
290
     0
176
     1
290
     0
176
     1
290
     0
176
     1
290
     0
176
     1
290
     0
176
     1
290
     0
176
     1
 90
       50
176
     1
 40
0.0
176
     1
 40
1.0
176
     1
 90
        0
176
     1
 62
    18
176
     1
 90
       50
176
     1
 90
        3
176
     1
 62
     5
420
      255
176
     1
290
     0
176
     1
 90
       50
176
     1
 90
       50
176
     1
 90
       50
176
     1
290
     0
176
     1
 90
       50
176
     1
 62
   256
176
     0
 40
1.0
176
     0
 90
        2
176
     1
  1
strokes_ogs.tif
176
     1
290
     0
176
     1
 40
1.0
176
     1
 40
1.0
176
     1
  0
VISUALSTYLE
  5
272
102
{ACAD_REACTORS
330
267
102
}
330
267
100
AcDbVisualStyle
  2

 70
    11
177
     3
291
     1
 70
    58
 90
        2
176
     1
 90
        2
176
     1
 90
        0
176
     1
 90
        0
176
     1
 40
0.6
176
     1
 40
30.0
176
     1
 62
     7
420
 16777215
176
     1
 90
        1
176
     1
 90
        4
176
     1
 62
     7
176
     1
 62
   257
176
     1
 90
        1
176
     1
 90
        1
176
     1
 40
1.0
176
     1
 90
        8
176
     1
 62
     7
176
     1
 40
1.0
176
     1
 90
        1
176
     1
 90
        6
176
     1
 90
        2
176
     1
 62
     7
176
     1
 90
        5
176
     1
 90
        0
176
     1
 90
        0
176
     1
290
     0
176
     1
 90
        1
176
     1
 40
-50.0
176
     1
 90
        0
176
     1
290
     0
176
     1
290
     1
176
     1
290
     1
176
     1
290
     0
176
     1
290
     0
176
     1
290
     0
176
     1
290
     0
176
     1
290
     0
176
     1
290
     0
176
     1
 90
       50
176
     1
 40
0.0
176
     1
 40
1.0
176
     1
 90
        0
176
     1
 62
    18
176
     1
 90
       50
176
     1
 90
        3
176
     1
 62
     5
420
      255
176
     1
290
     0
176
     1
 90
       50
176
     1
 90
       50
176
     1
 90
       50
176
     1
290
     0
176
     1
 90
       50
176
     1
 62
   256
176
     0
 40
1.0
176
     0
 90
        2
176
     1
  1
strokes_ogs.tif
176
     1
290
     0
176
     1
 40
1.0
176
     1
 40
1.0
176
     1
  0
VISUALSTYLE
  5
8FE
102
{ACAD_REACTORS
330
267
102
}
330
267
100
AcDbVisualStyle
  2

 70
    22
177
     3
291
     1
 70
    58
 90
        2
176
     1
 90
        2
176
     1
 90
        0
176
     1
 90
        0
176
     1
 40
0.6
176
     1
 40
30.0
176
     1
 62
     7
420
 16777215
176
     1
 90
        1
176
     1
 90
        4
176
     1
 62
     7
176
     1
 62
   257
176
     1
 90
        1
176
     1
 90
        1
176
     1
 40
1.0
176
     1
 90
        8
176
     1
 62
     7
176
     1
 40
1.0
176
     1
 90
        1
176
     1
 90
        6
176
     1
 90
        2
176
     1
 62
     7
176
     1
 90
        5
176
     1
 90
        0
176
     1
 90
        0
176
     1
290
     0
176
     1
 90
        1
176
     1
 40
0.0
176
     1
 90
        0
176
     1
290
     0
176
     1
290
     1
176
     1
290
     1
176
     1
290
     0
176
     1
290
     0
176
     1
290
     0
176
     1
290
     0
176
     1
290
     0
176
     1
290
     0
176
     1
 90
       50
176
     1
 40
0.0
176
     1
 40
1.0
176
     1
 90
        0
176
     1
 62
    18
176
     1
 90
       50
176
     1
 90
        3
176
     1
 62
     5
420
      255
176
     1
290
     0
176
     1
 90
       50
176
     1
 90
       50
176
     1
 90
       50
176
     1
290
     0
176
     1
 90
       50
176
     1
 62
   256
176
     0
 40
1.0
176
     0
 90
        2
176
     1
  1
strokes_ogs.tif
176
     1
290
     0
176
     1
 40
1.0
176
     1
 40
1.0
176
     1
  0
VISUALSTYLE
  5
276
102
{ACAD_REACTORS
330
267
102
}
330
267
100
AcDbVisualStyle
  2

 70
    15
177
     3
291
     1
 70
    58
 90
        2
176
     1
 90
        2
176
     1
 90
        0
176
     1
 90
        0
176
     1
 40
0.6
176
     1
 40
30.0
176
     1
 62
     7
420
 16777215
176
     1
 90
        1
176
     1
 90
        4
176
     1
 62
     7
176
     1
 62
   257
176
     1
 90
        1
176
     1
 90
        1
176
     1
 40
1.0
176
     1
 90
        8
176
     1
 62
     7
176
     1
 40
1.0
176
     1
 90
        1
176
     1
 90
        6
176
     1
 90
        2
176
     1
 62
     7
176
     1
 90
        5
176
     1
 90
        0
176
     1
 90
        0
176
     1
290
     0
176
     1
 90
        1
176
     1
 40
0.0
176
     1
 90
        0
176
     1
290
     0
176
     1
290
     1
176
     1
290
     1
176
     1
290
     0
176
     1
290
     0
176
     1
290
     0
176
     1
290
     0
176
     1
290
     0
176
     1
290
     0
176
     1
 90
       50
176
     1
 40
0.0
176
     1
 40
1.0
176
     1
 90
        0
176
     1
 62
    18
176
     1
 90
       50
176
     1
 90
        3
176
     1
 62
     5
420
      255
176
     1
290
     0
176
     1
 90
       50
176
     1
 90
       50
176
     1
 90
       50
176
     1
290
     0
176
     1
 90
       50
176
     1
 62
   256
176
     0
 40
1.0
176
     0
 90
        2
176
     1
  1
strokes_ogs.tif
176
     1
290
     0
176
     1
 40
1.0
176
     1
 40
1.0
176
     1
  0
VISUALSTYLE
  5
268
102
{ACAD_REACTORS
330
267
102
}
330
267
100
AcDbVisualStyle
  2

 70
     0
177
     3
291
     1
 70
    58
 90
        2
176
     1
 90
        1
176
     1
 90
        1
176
     1
 90
        2
176
     1
 40
0.6
176
     1
 40
30.0
176
     1
 62
     7
420
 16777215
176
     1
 90
        0
176
     1
 90
        4
176
     1
 62
     7
176
     1
 62
   257
176
     1
 90
        1
176
     1
 90
        1
176
     1
 40
1.0
176
     1
 90
        8
176
     1
 62
     7
176
     1
 40
1.0
176
     1
 90
        1
176
     1
 90
        6
176
     1
 90
        2
176
     1
 62
     7
176
     1
 90
        5
176
     1
 90
        0
176
     1
 90
        0
176
     1
290
     0
176
     1
 90
       13
176
     1
 40
0.0
176
     1
 90
        0
176
     1
290
     0
176
     1
290
     1
176
     1
290
     1
176
     1
290
     0
176
     1
290
     0
176
     1
290
     0
176
     1
290
     0
176
     1
290
     0
176
     1
290
     0
176
     1
 90
       50
176
     1
 40
0.0
176
     1
 40
1.0
176
     1
 90
        0
176
     1
 62
    18
176
     1
 90
       50
176
     1
 90
        3
176
     1
 62
     5
420
      255
176
     1
290
     0
176
     1
 90
       50
176
     1
 90
       50
176
     1
 90
       50
176
     1
290
     0
176
     1
 90
       50
176
     1
 62
   256
176
     0
 40
1.0
176
     0
 90
        2
176
     1
  1
strokes_ogs.tif
176
     1
290
     0
176
     1
 40
1.0
176
     1
 40
1.0
176
     1
  0
VISUALSTYLE
  5
269
102
{ACAD_REACTORS
330
267
102
}
330
267
100
AcDbVisualStyle
  2

 70
     1
177
     3
291
     1
 70
    58
 90
        2
176
     1
 90
        1
176
     1
 90
        1
176
     1
 90
        2
176
     1
 40
0.6
176
     1
 40
30.0
176
     1
 62
     7
420
 16777215
176
     1
 90
        1
176
     1
 90
        4
176
     1
 62
     7
176
     1
 62
   257
176
     1
 90
        1
176
     1
 90
        1
176
     1
 40
1.0
176
     1
 90
        0
176
     1
 62
   257
176
     1
 40
1.0
176
     1
 90
        1
176
     1
 90
        6
176
     1
 90
        2
176
     1
 62
     7
176
     1
 90
        5
176
     1
 90
        0
176
     1
 90
        0
176
     1
290
     0
176
     1
 90
       13
176
     1
 40
0.0
176
     1
 90
        0
176
     1
290
     0
176
     1
290
     1
176
     1
290
     1
176
     1
290
     0
176
     1
290
     0
176
     1
290
     0
176
     1
290
     0
176
     1
290
     0
176
     1
290
     0
176
     1
 90
       50
176
     1
 40
0.0
176
     1
 40
1.0
176
     1
 90
        0
176
     1
 62
    18
176
     1
 90
       50
176
     1
 90
        3
176
     1
 62
     5
420
      255
176
     1
290
     0
176
     1
 90
       50
176
     1
 90
       50
176
     1
 90
       50
176
     1
290
     0
176
     1
 90
       50
176
     1
 62
   256
176
     0
 40
1.0
176
     0
 90
        2
176
     1
  1
strokes_ogs.tif
176
     1
290
     0
176
     1
 40
1.0
176
     1
 40
1.0
176
     1
  0
VISUALSTYLE
  5
26A
102
{ACAD_REACTORS
330
267
102
}
330
267
100
AcDbVisualStyle
  2

 70
     2
177
     3
291
     1
 70
    58
 90
        2
176
     1
 90
        2
176
     1
 90
        1
176
     1
 90
        2
176
     1
 40
0.6
176
     1
 40
30.0
176
     1
 62
     7
420
 16777215
176
     1
 90
        0
176
     1
 90
        4
176
     1
 62
     7
176
     1
 62
   257
176
     1
 90
        1
176
     1
 90
        1
176
     1
 40
1.0
176
     1
 90
        0
176
     1
 62
     7
176
     1
 40
1.0
176
     1
 90
        1
176
     1
 90
        6
176
     1
 90
        2
176
     1
 62
     7
176
     1
 90
        5
176
     1
 90
        0
176
     1
 90
        0
176
     1
290
     0
176
     1
 90
       13
176
     1
 40
0.0
176
     1
 90
        0
176
     1
290
     0
176
     1
290
     1
176
     1
290
     1
176
     1
290
     0
176
     1
290
     0
176
     1
290
     0
176
     1
290
     0
176
     1
290
     0
176
     1
290
     0
176
     1
 90
       50
176
     1
 40
0.0
176
     1
 40
1.0
176
     1
 90
        0
176
     1
 62
    18
176
     1
 90
       50
176
     1
 90
        3
176
     1
 62
     5
420
      255
176
     1
290
     0
176
     1
 90
       50
176
     1
 90
       50
176
     1
 90
       50
176
     1
290
     0
176
     1
 90
       50
176
     1
 62
   256
176
     0
 40
1.0
176
     0
 90
        2
176
     1
  1
strokes_ogs.tif
176
     1
290
     0
176
     1
 40
1.0
176
     1
 40
1.0
176
     1
  0
VISUALSTYLE
  5
26B
102
{ACAD_REACTORS
330
267
102
}
330
267
100
AcDbVisualStyle
  2

 70
     3
177
     3
291
     1
 70
    58
 90
        2
176
     1
 90
        2
176
     1
 90
        1
176
     1
 90
        2
176
     1
 40
0.6
176
     1
 40
30.0
176
     1
 62
     7
420
 16777215
176
     1
 90
        1
176
     1
 90
        4
176
     1
 62
     7
176
     1
 62
   257
176
     1
 90
        1
176
     1
 90
        1
176
     1
 40
1.0
176
     1
 90
        0
176
     1
 62
   257
176
     1
 40
1.0
176
     1
 90
        1
176
     1
 90
        6
176
     1
 90
        2
176
     1
 62
     7
176
     1
 90
        5
176
     1
 90
        0
176
     1
 90
        0
176
     1
290
     0
176
     1
 90
       13
176
     1
 40
0.0
176
     1
 90
        0
176
     1
290
     0
176
     1
290
     1
176
     1
290
     1
176
     1
290
     0
176
     1
290
     0
176
     1
290
     0
176
     1
290
     0
176
     1
290
     0
176
     1
290
     0
176
     1
 90
       50
176
     1
 40
0.0
176
     1
 40
1.0
176
     1
 90
        0
176
     1
 62
    18
176
     1
 90
       50
176
     1
 90
        3
176
     1
 62
     5
420
      255
176
     1
290
     0
176
     1
 90
       50
176
     1
 90
       50
176
     1
 90
       50
176
     1
290
     0
176
     1
 90
       50
176
     1
 62
   256
176
     0
 40
1.0
176
     0
 90
        2
176
     1
  1
strokes_ogs.tif
176
     1
290
     0
176
     1
 40
1.0
176
     1
 40
1.0
176
     1
  0
VISUALSTYLE
  5
8FB
102
{ACAD_REACTORS
330
267
102
}
330
267
100
AcDbVisualStyle
  2

 70
     6
177
     3
291
     0
 70
    58
 90
        1
176
     1
 90
        2
176
     1
 90
        2
176
     1
 90
        0
176
     1
 40
0.6
176
     1
 40
30.0
176
     1
 62
     7
420
 16777215
176
     1
 90
        2
176
     1
 90
        2
176
     1
 62
     7
176
     1
 62
   257
176
     1
 90
        2
176
     1
 90
        1
176
     1
 40
40.0
176
     1
 90
        0
176
     1
 62
   257
176
     1
 40
1.0
176
     1
 90
        1
176
     1
 90
        6
176
     1
 90
        2
176
     1
 62
     7
176
     1
 90
        3
176
     1
 90
        0
176
     1
 90
        0
176
     1
290
     0
176
     1
 90
        1
176
     1
 40
0.0
176
     1
 90
        0
176
     1
290
     0
176
     1
290
     1
176
     1
290
     1
176
     1
290
     0
176
     1
290
     0
176
     1
290
     0
176
     1
290
     0
176
     1
290
     0
176
     1
290
     0
176
     1
 90
       50
176
     1
 40
0.0
176
     1
 40
1.0
176
     1
 90
        0
176
     1
 62
    18
176
     1
 90
       50
176
     1
 90
        3
176
     1
 62
     5
420
      255
176
     1
290
     0
176
     1
 90
       50
176
     1
 90
       50
176
     1
 90
       50
176
     1
290
     0
176
     1
 90
       50
176
     1
 62
   256
176
     0
 40
1.0
176
     0
 90
        2
176
     1
  1
strokes_ogs.tif
176
     1
290
     0
176
     1
 40
1.0
176
     1
 40
1.0
176
     1
  0
VISUALSTYLE
  5
8FC
102
{ACAD_REACTORS
330
267
102
}
330
267
100
AcDbVisualStyle
  2

 70
    20
177
     3
291
     1
 70
    58
 90
        2
176
     1
 90
        2
176
     1
 90
        0
176
     1
 90
        0
176
     1
 40
0.6
176
     1
 40
30.0
176
     1
 62
     7
420
 16777215
176
     1
 90
        1
176
     1
 90
        4
176
     1
 62
     7
176
     1
 62
   257
176
     1
 90
        1
176
     1
 90
        1
176
     1
 40
1.0
176
     1
 90
       10
176
     1
 62
     7
176
     1
 40
1.0
176
     1
 90
        1
176
     1
 90
        6
176
     1
 90
        2
176
     1
 62
     7
176
     1
 90
        5
176
     1
 90
        0
176
     1
 90
        0
176
     1
290
     0
176
     1
 90
        1
176
     1
 40
0.0
176
     1
 90
        0
176
     1
290
     0
176
     1
290
     1
176
     1
290
     1
176
     1
290
     0
176
     1
290
     0
176
     1
290
     0
176
     1
290
     0
176
     1
290
     0
176
     1
290
     0
176
     1
 90
       50
176
     1
 40
0.0
176
     1
 40
1.0
176
     1
 90
        0
176
     1
 62
    18
176
     1
 90
       50
176
     1
 90
        3
176
     1
 62
     5
420
      255
176
     1
290
     0
176
     1
 90
       50
176
     1
 90
       50
176
     1
 90
       50
176
     1
290
     0
176
     1
 90
       50
176
     1
 62
   256
176
     0
 40
1.0
176
     0
 90
        2
176
     1
  1
strokes_ogs.tif
176
     1
290
     0
176
     1
 40
1.0
176
     1
 40
1.0
176
     1
  0
VISUALSTYLE
  5
275
102
{ACAD_REACTORS
330
267
102
}
330
267
100
AcDbVisualStyle
  2

 70
    14
177
     3
291
     1
 70
    58
 90
        2
176
     1
 90
        2
176
     1
 90
        0
176
     1
 90
        0
176
     1
 40
0.6
176
     1
 40
30.0
176
     1
 62
     7
420
 16777215
176
     1
 90
        1
176
     1
 90
        4
176
     1
 62
     7
176
     1
 62
   257
176
     1
 90
        7
176
     1
 90
        7
176
     1
 40
1.0
176
     1
 90
        8
176
     1
 62
     7
176
     1
 40
1.0
176
     1
 90
        1
176
     1
 90
        6
176
     1
 90
        2
176
     1
 62
     7
176
     1
 90
        5
176
     1
 90
        0
176
     1
 90
        0
176
     1
290
     0
176
     1
 90
        1
176
     1
 40
0.0
176
     1
 90
        0
176
     1
290
     0
176
     1
290
     1
176
     1
290
     1
176
     1
290
     0
176
     1
290
     0
176
     1
290
     0
176
     1
290
     0
176
     1
290
     0
176
     1
290
     0
176
     1
 90
       50
176
     1
 40
0.0
176
     1
 40
1.0
176
     1
 90
        0
176
     1
 62
    18
176
     1
 90
       50
176
     1
 90
        3
176
     1
 62
     5
420
      255
176
     1
290
     0
176
     1
 90
       50
176
     1
 90
       50
176
     1
 90
       50
176
     1
290
     0
176
     1
 90
       50
176
     1
 62
   256
176
     0
 40
1.0
176
     0
 90
        2
176
     1
  1
strokes_ogs.tif
176
     1
290
     0
176
     1
 40
1.0
176
     1
 40
1.0
176
     1
  0
VISUALSTYLE
  5
8FD
102
{ACAD_REACTORS
330
267
102
}
330
267
100
AcDbVisualStyle
  2

 70
    21
177
     3
291
     1
 70
    58
 90
        2
176
     1
 90
        2
176
     1
 90
        0
176
     1
 90
        0
176
     1
 40
0.6
176
     1
 40
30.0
176
     1
 62
     7
420
 16777215
176
     1
 90
        1
176
     1
 90
        4
176
     1
 62
     7
176
     1
 62
   257
176
     1
 90
        1
176
     1
 90
        1
176
     1
 40
1.0
176
     1
 90
        9
176
     1
 62
     7
176
     1
 40
1.0
176
     1
 90
        1
176
     1
 90
        6
176
     1
 90
        2
176
     1
 62
     7
176
     1
 90
        5
176
     1
 90
        0
176
     1
 90
        0
176
     1
290
     0
176
     1
 90
        1
176
     1
 40
0.0
176
     1
 90
        0
176
     1
290
     0
176
     1
290
     1
176
     1
290
     1
176
     1
290
     0
176
     1
290
     0
176
     1
290
     0
176
     1
290
     0
176
     1
290
     0
176
     1
290
     0
176
     1
 90
       50
176
     1
 40
0.0
176
     1
 40
1.0
176
     1
 90
        0
176
     1
 62
    18
176
     1
 90
       50
176
     1
 90
        3
176
     1
 62
     5
420
      255
176
     1
290
     0
176
     1
 90
       50
176
     1
 90
       50
176
     1
 90
       50
176
     1
290
     0
176
     1
 90
       50
176
     1
 62
   256
176
     0
 40
1.0
176
     0
 90
        2
176
     1
  1
strokes_ogs.tif
176
     1
290
     0
176
     1
 40
1.0
176
     1
 40
1.0
176
     1
  0
VISUALSTYLE
  5
270
102
{ACAD_REACTORS
330
267
102
}
330
267
100
AcDbVisualStyle
  2

 70
     8
177
     3
291
     0
 70
    58
 90
        2
176
     1
 90
        2
176
     1
 90
        0
176
     1
 90
        0
176
     1
 40
0.6
176
     1
 40
30.0
176
     1
 62
     7
420
 16777215
176
     1
 90
        1
176
     1
 90
        0
176
     1
 62
     7
176
     1
 62
   257
176
     1
 90
        1
176
     1
 90
        1
176
     1
 40
1.0
176
     1
 90
        8
176
     1
 62
     8
420
  7895160
176
     1
 40
1.0
176
     1
 90
        1
176
     1
 90
        6
176
     1
 90
        2
176
     1
 62
     7
176
     1
 90
        5
176
     1
 90
        0
176
     1
 90
        0
176
     1
290
     0
176
     1
 90
       13
176
     1
 40
0.0
176
     1
 90
        0
176
     1
290
     0
176
     1
290
     1
176
     1
290
     1
176
     1
290
     0
176
     1
290
     0
176
     1
290
     0
176
     1
290
     0
176
     1
290
     0
176
     1
290
     0
176
     1
 90
       50
176
     1
 40
0.0
176
     1
 40
1.0
176
     1
 90
        0
176
     1
 62
    18
176
     1
 90
       50
176
     1
 90
        3
176
     1
 62
     5
420
      255
176
     1
290
     0
176
     1
 90
       50
176
     1
 90
       50
176
     1
 90
       50
176
     1
290
     0
176
     1
 90
       50
176
     1
 62
   256
176
     0
 40
1.0
176
     0
 90
        2
176
     1
  1
strokes_ogs.tif
176
     1
290
     0
176
     1
 40
1.0
176
     1
 40
1.0
176
     1
  0
VISUALSTYLE
  5
903
102
{ACAD_REACTORS
330
267
102
}
330
267
100
AcDbVisualStyle
  2

 70
    27
177
     3
291
     0
 70
    58
 90
        2
176
     1
 90
        2
176
     1
 90
        1
176
     1
 90
        2
176
     1
 40
0.6
176
     1
 40
30.0
176
     1
 62
     7
420
 16777215
176
     1
 90
        0
176
     1
 90
        4
176
     1
 62
     7
176
     1
 62
   257
176
     1
 90
        1
176
     1
 90
        1
176
     1
 40
1.0
176
     1
 90
        8
176
     1
 62
   257
176
     1
 40
1.0
176
     1
 90
        1
176
     1
 90
        6
176
     1
 90
        2
176
     1
 62
     8
420
  7895160
176
     1
 90
        3
176
     1
 90
        0
176
     1
 90
        0
176
     1
290
     0
176
     1
 90
        5
176
     1
 40
0.0
176
     1
 90
        0
176
     1
290
     0
176
     1
290
     1
176
     1
290
     1
176
     1
290
     0
176
     1
290
     0
176
     1
290
     0
176
     1
290
     0
176
     1
290
     0
176
     1
290
     0
176
     1
 90
       50
176
     1
 40
0.0
176
     1
 40
1.0
176
     1
 90
        0
176
     1
 62
    18
176
     1
 90
       50
176
     1
 90
        3
176
     1
 62
     5
420
      255
176
     1
290
     0
176
     1
 90
       50
176
     1
 90
       50
176
     1
 90
       50
176
     1
290
     0
176
     1
 90
       50
176
     1
 62
   256
176
     0
 40
1.0
176
     0
 90
        2
176
     1
  1
strokes_ogs.tif
176
     1
290
     0
176
     1
 40
1.0
176
     1
 40
1.0
176
     1
  0
VISUALSTYLE
  5
902
102
{ACAD_REACTORS
330
267
102
}
330
267
100
AcDbVisualStyle
  2

 70
    26
177
     3
291
     0
 70
    58
 90
        2
176
     1
 90
        2
176
     1
 90
        1
176
     1
 90
        2
176
     1
 40
0.6
176
     1
 40
30.0
176
     1
 62
     7
420
 16777215
176
     1
 90
        1
176
     1
 90
       10
176
     1
 62
     7
176
     1
 62
   257
176
     1
 90
        2
176
     1
 90
        1
176
     1
 40
1.0
176
     1
 90
        8
176
     1
 62
   257
176
     1
 40
1.0
176
     1
 90
        1
176
     1
 90
        6
176
     1
 90
        2
176
     1
 62
     7
176
     1
 90
        3
176
     1
 90
        0
176
     1
 90
        0
176
     1
290
     0
176
     1
 90
        5
176
     1
 40
0.0
176
     1
 90
        0
176
     1
290
     0
176
     1
290
     1
176
     1
290
     1
176
     1
290
     0
176
     1
290
     0
176
     1
290
     0
176
     1
290
     0
176
     1
290
     0
176
     1
290
     0
176
     1
 90
       50
176
     1
 40
0.0
176
     1
 40
1.0
176
     1
 90
        0
176
     1
 62
    18
176
     1
 90
       50
176
     1
 90
        3
176
     1
 62
     5
420
      255
176
     1
290
     0
176
     1
 90
       50
176
     1
 90
       50
176
     1
 90
       50
176
     1
290
     0
176
     1
 90
       50
176
     1
 62
   256
176
     0
 40
1.0
176
     0
 90
        2
176
     1
  1
strokes_ogs.tif
176
     1
290
     0
176
     1
 40
1.0
176
     1
 40
1.0
176
     1
  0
VISUALSTYLE
  5
8FF
102
{ACAD_REACTORS
330
267
102
}
330
267
100
AcDbVisualStyle
  2

 70
    23
177
     3
291
     0
 70
    58
 90
        2
176
     1
 90
        2
176
     1
 90
        3
176
     1
 90
        0
176
     1
 40
0.6
176
     1
 40
30.0
176
     1
 62
     7
420
 16777215
176
     1
 90
        2
176
     1
 90
        2
176
     1
 62
     7
176
     1
 62
     7
176
     1
 90
        1
176
     1
 90
        1
176
     1
 40
40.0
176
     1
 90
        8
176
     1
 62
     7
176
     1
 40
1.0
176
     1
 90
        1
176
     1
 90
        6
176
     1
 90
        2
176
     1
 62
     7
176
     1
 90
        3
176
     1
 90
        0
176
     1
 90
        0
176
     1
290
     0
176
     1
 90
        1
176
     1
 40
0.0
176
     1
 90
        0
176
     1
290
     0
176
     1
290
     1
176
     1
290
     1
176
     1
290
     0
176
     1
290
     0
176
     1
290
     0
176
     1
290
     0
176
     1
290
     0
176
     1
290
     0
176
     1
 90
       50
176
     1
 40
0.0
176
     1
 40
1.0
176
     1
 90
        0
176
     1
 62
    18
176
     1
 90
       50
176
     1
 90
        3
176
     1
 62
     5
420
      255
176
     1
290
     0
176
     1
 90
       50
176
     1
 90
       50
176
     1
 90
       50
176
     1
290
     0
176
     1
 90
       50
176
     1
 62
   256
176
     0
 40
1.0
176
     0
 90
        2
176
     1
  1
strokes_ogs.tif
176
     1
290
     0
176
     1
 40
1.0
176
     1
 40
1.0
176
     1
  0
VISUALSTYLE
  5
900
102
{ACAD_REACTORS
330
267
102
}
330
267
100
AcDbVisualStyle
  2

 70
    24
177
     3
291
     0
 70
    58
 90
        1
176
     1
 90
        2
176
     1
 90
        2
176
     1
 90
        0
176
     1
 40
0.6
176
     1
 40
30.0
176
     1
 62
     7
420
 16777215
176
     1
 90
        2
176
     1
 90
        2
176
     1
 62
     7
176
     1
 62
     7
176
     1
 90
        1
176
     1
 90
        1
176
     1
 40
40.0
176
     1
 90
       11
176
     1
 62
     7
176
     1
 40
1.0
176
     1
 90
        1
176
     1
 90
        6
176
     1
 90
        2
176
     1
 62
     7
176
     1
 90
        6
176
     1
 90
        0
176
     1
 90
        0
176
     1
290
     0
176
     1
 90
        1
176
     1
 40
0.0
176
     1
 90
        0
176
     1
290
     0
176
     1
290
     1
176
     1
290
     1
176
     1
290
     0
176
     1
290
     0
176
     1
290
     0
176
     1
290
     0
176
     1
290
     0
176
     1
290
     0
176
     1
 90
       50
176
     1
 40
0.0
176
     1
 40
1.0
176
     1
 90
        0
176
     1
 62
    18
176
     1
 90
       50
176
     1
 90
        3
176
     1
 62
     5
420
      255
176
     1
290
     0
176
     1
 90
       50
176
     1
 90
       50
176
     1
 90
       50
176
     1
290
     0
176
     1
 90
       50
176
     1
 62
   256
176
     0
 40
1.0
176
     0
 90
        2
176
     1
  1
strokes_ogs.tif
176
     1
290
     0
176
     1
 40
1.0
176
     1
 40
1.0
176
     1
  0
VISUALSTYLE
  5
274
102
{ACAD_REACTORS
330
267
102
}
330
267
100
AcDbVisualStyle
  2

 70
    13
177
     3
291
     1
 70
    58
 90
        2
176
     1
 90
        2
176
     1
 90
        0
176
     1
 90
        0
176
     1
 40
0.6
176
     1
 40
30.0
176
     1
 62
     7
420
 16777215
176
     1
 90
        1
176
     1
 90
        4
176
     1
 62
     7
176
     1
 62
   257
176
     1
 90
        1
176
     1
 90
        1
176
     1
 40
1.0
176
     1
 90
       12
176
     1
 62
     7
176
     1
 40
1.0
176
     1
 90
        1
176
     1
 90
        6
176
     1
 90
        2
176
     1
 62
     7
176
     1
 90
        5
176
     1
 90
        0
176
     1
 90
        0
176
     1
290
     0
176
     1
 90
        1
176
     1
 40
0.0
176
     1
 90
        0
176
     1
290
     0
176
     1
290
     1
176
     1
290
     1
176
     1
290
     0
176
     1
290
     0
176
     1
290
     0
176
     1
290
     0
176
     1
290
     0
176
     1
290
     0
176
     1
 90
       50
176
     1
 40
0.0
176
     1
 40
1.0
176
     1
 90
        0
176
     1
 62
    18
176
     1
 90
       50
176
     1
 90
        3
176
     1
 62
     5
420
      255
176
     1
290
     0
176
     1
 90
       50
176
     1
 90
       50
176
     1
 90
       50
176
     1
290
     0
176
     1
 90
       50
176
     1
 62
   256
176
     0
 40
1.0
176
     0
 90
        2
176
     1
  1
strokes_ogs.tif
176
     1
290
     0
176
     1
 40
1.0
176
     1
 40
1.0
176
     1
  0
VISUALSTYLE
  5
8FA
102
{ACAD_REACTORS
330
267
102
}
330
267
100
AcDbVisualStyle
  2

 70
     5
177
     3
291
     0
 70
    58
 90
        0
176
     1
 90
        2
176
     1
 90
        0
176
     1
 90
        0
176
     1
 40
0.6
176
     1
 40
30.0
176
     1
 62
     7
420
 16777215
176
     1
 90
        1
176
     1
 90
        4
176
     1
 62
     7
176
     1
 62
   257
176
     1
 90
        1
176
     1
 90
        1
176
     1
 40
1.0
176
     1
 90
        0
176
     1
 62
   257
176
     1
 40
1.0
176
     1
 90
        1
176
     1
 90
        6
176
     1
 90
        2
176
     1
 62
     7
176
     1
 90
        3
176
     1
 90
        0
176
     1
 90
        0
176
     1
290
     0
176
     1
 90
        1
176
     1
 40
0.0
176
     1
 90
        0
176
     1
290
     0
176
     1
290
     1
176
     1
290
     1
176
     1
290
     0
176
     1
290
     0
176
     1
290
     0
176
     1
290
     0
176
     1
290
     0
176
     1
290
     0
176
     1
 90
       50
176
     1
 40
0.0
176
     1
 40
1.0
176
     1
 90
        0
176
     1
 62
    18
176
     1
 90
       50
176
     1
 90
        3
176
     1
 62
     5
420
      255
176
     1
290
     0
176
     1
 90
       50
176
     1
 90
       50
176
     1
 90
       50
176
     1
290
     0
176
     1
 90
       50
176
     1
 62
   256
176
     0
 40
1.0
176
     0
 90
        2
176
     1
  1
strokes_ogs.tif
176
     1
290
     0
176
     1
 40
1.0
176
     1
 40
1.0
176
     1
  0
VISUALSTYLE
  5
901
102
{ACAD_REACTORS
330
267
102
}
330
267
100
AcDbVisualStyle
  2

 70
    25
177
     3
291
     0
 70
    58
 90
        2
176
     1
 90
        2
176
     1
 90
        1
176
     1
 90
        1
176
     1
 40
0.5
176
     1
 40
30.0
176
     1
 62
     7
420
 16777215
176
     1
 90
        1
176
     1
 90
        0
176
     1
 62
     7
176
     1
 62
   257
176
     1
 90
        1
176
     1
 90
        1
176
     1
 40
1.0
176
     1
 90
        8
176
     1
 62
     7
176
     1
 40
1.0
176
     1
 90
        1
176
     1
 90
        6
176
     1
 90
        2
176
     1
 62
     7
176
     1
 90
        3
176
     1
 90
        0
176
     1
 90
        0
176
     1
290
     0
176
     1
 90
       13
176
     1
 40
0.0
176
     1
 90
        0
176
     1
290
     0
176
     1
290
     1
176
     1
290
     1
176
     1
290
     0
176
     1
290
     0
176
     1
290
     0
176
     1
290
     0
176
     1
290
     0
176
     1
290
     0
176
     1
 90
       50
176
     1
 40
0.0
176
     1
 40
1.0
176
     1
 90
        0
176
     1
 62
    18
176
     1
 90
       50
176
     1
 90
        3
176
     1
 62
     5
420
      255
176
     1
290
     0
176
     1
 90
       50
176
     1
 90
       50
176
     1
 90
       50
176
     1
290
     0
176
     1
 90
       50
176
     1
 62
   256
176
     0
 40
1.0
176
     0
 90
        2
176
     1
  1
strokes_ogs.tif
176
     1
290
     0
176
     1
 40
1.0
176
     1
 40
1.0
176
     1
  0
DICTIONARYVAR
  5
331
102
{ACAD_REACTORS
330
330
102
}
330
330
100
DictionaryVariables
280
     0
  1
1:1
  0
DICTIONARYVAR
  5
D5E
102
{ACAD_REACTORS
330
330
102
}
330
330
100
DictionaryVariables
280
     0
  1
STANDARD
  0
DICTIONARYVAR
  5
335
102
{ACAD_REACTORS
330
330
102
}
330
330
100
DictionaryVariables
280
     0
  1
STANDARD
  0
DICTIONARYVAR
  5
18C37
102
{ACAD_REACTORS
330
330
102
}
330
330
100
DictionaryVariables
280
     0
  1
Metric50
  0
DICTIONARYVAR
  5
18C38
102
{ACAD_REACTORS
330
330
102
}
330
330
100
DictionaryVariables
280
     0
  1
Metric50
  0
DICTIONARYVAR
  5
D52
102
{ACAD_REACTORS
330
330
102
}
330
330
100
DictionaryVariables
280
     0
  1
ByLayer
  0
DICTIONARYVAR
  5
18C39
102
{ACAD_REACTORS
330
330
102
}
330
330
100
DictionaryVariables
280
     0
  1
1
  0
DICTIONARYVAR
  5
18C3A
102
{ACAD_REACTORS
330
330
102
}
330
330
100
DictionaryVariables
280
     0
  1
15
  0
XRECORD
  5
18C1A
102
{ACAD_REACTORS
330
18C18
102
}
330
18C18
100
AcDbXrecord
280
     1
330
68C
330
1343
330
17326
330
17327
330
17335
330
17336
330
173AB
330
173AC
330
173BA
330
173BB
330
173D8
330
173D9
330
173E4
330
173E5
330
1754E
330
17559
330
18ABE
330
18ABF
330
18ACD
330
18ACE
330
18B23
330
18B24
330
18B2F
330
18B30
330
18BCC
330
18BCD
330
18BDB
330
18BDC
330
18BED
330
18BEE
  0
DICTIONARYVAR
  5
36AB
102
{ACAD_REACTORS
330
366B
102
}
330
366B
100
DictionaryVariables
280
     0
  1
0.250000
  0
DICTIONARYVAR
  5
36A9
102
{ACAD_REACTORS
330
E38
102
}
330
E38
100
DictionaryVariables
280
     0
  1
0.261799
  0
DICTIONARYVAR
  5
36A7
102
{ACAD_REACTORS
330
E38
102
}
330
E38
100
DictionaryVariables
280
     0
  1
0.400000
  0
DICTIONARYVAR
  5
36A8
102
{ACAD_REACTORS
330
E38
102
}
330
E38
100
DictionaryVariables
280
     0
  1
0.250000
  0
DICTIONARYVAR
  5
36AA
102
{ACAD_REACTORS
330
E38
102
}
330
E38
100
DictionaryVariables
280
     0
  1
1
  0
FIELD
  5
36AD
102
{ACAD_REACTORS
330
18BF3
102
}
330
18BF3
100
AcDbField
  1
_text
  2
{%<\_FldIdx 0>%M}
 90
        1
360
36B1
 97
        0
 91
       63
 92
        0
 94
       13
 95
        2
 96
        0
300

 93
        1
  6
ACFD_FIELDTEXT_CHECKSUM
 93
        2
 90
        2
140
2090.0
 94
        0
300

302

304
ACVALUE_END
  7
ACFD_FIELD_VALUE
 93
        3
 90
        0
 94
        0
300

302

304
ACVALUE_END
301

 98
        0
  0
DICTIONARY
  5
18C00
330
279
100
AcDbDictionary
280
     1
281
     1
  3
ACAD_ROUNDTRIP_2008_TABLESTYLE_CELLSTYLEMAP
360
18C64
  0
FIELD
  5
36B1
330
36AD
100
AcDbField
  1
AcVar
  2
\AcVar Date \f "yyyyMMdd"
 90
        0
 97
        0
 91
       32
 92
        0
 94
       43
 95
       64
 96
        0
300
Variable not supported
 93
        1
  6
Variable
 93
        2
 90
        4
  1
Date
 94
        0
300

302

304
ACVALUE_END
  7
ACFD_FIELD_VALUE
 93
        6
 90
        8
 92
       16
310
E707070000000E000500280028000000
 94
        0
300
yyyyMMdd
302

304
ACVALUE_END
301
----
 98
        4
  0
CELLSTYLEMAP
  5
18C64
102
{ACAD_REACTORS
330
18C00
102
}
330
18C00
100
AcDbCellStyleMap
 90
        3
300
CELLSTYLE
  1
TABLEFORMAT_BEGIN
 90
        5
170
     1
 91
        0
 92
    32768
 62
   257
 93
        1
300
CONTENTFORMAT
  1
CONTENTFORMAT_BEGIN
 90
        0
 91
        0
 92
        4
 93
        0
300

 40
0.0
140
1.0
 94
        5
 62
     0
340
17
144
6.0
309
CONTENTFORMAT_END
171
     1
301
MARGIN
  1
CELLMARGIN_BEGIN
 40
0.06
 40
0.06
 40
0.06
 40
0.06
 40
0.18
 40
0.18
309
CELLMARGIN_END
 94
        6
 95
        1
302
GRIDFORMAT
  1
GRIDFORMAT_BEGIN
 90
        0
 91
        1
 62
     0
 92
       -2
340
0
 93
        0
 40
0.045
309
GRIDFORMAT_END
 95
        2
302
GRIDFORMAT
  1
GRIDFORMAT_BEGIN
 90
        0
 91
        1
 62
     0
 92
       -2
340
0
 93
        0
 40
0.045
309
GRIDFORMAT_END
 95
        4
302
GRIDFORMAT
  1
GRIDFORMAT_BEGIN
 90
        0
 91
        1
 62
     0
 92
       -2
340
0
 93
        0
 40
0.045
309
GRIDFORMAT_END
 95
        8
302
GRIDFORMAT
  1
GRIDFORMAT_BEGIN
 90
        0
 91
        1
 62
     0
 92
       -2
340
0
 93
        0
 40
0.045
309
GRIDFORMAT_END
 95
       16
302
GRIDFORMAT
  1
GRIDFORMAT_BEGIN
 90
        0
 91
        1
 62
     0
 92
       -2
340
0
 93
        0
 40
0.045
309
GRIDFORMAT_END
 95
       32
302
GRIDFORMAT
  1
GRIDFORMAT_BEGIN
 90
        0
 91
        1
 62
     0
 92
       -2
340
0
 93
        0
 40
0.045
309
GRIDFORMAT_END
309
TABLEFORMAT_END
  1
CELLSTYLE_BEGIN
 90
        1
 91
        1
300
_TITLE
309
CELLSTYLE_END
300
CELLSTYLE
  1
TABLEFORMAT_BEGIN
 90
        5
170
     1
 91
        0
 92
        0
 62
   257
 93
        1
300
CONTENTFORMAT
  1
CONTENTFORMAT_BEGIN
 90
        0
 91
        0
 92
        4
 93
        0
300

 40
0.0
140
1.0
 94
        5
 62
     0
340
17
144
4.5
309
CONTENTFORMAT_END
171
     1
301
MARGIN
  1
CELLMARGIN_BEGIN
 40
0.06
 40
0.06
 40
0.06
 40
0.06
 40
0.18
 40
0.18
309
CELLMARGIN_END
 94
        6
 95
        1
302
GRIDFORMAT
  1
GRIDFORMAT_BEGIN
 90
        0
 91
        1
 62
     0
 92
       -2
340
0
 93
        0
 40
0.045
309
GRIDFORMAT_END
 95
        2
302
GRIDFORMAT
  1
GRIDFORMAT_BEGIN
 90
        0
 91
        1
 62
     0
 92
       -2
340
0
 93
        0
 40
0.045
309
GRIDFORMAT_END
 95
        4
302
GRIDFORMAT
  1
GRIDFORMAT_BEGIN
 90
        0
 91
        1
 62
     0
 92
       -2
340
0
 93
        0
 40
0.045
309
GRIDFORMAT_END
 95
        8
302
GRIDFORMAT
  1
GRIDFORMAT_BEGIN
 90
        0
 91
        1
 62
     0
 92
       -2
340
0
 93
        0
 40
0.045
309
GRIDFORMAT_END
 95
       16
302
GRIDFORMAT
  1
GRIDFORMAT_BEGIN
 90
        0
 91
        1
 62
     0
 92
       -2
340
0
 93
        0
 40
0.045
309
GRIDFORMAT_END
 95
       32
302
GRIDFORMAT
  1
GRIDFORMAT_BEGIN
 90
        0
 91
        1
 62
     0
 92
       -2
340
0
 93
        0
 40
0.045
309
GRIDFORMAT_END
309
TABLEFORMAT_END
  1
CELLSTYLE_BEGIN
 90
        2
 91
        1
300
_HEADER
309
CELLSTYLE_END
300
CELLSTYLE
  1
TABLEFORMAT_BEGIN
 90
        5
170
     1
 91
        0
 92
        0
 62
   257
 93
        1
300
CONTENTFORMAT
  1
CONTENTFORMAT_BEGIN
 90
        0
 91
        0
 92
        4
 93
        0
300

 40
0.0
140
1.0
 94
        2
 62
     0
340
17
144
4.5
309
CONTENTFORMAT_END
171
     1
301
MARGIN
  1
CELLMARGIN_BEGIN
 40
0.06
 40
0.06
 40
0.06
 40
0.06
 40
0.18
 40
0.18
309
CELLMARGIN_END
 94
        6
 95
        1
302
GRIDFORMAT
  1
GRIDFORMAT_BEGIN
 90
        0
 91
        1
 62
     0
 92
       -2
340
0
 93
        0
 40
0.045
309
GRIDFORMAT_END
 95
        2
302
GRIDFORMAT
  1
GRIDFORMAT_BEGIN
 90
        0
 91
        1
 62
     0
 92
       -2
340
0
 93
        0
 40
0.045
309
GRIDFORMAT_END
 95
        4
302
GRIDFORMAT
  1
GRIDFORMAT_BEGIN
 90
        0
 91
        1
 62
     0
 92
       -2
340
0
 93
        0
 40
0.045
309
GRIDFORMAT_END
 95
        8
302
GRIDFORMAT
  1
GRIDFORMAT_BEGIN
 90
        0
 91
        1
 62
     0
 92
       -2
340
0
 93
        0
 40
0.045
309
GRIDFORMAT_END
 95
       16
302
GRIDFORMAT
  1
GRIDFORMAT_BEGIN
 90
        0
 91
        1
 62
     0
 92
       -2
340
0
 93
        0
 40
0.045
309
GRIDFORMAT_END
 95
       32
302
GRIDFORMAT
  1
GRIDFORMAT_BEGIN
 90
        0
 91
        1
 62
     0
 92
       -2
340
0
 93
        0
 40
0.045
309
GRIDFORMAT_END
309
TABLEFORMAT_END
  1
CELLSTYLE_BEGIN
 90
        3
 91
        2
300
_DATA
309
CELLSTYLE_END
  0
ENDSEC
  0
SECTION
  2
ACDSDATA
 70
     2
 71
     8
  0
ACDSSCHEMA
 90
        0
  1
AcDb_Thumbnail_Schema
  2
AcDbDs::ID
280
    10
 91
        8
  2
Thumbnail_Data
280
    15
 91
        0
101
ACDSRECORD
 95
        0
 90
        1
  2
AcDbDs::TreatedAsObjectData
280
     1
291
     1
101
ACDSRECORD
 95
        0
 90
        2
  2
AcDbDs::Legacy
280
     1
291
     1
101
ACDSRECORD
  1
AcDbDs::ID
 90
        3
  2
AcDs:Indexable
280
     1
291
     1
101
ACDSRECORD
  1
AcDbDs::ID
 90
        4
  2
AcDbDs::HandleAttribute
280
     7
282
     1
  0
ACDSSCHEMA
 90
        1
  1
AcDbDs::TreatedAsObjectDataSchema
  2
AcDbDs::TreatedAsObjectData
280
     1
 91
        0
  0
ACDSSCHEMA
 90
        2
  1
AcDbDs::LegacySchema
  2
AcDbDs::Legacy
280
     1
 91
        0
  0
ACDSSCHEMA
 90
        3
  1
AcDbDs::IndexedPropertySchema
  2
AcDs:Indexable
280
     1
 91
        0
  0
ACDSSCHEMA
 90
        4
  1
AcDbDs::HandleAttributeSchema
  2
AcDbDs::HandleAttribute
280
     7
 91
        1
284
     1
  0
ACDSRECORD
 90
        0
  2
AcDbDs::ID
280
    10
320
20
  2
Thumbnail_Data
280
    15
 94
     1388
310
89504E470D0A1A0A0000000D49484452000001000000008008020000006BD7205D000003F74944415478DAEDDD4D729B4010406148F9226815EDA4FB1F42DEB1938FA22CB02982858041FCF6F7CA95522902D9433FA61B8699BCF87BC976CE57796BBD539CAFCDF78BF3B5F9FAE9262B6ED8FCAFE40D7FFF3218427E0C011C
310
72AD91C61F4D80C87C1CE98FB977A4041138FD9CF59DFEC309D03CE4A79087BF69BE14285C0AF415F8C40F020004C0B38410210470C825846A00400A0410400DA01108A0060001000200040008001000200040008000200040001C054321C209E090373114229C000E39A440000120215403A80134821A0018C48726E8B3EB
310
F3A79FB9680D3D0024847A80BD1DF27B79CBB3FC5D5DC1581ED963C9091B4D8D184E80DE439E67F98A094C5EE645267D920201040008001000200040804D532DBE7277B39900A2FF5DFBA4D376083114E2913DB2F23D32A471CABE6F53D477D3EA178FEC316E576E721120250453E3A619F7693BB9FFB70EF6A5A9E2D3E87F
310
F12DBA0E023C61C89DFF89A1733A5FDF95BA54F15DDD1BAE7B06091201D2E91D0A31256DA8CB8065720F198E22F838E913087090E8DF910386828613C0216F25841A2196000E39A440000120215403A80134821A0090020104000800100020004000E01B93E3F660725C3D00A007D839D5732D53A6C84D981CB77AE2D1E304
310
0498978143214EE7EBD293D496024C0AB4449ADE3F1462FAF4E8099CCED755BE176A0080004004010C87861AA09FE5E7DBB997B7B113BF8100B32010A106088184500D101ACFC7A9010029D08631FDED76F80815708BCD71DBFA52F78309B03255DC2F7CEAADBFB43594DAD2D95220800080142814090F15400FB07E01EDBA
310
0D01E246FF1B29CE17CF164B81F6742EAF96C74B9361C9ABAE882BC0F05522C7866373CDC6AE6DBFCACFAE93BA251FA540CB549683822CE164DCDCA42B945F8C33EDFA464353F500BB4CE8BBF6D0BB67177F08B02613D709AECA80DF3B193E6756EBBEEFEFF5B121059AB7065851211060133580D0C7310558AFE771519F00
310
34E000010E5F03680D0204AD01B40601000200040008001000200040008000000100020004000800100020C0CC18008CD00218000C29104000400D101CADA106D825ADE9E592E7B153118DC202196B4679AF0366252200619EC30D2910A007189363F84B113405EA5D2778D68CE275B04EFF6A3210A027D07B43A4772598B9
310
0D0401369118CC14A32F76CB0A02CC72BADDA0965DBFD8C40F5088008302E200970ED356FB43F41A60FB9DD2900F38D313E0B0C5C9A80F308100FBEB9AEE49CBB9D6ABF4EDABC723802238B14E1D750D57E84FC4508815B46CFAD97AB3FEB7FA69BD3E5235BF11F2E2EFEE97B8FA2A6F45F84CA056A26E0D84AE019C23114E
310
00410F354074E43F117B80E67380C5F93AFCB1C0E687476DD8B59365367CBD2D0786F30F8926DB1EE74D331B0000000049454E44AE426082D9BE400BD41C82BEAD0A808DA21153405A138C0A80A62D56E515C05ED369EF587D16AB3601AC0ECFD1CBFA1C942FF920752791266681FE3684733CC58FF16BB5B4719DCC2E0FB0
310
1E161B91B1DCDBBDF074B8FD41A002FC7BE6DE0EAC79EFEBED4DB05FFE2940005B09FB2B993BC94934E204C0046737C1FF70644C0DDCBEBD0450AE099EBB97A3B716F157B8F7C8FB788D974D7DD3A016C3410B546F050063DDB409AECFCDBFE4C88AB116A8C23C3D1F3C3D3D78F875E36CA73FED530B0F1FDE444F3B7563D7
310
7CEE74CCC3ADF34618135C7A0BF420FBB459BCBE37C2BAFEE750AB09D6E3262FA156831E72D856AB3950B9005400A80060B15A32C1C86DB108002A8016E83859AA3F5FA6B98BF73F5735AE1EF679BC3FFFAFA7A78A397F21A75A3D60FB549569E03F3F12AF25077EEB3A0000000049454E44AE426082
  0
ENDSEC
  0
EOF
