  0
SECTION
  2
HEADER
  9
$ACADVER
  1
AC1021
  9
$ACADMAINTVER
 70
    25
  9
$DWGCODEPAGE
  3
ANSI_932
  9
$LASTSAVEDBY
  1
tform
  9
$INSBASE
 10
0.0
 20
0.0
 30
0.0
  9
$EXTMIN
 10
0.0
 20
0.0
 30
0.0
  9
$EXTMAX
 10
593.9999999999999
 20
420.0
 30
0.0
  9
$LIMMIN
 10
0.0
 20
0.0
  9
$LIMMAX
 10
593.9999999999999
 20
420.0
  9
$ORTHOMODE
 70
     1
  9
$REGENMODE
 70
     1
  9
$FILLMODE
 70
     1
  9
$QTEXTMODE
 70
     0
  9
$MIRRTEXT
 70
     1
  9
$LTSCALE
 40
0.5
  9
$ATTMODE
 70
     1
  9
$TEXTSIZE
 40
2.5
  9
$TRACEWID
 40
1.0
  9
$TEXTSTYLE
  7
ＭＳ ゴシック
  9
$CLAYER
  8
モデル
  9
$CELTYPE
  6
ByLayer
  9
$CECOLOR
 62
   256
  9
$CELTSCALE
 40
1.0
  9
$DISPSILH
 70
     0
  9
$DIMSCALE
 40
1.0
  9
$DIMASZ
 40
1.0
  9
$DIMEXO
 40
5.0
  9
$DIMDLI
 40
0.9999999999999999
  9
$DIMRND
 40
0.0
  9
$DIMDLE
 40
0.0
  9
$DIMEXE
 40
0.0
  9
$DIMTP
 40
0.0
  9
$DIMTM
 40
0.0
  9
$DIMTXT
 40
5.0
  9
$DIMCEN
 40
0.0
  9
$DIMTSZ
 40
0.0
  9
$DIMTOL
 70
     0
  9
$DIMLIM
 70
     0
  9
$DIMTIH
 70
     0
  9
$DIMTOH
 70
     0
  9
$DIMSE1
 70
     0
  9
$DIMSE2
 70
     0
  9
$DIMTAD
 70
     1
  9
$DIMZIN
 70
    11
  9
$DIMBLK
  1
DOT
  9
$DIMASO
 70
     1
  9
$DIMSHO
 70
     1
  9
$DIMPOST
  1
<>
  9
$DIMAPOST
  1
[]
  9
$DIMALT
 70
     0
  9
$DIMALTD
 70
     1
  9
$DIMALTF
 40
1.0
  9
$DIMLFAC
 40
1.0
  9
$DIMTOFL
 70
     0
  9
$DIMTVP
 40
0.0
  9
$DIMTIX
 70
     1
  9
$DIMSOXD
 70
     0
  9
$DIMSAH
 70
     0
  9
$DIMBLK1
  1

  9
$DIMBLK2
  1

  9
$DIMSTYLE
  2
tfrom線あり
  9
$DIMCLRD
 70
     0
  9
$DIMCLRE
 70
     0
  9
$DIMCLRT
 70
     0
  9
$DIMTFAC
 40
1.0
  9
$DIMGAP
 40
1.0
  9
$DIMJUST
 70
     0
  9
$DIMSD1
 70
     0
  9
$DIMSD2
 70
     0
  9
$DIMTOLJ
 70
     1
  9
$DIMTZIN
 70
    11
  9
$DIMALTZ
 70
    11
  9
$DIMALTTZ
 70
    11
  9
$DIMUPT
 70
     0
  9
$DIMDEC
 70
     0
  9
$DIMTDEC
 70
     1
  9
$DIMALTU
 70
     2
  9
$DIMALTTD
 70
     2
  9
$DIMTXSTY
  7
ＭＳ ゴシック
  9
$DIMAUNIT
 70
     0
  9
$DIMADEC
 70
     2
  9
$DIMALTRND
 40
0.0
  9
$DIMAZIN
 70
     0
  9
$DIMDSEP
 70
    46
  9
$DIMATFIT
 70
     0
  9
$DIMFRAC
 70
     2
  9
$DIMLDRBLK
  1
DOT
  9
$DIMLUNIT
 70
     2
  9
$DIMLWD
 70
    -2
  9
$DIMLWE
 70
    -2
  9
$DIMTMOVE
 70
     0
  9
$DIMFXL
 40
1.0
  9
$DIMFXLON
 70
     0
  9
$DIMJOGANG
 40
0.7853981633974483
  9
$DIMTFILL
 70
     0
  9
$DIMTFILLCLR
 70
     0
  9
$DIMARCSYM
 70
     0
  9
$DIMLTYPE
  6

  9
$DIMLTEX1
  6

  9
$DIMLTEX2
  6

  9
$LUNITS
 70
     2
  9
$LUPREC
 70
     0
  9
$SKETCHINC
 40
0.1
  9
$FILLETRAD
 40
0.0
  9
$AUNITS
 70
     0
  9
$AUPREC
 70
     0
  9
$MENU
  1
acad
  9
$ELEVATION
 40
0.0
  9
$PELEVATION
 40
0.0
  9
$THICKNESS
 40
0.0
  9
$LIMCHECK
 70
     0
  9
$CHAMFERA
 40
0.0
  9
$CHAMFERB
 40
0.0
  9
$CHAMFERC
 40
0.0
  9
$CHAMFERD
 40
0.0
  9
$SKPOLY
 70
     0
  9
$TDCREATE
 40
2447893.375
  9
$TDUCREATE
 40
0.0
  9
$TDUPDATE
 40
2459695.66944419
  9
$TDUUPDATE
 40
2459695.29444419
  9
$TDINDWG
 40
0.0
  9
$TDUSRTIMER
 40
0.0
  9
$USRTIMER
 70
     1
  9
$ANGBASE
 50
0.0
  9
$ANGDIR
 70
     0
  9
$PDMODE
 70
     1
  9
$PDSIZE
 40
-2.0
  9
$PLINEWID
 40
0.0
  9
$SPLFRAME
 70
     0
  9
$SPLINETYPE
 70
     6
  9
$SPLINESEGS
 70
     8
  9
$HANDSEED
  5
657B
  9
$SURFTAB1
 70
     6
  9
$SURFTAB2
 70
     6
  9
$SURFTYPE
 70
     6
  9
$SURFU
 70
     6
  9
$SURFV
 70
     6
  9
$UCSBASE
  2

  9
$UCSNAME
  2

  9
$UCSORG
 10
0.0
 20
0.0
 30
0.0
  9
$UCSXDIR
 10
1.0
 20
0.0
 30
0.0
  9
$UCSYDIR
 10
0.0
 20
1.0
 30
0.0
  9
$UCSORTHOREF
  2

  9
$UCSORTHOVIEW
 70
     0
  9
$UCSORGTOP
 10
0.0
 20
0.0
 30
0.0
  9
$UCSORGBOTTOM
 10
0.0
 20
0.0
 30
0.0
  9
$UCSORGLEFT
 10
0.0
 20
0.0
 30
0.0
  9
$UCSORGRIGHT
 10
0.0
 20
0.0
 30
0.0
  9
$UCSORGFRONT
 10
0.0
 20
0.0
 30
0.0
  9
$UCSORGBACK
 10
0.0
 20
0.0
 30
0.0
  9
$PUCSBASE
  2

  9
$PUCSNAME
  2

  9
$PUCSORG
 10
0.0
 20
0.0
 30
0.0
  9
$PUCSXDIR
 10
1.0
 20
0.0
 30
0.0
  9
$PUCSYDIR
 10
0.0
 20
1.0
 30
0.0
  9
$PUCSORTHOREF
  2

  9
$PUCSORTHOVIEW
 70
     0
  9
$PUCSORGTOP
 10
0.0
 20
0.0
 30
0.0
  9
$PUCSORGBOTTOM
 10
0.0
 20
0.0
 30
0.0
  9
$PUCSORGLEFT
 10
0.0
 20
0.0
 30
0.0
  9
$PUCSORGRIGHT
 10
0.0
 20
0.0
 30
0.0
  9
$PUCSORGFRONT
 10
0.0
 20
0.0
 30
0.0
  9
$PUCSORGBACK
 10
0.0
 20
0.0
 30
0.0
  9
$USERI1
 70
     0
  9
$USERI2
 70
     0
  9
$USERI3
 70
     0
  9
$USERI4
 70
     0
  9
$USERI5
 70
     0
  9
$USERR1
 40
0.0
  9
$USERR2
 40
0.0
  9
$USERR3
 40
0.0
  9
$USERR4
 40
0.0
  9
$USERR5
 40
0.0
  9
$WORLDVIEW
 70
     1
  9
$SHADEDGE
 70
     3
  9
$SHADEDIF
 70
    70
  9
$TILEMODE
 70
     1
  9
$MAXACTVP
 70
    64
  9
$PINSBASE
 10
0.0
 20
0.0
 30
0.0
  9
$PLIMCHECK
 70
     0
  9
$PEXTMIN
 10
0.0
 20
0.0
 30
0.0
  9
$PEXTMAX
 10
0.0
 20
0.0
 30
0.0
  9
$PLIMMIN
 10
-7.5
 20
-20.0
  9
$PLIMMAX
 10
412.5
 20
277.0
  9
$UNITMODE
 70
     0
  9
$VISRETAIN
 70
     0
  9
$PLINEGEN
 70
     1
  9
$PSLTSCALE
 70
     0
  9
$TREEDEPTH
 70
  3020
  9
$CMLSTYLE
  2
Standard
  9
$CMLJUST
 70
     0
  9
$CMLSCALE
 40
1.0
  9
$PROXYGRAPHICS
 70
     0
  9
$MEASUREMENT
 70
     1
  9
$CELWEIGHT
370
    -1
  9
$ENDCAPS
280
     0
  9
$JOINSTYLE
280
     0
  9
$LWDISPLAY
290
     1
  9
$INSUNITS
 70
     4
  9
$HYPERLINKBASE
  1

  9
$STYLESHEET
  1

  9
$XEDIT
290
     1
  9
$CEPSNTYPE
380
     0
  9
$PSTYLEMODE
290
     1
  9
$FINGERPRINTGUID
  2

  9
$VERSIONGUID
  2

  9
$EXTNAMES
290
     1
  9
$PSVPSCALE
 40
0.0
  9
$OLESTARTUP
290
     0
  9
$SORTENTS
280
   127
  9
$INDEXCTL
280
     0
  9
$HIDETEXT
280
     1
  9
$XCLIPFRAME
290
     0
  9
$HALOGAP
280
     0
  9
$OBSCOLOR
 70
   257
  9
$OBSLTYPE
280
     0
  9
$INTERSECTIONDISPLAY
280
     0
  9
$INTERSECTIONCOLOR
 70
   257
  9
$DIMASSOC
280
     2
  9
$PROJECTNAME
  1

  9
$CAMERADISPLAY
290
     0
  9
$LENSLENGTH
 40
50.0
  9
$CAMERAHEIGHT
 40
0.0
  9
$STEPSPERSEC
 40
2.0
  9
$STEPSIZE
 40
6.0
  9
$3DDWFPREC
 40
2.0
  9
$PSOLWIDTH
 40
0.25
  9
$PSOLHEIGHT
 40
4.0
  9
$LOFTANG1
 40
1.570796326794897
  9
$LOFTANG2
 40
1.570796326794897
  9
$LOFTMAG1
 40
0.0
  9
$LOFTMAG2
 40
0.0
  9
$LOFTPARAM
 70
     7
  9
$LOFTNORMALS
280
     1
  9
$LATITUDE
 40
37.795
  9
$LONGITUDE
 40
-122.394
  9
$NORTHDIRECTION
 40
0.0
  9
$TIMEZONE
 70
 -8000
  9
$LIGHTGLYPHDISPLAY
280
     1
  9
$TILEMODELIGHTSYNCH
280
     1
  9
$SOLIDHIST
280
     1
  9
$SHOWHIST
280
     1
  9
$DWFFRAME
280
     2
  9
$DGNFRAME
280
     2
  9
$REALWORLDSCALE
290
     1
  9
$INTERFERECOLOR
 62
   256
  9
$CSHADOW
280
     0
  9
$SHADOWPLANELOCATION
 40
0.0
  0
ENDSEC
  0
SECTION
  2
CLASSES
  0
CLASS
  1
LWPOLYLINE
  2
AcDbPolyline
  3
ObjectDBX Classes
 90
        0
 91
        1
280
     0
281
     1
  0
CLASS
  1
IMAGE
  2
AcDbRasterImage
  3
ISM
 90
      127
 91
        4
280
     0
281
     1
  0
CLASS
  1
OLE2FRAME
  2
AcDbOle2Frame
  3
ObjectDBX Classes
 90
        0
 91
        1
280
     0
281
     1
  0
CLASS
  1
HATCH
  2
AcDbHatch
  3
ObjectDBX Classes
 90
        0
 91
        1
280
     0
281
     1
  0
CLASS
  1
DICTIONARYVAR
  2
AcDbDictionaryVar
  3
ObjectDBX Classes
 90
        0
 91
        3
280
     0
281
     0
  0
CLASS
  1
RASTERVARIABLES
  2
AcDbRasterVariables
  3
ISM
 90
        0
 91
        3
280
     0
281
     0
  0
CLASS
  1
IMAGEDEF
  2
AcDbRasterImageDef
  3
ISM
 90
        0
 91
        3
280
     0
281
     0
  0
CLASS
  1
IMAGEDEF_REACTOR
  2
AcDbRasterImageDefReactor
  3
ISM
 90
        1
 91
        3
280
     0
281
     0
  0
CLASS
  1
IDBUFFER
  2
AcDbIdBuffer
  3
ObjectDBX Classes
 90
        0
 91
        3
280
     0
281
     0
  0
CLASS
  1
SPATIAL_FILTER
  2
AcDbSpatialFilter
  3
ObjectDBX Classes
 90
        0
 91
        3
280
     0
281
     0
  0
CLASS
  1
XRECORD
  2
AcDbXrecord
  3
ObjectDBX Classes
 90
        0
 91
        1
280
     0
281
     0
  0
CLASS
  1
SORTENTSTABLE
  2
AcDbSortentsTable
  3
ObjectDBX Classes
 90
        0
 91
        3
280
     0
281
     0
  0
CLASS
  1
LAYER_INDEX
  2
AcDbLayerIndex
  3
ObjectDBX Classes
 90
        0
 91
        3
280
     0
281
     0
  0
CLASS
  1
SPATIAL_INDEX
  2
AcDbSpatialIndex
  3
AutoCAD 2000
 90
        0
 91
        3
280
     0
281
     0
  0
CLASS
  1
OBJECT_PTR
  2
CAseDLPNTableRecord
  3
ASE-LPNTableRecord
 90
        1
 91
        3
280
     0
281
     0
  0
CLASS
  1
LAYOUT
  2
AcDbLayout
  3
ObjectDBX Classes
 90
        0
 91
        1
280
     0
281
     0
  0
CLASS
  1
PLOTSETTINGS
  2
AcDbPlotSettings
  3
ObjectDBX Classes
 90
        0
 91
        3
280
     0
281
     0
  0
CLASS
  1
ACDBDICTIONARYWDFLT
  2
AcDbDictionaryWithDefault
  3
ObjectDBX Classes
 90
        0
 91
        3
280
     0
281
     0
  0
CLASS
  1
ACDBPLACEHOLDER
  2
AcDbPlaceHolder
  3
ObjectDBX Classes
 90
        0
 91
        1
280
     0
281
     0
  0
CLASS
  1
SCALE
  2
AcDbScale
  3
ObjectDBX Classes
 90
     1153
 91
        3
280
     0
281
     0
  0
CLASS
  1
MATERIAL
  2
AcDbMaterial
  3
ObjectDBX Classes
 90
     1153
 91
        3
280
     0
281
     0
  0
CLASS
  1
VISUALSTYLE
  2
AcDbVisualStyle
  3
ObjectDBX Classes
 90
     4095
 91
        3
280
     0
281
     0
  0
CLASS
  1
TABLESTYLE
  2
AcDbTableStyle
  3
ObjectDBX Classes
 90
     4095
 91
        3
280
     0
281
     0
  0
CLASS
  1
DIMASSOC
  2
AcDbDimAssoc
  3
"AcDbDimAssoc|Product Desc:     AcDim ARX App For Dimension|Company:          Autodesk, Inc.|WEB Address:      www.autodesk.com"
 90
        0
 91
        3
280
     0
281
     0
  0
CLASS
  1
CELLSTYLEMAP
  2
AcDbCellStyleMap
  3
ObjectDBX Classes
 90
     1152
 91
        3
280
     0
281
     0
  0
CLASS
  1
SUN
  2
AcDbSun
  3
SCENEOE
 90
     1153
 91
        3
280
     0
281
     0
  0
CLASS
  1
MLEADERSTYLE
  2
AcDbMLeaderStyle
  3
ACDB_MLEADERSTYLE_CLASS
 90
     4095
 91
        3
280
     0
281
     0
  0
ENDSEC
  0
SECTION
  2
TABLES
  0
TABLE
  2
VPORT
  5
7
330
0
100
AcDbSymbolTable
 70
     1
  0
VPORT
  5
15
330
7
100
AcDbSymbolTableRecord
100
AcDbViewportTableRecord
  2
*ACTIVE
 70
     0
 10
0.0
 20
0.0
 11
1.0
 21
1.0
 12
296.9999999999999
 22
210.0
 13
0.0
 23
0.0
 14
1.0
 24
1.0
 15
0.0
 25
0.0
 16
0.0
 26
0.0
 36
1.0
 17
0.0
 27
0.0
 37
0.0
 40
428.4
 41
2.336749633967789
 42
50.0
 43
0.0
 44
0.0
 50
0.0
 51
0.0
 71
    16
 72
  2000
 73
     1
 74
     1
 75
     0
 76
     0
 77
     0
 78
     1
281
     0
 65
     1
110
0.0
120
0.0
130
0.0
111
1.0
121
0.0
131
0.0
112
0.0
122
1.0
132
0.0
 79
     0
146
0.0
348
26C
 60
     3
 61
     5
292
     1
282
     1
141
0.0
142
0.0
 63
   256
361
10E8
  0
ENDTAB
  0
TABLE
  2
LTYPE
  5
4
330
0
100
AcDbSymbolTable
 70
     2
  0
LTYPE
  5
11
330
4
100
AcDbSymbolTableRecord
100
AcDbLinetypeTableRecord
  2
ByBlock
 70
     0
  3

 72
    65
 73
     0
 40
0.0
  0
LTYPE
  5
12
330
4
100
AcDbSymbolTableRecord
100
AcDbLinetypeTableRecord
  2
ByLayer
 70
     0
  3
Solid line
 72
    65
 73
     0
 40
0.0
  0
LTYPE
  5
13
330
4
100
AcDbSymbolTableRecord
100
AcDbLinetypeTableRecord
  2
Continuous
 70
     0
  3
Solid line
 72
    65
 73
     0
 40
0.0
  0
LTYPE
  5
12C7
330
4
100
AcDbSymbolTableRecord
100
AcDbLinetypeTableRecord
  2
HIDDEN
 70
     0
  3
Hidden _ _ _ _ _ _ _ _ _ _ _ _ _ _ _ _ _ _ _ _ 
 72
    65
 73
     2
 40
9.524999999999999
 49
6.35
 74
     0
 49
-3.175
 74
     0
  0
ENDTAB
  0
TABLE
  2
LAYER
  5
2
102
{ACAD_XDICTIONARY
360
2E1
102
}
330
0
100
AcDbSymbolTable
 70
     7
  0
LAYER
  5
14
330
2
100
AcDbSymbolTableRecord
100
AcDbLayerTableRecord
  2
0
 70
     0
 62
     7
  6
Continuous
370
    -3
390
1D
347
266
  0
LAYER
  5
4A
330
2
100
AcDbSymbolTableRecord
100
AcDbLayerTableRecord
  2
Defpoints
 70
     0
 62
     7
  6
Continuous
290
     0
370
    -3
390
1D
347
266
  0
LAYER
  5
12CE
330
2
100
AcDbSymbolTableRecord
100
AcDbLayerTableRecord
  2
寸法
 70
     0
 62
     3
  6
Continuous
370
    13
390
1D
347
266
1001
AcAecLayerStandard
1000

1000

  0
LAYER
  5
12CF
330
2
100
AcDbSymbolTableRecord
100
AcDbLayerTableRecord
  2
モデル
 70
     0
 62
     7
  6
Continuous
370
    20
390
1D
347
266
1001
AcAecLayerStandard
1000

1000

  0
LAYER
  5
142A
330
2
100
AcDbSymbolTableRecord
100
AcDbLayerTableRecord
  2
テンプレート
 70
     0
 62
     7
  6
Continuous
370
    20
390
1D
347
266
1001
AcAecLayerStandard
1000

1000

  0
LAYER
  5
1D5C
330
2
100
AcDbSymbolTableRecord
100
AcDbLayerTableRecord
  2
TFORMLOGO
 70
     0
 62
     7
  6
Continuous
370
    20
390
1D
347
266
  0
LAYER
  5
3848
330
2
100
AcDbSymbolTableRecord
100
AcDbLayerTableRecord
  2
PRINT BORDER
 70
     0
 62
     4
  6
Continuous
290
     0
370
    -3
390
1D
347
266
1001
AcAecLayerStandard
1000

1000

  0
ENDTAB
  0
TABLE
  2
STYLE
  5
3
330
0
100
AcDbSymbolTable
 70
     2
  0
STYLE
  5
17
330
3
100
AcDbSymbolTableRecord
100
AcDbTextStyleTableRecord
  2
Standard
 70
     0
 40
0.0
 41
1.0
 50
0.0
 71
     0
 42
2.5
  3
txt
  4
BIGFONT.SHX
  0
STYLE
  5
39
330
3
100
AcDbSymbolTableRecord
100
AcDbTextStyleTableRecord
  2
ＭＳ ゴシック
 70
     0
 40
0.0
 41
1.0
 50
0.0
 71
     0
 42
2.5
  3
msgothic.ttc
  4
ＭＳ ゴシック
1001
ACAD
1000
ＭＳ ゴシック
1071
        0
  0
ENDTAB
  0
TABLE
  2
VIEW
  5
5
330
0
100
AcDbSymbolTable
 70
     0
  0
ENDTAB
  0
TABLE
  2
UCS
  5
6
330
0
100
AcDbSymbolTable
 70
     0
  0
ENDTAB
  0
TABLE
  2
APPID
  5
8
330
0
100
AcDbSymbolTable
 70
    10
  0
APPID
  5
16
330
8
100
AcDbSymbolTableRecord
100
AcDbRegAppTableRecord
  2
ACAD
 70
     0
  0
APPID
  5
7AC
330
8
100
AcDbSymbolTableRecord
100
AcDbRegAppTableRecord
  2
AcAecLayerStandard
 70
     0
  0
APPID
  5
4890
330
8
100
AcDbSymbolTableRecord
100
AcDbRegAppTableRecord
  2
ACAD_DSTYLE_DIMJAG
 70
     0
  0
APPID
  5
4891
330
8
100
AcDbSymbolTableRecord
100
AcDbRegAppTableRecord
  2
ACAD_DSTYLE_DIMTALN
 70
     0
  0
APPID
  5
4892
330
8
100
AcDbSymbolTableRecord
100
AcDbRegAppTableRecord
  2
ACAD_NAV_VCDISPLAY
 70
     0
  0
APPID
  5
4893
330
8
100
AcDbSymbolTableRecord
100
AcDbRegAppTableRecord
  2
ACAD_PSEXT
 70
     0
  0
APPID
  5
4B40
330
8
100
AcDbSymbolTableRecord
100
AcDbRegAppTableRecord
  2
ACAD_MLEADERVER
 70
     0
  0
APPID
  5
5902
330
8
100
AcDbSymbolTableRecord
100
AcDbRegAppTableRecord
  2
HATCHBACKGROUNDCOLOR
 70
     0
  0
APPID
  5
5B26
330
8
100
AcDbSymbolTableRecord
100
AcDbRegAppTableRecord
  2
PLOTTRANSPARENCY
 70
     0
  0
APPID
  5
6119
330
8
100
AcDbSymbolTableRecord
100
AcDbRegAppTableRecord
  2
PE_DIMMEASUREMENT
 70
     0
  0
ENDTAB
  0
TABLE
  2
DIMSTYLE
  5
9
330
0
100
AcDbSymbolTable
 70
     4
100
AcDbDimStyleTable
  0
DIMSTYLE
105
57
102
{ACAD_REACTORS
330
6279
330
62DE
330
62EB
330
62F8
330
6307
330
6316
330
6323
330
6330
330
633F
330
6358
330
6365
330
6374
330
6387
330
644B
330
644C
330
644D
330
6450
330
645D
330
645E
330
6461
330
654F
330
6560
102
}
330
9
100
AcDbSymbolTableRecord
100
AcDbDimStyleTableRecord
  2
tfrom線あり
 70
     0
  3
<>
  4
[]
 41
1.0
 42
5.0
 43
0.9999999999999999
 44
0.0
 73
     0
 74
     0
 77
     1
 78
    11
140
5.0
141
0.0
143
1.0
147
1.0
171
     1
174
     1
178
     0
179
     2
271
     0
272
     1
276
     2
284
    11
285
    11
286
    11
289
     0
340
39
341
4E
342
4E
  0
DIMSTYLE
105
6148
330
9
100
AcDbSymbolTableRecord
100
AcDbDimStyleTableRecord
  2
Standard
 70
     0
178
     0
340
17
  0
DIMSTYLE
105
6154
330
9
100
AcDbSymbolTableRecord
100
AcDbDimStyleTableRecord
  2
AM_JIS
 70
     0
  4
"
 41
1.0
 42
0.5
 43
7.0
 44
1.0
 47
0.1
 48
0.1
 73
     0
 74
     0
 77
     3
 78
     8
 79
     2
140
2.5
141
0.0
143
0.0393701
146
0.71
147
0.5
172
     1
176
   256
177
   256
178
     2
179
     4
283
     0
284
     8
340
17
341
6155
342
6155
371
    -1
372
    -1
1001
ACAD_DSTYLE_DIMJAG
1070
   388
1040
1.5
1001
ACAD_DSTYLE_DIMTALN
1070
   392
1070
     0
  0
DIMSTYLE
105
61B3
330
9
100
AcDbSymbolTableRecord
100
AcDbDimStyleTableRecord
  2
ISO-25
 70
     0
 41
2.5
 42
0.625
 43
3.75
 44
1.25
 73
     0
 74
     0
 77
     1
 78
     8
140
2.5
141
2.5
143
0.0393700787
147
0.625
171
     3
172
     1
178
     0
271
     2
272
     2
274
     3
278
    44
283
     0
284
     8
340
17
  0
ENDTAB
  0
TABLE
  2
BLOCK_RECORD
  5
1
330
0
100
AcDbSymbolTable
 70
    44
  0
BLOCK_RECORD
  5
A
102
{ACAD_XDICTIONARY
360
495A
102
}
330
1
100
AcDbSymbolTableRecord
100
AcDbBlockTableRecord
  2
*MODEL_SPACE
340
20
 70
     0
280
     1
281
     0
  0
BLOCK_RECORD
  5
B
330
1
100
AcDbSymbolTableRecord
100
AcDbBlockTableRecord
  2
*PAPER_SPACE
340
21
 70
     0
280
     1
281
     0
  0
BLOCK_RECORD
  5
4E
330
1
100
AcDbSymbolTableRecord
100
AcDbBlockTableRecord
  2
_DOT
340
0
102
{BLKREFS
331
60BB
331
60BC
331
60D3
331
60D4
331
60F7
331
60F8
331
6123
331
6124
331
6132
331
6133
331
6174
331
6175
331
6186
331
6187
331
6195
331
6196
331
647E
331
647F
331
648A
331
648B
331
6496
331
6497
331
64A2
331
64A3
331
64AE
331
64AF
331
64BA
331
64BB
331
64C6
331
64C7
331
64D2
331
64D3
331
64DE
331
64DF
331
64EA
331
64EB
331
64F6
331
64F7
331
6502
331
6503
331
650E
331
650F
331
6559
331
6558
331
656A
331
6569
102
}
 70
     0
280
     1
281
     0
  0
BLOCK_RECORD
  5
12C3
330
1
100
AcDbSymbolTableRecord
100
AcDbBlockTableRecord
  2
*Paper_Space1
340
12C4
 70
     0
280
     1
281
     0
  0
BLOCK_RECORD
  5
1D88
330
1
100
AcDbSymbolTableRecord
100
AcDbBlockTableRecord
  2
名称未設定-1
340
0
102
{BLKREFS
331
52E6
102
}
 70
     1
280
     1
281
     0
  0
BLOCK_RECORD
  5
1D8B
330
1
100
AcDbSymbolTableRecord
100
AcDbBlockTableRecord
  2
block 2
340
0
102
{BLKREFS
331
1D8A
102
}
 70
     0
280
     1
281
     0
  0
BLOCK_RECORD
  5
1D8E
330
1
100
AcDbSymbolTableRecord
100
AcDbBlockTableRecord
  2
block 3
340
0
102
{BLKREFS
331
1D8D
102
}
 70
     0
280
     1
281
     0
  0
BLOCK_RECORD
  5
1D91
330
1
100
AcDbSymbolTableRecord
100
AcDbBlockTableRecord
  2
block 4
340
0
102
{BLKREFS
331
1D90
102
}
 70
     0
280
     1
281
     0
  0
BLOCK_RECORD
  5
1DA0
330
1
100
AcDbSymbolTableRecord
100
AcDbBlockTableRecord
  2
block 5
340
0
102
{BLKREFS
331
1D9F
102
}
 70
     0
280
     1
281
     0
  0
BLOCK_RECORD
  5
60B5
330
1
100
AcDbSymbolTableRecord
100
AcDbBlockTableRecord
  2
*D7
340
0
 70
     0
280
     1
281
     0
  0
BLOCK_RECORD
  5
60CD
330
1
100
AcDbSymbolTableRecord
100
AcDbBlockTableRecord
  2
*D8
340
0
 70
     0
280
     1
281
     0
  0
BLOCK_RECORD
  5
60F1
330
1
100
AcDbSymbolTableRecord
100
AcDbBlockTableRecord
  2
*D9
340
0
 70
     0
280
     1
281
     0
  0
BLOCK_RECORD
  5
611D
330
1
100
AcDbSymbolTableRecord
100
AcDbBlockTableRecord
  2
*D10
340
0
 70
     0
280
     1
281
     0
  0
BLOCK_RECORD
  5
612C
330
1
100
AcDbSymbolTableRecord
100
AcDbBlockTableRecord
  2
*D11
340
0
 70
     0
280
     1
281
     0
  0
BLOCK_RECORD
  5
6155
330
1
100
AcDbSymbolTableRecord
100
AcDbBlockTableRecord
  2
_Open30
340
0
 70
     0
280
     1
281
     0
  0
BLOCK_RECORD
  5
616E
330
1
100
AcDbSymbolTableRecord
100
AcDbBlockTableRecord
  2
*D13
340
0
 70
     0
280
     1
281
     0
  0
BLOCK_RECORD
  5
6180
330
1
100
AcDbSymbolTableRecord
100
AcDbBlockTableRecord
  2
*D14
340
0
 70
     0
280
     1
281
     0
  0
BLOCK_RECORD
  5
618F
330
1
100
AcDbSymbolTableRecord
100
AcDbBlockTableRecord
  2
*D15
340
0
 70
     0
280
     1
281
     0
  0
BLOCK_RECORD
  5
627C
330
1
100
AcDbSymbolTableRecord
100
AcDbBlockTableRecord
  2
*D17
340
0
 70
     0
280
     1
281
     0
  0
BLOCK_RECORD
  5
62DF
330
1
100
AcDbSymbolTableRecord
100
AcDbBlockTableRecord
  2
*D18
340
0
 70
     0
280
     1
281
     0
  0
BLOCK_RECORD
  5
62EC
330
1
100
AcDbSymbolTableRecord
100
AcDbBlockTableRecord
  2
*D19
340
0
 70
     0
280
     1
281
     0
  0
BLOCK_RECORD
  5
62FB
330
1
100
AcDbSymbolTableRecord
100
AcDbBlockTableRecord
  2
*D20
340
0
 70
     0
280
     1
281
     0
  0
BLOCK_RECORD
  5
630A
330
1
100
AcDbSymbolTableRecord
100
AcDbBlockTableRecord
  2
*D21
340
0
 70
     0
280
     1
281
     0
  0
BLOCK_RECORD
  5
6317
330
1
100
AcDbSymbolTableRecord
100
AcDbBlockTableRecord
  2
*D22
340
0
 70
     0
280
     1
281
     0
  0
BLOCK_RECORD
  5
6324
330
1
100
AcDbSymbolTableRecord
100
AcDbBlockTableRecord
  2
*D23
340
0
 70
     0
280
     1
281
     0
  0
BLOCK_RECORD
  5
6333
330
1
100
AcDbSymbolTableRecord
100
AcDbBlockTableRecord
  2
*D24
340
0
 70
     0
280
     1
281
     0
  0
BLOCK_RECORD
  5
6340
330
1
100
AcDbSymbolTableRecord
100
AcDbBlockTableRecord
  2
*D25
340
0
 70
     0
280
     1
281
     0
  0
BLOCK_RECORD
  5
6359
330
1
100
AcDbSymbolTableRecord
100
AcDbBlockTableRecord
  2
*D26
340
0
 70
     0
280
     1
281
     0
  0
BLOCK_RECORD
  5
6368
330
1
100
AcDbSymbolTableRecord
100
AcDbBlockTableRecord
  2
*D27
340
0
 70
     0
280
     1
281
     0
  0
BLOCK_RECORD
  5
6377
330
1
100
AcDbSymbolTableRecord
100
AcDbBlockTableRecord
  2
*D28
340
0
 70
     0
280
     1
281
     0
  0
BLOCK_RECORD
  5
638A
330
1
100
AcDbSymbolTableRecord
100
AcDbBlockTableRecord
  2
*D29
340
0
 70
     0
280
     1
281
     0
  0
BLOCK_RECORD
  5
6478
330
1
100
AcDbSymbolTableRecord
100
AcDbBlockTableRecord
  2
*D30
340
0
 70
     0
280
     1
281
     0
  0
BLOCK_RECORD
  5
6484
330
1
100
AcDbSymbolTableRecord
100
AcDbBlockTableRecord
  2
*D31
340
0
 70
     0
280
     1
281
     0
  0
BLOCK_RECORD
  5
6490
330
1
100
AcDbSymbolTableRecord
100
AcDbBlockTableRecord
  2
*D32
340
0
 70
     0
280
     1
281
     0
  0
BLOCK_RECORD
  5
649C
330
1
100
AcDbSymbolTableRecord
100
AcDbBlockTableRecord
  2
*D33
340
0
 70
     0
280
     1
281
     0
  0
BLOCK_RECORD
  5
64A8
330
1
100
AcDbSymbolTableRecord
100
AcDbBlockTableRecord
  2
*D34
340
0
 70
     0
280
     1
281
     0
  0
BLOCK_RECORD
  5
64B4
330
1
100
AcDbSymbolTableRecord
100
AcDbBlockTableRecord
  2
*D35
340
0
 70
     0
280
     1
281
     0
  0
BLOCK_RECORD
  5
64C0
330
1
100
AcDbSymbolTableRecord
100
AcDbBlockTableRecord
  2
*D36
340
0
 70
     0
280
     1
281
     0
  0
BLOCK_RECORD
  5
64CC
330
1
100
AcDbSymbolTableRecord
100
AcDbBlockTableRecord
  2
*D37
340
0
 70
     0
280
     1
281
     0
  0
BLOCK_RECORD
  5
64D8
330
1
100
AcDbSymbolTableRecord
100
AcDbBlockTableRecord
  2
*D38
340
0
 70
     0
280
     1
281
     0
  0
BLOCK_RECORD
  5
64E4
330
1
100
AcDbSymbolTableRecord
100
AcDbBlockTableRecord
  2
*D39
340
0
 70
     0
280
     1
281
     0
  0
BLOCK_RECORD
  5
64F0
330
1
100
AcDbSymbolTableRecord
100
AcDbBlockTableRecord
  2
*D40
340
0
 70
     0
280
     1
281
     0
  0
BLOCK_RECORD
  5
64FC
330
1
100
AcDbSymbolTableRecord
100
AcDbBlockTableRecord
  2
*D41
340
0
 70
     0
280
     1
281
     0
  0
BLOCK_RECORD
  5
6508
330
1
100
AcDbSymbolTableRecord
100
AcDbBlockTableRecord
  2
*D42
340
0
 70
     0
280
     1
281
     0
  0
BLOCK_RECORD
  5
6552
330
1
100
AcDbSymbolTableRecord
100
AcDbBlockTableRecord
  2
*D44
340
0
 70
     0
280
     1
281
     0
  0
BLOCK_RECORD
  5
6563
330
1
100
AcDbSymbolTableRecord
100
AcDbBlockTableRecord
  2
*D45
340
0
 70
     0
280
     1
281
     0
  0
ENDTAB
  0
ENDSEC
  0
SECTION
  2
BLOCKS
  0
BLOCK
  5
D
330
A
100
AcDbEntity
  8
0
390
1D
100
AcDbBlockBegin
  2
*MODEL_SPACE
 70
     0
 10
0.0
 20
0.0
 30
0.0
  3
*MODEL_SPACE
  1
*MODEL_SPACE
  0
ENDBLK
  5
E
330
A
100
AcDbEntity
  8
0
390
1D
100
AcDbBlockEnd
  0
BLOCK
  5
F
330
B
100
AcDbEntity
 67
     1
  8
0
390
1D
100
AcDbBlockBegin
  2
*PAPER_SPACE
 70
     0
 10
0.0
 20
0.0
 30
0.0
  3
*PAPER_SPACE
  1
*PAPER_SPACE
  0
ENDBLK
  5
10
330
B
100
AcDbEntity
 67
     1
  8
0
390
1D
100
AcDbBlockEnd
  0
BLOCK
  5
596F
330
4E
100
AcDbEntity
  8
0
390
1D
100
AcDbBlockBegin
  2
_DOT
 70
     0
 10
0.0
 20
0.0
 30
0.0
  3
_DOT
  1
_DOT
  0
POLYLINE
  5
5971
330
4E
100
AcDbEntity
  8
0
  6
ByBlock
 62
     0
370
    -2
390
1D
100
AcDb2dPolyline
 66
     1
 10
0.0
 20
0.0
 30
0.0
 70
     1
 40
0.5
 41
0.5
  0
VERTEX
  5
5972
330
5971
100
AcDbEntity
  8
0
  6
ByBlock
 62
     0
370
    -2
390
1D
100
AcDbVertex
100
AcDb2dVertex
 10
-0.25
 20
0.0
 30
0.0
 42
1.0
  0
VERTEX
  5
5973
330
5971
100
AcDbEntity
  8
0
  6
ByBlock
 62
     0
370
    -2
390
1D
100
AcDbVertex
100
AcDb2dVertex
 10
0.25
 20
0.0
 30
0.0
 42
1.0
  0
SEQEND
  5
5974
330
5971
100
AcDbEntity
  8
0
390
1D
  0
LINE
  5
5975
330
4E
100
AcDbEntity
  8
0
  6
ByBlock
 62
     0
370
    -2
390
1D
100
AcDbLine
 10
-0.5
 20
0.0
 30
0.0
 11
-1.0
 21
0.0
 31
0.0
  0
ENDBLK
  5
5976
330
4E
100
AcDbEntity
  8
0
390
1D
100
AcDbBlockEnd
  0
BLOCK
  5
12C5
330
12C3
100
AcDbEntity
  8
0
100
AcDbBlockBegin
  2
*Paper_Space1
 70
     0
 10
0.0
 20
0.0
 30
0.0
  3
*Paper_Space1
  1
*Paper_Space83
  0
ENDBLK
  5
12C6
330
12C3
100
AcDbEntity
  8
0
100
AcDbBlockEnd
  0
BLOCK
  5
1D89
330
1D88
100
AcDbEntity
  8
0
100
AcDbBlockBegin
  2
名称未設定-1
 70
     0
 10
0.0
 20
0.0
 30
0.0
  3
名称未設定-1
  1
名称未設定-1
  0
INSERT
  5
1D8A
330
1D88
100
AcDbEntity
  8
TFORMLOGO
100
AcDbBlockReference
  2
block 2
 10
0.0
 20
0.0
 30
0.0
  0
ENDBLK
  5
1DAF
330
1D88
100
AcDbEntity
  8
0
100
AcDbBlockEnd
  0
BLOCK
  5
1D8C
330
1D8B
100
AcDbEntity
  8
0
100
AcDbBlockBegin
  2
block 2
 70
     0
 10
0.0
 20
0.0
 30
0.0
  3
block 2
  1
block 2
  0
INSERT
  5
1D8D
330
1D8B
100
AcDbEntity
  8
TFORMLOGO
100
AcDbBlockReference
  2
block 3
 10
0.0
 20
0.0
 30
0.0
  0
ENDBLK
  5
1DAE
330
1D8B
100
AcDbEntity
  8
0
100
AcDbBlockEnd
  0
BLOCK
  5
1D8F
330
1D8E
100
AcDbEntity
  8
0
100
AcDbBlockBegin
  2
block 3
 70
     0
 10
0.0
 20
0.0
 30
0.0
  3
block 3
  1
block 3
  0
INSERT
  5
1D90
330
1D8E
100
AcDbEntity
  8
TFORMLOGO
100
AcDbBlockReference
  2
block 4
 10
0.0
 20
0.0
 30
0.0
  0
ENDBLK
  5
1DAD
330
1D8E
100
AcDbEntity
  8
0
100
AcDbBlockEnd
  0
BLOCK
  5
1D92
330
1D91
100
AcDbEntity
  8
0
100
AcDbBlockBegin
  2
block 4
 70
     0
 10
0.0
 20
0.0
 30
0.0
  3
block 4
  1
block 4
  0
POLYLINE
  5
1D93
330
1D91
100
AcDbEntity
  8
TFORMLOGO
370
     0
100
AcDb2dPolyline
 66
     1
 10
0.0
 20
0.0
 30
0.0
  0
VERTEX
  5
1D94
330
1D93
100
AcDbEntity
  8
TFORMLOGO
370
     0
100
AcDbVertex
100
AcDb2dVertex
 10
83.79545727667795
 20
167.6444858234922
 30
0.0
  0
VERTEX
  5
1D95
330
1D93
100
AcDbEntity
  8
TFORMLOGO
370
     0
100
AcDbVertex
100
AcDb2dVertex
 10
83.79545727667795
 20
159.7968976406313
 30
0.0
  0
VERTEX
  5
1D96
330
1D93
100
AcDbEntity
  8
TFORMLOGO
370
     0
100
AcDbVertex
100
AcDb2dVertex
 10
71.3631329975216
 20
159.7968976406313
 30
0.0
  0
VERTEX
  5
1D97
330
1D93
100
AcDbEntity
  8
TFORMLOGO
370
     0
100
AcDbVertex
100
AcDb2dVertex
 10
71.3631329975216
 20
127.8027915271048
 30
0.0
  0
VERTEX
  5
1D98
330
1D93
100
AcDbEntity
  8
TFORMLOGO
370
     0
100
AcDbVertex
100
AcDb2dVertex
 10
60.43011526263018
 20
127.8027915271048
 30
0.0
  0
VERTEX
  5
1D99
330
1D93
100
AcDbEntity
  8
TFORMLOGO
370
     0
100
AcDbVertex
100
AcDb2dVertex
 10
60.43011526263018
 20
159.7968976406313
 30
0.0
  0
VERTEX
  5
1D9A
330
1D93
100
AcDbEntity
  8
TFORMLOGO
370
     0
100
AcDbVertex
100
AcDb2dVertex
 10
48.21793273020759
 20
159.7968976406313
 30
0.0
  0
VERTEX
  5
1D9B
330
1D93
100
AcDbEntity
  8
TFORMLOGO
370
     0
100
AcDbVertex
100
AcDb2dVertex
 10
48.21793273020759
 20
167.6444858234922
 30
0.0
  0
VERTEX
  5
1D9C
330
1D93
100
AcDbEntity
  8
TFORMLOGO
370
     0
100
AcDbVertex
100
AcDb2dVertex
 10
83.79545727667795
 20
167.6444858234922
 30
0.0
  0
SEQEND
  5
1D9D
330
1D93
100
AcDbEntity
  8
TFORMLOGO
370
     0
  0
HATCH
  5
1D9E
330
1D91
100
AcDbEntity
  8
TFORMLOGO
 62
   250
420
  2234388
100
AcDbHatch
 10
0.0
 20
0.0
 30
0.0
210
0.0
220
0.0
230
1.0
  2
SOLID
 70
     1
 71
     0
 91
        1
 92
        1
 93
        8
 72
     1
 10
83.79545727667795
 20
167.6444858234922
 11
83.79545727667795
 21
159.7968976406313
 72
     1
 10
83.79545727667795
 20
159.7968976406313
 11
71.3631329975216
 21
159.7968976406313
 72
     1
 10
71.3631329975216
 20
159.7968976406313
 11
71.3631329975216
 21
127.8027915271048
 72
     1
 10
71.3631329975216
 20
127.8027915271048
 11
60.43011526263018
 21
127.8027915271048
 72
     1
 10
60.43011526263018
 20
127.8027915271048
 11
60.43011526263018
 21
159.7968976406313
 72
     1
 10
60.43011526263018
 20
159.7968976406313
 11
48.21793273020759
 21
159.7968976406313
 72
     1
 10
48.21793273020759
 20
159.7968976406313
 11
48.21793273020759
 21
167.6444858234922
 72
     1
 10
48.21793273020759
 20
167.6444858234922
 11
83.79545727667795
 21
167.6444858234922
 97
        0
 75
     2
 76
     1
 98
        0
  0
INSERT
  5
1D9F
330
1D91
100
AcDbEntity
  8
TFORMLOGO
100
AcDbBlockReference
  2
block 5
 10
0.0
 20
0.0
 30
0.0
  0
ENDBLK
  5
1DAC
330
1D91
100
AcDbEntity
  8
0
100
AcDbBlockEnd
  0
BLOCK
  5
1DA1
330
1DA0
100
AcDbEntity
  8
0
100
AcDbBlockBegin
  2
block 5
 70
     0
 10
0.0
 20
0.0
 30
0.0
  3
block 5
  1
block 5
  0
SPLINE
  5
1DA2
330
1DA0
100
AcDbEntity
  8
TFORMLOGO
370
     0
100
AcDbSpline
210
0.0
220
0.0
230
1.0
 70
    11
 71
     3
 72
    56
 73
    52
 74
     0
 42
0.000000001
 43
0.0000000001
 40
0.0
 40
0.0
 40
0.0
 40
0.0
 40
1.0
 40
1.0
 40
1.0
 40
2.0
 40
2.0
 40
2.0
 40
3.0
 40
3.0
 40
3.0
 40
4.0
 40
4.0
 40
4.0
 40
5.0
 40
5.0
 40
5.0
 40
6.0
 40
6.0
 40
6.0
 40
7.0
 40
7.0
 40
7.0
 40
8.0
 40
8.0
 40
8.0
 40
9.0
 40
9.0
 40
9.0
 40
10.0
 40
10.0
 40
10.0
 40
11.0
 40
11.0
 40
11.0
 40
12.0
 40
12.0
 40
12.0
 40
13.0
 40
13.0
 40
13.0
 40
14.0
 40
14.0
 40
14.0
 40
15.0
 40
15.0
 40
15.0
 40
16.0
 40
16.0
 40
16.0
 40
17.0
 40
17.0
 40
17.0
 40
17.0
 10
100.4504378777679
 20
166.69157178364
 30
0.0
 10
101.9848844191641
 20
167.1313385124438
 30
0.0
 10
103.9637485713373
 20
166.7649523658846
 30
0.0
 10
103.9637485713373
 20
166.7649523658846
 30
0.0
 10
103.9637485713373
 20
166.7649523658846
 30
0.0
 10
103.0132460999156
 20
163.911205638077
 30
0.0
 10
103.0132460999156
 20
163.911205638077
 30
0.0
 10
103.0132460999156
 20
163.911205638077
 30
0.0
 10
101.0674548862189
 20
164.3601018759394
 30
0.0
 10
99.57090442016032
 20
163.1805004036133
 30
0.0
 10
98.40508333886608
 20
162.258247733807
 30
0.0
 10
97.65301849830304
 20
159.804132345923
 30
0.0
 10
97.3598406791005
 20
158.8699940888517
 30
0.0
 10
97.3598406791005
 20
158.8699940888517
 30
0.0
 10
96.07137411762282
 20
154.9119212747295
 30
0.0
 10
96.07137411762282
 20
154.9119212747295
 30
0.0
 10
96.07137411762282
 20
154.9119212747295
 30
0.0
 10
100.3012651448482
 20
154.9119212747295
 30
0.0
 10
100.3012651448482
 20
154.9119212747295
 30
0.0
 10
100.3012651448482
 20
154.9119212747295
 30
0.0
 10
99.64152892419852
 20
152.4199098115079
 30
0.0
 10
99.64152892419852
 20
152.4199098115079
 30
0.0
 10
99.64152892419852
 20
152.4199098115079
 30
0.0
 10
95.38097652692731
 20
152.4199098115079
 30
0.0
 10
95.38097652692731
 20
152.4199098115079
 30
0.0
 10
95.38097652692731
 20
152.4199098115079
 30
0.0
 10
87.75353009080013
 20
127.8027915271048
 30
0.0
 10
87.75353009080013
 20
127.8027915271048
 30
0.0
 10
87.75353009080013
 20
127.8027915271048
 30
0.0
 10
85.36538832498108
 20
127.8027915271048
 30
0.0
 10
85.36538832498108
 20
127.8027915271048
 30
0.0
 10
85.36538832498108
 20
127.8027915271048
 30
0.0
 10
93.00006946639998
 20
152.4199098115079
 30
0.0
 10
93.00006946639998
 20
152.4199098115079
 30
0.0
 10
93.00006946639998
 20
152.4199098115079
 30
0.0
 10
89.85297266450198
 20
152.4199098115079
 30
0.0
 10
89.85297266450198
 20
152.4199098115079
 30
0.0
 10
89.85297266450198
 20
152.4199098115079
 30
0.0
 10
90.51270888515164
 20
154.9119212747295
 30
0.0
 10
90.51270888515164
 20
154.9119212747295
 30
0.0
 10
90.51270888515164
 20
154.9119212747295
 30
0.0
 10
93.6904670570955
 20
154.9119212747295
 30
0.0
 10
93.6904670570955
 20
154.9119212747295
 30
0.0
 10
93.6904670570955
 20
154.9119212747295
 30
0.0
 10
94.81598049462158
 20
158.3616699146644
 30
0.0
 10
94.81598049462158
 20
158.3616699146644
 30
0.0
 10
95.7237637538445
 20
161.2605474231013
 30
0.0
 10
96.4968436907311
 20
162.8139420021662
 30
0.0
 10
97.15657991138076
 20
163.9844139654337
 30
0.0
 10
97.81183750494507
 20
165.1523021053827
 30
0.0
 10
99.1047826935081
 20
166.3084769129547
 30
0.0
 10
100.4504378777679
 20
166.69157178364
 30
0.0
  0
HATCH
  5
1DA3
330
1DA0
100
AcDbEntity
  8
TFORMLOGO
 62
   250
420
  2234388
100
AcDbHatch
 10
0.0
 20
0.0
 30
0.0
210
0.0
220
0.0
230
1.0
  2
SOLID
 70
     1
 71
     0
 91
        1
 92
        1
 93
        1
 72
     4
 94
        3
 73
     0
 74
     1
 95
       56
 96
       52
 40
0.0
 40
0.0
 40
0.0
 40
0.0
 40
1.0
 40
1.0
 40
1.0
 40
2.0
 40
2.0
 40
2.0
 40
3.0
 40
3.0
 40
3.0
 40
4.0
 40
4.0
 40
4.0
 40
5.0
 40
5.0
 40
5.0
 40
6.0
 40
6.0
 40
6.0
 40
7.0
 40
7.0
 40
7.0
 40
8.0
 40
8.0
 40
8.0
 40
9.0
 40
9.0
 40
9.0
 40
10.0
 40
10.0
 40
10.0
 40
11.0
 40
11.0
 40
11.0
 40
12.0
 40
12.0
 40
12.0
 40
13.0
 40
13.0
 40
13.0
 40
14.0
 40
14.0
 40
14.0
 40
15.0
 40
15.0
 40
15.0
 40
16.0
 40
16.0
 40
16.0
 40
17.0
 40
17.0
 40
17.0
 40
17.0
 10
100.4504378777679
 20
166.69157178364
 10
101.9848844191641
 20
167.1313385124438
 10
103.9637485713373
 20
166.7649523658846
 10
103.9637485713373
 20
166.7649523658846
 10
103.9637485713373
 20
166.7649523658846
 10
103.0132460999156
 20
163.911205638077
 10
103.0132460999156
 20
163.911205638077
 10
103.0132460999156
 20
163.911205638077
 10
101.0674548862189
 20
164.3601018759394
 10
99.57090442016032
 20
163.1805004036133
 10
98.40508333886608
 20
162.258247733807
 10
97.65301849830304
 20
159.804132345923
 10
97.3598406791005
 20
158.8699940888517
 10
97.3598406791005
 20
158.8699940888517
 10
96.07137411762282
 20
154.9119212747295
 10
96.07137411762282
 20
154.9119212747295
 10
96.07137411762282
 20
154.9119212747295
 10
100.3012651448482
 20
154.9119212747295
 10
100.3012651448482
 20
154.9119212747295
 10
100.3012651448482
 20
154.9119212747295
 10
99.64152892419852
 20
152.4199098115079
 10
99.64152892419852
 20
152.4199098115079
 10
99.64152892419852
 20
152.4199098115079
 10
95.38097652692731
 20
152.4199098115079
 10
95.38097652692731
 20
152.4199098115079
 10
95.38097652692731
 20
152.4199098115079
 10
87.75353009080013
 20
127.8027915271048
 10
87.75353009080013
 20
127.8027915271048
 10
87.75353009080013
 20
127.8027915271048
 10
85.36538832498108
 20
127.8027915271048
 10
85.36538832498108
 20
127.8027915271048
 10
85.36538832498108
 20
127.8027915271048
 10
93.00006946639998
 20
152.4199098115079
 10
93.00006946639998
 20
152.4199098115079
 10
93.00006946639998
 20
152.4199098115079
 10
89.85297266450198
 20
152.4199098115079
 10
89.85297266450198
 20
152.4199098115079
 10
89.85297266450198
 20
152.4199098115079
 10
90.51270888515164
 20
154.9119212747295
 10
90.51270888515164
 20
154.9119212747295
 10
90.51270888515164
 20
154.9119212747295
 10
93.6904670570955
 20
154.9119212747295
 10
93.6904670570955
 20
154.9119212747295
 10
93.6904670570955
 20
154.9119212747295
 10
94.81598049462158
 20
158.3616699146644
 10
94.81598049462158
 20
158.3616699146644
 10
95.7237637538445
 20
161.2605474231013
 10
96.4968436907311
 20
162.8139420021662
 10
97.15657991138076
 20
163.9844139654337
 10
97.81183750494507
 20
165.1523021053827
 10
99.1047826935081
 20
166.3084769129547
 10
100.4504378777679
 20
166.69157178364
 97
        0
 75
     2
 76
     1
 98
        0
  0
SPLINE
  5
1DA4
330
1DA0
100
AcDbEntity
  8
TFORMLOGO
370
     0
100
AcDbSpline
210
0.0
220
0.0
230
1.0
 70
    11
 71
     3
 72
    38
 73
    34
 74
     0
 42
0.000000001
 43
0.0000000001
 40
0.0
 40
0.0
 40
0.0
 40
0.0
 40
1.0
 40
1.0
 40
1.0
 40
2.0
 40
2.0
 40
2.0
 40
3.0
 40
3.0
 40
3.0
 40
4.0
 40
4.0
 40
4.0
 40
5.0
 40
5.0
 40
5.0
 40
6.0
 40
6.0
 40
6.0
 40
7.0
 40
7.0
 40
7.0
 40
8.0
 40
8.0
 40
8.0
 40
9.0
 40
9.0
 40
9.0
 40
10.0
 40
10.0
 40
10.0
 40
11.0
 40
11.0
 40
11.0
 40
11.0
 10
126.377554584636
 20
154.8151140277308
 30
0.0
 10
126.377554584636
 20
154.8151140277308
 30
0.0
 10
128.8311532078563
 20
154.8151140277308
 30
0.0
 10
128.8311532078563
 20
154.8151140277308
 30
0.0
 10
128.8311532078563
 20
154.8151140277308
 30
0.0
 10
127.7345785914971
 20
151.3062819612468
 30
0.0
 10
127.7345785914971
 20
151.3062819612468
 30
0.0
 10
128.571392836906
 20
152.2922689395754
 30
0.0
 10
129.8860421413442
 20
153.604506675583
 30
0.0
 10
131.0163787157314
 20
154.2664822097754
 30
0.0
 10
132.7044766171327
 20
155.2500576196734
 30
0.0
 10
133.6642808525008
 20
155.3847609420097
 30
0.0
 10
134.7284715499351
 20
155.3565111403944
 30
0.0
 10
134.7284715499351
 20
155.3565111403944
 30
0.0
 10
133.6877075172549
 20
152.0345756272799
 30
0.0
 10
133.6877075172549
 20
152.0345756272799
 30
0.0
 10
133.011434827367
 20
152.3184516825359
 30
0.0
 10
130.930940291334
 20
151.7768823149844
 30
0.0
 10
129.739280976855
 20
150.9162968950455
 30
0.0
 10
128.66613302525
 20
150.1454562717016
 30
0.0
 10
127.9192358313239
 20
149.4857200510519
 30
0.0
 10
127.0393578639405
 20
147.8282835196966
 30
0.0
 10
126.164647543194
 20
146.1699857139017
 30
0.0
 10
125.4742499524985
 20
143.5262176944419
 30
0.0
 10
124.2822461282437
 20
139.6959580071401
 30
0.0
 10
124.2822461282437
 20
139.6959580071401
 30
0.0
 10
120.5753209406769
 20
127.8027915271048
 30
0.0
 10
120.5753209406769
 20
127.8027915271048
 30
0.0
 10
120.5753209406769
 20
127.8027915271048
 30
0.0
 10
118.1964809388044
 20
127.8027915271048
 30
0.0
 10
118.1964809388044
 20
127.8027915271048
 30
0.0
 10
118.1964809388044
 20
127.8027915271048
 30
0.0
 10
126.377554584636
 20
154.8151140277308
 30
0.0
 10
126.377554584636
 20
154.8151140277308
 30
0.0
  0
HATCH
  5
1DA5
330
1DA0
100
AcDbEntity
  8
TFORMLOGO
 62
   250
420
  2234388
100
AcDbHatch
 10
0.0
 20
0.0
 30
0.0
210
0.0
220
0.0
230
1.0
  2
SOLID
 70
     1
 71
     0
 91
        1
 92
        1
 93
        1
 72
     4
 94
        3
 73
     0
 74
     1
 95
       38
 96
       34
 40
0.0
 40
0.0
 40
0.0
 40
0.0
 40
1.0
 40
1.0
 40
1.0
 40
2.0
 40
2.0
 40
2.0
 40
3.0
 40
3.0
 40
3.0
 40
4.0
 40
4.0
 40
4.0
 40
5.0
 40
5.0
 40
5.0
 40
6.0
 40
6.0
 40
6.0
 40
7.0
 40
7.0
 40
7.0
 40
8.0
 40
8.0
 40
8.0
 40
9.0
 40
9.0
 40
9.0
 40
10.0
 40
10.0
 40
10.0
 40
11.0
 40
11.0
 40
11.0
 40
11.0
 10
126.377554584636
 20
154.8151140277308
 10
126.377554584636
 20
154.8151140277308
 10
128.8311532078563
 20
154.8151140277308
 10
128.8311532078563
 20
154.8151140277308
 10
128.8311532078563
 20
154.8151140277308
 10
127.7345785914971
 20
151.3062819612468
 10
127.7345785914971
 20
151.3062819612468
 10
128.571392836906
 20
152.2922689395754
 10
129.8860421413442
 20
153.604506675583
 10
131.0163787157314
 20
154.2664822097754
 10
132.7044766171327
 20
155.2500576196734
 10
133.6642808525008
 20
155.3847609420097
 10
134.7284715499351
 20
155.3565111403944
 10
134.7284715499351
 20
155.3565111403944
 10
133.6877075172549
 20
152.0345756272799
 10
133.6877075172549
 20
152.0345756272799
 10
133.011434827367
 20
152.3184516825359
 10
130.930940291334
 20
151.7768823149844
 10
129.739280976855
 20
150.9162968950455
 10
128.66613302525
 20
150.1454562717016
 10
127.9192358313239
 20
149.4857200510519
 10
127.0393578639405
 20
147.8282835196966
 10
126.164647543194
 20
146.1699857139017
 10
125.4742499524985
 20
143.5262176944419
 10
124.2822461282437
 20
139.6959580071401
 10
124.2822461282437
 20
139.6959580071401
 10
120.5753209406769
 20
127.8027915271048
 10
120.5753209406769
 20
127.8027915271048
 10
120.5753209406769
 20
127.8027915271048
 10
118.1964809388044
 20
127.8027915271048
 10
118.1964809388044
 20
127.8027915271048
 10
118.1964809388044
 20
127.8027915271048
 10
126.377554584636
 20
154.8151140277308
 10
126.377554584636
 20
154.8151140277308
 97
        0
 75
     2
 76
     1
 98
        0
  0
SPLINE
  5
1DA6
330
1DA0
100
AcDbEntity
  8
TFORMLOGO
370
     0
100
AcDbSpline
210
0.0
220
0.0
230
1.0
 70
    11
 71
     3
 72
   104
 73
   100
 74
     0
 42
0.000000001
 43
0.0000000001
 40
0.0
 40
0.0
 40
0.0
 40
0.0
 40
1.0
 40
1.0
 40
1.0
 40
2.0
 40
2.0
 40
2.0
 40
3.0
 40
3.0
 40
3.0
 40
4.0
 40
4.0
 40
4.0
 40
5.0
 40
5.0
 40
5.0
 40
6.0
 40
6.0
 40
6.0
 40
7.0
 40
7.0
 40
7.0
 40
8.0
 40
8.0
 40
8.0
 40
9.0
 40
9.0
 40
9.0
 40
10.0
 40
10.0
 40
10.0
 40
11.0
 40
11.0
 40
11.0
 40
12.0
 40
12.0
 40
12.0
 40
13.0
 40
13.0
 40
13.0
 40
14.0
 40
14.0
 40
14.0
 40
15.0
 40
15.0
 40
15.0
 40
16.0
 40
16.0
 40
16.0
 40
17.0
 40
17.0
 40
17.0
 40
18.0
 40
18.0
 40
18.0
 40
19.0
 40
19.0
 40
19.0
 40
20.0
 40
20.0
 40
20.0
 40
21.0
 40
21.0
 40
21.0
 40
22.0
 40
22.0
 40
22.0
 40
23.0
 40
23.0
 40
23.0
 40
24.0
 40
24.0
 40
24.0
 40
25.0
 40
25.0
 40
25.0
 40
26.0
 40
26.0
 40
26.0
 40
27.0
 40
27.0
 40
27.0
 40
28.0
 40
28.0
 40
28.0
 40
29.0
 40
29.0
 40
29.0
 40
30.0
 40
30.0
 40
30.0
 40
31.0
 40
31.0
 40
31.0
 40
32.0
 40
32.0
 40
32.0
 40
33.0
 40
33.0
 40
33.0
 40
33.0
 10
139.8926730891197
 20
154.8294111834263
 30
0.0
 10
139.8926730891197
 20
154.8294111834263
 30
0.0
 10
142.0344903652445
 20
154.8294111834263
 30
0.0
 10
142.0344903652445
 20
154.8294111834263
 30
0.0
 10
142.0344903652445
 20
154.8294111834263
 30
0.0
 10
140.9516961399171
 20
151.3157559800812
 30
0.0
 10
140.9516961399171
 20
151.3157559800812
 30
0.0
 10
141.8928968473923
 20
152.7887075264977
 30
0.0
 10
142.7341897198865
 20
153.4484437471474
 30
0.0
 10
143.8552245303272
 20
154.2926649527359
 30
0.0
 10
144.9803934580775
 20
155.1296514530327
 30
0.0
 10
146.3139908001845
 20
155.3044901642492
 30
0.0
 10
147.241066606852
 20
155.3044901642492
 30
0.0
 10
148.3855280820469
 20
155.3044901642492
 30
0.0
 10
149.4969166187653
 20
155.0752189084569
 30
0.0
 10
150.0784491203092
 20
153.8172414621372
 30
0.0
 10
150.5228667310863
 20
152.833838307127
 30
0.0
 10
150.5414702589793
 20
152.7201500811143
 30
0.0
 10
150.4140016419347
 20
150.7765981809602
 30
0.0
 10
151.5818897818837
 20
152.7699317437168
 30
0.0
 10
152.4424752018226
 20
153.6256940267945
 30
0.0
 10
153.9038856707499
 20
154.4507949398263
 30
0.0
 10
155.4455669174378
 20
155.3044901642492
 30
0.0
 10
156.339225275853
 20
155.3659851592288
 30
0.0
 10
157.3748216618963
 20
155.2147453676543
 30
0.0
 10
158.911679771723
 20
154.9877134254046
 30
0.0
 10
159.8859534176746
 20
154.4390816074493
 30
0.0
 10
160.3965169054045
 20
152.7816450760939
 30
0.0
 10
160.9070803931344
 20
151.1219692311958
 30
0.0
 10
160.6328506116007
 20
150.2303779314354
 30
0.0
 10
159.9992971339115
 20
147.597634224801
 30
0.0
 10
159.7105979417943
 20
146.4014962832367
 30
0.0
 10
159.2947746424084
 20
144.9400858143094
 30
0.0
 10
158.7463150793409
 20
143.2092687007094
 30
0.0
 10
158.7463150793409
 20
143.2092687007094
 30
0.0
 10
153.9038856707499
 20
127.8027915271048
 30
0.0
 10
153.9038856707499
 20
127.8027915271048
 30
0.0
 10
153.9038856707499
 20
127.8027915271048
 30
0.0
 10
151.3882752878863
 20
127.8027915271048
 30
0.0
 10
151.3882752878863
 20
127.8027915271048
 30
0.0
 10
151.3882752878863
 20
127.8027915271048
 30
0.0
 10
155.6250565106276
 20
141.2751908193897
 30
0.0
 10
155.6250565106276
 20
141.2751908193897
 30
0.0
 10
156.5094131050963
 20
144.0936252951782
 30
0.0
 10
157.109893644309
 20
146.1506931664571
 30
0.0
 10
157.4220195011804
 20
147.4415712963654
 30
0.0
 10
157.8095929989511
 20
149.0530157726519
 30
0.0
 10
157.9656559273867
 20
149.5826995529385
 30
0.0
 10
157.7816877071116
 20
150.7529992613181
 30
0.0
 10
157.6111553680925
 20
151.8430281919372
 30
0.0
 10
157.0582171779396
 20
152.5547853887321
 30
0.0
 10
156.1170164704645
 20
152.5547853887321
 30
0.0
 10
155.1096698860365
 20
152.5547853887321
 30
0.0
 10
154.2962823053817
 20
152.4412694176073
 30
0.0
 10
153.156643967048
 20
151.2945686288697
 30
0.0
 10
152.0170056287143
 20
150.1476955852443
 30
0.0
 10
151.076149431015
 20
148.7930831468137
 30
0.0
 10
150.3337308641742
 20
147.2290087646991
 30
0.0
 10
149.5957909244188
 20
145.6683794803425
 30
0.0
 10
148.8530278478023
 20
143.6822806228776
 30
0.0
 10
148.0964843801539
 20
141.2751908193897
 30
0.0
 10
148.0964843801539
 20
141.2751908193897
 30
0.0
 10
143.8552245303272
 20
127.8027915271048
 30
0.0
 10
143.8552245303272
 20
127.8027915271048
 30
0.0
 10
143.8552245303272
 20
127.8027915271048
 30
0.0
 10
141.486030802177
 20
127.8027915271048
 30
0.0
 10
141.486030802177
 20
127.8027915271048
 30
0.0
 10
141.486030802177
 20
127.8027915271048
 30
0.0
 10
146.3329388378533
 20
143.2092687007094
 30
0.0
 10
146.3329388378533
 20
143.2092687007094
 30
0.0
 10
146.8483254624444
 20
144.8408669988801
 30
0.0
 10
147.2314203331297
 20
146.1837661049335
 30
0.0
 10
147.4867020769946
 20
147.224185627838
 30
0.0
 10
147.9169947869641
 20
149.0197705792876
 30
0.0
 10
148.0306830129768
 20
150.2400242051577
 30
0.0
 10
147.709255392159
 20
151.3157559800812
 30
0.0
 10
147.3874832615654
 20
152.3916600098926
 30
0.0
 10
146.8245542879144
 20
152.6683013598569
 30
0.0
 10
145.8840425999909
 20
152.6683013598569
 30
0.0
 10
145.0989048209514
 20
152.6683013598569
 30
0.0
 10
144.3282364524954
 20
152.3275811915945
 30
0.0
 10
143.4531816219731
 20
151.6538923250251
 30
0.0
 10
142.34627171234
 20
150.8074318058939
 30
0.0
 10
141.901854101563
 20
150.1097995099067
 30
0.0
 10
141.3578731655808
 20
149.289521733736
 30
0.0
 10
140.6299240093235
 20
148.192602607601
 30
0.0
 10
140.2850697237515
 20
147.455696197173
 30
0.0
 10
139.6652966370942
 20
145.8385673095858
 30
0.0
 10
139.0506911970739
 20
144.2214384219986
 30
0.0
 10
138.463991048893
 20
142.3252566160164
 30
0.0
 10
138.0571250036777
 20
141.0154304484394
 30
0.0
 10
138.0571250036777
 20
141.0154304484394
 30
0.0
 10
133.9009590684727
 20
127.8027915271048
 30
0.0
 10
133.9009590684727
 20
127.8027915271048
 30
0.0
 10
133.9009590684727
 20
127.8027915271048
 30
0.0
 10
131.4180771143097
 20
127.8027915271048
 30
0.0
 10
131.4180771143097
 20
127.8027915271048
 30
0.0
 10
131.4180771143097
 20
127.8027915271048
 30
0.0
 10
139.8926730891197
 20
154.8294111834263
 30
0.0
 10
139.8926730891197
 20
154.8294111834263
 30
0.0
  0
HATCH
  5
1DA7
330
1DA0
100
AcDbEntity
  8
TFORMLOGO
 62
   250
420
  2234388
100
AcDbHatch
 10
0.0
 20
0.0
 30
0.0
210
0.0
220
0.0
230
1.0
  2
SOLID
 70
     1
 71
     0
 91
        1
 92
        1
 93
        1
 72
     4
 94
        3
 73
     0
 74
     1
 95
      104
 96
      100
 40
0.0
 40
0.0
 40
0.0
 40
0.0
 40
1.0
 40
1.0
 40
1.0
 40
2.0
 40
2.0
 40
2.0
 40
3.0
 40
3.0
 40
3.0
 40
4.0
 40
4.0
 40
4.0
 40
5.0
 40
5.0
 40
5.0
 40
6.0
 40
6.0
 40
6.0
 40
7.0
 40
7.0
 40
7.0
 40
8.0
 40
8.0
 40
8.0
 40
9.0
 40
9.0
 40
9.0
 40
10.0
 40
10.0
 40
10.0
 40
11.0
 40
11.0
 40
11.0
 40
12.0
 40
12.0
 40
12.0
 40
13.0
 40
13.0
 40
13.0
 40
14.0
 40
14.0
 40
14.0
 40
15.0
 40
15.0
 40
15.0
 40
16.0
 40
16.0
 40
16.0
 40
17.0
 40
17.0
 40
17.0
 40
18.0
 40
18.0
 40
18.0
 40
19.0
 40
19.0
 40
19.0
 40
20.0
 40
20.0
 40
20.0
 40
21.0
 40
21.0
 40
21.0
 40
22.0
 40
22.0
 40
22.0
 40
23.0
 40
23.0
 40
23.0
 40
24.0
 40
24.0
 40
24.0
 40
25.0
 40
25.0
 40
25.0
 40
26.0
 40
26.0
 40
26.0
 40
27.0
 40
27.0
 40
27.0
 40
28.0
 40
28.0
 40
28.0
 40
29.0
 40
29.0
 40
29.0
 40
30.0
 40
30.0
 40
30.0
 40
31.0
 40
31.0
 40
31.0
 40
32.0
 40
32.0
 40
32.0
 40
33.0
 40
33.0
 40
33.0
 40
33.0
 10
139.8926730891197
 20
154.8294111834263
 10
139.8926730891197
 20
154.8294111834263
 10
142.0344903652445
 20
154.8294111834263
 10
142.0344903652445
 20
154.8294111834263
 10
142.0344903652445
 20
154.8294111834263
 10
140.9516961399171
 20
151.3157559800812
 10
140.9516961399171
 20
151.3157559800812
 10
141.8928968473923
 20
152.7887075264977
 10
142.7341897198865
 20
153.4484437471474
 10
143.8552245303272
 20
154.2926649527359
 10
144.9803934580775
 20
155.1296514530327
 10
146.3139908001845
 20
155.3044901642492
 10
147.241066606852
 20
155.3044901642492
 10
148.3855280820469
 20
155.3044901642492
 10
149.4969166187653
 20
155.0752189084569
 10
150.0784491203092
 20
153.8172414621372
 10
150.5228667310863
 20
152.833838307127
 10
150.5414702589793
 20
152.7201500811143
 10
150.4140016419347
 20
150.7765981809602
 10
151.5818897818837
 20
152.7699317437168
 10
152.4424752018226
 20
153.6256940267945
 10
153.9038856707499
 20
154.4507949398263
 10
155.4455669174378
 20
155.3044901642492
 10
156.339225275853
 20
155.3659851592288
 10
157.3748216618963
 20
155.2147453676543
 10
158.911679771723
 20
154.9877134254046
 10
159.8859534176746
 20
154.4390816074493
 10
160.3965169054045
 20
152.7816450760939
 10
160.9070803931344
 20
151.1219692311958
 10
160.6328506116007
 20
150.2303779314354
 10
159.9992971339115
 20
147.597634224801
 10
159.7105979417943
 20
146.4014962832367
 10
159.2947746424084
 20
144.9400858143094
 10
158.7463150793409
 20
143.2092687007094
 10
158.7463150793409
 20
143.2092687007094
 10
153.9038856707499
 20
127.8027915271048
 10
153.9038856707499
 20
127.8027915271048
 10
153.9038856707499
 20
127.8027915271048
 10
151.3882752878863
 20
127.8027915271048
 10
151.3882752878863
 20
127.8027915271048
 10
151.3882752878863
 20
127.8027915271048
 10
155.6250565106276
 20
141.2751908193897
 10
155.6250565106276
 20
141.2751908193897
 10
156.5094131050963
 20
144.0936252951782
 10
157.109893644309
 20
146.1506931664571
 10
157.4220195011804
 20
147.4415712963654
 10
157.8095929989511
 20
149.0530157726519
 10
157.9656559273867
 20
149.5826995529385
 10
157.7816877071116
 20
150.7529992613181
 10
157.6111553680925
 20
151.8430281919372
 10
157.0582171779396
 20
152.5547853887321
 10
156.1170164704645
 20
152.5547853887321
 10
155.1096698860365
 20
152.5547853887321
 10
154.2962823053817
 20
152.4412694176073
 10
153.156643967048
 20
151.2945686288697
 10
152.0170056287143
 20
150.1476955852443
 10
151.076149431015
 20
148.7930831468137
 10
150.3337308641742
 20
147.2290087646991
 10
149.5957909244188
 20
145.6683794803425
 10
148.8530278478023
 20
143.6822806228776
 10
148.0964843801539
 20
141.2751908193897
 10
148.0964843801539
 20
141.2751908193897
 10
143.8552245303272
 20
127.8027915271048
 10
143.8552245303272
 20
127.8027915271048
 10
143.8552245303272
 20
127.8027915271048
 10
141.486030802177
 20
127.8027915271048
 10
141.486030802177
 20
127.8027915271048
 10
141.486030802177
 20
127.8027915271048
 10
146.3329388378533
 20
143.2092687007094
 10
146.3329388378533
 20
143.2092687007094
 10
146.8483254624444
 20
144.8408669988801
 10
147.2314203331297
 20
146.1837661049335
 10
147.4867020769946
 20
147.224185627838
 10
147.9169947869641
 20
149.0197705792876
 10
148.0306830129768
 20
150.2400242051577
 10
147.709255392159
 20
151.3157559800812
 10
147.3874832615654
 20
152.3916600098926
 10
146.8245542879144
 20
152.6683013598569
 10
145.8840425999909
 20
152.6683013598569
 10
145.0989048209514
 20
152.6683013598569
 10
144.3282364524954
 20
152.3275811915945
 10
143.4531816219731
 20
151.6538923250251
 10
142.34627171234
 20
150.8074318058939
 10
141.901854101563
 20
150.1097995099067
 10
141.3578731655808
 20
149.289521733736
 10
140.6299240093235
 20
148.192602607601
 10
140.2850697237515
 20
147.455696197173
 10
139.6652966370942
 20
145.8385673095858
 10
139.0506911970739
 20
144.2214384219986
 10
138.463991048893
 20
142.3252566160164
 10
138.0571250036777
 20
141.0154304484394
 10
138.0571250036777
 20
141.0154304484394
 10
133.9009590684727
 20
127.8027915271048
 10
133.9009590684727
 20
127.8027915271048
 10
133.9009590684727
 20
127.8027915271048
 10
131.4180771143097
 20
127.8027915271048
 10
131.4180771143097
 20
127.8027915271048
 10
131.4180771143097
 20
127.8027915271048
 10
139.8926730891197
 20
154.8294111834263
 10
139.8926730891197
 20
154.8294111834263
 97
        0
 75
     2
 76
     1
 98
        0
  0
SPLINE
  5
1DA8
330
1DA0
100
AcDbEntity
  8
TFORMLOGO
370
     0
100
AcDbSpline
210
0.0
220
0.0
230
1.0
 70
    11
 71
     3
 72
    29
 73
    25
 74
     0
 42
0.000000001
 43
0.0000000001
 40
0.0
 40
0.0
 40
0.0
 40
0.0
 40
1.0
 40
1.0
 40
1.0
 40
2.0
 40
2.0
 40
2.0
 40
3.0
 40
3.0
 40
3.0
 40
4.0
 40
4.0
 40
4.0
 40
5.0
 40
5.0
 40
5.0
 40
6.0
 40
6.0
 40
6.0
 40
7.0
 40
7.0
 40
7.0
 40
8.0
 40
8.0
 40
8.0
 40
8.0
 10
101.6420971922469
 20
132.8388354296931
 30
0.0
 10
101.630039350094
 20
134.7164137077823
 30
0.0
 10
102.2236296937908
 20
138.0598810818841
 30
0.0
 10
103.7487744712405
 20
142.5378191476827
 30
0.0
 10
105.819967243327
 20
148.5896501242061
 30
0.0
 10
107.0602024361932
 20
150.8074318058939
 30
0.0
 10
108.1522984254671
 20
151.8833358357054
 30
0.0
 10
109.741177511439
 20
153.4532668840085
 30
0.0
 10
111.8740375333931
 20
153.5290590346837
 30
0.0
 10
112.5075910110823
 20
153.4532668840085
 30
0.0
 10
113.4012493694975
 20
153.3490526768302
 30
0.0
 10
114.6683563248758
 20
152.7580461564518
 30
0.0
 10
114.7493161221879
 20
150.7838328862519
 30
0.0
 10
114.8106388622796
 20
149.0909118479895
 30
0.0
 10
114.3186789024427
 20
145.9191825971221
 30
0.0
 10
112.6164561002338
 20
140.9489400617108
 30
0.0
 10
110.6444821435766
 20
135.1746117095912
 30
0.0
 10
109.4669477299053
 20
132.8960240524753
 30
0.0
 10
108.5212683953448
 20
131.9072809959403
 30
0.0
 10
106.7346406980658
 20
130.0538184021569
 30
0.0
 10
104.8222669326213
 20
130.2336525051225
 30
0.0
 10
104.5408024457958
 20
130.2336525051225
 30
0.0
 10
104.1721769856939
 20
130.2336525051225
 30
0.0
 10
101.6465758193322
 20
130.6305277668397
 30
0.0
 10
101.6420971922469
 20
132.8388354296931
 30
0.0
  0
SPLINE
  5
1DA9
330
1DA0
100
AcDbEntity
  8
TFORMLOGO
370
     0
100
AcDbSpline
210
0.0
220
0.0
230
1.0
 70
    11
 71
     3
 72
    32
 73
    28
 74
     0
 42
0.000000001
 43
0.0000000001
 40
0.0
 40
0.0
 40
0.0
 40
0.0
 40
1.0
 40
1.0
 40
1.0
 40
2.0
 40
2.0
 40
2.0
 40
3.0
 40
3.0
 40
3.0
 40
4.0
 40
4.0
 40
4.0
 40
5.0
 40
5.0
 40
5.0
 40
6.0
 40
6.0
 40
6.0
 40
7.0
 40
7.0
 40
7.0
 40
8.0
 40
8.0
 40
8.0
 40
9.0
 40
9.0
 40
9.0
 40
9.0
 10
106.2595617172429
 20
153.4105476718098
 30
0.0
 10
104.8222669326213
 20
151.5474388043041
 30
0.0
 10
103.7177685914188
 20
149.8758773721411
 30
0.0
 10
101.9232171692965
 20
144.6141795664062
 30
0.0
 10
100.2754269116635
 20
139.7999999594306
 30
0.0
 10
99.22777268346732
 20
136.3052927937542
 30
0.0
 10
99.06964269637689
 20
132.039572749846
 30
0.0
 10
98.94665270641765
 20
128.8673267343149
 30
0.0
 10
100.8807305877373
 20
127.8027915271048
 30
0.0
 10
103.7129454545577
 20
127.8027915271048
 30
0.0
 10
104.9352661390825
 20
127.8027915271048
 30
0.0
 10
108.0151835347002
 20
127.8827177950895
 30
0.0
 10
110.2045431598849
 20
130.5926316915021
 30
0.0
 10
111.7417457794874
 20
132.4984597712065
 30
0.0
 10
113.155269389579
 20
134.475256864725
 30
0.0
 10
115.0562743324223
 20
140.9489400617108
 30
0.0
 10
116.6361961642235
 20
146.3680788349845
 30
0.0
 10
117.7282921534974
 20
149.8639917848761
 30
0.0
 10
117.6480213757369
 20
151.8595646611754
 30
0.0
 10
117.6480213757369
 20
151.8595646611754
 30
0.0
 10
117.6480213757369
 20
151.8595646611754
 30
0.0
 10
117.6480213757369
 20
151.8595646611754
 30
0.0
 10
117.13229024137
 20
155.18150017429
 30
0.0
 10
114.7162431837115
 20
155.886194920681
 30
0.0
 10
113.3351034925446
 20
155.886194920681
 30
0.0
 10
111.9829026225447
 20
155.886194920681
 30
0.0
 10
108.3414342923792
 20
156.1251124501957
 30
0.0
 10
106.2595617172429
 20
153.4105476718098
 30
0.0
  0
HATCH
  5
1DAA
330
1DA0
100
AcDbEntity
  8
TFORMLOGO
 62
   250
420
  2234388
100
AcDbHatch
 10
0.0
 20
0.0
 30
0.0
210
0.0
220
0.0
230
1.0
  2
SOLID
 70
     1
 71
     0
 91
        2
 92
        1
 93
        1
 72
     4
 94
        3
 73
     0
 74
     1
 95
       29
 96
       25
 40
0.0
 40
0.0
 40
0.0
 40
0.0
 40
1.0
 40
1.0
 40
1.0
 40
2.0
 40
2.0
 40
2.0
 40
3.0
 40
3.0
 40
3.0
 40
4.0
 40
4.0
 40
4.0
 40
5.0
 40
5.0
 40
5.0
 40
6.0
 40
6.0
 40
6.0
 40
7.0
 40
7.0
 40
7.0
 40
8.0
 40
8.0
 40
8.0
 40
8.0
 10
101.6420971922469
 20
132.8388354296931
 10
101.630039350094
 20
134.7164137077823
 10
102.2236296937908
 20
138.0598810818841
 10
103.7487744712405
 20
142.5378191476827
 10
105.819967243327
 20
148.5896501242061
 10
107.0602024361932
 20
150.8074318058939
 10
108.1522984254671
 20
151.8833358357054
 10
109.741177511439
 20
153.4532668840085
 10
111.8740375333931
 20
153.5290590346837
 10
112.5075910110823
 20
153.4532668840085
 10
113.4012493694975
 20
153.3490526768302
 10
114.6683563248758
 20
152.7580461564518
 10
114.7493161221879
 20
150.7838328862519
 10
114.8106388622796
 20
149.0909118479895
 10
114.3186789024427
 20
145.9191825971221
 10
112.6164561002338
 20
140.9489400617108
 10
110.6444821435766
 20
135.1746117095912
 10
109.4669477299053
 20
132.8960240524753
 10
108.5212683953448
 20
131.9072809959403
 10
106.7346406980658
 20
130.0538184021569
 10
104.8222669326213
 20
130.2336525051225
 10
104.5408024457958
 20
130.2336525051225
 10
104.1721769856939
 20
130.2336525051225
 10
101.6465758193322
 20
130.6305277668397
 10
101.6420971922469
 20
132.8388354296931
 97
        0
 92
        1
 93
        1
 72
     4
 94
        3
 73
     0
 74
     1
 95
       32
 96
       28
 40
0.0
 40
0.0
 40
0.0
 40
0.0
 40
1.0
 40
1.0
 40
1.0
 40
2.0
 40
2.0
 40
2.0
 40
3.0
 40
3.0
 40
3.0
 40
4.0
 40
4.0
 40
4.0
 40
5.0
 40
5.0
 40
5.0
 40
6.0
 40
6.0
 40
6.0
 40
7.0
 40
7.0
 40
7.0
 40
8.0
 40
8.0
 40
8.0
 40
9.0
 40
9.0
 40
9.0
 40
9.0
 10
106.2595617172429
 20
153.4105476718098
 10
104.8222669326213
 20
151.5474388043041
 10
103.7177685914188
 20
149.8758773721411
 10
101.9232171692965
 20
144.6141795664062
 10
100.2754269116635
 20
139.7999999594306
 10
99.22777268346732
 20
136.3052927937542
 10
99.06964269637689
 20
132.039572749846
 10
98.94665270641765
 20
128.8673267343149
 10
100.8807305877373
 20
127.8027915271048
 10
103.7129454545577
 20
127.8027915271048
 10
104.9352661390825
 20
127.8027915271048
 10
108.0151835347002
 20
127.8827177950895
 10
110.2045431598849
 20
130.5926316915021
 10
111.7417457794874
 20
132.4984597712065
 10
113.155269389579
 20
134.475256864725
 10
115.0562743324223
 20
140.9489400617108
 10
116.6361961642235
 20
146.3680788349845
 10
117.7282921534974
 20
149.8639917848761
 10
117.6480213757369
 20
151.8595646611754
 10
117.6480213757369
 20
151.8595646611754
 10
117.6480213757369
 20
151.8595646611754
 10
117.6480213757369
 20
151.8595646611754
 10
117.13229024137
 20
155.18150017429
 10
114.7162431837115
 20
155.886194920681
 10
113.3351034925446
 20
155.886194920681
 10
111.9829026225447
 20
155.886194920681
 10
108.3414342923792
 20
156.1251124501957
 10
106.2595617172429
 20
153.4105476718098
 97
        0
 75
     2
 76
     1
 98
        0
  0
ENDBLK
  5
1DAB
330
1DA0
100
AcDbEntity
  8
0
100
AcDbBlockEnd
  0
BLOCK
  5
60B6
330
60B5
100
AcDbEntity
  8
0
100
AcDbBlockBegin
  2
*D7
 70
     1
 10
0.0
 20
0.0
 30
0.0
  3
*D7
  1

  0
LINE
  5
60B8
330
60B5
100
AcDbEntity
  8
モデル
 62
     0
370
    -2
100
AcDbLine
 10
376.6011487771668
 20
128.2579972512463
 30
0.0
 11
348.3059965634249
 21
128.2579972512463
 31
0.0
  0
LINE
  5
60B9
330
60B5
100
AcDbEntity
  8
モデル
 62
     0
370
    -2
100
AcDbLine
 10
378.4957526140851
 20
291.4140378878462
 30
0.0
 11
348.3059965634249
 21
291.4140378878462
 31
0.0
  0
LINE
  5
60BA
330
60B5
100
AcDbEntity
  8
モデル
 62
     0
370
    -2
100
AcDbLine
 10
348.3059965634249
 20
130.2579972512463
 30
0.0
 11
348.3059965634249
 21
289.4140378878462
 31
0.0
  0
INSERT
  5
60BB
330
60B5
100
AcDbEntity
  8
モデル
 62
     0
370
    -2
100
AcDbBlockReference
  2
_DOT
 10
348.3059965634249
 20
128.2579972512463
 30
0.0
 41
2.0
 42
2.0
 43
2.0
 50
270.0
  0
INSERT
  5
60BC
330
60B5
100
AcDbEntity
  8
モデル
 62
     0
370
    -2
100
AcDbBlockReference
  2
_DOT
 10
348.3059965634249
 20
291.4140378878462
 30
0.0
 41
2.0
 42
2.0
 43
2.0
 50
90.0
  0
MTEXT
  5
60BD
330
60B5
100
AcDbEntity
  8
モデル
 62
     0
100
AcDbMText
 10
344.8050587117305
 20
209.8404405305759
 30
0.0
 40
5.0
 41
0.0
 46
0.0
 71
     5
 72
     1
  1
\A1;163
  7
ＭＳ ゴシック
 11
0.0
 21
1.0
 31
0.0
 73
     1
 44
1.0
  0
POINT
  5
60BE
330
60B5
100
AcDbEntity
  8
Defpoints
 62
     0
100
AcDbPoint
 10
381.6011487771668
 20
128.2579972512463
 30
0.0
  0
POINT
  5
60BF
330
60B5
100
AcDbEntity
  8
Defpoints
 62
     0
100
AcDbPoint
 10
383.4957526140851
 20
291.4140378878462
 30
0.0
  0
POINT
  5
60C0
330
60B5
100
AcDbEntity
  8
Defpoints
 62
     0
100
AcDbPoint
 10
348.3059965634249
 20
291.4140378878462
 30
0.0
  0
ENDBLK
  5
60B7
330
60B5
100
AcDbEntity
  8
0
100
AcDbBlockEnd
  0
BLOCK
  5
60CE
330
60CD
100
AcDbEntity
  8
0
100
AcDbBlockBegin
  2
*D8
 70
     1
 10
0.0
 20
0.0
 30
0.0
  3
*D8
  1

  0
LINE
  5
60D0
330
60CD
100
AcDbEntity
  8
モデル
 62
     0
370
    -2
100
AcDbLine
 10
384.8701602145395
 20
123.2579972512463
 30
0.0
 11
384.8701602145395
 21
106.1062939340762
 31
0.0
  0
LINE
  5
60D1
330
60CD
100
AcDbEntity
  8
モデル
 62
     0
370
    -2
100
AcDbLine
 10
373.6701602145394
 20
123.7438063803345
 30
0.0
 11
373.6701602145394
 21
106.1062939340762
 31
0.0
  0
LINE
  5
60D2
330
60CD
100
AcDbEntity
  8
モデル
 62
     0
370
    -2
100
AcDbLine
 10
382.8701602145395
 20
106.1062939340762
 30
0.0
 11
375.6701602145394
 21
106.1062939340762
 31
0.0
  0
INSERT
  5
60D3
330
60CD
100
AcDbEntity
  8
モデル
 62
     0
370
    -2
100
AcDbBlockReference
  2
_DOT
 10
384.8701602145395
 20
106.1062939340762
 30
0.0
 41
2.0
 42
2.0
 43
2.0
  0
INSERT
  5
60D4
330
60CD
100
AcDbEntity
  8
モデル
 62
     0
370
    -2
100
AcDbBlockReference
  2
_DOT
 10
373.6701602145394
 20
106.1062939340762
 30
0.0
 41
2.0
 42
2.0
 43
2.0
 50
180.0
  0
MTEXT
  5
60D5
330
60CD
100
AcDbEntity
  8
モデル
 62
     0
100
AcDbMText
 10
379.2701602145394
 20
109.3571380006011
 30
0.0
 40
4.5
 41
0.0
 46
0.0
 71
     5
 72
     1
  1
\A1;11
  7
ＭＳ ゴシック
 73
     1
 44
1.0
  0
POINT
  5
60D6
330
60CD
100
AcDbEntity
  8
Defpoints
 62
     0
100
AcDbPoint
 10
384.8701602145395
 20
128.2579972512463
 30
0.0
  0
POINT
  5
60D7
330
60CD
100
AcDbEntity
  8
Defpoints
 62
     0
100
AcDbPoint
 10
373.6701602145394
 20
128.7438063803345
 30
0.0
  0
POINT
  5
60D8
330
60CD
100
AcDbEntity
  8
Defpoints
 62
     0
100
AcDbPoint
 10
373.6701602145394
 20
106.1062939340762
 30
0.0
  0
ENDBLK
  5
60CF
330
60CD
100
AcDbEntity
  8
0
100
AcDbBlockEnd
  0
BLOCK
  5
60F2
330
60F1
100
AcDbEntity
  8
0
100
AcDbBlockBegin
  2
*D9
 70
     1
 10
0.0
 20
0.0
 30
0.0
  3
*D9
  1

  0
LINE
  5
60F4
330
60F1
100
AcDbEntity
  8
モデル
 62
     0
370
    -2
100
AcDbLine
 10
207.6743636590023
 20
355.9701302081344
 30
0.0
 11
207.6743636590023
 21
378.2696094804613
 31
0.0
  0
LINE
  5
60F5
330
60F1
100
AcDbEntity
  8
モデル
 62
     0
370
    -2
100
AcDbLine
 10
272.8304042956024
 20
355.9701302081344
 30
0.0
 11
272.8304042956024
 21
378.2696094804613
 31
0.0
  0
LINE
  5
60F6
330
60F1
100
AcDbEntity
  8
モデル
 62
     0
370
    -2
100
AcDbLine
 10
209.6743636590023
 20
378.2696094804613
 30
0.0
 11
270.8304042956024
 21
378.2696094804613
 31
0.0
  0
INSERT
  5
60F7
330
60F1
100
AcDbEntity
  8
モデル
 62
     0
370
    -2
100
AcDbBlockReference
  2
_DOT
 10
207.6743636590023
 20
378.2696094804613
 30
0.0
 41
2.0
 42
2.0
 43
2.0
 50
180.0
  0
INSERT
  5
60F8
330
60F1
100
AcDbEntity
  8
モデル
 62
     0
370
    -2
100
AcDbBlockReference
  2
_DOT
 10
272.8304042956024
 20
378.2696094804613
 30
0.0
 41
2.0
 42
2.0
 43
2.0
  0
MTEXT
  5
60F9
330
60F1
100
AcDbEntity
  8
モデル
 62
     0
100
AcDbMText
 10
240.2523839773023
 20
381.7705473321557
 30
0.0
 40
5.0
 41
0.0
 46
0.0
 71
     5
 72
     1
  1
\A1;65
  7
ＭＳ ゴシック
 73
     1
 44
1.0
  0
POINT
  5
60FA
330
60F1
100
AcDbEntity
  8
Defpoints
 62
     0
100
AcDbPoint
 10
207.6743636590023
 20
350.9701302081344
 30
0.0
  0
POINT
  5
60FB
330
60F1
100
AcDbEntity
  8
Defpoints
 62
     0
100
AcDbPoint
 10
272.8304042956024
 20
350.9701302081344
 30
0.0
  0
POINT
  5
60FC
330
60F1
100
AcDbEntity
  8
Defpoints
 62
     0
100
AcDbPoint
 10
272.8304042956024
 20
378.2696094804613
 30
0.0
  0
ENDBLK
  5
60F3
330
60F1
100
AcDbEntity
  8
0
100
AcDbBlockEnd
  0
BLOCK
  5
611E
330
611D
100
AcDbEntity
  8
0
100
AcDbBlockBegin
  2
*D10
 70
     1
 10
0.0
 20
0.0
 30
0.0
  3
*D10
  1

  0
LINE
  5
6120
330
611D
100
AcDbEntity
  8
モデル
 62
     0
370
    -2
100
AcDbLine
 10
279.5262167085804
 20
292.9360175695464
 30
0.0
 11
301.2190447827477
 21
292.9360175695464
 31
0.0
  0
LINE
  5
6121
330
611D
100
AcDbEntity
  8
モデル
 62
     0
370
    -2
100
AcDbLine
 10
280.2357856846455
 20
126.7360175695463
 30
0.0
 11
301.2190447827477
 21
126.7360175695463
 31
0.0
  0
LINE
  5
6122
330
611D
100
AcDbEntity
  8
モデル
 62
     0
370
    -2
100
AcDbLine
 10
301.2190447827477
 20
290.9360175695464
 30
0.0
 11
301.2190447827477
 21
128.7360175695463
 31
0.0
  0
INSERT
  5
6123
330
611D
100
AcDbEntity
  8
モデル
 62
     0
370
    -2
100
AcDbBlockReference
  2
_DOT
 10
301.2190447827477
 20
292.9360175695464
 30
0.0
 41
2.0
 42
2.0
 43
2.0
 50
90.0
  0
INSERT
  5
6124
330
611D
100
AcDbEntity
  8
モデル
 62
     0
370
    -2
100
AcDbBlockReference
  2
_DOT
 10
301.2190447827477
 20
126.7360175695463
 30
0.0
 41
2.0
 42
2.0
 43
2.0
 50
270.0
  0
MTEXT
  5
6125
330
611D
100
AcDbEntity
  8
モデル
 62
     0
100
AcDbMText
 10
297.7181069310533
 20
209.8360175695464
 30
0.0
 40
5.0
 41
0.0
 46
0.0
 71
     5
 72
     1
  1
\A1;166.5
  7
ＭＳ ゴシック
 11
0.0
 21
1.0
 31
0.0
 73
     1
 44
1.0
  0
POINT
  5
6126
330
611D
100
AcDbEntity
  8
Defpoints
 62
     0
100
AcDbPoint
 10
274.5262167085804
 20
292.9360175695464
 30
0.0
  0
POINT
  5
6127
330
611D
100
AcDbEntity
  8
Defpoints
 62
     0
100
AcDbPoint
 10
275.2357856846455
 20
126.7360175695463
 30
0.0
  0
POINT
  5
6128
330
611D
100
AcDbEntity
  8
Defpoints
 62
     0
100
AcDbPoint
 10
301.2190447827477
 20
126.7360175695463
 30
0.0
  0
ENDBLK
  5
611F
330
611D
100
AcDbEntity
  8
0
100
AcDbBlockEnd
  0
BLOCK
  5
612D
330
612C
100
AcDbEntity
  8
0
100
AcDbBlockBegin
  2
*D11
 70
     1
 10
0.0
 20
0.0
 30
0.0
  3
*D11
  1

  0
LINE
  5
612F
330
612C
100
AcDbEntity
  8
モデル
 62
     0
370
    -2
100
AcDbLine
 10
206.1546123911021
 20
295.6690320104182
 30
0.0
 11
206.1546123911021
 21
313.7920344290883
 31
0.0
  0
LINE
  5
6130
330
612C
100
AcDbEntity
  8
モデル
 62
     0
370
    -2
100
AcDbLine
 10
274.354612391102
 20
295.4252274196989
 30
0.0
 11
274.354612391102
 21
313.7920344290883
 31
0.0
  0
LINE
  5
6131
330
612C
100
AcDbEntity
  8
モデル
 62
     0
370
    -2
100
AcDbLine
 10
208.1546123911021
 20
313.7920344290883
 30
0.0
 11
272.354612391102
 21
313.7920344290883
 31
0.0
  0
INSERT
  5
6132
330
612C
100
AcDbEntity
  8
モデル
 62
     0
370
    -2
100
AcDbBlockReference
  2
_DOT
 10
206.1546123911021
 20
313.7920344290883
 30
0.0
 41
2.0
 42
2.0
 43
2.0
 50
180.0
  0
INSERT
  5
6133
330
612C
100
AcDbEntity
  8
モデル
 62
     0
370
    -2
100
AcDbBlockReference
  2
_DOT
 10
274.354612391102
 20
313.7920344290883
 30
0.0
 41
2.0
 42
2.0
 43
2.0
  0
MTEXT
  5
6134
330
612C
100
AcDbEntity
  8
モデル
 62
     0
100
AcDbMText
 10
240.254612391102
 20
317.2929722807827
 30
0.0
 40
5.0
 41
0.0
 46
0.0
 71
     5
 72
     1
  1
\A1;68.5
  7
ＭＳ ゴシック
 73
     1
 44
1.0
  0
POINT
  5
6135
330
612C
100
AcDbEntity
  8
Defpoints
 62
     0
100
AcDbPoint
 10
206.1546123911021
 20
290.6690320104182
 30
0.0
  0
POINT
  5
6136
330
612C
100
AcDbEntity
  8
Defpoints
 62
     0
100
AcDbPoint
 10
274.354612391102
 20
290.4252274196989
 30
0.0
  0
POINT
  5
6137
330
612C
100
AcDbEntity
  8
Defpoints
 62
     0
100
AcDbPoint
 10
274.354612391102
 20
313.7920344290883
 30
0.0
  0
ENDBLK
  5
612E
330
612C
100
AcDbEntity
  8
0
100
AcDbBlockEnd
  0
BLOCK
  5
6156
330
6155
100
AcDbEntity
  8
0
100
AcDbBlockBegin
  2
_Open30
 70
     0
 10
0.0
 20
0.0
 30
0.0
  3
_Open30
  1
_Open30
  0
LINE
  5
6157
330
6155
100
AcDbEntity
  8
0
  6
ByBlock
 62
     0
370
    -2
100
AcDbLine
 10
-1.0
 20
0.26794919
 30
0.0
 11
0.0
 21
0.0
 31
0.0
  0
LINE
  5
6158
330
6155
100
AcDbEntity
  8
0
  6
ByBlock
 62
     0
370
    -2
100
AcDbLine
 10
0.0
 20
0.0
 30
0.0
 11
-1.0
 21
-0.26794919
 31
0.0
  0
LINE
  5
6159
330
6155
100
AcDbEntity
  8
0
  6
ByBlock
 62
     0
370
    -2
100
AcDbLine
 10
0.0
 20
0.0
 30
0.0
 11
-1.0
 21
0.0
 31
0.0
  0
ENDBLK
  5
615A
330
6155
100
AcDbEntity
  8
0
100
AcDbBlockEnd
  0
BLOCK
  5
616F
330
616E
100
AcDbEntity
  8
0
100
AcDbBlockBegin
  2
*D13
 70
     1
 10
0.0
 20
0.0
 30
0.0
  3
*D13
  1

  0
LINE
  5
6171
330
616E
100
AcDbEntity
  8
モデル
 62
     0
370
    -2
100
AcDbLine
 10
373.6778264405344
 20
126.1975191744808
 30
0.0
 11
373.6778264405344
 21
96.93304746448683
 31
0.0
  0
LINE
  5
6172
330
616E
100
AcDbEntity
  8
モデル
 62
     0
370
    -2
100
AcDbLine
 10
387.1701602145394
 20
121.7360175695463
 30
0.0
 11
387.1701602145394
 21
96.93304746448683
 31
0.0
  0
LINE
  5
6173
330
616E
100
AcDbEntity
  8
モデル
 62
     0
370
    -2
100
AcDbLine
 10
375.6778264405344
 20
96.93304746448683
 30
0.0
 11
385.1701602145394
 21
96.93304746448683
 31
0.0
  0
INSERT
  5
6174
330
616E
100
AcDbEntity
  8
モデル
 62
     0
370
    -2
100
AcDbBlockReference
  2
_DOT
 10
373.6778264405344
 20
96.93304746448683
 30
0.0
 41
2.0
 42
2.0
 43
2.0
 50
180.0
  0
INSERT
  5
6175
330
616E
100
AcDbEntity
  8
モデル
 62
     0
370
    -2
100
AcDbBlockReference
  2
_DOT
 10
387.1701602145394
 20
96.93304746448683
 30
0.0
 41
2.0
 42
2.0
 43
2.0
  0
MTEXT
  5
6176
330
616E
100
AcDbEntity
  8
モデル
 62
     0
100
AcDbMText
 10
380.4239933275369
 20
100.4339853161812
 30
0.0
 40
5.0
 41
0.0
 46
0.0
 71
     5
 72
     1
  1
\A1;14
  7
ＭＳ ゴシック
 73
     1
 44
1.0
  0
POINT
  5
6177
330
616E
100
AcDbEntity
  8
Defpoints
 62
     0
100
AcDbPoint
 10
373.6778264405344
 20
131.1975191744808
 30
0.0
  0
POINT
  5
6178
330
616E
100
AcDbEntity
  8
Defpoints
 62
     0
100
AcDbPoint
 10
387.1701602145394
 20
126.7360175695463
 30
0.0
  0
POINT
  5
6179
330
616E
100
AcDbEntity
  8
Defpoints
 62
     0
100
AcDbPoint
 10
387.1701602145394
 20
96.93304746448683
 30
0.0
  0
ENDBLK
  5
6170
330
616E
100
AcDbEntity
  8
0
100
AcDbBlockEnd
  0
BLOCK
  5
6181
330
6180
100
AcDbEntity
  8
0
100
AcDbBlockBegin
  2
*D14
 70
     1
 10
0.0
 20
0.0
 30
0.0
  3
*D14
  1

  0
LINE
  5
6183
330
6180
100
AcDbEntity
  8
モデル
 62
     0
370
    -2
100
AcDbLine
 10
274.7159362865023
 20
362.1701302081345
 30
0.0
 11
298.5361451280696
 21
362.1701302081345
 31
0.0
  0
LINE
  5
6184
330
6180
100
AcDbEntity
  8
モデル
 62
     0
370
    -2
100
AcDbLine
 10
277.935147968151
 20
348.6701302081345
 30
0.0
 11
298.5361451280696
 21
348.6701302081345
 31
0.0
  0
LINE
  5
6185
330
6180
100
AcDbEntity
  8
モデル
 62
     0
370
    -2
100
AcDbLine
 10
298.5361451280696
 20
360.1701302081345
 30
0.0
 11
298.5361451280696
 21
350.6701302081345
 31
0.0
  0
INSERT
  5
6186
330
6180
100
AcDbEntity
  8
モデル
 62
     0
370
    -2
100
AcDbBlockReference
  2
_DOT
 10
298.5361451280696
 20
362.1701302081345
 30
0.0
 41
2.0
 42
2.0
 43
2.0
 50
90.0
  0
INSERT
  5
6187
330
6180
100
AcDbEntity
  8
モデル
 62
     0
370
    -2
100
AcDbBlockReference
  2
_DOT
 10
298.5361451280696
 20
348.6701302081345
 30
0.0
 41
2.0
 42
2.0
 43
2.0
 50
270.0
  0
MTEXT
  5
6188
330
6180
100
AcDbEntity
  8
モデル
 62
     0
100
AcDbMText
 10
295.0352072763752
 20
355.4201302081345
 30
0.0
 40
5.0
 41
0.0
 46
0.0
 71
     5
 72
     1
  1
\A1;14
  7
ＭＳ ゴシック
 11
0.0
 21
1.0
 31
0.0
 73
     1
 44
1.0
  0
POINT
  5
6189
330
6180
100
AcDbEntity
  8
Defpoints
 62
     0
100
AcDbPoint
 10
269.7159362865023
 20
362.1701302081345
 30
0.0
  0
POINT
  5
618A
330
6180
100
AcDbEntity
  8
Defpoints
 62
     0
100
AcDbPoint
 10
272.935147968151
 20
348.6701302081345
 30
0.0
  0
POINT
  5
618B
330
6180
100
AcDbEntity
  8
Defpoints
 62
     0
100
AcDbPoint
 10
298.5361451280696
 20
348.6701302081345
 30
0.0
  0
ENDBLK
  5
6182
330
6180
100
AcDbEntity
  8
0
100
AcDbBlockEnd
  0
BLOCK
  5
6190
330
618F
100
AcDbEntity
  8
0
100
AcDbBlockBegin
  2
*D15
 70
     1
 10
0.0
 20
0.0
 30
0.0
  3
*D15
  1

  0
LINE
  5
6192
330
618F
100
AcDbEntity
  8
モデル
 62
     0
370
    -2
100
AcDbLine
 10
274.7159362865023
 20
362.1701302081345
 30
0.0
 11
288.4227353101434
 21
362.1701302081345
 31
0.0
  0
LINE
  5
6193
330
618F
100
AcDbEntity
  8
モデル
 62
     0
370
    -2
100
AcDbLine
 10
277.8304042956024
 20
350.9701302081344
 30
0.0
 11
288.4227353101434
 21
350.9701302081344
 31
0.0
  0
LINE
  5
6194
330
618F
100
AcDbEntity
  8
モデル
 62
     0
370
    -2
100
AcDbLine
 10
288.4227353101434
 20
360.1701302081345
 30
0.0
 11
288.4227353101434
 21
352.9701302081344
 31
0.0
  0
INSERT
  5
6195
330
618F
100
AcDbEntity
  8
モデル
 62
     0
370
    -2
100
AcDbBlockReference
  2
_DOT
 10
288.4227353101434
 20
362.1701302081345
 30
0.0
 41
2.0
 42
2.0
 43
2.0
 50
90.0
  0
INSERT
  5
6196
330
618F
100
AcDbEntity
  8
モデル
 62
     0
370
    -2
100
AcDbBlockReference
  2
_DOT
 10
288.4227353101434
 20
350.9701302081344
 30
0.0
 41
2.0
 42
2.0
 43
2.0
 50
270.0
  0
MTEXT
  5
6197
330
618F
100
AcDbEntity
  8
モデル
 62
     0
100
AcDbMText
 10
284.921797458449
 20
356.5701302081344
 30
0.0
 40
5.0
 41
0.0
 46
0.0
 71
     5
 72
     1
  1
\A1;11
  7
ＭＳ ゴシック
 11
0.0
 21
1.0
 31
0.0
 73
     1
 44
1.0
  0
POINT
  5
6198
330
618F
100
AcDbEntity
  8
Defpoints
 62
     0
100
AcDbPoint
 10
269.7159362865023
 20
362.1701302081345
 30
0.0
  0
POINT
  5
6199
330
618F
100
AcDbEntity
  8
Defpoints
 62
     0
100
AcDbPoint
 10
272.8304042956024
 20
350.9701302081344
 30
0.0
  0
POINT
  5
619A
330
618F
100
AcDbEntity
  8
Defpoints
 62
     0
100
AcDbPoint
 10
288.4227353101434
 20
350.9701302081344
 30
0.0
  0
ENDBLK
  5
6191
330
618F
100
AcDbEntity
  8
0
100
AcDbBlockEnd
  0
BLOCK
  5
627D
330
627C
100
AcDbEntity
  8
0
100
AcDbBlockBegin
  2
*D17
 70
     1
 10
0.0
 20
0.0
 30
0.0
  3
*D17
  1

  0
LINE
  5
627E
330
627C
100
AcDbEntity
  8
モデル
  6
Continuous
 62
     0
370
    -2
100
AcDbLine
 10
25.0
 20
187.4475514827804
 30
0.0
 11
54.6157101558226
 21
187.4475514827804
 31
0.0
  0
LINE
  5
627F
330
627C
100
AcDbEntity
  8
モデル
  6
Continuous
 62
     0
370
    -2
100
AcDbLine
 10
36.49999999999991
 20
242.4497798965805
 30
0.0
 11
54.6157101558226
 21
242.4497798965805
 31
0.0
  0
LINE
  5
6280
330
627C
100
AcDbEntity
  8
モデル
  6
Continuous
 62
     0
370
    -2
100
AcDbLine
 10
54.6157101558226
 20
189.4475514827804
 30
0.0
 11
54.6157101558226
 21
240.4497798965805
 31
0.0
  0
INSERT
  5
6281
330
627C
100
AcDbEntity
  8
モデル
 62
     0
370
    -2
100
AcDbBlockReference
  2
_DOT
 10
54.6157101558226
 20
187.4475514827804
 30
0.0
 41
2.0
 42
2.0
 43
2.0
 50
270.0
  0
INSERT
  5
6282
330
627C
100
AcDbEntity
  8
モデル
 62
     0
370
    -2
100
AcDbBlockReference
  2
_DOT
 10
54.6157101558226
 20
242.4497798965805
 30
0.0
 41
2.0
 42
2.0
 43
2.0
 50
90.0
  0
MTEXT
  5
6283
330
627C
100
AcDbEntity
  8
モデル
 62
     0
100
AcDbMText
 10
51.11477230412822
 20
214.9486656896804
 30
0.0
 40
5.0
 41
0.0
 46
0.0
 71
     5
 72
     1
  1
\A1;55
  7
ＭＳ ゴシック
 11
0.0
 21
1.0
 31
0.0
 73
     1
 44
1.0
  0
POINT
  5
6284
330
627C
100
AcDbEntity
  8
Defpoints
 62
     0
100
AcDbPoint
 10
20.0
 20
187.4475514827804
 30
0.0
  0
POINT
  5
6285
330
627C
100
AcDbEntity
  8
Defpoints
 62
     0
100
AcDbPoint
 10
31.49999999999991
 20
242.4497798965805
 30
0.0
  0
POINT
  5
6286
330
627C
100
AcDbEntity
  8
Defpoints
 62
     0
100
AcDbPoint
 10
54.6157101558226
 20
242.4497798965805
 30
0.0
  0
ENDBLK
  5
6287
330
627C
100
AcDbEntity
  8
0
100
AcDbBlockEnd
  0
BLOCK
  5
62E0
330
62DF
100
AcDbEntity
  8
0
100
AcDbBlockBegin
  2
*D18
 70
     1
 10
0.0
 20
0.0
 30
0.0
  3
*D18
  1

  0
LINE
  5
62E1
330
62DF
100
AcDbEntity
  8
モデル
 62
     0
370
    -2
100
AcDbLine
 10
30.0
 20
23.92424175942128
 30
0.0
 11
30.0
 21
0.9749279121817835
 31
0.0
  0
LINE
  5
62E2
330
62DF
100
AcDbEntity
  8
モデル
 62
     0
370
    -2
100
AcDbLine
 10
10.0
 20
60.74648456772127
 30
0.0
 11
10.0
 21
0.9749279121817835
 31
0.0
  0
LINE
  5
62E3
330
62DF
100
AcDbEntity
  8
モデル
 62
     0
370
    -2
100
AcDbLine
 10
28.0
 20
0.9749279121817835
 30
0.0
 11
12.0
 21
0.9749279121817835
 31
0.0
  0
INSERT
  5
62E4
330
62DF
100
AcDbEntity
  8
モデル
 62
     0
370
    -2
100
AcDbBlockReference
  2
_DOT
 10
30.0
 20
0.9749279121817835
 30
0.0
 41
2.0
 42
2.0
 43
2.0
  0
INSERT
  5
62E5
330
62DF
100
AcDbEntity
  8
モデル
 62
     0
370
    -2
100
AcDbBlockReference
  2
_DOT
 10
10.0
 20
0.9749279121817835
 30
0.0
 41
2.0
 42
2.0
 43
2.0
 50
180.0
  0
MTEXT
  5
62E6
330
62DF
100
AcDbEntity
  8
モデル
 62
     0
100
AcDbMText
 10
20.0
 20
4.475865763876169
 30
0.0
 40
5.0
 41
0.0
 46
0.0
 71
     5
 72
     1
  1
\A1;20
  7
ＭＳ ゴシック
 73
     1
 44
1.0
  0
POINT
  5
62E7
330
62DF
100
AcDbEntity
  8
Defpoints
 62
     0
100
AcDbPoint
 10
30.0
 20
28.92424175942128
 30
0.0
  0
POINT
  5
62E8
330
62DF
100
AcDbEntity
  8
Defpoints
 62
     0
100
AcDbPoint
 10
10.0
 20
65.74648456772127
 30
0.0
  0
POINT
  5
62E9
330
62DF
100
AcDbEntity
  8
Defpoints
 62
     0
100
AcDbPoint
 10
10.0
 20
0.9749279121817835
 30
0.0
  0
ENDBLK
  5
62EA
330
62DF
100
AcDbEntity
  8
0
100
AcDbBlockEnd
  0
BLOCK
  5
62ED
330
62EC
100
AcDbEntity
  8
0
100
AcDbBlockBegin
  2
*D19
 70
     1
 10
0.0
 20
0.0
 30
0.0
  3
*D19
  1

  0
LINE
  5
62EE
330
62EC
100
AcDbEntity
  8
モデル
 62
     0
370
    -2
100
AcDbLine
 10
206.0150825209506
 20
69.73648456772128
 30
0.0
 11
209.7894313261607
 21
69.73648456772128
 31
0.0
  0
LINE
  5
62EF
330
62EC
100
AcDbEntity
  8
モデル
 62
     0
370
    -2
100
AcDbLine
 10
190.2200407773235
 20
28.13721600576659
 30
0.0
 11
209.7894313261607
 21
28.13721600576659
 31
0.0
  0
LINE
  5
62F0
330
62EC
100
AcDbEntity
  8
モデル
 62
     0
370
    -2
100
AcDbLine
 10
209.7894313261607
 20
67.73648456772128
 30
0.0
 11
209.7894313261607
 21
30.13721600576659
 31
0.0
  0
INSERT
  5
62F1
330
62EC
100
AcDbEntity
  8
モデル
 62
     0
370
    -2
100
AcDbBlockReference
  2
_DOT
 10
209.7894313261607
 20
69.73648456772128
 30
0.0
 41
2.0
 42
2.0
 43
2.0
 50
90.0
  0
INSERT
  5
62F2
330
62EC
100
AcDbEntity
  8
モデル
 62
     0
370
    -2
100
AcDbBlockReference
  2
_DOT
 10
209.7894313261607
 20
28.13721600576659
 30
0.0
 41
2.0
 42
2.0
 43
2.0
 50
270.0
  0
MTEXT
  5
62F3
330
62EC
100
AcDbEntity
  8
モデル
 62
     0
100
AcDbMText
 10
206.2884934744663
 20
48.93648456772127
 30
0.0
 40
5.0
 41
0.0
 46
0.0
 71
     5
 72
     1
  1
\A1;42
  7
ＭＳ ゴシック
 11
0.0
 21
1.0
 31
0.0
 73
     1
 44
1.0
  0
POINT
  5
62F4
330
62EC
100
AcDbEntity
  8
Defpoints
 62
     0
100
AcDbPoint
 10
211.0150825209506
 20
69.73648456772128
 30
0.0
  0
POINT
  5
62F5
330
62EC
100
AcDbEntity
  8
Defpoints
 62
     0
100
AcDbPoint
 10
185.2200407773235
 20
28.13721600576659
 30
0.0
  0
POINT
  5
62F6
330
62EC
100
AcDbEntity
  8
Defpoints
 62
     0
100
AcDbPoint
 10
209.7894313261607
 20
28.13721600576659
 30
0.0
  0
ENDBLK
  5
62F7
330
62EC
100
AcDbEntity
  8
0
100
AcDbBlockEnd
  0
BLOCK
  5
62FC
330
62FB
100
AcDbEntity
  8
0
100
AcDbBlockBegin
  2
*D20
 70
     1
 10
0.0
 20
0.0
 30
0.0
  3
*D20
  1

  0
LINE
  5
62FD
330
62FB
100
AcDbEntity
  8
モデル
 62
     0
370
    -2
100
AcDbLine
 10
154.4931900698151
 20
60.73648456772128
 30
0.0
 11
154.4931900698151
 21
0.9749279121817835
 31
0.0
  0
LINE
  5
62FE
330
62FB
100
AcDbEntity
  8
モデル
 62
     0
370
    -2
100
AcDbLine
 10
99.4931900698152
 20
10.73962112909298
 30
0.0
 11
99.4931900698152
 21
0.9749279121817835
 31
0.0
  0
LINE
  5
62FF
330
62FB
100
AcDbEntity
  8
モデル
 62
     0
370
    -2
100
AcDbLine
 10
152.4931900698151
 20
0.9749279121817835
 30
0.0
 11
101.4931900698152
 21
0.9749279121817835
 31
0.0
  0
INSERT
  5
6300
330
62FB
100
AcDbEntity
  8
モデル
 62
     0
370
    -2
100
AcDbBlockReference
  2
_DOT
 10
154.4931900698151
 20
0.9749279121817835
 30
0.0
 41
2.0
 42
2.0
 43
2.0
  0
INSERT
  5
6301
330
62FB
100
AcDbEntity
  8
モデル
 62
     0
370
    -2
100
AcDbBlockReference
  2
_DOT
 10
99.4931900698152
 20
0.9749279121817835
 30
0.0
 41
2.0
 42
2.0
 43
2.0
 50
180.0
  0
MTEXT
  5
6302
330
62FB
100
AcDbEntity
  8
モデル
 62
     0
100
AcDbMText
 10
126.9931900698151
 20
4.475865763876169
 30
0.0
 40
5.0
 41
0.0
 46
0.0
 71
     5
 72
     1
  1
\A1;55
  7
ＭＳ ゴシック
 73
     1
 44
1.0
  0
POINT
  5
6303
330
62FB
100
AcDbEntity
  8
Defpoints
 62
     0
100
AcDbPoint
 10
154.4931900698151
 20
65.73648456772128
 30
0.0
  0
POINT
  5
6304
330
62FB
100
AcDbEntity
  8
Defpoints
 62
     0
100
AcDbPoint
 10
99.4931900698152
 20
15.73962112909298
 30
0.0
  0
POINT
  5
6305
330
62FB
100
AcDbEntity
  8
Defpoints
 62
     0
100
AcDbPoint
 10
99.4931900698152
 20
0.9749279121817835
 30
0.0
  0
ENDBLK
  5
6306
330
62FB
100
AcDbEntity
  8
0
100
AcDbBlockEnd
  0
BLOCK
  5
630B
330
630A
100
AcDbEntity
  8
0
100
AcDbBlockBegin
  2
*D21
 70
     1
 10
0.0
 20
0.0
 30
0.0
  3
*D21
  1

  0
LINE
  5
630C
330
630A
100
AcDbEntity
  8
モデル
 62
     0
370
    -2
100
AcDbLine
 10
313.8921875463187
 20
28.13648456772128
 30
0.0
 11
283.0874985050218
 21
28.13648456772128
 31
0.0
  0
LINE
  5
630D
330
630A
100
AcDbEntity
  8
モデル
 62
     0
370
    -2
100
AcDbLine
 10
313.8921875463187
 20
111.3364845677213
 30
0.0
 11
283.0874985050218
 21
111.3364845677213
 31
0.0
  0
LINE
  5
630E
330
630A
100
AcDbEntity
  8
モデル
 62
     0
370
    -2
100
AcDbLine
 10
283.0874985050218
 20
30.13648456772128
 30
0.0
 11
283.0874985050218
 21
109.3364845677213
 31
0.0
  0
INSERT
  5
630F
330
630A
100
AcDbEntity
  8
モデル
 62
     0
370
    -2
100
AcDbBlockReference
  2
_DOT
 10
283.0874985050218
 20
28.13648456772128
 30
0.0
 41
2.0
 42
2.0
 43
2.0
 50
270.0
  0
INSERT
  5
6310
330
630A
100
AcDbEntity
  8
モデル
 62
     0
370
    -2
100
AcDbBlockReference
  2
_DOT
 10
283.0874985050218
 20
111.3364845677213
 30
0.0
 41
2.0
 42
2.0
 43
2.0
 50
90.0
  0
MTEXT
  5
6311
330
630A
100
AcDbEntity
  8
モデル
 62
     0
100
AcDbMText
 10
279.5865606533274
 20
69.73648456772128
 30
0.0
 40
5.0
 41
0.0
 46
0.0
 71
     5
 72
     1
  1
\A1;83.5
  7
ＭＳ ゴシック
 11
0.0
 21
1.0
 31
0.0
 73
     1
 44
1.0
  0
POINT
  5
6312
330
630A
100
AcDbEntity
  8
Defpoints
 62
     0
100
AcDbPoint
 10
318.8921875463187
 20
28.13648456772128
 30
0.0
  0
POINT
  5
6313
330
630A
100
AcDbEntity
  8
Defpoints
 62
     0
100
AcDbPoint
 10
318.8921875463187
 20
111.3364845677213
 30
0.0
  0
POINT
  5
6314
330
630A
100
AcDbEntity
  8
Defpoints
 62
     0
100
AcDbPoint
 10
283.0874985050218
 20
111.3364845677213
 30
0.0
  0
ENDBLK
  5
6315
330
630A
100
AcDbEntity
  8
0
100
AcDbBlockEnd
  0
BLOCK
  5
6318
330
6317
100
AcDbEntity
  8
0
100
AcDbBlockBegin
  2
*D22
 70
     1
 10
0.0
 20
0.0
 30
0.0
  3
*D22
  1

  0
LINE
  5
6319
330
6317
100
AcDbEntity
  8
モデル
 62
     0
370
    -2
100
AcDbLine
 10
313.0921875463187
 20
29.65798421632127
 30
0.0
 11
295.6398484504585
 21
29.65798421632127
 31
0.0
  0
LINE
  5
631A
330
6317
100
AcDbEntity
  8
モデル
 62
     0
370
    -2
100
AcDbLine
 10
313.0921875463187
 20
109.8149849191213
 30
0.0
 11
295.6398484504585
 21
109.8149849191213
 31
0.0
  0
LINE
  5
631B
330
6317
100
AcDbEntity
  8
モデル
 62
     0
370
    -2
100
AcDbLine
 10
295.6398484504585
 20
31.65798421632127
 30
0.0
 11
295.6398484504585
 21
107.8149849191213
 31
0.0
  0
INSERT
  5
631C
330
6317
100
AcDbEntity
  8
モデル
 62
     0
370
    -2
100
AcDbBlockReference
  2
_DOT
 10
295.6398484504585
 20
29.65798421632127
 30
0.0
 41
2.0
 42
2.0
 43
2.0
 50
270.0
  0
INSERT
  5
631D
330
6317
100
AcDbEntity
  8
モデル
 62
     0
370
    -2
100
AcDbBlockReference
  2
_DOT
 10
295.6398484504585
 20
109.8149849191213
 30
0.0
 41
2.0
 42
2.0
 43
2.0
 50
90.0
  0
MTEXT
  5
631E
330
6317
100
AcDbEntity
  8
モデル
 62
     0
100
AcDbMText
 10
292.1398484504585
 20
69.73648456772128
 30
0.0
 40
5.0
 41
0.0
 46
0.0
 71
     5
 72
     1
  1
\A1;80
  7
ＭＳ ゴシック
 11
0.0
 21
1.0
 31
0.0
 73
     1
 44
1.0
  0
POINT
  5
631F
330
6317
100
AcDbEntity
  8
Defpoints
 62
     0
100
AcDbPoint
 10
318.0921875463187
 20
29.65798421632127
 30
0.0
  0
POINT
  5
6320
330
6317
100
AcDbEntity
  8
Defpoints
 62
     0
100
AcDbPoint
 10
318.0921875463187
 20
109.8149849191213
 30
0.0
  0
POINT
  5
6321
330
6317
100
AcDbEntity
  8
Defpoints
 62
     0
100
AcDbPoint
 10
295.6398484504585
 20
109.8149849191213
 30
0.0
  0
ENDBLK
  5
6322
330
6317
100
AcDbEntity
  8
0
100
AcDbBlockEnd
  0
BLOCK
  5
6325
330
6324
100
AcDbEntity
  8
0
100
AcDbBlockBegin
  2
*D23
 70
     1
 10
0.0
 20
0.0
 30
0.0
  3
*D23
  1

  0
LINE
  5
6326
330
6324
100
AcDbEntity
  8
モデル
 62
     0
370
    -2
100
AcDbLine
 10
318.0921875463187
 20
24.65798421632127
 30
0.0
 11
318.0921875463187
 21
9.991838490253784
 31
0.0
  0
LINE
  5
6327
330
6324
100
AcDbEntity
  8
モデル
 62
     0
370
    -2
100
AcDbLine
 10
306.8921875463187
 20
25.66646778323619
 30
0.0
 11
306.8921875463187
 21
9.991838490253784
 31
0.0
  0
LINE
  5
6328
330
6324
100
AcDbEntity
  8
モデル
 62
     0
370
    -2
100
AcDbLine
 10
316.0921875463187
 20
9.991838490253784
 30
0.0
 11
308.8921875463187
 21
9.991838490253784
 31
0.0
  0
INSERT
  5
6329
330
6324
100
AcDbEntity
  8
モデル
 62
     0
370
    -2
100
AcDbBlockReference
  2
_DOT
 10
318.0921875463187
 20
9.991838490253784
 30
0.0
 41
2.0
 42
2.0
 43
2.0
  0
INSERT
  5
632A
330
6324
100
AcDbEntity
  8
モデル
 62
     0
370
    -2
100
AcDbBlockReference
  2
_DOT
 10
306.8921875463187
 20
9.991838490253784
 30
0.0
 41
2.0
 42
2.0
 43
2.0
 50
180.0
  0
MTEXT
  5
632B
330
6324
100
AcDbEntity
  8
モデル
 62
     0
100
AcDbMText
 10
312.8921875463187
 20
13.24268255677873
 30
0.0
 40
4.5
 41
0.0
 46
0.0
 71
     5
 72
     1
  1
\A1;11
  7
ＭＳ ゴシック
 73
     1
 44
1.0
  0
POINT
  5
632C
330
6324
100
AcDbEntity
  8
Defpoints
 62
     0
100
AcDbPoint
 10
318.0921875463187
 20
29.65798421632127
 30
0.0
  0
POINT
  5
632D
330
6324
100
AcDbEntity
  8
Defpoints
 62
     0
100
AcDbPoint
 10
306.8921875463187
 20
30.66646778323619
 30
0.0
  0
POINT
  5
632E
330
6324
100
AcDbEntity
  8
Defpoints
 62
     0
100
AcDbPoint
 10
306.8921875463187
 20
9.991838490253784
 30
0.0
  0
ENDBLK
  5
632F
330
6324
100
AcDbEntity
  8
0
100
AcDbBlockEnd
  0
BLOCK
  5
6334
330
6333
100
AcDbEntity
  8
0
100
AcDbBlockBegin
  2
*D24
 70
     1
 10
0.0
 20
0.0
 30
0.0
  3
*D24
  1

  0
LINE
  5
6335
330
6333
100
AcDbEntity
  8
モデル
 62
     0
370
    -2
100
AcDbLine
 10
112.8931900698152
 20
229.4501321704364
 30
0.0
 11
112.8931900698152
 21
209.0915528410131
 31
0.0
  0
LINE
  5
6336
330
6333
100
AcDbEntity
  8
モデル
 62
     0
370
    -2
100
AcDbLine
 10
196.0931900698153
 20
229.4501321704363
 30
0.0
 11
196.0931900698153
 21
209.0915528410131
 31
0.0
  0
LINE
  5
6337
330
6333
100
AcDbEntity
  8
モデル
 62
     0
370
    -2
100
AcDbLine
 10
114.8931900698152
 20
209.0915528410131
 30
0.0
 11
194.0931900698153
 21
209.0915528410131
 31
0.0
  0
INSERT
  5
6338
330
6333
100
AcDbEntity
  8
モデル
 62
     0
370
    -2
100
AcDbBlockReference
  2
_DOT
 10
112.8931900698152
 20
209.0915528410131
 30
0.0
 41
2.0
 42
2.0
 43
2.0
 50
180.0
  0
INSERT
  5
6339
330
6333
100
AcDbEntity
  8
モデル
 62
     0
370
    -2
100
AcDbBlockReference
  2
_DOT
 10
196.0931900698153
 20
209.0915528410131
 30
0.0
 41
2.0
 42
2.0
 43
2.0
  0
MTEXT
  5
633A
330
6333
100
AcDbEntity
  8
モデル
 62
     0
100
AcDbMText
 10
154.4931900698153
 20
212.5924906927074
 30
0.0
 40
5.0
 41
0.0
 46
0.0
 71
     5
 72
     1
  1
\A1;83.5
  7
ＭＳ ゴシック
 73
     1
 44
1.0
  0
POINT
  5
633B
330
6333
100
AcDbEntity
  8
Defpoints
 62
     0
100
AcDbPoint
 10
112.8931900698152
 20
234.4501321704364
 30
0.0
  0
POINT
  5
633C
330
6333
100
AcDbEntity
  8
Defpoints
 62
     0
100
AcDbPoint
 10
196.0931900698153
 20
234.4501321704363
 30
0.0
  0
POINT
  5
633D
330
6333
100
AcDbEntity
  8
Defpoints
 62
     0
100
AcDbPoint
 10
196.0931900698153
 20
209.0915528410131
 30
0.0
  0
ENDBLK
  5
633E
330
6333
100
AcDbEntity
  8
0
100
AcDbBlockEnd
  0
BLOCK
  5
6341
330
6340
100
AcDbEntity
  8
0
100
AcDbBlockBegin
  2
*D25
 70
     1
 10
0.0
 20
0.0
 30
0.0
  3
*D25
  1

  0
LINE
  5
6342
330
6340
100
AcDbEntity
  8
モデル
 62
     0
370
    -2
100
AcDbLine
 10
114.4146897184154
 20
241.7501321704365
 30
0.0
 11
114.4146897184154
 21
270.0780892077252
 31
0.0
  0
LINE
  5
6343
330
6340
100
AcDbEntity
  8
モデル
 62
     0
370
    -2
100
AcDbLine
 10
194.5716904212153
 20
241.7501321704364
 30
0.0
 11
194.5716904212153
 21
270.0780892077252
 31
0.0
  0
LINE
  5
6344
330
6340
100
AcDbEntity
  8
モデル
 62
     0
370
    -2
100
AcDbLine
 10
116.4146897184154
 20
270.0780892077252
 30
0.0
 11
192.5716904212153
 21
270.0780892077252
 31
0.0
  0
INSERT
  5
6345
330
6340
100
AcDbEntity
  8
モデル
 62
     0
370
    -2
100
AcDbBlockReference
  2
_DOT
 10
114.4146897184154
 20
270.0780892077252
 30
0.0
 41
2.0
 42
2.0
 43
2.0
 50
180.0
  0
INSERT
  5
6346
330
6340
100
AcDbEntity
  8
モデル
 62
     0
370
    -2
100
AcDbBlockReference
  2
_DOT
 10
194.5716904212153
 20
270.0780892077252
 30
0.0
 41
2.0
 42
2.0
 43
2.0
  0
MTEXT
  5
6347
330
6340
100
AcDbEntity
  8
モデル
 62
     0
100
AcDbMText
 10
154.4931900698154
 20
273.5780892077252
 30
0.0
 40
5.0
 41
0.0
 46
0.0
 71
     5
 72
     1
  1
\A1;80
  7
ＭＳ ゴシック
 73
     1
 44
1.0
  0
POINT
  5
6348
330
6340
100
AcDbEntity
  8
Defpoints
 62
     0
100
AcDbPoint
 10
114.4146897184154
 20
236.7501321704365
 30
0.0
  0
POINT
  5
6349
330
6340
100
AcDbEntity
  8
Defpoints
 62
     0
100
AcDbPoint
 10
194.5716904212153
 20
236.7501321704364
 30
0.0
  0
POINT
  5
634A
330
6340
100
AcDbEntity
  8
Defpoints
 62
     0
100
AcDbPoint
 10
194.5716904212153
 20
270.0780892077252
 30
0.0
  0
ENDBLK
  5
634B
330
6340
100
AcDbEntity
  8
0
100
AcDbBlockEnd
  0
BLOCK
  5
635A
330
6359
100
AcDbEntity
  8
0
100
AcDbBlockBegin
  2
*D26
 70
     1
 10
0.0
 20
0.0
 30
0.0
  3
*D26
  1

  0
LINE
  5
635B
330
6359
100
AcDbEntity
  8
モデル
 62
     0
370
    -2
100
AcDbLine
 10
320.3921875463187
 20
24.53074373514127
 30
0.0
 11
320.3921875463187
 21
1.326409199183985
 31
0.0
  0
LINE
  5
635C
330
6359
100
AcDbEntity
  8
モデル
 62
     0
370
    -2
100
AcDbLine
 10
306.8921875463187
 20
26.60111259662679
 30
0.0
 11
306.8921875463187
 21
1.326409199183985
 31
0.0
  0
LINE
  5
635D
330
6359
100
AcDbEntity
  8
モデル
 62
     0
370
    -2
100
AcDbLine
 10
318.3921875463187
 20
1.326409199183985
 30
0.0
 11
308.8921875463187
 21
1.326409199183985
 31
0.0
  0
INSERT
  5
635E
330
6359
100
AcDbEntity
  8
モデル
 62
     0
370
    -2
100
AcDbBlockReference
  2
_DOT
 10
320.3921875463187
 20
1.326409199183985
 30
0.0
 41
2.0
 42
2.0
 43
2.0
  0
INSERT
  5
635F
330
6359
100
AcDbEntity
  8
モデル
 62
     0
370
    -2
100
AcDbBlockReference
  2
_DOT
 10
306.8921875463187
 20
1.326409199183985
 30
0.0
 41
2.0
 42
2.0
 43
2.0
 50
180.0
  0
MTEXT
  5
6360
330
6359
100
AcDbEntity
  8
モデル
 62
     0
100
AcDbMText
 10
313.6421875463187
 20
4.82734705087837
 30
0.0
 40
5.0
 41
0.0
 46
0.0
 71
     5
 72
     1
  1
\A1;14
  7
ＭＳ ゴシック
 73
     1
 44
1.0
  0
POINT
  5
6361
330
6359
100
AcDbEntity
  8
Defpoints
 62
     0
100
AcDbPoint
 10
320.3921875463187
 20
29.53074373514127
 30
0.0
  0
POINT
  5
6362
330
6359
100
AcDbEntity
  8
Defpoints
 62
     0
100
AcDbPoint
 10
306.8921875463187
 20
31.60111259662679
 30
0.0
  0
POINT
  5
6363
330
6359
100
AcDbEntity
  8
Defpoints
 62
     0
100
AcDbPoint
 10
306.8921875463187
 20
1.326409199183985
 30
0.0
  0
ENDBLK
  5
6364
330
6359
100
AcDbEntity
  8
0
100
AcDbBlockEnd
  0
BLOCK
  5
6369
330
6368
100
AcDbEntity
  8
0
100
AcDbBlockBegin
  2
*D27
 70
     1
 10
0.0
 20
0.0
 30
0.0
  3
*D27
  1

  0
LINE
  5
636A
330
6368
100
AcDbEntity
  8
モデル
 62
     0
370
    -2
100
AcDbLine
 10
199.5716904212153
 20
236.7501321704364
 30
0.0
 11
214.9516640052954
 21
236.7501321704364
 31
0.0
  0
LINE
  5
636B
330
6368
100
AcDbEntity
  8
モデル
 62
     0
370
    -2
100
AcDbLine
 10
196.4572224121154
 20
247.9501321704363
 30
0.0
 11
214.9516640052954
 21
247.9501321704363
 31
0.0
  0
LINE
  5
636C
330
6368
100
AcDbEntity
  8
モデル
 62
     0
370
    -2
100
AcDbLine
 10
214.9516640052954
 20
238.7501321704364
 30
0.0
 11
214.9516640052954
 21
245.9501321704363
 31
0.0
  0
INSERT
  5
636D
330
6368
100
AcDbEntity
  8
モデル
 62
     0
370
    -2
100
AcDbBlockReference
  2
_DOT
 10
214.9516640052954
 20
236.7501321704364
 30
0.0
 41
2.0
 42
2.0
 43
2.0
 50
270.0
  0
INSERT
  5
636E
330
6368
100
AcDbEntity
  8
モデル
 62
     0
370
    -2
100
AcDbBlockReference
  2
_DOT
 10
214.9516640052954
 20
247.9501321704363
 30
0.0
 41
2.0
 42
2.0
 43
2.0
 50
90.0
  0
MTEXT
  5
636F
330
6368
100
AcDbEntity
  8
モデル
 62
     0
100
AcDbMText
 10
211.450726153601
 20
242.3501321704363
 30
0.0
 40
5.0
 41
0.0
 46
0.0
 71
     5
 72
     1
  1
\A1;11
  7
ＭＳ ゴシック
 11
0.0
 21
1.0
 31
0.0
 73
     1
 44
1.0
  0
POINT
  5
6370
330
6368
100
AcDbEntity
  8
Defpoints
 62
     0
100
AcDbPoint
 10
194.5716904212153
 20
236.7501321704364
 30
0.0
  0
POINT
  5
6371
330
6368
100
AcDbEntity
  8
Defpoints
 62
     0
100
AcDbPoint
 10
191.4572224121154
 20
247.9501321704363
 30
0.0
  0
POINT
  5
6372
330
6368
100
AcDbEntity
  8
Defpoints
 62
     0
100
AcDbPoint
 10
214.9516640052954
 20
247.9501321704363
 30
0.0
  0
ENDBLK
  5
6373
330
6368
100
AcDbEntity
  8
0
100
AcDbBlockEnd
  0
BLOCK
  5
6378
330
6377
100
AcDbEntity
  8
0
100
AcDbBlockBegin
  2
*D28
 70
     1
 10
0.0
 20
0.0
 30
0.0
  3
*D28
  1

  0
LINE
  5
6379
330
6377
100
AcDbEntity
  8
モデル
 62
     0
370
    -2
100
AcDbLine
 10
199.5829684900425
 20
234.4501321704363
 30
0.0
 11
225.2560011359609
 21
234.4501321704363
 31
0.0
  0
LINE
  5
637A
330
6377
100
AcDbEntity
  8
モデル
 62
     0
370
    -2
100
AcDbLine
 10
196.4572224121154
 20
247.9501321704363
 30
0.0
 11
225.2560011359609
 21
247.9501321704363
 31
0.0
  0
LINE
  5
637B
330
6377
100
AcDbEntity
  8
モデル
 62
     0
370
    -2
100
AcDbLine
 10
225.2560011359609
 20
236.4501321704363
 30
0.0
 11
225.2560011359609
 21
245.9501321704363
 31
0.0
  0
INSERT
  5
637C
330
6377
100
AcDbEntity
  8
モデル
 62
     0
370
    -2
100
AcDbBlockReference
  2
_DOT
 10
225.2560011359609
 20
234.4501321704363
 30
0.0
 41
2.0
 42
2.0
 43
2.0
 50
270.0
  0
INSERT
  5
637D
330
6377
100
AcDbEntity
  8
モデル
 62
     0
370
    -2
100
AcDbBlockReference
  2
_DOT
 10
225.2560011359609
 20
247.9501321704363
 30
0.0
 41
2.0
 42
2.0
 43
2.0
 50
90.0
  0
MTEXT
  5
637E
330
6377
100
AcDbEntity
  8
モデル
 62
     0
100
AcDbMText
 10
221.7550632842666
 20
241.2001321704363
 30
0.0
 40
5.0
 41
0.0
 46
0.0
 71
     5
 72
     1
  1
\A1;14
  7
ＭＳ ゴシック
 11
0.0
 21
1.0
 31
0.0
 73
     1
 44
1.0
  0
POINT
  5
637F
330
6377
100
AcDbEntity
  8
Defpoints
 62
     0
100
AcDbPoint
 10
194.5829684900425
 20
234.4501321704363
 30
0.0
  0
POINT
  5
6380
330
6377
100
AcDbEntity
  8
Defpoints
 62
     0
100
AcDbPoint
 10
191.4572224121154
 20
247.9501321704363
 30
0.0
  0
POINT
  5
6381
330
6377
100
AcDbEntity
  8
Defpoints
 62
     0
100
AcDbPoint
 10
225.2560011359609
 20
247.9501321704363
 30
0.0
  0
ENDBLK
  5
6382
330
6377
100
AcDbEntity
  8
0
100
AcDbBlockEnd
  0
BLOCK
  5
638B
330
638A
100
AcDbEntity
  8
0
100
AcDbBlockBegin
  2
*D29
 70
     1
 10
0.0
 20
0.0
 30
0.0
  3
*D29
  1

  0
LINE
  5
638C
330
638A
100
AcDbEntity
  8
モデル
 62
     0
370
    -2
100
AcDbLine
 10
131.0344013244037
 20
90.73962112909288
 30
0.0
 11
133.0747456687668
 21
90.73962112909288
 31
0.0
  0
LINE
  5
638D
330
638A
100
AcDbEntity
  8
モデル
 62
     0
370
    -2
100
AcDbLine
 10
131.0344013244037
 20
69.73648456772128
 30
0.0
 11
133.0747456687668
 21
69.73648456772128
 31
0.0
  0
LINE
  5
638E
330
638A
100
AcDbEntity
  8
モデル
 62
     0
370
    -2
100
AcDbLine
 10
133.0747456687668
 20
88.73962112909288
 30
0.0
 11
133.0747456687668
 21
71.73648456772128
 31
0.0
  0
INSERT
  5
638F
330
638A
100
AcDbEntity
  8
モデル
 62
     0
370
    -2
100
AcDbBlockReference
  2
_DOT
 10
133.0747456687668
 20
90.73962112909288
 30
0.0
 41
2.0
 42
2.0
 43
2.0
 50
90.0
  0
INSERT
  5
6390
330
638A
100
AcDbEntity
  8
モデル
 62
     0
370
    -2
100
AcDbBlockReference
  2
_DOT
 10
133.0747456687668
 20
69.73648456772128
 30
0.0
 41
2.0
 42
2.0
 43
2.0
 50
270.0
  0
MTEXT
  5
6391
330
638A
100
AcDbEntity
  8
モデル
 62
     0
100
AcDbMText
 10
129.5738078170724
 20
80.23805284840708
 30
0.0
 40
5.0
 41
0.0
 46
0.0
 71
     5
 72
     1
  1
\A1;21
  7
ＭＳ ゴシック
 11
0.0
 21
1.0
 31
0.0
 73
     1
 44
1.0
  0
POINT
  5
6392
330
638A
100
AcDbEntity
  8
Defpoints
 62
     0
100
AcDbPoint
 10
136.0344013244037
 20
90.73962112909288
 30
0.0
  0
POINT
  5
6393
330
638A
100
AcDbEntity
  8
Defpoints
 62
     0
100
AcDbPoint
 10
136.0344013244037
 20
69.73648456772128
 30
0.0
  0
POINT
  5
6394
330
638A
100
AcDbEntity
  8
Defpoints
 62
     0
100
AcDbPoint
 10
133.0747456687668
 20
69.73648456772128
 30
0.0
  0
ENDBLK
  5
6395
330
638A
100
AcDbEntity
  8
0
100
AcDbBlockEnd
  0
BLOCK
  5
6479
330
6478
100
AcDbEntity
  8
0
100
AcDbBlockBegin
  2
*D30
 70
     1
 10
0.0
 20
0.0
 30
0.0
  3
*D30
  1

  0
LINE
  5
647B
330
6478
100
AcDbEntity
  8
モデル
  6
Continuous
 62
     0
370
    -2
100
AcDbLine
 10
647.9258418740847
 20
291.2099965779488
 30
0.0
 11
677.5415520299073
 21
291.2099965779488
 31
0.0
  0
LINE
  5
647C
330
6478
100
AcDbEntity
  8
モデル
  6
Continuous
 62
     0
370
    -2
100
AcDbLine
 10
659.4258418740845
 20
346.2122249917488
 30
0.0
 11
677.5415520299073
 21
346.2122249917488
 31
0.0
  0
LINE
  5
647D
330
6478
100
AcDbEntity
  8
モデル
  6
Continuous
 62
     0
370
    -2
100
AcDbLine
 10
677.5415520299073
 20
293.2099965779488
 30
0.0
 11
677.5415520299073
 21
344.2122249917488
 31
0.0
  0
INSERT
  5
647E
330
6478
100
AcDbEntity
  8
モデル
 62
     0
370
    -2
100
AcDbBlockReference
  2
_DOT
 10
677.5415520299073
 20
291.2099965779488
 30
0.0
 41
2.0
 42
2.0
 43
2.0
 50
270.0
  0
INSERT
  5
647F
330
6478
100
AcDbEntity
  8
モデル
 62
     0
370
    -2
100
AcDbBlockReference
  2
_DOT
 10
677.5415520299073
 20
346.2122249917488
 30
0.0
 41
2.0
 42
2.0
 43
2.0
 50
90.0
  0
MTEXT
  5
6480
330
6478
100
AcDbEntity
  8
モデル
 62
     0
100
AcDbMText
 10
674.0406141782129
 20
318.7111107848488
 30
0.0
 40
5.0
 41
0.0
 46
0.0
 71
     5
 72
     1
  1
\A1;55
  7
ＭＳ ゴシック
 11
0.0
 21
1.0
 31
0.0
 73
     1
 44
1.0
  0
POINT
  5
6481
330
6478
100
AcDbEntity
  8
Defpoints
 62
     0
100
AcDbPoint
 10
642.9258418740847
 20
291.2099965779488
 30
0.0
  0
POINT
  5
6482
330
6478
100
AcDbEntity
  8
Defpoints
 62
     0
100
AcDbPoint
 10
654.4258418740845
 20
346.2122249917488
 30
0.0
  0
POINT
  5
6483
330
6478
100
AcDbEntity
  8
Defpoints
 62
     0
100
AcDbPoint
 10
677.5415520299073
 20
346.2122249917488
 30
0.0
  0
ENDBLK
  5
647A
330
6478
100
AcDbEntity
  8
0
100
AcDbBlockEnd
  0
BLOCK
  5
6485
330
6484
100
AcDbEntity
  8
0
100
AcDbBlockBegin
  2
*D31
 70
     1
 10
0.0
 20
0.0
 30
0.0
  3
*D31
  1

  0
LINE
  5
6487
330
6484
100
AcDbEntity
  8
モデル
 62
     0
370
    -2
100
AcDbLine
 10
652.9258418740847
 20
127.6866868545897
 30
0.0
 11
652.9258418740847
 21
104.7373730073502
 31
0.0
  0
LINE
  5
6488
330
6484
100
AcDbEntity
  8
モデル
 62
     0
370
    -2
100
AcDbLine
 10
632.9258418740847
 20
164.5089296628897
 30
0.0
 11
632.9258418740847
 21
104.7373730073502
 31
0.0
  0
LINE
  5
6489
330
6484
100
AcDbEntity
  8
モデル
 62
     0
370
    -2
100
AcDbLine
 10
650.9258418740847
 20
104.7373730073502
 30
0.0
 11
634.9258418740847
 21
104.7373730073502
 31
0.0
  0
INSERT
  5
648A
330
6484
100
AcDbEntity
  8
モデル
 62
     0
370
    -2
100
AcDbBlockReference
  2
_DOT
 10
652.9258418740847
 20
104.7373730073502
 30
0.0
 41
2.0
 42
2.0
 43
2.0
  0
INSERT
  5
648B
330
6484
100
AcDbEntity
  8
モデル
 62
     0
370
    -2
100
AcDbBlockReference
  2
_DOT
 10
632.9258418740847
 20
104.7373730073502
 30
0.0
 41
2.0
 42
2.0
 43
2.0
 50
180.0
  0
MTEXT
  5
648C
330
6484
100
AcDbEntity
  8
モデル
 62
     0
100
AcDbMText
 10
642.9258418740847
 20
108.2383108590446
 30
0.0
 40
5.0
 41
0.0
 46
0.0
 71
     5
 72
     1
  1
\A1;20
  7
ＭＳ ゴシック
 73
     1
 44
1.0
  0
POINT
  5
648D
330
6484
100
AcDbEntity
  8
Defpoints
 62
     0
100
AcDbPoint
 10
652.9258418740847
 20
132.6866868545897
 30
0.0
  0
POINT
  5
648E
330
6484
100
AcDbEntity
  8
Defpoints
 62
     0
100
AcDbPoint
 10
632.9258418740847
 20
169.5089296628897
 30
0.0
  0
POINT
  5
648F
330
6484
100
AcDbEntity
  8
Defpoints
 62
     0
100
AcDbPoint
 10
632.9258418740847
 20
104.7373730073502
 30
0.0
  0
ENDBLK
  5
6486
330
6484
100
AcDbEntity
  8
0
100
AcDbBlockEnd
  0
BLOCK
  5
6491
330
6490
100
AcDbEntity
  8
0
100
AcDbBlockBegin
  2
*D32
 70
     1
 10
0.0
 20
0.0
 30
0.0
  3
*D32
  1

  0
LINE
  5
6493
330
6490
100
AcDbEntity
  8
モデル
 62
     0
370
    -2
100
AcDbLine
 10
828.9409243950353
 20
173.4989296628897
 30
0.0
 11
832.7152732002454
 21
173.4989296628897
 31
0.0
  0
LINE
  5
6494
330
6490
100
AcDbEntity
  8
モデル
 62
     0
370
    -2
100
AcDbLine
 10
813.1458826514082
 20
131.899661100935
 30
0.0
 11
832.7152732002454
 21
131.899661100935
 31
0.0
  0
LINE
  5
6495
330
6490
100
AcDbEntity
  8
モデル
 62
     0
370
    -2
100
AcDbLine
 10
832.7152732002454
 20
171.4989296628897
 30
0.0
 11
832.7152732002454
 21
133.899661100935
 31
0.0
  0
INSERT
  5
6496
330
6490
100
AcDbEntity
  8
モデル
 62
     0
370
    -2
100
AcDbBlockReference
  2
_DOT
 10
832.7152732002454
 20
173.4989296628897
 30
0.0
 41
2.0
 42
2.0
 43
2.0
 50
90.0
  0
INSERT
  5
6497
330
6490
100
AcDbEntity
  8
モデル
 62
     0
370
    -2
100
AcDbBlockReference
  2
_DOT
 10
832.7152732002454
 20
131.899661100935
 30
0.0
 41
2.0
 42
2.0
 43
2.0
 50
270.0
  0
MTEXT
  5
6498
330
6490
100
AcDbEntity
  8
モデル
 62
     0
100
AcDbMText
 10
829.214335348551
 20
152.6989296628897
 30
0.0
 40
5.0
 41
0.0
 46
0.0
 71
     5
 72
     1
  1
\A1;42
  7
ＭＳ ゴシック
 11
0.0
 21
1.0
 31
0.0
 73
     1
 44
1.0
  0
POINT
  5
6499
330
6490
100
AcDbEntity
  8
Defpoints
 62
     0
100
AcDbPoint
 10
833.9409243950353
 20
173.4989296628897
 30
0.0
  0
POINT
  5
649A
330
6490
100
AcDbEntity
  8
Defpoints
 62
     0
100
AcDbPoint
 10
808.1458826514082
 20
131.899661100935
 30
0.0
  0
POINT
  5
649B
330
6490
100
AcDbEntity
  8
Defpoints
 62
     0
100
AcDbPoint
 10
832.7152732002454
 20
131.899661100935
 30
0.0
  0
ENDBLK
  5
6492
330
6490
100
AcDbEntity
  8
0
100
AcDbBlockEnd
  0
BLOCK
  5
649D
330
649C
100
AcDbEntity
  8
0
100
AcDbBlockBegin
  2
*D33
 70
     1
 10
0.0
 20
0.0
 30
0.0
  3
*D33
  1

  0
LINE
  5
649F
330
649C
100
AcDbEntity
  8
モデル
 62
     0
370
    -2
100
AcDbLine
 10
777.4190319438998
 20
164.4989296628897
 30
0.0
 11
777.4190319438998
 21
104.7373730073502
 31
0.0
  0
LINE
  5
64A0
330
649C
100
AcDbEntity
  8
モデル
 62
     0
370
    -2
100
AcDbLine
 10
722.4190319438999
 20
114.5020662242614
 30
0.0
 11
722.4190319438999
 21
104.7373730073502
 31
0.0
  0
LINE
  5
64A1
330
649C
100
AcDbEntity
  8
モデル
 62
     0
370
    -2
100
AcDbLine
 10
775.4190319438998
 20
104.7373730073502
 30
0.0
 11
724.4190319438999
 21
104.7373730073502
 31
0.0
  0
INSERT
  5
64A2
330
649C
100
AcDbEntity
  8
モデル
 62
     0
370
    -2
100
AcDbBlockReference
  2
_DOT
 10
777.4190319438998
 20
104.7373730073502
 30
0.0
 41
2.0
 42
2.0
 43
2.0
  0
INSERT
  5
64A3
330
649C
100
AcDbEntity
  8
モデル
 62
     0
370
    -2
100
AcDbBlockReference
  2
_DOT
 10
722.4190319438999
 20
104.7373730073502
 30
0.0
 41
2.0
 42
2.0
 43
2.0
 50
180.0
  0
MTEXT
  5
64A4
330
649C
100
AcDbEntity
  8
モデル
 62
     0
100
AcDbMText
 10
749.9190319438999
 20
108.2383108590446
 30
0.0
 40
5.0
 41
0.0
 46
0.0
 71
     5
 72
     1
  1
\A1;55
  7
ＭＳ ゴシック
 73
     1
 44
1.0
  0
POINT
  5
64A5
330
649C
100
AcDbEntity
  8
Defpoints
 62
     0
100
AcDbPoint
 10
777.4190319438998
 20
169.4989296628897
 30
0.0
  0
POINT
  5
64A6
330
649C
100
AcDbEntity
  8
Defpoints
 62
     0
100
AcDbPoint
 10
722.4190319438999
 20
119.5020662242614
 30
0.0
  0
POINT
  5
64A7
330
649C
100
AcDbEntity
  8
Defpoints
 62
     0
100
AcDbPoint
 10
722.4190319438999
 20
104.7373730073502
 30
0.0
  0
ENDBLK
  5
649E
330
649C
100
AcDbEntity
  8
0
100
AcDbBlockEnd
  0
BLOCK
  5
64A9
330
64A8
100
AcDbEntity
  8
0
100
AcDbBlockBegin
  2
*D34
 70
     1
 10
0.0
 20
0.0
 30
0.0
  3
*D34
  1

  0
LINE
  5
64AB
330
64A8
100
AcDbEntity
  8
モデル
 62
     0
370
    -2
100
AcDbLine
 10
384.069127517036
 20
131.8989296628897
 30
0.0
 11
353.2644384757391
 21
131.8989296628897
 31
0.0
  0
LINE
  5
64AC
330
64A8
100
AcDbEntity
  8
モデル
 62
     0
370
    -2
100
AcDbLine
 10
384.069127517036
 20
215.0989296628897
 30
0.0
 11
353.2644384757391
 21
215.0989296628897
 31
0.0
  0
LINE
  5
64AD
330
64A8
100
AcDbEntity
  8
モデル
 62
     0
370
    -2
100
AcDbLine
 10
353.2644384757391
 20
133.8989296628897
 30
0.0
 11
353.2644384757391
 21
213.0989296628897
 31
0.0
  0
INSERT
  5
64AE
330
64A8
100
AcDbEntity
  8
モデル
 62
     0
370
    -2
100
AcDbBlockReference
  2
_DOT
 10
353.2644384757391
 20
131.8989296628897
 30
0.0
 41
2.0
 42
2.0
 43
2.0
 50
270.0
  0
INSERT
  5
64AF
330
64A8
100
AcDbEntity
  8
モデル
 62
     0
370
    -2
100
AcDbBlockReference
  2
_DOT
 10
353.2644384757391
 20
215.0989296628897
 30
0.0
 41
2.0
 42
2.0
 43
2.0
 50
90.0
  0
MTEXT
  5
64B0
330
64A8
100
AcDbEntity
  8
モデル
 62
     0
100
AcDbMText
 10
349.7635006240447
 20
173.4989296628897
 30
0.0
 40
5.0
 41
0.0
 46
0.0
 71
     5
 72
     1
  1
\A1;83.5
  7
ＭＳ ゴシック
 11
0.0
 21
1.0
 31
0.0
 73
     1
 44
1.0
  0
POINT
  5
64B1
330
64A8
100
AcDbEntity
  8
Defpoints
 62
     0
100
AcDbPoint
 10
389.069127517036
 20
131.8989296628897
 30
0.0
  0
POINT
  5
64B2
330
64A8
100
AcDbEntity
  8
Defpoints
 62
     0
100
AcDbPoint
 10
389.069127517036
 20
215.0989296628897
 30
0.0
  0
POINT
  5
64B3
330
64A8
100
AcDbEntity
  8
Defpoints
 62
     0
100
AcDbPoint
 10
353.2644384757391
 20
215.0989296628897
 30
0.0
  0
ENDBLK
  5
64AA
330
64A8
100
AcDbEntity
  8
0
100
AcDbBlockEnd
  0
BLOCK
  5
64B5
330
64B4
100
AcDbEntity
  8
0
100
AcDbBlockBegin
  2
*D35
 70
     1
 10
0.0
 20
0.0
 30
0.0
  3
*D35
  1

  0
LINE
  5
64B7
330
64B4
100
AcDbEntity
  8
モデル
 62
     0
370
    -2
100
AcDbLine
 10
372.069127517036
 20
133.4204293114897
 30
0.0
 11
353.857398535871
 21
133.4204293114897
 31
0.0
  0
LINE
  5
64B8
330
64B4
100
AcDbEntity
  8
モデル
 62
     0
370
    -2
100
AcDbLine
 10
372.069127517036
 20
213.5774300142897
 30
0.0
 11
353.857398535871
 21
213.5774300142897
 31
0.0
  0
LINE
  5
64B9
330
64B4
100
AcDbEntity
  8
モデル
 62
     0
370
    -2
100
AcDbLine
 10
353.857398535871
 20
135.4204293114897
 30
0.0
 11
353.857398535871
 21
211.5774300142897
 31
0.0
  0
INSERT
  5
64BA
330
64B4
100
AcDbEntity
  8
モデル
 62
     0
370
    -2
100
AcDbBlockReference
  2
_DOT
 10
353.857398535871
 20
133.4204293114897
 30
0.0
 41
2.0
 42
2.0
 43
2.0
 50
270.0
  0
INSERT
  5
64BB
330
64B4
100
AcDbEntity
  8
モデル
 62
     0
370
    -2
100
AcDbBlockReference
  2
_DOT
 10
353.857398535871
 20
213.5774300142897
 30
0.0
 41
2.0
 42
2.0
 43
2.0
 50
90.0
  0
MTEXT
  5
64BC
330
64B4
100
AcDbEntity
  8
モデル
 62
     0
100
AcDbMText
 10
350.357398535871
 20
173.4989296628897
 30
0.0
 40
5.0
 41
0.0
 46
0.0
 71
     5
 72
     1
  1
\A1;80
  7
ＭＳ ゴシック
 11
0.0
 21
1.0
 31
0.0
 73
     1
 44
1.0
  0
POINT
  5
64BD
330
64B4
100
AcDbEntity
  8
Defpoints
 62
     0
100
AcDbPoint
 10
377.069127517036
 20
133.4204293114897
 30
0.0
  0
POINT
  5
64BE
330
64B4
100
AcDbEntity
  8
Defpoints
 62
     0
100
AcDbPoint
 10
377.069127517036
 20
213.5774300142897
 30
0.0
  0
POINT
  5
64BF
330
64B4
100
AcDbEntity
  8
Defpoints
 62
     0
100
AcDbPoint
 10
353.857398535871
 20
213.5774300142897
 30
0.0
  0
ENDBLK
  5
64B6
330
64B4
100
AcDbEntity
  8
0
100
AcDbBlockEnd
  0
BLOCK
  5
64C1
330
64C0
100
AcDbEntity
  8
0
100
AcDbBlockBegin
  2
*D36
 70
     1
 10
0.0
 20
0.0
 30
0.0
  3
*D36
  1

  0
LINE
  5
64C3
330
64C0
100
AcDbEntity
  8
モデル
 62
     0
370
    -2
100
AcDbLine
 10
388.2691275170359
 20
128.4204293114897
 30
0.0
 11
388.2691275170359
 21
113.7542835854222
 31
0.0
  0
LINE
  5
64C4
330
64C0
100
AcDbEntity
  8
モデル
 62
     0
370
    -2
100
AcDbLine
 10
377.069127517036
 20
129.4289128784046
 30
0.0
 11
377.069127517036
 21
113.7542835854222
 31
0.0
  0
LINE
  5
64C5
330
64C0
100
AcDbEntity
  8
モデル
 62
     0
370
    -2
100
AcDbLine
 10
386.2691275170359
 20
113.7542835854222
 30
0.0
 11
379.069127517036
 21
113.7542835854222
 31
0.0
  0
INSERT
  5
64C6
330
64C0
100
AcDbEntity
  8
モデル
 62
     0
370
    -2
100
AcDbBlockReference
  2
_DOT
 10
388.2691275170359
 20
113.7542835854222
 30
0.0
 41
2.0
 42
2.0
 43
2.0
  0
INSERT
  5
64C7
330
64C0
100
AcDbEntity
  8
モデル
 62
     0
370
    -2
100
AcDbBlockReference
  2
_DOT
 10
377.069127517036
 20
113.7542835854222
 30
0.0
 41
2.0
 42
2.0
 43
2.0
 50
180.0
  0
MTEXT
  5
64C8
330
64C0
100
AcDbEntity
  8
モデル
 62
     0
100
AcDbMText
 10
383.069127517036
 20
117.0051276519472
 30
0.0
 40
4.5
 41
0.0
 46
0.0
 71
     5
 72
     1
  1
\A1;11
  7
ＭＳ ゴシック
 73
     1
 44
1.0
  0
POINT
  5
64C9
330
64C0
100
AcDbEntity
  8
Defpoints
 62
     0
100
AcDbPoint
 10
388.2691275170359
 20
133.4204293114897
 30
0.0
  0
POINT
  5
64CA
330
64C0
100
AcDbEntity
  8
Defpoints
 62
     0
100
AcDbPoint
 10
377.069127517036
 20
134.4289128784046
 30
0.0
  0
POINT
  5
64CB
330
64C0
100
AcDbEntity
  8
Defpoints
 62
     0
100
AcDbPoint
 10
377.069127517036
 20
113.7542835854222
 30
0.0
  0
ENDBLK
  5
64C2
330
64C0
100
AcDbEntity
  8
0
100
AcDbBlockEnd
  0
BLOCK
  5
64CD
330
64CC
100
AcDbEntity
  8
0
100
AcDbBlockBegin
  2
*D37
 70
     1
 10
0.0
 20
0.0
 30
0.0
  3
*D37
  1

  0
LINE
  5
64CF
330
64CC
100
AcDbEntity
  8
モデル
 62
     0
370
    -2
100
AcDbLine
 10
183.0701300405325
 20
333.2125772656048
 30
0.0
 11
183.0701300405325
 21
312.8539979361815
 31
0.0
  0
LINE
  5
64D0
330
64CC
100
AcDbEntity
  8
モデル
 62
     0
370
    -2
100
AcDbLine
 10
266.2701300405325
 20
333.2125772656047
 30
0.0
 11
266.2701300405325
 21
312.8539979361815
 31
0.0
  0
LINE
  5
64D1
330
64CC
100
AcDbEntity
  8
モデル
 62
     0
370
    -2
100
AcDbLine
 10
185.0701300405325
 20
312.8539979361815
 30
0.0
 11
264.2701300405325
 21
312.8539979361815
 31
0.0
  0
INSERT
  5
64D2
330
64CC
100
AcDbEntity
  8
モデル
 62
     0
370
    -2
100
AcDbBlockReference
  2
_DOT
 10
183.0701300405325
 20
312.8539979361815
 30
0.0
 41
2.0
 42
2.0
 43
2.0
 50
180.0
  0
INSERT
  5
64D3
330
64CC
100
AcDbEntity
  8
モデル
 62
     0
370
    -2
100
AcDbBlockReference
  2
_DOT
 10
266.2701300405325
 20
312.8539979361815
 30
0.0
 41
2.0
 42
2.0
 43
2.0
  0
MTEXT
  5
64D4
330
64CC
100
AcDbEntity
  8
モデル
 62
     0
100
AcDbMText
 10
224.6701300405325
 20
316.3549357878759
 30
0.0
 40
5.0
 41
0.0
 46
0.0
 71
     5
 72
     1
  1
\A1;83.5
  7
ＭＳ ゴシック
 73
     1
 44
1.0
  0
POINT
  5
64D5
330
64CC
100
AcDbEntity
  8
Defpoints
 62
     0
100
AcDbPoint
 10
183.0701300405325
 20
338.2125772656048
 30
0.0
  0
POINT
  5
64D6
330
64CC
100
AcDbEntity
  8
Defpoints
 62
     0
100
AcDbPoint
 10
266.2701300405325
 20
338.2125772656047
 30
0.0
  0
POINT
  5
64D7
330
64CC
100
AcDbEntity
  8
Defpoints
 62
     0
100
AcDbPoint
 10
266.2701300405325
 20
312.8539979361815
 30
0.0
  0
ENDBLK
  5
64CE
330
64CC
100
AcDbEntity
  8
0
100
AcDbBlockEnd
  0
BLOCK
  5
64D9
330
64D8
100
AcDbEntity
  8
0
100
AcDbBlockBegin
  2
*D38
 70
     1
 10
0.0
 20
0.0
 30
0.0
  3
*D38
  1

  0
LINE
  5
64DB
330
64D8
100
AcDbEntity
  8
モデル
 62
     0
370
    -2
100
AcDbLine
 10
184.5916296891327
 20
356.7125772656046
 30
0.0
 11
184.5916296891327
 21
373.8405343028936
 31
0.0
  0
LINE
  5
64DC
330
64D8
100
AcDbEntity
  8
モデル
 62
     0
370
    -2
100
AcDbLine
 10
264.7486303919326
 20
356.7125772656047
 30
0.0
 11
264.7486303919326
 21
373.8405343028936
 31
0.0
  0
LINE
  5
64DD
330
64D8
100
AcDbEntity
  8
モデル
 62
     0
370
    -2
100
AcDbLine
 10
186.5916296891327
 20
373.8405343028936
 30
0.0
 11
262.7486303919326
 21
373.8405343028936
 31
0.0
  0
INSERT
  5
64DE
330
64D8
100
AcDbEntity
  8
モデル
 62
     0
370
    -2
100
AcDbBlockReference
  2
_DOT
 10
184.5916296891327
 20
373.8405343028936
 30
0.0
 41
2.0
 42
2.0
 43
2.0
 50
180.0
  0
INSERT
  5
64DF
330
64D8
100
AcDbEntity
  8
モデル
 62
     0
370
    -2
100
AcDbBlockReference
  2
_DOT
 10
264.7486303919326
 20
373.8405343028936
 30
0.0
 41
2.0
 42
2.0
 43
2.0
  0
MTEXT
  5
64E0
330
64D8
100
AcDbEntity
  8
モデル
 62
     0
100
AcDbMText
 10
224.6701300405326
 20
377.3405343028936
 30
0.0
 40
5.0
 41
0.0
 46
0.0
 71
     5
 72
     1
  1
\A1;80
  7
ＭＳ ゴシック
 73
     1
 44
1.0
  0
POINT
  5
64E1
330
64D8
100
AcDbEntity
  8
Defpoints
 62
     0
100
AcDbPoint
 10
184.5916296891327
 20
351.7125772656046
 30
0.0
  0
POINT
  5
64E2
330
64D8
100
AcDbEntity
  8
Defpoints
 62
     0
100
AcDbPoint
 10
264.7486303919326
 20
351.7125772656047
 30
0.0
  0
POINT
  5
64E3
330
64D8
100
AcDbEntity
  8
Defpoints
 62
     0
100
AcDbPoint
 10
264.7486303919326
 20
373.8405343028936
 30
0.0
  0
ENDBLK
  5
64DA
330
64D8
100
AcDbEntity
  8
0
100
AcDbBlockEnd
  0
BLOCK
  5
64E5
330
64E4
100
AcDbEntity
  8
0
100
AcDbBlockBegin
  2
*D39
 70
     1
 10
0.0
 20
0.0
 30
0.0
  3
*D39
  1

  0
LINE
  5
64E7
330
64E4
100
AcDbEntity
  8
モデル
 62
     0
370
    -2
100
AcDbLine
 10
390.569127517036
 20
128.2931888303097
 30
0.0
 11
390.569127517036
 21
105.0888542943524
 31
0.0
  0
LINE
  5
64E8
330
64E4
100
AcDbEntity
  8
モデル
 62
     0
370
    -2
100
AcDbLine
 10
377.069127517036
 20
130.3635576917953
 30
0.0
 11
377.069127517036
 21
105.0888542943524
 31
0.0
  0
LINE
  5
64E9
330
64E4
100
AcDbEntity
  8
モデル
 62
     0
370
    -2
100
AcDbLine
 10
388.569127517036
 20
105.0888542943524
 30
0.0
 11
379.069127517036
 21
105.0888542943524
 31
0.0
  0
INSERT
  5
64EA
330
64E4
100
AcDbEntity
  8
モデル
 62
     0
370
    -2
100
AcDbBlockReference
  2
_DOT
 10
390.569127517036
 20
105.0888542943524
 30
0.0
 41
2.0
 42
2.0
 43
2.0
  0
INSERT
  5
64EB
330
64E4
100
AcDbEntity
  8
モデル
 62
     0
370
    -2
100
AcDbBlockReference
  2
_DOT
 10
377.069127517036
 20
105.0888542943524
 30
0.0
 41
2.0
 42
2.0
 43
2.0
 50
180.0
  0
MTEXT
  5
64EC
330
64E4
100
AcDbEntity
  8
モデル
 62
     0
100
AcDbMText
 10
383.819127517036
 20
108.5897921460468
 30
0.0
 40
5.0
 41
0.0
 46
0.0
 71
     5
 72
     1
  1
\A1;14
  7
ＭＳ ゴシック
 73
     1
 44
1.0
  0
POINT
  5
64ED
330
64E4
100
AcDbEntity
  8
Defpoints
 62
     0
100
AcDbPoint
 10
390.569127517036
 20
133.2931888303097
 30
0.0
  0
POINT
  5
64EE
330
64E4
100
AcDbEntity
  8
Defpoints
 62
     0
100
AcDbPoint
 10
377.069127517036
 20
135.3635576917953
 30
0.0
  0
POINT
  5
64EF
330
64E4
100
AcDbEntity
  8
Defpoints
 62
     0
100
AcDbPoint
 10
377.069127517036
 20
105.0888542943524
 30
0.0
  0
ENDBLK
  5
64E6
330
64E4
100
AcDbEntity
  8
0
100
AcDbBlockEnd
  0
BLOCK
  5
64F1
330
64F0
100
AcDbEntity
  8
0
100
AcDbBlockBegin
  2
*D40
 70
     1
 10
0.0
 20
0.0
 30
0.0
  3
*D40
  1

  0
LINE
  5
64F3
330
64F0
100
AcDbEntity
  8
モデル
 62
     0
370
    -2
100
AcDbLine
 10
269.7486303919326
 20
340.5125772656049
 30
0.0
 11
285.1286039760126
 21
340.5125772656049
 31
0.0
  0
LINE
  5
64F4
330
64F0
100
AcDbEntity
  8
モデル
 62
     0
370
    -2
100
AcDbLine
 10
266.6341623828326
 20
351.7125772656047
 30
0.0
 11
285.1286039760126
 21
351.7125772656047
 31
0.0
  0
LINE
  5
64F5
330
64F0
100
AcDbEntity
  8
モデル
 62
     0
370
    -2
100
AcDbLine
 10
285.1286039760126
 20
342.5125772656049
 30
0.0
 11
285.1286039760126
 21
349.7125772656047
 31
0.0
  0
INSERT
  5
64F6
330
64F0
100
AcDbEntity
  8
モデル
 62
     0
370
    -2
100
AcDbBlockReference
  2
_DOT
 10
285.1286039760126
 20
340.5125772656049
 30
0.0
 41
2.0
 42
2.0
 43
2.0
 50
270.0
  0
INSERT
  5
64F7
330
64F0
100
AcDbEntity
  8
モデル
 62
     0
370
    -2
100
AcDbBlockReference
  2
_DOT
 10
285.1286039760126
 20
351.7125772656047
 30
0.0
 41
2.0
 42
2.0
 43
2.0
 50
90.0
  0
MTEXT
  5
64F8
330
64F0
100
AcDbEntity
  8
モデル
 62
     0
100
AcDbMText
 10
281.6276661243182
 20
346.1125772656048
 30
0.0
 40
5.0
 41
0.0
 46
0.0
 71
     5
 72
     1
  1
\A1;11
  7
ＭＳ ゴシック
 11
0.0
 21
1.0
 31
0.0
 73
     1
 44
1.0
  0
POINT
  5
64F9
330
64F0
100
AcDbEntity
  8
Defpoints
 62
     0
100
AcDbPoint
 10
264.7486303919326
 20
340.5125772656049
 30
0.0
  0
POINT
  5
64FA
330
64F0
100
AcDbEntity
  8
Defpoints
 62
     0
100
AcDbPoint
 10
261.6341623828326
 20
351.7125772656047
 30
0.0
  0
POINT
  5
64FB
330
64F0
100
AcDbEntity
  8
Defpoints
 62
     0
100
AcDbPoint
 10
285.1286039760126
 20
351.7125772656047
 30
0.0
  0
ENDBLK
  5
64F2
330
64F0
100
AcDbEntity
  8
0
100
AcDbBlockEnd
  0
BLOCK
  5
64FD
330
64FC
100
AcDbEntity
  8
0
100
AcDbBlockBegin
  2
*D41
 70
     1
 10
0.0
 20
0.0
 30
0.0
  3
*D41
  1

  0
LINE
  5
64FF
330
64FC
100
AcDbEntity
  8
モデル
 62
     0
370
    -2
100
AcDbLine
 10
269.7599084607598
 20
338.2125772656047
 30
0.0
 11
295.4329411066782
 21
338.2125772656047
 31
0.0
  0
LINE
  5
6500
330
64FC
100
AcDbEntity
  8
モデル
 62
     0
370
    -2
100
AcDbLine
 10
266.6341623828326
 20
351.7125772656047
 30
0.0
 11
295.4329411066782
 21
351.7125772656047
 31
0.0
  0
LINE
  5
6501
330
64FC
100
AcDbEntity
  8
モデル
 62
     0
370
    -2
100
AcDbLine
 10
295.4329411066782
 20
340.2125772656047
 30
0.0
 11
295.4329411066782
 21
349.7125772656047
 31
0.0
  0
INSERT
  5
6502
330
64FC
100
AcDbEntity
  8
モデル
 62
     0
370
    -2
100
AcDbBlockReference
  2
_DOT
 10
295.4329411066782
 20
338.2125772656047
 30
0.0
 41
2.0
 42
2.0
 43
2.0
 50
270.0
  0
INSERT
  5
6503
330
64FC
100
AcDbEntity
  8
モデル
 62
     0
370
    -2
100
AcDbBlockReference
  2
_DOT
 10
295.4329411066782
 20
351.7125772656047
 30
0.0
 41
2.0
 42
2.0
 43
2.0
 50
90.0
  0
MTEXT
  5
6504
330
64FC
100
AcDbEntity
  8
モデル
 62
     0
100
AcDbMText
 10
291.9320032549838
 20
344.9625772656047
 30
0.0
 40
5.0
 41
0.0
 46
0.0
 71
     5
 72
     1
  1
\A1;14
  7
ＭＳ ゴシック
 11
0.0
 21
1.0
 31
0.0
 73
     1
 44
1.0
  0
POINT
  5
6505
330
64FC
100
AcDbEntity
  8
Defpoints
 62
     0
100
AcDbPoint
 10
264.7599084607598
 20
338.2125772656047
 30
0.0
  0
POINT
  5
6506
330
64FC
100
AcDbEntity
  8
Defpoints
 62
     0
100
AcDbPoint
 10
261.6341623828326
 20
351.7125772656047
 30
0.0
  0
POINT
  5
6507
330
64FC
100
AcDbEntity
  8
Defpoints
 62
     0
100
AcDbPoint
 10
295.4329411066782
 20
351.7125772656047
 30
0.0
  0
ENDBLK
  5
64FE
330
64FC
100
AcDbEntity
  8
0
100
AcDbBlockEnd
  0
BLOCK
  5
6509
330
6508
100
AcDbEntity
  8
0
100
AcDbBlockBegin
  2
*D42
 70
     1
 10
0.0
 20
0.0
 30
0.0
  3
*D42
  1

  0
LINE
  5
650B
330
6508
100
AcDbEntity
  8
モデル
 62
     0
370
    -2
100
AcDbLine
 10
753.9602431984883
 20
194.5020662242613
 30
0.0
 11
756.0005875428515
 21
194.5020662242613
 31
0.0
  0
LINE
  5
650C
330
6508
100
AcDbEntity
  8
モデル
 62
     0
370
    -2
100
AcDbLine
 10
753.9602431984883
 20
173.4989296628897
 30
0.0
 11
756.0005875428515
 21
173.4989296628897
 31
0.0
  0
LINE
  5
650D
330
6508
100
AcDbEntity
  8
モデル
 62
     0
370
    -2
100
AcDbLine
 10
756.0005875428515
 20
192.5020662242613
 30
0.0
 11
756.0005875428515
 21
175.4989296628897
 31
0.0
  0
INSERT
  5
650E
330
6508
100
AcDbEntity
  8
モデル
 62
     0
370
    -2
100
AcDbBlockReference
  2
_DOT
 10
756.0005875428515
 20
194.5020662242613
 30
0.0
 41
2.0
 42
2.0
 43
2.0
 50
90.0
  0
INSERT
  5
650F
330
6508
100
AcDbEntity
  8
モデル
 62
     0
370
    -2
100
AcDbBlockReference
  2
_DOT
 10
756.0005875428515
 20
173.4989296628897
 30
0.0
 41
2.0
 42
2.0
 43
2.0
 50
270.0
  0
MTEXT
  5
6510
330
6508
100
AcDbEntity
  8
モデル
 62
     0
100
AcDbMText
 10
752.4996496911571
 20
184.0004979435755
 30
0.0
 40
5.0
 41
0.0
 46
0.0
 71
     5
 72
     1
  1
\A1;21
  7
ＭＳ ゴシック
 11
0.0
 21
1.0
 31
0.0
 73
     1
 44
1.0
  0
POINT
  5
6511
330
6508
100
AcDbEntity
  8
Defpoints
 62
     0
100
AcDbPoint
 10
758.9602431984883
 20
194.5020662242613
 30
0.0
  0
POINT
  5
6512
330
6508
100
AcDbEntity
  8
Defpoints
 62
     0
100
AcDbPoint
 10
758.9602431984883
 20
173.4989296628897
 30
0.0
  0
POINT
  5
6513
330
6508
100
AcDbEntity
  8
Defpoints
 62
     0
100
AcDbPoint
 10
756.0005875428515
 20
173.4989296628897
 30
0.0
  0
ENDBLK
  5
650A
330
6508
100
AcDbEntity
  8
0
100
AcDbBlockEnd
  0
BLOCK
  5
6553
330
6552
100
AcDbEntity
  8
0
100
AcDbBlockBegin
  2
*D44
 70
     1
 10
0.0
 20
0.0
 30
0.0
  3
*D44
  1

  0
LINE
  5
6555
330
6552
100
AcDbEntity
  8
モデル
 62
     0
370
    -2
100
AcDbLine
 10
183.0701300405325
 20
220.0989296628897
 30
0.0
 11
183.0701300405325
 21
237.7303397605484
 31
0.0
  0
LINE
  5
6556
330
6552
100
AcDbEntity
  8
モデル
 62
     0
370
    -2
100
AcDbLine
 10
266.2701300405325
 20
220.0989296628897
 30
0.0
 11
266.2701300405325
 21
237.7303397605484
 31
0.0
  0
LINE
  5
6557
330
6552
100
AcDbEntity
  8
モデル
 62
     0
370
    -2
100
AcDbLine
 10
185.0701300405325
 20
237.7303397605484
 30
0.0
 11
264.2701300405325
 21
237.7303397605484
 31
0.0
  0
INSERT
  5
6558
330
6552
100
AcDbEntity
  8
モデル
 62
     0
370
    -2
100
AcDbBlockReference
  2
_DOT
 10
183.0701300405325
 20
237.7303397605484
 30
0.0
 41
2.0
 42
2.0
 43
2.0
 50
180.0
  0
INSERT
  5
6559
330
6552
100
AcDbEntity
  8
モデル
 62
     0
370
    -2
100
AcDbBlockReference
  2
_DOT
 10
266.2701300405325
 20
237.7303397605484
 30
0.0
 41
2.0
 42
2.0
 43
2.0
  0
MTEXT
  5
655A
330
6552
100
AcDbEntity
  8
モデル
 62
     0
100
AcDbMText
 10
227.5891934393071
 20
241.2312776122428
 30
0.0
 40
5.0
 41
0.0
 46
0.0
 71
     5
 72
     1
  1
\A1;83.5
  7
ＭＳ ゴシック
 73
     1
 44
1.0
  0
POINT
  5
655B
330
6552
100
AcDbEntity
  8
Defpoints
 62
     0
100
AcDbPoint
 10
183.0701300405325
 20
215.0989296628897
 30
0.0
  0
POINT
  5
655C
330
6552
100
AcDbEntity
  8
Defpoints
 62
     0
100
AcDbPoint
 10
266.2701300405325
 20
215.0989296628897
 30
0.0
  0
POINT
  5
655D
330
6552
100
AcDbEntity
  8
Defpoints
 62
     0
100
AcDbPoint
 10
266.2701300405325
 20
237.7303397605484
 30
0.0
  0
ENDBLK
  5
6554
330
6552
100
AcDbEntity
  8
0
100
AcDbBlockEnd
  0
BLOCK
  5
6564
330
6563
100
AcDbEntity
  8
0
100
AcDbBlockBegin
  2
*D45
 70
     1
 10
0.0
 20
0.0
 30
0.0
  3
*D45
  1

  0
LINE
  5
6566
330
6563
100
AcDbEntity
  8
モデル
 62
     0
370
    -2
100
AcDbLine
 10
271.2701300405325
 20
215.0989296628897
 30
0.0
 11
290.9876805623754
 21
215.0989296628897
 31
0.0
  0
LINE
  5
6567
330
6563
100
AcDbEntity
  8
モデル
 62
     0
370
    -2
100
AcDbLine
 10
271.2701300405325
 20
131.8989296628897
 30
0.0
 11
290.9876805623754
 21
131.8989296628897
 31
0.0
  0
LINE
  5
6568
330
6563
100
AcDbEntity
  8
モデル
 62
     0
370
    -2
100
AcDbLine
 10
290.9876805623754
 20
213.0989296628897
 30
0.0
 11
290.9876805623754
 21
133.8989296628897
 31
0.0
  0
INSERT
  5
6569
330
6563
100
AcDbEntity
  8
モデル
 62
     0
370
    -2
100
AcDbBlockReference
  2
_DOT
 10
290.9876805623754
 20
215.0989296628897
 30
0.0
 41
2.0
 42
2.0
 43
2.0
 50
90.0
  0
INSERT
  5
656A
330
6563
100
AcDbEntity
  8
モデル
 62
     0
370
    -2
100
AcDbBlockReference
  2
_DOT
 10
290.9876805623754
 20
131.8989296628897
 30
0.0
 41
2.0
 42
2.0
 43
2.0
 50
270.0
  0
MTEXT
  5
656B
330
6563
100
AcDbEntity
  8
モデル
 62
     0
100
AcDbMText
 10
287.486742710681
 20
173.4989296628897
 30
0.0
 40
5.0
 41
0.0
 46
0.0
 71
     5
 72
     1
  1
\A1;83.5
  7
ＭＳ ゴシック
 11
0.0
 21
1.0
 31
0.0
 73
     1
 44
1.0
  0
POINT
  5
656C
330
6563
100
AcDbEntity
  8
Defpoints
 62
     0
100
AcDbPoint
 10
266.2701300405325
 20
215.0989296628897
 30
0.0
  0
POINT
  5
656D
330
6563
100
AcDbEntity
  8
Defpoints
 62
     0
100
AcDbPoint
 10
266.2701300405325
 20
131.8989296628897
 30
0.0
  0
POINT
  5
656E
330
6563
100
AcDbEntity
  8
Defpoints
 62
     0
100
AcDbPoint
 10
290.9876805623754
 20
131.8989296628897
 30
0.0
  0
ENDBLK
  5
6565
330
6563
100
AcDbEntity
  8
0
100
AcDbBlockEnd
  0
ENDSEC
  0
SECTION
  2
ENTITIES
  0
LINE
  5
52D6
330
A
100
AcDbEntity
  8
PRINT BORDER
100
AcDbLine
 10
297.0
 20
0.0
 30
0.0
 11
297.0
 21
15.30952622855898
 31
0.0
  0
LINE
  5
52D7
330
A
100
AcDbEntity
  8
テンプレート
100
AcDbLine
 10
437.9999999999999
 20
38.27810890422097
 30
0.0
 11
15.30952622855875
 21
38.27810890422097
 31
0.0
  0
LINE
  5
52D8
330
A
100
AcDbEntity
  8
テンプレート
100
AcDbLine
 10
15.30952622855875
 20
26.22153683920783
 30
0.0
 11
578.6904737714409
 21
26.22153683920783
 31
0.0
  0
LINE
  5
52DB
330
A
100
AcDbEntity
  8
テンプレート
100
AcDbLine
 10
437.9999999999999
 20
50.16496477419605
 30
0.0
 11
15.30952622855875
 21
50.16496477419605
 31
0.0
  0
LINE
  5
52DC
330
A
100
AcDbEntity
  8
テンプレート
100
AcDbLine
 10
578.6904737714409
 20
62.22153683920783
 30
0.0
 11
15.30952622855875
 21
62.22153683920783
 31
0.0
  0
LINE
  5
52DD
330
A
100
AcDbEntity
  8
PRINT BORDER
100
AcDbLine
 10
593.9999999999999
 20
210.0
 30
0.0
 11
578.6904737714409
 21
210.0
 31
0.0
  0
LINE
  5
52DE
330
A
100
AcDbEntity
  8
PRINT BORDER
100
AcDbLine
 10
0.0
 20
210.0
 30
0.0
 11
15.30952622855875
 21
210.0
 31
0.0
  0
LINE
  5
52DF
330
A
100
AcDbEntity
  8
PRINT BORDER
100
AcDbLine
 10
297.0
 20
420.0
 30
0.0
 11
297.0
 21
404.690473771441
 31
0.0
  0
LINE
  5
52E0
330
A
100
AcDbEntity
  8
テンプレート
100
AcDbLine
 10
578.6904737714409
 20
62.22153683920783
 30
0.0
 11
578.6904737714409
 21
26.22153683920783
 31
0.0
  0
LINE
  5
52E1
330
A
100
AcDbEntity
  8
テンプレート
100
AcDbLine
 10
15.30952622855875
 20
62.22153683920783
 30
0.0
 11
15.30952622855875
 21
26.22153683920783
 31
0.0
  0
TEXT
  5
52E3
330
A
100
AcDbEntity
  8
テンプレート
100
AcDbText
 10
494.9733384955219
 20
16.51938390313694
 30
0.0
 40
5.5
  1
大洋金物株式会社  
  7
ＭＳ ゴシック
100
AcDbText
  0
LINE
  5
52E4
330
A
100
AcDbEntity
  8
テンプレート
100
AcDbLine
 10
437.9999999999999
 20
62.22153683920783
 30
0.0
 11
437.9999999999999
 21
26.22153683920783
 31
0.0
  0
LINE
  5
52E5
330
A
100
AcDbEntity
  8
テンプレート
100
AcDbLine
 10
297.0
 20
62.22153683920783
 30
0.0
 11
297.0
 21
26.22153683920783
 31
0.0
  0
INSERT
  5
52E6
330
A
100
AcDbEntity
  8
テンプレート
100
AcDbBlockReference
  2
名称未設定-1
 10
548.3945198859809
 20
-7.642344203993161
 30
0.0
 41
0.180975
 42
0.180975
 43
0.180975
  0
TEXT
  5
52E7
330
A
100
AcDbEntity
  8
テンプレート
100
AcDbText
 10
18.42255191974346
 20
18.90483678917599
 30
0.0
 40
4.0
  1
202200425M
  7
ＭＳ ゴシック
100
AcDbText
  0
LINE
  5
52E8
330
A
100
AcDbEntity
  8
テンプレート
100
AcDbLine
 10
15.30952622855875
 20
210.0
 30
0.0
 11
15.30952622855875
 21
26.22153683920783
 31
0.0
  0
LINE
  5
52E9
330
A
100
AcDbEntity
  8
テンプレート
100
AcDbLine
 10
15.30952622855875
 20
210.0
 30
0.0
 11
15.30952622855875
 21
404.690473771441
 31
0.0
  0
LINE
  5
52EA
330
A
100
AcDbEntity
  8
テンプレート
100
AcDbLine
 10
297.0
 20
404.690473771441
 30
0.0
 11
15.30952622855875
 21
404.690473771441
 31
0.0
  0
LINE
  5
52EB
330
A
100
AcDbEntity
  8
テンプレート
100
AcDbLine
 10
297.0
 20
404.690473771441
 30
0.0
 11
578.6904737714409
 21
404.690473771441
 31
0.0
  0
LINE
  5
52EC
330
A
100
AcDbEntity
  8
テンプレート
100
AcDbLine
 10
578.6904737714409
 20
210.0
 30
0.0
 11
578.6904737714409
 21
404.690473771441
 31
0.0
  0
LINE
  5
52ED
330
A
100
AcDbEntity
  8
テンプレート
100
AcDbLine
 10
578.6904737714409
 20
210.0
 30
0.0
 11
578.6904737714409
 21
26.22153683920783
 31
0.0
  0
LWPOLYLINE
  5
52EE
330
A
100
AcDbEntity
  8
PRINT BORDER
  6
HIDDEN
 48
3.0
100
AcDbPolyline
 90
        4
 70
     1
 43
0.0
 10
0.0
 20
0.0
 10
0.0
 20
420.0
 10
593.9999999999999
 20
420.0
 10
593.9999999999999
 20
0.0
  0
TEXT
  5
5F97
330
A
100
AcDbEntity
  8
テンプレート
100
AcDbText
 10
17.11905019860153
 20
56.80348882321775
 30
0.0
 40
3.5
  1
品名
  7
ＭＳ ゴシック
100
AcDbText
  0
TEXT
  5
5F98
330
A
100
AcDbEntity
  8
テンプレート
100
AcDbText
 10
297.8811817213915
 20
56.87912905958589
 30
0.0
 40
3.5
  1
品番
  7
ＭＳ ゴシック
100
AcDbText
  0
TEXT
  5
5F99
330
A
100
AcDbEntity
  8
テンプレート
100
AcDbText
 10
439.1465856708076
 20
56.87912905958589
 30
0.0
 40
3.5
  1
備考
  7
ＭＳ ゴシック
100
AcDbText
  0
TEXT
  5
5F9A
330
A
100
AcDbEntity
  8
テンプレート
100
AcDbText
 10
297.8567488256826
 20
32.91795196468179
 30
0.0
 40
3.5
  1
縮尺
  7
ＭＳ ゴシック
100
AcDbText
  0
TEXT
  5
5F9B
330
A
100
AcDbEntity
  8
テンプレート
100
AcDbText
 10
312.074953745907
 20
28.58751923875886
 30
0.0
 40
5.5
  1
1/2
  7
ＭＳ ゴシック
100
AcDbText
  0
TEXT
  5
5F9C
330
A
100
AcDbEntity
  8
テンプレート
100
AcDbText
 10
312.3769506891749
 20
53.54218539362975
 30
0.0
 40
5.5
  1
FSB06-4263
  7
ＭＳ ゴシック
100
AcDbText
  0
TEXT
  5
5FAB
330
A
100
AcDbEntity
  8
テンプレート
100
AcDbText
 10
31.7727482505483
 20
53.54218539362975
 30
0.0
 40
5.5
  1
引手
  7
ＭＳ ゴシック
100
AcDbText
  0
MTEXT
  5
6084
330
A
100
AcDbEntity
  8
モデル
100
AcDbMText
 10
448.9168733503386
 20
52.43106585902275
 30
0.0
 40
4.666666666666666
 41
117.3770917223399
 46
13.41773651230322
 71
     1
 72
     5
  1
{引手は接着剤による取り付け\P（接着剤は付属されていません）}
  7
ＭＳ ゴシック
 73
     1
 44
1.0
1001
ACAD
1000
ACAD_MTEXT_DEFINED_HEIGHT_BEGIN
1070
    46
1040
13.41773651230322
1000
ACAD_MTEXT_DEFINED_HEIGHT_END
  0
TEXT
  5
6085
330
A
100
AcDbEntity
  8
テンプレート
100
AcDbText
 10
51.87880631763976
 20
41.55613863503734
 30
0.0
 40
4.5
  1
シルバー
  7
ＭＳ ゴシック
100
AcDbText
  0
TEXT
  5
6086
330
A
100
AcDbEntity
  8
テンプレート
100
AcDbText
 10
87.28880412496677
 20
41.71982579921646
 30
0.0
 40
4.5
  1
シルバー/ブラック
  7
ＭＳ ゴシック
100
AcDbText
  0
TEXT
  5
6087
330
A
100
AcDbEntity
  8
テンプレート
100
AcDbText
 10
154.1607843848311
 20
41.47209271655701
 30
0.0
 40
4.5
  1
ブラック
  7
ＭＳ ゴシック
100
AcDbText
  0
TEXT
  5
6088
330
A
100
AcDbEntity
  8
テンプレート
100
AcDbText
 10
188.5486897777212
 20
41.61381603943352
 30
0.0
 40
4.5
  1
ホワイト
  7
ＭＳ ゴシック
100
AcDbText
  0
TEXT
  5
6089
330
A
100
AcDbEntity
  8
テンプレート
100
AcDbText
 10
223.6569079769071
 20
41.72958750646197
 30
0.0
 40
4.5
  1
サテン
  7
ＭＳ ゴシック
100
AcDbText
  0
TEXT
  5
608A
330
A
100
AcDbEntity
  8
テンプレート
100
AcDbText
 10
51.90489522428607
 20
30.28111230724345
 30
0.0
 40
4.5
  1
アルミ
  7
ＭＳ ゴシック
100
AcDbText
  0
TEXT
  5
608B
330
A
100
AcDbEntity
  8
テンプレート
100
AcDbText
 10
224.5145632423399
 20
29.84045455675229
 30
0.0
 40
4.5
  1
ステンレス
  7
ＭＳ ゴシック
100
AcDbText
  0
LINE
  5
608C
330
A
100
AcDbEntity
  8
モデル
  6
Continuous
100
AcDbLine
 10
84.17162165461266
 20
50.16496477419605
 30
0.0
 11
84.17162165461264
 21
38.27810890422097
 31
0.0
  0
LINE
  5
608D
330
A
100
AcDbEntity
  8
モデル
  6
Continuous
100
AcDbLine
 10
151.8246131949936
 20
50.16496477419605
 30
0.0
 11
151.8246131949937
 21
38.57200744070789
 31
0.0
  0
LINE
  5
608E
330
A
100
AcDbEntity
  8
モデル
  6
Continuous
100
AcDbLine
 10
186.0155899534483
 20
50.16496477419605
 30
0.0
 11
186.0155899534483
 21
38.57200744070789
 31
0.0
  0
TEXT
  5
608F
330
A
100
AcDbEntity
  8
テンプレート
100
AcDbText
 10
17.11905019860153
 20
41.94669819172437
 30
0.0
 40
4.5
  1
仕上げ
  7
ＭＳ ゴシック
100
AcDbText
  0
TEXT
  5
6090
330
A
100
AcDbEntity
  8
テンプレート
100
AcDbText
 10
17.11905019860153
 20
30.52549828337
 30
0.0
 40
4.5
  1
材質
  7
ＭＳ ゴシック
100
AcDbText
  0
LINE
  5
6109
330
A
100
AcDbEntity
  8
モデル
100
AcDbLine
 10
47.01972433470515
 20
50.24982287171508
 30
0.0
 11
47.01972433470515
 21
26.30639493672686
 31
0.0
  0
LINE
  5
610A
330
A
100
AcDbEntity
  8
モデル
100
AcDbLine
 10
219.7459910908929
 20
50.16496477419605
 30
0.0
 11
219.7459910908929
 21
26.22153683920783
 31
0.0
  0
LINE
  5
610B
330
A
100
AcDbEntity
  8
モデル
100
AcDbLine
 10
256.7966764733949
 20
50.16496477419605
 30
0.0
 11
256.7966764733949
 21
38.27810890422097
 31
0.0
  0
MTEXT
  5
61CE
330
A
100
AcDbEntity
  8
モデル
100
AcDbMText
 10
294.659579931165
 20
77.95180501810827
 30
0.0
 40
4.666666666666666
 41
296.0447974826269
 46
5.187851694385394
 71
     1
 72
     5
  1
{輸入製品の為国内製品と比べ製品寸法の個体差に幅があります。加工は現物合わせの上行って下さい。}
  7
ＭＳ ゴシック
 73
     1
 44
1.0
1001
ACAD
1000
ACAD_MTEXT_DEFINED_HEIGHT_BEGIN
1070
    46
1040
5.187851694385394
1000
ACAD_MTEXT_DEFINED_HEIGHT_END
  0
LINE
  5
61CF
330
A
100
AcDbEntity
  8
モデル
100
AcDbLine
 10
286.9391859443631
 20
72.57936651375934
 30
0.0
 11
291.93398922326
 21
72.57936651375934
 31
0.0
  0
LINE
  5
61D0
330
A
100
AcDbEntity
  8
モデル
100
AcDbLine
 10
286.9391859443631
 20
72.57936651375934
 30
0.0
 11
289.4365875838108
 21
77.57416979265594
 31
0.0
  0
LINE
  5
61D1
330
A
100
AcDbEntity
  8
モデル
100
AcDbLine
 10
289.4365875838108
 20
77.57416979265594
 30
0.0
 11
291.93398922326
 21
72.57936651375934
 31
0.0
  0
MTEXT
  5
61D2
330
A
100
AcDbEntity
  8
モデル
100
AcDbMText
 10
289.0795830294461
 20
76.19922533816396
 30
0.0
 40
3.822185138629192
 41
1.35758065535774
 46
15.0
 71
     1
 72
     5
  1
{\fTimes New Roman|b1|i0|c0|p0;\H0.8x;!}
  7
ＭＳ ゴシック
 73
     1
 44
1.0
1001
ACAD
1000
ACAD_MTEXT_DEFINED_HEIGHT_BEGIN
1070
    46
1040
15.0
1000
ACAD_MTEXT_DEFINED_HEIGHT_END
  0
ARC
  5
63F5
330
A
100
AcDbEntity
  8
0
  6
Continuous
 62
     7
370
    25
100
AcDbCircle
 10
194.0701300405325
 20
142.8989296628897
 30
0.0
 40
11.00000000000003
100
AcDbArc
 50
180.0
 51
270.0
  0
ARC
  5
63F6
330
A
100
AcDbEntity
  8
0
  6
Continuous
 62
     7
370
    25
100
AcDbCircle
 10
255.2701300405325
 20
142.8989296628897
 30
0.0
 40
11.00000000000003
100
AcDbArc
 50
270.0
 51
0.0
  0
LINE
  5
63F7
330
A
100
AcDbEntity
  8
0
  6
Continuous
 62
     7
370
    25
100
AcDbLine
 10
255.2701300405325
 20
131.8989296628897
 30
0.0
 11
224.6701300405324
 21
131.8989296628897
 31
0.0
  0
LINE
  5
63F8
330
A
100
AcDbEntity
  8
0
  6
Continuous
 62
     7
370
    25
100
AcDbLine
 10
224.6701300405324
 20
131.8989296628897
 30
0.0
 11
194.0701300405325
 21
131.8989296628897
 31
0.0
  0
LINE
  5
63F9
330
A
100
AcDbEntity
  8
0
  6
Continuous
 62
     7
370
    25
100
AcDbLine
 10
183.0701300405325
 20
142.8989296628897
 30
0.0
 11
183.0701300405325
 21
204.0989296628897
 31
0.0
  0
LINE
  5
63FA
330
A
100
AcDbEntity
  8
0
  6
Continuous
 62
     7
370
    25
100
AcDbLine
 10
266.2701300405325
 20
204.0989296628897
 30
0.0
 11
266.2701300405325
 21
142.8989296628897
 31
0.0
  0
ARC
  5
63FB
330
A
100
AcDbEntity
  8
0
  6
Continuous
 62
     7
370
    25
100
AcDbCircle
 10
255.2701300405325
 20
204.0989296628897
 30
0.0
 40
11.00000000000001
100
AcDbArc
 50
0.0
 51
90.0
  0
ARC
  5
63FC
330
A
100
AcDbEntity
  8
0
  6
Continuous
 62
     7
370
    25
100
AcDbCircle
 10
194.0701300405325
 20
204.0989296628897
 30
0.0
 40
11.00000000000001
100
AcDbArc
 50
90.0
 51
180.0
  0
LINE
  5
63FD
330
A
100
AcDbEntity
  8
0
  6
Continuous
 62
     7
370
    25
100
AcDbLine
 10
194.0701300405325
 20
215.0989296628897
 30
0.0
 11
255.2701300405325
 21
215.0989296628897
 31
0.0
  0
LINE
  5
6415
330
A
100
AcDbEntity
  8
0
  6
Continuous
 62
     7
370
    25
100
AcDbLine
 10
389.069127517036
 20
214.3111724712898
 30
0.0
 11
388.2691275170359
 21
214.3111724712898
 31
0.0
  0
LINE
  5
6416
330
A
100
AcDbEntity
  8
0
  6
Continuous
 62
     7
370
    25
100
AcDbLine
 10
388.2691275170359
 20
214.3111724712898
 30
0.0
 11
388.2691275170359
 21
204.0989296628897
 31
0.0
  0
LINE
  5
6417
330
A
100
AcDbEntity
  8
0
  6
Continuous
 62
     7
370
    25
100
AcDbLine
 10
388.2691275170359
 20
204.0989296628897
 30
0.0
 11
388.2691275170359
 21
142.8989296628897
 31
0.0
  0
LINE
  5
6418
330
A
100
AcDbEntity
  8
0
  6
Continuous
 62
     7
370
    25
100
AcDbLine
 10
389.069127517036
 20
132.6866868545897
 30
0.0
 11
388.2691275170359
 21
132.6866868545897
 31
0.0
  0
LINE
  5
6419
330
A
100
AcDbEntity
  8
0
  6
Continuous
 62
     7
370
    25
100
AcDbLine
 10
388.2691275170359
 20
142.8989296628897
 30
0.0
 11
388.2691275170359
 21
132.6866868545897
 31
0.0
  0
ARC
  5
641A
330
A
100
AcDbEntity
  8
0
  6
Continuous
 62
     7
370
    25
100
AcDbCircle
 10
387.7691275170359
 20
213.5774300142897
 30
0.0
 40
0.5
100
AcDbArc
 50
273.9999999999965
 51
0.0
  0
ARC
  5
641B
330
A
100
AcDbEntity
  8
0
  6
Continuous
 62
     7
370
    25
100
AcDbCircle
 10
387.7691275170359
 20
133.4204293114897
 30
0.0
 40
0.5
100
AcDbArc
 50
0.0
 51
86.0000000000035
  0
LINE
  5
641C
330
A
100
AcDbEntity
  8
0
  6
Continuous
 62
     7
370
    25
100
AcDbLine
 10
387.8040057539359
 20
213.0786479891897
 30
0.0
 11
378.9296145695359
 21
212.4580901056897
 31
0.0
  0
LINE
  5
641D
330
A
100
AcDbEntity
  8
0
  6
Continuous
 62
     7
370
    25
100
AcDbLine
 10
387.8040057539359
 20
133.9192113366897
 30
0.0
 11
378.9296145695359
 21
134.5397692200897
 31
0.0
  0
LINE
  5
641E
330
A
100
AcDbEntity
  8
0
  6
Continuous
 62
     7
370
    25
100
AcDbLine
 10
377.069127517036
 20
142.8989296628897
 30
0.0
 11
377.069127517036
 21
204.0989296628897
 31
0.0
  0
LINE
  5
641F
330
A
100
AcDbEntity
  8
0
  6
Continuous
 62
     7
370
    25
100
AcDbLine
 10
377.069127517036
 20
204.0989296628897
 30
0.0
 11
377.069127517036
 21
210.4629620051898
 31
0.0
  0
ARC
  5
6420
330
A
100
AcDbEntity
  8
0
  6
Continuous
 62
     7
370
    25
100
AcDbCircle
 10
379.069127517036
 20
210.4629620051898
 30
0.0
 40
2.000000000000032
100
AcDbArc
 50
94.00000000000297
 51
180.0
  0
ARC
  5
6421
330
A
100
AcDbEntity
  8
0
  6
Continuous
 62
     7
370
    25
100
AcDbCircle
 10
379.069127517036
 20
136.5348973206897
 30
0.0
 40
2.000000000000004
100
AcDbArc
 50
180.0
 51
265.999999999997
  0
LINE
  5
6422
330
A
100
AcDbEntity
  8
0
  6
Continuous
 62
     7
370
    25
100
AcDbLine
 10
377.069127517036
 20
136.5348973206897
 30
0.0
 11
377.069127517036
 21
142.8989296628897
 31
0.0
  0
LINE
  5
6423
330
A
100
AcDbEntity
  8
0
  6
Continuous
 62
     7
370
    25
100
AcDbLine
 10
390.569127517036
 20
131.8989296628897
 30
0.0
 11
390.569127517036
 21
142.8989296628897
 31
0.0
  0
LINE
  5
6424
330
A
100
AcDbEntity
  8
0
  6
Continuous
 62
     7
370
    25
100
AcDbLine
 10
390.569127517036
 20
131.8989296628897
 30
0.0
 11
389.069127517036
 21
131.8989296628897
 31
0.0
  0
LINE
  5
6425
102
{ACAD_REACTORS
330
644A
102
}
330
A
100
AcDbEntity
  8
0
  6
Continuous
 62
     7
370
    25
100
AcDbLine
 10
389.069127517036
 20
131.8989296628897
 30
0.0
 11
389.069127517036
 21
142.8989296628897
 31
0.0
  0
LINE
  5
6426
330
A
100
AcDbEntity
  8
0
  6
Continuous
 62
     7
370
    25
100
AcDbLine
 10
390.569127517036
 20
215.0989296628897
 30
0.0
 11
389.069127517036
 21
215.0989296628897
 31
0.0
  0
LINE
  5
6427
330
A
100
AcDbEntity
  8
0
  6
Continuous
 62
     7
370
    25
100
AcDbLine
 10
390.569127517036
 20
204.0989296628897
 30
0.0
 11
390.569127517036
 21
215.0989296628897
 31
0.0
  0
LINE
  5
6428
102
{ACAD_REACTORS
330
644A
102
}
330
A
100
AcDbEntity
  8
0
  6
Continuous
 62
     7
370
    25
100
AcDbLine
 10
389.069127517036
 20
204.0989296628897
 30
0.0
 11
389.069127517036
 21
215.0989296628897
 31
0.0
  0
LINE
  5
6429
330
A
100
AcDbEntity
  8
0
  6
Continuous
 62
     7
370
    25
100
AcDbLine
 10
390.569127517036
 20
142.8989296628897
 30
0.0
 11
390.569127517036
 21
204.0989296628897
 31
0.0
  0
LINE
  5
642A
330
A
100
AcDbEntity
  8
0
  6
Continuous
 62
     7
370
    25
100
AcDbLine
 10
389.069127517036
 20
142.8989296628897
 30
0.0
 11
389.069127517036
 21
204.0989296628897
 31
0.0
  0
LINE
  5
642B
330
A
100
AcDbEntity
  8
0
  6
Continuous
 62
     7
370
    25
100
AcDbLine
 10
265.4823728489326
 20
339.7125772656047
 30
0.0
 11
265.4823728489326
 21
340.5125772656049
 31
0.0
  0
LINE
  5
642C
330
A
100
AcDbEntity
  8
0
  6
Continuous
 62
     7
370
    25
100
AcDbLine
 10
265.4823728489326
 20
340.5125772656049
 30
0.0
 11
255.2701300405325
 21
340.5125772656049
 31
0.0
  0
LINE
  5
642D
330
A
100
AcDbEntity
  8
0
  6
Continuous
 62
     7
370
    25
100
AcDbLine
 10
255.2701300405325
 20
340.5125772656049
 30
0.0
 11
194.0701300405328
 21
340.512577265605
 31
0.0
  0
LINE
  5
642E
330
A
100
AcDbEntity
  8
0
  6
Continuous
 62
     7
370
    25
100
AcDbLine
 10
183.8578872322327
 20
339.7125772656048
 30
0.0
 11
183.8578872322327
 21
340.512577265605
 31
0.0
  0
LINE
  5
642F
330
A
100
AcDbEntity
  8
0
  6
Continuous
 62
     7
370
    25
100
AcDbLine
 10
194.0701300405328
 20
340.512577265605
 30
0.0
 11
183.8578872322327
 21
340.512577265605
 31
0.0
  0
ARC
  5
6430
102
{ACAD_REACTORS
330
6460
102
}
330
A
100
AcDbEntity
  8
0
  6
Continuous
 62
     7
370
    25
100
AcDbCircle
 10
264.7486303919326
 20
341.0125772656049
 30
0.0
 40
0.5
100
AcDbArc
 50
183.9999999999965
 51
270.0
  0
ARC
  5
6431
330
A
100
AcDbEntity
  8
0
  6
Continuous
 62
     7
370
    25
100
AcDbCircle
 10
184.5916296891327
 20
341.012577265605
 30
0.0
 40
0.5
100
AcDbArc
 50
270.0
 51
356.0000000000035
  0
LINE
  5
6432
330
A
100
AcDbEntity
  8
0
  6
Continuous
 62
     7
370
    25
100
AcDbLine
 10
264.2498483668327
 20
340.9776990287049
 30
0.0
 11
263.6292904833327
 21
349.8520902131049
 31
0.0
  0
LINE
  5
6433
330
A
100
AcDbEntity
  8
0
  6
Continuous
 62
     7
370
    25
100
AcDbLine
 10
185.0904117143327
 20
340.977699028705
 30
0.0
 11
185.7109695977327
 21
349.852090213105
 31
0.0
  0
LINE
  5
6434
330
A
100
AcDbEntity
  8
0
  6
Continuous
 62
     7
370
    25
100
AcDbLine
 10
194.0701300405328
 20
351.7125772656048
 30
0.0
 11
255.2701300405325
 21
351.7125772656047
 31
0.0
  0
LINE
  5
6435
102
{ACAD_REACTORS
330
6460
330
6463
102
}
330
A
100
AcDbEntity
  8
0
  6
Continuous
 62
     7
370
    25
100
AcDbLine
 10
255.2701300405325
 20
351.7125772656047
 30
0.0
 11
261.6341623828326
 21
351.7125772656047
 31
0.0
  0
ARC
  5
6436
330
A
100
AcDbEntity
  8
0
  6
Continuous
 62
     7
370
    25
100
AcDbCircle
 10
261.6341623828326
 20
349.7125772656047
 30
0.0
 40
2.000000000000032
100
AcDbArc
 50
4.00000000000301
 51
90.0
  0
ARC
  5
6437
330
A
100
AcDbEntity
  8
0
  6
Continuous
 62
     7
370
    25
100
AcDbCircle
 10
187.7060976983327
 20
349.7125772656048
 30
0.0
 40
2.000000000000004
100
AcDbArc
 50
90.0
 51
175.999999999997
  0
LINE
  5
6438
330
A
100
AcDbEntity
  8
0
  6
Continuous
 62
     7
370
    25
100
AcDbLine
 10
187.7060976983327
 20
351.7125772656048
 30
0.0
 11
194.0701300405328
 21
351.7125772656048
 31
0.0
  0
LINE
  5
6439
330
A
100
AcDbEntity
  8
0
  6
Continuous
 62
     7
370
    25
100
AcDbLine
 10
183.0701300405325
 20
338.2125772656048
 30
0.0
 11
194.0701300405328
 21
338.2125772656048
 31
0.0
  0
LINE
  5
643A
102
{ACAD_REACTORS
330
644F
102
}
330
A
100
AcDbEntity
  8
0
  6
Continuous
 62
     7
370
    25
100
AcDbLine
 10
183.0701300405325
 20
338.2125772656048
 30
0.0
 11
183.0701300405325
 21
339.7125772656048
 31
0.0
  0
LINE
  5
643B
330
A
100
AcDbEntity
  8
0
  6
Continuous
 62
     7
370
    25
100
AcDbLine
 10
183.0701300405325
 20
339.7125772656048
 30
0.0
 11
194.0701300405328
 21
339.7125772656048
 31
0.0
  0
LINE
  5
643C
330
A
100
AcDbEntity
  8
0
  6
Continuous
 62
     7
370
    25
100
AcDbLine
 10
266.2701300405325
 20
338.2125772656047
 30
0.0
 11
266.2701300405325
 21
339.7125772656047
 31
0.0
  0
LINE
  5
643D
102
{ACAD_REACTORS
330
644F
102
}
330
A
100
AcDbEntity
  8
0
  6
Continuous
 62
     7
370
    25
100
AcDbLine
 10
255.2701300405325
 20
338.2125772656047
 30
0.0
 11
266.2701300405325
 21
338.2125772656047
 31
0.0
  0
LINE
  5
643E
330
A
100
AcDbEntity
  8
0
  6
Continuous
 62
     7
370
    25
100
AcDbLine
 10
255.2701300405325
 20
339.7125772656047
 30
0.0
 11
266.2701300405325
 21
339.7125772656047
 31
0.0
  0
LINE
  5
643F
330
A
100
AcDbEntity
  8
0
  6
Continuous
 62
     7
370
    25
100
AcDbLine
 10
194.0701300405328
 20
338.2125772656048
 30
0.0
 11
255.2701300405325
 21
338.2125772656047
 31
0.0
  0
LINE
  5
6440
330
A
100
AcDbEntity
  8
0
  6
Continuous
 62
     7
370
    25
100
AcDbLine
 10
194.0701300405328
 20
339.7125772656048
 30
0.0
 11
255.2701300405325
 21
339.7125772656047
 31
0.0
  0
DIMENSION
  5
644B
330
A
100
AcDbEntity
  8
モデル
100
AcDbDimension
  2
*D35
 10
353.857398535871
 20
213.5774300142897
 30
0.0
 11
353.857398535871
 21
173.4989296628897
 31
0.0
 70
   160
 71
     5
 42
80.15700070280002
 73
     0
 74
     0
 75
     0
  3
tfrom線あり
100
AcDbAlignedDimension
 13
377.069127517036
 23
133.4204293114897
 33
0.0
 14
377.069127517036
 24
213.5774300142897
 34
0.0
 50
90.0
100
AcDbRotatedDimension
1001
ACAD
1000
DSTYLE
1002
{
1070
    41
1040
2.0
1002
}
  0
DIMENSION
  5
644C
330
A
100
AcDbEntity
  8
モデル
100
AcDbDimension
  2
*D36
 10
377.069127517036
 20
113.7542835854222
 30
0.0
 11
383.069127517036
 21
113.7542835854222
 31
0.0
 70
   160
  1
11
 71
     5
 42
11.19999999999993
 73
     0
 74
     0
 75
     0
  3
tfrom線あり
100
AcDbAlignedDimension
 13
388.2691275170359
 23
133.4204293114897
 33
0.0
 14
377.069127517036
 24
134.4289128784046
 34
0.0
100
AcDbRotatedDimension
1001
ACAD
1000
DSTYLE
1002
{
1070
    41
1040
2.0
1070
   172
1070
     1
1070
   140
1040
4.5
1002
}
  0
DIMENSION
  5
644D
102
{ACAD_REACTORS
330
644F
102
}
102
{ACAD_XDICTIONARY
360
644E
102
}
330
A
100
AcDbEntity
  8
モデル
100
AcDbDimension
  2
*D37
 10
266.2701300405325
 20
312.8539979361815
 30
0.0
 11
224.6701300405325
 21
316.3549357878759
 31
0.0
 70
    32
  1
83.5
 71
     5
 42
83.20000000000005
 73
     0
 74
     0
 75
     0
  3
tfrom線あり
100
AcDbAlignedDimension
 13
183.0701300405325
 23
338.2125772656048
 33
0.0
 14
266.2701300405325
 24
338.2125772656047
 34
0.0
100
AcDbRotatedDimension
1001
ACAD
1000
DSTYLE
1002
{
1070
    41
1040
2.0
1002
}
  0
DIMENSION
  5
6450
330
A
100
AcDbEntity
  8
モデル
100
AcDbDimension
  2
*D38
 10
264.7486303919326
 20
373.8405343028936
 30
0.0
 11
224.6701300405326
 21
377.3405343028936
 31
0.0
 70
    32
 71
     5
 42
80.1570007027999
 73
     0
 74
     0
 75
     0
  3
tfrom線あり
100
AcDbAlignedDimension
 13
184.5916296891327
 23
351.7125772656046
 33
0.0
 14
264.7486303919326
 24
351.7125772656047
 34
0.0
100
AcDbRotatedDimension
1001
ACAD
1000
DSTYLE
1002
{
1070
    41
1040
2.0
1002
}
  0
MTEXT
  5
645C
330
A
100
AcDbEntity
  8
モデル
100
AcDbMText
 10
242.7942074175223
 20
122.0648356761681
 30
0.0
 40
4.666666666666666
 41
296.0447974826267
 46
13.30479485362566
 71
     1
 72
     5
  1
{切欠寸法:w80×h80×d12\P四角(R=10)}
  7
ＭＳ ゴシック
 73
     1
 44
1.0
1001
ACAD
1000
ACAD_MTEXT_DEFINED_HEIGHT_BEGIN
1070
    46
1040
13.30479485362566
1000
ACAD_MTEXT_DEFINED_HEIGHT_END
  0
DIMENSION
  5
645D
330
A
100
AcDbEntity
  8
モデル
100
AcDbDimension
  2
*D39
 10
377.069127517036
 20
105.0888542943524
 30
0.0
 11
383.819127517036
 21
108.5897921460468
 31
0.0
 70
    32
 71
     5
 42
13.5
 73
     0
 74
     0
 75
     0
  3
tfrom線あり
100
AcDbAlignedDimension
 13
390.569127517036
 23
133.2931888303097
 33
0.0
 14
377.069127517036
 24
135.3635576917953
 34
0.0
100
AcDbRotatedDimension
1001
ACAD
1000
DSTYLE
1002
{
1070
    41
1040
2.0
1002
}
  0
DIMENSION
  5
645E
102
{ACAD_REACTORS
330
6460
102
}
102
{ACAD_XDICTIONARY
360
645F
102
}
330
A
100
AcDbEntity
  8
モデル
100
AcDbDimension
  2
*D40
 10
285.1286039760126
 20
351.7125772656047
 30
0.0
 11
281.6276661243182
 21
346.1125772656048
 31
0.0
 70
    32
 71
     5
 42
11.19999999999982
 73
     0
 74
     0
 75
     0
  3
tfrom線あり
100
AcDbAlignedDimension
 13
264.7486303919326
 23
340.5125772656049
 33
0.0
 14
261.6341623828326
 24
351.7125772656047
 34
0.0
 50
90.0
100
AcDbRotatedDimension
1001
ACAD
1000
DSTYLE
1002
{
1070
    41
1040
2.0
1002
}
  0
DIMENSION
  5
6461
102
{ACAD_REACTORS
330
6463
102
}
102
{ACAD_XDICTIONARY
360
6462
102
}
330
A
100
AcDbEntity
  8
モデル
100
AcDbDimension
  2
*D41
 10
295.4329411066782
 20
351.7125772656047
 30
0.0
 11
291.9320032549838
 21
344.9625772656047
 31
0.0
 70
    32
 71
     5
 42
13.5
 73
     0
 74
     0
 75
     0
  3
tfrom線あり
100
AcDbAlignedDimension
 13
264.7599084607598
 23
338.2125772656047
 33
0.0
 14
261.6341623828326
 24
351.7125772656047
 34
0.0
 50
90.0
100
AcDbRotatedDimension
1001
ACAD
1000
DSTYLE
1002
{
1070
    41
1040
2.0
1002
}
  0
LINE
  5
6543
102
{ACAD_REACTORS
330
654B
102
}
330
A
100
AcDbEntity
  8
0
  6
Continuous
 62
     7
370
    25
100
AcDbLine
 10
230.6701300405325
 20
208.8989296628898
 30
0.0
 11
218.6701300405325
 21
208.8989296628898
 31
0.0
  0
ARC
  5
6544
102
{ACAD_REACTORS
330
654B
102
}
330
A
100
AcDbEntity
  8
0
  6
Continuous
 62
     7
370
    25
100
AcDbCircle
 10
230.6701300405326
 20
203.8989296628898
 30
0.0
 40
5.0
100
AcDbArc
 50
359.9999999998997
 51
90.00000000000132
  0
LINE
  5
6545
102
{ACAD_REACTORS
330
654B
102
}
330
A
100
AcDbEntity
  8
0
  6
Continuous
 62
     7
370
    25
100
AcDbLine
 10
235.6701300405325
 20
143.0989296628897
 30
0.0
 11
235.6701300405326
 21
203.8989296628898
 31
0.0
  0
ARC
  5
6546
102
{ACAD_REACTORS
330
654B
102
}
330
A
100
AcDbEntity
  8
0
  6
Continuous
 62
     7
370
    25
100
AcDbCircle
 10
230.6701300405325
 20
143.0989296628897
 30
0.0
 40
5.0
100
AcDbArc
 50
270.0
 51
0.0000000001003122
  0
LINE
  5
6547
102
{ACAD_REACTORS
330
654B
102
}
330
A
100
AcDbEntity
  8
0
  6
Continuous
 62
     7
370
    25
100
AcDbLine
 10
218.6701300405325
 20
138.0989296628896
 30
0.0
 11
230.6701300405325
 21
138.0989296628897
 31
0.0
  0
ARC
  5
6548
102
{ACAD_REACTORS
330
654B
102
}
330
A
100
AcDbEntity
  8
0
  6
Continuous
 62
     7
370
    25
100
AcDbCircle
 10
218.6701300405325
 20
143.0989296628896
 30
0.0
 40
5.0
100
AcDbArc
 50
179.9999999998997
 51
270.0
  0
LINE
  5
6549
102
{ACAD_REACTORS
330
654B
102
}
330
A
100
AcDbEntity
  8
0
  6
Continuous
 62
     7
370
    25
100
AcDbLine
 10
213.6701300405326
 20
203.8989296628897
 30
0.0
 11
213.6701300405325
 21
143.0989296628896
 31
0.0
  0
ARC
  5
654A
102
{ACAD_REACTORS
330
654B
102
}
330
A
100
AcDbEntity
  8
0
  6
Continuous
 62
     7
370
    25
100
AcDbCircle
 10
218.6701300405326
 20
203.8989296628897
 30
0.0
 40
5.0
100
AcDbArc
 50
90.00000000000132
 51
180.0000000001003
  0
DIMENSION
  5
654F
102
{ACAD_XDICTIONARY
360
6550
102
}
330
A
100
AcDbEntity
  8
モデル
100
AcDbDimension
  2
*D44
 10
266.2701300405325
 20
237.7303397605484
 30
0.0
 11
227.5891934393071
 21
237.7303397605484
 31
0.0
 70
   160
  1
83.5
 71
     5
 42
83.20000000000005
 73
     0
 74
     0
 75
     0
  3
tfrom線あり
100
AcDbAlignedDimension
 13
183.0701300405325
 23
215.0989296628897
 33
0.0
 14
266.2701300405325
 24
215.0989296628897
 34
0.0
100
AcDbRotatedDimension
1001
ACAD
1000
DSTYLE
1002
{
1070
    41
1040
2.0
1002
}
  0
DIMENSION
  5
6560
102
{ACAD_XDICTIONARY
360
6561
102
}
330
A
100
AcDbEntity
  8
モデル
100
AcDbDimension
  2
*D45
 10
290.9876805623754
 20
131.8989296628897
 30
0.0
 11
287.486742710681
 21
173.4989296628897
 31
0.0
 70
    32
  1
83.5
 71
     5
 42
83.19999999999996
 73
     0
 74
     0
 75
     0
  3
tfrom線あり
100
AcDbAlignedDimension
 13
266.2701300405325
 23
215.0989296628897
 33
0.0
 14
266.2701300405325
 24
131.8989296628897
 34
0.0
 50
90.0
100
AcDbRotatedDimension
1001
ACAD
1000
DSTYLE
1002
{
1070
    41
1040
2.0
1002
}
  0
VIEWPORT
  5
349
330
B
100
AcDbEntity
 67
     1
  8
0
100
AcDbViewport
 10
202.5
 20
128.5
 30
0.0
 40
486.0
 41
308.4
 68
     1
 69
     1
 12
202.5
 22
128.5
 13
0.0
 23
0.0
 14
0.5
 24
0.5
 15
0.0
 25
0.0
 16
0.0
 26
0.0
 36
1.0
 17
0.0
 27
0.0
 37
0.0
 42
50.0
 43
0.0
 44
0.0
 45
308.4
 50
0.0
 51
0.0
 72
   100
 90
   557152
  1

281
     0
 71
     1
 74
     0
110
0.0
120
0.0
130
0.0
111
1.0
121
0.0
131
0.0
112
0.0
122
1.0
132
0.0
 79
     0
146
0.0
170
     0
 61
     5
348
26C
292
     1
282
     1
141
0.0
142
0.0
 63
   256
  0
VIEWPORT
  5
34A
330
B
100
AcDbEntity
 67
     1
  8
0
100
AcDbViewport
 10
202.5
 20
128.5
 30
0.0
 40
324.0
 41
205.6
 68
     2
 69
     2
 12
986.6781359294573
 22
1427.077061889956
 13
0.0
 23
0.0
 14
0.5
 24
0.5
 15
0.0
 25
0.0
 16
0.0
 26
0.0
 36
1.0
 17
0.0
 27
0.0
 37
0.0
 42
50.0
 43
0.0
 44
0.0
 45
2890.021615685494
 50
0.0
 51
0.0
 72
   100
 90
   557152
  1

281
     0
 71
     1
 74
     0
110
0.0
120
0.0
130
0.0
111
1.0
121
0.0
131
0.0
112
0.0
122
1.0
132
0.0
 79
     0
146
0.0
170
     0
 61
     5
348
26C
292
     1
282
     1
141
0.0
142
0.0
 63
   256
  0
ENDSEC
  0
SECTION
  2
OBJECTS
  0
DICTIONARY
  5
19
330
0
100
AcDbDictionary
281
     1
  3
ACAD_COLOR
350
674
  3
ACAD_DETAILVIEWSTYLE
350
12F4
  3
ACAD_GROUP
350
1A
  3
ACAD_IMAGE_VARS
350
27B
  3
ACAD_LAYOUT
350
1E
  3
ACAD_MATERIAL
350
263
  3
ACAD_MLEADERSTYLE
350
336
  3
ACAD_MLINESTYLE
350
1B
  3
ACAD_PLOTSETTINGS
350
22
  3
ACAD_PLOTSTYLENAME
350
1F
  3
ACAD_SCALELIST
350
241
  3
ACAD_SECTIONVIEWSTYLE
350
12F5
  3
ACAD_TABLESTYLE
350
278
  3
ACAD_VISUALSTYLE
350
267
  3
AcadDim
350
453F
  3
ACDB_RECOMPOSE_DATA
350
657A
  3
AcDbVariableDictionary
350
330
  3
AcStStandard
350
12B9
  3
APPDATA
350
27A
  0
SUN
  5
10E8
330
15
100
AcDbSun
 90
        1
290
     0
 63
     7
421
 16777215
 40
1.0
291
     1
 91
  2455826
 92
 54000000
292
     0
 70
     2
 71
   256
280
     1
  0
DICTIONARY
  5
2E1
330
2
100
AcDbDictionary
280
     1
281
     1
  3
ACAD_LAYERSTATES
360
2E2
  3
ACLYDICTIONARY
360
5A30
  0
DICTIONARY
  5
495A
330
A
100
AcDbDictionary
280
     1
281
     1
  3
ACAD_SORTENTS
360
495B
  0
DICTIONARY
  5
644E
330
644D
100
AcDbDictionary
280
     1
281
     1
  3
ACAD_DIMASSOC
360
644F
  0
DICTIONARY
  5
645F
330
645E
100
AcDbDictionary
280
     1
281
     1
  3
ACAD_DIMASSOC
360
6460
  0
DICTIONARY
  5
6462
330
6461
100
AcDbDictionary
280
     1
281
     1
  3
ACAD_DIMASSOC
360
6463
  0
DICTIONARY
  5
6550
330
654F
100
AcDbDictionary
280
     1
281
     1
  0
DICTIONARY
  5
6561
330
6560
100
AcDbDictionary
280
     1
281
     1
  0
DICTIONARY
  5
674
102
{ACAD_REACTORS
330
19
102
}
330
19
100
AcDbDictionary
281
     1
  0
DICTIONARY
  5
12F4
102
{ACAD_REACTORS
330
19
102
}
330
19
100
AcDbDictionary
281
     1
  0
DICTIONARY
  5
1A
102
{ACAD_REACTORS
330
19
102
}
330
19
100
AcDbDictionary
281
     1
  3
*A1
350
654B
  0
RASTERVARIABLES
  5
27B
102
{ACAD_REACTORS
330
19
102
}
330
19
100
AcDbRasterVariables
 90
        0
 70
     1
 71
     1
 72
     1
  0
DICTIONARY
  5
1E
102
{ACAD_REACTORS
330
19
102
}
330
19
100
AcDbDictionary
281
     1
  3
Layout1
350
21
  3
Layout2
350
12C4
  3
Model
350
20
  0
DICTIONARY
  5
263
102
{ACAD_REACTORS
330
19
102
}
330
19
100
AcDbDictionary
281
     1
  3
ByBlock
350
385B
  3
ByLayer
350
264
  3
Global
350
266
  0
DICTIONARY
  5
336
102
{ACAD_REACTORS
330
19
102
}
330
19
100
AcDbDictionary
281
     1
  3
Standard
350
4B3A
  0
DICTIONARY
  5
1B
102
{ACAD_REACTORS
330
19
102
}
330
19
100
AcDbDictionary
281
     1
  3
Standard
350
1C
  0
DICTIONARY
  5
22
102
{ACAD_REACTORS
330
19
102
}
330
19
100
AcDbDictionary
281
     1
  0
ACDBDICTIONARYWDFLT
  5
1F
102
{ACAD_REACTORS
330
19
102
}
330
19
100
AcDbDictionary
281
     1
  3
Normal
350
1D
100
AcDbDictionaryWithDefault
340
1D
  0
DICTIONARY
  5
241
102
{ACAD_REACTORS
330
19
102
}
330
19
100
AcDbDictionary
281
     1
  3
A0
350
242
  3
A1
350
243
  3
A2
350
244
  3
A3
350
245
  3
A4
350
246
  3
A5
350
247
  3
A6
350
248
  3
A7
350
249
  3
A8
350
24A
  3
A9
350
24B
  3
B0
350
24C
  3
B1
350
24D
  3
B2
350
24E
  3
B3
350
24F
  3
B4
350
250
  3
B5
350
251
  3
B6
350
252
  3
B7
350
253
  3
B8
350
254
  3
B9
350
255
  3
C0
350
256
  3
C1
350
257
  3
C2
350
258
  3
C3
350
259
  3
C4
350
25A
  3
C5
350
25B
  3
C6
350
25C
  3
C7
350
25D
  3
C8
350
25E
  3
C9
350
25F
  3
D0
350
260
  3
D1
350
261
  3
D2
350
262
  0
DICTIONARY
  5
12F5
102
{ACAD_REACTORS
330
19
102
}
330
19
100
AcDbDictionary
281
     1
  0
DICTIONARY
  5
278
102
{ACAD_REACTORS
330
19
102
}
330
19
100
AcDbDictionary
281
     1
  3
Standard
350
279
  0
DICTIONARY
  5
267
102
{ACAD_REACTORS
330
19
102
}
330
19
100
AcDbDictionary
281
     1
  3
2dWireframe
350
26C
  3
3D Hidden
350
26E
  3
3dWireframe
350
26D
  3
Basic
350
26F
  3
Brighten
350
273
  3
ColorChange
350
277
  3
Conceptual
350
271
  3
Dim
350
272
  3
EdgeColorOff
350
10E2
  3
Facepattern
350
276
  3
Flat
350
268
  3
FlatWithEdges
350
269
  3
Gouraud
350
26A
  3
GouraudWithEdges
350
26B
  3
Hidden
350
10DF
  3
JitterOff
350
10E0
  3
Linepattern
350
275
  3
OverhangOff
350
10E1
  3
Realistic
350
270
  3
Shaded
350
10E7
  3
Shaded with edges
350
10E6
  3
Shades of Gray
350
10E3
  3
Sketchy
350
10E4
  3
Thicken
350
274
  3
Wireframe
350
10DE
  3
X-Ray
350
10E5
  0
XRECORD
  5
453F
102
{ACAD_REACTORS
330
19
102
}
330
19
100
AcDbXrecord
280
     1
340
0
 72
     0
 71
     0
 70
     0
 69
     0
 68
     1
 67
     3
 66
     0
 65
     0
 64
     0
 63
     3
 62
     1
 61
     0
 60
     0
 40
0.0
  0
XRECORD
  5
657A
102
{ACAD_REACTORS
330
19
102
}
330
19
100
AcDbXrecord
280
     1
 90
        1
330
279
  0
DICTIONARY
  5
330
102
{ACAD_REACTORS
330
19
102
}
330
19
100
AcDbDictionary
281
     1
  3
CANNOSCALE
350
331
  3
CMLEADERSTYLE
350
4B3B
  3
CTABLESTYLE
350
335
  3
HPTRANSPARENCY
350
4569
  3
XCLIPFRAME
350
109E
  0
DICTIONARY
  5
12B9
102
{ACAD_REACTORS
330
19
102
}
330
19
100
AcDbDictionary
281
     1
  0
DICTIONARY
  5
27A
102
{ACAD_REACTORS
330
19
102
}
330
19
100
AcDbDictionary
281
     1
  0
DICTIONARY
  5
2E2
102
{ACAD_REACTORS
330
2E1
102
}
330
2E1
100
AcDbDictionary
281
     1
  0
DICTIONARY
  5
5A30
102
{ACAD_REACTORS
330
2E1
102
}
330
2E1
100
AcDbDictionary
281
     1
1001
ACAD
1000
<All
  0
SORTENTSTABLE
  5
495B
102
{ACAD_REACTORS
330
495A
102
}
330
495A
100
AcDbSortentsTable
330
A
331
52D6
  5
52D8
331
52D7
  5
52D9
331
52D8
  5
52DA
331
52DB
  5
52DD
331
52DC
  5
52DE
331
52DD
  5
52DF
331
52DE
  5
52E0
331
52DF
  5
52E1
331
52E0
  5
52E2
331
52E1
  5
52E3
331
52E3
  5
52E5
331
52E4
  5
52E6
331
52E5
  5
52E7
331
52E6
  5
52E8
331
52E7
  5
52E9
331
52E8
  5
52EA
331
52E9
  5
52EB
331
52EA
  5
52EC
331
52EB
  5
52ED
331
52EC
  5
52EE
331
52ED
  5
52EF
331
52EE
  5
52F0
  0
DIMASSOC
  5
644F
102
{ACAD_REACTORS
330
644E
102
}
330
644E
100
AcDbDimAssoc
330
644D
 90
        3
 70
     0
 71
     1
  1
AcDbOsnapPointRef
 72
    13
331
643A
 73
     0
 91
        0
 40
0.0
 10
0.0
 20
0.0
 30
0.0
 75
     0
  1
AcDbOsnapPointRef
 72
     1
331
643D
 73
     0
 91
        0
 40
0.0
 10
0.0
 20
0.0
 30
0.0
 75
     0
  0
DIMASSOC
  5
6460
102
{ACAD_REACTORS
330
645F
102
}
330
645F
100
AcDbDimAssoc
330
645E
 90
        3
 70
     0
 71
     1
  1
AcDbOsnapPointRef
 72
     1
331
6430
 73
     0
 91
        0
 40
0.0
 10
0.0
 20
0.0
 30
0.0
 75
     0
  1
AcDbOsnapPointRef
 72
     1
331
6435
 73
     0
 91
        0
 40
0.0
 10
0.0
 20
0.0
 30
0.0
 75
     0
  0
DIMASSOC
  5
6463
102
{ACAD_REACTORS
330
6462
102
}
330
6462
100
AcDbDimAssoc
330
6461
 90
        2
 70
     0
 71
     1
  1
AcDbOsnapPointRef
 72
     1
331
6435
 73
     0
 91
        0
 40
0.0
 10
0.0
 20
0.0
 30
0.0
 75
     0
  0
GROUP
  5
654B
102
{ACAD_REACTORS
330
1A
102
}
330
1A
100
AcDbGroup
300

 70
     1
 71
     1
340
6543
340
6544
340
6545
340
6546
340
6547
340
6548
340
6549
340
654A
  0
LAYOUT
  5
21
102
{ACAD_REACTORS
330
1E
102
}
330
1E
100
AcDbPlotSettings
  1

  2
none_device
  4
ISO_A3_(420.00_x_297.00_MM)
  6

 40
7.5
 41
20.0
 42
7.5
 43
20.0
 44
420.0
 45
297.0
 46
0.0
 47
0.0
 48
0.0
 49
0.0
140
0.0
141
0.0
142
1.0
143
1.0
 70
     0
 72
     1
 73
     0
 74
     0
  7

 75
     0
 76
     0
 77
     2
 78
   300
147
1.0
148
0.0
149
0.0
100
AcDbLayout
  1
Layout1
 70
     0
 71
     0
 10
-7.5
 20
-20.0
 11
412.5
 21
277.0
 12
0.0
 22
0.0
 32
0.0
 14
0.0
 24
0.0
 34
0.0
 15
0.0
 25
0.0
 35
0.0
146
0.0
 13
0.0
 23
0.0
 33
0.0
 16
0.0
 26
0.0
 36
0.0
 17
0.0
 27
0.0
 37
0.0
 76
     0
330
B
331
349
  0
LAYOUT
  5
12C4
102
{ACAD_REACTORS
330
1E
102
}
330
1E
100
AcDbPlotSettings
  1

  2
none_device
  4

  6

 40
0.0
 41
0.0
 42
0.0
 43
0.0
 44
0.0
 45
0.0
 46
0.0
 47
0.0
 48
0.0
 49
0.0
140
0.0
141
0.0
142
1.0
143
1.0
 70
   688
 72
     1
 73
     0
 74
     5
  7

 75
    16
 76
     0
 77
     2
 78
   300
147
1.0
148
0.0
149
0.0
100
AcDbLayout
  1
Layout2
 70
     1
 71
     2
 10
0.0
 20
0.0
 11
0.0
 21
0.0
 12
0.0
 22
0.0
 32
0.0
 14
0.0
 24
0.0
 34
0.0
 15
0.0
 25
0.0
 35
0.0
146
0.0
 13
0.0
 23
0.0
 33
0.0
 16
1.0
 26
0.0
 36
0.0
 17
0.0
 27
1.0
 37
0.0
 76
     0
330
12C3
  0
LAYOUT
  5
20
102
{ACAD_REACTORS
330
1E
102
}
330
1E
100
AcDbPlotSettings
  1

  2
none_device
  4
ISO_A3_(420.00_x_297.00_MM)
  6

 40
7.5
 41
20.0
 42
7.5
 43
20.0
 44
420.0
 45
297.0
 46
0.0
 47
0.0
 48
0.0
 49
0.0
140
0.0
141
0.0
142
1.0
143
1.0
 70
  1024
 72
     1
 73
     0
 74
     0
  7

 75
     0
 76
     0
 77
     2
 78
   300
147
1.0
148
0.0
149
0.0
100
AcDbLayout
  1
Model
 70
     0
 71
     1
 10
0.0
 20
0.0
 11
593.9999999999999
 21
420.0
 12
0.0
 22
0.0
 32
0.0
 14
0.0
 24
0.0
 34
0.0
 15
593.9999999999999
 25
420.0
 35
0.0
146
0.0
 13
0.0
 23
0.0
 33
0.0
 16
0.0
 26
0.0
 36
0.0
 17
0.0
 27
0.0
 37
0.0
 76
     0
330
A
331
15
  0
MATERIAL
  5
385B
102
{ACAD_REACTORS
330
263
102
}
330
263
100
AcDbMaterial
  1
ByBlock
 72
     1
 94
      127
  0
MATERIAL
  5
264
102
{ACAD_REACTORS
330
263
102
}
330
263
100
AcDbMaterial
  1
ByLayer
 72
     1
 94
      127
  0
MATERIAL
  5
266
102
{ACAD_REACTORS
330
263
102
}
330
263
100
AcDbMaterial
  1
Global
 72
     1
 94
      127
  0
MLEADERSTYLE
  5
4B3A
102
{ACAD_REACTORS
330
336
102
}
330
336
100
AcDbMLeaderStyle
170
     2
171
     1
172
     0
 90
        2
 40
0.0
 41
0.0
173
     1
 91
-1056964608
340
11
 92
       -2
290
     1
 42
2.0
291
     1
 43
8.0
  3
Standard
341
0
 44
4.0
300

342
17
174
     1
178
     6
175
     1
176
     0
 93
-1056964608
 45
4.0
292
     0
297
     0
 46
4.0
343
0
 94
-1056964608
 47
1.0
 49
1.0
140
1.0
293
     1
141
0.0
294
     1
177
     0
142
1.0
295
     0
296
     0
143
3.75
1001
ACAD_MLEADERVER
1070
     2
  0
MLINESTYLE
  5
1C
102
{ACAD_REACTORS
330
1B
102
}
330
1B
100
AcDbMlineStyle
  2
Standard
 70
     0
  3

 62
     0
 51
90.0
 52
90.0
 71
     2
 49
0.5
 62
   256
  6
BYLAYER
 49
-0.5
 62
   256
  6
BYLAYER
  0
ACDBPLACEHOLDER
  5
1D
102
{ACAD_REACTORS
330
1F
102
}
330
1F
  0
SCALE
  5
242
102
{ACAD_REACTORS
330
241
102
}
330
241
100
AcDbScale
 70
     0
300
1:1
140
1.0
141
1.0
290
     1
  0
SCALE
  5
243
102
{ACAD_REACTORS
330
241
102
}
330
241
100
AcDbScale
 70
     0
300
1:2
140
1.0
141
2.0
290
     0
  0
SCALE
  5
244
102
{ACAD_REACTORS
330
241
102
}
330
241
100
AcDbScale
 70
     0
300
1:4
140
1.0
141
4.0
290
     0
  0
SCALE
  5
245
102
{ACAD_REACTORS
330
241
102
}
330
241
100
AcDbScale
 70
     0
300
1:5
140
1.0
141
5.0
290
     0
  0
SCALE
  5
246
102
{ACAD_REACTORS
330
241
102
}
330
241
100
AcDbScale
 70
     0
300
1:8
140
1.0
141
8.0
290
     0
  0
SCALE
  5
247
102
{ACAD_REACTORS
330
241
102
}
330
241
100
AcDbScale
 70
     0
300
1:10
140
1.0
141
10.0
290
     0
  0
SCALE
  5
248
102
{ACAD_REACTORS
330
241
102
}
330
241
100
AcDbScale
 70
     0
300
1:16
140
1.0
141
16.0
290
     0
  0
SCALE
  5
249
102
{ACAD_REACTORS
330
241
102
}
330
241
100
AcDbScale
 70
     0
300
1:20
140
1.0
141
20.0
290
     0
  0
SCALE
  5
24A
102
{ACAD_REACTORS
330
241
102
}
330
241
100
AcDbScale
 70
     0
300
1:30
140
1.0
141
30.0
290
     0
  0
SCALE
  5
24B
102
{ACAD_REACTORS
330
241
102
}
330
241
100
AcDbScale
 70
     0
300
1:40
140
1.0
141
40.0
290
     0
  0
SCALE
  5
24C
102
{ACAD_REACTORS
330
241
102
}
330
241
100
AcDbScale
 70
     0
300
1:50
140
1.0
141
50.0
290
     0
  0
SCALE
  5
24D
102
{ACAD_REACTORS
330
241
102
}
330
241
100
AcDbScale
 70
     0
300
1:100
140
1.0
141
100.0
290
     0
  0
SCALE
  5
24E
102
{ACAD_REACTORS
330
241
102
}
330
241
100
AcDbScale
 70
     0
300
2:1
140
2.0
141
1.0
290
     0
  0
SCALE
  5
24F
102
{ACAD_REACTORS
330
241
102
}
330
241
100
AcDbScale
 70
     0
300
4:1
140
4.0
141
1.0
290
     0
  0
SCALE
  5
250
102
{ACAD_REACTORS
330
241
102
}
330
241
100
AcDbScale
 70
     0
300
8:1
140
8.0
141
1.0
290
     0
  0
SCALE
  5
251
102
{ACAD_REACTORS
330
241
102
}
330
241
100
AcDbScale
 70
     0
300
10:1
140
10.0
141
1.0
290
     0
  0
SCALE
  5
252
102
{ACAD_REACTORS
330
241
102
}
330
241
100
AcDbScale
 70
     0
300
100:1
140
100.0
141
1.0
290
     0
  0
SCALE
  5
253
102
{ACAD_REACTORS
330
241
102
}
330
241
100
AcDbScale
 70
     0
300
1/128" = 1'-0"
140
0.0078125
141
12.0
290
     0
  0
SCALE
  5
254
102
{ACAD_REACTORS
330
241
102
}
330
241
100
AcDbScale
 70
     0
300
1/64" = 1'-0"
140
0.015625
141
12.0
290
     0
  0
SCALE
  5
255
102
{ACAD_REACTORS
330
241
102
}
330
241
100
AcDbScale
 70
     0
300
1/32" = 1'-0"
140
0.03125
141
12.0
290
     0
  0
SCALE
  5
256
102
{ACAD_REACTORS
330
241
102
}
330
241
100
AcDbScale
 70
     0
300
1/16" = 1'-0"
140
0.0625
141
12.0
290
     0
  0
SCALE
  5
257
102
{ACAD_REACTORS
330
241
102
}
330
241
100
AcDbScale
 70
     0
300
3/32" = 1'-0"
140
0.09375
141
12.0
290
     0
  0
SCALE
  5
258
102
{ACAD_REACTORS
330
241
102
}
330
241
100
AcDbScale
 70
     0
300
1/8" = 1'-0"
140
0.125
141
12.0
290
     0
  0
SCALE
  5
259
102
{ACAD_REACTORS
330
241
102
}
330
241
100
AcDbScale
 70
     0
300
3/16" = 1'-0"
140
0.1875
141
12.0
290
     0
  0
SCALE
  5
25A
102
{ACAD_REACTORS
330
241
102
}
330
241
100
AcDbScale
 70
     0
300
1/4" = 1'-0"
140
0.25
141
12.0
290
     0
  0
SCALE
  5
25B
102
{ACAD_REACTORS
330
241
102
}
330
241
100
AcDbScale
 70
     0
300
3/8" = 1'-0"
140
0.375
141
12.0
290
     0
  0
SCALE
  5
25C
102
{ACAD_REACTORS
330
241
102
}
330
241
100
AcDbScale
 70
     0
300
1/2" = 1'-0"
140
0.5
141
12.0
290
     0
  0
SCALE
  5
25D
102
{ACAD_REACTORS
330
241
102
}
330
241
100
AcDbScale
 70
     0
300
3/4" = 1'-0"
140
0.75
141
12.0
290
     0
  0
SCALE
  5
25E
102
{ACAD_REACTORS
330
241
102
}
330
241
100
AcDbScale
 70
     0
300
1" = 1'-0"
140
1.0
141
12.0
290
     0
  0
SCALE
  5
25F
102
{ACAD_REACTORS
330
241
102
}
330
241
100
AcDbScale
 70
     0
300
1-1/2" = 1'-0"
140
1.5
141
12.0
290
     0
  0
SCALE
  5
260
102
{ACAD_REACTORS
330
241
102
}
330
241
100
AcDbScale
 70
     0
300
3" = 1'-0"
140
3.0
141
12.0
290
     0
  0
SCALE
  5
261
102
{ACAD_REACTORS
330
241
102
}
330
241
100
AcDbScale
 70
     0
300
6" = 1'-0"
140
6.0
141
12.0
290
     0
  0
SCALE
  5
262
102
{ACAD_REACTORS
330
241
102
}
330
241
100
AcDbScale
 70
     0
300
1'-0" = 1'-0"
140
12.0
141
12.0
290
     0
  0
TABLESTYLE
  5
279
102
{ACAD_REACTORS
330
278
102
}
102
{ACAD_XDICTIONARY
360
6578
102
}
330
278
100
AcDbTableStyle
  3
Standard
 70
     0
 71
     0
 40
0.06
 41
0.06
280
     0
281
     0
  7
Standard
140
4.5
170
     2
 62
     0
 63
   257
283
     0
 90
        4
 91
        0
  1

274
    -2
284
     1
 64
     0
275
    -2
285
     1
 65
     0
276
    -2
286
     1
 66
     0
277
    -2
287
     1
 67
     0
278
    -2
288
     1
 68
     0
279
    -2
289
     1
 69
     0
  7
Standard
140
6.0
170
     5
 62
     0
 63
   257
283
     0
 90
        4
 91
        0
  1

274
    -2
284
     1
 64
     0
275
    -2
285
     1
 65
     0
276
    -2
286
     1
 66
     0
277
    -2
287
     1
 67
     0
278
    -2
288
     1
 68
     0
279
    -2
289
     1
 69
     0
  7
Standard
140
4.5
170
     5
 62
     0
 63
   257
283
     0
 90
        4
 91
        0
  1

274
    -2
284
     1
 64
     0
275
    -2
285
     1
 65
     0
276
    -2
286
     1
 66
     0
277
    -2
287
     1
 67
     0
278
    -2
288
     1
 68
     0
279
    -2
289
     1
 69
     0
  0
VISUALSTYLE
  5
26C
102
{ACAD_REACTORS
330
267
102
}
330
267
100
AcDbVisualStyle
  2
2dWireframe
 70
     4
 71
     0
 72
     2
 73
     0
 90
        0
 40
-0.6
 41
-30.0
 62
     5
 63
     7
421
 16777215
 74
     1
 91
        4
 64
     7
 65
   257
 75
     1
175
     1
 42
1.0
 92
        0
 66
   257
 43
1.0
 76
     1
 77
     6
 78
     2
 67
     7
 79
     5
170
     0
171
     0
290
     0
174
     0
 93
        1
 44
0.0
173
     0
291
     0
 45
0.0
  0
VISUALSTYLE
  5
26E
102
{ACAD_REACTORS
330
267
102
}
330
267
100
AcDbVisualStyle
  2
3D Hidden
 70
     6
 71
     1
 72
     2
 73
     2
 90
        0
 40
-0.6
 41
-30.0
 62
     5
 63
     7
421
 16777215
 74
     2
 91
        2
 64
     7
 65
   257
 75
     2
175
     1
 42
40.0
 92
        0
 66
   257
 43
1.0
 76
     1
 77
     6
 78
     2
 67
     7
 79
     3
170
     0
171
     0
290
     0
174
     0
 93
        1
 44
0.0
173
     0
291
     0
 45
0.0
  0
VISUALSTYLE
  5
26D
102
{ACAD_REACTORS
330
267
102
}
330
267
100
AcDbVisualStyle
  2
3dWireframe
 70
     5
 71
     0
 72
     2
 73
     0
 90
        0
 40
-0.6
 41
-30.0
 62
     5
 63
     7
421
 16777215
 74
     1
 91
        4
 64
     7
 65
   257
 75
     1
175
     1
 42
1.0
 92
        0
 66
   257
 43
1.0
 76
     1
 77
     6
 78
     2
 67
     7
 79
     5
170
     0
171
     0
290
     0
174
     0
 93
        1
 44
0.0
173
     0
291
     0
 45
0.0
  0
VISUALSTYLE
  5
26F
102
{ACAD_REACTORS
330
267
102
}
330
267
100
AcDbVisualStyle
  2
Basic
 70
     7
 71
     1
 72
     0
 73
     1
 90
        0
 40
-0.6
 41
-30.0
 62
     5
 63
     7
421
 16777215
 74
     0
 91
        4
 64
     7
 65
   257
 75
     1
175
     1
 42
1.0
 92
        8
 66
     7
 43
1.0
 76
     1
 77
     6
 78
     2
 67
     7
 79
     5
170
     0
171
     0
290
     0
174
     0
 93
        1
 44
0.0
173
     0
291
     1
 45
0.0
  0
VISUALSTYLE
  5
273
102
{ACAD_REACTORS
330
267
102
}
330
267
100
AcDbVisualStyle
  2
Brighten
 70
    12
 71
     2
 72
     2
 73
     0
 90
        0
 40
-0.6
 41
-30.0
 62
     5
 63
     7
421
 16777215
 74
     1
 91
        4
 64
     7
 65
   257
 75
     1
175
     1
 42
1.0
 92
        8
 66
     7
 43
1.0
 76
     1
 77
     6
 78
     2
 67
     7
 79
     5
170
     0
171
     0
290
     0
174
     0
 93
        1
 44
50.0
173
     0
291
     1
 45
0.0
  0
VISUALSTYLE
  5
277
102
{ACAD_REACTORS
330
267
102
}
330
267
100
AcDbVisualStyle
  2
ColorChange
 70
    16
 71
     2
 72
     2
 73
     3
 90
        0
 40
-0.6
 41
-30.0
 62
     5
 63
     8
421
  8421504
 74
     1
 91
        4
 64
     7
 65
   257
 75
     1
175
     1
 42
1.0
 92
        8
 66
     8
424
  8421504
 43
1.0
 76
     1
 77
     6
 78
     2
 67
     7
 79
     5
170
     0
171
     0
290
     0
174
     0
 93
        1
 44
0.0
173
     0
291
     1
 45
0.0
  0
VISUALSTYLE
  5
271
102
{ACAD_REACTORS
330
267
102
}
330
267
100
AcDbVisualStyle
  2
Conceptual
 70
     9
 71
     3
 72
     2
 73
     0
 90
        0
 40
-0.6
 41
-30.0
 62
     5
 63
     7
421
 16777215
 74
     2
 91
        2
 64
     7
 65
   257
 75
     1
175
     1
 42
40.0
 92
        8
 66
     7
 43
1.0
 76
     1
 77
     6
 78
     2
 67
     7
 79
     3
170
     0
171
     0
290
     0
174
     0
 93
        1
 44
0.0
173
     0
291
     0
 45
0.0
  0
VISUALSTYLE
  5
272
102
{ACAD_REACTORS
330
267
102
}
330
267
100
AcDbVisualStyle
  2
Dim
 70
    11
 71
     2
 72
     2
 73
     0
 90
        0
 40
-0.6
 41
-30.0
 62
     5
 63
     7
421
 16777215
 74
     1
 91
        4
 64
     7
 65
   257
 75
     1
175
     1
 42
1.0
 92
        8
 66
     7
 43
1.0
 76
     1
 77
     6
 78
     2
 67
     7
 79
     5
170
     0
171
     0
290
     0
174
     0
 93
        1
 44
-50.0
173
     0
291
     1
 45
0.0
  0
VISUALSTYLE
  5
10E2
102
{ACAD_REACTORS
330
267
102
}
330
267
100
AcDbVisualStyle
  2
EdgeColorOff
 70
    22
 71
     2
 72
     2
 73
     0
 90
        0
 40
0.6
 41
30.0
 62
     5
 63
     7
421
 16777215
 74
     1
 91
        4
 64
     7
 65
   257
 75
     1
175
     1
 42
1.0
 92
        8
 66
     7
 43
1.0
 76
     1
 77
     6
 78
     2
 67
     7
 79
     5
170
     0
171
     0
290
     0
174
     0
 93
        1
 44
0.0
173
     0
291
     1
 45
0.0
  0
VISUALSTYLE
  5
276
102
{ACAD_REACTORS
330
267
102
}
330
267
100
AcDbVisualStyle
  2
Facepattern
 70
    15
 71
     2
 72
     2
 73
     0
 90
        0
 40
-0.6
 41
-30.0
 62
     5
 63
     7
421
 16777215
 74
     1
 91
        4
 64
     7
 65
   257
 75
     1
175
     1
 42
1.0
 92
        8
 66
     7
 43
1.0
 76
     1
 77
     6
 78
     2
 67
     7
 79
     5
170
     0
171
     0
290
     0
174
     0
 93
        1
 44
0.0
173
     0
291
     1
 45
0.0
  0
VISUALSTYLE
  5
268
102
{ACAD_REACTORS
330
267
102
}
330
267
100
AcDbVisualStyle
  2
Flat
 70
     0
 71
     2
 72
     1
 73
     1
 90
        2
 40
-0.6
 41
30.0
 62
     5
 63
     7
421
 16777215
 74
     0
 91
        4
 64
     7
 65
   257
 75
     1
175
     1
 42
1.0
 92
        8
 66
     7
 43
1.0
 76
     1
 77
     6
 78
     2
 67
     7
 79
     5
170
     0
171
     0
290
     0
174
     0
 93
       13
 44
0.0
173
     0
291
     1
 45
0.0
  0
VISUALSTYLE
  5
269
102
{ACAD_REACTORS
330
267
102
}
330
267
100
AcDbVisualStyle
  2
FlatWithEdges
 70
     1
 71
     2
 72
     1
 73
     1
 90
        2
 40
-0.6
 41
30.0
 62
     5
 63
     7
421
 16777215
 74
     1
 91
        4
 64
     7
 65
   257
 75
     1
175
     1
 42
1.0
 92
        0
 66
   257
 43
1.0
 76
     1
 77
     6
 78
     2
 67
     7
 79
     5
170
     0
171
     0
290
     0
174
     0
 93
       13
 44
0.0
173
     0
291
     1
 45
0.0
  0
VISUALSTYLE
  5
26A
102
{ACAD_REACTORS
330
267
102
}
330
267
100
AcDbVisualStyle
  2
Gouraud
 70
     2
 71
     2
 72
     2
 73
     1
 90
        2
 40
-0.6
 41
30.0
 62
     5
 63
     7
421
 16777215
 74
     0
 91
        4
 64
     7
 65
   257
 75
     1
175
     1
 42
1.0
 92
        0
 66
     7
 43
1.0
 76
     1
 77
     6
 78
     2
 67
     7
 79
     5
170
     0
171
     0
290
     0
174
     0
 93
       13
 44
0.0
173
     0
291
     1
 45
0.0
  0
VISUALSTYLE
  5
26B
102
{ACAD_REACTORS
330
267
102
}
330
267
100
AcDbVisualStyle
  2
GouraudWithEdges
 70
     3
 71
     2
 72
     2
 73
     1
 90
        2
 40
-0.6
 41
30.0
 62
     5
 63
     7
421
 16777215
 74
     1
 91
        4
 64
     7
 65
   257
 75
     1
175
     1
 42
1.0
 92
        0
 66
   257
 43
1.0
 76
     1
 77
     6
 78
     2
 67
     7
 79
     5
170
     0
171
     0
290
     0
174
     0
 93
       13
 44
0.0
173
     0
291
     1
 45
0.0
  0
VISUALSTYLE
  5
10DF
102
{ACAD_REACTORS
330
267
102
}
330
267
100
AcDbVisualStyle
  2
Hidden
 70
     6
 71
     1
 72
     2
 73
     2
 90
        0
 40
0.6
 41
30.0
 62
     5
 63
     7
421
 16777215
 74
     2
 91
        2
 64
     7
 65
   257
 75
     2
175
     1
 42
40.0
 92
        0
 66
   257
 43
1.0
 76
     1
 77
     6
 78
     2
 67
     7
 79
     3
170
     0
171
     0
290
     0
174
     0
 93
        1
 44
0.0
173
     0
291
     0
 45
0.0
  0
VISUALSTYLE
  5
10E0
102
{ACAD_REACTORS
330
267
102
}
330
267
100
AcDbVisualStyle
  2
JitterOff
 70
    20
 71
     2
 72
     2
 73
     0
 90
        0
 40
0.6
 41
30.0
 62
     5
 63
     7
421
 16777215
 74
     1
 91
        4
 64
     7
 65
   257
 75
     1
175
     1
 42
1.0
 92
       10
 66
     7
 43
1.0
 76
     1
 77
     6
 78
     2
 67
     7
 79
     5
170
     0
171
     0
290
     0
174
     0
 93
        1
 44
0.0
173
     0
291
     1
 45
0.0
  0
VISUALSTYLE
  5
275
102
{ACAD_REACTORS
330
267
102
}
330
267
100
AcDbVisualStyle
  2
Linepattern
 70
    14
 71
     2
 72
     2
 73
     0
 90
        0
 40
-0.6
 41
-30.0
 62
     5
 63
     7
421
 16777215
 74
     1
 91
        4
 64
     7
 65
   257
 75
     7
175
     7
 42
1.0
 92
        8
 66
     7
 43
1.0
 76
     1
 77
     6
 78
     2
 67
     7
 79
     5
170
     0
171
     0
290
     0
174
     0
 93
        1
 44
0.0
173
     0
291
     1
 45
0.0
  0
VISUALSTYLE
  5
10E1
102
{ACAD_REACTORS
330
267
102
}
330
267
100
AcDbVisualStyle
  2
OverhangOff
 70
    21
 71
     2
 72
     2
 73
     0
 90
        0
 40
0.6
 41
30.0
 62
     5
 63
     7
421
 16777215
 74
     1
 91
        4
 64
     7
 65
   257
 75
     1
175
     1
 42
1.0
 92
        9
 66
     7
 43
1.0
 76
     1
 77
     6
 78
     2
 67
     7
 79
     5
170
     0
171
     0
290
     0
174
     0
 93
        1
 44
0.0
173
     0
291
     1
 45
0.0
  0
VISUALSTYLE
  5
270
102
{ACAD_REACTORS
330
267
102
}
330
267
100
AcDbVisualStyle
  2
Realistic
 70
     8
 71
     2
 72
     2
 73
     0
 90
        0
 40
-0.6
 41
-30.0
 62
     5
 63
     7
421
 16777215
 74
     1
 91
        0
 64
     7
 65
   257
 75
     1
175
     1
 42
1.0
 92
        8
 66
     8
424
  7895160
 43
1.0
 76
     1
 77
     6
 78
     2
 67
     7
 79
     5
170
     0
171
     0
290
     0
174
     0
 93
       13
 44
0.0
173
     0
291
     0
 45
0.0
  0
VISUALSTYLE
  5
10E7
102
{ACAD_REACTORS
330
267
102
}
330
267
100
AcDbVisualStyle
  2
Shaded
 70
    27
 71
     2
 72
     2
 73
     1
 90
        2
 40
0.6
 41
30.0
 62
     5
 63
     7
421
 16777215
 74
     0
 91
        4
 64
     7
 65
   257
 75
     1
175
     1
 42
1.0
 92
        8
 66
   257
 43
1.0
 76
     1
 77
     6
 78
     2
 67
     8
425
  7895160
 79
     3
170
     0
171
     0
290
     0
174
     0
 93
        5
 44
0.0
173
     0
291
     0
 45
0.0
  0
VISUALSTYLE
  5
10E6
102
{ACAD_REACTORS
330
267
102
}
330
267
100
AcDbVisualStyle
  2
Shaded with edges
 70
    26
 71
     2
 72
     2
 73
     1
 90
        2
 40
0.6
 41
30.0
 62
     5
 63
     7
421
 16777215
 74
     1
 91
       10
 64
     7
 65
   257
 75
     2
175
     1
 42
1.0
 92
        8
 66
   257
 43
1.0
 76
     1
 77
     6
 78
     2
 67
     7
 79
     3
170
     0
171
     0
290
     0
174
     0
 93
        5
 44
0.0
173
     0
291
     0
 45
0.0
  0
VISUALSTYLE
  5
10E3
102
{ACAD_REACTORS
330
267
102
}
330
267
100
AcDbVisualStyle
  2
Shades of Gray
 70
    23
 71
     2
 72
     2
 73
     3
 90
        0
 40
0.6
 41
30.0
 62
     5
 63
     7
421
 16777215
 74
     2
 91
        2
 64
     7
 65
     7
 75
     1
175
     1
 42
40.0
 92
        8
 66
     7
 43
1.0
 76
     1
 77
     6
 78
     2
 67
     7
 79
     3
170
     0
171
     0
290
     0
174
     0
 93
        1
 44
0.0
173
     0
291
     0
 45
0.0
  0
VISUALSTYLE
  5
10E4
102
{ACAD_REACTORS
330
267
102
}
330
267
100
AcDbVisualStyle
  2
Sketchy
 70
    24
 71
     1
 72
     2
 73
     2
 90
        0
 40
0.6
 41
30.0
 62
     5
 63
     7
421
 16777215
 74
     2
 91
        2
 64
     7
 65
     7
 75
     1
175
     1
 42
40.0
 92
       11
 66
     7
 43
1.0
 76
     1
 77
     6
 78
     2
 67
     7
 79
     6
170
     0
171
     0
290
     0
174
     0
 93
        1
 44
0.0
173
     0
291
     0
 45
0.0
  0
VISUALSTYLE
  5
274
102
{ACAD_REACTORS
330
267
102
}
330
267
100
AcDbVisualStyle
  2
Thicken
 70
    13
 71
     2
 72
     2
 73
     0
 90
        0
 40
-0.6
 41
-30.0
 62
     5
 63
     7
421
 16777215
 74
     1
 91
        4
 64
     7
 65
   257
 75
     1
175
     1
 42
1.0
 92
       12
 66
     7
 43
1.0
 76
     1
 77
     6
 78
     2
 67
     7
 79
     5
170
     0
171
     0
290
     0
174
     0
 93
        1
 44
0.0
173
     0
291
     1
 45
0.0
  0
VISUALSTYLE
  5
10DE
102
{ACAD_REACTORS
330
267
102
}
330
267
100
AcDbVisualStyle
  2
Wireframe
 70
     5
 71
     0
 72
     2
 73
     0
 90
        0
 40
0.6
 41
30.0
 62
     5
 63
     7
421
 16777215
 74
     1
 91
        4
 64
     7
 65
   257
 75
     1
175
     1
 42
1.0
 92
        0
 66
   257
 43
1.0
 76
     1
 77
     6
 78
     2
 67
     7
 79
     3
170
     0
171
     0
290
     0
174
     0
 93
        1
 44
0.0
173
     0
291
     0
 45
0.0
  0
VISUALSTYLE
  5
10E5
102
{ACAD_REACTORS
330
267
102
}
330
267
100
AcDbVisualStyle
  2
X-Ray
 70
    25
 71
     2
 72
     2
 73
     1
 90
        1
 40
0.5
 41
30.0
 62
     5
 63
     7
421
 16777215
 74
     1
 91
        0
 64
     7
 65
   257
 75
     1
175
     1
 42
1.0
 92
        8
 66
     7
 43
1.0
 76
     1
 77
     6
 78
     2
 67
     7
 79
     3
170
     0
171
     0
290
     0
174
     0
 93
       13
 44
0.0
173
     0
291
     0
 45
0.0
  0
DICTIONARYVAR
  5
331
102
{ACAD_REACTORS
330
330
102
}
330
330
100
DictionaryVariables
280
     0
  1
1:1
  0
DICTIONARYVAR
  5
4B3B
102
{ACAD_REACTORS
330
330
102
}
330
330
100
DictionaryVariables
280
     0
  1
Standard
  0
DICTIONARYVAR
  5
335
102
{ACAD_REACTORS
330
330
102
}
330
330
100
DictionaryVariables
280
     0
  1
Standard
  0
DICTIONARYVAR
  5
4569
102
{ACAD_REACTORS
330
330
102
}
330
330
100
DictionaryVariables
280
     0
  1
ByLayer
  0
DICTIONARYVAR
  5
109E
102
{ACAD_REACTORS
330
330
102
}
330
330
100
DictionaryVariables
280
     0
  1
0
  0
DICTIONARY
  5
6578
330
279
100
AcDbDictionary
280
     1
281
     1
  3
ACAD_ROUNDTRIP_2008_TABLESTYLE_CELLSTYLEMAP
360
6579
  0
CELLSTYLEMAP
  5
6579
102
{ACAD_REACTORS
330
6578
102
}
330
6578
100
AcDbCellStyleMap
 90
        3
300
CELLSTYLE
  1
TABLEFORMAT_BEGIN
 90
        5
170
     1
 91
        0
 92
    32768
 62
   257
 93
        1
300
CONTENTFORMAT
  1
CONTENTFORMAT_BEGIN
 90
        0
 91
        0
 92
        4
 93
        0
300

 40
0.0
140
1.0
 94
        5
 62
     0
340
17
144
6.0
309
CONTENTFORMAT_END
171
     1
301
MARGIN
  1
CELLMARGIN_BEGIN
 40
0.06
 40
0.06
 40
0.06
 40
0.06
 40
0.18
 40
0.18
309
CELLMARGIN_END
 94
        6
 95
        1
302
GRIDFORMAT
  1
GRIDFORMAT_BEGIN
 90
        0
 91
        1
 62
     0
 92
       -2
340
0
 93
        0
 40
0.045
309
GRIDFORMAT_END
 95
        2
302
GRIDFORMAT
  1
GRIDFORMAT_BEGIN
 90
        0
 91
        1
 62
     0
 92
       -2
340
0
 93
        0
 40
0.045
309
GRIDFORMAT_END
 95
        4
302
GRIDFORMAT
  1
GRIDFORMAT_BEGIN
 90
        0
 91
        1
 62
     0
 92
       -2
340
0
 93
        0
 40
0.045
309
GRIDFORMAT_END
 95
        8
302
GRIDFORMAT
  1
GRIDFORMAT_BEGIN
 90
        0
 91
        1
 62
     0
 92
       -2
340
0
 93
        0
 40
0.045
309
GRIDFORMAT_END
 95
       16
302
GRIDFORMAT
  1
GRIDFORMAT_BEGIN
 90
        0
 91
        1
 62
     0
 92
       -2
340
0
 93
        0
 40
0.045
309
GRIDFORMAT_END
 95
       32
302
GRIDFORMAT
  1
GRIDFORMAT_BEGIN
 90
        0
 91
        1
 62
     0
 92
       -2
340
0
 93
        0
 40
0.045
309
GRIDFORMAT_END
309
TABLEFORMAT_END
  1
CELLSTYLE_BEGIN
 90
        1
 91
        1
300
_TITLE
309
CELLSTYLE_END
300
CELLSTYLE
  1
TABLEFORMAT_BEGIN
 90
        5
170
     1
 91
        0
 92
        0
 62
   257
 93
        1
300
CONTENTFORMAT
  1
CONTENTFORMAT_BEGIN
 90
        0
 91
        0
 92
        4
 93
        0
300

 40
0.0
140
1.0
 94
        5
 62
     0
340
17
144
4.5
309
CONTENTFORMAT_END
171
     1
301
MARGIN
  1
CELLMARGIN_BEGIN
 40
0.06
 40
0.06
 40
0.06
 40
0.06
 40
0.18
 40
0.18
309
CELLMARGIN_END
 94
        6
 95
        1
302
GRIDFORMAT
  1
GRIDFORMAT_BEGIN
 90
        0
 91
        1
 62
     0
 92
       -2
340
0
 93
        0
 40
0.045
309
GRIDFORMAT_END
 95
        2
302
GRIDFORMAT
  1
GRIDFORMAT_BEGIN
 90
        0
 91
        1
 62
     0
 92
       -2
340
0
 93
        0
 40
0.045
309
GRIDFORMAT_END
 95
        4
302
GRIDFORMAT
  1
GRIDFORMAT_BEGIN
 90
        0
 91
        1
 62
     0
 92
       -2
340
0
 93
        0
 40
0.045
309
GRIDFORMAT_END
 95
        8
302
GRIDFORMAT
  1
GRIDFORMAT_BEGIN
 90
        0
 91
        1
 62
     0
 92
       -2
340
0
 93
        0
 40
0.045
309
GRIDFORMAT_END
 95
       16
302
GRIDFORMAT
  1
GRIDFORMAT_BEGIN
 90
        0
 91
        1
 62
     0
 92
       -2
340
0
 93
        0
 40
0.045
309
GRIDFORMAT_END
 95
       32
302
GRIDFORMAT
  1
GRIDFORMAT_BEGIN
 90
        0
 91
        1
 62
     0
 92
       -2
340
0
 93
        0
 40
0.045
309
GRIDFORMAT_END
309
TABLEFORMAT_END
  1
CELLSTYLE_BEGIN
 90
        2
 91
        1
300
_HEADER
309
CELLSTYLE_END
300
CELLSTYLE
  1
TABLEFORMAT_BEGIN
 90
        5
170
     1
 91
        0
 92
        0
 62
   257
 93
        1
300
CONTENTFORMAT
  1
CONTENTFORMAT_BEGIN
 90
        0
 91
        0
 92
        4
 93
        0
300

 40
0.0
140
1.0
 94
        2
 62
     0
340
17
144
4.5
309
CONTENTFORMAT_END
171
     1
301
MARGIN
  1
CELLMARGIN_BEGIN
 40
0.06
 40
0.06
 40
0.06
 40
0.06
 40
0.18
 40
0.18
309
CELLMARGIN_END
 94
        6
 95
        1
302
GRIDFORMAT
  1
GRIDFORMAT_BEGIN
 90
        0
 91
        1
 62
     0
 92
       -2
340
0
 93
        0
 40
0.045
309
GRIDFORMAT_END
 95
        2
302
GRIDFORMAT
  1
GRIDFORMAT_BEGIN
 90
        0
 91
        1
 62
     0
 92
       -2
340
0
 93
        0
 40
0.045
309
GRIDFORMAT_END
 95
        4
302
GRIDFORMAT
  1
GRIDFORMAT_BEGIN
 90
        0
 91
        1
 62
     0
 92
       -2
340
0
 93
        0
 40
0.045
309
GRIDFORMAT_END
 95
        8
302
GRIDFORMAT
  1
GRIDFORMAT_BEGIN
 90
        0
 91
        1
 62
     0
 92
       -2
340
0
 93
        0
 40
0.045
309
GRIDFORMAT_END
 95
       16
302
GRIDFORMAT
  1
GRIDFORMAT_BEGIN
 90
        0
 91
        1
 62
     0
 92
       -2
340
0
 93
        0
 40
0.045
309
GRIDFORMAT_END
 95
       32
302
GRIDFORMAT
  1
GRIDFORMAT_BEGIN
 90
        0
 91
        1
 62
     0
 92
       -2
340
0
 93
        0
 40
0.045
309
GRIDFORMAT_END
309
TABLEFORMAT_END
  1
CELLSTYLE_BEGIN
 90
        3
 91
        2
300
_DATA
309
CELLSTYLE_END
  0
ENDSEC
  0
EOF
