  0
SECTION
  2
HEADER
  9
$ACADVER
  1
AC1021
  9
$ACADMAINTVER
 70
    25
  9
$DWGCODEPAGE
  3
ANSI_932
  9
$LASTSAVEDBY
  1
howeNelson
  9
$INSBASE
 10
0.0
 20
0.0
 30
0.0
  9
$EXTMIN
 10
0.0
 20
0.0
 30
0.0
  9
$EXTMAX
 10
593.9999999999999
 20
420.0
 30
0.0
  9
$LIMMIN
 10
0.0
 20
0.0
  9
$LIMMAX
 10
594.0
 20
419.9999999999996
  9
$ORTHOMODE
 70
     0
  9
$REGENMODE
 70
     1
  9
$FILLMODE
 70
     1
  9
$QTEXTMODE
 70
     0
  9
$MIRRTEXT
 70
     1
  9
$LTSCALE
 40
2.0
  9
$ATTMODE
 70
     1
  9
$TEXTSIZE
 40
2.5
  9
$TRACEWID
 40
1.0
  9
$TEXTSTYLE
  7
ＭＳ ゴシック
  9
$CLAYER
  8
寸法
  9
$CELTYPE
  6
Continuous
  9
$CECOLOR
 62
   256
  9
$CELTSCALE
 40
1.0
  9
$DISPSILH
 70
     0
  9
$DIMSCALE
 40
1.0
  9
$DIMASZ
 40
1.5
  9
$DIMEXO
 40
5.0
  9
$DIMDLI
 40
0.9999999999999999
  9
$DIMRND
 40
0.0
  9
$DIMDLE
 40
0.0
  9
$DIMEXE
 40
0.0
  9
$DIMTP
 40
0.0
  9
$DIMTM
 40
0.0
  9
$DIMTXT
 40
5.0
  9
$DIMCEN
 40
0.0
  9
$DIMTSZ
 40
0.0
  9
$DIMTOL
 70
     0
  9
$DIMLIM
 70
     0
  9
$DIMTIH
 70
     0
  9
$DIMTOH
 70
     0
  9
$DIMSE1
 70
     0
  9
$DIMSE2
 70
     0
  9
$DIMTAD
 70
     1
  9
$DIMZIN
 70
    11
  9
$DIMBLK
  1
DOT
  9
$DIMASO
 70
     1
  9
$DIMSHO
 70
     1
  9
$DIMPOST
  1
<>
  9
$DIMAPOST
  1
[]
  9
$DIMALT
 70
     0
  9
$DIMALTD
 70
     1
  9
$DIMALTF
 40
1.0
  9
$DIMLFAC
 40
1.0
  9
$DIMTOFL
 70
     0
  9
$DIMTVP
 40
0.0
  9
$DIMTIX
 70
     1
  9
$DIMSOXD
 70
     0
  9
$DIMSAH
 70
     0
  9
$DIMBLK1
  1

  9
$DIMBLK2
  1

  9
$DIMSTYLE
  2
tfrom線あり
  9
$DIMCLRD
 70
     0
  9
$DIMCLRE
 70
     0
  9
$DIMCLRT
 70
     0
  9
$DIMTFAC
 40
1.0
  9
$DIMGAP
 40
2.0
  9
$DIMJUST
 70
     0
  9
$DIMSD1
 70
     0
  9
$DIMSD2
 70
     0
  9
$DIMTOLJ
 70
     1
  9
$DIMTZIN
 70
    11
  9
$DIMALTZ
 70
    11
  9
$DIMALTTZ
 70
    11
  9
$DIMUPT
 70
     0
  9
$DIMDEC
 70
     0
  9
$DIMTDEC
 70
     1
  9
$DIMALTU
 70
     2
  9
$DIMALTTD
 70
     2
  9
$DIMTXSTY
  7
ＭＳ ゴシック
  9
$DIMAUNIT
 70
     0
  9
$DIMADEC
 70
     2
  9
$DIMALTRND
 40
0.0
  9
$DIMAZIN
 70
     0
  9
$DIMDSEP
 70
    46
  9
$DIMATFIT
 70
     0
  9
$DIMFRAC
 70
     2
  9
$DIMLDRBLK
  1
DOT
  9
$DIMLUNIT
 70
     2
  9
$DIMLWD
 70
    -2
  9
$DIMLWE
 70
    -2
  9
$DIMTMOVE
 70
     0
  9
$DIMFXL
 40
1.0
  9
$DIMFXLON
 70
     0
  9
$DIMJOGANG
 40
0.7853981633974483
  9
$DIMTFILL
 70
     0
  9
$DIMTFILLCLR
 70
     0
  9
$DIMARCSYM
 70
     0
  9
$DIMLTYPE
  6

  9
$DIMLTEX1
  6

  9
$DIMLTEX2
  6

  9
$LUNITS
 70
     2
  9
$LUPREC
 70
     0
  9
$SKETCHINC
 40
0.1
  9
$FILLETRAD
 40
0.0
  9
$AUNITS
 70
     0
  9
$AUPREC
 70
     0
  9
$MENU
  1
acad
  9
$ELEVATION
 40
0.0
  9
$PELEVATION
 40
0.0
  9
$THICKNESS
 40
0.0
  9
$LIMCHECK
 70
     0
  9
$CHAMFERA
 40
0.0
  9
$CHAMFERB
 40
0.0
  9
$CHAMFERC
 40
0.0
  9
$CHAMFERD
 40
0.0
  9
$SKPOLY
 70
     0
  9
$TDCREATE
 40
2447893.375
  9
$TDUCREATE
 40
0.0
  9
$TDUPDATE
 40
2458390.602484456
  9
$TDUUPDATE
 40
2458390.227484456
  9
$TDINDWG
 40
0.001694456
  9
$TDUSRTIMER
 40
0.0014332639
  9
$USRTIMER
 70
     1
  9
$ANGBASE
 50
0.0
  9
$ANGDIR
 70
     0
  9
$PDMODE
 70
     1
  9
$PDSIZE
 40
-2.0
  9
$PLINEWID
 40
0.0
  9
$SPLFRAME
 70
     0
  9
$SPLINETYPE
 70
     6
  9
$SPLINESEGS
 70
     8
  9
$HANDSEED
  5
5E2C
  9
$SURFTAB1
 70
     6
  9
$SURFTAB2
 70
     6
  9
$SURFTYPE
 70
     6
  9
$SURFU
 70
     6
  9
$SURFV
 70
     6
  9
$UCSBASE
  2

  9
$UCSNAME
  2

  9
$UCSORG
 10
0.0
 20
0.0
 30
0.0
  9
$UCSXDIR
 10
1.0
 20
0.0
 30
0.0
  9
$UCSYDIR
 10
0.0
 20
1.0
 30
0.0
  9
$UCSORTHOREF
  2

  9
$UCSORTHOVIEW
 70
     0
  9
$UCSORGTOP
 10
0.0
 20
0.0
 30
0.0
  9
$UCSORGBOTTOM
 10
0.0
 20
0.0
 30
0.0
  9
$UCSORGLEFT
 10
0.0
 20
0.0
 30
0.0
  9
$UCSORGRIGHT
 10
0.0
 20
0.0
 30
0.0
  9
$UCSORGFRONT
 10
0.0
 20
0.0
 30
0.0
  9
$UCSORGBACK
 10
0.0
 20
0.0
 30
0.0
  9
$PUCSBASE
  2

  9
$PUCSNAME
  2

  9
$PUCSORG
 10
0.0
 20
0.0
 30
0.0
  9
$PUCSXDIR
 10
1.0
 20
0.0
 30
0.0
  9
$PUCSYDIR
 10
0.0
 20
1.0
 30
0.0
  9
$PUCSORTHOREF
  2

  9
$PUCSORTHOVIEW
 70
     0
  9
$PUCSORGTOP
 10
0.0
 20
0.0
 30
0.0
  9
$PUCSORGBOTTOM
 10
0.0
 20
0.0
 30
0.0
  9
$PUCSORGLEFT
 10
0.0
 20
0.0
 30
0.0
  9
$PUCSORGRIGHT
 10
0.0
 20
0.0
 30
0.0
  9
$PUCSORGFRONT
 10
0.0
 20
0.0
 30
0.0
  9
$PUCSORGBACK
 10
0.0
 20
0.0
 30
0.0
  9
$USERI1
 70
     0
  9
$USERI2
 70
     0
  9
$USERI3
 70
     0
  9
$USERI4
 70
     0
  9
$USERI5
 70
     0
  9
$USERR1
 40
0.0
  9
$USERR2
 40
0.0
  9
$USERR3
 40
0.0
  9
$USERR4
 40
0.0
  9
$USERR5
 40
0.0
  9
$WORLDVIEW
 70
     1
  9
$SHADEDGE
 70
     3
  9
$SHADEDIF
 70
    70
  9
$TILEMODE
 70
     1
  9
$MAXACTVP
 70
    64
  9
$PINSBASE
 10
0.0
 20
0.0
 30
0.0
  9
$PLIMCHECK
 70
     0
  9
$PEXTMIN
 10
0.0
 20
0.0
 30
0.0
  9
$PEXTMAX
 10
0.0
 20
0.0
 30
0.0
  9
$PLIMMIN
 10
-7.5
 20
-20.0
  9
$PLIMMAX
 10
412.5
 20
277.0
  9
$UNITMODE
 70
     0
  9
$VISRETAIN
 70
     0
  9
$PLINEGEN
 70
     1
  9
$PSLTSCALE
 70
     1
  9
$TREEDEPTH
 70
  3020
  9
$CMLSTYLE
  2
Standard
  9
$CMLJUST
 70
     0
  9
$CMLSCALE
 40
1.0
  9
$PROXYGRAPHICS
 70
     0
  9
$MEASUREMENT
 70
     1
  9
$CELWEIGHT
370
     0
  9
$ENDCAPS
280
     0
  9
$JOINSTYLE
280
     0
  9
$LWDISPLAY
290
     1
  9
$INSUNITS
 70
     4
  9
$HYPERLINKBASE
  1

  9
$STYLESHEET
  1

  9
$XEDIT
290
     1
  9
$CEPSNTYPE
380
     0
  9
$PSTYLEMODE
290
     1
  9
$FINGERPRINTGUID
  2

  9
$VERSIONGUID
  2

  9
$EXTNAMES
290
     1
  9
$PSVPSCALE
 40
0.0
  9
$OLESTARTUP
290
     0
  9
$SORTENTS
280
   127
  9
$INDEXCTL
280
     0
  9
$HIDETEXT
280
     1
  9
$XCLIPFRAME
290
     0
  9
$HALOGAP
280
     0
  9
$OBSCOLOR
 70
   257
  9
$OBSLTYPE
280
     0
  9
$INTERSECTIONDISPLAY
280
     0
  9
$INTERSECTIONCOLOR
 70
   257
  9
$DIMASSOC
280
     2
  9
$PROJECTNAME
  1

  9
$CAMERADISPLAY
290
     0
  9
$LENSLENGTH
 40
50.0
  9
$CAMERAHEIGHT
 40
0.0
  9
$STEPSPERSEC
 40
2.0
  9
$STEPSIZE
 40
6.0
  9
$3DDWFPREC
 40
2.0
  9
$PSOLWIDTH
 40
0.25
  9
$PSOLHEIGHT
 40
4.0
  9
$LOFTANG1
 40
1.570796326794897
  9
$LOFTANG2
 40
1.570796326794897
  9
$LOFTMAG1
 40
0.0
  9
$LOFTMAG2
 40
0.0
  9
$LOFTPARAM
 70
     7
  9
$LOFTNORMALS
280
     1
  9
$LATITUDE
 40
37.795
  9
$LONGITUDE
 40
-122.394
  9
$NORTHDIRECTION
 40
0.0
  9
$TIMEZONE
 70
 -8000
  9
$LIGHTGLYPHDISPLAY
280
     1
  9
$TILEMODELIGHTSYNCH
280
     1
  9
$SOLIDHIST
280
     1
  9
$SHOWHIST
280
     1
  9
$DWFFRAME
280
     2
  9
$DGNFRAME
280
     2
  9
$REALWORLDSCALE
290
     1
  9
$INTERFERECOLOR
 62
   256
  9
$CSHADOW
280
     0
  9
$SHADOWPLANELOCATION
 40
0.0
  0
ENDSEC
  0
SECTION
  2
CLASSES
  0
CLASS
  1
LWPOLYLINE
  2
AcDbPolyline
  3
ObjectDBX Classes
 90
        0
 91
        1
280
     0
281
     1
  0
CLASS
  1
IMAGE
  2
AcDbRasterImage
  3
ISM
 90
      127
 91
        6
280
     0
281
     1
  0
CLASS
  1
OLE2FRAME
  2
AcDbOle2Frame
  3
ObjectDBX Classes
 90
        0
 91
        1
280
     0
281
     1
  0
CLASS
  1
HATCH
  2
AcDbHatch
  3
ObjectDBX Classes
 90
        0
 91
        1
280
     0
281
     1
  0
CLASS
  1
DICTIONARYVAR
  2
AcDbDictionaryVar
  3
ObjectDBX Classes
 90
        0
 91
        5
280
     0
281
     0
  0
CLASS
  1
RASTERVARIABLES
  2
AcDbRasterVariables
  3
ISM
 90
        0
 91
        5
280
     0
281
     0
  0
CLASS
  1
IMAGEDEF
  2
AcDbRasterImageDef
  3
ISM
 90
        0
 91
        5
280
     0
281
     0
  0
CLASS
  1
IMAGEDEF_REACTOR
  2
AcDbRasterImageDefReactor
  3
ISM
 90
        1
 91
        5
280
     0
281
     0
  0
CLASS
  1
IDBUFFER
  2
AcDbIdBuffer
  3
ObjectDBX Classes
 90
        0
 91
        5
280
     0
281
     0
  0
CLASS
  1
SPATIAL_FILTER
  2
AcDbSpatialFilter
  3
ObjectDBX Classes
 90
        0
 91
        5
280
     0
281
     0
  0
CLASS
  1
XRECORD
  2
AcDbXrecord
  3
ObjectDBX Classes
 90
        0
 91
        1
280
     0
281
     0
  0
CLASS
  1
SORTENTSTABLE
  2
AcDbSortentsTable
  3
ObjectDBX Classes
 90
        0
 91
        5
280
     0
281
     0
  0
CLASS
  1
LAYER_INDEX
  2
AcDbLayerIndex
  3
ObjectDBX Classes
 90
        0
 91
        5
280
     0
281
     0
  0
CLASS
  1
SPATIAL_INDEX
  2
AcDbSpatialIndex
  3
AutoCAD 2000
 90
        0
 91
        5
280
     0
281
     0
  0
CLASS
  1
OBJECT_PTR
  2
CAseDLPNTableRecord
  3
ASE-LPNTableRecord
 90
        1
 91
        5
280
     0
281
     0
  0
CLASS
  1
LAYOUT
  2
AcDbLayout
  3
ObjectDBX Classes
 90
        0
 91
        1
280
     0
281
     0
  0
CLASS
  1
PLOTSETTINGS
  2
AcDbPlotSettings
  3
ObjectDBX Classes
 90
        0
 91
        5
280
     0
281
     0
  0
CLASS
  1
ACDBDICTIONARYWDFLT
  2
AcDbDictionaryWithDefault
  3
ObjectDBX Classes
 90
        0
 91
        5
280
     0
281
     0
  0
CLASS
  1
ACDBPLACEHOLDER
  2
AcDbPlaceHolder
  3
ObjectDBX Classes
 90
        0
 91
        1
280
     0
281
     0
  0
CLASS
  1
SCALE
  2
AcDbScale
  3
ObjectDBX Classes
 90
     1153
 91
        5
280
     0
281
     0
  0
CLASS
  1
MATERIAL
  2
AcDbMaterial
  3
ObjectDBX Classes
 90
     1153
 91
        5
280
     0
281
     0
  0
CLASS
  1
VISUALSTYLE
  2
AcDbVisualStyle
  3
ObjectDBX Classes
 90
     4095
 91
        5
280
     0
281
     0
  0
CLASS
  1
TABLESTYLE
  2
AcDbTableStyle
  3
ObjectDBX Classes
 90
     4095
 91
        5
280
     0
281
     0
  0
CLASS
  1
DIMASSOC
  2
AcDbDimAssoc
  3
"AcDbDimAssoc|Product Desc:     AcDim ARX App For Dimension|Company:          Autodesk, Inc.|WEB Address:      www.autodesk.com"
 90
        0
 91
        5
280
     0
281
     0
  0
CLASS
  1
CELLSTYLEMAP
  2
AcDbCellStyleMap
  3
ObjectDBX Classes
 90
     1152
 91
        5
280
     0
281
     0
  0
CLASS
  1
SUN
  2
AcDbSun
  3
SCENEOE
 90
     1153
 91
        5
280
     0
281
     0
  0
CLASS
  1
MLEADERSTYLE
  2
AcDbMLeaderStyle
  3
ACDB_MLEADERSTYLE_CLASS
 90
     4095
 91
        5
280
     0
281
     0
  0
CLASS
  1
FIELD
  2
AcDbField
  3
ObjectDBX Classes
 90
     1152
 91
        5
280
     0
281
     0
  0
CLASS
  1
FIELDLIST
  2
AcDbFieldList
  3
ObjectDBX Classes
 90
     1152
 91
        5
280
     0
281
     0
  0
ENDSEC
  0
SECTION
  2
TABLES
  0
TABLE
  2
VPORT
  5
7
330
0
100
AcDbSymbolTable
 70
     1
  0
VPORT
  5
15
330
7
100
AcDbSymbolTableRecord
100
AcDbViewportTableRecord
  2
*ACTIVE
 70
     0
 10
0.0
 20
0.0
 11
1.0
 21
1.0
 12
296.9999999999999
 22
210.0
 13
0.0
 23
0.0
 14
1.0
 24
1.0
 15
0.0
 25
0.0
 16
0.0
 26
0.0
 36
1.0
 17
0.0
 27
0.0
 37
0.0
 40
428.4
 41
2.389057750759878
 42
50.0
 43
0.0
 44
0.0
 50
0.0
 51
0.0
 71
    16
 72
  2000
 73
     1
 74
     1
 75
     0
 76
     0
 77
     0
 78
     0
281
     0
 65
     1
110
0.0
120
0.0
130
0.0
111
1.0
121
0.0
131
0.0
112
0.0
122
1.0
132
0.0
 79
     0
146
0.0
348
26C
 60
     3
 61
     5
292
     1
282
     1
141
0.0
142
0.0
 63
   256
361
F1A
  0
ENDTAB
  0
TABLE
  2
LTYPE
  5
4
330
0
100
AcDbSymbolTable
 70
     4
  0
LTYPE
  5
11
330
4
100
AcDbSymbolTableRecord
100
AcDbLinetypeTableRecord
  2
ByBlock
 70
     0
  3

 72
    65
 73
     0
 40
0.0
  0
LTYPE
  5
12
330
4
100
AcDbSymbolTableRecord
100
AcDbLinetypeTableRecord
  2
ByLayer
 70
     0
  3
Solid line
 72
    65
 73
     0
 40
0.0
  0
LTYPE
  5
13
330
4
100
AcDbSymbolTableRecord
100
AcDbLinetypeTableRecord
  2
Continuous
 70
     0
  3
Solid line
 72
    65
 73
     0
 40
0.0
  0
LTYPE
  5
90E
330
4
100
AcDbSymbolTableRecord
100
AcDbLinetypeTableRecord
  2
DASHED1
 70
     0
  3
--  --  --  --  --  --  --  --  
 72
    65
 73
     2
 40
2.5
 49
1.25
 74
     0
 49
-1.25
 74
     0
  0
LTYPE
  5
538D
330
4
100
AcDbSymbolTableRecord
100
AcDbLinetypeTableRecord
  2
CENTER
 70
     0
  3
----------  --  ----------  --  
 72
    65
 73
     4
 40
20.0
 49
12.5
 74
     0
 49
-2.5
 74
     0
 49
2.5
 74
     0
 49
-2.5
 74
     0
  0
LTYPE
  5
538E
330
4
100
AcDbSymbolTableRecord
100
AcDbLinetypeTableRecord
  2
HIDDEN
 70
     0
  3
Hidden _ _ _ _ _ _ _ _ _ _ _ _ _ _ _ _ _ _ _ _ 
 72
    65
 73
     2
 40
9.524999999999999
 49
6.35
 74
     0
 49
-3.175
 74
     0
  0
ENDTAB
  0
TABLE
  2
LAYER
  5
2
102
{ACAD_XDICTIONARY
360
2E1
102
}
330
0
100
AcDbSymbolTable
 70
    14
  0
LAYER
  5
14
330
2
100
AcDbSymbolTableRecord
100
AcDbLayerTableRecord
  2
0
 70
     0
 62
    -7
  6
Continuous
370
    -3
390
1D
347
266
  0
LAYER
  5
4A
330
2
100
AcDbSymbolTableRecord
100
AcDbLayerTableRecord
  2
Defpoints
 70
     0
 62
    -7
  6
Continuous
290
     0
370
    -3
390
1D
347
266
  0
LAYER
  5
4D
330
2
100
AcDbSymbolTableRecord
100
AcDbLayerTableRecord
  2
MODEL
 70
     0
 62
     7
  6
Continuous
370
    20
390
1D
347
266
  0
LAYER
  5
667
330
2
100
AcDbSymbolTableRecord
100
AcDbLayerTableRecord
  2
レイヤー 1
 70
     0
 62
     7
  6
Continuous
370
    -3
390
1D
347
266
  0
LAYER
  5
13AF
330
2
100
AcDbSymbolTableRecord
100
AcDbLayerTableRecord
  2
DIM
 70
     0
 62
     7
  6
Continuous
370
    13
390
1D
347
266
1001
AcAecLayerStandard
1000

1000

  0
LAYER
  5
4598
330
2
100
AcDbSymbolTableRecord
100
AcDbLayerTableRecord
  2
_0-1_
 70
     0
 62
     7
  6
Continuous
370
    -3
390
1D
347
266
  0
LAYER
  5
5383
330
2
100
AcDbSymbolTableRecord
100
AcDbLayerTableRecord
  2
寸法
 70
     0
 62
     7
  6
Continuous
370
    13
390
1D
347
266
1001
AcAecLayerStandard
1000

1000

  0
LAYER
  5
5386
330
2
100
AcDbSymbolTableRecord
100
AcDbLayerTableRecord
  2
モデル
 70
     0
 62
     7
  6
Continuous
370
    20
390
1D
347
266
1001
AcAecLayerStandard
1000

1000

  0
LAYER
  5
5387
330
2
100
AcDbSymbolTableRecord
100
AcDbLayerTableRecord
  2
テンプレート
 70
     0
 62
     7
  6
Continuous
370
    20
390
1D
347
266
1001
AcAecLayerStandard
1000

1000

  0
LAYER
  5
5388
330
2
100
AcDbSymbolTableRecord
100
AcDbLayerTableRecord
  2
TFORMLOGO
 70
     0
 62
     7
  6
Continuous
370
    20
390
1D
347
266
  0
LAYER
  5
5389
330
2
100
AcDbSymbolTableRecord
100
AcDbLayerTableRecord
  2
PRINT BORDER
 70
     0
 62
     4
  6
Continuous
290
     0
370
    -3
390
1D
347
266
1001
AcAecLayerStandard
1000

1000

  0
LAYER
  5
538A
330
2
100
AcDbSymbolTableRecord
100
AcDbLayerTableRecord
  2
SPACER
 70
     0
 62
    -3
  6
Continuous
290
     0
370
    -3
390
1D
347
266
1001
AcAecLayerStandard
1000

1000

  0
LAYER
  5
538C
330
2
100
AcDbSymbolTableRecord
100
AcDbLayerTableRecord
  2
CutoutOverlay
 70
     0
 62
     7
  6
Continuous
370
    20
390
1D
347
266
1001
AcAecLayerStandard
1000

1000

  0
LAYER
  5
54CB
330
2
100
AcDbSymbolTableRecord
100
AcDbLayerTableRecord
  2
CutoutUnderlay
 70
     0
 62
   254
  6
Continuous
370
    20
390
1D
347
266
1001
AcAecLayerStandard
1000

1000

  0
ENDTAB
  0
TABLE
  2
STYLE
  5
3
330
0
100
AcDbSymbolTable
 70
     2
  0
STYLE
  5
17
330
3
100
AcDbSymbolTableRecord
100
AcDbTextStyleTableRecord
  2
Standard
 70
     0
 40
0.0
 41
1.0
 50
0.0
 71
     0
 42
2.5
  3
txt
  4
BIGFONT.SHX
  0
STYLE
  5
39
330
3
100
AcDbSymbolTableRecord
100
AcDbTextStyleTableRecord
  2
ＭＳ ゴシック
 70
     0
 40
0.0
 41
1.0
 50
0.0
 71
     0
 42
2.5
  3
msgothic.ttc
  4
ＭＳ ゴシック
1001
ACAD
1000
ＭＳ ゴシック
1071
        0
  0
ENDTAB
  0
TABLE
  2
VIEW
  5
5
330
0
100
AcDbSymbolTable
 70
     0
  0
ENDTAB
  0
TABLE
  2
UCS
  5
6
330
0
100
AcDbSymbolTable
 70
     0
  0
ENDTAB
  0
TABLE
  2
APPID
  5
8
330
0
100
AcDbSymbolTable
 70
     3
  0
APPID
  5
16
330
8
100
AcDbSymbolTableRecord
100
AcDbRegAppTableRecord
  2
ACAD
 70
     0
  0
APPID
  5
7AC
330
8
100
AcDbSymbolTableRecord
100
AcDbRegAppTableRecord
  2
AcAecLayerStandard
 70
     0
  0
APPID
  5
5C99
330
8
100
AcDbSymbolTableRecord
100
AcDbRegAppTableRecord
  2
ACAD_MLEADERVER
 70
     0
  0
ENDTAB
  0
TABLE
  2
DIMSTYLE
  5
9
330
0
100
AcDbSymbolTable
 70
     2
100
AcDbDimStyleTable
  0
DIMSTYLE
105
18
330
9
100
AcDbSymbolTableRecord
100
AcDbDimStyleTableRecord
  2
Standard
 70
     0
178
     0
340
17
  0
DIMSTYLE
105
57
102
{ACAD_REACTORS
330
4A6C
330
4A99
330
4AD2
330
4EF1
330
520C
330
5778
330
5779
330
577A
330
57F9
330
59F7
330
5C22
330
5C28
330
5E0B
102
}
330
9
100
AcDbSymbolTableRecord
100
AcDbDimStyleTableRecord
  2
tfrom線あり
 70
     0
  3
<>
  4
[]
 41
1.5
 42
5.0
 43
0.9999999999999999
 44
0.0
 73
     0
 74
     0
 77
     1
 78
    11
140
5.0
141
0.0
143
1.0
147
2.0
171
     1
174
     1
178
     0
179
     2
271
     0
272
     1
276
     2
284
    11
285
    11
286
    11
289
     0
340
39
341
4E
342
4E
  0
ENDTAB
  0
TABLE
  2
BLOCK_RECORD
  5
1
330
0
100
AcDbSymbolTable
 70
    51
  0
BLOCK_RECORD
  5
A
102
{ACAD_XDICTIONARY
360
5D3E
102
}
330
1
100
AcDbSymbolTableRecord
100
AcDbBlockTableRecord
  2
*MODEL_SPACE
340
20
 70
     0
280
     1
281
     0
  0
BLOCK_RECORD
  5
B
330
1
100
AcDbSymbolTableRecord
100
AcDbBlockTableRecord
  2
*PAPER_SPACE
340
21
 70
     0
280
     1
281
     0
  0
BLOCK_RECORD
  5
4E
330
1
100
AcDbSymbolTableRecord
100
AcDbBlockTableRecord
  2
_DOT
340
0
102
{BLKREFS
331
4A75
331
4A76
331
4AA2
331
4AA3
331
4ADB
331
4ADC
331
4CB4
331
4CB5
331
4EFA
331
4EFB
331
5215
331
5216
331
541F
331
5420
331
542B
331
542C
331
5438
331
5439
331
54A4
331
54A5
331
54AF
331
54B0
331
54BB
331
54BC
331
554D
331
554E
331
5557
331
5558
331
5564
331
5565
331
5571
331
5572
331
5580
331
5581
331
55DC
331
55DD
331
5611
331
5612
331
561D
331
561E
331
562A
331
562B
331
56B5
331
56B6
331
581F
331
5820
331
582B
331
582C
331
5837
331
5838
331
5843
331
5844
331
584F
331
5850
331
585B
331
585C
331
5868
331
5869
331
5873
331
5874
331
587F
331
5880
331
588B
331
588C
331
58B2
331
58B3
331
58BE
331
58BF
331
59ED
331
59EE
331
59FF
331
5A00
331
5BFC
331
5BFD
331
5C0E
331
5C0F
331
5C3A
331
5C3B
331
5C46
331
5C47
331
5E14
331
5E15
102
}
 70
     0
280
     1
281
     0
  0
BLOCK_RECORD
  5
690
330
1
100
AcDbSymbolTableRecord
100
AcDbBlockTableRecord
  2
block 3
340
0
102
{BLKREFS
331
53CF
102
}
 70
     0
280
     1
281
     0
  0
BLOCK_RECORD
  5
693
330
1
100
AcDbSymbolTableRecord
100
AcDbBlockTableRecord
  2
block 4
340
0
102
{BLKREFS
331
692
102
}
 70
     0
280
     1
281
     0
  0
BLOCK_RECORD
  5
6A2
330
1
100
AcDbSymbolTableRecord
100
AcDbBlockTableRecord
  2
block 5
340
0
102
{BLKREFS
331
6A1
102
}
 70
     0
280
     1
281
     0
  0
BLOCK_RECORD
  5
4A6F
330
1
100
AcDbSymbolTableRecord
100
AcDbBlockTableRecord
  2
*D4
340
0
 70
     0
280
     1
281
     0
  0
BLOCK_RECORD
  5
4A9C
330
1
100
AcDbSymbolTableRecord
100
AcDbBlockTableRecord
  2
*D5
340
0
 70
     0
280
     1
281
     0
  0
BLOCK_RECORD
  5
4AD5
330
1
100
AcDbSymbolTableRecord
100
AcDbBlockTableRecord
  2
*D6
340
0
 70
     0
280
     1
281
     0
  0
BLOCK_RECORD
  5
4CAE
330
1
100
AcDbSymbolTableRecord
100
AcDbBlockTableRecord
  2
*D7
340
0
 70
     0
280
     1
281
     0
  0
BLOCK_RECORD
  5
4EF4
330
1
100
AcDbSymbolTableRecord
100
AcDbBlockTableRecord
  2
*D8
340
0
 70
     0
280
     1
281
     0
  0
BLOCK_RECORD
  5
4FAF
330
1
100
AcDbSymbolTableRecord
100
AcDbBlockTableRecord
  2
-001-LW_POLYLINE_2
340
0
102
{BLKREFS
331
51B1
102
}
 70
     0
280
     1
281
     0
  0
BLOCK_RECORD
  5
4FD5
330
1
100
AcDbSymbolTableRecord
100
AcDbBlockTableRecord
  2
-002-LW_POLYLINE_3
340
0
102
{BLKREFS
331
51BF
102
}
 70
     0
280
     1
281
     0
  0
BLOCK_RECORD
  5
5061
330
1
100
AcDbSymbolTableRecord
100
AcDbBlockTableRecord
  2
-003-LW_POLYLINE_4
340
0
102
{BLKREFS
331
51C0
102
}
 70
     0
280
     1
281
     0
  0
BLOCK_RECORD
  5
5092
330
1
100
AcDbSymbolTableRecord
100
AcDbBlockTableRecord
  2
-000-LW_POLYLINE_1
340
0
102
{BLKREFS
331
51DB
102
}
 70
     0
280
     1
281
     0
  0
BLOCK_RECORD
  5
520F
330
1
100
AcDbSymbolTableRecord
100
AcDbBlockTableRecord
  2
*D13
340
0
 70
     0
280
     1
281
     0
  0
BLOCK_RECORD
  5
53CA
330
1
100
AcDbSymbolTableRecord
100
AcDbBlockTableRecord
  2
名称未設定-1
340
0
102
{BLKREFS
331
56E6
102
}
 70
     1
280
     1
281
     0
  0
BLOCK_RECORD
  5
53CD
330
1
100
AcDbSymbolTableRecord
100
AcDbBlockTableRecord
  2
block 2
340
0
102
{BLKREFS
331
53CC
102
}
 70
     0
280
     1
281
     0
  0
BLOCK_RECORD
  5
5419
330
1
100
AcDbSymbolTableRecord
100
AcDbBlockTableRecord
  2
*D16
340
0
 70
     0
280
     1
281
     0
  0
BLOCK_RECORD
  5
5426
330
1
100
AcDbSymbolTableRecord
100
AcDbBlockTableRecord
  2
*D17
340
0
 70
     0
280
     1
281
     0
  0
BLOCK_RECORD
  5
5433
330
1
100
AcDbSymbolTableRecord
100
AcDbBlockTableRecord
  2
*D18
340
0
 70
     0
280
     1
281
     0
  0
BLOCK_RECORD
  5
549D
330
1
100
AcDbSymbolTableRecord
100
AcDbBlockTableRecord
  2
*D19
340
0
 70
     0
280
     1
281
     0
  0
BLOCK_RECORD
  5
54A9
330
1
100
AcDbSymbolTableRecord
100
AcDbBlockTableRecord
  2
*D20
340
0
 70
     0
280
     1
281
     0
  0
BLOCK_RECORD
  5
54B5
330
1
100
AcDbSymbolTableRecord
100
AcDbBlockTableRecord
  2
*D21
340
0
 70
     0
280
     1
281
     0
  0
BLOCK_RECORD
  5
5546
330
1
100
AcDbSymbolTableRecord
100
AcDbBlockTableRecord
  2
*D22
340
0
 70
     0
280
     1
281
     0
  0
BLOCK_RECORD
  5
5552
330
1
100
AcDbSymbolTableRecord
100
AcDbBlockTableRecord
  2
*D23
340
0
 70
     0
280
     1
281
     0
  0
BLOCK_RECORD
  5
555F
330
1
100
AcDbSymbolTableRecord
100
AcDbBlockTableRecord
  2
*D24
340
0
 70
     0
280
     1
281
     0
  0
BLOCK_RECORD
  5
556C
330
1
100
AcDbSymbolTableRecord
100
AcDbBlockTableRecord
  2
*D25
340
0
 70
     0
280
     1
281
     0
  0
BLOCK_RECORD
  5
557B
330
1
100
AcDbSymbolTableRecord
100
AcDbBlockTableRecord
  2
*D26
340
0
 70
     0
280
     1
281
     0
  0
BLOCK_RECORD
  5
55D7
330
1
100
AcDbSymbolTableRecord
100
AcDbBlockTableRecord
  2
*D27
340
0
 70
     0
280
     1
281
     0
  0
BLOCK_RECORD
  5
560B
330
1
100
AcDbSymbolTableRecord
100
AcDbBlockTableRecord
  2
*D28
340
0
 70
     0
280
     1
281
     0
  0
BLOCK_RECORD
  5
5618
330
1
100
AcDbSymbolTableRecord
100
AcDbBlockTableRecord
  2
*D29
340
0
 70
     0
280
     1
281
     0
  0
BLOCK_RECORD
  5
5625
330
1
100
AcDbSymbolTableRecord
100
AcDbBlockTableRecord
  2
*D30
340
0
 70
     0
280
     1
281
     0
  0
BLOCK_RECORD
  5
56B0
330
1
100
AcDbSymbolTableRecord
100
AcDbBlockTableRecord
  2
*D31
340
0
 70
     0
280
     1
281
     0
  0
BLOCK_RECORD
  5
5817
330
1
100
AcDbSymbolTableRecord
100
AcDbBlockTableRecord
  2
*D32
340
0
 70
     0
280
     1
281
     0
  0
BLOCK_RECORD
  5
5825
330
1
100
AcDbSymbolTableRecord
100
AcDbBlockTableRecord
  2
*D33
340
0
 70
     0
280
     1
281
     0
  0
BLOCK_RECORD
  5
5831
330
1
100
AcDbSymbolTableRecord
100
AcDbBlockTableRecord
  2
*D34
340
0
 70
     0
280
     1
281
     0
  0
BLOCK_RECORD
  5
583D
330
1
100
AcDbSymbolTableRecord
100
AcDbBlockTableRecord
  2
*D35
340
0
 70
     0
280
     1
281
     0
  0
BLOCK_RECORD
  5
5849
330
1
100
AcDbSymbolTableRecord
100
AcDbBlockTableRecord
  2
*D36
340
0
 70
     0
280
     1
281
     0
  0
BLOCK_RECORD
  5
5855
330
1
100
AcDbSymbolTableRecord
100
AcDbBlockTableRecord
  2
*D37
340
0
 70
     0
280
     1
281
     0
  0
BLOCK_RECORD
  5
5861
330
1
100
AcDbSymbolTableRecord
100
AcDbBlockTableRecord
  2
*D38
340
0
 70
     0
280
     1
281
     0
  0
BLOCK_RECORD
  5
586D
330
1
100
AcDbSymbolTableRecord
100
AcDbBlockTableRecord
  2
*D39
340
0
 70
     0
280
     1
281
     0
  0
BLOCK_RECORD
  5
5879
330
1
100
AcDbSymbolTableRecord
100
AcDbBlockTableRecord
  2
*D40
340
0
 70
     0
280
     1
281
     0
  0
BLOCK_RECORD
  5
5885
330
1
100
AcDbSymbolTableRecord
100
AcDbBlockTableRecord
  2
*D41
340
0
 70
     0
280
     1
281
     0
  0
BLOCK_RECORD
  5
58AC
330
1
100
AcDbSymbolTableRecord
100
AcDbBlockTableRecord
  2
*D42
340
0
 70
     0
280
     1
281
     0
  0
BLOCK_RECORD
  5
58B8
330
1
100
AcDbSymbolTableRecord
100
AcDbBlockTableRecord
  2
*D43
340
0
 70
     0
280
     1
281
     0
  0
BLOCK_RECORD
  5
59E7
330
1
100
AcDbSymbolTableRecord
100
AcDbBlockTableRecord
  2
*D44
340
0
 70
     0
280
     1
281
     0
  0
BLOCK_RECORD
  5
59F8
330
1
100
AcDbSymbolTableRecord
100
AcDbBlockTableRecord
  2
*D45
340
0
 70
     0
280
     1
281
     0
  0
BLOCK_RECORD
  5
5BF7
330
1
100
AcDbSymbolTableRecord
100
AcDbBlockTableRecord
  2
*D46
340
0
 70
     0
280
     1
281
     0
  0
BLOCK_RECORD
  5
5C09
330
1
100
AcDbSymbolTableRecord
100
AcDbBlockTableRecord
  2
*D47
340
0
 70
     0
280
     1
281
     0
  0
BLOCK_RECORD
  5
5C34
330
1
100
AcDbSymbolTableRecord
100
AcDbBlockTableRecord
  2
*D48
340
0
 70
     0
280
     1
281
     0
  0
BLOCK_RECORD
  5
5C40
330
1
100
AcDbSymbolTableRecord
100
AcDbBlockTableRecord
  2
*D49
340
0
 70
     0
280
     1
281
     0
  0
BLOCK_RECORD
  5
5E0E
330
1
100
AcDbSymbolTableRecord
100
AcDbBlockTableRecord
  2
*D50
340
0
 70
     0
280
     1
281
     0
  0
ENDTAB
  0
ENDSEC
  0
SECTION
  2
BLOCKS
  0
BLOCK
  5
D
330
A
100
AcDbEntity
  8
0
390
1D
100
AcDbBlockBegin
  2
*MODEL_SPACE
 70
     0
 10
0.0
 20
0.0
 30
0.0
  3
*MODEL_SPACE
  1
*MODEL_SPACE
  0
ENDBLK
  5
E
330
A
100
AcDbEntity
  8
0
390
1D
100
AcDbBlockEnd
  0
BLOCK
  5
F
330
B
100
AcDbEntity
 67
     1
  8
0
390
1D
100
AcDbBlockBegin
  2
*PAPER_SPACE
 70
     0
 10
0.0
 20
0.0
 30
0.0
  3
*PAPER_SPACE
  1
*PAPER_SPACE
  0
ENDBLK
  5
10
330
B
100
AcDbEntity
 67
     1
  8
0
390
1D
100
AcDbBlockEnd
  0
BLOCK
  5
580E
330
4E
100
AcDbEntity
  8
0
390
1D
100
AcDbBlockBegin
  2
_DOT
 70
     0
 10
0.0
 20
0.0
 30
0.0
  3
_DOT
  1
_DOT
  0
POLYLINE
  5
5810
330
4E
100
AcDbEntity
  8
0
  6
ByBlock
 62
     0
370
    -2
390
1D
100
AcDb2dPolyline
 66
     1
 10
0.0
 20
0.0
 30
0.0
 70
     1
 40
0.5
 41
0.5
  0
VERTEX
  5
5811
330
5810
100
AcDbEntity
  8
0
  6
ByBlock
 62
     0
370
    -2
390
1D
100
AcDbVertex
100
AcDb2dVertex
 10
-0.25
 20
0.0
 30
0.0
 42
1.0
  0
VERTEX
  5
5812
330
5810
100
AcDbEntity
  8
0
  6
ByBlock
 62
     0
370
    -2
390
1D
100
AcDbVertex
100
AcDb2dVertex
 10
0.25
 20
0.0
 30
0.0
 42
1.0
  0
SEQEND
  5
5813
330
5810
100
AcDbEntity
  8
0
390
1D
  0
LINE
  5
5814
330
4E
100
AcDbEntity
  8
0
  6
ByBlock
 62
     0
370
    -2
390
1D
100
AcDbLine
 10
-0.5
 20
0.0
 30
0.0
 11
-1.0
 21
0.0
 31
0.0
  0
ENDBLK
  5
5815
330
4E
100
AcDbEntity
  8
0
390
1D
100
AcDbBlockEnd
  0
BLOCK
  5
691
330
690
100
AcDbEntity
  8
0
100
AcDbBlockBegin
  2
block 3
 70
     0
 10
0.0
 20
0.0
 30
0.0
  3
block 3
  1
block 3
  0
INSERT
  5
692
330
690
100
AcDbEntity
  8
レイヤー 1
100
AcDbBlockReference
  2
block 4
 10
0.0
 20
0.0
 30
0.0
  0
ENDBLK
  5
6AF
330
690
100
AcDbEntity
  8
0
100
AcDbBlockEnd
  0
BLOCK
  5
694
330
693
100
AcDbEntity
  8
0
100
AcDbBlockBegin
  2
block 4
 70
     0
 10
0.0
 20
0.0
 30
0.0
  3
block 4
  1
block 4
  0
POLYLINE
  5
695
330
693
100
AcDbEntity
  8
レイヤー 1
370
     0
100
AcDb2dPolyline
 66
     1
 10
0.0
 20
0.0
 30
0.0
  0
VERTEX
  5
696
330
695
100
AcDbEntity
  8
レイヤー 1
370
     0
100
AcDbVertex
100
AcDb2dVertex
 10
83.79545727667795
 20
167.6444858234922
 30
0.0
  0
VERTEX
  5
697
330
695
100
AcDbEntity
  8
レイヤー 1
370
     0
100
AcDbVertex
100
AcDb2dVertex
 10
83.79545727667795
 20
159.7968976406313
 30
0.0
  0
VERTEX
  5
698
330
695
100
AcDbEntity
  8
レイヤー 1
370
     0
100
AcDbVertex
100
AcDb2dVertex
 10
71.3631329975216
 20
159.7968976406313
 30
0.0
  0
VERTEX
  5
699
330
695
100
AcDbEntity
  8
レイヤー 1
370
     0
100
AcDbVertex
100
AcDb2dVertex
 10
71.3631329975216
 20
127.8027915271048
 30
0.0
  0
VERTEX
  5
69A
330
695
100
AcDbEntity
  8
レイヤー 1
370
     0
100
AcDbVertex
100
AcDb2dVertex
 10
60.43011526263018
 20
127.8027915271048
 30
0.0
  0
VERTEX
  5
69B
330
695
100
AcDbEntity
  8
レイヤー 1
370
     0
100
AcDbVertex
100
AcDb2dVertex
 10
60.43011526263018
 20
159.7968976406313
 30
0.0
  0
VERTEX
  5
69C
330
695
100
AcDbEntity
  8
レイヤー 1
370
     0
100
AcDbVertex
100
AcDb2dVertex
 10
48.21793273020759
 20
159.7968976406313
 30
0.0
  0
VERTEX
  5
69D
330
695
100
AcDbEntity
  8
レイヤー 1
370
     0
100
AcDbVertex
100
AcDb2dVertex
 10
48.21793273020759
 20
167.6444858234922
 30
0.0
  0
VERTEX
  5
69E
330
695
100
AcDbEntity
  8
レイヤー 1
370
     0
100
AcDbVertex
100
AcDb2dVertex
 10
83.79545727667795
 20
167.6444858234922
 30
0.0
  0
SEQEND
  5
69F
330
695
100
AcDbEntity
  8
レイヤー 1
370
     0
  0
HATCH
  5
6A0
330
693
100
AcDbEntity
  8
レイヤー 1
 62
   250
420
  2234388
100
AcDbHatch
 10
0.0
 20
0.0
 30
0.0
210
0.0
220
0.0
230
1.0
  2
SOLID
 70
     1
 71
     0
 91
        1
 92
        1
 93
        8
 72
     1
 10
83.79545727667795
 20
167.6444858234922
 11
83.79545727667795
 21
159.7968976406313
 72
     1
 10
83.79545727667795
 20
159.7968976406313
 11
71.3631329975216
 21
159.7968976406313
 72
     1
 10
71.3631329975216
 20
159.7968976406313
 11
71.3631329975216
 21
127.8027915271048
 72
     1
 10
71.3631329975216
 20
127.8027915271048
 11
60.43011526263018
 21
127.8027915271048
 72
     1
 10
60.43011526263018
 20
127.8027915271048
 11
60.43011526263018
 21
159.7968976406313
 72
     1
 10
60.43011526263018
 20
159.7968976406313
 11
48.21793273020759
 21
159.7968976406313
 72
     1
 10
48.21793273020759
 20
159.7968976406313
 11
48.21793273020759
 21
167.6444858234922
 72
     1
 10
48.21793273020759
 20
167.6444858234922
 11
83.79545727667795
 21
167.6444858234922
 97
        0
 75
     2
 76
     1
 98
        0
  0
INSERT
  5
6A1
330
693
100
AcDbEntity
  8
レイヤー 1
100
AcDbBlockReference
  2
block 5
 10
0.0
 20
0.0
 30
0.0
  0
ENDBLK
  5
6AE
330
693
100
AcDbEntity
  8
0
100
AcDbBlockEnd
  0
BLOCK
  5
6A3
330
6A2
100
AcDbEntity
  8
0
100
AcDbBlockBegin
  2
block 5
 70
     0
 10
0.0
 20
0.0
 30
0.0
  3
block 5
  1
block 5
  0
SPLINE
  5
6A4
330
6A2
100
AcDbEntity
  8
レイヤー 1
370
     0
100
AcDbSpline
210
0.0
220
0.0
230
1.0
 70
    11
 71
     3
 72
    56
 73
    52
 74
     0
 42
0.000000001
 43
0.0000000001
 40
0.0
 40
0.0
 40
0.0
 40
0.0
 40
1.0
 40
1.0
 40
1.0
 40
2.0
 40
2.0
 40
2.0
 40
3.0
 40
3.0
 40
3.0
 40
4.0
 40
4.0
 40
4.0
 40
5.0
 40
5.0
 40
5.0
 40
6.0
 40
6.0
 40
6.0
 40
7.0
 40
7.0
 40
7.0
 40
8.0
 40
8.0
 40
8.0
 40
9.0
 40
9.0
 40
9.0
 40
10.0
 40
10.0
 40
10.0
 40
11.0
 40
11.0
 40
11.0
 40
12.0
 40
12.0
 40
12.0
 40
13.0
 40
13.0
 40
13.0
 40
14.0
 40
14.0
 40
14.0
 40
15.0
 40
15.0
 40
15.0
 40
16.0
 40
16.0
 40
16.0
 40
17.0
 40
17.0
 40
17.0
 40
17.0
 10
100.4504378777679
 20
166.69157178364
 30
0.0
 10
101.9848844191641
 20
167.1313385124438
 30
0.0
 10
103.9637485713373
 20
166.7649523658846
 30
0.0
 10
103.9637485713373
 20
166.7649523658846
 30
0.0
 10
103.9637485713373
 20
166.7649523658846
 30
0.0
 10
103.0132460999156
 20
163.911205638077
 30
0.0
 10
103.0132460999156
 20
163.911205638077
 30
0.0
 10
103.0132460999156
 20
163.911205638077
 30
0.0
 10
101.0674548862189
 20
164.3601018759394
 30
0.0
 10
99.57090442016032
 20
163.1805004036133
 30
0.0
 10
98.40508333886608
 20
162.258247733807
 30
0.0
 10
97.65301849830304
 20
159.804132345923
 30
0.0
 10
97.3598406791005
 20
158.8699940888517
 30
0.0
 10
97.3598406791005
 20
158.8699940888517
 30
0.0
 10
96.07137411762282
 20
154.9119212747295
 30
0.0
 10
96.07137411762282
 20
154.9119212747295
 30
0.0
 10
96.07137411762282
 20
154.9119212747295
 30
0.0
 10
100.3012651448482
 20
154.9119212747295
 30
0.0
 10
100.3012651448482
 20
154.9119212747295
 30
0.0
 10
100.3012651448482
 20
154.9119212747295
 30
0.0
 10
99.64152892419852
 20
152.4199098115079
 30
0.0
 10
99.64152892419852
 20
152.4199098115079
 30
0.0
 10
99.64152892419852
 20
152.4199098115079
 30
0.0
 10
95.38097652692731
 20
152.4199098115079
 30
0.0
 10
95.38097652692731
 20
152.4199098115079
 30
0.0
 10
95.38097652692731
 20
152.4199098115079
 30
0.0
 10
87.75353009080013
 20
127.8027915271048
 30
0.0
 10
87.75353009080013
 20
127.8027915271048
 30
0.0
 10
87.75353009080013
 20
127.8027915271048
 30
0.0
 10
85.36538832498108
 20
127.8027915271048
 30
0.0
 10
85.36538832498108
 20
127.8027915271048
 30
0.0
 10
85.36538832498108
 20
127.8027915271048
 30
0.0
 10
93.00006946639998
 20
152.4199098115079
 30
0.0
 10
93.00006946639998
 20
152.4199098115079
 30
0.0
 10
93.00006946639998
 20
152.4199098115079
 30
0.0
 10
89.85297266450198
 20
152.4199098115079
 30
0.0
 10
89.85297266450198
 20
152.4199098115079
 30
0.0
 10
89.85297266450198
 20
152.4199098115079
 30
0.0
 10
90.51270888515164
 20
154.9119212747295
 30
0.0
 10
90.51270888515164
 20
154.9119212747295
 30
0.0
 10
90.51270888515164
 20
154.9119212747295
 30
0.0
 10
93.6904670570955
 20
154.9119212747295
 30
0.0
 10
93.6904670570955
 20
154.9119212747295
 30
0.0
 10
93.6904670570955
 20
154.9119212747295
 30
0.0
 10
94.81598049462158
 20
158.3616699146644
 30
0.0
 10
94.81598049462158
 20
158.3616699146644
 30
0.0
 10
95.7237637538445
 20
161.2605474231013
 30
0.0
 10
96.4968436907311
 20
162.8139420021662
 30
0.0
 10
97.15657991138076
 20
163.9844139654337
 30
0.0
 10
97.81183750494507
 20
165.1523021053827
 30
0.0
 10
99.1047826935081
 20
166.3084769129547
 30
0.0
 10
100.4504378777679
 20
166.69157178364
 30
0.0
  0
HATCH
  5
6A5
330
6A2
100
AcDbEntity
  8
レイヤー 1
 62
   250
420
  2234388
100
AcDbHatch
 10
0.0
 20
0.0
 30
0.0
210
0.0
220
0.0
230
1.0
  2
SOLID
 70
     1
 71
     0
 91
        1
 92
        1
 93
        1
 72
     4
 94
        3
 73
     0
 74
     1
 95
       56
 96
       52
 40
0.0
 40
0.0
 40
0.0
 40
0.0
 40
1.0
 40
1.0
 40
1.0
 40
2.0
 40
2.0
 40
2.0
 40
3.0
 40
3.0
 40
3.0
 40
4.0
 40
4.0
 40
4.0
 40
5.0
 40
5.0
 40
5.0
 40
6.0
 40
6.0
 40
6.0
 40
7.0
 40
7.0
 40
7.0
 40
8.0
 40
8.0
 40
8.0
 40
9.0
 40
9.0
 40
9.0
 40
10.0
 40
10.0
 40
10.0
 40
11.0
 40
11.0
 40
11.0
 40
12.0
 40
12.0
 40
12.0
 40
13.0
 40
13.0
 40
13.0
 40
14.0
 40
14.0
 40
14.0
 40
15.0
 40
15.0
 40
15.0
 40
16.0
 40
16.0
 40
16.0
 40
17.0
 40
17.0
 40
17.0
 40
17.0
 10
100.4504378777679
 20
166.69157178364
 10
101.9848844191641
 20
167.1313385124438
 10
103.9637485713373
 20
166.7649523658846
 10
103.9637485713373
 20
166.7649523658846
 10
103.9637485713373
 20
166.7649523658846
 10
103.0132460999156
 20
163.911205638077
 10
103.0132460999156
 20
163.911205638077
 10
103.0132460999156
 20
163.911205638077
 10
101.0674548862189
 20
164.3601018759394
 10
99.57090442016032
 20
163.1805004036133
 10
98.40508333886608
 20
162.258247733807
 10
97.65301849830304
 20
159.804132345923
 10
97.3598406791005
 20
158.8699940888517
 10
97.3598406791005
 20
158.8699940888517
 10
96.07137411762282
 20
154.9119212747295
 10
96.07137411762282
 20
154.9119212747295
 10
96.07137411762282
 20
154.9119212747295
 10
100.3012651448482
 20
154.9119212747295
 10
100.3012651448482
 20
154.9119212747295
 10
100.3012651448482
 20
154.9119212747295
 10
99.64152892419852
 20
152.4199098115079
 10
99.64152892419852
 20
152.4199098115079
 10
99.64152892419852
 20
152.4199098115079
 10
95.38097652692731
 20
152.4199098115079
 10
95.38097652692731
 20
152.4199098115079
 10
95.38097652692731
 20
152.4199098115079
 10
87.75353009080013
 20
127.8027915271048
 10
87.75353009080013
 20
127.8027915271048
 10
87.75353009080013
 20
127.8027915271048
 10
85.36538832498108
 20
127.8027915271048
 10
85.36538832498108
 20
127.8027915271048
 10
85.36538832498108
 20
127.8027915271048
 10
93.00006946639998
 20
152.4199098115079
 10
93.00006946639998
 20
152.4199098115079
 10
93.00006946639998
 20
152.4199098115079
 10
89.85297266450198
 20
152.4199098115079
 10
89.85297266450198
 20
152.4199098115079
 10
89.85297266450198
 20
152.4199098115079
 10
90.51270888515164
 20
154.9119212747295
 10
90.51270888515164
 20
154.9119212747295
 10
90.51270888515164
 20
154.9119212747295
 10
93.6904670570955
 20
154.9119212747295
 10
93.6904670570955
 20
154.9119212747295
 10
93.6904670570955
 20
154.9119212747295
 10
94.81598049462158
 20
158.3616699146644
 10
94.81598049462158
 20
158.3616699146644
 10
95.7237637538445
 20
161.2605474231013
 10
96.4968436907311
 20
162.8139420021662
 10
97.15657991138076
 20
163.9844139654337
 10
97.81183750494507
 20
165.1523021053827
 10
99.1047826935081
 20
166.3084769129547
 10
100.4504378777679
 20
166.69157178364
 97
        0
 75
     2
 76
     1
 98
        0
  0
SPLINE
  5
6A6
330
6A2
100
AcDbEntity
  8
レイヤー 1
370
     0
100
AcDbSpline
210
0.0
220
0.0
230
1.0
 70
    11
 71
     3
 72
    38
 73
    34
 74
     0
 42
0.000000001
 43
0.0000000001
 40
0.0
 40
0.0
 40
0.0
 40
0.0
 40
1.0
 40
1.0
 40
1.0
 40
2.0
 40
2.0
 40
2.0
 40
3.0
 40
3.0
 40
3.0
 40
4.0
 40
4.0
 40
4.0
 40
5.0
 40
5.0
 40
5.0
 40
6.0
 40
6.0
 40
6.0
 40
7.0
 40
7.0
 40
7.0
 40
8.0
 40
8.0
 40
8.0
 40
9.0
 40
9.0
 40
9.0
 40
10.0
 40
10.0
 40
10.0
 40
11.0
 40
11.0
 40
11.0
 40
11.0
 10
126.377554584636
 20
154.8151140277308
 30
0.0
 10
126.377554584636
 20
154.8151140277308
 30
0.0
 10
128.8311532078563
 20
154.8151140277308
 30
0.0
 10
128.8311532078563
 20
154.8151140277308
 30
0.0
 10
128.8311532078563
 20
154.8151140277308
 30
0.0
 10
127.7345785914971
 20
151.3062819612468
 30
0.0
 10
127.7345785914971
 20
151.3062819612468
 30
0.0
 10
128.571392836906
 20
152.2922689395754
 30
0.0
 10
129.8860421413442
 20
153.604506675583
 30
0.0
 10
131.0163787157314
 20
154.2664822097754
 30
0.0
 10
132.7044766171327
 20
155.2500576196734
 30
0.0
 10
133.6642808525008
 20
155.3847609420097
 30
0.0
 10
134.7284715499351
 20
155.3565111403944
 30
0.0
 10
134.7284715499351
 20
155.3565111403944
 30
0.0
 10
133.6877075172549
 20
152.0345756272799
 30
0.0
 10
133.6877075172549
 20
152.0345756272799
 30
0.0
 10
133.011434827367
 20
152.3184516825359
 30
0.0
 10
130.930940291334
 20
151.7768823149844
 30
0.0
 10
129.739280976855
 20
150.9162968950455
 30
0.0
 10
128.66613302525
 20
150.1454562717016
 30
0.0
 10
127.9192358313239
 20
149.4857200510519
 30
0.0
 10
127.0393578639405
 20
147.8282835196966
 30
0.0
 10
126.164647543194
 20
146.1699857139017
 30
0.0
 10
125.4742499524985
 20
143.5262176944419
 30
0.0
 10
124.2822461282437
 20
139.6959580071401
 30
0.0
 10
124.2822461282437
 20
139.6959580071401
 30
0.0
 10
120.5753209406769
 20
127.8027915271048
 30
0.0
 10
120.5753209406769
 20
127.8027915271048
 30
0.0
 10
120.5753209406769
 20
127.8027915271048
 30
0.0
 10
118.1964809388044
 20
127.8027915271048
 30
0.0
 10
118.1964809388044
 20
127.8027915271048
 30
0.0
 10
118.1964809388044
 20
127.8027915271048
 30
0.0
 10
126.377554584636
 20
154.8151140277308
 30
0.0
 10
126.377554584636
 20
154.8151140277308
 30
0.0
  0
HATCH
  5
6A7
330
6A2
100
AcDbEntity
  8
レイヤー 1
 62
   250
420
  2234388
100
AcDbHatch
 10
0.0
 20
0.0
 30
0.0
210
0.0
220
0.0
230
1.0
  2
SOLID
 70
     1
 71
     0
 91
        1
 92
        1
 93
        1
 72
     4
 94
        3
 73
     0
 74
     1
 95
       38
 96
       34
 40
0.0
 40
0.0
 40
0.0
 40
0.0
 40
1.0
 40
1.0
 40
1.0
 40
2.0
 40
2.0
 40
2.0
 40
3.0
 40
3.0
 40
3.0
 40
4.0
 40
4.0
 40
4.0
 40
5.0
 40
5.0
 40
5.0
 40
6.0
 40
6.0
 40
6.0
 40
7.0
 40
7.0
 40
7.0
 40
8.0
 40
8.0
 40
8.0
 40
9.0
 40
9.0
 40
9.0
 40
10.0
 40
10.0
 40
10.0
 40
11.0
 40
11.0
 40
11.0
 40
11.0
 10
126.377554584636
 20
154.8151140277308
 10
126.377554584636
 20
154.8151140277308
 10
128.8311532078563
 20
154.8151140277308
 10
128.8311532078563
 20
154.8151140277308
 10
128.8311532078563
 20
154.8151140277308
 10
127.7345785914971
 20
151.3062819612468
 10
127.7345785914971
 20
151.3062819612468
 10
128.571392836906
 20
152.2922689395754
 10
129.8860421413442
 20
153.604506675583
 10
131.0163787157314
 20
154.2664822097754
 10
132.7044766171327
 20
155.2500576196734
 10
133.6642808525008
 20
155.3847609420097
 10
134.7284715499351
 20
155.3565111403944
 10
134.7284715499351
 20
155.3565111403944
 10
133.6877075172549
 20
152.0345756272799
 10
133.6877075172549
 20
152.0345756272799
 10
133.011434827367
 20
152.3184516825359
 10
130.930940291334
 20
151.7768823149844
 10
129.739280976855
 20
150.9162968950455
 10
128.66613302525
 20
150.1454562717016
 10
127.9192358313239
 20
149.4857200510519
 10
127.0393578639405
 20
147.8282835196966
 10
126.164647543194
 20
146.1699857139017
 10
125.4742499524985
 20
143.5262176944419
 10
124.2822461282437
 20
139.6959580071401
 10
124.2822461282437
 20
139.6959580071401
 10
120.5753209406769
 20
127.8027915271048
 10
120.5753209406769
 20
127.8027915271048
 10
120.5753209406769
 20
127.8027915271048
 10
118.1964809388044
 20
127.8027915271048
 10
118.1964809388044
 20
127.8027915271048
 10
118.1964809388044
 20
127.8027915271048
 10
126.377554584636
 20
154.8151140277308
 10
126.377554584636
 20
154.8151140277308
 97
        0
 75
     2
 76
     1
 98
        0
  0
SPLINE
  5
6A8
330
6A2
100
AcDbEntity
  8
レイヤー 1
370
     0
100
AcDbSpline
210
0.0
220
0.0
230
1.0
 70
    11
 71
     3
 72
   104
 73
   100
 74
     0
 42
0.000000001
 43
0.0000000001
 40
0.0
 40
0.0
 40
0.0
 40
0.0
 40
1.0
 40
1.0
 40
1.0
 40
2.0
 40
2.0
 40
2.0
 40
3.0
 40
3.0
 40
3.0
 40
4.0
 40
4.0
 40
4.0
 40
5.0
 40
5.0
 40
5.0
 40
6.0
 40
6.0
 40
6.0
 40
7.0
 40
7.0
 40
7.0
 40
8.0
 40
8.0
 40
8.0
 40
9.0
 40
9.0
 40
9.0
 40
10.0
 40
10.0
 40
10.0
 40
11.0
 40
11.0
 40
11.0
 40
12.0
 40
12.0
 40
12.0
 40
13.0
 40
13.0
 40
13.0
 40
14.0
 40
14.0
 40
14.0
 40
15.0
 40
15.0
 40
15.0
 40
16.0
 40
16.0
 40
16.0
 40
17.0
 40
17.0
 40
17.0
 40
18.0
 40
18.0
 40
18.0
 40
19.0
 40
19.0
 40
19.0
 40
20.0
 40
20.0
 40
20.0
 40
21.0
 40
21.0
 40
21.0
 40
22.0
 40
22.0
 40
22.0
 40
23.0
 40
23.0
 40
23.0
 40
24.0
 40
24.0
 40
24.0
 40
25.0
 40
25.0
 40
25.0
 40
26.0
 40
26.0
 40
26.0
 40
27.0
 40
27.0
 40
27.0
 40
28.0
 40
28.0
 40
28.0
 40
29.0
 40
29.0
 40
29.0
 40
30.0
 40
30.0
 40
30.0
 40
31.0
 40
31.0
 40
31.0
 40
32.0
 40
32.0
 40
32.0
 40
33.0
 40
33.0
 40
33.0
 40
33.0
 10
139.8926730891197
 20
154.8294111834263
 30
0.0
 10
139.8926730891197
 20
154.8294111834263
 30
0.0
 10
142.0344903652445
 20
154.8294111834263
 30
0.0
 10
142.0344903652445
 20
154.8294111834263
 30
0.0
 10
142.0344903652445
 20
154.8294111834263
 30
0.0
 10
140.9516961399171
 20
151.3157559800812
 30
0.0
 10
140.9516961399171
 20
151.3157559800812
 30
0.0
 10
141.8928968473923
 20
152.7887075264977
 30
0.0
 10
142.7341897198865
 20
153.4484437471474
 30
0.0
 10
143.8552245303272
 20
154.2926649527359
 30
0.0
 10
144.9803934580775
 20
155.1296514530327
 30
0.0
 10
146.3139908001845
 20
155.3044901642492
 30
0.0
 10
147.241066606852
 20
155.3044901642492
 30
0.0
 10
148.3855280820469
 20
155.3044901642492
 30
0.0
 10
149.4969166187653
 20
155.0752189084569
 30
0.0
 10
150.0784491203092
 20
153.8172414621372
 30
0.0
 10
150.5228667310863
 20
152.833838307127
 30
0.0
 10
150.5414702589793
 20
152.7201500811143
 30
0.0
 10
150.4140016419347
 20
150.7765981809602
 30
0.0
 10
151.5818897818837
 20
152.7699317437168
 30
0.0
 10
152.4424752018226
 20
153.6256940267945
 30
0.0
 10
153.9038856707499
 20
154.4507949398263
 30
0.0
 10
155.4455669174378
 20
155.3044901642492
 30
0.0
 10
156.339225275853
 20
155.3659851592288
 30
0.0
 10
157.3748216618963
 20
155.2147453676543
 30
0.0
 10
158.911679771723
 20
154.9877134254046
 30
0.0
 10
159.8859534176746
 20
154.4390816074493
 30
0.0
 10
160.3965169054045
 20
152.7816450760939
 30
0.0
 10
160.9070803931344
 20
151.1219692311958
 30
0.0
 10
160.6328506116007
 20
150.2303779314354
 30
0.0
 10
159.9992971339115
 20
147.597634224801
 30
0.0
 10
159.7105979417943
 20
146.4014962832367
 30
0.0
 10
159.2947746424084
 20
144.9400858143094
 30
0.0
 10
158.7463150793409
 20
143.2092687007094
 30
0.0
 10
158.7463150793409
 20
143.2092687007094
 30
0.0
 10
153.9038856707499
 20
127.8027915271048
 30
0.0
 10
153.9038856707499
 20
127.8027915271048
 30
0.0
 10
153.9038856707499
 20
127.8027915271048
 30
0.0
 10
151.3882752878863
 20
127.8027915271048
 30
0.0
 10
151.3882752878863
 20
127.8027915271048
 30
0.0
 10
151.3882752878863
 20
127.8027915271048
 30
0.0
 10
155.6250565106276
 20
141.2751908193897
 30
0.0
 10
155.6250565106276
 20
141.2751908193897
 30
0.0
 10
156.5094131050963
 20
144.0936252951782
 30
0.0
 10
157.109893644309
 20
146.1506931664571
 30
0.0
 10
157.4220195011804
 20
147.4415712963654
 30
0.0
 10
157.8095929989511
 20
149.0530157726519
 30
0.0
 10
157.9656559273867
 20
149.5826995529385
 30
0.0
 10
157.7816877071116
 20
150.7529992613181
 30
0.0
 10
157.6111553680925
 20
151.8430281919372
 30
0.0
 10
157.0582171779396
 20
152.5547853887321
 30
0.0
 10
156.1170164704645
 20
152.5547853887321
 30
0.0
 10
155.1096698860365
 20
152.5547853887321
 30
0.0
 10
154.2962823053817
 20
152.4412694176073
 30
0.0
 10
153.156643967048
 20
151.2945686288697
 30
0.0
 10
152.0170056287143
 20
150.1476955852443
 30
0.0
 10
151.076149431015
 20
148.7930831468137
 30
0.0
 10
150.3337308641742
 20
147.2290087646991
 30
0.0
 10
149.5957909244188
 20
145.6683794803425
 30
0.0
 10
148.8530278478023
 20
143.6822806228776
 30
0.0
 10
148.0964843801539
 20
141.2751908193897
 30
0.0
 10
148.0964843801539
 20
141.2751908193897
 30
0.0
 10
143.8552245303272
 20
127.8027915271048
 30
0.0
 10
143.8552245303272
 20
127.8027915271048
 30
0.0
 10
143.8552245303272
 20
127.8027915271048
 30
0.0
 10
141.486030802177
 20
127.8027915271048
 30
0.0
 10
141.486030802177
 20
127.8027915271048
 30
0.0
 10
141.486030802177
 20
127.8027915271048
 30
0.0
 10
146.3329388378533
 20
143.2092687007094
 30
0.0
 10
146.3329388378533
 20
143.2092687007094
 30
0.0
 10
146.8483254624444
 20
144.8408669988801
 30
0.0
 10
147.2314203331297
 20
146.1837661049335
 30
0.0
 10
147.4867020769946
 20
147.224185627838
 30
0.0
 10
147.9169947869641
 20
149.0197705792876
 30
0.0
 10
148.0306830129768
 20
150.2400242051577
 30
0.0
 10
147.709255392159
 20
151.3157559800812
 30
0.0
 10
147.3874832615654
 20
152.3916600098926
 30
0.0
 10
146.8245542879144
 20
152.6683013598569
 30
0.0
 10
145.8840425999909
 20
152.6683013598569
 30
0.0
 10
145.0989048209514
 20
152.6683013598569
 30
0.0
 10
144.3282364524954
 20
152.3275811915945
 30
0.0
 10
143.4531816219731
 20
151.6538923250251
 30
0.0
 10
142.34627171234
 20
150.8074318058939
 30
0.0
 10
141.901854101563
 20
150.1097995099067
 30
0.0
 10
141.3578731655808
 20
149.289521733736
 30
0.0
 10
140.6299240093235
 20
148.192602607601
 30
0.0
 10
140.2850697237515
 20
147.455696197173
 30
0.0
 10
139.6652966370942
 20
145.8385673095858
 30
0.0
 10
139.0506911970739
 20
144.2214384219986
 30
0.0
 10
138.463991048893
 20
142.3252566160164
 30
0.0
 10
138.0571250036777
 20
141.0154304484394
 30
0.0
 10
138.0571250036777
 20
141.0154304484394
 30
0.0
 10
133.9009590684727
 20
127.8027915271048
 30
0.0
 10
133.9009590684727
 20
127.8027915271048
 30
0.0
 10
133.9009590684727
 20
127.8027915271048
 30
0.0
 10
131.4180771143097
 20
127.8027915271048
 30
0.0
 10
131.4180771143097
 20
127.8027915271048
 30
0.0
 10
131.4180771143097
 20
127.8027915271048
 30
0.0
 10
139.8926730891197
 20
154.8294111834263
 30
0.0
 10
139.8926730891197
 20
154.8294111834263
 30
0.0
  0
HATCH
  5
6A9
330
6A2
100
AcDbEntity
  8
レイヤー 1
 62
   250
420
  2234388
100
AcDbHatch
 10
0.0
 20
0.0
 30
0.0
210
0.0
220
0.0
230
1.0
  2
SOLID
 70
     1
 71
     0
 91
        1
 92
        1
 93
        1
 72
     4
 94
        3
 73
     0
 74
     1
 95
      104
 96
      100
 40
0.0
 40
0.0
 40
0.0
 40
0.0
 40
1.0
 40
1.0
 40
1.0
 40
2.0
 40
2.0
 40
2.0
 40
3.0
 40
3.0
 40
3.0
 40
4.0
 40
4.0
 40
4.0
 40
5.0
 40
5.0
 40
5.0
 40
6.0
 40
6.0
 40
6.0
 40
7.0
 40
7.0
 40
7.0
 40
8.0
 40
8.0
 40
8.0
 40
9.0
 40
9.0
 40
9.0
 40
10.0
 40
10.0
 40
10.0
 40
11.0
 40
11.0
 40
11.0
 40
12.0
 40
12.0
 40
12.0
 40
13.0
 40
13.0
 40
13.0
 40
14.0
 40
14.0
 40
14.0
 40
15.0
 40
15.0
 40
15.0
 40
16.0
 40
16.0
 40
16.0
 40
17.0
 40
17.0
 40
17.0
 40
18.0
 40
18.0
 40
18.0
 40
19.0
 40
19.0
 40
19.0
 40
20.0
 40
20.0
 40
20.0
 40
21.0
 40
21.0
 40
21.0
 40
22.0
 40
22.0
 40
22.0
 40
23.0
 40
23.0
 40
23.0
 40
24.0
 40
24.0
 40
24.0
 40
25.0
 40
25.0
 40
25.0
 40
26.0
 40
26.0
 40
26.0
 40
27.0
 40
27.0
 40
27.0
 40
28.0
 40
28.0
 40
28.0
 40
29.0
 40
29.0
 40
29.0
 40
30.0
 40
30.0
 40
30.0
 40
31.0
 40
31.0
 40
31.0
 40
32.0
 40
32.0
 40
32.0
 40
33.0
 40
33.0
 40
33.0
 40
33.0
 10
139.8926730891197
 20
154.8294111834263
 10
139.8926730891197
 20
154.8294111834263
 10
142.0344903652445
 20
154.8294111834263
 10
142.0344903652445
 20
154.8294111834263
 10
142.0344903652445
 20
154.8294111834263
 10
140.9516961399171
 20
151.3157559800812
 10
140.9516961399171
 20
151.3157559800812
 10
141.8928968473923
 20
152.7887075264977
 10
142.7341897198865
 20
153.4484437471474
 10
143.8552245303272
 20
154.2926649527359
 10
144.9803934580775
 20
155.1296514530327
 10
146.3139908001845
 20
155.3044901642492
 10
147.241066606852
 20
155.3044901642492
 10
148.3855280820469
 20
155.3044901642492
 10
149.4969166187653
 20
155.0752189084569
 10
150.0784491203092
 20
153.8172414621372
 10
150.5228667310863
 20
152.833838307127
 10
150.5414702589793
 20
152.7201500811143
 10
150.4140016419347
 20
150.7765981809602
 10
151.5818897818837
 20
152.7699317437168
 10
152.4424752018226
 20
153.6256940267945
 10
153.9038856707499
 20
154.4507949398263
 10
155.4455669174378
 20
155.3044901642492
 10
156.339225275853
 20
155.3659851592288
 10
157.3748216618963
 20
155.2147453676543
 10
158.911679771723
 20
154.9877134254046
 10
159.8859534176746
 20
154.4390816074493
 10
160.3965169054045
 20
152.7816450760939
 10
160.9070803931344
 20
151.1219692311958
 10
160.6328506116007
 20
150.2303779314354
 10
159.9992971339115
 20
147.597634224801
 10
159.7105979417943
 20
146.4014962832367
 10
159.2947746424084
 20
144.9400858143094
 10
158.7463150793409
 20
143.2092687007094
 10
158.7463150793409
 20
143.2092687007094
 10
153.9038856707499
 20
127.8027915271048
 10
153.9038856707499
 20
127.8027915271048
 10
153.9038856707499
 20
127.8027915271048
 10
151.3882752878863
 20
127.8027915271048
 10
151.3882752878863
 20
127.8027915271048
 10
151.3882752878863
 20
127.8027915271048
 10
155.6250565106276
 20
141.2751908193897
 10
155.6250565106276
 20
141.2751908193897
 10
156.5094131050963
 20
144.0936252951782
 10
157.109893644309
 20
146.1506931664571
 10
157.4220195011804
 20
147.4415712963654
 10
157.8095929989511
 20
149.0530157726519
 10
157.9656559273867
 20
149.5826995529385
 10
157.7816877071116
 20
150.7529992613181
 10
157.6111553680925
 20
151.8430281919372
 10
157.0582171779396
 20
152.5547853887321
 10
156.1170164704645
 20
152.5547853887321
 10
155.1096698860365
 20
152.5547853887321
 10
154.2962823053817
 20
152.4412694176073
 10
153.156643967048
 20
151.2945686288697
 10
152.0170056287143
 20
150.1476955852443
 10
151.076149431015
 20
148.7930831468137
 10
150.3337308641742
 20
147.2290087646991
 10
149.5957909244188
 20
145.6683794803425
 10
148.8530278478023
 20
143.6822806228776
 10
148.0964843801539
 20
141.2751908193897
 10
148.0964843801539
 20
141.2751908193897
 10
143.8552245303272
 20
127.8027915271048
 10
143.8552245303272
 20
127.8027915271048
 10
143.8552245303272
 20
127.8027915271048
 10
141.486030802177
 20
127.8027915271048
 10
141.486030802177
 20
127.8027915271048
 10
141.486030802177
 20
127.8027915271048
 10
146.3329388378533
 20
143.2092687007094
 10
146.3329388378533
 20
143.2092687007094
 10
146.8483254624444
 20
144.8408669988801
 10
147.2314203331297
 20
146.1837661049335
 10
147.4867020769946
 20
147.224185627838
 10
147.9169947869641
 20
149.0197705792876
 10
148.0306830129768
 20
150.2400242051577
 10
147.709255392159
 20
151.3157559800812
 10
147.3874832615654
 20
152.3916600098926
 10
146.8245542879144
 20
152.6683013598569
 10
145.8840425999909
 20
152.6683013598569
 10
145.0989048209514
 20
152.6683013598569
 10
144.3282364524954
 20
152.3275811915945
 10
143.4531816219731
 20
151.6538923250251
 10
142.34627171234
 20
150.8074318058939
 10
141.901854101563
 20
150.1097995099067
 10
141.3578731655808
 20
149.289521733736
 10
140.6299240093235
 20
148.192602607601
 10
140.2850697237515
 20
147.455696197173
 10
139.6652966370942
 20
145.8385673095858
 10
139.0506911970739
 20
144.2214384219986
 10
138.463991048893
 20
142.3252566160164
 10
138.0571250036777
 20
141.0154304484394
 10
138.0571250036777
 20
141.0154304484394
 10
133.9009590684727
 20
127.8027915271048
 10
133.9009590684727
 20
127.8027915271048
 10
133.9009590684727
 20
127.8027915271048
 10
131.4180771143097
 20
127.8027915271048
 10
131.4180771143097
 20
127.8027915271048
 10
131.4180771143097
 20
127.8027915271048
 10
139.8926730891197
 20
154.8294111834263
 10
139.8926730891197
 20
154.8294111834263
 97
        0
 75
     2
 76
     1
 98
        0
  0
SPLINE
  5
6AA
330
6A2
100
AcDbEntity
  8
レイヤー 1
370
     0
100
AcDbSpline
210
0.0
220
0.0
230
1.0
 70
    11
 71
     3
 72
    29
 73
    25
 74
     0
 42
0.000000001
 43
0.0000000001
 40
0.0
 40
0.0
 40
0.0
 40
0.0
 40
1.0
 40
1.0
 40
1.0
 40
2.0
 40
2.0
 40
2.0
 40
3.0
 40
3.0
 40
3.0
 40
4.0
 40
4.0
 40
4.0
 40
5.0
 40
5.0
 40
5.0
 40
6.0
 40
6.0
 40
6.0
 40
7.0
 40
7.0
 40
7.0
 40
8.0
 40
8.0
 40
8.0
 40
8.0
 10
101.6420971922469
 20
132.8388354296931
 30
0.0
 10
101.630039350094
 20
134.7164137077823
 30
0.0
 10
102.2236296937908
 20
138.0598810818841
 30
0.0
 10
103.7487744712405
 20
142.5378191476827
 30
0.0
 10
105.819967243327
 20
148.5896501242061
 30
0.0
 10
107.0602024361932
 20
150.8074318058939
 30
0.0
 10
108.1522984254671
 20
151.8833358357054
 30
0.0
 10
109.741177511439
 20
153.4532668840085
 30
0.0
 10
111.8740375333931
 20
153.5290590346837
 30
0.0
 10
112.5075910110823
 20
153.4532668840085
 30
0.0
 10
113.4012493694975
 20
153.3490526768302
 30
0.0
 10
114.6683563248758
 20
152.7580461564518
 30
0.0
 10
114.7493161221879
 20
150.7838328862519
 30
0.0
 10
114.8106388622796
 20
149.0909118479895
 30
0.0
 10
114.3186789024427
 20
145.9191825971221
 30
0.0
 10
112.6164561002338
 20
140.9489400617108
 30
0.0
 10
110.6444821435766
 20
135.1746117095912
 30
0.0
 10
109.4669477299053
 20
132.8960240524753
 30
0.0
 10
108.5212683953448
 20
131.9072809959403
 30
0.0
 10
106.7346406980658
 20
130.0538184021569
 30
0.0
 10
104.8222669326213
 20
130.2336525051225
 30
0.0
 10
104.5408024457958
 20
130.2336525051225
 30
0.0
 10
104.1721769856939
 20
130.2336525051225
 30
0.0
 10
101.6465758193322
 20
130.6305277668397
 30
0.0
 10
101.6420971922469
 20
132.8388354296931
 30
0.0
  0
SPLINE
  5
6AB
330
6A2
100
AcDbEntity
  8
レイヤー 1
370
     0
100
AcDbSpline
210
0.0
220
0.0
230
1.0
 70
    11
 71
     3
 72
    32
 73
    28
 74
     0
 42
0.000000001
 43
0.0000000001
 40
0.0
 40
0.0
 40
0.0
 40
0.0
 40
1.0
 40
1.0
 40
1.0
 40
2.0
 40
2.0
 40
2.0
 40
3.0
 40
3.0
 40
3.0
 40
4.0
 40
4.0
 40
4.0
 40
5.0
 40
5.0
 40
5.0
 40
6.0
 40
6.0
 40
6.0
 40
7.0
 40
7.0
 40
7.0
 40
8.0
 40
8.0
 40
8.0
 40
9.0
 40
9.0
 40
9.0
 40
9.0
 10
106.2595617172429
 20
153.4105476718098
 30
0.0
 10
104.8222669326213
 20
151.5474388043041
 30
0.0
 10
103.7177685914188
 20
149.8758773721411
 30
0.0
 10
101.9232171692965
 20
144.6141795664062
 30
0.0
 10
100.2754269116635
 20
139.7999999594306
 30
0.0
 10
99.22777268346732
 20
136.3052927937542
 30
0.0
 10
99.06964269637689
 20
132.039572749846
 30
0.0
 10
98.94665270641765
 20
128.8673267343149
 30
0.0
 10
100.8807305877373
 20
127.8027915271048
 30
0.0
 10
103.7129454545577
 20
127.8027915271048
 30
0.0
 10
104.9352661390825
 20
127.8027915271048
 30
0.0
 10
108.0151835347002
 20
127.8827177950895
 30
0.0
 10
110.2045431598849
 20
130.5926316915021
 30
0.0
 10
111.7417457794874
 20
132.4984597712065
 30
0.0
 10
113.155269389579
 20
134.475256864725
 30
0.0
 10
115.0562743324223
 20
140.9489400617108
 30
0.0
 10
116.6361961642235
 20
146.3680788349845
 30
0.0
 10
117.7282921534974
 20
149.8639917848761
 30
0.0
 10
117.6480213757369
 20
151.8595646611754
 30
0.0
 10
117.6480213757369
 20
151.8595646611754
 30
0.0
 10
117.6480213757369
 20
151.8595646611754
 30
0.0
 10
117.6480213757369
 20
151.8595646611754
 30
0.0
 10
117.13229024137
 20
155.18150017429
 30
0.0
 10
114.7162431837115
 20
155.886194920681
 30
0.0
 10
113.3351034925446
 20
155.886194920681
 30
0.0
 10
111.9829026225447
 20
155.886194920681
 30
0.0
 10
108.3414342923792
 20
156.1251124501957
 30
0.0
 10
106.2595617172429
 20
153.4105476718098
 30
0.0
  0
HATCH
  5
6AC
330
6A2
100
AcDbEntity
  8
レイヤー 1
 62
   250
420
  2234388
100
AcDbHatch
 10
0.0
 20
0.0
 30
0.0
210
0.0
220
0.0
230
1.0
  2
SOLID
 70
     1
 71
     0
 91
        2
 92
        1
 93
        1
 72
     4
 94
        3
 73
     0
 74
     1
 95
       29
 96
       25
 40
0.0
 40
0.0
 40
0.0
 40
0.0
 40
1.0
 40
1.0
 40
1.0
 40
2.0
 40
2.0
 40
2.0
 40
3.0
 40
3.0
 40
3.0
 40
4.0
 40
4.0
 40
4.0
 40
5.0
 40
5.0
 40
5.0
 40
6.0
 40
6.0
 40
6.0
 40
7.0
 40
7.0
 40
7.0
 40
8.0
 40
8.0
 40
8.0
 40
8.0
 10
101.6420971922469
 20
132.8388354296931
 10
101.630039350094
 20
134.7164137077823
 10
102.2236296937908
 20
138.0598810818841
 10
103.7487744712405
 20
142.5378191476827
 10
105.819967243327
 20
148.5896501242061
 10
107.0602024361932
 20
150.8074318058939
 10
108.1522984254671
 20
151.8833358357054
 10
109.741177511439
 20
153.4532668840085
 10
111.8740375333931
 20
153.5290590346837
 10
112.5075910110823
 20
153.4532668840085
 10
113.4012493694975
 20
153.3490526768302
 10
114.6683563248758
 20
152.7580461564518
 10
114.7493161221879
 20
150.7838328862519
 10
114.8106388622796
 20
149.0909118479895
 10
114.3186789024427
 20
145.9191825971221
 10
112.6164561002338
 20
140.9489400617108
 10
110.6444821435766
 20
135.1746117095912
 10
109.4669477299053
 20
132.8960240524753
 10
108.5212683953448
 20
131.9072809959403
 10
106.7346406980658
 20
130.0538184021569
 10
104.8222669326213
 20
130.2336525051225
 10
104.5408024457958
 20
130.2336525051225
 10
104.1721769856939
 20
130.2336525051225
 10
101.6465758193322
 20
130.6305277668397
 10
101.6420971922469
 20
132.8388354296931
 97
        0
 92
        1
 93
        1
 72
     4
 94
        3
 73
     0
 74
     1
 95
       32
 96
       28
 40
0.0
 40
0.0
 40
0.0
 40
0.0
 40
1.0
 40
1.0
 40
1.0
 40
2.0
 40
2.0
 40
2.0
 40
3.0
 40
3.0
 40
3.0
 40
4.0
 40
4.0
 40
4.0
 40
5.0
 40
5.0
 40
5.0
 40
6.0
 40
6.0
 40
6.0
 40
7.0
 40
7.0
 40
7.0
 40
8.0
 40
8.0
 40
8.0
 40
9.0
 40
9.0
 40
9.0
 40
9.0
 10
106.2595617172429
 20
153.4105476718098
 10
104.8222669326213
 20
151.5474388043041
 10
103.7177685914188
 20
149.8758773721411
 10
101.9232171692965
 20
144.6141795664062
 10
100.2754269116635
 20
139.7999999594306
 10
99.22777268346732
 20
136.3052927937542
 10
99.06964269637689
 20
132.039572749846
 10
98.94665270641765
 20
128.8673267343149
 10
100.8807305877373
 20
127.8027915271048
 10
103.7129454545577
 20
127.8027915271048
 10
104.9352661390825
 20
127.8027915271048
 10
108.0151835347002
 20
127.8827177950895
 10
110.2045431598849
 20
130.5926316915021
 10
111.7417457794874
 20
132.4984597712065
 10
113.155269389579
 20
134.475256864725
 10
115.0562743324223
 20
140.9489400617108
 10
116.6361961642235
 20
146.3680788349845
 10
117.7282921534974
 20
149.8639917848761
 10
117.6480213757369
 20
151.8595646611754
 10
117.6480213757369
 20
151.8595646611754
 10
117.6480213757369
 20
151.8595646611754
 10
117.6480213757369
 20
151.8595646611754
 10
117.13229024137
 20
155.18150017429
 10
114.7162431837115
 20
155.886194920681
 10
113.3351034925446
 20
155.886194920681
 10
111.9829026225447
 20
155.886194920681
 10
108.3414342923792
 20
156.1251124501957
 10
106.2595617172429
 20
153.4105476718098
 97
        0
 75
     2
 76
     1
 98
        0
  0
ENDBLK
  5
6AD
330
6A2
100
AcDbEntity
  8
0
100
AcDbBlockEnd
  0
BLOCK
  5
4A70
330
4A6F
100
AcDbEntity
  8
0
100
AcDbBlockBegin
  2
*D4
 70
     1
 10
0.0
 20
0.0
 30
0.0
  3
*D4
  1
*D201
  0
LINE
  5
4A72
330
4A6F
100
AcDbEntity
  8
寸法
  6
Continuous
 62
     0
370
    -2
100
AcDbLine
 10
96.87402094333643
 20
348.7335990428102
 30
0.0
 11
84.52101209789373
 21
348.7335990428102
 31
0.0
  0
LINE
  5
4A73
330
4A6F
100
AcDbEntity
  8
寸法
  6
Continuous
 62
     0
370
    -2
100
AcDbLine
 10
111.4263898880713
 20
341.034177143836
 30
0.0
 11
84.52101209789373
 21
341.034177143836
 31
0.0
  0
LINE
  5
4A74
330
4A6F
100
AcDbEntity
  8
寸法
  6
Continuous
 62
     0
370
    -2
100
AcDbLine
 10
84.52101209789373
 20
347.2335990428102
 30
0.0
 11
84.52101209789373
 21
342.534177143836
 31
0.0
  0
INSERT
  5
4A75
330
4A6F
100
AcDbEntity
  8
寸法
 62
     0
370
    -2
100
AcDbBlockReference
  2
_DOT
 10
84.52101209789373
 20
348.7335990428102
 30
0.0
 41
1.5
 42
1.5
 43
1.5
 50
90.0
  0
INSERT
  5
4A76
330
4A6F
100
AcDbEntity
  8
寸法
 62
     0
370
    -2
100
AcDbBlockReference
  2
_DOT
 10
84.52101209789373
 20
341.034177143836
 30
0.0
 41
1.5
 42
1.5
 43
1.5
 50
270.0
  0
MTEXT
  5
4A77
330
4A6F
100
AcDbEntity
  8
寸法
  6
Continuous
 62
     0
100
AcDbMText
 10
80.02101209789373
 20
344.8838880933231
 30
0.0
 40
5.0
 41
0.0
 46
0.0
 71
     5
 72
     1
  1
\A1;8
  7
ＭＳ ゴシック
 11
0.0
 21
1.0
 31
0.0
 73
     1
 44
1.0
  0
POINT
  5
4A78
330
4A6F
100
AcDbEntity
  8
Defpoints
 62
     0
100
AcDbPoint
 10
101.8740209433364
 20
348.7335990428102
 30
0.0
  0
POINT
  5
4A79
330
4A6F
100
AcDbEntity
  8
Defpoints
 62
     0
100
AcDbPoint
 10
116.4263898880713
 20
341.034177143836
 30
0.0
  0
POINT
  5
5227
330
4A6F
100
AcDbEntity
  8
Defpoints
 62
     0
100
AcDbPoint
 10
84.52101209789373
 20
341.034177143836
 30
0.0
  0
ENDBLK
  5
4A71
330
4A6F
100
AcDbEntity
  8
0
100
AcDbBlockEnd
  0
BLOCK
  5
4A9D
330
4A9C
100
AcDbEntity
  8
0
100
AcDbBlockBegin
  2
*D5
 70
     1
 10
0.0
 20
0.0
 30
0.0
  3
*D5
  1
*D204
  0
LINE
  5
4A9F
330
4A9C
100
AcDbEntity
  8
寸法
  6
Continuous
 62
     0
370
    -2
100
AcDbLine
 10
397.8372366616883
 20
348.6177098378442
 30
0.0
 11
362.0316519610001
 21
348.6177098378442
 31
0.0
  0
LINE
  5
4AA0
330
4A9C
100
AcDbEntity
  8
寸法
  6
Continuous
 62
     0
370
    -2
100
AcDbLine
 10
397.8372366616883
 20
293.8177098378441
 30
0.0
 11
362.0316519610001
 21
293.8177098378441
 31
0.0
  0
LINE
  5
4AA1
330
4A9C
100
AcDbEntity
  8
寸法
  6
Continuous
 62
     0
370
    -2
100
AcDbLine
 10
362.0316519610001
 20
347.1177098378442
 30
0.0
 11
362.0316519610001
 21
295.3177098378441
 31
0.0
  0
INSERT
  5
4AA2
330
4A9C
100
AcDbEntity
  8
寸法
 62
     0
370
    -2
100
AcDbBlockReference
  2
_DOT
 10
362.0316519610001
 20
348.6177098378442
 30
0.0
 41
1.5
 42
1.5
 43
1.5
 50
90.0
  0
INSERT
  5
4AA3
330
4A9C
100
AcDbEntity
  8
寸法
 62
     0
370
    -2
100
AcDbBlockReference
  2
_DOT
 10
362.0316519610001
 20
293.8177098378441
 30
0.0
 41
1.5
 42
1.5
 43
1.5
 50
270.0
  0
MTEXT
  5
4AA4
330
4A9C
100
AcDbEntity
  8
寸法
  6
Continuous
 62
     0
100
AcDbMText
 10
357.1266519610001
 20
321.2177098378442
 30
0.0
 40
5.0
 41
0.0
 46
0.0
 71
     5
 72
     1
  1
\A1;φ55
  7
ＭＳ ゴシック
 11
0.0
 21
1.0
 31
0.0
 73
     1
 44
1.0
  0
POINT
  5
4AA5
330
4A9C
100
AcDbEntity
  8
Defpoints
 62
     0
100
AcDbPoint
 10
402.8372366616883
 20
348.6177098378442
 30
0.0
  0
POINT
  5
4AA6
330
4A9C
100
AcDbEntity
  8
Defpoints
 62
     0
100
AcDbPoint
 10
402.8372366616883
 20
293.8177098378441
 30
0.0
  0
POINT
  5
4AA7
330
4A9C
100
AcDbEntity
  8
Defpoints
 62
     0
100
AcDbPoint
 10
362.0316519610001
 20
293.8177098378441
 30
0.0
  0
ENDBLK
  5
4A9E
330
4A9C
100
AcDbEntity
  8
0
100
AcDbBlockEnd
  0
BLOCK
  5
4AD6
330
4AD5
100
AcDbEntity
  8
0
100
AcDbBlockBegin
  2
*D6
 70
     1
 10
0.0
 20
0.0
 30
0.0
  3
*D6
  1
*D205
  0
LINE
  5
4AD8
330
4AD5
100
AcDbEntity
  8
寸法
  6
Continuous
 62
     0
370
    -2
100
AcDbLine
 10
96.00971333798213
 20
348.7335990428102
 30
0.0
 11
72.6257534008936
 21
348.7335990428102
 31
0.0
  0
LINE
  5
4AD9
330
4AD5
100
AcDbEntity
  8
寸法
  6
Continuous
 62
     0
370
    -2
100
AcDbLine
 10
188.4989440439526
 20
262.6847694077741
 30
0.0
 11
72.6257534008936
 21
262.6847694077741
 31
0.0
  0
LINE
  5
4ADA
330
4AD5
100
AcDbEntity
  8
寸法
  6
Continuous
 62
     0
370
    -2
100
AcDbLine
 10
72.6257534008936
 20
347.2335990428102
 30
0.0
 11
72.6257534008936
 21
264.1847694077741
 31
0.0
  0
INSERT
  5
4ADB
330
4AD5
100
AcDbEntity
  8
寸法
 62
     0
370
    -2
100
AcDbBlockReference
  2
_DOT
 10
72.6257534008936
 20
348.7335990428102
 30
0.0
 41
1.5
 42
1.5
 43
1.5
 50
90.0
  0
INSERT
  5
4ADC
330
4AD5
100
AcDbEntity
  8
寸法
 62
     0
370
    -2
100
AcDbBlockReference
  2
_DOT
 10
72.6257534008936
 20
262.6847694077741
 30
0.0
 41
1.5
 42
1.5
 43
1.5
 50
270.0
  0
MTEXT
  5
4ADD
330
4AD5
100
AcDbEntity
  8
寸法
  6
Continuous
 62
     0
100
AcDbMText
 10
68.1257534008936
 20
305.7091842252921
 30
0.0
 40
5.0
 41
0.0
 46
0.0
 71
     5
 72
     1
  1
\A1;86
  7
ＭＳ ゴシック
 11
0.0
 21
1.0
 31
0.0
 73
     1
 44
1.0
  0
POINT
  5
4ADE
330
4AD5
100
AcDbEntity
  8
Defpoints
 62
     0
100
AcDbPoint
 10
101.0097133379821
 20
348.7335990428102
 30
0.0
  0
POINT
  5
4ADF
330
4AD5
100
AcDbEntity
  8
Defpoints
 62
     0
100
AcDbPoint
 10
193.4989440439526
 20
262.6847694077741
 30
0.0
  0
POINT
  5
4AE0
330
4AD5
100
AcDbEntity
  8
Defpoints
 62
     0
100
AcDbPoint
 10
72.6257534008936
 20
262.6847694077741
 30
0.0
  0
ENDBLK
  5
4AD7
330
4AD5
100
AcDbEntity
  8
0
100
AcDbBlockEnd
  0
BLOCK
  5
4CAF
330
4CAE
100
AcDbEntity
  8
0
100
AcDbBlockBegin
  2
*D7
 70
     1
 10
0.0
 20
0.0
 30
0.0
  3
*D7
  1
*D212
  0
LINE
  5
4CB1
330
4CAE
100
AcDbEntity
  8
寸法
  6
Continuous
 62
     0
370
    -2
100
AcDbLine
 10
127.1816507401139
 20
145.9970356700788
 30
0.0
 11
127.1816507401139
 21
139.2647026849567
 31
0.0
  0
LINE
  5
4CB2
330
4CAE
100
AcDbEntity
  8
寸法
  6
Continuous
 62
     0
370
    -2
100
AcDbLine
 10
134.8816507401138
 20
163.6511043765548
 30
0.0
 11
134.8816507401138
 21
139.2647026849567
 31
0.0
  0
LINE
  5
4CB3
330
4CAE
100
AcDbEntity
  8
寸法
  6
Continuous
 62
     0
370
    -2
100
AcDbLine
 10
134.8816507401138
 20
139.2647026849567
 30
0.0
 11
182.7116507401138
 21
139.2647026849567
 31
0.0
  0
INSERT
  5
4CB4
330
4CAE
100
AcDbEntity
  8
寸法
 62
     0
370
    -2
100
AcDbBlockReference
  2
_DOT
 10
127.1816507401139
 20
139.2647026849567
 30
0.0
 41
1.5
 42
1.5
 43
1.5
 50
180.0
  0
INSERT
  5
4CB5
330
4CAE
100
AcDbEntity
  8
寸法
 62
     0
370
    -2
100
AcDbBlockReference
  2
_DOT
 10
134.8816507401138
 20
139.2647026849567
 30
0.0
 41
1.5
 42
1.5
 43
1.5
  0
MTEXT
  5
4CB6
330
4CAE
100
AcDbEntity
  8
寸法
  6
Continuous
 62
     0
100
AcDbMText
 10
160.2966507401138
 20
144.3222026849567
 30
0.0
 40
5.0
 41
0.0
 46
0.0
 71
     5
 72
     1
  1
\A1;プレート部分8
  7
ＭＳ ゴシック
 73
     1
 44
1.0
  0
POINT
  5
4CB7
330
4CAE
100
AcDbEntity
  8
Defpoints
 62
     0
100
AcDbPoint
 10
127.1816507401139
 20
150.9970356700788
 30
0.0
  0
POINT
  5
4CB8
330
4CAE
100
AcDbEntity
  8
Defpoints
 62
     0
100
AcDbPoint
 10
134.8816507401138
 20
168.6511043765548
 30
0.0
  0
POINT
  5
4CB9
330
4CAE
100
AcDbEntity
  8
Defpoints
 62
     0
100
AcDbPoint
 10
134.8816507401138
 20
139.2647026849567
 30
0.0
  0
ENDBLK
  5
4CB0
330
4CAE
100
AcDbEntity
  8
0
100
AcDbBlockEnd
  0
BLOCK
  5
4EF5
330
4EF4
100
AcDbEntity
  8
0
100
AcDbBlockBegin
  2
*D8
 70
     1
 10
0.0
 20
0.0
 30
0.0
  3
*D8
  1
*D205
  0
LINE
  5
4EF7
330
4EF4
100
AcDbEntity
  8
寸法
  6
Continuous
 62
     0
370
    -2
100
AcDbLine
 10
112.0152720452456
 20
341.0229538105481
 30
0.0
 11
84.46914103248233
 21
341.0229538105481
 31
0.0
  0
LINE
  5
4EF8
330
4EF4
100
AcDbEntity
  8
寸法
  6
Continuous
 62
     0
370
    -2
100
AcDbLine
 10
188.4989440439526
 20
262.6847694077741
 30
0.0
 11
84.46914103248233
 21
262.6847694077741
 31
0.0
  0
LINE
  5
4EF9
330
4EF4
100
AcDbEntity
  8
寸法
  6
Continuous
 62
     0
370
    -2
100
AcDbLine
 10
84.46914103248233
 20
339.5229538105481
 30
0.0
 11
84.46914103248233
 21
264.1847694077741
 31
0.0
  0
INSERT
  5
4EFA
330
4EF4
100
AcDbEntity
  8
寸法
 62
     0
370
    -2
100
AcDbBlockReference
  2
_DOT
 10
84.46914103248233
 20
341.0229538105481
 30
0.0
 41
1.5
 42
1.5
 43
1.5
 50
90.0
  0
INSERT
  5
4EFB
330
4EF4
100
AcDbEntity
  8
寸法
 62
     0
370
    -2
100
AcDbBlockReference
  2
_DOT
 10
84.46914103248233
 20
262.6847694077741
 30
0.0
 41
1.5
 42
1.5
 43
1.5
 50
270.0
  0
MTEXT
  5
4EFC
330
4EF4
100
AcDbEntity
  8
寸法
  6
Continuous
 62
     0
100
AcDbMText
 10
79.96914103248233
 20
301.8538616091611
 30
0.0
 40
5.0
 41
0.0
 46
0.0
 71
     5
 72
     1
  1
\A1;78
  7
ＭＳ ゴシック
 11
0.0
 21
1.0
 31
0.0
 73
     1
 44
1.0
  0
POINT
  5
4EFD
330
4EF4
100
AcDbEntity
  8
Defpoints
 62
     0
100
AcDbPoint
 10
117.0152720452456
 20
341.0229538105481
 30
0.0
  0
POINT
  5
4EFE
330
4EF4
100
AcDbEntity
  8
Defpoints
 62
     0
100
AcDbPoint
 10
193.4989440439526
 20
262.6847694077741
 30
0.0
  0
POINT
  5
4EFF
330
4EF4
100
AcDbEntity
  8
Defpoints
 62
     0
100
AcDbPoint
 10
84.46914103248233
 20
262.6847694077741
 30
0.0
  0
ENDBLK
  5
4EF6
330
4EF4
100
AcDbEntity
  8
0
100
AcDbBlockEnd
  0
BLOCK
  5
4FB0
330
4FAF
100
AcDbEntity
  8
0
100
AcDbBlockBegin
  2
-001-LW_POLYLINE_2
 70
     0
 10
0.0
 20
0.0
 30
0.0
  3
-001-LW_POLYLINE_2
  1
-001-LW_POLYLINE_2
  0
LINE
  5
4FB1
330
4FAF
100
AcDbEntity
  8
_0-1_
  6
Continuous
 62
     7
100
AcDbLine
 10
-62.359562
 20
-13.288052
 30
0.0
 11
-64.86693199999999
 21
-13.271004
 31
0.0
  0
LINE
  5
4FB2
330
4FAF
100
AcDbEntity
  8
_0-1_
  6
Continuous
 62
     7
100
AcDbLine
 10
-64.86693199999999
 20
-13.271004
 30
0.0
 11
-67.37414199999999
 21
-13.310184
 31
0.0
  0
LINE
  5
4FB3
330
4FAF
100
AcDbEntity
  8
_0-1_
  6
Continuous
 62
     7
100
AcDbLine
 10
-67.37414199999999
 20
-13.310184
 30
0.0
 11
-69.87929199999999
 21
-13.421904
 31
0.0
  0
LINE
  5
4FB4
330
4FAF
100
AcDbEntity
  8
_0-1_
  6
Continuous
 62
     7
100
AcDbLine
 10
-69.87929199999999
 20
-13.421904
 30
0.0
 11
-72.37862799999999
 21
-13.627748
 31
0.0
  0
LINE
  5
4FB5
330
4FAF
100
AcDbEntity
  8
_0-1_
  6
Continuous
 62
     7
100
AcDbLine
 10
-72.37862799999999
 20
-13.627748
 30
0.0
 11
-74.866722
 21
-13.946506
 31
0.0
  0
LINE
  5
4FB6
330
4FAF
100
AcDbEntity
  8
_0-1_
  6
Continuous
 62
     7
100
AcDbLine
 10
-74.866722
 20
-13.946506
 30
0.0
 11
-77.33614399999999
 21
-14.38815
 31
0.0
  0
LINE
  5
4FB7
330
4FAF
100
AcDbEntity
  8
_0-1_
  6
Continuous
 62
     7
100
AcDbLine
 10
-77.33614399999999
 20
-14.38815
 30
0.0
 11
-79.778648
 21
-14.96163
 31
0.0
  0
LINE
  5
4FB8
330
4FAF
100
AcDbEntity
  8
_0-1_
  6
Continuous
 62
     7
100
AcDbLine
 10
-79.778648
 20
-14.96163
 30
0.0
 11
-82.18364799999999
 21
-15.675658
 31
0.0
  0
LINE
  5
4FB9
330
4FAF
100
AcDbEntity
  8
_0-1_
  6
Continuous
 62
     7
100
AcDbLine
 10
-82.18364799999999
 20
-15.675658
 30
0.0
 11
-84.53930199999999
 21
-16.53955
 31
0.0
  0
LINE
  5
4FBA
330
4FAF
100
AcDbEntity
  8
_0-1_
  6
Continuous
 62
     7
100
AcDbLine
 10
-84.53930199999999
 20
-16.53955
 30
0.0
 11
-86.82854799999998
 21
-17.567718
 31
0.0
  0
LINE
  5
4FBB
330
4FAF
100
AcDbEntity
  8
_0-1_
  6
Continuous
 62
     7
100
AcDbLine
 10
-86.82854799999998
 20
-17.567718
 30
0.0
 11
-89.03117
 21
-18.777036
 31
0.0
  0
LINE
  5
4FBC
330
4FAF
100
AcDbEntity
  8
_0-1_
  6
Continuous
 62
     7
100
AcDbLine
 10
-89.03117
 20
-18.777036
 30
0.0
 11
-91.111546
 21
-20.185974
 31
0.0
  0
LINE
  5
4FBD
330
4FAF
100
AcDbEntity
  8
_0-1_
  6
Continuous
 62
     7
100
AcDbLine
 10
-91.111546
 20
-20.185974
 30
0.0
 11
-93.01939399999999
 21
-21.814052
 31
0.0
  0
LINE
  5
4FBE
330
4FAF
100
AcDbEntity
  8
_0-1_
  6
Continuous
 62
     7
100
AcDbLine
 10
-93.01939399999999
 20
-21.814052
 30
0.0
 11
-94.730904
 21
-23.65059
 31
0.0
  0
LINE
  5
4FBF
330
4FAF
100
AcDbEntity
  8
_0-1_
  6
Continuous
 62
     7
100
AcDbLine
 10
-94.730904
 20
-23.65059
 30
0.0
 11
-96.26462
 21
-25.63832
 31
0.0
  0
LINE
  5
4FC0
330
4FAF
100
AcDbEntity
  8
_0-1_
  6
Continuous
 62
     7
100
AcDbLine
 10
-96.26462
 20
-25.63832
 30
0.0
 11
-97.65716599999999
 21
-27.724104
 31
0.0
  0
LINE
  5
4FC1
330
4FAF
100
AcDbEntity
  8
_0-1_
  6
Continuous
 62
     7
100
AcDbLine
 10
-97.65716599999999
 20
-27.724104
 30
0.0
 11
-98.962712
 21
-29.865484
 31
0.0
  0
LINE
  5
4FC2
330
4FAF
100
AcDbEntity
  8
_0-1_
  6
Continuous
 62
     7
100
AcDbLine
 10
-98.962712
 20
-29.865484
 30
0.0
 11
-100.222364
 21
-32.03355
 31
0.0
  0
LINE
  5
4FC3
330
4FAF
100
AcDbEntity
  8
_0-1_
  6
Continuous
 62
     7
100
AcDbLine
 10
-100.222364
 20
-32.03355
 30
0.0
 11
-101.462166
 21
-34.213034
 31
0.0
  0
LINE
  5
4FC4
330
4FAF
100
AcDbEntity
  8
_0-1_
  6
Continuous
 62
     7
100
AcDbLine
 10
-101.462166
 20
-34.213034
 30
0.0
 11
-102.698792
 21
-36.394318
 31
0.0
  0
LINE
  5
4FC5
330
4FAF
100
AcDbEntity
  8
_0-1_
  6
Continuous
 62
     7
100
AcDbLine
 10
-102.698792
 20
-36.394318
 30
0.0
 11
-103.934516
 21
-38.576104
 31
0.0
  0
ENDBLK
  5
4FC6
330
4FAF
100
AcDbEntity
  8
0
100
AcDbBlockEnd
  0
BLOCK
  5
4FD6
330
4FD5
100
AcDbEntity
  8
0
100
AcDbBlockBegin
  2
-002-LW_POLYLINE_3
 70
     0
 10
0.0
 20
0.0
 30
0.0
  3
-002-LW_POLYLINE_3
  1
-002-LW_POLYLINE_3
  0
LINE
  5
4FD7
330
4FD5
100
AcDbEntity
  8
_0-1_
  6
Continuous
 62
     7
100
AcDbLine
 10
-62.359562
 20
-13.288052
 30
0.0
 11
-59.70388
 21
-13.280052
 31
0.0
  0
LINE
  5
4FD8
330
4FD5
100
AcDbEntity
  8
_0-1_
  6
Continuous
 62
     7
100
AcDbLine
 10
-59.70388
 20
-13.280052
 30
0.0
 11
-57.04846999999999
 21
-13.319046
 31
0.0
  0
LINE
  5
4FD9
330
4FD5
100
AcDbEntity
  8
_0-1_
  6
Continuous
 62
     7
100
AcDbLine
 10
-57.04846999999999
 20
-13.319046
 30
0.0
 11
-54.395882
 21
-13.447088
 31
0.0
  0
LINE
  5
4FDA
330
4FD5
100
AcDbEntity
  8
_0-1_
  6
Continuous
 62
     7
100
AcDbLine
 10
-54.395882
 20
-13.447088
 30
0.0
 11
-51.74556799999999
 21
-13.616798
 31
0.0
  0
LINE
  5
4FDB
330
4FD5
100
AcDbEntity
  8
_0-1_
  6
Continuous
 62
     7
100
AcDbLine
 10
-51.74556799999999
 20
-13.616798
 30
0.0
 11
-49.09752599999999
 21
-13.818138
 31
0.0
  0
LINE
  5
4FDC
330
4FD5
100
AcDbEntity
  8
_0-1_
  6
Continuous
 62
     7
100
AcDbLine
 10
-49.09752599999999
 20
-13.818138
 30
0.0
 11
-46.45268999999999
 21
-14.058528
 31
0.0
  0
LINE
  5
4FDD
330
4FD5
100
AcDbEntity
  8
_0-1_
  6
Continuous
 62
     7
100
AcDbLine
 10
-46.45268999999999
 20
-14.058528
 30
0.0
 11
-43.81112599999999
 21
-14.332326
 31
0.0
  0
LINE
  5
4FDE
330
4FD5
100
AcDbEntity
  8
_0-1_
  6
Continuous
 62
     7
100
AcDbLine
 10
-43.81112599999999
 20
-14.332326
 30
0.0
 11
-41.171554
 21
-14.624912
 31
0.0
  0
LINE
  5
4FDF
330
4FD5
100
AcDbEntity
  8
_0-1_
  6
Continuous
 62
     7
100
AcDbLine
 10
-41.171554
 20
-14.624912
 30
0.0
 11
-38.534898
 21
-14.942514
 31
0.0
  0
LINE
  5
4FE0
330
4FD5
100
AcDbEntity
  8
_0-1_
  6
Continuous
 62
     7
100
AcDbLine
 10
-38.534898
 20
-14.942514
 30
0.0
 11
-35.90161999999999
 21
-15.287182
 31
0.0
  0
LINE
  5
4FE1
330
4FD5
100
AcDbEntity
  8
_0-1_
  6
Continuous
 62
     7
100
AcDbLine
 10
-35.90161999999999
 20
-15.287182
 30
0.0
 11
-33.26920999999999
 21
-15.638438
 31
0.0
  0
LINE
  5
4FE2
330
4FD5
100
AcDbEntity
  8
_0-1_
  6
Continuous
 62
     7
100
AcDbLine
 10
-33.26920999999999
 20
-15.638438
 30
0.0
 11
-30.63801599999999
 21
-15.998628
 31
0.0
  0
LINE
  5
4FE3
330
4FD5
100
AcDbEntity
  8
_0-1_
  6
Continuous
 62
     7
100
AcDbLine
 10
-30.63801599999999
 20
-15.998628
 30
0.0
 11
-28.008484
 21
-16.370826
 31
0.0
  0
LINE
  5
4FE4
330
4FD5
100
AcDbEntity
  8
_0-1_
  6
Continuous
 62
     7
100
AcDbLine
 10
-28.008484
 20
-16.370826
 30
0.0
 11
-25.379058
 21
-16.743726
 31
0.0
  0
LINE
  5
4FE5
330
4FD5
100
AcDbEntity
  8
_0-1_
  6
Continuous
 62
     7
100
AcDbLine
 10
-25.379058
 20
-16.743726
 30
0.0
 11
-22.749702
 21
-17.117146
 31
0.0
  0
LINE
  5
4FE6
330
4FD5
100
AcDbEntity
  8
_0-1_
  6
Continuous
 62
     7
100
AcDbLine
 10
-22.749702
 20
-17.117146
 30
0.0
 11
-20.12053599999999
 21
-17.49191
 31
0.0
  0
LINE
  5
4FE7
330
4FD5
100
AcDbEntity
  8
_0-1_
  6
Continuous
 62
     7
100
AcDbLine
 10
-20.12053599999999
 20
-17.49191
 30
0.0
 11
-17.49131
 21
-17.866184
 31
0.0
  0
LINE
  5
4FE8
330
4FD5
100
AcDbEntity
  8
_0-1_
  6
Continuous
 62
     7
100
AcDbLine
 10
-17.49131
 20
-17.866184
 30
0.0
 11
-14.86088599999999
 21
-18.231994
 31
0.0
  0
LINE
  5
4FE9
330
4FD5
100
AcDbEntity
  8
_0-1_
  6
Continuous
 62
     7
100
AcDbLine
 10
-14.86088599999999
 20
-18.231994
 30
0.0
 11
-12.22910999999999
 21
-18.587948
 31
0.0
  0
LINE
  5
4FEA
330
4FD5
100
AcDbEntity
  8
_0-1_
  6
Continuous
 62
     7
100
AcDbLine
 10
-12.22910999999999
 20
-18.587948
 30
0.0
 11
-9.596495999999988
 21
-18.937692
 31
0.0
  0
LINE
  5
4FEB
330
4FD5
100
AcDbEntity
  8
_0-1_
  6
Continuous
 62
     7
100
AcDbLine
 10
-9.596495999999988
 20
-18.937692
 30
0.0
 11
-6.963379999999987
 21
-19.283618
 31
0.0
  0
LINE
  5
4FEC
330
4FD5
100
AcDbEntity
  8
_0-1_
  6
Continuous
 62
     7
100
AcDbLine
 10
-6.963379999999987
 20
-19.283618
 30
0.0
 11
-4.329147999999989
 21
-19.620902
 31
0.0
  0
LINE
  5
4FED
330
4FD5
100
AcDbEntity
  8
_0-1_
  6
Continuous
 62
     7
100
AcDbLine
 10
-4.329147999999989
 20
-19.620902
 30
0.0
 11
-1.692048
 21
-19.934978
 31
0.0
  0
LINE
  5
4FEE
330
4FD5
100
AcDbEntity
  8
_0-1_
  6
Continuous
 62
     7
100
AcDbLine
 10
-1.692048
 20
-19.934978
 30
0.0
 11
0.9460900000000123
 21
-20.240236
 31
0.0
  0
LINE
  5
4FEF
330
4FD5
100
AcDbEntity
  8
_0-1_
  6
Continuous
 62
     7
100
AcDbLine
 10
0.9460900000000123
 20
-20.240236
 30
0.0
 11
3.585350000000005
 21
-20.535552
 31
0.0
  0
LINE
  5
4FF0
330
4FD5
100
AcDbEntity
  8
_0-1_
  6
Continuous
 62
     7
100
AcDbLine
 10
3.585350000000005
 20
-20.535552
 30
0.0
 11
6.227638000000013
 21
-20.802436
 31
0.0
  0
LINE
  5
4FF1
330
4FD5
100
AcDbEntity
  8
_0-1_
  6
Continuous
 62
     7
100
AcDbLine
 10
6.227638000000013
 20
-20.802436
 30
0.0
 11
8.871192000000008
 21
-21.056702
 31
0.0
  0
LINE
  5
4FF2
330
4FD5
100
AcDbEntity
  8
_0-1_
  6
Continuous
 62
     7
100
AcDbLine
 10
8.871192000000008
 20
-21.056702
 30
0.0
 11
11.51535800000002
 21
-21.304362
 31
0.0
  0
LINE
  5
4FF3
330
4FD5
100
AcDbEntity
  8
_0-1_
  6
Continuous
 62
     7
100
AcDbLine
 10
11.51535800000002
 20
-21.304362
 30
0.0
 11
14.16050000000001
 21
-21.541388
 31
0.0
  0
LINE
  5
4FF4
330
4FD5
100
AcDbEntity
  8
_0-1_
  6
Continuous
 62
     7
100
AcDbLine
 10
14.16050000000001
 20
-21.541388
 30
0.0
 11
16.80735000000001
 21
-21.758596
 31
0.0
  0
LINE
  5
4FF5
330
4FD5
100
AcDbEntity
  8
_0-1_
  6
Continuous
 62
     7
100
AcDbLine
 10
16.80735000000001
 20
-21.758596
 30
0.0
 11
19.456704
 21
-21.942636
 31
0.0
  0
LINE
  5
4FF6
330
4FD5
100
AcDbEntity
  8
_0-1_
  6
Continuous
 62
     7
100
AcDbLine
 10
19.456704
 20
-21.942636
 30
0.0
 11
22.10758200000001
 21
-22.103318
 31
0.0
  0
LINE
  5
4FF7
330
4FD5
100
AcDbEntity
  8
_0-1_
  6
Continuous
 62
     7
100
AcDbLine
 10
22.10758200000001
 20
-22.103318
 30
0.0
 11
24.75913199999999
 21
-22.25246
 31
0.0
  0
LINE
  5
4FF8
330
4FD5
100
AcDbEntity
  8
_0-1_
  6
Continuous
 62
     7
100
AcDbLine
 10
24.75913199999999
 20
-22.25246
 30
0.0
 11
27.411126
 21
-22.39347
 31
0.0
  0
LINE
  5
4FF9
330
4FD5
100
AcDbEntity
  8
_0-1_
  6
Continuous
 62
     7
100
AcDbLine
 10
27.411126
 20
-22.39347
 30
0.0
 11
30.064232
 21
-22.511616
 31
0.0
  0
LINE
  5
4FFA
330
4FD5
100
AcDbEntity
  8
_0-1_
  6
Continuous
 62
     7
100
AcDbLine
 10
30.064232
 20
-22.511616
 30
0.0
 11
32.71811600000001
 21
-22.609686
 31
0.0
  0
LINE
  5
4FFB
330
4FD5
100
AcDbEntity
  8
_0-1_
  6
Continuous
 62
     7
100
AcDbLine
 10
32.71811600000001
 20
-22.609686
 30
0.0
 11
35.373222
 21
-22.667612
 31
0.0
  0
LINE
  5
4FFC
330
4FD5
100
AcDbEntity
  8
_0-1_
  6
Continuous
 62
     7
100
AcDbLine
 10
35.373222
 20
-22.667612
 30
0.0
 11
38.02883199999999
 21
-22.695498
 31
0.0
  0
LINE
  5
4FFD
330
4FD5
100
AcDbEntity
  8
_0-1_
  6
Continuous
 62
     7
100
AcDbLine
 10
38.02883199999999
 20
-22.695498
 30
0.0
 11
40.68303600000002
 21
-22.612948
 31
0.0
  0
LINE
  5
4FFE
330
4FD5
100
AcDbEntity
  8
_0-1_
  6
Continuous
 62
     7
100
AcDbLine
 10
40.68303600000002
 20
-22.612948
 30
0.0
 11
43.33332000000001
 21
-22.442712
 31
0.0
  0
LINE
  5
4FFF
330
4FD5
100
AcDbEntity
  8
_0-1_
  6
Continuous
 62
     7
100
AcDbLine
 10
43.33332000000001
 20
-22.442712
 30
0.0
 11
45.97574600000002
 21
-22.1792
 31
0.0
  0
LINE
  5
5000
330
4FD5
100
AcDbEntity
  8
_0-1_
  6
Continuous
 62
     7
100
AcDbLine
 10
45.97574600000002
 20
-22.1792
 30
0.0
 11
48.60498800000002
 21
-21.805386
 31
0.0
  0
LINE
  5
5001
330
4FD5
100
AcDbEntity
  8
_0-1_
  6
Continuous
 62
     7
100
AcDbLine
 10
48.60498800000002
 20
-21.805386
 30
0.0
 11
51.21073200000001
 21
-21.293722
 31
0.0
  0
LINE
  5
5002
330
4FD5
100
AcDbEntity
  8
_0-1_
  6
Continuous
 62
     7
100
AcDbLine
 10
51.21073200000001
 20
-21.293722
 30
0.0
 11
53.801872
 21
-20.711464
 31
0.0
  0
LINE
  5
5003
330
4FD5
100
AcDbEntity
  8
_0-1_
  6
Continuous
 62
     7
100
AcDbLine
 10
53.801872
 20
-20.711464
 30
0.0
 11
56.36048200000002
 21
-20.00209
 31
0.0
  0
LINE
  5
5004
330
4FD5
100
AcDbEntity
  8
_0-1_
  6
Continuous
 62
     7
100
AcDbLine
 10
56.36048200000002
 20
-20.00209
 30
0.0
 11
58.86934600000001
 21
-19.131192
 31
0.0
  0
LINE
  5
5005
330
4FD5
100
AcDbEntity
  8
_0-1_
  6
Continuous
 62
     7
100
AcDbLine
 10
58.86934600000001
 20
-19.131192
 30
0.0
 11
61.35598000000002
 21
-18.198674
 31
0.0
  0
LINE
  5
5006
330
4FD5
100
AcDbEntity
  8
_0-1_
  6
Continuous
 62
     7
100
AcDbLine
 10
61.35598000000002
 20
-18.198674
 30
0.0
 11
63.786948
 21
-17.130088
 31
0.0
  0
LINE
  5
5007
330
4FD5
100
AcDbEntity
  8
_0-1_
  6
Continuous
 62
     7
100
AcDbLine
 10
63.786948
 20
-17.130088
 30
0.0
 11
66.17414
 21
-15.967552
 31
0.0
  0
LINE
  5
5008
330
4FD5
100
AcDbEntity
  8
_0-1_
  6
Continuous
 62
     7
100
AcDbLine
 10
66.17414
 20
-15.967552
 30
0.0
 11
68.501656
 21
-14.688608
 31
0.0
  0
LINE
  5
5009
330
4FD5
100
AcDbEntity
  8
_0-1_
  6
Continuous
 62
     7
100
AcDbLine
 10
68.501656
 20
-14.688608
 30
0.0
 11
70.791664
 21
-13.343898
 31
0.0
  0
LINE
  5
500A
330
4FD5
100
AcDbEntity
  8
_0-1_
  6
Continuous
 62
     7
100
AcDbLine
 10
70.791664
 20
-13.343898
 30
0.0
 11
72.97115400000001
 21
-11.827136
 31
0.0
  0
LINE
  5
500B
330
4FD5
100
AcDbEntity
  8
_0-1_
  6
Continuous
 62
     7
100
AcDbLine
 10
72.97115400000001
 20
-11.827136
 30
0.0
 11
75.08846199999999
 21
-10.223804
 31
0.0
  0
LINE
  5
500C
330
4FD5
100
AcDbEntity
  8
_0-1_
  6
Continuous
 62
     7
100
AcDbLine
 10
75.08846199999999
 20
-10.223804
 30
0.0
 11
77.167656
 21
-8.571558
 31
0.0
  0
LINE
  5
500D
330
4FD5
100
AcDbEntity
  8
_0-1_
  6
Continuous
 62
     7
100
AcDbLine
 10
77.167656
 20
-8.571558
 30
0.0
 11
79.12841
 21
-6.781838
 31
0.0
  0
LINE
  5
500E
330
4FD5
100
AcDbEntity
  8
_0-1_
  6
Continuous
 62
     7
100
AcDbLine
 10
79.12841
 20
-6.781838
 30
0.0
 11
80.976234
 21
-4.874307999999999
 31
0.0
  0
LINE
  5
500F
330
4FD5
100
AcDbEntity
  8
_0-1_
  6
Continuous
 62
     7
100
AcDbLine
 10
80.976234
 20
-4.874307999999999
 30
0.0
 11
82.779304
 21
-2.924358000000002
 31
0.0
  0
LINE
  5
5010
330
4FD5
100
AcDbEntity
  8
_0-1_
  6
Continuous
 62
     7
100
AcDbLine
 10
82.779304
 20
-2.924358000000002
 30
0.0
 11
84.471428
 21
-0.87866
 31
0.0
  0
LINE
  5
5011
330
4FD5
100
AcDbEntity
  8
_0-1_
  6
Continuous
 62
     7
100
AcDbLine
 10
84.471428
 20
-0.87866
 30
0.0
 11
86.012992
 21
1.28389
 31
0.0
  0
LINE
  5
5012
330
4FD5
100
AcDbEntity
  8
_0-1_
  6
Continuous
 62
     7
100
AcDbLine
 10
86.012992
 20
1.28389
 30
0.0
 11
87.50330400000001
 21
3.482229999999998
 31
0.0
  0
LINE
  5
5013
330
4FD5
100
AcDbEntity
  8
_0-1_
  6
Continuous
 62
     7
100
AcDbLine
 10
87.50330400000001
 20
3.482229999999998
 30
0.0
 11
88.92092200000002
 21
5.727744000000001
 31
0.0
  0
LINE
  5
5014
330
4FD5
100
AcDbEntity
  8
_0-1_
  6
Continuous
 62
     7
100
AcDbLine
 10
88.92092200000002
 20
5.727744000000001
 30
0.0
 11
90.183312
 21
8.064036000000002
 31
0.0
  0
LINE
  5
5015
330
4FD5
100
AcDbEntity
  8
_0-1_
  6
Continuous
 62
     7
100
AcDbLine
 10
90.183312
 20
8.064036000000002
 30
0.0
 11
91.380776
 21
10.434462
 31
0.0
  0
LINE
  5
5016
330
4FD5
100
AcDbEntity
  8
_0-1_
  6
Continuous
 62
     7
100
AcDbLine
 10
91.380776
 20
10.434462
 30
0.0
 11
92.49068400000002
 21
12.846984
 31
0.0
  0
LINE
  5
5017
330
4FD5
100
AcDbEntity
  8
_0-1_
  6
Continuous
 62
     7
100
AcDbLine
 10
92.49068400000002
 20
12.846984
 30
0.0
 11
93.51575400000002
 21
15.29679
 31
0.0
  0
LINE
  5
5018
330
4FD5
100
AcDbEntity
  8
_0-1_
  6
Continuous
 62
     7
100
AcDbLine
 10
93.51575400000002
 20
15.29679
 30
0.0
 11
94.342186
 21
17.820182
 31
0.0
  0
LINE
  5
5019
330
4FD5
100
AcDbEntity
  8
_0-1_
  6
Continuous
 62
     7
100
AcDbLine
 10
94.342186
 20
17.820182
 30
0.0
 11
94.929496
 21
20.408286
 31
0.0
  0
LINE
  5
501A
330
4FD5
100
AcDbEntity
  8
_0-1_
  6
Continuous
 62
     7
100
AcDbLine
 10
94.929496
 20
20.408286
 30
0.0
 11
95.21132600000001
 21
23.047766
 31
0.0
  0
LINE
  5
501B
330
4FD5
100
AcDbEntity
  8
_0-1_
  6
Continuous
 62
     7
100
AcDbLine
 10
95.21132600000001
 20
23.047766
 30
0.0
 11
95.19561000000002
 21
25.698184
 31
0.0
  0
LINE
  5
501C
330
4FD5
100
AcDbEntity
  8
_0-1_
  6
Continuous
 62
     7
100
AcDbLine
 10
95.19561000000002
 20
25.698184
 30
0.0
 11
94.05709000000002
 21
28.034762
 31
0.0
  0
LINE
  5
501D
330
4FD5
100
AcDbEntity
  8
_0-1_
  6
Continuous
 62
     7
100
AcDbLine
 10
94.05709000000002
 20
28.034762
 30
0.0
 11
91.622276
 21
28.989722
 31
0.0
  0
LINE
  5
501E
330
4FD5
100
AcDbEntity
  8
_0-1_
  6
Continuous
 62
     7
100
AcDbLine
 10
91.622276
 20
28.989722
 30
0.0
 11
88.971992
 21
28.914454
 31
0.0
  0
LINE
  5
501F
330
4FD5
100
AcDbEntity
  8
_0-1_
  6
Continuous
 62
     7
100
AcDbLine
 10
88.971992
 20
28.914454
 30
0.0
 11
86.349098
 21
28.50869
 31
0.0
  0
LINE
  5
5020
330
4FD5
100
AcDbEntity
  8
_0-1_
  6
Continuous
 62
     7
100
AcDbLine
 10
86.349098
 20
28.50869
 30
0.0
 11
83.77048400000001
 21
27.873428
 31
0.0
  0
LINE
  5
5021
330
4FD5
100
AcDbEntity
  8
_0-1_
  6
Continuous
 62
     7
100
AcDbLine
 10
83.77048400000001
 20
27.873428
 30
0.0
 11
81.21918400000001
 21
27.136688
 31
0.0
  0
LINE
  5
5022
330
4FD5
100
AcDbEntity
  8
_0-1_
  6
Continuous
 62
     7
100
AcDbLine
 10
81.21918400000001
 20
27.136688
 30
0.0
 11
78.67495
 21
26.375258
 31
0.0
  0
LINE
  5
5023
330
4FD5
100
AcDbEntity
  8
_0-1_
  6
Continuous
 62
     7
100
AcDbLine
 10
78.67495
 20
26.375258
 30
0.0
 11
76.12117800000001
 21
25.646544
 31
0.0
  0
LINE
  5
5024
330
4FD5
100
AcDbEntity
  8
_0-1_
  6
Continuous
 62
     7
100
AcDbLine
 10
76.12117800000001
 20
25.646544
 30
0.0
 11
73.55988200000002
 21
24.944636
 31
0.0
  0
LINE
  5
5025
330
4FD5
100
AcDbEntity
  8
_0-1_
  6
Continuous
 62
     7
100
AcDbLine
 10
73.55988200000002
 20
24.944636
 30
0.0
 11
70.99501800000002
 21
24.255886
 31
0.0
  0
LINE
  5
5026
330
4FD5
100
AcDbEntity
  8
_0-1_
  6
Continuous
 62
     7
100
AcDbLine
 10
70.99501800000002
 20
24.255886
 30
0.0
 11
68.42981800000001
 21
23.568366
 31
0.0
  0
LINE
  5
5027
330
4FD5
100
AcDbEntity
  8
_0-1_
  6
Continuous
 62
     7
100
AcDbLine
 10
68.42981800000001
 20
23.568366
 30
0.0
 11
65.864022
 21
22.883044
 31
0.0
  0
LINE
  5
5028
330
4FD5
100
AcDbEntity
  8
_0-1_
  6
Continuous
 62
     7
100
AcDbLine
 10
65.864022
 20
22.883044
 30
0.0
 11
63.29639399999999
 21
22.204672
 31
0.0
  0
LINE
  5
5029
330
4FD5
100
AcDbEntity
  8
_0-1_
  6
Continuous
 62
     7
100
AcDbLine
 10
63.29639399999999
 20
22.204672
 30
0.0
 11
60.72623400000001
 21
21.535906
 31
0.0
  0
LINE
  5
502A
330
4FD5
100
AcDbEntity
  8
_0-1_
  6
Continuous
 62
     7
100
AcDbLine
 10
60.72623400000001
 20
21.535906
 30
0.0
 11
58.15444200000002
 21
20.873454
 31
0.0
  0
LINE
  5
502B
330
4FD5
100
AcDbEntity
  8
_0-1_
  6
Continuous
 62
     7
100
AcDbLine
 10
58.15444200000002
 20
20.873454
 30
0.0
 11
55.58158
 21
20.215168
 31
0.0
  0
LINE
  5
502C
330
4FD5
100
AcDbEntity
  8
_0-1_
  6
Continuous
 62
     7
100
AcDbLine
 10
55.58158
 20
20.215168
 30
0.0
 11
53.00803400000001
 21
19.559566
 31
0.0
  0
LINE
  5
502D
330
4FD5
100
AcDbEntity
  8
_0-1_
  6
Continuous
 62
     7
100
AcDbLine
 10
53.00803400000001
 20
19.559566
 30
0.0
 11
50.433494
 21
18.907852
 31
0.0
  0
LINE
  5
502E
330
4FD5
100
AcDbEntity
  8
_0-1_
  6
Continuous
 62
     7
100
AcDbLine
 10
50.433494
 20
18.907852
 30
0.0
 11
47.85735400000002
 21
18.2625
 31
0.0
  0
LINE
  5
502F
330
4FD5
100
AcDbEntity
  8
_0-1_
  6
Continuous
 62
     7
100
AcDbLine
 10
47.85735400000002
 20
18.2625
 30
0.0
 11
45.276252
 21
17.637352
 31
0.0
  0
LINE
  5
5030
330
4FD5
100
AcDbEntity
  8
_0-1_
  6
Continuous
 62
     7
100
AcDbLine
 10
45.276252
 20
17.637352
 30
0.0
 11
42.68929199999999
 21
17.036872
 31
0.0
  0
LINE
  5
5031
330
4FD5
100
AcDbEntity
  8
_0-1_
  6
Continuous
 62
     7
100
AcDbLine
 10
42.68929199999999
 20
17.036872
 30
0.0
 11
40.09912800000001
 21
16.45034
 31
0.0
  0
LINE
  5
5032
330
4FD5
100
AcDbEntity
  8
_0-1_
  6
Continuous
 62
     7
100
AcDbLine
 10
40.09912800000001
 20
16.45034
 30
0.0
 11
37.50742400000001
 21
15.870632
 31
0.0
  0
LINE
  5
5033
330
4FD5
100
AcDbEntity
  8
_0-1_
  6
Continuous
 62
     7
100
AcDbLine
 10
37.50742400000001
 20
15.870632
 30
0.0
 11
34.91359600000001
 21
15.30054
 31
0.0
  0
LINE
  5
5034
330
4FD5
100
AcDbEntity
  8
_0-1_
  6
Continuous
 62
     7
100
AcDbLine
 10
34.91359600000001
 20
15.30054
 30
0.0
 11
32.313514
 21
14.759758
 31
0.0
  0
LINE
  5
5035
330
4FD5
100
AcDbEntity
  8
_0-1_
  6
Continuous
 62
     7
100
AcDbLine
 10
32.313514
 20
14.759758
 30
0.0
 11
29.70905200000001
 21
14.240398
 31
0.0
  0
LINE
  5
5036
330
4FD5
100
AcDbEntity
  8
_0-1_
  6
Continuous
 62
     7
100
AcDbLine
 10
29.70905200000001
 20
14.240398
 30
0.0
 11
27.10286600000001
 21
13.729812
 31
0.0
  0
LINE
  5
5037
330
4FD5
100
AcDbEntity
  8
_0-1_
  6
Continuous
 62
     7
100
AcDbLine
 10
27.10286600000001
 20
13.729812
 30
0.0
 11
24.49166
 21
13.245632
 31
0.0
  0
LINE
  5
5038
330
4FD5
100
AcDbEntity
  8
_0-1_
  6
Continuous
 62
     7
100
AcDbLine
 10
24.49166
 20
13.245632
 30
0.0
 11
21.87551200000001
 21
12.788734
 31
0.0
  0
LINE
  5
5039
330
4FD5
100
AcDbEntity
  8
_0-1_
  6
Continuous
 62
     7
100
AcDbLine
 10
21.87551200000001
 20
12.788734
 30
0.0
 11
19.25771399999999
 21
12.341484
 31
0.0
  0
LINE
  5
503A
330
4FD5
100
AcDbEntity
  8
_0-1_
  6
Continuous
 62
     7
100
AcDbLine
 10
19.25771399999999
 20
12.341484
 30
0.0
 11
16.63651200000001
 21
11.914692
 31
0.0
  0
LINE
  5
503B
330
4FD5
100
AcDbEntity
  8
_0-1_
  6
Continuous
 62
     7
100
AcDbLine
 10
16.63651200000001
 20
11.914692
 30
0.0
 11
14.00985
 21
11.522708
 31
0.0
  0
LINE
  5
503C
330
4FD5
100
AcDbEntity
  8
_0-1_
  6
Continuous
 62
     7
100
AcDbLine
 10
14.00985
 20
11.522708
 30
0.0
 11
11.38147800000002
 21
11.142478
 31
0.0
  0
LINE
  5
503D
330
4FD5
100
AcDbEntity
  8
_0-1_
  6
Continuous
 62
     7
100
AcDbLine
 10
11.38147800000002
 20
11.142478
 30
0.0
 11
8.750878
 21
10.777954
 31
0.0
  0
LINE
  5
503E
330
4FD5
100
AcDbEntity
  8
_0-1_
  6
Continuous
 62
     7
100
AcDbLine
 10
8.750878
 20
10.777954
 30
0.0
 11
6.11487600000001
 21
10.454872
 31
0.0
  0
LINE
  5
503F
330
4FD5
100
AcDbEntity
  8
_0-1_
  6
Continuous
 62
     7
100
AcDbLine
 10
6.11487600000001
 20
10.454872
 30
0.0
 11
3.476767999999993
 21
10.149222
 31
0.0
  0
LINE
  5
5040
330
4FD5
100
AcDbEntity
  8
_0-1_
  6
Continuous
 62
     7
100
AcDbLine
 10
3.476767999999993
 20
10.149222
 30
0.0
 11
0.8376460000000066
 21
9.852564000000001
 31
0.0
  0
LINE
  5
5041
330
4FD5
100
AcDbEntity
  8
_0-1_
  6
Continuous
 62
     7
100
AcDbLine
 10
0.8376460000000066
 20
9.852564000000001
 30
0.0
 11
-1.803253999999995
 21
9.572057999999998
 31
0.0
  0
LINE
  5
5042
330
4FD5
100
AcDbEntity
  8
_0-1_
  6
Continuous
 62
     7
100
AcDbLine
 10
-1.803253999999995
 20
9.572057999999998
 30
0.0
 11
-4.447677999999996
 21
9.327449999999999
 31
0.0
  0
LINE
  5
5043
330
4FD5
100
AcDbEntity
  8
_0-1_
  6
Continuous
 62
     7
100
AcDbLine
 10
-4.447677999999996
 20
9.327449999999999
 30
0.0
 11
-7.096701999999993
 21
9.138419999999996
 31
0.0
  0
LINE
  5
5044
330
4FD5
100
AcDbEntity
  8
_0-1_
  6
Continuous
 62
     7
100
AcDbLine
 10
-7.096701999999993
 20
9.138419999999996
 30
0.0
 11
-9.74769599999999
 21
8.979765999999998
 31
0.0
  0
LINE
  5
5045
330
4FD5
100
AcDbEntity
  8
_0-1_
  6
Continuous
 62
     7
100
AcDbLine
 10
-9.74769599999999
 20
8.979765999999998
 30
0.0
 11
-12.39977999999999
 21
8.839706
 31
0.0
  0
LINE
  5
5046
330
4FD5
100
AcDbEntity
  8
_0-1_
  6
Continuous
 62
     7
100
AcDbLine
 10
-12.39977999999999
 20
8.839706
 30
0.0
 11
-15.05244399999999
 21
8.710540000000002
 31
0.0
  0
LINE
  5
5047
330
4FD5
100
AcDbEntity
  8
_0-1_
  6
Continuous
 62
     7
100
AcDbLine
 10
-15.05244399999999
 20
8.710540000000002
 30
0.0
 11
-17.705704
 21
8.595568
 31
0.0
  0
LINE
  5
5048
330
4FD5
100
AcDbEntity
  8
_0-1_
  6
Continuous
 62
     7
100
AcDbLine
 10
-17.705704
 20
8.595568
 30
0.0
 11
-20.359872
 21
8.503658000000001
 31
0.0
  0
LINE
  5
5049
330
4FD5
100
AcDbEntity
  8
_0-1_
  6
Continuous
 62
     7
100
AcDbLine
 10
-20.359872
 20
8.503658000000001
 30
0.0
 11
-23.01508399999999
 21
8.453111999999997
 31
0.0
  0
LINE
  5
504A
330
4FD5
100
AcDbEntity
  8
_0-1_
  6
Continuous
 62
     7
100
AcDbLine
 10
-23.01508399999999
 20
8.453111999999997
 30
0.0
 11
-25.670846
 21
8.447089999999996
 31
0.0
  0
LINE
  5
504B
330
4FD5
100
AcDbEntity
  8
_0-1_
  6
Continuous
 62
     7
100
AcDbLine
 10
-25.670846
 20
8.447089999999996
 30
0.0
 11
-28.32655399999999
 21
8.459414000000002
 31
0.0
  0
LINE
  5
504C
330
4FD5
100
AcDbEntity
  8
_0-1_
  6
Continuous
 62
     7
100
AcDbLine
 10
-28.32655399999999
 20
8.459414000000002
 30
0.0
 11
-30.98221599999999
 21
8.480615999999998
 31
0.0
  0
LINE
  5
504D
330
4FD5
100
AcDbEntity
  8
_0-1_
  6
Continuous
 62
     7
100
AcDbLine
 10
-30.98221599999999
 20
8.480615999999998
 30
0.0
 11
-33.63777999999999
 21
8.511566000000002
 31
0.0
  0
LINE
  5
504E
330
4FD5
100
AcDbEntity
  8
_0-1_
  6
Continuous
 62
     7
100
AcDbLine
 10
-33.63777999999999
 20
8.511566000000002
 30
0.0
 11
-36.292908
 21
8.567546
 31
0.0
  0
LINE
  5
504F
330
4FD5
100
AcDbEntity
  8
_0-1_
  6
Continuous
 62
     7
100
AcDbLine
 10
-36.292908
 20
8.567546
 30
0.0
 11
-38.94751799999999
 21
8.645026000000001
 31
0.0
  0
LINE
  5
5050
330
4FD5
100
AcDbEntity
  8
_0-1_
  6
Continuous
 62
     7
100
AcDbLine
 10
-38.94751799999999
 20
8.645026000000001
 30
0.0
 11
-41.60193599999999
 21
8.728698000000001
 31
0.0
  0
LINE
  5
5051
330
4FD5
100
AcDbEntity
  8
_0-1_
  6
Continuous
 62
     7
100
AcDbLine
 10
-41.60193599999999
 20
8.728698000000001
 30
0.0
 11
-44.25587399999999
 21
8.826327999999997
 31
0.0
  0
LINE
  5
5052
330
4FD5
100
AcDbEntity
  8
_0-1_
  6
Continuous
 62
     7
100
AcDbLine
 10
-44.25587399999999
 20
8.826327999999997
 30
0.0
 11
-46.909218
 21
8.939056
 31
0.0
  0
LINE
  5
5053
330
4FD5
100
AcDbEntity
  8
_0-1_
  6
Continuous
 62
     7
100
AcDbLine
 10
-46.909218
 20
8.939056
 30
0.0
 11
-49.5624
 21
9.055518
 31
0.0
  0
LINE
  5
5054
330
4FD5
100
AcDbEntity
  8
_0-1_
  6
Continuous
 62
     7
100
AcDbLine
 10
-49.5624
 20
9.055518
 30
0.0
 11
-52.21534
 21
9.177377999999997
 31
0.0
  0
LINE
  5
5055
330
4FD5
100
AcDbEntity
  8
_0-1_
  6
Continuous
 62
     7
100
AcDbLine
 10
-52.21534
 20
9.177377999999997
 30
0.0
 11
-54.867982
 21
9.305762000000001
 31
0.0
  0
LINE
  5
5056
330
4FD5
100
AcDbEntity
  8
_0-1_
  6
Continuous
 62
     7
100
AcDbLine
 10
-54.867982
 20
9.305762000000001
 30
0.0
 11
-57.52059999999999
 21
9.434382
 31
0.0
  0
LINE
  5
5057
330
4FD5
100
AcDbEntity
  8
_0-1_
  6
Continuous
 62
     7
100
AcDbLine
 10
-57.52059999999999
 20
9.434382
 30
0.0
 11
-60.173226
 21
9.562972000000002
 31
0.0
  0
LINE
  5
5058
330
4FD5
100
AcDbEntity
  8
_0-1_
  6
Continuous
 62
     7
100
AcDbLine
 10
-60.173226
 20
9.562972000000002
 30
0.0
 11
-62.82638599999999
 21
9.680129999999998
 31
0.0
  0
LINE
  5
5059
330
4FD5
100
AcDbEntity
  8
_0-1_
  6
Continuous
 62
     7
100
AcDbLine
 10
-62.82638599999999
 20
9.680129999999998
 30
0.0
 11
-65.48014799999999
 21
9.782469999999996
 31
0.0
  0
LINE
  5
505A
330
4FD5
100
AcDbEntity
  8
_0-1_
  6
Continuous
 62
     7
100
AcDbLine
 10
-65.48014799999999
 20
9.782469999999996
 30
0.0
 11
-68.13416999999998
 21
9.874454
 31
0.0
  0
LINE
  5
505B
330
4FD5
100
AcDbEntity
  8
_0-1_
  6
Continuous
 62
     7
100
AcDbLine
 10
-68.13416999999998
 20
9.874454
 30
0.0
 11
-70.78863199999999
 21
9.960799999999999
 31
0.0
  0
LINE
  5
505C
330
4FD5
100
AcDbEntity
  8
_0-1_
  6
Continuous
 62
     7
100
AcDbLine
 10
-70.78863199999999
 20
9.960799999999999
 30
0.0
 11
-73.44371799999999
 21
10.034434
 31
0.0
  0
LINE
  5
505D
330
4FD5
100
AcDbEntity
  8
_0-1_
  6
Continuous
 62
     7
100
AcDbLine
 10
-73.44371799999999
 20
10.034434
 30
0.0
 11
-76.09899999999999
 21
10.042598
 31
0.0
  0
LINE
  5
505E
330
4FD5
100
AcDbEntity
  8
_0-1_
  6
Continuous
 62
     7
100
AcDbLine
 10
-76.09899999999999
 20
10.042598
 30
0.0
 11
-78.754178
 21
9.9775
 31
0.0
  0
ENDBLK
  5
505F
330
4FD5
100
AcDbEntity
  8
0
100
AcDbBlockEnd
  0
BLOCK
  5
5062
330
5061
100
AcDbEntity
  8
0
100
AcDbBlockBegin
  2
-003-LW_POLYLINE_4
 70
     0
 10
0.0
 20
0.0
 30
0.0
  3
-003-LW_POLYLINE_4
  1
-003-LW_POLYLINE_4
  0
LINE
  5
5063
330
5061
100
AcDbEntity
  8
_0-1_
  6
Continuous
 62
     7
100
AcDbLine
 10
16.970562
 20
-16.970562
 30
0.0
 11
19.665396
 21
-14.620696
 31
0.0
  0
LINE
  5
5064
330
5061
100
AcDbEntity
  8
_0-1_
  6
Continuous
 62
     7
100
AcDbLine
 10
19.665396
 20
-14.620696
 30
0.0
 11
22.40958
 21
-12.345154
 31
0.0
  0
LINE
  5
5065
330
5061
100
AcDbEntity
  8
_0-1_
  6
Continuous
 62
     7
100
AcDbLine
 10
22.40958
 20
-12.345154
 30
0.0
 11
25.252456
 21
-10.21826
 31
0.0
  0
LINE
  5
5066
330
5061
100
AcDbEntity
  8
_0-1_
  6
Continuous
 62
     7
100
AcDbLine
 10
25.252456
 20
-10.21826
 30
0.0
 11
28.24201
 21
-8.312618
 31
0.0
  0
LINE
  5
5067
330
5061
100
AcDbEntity
  8
_0-1_
  6
Continuous
 62
     7
100
AcDbLine
 10
28.24201
 20
-8.312618
 30
0.0
 11
31.385084
 21
-6.648952000000001
 31
0.0
  0
LINE
  5
5068
330
5061
100
AcDbEntity
  8
_0-1_
  6
Continuous
 62
     7
100
AcDbLine
 10
31.385084
 20
-6.648952000000001
 30
0.0
 11
34.641104
 21
-5.188186000000002
 31
0.0
  0
LINE
  5
5069
330
5061
100
AcDbEntity
  8
_0-1_
  6
Continuous
 62
     7
100
AcDbLine
 10
34.641104
 20
-5.188186000000002
 30
0.0
 11
37.966888
 21
-3.887952000000002
 31
0.0
  0
LINE
  5
506A
330
5061
100
AcDbEntity
  8
_0-1_
  6
Continuous
 62
     7
100
AcDbLine
 10
37.966888
 20
-3.887952000000002
 30
0.0
 11
41.330162
 21
-2.715478000000001
 31
0.0
  0
LINE
  5
506B
330
5061
100
AcDbEntity
  8
_0-1_
  6
Continuous
 62
     7
100
AcDbLine
 10
41.330162
 20
-2.715478000000001
 30
0.0
 11
44.72657
 21
-1.662552000000005
 31
0.0
  0
LINE
  5
506C
330
5061
100
AcDbEntity
  8
_0-1_
  6
Continuous
 62
     7
100
AcDbLine
 10
44.72657
 20
-1.662552000000005
 30
0.0
 11
48.156144
 21
-0.7248680000000007
 31
0.0
  0
LINE
  5
506D
330
5061
100
AcDbEntity
  8
_0-1_
  6
Continuous
 62
     7
100
AcDbLine
 10
48.156144
 20
-0.7248680000000007
 30
0.0
 11
51.617402
 21
0.0987519999999975
 31
0.0
  0
LINE
  5
506E
330
5061
100
AcDbEntity
  8
_0-1_
  6
Continuous
 62
     7
100
AcDbLine
 10
51.617402
 20
0.0987519999999975
 30
0.0
 11
55.10583800000001
 21
0.803301999999995
 31
0.0
  0
LINE
  5
506F
330
5061
100
AcDbEntity
  8
_0-1_
  6
Continuous
 62
     7
100
AcDbLine
 10
55.10583800000001
 20
0.803301999999995
 30
0.0
 11
58.616618
 21
1.383117999999996
 31
0.0
  0
LINE
  5
5070
330
5061
100
AcDbEntity
  8
_0-1_
  6
Continuous
 62
     7
100
AcDbLine
 10
58.616618
 20
1.383117999999996
 30
0.0
 11
62.145212
 21
1.834579999999995
 31
0.0
  0
LINE
  5
5071
330
5061
100
AcDbEntity
  8
_0-1_
  6
Continuous
 62
     7
100
AcDbLine
 10
62.145212
 20
1.834579999999995
 30
0.0
 11
65.687432
 21
2.158175999999997
 31
0.0
  0
LINE
  5
5072
330
5061
100
AcDbEntity
  8
_0-1_
  6
Continuous
 62
     7
100
AcDbLine
 10
65.687432
 20
2.158175999999997
 30
0.0
 11
69.238342
 21
2.373553999999999
 31
0.0
  0
LINE
  5
5073
330
5061
100
AcDbEntity
  8
_0-1_
  6
Continuous
 62
     7
100
AcDbLine
 10
69.238342
 20
2.373553999999999
 30
0.0
 11
72.79295
 21
2.510669999999998
 31
0.0
  0
LINE
  5
5074
330
5061
100
AcDbEntity
  8
_0-1_
  6
Continuous
 62
     7
100
AcDbLine
 10
72.79295
 20
2.510669999999998
 30
0.0
 11
76.349148
 21
2.583553999999999
 31
0.0
  0
LINE
  5
5075
330
5061
100
AcDbEntity
  8
_0-1_
  6
Continuous
 62
     7
100
AcDbLine
 10
76.349148
 20
2.583553999999999
 30
0.0
 11
79.90607
 21
2.612479999999998
 31
0.0
  0
ENDBLK
  5
5076
330
5061
100
AcDbEntity
  8
0
100
AcDbBlockEnd
  0
BLOCK
  5
5093
330
5092
100
AcDbEntity
  8
0
100
AcDbBlockBegin
  2
-000-LW_POLYLINE_1
 70
     0
 10
0.0
 20
0.0
 30
0.0
  3
-000-LW_POLYLINE_1
  1
-000-LW_POLYLINE_1
  0
LINE
  5
5094
330
5092
100
AcDbEntity
  8
_0-1_
  6
Continuous
 62
     7
100
AcDbLine
 10
-24.630286
 20
583.0
 30
0.0
 11
-22.535518
 21
582.985534
 31
0.0
  0
LINE
  5
5095
330
5092
100
AcDbEntity
  8
_0-1_
  6
Continuous
 62
     7
100
AcDbLine
 10
-22.535518
 20
582.985534
 30
0.0
 11
-20.44085
 21
582.966552
 31
0.0
  0
LINE
  5
5096
330
5092
100
AcDbEntity
  8
_0-1_
  6
Continuous
 62
     7
100
AcDbLine
 10
-20.44085
 20
582.966552
 30
0.0
 11
-18.346388
 21
582.938598
 31
0.0
  0
LINE
  5
5097
330
5092
100
AcDbEntity
  8
_0-1_
  6
Continuous
 62
     7
100
AcDbLine
 10
-18.346388
 20
582.938598
 30
0.0
 11
-16.252228
 21
582.897094
 31
0.0
  0
LINE
  5
5098
330
5092
100
AcDbEntity
  8
_0-1_
  6
Continuous
 62
     7
100
AcDbLine
 10
-16.252228
 20
582.897094
 30
0.0
 11
-14.158478
 21
582.837586
 31
0.0
  0
LINE
  5
5099
330
5092
100
AcDbEntity
  8
_0-1_
  6
Continuous
 62
     7
100
AcDbLine
 10
-14.158478
 20
582.837586
 30
0.0
 11
-12.065292
 21
582.757508
 31
0.0
  0
LINE
  5
509A
330
5092
100
AcDbEntity
  8
_0-1_
  6
Continuous
 62
     7
100
AcDbLine
 10
-12.065292
 20
582.757508
 30
0.0
 11
-9.972895999999999
 21
582.657104
 31
0.0
  0
LINE
  5
509B
330
5092
100
AcDbEntity
  8
_0-1_
  6
Continuous
 62
     7
100
AcDbLine
 10
-9.972895999999999
 20
582.657104
 30
0.0
 11
-7.881533999999995
 21
582.536866
 31
0.0
  0
LINE
  5
509C
330
5092
100
AcDbEntity
  8
_0-1_
  6
Continuous
 62
     7
100
AcDbLine
 10
-7.881533999999995
 20
582.536866
 30
0.0
 11
-5.791433999999995
 21
582.397216
 31
0.0
  0
LINE
  5
509D
330
5092
100
AcDbEntity
  8
_0-1_
  6
Continuous
 62
     7
100
AcDbLine
 10
-5.791433999999995
 20
582.397216
 30
0.0
 11
-3.702723999999996
 21
582.239502
 31
0.0
  0
LINE
  5
509E
330
5092
100
AcDbEntity
  8
_0-1_
  6
Continuous
 62
     7
100
AcDbLine
 10
-3.702723999999996
 20
582.239502
 30
0.0
 11
-1.615207999999996
 21
582.066772
 31
0.0
  0
LINE
  5
509F
330
5092
100
AcDbEntity
  8
_0-1_
  6
Continuous
 62
     7
100
AcDbLine
 10
-1.615207999999996
 20
582.066772
 30
0.0
 11
0.4713440000000019
 21
581.882202
 31
0.0
  0
LINE
  5
50A0
330
5092
100
AcDbEntity
  8
_0-1_
  6
Continuous
 62
     7
100
AcDbLine
 10
0.4713440000000019
 20
581.882202
 30
0.0
 11
2.557160000000003
 21
581.689332
 31
0.0
  0
LINE
  5
50A1
330
5092
100
AcDbEntity
  8
_0-1_
  6
Continuous
 62
     7
100
AcDbLine
 10
2.557160000000003
 20
581.689332
 30
0.0
 11
4.642479999999999
 21
581.491272
 31
0.0
  0
LINE
  5
50A2
330
5092
100
AcDbEntity
  8
_0-1_
  6
Continuous
 62
     7
100
AcDbLine
 10
4.642479999999999
 20
581.491272
 30
0.0
 11
6.727566000000003
 21
581.29126
 31
0.0
  0
LINE
  5
50A3
330
5092
100
AcDbEntity
  8
_0-1_
  6
Continuous
 62
     7
100
AcDbLine
 10
6.727566000000003
 20
581.29126
 30
0.0
 11
8.812705999999999
 21
581.092164
 31
0.0
  0
LINE
  5
50A4
330
5092
100
AcDbEntity
  8
_0-1_
  6
Continuous
 62
     7
100
AcDbLine
 10
8.812705999999999
 20
581.092164
 30
0.0
 11
10.89819
 21
580.89679
 31
0.0
  0
LINE
  5
50A5
330
5092
100
AcDbEntity
  8
_0-1_
  6
Continuous
 62
     7
100
AcDbLine
 10
10.89819
 20
580.89679
 30
0.0
 11
12.984302
 21
580.70819
 31
0.0
  0
LINE
  5
50A6
330
5092
100
AcDbEntity
  8
_0-1_
  6
Continuous
 62
     7
100
AcDbLine
 10
12.984302
 20
580.70819
 30
0.0
 11
15.07129800000001
 21
580.52887
 31
0.0
  0
LINE
  5
50A7
330
5092
100
AcDbEntity
  8
_0-1_
  6
Continuous
 62
     7
100
AcDbLine
 10
15.07129800000001
 20
580.52887
 30
0.0
 11
17.159196
 21
580.359924
 31
0.0
  0
LINE
  5
50A8
330
5092
100
AcDbEntity
  8
_0-1_
  6
Continuous
 62
     7
100
AcDbLine
 10
17.159196
 20
580.359924
 30
0.0
 11
19.247978
 21
580.201904
 31
0.0
  0
LINE
  5
50A9
330
5092
100
AcDbEntity
  8
_0-1_
  6
Continuous
 62
     7
100
AcDbLine
 10
19.247978
 20
580.201904
 30
0.0
 11
21.337608
 21
580.05542
 31
0.0
  0
LINE
  5
50AA
330
5092
100
AcDbEntity
  8
_0-1_
  6
Continuous
 62
     7
100
AcDbLine
 10
21.337608
 20
580.05542
 30
0.0
 11
23.428062
 21
579.92102
 31
0.0
  0
LINE
  5
50AB
330
5092
100
AcDbEntity
  8
_0-1_
  6
Continuous
 62
     7
100
AcDbLine
 10
23.428062
 20
579.92102
 30
0.0
 11
25.51931800000001
 21
579.799378
 31
0.0
  0
LINE
  5
50AC
330
5092
100
AcDbEntity
  8
_0-1_
  6
Continuous
 62
     7
100
AcDbLine
 10
25.51931800000001
 20
579.799378
 30
0.0
 11
27.611336
 21
579.691102
 31
0.0
  0
LINE
  5
50AD
330
5092
100
AcDbEntity
  8
_0-1_
  6
Continuous
 62
     7
100
AcDbLine
 10
27.611336
 20
579.691102
 30
0.0
 11
29.704072
 21
579.59668
 31
0.0
  0
LINE
  5
50AE
330
5092
100
AcDbEntity
  8
_0-1_
  6
Continuous
 62
     7
100
AcDbLine
 10
29.704072
 20
579.59668
 30
0.0
 11
31.797424
 21
579.516662
 31
0.0
  0
LINE
  5
50AF
330
5092
100
AcDbEntity
  8
_0-1_
  6
Continuous
 62
     7
100
AcDbLine
 10
31.797424
 20
579.516662
 30
0.0
 11
33.891282
 21
579.451538
 31
0.0
  0
LINE
  5
50B0
330
5092
100
AcDbEntity
  8
_0-1_
  6
Continuous
 62
     7
100
AcDbLine
 10
33.891282
 20
579.451538
 30
0.0
 11
35.985558
 21
579.401794
 31
0.0
  0
LINE
  5
50B1
330
5092
100
AcDbEntity
  8
_0-1_
  6
Continuous
 62
     7
100
AcDbLine
 10
35.985558
 20
579.401794
 30
0.0
 11
38.08014000000001
 21
579.36798
 31
0.0
  0
LINE
  5
50B2
330
5092
100
AcDbEntity
  8
_0-1_
  6
Continuous
 62
     7
100
AcDbLine
 10
38.08014000000001
 20
579.36798
 30
0.0
 11
40.17492000000001
 21
579.350586
 31
0.0
  0
LINE
  5
50B3
330
5092
100
AcDbEntity
  8
_0-1_
  6
Continuous
 62
     7
100
AcDbLine
 10
40.17492000000001
 20
579.350586
 30
0.0
 11
42.269798
 21
579.350036
 31
0.0
  0
LINE
  5
50B4
330
5092
100
AcDbEntity
  8
_0-1_
  6
Continuous
 62
     7
100
AcDbLine
 10
42.269798
 20
579.350036
 30
0.0
 11
44.364662
 21
579.36676
 31
0.0
  0
LINE
  5
50B5
330
5092
100
AcDbEntity
  8
_0-1_
  6
Continuous
 62
     7
100
AcDbLine
 10
44.364662
 20
579.36676
 30
0.0
 11
46.459366
 21
579.40094
 31
0.0
  0
LINE
  5
50B6
330
5092
100
AcDbEntity
  8
_0-1_
  6
Continuous
 62
     7
100
AcDbLine
 10
46.459366
 20
579.40094
 30
0.0
 11
48.55375
 21
579.452576
 31
0.0
  0
LINE
  5
50B7
330
5092
100
AcDbEntity
  8
_0-1_
  6
Continuous
 62
     7
100
AcDbLine
 10
48.55375
 20
579.452576
 30
0.0
 11
50.647674
 21
579.52185
 31
0.0
  0
LINE
  5
50B8
330
5092
100
AcDbEntity
  8
_0-1_
  6
Continuous
 62
     7
100
AcDbLine
 10
50.647674
 20
579.52185
 30
0.0
 11
52.740982
 21
579.608826
 31
0.0
  0
LINE
  5
50B9
330
5092
100
AcDbEntity
  8
_0-1_
  6
Continuous
 62
     7
100
AcDbLine
 10
52.740982
 20
579.608826
 30
0.0
 11
54.833526
 21
579.713562
 31
0.0
  0
LINE
  5
50BA
330
5092
100
AcDbEntity
  8
_0-1_
  6
Continuous
 62
     7
100
AcDbLine
 10
54.833526
 20
579.713562
 30
0.0
 11
56.925164
 21
579.836242
 31
0.0
  0
LINE
  5
50BB
330
5092
100
AcDbEntity
  8
_0-1_
  6
Continuous
 62
     7
100
AcDbLine
 10
56.925164
 20
579.836242
 30
0.0
 11
59.01573200000001
 21
579.97699
 31
0.0
  0
LINE
  5
50BC
330
5092
100
AcDbEntity
  8
_0-1_
  6
Continuous
 62
     7
100
AcDbLine
 10
59.01573200000001
 20
579.97699
 30
0.0
 11
61.105088
 21
580.135804
 31
0.0
  0
LINE
  5
50BD
330
5092
100
AcDbEntity
  8
_0-1_
  6
Continuous
 62
     7
100
AcDbLine
 10
61.105088
 20
580.135804
 30
0.0
 11
63.193032
 21
580.312928
 31
0.0
  0
LINE
  5
50BE
330
5092
100
AcDbEntity
  8
_0-1_
  6
Continuous
 62
     7
100
AcDbLine
 10
63.193032
 20
580.312928
 30
0.0
 11
65.27932799999999
 21
580.508728
 31
0.0
  0
LINE
  5
50BF
330
5092
100
AcDbEntity
  8
_0-1_
  6
Continuous
 62
     7
100
AcDbLine
 10
65.27932799999999
 20
580.508728
 30
0.0
 11
67.36371600000001
 21
580.723572
 31
0.0
  0
LINE
  5
50C0
330
5092
100
AcDbEntity
  8
_0-1_
  6
Continuous
 62
     7
100
AcDbLine
 10
67.36371600000001
 20
580.723572
 30
0.0
 11
69.445954
 21
580.957702
 31
0.0
  0
LINE
  5
50C1
330
5092
100
AcDbEntity
  8
_0-1_
  6
Continuous
 62
     7
100
AcDbLine
 10
69.445954
 20
580.957702
 30
0.0
 11
71.525788
 21
581.211548
 31
0.0
  0
LINE
  5
50C2
330
5092
100
AcDbEntity
  8
_0-1_
  6
Continuous
 62
     7
100
AcDbLine
 10
71.525788
 20
581.211548
 30
0.0
 11
73.60297399999999
 21
581.485412
 31
0.0
  0
LINE
  5
50C3
330
5092
100
AcDbEntity
  8
_0-1_
  6
Continuous
 62
     7
100
AcDbLine
 10
73.60297399999999
 20
581.485412
 30
0.0
 11
75.67726200000001
 21
581.779664
 31
0.0
  0
LINE
  5
50C4
330
5092
100
AcDbEntity
  8
_0-1_
  6
Continuous
 62
     7
100
AcDbLine
 10
75.67726200000001
 20
581.779664
 30
0.0
 11
77.74839800000001
 21
582.094604
 31
0.0
  0
LINE
  5
50C5
330
5092
100
AcDbEntity
  8
_0-1_
  6
Continuous
 62
     7
100
AcDbLine
 10
77.74839800000001
 20
582.094604
 30
0.0
 11
79.816148
 21
582.430542
 31
0.0
  0
LINE
  5
50C6
330
5092
100
AcDbEntity
  8
_0-1_
  6
Continuous
 62
     7
100
AcDbLine
 10
79.816148
 20
582.430542
 30
0.0
 11
81.88041800000002
 21
582.78717
 31
0.0
  0
LINE
  5
50C7
330
5092
100
AcDbEntity
  8
_0-1_
  6
Continuous
 62
     7
100
AcDbLine
 10
81.88041800000002
 20
582.78717
 30
0.0
 11
83.941238
 21
583.163392
 31
0.0
  0
LINE
  5
50C8
330
5092
100
AcDbEntity
  8
_0-1_
  6
Continuous
 62
     7
100
AcDbLine
 10
83.941238
 20
583.163392
 30
0.0
 11
85.99868800000002
 21
583.557984
 31
0.0
  0
LINE
  5
50C9
330
5092
100
AcDbEntity
  8
_0-1_
  6
Continuous
 62
     7
100
AcDbLine
 10
85.99868800000002
 20
583.557984
 30
0.0
 11
88.05281200000002
 21
583.96997
 31
0.0
  0
LINE
  5
50CA
330
5092
100
AcDbEntity
  8
_0-1_
  6
Continuous
 62
     7
100
AcDbLine
 10
88.05281200000002
 20
583.96997
 30
0.0
 11
90.103668
 21
584.398194
 31
0.0
  0
LINE
  5
50CB
330
5092
100
AcDbEntity
  8
_0-1_
  6
Continuous
 62
     7
100
AcDbLine
 10
90.103668
 20
584.398194
 30
0.0
 11
92.15133800000001
 21
584.841552
 31
0.0
  0
LINE
  5
50CC
330
5092
100
AcDbEntity
  8
_0-1_
  6
Continuous
 62
     7
100
AcDbLine
 10
92.15133800000001
 20
584.841552
 30
0.0
 11
94.19584600000002
 21
585.29889
 31
0.0
  0
LINE
  5
50CD
330
5092
100
AcDbEntity
  8
_0-1_
  6
Continuous
 62
     7
100
AcDbLine
 10
94.19584600000002
 20
585.29889
 30
0.0
 11
96.23727400000001
 21
585.769166
 31
0.0
  0
LINE
  5
50CE
330
5092
100
AcDbEntity
  8
_0-1_
  6
Continuous
 62
     7
100
AcDbLine
 10
96.23727400000001
 20
585.769166
 30
0.0
 11
98.275834
 21
586.251282
 31
0.0
  0
LINE
  5
50CF
330
5092
100
AcDbEntity
  8
_0-1_
  6
Continuous
 62
     7
100
AcDbLine
 10
98.275834
 20
586.251282
 30
0.0
 11
100.311752
 21
586.744018
 31
0.0
  0
LINE
  5
50D0
330
5092
100
AcDbEntity
  8
_0-1_
  6
Continuous
 62
     7
100
AcDbLine
 10
100.311752
 20
586.744018
 30
0.0
 11
102.345322
 21
587.246338
 31
0.0
  0
LINE
  5
50D1
330
5092
100
AcDbEntity
  8
_0-1_
  6
Continuous
 62
     7
100
AcDbLine
 10
102.345322
 20
587.246338
 30
0.0
 11
104.37677
 21
587.75708
 31
0.0
  0
LINE
  5
50D2
330
5092
100
AcDbEntity
  8
_0-1_
  6
Continuous
 62
     7
100
AcDbLine
 10
104.37677
 20
587.75708
 30
0.0
 11
106.406372
 21
588.275146
 31
0.0
  0
LINE
  5
50D3
330
5092
100
AcDbEntity
  8
_0-1_
  6
Continuous
 62
     7
100
AcDbLine
 10
106.406372
 20
588.275146
 30
0.0
 11
108.434372
 21
588.7995
 31
0.0
  0
LINE
  5
50D4
330
5092
100
AcDbEntity
  8
_0-1_
  6
Continuous
 62
     7
100
AcDbLine
 10
108.434372
 20
588.7995
 30
0.0
 11
110.46103
 21
589.328858
 31
0.0
  0
LINE
  5
50D5
330
5092
100
AcDbEntity
  8
_0-1_
  6
Continuous
 62
     7
100
AcDbLine
 10
110.46103
 20
589.328858
 30
0.0
 11
112.487
 21
589.860778
 31
0.0
  0
LINE
  5
50D6
330
5092
100
AcDbEntity
  8
_0-1_
  6
Continuous
 62
     7
100
AcDbLine
 10
112.487
 20
589.860778
 30
0.0
 11
114.513352
 21
590.391114
 31
0.0
  0
LINE
  5
50D7
330
5092
100
AcDbEntity
  8
_0-1_
  6
Continuous
 62
     7
100
AcDbLine
 10
114.513352
 20
590.391114
 30
0.0
 11
116.541244
 21
590.91565
 31
0.0
  0
LINE
  5
50D8
330
5092
100
AcDbEntity
  8
_0-1_
  6
Continuous
 62
     7
100
AcDbLine
 10
116.541244
 20
590.91565
 30
0.0
 11
118.571792
 21
591.430114
 31
0.0
  0
LINE
  5
50D9
330
5092
100
AcDbEntity
  8
_0-1_
  6
Continuous
 62
     7
100
AcDbLine
 10
118.571792
 20
591.430114
 30
0.0
 11
120.60608
 21
591.929992
 31
0.0
  0
LINE
  5
50DA
330
5092
100
AcDbEntity
  8
_0-1_
  6
Continuous
 62
     7
100
AcDbLine
 10
120.60608
 20
591.929992
 30
0.0
 11
122.645066
 21
592.4104
 31
0.0
  0
LINE
  5
50DB
330
5092
100
AcDbEntity
  8
_0-1_
  6
Continuous
 62
     7
100
AcDbLine
 10
122.645066
 20
592.4104
 30
0.0
 11
124.689698
 21
592.866088
 31
0.0
  0
LINE
  5
50DC
330
5092
100
AcDbEntity
  8
_0-1_
  6
Continuous
 62
     7
100
AcDbLine
 10
124.689698
 20
592.866088
 30
0.0
 11
126.74089
 21
593.291932
 31
0.0
  0
LINE
  5
50DD
330
5092
100
AcDbEntity
  8
_0-1_
  6
Continuous
 62
     7
100
AcDbLine
 10
126.74089
 20
593.291932
 30
0.0
 11
128.800004
 21
593.679138
 31
0.0
  0
LINE
  5
50DE
330
5092
100
AcDbEntity
  8
_0-1_
  6
Continuous
 62
     7
100
AcDbLine
 10
128.800004
 20
593.679138
 30
0.0
 11
130.87053
 21
593.998292
 31
0.0
  0
LINE
  5
50DF
330
5092
100
AcDbEntity
  8
_0-1_
  6
Continuous
 62
     7
100
AcDbLine
 10
130.87053
 20
593.998292
 30
0.0
 11
132.95665
 21
594.213134
 31
0.0
  0
LINE
  5
50E0
330
5092
100
AcDbEntity
  8
_0-1_
  6
Continuous
 62
     7
100
AcDbLine
 10
132.95665
 20
594.213134
 30
0.0
 11
135.0551
 21
594.2865
 31
0.0
  0
LINE
  5
50E1
330
5092
100
AcDbEntity
  8
_0-1_
  6
Continuous
 62
     7
100
AcDbLine
 10
135.0551
 20
594.2865
 30
0.0
 11
137.1494
 21
594.180236
 31
0.0
  0
LINE
  5
50E2
330
5092
100
AcDbEntity
  8
_0-1_
  6
Continuous
 62
     7
100
AcDbLine
 10
137.1494
 20
594.180236
 30
0.0
 11
139.221314
 21
593.859252
 31
0.0
  0
LINE
  5
50E3
330
5092
100
AcDbEntity
  8
_0-1_
  6
Continuous
 62
     7
100
AcDbLine
 10
139.221314
 20
593.859252
 30
0.0
 11
141.249436
 21
593.319214
 31
0.0
  0
LINE
  5
50E4
330
5092
100
AcDbEntity
  8
_0-1_
  6
Continuous
 62
     7
100
AcDbLine
 10
141.249436
 20
593.319214
 30
0.0
 11
143.210892
 21
592.572266
 31
0.0
  0
LINE
  5
50E5
330
5092
100
AcDbEntity
  8
_0-1_
  6
Continuous
 62
     7
100
AcDbLine
 10
143.210892
 20
592.572266
 30
0.0
 11
145.087158
 21
591.633118
 31
0.0
  0
LINE
  5
50E6
330
5092
100
AcDbEntity
  8
_0-1_
  6
Continuous
 62
     7
100
AcDbLine
 10
145.087158
 20
591.633118
 30
0.0
 11
146.863496
 21
590.518372
 31
0.0
  0
LINE
  5
50E7
330
5092
100
AcDbEntity
  8
_0-1_
  6
Continuous
 62
     7
100
AcDbLine
 10
146.863496
 20
590.518372
 30
0.0
 11
148.532242
 21
589.248474
 31
0.0
  0
LINE
  5
50E8
330
5092
100
AcDbEntity
  8
_0-1_
  6
Continuous
 62
     7
100
AcDbLine
 10
148.532242
 20
589.248474
 30
0.0
 11
150.097214
 21
587.850036
 31
0.0
  0
LINE
  5
50E9
330
5092
100
AcDbEntity
  8
_0-1_
  6
Continuous
 62
     7
100
AcDbLine
 10
150.097214
 20
587.850036
 30
0.0
 11
151.563172
 21
586.349304
 31
0.0
  0
LINE
  5
50EA
330
5092
100
AcDbEntity
  8
_0-1_
  6
Continuous
 62
     7
100
AcDbLine
 10
151.563172
 20
586.349304
 30
0.0
 11
152.93361
 21
584.76294
 31
0.0
  0
LINE
  5
50EB
330
5092
100
AcDbEntity
  8
_0-1_
  6
Continuous
 62
     7
100
AcDbLine
 10
152.93361
 20
584.76294
 30
0.0
 11
154.211258
 21
583.10144
 31
0.0
  0
LINE
  5
50EC
330
5092
100
AcDbEntity
  8
_0-1_
  6
Continuous
 62
     7
100
AcDbLine
 10
154.211258
 20
583.10144
 30
0.0
 11
155.399612
 21
581.375366
 31
0.0
  0
LINE
  5
50ED
330
5092
100
AcDbEntity
  8
_0-1_
  6
Continuous
 62
     7
100
AcDbLine
 10
155.399612
 20
581.375366
 30
0.0
 11
156.505586
 21
579.59491
 31
0.0
  0
LINE
  5
50EE
330
5092
100
AcDbEntity
  8
_0-1_
  6
Continuous
 62
     7
100
AcDbLine
 10
156.505586
 20
579.59491
 30
0.0
 11
157.536942
 21
577.770386
 31
0.0
  0
LINE
  5
50EF
330
5092
100
AcDbEntity
  8
_0-1_
  6
Continuous
 62
     7
100
AcDbLine
 10
157.536942
 20
577.770386
 30
0.0
 11
158.5029
 21
575.911438
 31
0.0
  0
LINE
  5
50F0
330
5092
100
AcDbEntity
  8
_0-1_
  6
Continuous
 62
     7
100
AcDbLine
 10
158.5029
 20
575.911438
 30
0.0
 11
159.416244
 21
574.026
 31
0.0
  0
LINE
  5
50F1
330
5092
100
AcDbEntity
  8
_0-1_
  6
Continuous
 62
     7
100
AcDbLine
 10
159.416244
 20
574.026
 30
0.0
 11
160.290146
 21
572.121766
 31
0.0
  0
LINE
  5
50F2
330
5092
100
AcDbEntity
  8
_0-1_
  6
Continuous
 62
     7
100
AcDbLine
 10
160.290146
 20
572.121766
 30
0.0
 11
161.132904
 21
570.203796
 31
0.0
  0
LINE
  5
50F3
330
5092
100
AcDbEntity
  8
_0-1_
  6
Continuous
 62
     7
100
AcDbLine
 10
161.132904
 20
570.203796
 30
0.0
 11
161.945068
 21
568.272828
 31
0.0
  0
LINE
  5
50F4
330
5092
100
AcDbEntity
  8
_0-1_
  6
Continuous
 62
     7
100
AcDbLine
 10
161.945068
 20
568.272828
 30
0.0
 11
162.726486
 21
566.329224
 31
0.0
  0
LINE
  5
50F5
330
5092
100
AcDbEntity
  8
_0-1_
  6
Continuous
 62
     7
100
AcDbLine
 10
162.726486
 20
566.329224
 30
0.0
 11
163.47696
 21
564.373414
 31
0.0
  0
LINE
  5
50F6
330
5092
100
AcDbEntity
  8
_0-1_
  6
Continuous
 62
     7
100
AcDbLine
 10
163.47696
 20
564.373414
 30
0.0
 11
164.195968
 21
562.4057
 31
0.0
  0
LINE
  5
50F7
330
5092
100
AcDbEntity
  8
_0-1_
  6
Continuous
 62
     7
100
AcDbLine
 10
164.195968
 20
562.4057
 30
0.0
 11
164.882858
 21
560.426636
 31
0.0
  0
LINE
  5
50F8
330
5092
100
AcDbEntity
  8
_0-1_
  6
Continuous
 62
     7
100
AcDbLine
 10
164.882858
 20
560.426636
 30
0.0
 11
165.536972
 21
558.436462
 31
0.0
  0
LINE
  5
50F9
330
5092
100
AcDbEntity
  8
_0-1_
  6
Continuous
 62
     7
100
AcDbLine
 10
165.536972
 20
558.436462
 30
0.0
 11
166.158264
 21
556.435852
 31
0.0
  0
LINE
  5
50FA
330
5092
100
AcDbEntity
  8
_0-1_
  6
Continuous
 62
     7
100
AcDbLine
 10
166.158264
 20
556.435852
 30
0.0
 11
166.747772
 21
554.425598
 31
0.0
  0
LINE
  5
50FB
330
5092
100
AcDbEntity
  8
_0-1_
  6
Continuous
 62
     7
100
AcDbLine
 10
166.747772
 20
554.425598
 30
0.0
 11
167.306686
 21
552.406616
 31
0.0
  0
LINE
  5
50FC
330
5092
100
AcDbEntity
  8
_0-1_
  6
Continuous
 62
     7
100
AcDbLine
 10
167.306686
 20
552.406616
 30
0.0
 11
167.836152
 21
550.379822
 31
0.0
  0
LINE
  5
50FD
330
5092
100
AcDbEntity
  8
_0-1_
  6
Continuous
 62
     7
100
AcDbLine
 10
167.836152
 20
550.379822
 30
0.0
 11
168.336732
 21
548.345764
 31
0.0
  0
LINE
  5
50FE
330
5092
100
AcDbEntity
  8
_0-1_
  6
Continuous
 62
     7
100
AcDbLine
 10
168.336732
 20
548.345764
 30
0.0
 11
168.80861
 21
546.30481
 31
0.0
  0
LINE
  5
50FF
330
5092
100
AcDbEntity
  8
_0-1_
  6
Continuous
 62
     7
100
AcDbLine
 10
168.80861
 20
546.30481
 30
0.0
 11
169.251938
 21
544.257264
 31
0.0
  0
LINE
  5
5100
330
5092
100
AcDbEntity
  8
_0-1_
  6
Continuous
 62
     7
100
AcDbLine
 10
169.251938
 20
544.257264
 30
0.0
 11
169.662704
 21
542.202942
 31
0.0
  0
LINE
  5
5101
330
5092
100
AcDbEntity
  8
_0-1_
  6
Continuous
 62
     7
100
AcDbLine
 10
169.662704
 20
542.202942
 30
0.0
 11
170.026108
 21
540.139892
 31
0.0
  0
LINE
  5
5102
330
5092
100
AcDbEntity
  8
_0-1_
  6
Continuous
 62
     7
100
AcDbLine
 10
170.026108
 20
540.139892
 30
0.0
 11
170.32579
 21
538.066162
 31
0.0
  0
LINE
  5
5103
330
5092
100
AcDbEntity
  8
_0-1_
  6
Continuous
 62
     7
100
AcDbLine
 10
170.32579
 20
538.066162
 30
0.0
 11
170.546982
 21
535.982238
 31
0.0
  0
LINE
  5
5104
330
5092
100
AcDbEntity
  8
_0-1_
  6
Continuous
 62
     7
100
AcDbLine
 10
170.546982
 20
535.982238
 30
0.0
 11
170.67633
 21
533.89087
 31
0.0
  0
LINE
  5
5105
330
5092
100
AcDbEntity
  8
_0-1_
  6
Continuous
 62
     7
100
AcDbLine
 10
170.67633
 20
533.89087
 30
0.0
 11
170.697388
 21
531.795472
 31
0.0
  0
LINE
  5
5106
330
5092
100
AcDbEntity
  8
_0-1_
  6
Continuous
 62
     7
100
AcDbLine
 10
170.697388
 20
531.795472
 30
0.0
 11
170.579972
 21
529.702454
 31
0.0
  0
LINE
  5
5107
330
5092
100
AcDbEntity
  8
_0-1_
  6
Continuous
 62
     7
100
AcDbLine
 10
170.579972
 20
529.702454
 30
0.0
 11
170.288682
 21
527.62152
 31
0.0
  0
LINE
  5
5108
330
5092
100
AcDbEntity
  8
_0-1_
  6
Continuous
 62
     7
100
AcDbLine
 10
170.288682
 20
527.62152
 30
0.0
 11
169.77327
 21
525.587036
 31
0.0
  0
LINE
  5
5109
330
5092
100
AcDbEntity
  8
_0-1_
  6
Continuous
 62
     7
100
AcDbLine
 10
169.77327
 20
525.587036
 30
0.0
 11
168.978318
 21
523.646668
 31
0.0
  0
LINE
  5
510A
330
5092
100
AcDbEntity
  8
_0-1_
  6
Continuous
 62
     7
100
AcDbLine
 10
168.978318
 20
523.646668
 30
0.0
 11
167.895234
 21
521.847352
 31
0.0
  0
LINE
  5
510B
330
5092
100
AcDbEntity
  8
_0-1_
  6
Continuous
 62
     7
100
AcDbLine
 10
167.895234
 20
521.847352
 30
0.0
 11
166.555604
 21
520.232238
 31
0.0
  0
LINE
  5
510C
330
5092
100
AcDbEntity
  8
_0-1_
  6
Continuous
 62
     7
100
AcDbLine
 10
166.555604
 20
520.232238
 30
0.0
 11
165.005646
 21
518.817138
 31
0.0
  0
LINE
  5
510D
330
5092
100
AcDbEntity
  8
_0-1_
  6
Continuous
 62
     7
100
AcDbLine
 10
165.005646
 20
518.817138
 30
0.0
 11
163.296112
 21
517.601806
 31
0.0
  0
LINE
  5
510E
330
5092
100
AcDbEntity
  8
_0-1_
  6
Continuous
 62
     7
100
AcDbLine
 10
163.296112
 20
517.601806
 30
0.0
 11
161.46669
 21
516.572326
 31
0.0
  0
LINE
  5
510F
330
5092
100
AcDbEntity
  8
_0-1_
  6
Continuous
 62
     7
100
AcDbLine
 10
161.46669
 20
516.572326
 30
0.0
 11
159.552826
 21
515.710572
 31
0.0
  0
LINE
  5
5110
330
5092
100
AcDbEntity
  8
_0-1_
  6
Continuous
 62
     7
100
AcDbLine
 10
159.552826
 20
515.710572
 30
0.0
 11
157.578324
 21
515.004334
 31
0.0
  0
LINE
  5
5111
330
5092
100
AcDbEntity
  8
_0-1_
  6
Continuous
 62
     7
100
AcDbLine
 10
157.578324
 20
515.004334
 30
0.0
 11
155.557786
 21
514.445862
 31
0.0
  0
LINE
  5
5112
330
5092
100
AcDbEntity
  8
_0-1_
  6
Continuous
 62
     7
100
AcDbLine
 10
155.557786
 20
514.445862
 30
0.0
 11
153.504532
 21
514.024842
 31
0.0
  0
LINE
  5
5113
330
5092
100
AcDbEntity
  8
_0-1_
  6
Continuous
 62
     7
100
AcDbLine
 10
153.504532
 20
514.024842
 30
0.0
 11
151.429336
 21
513.724914
 31
0.0
  0
LINE
  5
5114
330
5092
100
AcDbEntity
  8
_0-1_
  6
Continuous
 62
     7
100
AcDbLine
 10
151.429336
 20
513.724914
 30
0.0
 11
149.342422
 21
513.528564
 31
0.0
  0
LINE
  5
5115
330
5092
100
AcDbEntity
  8
_0-1_
  6
Continuous
 62
     7
100
AcDbLine
 10
149.342422
 20
513.528564
 30
0.0
 11
147.250274
 21
513.417968
 31
0.0
  0
LINE
  5
5116
330
5092
100
AcDbEntity
  8
_0-1_
  6
Continuous
 62
     7
100
AcDbLine
 10
147.250274
 20
513.417968
 30
0.0
 11
145.155534
 21
513.374938
 31
0.0
  0
LINE
  5
5117
330
5092
100
AcDbEntity
  8
_0-1_
  6
Continuous
 62
     7
100
AcDbLine
 10
145.155534
 20
513.374938
 30
0.0
 11
143.060502
 21
513.382812
 31
0.0
  0
LINE
  5
5118
330
5092
100
AcDbEntity
  8
_0-1_
  6
Continuous
 62
     7
100
AcDbLine
 10
143.060502
 20
513.382812
 30
0.0
 11
140.96634
 21
513.43573
 31
0.0
  0
LINE
  5
5119
330
5092
100
AcDbEntity
  8
_0-1_
  6
Continuous
 62
     7
100
AcDbLine
 10
140.96634
 20
513.43573
 30
0.0
 11
138.873764
 21
513.53186
 31
0.0
  0
LINE
  5
511A
330
5092
100
AcDbEntity
  8
_0-1_
  6
Continuous
 62
     7
100
AcDbLine
 10
138.873764
 20
513.53186
 30
0.0
 11
136.783508
 21
513.669494
 31
0.0
  0
LINE
  5
511B
330
5092
100
AcDbEntity
  8
_0-1_
  6
Continuous
 62
     7
100
AcDbLine
 10
136.783508
 20
513.669494
 30
0.0
 11
134.696244
 21
513.84729
 31
0.0
  0
LINE
  5
511C
330
5092
100
AcDbEntity
  8
_0-1_
  6
Continuous
 62
     7
100
AcDbLine
 10
134.696244
 20
513.84729
 30
0.0
 11
132.61261
 21
514.06366
 31
0.0
  0
LINE
  5
511D
330
5092
100
AcDbEntity
  8
_0-1_
  6
Continuous
 62
     7
100
AcDbLine
 10
132.61261
 20
514.06366
 30
0.0
 11
130.533142
 21
514.317016
 31
0.0
  0
LINE
  5
511E
330
5092
100
AcDbEntity
  8
_0-1_
  6
Continuous
 62
     7
100
AcDbLine
 10
130.533142
 20
514.317016
 30
0.0
 11
128.458268
 21
514.605468
 31
0.0
  0
LINE
  5
511F
330
5092
100
AcDbEntity
  8
_0-1_
  6
Continuous
 62
     7
100
AcDbLine
 10
128.458268
 20
514.605468
 30
0.0
 11
126.388382
 21
514.927062
 31
0.0
  0
LINE
  5
5120
330
5092
100
AcDbEntity
  8
_0-1_
  6
Continuous
 62
     7
100
AcDbLine
 10
126.388382
 20
514.927062
 30
0.0
 11
124.323242
 21
515.27771
 31
0.0
  0
LINE
  5
5121
330
5092
100
AcDbEntity
  8
_0-1_
  6
Continuous
 62
     7
100
AcDbLine
 10
124.323242
 20
515.27771
 30
0.0
 11
122.262222
 21
515.652222
 31
0.0
  0
LINE
  5
5122
330
5092
100
AcDbEntity
  8
_0-1_
  6
Continuous
 62
     7
100
AcDbLine
 10
122.262222
 20
515.652222
 30
0.0
 11
120.204712
 21
516.045472
 31
0.0
  0
LINE
  5
5123
330
5092
100
AcDbEntity
  8
_0-1_
  6
Continuous
 62
     7
100
AcDbLine
 10
120.204712
 20
516.045472
 30
0.0
 11
118.150376
 21
516.454896
 31
0.0
  0
LINE
  5
5124
330
5092
100
AcDbEntity
  8
_0-1_
  6
Continuous
 62
     7
100
AcDbLine
 10
118.150376
 20
516.454896
 30
0.0
 11
116.099106
 21
516.879334
 31
0.0
  0
LINE
  5
5125
330
5092
100
AcDbEntity
  8
_0-1_
  6
Continuous
 62
     7
100
AcDbLine
 10
116.099106
 20
516.879334
 30
0.0
 11
114.050736
 21
517.31775
 31
0.0
  0
LINE
  5
5126
330
5092
100
AcDbEntity
  8
_0-1_
  6
Continuous
 62
     7
100
AcDbLine
 10
114.050736
 20
517.31775
 30
0.0
 11
112.005112
 21
517.76892
 31
0.0
  0
LINE
  5
5127
330
5092
100
AcDbEntity
  8
_0-1_
  6
Continuous
 62
     7
100
AcDbLine
 10
112.005112
 20
517.76892
 30
0.0
 11
109.962112
 21
518.23175
 31
0.0
  0
LINE
  5
5128
330
5092
100
AcDbEntity
  8
_0-1_
  6
Continuous
 62
     7
100
AcDbLine
 10
109.962112
 20
518.23175
 30
0.0
 11
107.9216
 21
518.705384
 31
0.0
  0
LINE
  5
5129
330
5092
100
AcDbEntity
  8
_0-1_
  6
Continuous
 62
     7
100
AcDbLine
 10
107.9216
 20
518.705384
 30
0.0
 11
105.88356
 21
519.189332
 31
0.0
  0
LINE
  5
512A
330
5092
100
AcDbEntity
  8
_0-1_
  6
Continuous
 62
     7
100
AcDbLine
 10
105.88356
 20
519.189332
 30
0.0
 11
103.847978
 21
519.68341
 31
0.0
  0
LINE
  5
512B
330
5092
100
AcDbEntity
  8
_0-1_
  6
Continuous
 62
     7
100
AcDbLine
 10
103.847978
 20
519.68341
 30
0.0
 11
101.81482
 21
520.187438
 31
0.0
  0
LINE
  5
512C
330
5092
100
AcDbEntity
  8
_0-1_
  6
Continuous
 62
     7
100
AcDbLine
 10
101.81482
 20
520.187438
 30
0.0
 11
99.784074
 21
520.70105
 31
0.0
  0
LINE
  5
512D
330
5092
100
AcDbEntity
  8
_0-1_
  6
Continuous
 62
     7
100
AcDbLine
 10
99.784074
 20
520.70105
 30
0.0
 11
97.75573800000001
 21
521.22406
 31
0.0
  0
LINE
  5
512E
330
5092
100
AcDbEntity
  8
_0-1_
  6
Continuous
 62
     7
100
AcDbLine
 10
97.75573800000001
 20
521.22406
 30
0.0
 11
95.729782
 21
521.756226
 31
0.0
  0
LINE
  5
512F
330
5092
100
AcDbEntity
  8
_0-1_
  6
Continuous
 62
     7
100
AcDbLine
 10
95.729782
 20
521.756226
 30
0.0
 11
93.70614600000002
 21
522.29718
 31
0.0
  0
LINE
  5
5130
330
5092
100
AcDbEntity
  8
_0-1_
  6
Continuous
 62
     7
100
AcDbLine
 10
93.70614600000002
 20
522.29718
 30
0.0
 11
91.68478400000001
 21
522.846618
 31
0.0
  0
LINE
  5
5131
330
5092
100
AcDbEntity
  8
_0-1_
  6
Continuous
 62
     7
100
AcDbLine
 10
91.68478400000001
 20
522.846618
 30
0.0
 11
89.66562000000002
 21
523.404114
 31
0.0
  0
LINE
  5
5132
330
5092
100
AcDbEntity
  8
_0-1_
  6
Continuous
 62
     7
100
AcDbLine
 10
89.66562000000002
 20
523.404114
 30
0.0
 11
87.648606
 21
523.969422
 31
0.0
  0
LINE
  5
5133
330
5092
100
AcDbEntity
  8
_0-1_
  6
Continuous
 62
     7
100
AcDbLine
 10
87.648606
 20
523.969422
 30
0.0
 11
85.63368200000002
 21
524.542114
 31
0.0
  0
LINE
  5
5134
330
5092
100
AcDbEntity
  8
_0-1_
  6
Continuous
 62
     7
100
AcDbLine
 10
85.63368200000002
 20
524.542114
 30
0.0
 11
83.62077400000001
 21
525.121888
 31
0.0
  0
LINE
  5
5135
330
5092
100
AcDbEntity
  8
_0-1_
  6
Continuous
 62
     7
100
AcDbLine
 10
83.62077400000001
 20
525.121888
 30
0.0
 11
81.609834
 21
525.708374
 31
0.0
  0
LINE
  5
5136
330
5092
100
AcDbEntity
  8
_0-1_
  6
Continuous
 62
     7
100
AcDbLine
 10
81.609834
 20
525.708374
 30
0.0
 11
79.60080000000002
 21
526.301208
 31
0.0
  0
LINE
  5
5137
330
5092
100
AcDbEntity
  8
_0-1_
  6
Continuous
 62
     7
100
AcDbLine
 10
79.60080000000002
 20
526.301208
 30
0.0
 11
77.59355199999999
 21
526.900024
 31
0.0
  0
LINE
  5
5138
330
5092
100
AcDbEntity
  8
_0-1_
  6
Continuous
 62
     7
100
AcDbLine
 10
77.59355199999999
 20
526.900024
 30
0.0
 11
75.587998
 21
527.504516
 31
0.0
  0
LINE
  5
5139
330
5092
100
AcDbEntity
  8
_0-1_
  6
Continuous
 62
     7
100
AcDbLine
 10
75.587998
 20
527.504516
 30
0.0
 11
73.58403799999999
 21
528.114196
 31
0.0
  0
LINE
  5
513A
330
5092
100
AcDbEntity
  8
_0-1_
  6
Continuous
 62
     7
100
AcDbLine
 10
73.58403799999999
 20
528.114196
 30
0.0
 11
71.58155
 21
528.72876
 31
0.0
  0
LINE
  5
513B
330
5092
100
AcDbEntity
  8
_0-1_
  6
Continuous
 62
     7
100
AcDbLine
 10
71.58155
 20
528.72876
 30
0.0
 11
69.58045999999999
 21
529.34784
 31
0.0
  0
LINE
  5
513C
330
5092
100
AcDbEntity
  8
_0-1_
  6
Continuous
 62
     7
100
AcDbLine
 10
69.58045999999999
 20
529.34784
 30
0.0
 11
67.580644
 21
529.970948
 31
0.0
  0
LINE
  5
513D
330
5092
100
AcDbEntity
  8
_0-1_
  6
Continuous
 62
     7
100
AcDbLine
 10
67.580644
 20
529.970948
 30
0.0
 11
65.58200199999999
 21
530.59784
 31
0.0
  0
LINE
  5
513E
330
5092
100
AcDbEntity
  8
_0-1_
  6
Continuous
 62
     7
100
AcDbLine
 10
65.58200199999999
 20
530.59784
 30
0.0
 11
63.58441200000001
 21
531.228028
 31
0.0
  0
LINE
  5
513F
330
5092
100
AcDbEntity
  8
_0-1_
  6
Continuous
 62
     7
100
AcDbLine
 10
63.58441200000001
 20
531.228028
 30
0.0
 11
61.58773800000001
 21
531.861084
 31
0.0
  0
LINE
  5
5140
330
5092
100
AcDbEntity
  8
_0-1_
  6
Continuous
 62
     7
100
AcDbLine
 10
61.58773800000001
 20
531.861084
 30
0.0
 11
59.59182000000001
 21
532.49652
 31
0.0
  0
LINE
  5
5141
330
5092
100
AcDbEntity
  8
_0-1_
  6
Continuous
 62
     7
100
AcDbLine
 10
59.59182000000001
 20
532.49652
 30
0.0
 11
57.59652000000001
 21
533.133912
 31
0.0
  0
LINE
  5
5142
330
5092
100
AcDbEntity
  8
_0-1_
  6
Continuous
 62
     7
100
AcDbLine
 10
57.59652000000001
 20
533.133912
 30
0.0
 11
55.601678
 21
533.772706
 31
0.0
  0
LINE
  5
5143
330
5092
100
AcDbEntity
  8
_0-1_
  6
Continuous
 62
     7
100
AcDbLine
 10
55.601678
 20
533.772706
 30
0.0
 11
53.607156
 21
534.412536
 31
0.0
  0
LINE
  5
5144
330
5092
100
AcDbEntity
  8
_0-1_
  6
Continuous
 62
     7
100
AcDbLine
 10
53.607156
 20
534.412536
 30
0.0
 11
51.612794
 21
535.052918
 31
0.0
  0
LINE
  5
5145
330
5092
100
AcDbEntity
  8
_0-1_
  6
Continuous
 62
     7
100
AcDbLine
 10
51.612794
 20
535.052918
 30
0.0
 11
49.618446
 21
535.69336
 31
0.0
  0
LINE
  5
5146
330
5092
100
AcDbEntity
  8
_0-1_
  6
Continuous
 62
     7
100
AcDbLine
 10
49.618446
 20
535.69336
 30
0.0
 11
47.62397000000001
 21
536.333374
 31
0.0
  0
LINE
  5
5147
330
5092
100
AcDbEntity
  8
_0-1_
  6
Continuous
 62
     7
100
AcDbLine
 10
47.62397000000001
 20
536.333374
 30
0.0
 11
45.629196
 21
536.972474
 31
0.0
  0
LINE
  5
5148
330
5092
100
AcDbEntity
  8
_0-1_
  6
Continuous
 62
     7
100
AcDbLine
 10
45.629196
 20
536.972474
 30
0.0
 11
43.633964
 21
537.610168
 31
0.0
  0
LINE
  5
5149
330
5092
100
AcDbEntity
  8
_0-1_
  6
Continuous
 62
     7
100
AcDbLine
 10
43.633964
 20
537.610168
 30
0.0
 11
41.638108
 21
538.24585
 31
0.0
  0
LINE
  5
514A
330
5092
100
AcDbEntity
  8
_0-1_
  6
Continuous
 62
     7
100
AcDbLine
 10
41.638108
 20
538.24585
 30
0.0
 11
39.641442
 21
538.879028
 31
0.0
  0
LINE
  5
514B
330
5092
100
AcDbEntity
  8
_0-1_
  6
Continuous
 62
     7
100
AcDbLine
 10
39.641442
 20
538.879028
 30
0.0
 11
37.643814
 21
539.509094
 31
0.0
  0
LINE
  5
514C
330
5092
100
AcDbEntity
  8
_0-1_
  6
Continuous
 62
     7
100
AcDbLine
 10
37.643814
 20
539.509094
 30
0.0
 11
35.645036
 21
540.135498
 31
0.0
  0
LINE
  5
514D
330
5092
100
AcDbEntity
  8
_0-1_
  6
Continuous
 62
     7
100
AcDbLine
 10
35.645036
 20
540.135498
 30
0.0
 11
33.644952
 21
540.757752
 31
0.0
  0
LINE
  5
514E
330
5092
100
AcDbEntity
  8
_0-1_
  6
Continuous
 62
     7
100
AcDbLine
 10
33.644952
 20
540.757752
 30
0.0
 11
31.64338800000001
 21
541.375244
 31
0.0
  0
LINE
  5
514F
330
5092
100
AcDbEntity
  8
_0-1_
  6
Continuous
 62
     7
100
AcDbLine
 10
31.64338800000001
 20
541.375244
 30
0.0
 11
29.640168
 21
541.987488
 31
0.0
  0
LINE
  5
5150
330
5092
100
AcDbEntity
  8
_0-1_
  6
Continuous
 62
     7
100
AcDbLine
 10
29.640168
 20
541.987488
 30
0.0
 11
27.63514
 21
542.593812
 31
0.0
  0
LINE
  5
5151
330
5092
100
AcDbEntity
  8
_0-1_
  6
Continuous
 62
     7
100
AcDbLine
 10
27.63514
 20
542.593812
 30
0.0
 11
25.628144
 21
543.193604
 31
0.0
  0
LINE
  5
5152
330
5092
100
AcDbEntity
  8
_0-1_
  6
Continuous
 62
     7
100
AcDbLine
 10
25.628144
 20
543.193604
 30
0.0
 11
23.619018
 21
543.786194
 31
0.0
  0
LINE
  5
5153
330
5092
100
AcDbEntity
  8
_0-1_
  6
Continuous
 62
     7
100
AcDbLine
 10
23.619018
 20
543.786194
 30
0.0
 11
21.607606
 21
544.370972
 31
0.0
  0
LINE
  5
5154
330
5092
100
AcDbEntity
  8
_0-1_
  6
Continuous
 62
     7
100
AcDbLine
 10
21.607606
 20
544.370972
 30
0.0
 11
19.593766
 21
544.947326
 31
0.0
  0
LINE
  5
5155
330
5092
100
AcDbEntity
  8
_0-1_
  6
Continuous
 62
     7
100
AcDbLine
 10
19.593766
 20
544.947326
 30
0.0
 11
17.577324
 21
545.514526
 31
0.0
  0
LINE
  5
5156
330
5092
100
AcDbEntity
  8
_0-1_
  6
Continuous
 62
     7
100
AcDbLine
 10
17.577324
 20
545.514526
 30
0.0
 11
15.558128
 21
546.072022
 31
0.0
  0
LINE
  5
5157
330
5092
100
AcDbEntity
  8
_0-1_
  6
Continuous
 62
     7
100
AcDbLine
 10
15.558128
 20
546.072022
 30
0.0
 11
13.536098
 21
546.619202
 31
0.0
  0
LINE
  5
5158
330
5092
100
AcDbEntity
  8
_0-1_
  6
Continuous
 62
     7
100
AcDbLine
 10
13.536098
 20
546.619202
 30
0.0
 11
11.5112
 21
547.155762
 31
0.0
  0
LINE
  5
5159
330
5092
100
AcDbEntity
  8
_0-1_
  6
Continuous
 62
     7
100
AcDbLine
 10
11.5112
 20
547.155762
 30
0.0
 11
9.483406000000002
 21
547.681336
 31
0.0
  0
LINE
  5
515A
330
5092
100
AcDbEntity
  8
_0-1_
  6
Continuous
 62
     7
100
AcDbLine
 10
9.483406000000002
 20
547.681336
 30
0.0
 11
7.452702000000002
 21
548.195434
 31
0.0
  0
LINE
  5
515B
330
5092
100
AcDbEntity
  8
_0-1_
  6
Continuous
 62
     7
100
AcDbLine
 10
7.452702000000002
 20
548.195434
 30
0.0
 11
5.419060000000002
 21
548.697814
 31
0.0
  0
LINE
  5
515C
330
5092
100
AcDbEntity
  8
_0-1_
  6
Continuous
 62
     7
100
AcDbLine
 10
5.419060000000002
 20
548.697814
 30
0.0
 11
3.382462000000004
 21
549.187988
 31
0.0
  0
LINE
  5
515D
330
5092
100
AcDbEntity
  8
_0-1_
  6
Continuous
 62
     7
100
AcDbLine
 10
3.382462000000004
 20
549.187988
 30
0.0
 11
1.342880000000001
 21
549.66565
 31
0.0
  0
LINE
  5
515E
330
5092
100
AcDbEntity
  8
_0-1_
  6
Continuous
 62
     7
100
AcDbLine
 10
1.342880000000001
 20
549.66565
 30
0.0
 11
-0.6996839999999978
 21
550.130372
 31
0.0
  0
LINE
  5
515F
330
5092
100
AcDbEntity
  8
_0-1_
  6
Continuous
 62
     7
100
AcDbLine
 10
-0.6996839999999978
 20
550.130372
 30
0.0
 11
-2.745219999999996
 21
550.58191
 31
0.0
  0
LINE
  5
5160
330
5092
100
AcDbEntity
  8
_0-1_
  6
Continuous
 62
     7
100
AcDbLine
 10
-2.745219999999996
 20
550.58191
 30
0.0
 11
-4.793703999999998
 21
551.019898
 31
0.0
  0
LINE
  5
5161
330
5092
100
AcDbEntity
  8
_0-1_
  6
Continuous
 62
     7
100
AcDbLine
 10
-4.793703999999998
 20
551.019898
 30
0.0
 11
-6.845120000000001
 21
551.44403
 31
0.0
  0
LINE
  5
5162
330
5092
100
AcDbEntity
  8
_0-1_
  6
Continuous
 62
     7
100
AcDbLine
 10
-6.845120000000001
 20
551.44403
 30
0.0
 11
-8.899439999999998
 21
551.854004
 31
0.0
  0
LINE
  5
5163
330
5092
100
AcDbEntity
  8
_0-1_
  6
Continuous
 62
     7
100
AcDbLine
 10
-8.899439999999998
 20
551.854004
 30
0.0
 11
-10.956654
 21
552.24945
 31
0.0
  0
LINE
  5
5164
330
5092
100
AcDbEntity
  8
_0-1_
  6
Continuous
 62
     7
100
AcDbLine
 10
-10.956654
 20
552.24945
 30
0.0
 11
-13.01673
 21
552.630126
 31
0.0
  0
LINE
  5
5165
330
5092
100
AcDbEntity
  8
_0-1_
  6
Continuous
 62
     7
100
AcDbLine
 10
-13.01673
 20
552.630126
 30
0.0
 11
-15.079628
 21
552.995484
 31
0.0
  0
LINE
  5
5166
330
5092
100
AcDbEntity
  8
_0-1_
  6
Continuous
 62
     7
100
AcDbLine
 10
-15.079628
 20
552.995484
 30
0.0
 11
-17.145264
 21
553.345032
 31
0.0
  0
LINE
  5
5167
330
5092
100
AcDbEntity
  8
_0-1_
  6
Continuous
 62
     7
100
AcDbLine
 10
-17.145264
 20
553.345032
 30
0.0
 11
-19.213562
 21
553.678162
 31
0.0
  0
LINE
  5
5168
330
5092
100
AcDbEntity
  8
_0-1_
  6
Continuous
 62
     7
100
AcDbLine
 10
-19.213562
 20
553.678162
 30
0.0
 11
-21.284446
 21
553.994446
 31
0.0
  0
LINE
  5
5169
330
5092
100
AcDbEntity
  8
_0-1_
  6
Continuous
 62
     7
100
AcDbLine
 10
-21.284446
 20
553.994446
 30
0.0
 11
-23.35784
 21
554.293274
 31
0.0
  0
LINE
  5
516A
330
5092
100
AcDbEntity
  8
_0-1_
  6
Continuous
 62
     7
100
AcDbLine
 10
-23.35784
 20
554.293274
 30
0.0
 11
-25.433668
 21
554.574096
 31
0.0
  0
LINE
  5
516B
330
5092
100
AcDbEntity
  8
_0-1_
  6
Continuous
 62
     7
100
AcDbLine
 10
-25.433668
 20
554.574096
 30
0.0
 11
-27.511836
 21
554.836486
 31
0.0
  0
LINE
  5
516C
330
5092
100
AcDbEntity
  8
_0-1_
  6
Continuous
 62
     7
100
AcDbLine
 10
-27.511836
 20
554.836486
 30
0.0
 11
-29.592122
 21
555.081542
 31
0.0
  0
LINE
  5
516D
330
5092
100
AcDbEntity
  8
_0-1_
  6
Continuous
 62
     7
100
AcDbLine
 10
-29.592122
 20
555.081542
 30
0.0
 11
-31.674232
 21
555.311096
 31
0.0
  0
LINE
  5
516E
330
5092
100
AcDbEntity
  8
_0-1_
  6
Continuous
 62
     7
100
AcDbLine
 10
-31.674232
 20
555.311096
 30
0.0
 11
-33.757864
 21
555.526916
 31
0.0
  0
LINE
  5
516F
330
5092
100
AcDbEntity
  8
_0-1_
  6
Continuous
 62
     7
100
AcDbLine
 10
-33.757864
 20
555.526916
 30
0.0
 11
-35.84272199999999
 21
555.730958
 31
0.0
  0
LINE
  5
5170
330
5092
100
AcDbEntity
  8
_0-1_
  6
Continuous
 62
     7
100
AcDbLine
 10
-35.84272199999999
 20
555.730958
 30
0.0
 11
-37.928508
 21
555.924926
 31
0.0
  0
LINE
  5
5171
330
5092
100
AcDbEntity
  8
_0-1_
  6
Continuous
 62
     7
100
AcDbLine
 10
-37.928508
 20
555.924926
 30
0.0
 11
-40.014966
 21
556.110778
 31
0.0
  0
LINE
  5
5172
330
5092
100
AcDbEntity
  8
_0-1_
  6
Continuous
 62
     7
100
AcDbLine
 10
-40.014966
 20
556.110778
 30
0.0
 11
-42.101918
 21
556.290406
 31
0.0
  0
LINE
  5
5173
330
5092
100
AcDbEntity
  8
_0-1_
  6
Continuous
 62
     7
100
AcDbLine
 10
-42.101918
 20
556.290406
 30
0.0
 11
-44.189194
 21
556.46582
 31
0.0
  0
LINE
  5
5174
330
5092
100
AcDbEntity
  8
_0-1_
  6
Continuous
 62
     7
100
AcDbLine
 10
-44.189194
 20
556.46582
 30
0.0
 11
-46.276626
 21
556.638978
 31
0.0
  0
LINE
  5
5175
330
5092
100
AcDbEntity
  8
_0-1_
  6
Continuous
 62
     7
100
AcDbLine
 10
-46.276626
 20
556.638978
 30
0.0
 11
-48.364048
 21
556.811768
 31
0.0
  0
LINE
  5
5176
330
5092
100
AcDbEntity
  8
_0-1_
  6
Continuous
 62
     7
100
AcDbLine
 10
-48.364048
 20
556.811768
 30
0.0
 11
-50.45135399999999
 21
556.985596
 31
0.0
  0
LINE
  5
5177
330
5092
100
AcDbEntity
  8
_0-1_
  6
Continuous
 62
     7
100
AcDbLine
 10
-50.45135399999999
 20
556.985596
 30
0.0
 11
-52.538822
 21
557.157714
 31
0.0
  0
LINE
  5
5178
330
5092
100
AcDbEntity
  8
_0-1_
  6
Continuous
 62
     7
100
AcDbLine
 10
-52.538822
 20
557.157714
 30
0.0
 11
-54.626872
 21
557.324158
 31
0.0
  0
LINE
  5
5179
330
5092
100
AcDbEntity
  8
_0-1_
  6
Continuous
 62
     7
100
AcDbLine
 10
-54.626872
 20
557.324158
 30
0.0
 11
-56.715922
 21
557.480774
 31
0.0
  0
LINE
  5
517A
330
5092
100
AcDbEntity
  8
_0-1_
  6
Continuous
 62
     7
100
AcDbLine
 10
-56.715922
 20
557.480774
 30
0.0
 11
-58.806246
 21
557.621338
 31
0.0
  0
LINE
  5
517B
330
5092
100
AcDbEntity
  8
_0-1_
  6
Continuous
 62
     7
100
AcDbLine
 10
-58.806246
 20
557.621338
 30
0.0
 11
-60.897896
 21
557.736268
 31
0.0
  0
LINE
  5
517C
330
5092
100
AcDbEntity
  8
_0-1_
  6
Continuous
 62
     7
100
AcDbLine
 10
-60.897896
 20
557.736268
 30
0.0
 11
-62.990898
 21
557.815552
 31
0.0
  0
LINE
  5
517D
330
5092
100
AcDbEntity
  8
_0-1_
  6
Continuous
 62
     7
100
AcDbLine
 10
-62.990898
 20
557.815552
 30
0.0
 11
-65.085072
 21
557.857788
 31
0.0
  0
LINE
  5
517E
330
5092
100
AcDbEntity
  8
_0-1_
  6
Continuous
 62
     7
100
AcDbLine
 10
-65.085072
 20
557.857788
 30
0.0
 11
-67.17937
 21
557.89685
 31
0.0
  0
LINE
  5
517F
330
5092
100
AcDbEntity
  8
_0-1_
  6
Continuous
 62
     7
100
AcDbLine
 10
-67.17937
 20
557.89685
 30
0.0
 11
-69.27285599999999
 21
557.9646
 31
0.0
  0
LINE
  5
5180
330
5092
100
AcDbEntity
  8
_0-1_
  6
Continuous
 62
     7
100
AcDbLine
 10
-69.27285599999999
 20
557.9646
 30
0.0
 11
-71.365794
 21
558.05133
 31
0.0
  0
ENDBLK
  5
5181
330
5092
100
AcDbEntity
  8
0
100
AcDbBlockEnd
  0
BLOCK
  5
5210
330
520F
100
AcDbEntity
  8
0
100
AcDbBlockBegin
  2
*D13
 70
     1
 10
0.0
 20
0.0
 30
0.0
  3
*D13
  1
*D211
  0
LINE
  5
5212
330
520F
100
AcDbEntity
  8
寸法
  6
Continuous
 62
     0
370
    -2
100
AcDbLine
 10
237.1432507954844
 20
267.844590407774
 30
0.0
 11
237.1432507954844
 21
245.837259019544
 31
0.0
  0
LINE
  5
5213
330
520F
100
AcDbEntity
  8
寸法
  6
Continuous
 62
     0
370
    -2
100
AcDbLine
 10
115.2229777954844
 20
283.0176324077742
 30
0.0
 11
115.2229777954844
 21
245.837259019544
 31
0.0
  0
LINE
  5
5214
330
520F
100
AcDbEntity
  8
寸法
  6
Continuous
 62
     0
370
    -2
100
AcDbLine
 10
235.6432507954844
 20
245.837259019544
 30
0.0
 11
116.7229777954844
 21
245.837259019544
 31
0.0
  0
INSERT
  5
5215
330
520F
100
AcDbEntity
  8
寸法
 62
     0
370
    -2
100
AcDbBlockReference
  2
_DOT
 10
237.1432507954844
 20
245.837259019544
 30
0.0
 41
1.5
 42
1.5
 43
1.5
  0
INSERT
  5
5216
330
520F
100
AcDbEntity
  8
寸法
 62
     0
370
    -2
100
AcDbBlockReference
  2
_DOT
 10
115.2229777954844
 20
245.837259019544
 30
0.0
 41
1.5
 42
1.5
 43
1.5
 50
180.0
  0
MTEXT
  5
5217
330
520F
100
AcDbEntity
  8
寸法
  6
Continuous
 62
     0
100
AcDbMText
 10
176.1831142954844
 20
250.337259019544
 30
0.0
 40
5.0
 41
0.0
 46
0.0
 71
     5
 72
     1
  1
\A1;122
  7
ＭＳ ゴシック
 73
     1
 44
1.0
  0
POINT
  5
5218
330
520F
100
AcDbEntity
  8
Defpoints
 62
     0
100
AcDbPoint
 10
237.1432507954844
 20
272.844590407774
 30
0.0
  0
POINT
  5
5219
330
520F
100
AcDbEntity
  8
Defpoints
 62
     0
100
AcDbPoint
 10
115.2229777954844
 20
288.0176324077742
 30
0.0
  0
POINT
  5
521A
330
520F
100
AcDbEntity
  8
Defpoints
 62
     0
100
AcDbPoint
 10
115.2229777954844
 20
245.837259019544
 30
0.0
  0
ENDBLK
  5
5211
330
520F
100
AcDbEntity
  8
0
100
AcDbBlockEnd
  0
BLOCK
  5
53CB
330
53CA
100
AcDbEntity
  8
0
100
AcDbBlockBegin
  2
名称未設定-1
 70
     0
 10
0.0
 20
0.0
 30
0.0
  3
名称未設定-1
  1
名称未設定-1
  0
INSERT
  5
53CC
330
53CA
100
AcDbEntity
  8
TFORMLOGO
100
AcDbBlockReference
  2
block 2
 10
0.0
 20
0.0
 30
0.0
  0
ENDBLK
  5
53F1
330
53CA
100
AcDbEntity
  8
0
100
AcDbBlockEnd
  0
BLOCK
  5
53CE
330
53CD
100
AcDbEntity
  8
0
100
AcDbBlockBegin
  2
block 2
 70
     0
 10
0.0
 20
0.0
 30
0.0
  3
block 2
  1
block 2
  0
INSERT
  5
53CF
330
53CD
100
AcDbEntity
  8
TFORMLOGO
100
AcDbBlockReference
  2
block 3
 10
0.0
 20
0.0
 30
0.0
  0
ENDBLK
  5
53F0
330
53CD
100
AcDbEntity
  8
0
100
AcDbBlockEnd
  0
BLOCK
  5
541A
330
5419
100
AcDbEntity
  8
0
100
AcDbBlockBegin
  2
*D16
 70
     1
 10
0.0
 20
0.0
 30
0.0
  3
*D16
  1
*D63
  0
LINE
  5
541B
330
5419
100
AcDbEntity
  8
寸法
 62
     0
370
    -2
100
AcDbLine
 10
427.8721245115549
 20
172.3452081951892
 30
0.0
 11
427.8721245115549
 21
144.5573006134969
 31
0.0
  0
LINE
  5
541C
330
5419
100
AcDbEntity
  8
寸法
 62
     0
370
    -2
100
AcDbLine
 10
389.8721245115548
 20
172.3452081951892
 30
0.0
 11
389.8721245115548
 21
144.5573006134969
 31
0.0
  0
LINE
  5
541D
330
5419
100
AcDbEntity
  8
寸法
 62
     0
370
    -2
100
AcDbLine
 10
389.8721245115548
 20
144.5573006134969
 30
0.0
 11
376.2146245115548
 21
144.5573006134969
 31
0.0
  0
LINE
  5
541E
330
5419
100
AcDbEntity
  8
寸法
 62
     0
370
    -2
100
AcDbLine
 10
426.3721245115549
 20
144.5573006134969
 30
0.0
 11
391.3721245115548
 21
144.5573006134969
 31
0.0
  0
INSERT
  5
541F
330
5419
100
AcDbEntity
  8
寸法
 62
     0
370
    -2
100
AcDbBlockReference
  2
_DOT
 10
427.8721245115549
 20
144.5573006134969
 30
0.0
 41
1.5
 42
1.5
 43
1.5
  0
INSERT
  5
5420
330
5419
100
AcDbEntity
  8
寸法
 62
     0
370
    -2
100
AcDbBlockReference
  2
_DOT
 10
389.8721245115548
 20
144.5573006134969
 30
0.0
 41
1.5
 42
1.5
 43
1.5
 50
180.0
  0
POINT
  5
5421
330
5419
100
AcDbEntity
  8
Defpoints
 62
     0
100
AcDbPoint
 10
427.8721245115549
 20
177.3452081951892
 30
0.0
  0
POINT
  5
5422
330
5419
100
AcDbEntity
  8
Defpoints
 62
     0
100
AcDbPoint
 10
389.8721245115548
 20
177.3452081951892
 30
0.0
  0
POINT
  5
5423
330
5419
100
AcDbEntity
  8
Defpoints
 62
     0
100
AcDbPoint
 10
389.8721245115548
 20
144.5573006134969
 30
0.0
  0
ENDBLK
  5
5424
330
5419
100
AcDbEntity
  8
0
100
AcDbBlockEnd
  0
BLOCK
  5
5427
330
5426
100
AcDbEntity
  8
0
100
AcDbBlockBegin
  2
*D17
 70
     1
 10
0.0
 20
0.0
 30
0.0
  3
*D17
  1
*D67
  0
LINE
  5
5428
330
5426
100
AcDbEntity
  8
寸法
 62
     0
370
    -2
100
AcDbLine
 10
389.8721245115548
 20
191.0157099566222
 30
0.0
 11
389.8721245115548
 21
213.8023335341041
 31
0.0
  0
LINE
  5
5429
330
5426
100
AcDbEntity
  8
寸法
 62
     0
370
    -2
100
AcDbLine
 10
408.8721245115548
 20
205.1912224768318
 30
0.0
 11
408.8721245115548
 21
213.8023335341041
 31
0.0
  0
LINE
  5
542A
330
5426
100
AcDbEntity
  8
寸法
 62
     0
370
    -2
100
AcDbLine
 10
391.3721245115548
 20
213.8023335341041
 30
0.0
 11
407.3721245115548
 21
213.8023335341041
 31
0.0
  0
INSERT
  5
542B
330
5426
100
AcDbEntity
  8
寸法
 62
     0
370
    -2
100
AcDbBlockReference
  2
_DOT
 10
389.8721245115548
 20
213.8023335341041
 30
0.0
 41
1.5
 42
1.5
 43
1.5
 50
180.0
  0
INSERT
  5
542C
330
5426
100
AcDbEntity
  8
寸法
 62
     0
370
    -2
100
AcDbBlockReference
  2
_DOT
 10
408.8721245115548
 20
213.8023335341041
 30
0.0
 41
1.5
 42
1.5
 43
1.5
  0
MTEXT
  5
542D
330
5426
100
AcDbEntity
  8
寸法
  6
Continuous
 62
     0
100
AcDbMText
 10
399.3721245115548
 20
218.3023335341041
 30
0.0
 40
5.0
 41
0.0
 46
0.0
 71
     5
 72
     1
  1
\A1;19
  7
ＭＳ ゴシック
 73
     1
 44
1.0
  0
POINT
  5
542E
330
5426
100
AcDbEntity
  8
Defpoints
 62
     0
100
AcDbPoint
 10
389.8721245115548
 20
186.0157099566222
 30
0.0
  0
POINT
  5
542F
330
5426
100
AcDbEntity
  8
Defpoints
 62
     0
100
AcDbPoint
 10
408.8721245115548
 20
200.1912224768318
 30
0.0
  0
POINT
  5
5430
330
5426
100
AcDbEntity
  8
Defpoints
 62
     0
100
AcDbPoint
 10
408.8721245115548
 20
213.8023335341041
 30
0.0
  0
ENDBLK
  5
5431
330
5426
100
AcDbEntity
  8
0
100
AcDbBlockEnd
  0
BLOCK
  5
5434
330
5433
100
AcDbEntity
  8
0
100
AcDbBlockBegin
  2
*D18
 70
     1
 10
0.0
 20
0.0
 30
0.0
  3
*D18
  1
*D68
  0
LINE
  5
5435
330
5433
100
AcDbEntity
  8
寸法
 62
     0
370
    -2
100
AcDbLine
 10
408.8721245115548
 20
205.1912224768318
 30
0.0
 11
408.8721245115548
 21
213.8023335341041
 31
0.0
  0
LINE
  5
5436
330
5433
100
AcDbEntity
  8
寸法
 62
     0
370
    -2
100
AcDbLine
 10
427.8721245115549
 20
191.0157099566222
 30
0.0
 11
427.8721245115549
 21
213.8023335341041
 31
0.0
  0
LINE
  5
5437
330
5433
100
AcDbEntity
  8
寸法
 62
     0
370
    -2
100
AcDbLine
 10
410.3721245115548
 20
213.8023335341041
 30
0.0
 11
426.3721245115549
 21
213.8023335341041
 31
0.0
  0
INSERT
  5
5438
330
5433
100
AcDbEntity
  8
寸法
 62
     0
370
    -2
100
AcDbBlockReference
  2
_DOT
 10
408.8721245115548
 20
213.8023335341041
 30
0.0
 41
1.5
 42
1.5
 43
1.5
 50
180.0
  0
INSERT
  5
5439
330
5433
100
AcDbEntity
  8
寸法
 62
     0
370
    -2
100
AcDbBlockReference
  2
_DOT
 10
427.8721245115549
 20
213.8023335341041
 30
0.0
 41
1.5
 42
1.5
 43
1.5
  0
MTEXT
  5
543A
330
5433
100
AcDbEntity
  8
寸法
  6
Continuous
 62
     0
100
AcDbMText
 10
418.3721245115548
 20
218.3023335341041
 30
0.0
 40
5.0
 41
0.0
 46
0.0
 71
     5
 72
     1
  1
\A1;19
  7
ＭＳ ゴシック
 73
     1
 44
1.0
  0
POINT
  5
543B
330
5433
100
AcDbEntity
  8
Defpoints
 62
     0
100
AcDbPoint
 10
408.8721245115548
 20
200.1912224768318
 30
0.0
  0
POINT
  5
543C
330
5433
100
AcDbEntity
  8
Defpoints
 62
     0
100
AcDbPoint
 10
427.8721245115549
 20
186.0157099566222
 30
0.0
  0
POINT
  5
543D
330
5433
100
AcDbEntity
  8
Defpoints
 62
     0
100
AcDbPoint
 10
427.8721245115549
 20
213.8023335341041
 30
0.0
  0
ENDBLK
  5
543E
330
5433
100
AcDbEntity
  8
0
100
AcDbBlockEnd
  0
BLOCK
  5
549E
330
549D
100
AcDbEntity
  8
0
100
AcDbBlockBegin
  2
*D19
 70
     1
 10
0.0
 20
0.0
 30
0.0
  3
*D19
  1
*D20
  0
LINE
  5
54A0
330
549D
100
AcDbEntity
  8
寸法
 62
     0
370
    -2
100
AcDbLine
 10
427.8721245115549
 20
172.3452081951892
 30
0.0
 11
427.8721245115549
 21
144.5573006134969
 31
0.0
  0
LINE
  5
54A1
330
549D
100
AcDbEntity
  8
寸法
 62
     0
370
    -2
100
AcDbLine
 10
389.8721245115547
 20
172.3452081951892
 30
0.0
 11
389.8721245115547
 21
144.5573006134969
 31
0.0
  0
LINE
  5
54A2
330
549D
100
AcDbEntity
  8
寸法
 62
     0
370
    -2
100
AcDbLine
 10
389.8721245115547
 20
144.5573006134969
 30
0.0
 11
376.2146245115549
 21
144.5573006134969
 31
0.0
  0
LINE
  5
54A3
330
549D
100
AcDbEntity
  8
寸法
 62
     0
370
    -2
100
AcDbLine
 10
426.3721245115549
 20
144.5573006134969
 30
0.0
 11
391.3721245115547
 21
144.5573006134969
 31
0.0
  0
INSERT
  5
54A4
330
549D
100
AcDbEntity
  8
寸法
 62
     0
370
    -2
100
AcDbBlockReference
  2
_DOT
 10
427.8721245115549
 20
144.5573006134969
 30
0.0
 41
1.5
 42
1.5
 43
1.5
  0
INSERT
  5
54A5
330
549D
100
AcDbEntity
  8
寸法
 62
     0
370
    -2
100
AcDbBlockReference
  2
_DOT
 10
389.8721245115547
 20
144.5573006134969
 30
0.0
 41
1.5
 42
1.5
 43
1.5
 50
180.0
  0
POINT
  5
54A6
330
549D
100
AcDbEntity
  8
Defpoints
 62
     0
100
AcDbPoint
 10
427.8721245115549
 20
177.3452081951892
 30
0.0
  0
POINT
  5
54A7
330
549D
100
AcDbEntity
  8
Defpoints
 62
     0
100
AcDbPoint
 10
389.8721245115547
 20
177.3452081951892
 30
0.0
  0
POINT
  5
54A8
330
549D
100
AcDbEntity
  8
Defpoints
 62
     0
100
AcDbPoint
 10
389.8721245115547
 20
144.5573006134969
 30
0.0
  0
ENDBLK
  5
549F
330
549D
100
AcDbEntity
  8
0
100
AcDbBlockEnd
  0
BLOCK
  5
54AA
330
54A9
100
AcDbEntity
  8
0
100
AcDbBlockBegin
  2
*D20
 70
     1
 10
0.0
 20
0.0
 30
0.0
  3
*D20
  1
*D21
  0
LINE
  5
54AC
330
54A9
100
AcDbEntity
  8
寸法
 62
     0
370
    -2
100
AcDbLine
 10
389.8721245115547
 20
191.0157099566222
 30
0.0
 11
389.8721245115547
 21
213.8023335341041
 31
0.0
  0
LINE
  5
54AD
330
54A9
100
AcDbEntity
  8
寸法
 62
     0
370
    -2
100
AcDbLine
 10
408.8721245115547
 20
205.1912224768318
 30
0.0
 11
408.8721245115547
 21
213.8023335341041
 31
0.0
  0
LINE
  5
54AE
330
54A9
100
AcDbEntity
  8
寸法
 62
     0
370
    -2
100
AcDbLine
 10
391.3721245115547
 20
213.8023335341041
 30
0.0
 11
407.3721245115547
 21
213.8023335341041
 31
0.0
  0
INSERT
  5
54AF
330
54A9
100
AcDbEntity
  8
寸法
 62
     0
370
    -2
100
AcDbBlockReference
  2
_DOT
 10
389.8721245115547
 20
213.8023335341041
 30
0.0
 41
1.5
 42
1.5
 43
1.5
 50
180.0
  0
INSERT
  5
54B0
330
54A9
100
AcDbEntity
  8
寸法
 62
     0
370
    -2
100
AcDbBlockReference
  2
_DOT
 10
408.8721245115547
 20
213.8023335341041
 30
0.0
 41
1.5
 42
1.5
 43
1.5
  0
MTEXT
  5
54B1
330
54A9
100
AcDbEntity
  8
寸法
  6
Continuous
 62
     0
100
AcDbMText
 10
399.3721245115547
 20
217.8023335341041
 30
0.0
 40
4.0
 41
0.0
 46
0.0
 71
     5
 72
     1
  1
\A1;19
  7
ＭＳ ゴシック
 73
     1
 44
1.0
  0
POINT
  5
54B2
330
54A9
100
AcDbEntity
  8
Defpoints
 62
     0
100
AcDbPoint
 10
389.8721245115547
 20
186.0157099566222
 30
0.0
  0
POINT
  5
54B3
330
54A9
100
AcDbEntity
  8
Defpoints
 62
     0
100
AcDbPoint
 10
408.8721245115547
 20
200.1912224768318
 30
0.0
  0
POINT
  5
54B4
330
54A9
100
AcDbEntity
  8
Defpoints
 62
     0
100
AcDbPoint
 10
408.8721245115547
 20
213.8023335341041
 30
0.0
  0
ENDBLK
  5
54AB
330
54A9
100
AcDbEntity
  8
0
100
AcDbBlockEnd
  0
BLOCK
  5
54B6
330
54B5
100
AcDbEntity
  8
0
100
AcDbBlockBegin
  2
*D21
 70
     1
 10
0.0
 20
0.0
 30
0.0
  3
*D21
  1
*D22
  0
LINE
  5
54B8
330
54B5
100
AcDbEntity
  8
寸法
 62
     0
370
    -2
100
AcDbLine
 10
408.8721245115547
 20
205.1912224768318
 30
0.0
 11
408.8721245115547
 21
213.8023335341041
 31
0.0
  0
LINE
  5
54B9
330
54B5
100
AcDbEntity
  8
寸法
 62
     0
370
    -2
100
AcDbLine
 10
427.8721245115549
 20
191.0157099566222
 30
0.0
 11
427.8721245115549
 21
213.8023335341041
 31
0.0
  0
LINE
  5
54BA
330
54B5
100
AcDbEntity
  8
寸法
 62
     0
370
    -2
100
AcDbLine
 10
410.3721245115547
 20
213.8023335341041
 30
0.0
 11
426.3721245115549
 21
213.8023335341041
 31
0.0
  0
INSERT
  5
54BB
330
54B5
100
AcDbEntity
  8
寸法
 62
     0
370
    -2
100
AcDbBlockReference
  2
_DOT
 10
408.8721245115547
 20
213.8023335341041
 30
0.0
 41
1.5
 42
1.5
 43
1.5
 50
180.0
  0
INSERT
  5
54BC
330
54B5
100
AcDbEntity
  8
寸法
 62
     0
370
    -2
100
AcDbBlockReference
  2
_DOT
 10
427.8721245115549
 20
213.8023335341041
 30
0.0
 41
1.5
 42
1.5
 43
1.5
  0
MTEXT
  5
54BD
330
54B5
100
AcDbEntity
  8
寸法
  6
Continuous
 62
     0
100
AcDbMText
 10
418.3721245115548
 20
217.8023335341041
 30
0.0
 40
4.0
 41
0.0
 46
0.0
 71
     5
 72
     1
  1
\A1;19
  7
ＭＳ ゴシック
 73
     1
 44
1.0
  0
POINT
  5
54BE
330
54B5
100
AcDbEntity
  8
Defpoints
 62
     0
100
AcDbPoint
 10
408.8721245115547
 20
200.1912224768318
 30
0.0
  0
POINT
  5
54BF
330
54B5
100
AcDbEntity
  8
Defpoints
 62
     0
100
AcDbPoint
 10
427.8721245115549
 20
186.0157099566222
 30
0.0
  0
POINT
  5
54C0
330
54B5
100
AcDbEntity
  8
Defpoints
 62
     0
100
AcDbPoint
 10
427.8721245115549
 20
213.8023335341041
 30
0.0
  0
ENDBLK
  5
54B7
330
54B5
100
AcDbEntity
  8
0
100
AcDbBlockEnd
  0
BLOCK
  5
5547
330
5546
100
AcDbEntity
  8
0
100
AcDbBlockBegin
  2
*D22
 70
     1
 10
0.0
 20
0.0
 30
0.0
  3
*D22
  1
*D53
  0
LINE
  5
5548
330
5546
100
AcDbEntity
  8
寸法
  6
Continuous
 62
     0
370
    -2
100
AcDbLine
 10
94.93135926942057
 20
348.7335990428101
 30
0.0
 11
82.57835042397778
 21
348.7335990428101
 31
0.0
  0
LINE
  5
5549
330
5546
100
AcDbEntity
  8
寸法
  6
Continuous
 62
     0
370
    -2
100
AcDbLine
 10
109.4837282141555
 20
341.0341771438358
 30
0.0
 11
82.57835042397778
 21
341.0341771438358
 31
0.0
  0
LINE
  5
554A
330
5546
100
AcDbEntity
  8
寸法
  6
Continuous
 62
     0
370
    -2
100
AcDbLine
 10
82.57835042397778
 20
348.7335990428101
 30
0.0
 11
82.57835042397778
 21
341.0341771438358
 31
0.0
  0
LINE
  5
554B
330
5546
100
AcDbEntity
  8
寸法
  6
Continuous
 62
     0
370
    -2
100
AcDbLine
 10
82.57835042397778
 20
350.2335990428101
 30
0.0
 11
82.57835042397778
 21
351.7335990428101
 31
0.0
  0
LINE
  5
554C
330
5546
100
AcDbEntity
  8
寸法
  6
Continuous
 62
     0
370
    -2
100
AcDbLine
 10
82.57835042397778
 20
339.5341771438358
 30
0.0
 11
82.57835042397778
 21
338.0341771438358
 31
0.0
  0
INSERT
  5
554D
330
5546
100
AcDbEntity
  8
寸法
 62
     0
370
    -2
100
AcDbBlockReference
  2
_DOT
 10
82.57835042397778
 20
348.7335990428101
 30
0.0
 41
1.5
 42
1.5
 43
1.5
 50
270.0
  0
INSERT
  5
554E
330
5546
100
AcDbEntity
  8
寸法
 62
     0
370
    -2
100
AcDbBlockReference
  2
_DOT
 10
82.57835042397778
 20
341.0341771438358
 30
0.0
 41
1.5
 42
1.5
 43
1.5
 50
90.0
  0
MTEXT
  5
554F
330
5546
100
AcDbEntity
  8
寸法
  6
Continuous
 62
     0
100
AcDbMText
 10
78.07835042397778
 20
344.883888093323
 30
0.0
 40
5.0
 41
0.0
 46
0.0
 71
     5
 72
     1
  1
\A1;8
  7
ＭＳ ゴシック
 11
0.0
 21
1.0
 31
0.0
 73
     1
 44
1.0
  0
POINT
  5
56CF
330
5546
100
AcDbEntity
  8
Defpoints
 62
     0
100
AcDbPoint
 10
99.93135926942057
 20
348.7335990428101
 30
0.0
  0
POINT
  5
56D0
330
5546
100
AcDbEntity
  8
Defpoints
 62
     0
100
AcDbPoint
 10
114.4837282141555
 20
341.0341771438358
 30
0.0
  0
POINT
  5
56D1
330
5546
100
AcDbEntity
  8
Defpoints
 62
     0
100
AcDbPoint
 10
82.57835042397778
 20
341.0341771438358
 30
0.0
  0
ENDBLK
  5
5550
330
5546
100
AcDbEntity
  8
0
100
AcDbBlockEnd
  0
BLOCK
  5
5553
330
5552
100
AcDbEntity
  8
0
100
AcDbBlockBegin
  2
*D23
 70
     1
 10
0.0
 20
0.0
 30
0.0
  3
*D23
  1
*D54
  0
LINE
  5
5554
330
5552
100
AcDbEntity
  8
寸法
  6
Continuous
 62
     0
370
    -2
100
AcDbLine
 10
403.8854160529299
 20
348.7990849693352
 30
0.0
 11
364.2169531300075
 21
348.7990849693352
 31
0.0
  0
LINE
  5
5555
330
5552
100
AcDbEntity
  8
寸法
  6
Continuous
 62
     0
370
    -2
100
AcDbLine
 10
403.8854160529299
 20
293.7990849693352
 30
0.0
 11
364.2169531300075
 21
293.7990849693352
 31
0.0
  0
LINE
  5
5556
330
5552
100
AcDbEntity
  8
寸法
  6
Continuous
 62
     0
370
    -2
100
AcDbLine
 10
364.2169531300075
 20
347.2990849693352
 30
0.0
 11
364.2169531300075
 21
295.2990849693352
 31
0.0
  0
INSERT
  5
5557
330
5552
100
AcDbEntity
  8
寸法
 62
     0
370
    -2
100
AcDbBlockReference
  2
_DOT
 10
364.2169531300075
 20
348.7990849693352
 30
0.0
 41
1.5
 42
1.5
 43
1.5
 50
90.0
  0
INSERT
  5
5558
330
5552
100
AcDbEntity
  8
寸法
 62
     0
370
    -2
100
AcDbBlockReference
  2
_DOT
 10
364.2169531300075
 20
293.7990849693352
 30
0.0
 41
1.5
 42
1.5
 43
1.5
 50
270.0
  0
MTEXT
  5
5559
330
5552
100
AcDbEntity
  8
寸法
  6
Continuous
 62
     0
100
AcDbMText
 10
359.3119531300075
 20
321.2990849693352
 30
0.0
 40
5.0
 41
0.0
 46
0.0
 71
     5
 72
     1
  1
\A1;φ55
  7
ＭＳ ゴシック
 11
0.0
 21
1.0
 31
0.0
 73
     1
 44
1.0
  0
POINT
  5
555A
330
5552
100
AcDbEntity
  8
Defpoints
 62
     0
100
AcDbPoint
 10
408.8854160529299
 20
348.7990849693352
 30
0.0
  0
POINT
  5
555B
330
5552
100
AcDbEntity
  8
Defpoints
 62
     0
100
AcDbPoint
 10
408.8854160529299
 20
293.7990849693352
 30
0.0
  0
POINT
  5
555C
330
5552
100
AcDbEntity
  8
Defpoints
 62
     0
100
AcDbPoint
 10
364.2169531300075
 20
293.7990849693352
 30
0.0
  0
ENDBLK
  5
555D
330
5552
100
AcDbEntity
  8
0
100
AcDbBlockEnd
  0
BLOCK
  5
5560
330
555F
100
AcDbEntity
  8
0
100
AcDbBlockBegin
  2
*D24
 70
     1
 10
0.0
 20
0.0
 30
0.0
  3
*D24
  1
*D55
  0
LINE
  5
5561
330
555F
100
AcDbEntity
  8
寸法
  6
Continuous
 62
     0
370
    -2
100
AcDbLine
 10
94.06705166406618
 20
348.7335990428101
 30
0.0
 11
62.66820315675285
 21
348.7335990428101
 31
0.0
  0
LINE
  5
5562
330
555F
100
AcDbEntity
  8
寸法
  6
Continuous
 62
     0
370
    -2
100
AcDbLine
 10
184.9711760191407
 20
281.0777285890699
 30
0.0
 11
62.66820315675284
 21
281.0777285890699
 31
0.0
  0
LINE
  5
5563
330
555F
100
AcDbEntity
  8
寸法
  6
Continuous
 62
     0
370
    -2
100
AcDbLine
 10
62.66820315675285
 20
347.2335990428101
 30
0.0
 11
62.66820315675284
 21
282.5777285890699
 31
0.0
  0
INSERT
  5
5564
330
555F
100
AcDbEntity
  8
寸法
 62
     0
370
    -2
100
AcDbBlockReference
  2
_DOT
 10
62.66820315675285
 20
348.7335990428101
 30
0.0
 41
1.5
 42
1.5
 43
1.5
 50
90.0
  0
INSERT
  5
5565
330
555F
100
AcDbEntity
  8
寸法
 62
     0
370
    -2
100
AcDbBlockReference
  2
_DOT
 10
62.66820315675284
 20
281.0777285890699
 30
0.0
 41
1.5
 42
1.5
 43
1.5
 50
270.0
  0
MTEXT
  5
5566
330
555F
100
AcDbEntity
  8
寸法
  6
Continuous
 62
     0
100
AcDbMText
 10
58.16820315675284
 20
314.90566381594
 30
0.0
 40
5.0
 41
0.0
 46
0.0
 71
     5
 72
     1
  1
\A1;68
  7
ＭＳ ゴシック
 11
1.050230720549128E-16
 21
1.0
 31
0.0
 73
     1
 44
1.0
  0
POINT
  5
5567
330
555F
100
AcDbEntity
  8
Defpoints
 62
     0
100
AcDbPoint
 10
99.06705166406618
 20
348.7335990428101
 30
0.0
  0
POINT
  5
5568
330
555F
100
AcDbEntity
  8
Defpoints
 62
     0
100
AcDbPoint
 10
189.9711760191407
 20
281.0777285890699
 30
0.0
  0
POINT
  5
5569
330
555F
100
AcDbEntity
  8
Defpoints
 62
     0
100
AcDbPoint
 10
62.66820315675284
 20
281.0777285890699
 30
0.0
  0
ENDBLK
  5
556A
330
555F
100
AcDbEntity
  8
0
100
AcDbBlockEnd
  0
BLOCK
  5
556D
330
556C
100
AcDbEntity
  8
0
100
AcDbBlockBegin
  2
*D25
 70
     1
 10
0.0
 20
0.0
 30
0.0
  3
*D25
  1
*D56
  0
LINE
  5
556E
330
556C
100
AcDbEntity
  8
寸法
  6
Continuous
 62
     0
370
    -2
100
AcDbLine
 10
127.0296484505602
 20
145.053068208781
 30
0.0
 11
127.0296484505602
 21
138.3207352236588
 31
0.0
  0
LINE
  5
556F
330
556C
100
AcDbEntity
  8
寸法
  6
Continuous
 62
     0
370
    -2
100
AcDbLine
 10
134.8816507401137
 20
163.6511043765549
 30
0.0
 11
134.8816507401137
 21
138.3207352236588
 31
0.0
  0
LINE
  5
5570
330
556C
100
AcDbEntity
  8
寸法
  6
Continuous
 62
     0
370
    -2
100
AcDbLine
 10
134.8816507401137
 20
138.3207352236588
 30
0.0
 11
186.7116507401138
 21
138.3207352236588
 31
0.0
  0
INSERT
  5
5571
330
556C
100
AcDbEntity
  8
寸法
 62
     0
370
    -2
100
AcDbBlockReference
  2
_DOT
 10
127.0296484505602
 20
138.3207352236588
 30
0.0
 41
1.5
 42
1.5
 43
1.5
 50
180.0
  0
INSERT
  5
5572
330
556C
100
AcDbEntity
  8
寸法
 62
     0
370
    -2
100
AcDbBlockReference
  2
_DOT
 10
134.8816507401137
 20
138.3207352236588
 30
0.0
 41
1.5
 42
1.5
 43
1.5
  0
MTEXT
  5
5573
330
556C
100
AcDbEntity
  8
寸法
  6
Continuous
 62
     0
100
AcDbMText
 10
164.2966507401138
 20
143.3782352236588
 30
0.0
 40
5.0
 41
0.0
 46
0.0
 71
     5
 72
     1
  1
\A1;プレート部分8
  7
ＭＳ ゴシック
 73
     1
 44
1.0
  0
POINT
  5
5574
330
556C
100
AcDbEntity
  8
Defpoints
 62
     0
100
AcDbPoint
 10
127.0296484505602
 20
150.053068208781
 30
0.0
  0
POINT
  5
5575
330
556C
100
AcDbEntity
  8
Defpoints
 62
     0
100
AcDbPoint
 10
134.8816507401137
 20
168.6511043765549
 30
0.0
  0
POINT
  5
5576
330
556C
100
AcDbEntity
  8
Defpoints
 62
     0
100
AcDbPoint
 10
134.8816507401137
 20
138.3207352236588
 30
0.0
  0
ENDBLK
  5
5577
330
556C
100
AcDbEntity
  8
0
100
AcDbBlockEnd
  0
BLOCK
  5
557C
330
557B
100
AcDbEntity
  8
0
100
AcDbBlockBegin
  2
*D26
 70
     1
 10
0.0
 20
0.0
 30
0.0
  3
*D26
  1
*D57
  0
LINE
  5
557D
330
557B
100
AcDbEntity
  8
寸法
  6
Continuous
 62
     0
370
    -2
100
AcDbLine
 10
110.0726103713298
 20
341.022953810548
 30
0.0
 11
82.52647935856646
 21
341.022953810548
 31
0.0
  0
LINE
  5
557E
330
557B
100
AcDbEntity
  8
寸法
  6
Continuous
 62
     0
370
    -2
100
AcDbLine
 10
189.9711760191407
 20
281.0777285890699
 30
0.0
 11
82.52647935856646
 21
281.0777285890699
 31
0.0
  0
LINE
  5
557F
330
557B
100
AcDbEntity
  8
寸法
  6
Continuous
 62
     0
370
    -2
100
AcDbLine
 10
82.52647935856646
 20
339.522953810548
 30
0.0
 11
82.52647935856646
 21
282.5777285890699
 31
0.0
  0
INSERT
  5
5580
330
557B
100
AcDbEntity
  8
寸法
 62
     0
370
    -2
100
AcDbBlockReference
  2
_DOT
 10
82.52647935856646
 20
341.022953810548
 30
0.0
 41
1.5
 42
1.5
 43
1.5
 50
90.0
  0
INSERT
  5
5581
330
557B
100
AcDbEntity
  8
寸法
 62
     0
370
    -2
100
AcDbBlockReference
  2
_DOT
 10
82.52647935856646
 20
281.0777285890699
 30
0.0
 41
1.5
 42
1.5
 43
1.5
 50
270.0
  0
MTEXT
  5
5582
330
557B
100
AcDbEntity
  8
寸法
  6
Continuous
 62
     0
100
AcDbMText
 10
78.02647935856646
 20
311.0503411998089
 30
0.0
 40
5.0
 41
0.0
 46
0.0
 71
     5
 72
     1
  1
\A1;60
  7
ＭＳ ゴシック
 11
0.0
 21
1.0
 31
0.0
 73
     1
 44
1.0
  0
POINT
  5
5583
330
557B
100
AcDbEntity
  8
Defpoints
 62
     0
100
AcDbPoint
 10
115.0726103713298
 20
341.022953810548
 30
0.0
  0
POINT
  5
5584
330
557B
100
AcDbEntity
  8
Defpoints
 62
     0
100
AcDbPoint
 10
194.9711760191407
 20
281.0777285890699
 30
0.0
  0
POINT
  5
5585
330
557B
100
AcDbEntity
  8
Defpoints
 62
     0
100
AcDbPoint
 10
82.52647935856646
 20
281.0777285890699
 30
0.0
  0
ENDBLK
  5
5586
330
557B
100
AcDbEntity
  8
0
100
AcDbBlockEnd
  0
BLOCK
  5
55D8
330
55D7
100
AcDbEntity
  8
0
100
AcDbBlockBegin
  2
*D27
 70
     1
 10
0.0
 20
0.0
 30
0.0
  3
*D27
  1
*D58
  0
LINE
  5
55D9
330
55D7
100
AcDbEntity
  8
寸法
  6
Continuous
 62
     0
370
    -2
100
AcDbLine
 10
115.1935433875918
 20
326.04005183593
 30
0.0
 11
115.1935433875918
 21
262.1267427827099
 31
0.0
  0
LINE
  5
55DA
330
55D7
100
AcDbEntity
  8
寸法
  6
Continuous
 62
     0
370
    -2
100
AcDbLine
 10
234.1687403875918
 20
292.9484688359301
 30
0.0
 11
234.1687403875918
 21
262.1267427827099
 31
0.0
  0
LINE
  5
55DB
330
55D7
100
AcDbEntity
  8
寸法
  6
Continuous
 62
     0
370
    -2
100
AcDbLine
 10
116.6935433875918
 20
262.1267427827099
 30
0.0
 11
232.6687403875918
 21
262.1267427827099
 31
0.0
  0
INSERT
  5
55DC
330
55D7
100
AcDbEntity
  8
寸法
 62
     0
370
    -2
100
AcDbBlockReference
  2
_DOT
 10
115.1935433875918
 20
262.1267427827099
 30
0.0
 41
1.5
 42
1.5
 43
1.5
 50
180.0
  0
INSERT
  5
55DD
330
55D7
100
AcDbEntity
  8
寸法
 62
     0
370
    -2
100
AcDbBlockReference
  2
_DOT
 10
234.1687403875918
 20
262.1267427827099
 30
0.0
 41
1.5
 42
1.5
 43
1.5
  0
MTEXT
  5
55DE
330
55D7
100
AcDbEntity
  8
寸法
  6
Continuous
 62
     0
100
AcDbMText
 10
174.6811418875918
 20
266.6267427827099
 30
0.0
 40
5.0
 41
0.0
 46
0.0
 71
     5
 72
     1
  1
\A1;119
  7
ＭＳ ゴシック
 73
     1
 44
1.0
  0
POINT
  5
55DF
330
55D7
100
AcDbEntity
  8
Defpoints
 62
     0
100
AcDbPoint
 10
115.1935433875918
 20
331.04005183593
 30
0.0
  0
POINT
  5
55E0
330
55D7
100
AcDbEntity
  8
Defpoints
 62
     0
100
AcDbPoint
 10
234.1687403875918
 20
297.9484688359301
 30
0.0
  0
POINT
  5
55E1
330
55D7
100
AcDbEntity
  8
Defpoints
 62
     0
100
AcDbPoint
 10
234.1687403875918
 20
262.1267427827099
 30
0.0
  0
ENDBLK
  5
55E2
330
55D7
100
AcDbEntity
  8
0
100
AcDbBlockEnd
  0
BLOCK
  5
560C
330
560B
100
AcDbEntity
  8
0
100
AcDbBlockBegin
  2
*D28
 70
     1
 10
0.0
 20
0.0
 30
0.0
  3
*D28
  1
*D63
  0
LINE
  5
560D
330
560B
100
AcDbEntity
  8
寸法
 62
     0
370
    -2
100
AcDbLine
 10
427.8721245115549
 20
172.3452081951892
 30
0.0
 11
427.8721245115549
 21
144.5573006134969
 31
0.0
  0
LINE
  5
560E
330
560B
100
AcDbEntity
  8
寸法
 62
     0
370
    -2
100
AcDbLine
 10
389.8721245115548
 20
172.3452081951892
 30
0.0
 11
389.8721245115548
 21
144.5573006134969
 31
0.0
  0
LINE
  5
560F
330
560B
100
AcDbEntity
  8
寸法
 62
     0
370
    -2
100
AcDbLine
 10
389.8721245115548
 20
144.5573006134969
 30
0.0
 11
376.2146245115548
 21
144.5573006134969
 31
0.0
  0
LINE
  5
5610
330
560B
100
AcDbEntity
  8
寸法
 62
     0
370
    -2
100
AcDbLine
 10
426.3721245115549
 20
144.5573006134969
 30
0.0
 11
391.3721245115548
 21
144.5573006134969
 31
0.0
  0
INSERT
  5
5611
330
560B
100
AcDbEntity
  8
寸法
 62
     0
370
    -2
100
AcDbBlockReference
  2
_DOT
 10
427.8721245115549
 20
144.5573006134969
 30
0.0
 41
1.5
 42
1.5
 43
1.5
  0
INSERT
  5
5612
330
560B
100
AcDbEntity
  8
寸法
 62
     0
370
    -2
100
AcDbBlockReference
  2
_DOT
 10
389.8721245115548
 20
144.5573006134969
 30
0.0
 41
1.5
 42
1.5
 43
1.5
 50
180.0
  0
POINT
  5
5613
330
560B
100
AcDbEntity
  8
Defpoints
 62
     0
100
AcDbPoint
 10
427.8721245115549
 20
177.3452081951892
 30
0.0
  0
POINT
  5
5614
330
560B
100
AcDbEntity
  8
Defpoints
 62
     0
100
AcDbPoint
 10
389.8721245115548
 20
177.3452081951892
 30
0.0
  0
POINT
  5
5615
330
560B
100
AcDbEntity
  8
Defpoints
 62
     0
100
AcDbPoint
 10
389.8721245115548
 20
144.5573006134969
 30
0.0
  0
ENDBLK
  5
5616
330
560B
100
AcDbEntity
  8
0
100
AcDbBlockEnd
  0
BLOCK
  5
5619
330
5618
100
AcDbEntity
  8
0
100
AcDbBlockBegin
  2
*D29
 70
     1
 10
0.0
 20
0.0
 30
0.0
  3
*D29
  1
*D67
  0
LINE
  5
561A
330
5618
100
AcDbEntity
  8
寸法
 62
     0
370
    -2
100
AcDbLine
 10
389.8721245115548
 20
191.0157099566222
 30
0.0
 11
389.8721245115548
 21
213.8023335341041
 31
0.0
  0
LINE
  5
561B
330
5618
100
AcDbEntity
  8
寸法
 62
     0
370
    -2
100
AcDbLine
 10
408.8721245115548
 20
205.1912224768318
 30
0.0
 11
408.8721245115548
 21
213.8023335341041
 31
0.0
  0
LINE
  5
561C
330
5618
100
AcDbEntity
  8
寸法
 62
     0
370
    -2
100
AcDbLine
 10
391.3721245115548
 20
213.8023335341041
 30
0.0
 11
407.3721245115548
 21
213.8023335341041
 31
0.0
  0
INSERT
  5
561D
330
5618
100
AcDbEntity
  8
寸法
 62
     0
370
    -2
100
AcDbBlockReference
  2
_DOT
 10
389.8721245115548
 20
213.8023335341041
 30
0.0
 41
1.5
 42
1.5
 43
1.5
 50
180.0
  0
INSERT
  5
561E
330
5618
100
AcDbEntity
  8
寸法
 62
     0
370
    -2
100
AcDbBlockReference
  2
_DOT
 10
408.8721245115548
 20
213.8023335341041
 30
0.0
 41
1.5
 42
1.5
 43
1.5
  0
MTEXT
  5
561F
330
5618
100
AcDbEntity
  8
寸法
  6
Continuous
 62
     0
100
AcDbMText
 10
399.3721245115548
 20
218.3023335341041
 30
0.0
 40
5.0
 41
0.0
 46
0.0
 71
     5
 72
     1
  1
\A1;19
  7
ＭＳ ゴシック
 73
     1
 44
1.0
  0
POINT
  5
5620
330
5618
100
AcDbEntity
  8
Defpoints
 62
     0
100
AcDbPoint
 10
389.8721245115548
 20
186.0157099566222
 30
0.0
  0
POINT
  5
5621
330
5618
100
AcDbEntity
  8
Defpoints
 62
     0
100
AcDbPoint
 10
408.8721245115548
 20
200.1912224768318
 30
0.0
  0
POINT
  5
5622
330
5618
100
AcDbEntity
  8
Defpoints
 62
     0
100
AcDbPoint
 10
408.8721245115548
 20
213.8023335341041
 30
0.0
  0
ENDBLK
  5
5623
330
5618
100
AcDbEntity
  8
0
100
AcDbBlockEnd
  0
BLOCK
  5
5626
330
5625
100
AcDbEntity
  8
0
100
AcDbBlockBegin
  2
*D30
 70
     1
 10
0.0
 20
0.0
 30
0.0
  3
*D30
  1
*D68
  0
LINE
  5
5627
330
5625
100
AcDbEntity
  8
寸法
 62
     0
370
    -2
100
AcDbLine
 10
408.8721245115548
 20
205.1912224768318
 30
0.0
 11
408.8721245115548
 21
213.8023335341041
 31
0.0
  0
LINE
  5
5628
330
5625
100
AcDbEntity
  8
寸法
 62
     0
370
    -2
100
AcDbLine
 10
427.8721245115549
 20
191.0157099566222
 30
0.0
 11
427.8721245115549
 21
213.8023335341041
 31
0.0
  0
LINE
  5
5629
330
5625
100
AcDbEntity
  8
寸法
 62
     0
370
    -2
100
AcDbLine
 10
410.3721245115548
 20
213.8023335341041
 30
0.0
 11
426.3721245115549
 21
213.8023335341041
 31
0.0
  0
INSERT
  5
562A
330
5625
100
AcDbEntity
  8
寸法
 62
     0
370
    -2
100
AcDbBlockReference
  2
_DOT
 10
408.8721245115548
 20
213.8023335341041
 30
0.0
 41
1.5
 42
1.5
 43
1.5
 50
180.0
  0
INSERT
  5
562B
330
5625
100
AcDbEntity
  8
寸法
 62
     0
370
    -2
100
AcDbBlockReference
  2
_DOT
 10
427.8721245115549
 20
213.8023335341041
 30
0.0
 41
1.5
 42
1.5
 43
1.5
  0
MTEXT
  5
562C
330
5625
100
AcDbEntity
  8
寸法
  6
Continuous
 62
     0
100
AcDbMText
 10
418.3721245115548
 20
218.3023335341041
 30
0.0
 40
5.0
 41
0.0
 46
0.0
 71
     5
 72
     1
  1
\A1;19
  7
ＭＳ ゴシック
 73
     1
 44
1.0
  0
POINT
  5
562D
330
5625
100
AcDbEntity
  8
Defpoints
 62
     0
100
AcDbPoint
 10
408.8721245115548
 20
200.1912224768318
 30
0.0
  0
POINT
  5
562E
330
5625
100
AcDbEntity
  8
Defpoints
 62
     0
100
AcDbPoint
 10
427.8721245115549
 20
186.0157099566222
 30
0.0
  0
POINT
  5
562F
330
5625
100
AcDbEntity
  8
Defpoints
 62
     0
100
AcDbPoint
 10
427.8721245115549
 20
213.8023335341041
 30
0.0
  0
ENDBLK
  5
5630
330
5625
100
AcDbEntity
  8
0
100
AcDbBlockEnd
  0
BLOCK
  5
56B1
330
56B0
100
AcDbEntity
  8
0
100
AcDbBlockBegin
  2
*D31
 70
     1
 10
0.0
 20
0.0
 30
0.0
  3
*D31
  1
*D69
  0
LINE
  5
56B2
330
56B0
100
AcDbEntity
  8
寸法
 62
     0
370
    -2
100
AcDbLine
 10
108.1825120145531
 20
356.4345575436565
 30
0.0
 11
108.1825120145531
 21
365.9906564456901
 31
0.0
  0
LINE
  5
56B3
330
56B0
100
AcDbEntity
  8
寸法
 62
     0
370
    -2
100
AcDbLine
 10
146.1825120145531
 20
356.4345575436565
 30
0.0
 11
146.1825120145531
 21
365.9906564456901
 31
0.0
  0
LINE
  5
56B4
330
56B0
100
AcDbEntity
  8
寸法
 62
     0
370
    -2
100
AcDbLine
 10
109.6825120145531
 20
365.9906564456901
 30
0.0
 11
144.6825120145531
 21
365.9906564456901
 31
0.0
  0
INSERT
  5
56B5
330
56B0
100
AcDbEntity
  8
寸法
 62
     0
370
    -2
100
AcDbBlockReference
  2
_DOT
 10
108.1825120145531
 20
365.9906564456901
 30
0.0
 41
1.5
 42
1.5
 43
1.5
 50
180.0
  0
INSERT
  5
56B6
330
56B0
100
AcDbEntity
  8
寸法
 62
     0
370
    -2
100
AcDbBlockReference
  2
_DOT
 10
146.1825120145531
 20
365.9906564456901
 30
0.0
 41
1.5
 42
1.5
 43
1.5
  0
MTEXT
  5
56B7
330
56B0
100
AcDbEntity
  8
寸法
  6
Continuous
 62
     0
100
AcDbMText
 10
127.1825120145531
 20
370.4906564456901
 30
0.0
 40
5.0
 41
0.0
 46
0.0
 71
     5
 72
     1
  1
\A1;38
  7
ＭＳ ゴシック
 73
     1
 44
1.0
  0
POINT
  5
56B8
330
56B0
100
AcDbEntity
  8
Defpoints
 62
     0
100
AcDbPoint
 10
108.1825120145531
 20
351.4345575436565
 30
0.0
  0
POINT
  5
56B9
330
56B0
100
AcDbEntity
  8
Defpoints
 62
     0
100
AcDbPoint
 10
146.1825120145531
 20
351.4345575436565
 30
0.0
  0
POINT
  5
56BA
330
56B0
100
AcDbEntity
  8
Defpoints
 62
     0
100
AcDbPoint
 10
146.1825120145531
 20
365.9906564456901
 30
0.0
  0
ENDBLK
  5
56BB
330
56B0
100
AcDbEntity
  8
0
100
AcDbBlockEnd
  0
BLOCK
  5
5818
330
5817
100
AcDbEntity
  8
0
100
AcDbBlockBegin
  2
*D32
 70
     1
 10
0.0
 20
0.0
 30
0.0
  3
*D32
  1
*D34
  0
LINE
  5
581A
330
5817
100
AcDbEntity
  8
寸法
  6
Continuous
 62
     0
370
    -2
100
AcDbLine
 10
94.93135926942057
 20
348.7335990428101
 30
0.0
 11
82.57835042397778
 21
348.7335990428101
 31
0.0
  0
LINE
  5
581B
330
5817
100
AcDbEntity
  8
寸法
  6
Continuous
 62
     0
370
    -2
100
AcDbLine
 10
109.4837282141555
 20
341.0341771438358
 30
0.0
 11
82.57835042397778
 21
341.0341771438358
 31
0.0
  0
LINE
  5
581C
330
5817
100
AcDbEntity
  8
寸法
  6
Continuous
 62
     0
370
    -2
100
AcDbLine
 10
82.57835042397778
 20
348.7335990428101
 30
0.0
 11
82.57835042397778
 21
341.0341771438358
 31
0.0
  0
LINE
  5
581D
330
5817
100
AcDbEntity
  8
寸法
  6
Continuous
 62
     0
370
    -2
100
AcDbLine
 10
82.57835042397778
 20
350.2335990428101
 30
0.0
 11
82.57835042397778
 21
351.7335990428101
 31
0.0
  0
LINE
  5
581E
330
5817
100
AcDbEntity
  8
寸法
  6
Continuous
 62
     0
370
    -2
100
AcDbLine
 10
82.57835042397778
 20
339.5341771438358
 30
0.0
 11
82.57835042397778
 21
338.0341771438358
 31
0.0
  0
INSERT
  5
581F
330
5817
100
AcDbEntity
  8
寸法
 62
     0
370
    -2
100
AcDbBlockReference
  2
_DOT
 10
82.57835042397778
 20
348.7335990428101
 30
0.0
 41
1.5
 42
1.5
 43
1.5
 50
270.0
  0
INSERT
  5
5820
330
5817
100
AcDbEntity
  8
寸法
 62
     0
370
    -2
100
AcDbBlockReference
  2
_DOT
 10
82.57835042397778
 20
341.0341771438358
 30
0.0
 41
1.5
 42
1.5
 43
1.5
 50
90.0
  0
MTEXT
  5
5821
330
5817
100
AcDbEntity
  8
寸法
  6
Continuous
 62
     0
100
AcDbMText
 10
78.07835042397778
 20
344.883888093323
 30
0.0
 40
5.0
 41
0.0
 46
0.0
 71
     5
 72
     1
  1
\A1;8
  7
ＭＳ ゴシック
 11
0.0
 21
1.0
 31
0.0
 73
     1
 44
1.0
  0
POINT
  5
5822
330
5817
100
AcDbEntity
  8
Defpoints
 62
     0
100
AcDbPoint
 10
99.93135926942057
 20
348.7335990428101
 30
0.0
  0
POINT
  5
5823
330
5817
100
AcDbEntity
  8
Defpoints
 62
     0
100
AcDbPoint
 10
114.4837282141555
 20
341.0341771438358
 30
0.0
  0
POINT
  5
5824
330
5817
100
AcDbEntity
  8
Defpoints
 62
     0
100
AcDbPoint
 10
82.57835042397778
 20
341.0341771438358
 30
0.0
  0
ENDBLK
  5
5819
330
5817
100
AcDbEntity
  8
0
100
AcDbBlockEnd
  0
BLOCK
  5
5826
330
5825
100
AcDbEntity
  8
0
100
AcDbBlockBegin
  2
*D33
 70
     1
 10
0.0
 20
0.0
 30
0.0
  3
*D33
  1
*D35
  0
LINE
  5
5828
330
5825
100
AcDbEntity
  8
寸法
  6
Continuous
 62
     0
370
    -2
100
AcDbLine
 10
403.8854160529299
 20
348.7990849693352
 30
0.0
 11
364.2169531300075
 21
348.7990849693352
 31
0.0
  0
LINE
  5
5829
330
5825
100
AcDbEntity
  8
寸法
  6
Continuous
 62
     0
370
    -2
100
AcDbLine
 10
403.8854160529299
 20
293.7990849693352
 30
0.0
 11
364.2169531300075
 21
293.7990849693352
 31
0.0
  0
LINE
  5
582A
330
5825
100
AcDbEntity
  8
寸法
  6
Continuous
 62
     0
370
    -2
100
AcDbLine
 10
364.2169531300075
 20
347.2990849693352
 30
0.0
 11
364.2169531300075
 21
295.2990849693352
 31
0.0
  0
INSERT
  5
582B
330
5825
100
AcDbEntity
  8
寸法
 62
     0
370
    -2
100
AcDbBlockReference
  2
_DOT
 10
364.2169531300075
 20
348.7990849693352
 30
0.0
 41
1.5
 42
1.5
 43
1.5
 50
90.0
  0
INSERT
  5
582C
330
5825
100
AcDbEntity
  8
寸法
 62
     0
370
    -2
100
AcDbBlockReference
  2
_DOT
 10
364.2169531300075
 20
293.7990849693352
 30
0.0
 41
1.5
 42
1.5
 43
1.5
 50
270.0
  0
MTEXT
  5
582D
330
5825
100
AcDbEntity
  8
寸法
  6
Continuous
 62
     0
100
AcDbMText
 10
359.3119531300075
 20
321.2990849693352
 30
0.0
 40
5.0
 41
0.0
 46
0.0
 71
     5
 72
     1
  1
\A1;φ55
  7
ＭＳ ゴシック
 11
0.0
 21
1.0
 31
0.0
 73
     1
 44
1.0
  0
POINT
  5
582E
330
5825
100
AcDbEntity
  8
Defpoints
 62
     0
100
AcDbPoint
 10
408.8854160529299
 20
348.7990849693352
 30
0.0
  0
POINT
  5
582F
330
5825
100
AcDbEntity
  8
Defpoints
 62
     0
100
AcDbPoint
 10
408.8854160529299
 20
293.7990849693352
 30
0.0
  0
POINT
  5
5830
330
5825
100
AcDbEntity
  8
Defpoints
 62
     0
100
AcDbPoint
 10
364.2169531300075
 20
293.7990849693352
 30
0.0
  0
ENDBLK
  5
5827
330
5825
100
AcDbEntity
  8
0
100
AcDbBlockEnd
  0
BLOCK
  5
5832
330
5831
100
AcDbEntity
  8
0
100
AcDbBlockBegin
  2
*D34
 70
     1
 10
0.0
 20
0.0
 30
0.0
  3
*D34
  1
*D36
  0
LINE
  5
5834
330
5831
100
AcDbEntity
  8
寸法
  6
Continuous
 62
     0
370
    -2
100
AcDbLine
 10
94.06705166406618
 20
348.7335990428101
 30
0.0
 11
62.66820315675285
 21
348.7335990428101
 31
0.0
  0
LINE
  5
5835
330
5831
100
AcDbEntity
  8
寸法
  6
Continuous
 62
     0
370
    -2
100
AcDbLine
 10
184.9711760191407
 20
281.0777285890699
 30
0.0
 11
62.66820315675284
 21
281.0777285890699
 31
0.0
  0
LINE
  5
5836
330
5831
100
AcDbEntity
  8
寸法
  6
Continuous
 62
     0
370
    -2
100
AcDbLine
 10
62.66820315675285
 20
347.2335990428101
 30
0.0
 11
62.66820315675284
 21
282.5777285890699
 31
0.0
  0
INSERT
  5
5837
330
5831
100
AcDbEntity
  8
寸法
 62
     0
370
    -2
100
AcDbBlockReference
  2
_DOT
 10
62.66820315675285
 20
348.7335990428101
 30
0.0
 41
1.5
 42
1.5
 43
1.5
 50
90.0
  0
INSERT
  5
5838
330
5831
100
AcDbEntity
  8
寸法
 62
     0
370
    -2
100
AcDbBlockReference
  2
_DOT
 10
62.66820315675284
 20
281.0777285890699
 30
0.0
 41
1.5
 42
1.5
 43
1.5
 50
270.0
  0
MTEXT
  5
5839
330
5831
100
AcDbEntity
  8
寸法
  6
Continuous
 62
     0
100
AcDbMText
 10
58.16820315675284
 20
314.90566381594
 30
0.0
 40
5.0
 41
0.0
 46
0.0
 71
     5
 72
     1
  1
\A1;68
  7
ＭＳ ゴシック
 11
1.050230720549128E-16
 21
1.0
 31
0.0
 73
     1
 44
1.0
  0
POINT
  5
583A
330
5831
100
AcDbEntity
  8
Defpoints
 62
     0
100
AcDbPoint
 10
99.06705166406618
 20
348.7335990428101
 30
0.0
  0
POINT
  5
583B
330
5831
100
AcDbEntity
  8
Defpoints
 62
     0
100
AcDbPoint
 10
189.9711760191407
 20
281.0777285890699
 30
0.0
  0
POINT
  5
583C
330
5831
100
AcDbEntity
  8
Defpoints
 62
     0
100
AcDbPoint
 10
62.66820315675284
 20
281.0777285890699
 30
0.0
  0
ENDBLK
  5
5833
330
5831
100
AcDbEntity
  8
0
100
AcDbBlockEnd
  0
BLOCK
  5
583E
330
583D
100
AcDbEntity
  8
0
100
AcDbBlockBegin
  2
*D35
 70
     1
 10
0.0
 20
0.0
 30
0.0
  3
*D35
  1
*D37
  0
LINE
  5
5840
330
583D
100
AcDbEntity
  8
寸法
  6
Continuous
 62
     0
370
    -2
100
AcDbLine
 10
127.0296484505602
 20
145.053068208781
 30
0.0
 11
127.0296484505602
 21
138.3207352236588
 31
0.0
  0
LINE
  5
5841
330
583D
100
AcDbEntity
  8
寸法
  6
Continuous
 62
     0
370
    -2
100
AcDbLine
 10
134.8816507401137
 20
163.6511043765549
 30
0.0
 11
134.8816507401137
 21
138.3207352236588
 31
0.0
  0
LINE
  5
5842
330
583D
100
AcDbEntity
  8
寸法
  6
Continuous
 62
     0
370
    -2
100
AcDbLine
 10
134.8816507401137
 20
138.3207352236588
 30
0.0
 11
186.7116507401138
 21
138.3207352236588
 31
0.0
  0
INSERT
  5
5843
330
583D
100
AcDbEntity
  8
寸法
 62
     0
370
    -2
100
AcDbBlockReference
  2
_DOT
 10
127.0296484505602
 20
138.3207352236588
 30
0.0
 41
1.5
 42
1.5
 43
1.5
 50
180.0
  0
INSERT
  5
5844
330
583D
100
AcDbEntity
  8
寸法
 62
     0
370
    -2
100
AcDbBlockReference
  2
_DOT
 10
134.8816507401137
 20
138.3207352236588
 30
0.0
 41
1.5
 42
1.5
 43
1.5
  0
MTEXT
  5
5845
330
583D
100
AcDbEntity
  8
寸法
  6
Continuous
 62
     0
100
AcDbMText
 10
164.2966507401138
 20
143.3782352236588
 30
0.0
 40
5.0
 41
0.0
 46
0.0
 71
     5
 72
     1
  1
\A1;プレート部分8
  7
ＭＳ ゴシック
 73
     1
 44
1.0
  0
POINT
  5
5846
330
583D
100
AcDbEntity
  8
Defpoints
 62
     0
100
AcDbPoint
 10
127.0296484505602
 20
150.053068208781
 30
0.0
  0
POINT
  5
5847
330
583D
100
AcDbEntity
  8
Defpoints
 62
     0
100
AcDbPoint
 10
134.8816507401137
 20
168.6511043765549
 30
0.0
  0
POINT
  5
5848
330
583D
100
AcDbEntity
  8
Defpoints
 62
     0
100
AcDbPoint
 10
134.8816507401137
 20
138.3207352236588
 30
0.0
  0
ENDBLK
  5
583F
330
583D
100
AcDbEntity
  8
0
100
AcDbBlockEnd
  0
BLOCK
  5
584A
330
5849
100
AcDbEntity
  8
0
100
AcDbBlockBegin
  2
*D36
 70
     1
 10
0.0
 20
0.0
 30
0.0
  3
*D36
  1
*D38
  0
LINE
  5
584C
330
5849
100
AcDbEntity
  8
寸法
  6
Continuous
 62
     0
370
    -2
100
AcDbLine
 10
110.0726103713298
 20
341.022953810548
 30
0.0
 11
82.52647935856646
 21
341.022953810548
 31
0.0
  0
LINE
  5
584D
330
5849
100
AcDbEntity
  8
寸法
  6
Continuous
 62
     0
370
    -2
100
AcDbLine
 10
189.9711760191407
 20
281.0777285890699
 30
0.0
 11
82.52647935856646
 21
281.0777285890699
 31
0.0
  0
LINE
  5
584E
330
5849
100
AcDbEntity
  8
寸法
  6
Continuous
 62
     0
370
    -2
100
AcDbLine
 10
82.52647935856646
 20
339.522953810548
 30
0.0
 11
82.52647935856646
 21
282.5777285890699
 31
0.0
  0
INSERT
  5
584F
330
5849
100
AcDbEntity
  8
寸法
 62
     0
370
    -2
100
AcDbBlockReference
  2
_DOT
 10
82.52647935856646
 20
341.022953810548
 30
0.0
 41
1.5
 42
1.5
 43
1.5
 50
90.0
  0
INSERT
  5
5850
330
5849
100
AcDbEntity
  8
寸法
 62
     0
370
    -2
100
AcDbBlockReference
  2
_DOT
 10
82.52647935856646
 20
281.0777285890699
 30
0.0
 41
1.5
 42
1.5
 43
1.5
 50
270.0
  0
MTEXT
  5
5851
330
5849
100
AcDbEntity
  8
寸法
  6
Continuous
 62
     0
100
AcDbMText
 10
78.02647935856646
 20
311.0503411998089
 30
0.0
 40
5.0
 41
0.0
 46
0.0
 71
     5
 72
     1
  1
\A1;60
  7
ＭＳ ゴシック
 11
0.0
 21
1.0
 31
0.0
 73
     1
 44
1.0
  0
POINT
  5
5852
330
5849
100
AcDbEntity
  8
Defpoints
 62
     0
100
AcDbPoint
 10
115.0726103713298
 20
341.022953810548
 30
0.0
  0
POINT
  5
5853
330
5849
100
AcDbEntity
  8
Defpoints
 62
     0
100
AcDbPoint
 10
194.9711760191407
 20
281.0777285890699
 30
0.0
  0
POINT
  5
5854
330
5849
100
AcDbEntity
  8
Defpoints
 62
     0
100
AcDbPoint
 10
82.52647935856646
 20
281.0777285890699
 30
0.0
  0
ENDBLK
  5
584B
330
5849
100
AcDbEntity
  8
0
100
AcDbBlockEnd
  0
BLOCK
  5
5856
330
5855
100
AcDbEntity
  8
0
100
AcDbBlockBegin
  2
*D37
 70
     1
 10
0.0
 20
0.0
 30
0.0
  3
*D37
  1
*D39
  0
LINE
  5
5858
330
5855
100
AcDbEntity
  8
寸法
  6
Continuous
 62
     0
370
    -2
100
AcDbLine
 10
115.1935433875918
 20
326.04005183593
 30
0.0
 11
115.1935433875918
 21
262.1267427827099
 31
0.0
  0
LINE
  5
5859
330
5855
100
AcDbEntity
  8
寸法
  6
Continuous
 62
     0
370
    -2
100
AcDbLine
 10
234.1687403875918
 20
292.9484688359301
 30
0.0
 11
234.1687403875918
 21
262.1267427827099
 31
0.0
  0
LINE
  5
585A
330
5855
100
AcDbEntity
  8
寸法
  6
Continuous
 62
     0
370
    -2
100
AcDbLine
 10
116.6935433875918
 20
262.1267427827099
 30
0.0
 11
232.6687403875918
 21
262.1267427827099
 31
0.0
  0
INSERT
  5
585B
330
5855
100
AcDbEntity
  8
寸法
 62
     0
370
    -2
100
AcDbBlockReference
  2
_DOT
 10
115.1935433875918
 20
262.1267427827099
 30
0.0
 41
1.5
 42
1.5
 43
1.5
 50
180.0
  0
INSERT
  5
585C
330
5855
100
AcDbEntity
  8
寸法
 62
     0
370
    -2
100
AcDbBlockReference
  2
_DOT
 10
234.1687403875918
 20
262.1267427827099
 30
0.0
 41
1.5
 42
1.5
 43
1.5
  0
MTEXT
  5
585D
330
5855
100
AcDbEntity
  8
寸法
  6
Continuous
 62
     0
100
AcDbMText
 10
174.6811418875918
 20
266.6267427827099
 30
0.0
 40
5.0
 41
0.0
 46
0.0
 71
     5
 72
     1
  1
\A1;119
  7
ＭＳ ゴシック
 73
     1
 44
1.0
  0
POINT
  5
585E
330
5855
100
AcDbEntity
  8
Defpoints
 62
     0
100
AcDbPoint
 10
115.1935433875918
 20
331.04005183593
 30
0.0
  0
POINT
  5
585F
330
5855
100
AcDbEntity
  8
Defpoints
 62
     0
100
AcDbPoint
 10
234.1687403875918
 20
297.9484688359301
 30
0.0
  0
POINT
  5
5860
330
5855
100
AcDbEntity
  8
Defpoints
 62
     0
100
AcDbPoint
 10
234.1687403875918
 20
262.1267427827099
 30
0.0
  0
ENDBLK
  5
5857
330
5855
100
AcDbEntity
  8
0
100
AcDbBlockEnd
  0
BLOCK
  5
5862
330
5861
100
AcDbEntity
  8
0
100
AcDbBlockBegin
  2
*D38
 70
     1
 10
0.0
 20
0.0
 30
0.0
  3
*D38
  1
*D40
  0
LINE
  5
5864
330
5861
100
AcDbEntity
  8
寸法
 62
     0
370
    -2
100
AcDbLine
 10
427.8721245115549
 20
172.3452081951892
 30
0.0
 11
427.8721245115549
 21
144.5573006134969
 31
0.0
  0
LINE
  5
5865
330
5861
100
AcDbEntity
  8
寸法
 62
     0
370
    -2
100
AcDbLine
 10
389.8721245115548
 20
172.3452081951892
 30
0.0
 11
389.8721245115548
 21
144.5573006134969
 31
0.0
  0
LINE
  5
5866
330
5861
100
AcDbEntity
  8
寸法
 62
     0
370
    -2
100
AcDbLine
 10
389.8721245115548
 20
144.5573006134969
 30
0.0
 11
376.2146245115548
 21
144.5573006134969
 31
0.0
  0
LINE
  5
5867
330
5861
100
AcDbEntity
  8
寸法
 62
     0
370
    -2
100
AcDbLine
 10
426.3721245115549
 20
144.5573006134969
 30
0.0
 11
391.3721245115548
 21
144.5573006134969
 31
0.0
  0
INSERT
  5
5868
330
5861
100
AcDbEntity
  8
寸法
 62
     0
370
    -2
100
AcDbBlockReference
  2
_DOT
 10
427.8721245115549
 20
144.5573006134969
 30
0.0
 41
1.5
 42
1.5
 43
1.5
  0
INSERT
  5
5869
330
5861
100
AcDbEntity
  8
寸法
 62
     0
370
    -2
100
AcDbBlockReference
  2
_DOT
 10
389.8721245115548
 20
144.5573006134969
 30
0.0
 41
1.5
 42
1.5
 43
1.5
 50
180.0
  0
POINT
  5
586A
330
5861
100
AcDbEntity
  8
Defpoints
 62
     0
100
AcDbPoint
 10
427.8721245115549
 20
177.3452081951892
 30
0.0
  0
POINT
  5
586B
330
5861
100
AcDbEntity
  8
Defpoints
 62
     0
100
AcDbPoint
 10
389.8721245115548
 20
177.3452081951892
 30
0.0
  0
POINT
  5
586C
330
5861
100
AcDbEntity
  8
Defpoints
 62
     0
100
AcDbPoint
 10
389.8721245115548
 20
144.5573006134969
 30
0.0
  0
ENDBLK
  5
5863
330
5861
100
AcDbEntity
  8
0
100
AcDbBlockEnd
  0
BLOCK
  5
586E
330
586D
100
AcDbEntity
  8
0
100
AcDbBlockBegin
  2
*D39
 70
     1
 10
0.0
 20
0.0
 30
0.0
  3
*D39
  1
*D41
  0
LINE
  5
5870
330
586D
100
AcDbEntity
  8
寸法
 62
     0
370
    -2
100
AcDbLine
 10
389.8721245115548
 20
191.0157099566222
 30
0.0
 11
389.8721245115548
 21
213.8023335341041
 31
0.0
  0
LINE
  5
5871
330
586D
100
AcDbEntity
  8
寸法
 62
     0
370
    -2
100
AcDbLine
 10
408.8721245115548
 20
205.1912224768318
 30
0.0
 11
408.8721245115548
 21
213.8023335341041
 31
0.0
  0
LINE
  5
5872
330
586D
100
AcDbEntity
  8
寸法
 62
     0
370
    -2
100
AcDbLine
 10
391.3721245115548
 20
213.8023335341041
 30
0.0
 11
407.3721245115548
 21
213.8023335341041
 31
0.0
  0
INSERT
  5
5873
330
586D
100
AcDbEntity
  8
寸法
 62
     0
370
    -2
100
AcDbBlockReference
  2
_DOT
 10
389.8721245115548
 20
213.8023335341041
 30
0.0
 41
1.5
 42
1.5
 43
1.5
 50
180.0
  0
INSERT
  5
5874
330
586D
100
AcDbEntity
  8
寸法
 62
     0
370
    -2
100
AcDbBlockReference
  2
_DOT
 10
408.8721245115548
 20
213.8023335341041
 30
0.0
 41
1.5
 42
1.5
 43
1.5
  0
MTEXT
  5
5875
330
586D
100
AcDbEntity
  8
寸法
  6
Continuous
 62
     0
100
AcDbMText
 10
399.3721245115548
 20
218.3023335341041
 30
0.0
 40
5.0
 41
0.0
 46
0.0
 71
     5
 72
     1
  1
\A1;19
  7
ＭＳ ゴシック
 73
     1
 44
1.0
  0
POINT
  5
5876
330
586D
100
AcDbEntity
  8
Defpoints
 62
     0
100
AcDbPoint
 10
389.8721245115548
 20
186.0157099566222
 30
0.0
  0
POINT
  5
5877
330
586D
100
AcDbEntity
  8
Defpoints
 62
     0
100
AcDbPoint
 10
408.8721245115548
 20
200.1912224768318
 30
0.0
  0
POINT
  5
5878
330
586D
100
AcDbEntity
  8
Defpoints
 62
     0
100
AcDbPoint
 10
408.8721245115548
 20
213.8023335341041
 30
0.0
  0
ENDBLK
  5
586F
330
586D
100
AcDbEntity
  8
0
100
AcDbBlockEnd
  0
BLOCK
  5
587A
330
5879
100
AcDbEntity
  8
0
100
AcDbBlockBegin
  2
*D40
 70
     1
 10
0.0
 20
0.0
 30
0.0
  3
*D40
  1
*D42
  0
LINE
  5
587C
330
5879
100
AcDbEntity
  8
寸法
 62
     0
370
    -2
100
AcDbLine
 10
408.8721245115548
 20
205.1912224768318
 30
0.0
 11
408.8721245115548
 21
213.8023335341041
 31
0.0
  0
LINE
  5
587D
330
5879
100
AcDbEntity
  8
寸法
 62
     0
370
    -2
100
AcDbLine
 10
427.8721245115549
 20
191.0157099566222
 30
0.0
 11
427.8721245115549
 21
213.8023335341041
 31
0.0
  0
LINE
  5
587E
330
5879
100
AcDbEntity
  8
寸法
 62
     0
370
    -2
100
AcDbLine
 10
410.3721245115548
 20
213.8023335341041
 30
0.0
 11
426.3721245115549
 21
213.8023335341041
 31
0.0
  0
INSERT
  5
587F
330
5879
100
AcDbEntity
  8
寸法
 62
     0
370
    -2
100
AcDbBlockReference
  2
_DOT
 10
408.8721245115548
 20
213.8023335341041
 30
0.0
 41
1.5
 42
1.5
 43
1.5
 50
180.0
  0
INSERT
  5
5880
330
5879
100
AcDbEntity
  8
寸法
 62
     0
370
    -2
100
AcDbBlockReference
  2
_DOT
 10
427.8721245115549
 20
213.8023335341041
 30
0.0
 41
1.5
 42
1.5
 43
1.5
  0
MTEXT
  5
5881
330
5879
100
AcDbEntity
  8
寸法
  6
Continuous
 62
     0
100
AcDbMText
 10
418.3721245115548
 20
218.3023335341041
 30
0.0
 40
5.0
 41
0.0
 46
0.0
 71
     5
 72
     1
  1
\A1;19
  7
ＭＳ ゴシック
 73
     1
 44
1.0
  0
POINT
  5
5882
330
5879
100
AcDbEntity
  8
Defpoints
 62
     0
100
AcDbPoint
 10
408.8721245115548
 20
200.1912224768318
 30
0.0
  0
POINT
  5
5883
330
5879
100
AcDbEntity
  8
Defpoints
 62
     0
100
AcDbPoint
 10
427.8721245115549
 20
186.0157099566222
 30
0.0
  0
POINT
  5
5884
330
5879
100
AcDbEntity
  8
Defpoints
 62
     0
100
AcDbPoint
 10
427.8721245115549
 20
213.8023335341041
 30
0.0
  0
ENDBLK
  5
587B
330
5879
100
AcDbEntity
  8
0
100
AcDbBlockEnd
  0
BLOCK
  5
5886
330
5885
100
AcDbEntity
  8
0
100
AcDbBlockBegin
  2
*D41
 70
     1
 10
0.0
 20
0.0
 30
0.0
  3
*D41
  1
*D43
  0
LINE
  5
5888
330
5885
100
AcDbEntity
  8
寸法
 62
     0
370
    -2
100
AcDbLine
 10
108.1825120145531
 20
356.4345575436565
 30
0.0
 11
108.1825120145531
 21
365.9906564456901
 31
0.0
  0
LINE
  5
5889
330
5885
100
AcDbEntity
  8
寸法
 62
     0
370
    -2
100
AcDbLine
 10
146.1825120145531
 20
356.4345575436565
 30
0.0
 11
146.1825120145531
 21
365.9906564456901
 31
0.0
  0
LINE
  5
588A
330
5885
100
AcDbEntity
  8
寸法
 62
     0
370
    -2
100
AcDbLine
 10
109.6825120145531
 20
365.9906564456901
 30
0.0
 11
144.6825120145531
 21
365.9906564456901
 31
0.0
  0
INSERT
  5
588B
330
5885
100
AcDbEntity
  8
寸法
 62
     0
370
    -2
100
AcDbBlockReference
  2
_DOT
 10
108.1825120145531
 20
365.9906564456901
 30
0.0
 41
1.5
 42
1.5
 43
1.5
 50
180.0
  0
INSERT
  5
588C
330
5885
100
AcDbEntity
  8
寸法
 62
     0
370
    -2
100
AcDbBlockReference
  2
_DOT
 10
146.1825120145531
 20
365.9906564456901
 30
0.0
 41
1.5
 42
1.5
 43
1.5
  0
MTEXT
  5
588D
330
5885
100
AcDbEntity
  8
寸法
  6
Continuous
 62
     0
100
AcDbMText
 10
127.1825120145531
 20
370.4906564456901
 30
0.0
 40
5.0
 41
0.0
 46
0.0
 71
     5
 72
     1
  1
\A1;38
  7
ＭＳ ゴシック
 73
     1
 44
1.0
  0
POINT
  5
588E
330
5885
100
AcDbEntity
  8
Defpoints
 62
     0
100
AcDbPoint
 10
108.1825120145531
 20
351.4345575436565
 30
0.0
  0
POINT
  5
588F
330
5885
100
AcDbEntity
  8
Defpoints
 62
     0
100
AcDbPoint
 10
146.1825120145531
 20
351.4345575436565
 30
0.0
  0
POINT
  5
5890
330
5885
100
AcDbEntity
  8
Defpoints
 62
     0
100
AcDbPoint
 10
146.1825120145531
 20
365.9906564456901
 30
0.0
  0
ENDBLK
  5
5887
330
5885
100
AcDbEntity
  8
0
100
AcDbBlockEnd
  0
BLOCK
  5
58AD
330
58AC
100
AcDbEntity
  8
0
100
AcDbBlockBegin
  2
*D42
 70
     1
 10
0.0
 20
0.0
 30
0.0
  3
*D42
  1
*D42
  0
LINE
  5
58AF
330
58AC
100
AcDbEntity
  8
寸法
  6
Continuous
 62
     0
370
    -2
100
AcDbLine
 10
479.2481196486569
 20
267.844590407774
 30
0.0
 11
479.2481196486569
 21
245.837259019544
 31
0.0
  0
LINE
  5
58B0
330
58AC
100
AcDbEntity
  8
寸法
  6
Continuous
 62
     0
370
    -2
100
AcDbLine
 10
357.327846648657
 20
283.0176324077742
 30
0.0
 11
357.327846648657
 21
245.837259019544
 31
0.0
  0
LINE
  5
58B1
330
58AC
100
AcDbEntity
  8
寸法
  6
Continuous
 62
     0
370
    -2
100
AcDbLine
 10
477.7481196486569
 20
245.837259019544
 30
0.0
 11
358.827846648657
 21
245.837259019544
 31
0.0
  0
INSERT
  5
58B2
330
58AC
100
AcDbEntity
  8
寸法
 62
     0
370
    -2
100
AcDbBlockReference
  2
_DOT
 10
479.2481196486569
 20
245.837259019544
 30
0.0
 41
1.5
 42
1.5
 43
1.5
  0
INSERT
  5
58B3
330
58AC
100
AcDbEntity
  8
寸法
 62
     0
370
    -2
100
AcDbBlockReference
  2
_DOT
 10
357.327846648657
 20
245.837259019544
 30
0.0
 41
1.5
 42
1.5
 43
1.5
 50
180.0
  0
MTEXT
  5
58B4
330
58AC
100
AcDbEntity
  8
寸法
  6
Continuous
 62
     0
100
AcDbMText
 10
418.287983148657
 20
250.337259019544
 30
0.0
 40
5.0
 41
0.0
 46
0.0
 71
     5
 72
     1
  1
\A1;122
  7
ＭＳ ゴシック
 73
     1
 44
1.0
  0
POINT
  5
58B5
330
58AC
100
AcDbEntity
  8
Defpoints
 62
     0
100
AcDbPoint
 10
479.2481196486569
 20
272.844590407774
 30
0.0
  0
POINT
  5
58B6
330
58AC
100
AcDbEntity
  8
Defpoints
 62
     0
100
AcDbPoint
 10
357.327846648657
 20
288.0176324077742
 30
0.0
  0
POINT
  5
58B7
330
58AC
100
AcDbEntity
  8
Defpoints
 62
     0
100
AcDbPoint
 10
357.327846648657
 20
245.837259019544
 30
0.0
  0
ENDBLK
  5
58AE
330
58AC
100
AcDbEntity
  8
0
100
AcDbBlockEnd
  0
BLOCK
  5
58B9
330
58B8
100
AcDbEntity
  8
0
100
AcDbBlockBegin
  2
*D43
 70
     1
 10
0.0
 20
0.0
 30
0.0
  3
*D43
  1
*D43
  0
LINE
  5
58BB
330
58B8
100
AcDbEntity
  8
寸法
  6
Continuous
 62
     0
370
    -2
100
AcDbLine
 10
387.170155292559
 20
750.4462936408224
 30
0.0
 11
333.9680673471464
 21
750.4462936408224
 31
0.0
  0
LINE
  5
58BC
330
58B8
100
AcDbEntity
  8
寸法
  6
Continuous
 62
     0
370
    -2
100
AcDbLine
 10
387.170155292559
 20
695.6462936408223
 30
0.0
 11
333.9680673471464
 21
695.6462936408223
 31
0.0
  0
LINE
  5
58BD
330
58B8
100
AcDbEntity
  8
寸法
  6
Continuous
 62
     0
370
    -2
100
AcDbLine
 10
333.9680673471464
 20
748.9462936408224
 30
0.0
 11
333.9680673471464
 21
697.1462936408223
 31
0.0
  0
INSERT
  5
58BE
330
58B8
100
AcDbEntity
  8
寸法
 62
     0
370
    -2
100
AcDbBlockReference
  2
_DOT
 10
333.9680673471464
 20
750.4462936408224
 30
0.0
 41
1.5
 42
1.5
 43
1.5
 50
90.0
  0
INSERT
  5
58BF
330
58B8
100
AcDbEntity
  8
寸法
 62
     0
370
    -2
100
AcDbBlockReference
  2
_DOT
 10
333.9680673471464
 20
695.6462936408223
 30
0.0
 41
1.5
 42
1.5
 43
1.5
 50
270.0
  0
MTEXT
  5
58C0
330
58B8
100
AcDbEntity
  8
寸法
  6
Continuous
 62
     0
100
AcDbMText
 10
329.0630673471464
 20
723.0462936408223
 30
0.0
 40
5.0
 41
0.0
 46
0.0
 71
     5
 72
     1
  1
\A1;φ55
  7
ＭＳ ゴシック
 11
0.0
 21
1.0
 31
0.0
 73
     1
 44
1.0
  0
POINT
  5
58C1
330
58B8
100
AcDbEntity
  8
Defpoints
 62
     0
100
AcDbPoint
 10
392.170155292559
 20
750.4462936408224
 30
0.0
  0
POINT
  5
58C2
330
58B8
100
AcDbEntity
  8
Defpoints
 62
     0
100
AcDbPoint
 10
392.170155292559
 20
695.6462936408223
 30
0.0
  0
POINT
  5
58C3
330
58B8
100
AcDbEntity
  8
Defpoints
 62
     0
100
AcDbPoint
 10
333.9680673471464
 20
695.6462936408223
 30
0.0
  0
ENDBLK
  5
58BA
330
58B8
100
AcDbEntity
  8
0
100
AcDbBlockEnd
  0
BLOCK
  5
59E8
330
59E7
100
AcDbEntity
  8
0
100
AcDbBlockBegin
  2
*D44
 70
     1
 10
0.0
 20
0.0
 30
0.0
  3
*D44
  1
*D45
  0
LINE
  5
59E9
330
59E7
100
AcDbEntity
  8
寸法
  6
Continuous
 62
     0
370
    -2
100
AcDbLine
 10
0.375
 20
9.573144235081088
 30
0.0
 11
0.375
 21
0.375
 31
0.0
  0
LINE
  5
59EA
330
59E7
100
AcDbEntity
  8
寸法
  6
Continuous
 62
     0
370
    -2
100
AcDbLine
 10
8.074570739085033
 20
24.7782398278371
 30
0.0
 11
8.074570739085033
 21
0.375
 31
0.0
  0
LINE
  5
59EB
330
59E7
100
AcDbEntity
  8
寸法
  6
Continuous
 62
     0
370
    -2
100
AcDbLine
 10
8.074570739085033
 20
0.375
 30
0.0
 11
18.17765809326037
 21
0.375
 31
0.0
  0
LINE
  5
59EC
330
59E7
100
AcDbEntity
  8
寸法
  6
Continuous
 62
     0
370
    -2
100
AcDbLine
 10
1.875
 20
0.375
 30
0.0
 11
6.574570739085033
 21
0.375
 31
0.0
  0
INSERT
  5
59ED
330
59E7
100
AcDbEntity
  8
寸法
 62
     0
370
    -2
100
AcDbBlockReference
  2
_DOT
 10
0.375
 20
0.375
 30
0.0
 41
1.5
 42
1.5
 43
1.5
 50
180.0
  0
INSERT
  5
59EE
330
59E7
100
AcDbEntity
  8
寸法
 62
     0
370
    -2
100
AcDbBlockReference
  2
_DOT
 10
8.074570739085033
 20
0.375
 30
0.0
 41
1.5
 42
1.5
 43
1.5
  0
MTEXT
  5
59EF
330
59E7
100
AcDbEntity
  8
寸法
  6
Continuous
 62
     0
100
AcDbMText
 10
14.85765809326037
 20
4.875
 30
0.0
 40
5.0
 41
0.0
 46
0.0
 71
     5
 72
     1
  1
\A1;8
  7
ＭＳ ゴシック
 73
     1
 44
1.0
  0
POINT
  5
59F0
330
59E7
100
AcDbEntity
  8
Defpoints
 62
     0
100
AcDbPoint
 10
0.375
 20
14.57314423508109
 30
0.0
  0
POINT
  5
59F1
330
59E7
100
AcDbEntity
  8
Defpoints
 62
     0
100
AcDbPoint
 10
8.074570739085033
 20
29.7782398278371
 30
0.0
  0
POINT
  5
59F2
330
59E7
100
AcDbEntity
  8
Defpoints
 62
     0
100
AcDbPoint
 10
8.074570739085033
 20
0.375
 30
0.0
  0
ENDBLK
  5
59F3
330
59E7
100
AcDbEntity
  8
0
100
AcDbBlockEnd
  0
BLOCK
  5
59F9
330
59F8
100
AcDbEntity
  8
0
100
AcDbBlockBegin
  2
*D45
 70
     1
 10
0.0
 20
0.0
 30
0.0
  3
*D45
  1
*D46
  0
LINE
  5
59FB
330
59F8
100
AcDbEntity
  8
寸法
  6
Continuous
 62
     0
370
    -2
100
AcDbLine
 10
127.1816507401139
 20
148.4628469200378
 30
0.0
 11
127.1816507401139
 21
139.2647026849567
 31
0.0
  0
LINE
  5
59FC
330
59F8
100
AcDbEntity
  8
寸法
  6
Continuous
 62
     0
370
    -2
100
AcDbLine
 10
134.8812214791989
 20
163.6679425127938
 30
0.0
 11
134.8812214791989
 21
139.2647026849567
 31
0.0
  0
LINE
  5
59FD
330
59F8
100
AcDbEntity
  8
寸法
  6
Continuous
 62
     0
370
    -2
100
AcDbLine
 10
134.8812214791989
 20
139.2647026849567
 30
0.0
 11
144.9843088333743
 21
139.2647026849567
 31
0.0
  0
LINE
  5
59FE
330
59F8
100
AcDbEntity
  8
寸法
  6
Continuous
 62
     0
370
    -2
100
AcDbLine
 10
128.6816507401139
 20
139.2647026849567
 30
0.0
 11
133.3812214791989
 21
139.2647026849567
 31
0.0
  0
INSERT
  5
59FF
330
59F8
100
AcDbEntity
  8
寸法
 62
     0
370
    -2
100
AcDbBlockReference
  2
_DOT
 10
127.1816507401139
 20
139.2647026849567
 30
0.0
 41
1.5
 42
1.5
 43
1.5
 50
180.0
  0
INSERT
  5
5A00
330
59F8
100
AcDbEntity
  8
寸法
 62
     0
370
    -2
100
AcDbBlockReference
  2
_DOT
 10
134.8812214791989
 20
139.2647026849567
 30
0.0
 41
1.5
 42
1.5
 43
1.5
  0
MTEXT
  5
5A01
330
59F8
100
AcDbEntity
  8
寸法
  6
Continuous
 62
     0
100
AcDbMText
 10
141.6643088333743
 20
143.7647026849567
 30
0.0
 40
5.0
 41
0.0
 46
0.0
 71
     5
 72
     1
  1
\A1;8
  7
ＭＳ ゴシック
 73
     1
 44
1.0
  0
POINT
  5
5A02
330
59F8
100
AcDbEntity
  8
Defpoints
 62
     0
100
AcDbPoint
 10
127.1816507401139
 20
153.4628469200378
 30
0.0
  0
POINT
  5
5A03
330
59F8
100
AcDbEntity
  8
Defpoints
 62
     0
100
AcDbPoint
 10
134.8812214791989
 20
168.6679425127938
 30
0.0
  0
POINT
  5
5A04
330
59F8
100
AcDbEntity
  8
Defpoints
 62
     0
100
AcDbPoint
 10
134.8812214791989
 20
139.2647026849567
 30
0.0
  0
ENDBLK
  5
59FA
330
59F8
100
AcDbEntity
  8
0
100
AcDbBlockEnd
  0
BLOCK
  5
5BF8
330
5BF7
100
AcDbEntity
  8
0
100
AcDbBlockBegin
  2
*D46
 70
     1
 10
0.0
 20
0.0
 30
0.0
  3
*D46
  1
*D47
  0
LINE
  5
5BF9
330
5BF7
100
AcDbEntity
  8
寸法
  6
Continuous
 62
     0
370
    -2
100
AcDbLine
 10
12.67192425945136
 20
214.4558524656296
 30
0.0
 11
12.67192425945136
 21
221.1724008234254
 31
0.0
  0
LINE
  5
5BFA
330
5BF7
100
AcDbEntity
  8
寸法
  6
Continuous
 62
     0
370
    -2
100
AcDbLine
 10
21.17192425945136
 20
214.4558524656296
 30
0.0
 11
21.17192425945136
 21
221.1724008234254
 31
0.0
  0
LINE
  5
5BFB
330
5BF7
100
AcDbEntity
  8
寸法
  6
Continuous
 62
     0
370
    -2
100
AcDbLine
 10
14.17192425945136
 20
221.1724008234254
 30
0.0
 11
19.67192425945136
 21
221.1724008234254
 31
0.0
  0
INSERT
  5
5BFC
330
5BF7
100
AcDbEntity
  8
寸法
 62
     0
370
    -2
100
AcDbBlockReference
  2
_DOT
 10
12.67192425945136
 20
221.1724008234254
 30
0.0
 41
1.5
 42
1.5
 43
1.5
 50
180.0
  0
INSERT
  5
5BFD
330
5BF7
100
AcDbEntity
  8
寸法
 62
     0
370
    -2
100
AcDbBlockReference
  2
_DOT
 10
21.17192425945136
 20
221.1724008234254
 30
0.0
 41
1.5
 42
1.5
 43
1.5
  0
MTEXT
  5
5BFE
330
5BF7
100
AcDbEntity
  8
寸法
  6
Continuous
 62
     0
100
AcDbMText
 10
16.92192425945136
 20
225.6724008234254
 30
0.0
 40
5.0
 41
0.0
 46
0.0
 71
     5
 72
     1
  1
\A1;8.5
  7
ＭＳ ゴシック
 73
     1
 44
1.0
  0
POINT
  5
5BFF
330
5BF7
100
AcDbEntity
  8
Defpoints
 62
     0
100
AcDbPoint
 10
12.67192425945136
 20
209.4558524656296
 30
0.0
  0
POINT
  5
5C00
330
5BF7
100
AcDbEntity
  8
Defpoints
 62
     0
100
AcDbPoint
 10
21.17192425945136
 20
209.4558524656296
 30
0.0
  0
POINT
  5
5C01
330
5BF7
100
AcDbEntity
  8
Defpoints
 62
     0
100
AcDbPoint
 10
21.17192425945136
 20
221.1724008234254
 30
0.0
  0
ENDBLK
  5
5C02
330
5BF7
100
AcDbEntity
  8
0
100
AcDbBlockEnd
  0
BLOCK
  5
5C0A
330
5C09
100
AcDbEntity
  8
0
100
AcDbBlockBegin
  2
*D47
 70
     1
 10
0.0
 20
0.0
 30
0.0
  3
*D47
  1
*D48
  0
LINE
  5
5C0B
330
5C09
100
AcDbEntity
  8
寸法
  6
Continuous
 62
     0
370
    -2
100
AcDbLine
 10
62.46043540515663
 20
197.1207521227724
 30
0.0
 11
77.8834322030564
 21
197.1207521227724
 31
0.0
  0
LINE
  5
5C0C
330
5C09
100
AcDbEntity
  8
寸法
  6
Continuous
 62
     0
370
    -2
100
AcDbLine
 10
68.2153519287707
 20
191.1207521227724
 30
0.0
 11
77.8834322030564
 21
191.1207521227724
 31
0.0
  0
LINE
  5
5C0D
330
5C09
100
AcDbEntity
  8
寸法
  6
Continuous
 62
     0
370
    -2
100
AcDbLine
 10
77.8834322030564
 20
195.6207521227724
 30
0.0
 11
77.8834322030564
 21
192.6207521227724
 31
0.0
  0
INSERT
  5
5C0E
330
5C09
100
AcDbEntity
  8
寸法
 62
     0
370
    -2
100
AcDbBlockReference
  2
_DOT
 10
77.8834322030564
 20
197.1207521227724
 30
0.0
 41
1.5
 42
1.5
 43
1.5
 50
90.0
  0
INSERT
  5
5C0F
330
5C09
100
AcDbEntity
  8
寸法
 62
     0
370
    -2
100
AcDbBlockReference
  2
_DOT
 10
77.8834322030564
 20
191.1207521227724
 30
0.0
 41
1.5
 42
1.5
 43
1.5
 50
270.0
  0
MTEXT
  5
5C10
330
5C09
100
AcDbEntity
  8
寸法
  6
Continuous
 62
     0
100
AcDbMText
 10
73.3834322030564
 20
194.1207521227724
 30
0.0
 40
5.0
 41
0.0
 46
0.0
 71
     5
 72
     1
  1
\A1;6
  7
ＭＳ ゴシック
 11
0.0
 21
1.0
 31
0.0
 73
     1
 44
1.0
  0
POINT
  5
5C11
330
5C09
100
AcDbEntity
  8
Defpoints
 62
     0
100
AcDbPoint
 10
57.46043540515663
 20
197.1207521227724
 30
0.0
  0
POINT
  5
5C12
330
5C09
100
AcDbEntity
  8
Defpoints
 62
     0
100
AcDbPoint
 10
63.2153519287707
 20
191.1207521227724
 30
0.0
  0
POINT
  5
5C13
330
5C09
100
AcDbEntity
  8
Defpoints
 62
     0
100
AcDbPoint
 10
77.8834322030564
 20
191.1207521227724
 30
0.0
  0
ENDBLK
  5
5C14
330
5C09
100
AcDbEntity
  8
0
100
AcDbBlockEnd
  0
BLOCK
  5
5C35
330
5C34
100
AcDbEntity
  8
0
100
AcDbBlockBegin
  2
*D48
 70
     1
 10
0.0
 20
0.0
 30
0.0
  3
*D48
  1
*D49
  0
LINE
  5
5C37
330
5C34
100
AcDbEntity
  8
寸法
  6
Continuous
 62
     0
370
    -2
100
AcDbLine
 10
103.9325120145532
 20
372.0686993856674
 30
0.0
 11
103.9325120145532
 21
378.7852477434632
 31
0.0
  0
LINE
  5
5C38
330
5C34
100
AcDbEntity
  8
寸法
  6
Continuous
 62
     0
370
    -2
100
AcDbLine
 10
112.4325120145532
 20
372.0686993856674
 30
0.0
 11
112.4325120145532
 21
378.7852477434632
 31
0.0
  0
LINE
  5
5C39
330
5C34
100
AcDbEntity
  8
寸法
  6
Continuous
 62
     0
370
    -2
100
AcDbLine
 10
105.4325120145532
 20
378.7852477434632
 30
0.0
 11
110.9325120145532
 21
378.7852477434632
 31
0.0
  0
INSERT
  5
5C3A
330
5C34
100
AcDbEntity
  8
寸法
 62
     0
370
    -2
100
AcDbBlockReference
  2
_DOT
 10
103.9325120145532
 20
378.7852477434632
 30
0.0
 41
1.5
 42
1.5
 43
1.5
 50
180.0
  0
INSERT
  5
5C3B
330
5C34
100
AcDbEntity
  8
寸法
 62
     0
370
    -2
100
AcDbBlockReference
  2
_DOT
 10
112.4325120145532
 20
378.7852477434632
 30
0.0
 41
1.5
 42
1.5
 43
1.5
  0
MTEXT
  5
5C3C
330
5C34
100
AcDbEntity
  8
寸法
  6
Continuous
 62
     0
100
AcDbMText
 10
108.1825120145532
 20
383.2852477434632
 30
0.0
 40
5.0
 41
0.0
 46
0.0
 71
     5
 72
     1
  1
\A1;8.5
  7
ＭＳ ゴシック
 73
     1
 44
1.0
  0
POINT
  5
5C3D
330
5C34
100
AcDbEntity
  8
Defpoints
 62
     0
100
AcDbPoint
 10
103.9325120145532
 20
367.0686993856674
 30
0.0
  0
POINT
  5
5C3E
330
5C34
100
AcDbEntity
  8
Defpoints
 62
     0
100
AcDbPoint
 10
112.4325120145532
 20
367.0686993856674
 30
0.0
  0
POINT
  5
5C3F
330
5C34
100
AcDbEntity
  8
Defpoints
 62
     0
100
AcDbPoint
 10
112.4325120145532
 20
378.7852477434632
 30
0.0
  0
ENDBLK
  5
5C36
330
5C34
100
AcDbEntity
  8
0
100
AcDbBlockEnd
  0
BLOCK
  5
5C41
330
5C40
100
AcDbEntity
  8
0
100
AcDbBlockBegin
  2
*D49
 70
     1
 10
0.0
 20
0.0
 30
0.0
  3
*D49
  1
*D50
  0
LINE
  5
5C43
330
5C40
100
AcDbEntity
  8
寸法
  6
Continuous
 62
     0
370
    -2
100
AcDbLine
 10
153.7210231602584
 20
354.7335990428102
 30
0.0
 11
169.1440199581582
 21
354.7335990428102
 31
0.0
  0
LINE
  5
5C44
330
5C40
100
AcDbEntity
  8
寸法
  6
Continuous
 62
     0
370
    -2
100
AcDbLine
 10
159.4759396838725
 20
348.7335990428102
 30
0.0
 11
169.1440199581582
 21
348.7335990428102
 31
0.0
  0
LINE
  5
5C45
330
5C40
100
AcDbEntity
  8
寸法
  6
Continuous
 62
     0
370
    -2
100
AcDbLine
 10
169.1440199581582
 20
353.2335990428102
 30
0.0
 11
169.1440199581582
 21
350.2335990428102
 31
0.0
  0
INSERT
  5
5C46
330
5C40
100
AcDbEntity
  8
寸法
 62
     0
370
    -2
100
AcDbBlockReference
  2
_DOT
 10
169.1440199581582
 20
354.7335990428102
 30
0.0
 41
1.5
 42
1.5
 43
1.5
 50
90.0
  0
INSERT
  5
5C47
330
5C40
100
AcDbEntity
  8
寸法
 62
     0
370
    -2
100
AcDbBlockReference
  2
_DOT
 10
169.1440199581582
 20
348.7335990428102
 30
0.0
 41
1.5
 42
1.5
 43
1.5
 50
270.0
  0
MTEXT
  5
5C48
330
5C40
100
AcDbEntity
  8
寸法
  6
Continuous
 62
     0
100
AcDbMText
 10
164.6440199581582
 20
351.7335990428102
 30
0.0
 40
5.0
 41
0.0
 46
0.0
 71
     5
 72
     1
  1
\A1;6
  7
ＭＳ ゴシック
 11
0.0
 21
1.0
 31
0.0
 73
     1
 44
1.0
  0
POINT
  5
5C49
330
5C40
100
AcDbEntity
  8
Defpoints
 62
     0
100
AcDbPoint
 10
148.7210231602584
 20
354.7335990428102
 30
0.0
  0
POINT
  5
5C4A
330
5C40
100
AcDbEntity
  8
Defpoints
 62
     0
100
AcDbPoint
 10
154.4759396838725
 20
348.7335990428102
 30
0.0
  0
POINT
  5
5C4B
330
5C40
100
AcDbEntity
  8
Defpoints
 62
     0
100
AcDbPoint
 10
169.1440199581582
 20
348.7335990428102
 30
0.0
  0
ENDBLK
  5
5C42
330
5C40
100
AcDbEntity
  8
0
100
AcDbBlockEnd
  0
BLOCK
  5
5E0F
330
5E0E
100
AcDbEntity
  8
0
100
AcDbBlockBegin
  2
*D50
 70
     1
 10
0.0
 20
0.0
 30
0.0
  3
*D50
  1

  0
LINE
  5
5E11
330
5E0E
100
AcDbEntity
  8
寸法
  6
Continuous
 62
     0
370
    -2
100
AcDbLine
 10
232.6018908863935
 20
305.1100474077741
 30
0.0
 11
255.2209978181818
 21
305.1100474077741
 31
0.0
  0
LINE
  5
5E12
330
5E0E
100
AcDbEntity
  8
寸法
  6
Continuous
 62
     0
370
    -2
100
AcDbLine
 10
232.6018908863936
 20
264.1100474077741
 30
0.0
 11
255.2209978181818
 21
264.1100474077741
 31
0.0
  0
LINE
  5
5E13
330
5E0E
100
AcDbEntity
  8
寸法
  6
Continuous
 62
     0
370
    -2
100
AcDbLine
 10
255.2209978181818
 20
303.6100474077741
 30
0.0
 11
255.2209978181818
 21
265.6100474077741
 31
0.0
  0
INSERT
  5
5E14
330
5E0E
100
AcDbEntity
  8
寸法
 62
     0
370
    -2
100
AcDbBlockReference
  2
_DOT
 10
255.2209978181818
 20
305.1100474077741
 30
0.0
 41
1.5
 42
1.5
 43
1.5
 50
90.0
  0
INSERT
  5
5E15
330
5E0E
100
AcDbEntity
  8
寸法
 62
     0
370
    -2
100
AcDbBlockReference
  2
_DOT
 10
255.2209978181818
 20
264.1100474077741
 30
0.0
 41
1.5
 42
1.5
 43
1.5
 50
270.0
  0
MTEXT
  5
5E16
330
5E0E
100
AcDbEntity
  8
寸法
  6
Continuous
 62
     0
370
     0
100
AcDbMText
 10
250.7209978181818
 20
284.6100474077741
 30
0.0
 40
5.0
 41
0.0
 46
0.0
 71
     5
 72
     1
  1
\A1;41
  7
ＭＳ ゴシック
 11
0.0
 21
1.0
 31
0.0
 73
     1
 44
1.0
  0
POINT
  5
5E17
330
5E0E
100
AcDbEntity
  8
Defpoints
 62
     0
100
AcDbPoint
 10
227.6018908863935
 20
305.1100474077741
 30
0.0
  0
POINT
  5
5E18
330
5E0E
100
AcDbEntity
  8
Defpoints
 62
     0
100
AcDbPoint
 10
227.6018908863936
 20
264.1100474077741
 30
0.0
  0
POINT
  5
5E19
330
5E0E
100
AcDbEntity
  8
Defpoints
 62
     0
100
AcDbPoint
 10
255.2209978181818
 20
264.1100474077741
 30
0.0
  0
ENDBLK
  5
5E10
330
5E0E
100
AcDbEntity
  8
0
100
AcDbBlockEnd
  0
ENDSEC
  0
SECTION
  2
ENTITIES
  0
POINT
  5
1301
330
A
100
AcDbEntity
  8
MODEL
100
AcDbPoint
 10
963.7243970754489
 20
138.0847547131194
 30
0.0
  0
POINT
  5
1306
330
A
100
AcDbEntity
  8
MODEL
100
AcDbPoint
 10
847.7244070754489
 20
138.0847547131194
 30
0.0
  0
POINT
  5
1307
330
A
100
AcDbEntity
  8
MODEL
100
AcDbPoint
 10
973.7862873746794
 20
166.0075841667841
 30
0.0
  0
POINT
  5
1308
330
A
100
AcDbEntity
  8
MODEL
100
AcDbPoint
 10
973.7862873746794
 20
184.0075841667841
 30
0.0
  0
POINT
  5
1312
330
A
100
AcDbEntity
  8
MODEL
100
AcDbPoint
 10
810.9244070754489
 20
149.007583882008
 30
0.0
  0
POINT
  5
1313
330
A
100
AcDbEntity
  8
MODEL
100
AcDbPoint
 10
810.9244070754489
 20
201.007583882008
 30
0.0
  0
POINT
  5
131E
330
A
100
AcDbEntity
  8
MODEL
100
AcDbPoint
 10
1111.259263541787
 20
138.207583607055
 30
0.0
  0
POINT
  5
131F
330
A
100
AcDbEntity
  8
MODEL
100
AcDbPoint
 10
1104.759263541787
 20
138.207583607055
 30
0.0
  0
POINT
  5
1342
330
A
100
AcDbEntity
  8
MODEL
100
AcDbPoint
 10
973.354966229004
 20
368.3598201219507
 30
0.0
  0
POINT
  5
1343
330
A
100
AcDbEntity
  8
MODEL
100
AcDbPoint
 10
973.354966229004
 20
319.3598501219507
 30
0.0
  0
POINT
  5
1346
330
A
100
AcDbEntity
  8
MODEL
100
AcDbPoint
 10
983.2218070738209
 20
368.3598201219507
 30
0.0
  0
POINT
  5
1347
330
A
100
AcDbEntity
  8
MODEL
100
AcDbPoint
 10
983.2218070738209
 20
301.3598201219507
 30
0.0
  0
POINT
  5
1350
330
A
100
AcDbEntity
  8
MODEL
100
AcDbPoint
 10
963.7243970754489
 20
286.3598201219507
 30
0.0
  0
POINT
  5
1351
330
A
100
AcDbEntity
  8
MODEL
100
AcDbPoint
 10
838.7244070754489
 20
286.3598201219507
 30
0.0
  0
POINT
  5
1357
330
A
100
AcDbEntity
  8
MODEL
100
AcDbPoint
 10
810.9244070754489
 20
301.3598201219507
 30
0.0
  0
POINT
  5
1359
330
A
100
AcDbEntity
  8
MODEL
100
AcDbPoint
 10
810.9244070754489
 20
361.3598201219507
 30
0.0
  0
POINT
  5
135A
330
A
100
AcDbEntity
  8
MODEL
100
AcDbPoint
 10
810.9244070754489
 20
368.3598201219507
 30
0.0
  0
POINT
  5
135B
330
A
100
AcDbEntity
  8
MODEL
100
AcDbPoint
 10
810.9244070754489
 20
361.3598201219507
 30
0.0
  0
POINT
  5
1371
330
A
100
AcDbEntity
  8
MODEL
100
AcDbPoint
 10
1164.81489702863
 20
383.9337336502628
 30
0.0
  0
POINT
  5
1372
330
A
100
AcDbEntity
  8
MODEL
100
AcDbPoint
 10
1164.81489702863
 20
279.9338376502628
 30
0.0
  0
POINT
  5
1378
330
A
100
AcDbEntity
  8
MODEL
100
AcDbPoint
 10
1180.157201609016
 20
264.2731813749589
 30
0.0
  0
POINT
  5
1379
330
A
100
AcDbEntity
  8
MODEL
100
AcDbPoint
 10
1193.957187809016
 20
264.2731813749589
 30
0.0
  0
POINT
  5
1389
330
A
100
AcDbEntity
  8
MODEL
100
AcDbPoint
 10
1079.093440814797
 20
383.9337336502628
 30
0.0
  0
POINT
  5
138A
330
A
100
AcDbEntity
  8
MODEL
100
AcDbPoint
 10
1079.093440814797
 20
279.9337336502626
 30
0.0
  0
POINT
  5
138D
330
A
100
AcDbEntity
  8
MODEL
100
AcDbPoint
 10
1093.467555113589
 20
264.2731813749589
 30
0.0
  0
POINT
  5
138E
330
A
100
AcDbEntity
  8
MODEL
100
AcDbPoint
 10
1106.467555113589
 20
264.2731813749589
 30
0.0
  0
POINT
  5
1398
330
A
100
AcDbEntity
  8
MODEL
100
AcDbPoint
 10
1180.157201609016
 20
398.2298339817613
 30
0.0
  0
POINT
  5
1399
330
A
100
AcDbEntity
  8
MODEL
100
AcDbPoint
 10
1194.157187609016
 20
398.2298339817613
 30
0.0
  0
POINT
  5
139C
330
A
100
AcDbEntity
  8
MODEL
100
AcDbPoint
 10
1093.467555113589
 20
398.2298339817613
 30
0.0
  0
POINT
  5
139D
330
A
100
AcDbEntity
  8
MODEL
100
AcDbPoint
 10
1107.467555113589
 20
398.2298339817613
 30
0.0
  0
POINT
  5
4967
330
A
100
AcDbEntity
  8
MODEL
 62
     7
100
AcDbPoint
 10
159.6608149866037
 20
1112.943495860789
 30
0.0
  0
POINT
  5
4968
330
A
100
AcDbEntity
  8
MODEL
 62
     7
100
AcDbPoint
 10
159.6608149866037
 20
1058.143496245838
 30
0.0
  0
POINT
  5
499D
330
A
100
AcDbEntity
  8
MODEL
 62
     7
100
AcDbPoint
 10
471.5926809920595
 20
1039.574930990415
 30
0.0
  0
POINT
  5
499E
330
A
100
AcDbEntity
  8
MODEL
 62
     7
100
AcDbPoint
 10
478.7926809920594
 20
1039.574930990415
 30
0.0
  0
DIMENSION
  5
4A6C
330
A
100
AcDbEntity
  8
寸法
  6
Continuous
100
AcDbDimension
  2
*D4
 10
84.52101209789373
 20
341.034177143836
 30
0.0
 11
80.02101209789373
 21
344.8838880933231
 31
0.0
 70
    32
 71
     5
 42
7.69942189897415
 73
     0
 74
     0
 75
     0
  3
tfrom線あり
100
AcDbAlignedDimension
 13
101.8740209433364
 23
348.7335990428102
 33
0.0
 14
116.4263898880713
 24
341.034177143836
 34
0.0
 50
90.0
100
AcDbRotatedDimension
1001
ACAD
1000
DSTYLE
1002
{
1070
   271
1070
     0
1002
}
  0
DIMENSION
  5
4A99
330
A
100
AcDbEntity
  8
寸法
  6
Continuous
100
AcDbDimension
  2
*D5
 10
362.0316519610001
 20
293.8177098378441
 30
0.0
 11
357.1266519610001
 21
321.2177098378442
 31
0.0
 70
    32
 71
     5
 42
54.80000000000018
 73
     0
 74
     0
 75
     0
  3
tfrom線あり
100
AcDbAlignedDimension
 13
402.8372366616883
 23
348.6177098378442
 33
0.0
 14
402.8372366616883
 24
293.8177098378441
 34
0.0
 50
90.0
100
AcDbRotatedDimension
1001
ACAD
1000
DSTYLE
1002
{
1070
     3
1000
φ<>
1002
}
  0
DIMENSION
  5
4AD2
330
A
100
AcDbEntity
  8
寸法
  6
Continuous
100
AcDbDimension
  2
*D6
 10
72.6257534008936
 20
262.6847694077741
 30
0.0
 11
68.1257534008936
 21
305.7091842252921
 31
0.0
 70
    32
 71
     5
 42
86.0488296350361
 73
     0
 74
     0
 75
     0
  3
tfrom線あり
100
AcDbAlignedDimension
 13
101.0097133379821
 23
348.7335990428102
 33
0.0
 14
193.4989440439526
 24
262.6847694077741
 34
0.0
 50
90.0
100
AcDbRotatedDimension
1001
ACAD
1000
DSTYLE
1002
{
1070
   271
1070
     0
1002
}
  0
LINE
  5
4CC1
330
A
100
AcDbEntity
  8
寸法
  6
Continuous
100
AcDbLine
 10
84.52101209789373
 20
347.2335990428102
 30
0.0
 11
84.52101209789373
 21
342.534177143836
 31
0.0
  0
POINT
  5
4ECE
330
A
100
AcDbEntity
  8
MODEL
 62
     7
100
AcDbPoint
 10
130.0913409417582
 20
1181.156054141915
 30
0.0
  0
POINT
  5
4ECF
330
A
100
AcDbEntity
  8
MODEL
 62
     7
100
AcDbPoint
 10
260.0913409417582
 20
1181.156054141915
 30
0.0
  0
DIMENSION
  5
4EF1
330
A
100
AcDbEntity
  8
寸法
  6
Continuous
100
AcDbDimension
  2
*D8
 10
84.46914103248233
 20
262.6847694077741
 30
0.0
 11
79.96914103248233
 21
301.8538616091611
 31
0.0
 70
    32
 71
     5
 42
78.338184402774
 73
     0
 74
     0
 75
     0
  3
tfrom線あり
100
AcDbAlignedDimension
 13
117.0152720452456
 23
341.0229538105481
 33
0.0
 14
193.4989440439526
 24
262.6847694077741
 34
0.0
 50
90.0
100
AcDbRotatedDimension
  0
INSERT
  5
51B1
330
A
100
AcDbEntity
  8
MODEL
100
AcDbBlockReference
  2
-001-LW_POLYLINE_2
 10
471.2770359178332
 20
334.5935874831631
 30
0.0
 41
0.5
 42
0.5
  0
LINE
  5
51B2
330
A
100
AcDbEntity
  8
MODEL
  6
Continuous
 62
     7
100
AcDbLine
 10
127.1816507401139
 20
208.2628469200378
 30
0.0
 11
127.1816507401139
 21
153.4628469200378
 31
0.0
  0
POINT
  5
51B3
330
A
100
AcDbEntity
  8
MODEL
 62
     7
100
AcDbPoint
 10
92.8430827623867
 20
1115.254468422888
 30
0.0
  0
POINT
  5
51B4
330
A
100
AcDbEntity
  8
MODEL
 62
     7
100
AcDbPoint
 10
92.8430827623867
 20
1060.454468807937
 30
0.0
  0
LINE
  5
51B5
330
A
100
AcDbEntity
  8
MODEL
  6
Continuous
 62
     7
100
AcDbLine
 10
127.1816507401139
 20
208.2628469200378
 30
0.0
 11
133.3816507401138
 21
208.2628469200378
 31
0.0
  0
LINE
  5
51B6
330
A
100
AcDbEntity
  8
MODEL
  6
Continuous
 62
     7
100
AcDbLine
 10
133.3816507401138
 20
153.4628469200378
 30
0.0
 11
127.1816507401139
 21
153.4628469200378
 31
0.0
  0
LINE
  5
51B7
330
A
100
AcDbEntity
  8
MODEL
  6
Continuous
 62
     7
100
AcDbLine
 10
153.5825120145532
 20
341.5335990428101
 30
0.0
 11
100.7825120145531
 21
341.5335990428101
 31
0.0
  0
ARC
  5
51B8
330
A
100
AcDbEntity
  8
MODEL
  6
Continuous
 62
     7
100
AcDbCircle
 10
100.7825120145531
 20
342.5335990428101
 30
0.0
 40
1.0
100
AcDbArc
 50
180.0
 51
270.0
  0
ARC
  5
51B9
330
A
100
AcDbEntity
  8
MODEL
  6
Continuous
 62
     7
100
AcDbCircle
 10
153.5825120145532
 20
342.5335990428101
 30
0.0
 40
1.0
100
AcDbArc
 50
270.0
 51
0.0
  0
LINE
  5
51BA
330
A
100
AcDbEntity
  8
MODEL
  6
Continuous
 62
     7
100
AcDbLine
 10
99.78251201455313
 20
342.5335990428101
 30
0.0
 11
99.78251201455313
 21
348.7335990428102
 31
0.0
  0
LINE
  5
51BB
330
A
100
AcDbEntity
  8
MODEL
  6
Continuous
 62
     7
100
AcDbLine
 10
154.5825120145532
 20
348.7335990428102
 30
0.0
 11
154.5825120145532
 21
342.5335990428101
 31
0.0
  0
LINE
  5
51BC
330
A
100
AcDbEntity
  8
MODEL
  6
Continuous
 62
     7
100
AcDbLine
 10
139.4237631164623
 20
341.5335990428101
 30
0.0
 11
139.4237631164623
 21
341.2260583756571
 31
0.0
  0
LINE
  5
51BD
330
A
100
AcDbEntity
  8
MODEL
  6
Continuous
 62
     7
100
AcDbLine
 10
139.4237631164623
 20
341.5335990428101
 30
0.0
 11
139.4237631164623
 21
341.0229538105481
 31
0.0
  0
LINE
  5
51BE
330
A
100
AcDbEntity
  8
MODEL
  6
Continuous
 62
     7
100
AcDbLine
 10
114.9237631164623
 20
341.5335990428101
 30
0.0
 11
114.9237631164623
 21
341.246678442145
 31
0.0
  0
INSERT
  5
51BF
330
A
100
AcDbEntity
  8
MODEL
100
AcDbBlockReference
  2
-002-LW_POLYLINE_3
 10
471.2770359178332
 20
334.5935874831631
 30
0.0
 41
0.5
 42
0.5
  0
INSERT
  5
51C0
330
A
100
AcDbEntity
  8
MODEL
100
AcDbBlockReference
  2
-003-LW_POLYLINE_4
 10
391.9469119178332
 20
338.2760974831632
 30
0.0
 41
0.5
 42
0.5
  0
ARC
  5
51C1
330
A
100
AcDbEntity
  8
MODEL
  6
Continuous
 62
     7
100
AcDbCircle
 10
429.8885669178332
 20
282.8788644831631
 30
0.0
 40
56.739135190958
100
AcDbArc
 50
72.00000000000007
 51
87.96846000000002
  0
ARC
  5
51C2
330
A
100
AcDbEntity
  8
MODEL
  6
Continuous
 62
     7
100
AcDbCircle
 10
488.2345189178332
 20
361.4328134831632
 30
0.0
 40
36.0
100
AcDbArc
 50
252.0000000000001
 51
317.6771499999999
  0
LINE
  5
51C3
330
A
100
AcDbEntity
  8
MODEL
  6
Continuous
 62
     7
100
AcDbLine
 10
477.1099069178332
 20
327.1947784831631
 30
0.0
 11
447.4219239178332
 21
336.8409894831631
 31
0.0
  0
ARC
  5
51C4
330
A
100
AcDbEntity
  8
MODEL
  6
Continuous
 62
     7
100
AcDbCircle
 10
408.9174739178332
 20
321.3055354831632
 30
0.0
 40
12.0
100
AcDbArc
 50
135.000000000001
 51
330.0
  0
ARC
  5
51C5
330
A
100
AcDbEntity
  8
MODEL
  6
DASHED1
 62
     7
100
AcDbCircle
 10
408.9174739178332
 20
321.3055354831632
 30
0.0
 40
12.0
100
AcDbArc
 50
330.0
 51
135.000000000001
  0
CIRCLE
  5
51C6
330
A
100
AcDbEntity
  8
MODEL
  6
DASHED1
 62
     7
100
AcDbCircle
 10
408.8721245115548
 20
321.3335990428101
 30
0.0
 40
8.925
  0
ARC
  5
51C8
330
A
100
AcDbEntity
  8
MODEL
  6
DASHED1
 62
     7
100
AcDbCircle
 10
408.9013310513157
 20
321.3177098378441
 30
0.0
 40
27.5
100
AcDbArc
 50
13.68466371311023
 51
41.54189135184478
  0
ARC
  5
51C9
330
A
100
AcDbEntity
  8
MODEL
  6
Continuous
 62
     7
100
AcDbCircle
 10
408.9013310513157
 20
321.3177098378441
 30
0.0
 40
27.5
100
AcDbArc
 50
41.54189135184478
 51
13.68466371311023
  0
LINE
  5
51CA
330
A
100
AcDbEntity
  8
MODEL
  6
Continuous
 62
     7
100
AcDbLine
 10
99.78251201455313
 20
348.7335990428102
 30
0.0
 11
154.5825120145532
 21
348.7335990428102
 31
0.0
  0
LINE
  5
51CB
330
A
100
AcDbEntity
  8
MODEL
  6
Continuous
 62
     7
100
AcDbLine
 10
139.4237631164623
 20
341.0229538105481
 30
0.0
 11
114.9237631164623
 21
341.0229538105481
 31
0.0
  0
ARC
  5
51D0
102
{ACAD_REACTORS
330
520E
102
}
330
A
100
AcDbEntity
  8
MODEL
  6
Continuous
 62
     7
100
AcDbCircle
 10
116.2229777954844
 20
288.0176324077742
 30
0.0
 40
1.0
100
AcDbArc
 50
180.0
 51
266.9842290000004
  0
ARC
  5
51D1
330
A
100
AcDbEntity
  8
MODEL
  6
Continuous
 62
     7
100
AcDbCircle
 10
116.2229777954844
 20
298.7157454077741
 30
0.0
 40
1.0
100
AcDbArc
 50
109.1950989999986
 51
180.0
  0
ARC
  5
51D2
330
A
100
AcDbEntity
  8
MODEL
  6
Continuous
 62
     7
100
AcDbCircle
 10
114.9078347954844
 20
302.4933634077742
 30
0.0
 40
3.0
100
AcDbArc
 50
289.1950990000004
 51
4.000000000000845
  0
ARC
  5
51D3
330
A
100
AcDbEntity
  8
MODEL
  6
Continuous
 62
     7
100
AcDbCircle
 10
139.5381207954844
 20
302.4933634077742
 30
0.0
 40
3.0
100
AcDbArc
 50
175.9999999999991
 51
270.0
  0
LINE
  5
51D4
330
A
100
AcDbEntity
  8
MODEL
  6
Continuous
 62
     7
100
AcDbLine
 10
115.8941917954844
 20
299.660150407774
 30
0.0
 11
138.5517637954844
 21
299.660150407774
 31
0.0
  0
LINE
  5
51D5
330
A
100
AcDbEntity
  8
MODEL
  6
Continuous
 62
     7
100
AcDbLine
 10
115.2229777954844
 20
298.7157454077741
 30
0.0
 11
115.2229777954844
 21
288.0176324077742
 31
0.0
  0
LINE
  5
51D6
330
A
100
AcDbEntity
  8
MODEL
  6
Continuous
 62
     7
100
AcDbLine
 10
115.2229777954844
 20
340.9933634077742
 30
0.0
 11
117.9005267954844
 21
302.7026324077741
 31
0.0
  0
LINE
  5
51D7
330
A
100
AcDbEntity
  8
MODEL
  6
Continuous
 62
     7
100
AcDbLine
 10
136.5454287954844
 20
302.7026324077741
 30
0.0
 11
139.2229777954844
 21
340.9933634077742
 31
0.0
  0
LINE
  5
51D8
330
A
100
AcDbEntity
  8
MODEL
  6
Continuous
 62
     7
100
AcDbLine
 10
139.2229777954844
 20
340.9933634077742
 30
0.0
 11
115.2229777954844
 21
340.9933634077742
 31
0.0
  0
POINT
  5
51D9
330
A
100
AcDbEntity
  8
MODEL
 62
     7
100
AcDbPoint
 10
136.0198689132058
 20
1163.210691170773
 30
0.0
  0
POINT
  5
51DA
330
A
100
AcDbEntity
  8
MODEL
 62
     7
100
AcDbPoint
 10
257.9401419132058
 20
1163.210691170773
 30
0.0
  0
INSERT
  5
51DB
102
{ACAD_REACTORS
330
520E
102
}
330
A
100
AcDbEntity
  8
MODEL
100
AcDbBlockReference
  2
-000-LW_POLYLINE_1
 10
151.8532647954844
 20
7.993363407774041
 30
0.0
 41
0.5
 42
0.5
  0
LINE
  5
51DC
330
A
100
AcDbEntity
  8
MODEL
  6
Continuous
 62
     7
100
AcDbLine
 10
114.9237631164623
 20
341.5335990428101
 30
0.0
 11
114.9237631164623
 21
341.021426967421
 31
0.0
  0
POINT
  5
51DD
330
A
100
AcDbEntity
  8
MODEL
 62
     7
100
AcDbPoint
 10
92.23819849397387
 20
1266.052741286822
 30
0.0
  0
POINT
  5
51DE
330
A
100
AcDbEntity
  8
MODEL
 62
     7
100
AcDbPoint
 10
92.23819849397387
 20
1258.306985943379
 30
0.0
  0
POINT
  5
51DF
330
A
100
AcDbEntity
  8
MODEL
 62
     7
100
AcDbPoint
 10
92.23819849397387
 20
1182.021489651786
 30
0.0
  0
LINE
  5
51E0
330
A
100
AcDbEntity
  8
MODEL
  6
Continuous
 62
     7
100
AcDbLine
 10
134.3816507401138
 20
168.6128469200377
 30
0.0
 11
134.3816507401138
 21
154.4628469200378
 31
0.0
  0
LINE
  5
51E1
330
A
100
AcDbEntity
  8
MODEL
  6
Continuous
 62
     7
100
AcDbLine
 10
134.3816507401138
 20
207.2628469200378
 30
0.0
 11
134.3816507401138
 21
193.1128469200377
 31
0.0
  0
ARC
  5
51E2
330
A
100
AcDbEntity
  8
MODEL
  6
Continuous
 62
     7
100
AcDbCircle
 10
133.3816507401138
 20
154.4628469200378
 30
0.0
 40
1.0
100
AcDbArc
 50
270.0
 51
0.0
  0
ARC
  5
51E3
330
A
100
AcDbEntity
  8
MODEL
  6
Continuous
 62
     7
100
AcDbCircle
 10
133.3816507401138
 20
207.2628469200378
 30
0.0
 40
1.0
100
AcDbArc
 50
0.0
 51
90.0
  0
LINE
  5
51E4
330
A
100
AcDbEntity
  8
MODEL
  6
Continuous
 62
     7
100
AcDbLine
 10
134.3816507401138
 20
168.6128469200377
 30
0.0
 11
134.3816507401138
 21
193.1128469200377
 31
0.0
  0
LINE
  5
51E5
330
A
100
AcDbEntity
  8
MODEL
  6
Continuous
 62
     7
100
AcDbLine
 10
134.8816507401138
 20
168.6511043765548
 30
0.0
 11
134.8816507401138
 21
192.6868054765338
 31
0.0
  0
LINE
  5
51E6
330
A
100
AcDbEntity
  8
MODEL
  6
Continuous
 62
     7
100
AcDbLine
 10
134.8816507401138
 20
192.6868054765338
 30
0.0
 11
134.8816507401138
 21
193.1132827288387
 31
0.0
  0
LINE
  5
51E7
330
A
100
AcDbEntity
  8
MODEL
  6
Continuous
 62
     7
100
AcDbLine
 10
134.8816507401139
 20
169.1128469200377
 30
0.0
 11
134.8816507401139
 21
192.6128469200377
 31
0.0
  0
LINE
  5
51E8
330
A
100
AcDbEntity
  8
MODEL
  6
Continuous
 62
     7
100
AcDbLine
 10
134.8818376441981
 20
168.8641440028258
 30
0.0
 11
134.8818376441981
 21
192.8641440028258
 31
0.0
  0
LINE
  5
51E9
330
A
100
AcDbEntity
  8
MODEL
  6
Continuous
 62
     7
100
AcDbLine
 10
134.9027726546351
 20
168.8711198796597
 30
0.0
 11
134.9027726546351
 21
192.8711198796597
 31
0.0
  0
LINE
  5
51EA
330
A
100
AcDbEntity
  8
MODEL
  6
Continuous
 62
     7
100
AcDbLine
 10
134.8511761809597
 20
168.8592872546848
 30
0.0
 11
134.8511761809597
 21
192.8592872546848
 31
0.0
  0
LINE
  5
51EB
330
A
100
AcDbEntity
  8
MODEL
  6
Continuous
 62
     7
100
AcDbLine
 10
134.8812214791987
 20
192.8583577032447
 30
0.0
 11
134.8812214791987
 21
168.8583577032447
 31
0.0
  0
ARC
  5
51EC
330
A
100
AcDbEntity
  8
MODEL
  6
Continuous
 62
     7
100
AcDbCircle
 10
173.4143208854771
 20
193.1454371435979
 30
0.0
 40
3.0
100
AcDbArc
 50
266.0000000000002
 51
340.8049009999992
  0
ARC
  5
51ED
330
A
100
AcDbEntity
  8
MODEL
  6
Continuous
 62
     7
100
AcDbCircle
 10
191.2192148854771
 20
188.0871281435979
 30
0.0
 40
20.0
100
AcDbArc
 50
352.1983749999997
 51
0.0
  0
ARC
  5
51EE
330
A
100
AcDbEntity
  8
MODEL
  6
Continuous
 62
     7
100
AcDbCircle
 10
169.2475348854771
 20
193.5158481435977
 30
0.0
 40
7.0
100
AcDbArc
 50
0.0
 51
59.68273799999968
  0
ARC
  5
51EF
330
A
100
AcDbEntity
  8
MODEL
  6
Continuous
 62
     7
100
AcDbCircle
 10
174.8001998854771
 20
203.0115271435978
 30
0.0
 40
4.0
100
AcDbArc
 50
108.0758230000008
 51
239.6827380000022
  0
ARC
  5
51F0
330
A
100
AcDbEntity
  8
MODEL
  6
Continuous
 62
     7
100
AcDbCircle
 10
185.9701108854771
 20
168.7882441435978
 30
0.0
 40
40.0
100
AcDbArc
 50
74.78420599999998
 51
108.0758229999999
  0
ARC
  5
51F1
330
A
100
AcDbEntity
  8
MODEL
  6
Continuous
 62
     7
100
AcDbCircle
 10
191.2192148854771
 20
188.0871281435979
 30
0.0
 40
20.0
100
AcDbArc
 50
0.0
 51
74.78420600000004
  0
ARC
  5
51F2
330
A
100
AcDbEntity
  8
MODEL
  6
Continuous
 62
     7
100
AcDbCircle
 10
187.8900518854771
 20
169.8302941435978
 30
0.0
 40
1.0
100
AcDbArc
 50
270.0
 51
356.9842289999888
  0
ARC
  5
51F3
330
A
100
AcDbEntity
  8
MODEL
  6
Continuous
 62
     7
100
AcDbCircle
 10
177.1919388854771
 20
169.8302941435978
 30
0.0
 40
1.0
100
AcDbArc
 50
199.1950990000093
 51
270.0
  0
ARC
  5
51F4
330
A
100
AcDbEntity
  8
MODEL
  6
Continuous
 62
     7
100
AcDbCircle
 10
173.4143208854771
 20
168.5151511435978
 30
0.0
 40
3.0
100
AcDbArc
 50
19.19509900000077
 51
93.99999999999979
  0
ARC
  5
51F5
330
A
100
AcDbEntity
  8
MODEL
  6
Continuous
 62
     7
100
AcDbCircle
 10
187.8900518854771
 20
191.8057941435978
 30
0.0
 40
1.0
100
AcDbArc
 50
3.015770999997923
 51
90.0
  0
ARC
  5
51F6
330
A
100
AcDbEntity
  8
MODEL
  6
Continuous
 62
     7
100
AcDbCircle
 10
177.1919388854771
 20
191.8057941435978
 30
0.0
 40
1.0
100
AcDbArc
 50
90.0
 51
160.8049010000041
  0
ARC
  5
51F7
330
A
100
AcDbEntity
  8
MODEL
  6
Continuous
 62
     7
100
AcDbCircle
 10
208.0618628854771
 20
185.7794851435978
 30
0.0
 40
3.0
100
AcDbArc
 50
248.3898280000001
 51
352.1983749999981
  0
ARC
  5
51F8
330
A
100
AcDbEntity
  8
MODEL
  6
Continuous
 62
     7
100
AcDbCircle
 10
194.6632768854771
 20
182.4822891435978
 30
0.0
 40
5.0
100
AcDbArc
 50
68.38982799999981
 51
173.8733210000006
  0
ARC
  5
51F9
330
A
100
AcDbEntity
  8
MODEL
  6
Continuous
 62
     7
100
AcDbCircle
 10
332.042387885477
 20
167.7359941435978
 30
0.0
 40
143.168278976623
100
AcDbArc
 50
173.8733210000001
 51
179.182891
  0
ARC
  5
51FA
330
A
100
AcDbEntity
  8
MODEL
  6
Continuous
 62
     7
100
AcDbCircle
 10
208.0618628854771
 20
187.7794851435978
 30
0.0
 40
3.0
100
AcDbArc
 50
238.9842250000011
 51
340.5287790000006
  0
ARC
  5
51FB
330
A
100
AcDbEntity
  8
MODEL
  6
Continuous
 62
     7
100
AcDbCircle
 10
191.3408058854771
 20
183.8308591435976
 30
0.0
 40
9.0
100
AcDbArc
 50
58.98422500000011
 51
84.76100800000012
  0
ARC
  5
51FC
330
A
100
AcDbEntity
  8
MODEL
  6
Continuous
 62
     7
100
AcDbCircle
 10
191.8886668854771
 20
189.8057941435978
 30
0.0
 40
3.0
100
AcDbArc
 50
84.76100800000003
 51
180.0
  0
LINE
  5
51FD
330
A
100
AcDbEntity
  8
MODEL
  6
Continuous
 62
     7
100
AcDbLine
 10
176.2475348854771
 20
169.5015081435978
 30
0.0
 11
176.2475348854771
 21
193.5158481435977
 31
0.0
  0
LINE
  5
51FE
330
A
100
AcDbEntity
  8
MODEL
  6
Continuous
 62
     7
100
AcDbLine
 10
177.1919388854771
 20
168.8302941435978
 30
0.0
 11
187.8900518854771
 21
168.8302941435978
 31
0.0
  0
LINE
  5
51FF
330
A
100
AcDbEntity
  8
MODEL
  6
Continuous
 62
     7
100
AcDbLine
 10
134.9143208854771
 20
168.8302941435978
 30
0.0
 11
173.2050518854771
 21
171.5078431435978
 31
0.0
  0
LINE
  5
5200
330
A
100
AcDbEntity
  8
MODEL
  6
Continuous
 62
     7
100
AcDbLine
 10
173.2050518854771
 20
190.1527451435978
 30
0.0
 11
134.9143208854771
 21
192.8302941435978
 31
0.0
  0
LINE
  5
5201
330
A
100
AcDbEntity
  8
MODEL
  6
Continuous
 62
     7
100
AcDbLine
 10
134.9143208854771
 20
192.8302941435978
 30
0.0
 11
134.9143208854771
 21
168.8302941435978
 31
0.0
  0
LINE
  5
5202
330
A
100
AcDbEntity
  8
MODEL
  6
Continuous
 62
     7
100
AcDbLine
 10
187.8900518854771
 20
192.8057941435978
 30
0.0
 11
177.1919388854771
 21
192.8057941435978
 31
0.0
  0
LINE
  5
5203
330
A
100
AcDbEntity
  8
MODEL
  6
Continuous
 62
     7
100
AcDbLine
 10
188.8886668854771
 20
191.8584051435977
 30
0.0
 11
188.8886668854771
 21
169.7776831435978
 31
0.0
  0
LINE
  5
5204
330
A
100
AcDbEntity
  8
MODEL
  6
Continuous
 62
     7
100
AcDbLine
 10
206.9569938854771
 20
182.9903521435978
 30
0.0
 11
196.5047248854771
 21
187.1308451435979
 31
0.0
  0
LINE
  5
5205
330
A
100
AcDbEntity
  8
MODEL
  6
Continuous
 62
     7
100
AcDbLine
 10
206.5160408854771
 20
185.2084091435978
 30
0.0
 11
195.9782718854771
 21
191.5440891435977
 31
0.0
  0
LINE
  5
5206
330
A
100
AcDbEntity
  8
MODEL
  6
Continuous
 62
     7
100
AcDbLine
 10
134.3816507401138
 20
193.1050322715918
 30
0.0
 11
134.8818376441981
 21
193.1050322715918
 31
0.0
  0
LINE
  5
5207
330
A
100
AcDbEntity
  8
MODEL
  6
Continuous
 62
     7
100
AcDbLine
 10
134.3816507401138
 20
168.6679425127937
 30
0.0
 11
134.8818376441981
 21
168.6679425127937
 31
0.0
  0
DIMENSION
  5
520C
102
{ACAD_REACTORS
330
520E
102
}
102
{ACAD_XDICTIONARY
360
520D
102
}
330
A
100
AcDbEntity
  8
寸法
  6
Continuous
100
AcDbDimension
  2
*D13
 10
115.2229777954844
 20
245.837259019544
 30
0.0
 11
176.1831142954844
 21
250.337259019544
 31
0.0
 70
    32
 71
     5
 42
121.920273
 73
     0
 74
     0
 75
     0
  3
tfrom線あり
100
AcDbAlignedDimension
 13
237.1432507954844
 23
272.844590407774
 33
0.0
 14
115.2229777954844
 24
288.0176324077742
 34
0.0
100
AcDbRotatedDimension
  0
LINE
  5
56D3
330
A
100
AcDbEntity
  8
PRINT BORDER
100
AcDbLine
 10
296.9999999999999
 20
0.0
 30
0.0
 11
296.9999999999999
 21
15.30952622855898
 31
0.0
  0
LINE
  5
56D4
330
A
100
AcDbEntity
  8
テンプレート
100
AcDbLine
 10
437.9999999999999
 20
38.27810890422097
 30
0.0
 11
15.30952622855898
 21
38.27810890422097
 31
0.0
  0
LINE
  5
56D5
330
A
100
AcDbEntity
  8
テンプレート
100
AcDbLine
 10
15.30952622855898
 20
26.22153683920783
 30
0.0
 11
578.6904737714407
 21
26.22153683920783
 31
0.0
  0
TEXT
  5
56D6
330
A
100
AcDbEntity
  8
テンプレート
100
AcDbText
 10
18.06121699514119
 20
32.16825981613692
 30
0.0
 40
3.5
  1
材質
  7
ＭＳ ゴシック
100
AcDbText
  0
TEXT
  5
56D7
330
A
100
AcDbEntity
  8
テンプレート
100
AcDbText
 10
18.06121699514119
 20
56.50959028673083
 30
0.0
 40
3.5
  1
品名
  7
ＭＳ ゴシック
100
AcDbText
  0
TEXT
  5
56D8
330
A
100
AcDbEntity
  8
テンプレート
100
AcDbText
 10
18.06121699514119
 20
44.65099339080098
 30
0.0
 40
3.5
  1
仕上げ
  7
ＭＳ ゴシック
100
AcDbText
  0
TEXT
  5
56D9
330
A
100
AcDbEntity
  8
テンプレート
100
AcDbText
 10
298.8233485179306
 20
56.58523052309897
 30
0.0
 40
3.5
  1
品番
  7
ＭＳ ゴシック
100
AcDbText
  0
TEXT
  5
56DA
330
A
100
AcDbEntity
  8
テンプレート
100
AcDbText
 10
36.7528253083583
 20
53.09440584367189
 30
0.0
 40
5.5
  1
レバーハンドル - FSB -
  7
ＭＳ ゴシック
100
AcDbText
  0
TEXT
  5
56DB
330
A
100
AcDbEntity
  8
テンプレート
100
AcDbText
 10
313.0171205424464
 20
52.977080524553
 30
0.0
 40
5.5
  1
FSB10-1020-NC
  7
ＭＳ ゴシック
100
AcDbText
  0
LINE
  5
56DC
330
A
100
AcDbEntity
  8
テンプレート
100
AcDbLine
 10
437.9999999999999
 20
50.16496477419605
 30
0.0
 11
15.30952622855898
 21
50.16496477419605
 31
0.0
  0
LINE
  5
56DD
330
A
100
AcDbEntity
  8
テンプレート
100
AcDbLine
 10
578.6904737714411
 20
62.22153683920783
 30
0.0
 11
15.30952622855898
 21
62.22153683920783
 31
0.0
  0
LINE
  5
56DE
330
A
100
AcDbEntity
  8
PRINT BORDER
100
AcDbLine
 10
593.9999999999999
 20
210.0
 30
0.0
 11
578.6904737714411
 21
210.0
 31
0.0
  0
LINE
  5
56DF
330
A
100
AcDbEntity
  8
PRINT BORDER
100
AcDbLine
 10
0.0
 20
210.0
 30
0.0
 11
15.30952622855898
 21
210.0
 31
0.0
  0
LINE
  5
56E0
330
A
100
AcDbEntity
  8
PRINT BORDER
100
AcDbLine
 10
296.9999999999999
 20
420.0
 30
0.0
 11
296.9999999999999
 21
404.690473771441
 31
0.0
  0
LINE
  5
56E1
330
A
100
AcDbEntity
  8
テンプレート
100
AcDbLine
 10
578.6904737714411
 20
62.22153683920783
 30
0.0
 11
578.6904737714411
 21
26.22153683920783
 31
0.0
  0
LINE
  5
56E2
330
A
100
AcDbEntity
  8
テンプレート
100
AcDbLine
 10
15.30952622855898
 20
62.22153683920783
 30
0.0
 11
15.30952622855898
 21
26.22153683920783
 31
0.0
  0
TEXT
  5
56E3
330
A
100
AcDbEntity
  8
テンプレート
100
AcDbText
 10
494.9733384955217
 20
16.51938390313694
 30
0.0
 40
5.5
  1
大洋金物株式会社  
  7
ＭＳ ゴシック
100
AcDbText
  0
LINE
  5
56E4
330
A
100
AcDbEntity
  8
テンプレート
100
AcDbLine
 10
437.9999999999999
 20
62.22153683920783
 30
0.0
 11
437.9999999999999
 21
26.22153683920783
 31
0.0
  0
LINE
  5
56E5
330
A
100
AcDbEntity
  8
テンプレート
100
AcDbLine
 10
296.9999999999999
 20
62.22153683920783
 30
0.0
 11
296.9999999999999
 21
26.22153683920783
 31
0.0
  0
INSERT
  5
56E6
330
A
100
AcDbEntity
  8
テンプレート
100
AcDbBlockReference
  2
名称未設定-1
 10
548.3945198859805
 20
-7.642344203993161
 30
0.0
 41
0.180975
 42
0.180975
 43
0.180975
  0
LINE
  5
56E8
330
A
100
AcDbEntity
  8
テンプレート
100
AcDbLine
 10
15.30952622855898
 20
210.0
 30
0.0
 11
15.30952622855898
 21
26.22153683920783
 31
0.0
  0
LINE
  5
56E9
330
A
100
AcDbEntity
  8
テンプレート
100
AcDbLine
 10
15.30952622855898
 20
210.0
 30
0.0
 11
15.30952622855898
 21
404.690473771441
 31
0.0
  0
LINE
  5
56EA
330
A
100
AcDbEntity
  8
テンプレート
100
AcDbLine
 10
296.9999999999999
 20
404.690473771441
 30
0.0
 11
15.30952622855887
 21
404.690473771441
 31
0.0
  0
LINE
  5
56EB
330
A
100
AcDbEntity
  8
テンプレート
100
AcDbLine
 10
296.9999999999999
 20
404.690473771441
 30
0.0
 11
578.6904737714411
 21
404.690473771441
 31
0.0
  0
LINE
  5
56EC
330
A
100
AcDbEntity
  8
テンプレート
100
AcDbLine
 10
578.6904737714411
 20
210.0
 30
0.0
 11
578.6904737714411
 21
404.690473771441
 31
0.0
  0
LINE
  5
56ED
330
A
100
AcDbEntity
  8
テンプレート
100
AcDbLine
 10
578.6904737714411
 20
210.0
 30
0.0
 11
578.6904737714411
 21
26.22153683920783
 31
0.0
  0
LWPOLYLINE
  5
56EE
330
A
100
AcDbEntity
  8
PRINT BORDER
  6
HIDDEN
 48
3.0
100
AcDbPolyline
 90
        4
 70
     1
 43
0.0
 10
0.0
 20
0.0
 10
0.0
 20
420.0
 10
593.9999999999999
 20
420.0
 10
593.9999999999999
 20
0.0
  0
TEXT
  5
56EF
330
A
100
AcDbEntity
  8
テンプレート
100
AcDbText
 10
298.7989156222221
 20
32.62405342819488
 30
0.0
 40
3.5
  1
縮尺
  7
ＭＳ ゴシック
100
AcDbText
  0
TEXT
  5
56F0
330
A
100
AcDbEntity
  8
テンプレート
100
AcDbText
 10
313.0171205424464
 20
28.29362070227194
 30
0.0
 40
5.5
  1
1/2
  7
ＭＳ ゴシック
100
AcDbText
  0
TEXT
  5
56F1
330
A
100
AcDbEntity
  8
テンプレート
100
AcDbText
 10
298.8233485179306
 20
44.52865845808583
 30
0.0
 40
3.5
  1
扉厚
  7
ＭＳ ゴシック
100
AcDbText
  0
TEXT
  5
56F2
330
A
100
AcDbEntity
  8
テンプレート
100
AcDbText
 10
440.0887524673468
 20
56.58523052309897
 30
0.0
 40
3.5
  1
備考
  7
ＭＳ ゴシック
100
AcDbText
  0
TEXT
  5
56F3
330
A
100
AcDbEntity
  8
テンプレート
100
AcDbText
 10
449.0017237694899
 20
47.28154793898159
 30
0.0
 40
5.5
  1
取付方＝呼込み(ビス付)
  7
ＭＳ ゴシック
100
AcDbText
  0
TEXT
  5
56F4
330
A
100
AcDbEntity
  8
_0-1_
 62
     1
100
AcDbText
 10
177.7468866874332
 20
79.37939740351129
 30
0.0
 40
4.0
  1
   
  7
ＭＳ ゴシック
100
AcDbText
  0
LINE
  5
56F5
330
A
100
AcDbEntity
  8
SPACER
  6
CENTER
 48
3.0
100
AcDbLine
 10
127.1816507401138
 20
224.6771809568476
 30
0.0
 11
127.1816507401138
 21
137.0485128832279
 31
0.0
  0
LINE
  5
56F6
330
A
100
AcDbEntity
  8
SPACER
  6
CENTER
 48
3.0
100
AcDbLine
 10
83.36731670330403
 20
180.8628469200378
 30
0.0
 11
170.9959847769237
 21
180.8628469200378
 31
0.0
  0
LINE
  5
56F7
330
A
100
AcDbEntity
  8
SPACER
  6
CENTER
 48
3.0
100
AcDbLine
 10
83.36817797774336
 20
348.7335990428101
 30
0.0
 11
170.9968460513629
 21
348.7335990428101
 31
0.0
  0
LINE
  5
56F8
330
A
100
AcDbEntity
  8
SPACER
  6
CENTER
 48
3.0
100
AcDbLine
 10
408.8721245115548
 20
365.1479330796199
 30
0.0
 11
408.8721245115548
 21
277.5192650060002
 31
0.0
  0
LINE
  5
56F9
330
A
100
AcDbEntity
  8
SPACER
  6
CENTER
 48
3.0
100
AcDbLine
 10
365.0577904747449
 20
321.33359904281
 30
0.0
 11
452.6864585483646
 21
321.33359904281
 31
0.0
  0
LWPOLYLINE
  5
575B
330
A
100
AcDbEntity
  8
SPACER
100
AcDbPolyline
 90
        4
 70
     1
 43
0.0
 10
161.5928474918056
 20
97.1045060433407
 10
161.5928474918056
 20
69.6571102646527
 10
432.4071525081941
 20
69.6571102646527
 10
432.4071525081941
 20
97.1045060433407
  0
LINE
  5
575C
330
A
100
AcDbEntity
  8
SPACER
  6
CENTER
 48
3.0
100
AcDbLine
 10
296.9999999999999
 20
404.690473771441
 30
0.0
 11
297.0
 21
106.25363796957
 31
0.0
  0
LINE
  5
575D
330
A
100
AcDbEntity
  8
SPACER
  6
CENTER
 48
3.0
100
AcDbLine
 10
15.30952622855898
 20
255.4720558705055
 30
0.0
 11
578.690473771441
 21
255.4720558705055
 31
0.0
  0
LINE
  5
575E
330
A
100
AcDbEntity
  8
SPACER
  6
CENTER
 48
3.0
100
AcDbLine
 10
15.30952622855898
 20
106.25363796957
 30
0.0
 11
578.690473771441
 21
106.25363796957
 31
0.0
  0
LINE
  5
575F
330
A
100
AcDbEntity
  8
SPACER
  6
CENTER
 48
3.0
100
AcDbLine
 10
408.8721245115548
 20
224.6771809568476
 30
0.0
 11
408.8721245115548
 21
137.0485128832279
 31
0.0
  0
LINE
  5
5760
330
A
100
AcDbEntity
  8
SPACER
  6
CENTER
 48
3.0
100
AcDbLine
 10
365.057790474745
 20
180.8628469200378
 30
0.0
 11
452.6864585483647
 21
180.8628469200378
 31
0.0
  0
CIRCLE
  5
5775
102
{ACAD_REACTORS
330
5804
102
}
330
A
100
AcDbEntity
  8
CutoutOverlay
100
AcDbCircle
 10
427.8721245115549
 20
180.8628469200378
 30
0.0
 40
5.0
  0
CIRCLE
  5
5776
102
{ACAD_REACTORS
330
5804
102
}
330
A
100
AcDbEntity
  8
CutoutOverlay
100
AcDbCircle
 10
389.8721245115548
 20
180.8628469200378
 30
0.0
 40
5.0
  0
CIRCLE
  5
5777
102
{ACAD_REACTORS
330
5800
330
5803
330
5804
102
}
330
A
100
AcDbEntity
  8
CutoutOverlay
100
AcDbCircle
 10
408.8721245115548
 20
180.8628469200378
 30
0.0
 40
14.0
  0
DIMENSION
  5
5778
330
A
100
AcDbEntity
  8
寸法
100
AcDbDimension
  2
*D38
 10
389.8721245115548
 20
144.5573006134969
 30
0.0
 11
376.2146245115548
 21
144.5573006134969
 31
0.0
 70
   160
  1
 
 71
     5
 42
38.00000000000011
 73
     0
 74
     1
 75
     1
  3
tfrom線あり
100
AcDbAlignedDimension
 13
427.8721245115549
 23
177.3452081951892
 33
0.0
 14
389.8721245115548
 24
177.3452081951892
 34
0.0
100
AcDbRotatedDimension
1001
ACAD
1000
DSTYLE
1002
{
1070
   172
1070
     1
1002
}
  0
DIMENSION
  5
5779
330
A
100
AcDbEntity
  8
寸法
100
AcDbDimension
  2
*D39
 10
408.8721245115548
 20
213.8023335341041
 30
0.0
 11
399.3721245115548
 21
218.3023335341041
 31
0.0
 70
    32
 71
     5
 42
19.0
 73
     0
 74
     0
 75
     0
  3
tfrom線あり
100
AcDbAlignedDimension
 13
389.8721245115548
 23
186.0157099566222
 33
0.0
 14
408.8721245115548
 24
200.1912224768318
 34
0.0
100
AcDbRotatedDimension
  0
DIMENSION
  5
577A
330
A
100
AcDbEntity
  8
寸法
100
AcDbDimension
  2
*D40
 10
427.8721245115549
 20
213.8023335341041
 30
0.0
 11
418.3721245115548
 21
218.3023335341041
 31
0.0
 70
    32
 71
     5
 42
19.00000000000011
 73
     0
 74
     0
 75
     0
  3
tfrom線あり
100
AcDbAlignedDimension
 13
408.8721245115548
 23
200.1912224768318
 33
0.0
 14
427.8721245115549
 24
186.0157099566222
 34
0.0
100
AcDbRotatedDimension
  0
DIMENSION
  5
57F9
330
A
100
AcDbEntity
  8
寸法
100
AcDbDimension
  2
*D41
 10
146.1825120145531
 20
365.9906564456901
 30
0.0
 11
127.1825120145531
 21
370.4906564456901
 31
0.0
 70
    32
 71
     5
 42
38.00000000000001
 73
     0
 74
     0
 75
     0
  3
tfrom線あり
100
AcDbAlignedDimension
 13
108.1825120145531
 23
351.4345575436565
 33
0.0
 14
146.1825120145531
 24
351.4345575436565
 34
0.0
100
AcDbRotatedDimension
  0
LINE
  5
57FA
330
A
100
AcDbEntity
  8
寸法
  6
CENTER
 48
0.5
100
AcDbLine
 10
108.1825120145531
 20
351.4345575436565
 30
0.0
 11
108.1825120145531
 21
345.8123890105664
 31
0.0
  0
LINE
  5
57FB
330
A
100
AcDbEntity
  8
寸法
  6
CENTER
 48
0.5
100
AcDbLine
 10
146.1825120145531
 20
351.4345575436565
 30
0.0
 11
146.1825120145531
 21
345.8123890105664
 31
0.0
  0
TEXT
  5
57FD
330
A
100
AcDbEntity
  8
寸法
100
AcDbText
 10
348.1659509202454
 20
231.4229447852761
 30
0.0
 40
5.0
  1
<切欠図>
  7
ＭＳ ゴシック
100
AcDbText
  0
LEADER
  5
57FE
102
{ACAD_REACTORS
330
5800
102
}
102
{ACAD_XDICTIONARY
360
57FF
102
}
330
A
100
AcDbEntity
  8
寸法
100
AcDbLeader
  3
tfrom線あり
 76
     3
 10
408.8721245115548
 20
194.8628469200378
 30
0.0
 10
408.8721245115548
 20
200.7337752882268
 30
0.0
 10
447.9531070495427
 20
200.7337752882268
 30
0.0
  0
LEADER
  5
5801
102
{ACAD_REACTORS
330
5803
102
}
102
{ACAD_XDICTIONARY
360
5802
102
}
330
A
100
AcDbEntity
  8
寸法
100
AcDbLeader
  3
tfrom線あり
 76
     3
 10
408.8721245115548
 20
180.8628469200378
 30
0.0
 10
442.1530114131083
 20
156.5669494488204
 30
0.0
 10
510.1082899407156
 20
156.5669494488204
 30
0.0
  0
HATCH
  5
5804
330
A
100
AcDbEntity
  8
CutoutOverlay
100
AcDbHatch
 10
0.0
 20
0.0
 30
0.0
210
0.0
220
0.0
230
1.0
  2
ANSI31
 70
     0
 71
     1
 91
        3
 92
        1
 93
        1
 72
     2
 10
389.8721245115548
 20
180.8628469200378
 40
5.0
 50
0.0
 51
360.0
 73
     1
 97
        1
330
5776
 92
        1
 93
        1
 72
     2
 10
408.8721245115548
 20
180.8628469200378
 40
14.0
 50
0.0
 51
360.0
 73
     1
 97
        1
330
5777
 92
        1
 93
        1
 72
     2
 10
427.8721245115549
 20
180.8628469200378
 40
5.0
 50
0.0
 51
360.0
 73
     1
 97
        1
330
5775
 75
     0
 76
     1
 52
0.0
 41
1.0
 77
     0
 78
     1
 53
45.0
 43
0.0
 44
0.0
 45
-2.245064030267288
 46
2.245064030267288
 79
     0
 98
        1
 10
0.0
 20
0.0
1001
ACAD
1010
0.0
1020
0.0
1030
0.0
  0
TEXT
  5
5805
330
A
100
AcDbEntity
  8
寸法
100
AcDbText
 10
443.7339484827306
 20
159.2024023985158
 30
0.0
 40
5.0
  1
レバー角芯 センター
  7
ＭＳ ゴシック
100
AcDbText
  0
TEXT
  5
5806
330
A
100
AcDbEntity
  8
寸法
100
AcDbText
 10
438.0695551162909
 20
203.042649715703
 30
0.0
 40
5.0
  1
ø28
  7
ＭＳ ゴシック
100
AcDbText
  0
TEXT
  5
5807
330
A
100
AcDbEntity
  8
寸法
100
AcDbText
 10
375.8306164726592
 20
147.0523164739852
 30
0.0
 40
5.0
  1
ø10
  7
ＭＳ ゴシック
100
AcDbText
  0
LINE
  5
580A
330
A
100
AcDbEntity
  8
SPACER
  6
CENTER
 48
3.0
100
AcDbLine
 10
127.1825120145532
 20
392.54793307962
 30
0.0
 11
127.1825120145532
 21
304.9192650060003
 31
0.0
  0
ARC
  5
58A4
102
{ACAD_REACTORS
330
5D3D
102
}
330
A
100
AcDbEntity
  8
CutoutUnderlay
  6
Continuous
100
AcDbCircle
 10
429.8885669178332
 20
142.4081123603908
 30
0.0
 40
56.739135190958
100
AcDbArc
 50
72.00000000000003
 51
87.96845999999996
  0
ARC
  5
58A5
102
{ACAD_REACTORS
330
5D3D
102
}
330
A
100
AcDbEntity
  8
CutoutUnderlay
  6
Continuous
100
AcDbCircle
 10
488.2345189178332
 20
220.9620613603909
 30
0.0
 40
36.0
100
AcDbArc
 50
252.0000000000001
 51
317.6771499999999
  0
LINE
  5
58A6
102
{ACAD_REACTORS
330
5D3D
102
}
330
A
100
AcDbEntity
  8
CutoutUnderlay
  6
Continuous
100
AcDbLine
 10
477.1099069178333
 20
186.7240263603908
 30
0.0
 11
447.4219239178332
 21
196.3702373603908
 31
0.0
  0
ARC
  5
58A7
102
{ACAD_REACTORS
330
5D3D
102
}
330
A
100
AcDbEntity
  8
CutoutUnderlay
  6
Continuous
100
AcDbCircle
 10
408.9174739178332
 20
180.8347833603909
 30
0.0
 40
12.0
100
AcDbArc
 50
135.000000000001
 51
330.0
  0
ARC
  5
58A8
102
{ACAD_REACTORS
330
5D3D
102
}
330
A
100
AcDbEntity
  8
CutoutUnderlay
  6
DASHED1
100
AcDbCircle
 10
408.9174739178332
 20
180.8347833603909
 30
0.0
 40
12.0
100
AcDbArc
 50
330.0
 51
135.000000000001
  0
CIRCLE
  5
58A9
102
{ACAD_REACTORS
330
5D3D
102
}
330
A
100
AcDbEntity
  8
CutoutUnderlay
  6
DASHED1
100
AcDbCircle
 10
408.8721245115548
 20
180.8628469200378
 30
0.0
 40
8.925
  0
ARC
  5
58AA
102
{ACAD_REACTORS
330
5D3D
102
}
330
A
100
AcDbEntity
  8
CutoutUnderlay
  6
DASHED1
100
AcDbCircle
 10
408.9013310513157
 20
180.8469577150718
 30
0.0
 40
27.5
100
AcDbArc
 50
13.68466371311023
 51
41.54189135184472
  0
ARC
  5
58AB
102
{ACAD_REACTORS
330
5D3D
102
}
330
A
100
AcDbEntity
  8
CutoutUnderlay
  6
Continuous
100
AcDbCircle
 10
408.9013310513157
 20
180.8469577150718
 30
0.0
 40
27.5
100
AcDbArc
 50
41.54189135184472
 51
13.68466371311023
  0
DIMENSION
  5
59F7
330
A
100
AcDbEntity
  8
寸法
  6
Continuous
100
AcDbDimension
  2
*D45
 10
134.8812214791989
 20
139.2647026849567
 30
0.0
 11
141.6643088333743
 21
139.2647026849567
 31
0.0
 70
   160
 71
     5
 42
7.699570739085033
 73
     0
 74
     1
 75
     1
  3
tfrom線あり
100
AcDbAlignedDimension
 13
127.1816507401139
 23
153.4628469200378
 33
0.0
 14
134.8812214791989
 24
168.6679425127938
 34
0.0
100
AcDbRotatedDimension
1001
ACAD
1000
DSTYLE
1002
{
1070
   172
1070
     1
1070
   175
1070
     1
1070
   174
1070
     1
1070
     3
1000
<>
1070
   271
1070
     0
1002
}
  0
LINE
  5
5A9C
102
{ACAD_REACTORS
330
5D3D
102
}
330
A
100
AcDbEntity
  8
CutoutUnderlay
  6
Continuous
100
AcDbLine
 10
440.0972549178332
 20
187.4788093603908
 30
0.0
 11
441.4250959178332
 21
187.4828093603908
 31
0.0
  0
LINE
  5
5A9D
102
{ACAD_REACTORS
330
5D3D
102
}
330
A
100
AcDbEntity
  8
CutoutUnderlay
  6
Continuous
100
AcDbLine
 10
441.4250959178332
 20
187.4828093603908
 30
0.0
 11
442.7528009178332
 21
187.4633123603908
 31
0.0
  0
LINE
  5
5A9E
102
{ACAD_REACTORS
330
5D3D
102
}
330
A
100
AcDbEntity
  8
CutoutUnderlay
  6
Continuous
100
AcDbLine
 10
442.7528009178332
 20
187.4633123603908
 30
0.0
 11
444.0790949178332
 21
187.3992913603908
 31
0.0
  0
LINE
  5
5A9F
102
{ACAD_REACTORS
330
5D3D
102
}
330
A
100
AcDbEntity
  8
CutoutUnderlay
  6
Continuous
100
AcDbLine
 10
444.0790949178332
 20
187.3992913603908
 30
0.0
 11
445.4042519178332
 21
187.3144363603908
 31
0.0
  0
LINE
  5
5AA0
102
{ACAD_REACTORS
330
5D3D
102
}
330
A
100
AcDbEntity
  8
CutoutUnderlay
  6
Continuous
100
AcDbLine
 10
445.4042519178332
 20
187.3144363603908
 30
0.0
 11
446.7282729178332
 21
187.2137663603908
 31
0.0
  0
LINE
  5
5AA1
102
{ACAD_REACTORS
330
5D3D
102
}
330
A
100
AcDbEntity
  8
CutoutUnderlay
  6
Continuous
100
AcDbLine
 10
446.7282729178332
 20
187.2137663603908
 30
0.0
 11
448.0506909178332
 21
187.0935713603908
 31
0.0
  0
LINE
  5
5AA2
102
{ACAD_REACTORS
330
5D3D
102
}
330
A
100
AcDbEntity
  8
CutoutUnderlay
  6
Continuous
100
AcDbLine
 10
448.0506909178332
 20
187.0935713603908
 30
0.0
 11
449.3714729178332
 21
186.9566723603908
 31
0.0
  0
LINE
  5
5AA3
102
{ACAD_REACTORS
330
5D3D
102
}
330
A
100
AcDbEntity
  8
CutoutUnderlay
  6
Continuous
100
AcDbLine
 10
449.3714729178332
 20
186.9566723603908
 30
0.0
 11
450.6912589178332
 21
186.8103793603908
 31
0.0
  0
LINE
  5
5AA4
102
{ACAD_REACTORS
330
5D3D
102
}
330
A
100
AcDbEntity
  8
CutoutUnderlay
  6
Continuous
100
AcDbLine
 10
450.6912589178332
 20
186.8103793603908
 30
0.0
 11
452.0095869178332
 21
186.6515783603908
 31
0.0
  0
LINE
  5
5AA5
102
{ACAD_REACTORS
330
5D3D
102
}
330
A
100
AcDbEntity
  8
CutoutUnderlay
  6
Continuous
100
AcDbLine
 10
452.0095869178332
 20
186.6515783603908
 30
0.0
 11
453.3262259178332
 21
186.4792443603908
 31
0.0
  0
LINE
  5
5AA6
102
{ACAD_REACTORS
330
5D3D
102
}
330
A
100
AcDbEntity
  8
CutoutUnderlay
  6
Continuous
100
AcDbLine
 10
453.3262259178332
 20
186.4792443603908
 30
0.0
 11
454.6424309178332
 21
186.3036163603908
 31
0.0
  0
LINE
  5
5AA7
102
{ACAD_REACTORS
330
5D3D
102
}
330
A
100
AcDbEntity
  8
CutoutUnderlay
  6
Continuous
100
AcDbLine
 10
454.6424309178332
 20
186.3036163603908
 30
0.0
 11
455.9580279178332
 21
186.1235213603908
 31
0.0
  0
LINE
  5
5AA8
102
{ACAD_REACTORS
330
5D3D
102
}
330
A
100
AcDbEntity
  8
CutoutUnderlay
  6
Continuous
100
AcDbLine
 10
455.9580279178332
 20
186.1235213603908
 30
0.0
 11
457.2727939178332
 21
185.9374223603908
 31
0.0
  0
LINE
  5
5AA9
102
{ACAD_REACTORS
330
5D3D
102
}
330
A
100
AcDbEntity
  8
CutoutUnderlay
  6
Continuous
100
AcDbLine
 10
457.2727939178332
 20
185.9374223603908
 30
0.0
 11
458.5875069178332
 21
185.7509723603908
 31
0.0
  0
LINE
  5
5AAA
102
{ACAD_REACTORS
330
5D3D
102
}
330
A
100
AcDbEntity
  8
CutoutUnderlay
  6
Continuous
100
AcDbLine
 10
458.5875069178332
 20
185.7509723603908
 30
0.0
 11
459.9021849178332
 21
185.5642623603908
 31
0.0
  0
LINE
  5
5AAB
102
{ACAD_REACTORS
330
5D3D
102
}
330
A
100
AcDbEntity
  8
CutoutUnderlay
  6
Continuous
100
AcDbLine
 10
459.9021849178332
 20
185.5642623603908
 30
0.0
 11
461.2167679178332
 21
185.3768803603908
 31
0.0
  0
LINE
  5
5AAC
102
{ACAD_REACTORS
330
5D3D
102
}
330
A
100
AcDbEntity
  8
CutoutUnderlay
  6
Continuous
100
AcDbLine
 10
461.2167679178332
 20
185.3768803603908
 30
0.0
 11
462.5313809178332
 21
185.1897433603908
 31
0.0
  0
LINE
  5
5AAD
102
{ACAD_REACTORS
330
5D3D
102
}
330
A
100
AcDbEntity
  8
CutoutUnderlay
  6
Continuous
100
AcDbLine
 10
462.5313809178332
 20
185.1897433603908
 30
0.0
 11
463.8465929178332
 21
185.0068383603908
 31
0.0
  0
LINE
  5
5AAE
102
{ACAD_REACTORS
330
5D3D
102
}
330
A
100
AcDbEntity
  8
CutoutUnderlay
  6
Continuous
100
AcDbLine
 10
463.8465929178332
 20
185.0068383603908
 30
0.0
 11
465.1624809178332
 21
184.8288613603908
 31
0.0
  0
LINE
  5
5AAF
102
{ACAD_REACTORS
330
5D3D
102
}
330
A
100
AcDbEntity
  8
CutoutUnderlay
  6
Continuous
100
AcDbLine
 10
465.1624809178332
 20
184.8288613603908
 30
0.0
 11
466.4787879178332
 21
184.6539893603908
 31
0.0
  0
LINE
  5
5AB0
102
{ACAD_REACTORS
330
5D3D
102
}
330
A
100
AcDbEntity
  8
CutoutUnderlay
  6
Continuous
100
AcDbLine
 10
466.4787879178332
 20
184.6539893603908
 30
0.0
 11
467.7953459178332
 21
184.4810263603908
 31
0.0
  0
LINE
  5
5AB1
102
{ACAD_REACTORS
330
5D3D
102
}
330
A
100
AcDbEntity
  8
CutoutUnderlay
  6
Continuous
100
AcDbLine
 10
467.7953459178332
 20
184.4810263603908
 30
0.0
 11
469.1124619178332
 21
184.3123843603908
 31
0.0
  0
LINE
  5
5AB2
102
{ACAD_REACTORS
330
5D3D
102
}
330
A
100
AcDbEntity
  8
CutoutUnderlay
  6
Continuous
100
AcDbLine
 10
469.1124619178332
 20
184.3123843603908
 30
0.0
 11
470.4310119178332
 21
184.1553463603908
 31
0.0
  0
LINE
  5
5AB3
102
{ACAD_REACTORS
330
5D3D
102
}
330
A
100
AcDbEntity
  8
CutoutUnderlay
  6
Continuous
100
AcDbLine
 10
470.4310119178332
 20
184.1553463603908
 30
0.0
 11
471.7500809178332
 21
184.0027173603908
 31
0.0
  0
LINE
  5
5AB4
102
{ACAD_REACTORS
330
5D3D
102
}
330
A
100
AcDbEntity
  8
CutoutUnderlay
  6
Continuous
100
AcDbLine
 10
471.7500809178332
 20
184.0027173603908
 30
0.0
 11
473.0697109178332
 21
183.8550593603908
 31
0.0
  0
LINE
  5
5AB5
102
{ACAD_REACTORS
330
5D3D
102
}
330
A
100
AcDbEntity
  8
CutoutUnderlay
  6
Continuous
100
AcDbLine
 10
473.0697109178332
 20
183.8550593603908
 30
0.0
 11
474.3908549178332
 21
183.7216173603908
 31
0.0
  0
LINE
  5
5AB6
102
{ACAD_REACTORS
330
5D3D
102
}
330
A
100
AcDbEntity
  8
CutoutUnderlay
  6
Continuous
100
AcDbLine
 10
474.3908549178332
 20
183.7216173603908
 30
0.0
 11
475.7126319178332
 21
183.5944843603908
 31
0.0
  0
LINE
  5
5AB7
102
{ACAD_REACTORS
330
5D3D
102
}
330
A
100
AcDbEntity
  8
CutoutUnderlay
  6
Continuous
100
AcDbLine
 10
475.7126319178332
 20
183.5944843603908
 30
0.0
 11
477.0347149178332
 21
183.4706543603908
 31
0.0
  0
LINE
  5
5AB8
102
{ACAD_REACTORS
330
5D3D
102
}
330
A
100
AcDbEntity
  8
CutoutUnderlay
  6
Continuous
100
AcDbLine
 10
477.0347149178332
 20
183.4706543603908
 30
0.0
 11
478.3572859178332
 21
183.3521413603908
 31
0.0
  0
LINE
  5
5AB9
102
{ACAD_REACTORS
330
5D3D
102
}
330
A
100
AcDbEntity
  8
CutoutUnderlay
  6
Continuous
100
AcDbLine
 10
478.3572859178332
 20
183.3521413603908
 30
0.0
 11
479.6807109178332
 21
183.2435373603908
 31
0.0
  0
LINE
  5
5ABA
102
{ACAD_REACTORS
330
5D3D
102
}
330
A
100
AcDbEntity
  8
CutoutUnderlay
  6
Continuous
100
AcDbLine
 10
479.6807109178332
 20
183.2435373603908
 30
0.0
 11
481.0053879178332
 21
183.1515173603908
 31
0.0
  0
LINE
  5
5ABB
102
{ACAD_REACTORS
330
5D3D
102
}
330
A
100
AcDbEntity
  8
CutoutUnderlay
  6
Continuous
100
AcDbLine
 10
481.0053879178332
 20
183.1515173603908
 30
0.0
 11
482.3308269178332
 21
183.0711763603908
 31
0.0
  0
LINE
  5
5ABC
102
{ACAD_REACTORS
330
5D3D
102
}
330
A
100
AcDbEntity
  8
CutoutUnderlay
  6
Continuous
100
AcDbLine
 10
482.3308269178332
 20
183.0711763603908
 30
0.0
 11
483.6566019178332
 21
182.9966053603908
 31
0.0
  0
LINE
  5
5ABD
102
{ACAD_REACTORS
330
5D3D
102
}
330
A
100
AcDbEntity
  8
CutoutUnderlay
  6
Continuous
100
AcDbLine
 10
483.6566019178332
 20
182.9966053603908
 30
0.0
 11
484.9825989178332
 21
182.9261003603908
 31
0.0
  0
LINE
  5
5ABE
102
{ACAD_REACTORS
330
5D3D
102
}
330
A
100
AcDbEntity
  8
CutoutUnderlay
  6
Continuous
100
AcDbLine
 10
484.9825989178332
 20
182.9261003603908
 30
0.0
 11
486.3091519178332
 21
182.8670273603908
 31
0.0
  0
LINE
  5
5ABF
102
{ACAD_REACTORS
330
5D3D
102
}
330
A
100
AcDbEntity
  8
CutoutUnderlay
  6
Continuous
100
AcDbLine
 10
486.3091519178332
 20
182.8670273603908
 30
0.0
 11
487.6360939178332
 21
182.8179923603908
 31
0.0
  0
LINE
  5
5AC0
102
{ACAD_REACTORS
330
5D3D
102
}
330
A
100
AcDbEntity
  8
CutoutUnderlay
  6
Continuous
100
AcDbLine
 10
487.6360939178332
 20
182.8179923603908
 30
0.0
 11
488.9636469178332
 21
182.7890293603908
 31
0.0
  0
LINE
  5
5AC1
102
{ACAD_REACTORS
330
5D3D
102
}
330
A
100
AcDbEntity
  8
CutoutUnderlay
  6
Continuous
100
AcDbLine
 10
488.9636469178332
 20
182.7890293603908
 30
0.0
 11
490.2914519178332
 21
182.7750863603908
 31
0.0
  0
LINE
  5
5AC2
102
{ACAD_REACTORS
330
5D3D
102
}
330
A
100
AcDbEntity
  8
CutoutUnderlay
  6
Continuous
100
AcDbLine
 10
490.2914519178332
 20
182.7750863603908
 30
0.0
 11
491.6185539178332
 21
182.8163613603908
 31
0.0
  0
LINE
  5
5AC3
102
{ACAD_REACTORS
330
5D3D
102
}
330
A
100
AcDbEntity
  8
CutoutUnderlay
  6
Continuous
100
AcDbLine
 10
491.6185539178332
 20
182.8163613603908
 30
0.0
 11
492.9436959178332
 21
182.9014793603908
 31
0.0
  0
LINE
  5
5AC4
102
{ACAD_REACTORS
330
5D3D
102
}
330
A
100
AcDbEntity
  8
CutoutUnderlay
  6
Continuous
100
AcDbLine
 10
492.9436959178332
 20
182.9014793603908
 30
0.0
 11
494.2649089178332
 21
183.0332353603908
 31
0.0
  0
LINE
  5
5AC5
102
{ACAD_REACTORS
330
5D3D
102
}
330
A
100
AcDbEntity
  8
CutoutUnderlay
  6
Continuous
100
AcDbLine
 10
494.2649089178332
 20
183.0332353603908
 30
0.0
 11
495.5795299178332
 21
183.2201423603908
 31
0.0
  0
LINE
  5
5AC6
102
{ACAD_REACTORS
330
5D3D
102
}
330
A
100
AcDbEntity
  8
CutoutUnderlay
  6
Continuous
100
AcDbLine
 10
495.5795299178332
 20
183.2201423603908
 30
0.0
 11
496.8824019178332
 21
183.4759743603908
 31
0.0
  0
LINE
  5
5AC7
102
{ACAD_REACTORS
330
5D3D
102
}
330
A
100
AcDbEntity
  8
CutoutUnderlay
  6
Continuous
100
AcDbLine
 10
496.8824019178332
 20
183.4759743603908
 30
0.0
 11
498.1779719178332
 21
183.7671033603908
 31
0.0
  0
LINE
  5
5AC8
102
{ACAD_REACTORS
330
5D3D
102
}
330
A
100
AcDbEntity
  8
CutoutUnderlay
  6
Continuous
100
AcDbLine
 10
498.1779719178332
 20
183.7671033603908
 30
0.0
 11
499.4572769178332
 21
184.1217903603908
 31
0.0
  0
LINE
  5
5AC9
102
{ACAD_REACTORS
330
5D3D
102
}
330
A
100
AcDbEntity
  8
CutoutUnderlay
  6
Continuous
100
AcDbLine
 10
499.4572769178332
 20
184.1217903603908
 30
0.0
 11
500.7117089178332
 21
184.5572393603908
 31
0.0
  0
LINE
  5
5ACA
102
{ACAD_REACTORS
330
5D3D
102
}
330
A
100
AcDbEntity
  8
CutoutUnderlay
  6
Continuous
100
AcDbLine
 10
500.7117089178332
 20
184.5572393603908
 30
0.0
 11
501.9550259178332
 21
185.0234983603908
 31
0.0
  0
LINE
  5
5ACB
102
{ACAD_REACTORS
330
5D3D
102
}
330
A
100
AcDbEntity
  8
CutoutUnderlay
  6
Continuous
100
AcDbLine
 10
501.9550259178332
 20
185.0234983603908
 30
0.0
 11
503.1705099178332
 21
185.5577913603908
 31
0.0
  0
LINE
  5
5ACC
102
{ACAD_REACTORS
330
5D3D
102
}
330
A
100
AcDbEntity
  8
CutoutUnderlay
  6
Continuous
100
AcDbLine
 10
503.1705099178332
 20
185.5577913603908
 30
0.0
 11
504.3641059178332
 21
186.1390593603908
 31
0.0
  0
LINE
  5
5ACD
102
{ACAD_REACTORS
330
5D3D
102
}
330
A
100
AcDbEntity
  8
CutoutUnderlay
  6
Continuous
100
AcDbLine
 10
504.3641059178332
 20
186.1390593603908
 30
0.0
 11
505.5278639178332
 21
186.7785313603908
 31
0.0
  0
LINE
  5
5ACE
102
{ACAD_REACTORS
330
5D3D
102
}
330
A
100
AcDbEntity
  8
CutoutUnderlay
  6
Continuous
100
AcDbLine
 10
505.5278639178332
 20
186.7785313603908
 30
0.0
 11
506.6728679178332
 21
187.4508863603908
 31
0.0
  0
LINE
  5
5ACF
102
{ACAD_REACTORS
330
5D3D
102
}
330
A
100
AcDbEntity
  8
CutoutUnderlay
  6
Continuous
100
AcDbLine
 10
506.6728679178332
 20
187.4508863603908
 30
0.0
 11
507.7626129178332
 21
188.2092673603908
 31
0.0
  0
LINE
  5
5AD0
102
{ACAD_REACTORS
330
5D3D
102
}
330
A
100
AcDbEntity
  8
CutoutUnderlay
  6
Continuous
100
AcDbLine
 10
507.7626129178332
 20
188.2092673603908
 30
0.0
 11
508.8212669178332
 21
189.0109333603908
 31
0.0
  0
LINE
  5
5AD1
102
{ACAD_REACTORS
330
5D3D
102
}
330
A
100
AcDbEntity
  8
CutoutUnderlay
  6
Continuous
100
AcDbLine
 10
508.8212669178332
 20
189.0109333603908
 30
0.0
 11
509.8608639178332
 21
189.8370563603908
 31
0.0
  0
LINE
  5
5AD2
102
{ACAD_REACTORS
330
5D3D
102
}
330
A
100
AcDbEntity
  8
CutoutUnderlay
  6
Continuous
100
AcDbLine
 10
509.8608639178332
 20
189.8370563603908
 30
0.0
 11
510.8412409178332
 21
190.7319163603908
 31
0.0
  0
LINE
  5
5AD3
102
{ACAD_REACTORS
330
5D3D
102
}
330
A
100
AcDbEntity
  8
CutoutUnderlay
  6
Continuous
100
AcDbLine
 10
510.8412409178332
 20
190.7319163603908
 30
0.0
 11
511.7651529178332
 21
191.6856813603908
 31
0.0
  0
LINE
  5
5AD4
102
{ACAD_REACTORS
330
5D3D
102
}
330
A
100
AcDbEntity
  8
CutoutUnderlay
  6
Continuous
100
AcDbLine
 10
511.7651529178332
 20
191.6856813603908
 30
0.0
 11
512.6666879178332
 21
192.6606563603908
 31
0.0
  0
LINE
  5
5AD5
102
{ACAD_REACTORS
330
5D3D
102
}
330
A
100
AcDbEntity
  8
CutoutUnderlay
  6
Continuous
100
AcDbLine
 10
512.6666879178332
 20
192.6606563603908
 30
0.0
 11
513.5127499178332
 21
193.6835053603908
 31
0.0
  0
LINE
  5
5AD6
102
{ACAD_REACTORS
330
5D3D
102
}
330
A
100
AcDbEntity
  8
CutoutUnderlay
  6
Continuous
100
AcDbLine
 10
513.5127499178332
 20
193.6835053603908
 30
0.0
 11
514.2835319178332
 21
194.7647803603908
 31
0.0
  0
LINE
  5
5AD7
102
{ACAD_REACTORS
330
5D3D
102
}
330
A
100
AcDbEntity
  8
CutoutUnderlay
  6
Continuous
100
AcDbLine
 10
514.2835319178332
 20
194.7647803603908
 30
0.0
 11
515.0286879178332
 21
195.8639503603908
 31
0.0
  0
LINE
  5
5AD8
102
{ACAD_REACTORS
330
5D3D
102
}
330
A
100
AcDbEntity
  8
CutoutUnderlay
  6
Continuous
100
AcDbLine
 10
515.0286879178332
 20
195.8639503603908
 30
0.0
 11
515.7374969178331
 21
196.9867073603908
 31
0.0
  0
LINE
  5
5AD9
102
{ACAD_REACTORS
330
5D3D
102
}
330
A
100
AcDbEntity
  8
CutoutUnderlay
  6
Continuous
100
AcDbLine
 10
515.7374969178331
 20
196.9867073603908
 30
0.0
 11
516.3686919178332
 21
198.1548533603908
 31
0.0
  0
LINE
  5
5ADA
102
{ACAD_REACTORS
330
5D3D
102
}
330
A
100
AcDbEntity
  8
CutoutUnderlay
  6
Continuous
100
AcDbLine
 10
516.3686919178332
 20
198.1548533603908
 30
0.0
 11
516.9674239178332
 21
199.3400663603908
 31
0.0
  0
LINE
  5
5ADB
102
{ACAD_REACTORS
330
5D3D
102
}
330
A
100
AcDbEntity
  8
CutoutUnderlay
  6
Continuous
100
AcDbLine
 10
516.9674239178332
 20
199.3400663603908
 30
0.0
 11
517.5223779178332
 21
200.5463273603908
 31
0.0
  0
LINE
  5
5ADC
102
{ACAD_REACTORS
330
5D3D
102
}
330
A
100
AcDbEntity
  8
CutoutUnderlay
  6
Continuous
100
AcDbLine
 10
517.5223779178332
 20
200.5463273603908
 30
0.0
 11
518.0349129178333
 21
201.7712303603908
 31
0.0
  0
LINE
  5
5ADD
102
{ACAD_REACTORS
330
5D3D
102
}
330
A
100
AcDbEntity
  8
CutoutUnderlay
  6
Continuous
100
AcDbLine
 10
518.0349129178333
 20
201.7712303603908
 30
0.0
 11
518.4481289178332
 21
203.0329263603908
 31
0.0
  0
LINE
  5
5ADE
102
{ACAD_REACTORS
330
5D3D
102
}
330
A
100
AcDbEntity
  8
CutoutUnderlay
  6
Continuous
100
AcDbLine
 10
518.4481289178332
 20
203.0329263603908
 30
0.0
 11
518.7417839178332
 21
204.3269783603908
 31
0.0
  0
LINE
  5
5ADF
102
{ACAD_REACTORS
330
5D3D
102
}
330
A
100
AcDbEntity
  8
CutoutUnderlay
  6
Continuous
100
AcDbLine
 10
518.7417839178332
 20
204.3269783603908
 30
0.0
 11
518.8826989178332
 21
205.6467183603908
 31
0.0
  0
LINE
  5
5AE0
102
{ACAD_REACTORS
330
5D3D
102
}
330
A
100
AcDbEntity
  8
CutoutUnderlay
  6
Continuous
100
AcDbLine
 10
518.8826989178332
 20
205.6467183603908
 30
0.0
 11
518.8748409178332
 21
206.9719273603908
 31
0.0
  0
LINE
  5
5AE1
102
{ACAD_REACTORS
330
5D3D
102
}
330
A
100
AcDbEntity
  8
CutoutUnderlay
  6
Continuous
100
AcDbLine
 10
518.8748409178332
 20
206.9719273603908
 30
0.0
 11
518.3055809178331
 21
208.1402163603908
 31
0.0
  0
LINE
  5
5AE2
102
{ACAD_REACTORS
330
5D3D
102
}
330
A
100
AcDbEntity
  8
CutoutUnderlay
  6
Continuous
100
AcDbLine
 10
518.3055809178331
 20
208.1402163603908
 30
0.0
 11
517.0881739178332
 21
208.6176963603908
 31
0.0
  0
LINE
  5
5AE3
102
{ACAD_REACTORS
330
5D3D
102
}
330
A
100
AcDbEntity
  8
CutoutUnderlay
  6
Continuous
100
AcDbLine
 10
517.0881739178332
 20
208.6176963603908
 30
0.0
 11
515.7630319178331
 21
208.5800623603908
 31
0.0
  0
LINE
  5
5AE4
102
{ACAD_REACTORS
330
5D3D
102
}
330
A
100
AcDbEntity
  8
CutoutUnderlay
  6
Continuous
100
AcDbLine
 10
515.7630319178331
 20
208.5800623603908
 30
0.0
 11
514.4515849178332
 21
208.3771803603908
 31
0.0
  0
LINE
  5
5AE5
102
{ACAD_REACTORS
330
5D3D
102
}
330
A
100
AcDbEntity
  8
CutoutUnderlay
  6
Continuous
100
AcDbLine
 10
514.4515849178332
 20
208.3771803603908
 30
0.0
 11
513.1622779178332
 21
208.0595493603908
 31
0.0
  0
LINE
  5
5AE6
102
{ACAD_REACTORS
330
5D3D
102
}
330
A
100
AcDbEntity
  8
CutoutUnderlay
  6
Continuous
100
AcDbLine
 10
513.1622779178332
 20
208.0595493603908
 30
0.0
 11
511.8866279178332
 21
207.6911793603908
 31
0.0
  0
LINE
  5
5AE7
102
{ACAD_REACTORS
330
5D3D
102
}
330
A
100
AcDbEntity
  8
CutoutUnderlay
  6
Continuous
100
AcDbLine
 10
511.8866279178332
 20
207.6911793603908
 30
0.0
 11
510.6145109178332
 21
207.3104643603908
 31
0.0
  0
LINE
  5
5AE8
102
{ACAD_REACTORS
330
5D3D
102
}
330
A
100
AcDbEntity
  8
CutoutUnderlay
  6
Continuous
100
AcDbLine
 10
510.6145109178332
 20
207.3104643603908
 30
0.0
 11
509.3376249178332
 21
206.9461073603908
 31
0.0
  0
LINE
  5
5AE9
102
{ACAD_REACTORS
330
5D3D
102
}
330
A
100
AcDbEntity
  8
CutoutUnderlay
  6
Continuous
100
AcDbLine
 10
509.3376249178332
 20
206.9461073603908
 30
0.0
 11
508.0569769178332
 21
206.5951533603908
 31
0.0
  0
LINE
  5
5AEA
102
{ACAD_REACTORS
330
5D3D
102
}
330
A
100
AcDbEntity
  8
CutoutUnderlay
  6
Continuous
100
AcDbLine
 10
508.0569769178332
 20
206.5951533603908
 30
0.0
 11
506.7745449178332
 21
206.2507783603908
 31
0.0
  0
LINE
  5
5AEB
102
{ACAD_REACTORS
330
5D3D
102
}
330
A
100
AcDbEntity
  8
CutoutUnderlay
  6
Continuous
100
AcDbLine
 10
506.7745449178332
 20
206.2507783603908
 30
0.0
 11
505.4919449178332
 21
205.9070183603908
 31
0.0
  0
LINE
  5
5AEC
102
{ACAD_REACTORS
330
5D3D
102
}
330
A
100
AcDbEntity
  8
CutoutUnderlay
  6
Continuous
100
AcDbLine
 10
505.4919449178332
 20
205.9070183603908
 30
0.0
 11
504.2090469178332
 21
205.5643573603908
 31
0.0
  0
LINE
  5
5AED
102
{ACAD_REACTORS
330
5D3D
102
}
330
A
100
AcDbEntity
  8
CutoutUnderlay
  6
Continuous
100
AcDbLine
 10
504.2090469178332
 20
205.5643573603908
 30
0.0
 11
502.9252329178332
 21
205.2251713603908
 31
0.0
  0
LINE
  5
5AEE
102
{ACAD_REACTORS
330
5D3D
102
}
330
A
100
AcDbEntity
  8
CutoutUnderlay
  6
Continuous
100
AcDbLine
 10
502.9252329178332
 20
205.2251713603908
 30
0.0
 11
501.6401529178332
 21
204.8907883603908
 31
0.0
  0
LINE
  5
5AEF
102
{ACAD_REACTORS
330
5D3D
102
}
330
A
100
AcDbEntity
  8
CutoutUnderlay
  6
Continuous
100
AcDbLine
 10
501.6401529178332
 20
204.8907883603908
 30
0.0
 11
500.3542569178332
 21
204.5595623603908
 31
0.0
  0
LINE
  5
5AF0
102
{ACAD_REACTORS
330
5D3D
102
}
330
A
100
AcDbEntity
  8
CutoutUnderlay
  6
Continuous
100
AcDbLine
 10
500.3542569178332
 20
204.5595623603908
 30
0.0
 11
499.0678259178332
 21
204.2304193603908
 31
0.0
  0
LINE
  5
5AF1
102
{ACAD_REACTORS
330
5D3D
102
}
330
A
100
AcDbEntity
  8
CutoutUnderlay
  6
Continuous
100
AcDbLine
 10
499.0678259178332
 20
204.2304193603908
 30
0.0
 11
497.7810529178332
 21
203.9026183603908
 31
0.0
  0
LINE
  5
5AF2
102
{ACAD_REACTORS
330
5D3D
102
}
330
A
100
AcDbEntity
  8
CutoutUnderlay
  6
Continuous
100
AcDbLine
 10
497.7810529178332
 20
203.9026183603908
 30
0.0
 11
496.4937829178332
 21
203.5767613603908
 31
0.0
  0
LINE
  5
5AF3
102
{ACAD_REACTORS
330
5D3D
102
}
330
A
100
AcDbEntity
  8
CutoutUnderlay
  6
Continuous
100
AcDbLine
 10
496.4937829178332
 20
203.5767613603908
 30
0.0
 11
495.2057129178332
 21
203.2540853603908
 31
0.0
  0
LINE
  5
5AF4
102
{ACAD_REACTORS
330
5D3D
102
}
330
A
100
AcDbEntity
  8
CutoutUnderlay
  6
Continuous
100
AcDbLine
 10
495.2057129178332
 20
203.2540853603908
 30
0.0
 11
493.9151619178332
 21
202.9415113603908
 31
0.0
  0
LINE
  5
5AF5
102
{ACAD_REACTORS
330
5D3D
102
}
330
A
100
AcDbEntity
  8
CutoutUnderlay
  6
Continuous
100
AcDbLine
 10
493.9151619178332
 20
202.9415113603908
 30
0.0
 11
492.6216819178332
 21
202.6412713603908
 31
0.0
  0
LINE
  5
5AF6
102
{ACAD_REACTORS
330
5D3D
102
}
330
A
100
AcDbEntity
  8
CutoutUnderlay
  6
Continuous
100
AcDbLine
 10
492.6216819178332
 20
202.6412713603908
 30
0.0
 11
491.3265999178332
 21
202.3480053603908
 31
0.0
  0
LINE
  5
5AF7
102
{ACAD_REACTORS
330
5D3D
102
}
330
A
100
AcDbEntity
  8
CutoutUnderlay
  6
Continuous
100
AcDbLine
 10
491.3265999178332
 20
202.3480053603908
 30
0.0
 11
490.0307479178332
 21
202.0581513603908
 31
0.0
  0
LINE
  5
5AF8
102
{ACAD_REACTORS
330
5D3D
102
}
330
A
100
AcDbEntity
  8
CutoutUnderlay
  6
Continuous
100
AcDbLine
 10
490.0307479178332
 20
202.0581513603908
 30
0.0
 11
488.7338339178332
 21
201.7731053603908
 31
0.0
  0
LINE
  5
5AF9
102
{ACAD_REACTORS
330
5D3D
102
}
330
A
100
AcDbEntity
  8
CutoutUnderlay
  6
Continuous
100
AcDbLine
 10
488.7338339178332
 20
201.7731053603908
 30
0.0
 11
487.4337929178332
 21
201.5027143603908
 31
0.0
  0
LINE
  5
5AFA
102
{ACAD_REACTORS
330
5D3D
102
}
330
A
100
AcDbEntity
  8
CutoutUnderlay
  6
Continuous
100
AcDbLine
 10
487.4337929178332
 20
201.5027143603908
 30
0.0
 11
486.1315619178332
 21
201.2430343603908
 31
0.0
  0
LINE
  5
5AFB
102
{ACAD_REACTORS
330
5D3D
102
}
330
A
100
AcDbEntity
  8
CutoutUnderlay
  6
Continuous
100
AcDbLine
 10
486.1315619178332
 20
201.2430343603908
 30
0.0
 11
484.8284689178332
 21
200.9877413603908
 31
0.0
  0
LINE
  5
5AFC
102
{ACAD_REACTORS
330
5D3D
102
}
330
A
100
AcDbEntity
  8
CutoutUnderlay
  6
Continuous
100
AcDbLine
 10
484.8284689178332
 20
200.9877413603908
 30
0.0
 11
483.5228659178332
 21
200.7456513603908
 31
0.0
  0
LINE
  5
5AFD
102
{ACAD_REACTORS
330
5D3D
102
}
330
A
100
AcDbEntity
  8
CutoutUnderlay
  6
Continuous
100
AcDbLine
 10
483.5228659178332
 20
200.7456513603908
 30
0.0
 11
482.2147919178332
 21
200.5172023603908
 31
0.0
  0
LINE
  5
5AFE
102
{ACAD_REACTORS
330
5D3D
102
}
330
A
100
AcDbEntity
  8
CutoutUnderlay
  6
Continuous
100
AcDbLine
 10
482.2147919178332
 20
200.5172023603908
 30
0.0
 11
480.9058929178332
 21
200.2935773603908
 31
0.0
  0
LINE
  5
5AFF
102
{ACAD_REACTORS
330
5D3D
102
}
330
A
100
AcDbEntity
  8
CutoutUnderlay
  6
Continuous
100
AcDbLine
 10
480.9058929178332
 20
200.2935773603908
 30
0.0
 11
479.5952919178332
 21
200.0801813603908
 31
0.0
  0
LINE
  5
5B00
102
{ACAD_REACTORS
330
5D3D
102
}
330
A
100
AcDbEntity
  8
CutoutUnderlay
  6
Continuous
100
AcDbLine
 10
479.5952919178332
 20
200.0801813603908
 30
0.0
 11
478.2819609178332
 21
199.8841893603908
 31
0.0
  0
LINE
  5
5B01
102
{ACAD_REACTORS
330
5D3D
102
}
330
A
100
AcDbEntity
  8
CutoutUnderlay
  6
Continuous
100
AcDbLine
 10
478.2819609178332
 20
199.8841893603908
 30
0.0
 11
476.9677749178332
 21
199.6940743603908
 31
0.0
  0
LINE
  5
5B02
102
{ACAD_REACTORS
330
5D3D
102
}
330
A
100
AcDbEntity
  8
CutoutUnderlay
  6
Continuous
100
AcDbLine
 10
476.9677749178332
 20
199.6940743603908
 30
0.0
 11
475.6524749178332
 21
199.5118123603908
 31
0.0
  0
LINE
  5
5B03
102
{ACAD_REACTORS
330
5D3D
102
}
330
A
100
AcDbEntity
  8
CutoutUnderlay
  6
Continuous
100
AcDbLine
 10
475.6524749178332
 20
199.5118123603908
 30
0.0
 11
474.3344739178332
 21
199.3502713603908
 31
0.0
  0
LINE
  5
5B04
102
{ACAD_REACTORS
330
5D3D
102
}
330
A
100
AcDbEntity
  8
CutoutUnderlay
  6
Continuous
100
AcDbLine
 10
474.3344739178332
 20
199.3502713603908
 30
0.0
 11
473.0154199178332
 21
199.1974463603908
 31
0.0
  0
LINE
  5
5B05
102
{ACAD_REACTORS
330
5D3D
102
}
330
A
100
AcDbEntity
  8
CutoutUnderlay
  6
Continuous
100
AcDbLine
 10
473.0154199178332
 20
199.1974463603908
 30
0.0
 11
471.6958589178332
 21
199.0491173603908
 31
0.0
  0
LINE
  5
5B06
102
{ACAD_REACTORS
330
5D3D
102
}
330
A
100
AcDbEntity
  8
CutoutUnderlay
  6
Continuous
100
AcDbLine
 10
471.6958589178332
 20
199.0491173603908
 30
0.0
 11
470.3754089178332
 21
198.9088643603908
 31
0.0
  0
LINE
  5
5B07
102
{ACAD_REACTORS
330
5D3D
102
}
330
A
100
AcDbEntity
  8
CutoutUnderlay
  6
Continuous
100
AcDbLine
 10
470.3754089178332
 20
198.9088643603908
 30
0.0
 11
469.0531969178332
 21
198.7865603603908
 31
0.0
  0
LINE
  5
5B08
102
{ACAD_REACTORS
330
5D3D
102
}
330
A
100
AcDbEntity
  8
CutoutUnderlay
  6
Continuous
100
AcDbLine
 10
469.0531969178332
 20
198.7865603603908
 30
0.0
 11
467.7286849178332
 21
198.6920453603908
 31
0.0
  0
LINE
  5
5B09
102
{ACAD_REACTORS
330
5D3D
102
}
330
A
100
AcDbEntity
  8
CutoutUnderlay
  6
Continuous
100
AcDbLine
 10
467.7286849178332
 20
198.6920453603908
 30
0.0
 11
466.4031879178332
 21
198.6127183603908
 31
0.0
  0
LINE
  5
5B0A
102
{ACAD_REACTORS
330
5D3D
102
}
330
A
100
AcDbEntity
  8
CutoutUnderlay
  6
Continuous
100
AcDbLine
 10
466.4031879178332
 20
198.6127183603908
 30
0.0
 11
465.0771459178332
 21
198.5426883603908
 31
0.0
  0
LINE
  5
5B0B
102
{ACAD_REACTORS
330
5D3D
102
}
330
A
100
AcDbEntity
  8
CutoutUnderlay
  6
Continuous
100
AcDbLine
 10
465.0771459178332
 20
198.5426883603908
 30
0.0
 11
463.7508139178332
 21
198.4781053603908
 31
0.0
  0
LINE
  5
5B0C
102
{ACAD_REACTORS
330
5D3D
102
}
330
A
100
AcDbEntity
  8
CutoutUnderlay
  6
Continuous
100
AcDbLine
 10
463.7508139178332
 20
198.4781053603908
 30
0.0
 11
462.4241839178332
 21
198.4206193603908
 31
0.0
  0
LINE
  5
5B0D
102
{ACAD_REACTORS
330
5D3D
102
}
330
A
100
AcDbEntity
  8
CutoutUnderlay
  6
Continuous
100
AcDbLine
 10
462.4241839178332
 20
198.4206193603908
 30
0.0
 11
461.0970999178332
 21
198.3746643603908
 31
0.0
  0
LINE
  5
5B0E
102
{ACAD_REACTORS
330
5D3D
102
}
330
A
100
AcDbEntity
  8
CutoutUnderlay
  6
Continuous
100
AcDbLine
 10
461.0970999178332
 20
198.3746643603908
 30
0.0
 11
459.7694939178332
 21
198.3493913603908
 31
0.0
  0
LINE
  5
5B0F
102
{ACAD_REACTORS
330
5D3D
102
}
330
A
100
AcDbEntity
  8
CutoutUnderlay
  6
Continuous
100
AcDbLine
 10
459.7694939178332
 20
198.3493913603908
 30
0.0
 11
458.4416129178332
 21
198.3463803603908
 31
0.0
  0
LINE
  5
5B10
102
{ACAD_REACTORS
330
5D3D
102
}
330
A
100
AcDbEntity
  8
CutoutUnderlay
  6
Continuous
100
AcDbLine
 10
458.4416129178332
 20
198.3463803603908
 30
0.0
 11
457.1137589178332
 21
198.3525423603908
 31
0.0
  0
LINE
  5
5B11
102
{ACAD_REACTORS
330
5D3D
102
}
330
A
100
AcDbEntity
  8
CutoutUnderlay
  6
Continuous
100
AcDbLine
 10
457.1137589178332
 20
198.3525423603908
 30
0.0
 11
455.7859279178332
 21
198.3631433603908
 31
0.0
  0
LINE
  5
5B12
102
{ACAD_REACTORS
330
5D3D
102
}
330
A
100
AcDbEntity
  8
CutoutUnderlay
  6
Continuous
100
AcDbLine
 10
455.7859279178332
 20
198.3631433603908
 30
0.0
 11
454.4581459178332
 21
198.3786183603908
 31
0.0
  0
LINE
  5
5B13
102
{ACAD_REACTORS
330
5D3D
102
}
330
A
100
AcDbEntity
  8
CutoutUnderlay
  6
Continuous
100
AcDbLine
 10
454.4581459178332
 20
198.3786183603908
 30
0.0
 11
453.1305819178332
 21
198.4066083603908
 31
0.0
  0
LINE
  5
5B14
102
{ACAD_REACTORS
330
5D3D
102
}
330
A
100
AcDbEntity
  8
CutoutUnderlay
  6
Continuous
100
AcDbLine
 10
453.1305819178332
 20
198.4066083603908
 30
0.0
 11
451.8032769178332
 21
198.4453483603908
 31
0.0
  0
LINE
  5
5B15
102
{ACAD_REACTORS
330
5D3D
102
}
330
A
100
AcDbEntity
  8
CutoutUnderlay
  6
Continuous
100
AcDbLine
 10
451.8032769178332
 20
198.4453483603908
 30
0.0
 11
450.4760679178332
 21
198.4871843603908
 31
0.0
  0
LINE
  5
5B16
102
{ACAD_REACTORS
330
5D3D
102
}
330
A
100
AcDbEntity
  8
CutoutUnderlay
  6
Continuous
100
AcDbLine
 10
450.4760679178332
 20
198.4871843603908
 30
0.0
 11
449.1490989178332
 21
198.5359993603908
 31
0.0
  0
LINE
  5
5B17
102
{ACAD_REACTORS
330
5D3D
102
}
330
A
100
AcDbEntity
  8
CutoutUnderlay
  6
Continuous
100
AcDbLine
 10
449.1490989178332
 20
198.5359993603908
 30
0.0
 11
447.8224269178332
 21
198.5923633603908
 31
0.0
  0
LINE
  5
5B18
102
{ACAD_REACTORS
330
5D3D
102
}
330
A
100
AcDbEntity
  8
CutoutUnderlay
  6
Continuous
100
AcDbLine
 10
447.8224269178332
 20
198.5923633603908
 30
0.0
 11
446.4958359178332
 21
198.6505943603908
 31
0.0
  0
LINE
  5
5B19
102
{ACAD_REACTORS
330
5D3D
102
}
330
A
100
AcDbEntity
  8
CutoutUnderlay
  6
Continuous
100
AcDbLine
 10
446.4958359178332
 20
198.6505943603908
 30
0.0
 11
445.1693659178332
 21
198.7115243603908
 31
0.0
  0
LINE
  5
5B1A
102
{ACAD_REACTORS
330
5D3D
102
}
330
A
100
AcDbEntity
  8
CutoutUnderlay
  6
Continuous
100
AcDbLine
 10
445.1693659178332
 20
198.7115243603908
 30
0.0
 11
443.8430449178332
 21
198.7757163603908
 31
0.0
  0
LINE
  5
5B1B
102
{ACAD_REACTORS
330
5D3D
102
}
330
A
100
AcDbEntity
  8
CutoutUnderlay
  6
Continuous
100
AcDbLine
 10
443.8430449178332
 20
198.7757163603908
 30
0.0
 11
442.5167359178332
 21
198.8400263603908
 31
0.0
  0
LINE
  5
5B1C
102
{ACAD_REACTORS
330
5D3D
102
}
330
A
100
AcDbEntity
  8
CutoutUnderlay
  6
Continuous
100
AcDbLine
 10
442.5167359178332
 20
198.8400263603908
 30
0.0
 11
441.1904229178332
 21
198.9043213603908
 31
0.0
  0
LINE
  5
5B1D
102
{ACAD_REACTORS
330
5D3D
102
}
330
A
100
AcDbEntity
  8
CutoutUnderlay
  6
Continuous
100
AcDbLine
 10
441.1904229178332
 20
198.9043213603908
 30
0.0
 11
439.8638429178332
 21
198.9629003603908
 31
0.0
  0
LINE
  5
5B1E
102
{ACAD_REACTORS
330
5D3D
102
}
330
A
100
AcDbEntity
  8
CutoutUnderlay
  6
Continuous
100
AcDbLine
 10
439.8638429178332
 20
198.9629003603908
 30
0.0
 11
438.5369619178332
 21
199.0140703603908
 31
0.0
  0
LINE
  5
5B1F
102
{ACAD_REACTORS
330
5D3D
102
}
330
A
100
AcDbEntity
  8
CutoutUnderlay
  6
Continuous
100
AcDbLine
 10
438.5369619178332
 20
199.0140703603908
 30
0.0
 11
437.2099509178332
 21
199.0600623603908
 31
0.0
  0
LINE
  5
5B20
102
{ACAD_REACTORS
330
5D3D
102
}
330
A
100
AcDbEntity
  8
CutoutUnderlay
  6
Continuous
100
AcDbLine
 10
437.2099509178332
 20
199.0600623603908
 30
0.0
 11
435.8827199178332
 21
199.1032353603908
 31
0.0
  0
LINE
  5
5B21
102
{ACAD_REACTORS
330
5D3D
102
}
330
A
100
AcDbEntity
  8
CutoutUnderlay
  6
Continuous
100
AcDbLine
 10
435.8827199178332
 20
199.1032353603908
 30
0.0
 11
434.5551769178332
 21
199.1400523603908
 31
0.0
  0
LINE
  5
5B22
102
{ACAD_REACTORS
330
5D3D
102
}
330
A
100
AcDbEntity
  8
CutoutUnderlay
  6
Continuous
100
AcDbLine
 10
434.5551769178332
 20
199.1400523603908
 30
0.0
 11
433.2275359178332
 21
199.1441343603908
 31
0.0
  0
LINE
  5
5B23
102
{ACAD_REACTORS
330
5D3D
102
}
330
A
100
AcDbEntity
  8
CutoutUnderlay
  6
Continuous
100
AcDbLine
 10
433.2275359178332
 20
199.1441343603908
 30
0.0
 11
431.8999469178332
 21
199.1115853603908
 31
0.0
  0
LINE
  5
5B3F
102
{ACAD_REACTORS
330
5D3D
102
}
330
A
100
AcDbEntity
  8
CutoutUnderlay
  6
Continuous
100
AcDbLine
 10
440.0972549178332
 20
187.4788093603908
 30
0.0
 11
438.8435699178332
 21
187.4873333603908
 31
0.0
  0
LINE
  5
5B40
102
{ACAD_REACTORS
330
5D3D
102
}
330
A
100
AcDbEntity
  8
CutoutUnderlay
  6
Continuous
100
AcDbLine
 10
438.8435699178332
 20
187.4873333603908
 30
0.0
 11
437.5899649178332
 21
187.4677433603908
 31
0.0
  0
LINE
  5
5B41
102
{ACAD_REACTORS
330
5D3D
102
}
330
A
100
AcDbEntity
  8
CutoutUnderlay
  6
Continuous
100
AcDbLine
 10
437.5899649178332
 20
187.4677433603908
 30
0.0
 11
436.3373899178332
 21
187.4118833603908
 31
0.0
  0
LINE
  5
5B42
102
{ACAD_REACTORS
330
5D3D
102
}
330
A
100
AcDbEntity
  8
CutoutUnderlay
  6
Continuous
100
AcDbLine
 10
436.3373899178332
 20
187.4118833603908
 30
0.0
 11
435.0877219178332
 21
187.3089613603908
 31
0.0
  0
LINE
  5
5B43
102
{ACAD_REACTORS
330
5D3D
102
}
330
A
100
AcDbEntity
  8
CutoutUnderlay
  6
Continuous
100
AcDbLine
 10
435.0877219178332
 20
187.3089613603908
 30
0.0
 11
433.8436749178332
 21
187.1495823603908
 31
0.0
  0
LINE
  5
5B44
102
{ACAD_REACTORS
330
5D3D
102
}
330
A
100
AcDbEntity
  8
CutoutUnderlay
  6
Continuous
100
AcDbLine
 10
433.8436749178332
 20
187.1495823603908
 30
0.0
 11
432.6089639178332
 21
186.9287603603908
 31
0.0
  0
LINE
  5
5B45
102
{ACAD_REACTORS
330
5D3D
102
}
330
A
100
AcDbEntity
  8
CutoutUnderlay
  6
Continuous
100
AcDbLine
 10
432.6089639178332
 20
186.9287603603908
 30
0.0
 11
431.3877119178332
 21
186.6420203603908
 31
0.0
  0
LINE
  5
5B46
102
{ACAD_REACTORS
330
5D3D
102
}
330
A
100
AcDbEntity
  8
CutoutUnderlay
  6
Continuous
100
AcDbLine
 10
431.3877119178332
 20
186.6420203603908
 30
0.0
 11
430.1852119178332
 21
186.2850063603908
 31
0.0
  0
LINE
  5
5B47
102
{ACAD_REACTORS
330
5D3D
102
}
330
A
100
AcDbEntity
  8
CutoutUnderlay
  6
Continuous
100
AcDbLine
 10
430.1852119178332
 20
186.2850063603908
 30
0.0
 11
429.0073849178332
 21
185.8530603603908
 31
0.0
  0
LINE
  5
5B48
102
{ACAD_REACTORS
330
5D3D
102
}
330
A
100
AcDbEntity
  8
CutoutUnderlay
  6
Continuous
100
AcDbLine
 10
429.0073849178332
 20
185.8530603603908
 30
0.0
 11
427.8627619178332
 21
185.3389763603908
 31
0.0
  0
LINE
  5
5B49
102
{ACAD_REACTORS
330
5D3D
102
}
330
A
100
AcDbEntity
  8
CutoutUnderlay
  6
Continuous
100
AcDbLine
 10
427.8627619178332
 20
185.3389763603908
 30
0.0
 11
426.7614509178332
 21
184.7343173603908
 31
0.0
  0
LINE
  5
5B4A
102
{ACAD_REACTORS
330
5D3D
102
}
330
A
100
AcDbEntity
  8
CutoutUnderlay
  6
Continuous
100
AcDbLine
 10
426.7614509178332
 20
184.7343173603908
 30
0.0
 11
425.7212629178332
 21
184.0298483603908
 31
0.0
  0
LINE
  5
5B4B
102
{ACAD_REACTORS
330
5D3D
102
}
330
A
100
AcDbEntity
  8
CutoutUnderlay
  6
Continuous
100
AcDbLine
 10
425.7212629178332
 20
184.0298483603908
 30
0.0
 11
424.7673389178332
 21
183.2158093603908
 31
0.0
  0
LINE
  5
5B4C
102
{ACAD_REACTORS
330
5D3D
102
}
330
A
100
AcDbEntity
  8
CutoutUnderlay
  6
Continuous
100
AcDbLine
 10
424.7673389178332
 20
183.2158093603908
 30
0.0
 11
423.9115839178332
 21
182.2975403603908
 31
0.0
  0
LINE
  5
5B4D
102
{ACAD_REACTORS
330
5D3D
102
}
330
A
100
AcDbEntity
  8
CutoutUnderlay
  6
Continuous
100
AcDbLine
 10
423.9115839178332
 20
182.2975403603908
 30
0.0
 11
423.1447259178332
 21
181.3036753603908
 31
0.0
  0
LINE
  5
5B4E
102
{ACAD_REACTORS
330
5D3D
102
}
330
A
100
AcDbEntity
  8
CutoutUnderlay
  6
Continuous
100
AcDbLine
 10
423.1447259178332
 20
181.3036753603908
 30
0.0
 11
422.4484529178332
 21
180.2607833603908
 31
0.0
  0
LINE
  5
5B4F
102
{ACAD_REACTORS
330
5D3D
102
}
330
A
100
AcDbEntity
  8
CutoutUnderlay
  6
Continuous
100
AcDbLine
 10
422.4484529178332
 20
180.2607833603908
 30
0.0
 11
421.7956799178332
 21
179.1900933603908
 31
0.0
  0
LINE
  5
5B50
102
{ACAD_REACTORS
330
5D3D
102
}
330
A
100
AcDbEntity
  8
CutoutUnderlay
  6
Continuous
100
AcDbLine
 10
421.7956799178332
 20
179.1900933603908
 30
0.0
 11
421.1658539178332
 21
178.1060603603908
 31
0.0
  0
LINE
  5
5B51
102
{ACAD_REACTORS
330
5D3D
102
}
330
A
100
AcDbEntity
  8
CutoutUnderlay
  6
Continuous
100
AcDbLine
 10
421.1658539178332
 20
178.1060603603908
 30
0.0
 11
420.5459529178332
 21
177.0163183603908
 31
0.0
  0
LINE
  5
5B52
102
{ACAD_REACTORS
330
5D3D
102
}
330
A
100
AcDbEntity
  8
CutoutUnderlay
  6
Continuous
100
AcDbLine
 10
420.5459529178332
 20
177.0163183603908
 30
0.0
 11
419.9276399178332
 21
175.9256763603908
 31
0.0
  0
LINE
  5
5B53
102
{ACAD_REACTORS
330
5D3D
102
}
330
A
100
AcDbEntity
  8
CutoutUnderlay
  6
Continuous
100
AcDbLine
 10
419.9276399178332
 20
175.9256763603908
 30
0.0
 11
419.3097779178332
 21
174.8347833603908
 31
0.0
  0
LINE
  5
5B67
102
{ACAD_REACTORS
330
5D3D
102
}
330
A
100
AcDbEntity
  8
CutoutUnderlay
  6
Continuous
100
AcDbLine
 10
400.4321929178332
 20
189.3200643603909
 30
0.0
 11
401.7796099178332
 21
190.4949973603909
 31
0.0
  0
LINE
  5
5B68
102
{ACAD_REACTORS
330
5D3D
102
}
330
A
100
AcDbEntity
  8
CutoutUnderlay
  6
Continuous
100
AcDbLine
 10
401.7796099178332
 20
190.4949973603909
 30
0.0
 11
403.1517019178332
 21
191.6327683603909
 31
0.0
  0
LINE
  5
5B69
102
{ACAD_REACTORS
330
5D3D
102
}
330
A
100
AcDbEntity
  8
CutoutUnderlay
  6
Continuous
100
AcDbLine
 10
403.1517019178332
 20
191.6327683603909
 30
0.0
 11
404.5731399178332
 21
192.6962153603909
 31
0.0
  0
LINE
  5
5B6A
102
{ACAD_REACTORS
330
5D3D
102
}
330
A
100
AcDbEntity
  8
CutoutUnderlay
  6
Continuous
100
AcDbLine
 10
404.5731399178332
 20
192.6962153603909
 30
0.0
 11
406.0679169178332
 21
193.6490363603909
 31
0.0
  0
LINE
  5
5B6B
102
{ACAD_REACTORS
330
5D3D
102
}
330
A
100
AcDbEntity
  8
CutoutUnderlay
  6
Continuous
100
AcDbLine
 10
406.0679169178332
 20
193.6490363603909
 30
0.0
 11
407.6394539178332
 21
194.4808693603909
 31
0.0
  0
LINE
  5
5B6C
102
{ACAD_REACTORS
330
5D3D
102
}
330
A
100
AcDbEntity
  8
CutoutUnderlay
  6
Continuous
100
AcDbLine
 10
407.6394539178332
 20
194.4808693603909
 30
0.0
 11
409.2674639178332
 21
195.2112523603909
 31
0.0
  0
LINE
  5
5B6D
102
{ACAD_REACTORS
330
5D3D
102
}
330
A
100
AcDbEntity
  8
CutoutUnderlay
  6
Continuous
100
AcDbLine
 10
409.2674639178332
 20
195.2112523603909
 30
0.0
 11
410.9303559178332
 21
195.8613693603909
 31
0.0
  0
LINE
  5
5B6E
102
{ACAD_REACTORS
330
5D3D
102
}
330
A
100
AcDbEntity
  8
CutoutUnderlay
  6
Continuous
100
AcDbLine
 10
410.9303559178332
 20
195.8613693603909
 30
0.0
 11
412.6119929178332
 21
196.4476063603909
 31
0.0
  0
LINE
  5
5B6F
102
{ACAD_REACTORS
330
5D3D
102
}
330
A
100
AcDbEntity
  8
CutoutUnderlay
  6
Continuous
100
AcDbLine
 10
412.6119929178332
 20
196.4476063603909
 30
0.0
 11
414.3101969178332
 21
196.9740693603909
 31
0.0
  0
LINE
  5
5B70
102
{ACAD_REACTORS
330
5D3D
102
}
330
A
100
AcDbEntity
  8
CutoutUnderlay
  6
Continuous
100
AcDbLine
 10
414.3101969178332
 20
196.9740693603909
 30
0.0
 11
416.0249839178332
 21
197.4429113603909
 31
0.0
  0
LINE
  5
5B71
102
{ACAD_REACTORS
330
5D3D
102
}
330
A
100
AcDbEntity
  8
CutoutUnderlay
  6
Continuous
100
AcDbLine
 10
416.0249839178332
 20
197.4429113603909
 30
0.0
 11
417.7556129178332
 21
197.8547213603909
 31
0.0
  0
LINE
  5
5B72
102
{ACAD_REACTORS
330
5D3D
102
}
330
A
100
AcDbEntity
  8
CutoutUnderlay
  6
Continuous
100
AcDbLine
 10
417.7556129178332
 20
197.8547213603909
 30
0.0
 11
419.4998309178332
 21
198.2069963603909
 31
0.0
  0
LINE
  5
5B73
102
{ACAD_REACTORS
330
5D3D
102
}
330
A
100
AcDbEntity
  8
CutoutUnderlay
  6
Continuous
100
AcDbLine
 10
419.4998309178332
 20
198.2069963603909
 30
0.0
 11
421.2552209178332
 21
198.4969043603909
 31
0.0
  0
LINE
  5
5B74
102
{ACAD_REACTORS
330
5D3D
102
}
330
A
100
AcDbEntity
  8
CutoutUnderlay
  6
Continuous
100
AcDbLine
 10
421.2552209178332
 20
198.4969043603909
 30
0.0
 11
423.0195179178332
 21
198.7226353603909
 31
0.0
  0
LINE
  5
5B75
102
{ACAD_REACTORS
330
5D3D
102
}
330
A
100
AcDbEntity
  8
CutoutUnderlay
  6
Continuous
100
AcDbLine
 10
423.0195179178332
 20
198.7226353603909
 30
0.0
 11
424.7906279178331
 21
198.8844333603909
 31
0.0
  0
LINE
  5
5B76
102
{ACAD_REACTORS
330
5D3D
102
}
330
A
100
AcDbEntity
  8
CutoutUnderlay
  6
Continuous
100
AcDbLine
 10
424.7906279178331
 20
198.8844333603909
 30
0.0
 11
426.5660829178332
 21
198.9921223603909
 31
0.0
  0
LINE
  5
5B77
102
{ACAD_REACTORS
330
5D3D
102
}
330
A
100
AcDbEntity
  8
CutoutUnderlay
  6
Continuous
100
AcDbLine
 10
426.5660829178332
 20
198.9921223603909
 30
0.0
 11
428.3433869178332
 21
199.0606803603909
 31
0.0
  0
LINE
  5
5B78
102
{ACAD_REACTORS
330
5D3D
102
}
330
A
100
AcDbEntity
  8
CutoutUnderlay
  6
Continuous
100
AcDbLine
 10
428.3433869178332
 20
199.0606803603909
 30
0.0
 11
430.1214859178332
 21
199.0971223603909
 31
0.0
  0
LINE
  5
5B79
102
{ACAD_REACTORS
330
5D3D
102
}
330
A
100
AcDbEntity
  8
CutoutUnderlay
  6
Continuous
100
AcDbLine
 10
430.1214859178332
 20
199.0971223603909
 30
0.0
 11
431.8999469178332
 21
199.1115853603909
 31
0.0
  0
TEXT
  5
5BBB
330
A
100
AcDbEntity
  8
テンプレート
100
AcDbText
 10
313.0505831322697
 20
44.82304125840494
 30
0.0
 40
4.0
  1
MIWAケース：37～54
  7
ＭＳ ゴシック
100
AcDbText
  0
TEXT
  5
5BBC
330
A
100
AcDbEntity
  8
テンプレート
100
AcDbText
 10
313.0505831322697
 20
39.8279918743558
 30
0.0
 40
4.0
  1
ユーロケース(DIN規格)：36～54
  7
ＭＳ ゴシック
100
AcDbText
  0
DIMENSION
  5
5C22
330
A
100
AcDbEntity
  8
寸法
  6
Continuous
100
AcDbDimension
  2
*D48
 10
112.4325120145532
 20
378.7852477434632
 30
0.0
 11
108.1825120145532
 21
378.7852477434632
 31
0.0
 70
   160
 71
     5
 42
8.5
 73
     0
 74
     0
 75
     0
  3
tfrom線あり
100
AcDbAlignedDimension
 13
103.9325120145532
 23
367.0686993856674
 33
0.0
 14
112.4325120145532
 24
367.0686993856674
 34
0.0
100
AcDbRotatedDimension
1001
ACAD
1000
DSTYLE
1002
{
1070
   271
1070
     1
1002
}
  0
LINE
  5
5C25
330
A
100
AcDbEntity
  8
MODEL
  6
Continuous
100
AcDbLine
 10
110.6317432308796
 20
354.7335990428102
 30
0.0
 11
105.7332807982266
 21
354.7335990428102
 31
0.0
  0
LINE
  5
5C26
330
A
100
AcDbEntity
  8
MODEL
  6
Continuous
100
AcDbLine
 10
112.4325120145532
 20
348.7335990428102
 30
0.0
 11
110.6317432308797
 21
354.7335990428102
 31
0.0
  0
LINE
  5
5C27
330
A
100
AcDbEntity
  8
MODEL
  6
Continuous
100
AcDbLine
 10
103.9325120145532
 20
348.7335990428102
 30
0.0
 11
105.7332807982266
 21
354.7335990428102
 31
0.0
  0
DIMENSION
  5
5C28
330
A
100
AcDbEntity
  8
寸法
  6
Continuous
100
AcDbDimension
  2
*D49
 10
169.1440199581582
 20
348.7335990428102
 30
0.0
 11
169.1440199581582
 21
351.7335990428102
 31
0.0
 70
   160
 71
     5
 42
5.999999999999943
 73
     0
 74
     0
 75
     0
  3
tfrom線あり
100
AcDbAlignedDimension
 13
148.7210231602584
 23
354.7335990428102
 33
0.0
 14
154.4759396838725
 24
348.7335990428102
 34
0.0
 50
90.0
100
AcDbRotatedDimension
  0
LINE
  5
5C2A
330
A
100
AcDbEntity
  8
MODEL
  6
Continuous
100
AcDbLine
 10
150.4325120145532
 20
348.7335990428102
 30
0.0
 11
148.6317432308797
 21
354.7335990428102
 31
0.0
  0
LINE
  5
5C2B
330
A
100
AcDbEntity
  8
MODEL
  6
Continuous
100
AcDbLine
 10
148.6317432308797
 20
354.7335990428102
 30
0.0
 11
143.7332807982266
 21
354.7335990428102
 31
0.0
  0
LINE
  5
5C2C
330
A
100
AcDbEntity
  8
MODEL
  6
Continuous
100
AcDbLine
 10
141.9325120145532
 20
348.7335990428102
 30
0.0
 11
143.7332807982266
 21
354.7335990428102
 31
0.0
  0
LINE
  5
5C8E
330
A
100
AcDbEntity
  8
MODEL
  6
Continuous
100
AcDbLine
 10
127.1816507401139
 20
185.1128469200378
 30
0.0
 11
121.181650740114
 21
183.3120781363644
 31
0.0
  0
LINE
  5
5C8F
330
A
100
AcDbEntity
  8
MODEL
  6
Continuous
100
AcDbLine
 10
121.1816507401139
 20
183.3120781363643
 30
0.0
 11
121.1816507401139
 21
178.4136157037113
 31
0.0
  0
LINE
  5
5C90
330
A
100
AcDbEntity
  8
MODEL
  6
Continuous
100
AcDbLine
 10
127.1816507401139
 20
176.6128469200378
 30
0.0
 11
121.181650740114
 21
178.4136157037113
 31
0.0
  0
MTEXT
  5
5CED
102
{ACAD_XDICTIONARY
360
5CEE
102
}
330
A
100
AcDbEntity
  8
寸法
  6
Continuous
370
     0
100
AcDbMText
 10
16.03746315898579
 20
23.37395828580276
 30
0.0
 40
4.0
 41
0.0
 46
4.0
 71
     1
 72
     1
  1
{20180416N}
  7
ＭＳ ゴシック
 73
     1
 44
1.0
1001
ACAD
1000
ACAD_MTEXT_DEFINED_HEIGHT_BEGIN
1070
    46
1040
4.0
1000
ACAD_MTEXT_DEFINED_HEIGHT_END
  0
LINE
  5
5CF3
330
A
100
AcDbEntity
  8
テンプレート
  6
Continuous
100
AcDbLine
 10
33.63100153769656
 20
26.22153683920783
 30
0.0
 11
33.63100153769656
 21
50.16496477419605
 31
0.0
  0
TEXT
  5
5D88
330
A
100
AcDbEntity
  8
テンプレート
100
AcDbText
 10
187.3255251873665
 20
95.58845453164052
 30
0.0
 40
5.0
  1
　 加工は現物合わせの上行って下さい。
  7
ＭＳ ゴシック
100
AcDbText
  0
TEXT
  5
5D89
330
A
100
AcDbEntity
  8
テンプレート
100
AcDbText
 10
187.4977682695751
 20
103.6922386277807
 30
0.0
 40
5.0
  1
※ 輸入製品の為、国内製品と比べ製品寸法の個体差に幅が有ります。
  7
ＭＳ ゴシック
100
AcDbText
  0
TEXT
  5
5D8A
330
A
100
AcDbEntity
  8
テンプレート
100
AcDbText
 10
187.3255251873665
 20
86.21682322716002
 30
0.0
 40
5.0
  1
※ ご注文の際は正確な扉厚の指示をしてください。
  7
ＭＳ ゴシック
100
AcDbText
  0
TEXT
  5
5D8B
330
A
100
AcDbEntity
  8
テンプレート
100
AcDbText
 10
187.3255251873665
 20
77.5173345961741
 30
0.0
 40
5.0
  1
※ イモネジ・ビスのゆるみ止め防止のために金属製ネジ用ゆるみ止め剤(中強度タイプ)
  7
ＭＳ ゴシック
100
AcDbText
  0
TEXT
  5
5D8C
330
A
100
AcDbEntity
  8
テンプレート
100
AcDbText
 10
183.5610795085161
 20
68.07646144979785
 30
0.0
 40
5.0
  1
　　を用意して塗布してください。(推奨商品　住友3M社TL42J等)
  7
ＭＳ ゴシック
100
AcDbText
  0
MTEXT
  5
5DE5
330
A
100
AcDbEntity
  8
テンプレート
390
1D
100
AcDbMText
 10
35.02123153496908
 20
34.57354675141926
 30
0.0
 40
5.0
 41
0.0
 46
5.205
 71
     1
 72
     1
  1
{アルミ}
  7
ＭＳ ゴシック
 73
     1
 44
0.7828267384257843
1001
ACAD
1000
ACAD_MTEXT_DEFINED_HEIGHT_BEGIN
1070
    46
1040
5.205
1000
ACAD_MTEXT_DEFINED_HEIGHT_END
  0
MTEXT
  5
5DE7
330
A
100
AcDbEntity
  8
テンプレート
390
1D
100
AcDbMText
 10
34.78893721489681
 20
43.13396992254107
 30
0.0
 40
3.0
 41
0.0
 46
3.168
 71
     1
 72
     1
  1
{シャンパンシルバー}
  7
ＭＳ ゴシック
 73
     1
 44
0.7828267384257843
1001
ACAD
1000
ACAD_MTEXT_DEFINED_HEIGHT_BEGIN
1070
    46
1040
3.168
1000
ACAD_MTEXT_DEFINED_HEIGHT_END
  0
MTEXT
  5
5DE8
330
A
100
AcDbEntity
  8
テンプレート
390
1D
100
AcDbMText
 10
34.78893721489681
 20
48.77911613324934
 30
0.0
 40
3.0
 41
0.0
 46
3.168
 71
     1
 72
     1
  1
{ナチュラル}
  7
ＭＳ ゴシック
 73
     1
 44
0.7828267384257843
1001
ACAD
1000
ACAD_MTEXT_DEFINED_HEIGHT_BEGIN
1070
    46
1040
3.168
1000
ACAD_MTEXT_DEFINED_HEIGHT_END
  0
MTEXT
  5
5DE9
330
A
100
AcDbEntity
  8
テンプレート
390
1D
100
AcDbMText
 10
88.87425041605846
 20
43.13396992254107
 30
0.0
 40
3.0
 41
0.0
 46
3.045
 71
     1
 72
     1
  1
{ライトブロンズ}
  7
ＭＳ ゴシック
 73
     1
 44
0.7828267384257843
1001
ACAD
1000
ACAD_MTEXT_DEFINED_HEIGHT_BEGIN
1070
    46
1040
3.045
1000
ACAD_MTEXT_DEFINED_HEIGHT_END
  0
MTEXT
  5
5DEA
330
A
100
AcDbEntity
  8
テンプレート
390
1D
100
AcDbMText
 10
88.87425041605846
 20
48.77911613324933
 30
0.0
 40
3.0
 41
0.0
 46
3.138
 71
     1
 72
     1
  1
{ゴールドブラスト}
  7
ＭＳ ゴシック
 73
     1
 44
0.7828267384257843
1001
ACAD
1000
ACAD_MTEXT_DEFINED_HEIGHT_BEGIN
1070
    46
1040
3.138
1000
ACAD_MTEXT_DEFINED_HEIGHT_END
  0
MTEXT
  5
5DEB
330
A
100
AcDbEntity
  8
テンプレート
390
1D
100
AcDbMText
 10
139.8343001147318
 20
43.13396992254113
 30
0.0
 40
3.0
 41
0.0
 46
3.045
 71
     1
 72
     1
  1
{ダークブロンズ}
  7
ＭＳ ゴシック
 73
     1
 44
0.7828267384257843
1001
ACAD
1000
ACAD_MTEXT_DEFINED_HEIGHT_BEGIN
1070
    46
1040
3.045
1000
ACAD_MTEXT_DEFINED_HEIGHT_END
  0
MTEXT
  5
5DEC
330
A
100
AcDbEntity
  8
テンプレート
390
1D
100
AcDbMText
 10
139.8343001147318
 20
48.77911613324939
 30
0.0
 40
3.0
 41
0.0
 46
3.045
 71
     1
 72
     1
  1
{ミディアムブロンズ}
  7
ＭＳ ゴシック
 73
     1
 44
0.7828267384257843
1001
ACAD
1000
ACAD_MTEXT_DEFINED_HEIGHT_BEGIN
1070
    46
1040
3.045
1000
ACAD_MTEXT_DEFINED_HEIGHT_END
  0
MTEXT
  5
5DED
330
A
100
AcDbEntity
  8
テンプレート
390
1D
100
AcDbMText
 10
194.0581809025754
 20
48.77911613324942
 30
0.0
 40
3.0
 41
0.0
 46
3.138
 71
     1
 72
     1
  1
{ブラックブラスト}
  7
ＭＳ ゴシック
 73
     1
 44
0.7828267384257843
1001
ACAD
1000
ACAD_MTEXT_DEFINED_HEIGHT_BEGIN
1070
    46
1040
3.138
1000
ACAD_MTEXT_DEFINED_HEIGHT_END
  0
LINE
  5
5DEE
330
A
100
AcDbEntity
  8
テンプレート
  6
Continuous
100
AcDbLine
 10
191.6929578215278
 20
50.16496477419608
 30
0.0
 11
191.6929578215278
 21
38.278108904221
 31
0.0
  0
LINE
  5
5DEF
330
A
100
AcDbEntity
  8
テンプレート
  6
Continuous
100
AcDbLine
 10
137.2622548266091
 20
50.16496477419606
 30
0.0
 11
137.2622548266091
 21
38.27810890422099
 31
0.0
  0
LINE
  5
5DF0
330
A
100
AcDbEntity
  8
テンプレート
  6
Continuous
100
AcDbLine
 10
86.44498978318508
 20
50.16496477419605
 30
0.0
 11
86.44498978318518
 21
38.27810890422097
 31
0.0
  0
LINE
  5
5DF1
330
A
100
AcDbEntity
  8
テンプレート
  6
Continuous
100
AcDbLine
 10
296.9999999999999
 20
44.22153683920783
 30
0.0
 11
33.63100153769662
 21
44.22153683920783
 31
0.0
  0
LINE
  5
5DF2
330
A
100
AcDbEntity
  8
テンプレート
  6
Continuous
100
AcDbLine
 10
241.5029147091358
 20
50.16496477419611
 30
0.0
 11
241.5029147091358
 21
26.22153683920783
 31
0.0
  0
MTEXT
  5
5DF3
330
A
100
AcDbEntity
  8
テンプレート
390
1D
100
AcDbMText
 10
243.8681377901834
 20
48.77911613324945
 30
0.0
 40
3.0
 41
0.0
 46
3.045
 71
     1
 72
     1
  1
{ポリッシュワックス}
  7
ＭＳ ゴシック
 73
     1
 44
0.7828267384257843
1001
ACAD
1000
ACAD_MTEXT_DEFINED_HEIGHT_BEGIN
1070
    46
1040
3.045
1000
ACAD_MTEXT_DEFINED_HEIGHT_END
  0
MTEXT
  5
5DF5
330
A
100
AcDbEntity
  8
テンプレート
390
1D
100
AcDbMText
 10
244.246329063753
 20
34.57354675141929
 30
0.0
 40
5.0
 41
0.0
 46
5.585
 71
     1
 72
     1
  1
{真鍮}
  7
ＭＳ ゴシック
 73
     1
 44
0.7828267384257843
1001
ACAD
1000
ACAD_MTEXT_DEFINED_HEIGHT_BEGIN
1070
    46
1040
5.585
1000
ACAD_MTEXT_DEFINED_HEIGHT_END
  0
DIMENSION
  5
5E0B
330
A
100
AcDbEntity
  8
寸法
  6
Continuous
370
     0
100
AcDbDimension
  2
*D50
 10
255.2209978181818
 20
264.1100474077741
 30
0.0
 11
250.7209978181818
 21
284.6100474077741
 31
0.0
 70
    32
 71
     5
 42
41.0
 73
     0
 74
     0
 75
     0
  3
tfrom線あり
100
AcDbAlignedDimension
 13
227.6018908863935
 23
305.1100474077741
 33
0.0
 14
227.6018908863936
 24
264.1100474077741
 34
0.0
 50
90.0
100
AcDbRotatedDimension
1001
ACAD
1000
DSTYLE
1002
{
1070
   144
1040
1.0
1002
}
  0
VIEWPORT
  5
349
330
B
100
AcDbEntity
 67
     1
  8
0
100
AcDbViewport
 10
202.5
 20
128.5
 30
0.0
 40
486.0
 41
308.4
 68
     1
 69
     1
 12
202.5
 22
128.5
 13
0.0
 23
0.0
 14
0.5
 24
0.5
 15
0.0
 25
0.0
 16
0.0
 26
0.0
 36
1.0
 17
0.0
 27
0.0
 37
0.0
 42
50.0
 43
0.0
 44
0.0
 45
308.4
 50
0.0
 51
0.0
 72
   100
 90
   557152
  1

281
     0
 71
     1
 74
     0
110
0.0
120
0.0
130
0.0
111
1.0
121
0.0
131
0.0
112
0.0
122
1.0
132
0.0
 79
     0
146
0.0
170
     0
 61
     5
348
26C
292
     1
282
     1
141
0.0
142
0.0
 63
   256
361
44F1
  0
VIEWPORT
  5
34A
330
B
100
AcDbEntity
 67
     1
  8
0
100
AcDbViewport
 10
202.5
 20
128.5
 30
0.0
 40
324.0
 41
205.6
 68
     2
 69
     2
 12
986.6781359294573
 22
1427.077061889956
 13
0.0
 23
0.0
 14
0.5
 24
0.5
 15
0.0
 25
0.0
 16
0.0
 26
0.0
 36
1.0
 17
0.0
 27
0.0
 37
0.0
 42
50.0
 43
0.0
 44
0.0
 45
2890.021615685494
 50
0.0
 51
0.0
 72
   100
 90
   557152
  1

281
     0
 71
     1
 74
     0
110
0.0
120
0.0
130
0.0
111
1.0
121
0.0
131
0.0
112
0.0
122
1.0
132
0.0
 79
     0
146
0.0
170
     0
 61
     5
348
26C
292
     1
282
     1
141
0.0
142
0.0
 63
   256
  0
ENDSEC
  0
SECTION
  2
OBJECTS
  0
DICTIONARY
  5
19
330
0
100
AcDbDictionary
281
     1
  3
ACAD_COLOR
350
674
  3
ACAD_DETAILVIEWSTYLE
350
13B5
  3
ACAD_FIELDLIST
350
5CEB
  3
ACAD_GROUP
350
1A
  3
ACAD_IMAGE_VARS
350
27B
  3
ACAD_LAYOUT
350
1E
  3
ACAD_MATERIAL
350
263
  3
ACAD_MLEADERSTYLE
350
336
  3
ACAD_MLINESTYLE
350
1B
  3
ACAD_PLOTSETTINGS
350
22
  3
ACAD_PLOTSTYLENAME
350
1F
  3
ACAD_SCALELIST
350
241
  3
ACAD_SECTIONVIEWSTYLE
350
13B6
  3
ACAD_TABLESTYLE
350
278
  3
ACAD_VISUALSTYLE
350
267
  3
ACDB_RECOMPOSE_DATA
350
5E2B
  3
AcDbVariableDictionary
350
330
  3
APPDATA
350
27A
  0
SUN
  5
F1A
330
15
100
AcDbSun
 90
        1
290
     0
 63
     7
421
 16777215
 40
1.0
291
     1
 91
  2455826
 92
 54000000
292
     0
 70
     2
 71
   256
280
     1
  0
DICTIONARY
  5
2E1
330
2
100
AcDbDictionary
280
     1
281
     1
  3
ACAD_LAYERSTATES
360
2E2
  3
ACLYDICTIONARY
360
530F
  0
DICTIONARY
  5
5D3E
330
A
100
AcDbDictionary
280
     1
281
     1
  3
ACAD_SORTENTS
360
5D3F
  0
DICTIONARY
  5
520D
330
520C
100
AcDbDictionary
280
     1
281
     1
  3
ACAD_DIMASSOC
360
520E
  0
DICTIONARY
  5
57FF
330
57FE
100
AcDbDictionary
280
     1
281
     1
  3
ACAD_DIMASSOC
360
5800
  0
DICTIONARY
  5
5802
330
5801
100
AcDbDictionary
280
     1
281
     1
  3
ACAD_DIMASSOC
360
5803
  0
DICTIONARY
  5
5CEE
330
5CED
100
AcDbDictionary
280
     1
281
     1
  3
ACAD_FIELD
360
5CEF
  0
SUN
  5
44F1
330
349
100
AcDbSun
 90
        1
290
     0
 63
     7
421
 16777215
 40
1.0
291
     1
 91
  2455826
 92
 54000000
292
     0
 70
     2
 71
   256
280
     1
  0
DICTIONARY
  5
674
102
{ACAD_REACTORS
330
19
102
}
330
19
100
AcDbDictionary
281
     1
  0
DICTIONARY
  5
13B5
102
{ACAD_REACTORS
330
19
102
}
330
19
100
AcDbDictionary
281
     1
  0
FIELDLIST
  5
5CEB
102
{ACAD_REACTORS
330
19
102
}
330
19
100
AcDbIdSet
 90
        1
330
5CF0
100
AcDbFieldList
  0
DICTIONARY
  5
1A
102
{ACAD_REACTORS
330
19
102
}
330
19
100
AcDbDictionary
281
     1
  3
*A1
350
5D3D
  0
RASTERVARIABLES
  5
27B
102
{ACAD_REACTORS
330
19
102
}
330
19
100
AcDbRasterVariables
 90
        0
 70
     1
 71
     1
 72
     1
  0
DICTIONARY
  5
1E
102
{ACAD_REACTORS
330
19
102
}
330
19
100
AcDbDictionary
281
     1
  3
Layout1
350
21
  3
Model
350
20
  0
DICTIONARY
  5
263
102
{ACAD_REACTORS
330
19
102
}
330
19
100
AcDbDictionary
281
     1
  3
ByBlock
350
5319
  3
ByLayer
350
264
  3
Global
350
266
  0
DICTIONARY
  5
336
102
{ACAD_REACTORS
330
19
102
}
330
19
100
AcDbDictionary
281
     1
  3
Standard
350
5BC7
  0
DICTIONARY
  5
1B
102
{ACAD_REACTORS
330
19
102
}
330
19
100
AcDbDictionary
281
     1
  3
Standard
350
1C
  0
DICTIONARY
  5
22
102
{ACAD_REACTORS
330
19
102
}
330
19
100
AcDbDictionary
281
     1
  0
ACDBDICTIONARYWDFLT
  5
1F
102
{ACAD_REACTORS
330
19
102
}
330
19
100
AcDbDictionary
281
     1
  3
Normal
350
1D
100
AcDbDictionaryWithDefault
340
1D
  0
DICTIONARY
  5
241
102
{ACAD_REACTORS
330
19
102
}
330
19
100
AcDbDictionary
281
     1
  3
A0
350
242
  3
A1
350
243
  3
A2
350
244
  3
A3
350
245
  3
A4
350
246
  3
A5
350
247
  3
A6
350
248
  3
A7
350
249
  3
A8
350
24A
  3
A9
350
24B
  3
B0
350
24C
  3
B1
350
24D
  3
B2
350
24E
  3
B3
350
24F
  3
B4
350
250
  3
B5
350
251
  3
B6
350
252
  3
B7
350
253
  3
B8
350
254
  3
B9
350
255
  3
C0
350
256
  3
C1
350
257
  3
C2
350
258
  3
C3
350
259
  3
C4
350
25A
  3
C5
350
25B
  3
C6
350
25C
  3
C7
350
25D
  3
C8
350
25E
  3
C9
350
25F
  3
D0
350
260
  3
D1
350
261
  3
D2
350
262
  0
DICTIONARY
  5
13B6
102
{ACAD_REACTORS
330
19
102
}
330
19
100
AcDbDictionary
281
     1
  0
DICTIONARY
  5
278
102
{ACAD_REACTORS
330
19
102
}
330
19
100
AcDbDictionary
281
     1
  3
Standard
350
279
  0
DICTIONARY
  5
267
102
{ACAD_REACTORS
330
19
102
}
330
19
100
AcDbDictionary
281
     1
  3
2dWireframe
350
26C
  3
3D Hidden
350
26E
  3
3dWireframe
350
26D
  3
Basic
350
26F
  3
Brighten
350
273
  3
ColorChange
350
277
  3
Conceptual
350
271
  3
Dim
350
272
  3
EdgeColorOff
350
F14
  3
Facepattern
350
276
  3
Flat
350
268
  3
FlatWithEdges
350
269
  3
Gouraud
350
26A
  3
GouraudWithEdges
350
26B
  3
Hidden
350
F11
  3
JitterOff
350
F12
  3
Linepattern
350
275
  3
OverhangOff
350
F13
  3
Realistic
350
270
  3
Shaded
350
F19
  3
Shaded with edges
350
F18
  3
Shades of Gray
350
F15
  3
Sketchy
350
F16
  3
Thicken
350
274
  3
Wireframe
350
F10
  3
X-Ray
350
F17
  0
XRECORD
  5
5E2B
102
{ACAD_REACTORS
330
19
102
}
330
19
100
AcDbXrecord
280
     1
 90
        1
330
279
  0
DICTIONARY
  5
330
102
{ACAD_REACTORS
330
19
102
}
330
19
100
AcDbDictionary
281
     1
  3
CANNOSCALE
350
331
  3
CMLEADERSTYLE
350
5C50
  3
CTABLESTYLE
350
335
  3
HPTRANSPARENCY
350
5816
  3
XCLIPFRAME
350
13B4
  0
DICTIONARY
  5
27A
102
{ACAD_REACTORS
330
19
102
}
330
19
100
AcDbDictionary
281
     1
  0
DICTIONARY
  5
2E2
102
{ACAD_REACTORS
330
2E1
102
}
330
2E1
100
AcDbDictionary
281
     1
  0
DICTIONARY
  5
530F
102
{ACAD_REACTORS
330
2E1
102
}
330
2E1
100
AcDbDictionary
281
     1
1001
ACAD
1000
<All
  0
SORTENTSTABLE
  5
5D3F
102
{ACAD_REACTORS
330
5D3E
102
}
330
5D3E
100
AcDbSortentsTable
330
A
331
0
  5
5B03
331
1301
  5
5806
331
1306
  5
5807
331
1307
  5
580A
331
1308
  5
58A4
331
1312
  5
58A5
331
1313
  5
58A6
331
131E
  5
58A7
331
131F
  5
58A8
331
1342
  5
58A9
331
1343
  5
58AA
331
1346
  5
58AB
331
1347
  5
58D3
331
1350
  5
58D4
331
1351
  5
58D5
331
1357
  5
58D6
331
1359
  5
58D7
331
135A
  5
58D8
331
135B
  5
59AF
331
1371
  5
59B0
331
1372
  5
59B1
331
1378
  5
59F7
331
1379
  5
5A9C
331
1389
  5
5A9D
331
138A
  5
5A9E
331
138D
  5
5A9F
331
138E
  5
5AA0
331
1398
  5
5AA1
331
1399
  5
5AA2
331
139C
  5
5AA3
331
139D
  5
5AA4
331
4967
  5
5AA5
331
4968
  5
5AA6
331
499D
  5
5AA7
331
499E
  5
5AA8
331
4A6C
  5
5AA9
331
4A99
  5
5AAA
331
4AD2
  5
5AAB
331
4CC1
  5
5AAC
331
4ECE
  5
5AAD
331
4ECF
  5
5AAE
331
4EF1
  5
5AAF
331
51B1
  5
5AB0
331
51B2
  5
5AB1
331
51B3
  5
5AB2
331
51B4
  5
5AB3
331
51B5
  5
5AB4
331
51B6
  5
5AB5
331
51B7
  5
5AB6
331
51B8
  5
5AB7
331
51B9
  5
5AB8
331
51BA
  5
5AB9
331
51BB
  5
5ABA
331
51BC
  5
5ABB
331
51BD
  5
5ABC
331
51BE
  5
5ABD
331
51BF
  5
5ABE
331
51C0
  5
5ABF
331
51C1
  5
5AC0
331
51C2
  5
5AC1
331
51C3
  5
5AC2
331
51C4
  5
5AC3
331
51C5
  5
5AC4
331
51C6
  5
5AC5
331
51C8
  5
5AC6
331
51C9
  5
5AC7
331
51CA
  5
5AC8
331
51CB
  5
5AC9
331
51D0
  5
5ACA
331
51D1
  5
5ACB
331
51D2
  5
5ACC
331
51D3
  5
5ACD
331
51D4
  5
5ACE
331
51D5
  5
5ACF
331
51D6
  5
5AD0
331
51D7
  5
5AD1
331
51D8
  5
5AD2
331
51D9
  5
5AD3
331
51DA
  5
5AD4
331
51DB
  5
5AD5
331
51DC
  5
5AD6
331
51DD
  5
5AD7
331
51DE
  5
5AD8
331
51DF
  5
5AD9
331
51E0
  5
5ADA
331
51E1
  5
5ADB
331
51E2
  5
5ADC
331
51E3
  5
5ADD
331
51E4
  5
5ADE
331
51E5
  5
5ADF
331
51E6
  5
5AE0
331
51E7
  5
5AE1
331
51E8
  5
5AE2
331
51E9
  5
5AE3
331
51EA
  5
5AE4
331
51EB
  5
5AE5
331
51EC
  5
5AE6
331
51ED
  5
5AE7
331
51EE
  5
5AE8
331
51EF
  5
5AE9
331
51F0
  5
5AEA
331
51F1
  5
5AEB
331
51F2
  5
5AEC
331
51F3
  5
5AED
331
51F4
  5
5AEE
331
51F5
  5
5AEF
331
51F6
  5
5AF0
331
51F7
  5
5AF1
331
51F8
  5
5AF2
331
51F9
  5
5AF3
331
51FA
  5
5AF4
331
51FB
  5
5AF5
331
51FC
  5
5AF6
331
51FD
  5
5AF7
331
51FE
  5
5AF8
331
51FF
  5
5AF9
331
5200
  5
5AFA
331
5201
  5
5AFB
331
5202
  5
5AFC
331
5203
  5
5AFD
331
5204
  5
5AFE
331
5205
  5
5AFF
331
5206
  5
5B00
331
5207
  5
5B01
331
520C
  5
5B02
331
56D3
  5
5B04
331
56D4
  5
5B05
331
56D5
  5
5B06
331
56D6
  5
5B07
331
56D7
  5
5B08
331
56D8
  5
5B09
331
56D9
  5
5B0A
331
56DA
  5
5B0B
331
56DB
  5
5B0C
331
56DC
  5
5B0D
331
56DD
  5
5B0E
331
56DE
  5
5B0F
331
56DF
  5
5B10
331
56E0
  5
5B11
331
56E1
  5
5B12
331
56E2
  5
5B13
331
56E3
  5
5B14
331
56E4
  5
5B15
331
56E5
  5
5B16
331
56E6
  5
5B17
331
56E8
  5
5B19
331
56E9
  5
5B1A
331
56EA
  5
5B1B
331
56EB
  5
5B1C
331
56EC
  5
5B1D
331
56ED
  5
5B1E
331
56EE
  5
5B1F
331
56EF
  5
5B20
331
56F0
  5
5B21
331
56F1
  5
5B22
331
56F2
  5
5B23
331
56F3
  5
5B3F
331
56F4
  5
5B40
331
56F5
  5
5B41
331
56F6
  5
5B42
331
56F7
  5
5B43
331
56F8
  5
5B44
331
56F9
  5
5B45
331
575B
  5
5B46
331
575C
  5
5B47
331
575D
  5
5B48
331
575E
  5
5B49
331
575F
  5
5B4A
331
5760
  5
5B4B
331
5775
  5
5B4C
331
5776
  5
5B4D
331
5777
  5
5B4E
331
5778
  5
5B4F
331
5779
  5
5B50
331
577A
  5
5B51
331
57F9
  5
5B52
331
57FA
  5
5B53
331
57FB
  5
5B67
331
57FD
  5
5B68
331
57FE
  5
5B69
331
5801
  5
5B6A
331
5804
  5
5B6B
331
5805
  5
5B6C
331
5806
  5
5B6D
331
5807
  5
5B6E
331
580A
  5
5B6F
331
58A4
  5
1301
331
58A5
  5
1306
331
58A6
  5
1307
331
58A7
  5
1308
331
58A8
  5
1312
331
58A9
  5
1313
331
58AA
  5
131E
331
58AB
  5
131F
331
59F7
  5
5B79
331
5A9C
  5
1342
331
5A9D
  5
1343
331
5A9E
  5
1346
331
5A9F
  5
1347
331
5AA0
  5
1350
331
5AA1
  5
1351
331
5AA2
  5
1357
331
5AA3
  5
1359
331
5AA4
  5
135A
331
5AA5
  5
135B
331
5AA6
  5
1371
331
5AA7
  5
1372
331
5AA8
  5
1378
331
5AA9
  5
1379
331
5AAA
  5
1389
331
5AAB
  5
138A
331
5AAC
  5
138D
331
5AAD
  5
138E
331
5AAE
  5
1398
331
5AAF
  5
1399
331
5AB0
  5
139C
331
5AB1
  5
139D
331
5AB2
  5
4967
331
5AB3
  5
4968
331
5AB4
  5
499D
331
5AB5
  5
499E
331
5AB6
  5
4A6C
331
5AB7
  5
4A99
331
5AB8
  5
4AD2
331
5AB9
  5
4CC1
331
5ABA
  5
4ECE
331
5ABB
  5
4ECF
331
5ABC
  5
4EF1
331
5ABD
  5
51B1
331
5ABE
  5
51B2
331
5ABF
  5
51B3
331
5AC0
  5
51B4
331
5AC1
  5
51B5
331
5AC2
  5
51B6
331
5AC3
  5
51B7
331
5AC4
  5
51B8
331
5AC5
  5
51B9
331
5AC6
  5
51BA
331
5AC7
  5
51BB
331
5AC8
  5
51BC
331
5AC9
  5
51BD
331
5ACA
  5
51BE
331
5ACB
  5
51BF
331
5ACC
  5
51C0
331
5ACD
  5
51C1
331
5ACE
  5
51C2
331
5ACF
  5
51C3
331
5AD0
  5
51C4
331
5AD1
  5
51C5
331
5AD2
  5
51C6
331
5AD3
  5
51C8
331
5AD4
  5
51C9
331
5AD5
  5
51CA
331
5AD6
  5
51CB
331
5AD7
  5
51D0
331
5AD8
  5
51D1
331
5AD9
  5
51D2
331
5ADA
  5
51D3
331
5ADB
  5
51D4
331
5ADC
  5
51D5
331
5ADD
  5
51D6
331
5ADE
  5
51D7
331
5ADF
  5
51D8
331
5AE0
  5
51D9
331
5AE1
  5
51DA
331
5AE2
  5
51DB
331
5AE3
  5
51DC
331
5AE4
  5
51DD
331
5AE5
  5
51DE
331
5AE6
  5
51DF
331
5AE7
  5
51E0
331
5AE8
  5
51E1
331
5AE9
  5
51E2
331
5AEA
  5
51E3
331
5AEB
  5
51E4
331
5AEC
  5
51E5
331
5AED
  5
51E6
331
5AEE
  5
51E7
331
5AEF
  5
51E8
331
5AF0
  5
51E9
331
5AF1
  5
51EA
331
5AF2
  5
51EB
331
5AF3
  5
51EC
331
5AF4
  5
51ED
331
5AF5
  5
51EE
331
5AF6
  5
51EF
331
5AF7
  5
51F0
331
5AF8
  5
51F1
331
5AF9
  5
51F2
331
5AFA
  5
51F3
331
5AFB
  5
51F4
331
5AFC
  5
51F5
331
5AFD
  5
51F6
331
5AFE
  5
51F7
331
5AFF
  5
51F8
331
5B00
  5
51F9
331
5B01
  5
51FA
331
5B02
  5
51FB
331
5B03
  5
51FC
331
5B04
  5
51FD
331
5B05
  5
51FE
331
5B06
  5
51FF
331
5B07
  5
5200
331
5B08
  5
5201
331
5B09
  5
5202
331
5B0A
  5
5203
331
5B0B
  5
5204
331
5B0C
  5
5205
331
5B0D
  5
5206
331
5B0E
  5
5207
331
5B0F
  5
520C
331
5B10
  5
5472
331
5B11
  5
56D3
331
5B12
  5
56D4
331
5B13
  5
56D5
331
5B14
  5
56D6
331
5B15
  5
56D7
331
5B16
  5
56D8
331
5B17
  5
56D9
331
5B18
  5
56DA
331
5B19
  5
56DB
331
5B1A
  5
56DC
331
5B1B
  5
56DD
331
5B1C
  5
56DE
331
5B1D
  5
56DF
331
5B1E
  5
56E0
331
5B1F
  5
56E1
331
5B20
  5
56E2
331
5B21
  5
56E3
331
5B22
  5
56E4
331
5B23
  5
56E5
331
5B3F
  5
56E6
331
5B40
  5
56E7
331
5B41
  5
56E8
331
5B42
  5
56E9
331
5B43
  5
56EA
331
5B44
  5
56EB
331
5B45
  5
56EC
331
5B46
  5
56ED
331
5B47
  5
56EE
331
5B48
  5
56EF
331
5B49
  5
56F0
331
5B4A
  5
56F1
331
5B4B
  5
56F2
331
5B4C
  5
56F3
331
5B4D
  5
56F4
331
5B4E
  5
56F5
331
5B4F
  5
56F6
331
5B50
  5
56F7
331
5B51
  5
56F8
331
5B52
  5
56F9
331
5B53
  5
575B
331
5B67
  5
575C
331
5B68
  5
575D
331
5B69
  5
575E
331
5B6A
  5
575F
331
5B6B
  5
5760
331
5B6C
  5
5775
331
5B6D
  5
5776
331
5B6E
  5
5777
331
5B6F
  5
5778
331
5B70
  5
5779
331
5B71
  5
577A
331
5B72
  5
57F9
331
5B73
  5
57FA
331
5B74
  5
57FB
331
5B75
  5
57FD
331
5B76
  5
57FE
331
5B77
  5
5801
331
5B78
  5
5804
331
5B79
  5
5805
  0
DIMASSOC
  5
520E
102
{ACAD_REACTORS
330
520D
102
}
330
520D
100
AcDbDimAssoc
330
520C
 90
        3
 70
     0
 71
     1
  1
AcDbOsnapPointRef
 72
     1
331
51DB
331
5106
 73
     0
 91
        0
 40
0.0
 10
0.0
 20
0.0
 30
0.0
 75
     0
  1
AcDbOsnapPointRef
 72
    13
331
51D0
 73
     0
 91
        0
 40
0.0
 10
0.0
 20
0.0
 30
0.0
 75
     0
  0
DIMASSOC
  5
5800
102
{ACAD_REACTORS
330
57FF
102
}
330
57FF
100
AcDbDimAssoc
330
57FE
 90
        1
 70
     0
 71
     1
  1
AcDbOsnapPointRef
 72
     5
331
5777
 73
     0
 91
        0
 40
1.570796326794897
 10
0.0
 20
0.0
 30
0.0
 75
     0
  0
DIMASSOC
  5
5803
102
{ACAD_REACTORS
330
5802
102
}
330
5802
100
AcDbDimAssoc
330
5801
 90
        1
 70
     0
 71
     1
  1
AcDbOsnapPointRef
 72
     3
331
5777
 73
     0
 91
        0
 40
0.0
 10
0.0
 20
0.0
 30
0.0
 75
     0
  0
DICTIONARY
  5
5CEF
102
{ACAD_REACTORS
330
5CEE
102
}
330
5CEE
100
AcDbDictionary
280
     1
281
     1
  3
TEXT
360
5CF0
  0
GROUP
  5
5D3D
102
{ACAD_REACTORS
330
1A
102
}
330
1A
100
AcDbGroup
300

 70
     1
 71
     1
340
58A4
340
58A5
340
58A6
340
58A7
340
58A8
340
58AA
340
58AB
340
5A9C
340
5A9D
340
5A9E
340
5A9F
340
5AA0
340
5AA1
340
5AA2
340
5AA3
340
5AA4
340
5AA5
340
5AA6
340
5AA7
340
5AA8
340
5AA9
340
5AAA
340
5AAB
340
5AAC
340
5AAD
340
5AAE
340
5AAF
340
5AB0
340
5AB1
340
5AB2
340
5AB3
340
5AB4
340
5AB5
340
5AB6
340
5AB7
340
5AB8
340
5AB9
340
5ABA
340
5ABB
340
5ABC
340
5ABD
340
5ABE
340
5ABF
340
5AC0
340
5AC1
340
5AC2
340
5AC3
340
5AC4
340
5AC5
340
5AC6
340
5AC7
340
5AC8
340
5AC9
340
5ACA
340
5ACB
340
5ACC
340
5ACD
340
5ACE
340
5ACF
340
5AD0
340
5AD1
340
5AD2
340
5AD3
340
5AD4
340
5AD5
340
5AD6
340
5AD7
340
5AD8
340
5AD9
340
5ADA
340
5ADB
340
5ADC
340
5ADD
340
5ADE
340
5ADF
340
5AE0
340
5AE1
340
5AE2
340
5AE3
340
5AE4
340
5AE5
340
5AE6
340
5AE7
340
5AE8
340
5AE9
340
5AEA
340
5AEB
340
5AEC
340
5AED
340
5AEE
340
5AEF
340
5AF0
340
5AF1
340
5AF2
340
5AF3
340
5AF4
340
5AF5
340
5AF6
340
5AF7
340
5AF8
340
5AF9
340
5AFA
340
5AFB
340
5AFC
340
5AFD
340
5AFE
340
5AFF
340
5B00
340
5B01
340
5B02
340
5B03
340
5B04
340
5B05
340
5B06
340
5B07
340
5B08
340
5B09
340
5B0A
340
5B0B
340
5B0C
340
5B0D
340
5B0E
340
5B0F
340
5B10
340
5B11
340
5B12
340
5B13
340
5B14
340
5B15
340
5B16
340
5B17
340
5B18
340
5B19
340
5B1A
340
5B1B
340
5B1C
340
5B1D
340
5B1E
340
5B1F
340
5B20
340
5B21
340
5B22
340
5B23
340
5B3F
340
5B40
340
5B41
340
5B42
340
5B43
340
5B44
340
5B45
340
5B46
340
5B47
340
5B48
340
5B49
340
5B4A
340
5B4B
340
5B4C
340
5B4D
340
5B4E
340
5B4F
340
5B50
340
5B51
340
5B52
340
5B53
340
5B67
340
5B68
340
5B69
340
5B6A
340
5B6B
340
5B6C
340
5B6D
340
5B6E
340
5B6F
340
5B70
340
5B71
340
5B72
340
5B73
340
5B74
340
5B75
340
5B76
340
5B77
340
5B78
340
5B79
340
58A9
  0
LAYOUT
  5
21
102
{ACAD_REACTORS
330
1E
102
}
330
1E
100
AcDbPlotSettings
  1

  2
none_device
  4
ISO_A3_(420.00_x_297.00_MM)
  6

 40
7.5
 41
20.0
 42
7.5
 43
20.0
 44
420.0
 45
297.0
 46
0.0
 47
0.0
 48
0.0
 49
0.0
140
0.0
141
0.0
142
1.0
143
1.0
 70
     0
 72
     1
 73
     0
 74
     0
  7

 75
     0
 76
     0
 77
     2
 78
   300
147
1.0
148
0.0
149
0.0
100
AcDbLayout
  1
Layout1
 70
     1
 71
     0
 10
-7.5
 20
-20.0
 11
412.5
 21
277.0
 12
0.0
 22
0.0
 32
0.0
 14
0.0
 24
0.0
 34
0.0
 15
0.0
 25
0.0
 35
0.0
146
0.0
 13
0.0
 23
0.0
 33
0.0
 16
0.0
 26
0.0
 36
0.0
 17
0.0
 27
0.0
 37
0.0
 76
     0
330
B
331
349
  0
LAYOUT
  5
20
102
{ACAD_REACTORS
330
1E
102
}
330
1E
100
AcDbPlotSettings
  1

  2
none_device
  4
ISO_A3_(420.00_x_297.00_MM)
  6

 40
7.5
 41
20.0
 42
7.5
 43
20.0
 44
420.0
 45
297.0
 46
0.0
 47
0.0
 48
0.0
 49
0.0
140
0.0
141
0.0
142
1.0
143
1.0
 70
  1024
 72
     1
 73
     0
 74
     0
  7

 75
     0
 76
     0
 77
     2
 78
   300
147
1.0
148
0.0
149
0.0
100
AcDbLayout
  1
Model
 70
     0
 71
     1
 10
0.0
 20
0.0
 11
594.0
 21
419.9999999999996
 12
0.0
 22
0.0
 32
0.0
 14
0.0
 24
0.0
 34
0.0
 15
593.9999999999999
 25
420.0
 35
0.0
146
0.0
 13
0.0
 23
0.0
 33
0.0
 16
0.0
 26
0.0
 36
0.0
 17
0.0
 27
0.0
 37
0.0
 76
     0
330
A
331
15
  0
MATERIAL
  5
5319
102
{ACAD_REACTORS
330
263
102
}
330
263
100
AcDbMaterial
  1
ByBlock
 72
     1
 94
      127
  0
MATERIAL
  5
264
102
{ACAD_REACTORS
330
263
102
}
330
263
100
AcDbMaterial
  1
ByLayer
 72
     1
 94
      127
  0
MATERIAL
  5
266
102
{ACAD_REACTORS
330
263
102
}
330
263
100
AcDbMaterial
  1
Global
 72
     1
 94
      127
  0
MLEADERSTYLE
  5
5BC7
102
{ACAD_REACTORS
330
336
102
}
330
336
100
AcDbMLeaderStyle
170
     2
171
     1
172
     0
 90
        2
 40
0.0
 41
0.0
173
     1
 91
-1056964608
340
11
 92
       -2
290
     1
 42
2.0
291
     1
 43
8.0
  3
Standard
341
0
 44
4.0
300

342
17
174
     1
178
     6
175
     1
176
     0
 93
-1056964608
 45
4.0
292
     0
297
     0
 46
4.0
343
0
 94
-1056964608
 47
1.0
 49
1.0
140
1.0
293
     1
141
0.0
294
     1
177
     0
142
1.0
295
     0
296
     0
143
3.75
1001
ACAD_MLEADERVER
1070
     2
  0
MLINESTYLE
  5
1C
102
{ACAD_REACTORS
330
1B
102
}
330
1B
100
AcDbMlineStyle
  2
Standard
 70
     0
  3

 62
     0
 51
90.0
 52
90.0
 71
     2
 49
0.5
 62
   256
  6
BYLAYER
 49
-0.5
 62
   256
  6
BYLAYER
  0
ACDBPLACEHOLDER
  5
1D
102
{ACAD_REACTORS
330
1F
102
}
330
1F
  0
SCALE
  5
242
102
{ACAD_REACTORS
330
241
102
}
330
241
100
AcDbScale
 70
     0
300
1:1
140
1.0
141
1.0
290
     1
  0
SCALE
  5
243
102
{ACAD_REACTORS
330
241
102
}
330
241
100
AcDbScale
 70
     0
300
1:2
140
1.0
141
2.0
290
     0
  0
SCALE
  5
244
102
{ACAD_REACTORS
330
241
102
}
330
241
100
AcDbScale
 70
     0
300
1:4
140
1.0
141
4.0
290
     0
  0
SCALE
  5
245
102
{ACAD_REACTORS
330
241
102
}
330
241
100
AcDbScale
 70
     0
300
1:5
140
1.0
141
5.0
290
     0
  0
SCALE
  5
246
102
{ACAD_REACTORS
330
241
102
}
330
241
100
AcDbScale
 70
     0
300
1:8
140
1.0
141
8.0
290
     0
  0
SCALE
  5
247
102
{ACAD_REACTORS
330
241
102
}
330
241
100
AcDbScale
 70
     0
300
1:10
140
1.0
141
10.0
290
     0
  0
SCALE
  5
248
102
{ACAD_REACTORS
330
241
102
}
330
241
100
AcDbScale
 70
     0
300
1:16
140
1.0
141
16.0
290
     0
  0
SCALE
  5
249
102
{ACAD_REACTORS
330
241
102
}
330
241
100
AcDbScale
 70
     0
300
1:20
140
1.0
141
20.0
290
     0
  0
SCALE
  5
24A
102
{ACAD_REACTORS
330
241
102
}
330
241
100
AcDbScale
 70
     0
300
1:30
140
1.0
141
30.0
290
     0
  0
SCALE
  5
24B
102
{ACAD_REACTORS
330
241
102
}
330
241
100
AcDbScale
 70
     0
300
1:40
140
1.0
141
40.0
290
     0
  0
SCALE
  5
24C
102
{ACAD_REACTORS
330
241
102
}
330
241
100
AcDbScale
 70
     0
300
1:50
140
1.0
141
50.0
290
     0
  0
SCALE
  5
24D
102
{ACAD_REACTORS
330
241
102
}
330
241
100
AcDbScale
 70
     0
300
1:100
140
1.0
141
100.0
290
     0
  0
SCALE
  5
24E
102
{ACAD_REACTORS
330
241
102
}
330
241
100
AcDbScale
 70
     0
300
2:1
140
2.0
141
1.0
290
     0
  0
SCALE
  5
24F
102
{ACAD_REACTORS
330
241
102
}
330
241
100
AcDbScale
 70
     0
300
4:1
140
4.0
141
1.0
290
     0
  0
SCALE
  5
250
102
{ACAD_REACTORS
330
241
102
}
330
241
100
AcDbScale
 70
     0
300
8:1
140
8.0
141
1.0
290
     0
  0
SCALE
  5
251
102
{ACAD_REACTORS
330
241
102
}
330
241
100
AcDbScale
 70
     0
300
10:1
140
10.0
141
1.0
290
     0
  0
SCALE
  5
252
102
{ACAD_REACTORS
330
241
102
}
330
241
100
AcDbScale
 70
     0
300
100:1
140
100.0
141
1.0
290
     0
  0
SCALE
  5
253
102
{ACAD_REACTORS
330
241
102
}
330
241
100
AcDbScale
 70
     0
300
1/128" = 1'-0"
140
0.0078125
141
12.0
290
     0
  0
SCALE
  5
254
102
{ACAD_REACTORS
330
241
102
}
330
241
100
AcDbScale
 70
     0
300
1/64" = 1'-0"
140
0.015625
141
12.0
290
     0
  0
SCALE
  5
255
102
{ACAD_REACTORS
330
241
102
}
330
241
100
AcDbScale
 70
     0
300
1/32" = 1'-0"
140
0.03125
141
12.0
290
     0
  0
SCALE
  5
256
102
{ACAD_REACTORS
330
241
102
}
330
241
100
AcDbScale
 70
     0
300
1/16" = 1'-0"
140
0.0625
141
12.0
290
     0
  0
SCALE
  5
257
102
{ACAD_REACTORS
330
241
102
}
330
241
100
AcDbScale
 70
     0
300
3/32" = 1'-0"
140
0.09375
141
12.0
290
     0
  0
SCALE
  5
258
102
{ACAD_REACTORS
330
241
102
}
330
241
100
AcDbScale
 70
     0
300
1/8" = 1'-0"
140
0.125
141
12.0
290
     0
  0
SCALE
  5
259
102
{ACAD_REACTORS
330
241
102
}
330
241
100
AcDbScale
 70
     0
300
3/16" = 1'-0"
140
0.1875
141
12.0
290
     0
  0
SCALE
  5
25A
102
{ACAD_REACTORS
330
241
102
}
330
241
100
AcDbScale
 70
     0
300
1/4" = 1'-0"
140
0.25
141
12.0
290
     0
  0
SCALE
  5
25B
102
{ACAD_REACTORS
330
241
102
}
330
241
100
AcDbScale
 70
     0
300
3/8" = 1'-0"
140
0.375
141
12.0
290
     0
  0
SCALE
  5
25C
102
{ACAD_REACTORS
330
241
102
}
330
241
100
AcDbScale
 70
     0
300
1/2" = 1'-0"
140
0.5
141
12.0
290
     0
  0
SCALE
  5
25D
102
{ACAD_REACTORS
330
241
102
}
330
241
100
AcDbScale
 70
     0
300
3/4" = 1'-0"
140
0.75
141
12.0
290
     0
  0
SCALE
  5
25E
102
{ACAD_REACTORS
330
241
102
}
330
241
100
AcDbScale
 70
     0
300
1" = 1'-0"
140
1.0
141
12.0
290
     0
  0
SCALE
  5
25F
102
{ACAD_REACTORS
330
241
102
}
330
241
100
AcDbScale
 70
     0
300
1-1/2" = 1'-0"
140
1.5
141
12.0
290
     0
  0
SCALE
  5
260
102
{ACAD_REACTORS
330
241
102
}
330
241
100
AcDbScale
 70
     0
300
3" = 1'-0"
140
3.0
141
12.0
290
     0
  0
SCALE
  5
261
102
{ACAD_REACTORS
330
241
102
}
330
241
100
AcDbScale
 70
     0
300
6" = 1'-0"
140
6.0
141
12.0
290
     0
  0
SCALE
  5
262
102
{ACAD_REACTORS
330
241
102
}
330
241
100
AcDbScale
 70
     0
300
1'-0" = 1'-0"
140
12.0
141
12.0
290
     0
  0
TABLESTYLE
  5
279
102
{ACAD_REACTORS
330
278
102
}
102
{ACAD_XDICTIONARY
360
5E29
102
}
330
278
100
AcDbTableStyle
  3
Standard
 70
     0
 71
     0
 40
0.06
 41
0.06
280
     0
281
     0
  7
Standard
140
4.5
170
     2
 62
     0
 63
   257
283
     0
 90
        4
 91
        0
  1

274
    -2
284
     1
 64
     0
275
    -2
285
     1
 65
     0
276
    -2
286
     1
 66
     0
277
    -2
287
     1
 67
     0
278
    -2
288
     1
 68
     0
279
    -2
289
     1
 69
     0
  7
Standard
140
6.0
170
     5
 62
     0
 63
   257
283
     0
 90
        4
 91
        0
  1

274
    -2
284
     1
 64
     0
275
    -2
285
     1
 65
     0
276
    -2
286
     1
 66
     0
277
    -2
287
     1
 67
     0
278
    -2
288
     1
 68
     0
279
    -2
289
     1
 69
     0
  7
Standard
140
4.5
170
     5
 62
     0
 63
   257
283
     0
 90
        4
 91
        0
  1

274
    -2
284
     1
 64
     0
275
    -2
285
     1
 65
     0
276
    -2
286
     1
 66
     0
277
    -2
287
     1
 67
     0
278
    -2
288
     1
 68
     0
279
    -2
289
     1
 69
     0
  0
VISUALSTYLE
  5
26C
102
{ACAD_REACTORS
330
267
102
}
330
267
100
AcDbVisualStyle
  2
2dWireframe
 70
     4
 71
     0
 72
     2
 73
     0
 90
        0
 40
-0.6
 41
-30.0
 62
     5
 63
     7
421
 16777215
 74
     1
 91
        4
 64
     7
 65
   257
 75
     1
175
     1
 42
1.0
 92
        0
 66
   257
 43
1.0
 76
     1
 77
     6
 78
     2
 67
     7
 79
     5
170
     0
171
     0
290
     0
174
     0
 93
        1
 44
0.0
173
     0
291
     0
 45
0.0
  0
VISUALSTYLE
  5
26E
102
{ACAD_REACTORS
330
267
102
}
330
267
100
AcDbVisualStyle
  2
3D Hidden
 70
     6
 71
     1
 72
     2
 73
     2
 90
        0
 40
-0.6
 41
-30.0
 62
     5
 63
     7
421
 16777215
 74
     2
 91
        2
 64
     7
 65
   257
 75
     2
175
     1
 42
40.0
 92
        0
 66
   257
 43
1.0
 76
     1
 77
     6
 78
     2
 67
     7
 79
     3
170
     0
171
     0
290
     0
174
     0
 93
        1
 44
0.0
173
     0
291
     0
 45
0.0
  0
VISUALSTYLE
  5
26D
102
{ACAD_REACTORS
330
267
102
}
330
267
100
AcDbVisualStyle
  2
3dWireframe
 70
     5
 71
     0
 72
     2
 73
     0
 90
        0
 40
-0.6
 41
-30.0
 62
     5
 63
     7
421
 16777215
 74
     1
 91
        4
 64
     7
 65
   257
 75
     1
175
     1
 42
1.0
 92
        0
 66
   257
 43
1.0
 76
     1
 77
     6
 78
     2
 67
     7
 79
     5
170
     0
171
     0
290
     0
174
     0
 93
        1
 44
0.0
173
     0
291
     0
 45
0.0
  0
VISUALSTYLE
  5
26F
102
{ACAD_REACTORS
330
267
102
}
330
267
100
AcDbVisualStyle
  2
Basic
 70
     7
 71
     1
 72
     0
 73
     1
 90
        0
 40
-0.6
 41
-30.0
 62
     5
 63
     7
421
 16777215
 74
     0
 91
        4
 64
     7
 65
   257
 75
     1
175
     1
 42
1.0
 92
        8
 66
     7
 43
1.0
 76
     1
 77
     6
 78
     2
 67
     7
 79
     5
170
     0
171
     0
290
     0
174
     0
 93
        1
 44
0.0
173
     0
291
     1
 45
0.0
  0
VISUALSTYLE
  5
273
102
{ACAD_REACTORS
330
267
102
}
330
267
100
AcDbVisualStyle
  2
Brighten
 70
    12
 71
     2
 72
     2
 73
     0
 90
        0
 40
-0.6
 41
-30.0
 62
     5
 63
     7
421
 16777215
 74
     1
 91
        4
 64
     7
 65
   257
 75
     1
175
     1
 42
1.0
 92
        8
 66
     7
 43
1.0
 76
     1
 77
     6
 78
     2
 67
     7
 79
     5
170
     0
171
     0
290
     0
174
     0
 93
        1
 44
50.0
173
     0
291
     1
 45
0.0
  0
VISUALSTYLE
  5
277
102
{ACAD_REACTORS
330
267
102
}
330
267
100
AcDbVisualStyle
  2
ColorChange
 70
    16
 71
     2
 72
     2
 73
     3
 90
        0
 40
-0.6
 41
-30.0
 62
     5
 63
     8
421
  8421504
 74
     1
 91
        4
 64
     7
 65
   257
 75
     1
175
     1
 42
1.0
 92
        8
 66
     8
424
  8421504
 43
1.0
 76
     1
 77
     6
 78
     2
 67
     7
 79
     5
170
     0
171
     0
290
     0
174
     0
 93
        1
 44
0.0
173
     0
291
     1
 45
0.0
  0
VISUALSTYLE
  5
271
102
{ACAD_REACTORS
330
267
102
}
330
267
100
AcDbVisualStyle
  2
Conceptual
 70
     9
 71
     3
 72
     2
 73
     0
 90
        0
 40
-0.6
 41
-30.0
 62
     5
 63
     7
421
 16777215
 74
     2
 91
        2
 64
     7
 65
   257
 75
     1
175
     1
 42
40.0
 92
        8
 66
     7
 43
1.0
 76
     1
 77
     6
 78
     2
 67
     7
 79
     3
170
     0
171
     0
290
     0
174
     0
 93
        1
 44
0.0
173
     0
291
     0
 45
0.0
  0
VISUALSTYLE
  5
272
102
{ACAD_REACTORS
330
267
102
}
330
267
100
AcDbVisualStyle
  2
Dim
 70
    11
 71
     2
 72
     2
 73
     0
 90
        0
 40
-0.6
 41
-30.0
 62
     5
 63
     7
421
 16777215
 74
     1
 91
        4
 64
     7
 65
   257
 75
     1
175
     1
 42
1.0
 92
        8
 66
     7
 43
1.0
 76
     1
 77
     6
 78
     2
 67
     7
 79
     5
170
     0
171
     0
290
     0
174
     0
 93
        1
 44
-50.0
173
     0
291
     1
 45
0.0
  0
VISUALSTYLE
  5
F14
102
{ACAD_REACTORS
330
267
102
}
330
267
100
AcDbVisualStyle
  2
EdgeColorOff
 70
    22
 71
     2
 72
     2
 73
     0
 90
        0
 40
0.6
 41
30.0
 62
     5
 63
     7
421
 16777215
 74
     1
 91
        4
 64
     7
 65
   257
 75
     1
175
     1
 42
1.0
 92
        8
 66
     7
 43
1.0
 76
     1
 77
     6
 78
     2
 67
     7
 79
     5
170
     0
171
     0
290
     0
174
     0
 93
        1
 44
0.0
173
     0
291
     1
 45
0.0
  0
VISUALSTYLE
  5
276
102
{ACAD_REACTORS
330
267
102
}
330
267
100
AcDbVisualStyle
  2
Facepattern
 70
    15
 71
     2
 72
     2
 73
     0
 90
        0
 40
-0.6
 41
-30.0
 62
     5
 63
     7
421
 16777215
 74
     1
 91
        4
 64
     7
 65
   257
 75
     1
175
     1
 42
1.0
 92
        8
 66
     7
 43
1.0
 76
     1
 77
     6
 78
     2
 67
     7
 79
     5
170
     0
171
     0
290
     0
174
     0
 93
        1
 44
0.0
173
     0
291
     1
 45
0.0
  0
VISUALSTYLE
  5
268
102
{ACAD_REACTORS
330
267
102
}
330
267
100
AcDbVisualStyle
  2
Flat
 70
     0
 71
     2
 72
     1
 73
     1
 90
        2
 40
-0.6
 41
30.0
 62
     5
 63
     7
421
 16777215
 74
     0
 91
        4
 64
     7
 65
   257
 75
     1
175
     1
 42
1.0
 92
        8
 66
     7
 43
1.0
 76
     1
 77
     6
 78
     2
 67
     7
 79
     5
170
     0
171
     0
290
     0
174
     0
 93
       13
 44
0.0
173
     0
291
     1
 45
0.0
  0
VISUALSTYLE
  5
269
102
{ACAD_REACTORS
330
267
102
}
330
267
100
AcDbVisualStyle
  2
FlatWithEdges
 70
     1
 71
     2
 72
     1
 73
     1
 90
        2
 40
-0.6
 41
30.0
 62
     5
 63
     7
421
 16777215
 74
     1
 91
        4
 64
     7
 65
   257
 75
     1
175
     1
 42
1.0
 92
        0
 66
   257
 43
1.0
 76
     1
 77
     6
 78
     2
 67
     7
 79
     5
170
     0
171
     0
290
     0
174
     0
 93
       13
 44
0.0
173
     0
291
     1
 45
0.0
  0
VISUALSTYLE
  5
26A
102
{ACAD_REACTORS
330
267
102
}
330
267
100
AcDbVisualStyle
  2
Gouraud
 70
     2
 71
     2
 72
     2
 73
     1
 90
        2
 40
-0.6
 41
30.0
 62
     5
 63
     7
421
 16777215
 74
     0
 91
        4
 64
     7
 65
   257
 75
     1
175
     1
 42
1.0
 92
        0
 66
     7
 43
1.0
 76
     1
 77
     6
 78
     2
 67
     7
 79
     5
170
     0
171
     0
290
     0
174
     0
 93
       13
 44
0.0
173
     0
291
     1
 45
0.0
  0
VISUALSTYLE
  5
26B
102
{ACAD_REACTORS
330
267
102
}
330
267
100
AcDbVisualStyle
  2
GouraudWithEdges
 70
     3
 71
     2
 72
     2
 73
     1
 90
        2
 40
-0.6
 41
30.0
 62
     5
 63
     7
421
 16777215
 74
     1
 91
        4
 64
     7
 65
   257
 75
     1
175
     1
 42
1.0
 92
        0
 66
   257
 43
1.0
 76
     1
 77
     6
 78
     2
 67
     7
 79
     5
170
     0
171
     0
290
     0
174
     0
 93
       13
 44
0.0
173
     0
291
     1
 45
0.0
  0
VISUALSTYLE
  5
F11
102
{ACAD_REACTORS
330
267
102
}
330
267
100
AcDbVisualStyle
  2
Hidden
 70
     6
 71
     1
 72
     2
 73
     2
 90
        0
 40
0.6
 41
30.0
 62
     5
 63
     7
421
 16777215
 74
     2
 91
        2
 64
     7
 65
   257
 75
     2
175
     1
 42
40.0
 92
        0
 66
   257
 43
1.0
 76
     1
 77
     6
 78
     2
 67
     7
 79
     3
170
     0
171
     0
290
     0
174
     0
 93
        1
 44
0.0
173
     0
291
     0
 45
0.0
  0
VISUALSTYLE
  5
F12
102
{ACAD_REACTORS
330
267
102
}
330
267
100
AcDbVisualStyle
  2
JitterOff
 70
    20
 71
     2
 72
     2
 73
     0
 90
        0
 40
0.6
 41
30.0
 62
     5
 63
     7
421
 16777215
 74
     1
 91
        4
 64
     7
 65
   257
 75
     1
175
     1
 42
1.0
 92
       10
 66
     7
 43
1.0
 76
     1
 77
     6
 78
     2
 67
     7
 79
     5
170
     0
171
     0
290
     0
174
     0
 93
        1
 44
0.0
173
     0
291
     1
 45
0.0
  0
VISUALSTYLE
  5
275
102
{ACAD_REACTORS
330
267
102
}
330
267
100
AcDbVisualStyle
  2
Linepattern
 70
    14
 71
     2
 72
     2
 73
     0
 90
        0
 40
-0.6
 41
-30.0
 62
     5
 63
     7
421
 16777215
 74
     1
 91
        4
 64
     7
 65
   257
 75
     7
175
     7
 42
1.0
 92
        8
 66
     7
 43
1.0
 76
     1
 77
     6
 78
     2
 67
     7
 79
     5
170
     0
171
     0
290
     0
174
     0
 93
        1
 44
0.0
173
     0
291
     1
 45
0.0
  0
VISUALSTYLE
  5
F13
102
{ACAD_REACTORS
330
267
102
}
330
267
100
AcDbVisualStyle
  2
OverhangOff
 70
    21
 71
     2
 72
     2
 73
     0
 90
        0
 40
0.6
 41
30.0
 62
     5
 63
     7
421
 16777215
 74
     1
 91
        4
 64
     7
 65
   257
 75
     1
175
     1
 42
1.0
 92
        9
 66
     7
 43
1.0
 76
     1
 77
     6
 78
     2
 67
     7
 79
     5
170
     0
171
     0
290
     0
174
     0
 93
        1
 44
0.0
173
     0
291
     1
 45
0.0
  0
VISUALSTYLE
  5
270
102
{ACAD_REACTORS
330
267
102
}
330
267
100
AcDbVisualStyle
  2
Realistic
 70
     8
 71
     2
 72
     2
 73
     0
 90
        0
 40
-0.6
 41
-30.0
 62
     5
 63
     7
421
 16777215
 74
     1
 91
        0
 64
     7
 65
   257
 75
     1
175
     1
 42
1.0
 92
        8
 66
     8
424
  7895160
 43
1.0
 76
     1
 77
     6
 78
     2
 67
     7
 79
     5
170
     0
171
     0
290
     0
174
     0
 93
       13
 44
0.0
173
     0
291
     0
 45
0.0
  0
VISUALSTYLE
  5
F19
102
{ACAD_REACTORS
330
267
102
}
330
267
100
AcDbVisualStyle
  2
Shaded
 70
    27
 71
     2
 72
     2
 73
     1
 90
        2
 40
0.6
 41
30.0
 62
     5
 63
     7
421
 16777215
 74
     0
 91
        4
 64
     7
 65
   257
 75
     1
175
     1
 42
1.0
 92
        8
 66
   257
 43
1.0
 76
     1
 77
     6
 78
     2
 67
     8
425
  7895160
 79
     3
170
     0
171
     0
290
     0
174
     0
 93
        5
 44
0.0
173
     0
291
     0
 45
0.0
  0
VISUALSTYLE
  5
F18
102
{ACAD_REACTORS
330
267
102
}
330
267
100
AcDbVisualStyle
  2
Shaded with edges
 70
    26
 71
     2
 72
     2
 73
     1
 90
        2
 40
0.6
 41
30.0
 62
     5
 63
     7
421
 16777215
 74
     1
 91
       10
 64
     7
 65
   257
 75
     2
175
     1
 42
1.0
 92
        8
 66
   257
 43
1.0
 76
     1
 77
     6
 78
     2
 67
     7
 79
     3
170
     0
171
     0
290
     0
174
     0
 93
        5
 44
0.0
173
     0
291
     0
 45
0.0
  0
VISUALSTYLE
  5
F15
102
{ACAD_REACTORS
330
267
102
}
330
267
100
AcDbVisualStyle
  2
Shades of Gray
 70
    23
 71
     2
 72
     2
 73
     3
 90
        0
 40
0.6
 41
30.0
 62
     5
 63
     7
421
 16777215
 74
     2
 91
        2
 64
     7
 65
     7
 75
     1
175
     1
 42
40.0
 92
        8
 66
     7
 43
1.0
 76
     1
 77
     6
 78
     2
 67
     7
 79
     3
170
     0
171
     0
290
     0
174
     0
 93
        1
 44
0.0
173
     0
291
     0
 45
0.0
  0
VISUALSTYLE
  5
F16
102
{ACAD_REACTORS
330
267
102
}
330
267
100
AcDbVisualStyle
  2
Sketchy
 70
    24
 71
     1
 72
     2
 73
     2
 90
        0
 40
0.6
 41
30.0
 62
     5
 63
     7
421
 16777215
 74
     2
 91
        2
 64
     7
 65
     7
 75
     1
175
     1
 42
40.0
 92
       11
 66
     7
 43
1.0
 76
     1
 77
     6
 78
     2
 67
     7
 79
     6
170
     0
171
     0
290
     0
174
     0
 93
        1
 44
0.0
173
     0
291
     0
 45
0.0
  0
VISUALSTYLE
  5
274
102
{ACAD_REACTORS
330
267
102
}
330
267
100
AcDbVisualStyle
  2
Thicken
 70
    13
 71
     2
 72
     2
 73
     0
 90
        0
 40
-0.6
 41
-30.0
 62
     5
 63
     7
421
 16777215
 74
     1
 91
        4
 64
     7
 65
   257
 75
     1
175
     1
 42
1.0
 92
       12
 66
     7
 43
1.0
 76
     1
 77
     6
 78
     2
 67
     7
 79
     5
170
     0
171
     0
290
     0
174
     0
 93
        1
 44
0.0
173
     0
291
     1
 45
0.0
  0
VISUALSTYLE
  5
F10
102
{ACAD_REACTORS
330
267
102
}
330
267
100
AcDbVisualStyle
  2
Wireframe
 70
     5
 71
     0
 72
     2
 73
     0
 90
        0
 40
0.6
 41
30.0
 62
     5
 63
     7
421
 16777215
 74
     1
 91
        4
 64
     7
 65
   257
 75
     1
175
     1
 42
1.0
 92
        0
 66
   257
 43
1.0
 76
     1
 77
     6
 78
     2
 67
     7
 79
     3
170
     0
171
     0
290
     0
174
     0
 93
        1
 44
0.0
173
     0
291
     0
 45
0.0
  0
VISUALSTYLE
  5
F17
102
{ACAD_REACTORS
330
267
102
}
330
267
100
AcDbVisualStyle
  2
X-Ray
 70
    25
 71
     2
 72
     2
 73
     1
 90
        1
 40
0.5
 41
30.0
 62
     5
 63
     7
421
 16777215
 74
     1
 91
        0
 64
     7
 65
   257
 75
     1
175
     1
 42
1.0
 92
        8
 66
     7
 43
1.0
 76
     1
 77
     6
 78
     2
 67
     7
 79
     3
170
     0
171
     0
290
     0
174
     0
 93
       13
 44
0.0
173
     0
291
     0
 45
0.0
  0
DICTIONARYVAR
  5
331
102
{ACAD_REACTORS
330
330
102
}
330
330
100
DictionaryVariables
280
     0
  1
1:1
  0
DICTIONARYVAR
  5
5C50
102
{ACAD_REACTORS
330
330
102
}
330
330
100
DictionaryVariables
280
     0
  1
Standard
  0
DICTIONARYVAR
  5
335
102
{ACAD_REACTORS
330
330
102
}
330
330
100
DictionaryVariables
280
     0
  1
Standard
  0
DICTIONARYVAR
  5
5816
102
{ACAD_REACTORS
330
330
102
}
330
330
100
DictionaryVariables
280
     0
  1
ByLayer
  0
DICTIONARYVAR
  5
13B4
102
{ACAD_REACTORS
330
330
102
}
330
330
100
DictionaryVariables
280
     0
  1
0
  0
FIELD
  5
5CF0
102
{ACAD_REACTORS
330
5CEF
102
}
330
5CEF
100
AcDbField
  1
_text
  2
{%<\_FldIdx 0>%N}
 90
        1
360
5CF1
 97
        0
 91
       63
 92
        0
 94
       11
 95
        2
 96
        0
300

 93
        1
  6
ACFD_FIELDTEXT_CHECKSUM
 93
        2
 90
        2
140
4528.0
 94
        0
300

302

304
ACVALUE_END
  7
ACFD_FIELD_VALUE
 93
        6
 90
        4
  1
{20180416N}
 94
        0
300

302

304
ACVALUE_END
301
{20180416N}
 98
       11
  0
DICTIONARY
  5
5E29
330
279
100
AcDbDictionary
280
     1
281
     1
  3
ACAD_ROUNDTRIP_2008_TABLESTYLE_CELLSTYLEMAP
360
5E2A
  0
FIELD
  5
5CF1
330
5CF0
100
AcDbField
  1
AcVar
  2
\AcVar Date \f "yyyyMMdd"
 90
        0
 97
        0
 91
       63
 92
        0
 94
       11
 95
       64
 96
        0
300
Variable not supported
 93
        1
  6
Variable
 93
        2
 90
        4
  1
Date
 94
        0
300

302

304
ACVALUE_END
  7
ACFD_FIELD_VALUE
 93
        6
 90
        8
 92
       16
310
E2070400000010000A000E0023000000
 94
        0
300
yyyyMMdd
302

304
ACVALUE_END
301
20180416
 98
        8
  0
CELLSTYLEMAP
  5
5E2A
102
{ACAD_REACTORS
330
5E29
102
}
330
5E29
100
AcDbCellStyleMap
 90
        3
300
CELLSTYLE
  1
TABLEFORMAT_BEGIN
 90
        5
170
     1
 91
        0
 92
    32768
 62
   257
 93
        1
300
CONTENTFORMAT
  1
CONTENTFORMAT_BEGIN
 90
        0
 91
        0
 92
        4
 93
        0
300

 40
0.0
140
1.0
 94
        5
 62
     0
340
17
144
6.0
309
CONTENTFORMAT_END
171
     1
301
MARGIN
  1
CELLMARGIN_BEGIN
 40
0.06
 40
0.06
 40
0.06
 40
0.06
 40
0.18
 40
0.18
309
CELLMARGIN_END
 94
        6
 95
        1
302
GRIDFORMAT
  1
GRIDFORMAT_BEGIN
 90
        0
 91
        1
 62
     0
 92
       -2
340
0
 93
        0
 40
0.045
309
GRIDFORMAT_END
 95
        2
302
GRIDFORMAT
  1
GRIDFORMAT_BEGIN
 90
        0
 91
        1
 62
     0
 92
       -2
340
0
 93
        0
 40
0.045
309
GRIDFORMAT_END
 95
        4
302
GRIDFORMAT
  1
GRIDFORMAT_BEGIN
 90
        0
 91
        1
 62
     0
 92
       -2
340
0
 93
        0
 40
0.045
309
GRIDFORMAT_END
 95
        8
302
GRIDFORMAT
  1
GRIDFORMAT_BEGIN
 90
        0
 91
        1
 62
     0
 92
       -2
340
0
 93
        0
 40
0.045
309
GRIDFORMAT_END
 95
       16
302
GRIDFORMAT
  1
GRIDFORMAT_BEGIN
 90
        0
 91
        1
 62
     0
 92
       -2
340
0
 93
        0
 40
0.045
309
GRIDFORMAT_END
 95
       32
302
GRIDFORMAT
  1
GRIDFORMAT_BEGIN
 90
        0
 91
        1
 62
     0
 92
       -2
340
0
 93
        0
 40
0.045
309
GRIDFORMAT_END
309
TABLEFORMAT_END
  1
CELLSTYLE_BEGIN
 90
        1
 91
        1
300
_TITLE
309
CELLSTYLE_END
300
CELLSTYLE
  1
TABLEFORMAT_BEGIN
 90
        5
170
     1
 91
        0
 92
        0
 62
   257
 93
        1
300
CONTENTFORMAT
  1
CONTENTFORMAT_BEGIN
 90
        0
 91
        0
 92
        4
 93
        0
300

 40
0.0
140
1.0
 94
        5
 62
     0
340
17
144
4.5
309
CONTENTFORMAT_END
171
     1
301
MARGIN
  1
CELLMARGIN_BEGIN
 40
0.06
 40
0.06
 40
0.06
 40
0.06
 40
0.18
 40
0.18
309
CELLMARGIN_END
 94
        6
 95
        1
302
GRIDFORMAT
  1
GRIDFORMAT_BEGIN
 90
        0
 91
        1
 62
     0
 92
       -2
340
0
 93
        0
 40
0.045
309
GRIDFORMAT_END
 95
        2
302
GRIDFORMAT
  1
GRIDFORMAT_BEGIN
 90
        0
 91
        1
 62
     0
 92
       -2
340
0
 93
        0
 40
0.045
309
GRIDFORMAT_END
 95
        4
302
GRIDFORMAT
  1
GRIDFORMAT_BEGIN
 90
        0
 91
        1
 62
     0
 92
       -2
340
0
 93
        0
 40
0.045
309
GRIDFORMAT_END
 95
        8
302
GRIDFORMAT
  1
GRIDFORMAT_BEGIN
 90
        0
 91
        1
 62
     0
 92
       -2
340
0
 93
        0
 40
0.045
309
GRIDFORMAT_END
 95
       16
302
GRIDFORMAT
  1
GRIDFORMAT_BEGIN
 90
        0
 91
        1
 62
     0
 92
       -2
340
0
 93
        0
 40
0.045
309
GRIDFORMAT_END
 95
       32
302
GRIDFORMAT
  1
GRIDFORMAT_BEGIN
 90
        0
 91
        1
 62
     0
 92
       -2
340
0
 93
        0
 40
0.045
309
GRIDFORMAT_END
309
TABLEFORMAT_END
  1
CELLSTYLE_BEGIN
 90
        2
 91
        1
300
_HEADER
309
CELLSTYLE_END
300
CELLSTYLE
  1
TABLEFORMAT_BEGIN
 90
        5
170
     1
 91
        0
 92
        0
 62
   257
 93
        1
300
CONTENTFORMAT
  1
CONTENTFORMAT_BEGIN
 90
        0
 91
        0
 92
        4
 93
        0
300

 40
0.0
140
1.0
 94
        2
 62
     0
340
17
144
4.5
309
CONTENTFORMAT_END
171
     1
301
MARGIN
  1
CELLMARGIN_BEGIN
 40
0.06
 40
0.06
 40
0.06
 40
0.06
 40
0.18
 40
0.18
309
CELLMARGIN_END
 94
        6
 95
        1
302
GRIDFORMAT
  1
GRIDFORMAT_BEGIN
 90
        0
 91
        1
 62
     0
 92
       -2
340
0
 93
        0
 40
0.045
309
GRIDFORMAT_END
 95
        2
302
GRIDFORMAT
  1
GRIDFORMAT_BEGIN
 90
        0
 91
        1
 62
     0
 92
       -2
340
0
 93
        0
 40
0.045
309
GRIDFORMAT_END
 95
        4
302
GRIDFORMAT
  1
GRIDFORMAT_BEGIN
 90
        0
 91
        1
 62
     0
 92
       -2
340
0
 93
        0
 40
0.045
309
GRIDFORMAT_END
 95
        8
302
GRIDFORMAT
  1
GRIDFORMAT_BEGIN
 90
        0
 91
        1
 62
     0
 92
       -2
340
0
 93
        0
 40
0.045
309
GRIDFORMAT_END
 95
       16
302
GRIDFORMAT
  1
GRIDFORMAT_BEGIN
 90
        0
 91
        1
 62
     0
 92
       -2
340
0
 93
        0
 40
0.045
309
GRIDFORMAT_END
 95
       32
302
GRIDFORMAT
  1
GRIDFORMAT_BEGIN
 90
        0
 91
        1
 62
     0
 92
       -2
340
0
 93
        0
 40
0.045
309
GRIDFORMAT_END
309
TABLEFORMAT_END
  1
CELLSTYLE_BEGIN
 90
        3
 91
        2
300
_DATA
309
CELLSTYLE_END
  0
ENDSEC
  0
EOF
