  0
SECTION
  2
HEADER
  9
$ACADVER
  1
AC1021
  9
$ACADMAINTVER
 70
    25
  9
$DWGCODEPAGE
  3
ANSI_932
  9
$LASTSAVEDBY
  1
howeNelson
  9
$INSBASE
 10
0.0
 20
0.0
 30
0.0
  9
$EXTMIN
 10
0.0
 20
0.0
 30
0.0
  9
$EXTMAX
 10
593.9999999999999
 20
420.0
 30
0.0
  9
$LIMMIN
 10
0.0
 20
0.0
  9
$LIMMAX
 10
594.0
 20
419.9999999999996
  9
$ORTHOMODE
 70
     0
  9
$REGENMODE
 70
     1
  9
$FILLMODE
 70
     1
  9
$QTEXTMODE
 70
     0
  9
$MIRRTEXT
 70
     1
  9
$LTSCALE
 40
2.0
  9
$ATTMODE
 70
     1
  9
$TEXTSIZE
 40
2.5
  9
$TRACEWID
 40
1.0
  9
$TEXTSTYLE
  7
ＭＳ ゴシック
  9
$CLAYER
  8
SPACER
  9
$CELTYPE
  6
Continuous
  9
$CECOLOR
 62
   256
  9
$CELTSCALE
 40
1.0
  9
$DISPSILH
 70
     0
  9
$DIMSCALE
 40
1.0
  9
$DIMASZ
 40
1.5
  9
$DIMEXO
 40
5.0
  9
$DIMDLI
 40
0.9999999999999999
  9
$DIMRND
 40
0.0
  9
$DIMDLE
 40
0.0
  9
$DIMEXE
 40
0.0
  9
$DIMTP
 40
0.0
  9
$DIMTM
 40
0.0
  9
$DIMTXT
 40
5.0
  9
$DIMCEN
 40
0.0
  9
$DIMTSZ
 40
0.0
  9
$DIMTOL
 70
     0
  9
$DIMLIM
 70
     0
  9
$DIMTIH
 70
     0
  9
$DIMTOH
 70
     0
  9
$DIMSE1
 70
     0
  9
$DIMSE2
 70
     0
  9
$DIMTAD
 70
     1
  9
$DIMZIN
 70
    11
  9
$DIMBLK
  1
DOT
  9
$DIMASO
 70
     1
  9
$DIMSHO
 70
     1
  9
$DIMPOST
  1
<>
  9
$DIMAPOST
  1
[]
  9
$DIMALT
 70
     0
  9
$DIMALTD
 70
     1
  9
$DIMALTF
 40
1.0
  9
$DIMLFAC
 40
1.0
  9
$DIMTOFL
 70
     0
  9
$DIMTVP
 40
0.0
  9
$DIMTIX
 70
     1
  9
$DIMSOXD
 70
     0
  9
$DIMSAH
 70
     0
  9
$DIMBLK1
  1

  9
$DIMBLK2
  1

  9
$DIMSTYLE
  2
tfrom線あり
  9
$DIMCLRD
 70
     0
  9
$DIMCLRE
 70
     0
  9
$DIMCLRT
 70
     0
  9
$DIMTFAC
 40
1.0
  9
$DIMGAP
 40
2.0
  9
$DIMJUST
 70
     0
  9
$DIMSD1
 70
     0
  9
$DIMSD2
 70
     0
  9
$DIMTOLJ
 70
     1
  9
$DIMTZIN
 70
    11
  9
$DIMALTZ
 70
    11
  9
$DIMALTTZ
 70
    11
  9
$DIMUPT
 70
     0
  9
$DIMDEC
 70
     0
  9
$DIMTDEC
 70
     1
  9
$DIMALTU
 70
     2
  9
$DIMALTTD
 70
     2
  9
$DIMTXSTY
  7
ＭＳ ゴシック
  9
$DIMAUNIT
 70
     0
  9
$DIMADEC
 70
     2
  9
$DIMALTRND
 40
0.0
  9
$DIMAZIN
 70
     0
  9
$DIMDSEP
 70
    46
  9
$DIMATFIT
 70
     0
  9
$DIMFRAC
 70
     2
  9
$DIMLDRBLK
  1
DOT
  9
$DIMLUNIT
 70
     2
  9
$DIMLWD
 70
    -2
  9
$DIMLWE
 70
    -2
  9
$DIMTMOVE
 70
     0
  9
$DIMFXL
 40
1.0
  9
$DIMFXLON
 70
     0
  9
$DIMJOGANG
 40
0.7853981633974483
  9
$DIMTFILL
 70
     0
  9
$DIMTFILLCLR
 70
     0
  9
$DIMARCSYM
 70
     0
  9
$DIMLTYPE
  6

  9
$DIMLTEX1
  6

  9
$DIMLTEX2
  6

  9
$LUNITS
 70
     2
  9
$LUPREC
 70
     0
  9
$SKETCHINC
 40
0.1
  9
$FILLETRAD
 40
0.0
  9
$AUNITS
 70
     0
  9
$AUPREC
 70
     0
  9
$MENU
  1
acad
  9
$ELEVATION
 40
0.0
  9
$PELEVATION
 40
0.0
  9
$THICKNESS
 40
0.0
  9
$LIMCHECK
 70
     0
  9
$CHAMFERA
 40
0.0
  9
$CHAMFERB
 40
0.0
  9
$CHAMFERC
 40
0.0
  9
$CHAMFERD
 40
0.0
  9
$SKPOLY
 70
     0
  9
$TDCREATE
 40
2447893.375
  9
$TDUCREATE
 40
0.0
  9
$TDUPDATE
 40
2457623.584855359
  9
$TDUUPDATE
 40
2457623.209855359
  9
$TDINDWG
 40
0.0
  9
$TDUSRTIMER
 40
0.0
  9
$USRTIMER
 70
     1
  9
$ANGBASE
 50
0.0
  9
$ANGDIR
 70
     0
  9
$PDMODE
 70
     1
  9
$PDSIZE
 40
-2.0
  9
$PLINEWID
 40
0.0
  9
$SPLFRAME
 70
     0
  9
$SPLINETYPE
 70
     6
  9
$SPLINESEGS
 70
     8
  9
$HANDSEED
  5
59D5
  9
$SURFTAB1
 70
     6
  9
$SURFTAB2
 70
     6
  9
$SURFTYPE
 70
     6
  9
$SURFU
 70
     6
  9
$SURFV
 70
     6
  9
$UCSBASE
  2

  9
$UCSNAME
  2

  9
$UCSORG
 10
0.0
 20
0.0
 30
0.0
  9
$UCSXDIR
 10
1.0
 20
0.0
 30
0.0
  9
$UCSYDIR
 10
0.0
 20
1.0
 30
0.0
  9
$UCSORTHOREF
  2

  9
$UCSORTHOVIEW
 70
     0
  9
$UCSORGTOP
 10
0.0
 20
0.0
 30
0.0
  9
$UCSORGBOTTOM
 10
0.0
 20
0.0
 30
0.0
  9
$UCSORGLEFT
 10
0.0
 20
0.0
 30
0.0
  9
$UCSORGRIGHT
 10
0.0
 20
0.0
 30
0.0
  9
$UCSORGFRONT
 10
0.0
 20
0.0
 30
0.0
  9
$UCSORGBACK
 10
0.0
 20
0.0
 30
0.0
  9
$PUCSBASE
  2

  9
$PUCSNAME
  2

  9
$PUCSORG
 10
0.0
 20
0.0
 30
0.0
  9
$PUCSXDIR
 10
1.0
 20
0.0
 30
0.0
  9
$PUCSYDIR
 10
0.0
 20
1.0
 30
0.0
  9
$PUCSORTHOREF
  2

  9
$PUCSORTHOVIEW
 70
     0
  9
$PUCSORGTOP
 10
0.0
 20
0.0
 30
0.0
  9
$PUCSORGBOTTOM
 10
0.0
 20
0.0
 30
0.0
  9
$PUCSORGLEFT
 10
0.0
 20
0.0
 30
0.0
  9
$PUCSORGRIGHT
 10
0.0
 20
0.0
 30
0.0
  9
$PUCSORGFRONT
 10
0.0
 20
0.0
 30
0.0
  9
$PUCSORGBACK
 10
0.0
 20
0.0
 30
0.0
  9
$USERI1
 70
     0
  9
$USERI2
 70
     0
  9
$USERI3
 70
     0
  9
$USERI4
 70
     0
  9
$USERI5
 70
     0
  9
$USERR1
 40
0.0
  9
$USERR2
 40
0.0
  9
$USERR3
 40
0.0
  9
$USERR4
 40
0.0
  9
$USERR5
 40
0.0
  9
$WORLDVIEW
 70
     1
  9
$SHADEDGE
 70
     3
  9
$SHADEDIF
 70
    70
  9
$TILEMODE
 70
     1
  9
$MAXACTVP
 70
    64
  9
$PINSBASE
 10
0.0
 20
0.0
 30
0.0
  9
$PLIMCHECK
 70
     0
  9
$PEXTMIN
 10
0.0
 20
0.0
 30
0.0
  9
$PEXTMAX
 10
0.0
 20
0.0
 30
0.0
  9
$PLIMMIN
 10
-95.87226993865028
 20
-25.69999999999999
  9
$PLIMMAX
 10
201.1277300613497
 20
184.3
  9
$UNITMODE
 70
     0
  9
$VISRETAIN
 70
     0
  9
$PLINEGEN
 70
     1
  9
$PSLTSCALE
 70
     1
  9
$TREEDEPTH
 70
  3020
  9
$CMLSTYLE
  2
Standard
  9
$CMLJUST
 70
     0
  9
$CMLSCALE
 40
1.0
  9
$PROXYGRAPHICS
 70
     0
  9
$MEASUREMENT
 70
     1
  9
$CELWEIGHT
370
     0
  9
$ENDCAPS
280
     0
  9
$JOINSTYLE
280
     0
  9
$LWDISPLAY
290
     1
  9
$INSUNITS
 70
     4
  9
$HYPERLINKBASE
  1

  9
$STYLESHEET
  1

  9
$XEDIT
290
     1
  9
$CEPSNTYPE
380
     0
  9
$PSTYLEMODE
290
     1
  9
$FINGERPRINTGUID
  2

  9
$VERSIONGUID
  2

  9
$EXTNAMES
290
     1
  9
$PSVPSCALE
 40
0.0
  9
$OLESTARTUP
290
     0
  9
$SORTENTS
280
   127
  9
$INDEXCTL
280
     0
  9
$HIDETEXT
280
     1
  9
$XCLIPFRAME
290
     0
  9
$HALOGAP
280
     0
  9
$OBSCOLOR
 70
   257
  9
$OBSLTYPE
280
     0
  9
$INTERSECTIONDISPLAY
280
     0
  9
$INTERSECTIONCOLOR
 70
   257
  9
$DIMASSOC
280
     2
  9
$PROJECTNAME
  1

  9
$CAMERADISPLAY
290
     0
  9
$LENSLENGTH
 40
50.0
  9
$CAMERAHEIGHT
 40
0.0
  9
$STEPSPERSEC
 40
2.0
  9
$STEPSIZE
 40
6.0
  9
$3DDWFPREC
 40
2.0
  9
$PSOLWIDTH
 40
0.25
  9
$PSOLHEIGHT
 40
4.0
  9
$LOFTANG1
 40
1.570796326794897
  9
$LOFTANG2
 40
1.570796326794897
  9
$LOFTMAG1
 40
0.0
  9
$LOFTMAG2
 40
0.0
  9
$LOFTPARAM
 70
     7
  9
$LOFTNORMALS
280
     1
  9
$LATITUDE
 40
37.795
  9
$LONGITUDE
 40
-122.394
  9
$NORTHDIRECTION
 40
0.0
  9
$TIMEZONE
 70
 -8000
  9
$LIGHTGLYPHDISPLAY
280
     1
  9
$TILEMODELIGHTSYNCH
280
     1
  9
$SOLIDHIST
280
     1
  9
$SHOWHIST
280
     1
  9
$DWFFRAME
280
     2
  9
$DGNFRAME
280
     2
  9
$REALWORLDSCALE
290
     1
  9
$INTERFERECOLOR
 62
   256
  9
$CSHADOW
280
     0
  9
$SHADOWPLANELOCATION
 40
0.0
  0
ENDSEC
  0
SECTION
  2
CLASSES
  0
CLASS
  1
LWPOLYLINE
  2
AcDbPolyline
  3
ObjectDBX Classes
 90
        0
 91
        1
280
     0
281
     1
  0
CLASS
  1
IMAGE
  2
AcDbRasterImage
  3
ISM
 90
      127
 91
       41
280
     0
281
     1
  0
CLASS
  1
OLE2FRAME
  2
AcDbOle2Frame
  3
ObjectDBX Classes
 90
        0
 91
        1
280
     0
281
     1
  0
CLASS
  1
HATCH
  2
AcDbHatch
  3
ObjectDBX Classes
 90
        0
 91
        1
280
     0
281
     1
  0
CLASS
  1
DICTIONARYVAR
  2
AcDbDictionaryVar
  3
ObjectDBX Classes
 90
        0
 91
       40
280
     0
281
     0
  0
CLASS
  1
RASTERVARIABLES
  2
AcDbRasterVariables
  3
ISM
 90
        0
 91
       40
280
     0
281
     0
  0
CLASS
  1
IMAGEDEF
  2
AcDbRasterImageDef
  3
ISM
 90
        0
 91
       40
280
     0
281
     0
  0
CLASS
  1
IMAGEDEF_REACTOR
  2
AcDbRasterImageDefReactor
  3
ISM
 90
        1
 91
       40
280
     0
281
     0
  0
CLASS
  1
IDBUFFER
  2
AcDbIdBuffer
  3
ObjectDBX Classes
 90
        0
 91
       40
280
     0
281
     0
  0
CLASS
  1
SPATIAL_FILTER
  2
AcDbSpatialFilter
  3
ObjectDBX Classes
 90
        0
 91
       40
280
     0
281
     0
  0
CLASS
  1
XRECORD
  2
AcDbXrecord
  3
ObjectDBX Classes
 90
        0
 91
        1
280
     0
281
     0
  0
CLASS
  1
SORTENTSTABLE
  2
AcDbSortentsTable
  3
ObjectDBX Classes
 90
        0
 91
       40
280
     0
281
     0
  0
CLASS
  1
LAYER_INDEX
  2
AcDbLayerIndex
  3
ObjectDBX Classes
 90
        0
 91
       40
280
     0
281
     0
  0
CLASS
  1
SPATIAL_INDEX
  2
AcDbSpatialIndex
  3
AutoCAD 2000
 90
        0
 91
       40
280
     0
281
     0
  0
CLASS
  1
OBJECT_PTR
  2
CAseDLPNTableRecord
  3
ASE-LPNTableRecord
 90
        1
 91
       40
280
     0
281
     0
  0
CLASS
  1
LAYOUT
  2
AcDbLayout
  3
ObjectDBX Classes
 90
        0
 91
        1
280
     0
281
     0
  0
CLASS
  1
PLOTSETTINGS
  2
AcDbPlotSettings
  3
ObjectDBX Classes
 90
        0
 91
       40
280
     0
281
     0
  0
CLASS
  1
ACDBDICTIONARYWDFLT
  2
AcDbDictionaryWithDefault
  3
ObjectDBX Classes
 90
        0
 91
       40
280
     0
281
     0
  0
CLASS
  1
ACDBPLACEHOLDER
  2
AcDbPlaceHolder
  3
ObjectDBX Classes
 90
        0
 91
        1
280
     0
281
     0
  0
CLASS
  1
SCALE
  2
AcDbScale
  3
ObjectDBX Classes
 90
     1153
 91
       40
280
     0
281
     0
  0
CLASS
  1
MATERIAL
  2
AcDbMaterial
  3
ObjectDBX Classes
 90
     1153
 91
       40
280
     0
281
     0
  0
CLASS
  1
VISUALSTYLE
  2
AcDbVisualStyle
  3
ObjectDBX Classes
 90
     4095
 91
       40
280
     0
281
     0
  0
CLASS
  1
TABLESTYLE
  2
AcDbTableStyle
  3
ObjectDBX Classes
 90
     4095
 91
       40
280
     0
281
     0
  0
CLASS
  1
DIMASSOC
  2
AcDbDimAssoc
  3
"AcDbDimAssoc|Product Desc:     AcDim ARX App For Dimension|Company:          Autodesk, Inc.|WEB Address:      www.autodesk.com"
 90
        0
 91
       40
280
     0
281
     0
  0
CLASS
  1
CELLSTYLEMAP
  2
AcDbCellStyleMap
  3
ObjectDBX Classes
 90
     1152
 91
       40
280
     0
281
     0
  0
CLASS
  1
SUN
  2
AcDbSun
  3
SCENEOE
 90
     1153
 91
       40
280
     0
281
     0
  0
CLASS
  1
MLEADERSTYLE
  2
AcDbMLeaderStyle
  3
ACDB_MLEADERSTYLE_CLASS
 90
     4095
 91
       40
280
     0
281
     0
  0
ENDSEC
  0
SECTION
  2
TABLES
  0
TABLE
  2
VPORT
  5
7
330
0
100
AcDbSymbolTable
 70
     1
  0
VPORT
  5
15
330
7
100
AcDbSymbolTableRecord
100
AcDbViewportTableRecord
  2
*ACTIVE
 70
     0
 10
0.0
 20
0.0
 11
1.0
 21
1.0
 12
296.9999999999999
 22
210.0
 13
0.0
 23
0.0
 14
1.0
 24
1.0
 15
0.0
 25
0.0
 16
0.0
 26
0.0
 36
1.0
 17
0.0
 27
0.0
 37
0.0
 40
428.4000000000003
 41
2.432944606413994
 42
50.0
 43
0.0
 44
0.0
 50
0.0
 51
0.0
 71
    16
 72
  2000
 73
     1
 74
     1
 75
     0
 76
     0
 77
     0
 78
     0
281
     0
 65
     1
110
0.0
120
0.0
130
0.0
111
1.0
121
0.0
131
0.0
112
0.0
122
1.0
132
0.0
 79
     0
146
0.0
348
26C
 60
     3
 61
     5
292
     1
282
     1
141
0.0
142
0.0
 63
   256
361
F1A
  0
ENDTAB
  0
TABLE
  2
LTYPE
  5
4
330
0
100
AcDbSymbolTable
 70
     5
  0
LTYPE
  5
11
330
4
100
AcDbSymbolTableRecord
100
AcDbLinetypeTableRecord
  2
ByBlock
 70
     0
  3

 72
    65
 73
     0
 40
0.0
  0
LTYPE
  5
12
330
4
100
AcDbSymbolTableRecord
100
AcDbLinetypeTableRecord
  2
ByLayer
 70
     0
  3
Solid line
 72
    65
 73
     0
 40
0.0
  0
LTYPE
  5
13
330
4
100
AcDbSymbolTableRecord
100
AcDbLinetypeTableRecord
  2
Continuous
 70
     0
  3
Solid line
 72
    65
 73
     0
 40
0.0
  0
LTYPE
  5
3B
330
4
100
AcDbSymbolTableRecord
100
AcDbLinetypeTableRecord
  2
STYLE_02
 70
     0
  3

 72
    65
 73
     2
 40
0.6944250000000001
 49
0.48607
 74
     0
 49
-0.2083550000000001
 74
     0
  0
LTYPE
  5
90E
330
4
100
AcDbSymbolTableRecord
100
AcDbLinetypeTableRecord
  2
DASHED1
 70
     0
  3
--  --  --  --  --  --  --  --  
 72
    65
 73
     2
 40
2.5
 49
1.25
 74
     0
 49
-1.25
 74
     0
  0
LTYPE
  5
5230
330
4
100
AcDbSymbolTableRecord
100
AcDbLinetypeTableRecord
  2
CENTER
 70
     0
  3
----------  --  ----------  --  
 72
    65
 73
     4
 40
20.0
 49
12.5
 74
     0
 49
-2.5
 74
     0
 49
2.5
 74
     0
 49
-2.5
 74
     0
  0
LTYPE
  5
5231
330
4
100
AcDbSymbolTableRecord
100
AcDbLinetypeTableRecord
  2
HIDDEN
 70
     0
  3
Hidden _ _ _ _ _ _ _ _ _ _ _ _ _ _ _ _ _ _ _ _ 
 72
    65
 73
     2
 40
9.524999999999999
 49
6.35
 74
     0
 49
-3.175
 74
     0
  0
ENDTAB
  0
TABLE
  2
LAYER
  5
2
102
{ACAD_XDICTIONARY
360
2E1
102
}
330
0
100
AcDbSymbolTable
 70
    14
  0
LAYER
  5
14
330
2
100
AcDbSymbolTableRecord
100
AcDbLayerTableRecord
  2
0
 70
     0
 62
    -7
  6
Continuous
370
    -3
390
1D
347
266
  0
LAYER
  5
4A
330
2
100
AcDbSymbolTableRecord
100
AcDbLayerTableRecord
  2
Defpoints
 70
     0
 62
    -7
  6
Continuous
290
     0
370
    -3
390
1D
347
266
  0
LAYER
  5
4D
330
2
100
AcDbSymbolTableRecord
100
AcDbLayerTableRecord
  2
MODEL
 70
     0
 62
     7
  6
Continuous
370
    20
390
1D
347
266
  0
LAYER
  5
667
330
2
100
AcDbSymbolTableRecord
100
AcDbLayerTableRecord
  2
レイヤー 1
 70
     0
 62
     7
  6
Continuous
370
    -3
390
1D
347
266
  0
LAYER
  5
13AF
330
2
100
AcDbSymbolTableRecord
100
AcDbLayerTableRecord
  2
DIM
 70
     0
 62
     7
  6
Continuous
370
    13
390
1D
347
266
1001
AcAecLayerStandard
1000

1000

  0
LAYER
  5
5226
330
2
100
AcDbSymbolTableRecord
100
AcDbLayerTableRecord
  2
寸法
 70
     0
 62
     7
  6
Continuous
370
    13
390
1D
347
266
1001
AcAecLayerStandard
1000

1000

  0
LAYER
  5
5229
330
2
100
AcDbSymbolTableRecord
100
AcDbLayerTableRecord
  2
モデル
 70
     0
 62
     7
  6
Continuous
370
    20
390
1D
347
266
1001
AcAecLayerStandard
1000

1000

  0
LAYER
  5
522A
330
2
100
AcDbSymbolTableRecord
100
AcDbLayerTableRecord
  2
テンプレート
 70
     0
 62
     7
  6
Continuous
370
    20
390
1D
347
266
1001
AcAecLayerStandard
1000

1000

  0
LAYER
  5
522B
330
2
100
AcDbSymbolTableRecord
100
AcDbLayerTableRecord
  2
TFORMLOGO
 70
     0
 62
     7
  6
Continuous
370
    20
390
1D
347
266
  0
LAYER
  5
522C
330
2
100
AcDbSymbolTableRecord
100
AcDbLayerTableRecord
  2
PRINT BORDER
 70
     0
 62
     4
  6
Continuous
290
     0
370
    -3
390
1D
347
266
1001
AcAecLayerStandard
1000

1000

  0
LAYER
  5
522D
330
2
100
AcDbSymbolTableRecord
100
AcDbLayerTableRecord
  2
SPACER
 70
     0
 62
    -3
  6
Continuous
290
     0
370
    -3
390
1D
347
266
1001
AcAecLayerStandard
1000

1000

  0
LAYER
  5
522E
330
2
100
AcDbSymbolTableRecord
100
AcDbLayerTableRecord
  2
_0-1_
 70
     0
 62
     7
  6
Continuous
290
     0
370
    -3
390
1D
347
266
  0
LAYER
  5
522F
330
2
100
AcDbSymbolTableRecord
100
AcDbLayerTableRecord
  2
CutoutOverlay
 70
     0
 62
     7
  6
Continuous
370
    20
390
1D
347
266
1001
AcAecLayerStandard
1000

1000

  0
LAYER
  5
536E
330
2
100
AcDbSymbolTableRecord
100
AcDbLayerTableRecord
  2
CutoutUnderlay
 70
     0
 62
   254
  6
Continuous
370
    20
390
1D
347
266
1001
AcAecLayerStandard
1000

1000

  0
ENDTAB
  0
TABLE
  2
STYLE
  5
3
330
0
100
AcDbSymbolTable
 70
     2
  0
STYLE
  5
17
330
3
100
AcDbSymbolTableRecord
100
AcDbTextStyleTableRecord
  2
Standard
 70
     0
 40
0.0
 41
1.0
 50
0.0
 71
     0
 42
2.5
  3
txt
  4
BIGFONT.SHX
  0
STYLE
  5
39
330
3
100
AcDbSymbolTableRecord
100
AcDbTextStyleTableRecord
  2
ＭＳ ゴシック
 70
     0
 40
0.0
 41
1.0
 50
0.0
 71
     0
 42
2.5
  3
msgothic.ttc
  4
ＭＳ ゴシック
1001
ACAD
1000
ＭＳ ゴシック
1071
        0
  0
ENDTAB
  0
TABLE
  2
VIEW
  5
5
330
0
100
AcDbSymbolTable
 70
     0
  0
ENDTAB
  0
TABLE
  2
UCS
  5
6
330
0
100
AcDbSymbolTable
 70
     0
  0
ENDTAB
  0
TABLE
  2
APPID
  5
8
330
0
100
AcDbSymbolTable
 70
     3
  0
APPID
  5
16
330
8
100
AcDbSymbolTableRecord
100
AcDbRegAppTableRecord
  2
ACAD
 70
     0
  0
APPID
  5
7AC
330
8
100
AcDbSymbolTableRecord
100
AcDbRegAppTableRecord
  2
AcAecLayerStandard
 70
     0
  0
APPID
  5
59CB
330
8
100
AcDbSymbolTableRecord
100
AcDbRegAppTableRecord
  2
ACAD_MLEADERVER
 70
     0
  0
ENDTAB
  0
TABLE
  2
DIMSTYLE
  5
9
330
0
100
AcDbSymbolTable
 70
     2
100
AcDbDimStyleTable
  0
DIMSTYLE
105
18
330
9
100
AcDbSymbolTableRecord
100
AcDbDimStyleTableRecord
  2
Standard
 70
     0
178
     0
340
17
  0
DIMSTYLE
105
57
102
{ACAD_REACTORS
330
4A6C
330
4A99
330
4AD2
330
4EF1
330
5037
330
561B
330
561C
330
561D
330
569C
330
588E
330
595C
330
5962
102
}
330
9
100
AcDbSymbolTableRecord
100
AcDbDimStyleTableRecord
  2
tfrom線あり
 70
     0
  3
<>
  4
[]
 41
1.5
 42
5.0
 43
0.9999999999999999
 44
0.0
 73
     0
 74
     0
 77
     1
 78
    11
140
5.0
141
0.0
143
1.0
147
2.0
171
     1
174
     1
178
     0
179
     2
271
     0
272
     1
276
     2
284
    11
285
    11
286
    11
289
     0
340
39
341
4E
342
4E
  0
ENDTAB
  0
TABLE
  2
BLOCK_RECORD
  5
1
330
0
100
AcDbSymbolTable
 70
    45
  0
BLOCK_RECORD
  5
A
330
1
100
AcDbSymbolTableRecord
100
AcDbBlockTableRecord
  2
*MODEL_SPACE
340
20
 70
     0
280
     1
281
     0
  0
BLOCK_RECORD
  5
B
330
1
100
AcDbSymbolTableRecord
100
AcDbBlockTableRecord
  2
*PAPER_SPACE
340
21
 70
     0
280
     1
281
     0
  0
BLOCK_RECORD
  5
4E
330
1
100
AcDbSymbolTableRecord
100
AcDbBlockTableRecord
  2
_DOT
340
0
102
{BLKREFS
331
4A75
331
4A76
331
4AA2
331
4AA3
331
4ADB
331
4ADC
331
4CB4
331
4CB5
331
4EFA
331
4EFB
331
5040
331
5041
331
52C2
331
52C3
331
52CE
331
52CF
331
52DB
331
52DC
331
5347
331
5348
331
5352
331
5353
331
535E
331
535F
331
53F0
331
53F1
331
53FA
331
53FB
331
5407
331
5408
331
5414
331
5415
331
5423
331
5424
331
547F
331
5480
331
54B4
331
54B5
331
54C0
331
54C1
331
54CD
331
54CE
331
5558
331
5559
331
56C2
331
56C3
331
56CE
331
56CF
331
56DA
331
56DB
331
56E6
331
56E7
331
56F2
331
56F3
331
56FE
331
56FF
331
570B
331
570C
331
5716
331
5717
331
5722
331
5723
331
572E
331
572F
331
5751
331
5752
331
5884
331
5885
331
5896
331
5897
331
5936
331
5937
331
5948
331
5949
331
5974
331
5975
331
5980
331
5981
102
}
 70
     0
280
     1
281
     0
  0
BLOCK_RECORD
  5
690
330
1
100
AcDbSymbolTableRecord
100
AcDbBlockTableRecord
  2
block 3
340
0
102
{BLKREFS
331
5272
102
}
 70
     0
280
     1
281
     0
  0
BLOCK_RECORD
  5
693
330
1
100
AcDbSymbolTableRecord
100
AcDbBlockTableRecord
  2
block 4
340
0
102
{BLKREFS
331
692
102
}
 70
     0
280
     1
281
     0
  0
BLOCK_RECORD
  5
6A2
330
1
100
AcDbSymbolTableRecord
100
AcDbBlockTableRecord
  2
block 5
340
0
102
{BLKREFS
331
6A1
102
}
 70
     0
280
     1
281
     0
  0
BLOCK_RECORD
  5
4A6F
330
1
100
AcDbSymbolTableRecord
100
AcDbBlockTableRecord
  2
*D4
340
0
 70
     0
280
     1
281
     0
  0
BLOCK_RECORD
  5
4A9C
330
1
100
AcDbSymbolTableRecord
100
AcDbBlockTableRecord
  2
*D5
340
0
 70
     0
280
     1
281
     0
  0
BLOCK_RECORD
  5
4AD5
330
1
100
AcDbSymbolTableRecord
100
AcDbBlockTableRecord
  2
*D6
340
0
 70
     0
280
     1
281
     0
  0
BLOCK_RECORD
  5
4CAE
330
1
100
AcDbSymbolTableRecord
100
AcDbBlockTableRecord
  2
*D7
340
0
 70
     0
280
     1
281
     0
  0
BLOCK_RECORD
  5
4EF4
330
1
100
AcDbSymbolTableRecord
100
AcDbBlockTableRecord
  2
*D8
340
0
 70
     0
280
     1
281
     0
  0
BLOCK_RECORD
  5
503A
330
1
100
AcDbSymbolTableRecord
100
AcDbBlockTableRecord
  2
*D9
340
0
 70
     0
280
     1
281
     0
  0
BLOCK_RECORD
  5
526D
330
1
100
AcDbSymbolTableRecord
100
AcDbBlockTableRecord
  2
名称未設定-1
340
0
102
{BLKREFS
331
5589
102
}
 70
     1
280
     1
281
     0
  0
BLOCK_RECORD
  5
5270
330
1
100
AcDbSymbolTableRecord
100
AcDbBlockTableRecord
  2
block 2
340
0
102
{BLKREFS
331
526F
102
}
 70
     0
280
     1
281
     0
  0
BLOCK_RECORD
  5
52BC
330
1
100
AcDbSymbolTableRecord
100
AcDbBlockTableRecord
  2
*D12
340
0
 70
     0
280
     1
281
     0
  0
BLOCK_RECORD
  5
52C9
330
1
100
AcDbSymbolTableRecord
100
AcDbBlockTableRecord
  2
*D13
340
0
 70
     0
280
     1
281
     0
  0
BLOCK_RECORD
  5
52D6
330
1
100
AcDbSymbolTableRecord
100
AcDbBlockTableRecord
  2
*D14
340
0
 70
     0
280
     1
281
     0
  0
BLOCK_RECORD
  5
5340
330
1
100
AcDbSymbolTableRecord
100
AcDbBlockTableRecord
  2
*D15
340
0
 70
     0
280
     1
281
     0
  0
BLOCK_RECORD
  5
534C
330
1
100
AcDbSymbolTableRecord
100
AcDbBlockTableRecord
  2
*D16
340
0
 70
     0
280
     1
281
     0
  0
BLOCK_RECORD
  5
5358
330
1
100
AcDbSymbolTableRecord
100
AcDbBlockTableRecord
  2
*D17
340
0
 70
     0
280
     1
281
     0
  0
BLOCK_RECORD
  5
53E9
330
1
100
AcDbSymbolTableRecord
100
AcDbBlockTableRecord
  2
*D18
340
0
 70
     0
280
     1
281
     0
  0
BLOCK_RECORD
  5
53F5
330
1
100
AcDbSymbolTableRecord
100
AcDbBlockTableRecord
  2
*D19
340
0
 70
     0
280
     1
281
     0
  0
BLOCK_RECORD
  5
5402
330
1
100
AcDbSymbolTableRecord
100
AcDbBlockTableRecord
  2
*D20
340
0
 70
     0
280
     1
281
     0
  0
BLOCK_RECORD
  5
540F
330
1
100
AcDbSymbolTableRecord
100
AcDbBlockTableRecord
  2
*D21
340
0
 70
     0
280
     1
281
     0
  0
BLOCK_RECORD
  5
541E
330
1
100
AcDbSymbolTableRecord
100
AcDbBlockTableRecord
  2
*D22
340
0
 70
     0
280
     1
281
     0
  0
BLOCK_RECORD
  5
547A
330
1
100
AcDbSymbolTableRecord
100
AcDbBlockTableRecord
  2
*D23
340
0
 70
     0
280
     1
281
     0
  0
BLOCK_RECORD
  5
54AE
330
1
100
AcDbSymbolTableRecord
100
AcDbBlockTableRecord
  2
*D24
340
0
 70
     0
280
     1
281
     0
  0
BLOCK_RECORD
  5
54BB
330
1
100
AcDbSymbolTableRecord
100
AcDbBlockTableRecord
  2
*D25
340
0
 70
     0
280
     1
281
     0
  0
BLOCK_RECORD
  5
54C8
330
1
100
AcDbSymbolTableRecord
100
AcDbBlockTableRecord
  2
*D26
340
0
 70
     0
280
     1
281
     0
  0
BLOCK_RECORD
  5
5553
330
1
100
AcDbSymbolTableRecord
100
AcDbBlockTableRecord
  2
*D27
340
0
 70
     0
280
     1
281
     0
  0
BLOCK_RECORD
  5
56BA
330
1
100
AcDbSymbolTableRecord
100
AcDbBlockTableRecord
  2
*D28
340
0
 70
     0
280
     1
281
     0
  0
BLOCK_RECORD
  5
56C8
330
1
100
AcDbSymbolTableRecord
100
AcDbBlockTableRecord
  2
*D29
340
0
 70
     0
280
     1
281
     0
  0
BLOCK_RECORD
  5
56D4
330
1
100
AcDbSymbolTableRecord
100
AcDbBlockTableRecord
  2
*D30
340
0
 70
     0
280
     1
281
     0
  0
BLOCK_RECORD
  5
56E0
330
1
100
AcDbSymbolTableRecord
100
AcDbBlockTableRecord
  2
*D31
340
0
 70
     0
280
     1
281
     0
  0
BLOCK_RECORD
  5
56EC
330
1
100
AcDbSymbolTableRecord
100
AcDbBlockTableRecord
  2
*D32
340
0
 70
     0
280
     1
281
     0
  0
BLOCK_RECORD
  5
56F8
330
1
100
AcDbSymbolTableRecord
100
AcDbBlockTableRecord
  2
*D33
340
0
 70
     0
280
     1
281
     0
  0
BLOCK_RECORD
  5
5704
330
1
100
AcDbSymbolTableRecord
100
AcDbBlockTableRecord
  2
*D34
340
0
 70
     0
280
     1
281
     0
  0
BLOCK_RECORD
  5
5710
330
1
100
AcDbSymbolTableRecord
100
AcDbBlockTableRecord
  2
*D35
340
0
 70
     0
280
     1
281
     0
  0
BLOCK_RECORD
  5
571C
330
1
100
AcDbSymbolTableRecord
100
AcDbBlockTableRecord
  2
*D36
340
0
 70
     0
280
     1
281
     0
  0
BLOCK_RECORD
  5
5728
330
1
100
AcDbSymbolTableRecord
100
AcDbBlockTableRecord
  2
*D37
340
0
 70
     0
280
     1
281
     0
  0
BLOCK_RECORD
  5
574B
330
1
100
AcDbSymbolTableRecord
100
AcDbBlockTableRecord
  2
*D38
340
0
 70
     0
280
     1
281
     0
  0
BLOCK_RECORD
  5
587E
330
1
100
AcDbSymbolTableRecord
100
AcDbBlockTableRecord
  2
*D39
340
0
 70
     0
280
     1
281
     0
  0
BLOCK_RECORD
  5
588F
330
1
100
AcDbSymbolTableRecord
100
AcDbBlockTableRecord
  2
*D40
340
0
 70
     0
280
     1
281
     0
  0
BLOCK_RECORD
  5
5931
330
1
100
AcDbSymbolTableRecord
100
AcDbBlockTableRecord
  2
*D41
340
0
 70
     0
280
     1
281
     0
  0
BLOCK_RECORD
  5
5943
330
1
100
AcDbSymbolTableRecord
100
AcDbBlockTableRecord
  2
*D42
340
0
 70
     0
280
     1
281
     0
  0
BLOCK_RECORD
  5
596E
330
1
100
AcDbSymbolTableRecord
100
AcDbBlockTableRecord
  2
*D43
340
0
 70
     0
280
     1
281
     0
  0
BLOCK_RECORD
  5
597A
330
1
100
AcDbSymbolTableRecord
100
AcDbBlockTableRecord
  2
*D44
340
0
 70
     0
280
     1
281
     0
  0
ENDTAB
  0
ENDSEC
  0
SECTION
  2
BLOCKS
  0
BLOCK
  5
D
330
A
100
AcDbEntity
  8
0
390
1D
100
AcDbBlockBegin
  2
*MODEL_SPACE
 70
     0
 10
0.0
 20
0.0
 30
0.0
  3
*MODEL_SPACE
  1
*MODEL_SPACE
  0
ENDBLK
  5
E
330
A
100
AcDbEntity
  8
0
390
1D
100
AcDbBlockEnd
  0
BLOCK
  5
F
330
B
100
AcDbEntity
 67
     1
  8
0
390
1D
100
AcDbBlockBegin
  2
*PAPER_SPACE
 70
     0
 10
0.0
 20
0.0
 30
0.0
  3
*PAPER_SPACE
  1
*PAPER_SPACE
  0
ENDBLK
  5
10
330
B
100
AcDbEntity
 67
     1
  8
0
390
1D
100
AcDbBlockEnd
  0
BLOCK
  5
56B1
330
4E
100
AcDbEntity
  8
0
390
1D
100
AcDbBlockBegin
  2
_DOT
 70
     0
 10
0.0
 20
0.0
 30
0.0
  3
_DOT
  1
_DOT
  0
POLYLINE
  5
56B3
330
4E
100
AcDbEntity
  8
0
  6
ByBlock
 62
     0
370
    -2
390
1D
100
AcDb2dPolyline
 66
     1
 10
0.0
 20
0.0
 30
0.0
 70
     1
 40
0.5
 41
0.5
  0
VERTEX
  5
56B4
330
56B3
100
AcDbEntity
  8
0
  6
ByBlock
 62
     0
370
    -2
390
1D
100
AcDbVertex
100
AcDb2dVertex
 10
-0.25
 20
0.0
 30
0.0
 42
1.0
  0
VERTEX
  5
56B5
330
56B3
100
AcDbEntity
  8
0
  6
ByBlock
 62
     0
370
    -2
390
1D
100
AcDbVertex
100
AcDb2dVertex
 10
0.25
 20
0.0
 30
0.0
 42
1.0
  0
SEQEND
  5
56B6
330
56B3
100
AcDbEntity
  8
0
390
1D
  0
LINE
  5
56B7
330
4E
100
AcDbEntity
  8
0
  6
ByBlock
 62
     0
370
    -2
390
1D
100
AcDbLine
 10
-0.5
 20
0.0
 30
0.0
 11
-1.0
 21
0.0
 31
0.0
  0
ENDBLK
  5
56B8
330
4E
100
AcDbEntity
  8
0
390
1D
100
AcDbBlockEnd
  0
BLOCK
  5
691
330
690
100
AcDbEntity
  8
0
100
AcDbBlockBegin
  2
block 3
 70
     0
 10
0.0
 20
0.0
 30
0.0
  3
block 3
  1
block 3
  0
INSERT
  5
692
330
690
100
AcDbEntity
  8
レイヤー 1
100
AcDbBlockReference
  2
block 4
 10
0.0
 20
0.0
 30
0.0
  0
ENDBLK
  5
6AF
330
690
100
AcDbEntity
  8
0
100
AcDbBlockEnd
  0
BLOCK
  5
694
330
693
100
AcDbEntity
  8
0
100
AcDbBlockBegin
  2
block 4
 70
     0
 10
0.0
 20
0.0
 30
0.0
  3
block 4
  1
block 4
  0
POLYLINE
  5
695
330
693
100
AcDbEntity
  8
レイヤー 1
370
     0
100
AcDb2dPolyline
 66
     1
 10
0.0
 20
0.0
 30
0.0
  0
VERTEX
  5
696
330
695
100
AcDbEntity
  8
レイヤー 1
370
     0
100
AcDbVertex
100
AcDb2dVertex
 10
83.79545727667795
 20
167.6444858234922
 30
0.0
  0
VERTEX
  5
697
330
695
100
AcDbEntity
  8
レイヤー 1
370
     0
100
AcDbVertex
100
AcDb2dVertex
 10
83.79545727667795
 20
159.7968976406313
 30
0.0
  0
VERTEX
  5
698
330
695
100
AcDbEntity
  8
レイヤー 1
370
     0
100
AcDbVertex
100
AcDb2dVertex
 10
71.3631329975216
 20
159.7968976406313
 30
0.0
  0
VERTEX
  5
699
330
695
100
AcDbEntity
  8
レイヤー 1
370
     0
100
AcDbVertex
100
AcDb2dVertex
 10
71.3631329975216
 20
127.8027915271048
 30
0.0
  0
VERTEX
  5
69A
330
695
100
AcDbEntity
  8
レイヤー 1
370
     0
100
AcDbVertex
100
AcDb2dVertex
 10
60.43011526263018
 20
127.8027915271048
 30
0.0
  0
VERTEX
  5
69B
330
695
100
AcDbEntity
  8
レイヤー 1
370
     0
100
AcDbVertex
100
AcDb2dVertex
 10
60.43011526263018
 20
159.7968976406313
 30
0.0
  0
VERTEX
  5
69C
330
695
100
AcDbEntity
  8
レイヤー 1
370
     0
100
AcDbVertex
100
AcDb2dVertex
 10
48.21793273020759
 20
159.7968976406313
 30
0.0
  0
VERTEX
  5
69D
330
695
100
AcDbEntity
  8
レイヤー 1
370
     0
100
AcDbVertex
100
AcDb2dVertex
 10
48.21793273020759
 20
167.6444858234922
 30
0.0
  0
VERTEX
  5
69E
330
695
100
AcDbEntity
  8
レイヤー 1
370
     0
100
AcDbVertex
100
AcDb2dVertex
 10
83.79545727667795
 20
167.6444858234922
 30
0.0
  0
SEQEND
  5
69F
330
695
100
AcDbEntity
  8
レイヤー 1
370
     0
  0
HATCH
  5
6A0
330
693
100
AcDbEntity
  8
レイヤー 1
 62
   250
420
  2234388
100
AcDbHatch
 10
0.0
 20
0.0
 30
0.0
210
0.0
220
0.0
230
1.0
  2
SOLID
 70
     1
 71
     0
 91
        1
 92
        1
 93
        8
 72
     1
 10
83.79545727667795
 20
167.6444858234922
 11
83.79545727667795
 21
159.7968976406313
 72
     1
 10
83.79545727667795
 20
159.7968976406313
 11
71.3631329975216
 21
159.7968976406313
 72
     1
 10
71.3631329975216
 20
159.7968976406313
 11
71.3631329975216
 21
127.8027915271048
 72
     1
 10
71.3631329975216
 20
127.8027915271048
 11
60.43011526263018
 21
127.8027915271048
 72
     1
 10
60.43011526263018
 20
127.8027915271048
 11
60.43011526263018
 21
159.7968976406313
 72
     1
 10
60.43011526263018
 20
159.7968976406313
 11
48.21793273020759
 21
159.7968976406313
 72
     1
 10
48.21793273020759
 20
159.7968976406313
 11
48.21793273020759
 21
167.6444858234922
 72
     1
 10
48.21793273020759
 20
167.6444858234922
 11
83.79545727667795
 21
167.6444858234922
 97
        0
 75
     2
 76
     1
 98
        0
  0
INSERT
  5
6A1
330
693
100
AcDbEntity
  8
レイヤー 1
100
AcDbBlockReference
  2
block 5
 10
0.0
 20
0.0
 30
0.0
  0
ENDBLK
  5
6AE
330
693
100
AcDbEntity
  8
0
100
AcDbBlockEnd
  0
BLOCK
  5
6A3
330
6A2
100
AcDbEntity
  8
0
100
AcDbBlockBegin
  2
block 5
 70
     0
 10
0.0
 20
0.0
 30
0.0
  3
block 5
  1
block 5
  0
SPLINE
  5
6A4
330
6A2
100
AcDbEntity
  8
レイヤー 1
370
     0
100
AcDbSpline
210
0.0
220
0.0
230
1.0
 70
    11
 71
     3
 72
    56
 73
    52
 74
     0
 42
0.000000001
 43
0.0000000001
 40
0.0
 40
0.0
 40
0.0
 40
0.0
 40
1.0
 40
1.0
 40
1.0
 40
2.0
 40
2.0
 40
2.0
 40
3.0
 40
3.0
 40
3.0
 40
4.0
 40
4.0
 40
4.0
 40
5.0
 40
5.0
 40
5.0
 40
6.0
 40
6.0
 40
6.0
 40
7.0
 40
7.0
 40
7.0
 40
8.0
 40
8.0
 40
8.0
 40
9.0
 40
9.0
 40
9.0
 40
10.0
 40
10.0
 40
10.0
 40
11.0
 40
11.0
 40
11.0
 40
12.0
 40
12.0
 40
12.0
 40
13.0
 40
13.0
 40
13.0
 40
14.0
 40
14.0
 40
14.0
 40
15.0
 40
15.0
 40
15.0
 40
16.0
 40
16.0
 40
16.0
 40
17.0
 40
17.0
 40
17.0
 40
17.0
 10
100.4504378777679
 20
166.69157178364
 30
0.0
 10
101.9848844191641
 20
167.1313385124438
 30
0.0
 10
103.9637485713373
 20
166.7649523658846
 30
0.0
 10
103.9637485713373
 20
166.7649523658846
 30
0.0
 10
103.9637485713373
 20
166.7649523658846
 30
0.0
 10
103.0132460999156
 20
163.911205638077
 30
0.0
 10
103.0132460999156
 20
163.911205638077
 30
0.0
 10
103.0132460999156
 20
163.911205638077
 30
0.0
 10
101.0674548862189
 20
164.3601018759394
 30
0.0
 10
99.57090442016032
 20
163.1805004036133
 30
0.0
 10
98.40508333886608
 20
162.258247733807
 30
0.0
 10
97.65301849830304
 20
159.804132345923
 30
0.0
 10
97.3598406791005
 20
158.8699940888517
 30
0.0
 10
97.3598406791005
 20
158.8699940888517
 30
0.0
 10
96.07137411762282
 20
154.9119212747295
 30
0.0
 10
96.07137411762282
 20
154.9119212747295
 30
0.0
 10
96.07137411762282
 20
154.9119212747295
 30
0.0
 10
100.3012651448482
 20
154.9119212747295
 30
0.0
 10
100.3012651448482
 20
154.9119212747295
 30
0.0
 10
100.3012651448482
 20
154.9119212747295
 30
0.0
 10
99.64152892419852
 20
152.4199098115079
 30
0.0
 10
99.64152892419852
 20
152.4199098115079
 30
0.0
 10
99.64152892419852
 20
152.4199098115079
 30
0.0
 10
95.38097652692731
 20
152.4199098115079
 30
0.0
 10
95.38097652692731
 20
152.4199098115079
 30
0.0
 10
95.38097652692731
 20
152.4199098115079
 30
0.0
 10
87.75353009080013
 20
127.8027915271048
 30
0.0
 10
87.75353009080013
 20
127.8027915271048
 30
0.0
 10
87.75353009080013
 20
127.8027915271048
 30
0.0
 10
85.36538832498108
 20
127.8027915271048
 30
0.0
 10
85.36538832498108
 20
127.8027915271048
 30
0.0
 10
85.36538832498108
 20
127.8027915271048
 30
0.0
 10
93.00006946639998
 20
152.4199098115079
 30
0.0
 10
93.00006946639998
 20
152.4199098115079
 30
0.0
 10
93.00006946639998
 20
152.4199098115079
 30
0.0
 10
89.85297266450198
 20
152.4199098115079
 30
0.0
 10
89.85297266450198
 20
152.4199098115079
 30
0.0
 10
89.85297266450198
 20
152.4199098115079
 30
0.0
 10
90.51270888515164
 20
154.9119212747295
 30
0.0
 10
90.51270888515164
 20
154.9119212747295
 30
0.0
 10
90.51270888515164
 20
154.9119212747295
 30
0.0
 10
93.6904670570955
 20
154.9119212747295
 30
0.0
 10
93.6904670570955
 20
154.9119212747295
 30
0.0
 10
93.6904670570955
 20
154.9119212747295
 30
0.0
 10
94.81598049462158
 20
158.3616699146644
 30
0.0
 10
94.81598049462158
 20
158.3616699146644
 30
0.0
 10
95.7237637538445
 20
161.2605474231013
 30
0.0
 10
96.4968436907311
 20
162.8139420021662
 30
0.0
 10
97.15657991138076
 20
163.9844139654337
 30
0.0
 10
97.81183750494507
 20
165.1523021053827
 30
0.0
 10
99.1047826935081
 20
166.3084769129547
 30
0.0
 10
100.4504378777679
 20
166.69157178364
 30
0.0
  0
HATCH
  5
6A5
330
6A2
100
AcDbEntity
  8
レイヤー 1
 62
   250
420
  2234388
100
AcDbHatch
 10
0.0
 20
0.0
 30
0.0
210
0.0
220
0.0
230
1.0
  2
SOLID
 70
     1
 71
     0
 91
        1
 92
        1
 93
        1
 72
     4
 94
        3
 73
     0
 74
     1
 95
       56
 96
       52
 40
0.0
 40
0.0
 40
0.0
 40
0.0
 40
1.0
 40
1.0
 40
1.0
 40
2.0
 40
2.0
 40
2.0
 40
3.0
 40
3.0
 40
3.0
 40
4.0
 40
4.0
 40
4.0
 40
5.0
 40
5.0
 40
5.0
 40
6.0
 40
6.0
 40
6.0
 40
7.0
 40
7.0
 40
7.0
 40
8.0
 40
8.0
 40
8.0
 40
9.0
 40
9.0
 40
9.0
 40
10.0
 40
10.0
 40
10.0
 40
11.0
 40
11.0
 40
11.0
 40
12.0
 40
12.0
 40
12.0
 40
13.0
 40
13.0
 40
13.0
 40
14.0
 40
14.0
 40
14.0
 40
15.0
 40
15.0
 40
15.0
 40
16.0
 40
16.0
 40
16.0
 40
17.0
 40
17.0
 40
17.0
 40
17.0
 10
100.4504378777679
 20
166.69157178364
 10
101.9848844191641
 20
167.1313385124438
 10
103.9637485713373
 20
166.7649523658846
 10
103.9637485713373
 20
166.7649523658846
 10
103.9637485713373
 20
166.7649523658846
 10
103.0132460999156
 20
163.911205638077
 10
103.0132460999156
 20
163.911205638077
 10
103.0132460999156
 20
163.911205638077
 10
101.0674548862189
 20
164.3601018759394
 10
99.57090442016032
 20
163.1805004036133
 10
98.40508333886608
 20
162.258247733807
 10
97.65301849830304
 20
159.804132345923
 10
97.3598406791005
 20
158.8699940888517
 10
97.3598406791005
 20
158.8699940888517
 10
96.07137411762282
 20
154.9119212747295
 10
96.07137411762282
 20
154.9119212747295
 10
96.07137411762282
 20
154.9119212747295
 10
100.3012651448482
 20
154.9119212747295
 10
100.3012651448482
 20
154.9119212747295
 10
100.3012651448482
 20
154.9119212747295
 10
99.64152892419852
 20
152.4199098115079
 10
99.64152892419852
 20
152.4199098115079
 10
99.64152892419852
 20
152.4199098115079
 10
95.38097652692731
 20
152.4199098115079
 10
95.38097652692731
 20
152.4199098115079
 10
95.38097652692731
 20
152.4199098115079
 10
87.75353009080013
 20
127.8027915271048
 10
87.75353009080013
 20
127.8027915271048
 10
87.75353009080013
 20
127.8027915271048
 10
85.36538832498108
 20
127.8027915271048
 10
85.36538832498108
 20
127.8027915271048
 10
85.36538832498108
 20
127.8027915271048
 10
93.00006946639998
 20
152.4199098115079
 10
93.00006946639998
 20
152.4199098115079
 10
93.00006946639998
 20
152.4199098115079
 10
89.85297266450198
 20
152.4199098115079
 10
89.85297266450198
 20
152.4199098115079
 10
89.85297266450198
 20
152.4199098115079
 10
90.51270888515164
 20
154.9119212747295
 10
90.51270888515164
 20
154.9119212747295
 10
90.51270888515164
 20
154.9119212747295
 10
93.6904670570955
 20
154.9119212747295
 10
93.6904670570955
 20
154.9119212747295
 10
93.6904670570955
 20
154.9119212747295
 10
94.81598049462158
 20
158.3616699146644
 10
94.81598049462158
 20
158.3616699146644
 10
95.7237637538445
 20
161.2605474231013
 10
96.4968436907311
 20
162.8139420021662
 10
97.15657991138076
 20
163.9844139654337
 10
97.81183750494507
 20
165.1523021053827
 10
99.1047826935081
 20
166.3084769129547
 10
100.4504378777679
 20
166.69157178364
 97
        0
 75
     2
 76
     1
 98
        0
  0
SPLINE
  5
6A6
330
6A2
100
AcDbEntity
  8
レイヤー 1
370
     0
100
AcDbSpline
210
0.0
220
0.0
230
1.0
 70
    11
 71
     3
 72
    38
 73
    34
 74
     0
 42
0.000000001
 43
0.0000000001
 40
0.0
 40
0.0
 40
0.0
 40
0.0
 40
1.0
 40
1.0
 40
1.0
 40
2.0
 40
2.0
 40
2.0
 40
3.0
 40
3.0
 40
3.0
 40
4.0
 40
4.0
 40
4.0
 40
5.0
 40
5.0
 40
5.0
 40
6.0
 40
6.0
 40
6.0
 40
7.0
 40
7.0
 40
7.0
 40
8.0
 40
8.0
 40
8.0
 40
9.0
 40
9.0
 40
9.0
 40
10.0
 40
10.0
 40
10.0
 40
11.0
 40
11.0
 40
11.0
 40
11.0
 10
126.377554584636
 20
154.8151140277308
 30
0.0
 10
126.377554584636
 20
154.8151140277308
 30
0.0
 10
128.8311532078563
 20
154.8151140277308
 30
0.0
 10
128.8311532078563
 20
154.8151140277308
 30
0.0
 10
128.8311532078563
 20
154.8151140277308
 30
0.0
 10
127.7345785914971
 20
151.3062819612468
 30
0.0
 10
127.7345785914971
 20
151.3062819612468
 30
0.0
 10
128.571392836906
 20
152.2922689395754
 30
0.0
 10
129.8860421413442
 20
153.604506675583
 30
0.0
 10
131.0163787157314
 20
154.2664822097754
 30
0.0
 10
132.7044766171327
 20
155.2500576196734
 30
0.0
 10
133.6642808525008
 20
155.3847609420097
 30
0.0
 10
134.7284715499351
 20
155.3565111403944
 30
0.0
 10
134.7284715499351
 20
155.3565111403944
 30
0.0
 10
133.6877075172549
 20
152.0345756272799
 30
0.0
 10
133.6877075172549
 20
152.0345756272799
 30
0.0
 10
133.011434827367
 20
152.3184516825359
 30
0.0
 10
130.930940291334
 20
151.7768823149844
 30
0.0
 10
129.739280976855
 20
150.9162968950455
 30
0.0
 10
128.66613302525
 20
150.1454562717016
 30
0.0
 10
127.9192358313239
 20
149.4857200510519
 30
0.0
 10
127.0393578639405
 20
147.8282835196966
 30
0.0
 10
126.164647543194
 20
146.1699857139017
 30
0.0
 10
125.4742499524985
 20
143.5262176944419
 30
0.0
 10
124.2822461282437
 20
139.6959580071401
 30
0.0
 10
124.2822461282437
 20
139.6959580071401
 30
0.0
 10
120.5753209406769
 20
127.8027915271048
 30
0.0
 10
120.5753209406769
 20
127.8027915271048
 30
0.0
 10
120.5753209406769
 20
127.8027915271048
 30
0.0
 10
118.1964809388044
 20
127.8027915271048
 30
0.0
 10
118.1964809388044
 20
127.8027915271048
 30
0.0
 10
118.1964809388044
 20
127.8027915271048
 30
0.0
 10
126.377554584636
 20
154.8151140277308
 30
0.0
 10
126.377554584636
 20
154.8151140277308
 30
0.0
  0
HATCH
  5
6A7
330
6A2
100
AcDbEntity
  8
レイヤー 1
 62
   250
420
  2234388
100
AcDbHatch
 10
0.0
 20
0.0
 30
0.0
210
0.0
220
0.0
230
1.0
  2
SOLID
 70
     1
 71
     0
 91
        1
 92
        1
 93
        1
 72
     4
 94
        3
 73
     0
 74
     1
 95
       38
 96
       34
 40
0.0
 40
0.0
 40
0.0
 40
0.0
 40
1.0
 40
1.0
 40
1.0
 40
2.0
 40
2.0
 40
2.0
 40
3.0
 40
3.0
 40
3.0
 40
4.0
 40
4.0
 40
4.0
 40
5.0
 40
5.0
 40
5.0
 40
6.0
 40
6.0
 40
6.0
 40
7.0
 40
7.0
 40
7.0
 40
8.0
 40
8.0
 40
8.0
 40
9.0
 40
9.0
 40
9.0
 40
10.0
 40
10.0
 40
10.0
 40
11.0
 40
11.0
 40
11.0
 40
11.0
 10
126.377554584636
 20
154.8151140277308
 10
126.377554584636
 20
154.8151140277308
 10
128.8311532078563
 20
154.8151140277308
 10
128.8311532078563
 20
154.8151140277308
 10
128.8311532078563
 20
154.8151140277308
 10
127.7345785914971
 20
151.3062819612468
 10
127.7345785914971
 20
151.3062819612468
 10
128.571392836906
 20
152.2922689395754
 10
129.8860421413442
 20
153.604506675583
 10
131.0163787157314
 20
154.2664822097754
 10
132.7044766171327
 20
155.2500576196734
 10
133.6642808525008
 20
155.3847609420097
 10
134.7284715499351
 20
155.3565111403944
 10
134.7284715499351
 20
155.3565111403944
 10
133.6877075172549
 20
152.0345756272799
 10
133.6877075172549
 20
152.0345756272799
 10
133.011434827367
 20
152.3184516825359
 10
130.930940291334
 20
151.7768823149844
 10
129.739280976855
 20
150.9162968950455
 10
128.66613302525
 20
150.1454562717016
 10
127.9192358313239
 20
149.4857200510519
 10
127.0393578639405
 20
147.8282835196966
 10
126.164647543194
 20
146.1699857139017
 10
125.4742499524985
 20
143.5262176944419
 10
124.2822461282437
 20
139.6959580071401
 10
124.2822461282437
 20
139.6959580071401
 10
120.5753209406769
 20
127.8027915271048
 10
120.5753209406769
 20
127.8027915271048
 10
120.5753209406769
 20
127.8027915271048
 10
118.1964809388044
 20
127.8027915271048
 10
118.1964809388044
 20
127.8027915271048
 10
118.1964809388044
 20
127.8027915271048
 10
126.377554584636
 20
154.8151140277308
 10
126.377554584636
 20
154.8151140277308
 97
        0
 75
     2
 76
     1
 98
        0
  0
SPLINE
  5
6A8
330
6A2
100
AcDbEntity
  8
レイヤー 1
370
     0
100
AcDbSpline
210
0.0
220
0.0
230
1.0
 70
    11
 71
     3
 72
   104
 73
   100
 74
     0
 42
0.000000001
 43
0.0000000001
 40
0.0
 40
0.0
 40
0.0
 40
0.0
 40
1.0
 40
1.0
 40
1.0
 40
2.0
 40
2.0
 40
2.0
 40
3.0
 40
3.0
 40
3.0
 40
4.0
 40
4.0
 40
4.0
 40
5.0
 40
5.0
 40
5.0
 40
6.0
 40
6.0
 40
6.0
 40
7.0
 40
7.0
 40
7.0
 40
8.0
 40
8.0
 40
8.0
 40
9.0
 40
9.0
 40
9.0
 40
10.0
 40
10.0
 40
10.0
 40
11.0
 40
11.0
 40
11.0
 40
12.0
 40
12.0
 40
12.0
 40
13.0
 40
13.0
 40
13.0
 40
14.0
 40
14.0
 40
14.0
 40
15.0
 40
15.0
 40
15.0
 40
16.0
 40
16.0
 40
16.0
 40
17.0
 40
17.0
 40
17.0
 40
18.0
 40
18.0
 40
18.0
 40
19.0
 40
19.0
 40
19.0
 40
20.0
 40
20.0
 40
20.0
 40
21.0
 40
21.0
 40
21.0
 40
22.0
 40
22.0
 40
22.0
 40
23.0
 40
23.0
 40
23.0
 40
24.0
 40
24.0
 40
24.0
 40
25.0
 40
25.0
 40
25.0
 40
26.0
 40
26.0
 40
26.0
 40
27.0
 40
27.0
 40
27.0
 40
28.0
 40
28.0
 40
28.0
 40
29.0
 40
29.0
 40
29.0
 40
30.0
 40
30.0
 40
30.0
 40
31.0
 40
31.0
 40
31.0
 40
32.0
 40
32.0
 40
32.0
 40
33.0
 40
33.0
 40
33.0
 40
33.0
 10
139.8926730891197
 20
154.8294111834263
 30
0.0
 10
139.8926730891197
 20
154.8294111834263
 30
0.0
 10
142.0344903652445
 20
154.8294111834263
 30
0.0
 10
142.0344903652445
 20
154.8294111834263
 30
0.0
 10
142.0344903652445
 20
154.8294111834263
 30
0.0
 10
140.9516961399171
 20
151.3157559800812
 30
0.0
 10
140.9516961399171
 20
151.3157559800812
 30
0.0
 10
141.8928968473923
 20
152.7887075264977
 30
0.0
 10
142.7341897198865
 20
153.4484437471474
 30
0.0
 10
143.8552245303272
 20
154.2926649527359
 30
0.0
 10
144.9803934580775
 20
155.1296514530327
 30
0.0
 10
146.3139908001845
 20
155.3044901642492
 30
0.0
 10
147.241066606852
 20
155.3044901642492
 30
0.0
 10
148.3855280820469
 20
155.3044901642492
 30
0.0
 10
149.4969166187653
 20
155.0752189084569
 30
0.0
 10
150.0784491203092
 20
153.8172414621372
 30
0.0
 10
150.5228667310863
 20
152.833838307127
 30
0.0
 10
150.5414702589793
 20
152.7201500811143
 30
0.0
 10
150.4140016419347
 20
150.7765981809602
 30
0.0
 10
151.5818897818837
 20
152.7699317437168
 30
0.0
 10
152.4424752018226
 20
153.6256940267945
 30
0.0
 10
153.9038856707499
 20
154.4507949398263
 30
0.0
 10
155.4455669174378
 20
155.3044901642492
 30
0.0
 10
156.339225275853
 20
155.3659851592288
 30
0.0
 10
157.3748216618963
 20
155.2147453676543
 30
0.0
 10
158.911679771723
 20
154.9877134254046
 30
0.0
 10
159.8859534176746
 20
154.4390816074493
 30
0.0
 10
160.3965169054045
 20
152.7816450760939
 30
0.0
 10
160.9070803931344
 20
151.1219692311958
 30
0.0
 10
160.6328506116007
 20
150.2303779314354
 30
0.0
 10
159.9992971339115
 20
147.597634224801
 30
0.0
 10
159.7105979417943
 20
146.4014962832367
 30
0.0
 10
159.2947746424084
 20
144.9400858143094
 30
0.0
 10
158.7463150793409
 20
143.2092687007094
 30
0.0
 10
158.7463150793409
 20
143.2092687007094
 30
0.0
 10
153.9038856707499
 20
127.8027915271048
 30
0.0
 10
153.9038856707499
 20
127.8027915271048
 30
0.0
 10
153.9038856707499
 20
127.8027915271048
 30
0.0
 10
151.3882752878863
 20
127.8027915271048
 30
0.0
 10
151.3882752878863
 20
127.8027915271048
 30
0.0
 10
151.3882752878863
 20
127.8027915271048
 30
0.0
 10
155.6250565106276
 20
141.2751908193897
 30
0.0
 10
155.6250565106276
 20
141.2751908193897
 30
0.0
 10
156.5094131050963
 20
144.0936252951782
 30
0.0
 10
157.109893644309
 20
146.1506931664571
 30
0.0
 10
157.4220195011804
 20
147.4415712963654
 30
0.0
 10
157.8095929989511
 20
149.0530157726519
 30
0.0
 10
157.9656559273867
 20
149.5826995529385
 30
0.0
 10
157.7816877071116
 20
150.7529992613181
 30
0.0
 10
157.6111553680925
 20
151.8430281919372
 30
0.0
 10
157.0582171779396
 20
152.5547853887321
 30
0.0
 10
156.1170164704645
 20
152.5547853887321
 30
0.0
 10
155.1096698860365
 20
152.5547853887321
 30
0.0
 10
154.2962823053817
 20
152.4412694176073
 30
0.0
 10
153.156643967048
 20
151.2945686288697
 30
0.0
 10
152.0170056287143
 20
150.1476955852443
 30
0.0
 10
151.076149431015
 20
148.7930831468137
 30
0.0
 10
150.3337308641742
 20
147.2290087646991
 30
0.0
 10
149.5957909244188
 20
145.6683794803425
 30
0.0
 10
148.8530278478023
 20
143.6822806228776
 30
0.0
 10
148.0964843801539
 20
141.2751908193897
 30
0.0
 10
148.0964843801539
 20
141.2751908193897
 30
0.0
 10
143.8552245303272
 20
127.8027915271048
 30
0.0
 10
143.8552245303272
 20
127.8027915271048
 30
0.0
 10
143.8552245303272
 20
127.8027915271048
 30
0.0
 10
141.486030802177
 20
127.8027915271048
 30
0.0
 10
141.486030802177
 20
127.8027915271048
 30
0.0
 10
141.486030802177
 20
127.8027915271048
 30
0.0
 10
146.3329388378533
 20
143.2092687007094
 30
0.0
 10
146.3329388378533
 20
143.2092687007094
 30
0.0
 10
146.8483254624444
 20
144.8408669988801
 30
0.0
 10
147.2314203331297
 20
146.1837661049335
 30
0.0
 10
147.4867020769946
 20
147.224185627838
 30
0.0
 10
147.9169947869641
 20
149.0197705792876
 30
0.0
 10
148.0306830129768
 20
150.2400242051577
 30
0.0
 10
147.709255392159
 20
151.3157559800812
 30
0.0
 10
147.3874832615654
 20
152.3916600098926
 30
0.0
 10
146.8245542879144
 20
152.6683013598569
 30
0.0
 10
145.8840425999909
 20
152.6683013598569
 30
0.0
 10
145.0989048209514
 20
152.6683013598569
 30
0.0
 10
144.3282364524954
 20
152.3275811915945
 30
0.0
 10
143.4531816219731
 20
151.6538923250251
 30
0.0
 10
142.34627171234
 20
150.8074318058939
 30
0.0
 10
141.901854101563
 20
150.1097995099067
 30
0.0
 10
141.3578731655808
 20
149.289521733736
 30
0.0
 10
140.6299240093235
 20
148.192602607601
 30
0.0
 10
140.2850697237515
 20
147.455696197173
 30
0.0
 10
139.6652966370942
 20
145.8385673095858
 30
0.0
 10
139.0506911970739
 20
144.2214384219986
 30
0.0
 10
138.463991048893
 20
142.3252566160164
 30
0.0
 10
138.0571250036777
 20
141.0154304484394
 30
0.0
 10
138.0571250036777
 20
141.0154304484394
 30
0.0
 10
133.9009590684727
 20
127.8027915271048
 30
0.0
 10
133.9009590684727
 20
127.8027915271048
 30
0.0
 10
133.9009590684727
 20
127.8027915271048
 30
0.0
 10
131.4180771143097
 20
127.8027915271048
 30
0.0
 10
131.4180771143097
 20
127.8027915271048
 30
0.0
 10
131.4180771143097
 20
127.8027915271048
 30
0.0
 10
139.8926730891197
 20
154.8294111834263
 30
0.0
 10
139.8926730891197
 20
154.8294111834263
 30
0.0
  0
HATCH
  5
6A9
330
6A2
100
AcDbEntity
  8
レイヤー 1
 62
   250
420
  2234388
100
AcDbHatch
 10
0.0
 20
0.0
 30
0.0
210
0.0
220
0.0
230
1.0
  2
SOLID
 70
     1
 71
     0
 91
        1
 92
        1
 93
        1
 72
     4
 94
        3
 73
     0
 74
     1
 95
      104
 96
      100
 40
0.0
 40
0.0
 40
0.0
 40
0.0
 40
1.0
 40
1.0
 40
1.0
 40
2.0
 40
2.0
 40
2.0
 40
3.0
 40
3.0
 40
3.0
 40
4.0
 40
4.0
 40
4.0
 40
5.0
 40
5.0
 40
5.0
 40
6.0
 40
6.0
 40
6.0
 40
7.0
 40
7.0
 40
7.0
 40
8.0
 40
8.0
 40
8.0
 40
9.0
 40
9.0
 40
9.0
 40
10.0
 40
10.0
 40
10.0
 40
11.0
 40
11.0
 40
11.0
 40
12.0
 40
12.0
 40
12.0
 40
13.0
 40
13.0
 40
13.0
 40
14.0
 40
14.0
 40
14.0
 40
15.0
 40
15.0
 40
15.0
 40
16.0
 40
16.0
 40
16.0
 40
17.0
 40
17.0
 40
17.0
 40
18.0
 40
18.0
 40
18.0
 40
19.0
 40
19.0
 40
19.0
 40
20.0
 40
20.0
 40
20.0
 40
21.0
 40
21.0
 40
21.0
 40
22.0
 40
22.0
 40
22.0
 40
23.0
 40
23.0
 40
23.0
 40
24.0
 40
24.0
 40
24.0
 40
25.0
 40
25.0
 40
25.0
 40
26.0
 40
26.0
 40
26.0
 40
27.0
 40
27.0
 40
27.0
 40
28.0
 40
28.0
 40
28.0
 40
29.0
 40
29.0
 40
29.0
 40
30.0
 40
30.0
 40
30.0
 40
31.0
 40
31.0
 40
31.0
 40
32.0
 40
32.0
 40
32.0
 40
33.0
 40
33.0
 40
33.0
 40
33.0
 10
139.8926730891197
 20
154.8294111834263
 10
139.8926730891197
 20
154.8294111834263
 10
142.0344903652445
 20
154.8294111834263
 10
142.0344903652445
 20
154.8294111834263
 10
142.0344903652445
 20
154.8294111834263
 10
140.9516961399171
 20
151.3157559800812
 10
140.9516961399171
 20
151.3157559800812
 10
141.8928968473923
 20
152.7887075264977
 10
142.7341897198865
 20
153.4484437471474
 10
143.8552245303272
 20
154.2926649527359
 10
144.9803934580775
 20
155.1296514530327
 10
146.3139908001845
 20
155.3044901642492
 10
147.241066606852
 20
155.3044901642492
 10
148.3855280820469
 20
155.3044901642492
 10
149.4969166187653
 20
155.0752189084569
 10
150.0784491203092
 20
153.8172414621372
 10
150.5228667310863
 20
152.833838307127
 10
150.5414702589793
 20
152.7201500811143
 10
150.4140016419347
 20
150.7765981809602
 10
151.5818897818837
 20
152.7699317437168
 10
152.4424752018226
 20
153.6256940267945
 10
153.9038856707499
 20
154.4507949398263
 10
155.4455669174378
 20
155.3044901642492
 10
156.339225275853
 20
155.3659851592288
 10
157.3748216618963
 20
155.2147453676543
 10
158.911679771723
 20
154.9877134254046
 10
159.8859534176746
 20
154.4390816074493
 10
160.3965169054045
 20
152.7816450760939
 10
160.9070803931344
 20
151.1219692311958
 10
160.6328506116007
 20
150.2303779314354
 10
159.9992971339115
 20
147.597634224801
 10
159.7105979417943
 20
146.4014962832367
 10
159.2947746424084
 20
144.9400858143094
 10
158.7463150793409
 20
143.2092687007094
 10
158.7463150793409
 20
143.2092687007094
 10
153.9038856707499
 20
127.8027915271048
 10
153.9038856707499
 20
127.8027915271048
 10
153.9038856707499
 20
127.8027915271048
 10
151.3882752878863
 20
127.8027915271048
 10
151.3882752878863
 20
127.8027915271048
 10
151.3882752878863
 20
127.8027915271048
 10
155.6250565106276
 20
141.2751908193897
 10
155.6250565106276
 20
141.2751908193897
 10
156.5094131050963
 20
144.0936252951782
 10
157.109893644309
 20
146.1506931664571
 10
157.4220195011804
 20
147.4415712963654
 10
157.8095929989511
 20
149.0530157726519
 10
157.9656559273867
 20
149.5826995529385
 10
157.7816877071116
 20
150.7529992613181
 10
157.6111553680925
 20
151.8430281919372
 10
157.0582171779396
 20
152.5547853887321
 10
156.1170164704645
 20
152.5547853887321
 10
155.1096698860365
 20
152.5547853887321
 10
154.2962823053817
 20
152.4412694176073
 10
153.156643967048
 20
151.2945686288697
 10
152.0170056287143
 20
150.1476955852443
 10
151.076149431015
 20
148.7930831468137
 10
150.3337308641742
 20
147.2290087646991
 10
149.5957909244188
 20
145.6683794803425
 10
148.8530278478023
 20
143.6822806228776
 10
148.0964843801539
 20
141.2751908193897
 10
148.0964843801539
 20
141.2751908193897
 10
143.8552245303272
 20
127.8027915271048
 10
143.8552245303272
 20
127.8027915271048
 10
143.8552245303272
 20
127.8027915271048
 10
141.486030802177
 20
127.8027915271048
 10
141.486030802177
 20
127.8027915271048
 10
141.486030802177
 20
127.8027915271048
 10
146.3329388378533
 20
143.2092687007094
 10
146.3329388378533
 20
143.2092687007094
 10
146.8483254624444
 20
144.8408669988801
 10
147.2314203331297
 20
146.1837661049335
 10
147.4867020769946
 20
147.224185627838
 10
147.9169947869641
 20
149.0197705792876
 10
148.0306830129768
 20
150.2400242051577
 10
147.709255392159
 20
151.3157559800812
 10
147.3874832615654
 20
152.3916600098926
 10
146.8245542879144
 20
152.6683013598569
 10
145.8840425999909
 20
152.6683013598569
 10
145.0989048209514
 20
152.6683013598569
 10
144.3282364524954
 20
152.3275811915945
 10
143.4531816219731
 20
151.6538923250251
 10
142.34627171234
 20
150.8074318058939
 10
141.901854101563
 20
150.1097995099067
 10
141.3578731655808
 20
149.289521733736
 10
140.6299240093235
 20
148.192602607601
 10
140.2850697237515
 20
147.455696197173
 10
139.6652966370942
 20
145.8385673095858
 10
139.0506911970739
 20
144.2214384219986
 10
138.463991048893
 20
142.3252566160164
 10
138.0571250036777
 20
141.0154304484394
 10
138.0571250036777
 20
141.0154304484394
 10
133.9009590684727
 20
127.8027915271048
 10
133.9009590684727
 20
127.8027915271048
 10
133.9009590684727
 20
127.8027915271048
 10
131.4180771143097
 20
127.8027915271048
 10
131.4180771143097
 20
127.8027915271048
 10
131.4180771143097
 20
127.8027915271048
 10
139.8926730891197
 20
154.8294111834263
 10
139.8926730891197
 20
154.8294111834263
 97
        0
 75
     2
 76
     1
 98
        0
  0
SPLINE
  5
6AA
330
6A2
100
AcDbEntity
  8
レイヤー 1
370
     0
100
AcDbSpline
210
0.0
220
0.0
230
1.0
 70
    11
 71
     3
 72
    29
 73
    25
 74
     0
 42
0.000000001
 43
0.0000000001
 40
0.0
 40
0.0
 40
0.0
 40
0.0
 40
1.0
 40
1.0
 40
1.0
 40
2.0
 40
2.0
 40
2.0
 40
3.0
 40
3.0
 40
3.0
 40
4.0
 40
4.0
 40
4.0
 40
5.0
 40
5.0
 40
5.0
 40
6.0
 40
6.0
 40
6.0
 40
7.0
 40
7.0
 40
7.0
 40
8.0
 40
8.0
 40
8.0
 40
8.0
 10
101.6420971922469
 20
132.8388354296931
 30
0.0
 10
101.630039350094
 20
134.7164137077823
 30
0.0
 10
102.2236296937908
 20
138.0598810818841
 30
0.0
 10
103.7487744712405
 20
142.5378191476827
 30
0.0
 10
105.819967243327
 20
148.5896501242061
 30
0.0
 10
107.0602024361932
 20
150.8074318058939
 30
0.0
 10
108.1522984254671
 20
151.8833358357054
 30
0.0
 10
109.741177511439
 20
153.4532668840085
 30
0.0
 10
111.8740375333931
 20
153.5290590346837
 30
0.0
 10
112.5075910110823
 20
153.4532668840085
 30
0.0
 10
113.4012493694975
 20
153.3490526768302
 30
0.0
 10
114.6683563248758
 20
152.7580461564518
 30
0.0
 10
114.7493161221879
 20
150.7838328862519
 30
0.0
 10
114.8106388622796
 20
149.0909118479895
 30
0.0
 10
114.3186789024427
 20
145.9191825971221
 30
0.0
 10
112.6164561002338
 20
140.9489400617108
 30
0.0
 10
110.6444821435766
 20
135.1746117095912
 30
0.0
 10
109.4669477299053
 20
132.8960240524753
 30
0.0
 10
108.5212683953448
 20
131.9072809959403
 30
0.0
 10
106.7346406980658
 20
130.0538184021569
 30
0.0
 10
104.8222669326213
 20
130.2336525051225
 30
0.0
 10
104.5408024457958
 20
130.2336525051225
 30
0.0
 10
104.1721769856939
 20
130.2336525051225
 30
0.0
 10
101.6465758193322
 20
130.6305277668397
 30
0.0
 10
101.6420971922469
 20
132.8388354296931
 30
0.0
  0
SPLINE
  5
6AB
330
6A2
100
AcDbEntity
  8
レイヤー 1
370
     0
100
AcDbSpline
210
0.0
220
0.0
230
1.0
 70
    11
 71
     3
 72
    32
 73
    28
 74
     0
 42
0.000000001
 43
0.0000000001
 40
0.0
 40
0.0
 40
0.0
 40
0.0
 40
1.0
 40
1.0
 40
1.0
 40
2.0
 40
2.0
 40
2.0
 40
3.0
 40
3.0
 40
3.0
 40
4.0
 40
4.0
 40
4.0
 40
5.0
 40
5.0
 40
5.0
 40
6.0
 40
6.0
 40
6.0
 40
7.0
 40
7.0
 40
7.0
 40
8.0
 40
8.0
 40
8.0
 40
9.0
 40
9.0
 40
9.0
 40
9.0
 10
106.2595617172429
 20
153.4105476718098
 30
0.0
 10
104.8222669326213
 20
151.5474388043041
 30
0.0
 10
103.7177685914188
 20
149.8758773721411
 30
0.0
 10
101.9232171692965
 20
144.6141795664062
 30
0.0
 10
100.2754269116635
 20
139.7999999594306
 30
0.0
 10
99.22777268346732
 20
136.3052927937542
 30
0.0
 10
99.06964269637689
 20
132.039572749846
 30
0.0
 10
98.94665270641765
 20
128.8673267343149
 30
0.0
 10
100.8807305877373
 20
127.8027915271048
 30
0.0
 10
103.7129454545577
 20
127.8027915271048
 30
0.0
 10
104.9352661390825
 20
127.8027915271048
 30
0.0
 10
108.0151835347002
 20
127.8827177950895
 30
0.0
 10
110.2045431598849
 20
130.5926316915021
 30
0.0
 10
111.7417457794874
 20
132.4984597712065
 30
0.0
 10
113.155269389579
 20
134.475256864725
 30
0.0
 10
115.0562743324223
 20
140.9489400617108
 30
0.0
 10
116.6361961642235
 20
146.3680788349845
 30
0.0
 10
117.7282921534974
 20
149.8639917848761
 30
0.0
 10
117.6480213757369
 20
151.8595646611754
 30
0.0
 10
117.6480213757369
 20
151.8595646611754
 30
0.0
 10
117.6480213757369
 20
151.8595646611754
 30
0.0
 10
117.6480213757369
 20
151.8595646611754
 30
0.0
 10
117.13229024137
 20
155.18150017429
 30
0.0
 10
114.7162431837115
 20
155.886194920681
 30
0.0
 10
113.3351034925446
 20
155.886194920681
 30
0.0
 10
111.9829026225447
 20
155.886194920681
 30
0.0
 10
108.3414342923792
 20
156.1251124501957
 30
0.0
 10
106.2595617172429
 20
153.4105476718098
 30
0.0
  0
HATCH
  5
6AC
330
6A2
100
AcDbEntity
  8
レイヤー 1
 62
   250
420
  2234388
100
AcDbHatch
 10
0.0
 20
0.0
 30
0.0
210
0.0
220
0.0
230
1.0
  2
SOLID
 70
     1
 71
     0
 91
        2
 92
        1
 93
        1
 72
     4
 94
        3
 73
     0
 74
     1
 95
       29
 96
       25
 40
0.0
 40
0.0
 40
0.0
 40
0.0
 40
1.0
 40
1.0
 40
1.0
 40
2.0
 40
2.0
 40
2.0
 40
3.0
 40
3.0
 40
3.0
 40
4.0
 40
4.0
 40
4.0
 40
5.0
 40
5.0
 40
5.0
 40
6.0
 40
6.0
 40
6.0
 40
7.0
 40
7.0
 40
7.0
 40
8.0
 40
8.0
 40
8.0
 40
8.0
 10
101.6420971922469
 20
132.8388354296931
 10
101.630039350094
 20
134.7164137077823
 10
102.2236296937908
 20
138.0598810818841
 10
103.7487744712405
 20
142.5378191476827
 10
105.819967243327
 20
148.5896501242061
 10
107.0602024361932
 20
150.8074318058939
 10
108.1522984254671
 20
151.8833358357054
 10
109.741177511439
 20
153.4532668840085
 10
111.8740375333931
 20
153.5290590346837
 10
112.5075910110823
 20
153.4532668840085
 10
113.4012493694975
 20
153.3490526768302
 10
114.6683563248758
 20
152.7580461564518
 10
114.7493161221879
 20
150.7838328862519
 10
114.8106388622796
 20
149.0909118479895
 10
114.3186789024427
 20
145.9191825971221
 10
112.6164561002338
 20
140.9489400617108
 10
110.6444821435766
 20
135.1746117095912
 10
109.4669477299053
 20
132.8960240524753
 10
108.5212683953448
 20
131.9072809959403
 10
106.7346406980658
 20
130.0538184021569
 10
104.8222669326213
 20
130.2336525051225
 10
104.5408024457958
 20
130.2336525051225
 10
104.1721769856939
 20
130.2336525051225
 10
101.6465758193322
 20
130.6305277668397
 10
101.6420971922469
 20
132.8388354296931
 97
        0
 92
        1
 93
        1
 72
     4
 94
        3
 73
     0
 74
     1
 95
       32
 96
       28
 40
0.0
 40
0.0
 40
0.0
 40
0.0
 40
1.0
 40
1.0
 40
1.0
 40
2.0
 40
2.0
 40
2.0
 40
3.0
 40
3.0
 40
3.0
 40
4.0
 40
4.0
 40
4.0
 40
5.0
 40
5.0
 40
5.0
 40
6.0
 40
6.0
 40
6.0
 40
7.0
 40
7.0
 40
7.0
 40
8.0
 40
8.0
 40
8.0
 40
9.0
 40
9.0
 40
9.0
 40
9.0
 10
106.2595617172429
 20
153.4105476718098
 10
104.8222669326213
 20
151.5474388043041
 10
103.7177685914188
 20
149.8758773721411
 10
101.9232171692965
 20
144.6141795664062
 10
100.2754269116635
 20
139.7999999594306
 10
99.22777268346732
 20
136.3052927937542
 10
99.06964269637689
 20
132.039572749846
 10
98.94665270641765
 20
128.8673267343149
 10
100.8807305877373
 20
127.8027915271048
 10
103.7129454545577
 20
127.8027915271048
 10
104.9352661390825
 20
127.8027915271048
 10
108.0151835347002
 20
127.8827177950895
 10
110.2045431598849
 20
130.5926316915021
 10
111.7417457794874
 20
132.4984597712065
 10
113.155269389579
 20
134.475256864725
 10
115.0562743324223
 20
140.9489400617108
 10
116.6361961642235
 20
146.3680788349845
 10
117.7282921534974
 20
149.8639917848761
 10
117.6480213757369
 20
151.8595646611754
 10
117.6480213757369
 20
151.8595646611754
 10
117.6480213757369
 20
151.8595646611754
 10
117.6480213757369
 20
151.8595646611754
 10
117.13229024137
 20
155.18150017429
 10
114.7162431837115
 20
155.886194920681
 10
113.3351034925446
 20
155.886194920681
 10
111.9829026225447
 20
155.886194920681
 10
108.3414342923792
 20
156.1251124501957
 10
106.2595617172429
 20
153.4105476718098
 97
        0
 75
     2
 76
     1
 98
        0
  0
ENDBLK
  5
6AD
330
6A2
100
AcDbEntity
  8
0
100
AcDbBlockEnd
  0
BLOCK
  5
4A70
330
4A6F
100
AcDbEntity
  8
0
100
AcDbBlockBegin
  2
*D4
 70
     1
 10
0.0
 20
0.0
 30
0.0
  3
*D4
  1
*D201
  0
LINE
  5
4A72
330
4A6F
100
AcDbEntity
  8
寸法
  6
Continuous
 62
     0
370
    -2
100
AcDbLine
 10
95.00408832559158
 20
348.5335990428101
 30
0.0
 11
82.65107948014888
 21
348.5335990428101
 31
0.0
  0
LINE
  5
4A73
330
4A6F
100
AcDbEntity
  8
寸法
  6
Continuous
 62
     0
370
    -2
100
AcDbLine
 10
109.5564572703265
 20
340.834177143836
 30
0.0
 11
82.65107948014888
 21
340.834177143836
 31
0.0
  0
LINE
  5
4A74
330
4A6F
100
AcDbEntity
  8
寸法
  6
Continuous
 62
     0
370
    -2
100
AcDbLine
 10
82.65107948014888
 20
347.0335990428101
 30
0.0
 11
82.65107948014888
 21
342.334177143836
 31
0.0
  0
INSERT
  5
4A75
330
4A6F
100
AcDbEntity
  8
寸法
 62
     0
370
    -2
100
AcDbBlockReference
  2
_DOT
 10
82.65107948014888
 20
348.5335990428101
 30
0.0
 41
1.5
 42
1.5
 43
1.5
 50
90.0
  0
INSERT
  5
4A76
330
4A6F
100
AcDbEntity
  8
寸法
 62
     0
370
    -2
100
AcDbBlockReference
  2
_DOT
 10
82.65107948014888
 20
340.834177143836
 30
0.0
 41
1.5
 42
1.5
 43
1.5
 50
270.0
  0
MTEXT
  5
4A77
330
4A6F
100
AcDbEntity
  8
寸法
  6
Continuous
 62
     0
100
AcDbMText
 10
78.15107948014888
 20
344.683888093323
 30
0.0
 40
5.0
 41
0.0
 46
0.0
 71
     5
 72
     1
  1
\A1;8
  7
ＭＳ ゴシック
 11
0.0
 21
1.0
 31
0.0
 73
     1
 44
1.0
  0
POINT
  5
4A78
330
4A6F
100
AcDbEntity
  8
Defpoints
 62
     0
100
AcDbPoint
 10
100.0040883255916
 20
348.5335990428101
 30
0.0
  0
POINT
  5
4A79
330
4A6F
100
AcDbEntity
  8
Defpoints
 62
     0
100
AcDbPoint
 10
114.5564572703265
 20
340.834177143836
 30
0.0
  0
POINT
  5
5052
330
4A6F
100
AcDbEntity
  8
Defpoints
 62
     0
100
AcDbPoint
 10
82.65107948014888
 20
340.834177143836
 30
0.0
  0
ENDBLK
  5
4A71
330
4A6F
100
AcDbEntity
  8
0
100
AcDbBlockEnd
  0
BLOCK
  5
4A9D
330
4A9C
100
AcDbEntity
  8
0
100
AcDbBlockBegin
  2
*D5
 70
     1
 10
0.0
 20
0.0
 30
0.0
  3
*D5
  1
*D204
  0
LINE
  5
4A9F
330
4A9C
100
AcDbEntity
  8
寸法
  6
Continuous
 62
     0
370
    -2
100
AcDbLine
 10
392.7052927374087
 20
348.6350244624442
 30
0.0
 11
359.1198310770533
 21
348.6350244624442
 31
0.0
  0
LINE
  5
4AA0
330
4A9C
100
AcDbEntity
  8
寸法
  6
Continuous
 62
     0
370
    -2
100
AcDbLine
 10
392.7052927374087
 20
293.835024462444
 30
0.0
 11
359.1198310770533
 21
293.835024462444
 31
0.0
  0
LINE
  5
4AA1
330
4A9C
100
AcDbEntity
  8
寸法
  6
Continuous
 62
     0
370
    -2
100
AcDbLine
 10
359.1198310770533
 20
347.1350244624442
 30
0.0
 11
359.1198310770533
 21
295.335024462444
 31
0.0
  0
INSERT
  5
4AA2
330
4A9C
100
AcDbEntity
  8
寸法
 62
     0
370
    -2
100
AcDbBlockReference
  2
_DOT
 10
359.1198310770533
 20
348.6350244624442
 30
0.0
 41
1.5
 42
1.5
 43
1.5
 50
90.0
  0
INSERT
  5
4AA3
330
4A9C
100
AcDbEntity
  8
寸法
 62
     0
370
    -2
100
AcDbBlockReference
  2
_DOT
 10
359.1198310770533
 20
293.835024462444
 30
0.0
 41
1.5
 42
1.5
 43
1.5
 50
270.0
  0
MTEXT
  5
4AA4
330
4A9C
100
AcDbEntity
  8
寸法
  6
Continuous
 62
     0
100
AcDbMText
 10
354.2148310770533
 20
321.2350244624441
 30
0.0
 40
5.0
 41
0.0
 46
0.0
 71
     5
 72
     1
  1
\A1;φ55
  7
ＭＳ ゴシック
 11
0.0
 21
1.0
 31
0.0
 73
     1
 44
1.0
  0
POINT
  5
4AA5
330
4A9C
100
AcDbEntity
  8
Defpoints
 62
     0
100
AcDbPoint
 10
397.7052927374087
 20
348.6350244624442
 30
0.0
  0
POINT
  5
4AA6
330
4A9C
100
AcDbEntity
  8
Defpoints
 62
     0
100
AcDbPoint
 10
397.7052927374087
 20
293.835024462444
 30
0.0
  0
POINT
  5
4AA7
330
4A9C
100
AcDbEntity
  8
Defpoints
 62
     0
100
AcDbPoint
 10
359.1198310770533
 20
293.835024462444
 30
0.0
  0
ENDBLK
  5
4A9E
330
4A9C
100
AcDbEntity
  8
0
100
AcDbBlockEnd
  0
BLOCK
  5
4AD6
330
4AD5
100
AcDbEntity
  8
0
100
AcDbBlockBegin
  2
*D6
 70
     1
 10
0.0
 20
0.0
 30
0.0
  3
*D6
  1
*D205
  0
LINE
  5
4AD8
330
4AD5
100
AcDbEntity
  8
寸法
  6
Continuous
 62
     0
370
    -2
100
AcDbLine
 10
94.13978072023728
 20
348.5335990428101
 30
0.0
 11
70.75582078314875
 21
348.5335990428101
 31
0.0
  0
LINE
  5
4AD9
330
4AD5
100
AcDbEntity
  8
寸法
  6
Continuous
 62
     0
370
    -2
100
AcDbLine
 10
103.924517206292
 20
283.004112342821
 30
0.0
 11
70.75582078314875
 21
283.004112342821
 31
0.0
  0
LINE
  5
4ADA
330
4AD5
100
AcDbEntity
  8
寸法
  6
Continuous
 62
     0
370
    -2
100
AcDbLine
 10
70.75582078314875
 20
347.0335990428101
 30
0.0
 11
70.75582078314875
 21
284.504112342821
 31
0.0
  0
INSERT
  5
4ADB
330
4AD5
100
AcDbEntity
  8
寸法
 62
     0
370
    -2
100
AcDbBlockReference
  2
_DOT
 10
70.75582078314875
 20
348.5335990428101
 30
0.0
 41
1.5
 42
1.5
 43
1.5
 50
90.0
  0
INSERT
  5
4ADC
330
4AD5
100
AcDbEntity
  8
寸法
 62
     0
370
    -2
100
AcDbBlockReference
  2
_DOT
 10
70.75582078314875
 20
283.004112342821
 30
0.0
 41
1.5
 42
1.5
 43
1.5
 50
270.0
  0
MTEXT
  5
4ADD
330
4AD5
100
AcDbEntity
  8
寸法
  6
Continuous
 62
     0
100
AcDbMText
 10
66.25582078314875
 20
315.7688556928155
 30
0.0
 40
5.0
 41
0.0
 46
0.0
 71
     5
 72
     1
  1
\A1;66
  7
ＭＳ ゴシック
 11
0.0
 21
1.0
 31
0.0
 73
     1
 44
1.0
  0
POINT
  5
4ADE
330
4AD5
100
AcDbEntity
  8
Defpoints
 62
     0
100
AcDbPoint
 10
99.13978072023728
 20
348.5335990428101
 30
0.0
  0
POINT
  5
4ADF
330
4AD5
100
AcDbEntity
  8
Defpoints
 62
     0
100
AcDbPoint
 10
108.924517206292
 20
283.004112342821
 30
0.0
  0
POINT
  5
4AE0
330
4AD5
100
AcDbEntity
  8
Defpoints
 62
     0
100
AcDbPoint
 10
70.75582078314875
 20
283.004112342821
 30
0.0
  0
ENDBLK
  5
4AD7
330
4AD5
100
AcDbEntity
  8
0
100
AcDbBlockEnd
  0
BLOCK
  5
4CAF
330
4CAE
100
AcDbEntity
  8
0
100
AcDbBlockBegin
  2
*D7
 70
     1
 10
0.0
 20
0.0
 30
0.0
  3
*D7
  1
*D212
  0
LINE
  5
4CB1
330
4CAE
100
AcDbEntity
  8
寸法
  6
Continuous
 62
     0
370
    -2
100
AcDbLine
 10
127.1023775067313
 20
145.9970356700788
 30
0.0
 11
127.1023775067313
 21
139.2647026849566
 31
0.0
  0
LINE
  5
4CB2
330
4CAE
100
AcDbEntity
  8
寸法
  6
Continuous
 62
     0
370
    -2
100
AcDbLine
 10
134.8816507401137
 20
163.6511043765548
 30
0.0
 11
134.8816507401137
 21
139.2647026849566
 31
0.0
  0
LINE
  5
4CB3
330
4CAE
100
AcDbEntity
  8
寸法
  6
Continuous
 62
     0
370
    -2
100
AcDbLine
 10
134.8816507401137
 20
139.2647026849566
 30
0.0
 11
182.7116507401137
 21
139.2647026849566
 31
0.0
  0
INSERT
  5
4CB4
330
4CAE
100
AcDbEntity
  8
寸法
 62
     0
370
    -2
100
AcDbBlockReference
  2
_DOT
 10
127.1023775067313
 20
139.2647026849566
 30
0.0
 41
1.5
 42
1.5
 43
1.5
 50
180.0
  0
INSERT
  5
4CB5
330
4CAE
100
AcDbEntity
  8
寸法
 62
     0
370
    -2
100
AcDbBlockReference
  2
_DOT
 10
134.8816507401137
 20
139.2647026849566
 30
0.0
 41
1.5
 42
1.5
 43
1.5
  0
MTEXT
  5
4CB6
330
4CAE
100
AcDbEntity
  8
寸法
  6
Continuous
 62
     0
100
AcDbMText
 10
160.2966507401137
 20
144.3222026849566
 30
0.0
 40
5.0
 41
0.0
 46
0.0
 71
     5
 72
     1
  1
\A1;プレート部分8
  7
ＭＳ ゴシック
 73
     1
 44
1.0
  0
POINT
  5
4CB7
330
4CAE
100
AcDbEntity
  8
Defpoints
 62
     0
100
AcDbPoint
 10
127.1023775067313
 20
150.9970356700788
 30
0.0
  0
POINT
  5
4CB8
330
4CAE
100
AcDbEntity
  8
Defpoints
 62
     0
100
AcDbPoint
 10
134.8816507401137
 20
168.6511043765548
 30
0.0
  0
POINT
  5
4CB9
330
4CAE
100
AcDbEntity
  8
Defpoints
 62
     0
100
AcDbPoint
 10
134.8816507401137
 20
139.2647026849566
 30
0.0
  0
ENDBLK
  5
4CB0
330
4CAE
100
AcDbEntity
  8
0
100
AcDbBlockEnd
  0
BLOCK
  5
4EF5
330
4EF4
100
AcDbEntity
  8
0
100
AcDbBlockBegin
  2
*D8
 70
     1
 10
0.0
 20
0.0
 30
0.0
  3
*D8
  1
*D205
  0
LINE
  5
4EF7
330
4EF4
100
AcDbEntity
  8
寸法
  6
Continuous
 62
     0
370
    -2
100
AcDbLine
 10
110.1453394275008
 20
340.822953810548
 30
0.0
 11
82.59920841473748
 21
340.822953810548
 31
0.0
  0
LINE
  5
4EF8
330
4EF4
100
AcDbEntity
  8
寸法
  6
Continuous
 62
     0
370
    -2
100
AcDbLine
 10
167.3405422502963
 20
283.004112342821
 30
0.0
 11
82.59920841473748
 21
283.004112342821
 31
0.0
  0
LINE
  5
4EF9
330
4EF4
100
AcDbEntity
  8
寸法
  6
Continuous
 62
     0
370
    -2
100
AcDbLine
 10
82.59920841473748
 20
339.322953810548
 30
0.0
 11
82.59920841473748
 21
284.504112342821
 31
0.0
  0
INSERT
  5
4EFA
330
4EF4
100
AcDbEntity
  8
寸法
 62
     0
370
    -2
100
AcDbBlockReference
  2
_DOT
 10
82.59920841473748
 20
340.822953810548
 30
0.0
 41
1.5
 42
1.5
 43
1.5
 50
90.0
  0
INSERT
  5
4EFB
330
4EF4
100
AcDbEntity
  8
寸法
 62
     0
370
    -2
100
AcDbBlockReference
  2
_DOT
 10
82.59920841473748
 20
283.004112342821
 30
0.0
 41
1.5
 42
1.5
 43
1.5
 50
270.0
  0
MTEXT
  5
4EFC
330
4EF4
100
AcDbEntity
  8
寸法
  6
Continuous
 62
     0
100
AcDbMText
 10
78.09920841473748
 20
311.9135330766845
 30
0.0
 40
5.0
 41
0.0
 46
0.0
 71
     5
 72
     1
  1
\A1;58
  7
ＭＳ ゴシック
 11
0.0
 21
1.0
 31
0.0
 73
     1
 44
1.0
  0
POINT
  5
4EFD
330
4EF4
100
AcDbEntity
  8
Defpoints
 62
     0
100
AcDbPoint
 10
115.1453394275008
 20
340.822953810548
 30
0.0
  0
POINT
  5
4EFE
330
4EF4
100
AcDbEntity
  8
Defpoints
 62
     0
100
AcDbPoint
 10
172.3405422502963
 20
283.004112342821
 30
0.0
  0
POINT
  5
4EFF
330
4EF4
100
AcDbEntity
  8
Defpoints
 62
     0
100
AcDbPoint
 10
82.59920841473748
 20
283.004112342821
 30
0.0
  0
ENDBLK
  5
4EF6
330
4EF4
100
AcDbEntity
  8
0
100
AcDbBlockEnd
  0
BLOCK
  5
503B
330
503A
100
AcDbEntity
  8
0
100
AcDbBlockBegin
  2
*D9
 70
     1
 10
0.0
 20
0.0
 30
0.0
  3
*D9
  1
*D207
  0
LINE
  5
503D
330
503A
100
AcDbEntity
  8
寸法
  6
Continuous
 62
     0
370
    -2
100
AcDbLine
 10
115.1720832502963
 20
336.004112342821
 30
0.0
 11
115.1720832502963
 21
263.5264786702161
 31
0.0
  0
LINE
  5
503E
330
503A
100
AcDbEntity
  8
寸法
  6
Continuous
 62
     0
370
    -2
100
AcDbLine
 10
250.1720832502963
 20
305.504112342821
 30
0.0
 11
250.1720832502963
 21
263.5264786702161
 31
0.0
  0
LINE
  5
503F
330
503A
100
AcDbEntity
  8
寸法
  6
Continuous
 62
     0
370
    -2
100
AcDbLine
 10
116.6720832502963
 20
263.5264786702161
 30
0.0
 11
248.6720832502963
 21
263.5264786702161
 31
0.0
  0
INSERT
  5
5040
330
503A
100
AcDbEntity
  8
寸法
 62
     0
370
    -2
100
AcDbBlockReference
  2
_DOT
 10
115.1720832502963
 20
263.5264786702161
 30
0.0
 41
1.5
 42
1.5
 43
1.5
 50
180.0
  0
INSERT
  5
5041
330
503A
100
AcDbEntity
  8
寸法
 62
     0
370
    -2
100
AcDbBlockReference
  2
_DOT
 10
250.1720832502963
 20
263.5264786702161
 30
0.0
 41
1.5
 42
1.5
 43
1.5
  0
MTEXT
  5
5042
330
503A
100
AcDbEntity
  8
寸法
  6
Continuous
 62
     0
100
AcDbMText
 10
182.6720832502963
 20
268.0264786702161
 30
0.0
 40
5.0
 41
0.0
 46
0.0
 71
     5
 72
     1
  1
\A1;135
  7
ＭＳ ゴシック
 73
     1
 44
1.0
  0
POINT
  5
5043
330
503A
100
AcDbEntity
  8
Defpoints
 62
     0
100
AcDbPoint
 10
115.1720832502963
 20
341.004112342821
 30
0.0
  0
POINT
  5
5044
330
503A
100
AcDbEntity
  8
Defpoints
 62
     0
100
AcDbPoint
 10
250.1720832502963
 20
310.504112342821
 30
0.0
  0
POINT
  5
5045
330
503A
100
AcDbEntity
  8
Defpoints
 62
     0
100
AcDbPoint
 10
250.1720832502963
 20
263.5264786702161
 30
0.0
  0
ENDBLK
  5
503C
330
503A
100
AcDbEntity
  8
0
100
AcDbBlockEnd
  0
BLOCK
  5
526E
330
526D
100
AcDbEntity
  8
0
100
AcDbBlockBegin
  2
名称未設定-1
 70
     0
 10
0.0
 20
0.0
 30
0.0
  3
名称未設定-1
  1
名称未設定-1
  0
INSERT
  5
526F
330
526D
100
AcDbEntity
  8
TFORMLOGO
100
AcDbBlockReference
  2
block 2
 10
0.0
 20
0.0
 30
0.0
  0
ENDBLK
  5
5294
330
526D
100
AcDbEntity
  8
0
100
AcDbBlockEnd
  0
BLOCK
  5
5271
330
5270
100
AcDbEntity
  8
0
100
AcDbBlockBegin
  2
block 2
 70
     0
 10
0.0
 20
0.0
 30
0.0
  3
block 2
  1
block 2
  0
INSERT
  5
5272
330
5270
100
AcDbEntity
  8
TFORMLOGO
100
AcDbBlockReference
  2
block 3
 10
0.0
 20
0.0
 30
0.0
  0
ENDBLK
  5
5293
330
5270
100
AcDbEntity
  8
0
100
AcDbBlockEnd
  0
BLOCK
  5
52BD
330
52BC
100
AcDbEntity
  8
0
100
AcDbBlockBegin
  2
*D12
 70
     1
 10
0.0
 20
0.0
 30
0.0
  3
*D12
  1
*D63
  0
LINE
  5
52BE
330
52BC
100
AcDbEntity
  8
寸法
 62
     0
370
    -2
100
AcDbLine
 10
427.8721245115549
 20
172.3452081951892
 30
0.0
 11
427.8721245115549
 21
144.5573006134969
 31
0.0
  0
LINE
  5
52BF
330
52BC
100
AcDbEntity
  8
寸法
 62
     0
370
    -2
100
AcDbLine
 10
389.8721245115548
 20
172.3452081951892
 30
0.0
 11
389.8721245115548
 21
144.5573006134969
 31
0.0
  0
LINE
  5
52C0
330
52BC
100
AcDbEntity
  8
寸法
 62
     0
370
    -2
100
AcDbLine
 10
389.8721245115548
 20
144.5573006134969
 30
0.0
 11
376.2146245115548
 21
144.5573006134969
 31
0.0
  0
LINE
  5
52C1
330
52BC
100
AcDbEntity
  8
寸法
 62
     0
370
    -2
100
AcDbLine
 10
426.3721245115549
 20
144.5573006134969
 30
0.0
 11
391.3721245115548
 21
144.5573006134969
 31
0.0
  0
INSERT
  5
52C2
330
52BC
100
AcDbEntity
  8
寸法
 62
     0
370
    -2
100
AcDbBlockReference
  2
_DOT
 10
427.8721245115549
 20
144.5573006134969
 30
0.0
 41
1.5
 42
1.5
 43
1.5
  0
INSERT
  5
52C3
330
52BC
100
AcDbEntity
  8
寸法
 62
     0
370
    -2
100
AcDbBlockReference
  2
_DOT
 10
389.8721245115548
 20
144.5573006134969
 30
0.0
 41
1.5
 42
1.5
 43
1.5
 50
180.0
  0
POINT
  5
52C4
330
52BC
100
AcDbEntity
  8
Defpoints
 62
     0
100
AcDbPoint
 10
427.8721245115549
 20
177.3452081951892
 30
0.0
  0
POINT
  5
52C5
330
52BC
100
AcDbEntity
  8
Defpoints
 62
     0
100
AcDbPoint
 10
389.8721245115548
 20
177.3452081951892
 30
0.0
  0
POINT
  5
52C6
330
52BC
100
AcDbEntity
  8
Defpoints
 62
     0
100
AcDbPoint
 10
389.8721245115548
 20
144.5573006134969
 30
0.0
  0
ENDBLK
  5
52C7
330
52BC
100
AcDbEntity
  8
0
100
AcDbBlockEnd
  0
BLOCK
  5
52CA
330
52C9
100
AcDbEntity
  8
0
100
AcDbBlockBegin
  2
*D13
 70
     1
 10
0.0
 20
0.0
 30
0.0
  3
*D13
  1
*D67
  0
LINE
  5
52CB
330
52C9
100
AcDbEntity
  8
寸法
 62
     0
370
    -2
100
AcDbLine
 10
389.8721245115548
 20
191.0157099566222
 30
0.0
 11
389.8721245115548
 21
213.8023335341041
 31
0.0
  0
LINE
  5
52CC
330
52C9
100
AcDbEntity
  8
寸法
 62
     0
370
    -2
100
AcDbLine
 10
408.8721245115548
 20
205.1912224768318
 30
0.0
 11
408.8721245115548
 21
213.8023335341041
 31
0.0
  0
LINE
  5
52CD
330
52C9
100
AcDbEntity
  8
寸法
 62
     0
370
    -2
100
AcDbLine
 10
391.3721245115548
 20
213.8023335341041
 30
0.0
 11
407.3721245115548
 21
213.8023335341041
 31
0.0
  0
INSERT
  5
52CE
330
52C9
100
AcDbEntity
  8
寸法
 62
     0
370
    -2
100
AcDbBlockReference
  2
_DOT
 10
389.8721245115548
 20
213.8023335341041
 30
0.0
 41
1.5
 42
1.5
 43
1.5
 50
180.0
  0
INSERT
  5
52CF
330
52C9
100
AcDbEntity
  8
寸法
 62
     0
370
    -2
100
AcDbBlockReference
  2
_DOT
 10
408.8721245115548
 20
213.8023335341041
 30
0.0
 41
1.5
 42
1.5
 43
1.5
  0
MTEXT
  5
52D0
330
52C9
100
AcDbEntity
  8
寸法
  6
Continuous
 62
     0
100
AcDbMText
 10
399.3721245115548
 20
218.3023335341041
 30
0.0
 40
5.0
 41
0.0
 46
0.0
 71
     5
 72
     1
  1
\A1;19
  7
ＭＳ ゴシック
 73
     1
 44
1.0
  0
POINT
  5
52D1
330
52C9
100
AcDbEntity
  8
Defpoints
 62
     0
100
AcDbPoint
 10
389.8721245115548
 20
186.0157099566222
 30
0.0
  0
POINT
  5
52D2
330
52C9
100
AcDbEntity
  8
Defpoints
 62
     0
100
AcDbPoint
 10
408.8721245115548
 20
200.1912224768318
 30
0.0
  0
POINT
  5
52D3
330
52C9
100
AcDbEntity
  8
Defpoints
 62
     0
100
AcDbPoint
 10
408.8721245115548
 20
213.8023335341041
 30
0.0
  0
ENDBLK
  5
52D4
330
52C9
100
AcDbEntity
  8
0
100
AcDbBlockEnd
  0
BLOCK
  5
52D7
330
52D6
100
AcDbEntity
  8
0
100
AcDbBlockBegin
  2
*D14
 70
     1
 10
0.0
 20
0.0
 30
0.0
  3
*D14
  1
*D68
  0
LINE
  5
52D8
330
52D6
100
AcDbEntity
  8
寸法
 62
     0
370
    -2
100
AcDbLine
 10
408.8721245115548
 20
205.1912224768318
 30
0.0
 11
408.8721245115548
 21
213.8023335341041
 31
0.0
  0
LINE
  5
52D9
330
52D6
100
AcDbEntity
  8
寸法
 62
     0
370
    -2
100
AcDbLine
 10
427.8721245115549
 20
191.0157099566222
 30
0.0
 11
427.8721245115549
 21
213.8023335341041
 31
0.0
  0
LINE
  5
52DA
330
52D6
100
AcDbEntity
  8
寸法
 62
     0
370
    -2
100
AcDbLine
 10
410.3721245115548
 20
213.8023335341041
 30
0.0
 11
426.3721245115549
 21
213.8023335341041
 31
0.0
  0
INSERT
  5
52DB
330
52D6
100
AcDbEntity
  8
寸法
 62
     0
370
    -2
100
AcDbBlockReference
  2
_DOT
 10
408.8721245115548
 20
213.8023335341041
 30
0.0
 41
1.5
 42
1.5
 43
1.5
 50
180.0
  0
INSERT
  5
52DC
330
52D6
100
AcDbEntity
  8
寸法
 62
     0
370
    -2
100
AcDbBlockReference
  2
_DOT
 10
427.8721245115549
 20
213.8023335341041
 30
0.0
 41
1.5
 42
1.5
 43
1.5
  0
MTEXT
  5
52DD
330
52D6
100
AcDbEntity
  8
寸法
  6
Continuous
 62
     0
100
AcDbMText
 10
418.3721245115548
 20
218.3023335341041
 30
0.0
 40
5.0
 41
0.0
 46
0.0
 71
     5
 72
     1
  1
\A1;19
  7
ＭＳ ゴシック
 73
     1
 44
1.0
  0
POINT
  5
52DE
330
52D6
100
AcDbEntity
  8
Defpoints
 62
     0
100
AcDbPoint
 10
408.8721245115548
 20
200.1912224768318
 30
0.0
  0
POINT
  5
52DF
330
52D6
100
AcDbEntity
  8
Defpoints
 62
     0
100
AcDbPoint
 10
427.8721245115549
 20
186.0157099566222
 30
0.0
  0
POINT
  5
52E0
330
52D6
100
AcDbEntity
  8
Defpoints
 62
     0
100
AcDbPoint
 10
427.8721245115549
 20
213.8023335341041
 30
0.0
  0
ENDBLK
  5
52E1
330
52D6
100
AcDbEntity
  8
0
100
AcDbBlockEnd
  0
BLOCK
  5
5341
330
5340
100
AcDbEntity
  8
0
100
AcDbBlockBegin
  2
*D15
 70
     1
 10
0.0
 20
0.0
 30
0.0
  3
*D15
  1
*D16
  0
LINE
  5
5343
330
5340
100
AcDbEntity
  8
寸法
 62
     0
370
    -2
100
AcDbLine
 10
427.8721245115548
 20
172.3452081951892
 30
0.0
 11
427.8721245115548
 21
144.5573006134969
 31
0.0
  0
LINE
  5
5344
330
5340
100
AcDbEntity
  8
寸法
 62
     0
370
    -2
100
AcDbLine
 10
389.8721245115548
 20
172.3452081951892
 30
0.0
 11
389.8721245115548
 21
144.5573006134969
 31
0.0
  0
LINE
  5
5345
330
5340
100
AcDbEntity
  8
寸法
 62
     0
370
    -2
100
AcDbLine
 10
389.8721245115548
 20
144.5573006134969
 30
0.0
 11
376.2146245115548
 21
144.5573006134969
 31
0.0
  0
LINE
  5
5346
330
5340
100
AcDbEntity
  8
寸法
 62
     0
370
    -2
100
AcDbLine
 10
426.3721245115548
 20
144.5573006134969
 30
0.0
 11
391.3721245115548
 21
144.5573006134969
 31
0.0
  0
INSERT
  5
5347
330
5340
100
AcDbEntity
  8
寸法
 62
     0
370
    -2
100
AcDbBlockReference
  2
_DOT
 10
427.8721245115548
 20
144.5573006134969
 30
0.0
 41
1.5
 42
1.5
 43
1.5
  0
INSERT
  5
5348
330
5340
100
AcDbEntity
  8
寸法
 62
     0
370
    -2
100
AcDbBlockReference
  2
_DOT
 10
389.8721245115548
 20
144.5573006134969
 30
0.0
 41
1.5
 42
1.5
 43
1.5
 50
180.0
  0
POINT
  5
5349
330
5340
100
AcDbEntity
  8
Defpoints
 62
     0
100
AcDbPoint
 10
427.8721245115548
 20
177.3452081951892
 30
0.0
  0
POINT
  5
534A
330
5340
100
AcDbEntity
  8
Defpoints
 62
     0
100
AcDbPoint
 10
389.8721245115548
 20
177.3452081951892
 30
0.0
  0
POINT
  5
534B
330
5340
100
AcDbEntity
  8
Defpoints
 62
     0
100
AcDbPoint
 10
389.8721245115548
 20
144.5573006134969
 30
0.0
  0
ENDBLK
  5
5342
330
5340
100
AcDbEntity
  8
0
100
AcDbBlockEnd
  0
BLOCK
  5
534D
330
534C
100
AcDbEntity
  8
0
100
AcDbBlockBegin
  2
*D16
 70
     1
 10
0.0
 20
0.0
 30
0.0
  3
*D16
  1
*D17
  0
LINE
  5
534F
330
534C
100
AcDbEntity
  8
寸法
 62
     0
370
    -2
100
AcDbLine
 10
389.8721245115548
 20
191.0157099566222
 30
0.0
 11
389.8721245115548
 21
213.8023335341041
 31
0.0
  0
LINE
  5
5350
330
534C
100
AcDbEntity
  8
寸法
 62
     0
370
    -2
100
AcDbLine
 10
408.8721245115548
 20
205.1912224768318
 30
0.0
 11
408.8721245115548
 21
213.8023335341041
 31
0.0
  0
LINE
  5
5351
330
534C
100
AcDbEntity
  8
寸法
 62
     0
370
    -2
100
AcDbLine
 10
391.3721245115548
 20
213.8023335341041
 30
0.0
 11
407.3721245115548
 21
213.8023335341041
 31
0.0
  0
INSERT
  5
5352
330
534C
100
AcDbEntity
  8
寸法
 62
     0
370
    -2
100
AcDbBlockReference
  2
_DOT
 10
389.8721245115548
 20
213.8023335341041
 30
0.0
 41
1.5
 42
1.5
 43
1.5
 50
180.0
  0
INSERT
  5
5353
330
534C
100
AcDbEntity
  8
寸法
 62
     0
370
    -2
100
AcDbBlockReference
  2
_DOT
 10
408.8721245115548
 20
213.8023335341041
 30
0.0
 41
1.5
 42
1.5
 43
1.5
  0
MTEXT
  5
5354
330
534C
100
AcDbEntity
  8
寸法
  6
Continuous
 62
     0
100
AcDbMText
 10
399.3721245115548
 20
217.8023335341041
 30
0.0
 40
4.0
 41
0.0
 46
0.0
 71
     5
 72
     1
  1
\A1;19
  7
ＭＳ ゴシック
 73
     1
 44
1.0
  0
POINT
  5
5355
330
534C
100
AcDbEntity
  8
Defpoints
 62
     0
100
AcDbPoint
 10
389.8721245115548
 20
186.0157099566222
 30
0.0
  0
POINT
  5
5356
330
534C
100
AcDbEntity
  8
Defpoints
 62
     0
100
AcDbPoint
 10
408.8721245115548
 20
200.1912224768318
 30
0.0
  0
POINT
  5
5357
330
534C
100
AcDbEntity
  8
Defpoints
 62
     0
100
AcDbPoint
 10
408.8721245115548
 20
213.8023335341041
 30
0.0
  0
ENDBLK
  5
534E
330
534C
100
AcDbEntity
  8
0
100
AcDbBlockEnd
  0
BLOCK
  5
5359
330
5358
100
AcDbEntity
  8
0
100
AcDbBlockBegin
  2
*D17
 70
     1
 10
0.0
 20
0.0
 30
0.0
  3
*D17
  1
*D18
  0
LINE
  5
535B
330
5358
100
AcDbEntity
  8
寸法
 62
     0
370
    -2
100
AcDbLine
 10
408.8721245115548
 20
205.1912224768318
 30
0.0
 11
408.8721245115548
 21
213.8023335341041
 31
0.0
  0
LINE
  5
535C
330
5358
100
AcDbEntity
  8
寸法
 62
     0
370
    -2
100
AcDbLine
 10
427.8721245115548
 20
191.0157099566222
 30
0.0
 11
427.8721245115548
 21
213.8023335341041
 31
0.0
  0
LINE
  5
535D
330
5358
100
AcDbEntity
  8
寸法
 62
     0
370
    -2
100
AcDbLine
 10
410.3721245115548
 20
213.8023335341041
 30
0.0
 11
426.3721245115548
 21
213.8023335341041
 31
0.0
  0
INSERT
  5
535E
330
5358
100
AcDbEntity
  8
寸法
 62
     0
370
    -2
100
AcDbBlockReference
  2
_DOT
 10
408.8721245115548
 20
213.8023335341041
 30
0.0
 41
1.5
 42
1.5
 43
1.5
 50
180.0
  0
INSERT
  5
535F
330
5358
100
AcDbEntity
  8
寸法
 62
     0
370
    -2
100
AcDbBlockReference
  2
_DOT
 10
427.8721245115548
 20
213.8023335341041
 30
0.0
 41
1.5
 42
1.5
 43
1.5
  0
MTEXT
  5
5360
330
5358
100
AcDbEntity
  8
寸法
  6
Continuous
 62
     0
100
AcDbMText
 10
418.3721245115548
 20
217.8023335341041
 30
0.0
 40
4.0
 41
0.0
 46
0.0
 71
     5
 72
     1
  1
\A1;19
  7
ＭＳ ゴシック
 73
     1
 44
1.0
  0
POINT
  5
5361
330
5358
100
AcDbEntity
  8
Defpoints
 62
     0
100
AcDbPoint
 10
408.8721245115548
 20
200.1912224768318
 30
0.0
  0
POINT
  5
5362
330
5358
100
AcDbEntity
  8
Defpoints
 62
     0
100
AcDbPoint
 10
427.8721245115548
 20
186.0157099566222
 30
0.0
  0
POINT
  5
5363
330
5358
100
AcDbEntity
  8
Defpoints
 62
     0
100
AcDbPoint
 10
427.8721245115548
 20
213.8023335341041
 30
0.0
  0
ENDBLK
  5
535A
330
5358
100
AcDbEntity
  8
0
100
AcDbBlockEnd
  0
BLOCK
  5
53EA
330
53E9
100
AcDbEntity
  8
0
100
AcDbBlockBegin
  2
*D18
 70
     1
 10
0.0
 20
0.0
 30
0.0
  3
*D18
  1
*D53
  0
LINE
  5
53EB
330
53E9
100
AcDbEntity
  8
寸法
  6
Continuous
 62
     0
370
    -2
100
AcDbLine
 10
94.93135926942057
 20
348.7335990428101
 30
0.0
 11
82.57835042397778
 21
348.7335990428101
 31
0.0
  0
LINE
  5
53EC
330
53E9
100
AcDbEntity
  8
寸法
  6
Continuous
 62
     0
370
    -2
100
AcDbLine
 10
109.4837282141555
 20
341.0341771438358
 30
0.0
 11
82.57835042397778
 21
341.0341771438358
 31
0.0
  0
LINE
  5
53ED
330
53E9
100
AcDbEntity
  8
寸法
  6
Continuous
 62
     0
370
    -2
100
AcDbLine
 10
82.57835042397778
 20
348.7335990428101
 30
0.0
 11
82.57835042397778
 21
341.0341771438358
 31
0.0
  0
LINE
  5
53EE
330
53E9
100
AcDbEntity
  8
寸法
  6
Continuous
 62
     0
370
    -2
100
AcDbLine
 10
82.57835042397778
 20
350.2335990428101
 30
0.0
 11
82.57835042397778
 21
351.7335990428101
 31
0.0
  0
LINE
  5
53EF
330
53E9
100
AcDbEntity
  8
寸法
  6
Continuous
 62
     0
370
    -2
100
AcDbLine
 10
82.57835042397778
 20
339.5341771438358
 30
0.0
 11
82.57835042397778
 21
338.0341771438358
 31
0.0
  0
INSERT
  5
53F0
330
53E9
100
AcDbEntity
  8
寸法
 62
     0
370
    -2
100
AcDbBlockReference
  2
_DOT
 10
82.57835042397778
 20
348.7335990428101
 30
0.0
 41
1.5
 42
1.5
 43
1.5
 50
270.0
  0
INSERT
  5
53F1
330
53E9
100
AcDbEntity
  8
寸法
 62
     0
370
    -2
100
AcDbBlockReference
  2
_DOT
 10
82.57835042397778
 20
341.0341771438358
 30
0.0
 41
1.5
 42
1.5
 43
1.5
 50
90.0
  0
MTEXT
  5
53F2
330
53E9
100
AcDbEntity
  8
寸法
  6
Continuous
 62
     0
100
AcDbMText
 10
78.07835042397778
 20
344.883888093323
 30
0.0
 40
5.0
 41
0.0
 46
0.0
 71
     5
 72
     1
  1
\A1;8
  7
ＭＳ ゴシック
 11
0.0
 21
1.0
 31
0.0
 73
     1
 44
1.0
  0
POINT
  5
5572
330
53E9
100
AcDbEntity
  8
Defpoints
 62
     0
100
AcDbPoint
 10
99.93135926942057
 20
348.7335990428101
 30
0.0
  0
POINT
  5
5573
330
53E9
100
AcDbEntity
  8
Defpoints
 62
     0
100
AcDbPoint
 10
114.4837282141555
 20
341.0341771438358
 30
0.0
  0
POINT
  5
5574
330
53E9
100
AcDbEntity
  8
Defpoints
 62
     0
100
AcDbPoint
 10
82.57835042397778
 20
341.0341771438358
 30
0.0
  0
ENDBLK
  5
53F3
330
53E9
100
AcDbEntity
  8
0
100
AcDbBlockEnd
  0
BLOCK
  5
53F6
330
53F5
100
AcDbEntity
  8
0
100
AcDbBlockBegin
  2
*D19
 70
     1
 10
0.0
 20
0.0
 30
0.0
  3
*D19
  1
*D54
  0
LINE
  5
53F7
330
53F5
100
AcDbEntity
  8
寸法
  6
Continuous
 62
     0
370
    -2
100
AcDbLine
 10
403.8854160529299
 20
348.7990849693352
 30
0.0
 11
364.2169531300075
 21
348.7990849693352
 31
0.0
  0
LINE
  5
53F8
330
53F5
100
AcDbEntity
  8
寸法
  6
Continuous
 62
     0
370
    -2
100
AcDbLine
 10
403.8854160529299
 20
293.7990849693352
 30
0.0
 11
364.2169531300075
 21
293.7990849693352
 31
0.0
  0
LINE
  5
53F9
330
53F5
100
AcDbEntity
  8
寸法
  6
Continuous
 62
     0
370
    -2
100
AcDbLine
 10
364.2169531300075
 20
347.2990849693352
 30
0.0
 11
364.2169531300075
 21
295.2990849693352
 31
0.0
  0
INSERT
  5
53FA
330
53F5
100
AcDbEntity
  8
寸法
 62
     0
370
    -2
100
AcDbBlockReference
  2
_DOT
 10
364.2169531300075
 20
348.7990849693352
 30
0.0
 41
1.5
 42
1.5
 43
1.5
 50
90.0
  0
INSERT
  5
53FB
330
53F5
100
AcDbEntity
  8
寸法
 62
     0
370
    -2
100
AcDbBlockReference
  2
_DOT
 10
364.2169531300075
 20
293.7990849693352
 30
0.0
 41
1.5
 42
1.5
 43
1.5
 50
270.0
  0
MTEXT
  5
53FC
330
53F5
100
AcDbEntity
  8
寸法
  6
Continuous
 62
     0
100
AcDbMText
 10
359.3119531300075
 20
321.2990849693352
 30
0.0
 40
5.0
 41
0.0
 46
0.0
 71
     5
 72
     1
  1
\A1;φ55
  7
ＭＳ ゴシック
 11
0.0
 21
1.0
 31
0.0
 73
     1
 44
1.0
  0
POINT
  5
53FD
330
53F5
100
AcDbEntity
  8
Defpoints
 62
     0
100
AcDbPoint
 10
408.8854160529299
 20
348.7990849693352
 30
0.0
  0
POINT
  5
53FE
330
53F5
100
AcDbEntity
  8
Defpoints
 62
     0
100
AcDbPoint
 10
408.8854160529299
 20
293.7990849693352
 30
0.0
  0
POINT
  5
53FF
330
53F5
100
AcDbEntity
  8
Defpoints
 62
     0
100
AcDbPoint
 10
364.2169531300075
 20
293.7990849693352
 30
0.0
  0
ENDBLK
  5
5400
330
53F5
100
AcDbEntity
  8
0
100
AcDbBlockEnd
  0
BLOCK
  5
5403
330
5402
100
AcDbEntity
  8
0
100
AcDbBlockBegin
  2
*D20
 70
     1
 10
0.0
 20
0.0
 30
0.0
  3
*D20
  1
*D55
  0
LINE
  5
5404
330
5402
100
AcDbEntity
  8
寸法
  6
Continuous
 62
     0
370
    -2
100
AcDbLine
 10
94.06705166406618
 20
348.7335990428101
 30
0.0
 11
62.66820315675285
 21
348.7335990428101
 31
0.0
  0
LINE
  5
5405
330
5402
100
AcDbEntity
  8
寸法
  6
Continuous
 62
     0
370
    -2
100
AcDbLine
 10
184.9711760191407
 20
281.0777285890699
 30
0.0
 11
62.66820315675284
 21
281.0777285890699
 31
0.0
  0
LINE
  5
5406
330
5402
100
AcDbEntity
  8
寸法
  6
Continuous
 62
     0
370
    -2
100
AcDbLine
 10
62.66820315675285
 20
347.2335990428101
 30
0.0
 11
62.66820315675284
 21
282.5777285890699
 31
0.0
  0
INSERT
  5
5407
330
5402
100
AcDbEntity
  8
寸法
 62
     0
370
    -2
100
AcDbBlockReference
  2
_DOT
 10
62.66820315675285
 20
348.7335990428101
 30
0.0
 41
1.5
 42
1.5
 43
1.5
 50
90.0
  0
INSERT
  5
5408
330
5402
100
AcDbEntity
  8
寸法
 62
     0
370
    -2
100
AcDbBlockReference
  2
_DOT
 10
62.66820315675284
 20
281.0777285890699
 30
0.0
 41
1.5
 42
1.5
 43
1.5
 50
270.0
  0
MTEXT
  5
5409
330
5402
100
AcDbEntity
  8
寸法
  6
Continuous
 62
     0
100
AcDbMText
 10
58.16820315675284
 20
314.90566381594
 30
0.0
 40
5.0
 41
0.0
 46
0.0
 71
     5
 72
     1
  1
\A1;68
  7
ＭＳ ゴシック
 11
1.050230720549128E-16
 21
1.0
 31
0.0
 73
     1
 44
1.0
  0
POINT
  5
540A
330
5402
100
AcDbEntity
  8
Defpoints
 62
     0
100
AcDbPoint
 10
99.06705166406618
 20
348.7335990428101
 30
0.0
  0
POINT
  5
540B
330
5402
100
AcDbEntity
  8
Defpoints
 62
     0
100
AcDbPoint
 10
189.9711760191407
 20
281.0777285890699
 30
0.0
  0
POINT
  5
540C
330
5402
100
AcDbEntity
  8
Defpoints
 62
     0
100
AcDbPoint
 10
62.66820315675284
 20
281.0777285890699
 30
0.0
  0
ENDBLK
  5
540D
330
5402
100
AcDbEntity
  8
0
100
AcDbBlockEnd
  0
BLOCK
  5
5410
330
540F
100
AcDbEntity
  8
0
100
AcDbBlockBegin
  2
*D21
 70
     1
 10
0.0
 20
0.0
 30
0.0
  3
*D21
  1
*D56
  0
LINE
  5
5411
330
540F
100
AcDbEntity
  8
寸法
  6
Continuous
 62
     0
370
    -2
100
AcDbLine
 10
127.0296484505602
 20
145.053068208781
 30
0.0
 11
127.0296484505602
 21
138.3207352236588
 31
0.0
  0
LINE
  5
5412
330
540F
100
AcDbEntity
  8
寸法
  6
Continuous
 62
     0
370
    -2
100
AcDbLine
 10
134.8816507401137
 20
163.6511043765549
 30
0.0
 11
134.8816507401137
 21
138.3207352236588
 31
0.0
  0
LINE
  5
5413
330
540F
100
AcDbEntity
  8
寸法
  6
Continuous
 62
     0
370
    -2
100
AcDbLine
 10
134.8816507401137
 20
138.3207352236588
 30
0.0
 11
186.7116507401138
 21
138.3207352236588
 31
0.0
  0
INSERT
  5
5414
330
540F
100
AcDbEntity
  8
寸法
 62
     0
370
    -2
100
AcDbBlockReference
  2
_DOT
 10
127.0296484505602
 20
138.3207352236588
 30
0.0
 41
1.5
 42
1.5
 43
1.5
 50
180.0
  0
INSERT
  5
5415
330
540F
100
AcDbEntity
  8
寸法
 62
     0
370
    -2
100
AcDbBlockReference
  2
_DOT
 10
134.8816507401137
 20
138.3207352236588
 30
0.0
 41
1.5
 42
1.5
 43
1.5
  0
MTEXT
  5
5416
330
540F
100
AcDbEntity
  8
寸法
  6
Continuous
 62
     0
100
AcDbMText
 10
164.2966507401138
 20
143.3782352236588
 30
0.0
 40
5.0
 41
0.0
 46
0.0
 71
     5
 72
     1
  1
\A1;プレート部分8
  7
ＭＳ ゴシック
 73
     1
 44
1.0
  0
POINT
  5
5417
330
540F
100
AcDbEntity
  8
Defpoints
 62
     0
100
AcDbPoint
 10
127.0296484505602
 20
150.053068208781
 30
0.0
  0
POINT
  5
5418
330
540F
100
AcDbEntity
  8
Defpoints
 62
     0
100
AcDbPoint
 10
134.8816507401137
 20
168.6511043765549
 30
0.0
  0
POINT
  5
5419
330
540F
100
AcDbEntity
  8
Defpoints
 62
     0
100
AcDbPoint
 10
134.8816507401137
 20
138.3207352236588
 30
0.0
  0
ENDBLK
  5
541A
330
540F
100
AcDbEntity
  8
0
100
AcDbBlockEnd
  0
BLOCK
  5
541F
330
541E
100
AcDbEntity
  8
0
100
AcDbBlockBegin
  2
*D22
 70
     1
 10
0.0
 20
0.0
 30
0.0
  3
*D22
  1
*D57
  0
LINE
  5
5420
330
541E
100
AcDbEntity
  8
寸法
  6
Continuous
 62
     0
370
    -2
100
AcDbLine
 10
110.0726103713298
 20
341.022953810548
 30
0.0
 11
82.52647935856646
 21
341.022953810548
 31
0.0
  0
LINE
  5
5421
330
541E
100
AcDbEntity
  8
寸法
  6
Continuous
 62
     0
370
    -2
100
AcDbLine
 10
189.9711760191407
 20
281.0777285890699
 30
0.0
 11
82.52647935856646
 21
281.0777285890699
 31
0.0
  0
LINE
  5
5422
330
541E
100
AcDbEntity
  8
寸法
  6
Continuous
 62
     0
370
    -2
100
AcDbLine
 10
82.52647935856646
 20
339.522953810548
 30
0.0
 11
82.52647935856646
 21
282.5777285890699
 31
0.0
  0
INSERT
  5
5423
330
541E
100
AcDbEntity
  8
寸法
 62
     0
370
    -2
100
AcDbBlockReference
  2
_DOT
 10
82.52647935856646
 20
341.022953810548
 30
0.0
 41
1.5
 42
1.5
 43
1.5
 50
90.0
  0
INSERT
  5
5424
330
541E
100
AcDbEntity
  8
寸法
 62
     0
370
    -2
100
AcDbBlockReference
  2
_DOT
 10
82.52647935856646
 20
281.0777285890699
 30
0.0
 41
1.5
 42
1.5
 43
1.5
 50
270.0
  0
MTEXT
  5
5425
330
541E
100
AcDbEntity
  8
寸法
  6
Continuous
 62
     0
100
AcDbMText
 10
78.02647935856646
 20
311.0503411998089
 30
0.0
 40
5.0
 41
0.0
 46
0.0
 71
     5
 72
     1
  1
\A1;60
  7
ＭＳ ゴシック
 11
0.0
 21
1.0
 31
0.0
 73
     1
 44
1.0
  0
POINT
  5
5426
330
541E
100
AcDbEntity
  8
Defpoints
 62
     0
100
AcDbPoint
 10
115.0726103713298
 20
341.022953810548
 30
0.0
  0
POINT
  5
5427
330
541E
100
AcDbEntity
  8
Defpoints
 62
     0
100
AcDbPoint
 10
194.9711760191407
 20
281.0777285890699
 30
0.0
  0
POINT
  5
5428
330
541E
100
AcDbEntity
  8
Defpoints
 62
     0
100
AcDbPoint
 10
82.52647935856646
 20
281.0777285890699
 30
0.0
  0
ENDBLK
  5
5429
330
541E
100
AcDbEntity
  8
0
100
AcDbBlockEnd
  0
BLOCK
  5
547B
330
547A
100
AcDbEntity
  8
0
100
AcDbBlockBegin
  2
*D23
 70
     1
 10
0.0
 20
0.0
 30
0.0
  3
*D23
  1
*D58
  0
LINE
  5
547C
330
547A
100
AcDbEntity
  8
寸法
  6
Continuous
 62
     0
370
    -2
100
AcDbLine
 10
115.1935433875918
 20
326.04005183593
 30
0.0
 11
115.1935433875918
 21
262.1267427827099
 31
0.0
  0
LINE
  5
547D
330
547A
100
AcDbEntity
  8
寸法
  6
Continuous
 62
     0
370
    -2
100
AcDbLine
 10
234.1687403875918
 20
292.9484688359301
 30
0.0
 11
234.1687403875918
 21
262.1267427827099
 31
0.0
  0
LINE
  5
547E
330
547A
100
AcDbEntity
  8
寸法
  6
Continuous
 62
     0
370
    -2
100
AcDbLine
 10
116.6935433875918
 20
262.1267427827099
 30
0.0
 11
232.6687403875918
 21
262.1267427827099
 31
0.0
  0
INSERT
  5
547F
330
547A
100
AcDbEntity
  8
寸法
 62
     0
370
    -2
100
AcDbBlockReference
  2
_DOT
 10
115.1935433875918
 20
262.1267427827099
 30
0.0
 41
1.5
 42
1.5
 43
1.5
 50
180.0
  0
INSERT
  5
5480
330
547A
100
AcDbEntity
  8
寸法
 62
     0
370
    -2
100
AcDbBlockReference
  2
_DOT
 10
234.1687403875918
 20
262.1267427827099
 30
0.0
 41
1.5
 42
1.5
 43
1.5
  0
MTEXT
  5
5481
330
547A
100
AcDbEntity
  8
寸法
  6
Continuous
 62
     0
100
AcDbMText
 10
174.6811418875918
 20
266.6267427827099
 30
0.0
 40
5.0
 41
0.0
 46
0.0
 71
     5
 72
     1
  1
\A1;119
  7
ＭＳ ゴシック
 73
     1
 44
1.0
  0
POINT
  5
5482
330
547A
100
AcDbEntity
  8
Defpoints
 62
     0
100
AcDbPoint
 10
115.1935433875918
 20
331.04005183593
 30
0.0
  0
POINT
  5
5483
330
547A
100
AcDbEntity
  8
Defpoints
 62
     0
100
AcDbPoint
 10
234.1687403875918
 20
297.9484688359301
 30
0.0
  0
POINT
  5
5484
330
547A
100
AcDbEntity
  8
Defpoints
 62
     0
100
AcDbPoint
 10
234.1687403875918
 20
262.1267427827099
 30
0.0
  0
ENDBLK
  5
5485
330
547A
100
AcDbEntity
  8
0
100
AcDbBlockEnd
  0
BLOCK
  5
54AF
330
54AE
100
AcDbEntity
  8
0
100
AcDbBlockBegin
  2
*D24
 70
     1
 10
0.0
 20
0.0
 30
0.0
  3
*D24
  1
*D63
  0
LINE
  5
54B0
330
54AE
100
AcDbEntity
  8
寸法
 62
     0
370
    -2
100
AcDbLine
 10
427.8721245115549
 20
172.3452081951892
 30
0.0
 11
427.8721245115549
 21
144.5573006134969
 31
0.0
  0
LINE
  5
54B1
330
54AE
100
AcDbEntity
  8
寸法
 62
     0
370
    -2
100
AcDbLine
 10
389.8721245115548
 20
172.3452081951892
 30
0.0
 11
389.8721245115548
 21
144.5573006134969
 31
0.0
  0
LINE
  5
54B2
330
54AE
100
AcDbEntity
  8
寸法
 62
     0
370
    -2
100
AcDbLine
 10
389.8721245115548
 20
144.5573006134969
 30
0.0
 11
376.2146245115548
 21
144.5573006134969
 31
0.0
  0
LINE
  5
54B3
330
54AE
100
AcDbEntity
  8
寸法
 62
     0
370
    -2
100
AcDbLine
 10
426.3721245115549
 20
144.5573006134969
 30
0.0
 11
391.3721245115548
 21
144.5573006134969
 31
0.0
  0
INSERT
  5
54B4
330
54AE
100
AcDbEntity
  8
寸法
 62
     0
370
    -2
100
AcDbBlockReference
  2
_DOT
 10
427.8721245115549
 20
144.5573006134969
 30
0.0
 41
1.5
 42
1.5
 43
1.5
  0
INSERT
  5
54B5
330
54AE
100
AcDbEntity
  8
寸法
 62
     0
370
    -2
100
AcDbBlockReference
  2
_DOT
 10
389.8721245115548
 20
144.5573006134969
 30
0.0
 41
1.5
 42
1.5
 43
1.5
 50
180.0
  0
POINT
  5
54B6
330
54AE
100
AcDbEntity
  8
Defpoints
 62
     0
100
AcDbPoint
 10
427.8721245115549
 20
177.3452081951892
 30
0.0
  0
POINT
  5
54B7
330
54AE
100
AcDbEntity
  8
Defpoints
 62
     0
100
AcDbPoint
 10
389.8721245115548
 20
177.3452081951892
 30
0.0
  0
POINT
  5
54B8
330
54AE
100
AcDbEntity
  8
Defpoints
 62
     0
100
AcDbPoint
 10
389.8721245115548
 20
144.5573006134969
 30
0.0
  0
ENDBLK
  5
54B9
330
54AE
100
AcDbEntity
  8
0
100
AcDbBlockEnd
  0
BLOCK
  5
54BC
330
54BB
100
AcDbEntity
  8
0
100
AcDbBlockBegin
  2
*D25
 70
     1
 10
0.0
 20
0.0
 30
0.0
  3
*D25
  1
*D67
  0
LINE
  5
54BD
330
54BB
100
AcDbEntity
  8
寸法
 62
     0
370
    -2
100
AcDbLine
 10
389.8721245115548
 20
191.0157099566222
 30
0.0
 11
389.8721245115548
 21
213.8023335341041
 31
0.0
  0
LINE
  5
54BE
330
54BB
100
AcDbEntity
  8
寸法
 62
     0
370
    -2
100
AcDbLine
 10
408.8721245115548
 20
205.1912224768318
 30
0.0
 11
408.8721245115548
 21
213.8023335341041
 31
0.0
  0
LINE
  5
54BF
330
54BB
100
AcDbEntity
  8
寸法
 62
     0
370
    -2
100
AcDbLine
 10
391.3721245115548
 20
213.8023335341041
 30
0.0
 11
407.3721245115548
 21
213.8023335341041
 31
0.0
  0
INSERT
  5
54C0
330
54BB
100
AcDbEntity
  8
寸法
 62
     0
370
    -2
100
AcDbBlockReference
  2
_DOT
 10
389.8721245115548
 20
213.8023335341041
 30
0.0
 41
1.5
 42
1.5
 43
1.5
 50
180.0
  0
INSERT
  5
54C1
330
54BB
100
AcDbEntity
  8
寸法
 62
     0
370
    -2
100
AcDbBlockReference
  2
_DOT
 10
408.8721245115548
 20
213.8023335341041
 30
0.0
 41
1.5
 42
1.5
 43
1.5
  0
MTEXT
  5
54C2
330
54BB
100
AcDbEntity
  8
寸法
  6
Continuous
 62
     0
100
AcDbMText
 10
399.3721245115548
 20
218.3023335341041
 30
0.0
 40
5.0
 41
0.0
 46
0.0
 71
     5
 72
     1
  1
\A1;19
  7
ＭＳ ゴシック
 73
     1
 44
1.0
  0
POINT
  5
54C3
330
54BB
100
AcDbEntity
  8
Defpoints
 62
     0
100
AcDbPoint
 10
389.8721245115548
 20
186.0157099566222
 30
0.0
  0
POINT
  5
54C4
330
54BB
100
AcDbEntity
  8
Defpoints
 62
     0
100
AcDbPoint
 10
408.8721245115548
 20
200.1912224768318
 30
0.0
  0
POINT
  5
54C5
330
54BB
100
AcDbEntity
  8
Defpoints
 62
     0
100
AcDbPoint
 10
408.8721245115548
 20
213.8023335341041
 30
0.0
  0
ENDBLK
  5
54C6
330
54BB
100
AcDbEntity
  8
0
100
AcDbBlockEnd
  0
BLOCK
  5
54C9
330
54C8
100
AcDbEntity
  8
0
100
AcDbBlockBegin
  2
*D26
 70
     1
 10
0.0
 20
0.0
 30
0.0
  3
*D26
  1
*D68
  0
LINE
  5
54CA
330
54C8
100
AcDbEntity
  8
寸法
 62
     0
370
    -2
100
AcDbLine
 10
408.8721245115548
 20
205.1912224768318
 30
0.0
 11
408.8721245115548
 21
213.8023335341041
 31
0.0
  0
LINE
  5
54CB
330
54C8
100
AcDbEntity
  8
寸法
 62
     0
370
    -2
100
AcDbLine
 10
427.8721245115549
 20
191.0157099566222
 30
0.0
 11
427.8721245115549
 21
213.8023335341041
 31
0.0
  0
LINE
  5
54CC
330
54C8
100
AcDbEntity
  8
寸法
 62
     0
370
    -2
100
AcDbLine
 10
410.3721245115548
 20
213.8023335341041
 30
0.0
 11
426.3721245115549
 21
213.8023335341041
 31
0.0
  0
INSERT
  5
54CD
330
54C8
100
AcDbEntity
  8
寸法
 62
     0
370
    -2
100
AcDbBlockReference
  2
_DOT
 10
408.8721245115548
 20
213.8023335341041
 30
0.0
 41
1.5
 42
1.5
 43
1.5
 50
180.0
  0
INSERT
  5
54CE
330
54C8
100
AcDbEntity
  8
寸法
 62
     0
370
    -2
100
AcDbBlockReference
  2
_DOT
 10
427.8721245115549
 20
213.8023335341041
 30
0.0
 41
1.5
 42
1.5
 43
1.5
  0
MTEXT
  5
54CF
330
54C8
100
AcDbEntity
  8
寸法
  6
Continuous
 62
     0
100
AcDbMText
 10
418.3721245115548
 20
218.3023335341041
 30
0.0
 40
5.0
 41
0.0
 46
0.0
 71
     5
 72
     1
  1
\A1;19
  7
ＭＳ ゴシック
 73
     1
 44
1.0
  0
POINT
  5
54D0
330
54C8
100
AcDbEntity
  8
Defpoints
 62
     0
100
AcDbPoint
 10
408.8721245115548
 20
200.1912224768318
 30
0.0
  0
POINT
  5
54D1
330
54C8
100
AcDbEntity
  8
Defpoints
 62
     0
100
AcDbPoint
 10
427.8721245115549
 20
186.0157099566222
 30
0.0
  0
POINT
  5
54D2
330
54C8
100
AcDbEntity
  8
Defpoints
 62
     0
100
AcDbPoint
 10
427.8721245115549
 20
213.8023335341041
 30
0.0
  0
ENDBLK
  5
54D3
330
54C8
100
AcDbEntity
  8
0
100
AcDbBlockEnd
  0
BLOCK
  5
5554
330
5553
100
AcDbEntity
  8
0
100
AcDbBlockBegin
  2
*D27
 70
     1
 10
0.0
 20
0.0
 30
0.0
  3
*D27
  1
*D69
  0
LINE
  5
5555
330
5553
100
AcDbEntity
  8
寸法
 62
     0
370
    -2
100
AcDbLine
 10
108.1825120145531
 20
356.4345575436565
 30
0.0
 11
108.1825120145531
 21
365.9906564456901
 31
0.0
  0
LINE
  5
5556
330
5553
100
AcDbEntity
  8
寸法
 62
     0
370
    -2
100
AcDbLine
 10
146.1825120145531
 20
356.4345575436565
 30
0.0
 11
146.1825120145531
 21
365.9906564456901
 31
0.0
  0
LINE
  5
5557
330
5553
100
AcDbEntity
  8
寸法
 62
     0
370
    -2
100
AcDbLine
 10
109.6825120145531
 20
365.9906564456901
 30
0.0
 11
144.6825120145531
 21
365.9906564456901
 31
0.0
  0
INSERT
  5
5558
330
5553
100
AcDbEntity
  8
寸法
 62
     0
370
    -2
100
AcDbBlockReference
  2
_DOT
 10
108.1825120145531
 20
365.9906564456901
 30
0.0
 41
1.5
 42
1.5
 43
1.5
 50
180.0
  0
INSERT
  5
5559
330
5553
100
AcDbEntity
  8
寸法
 62
     0
370
    -2
100
AcDbBlockReference
  2
_DOT
 10
146.1825120145531
 20
365.9906564456901
 30
0.0
 41
1.5
 42
1.5
 43
1.5
  0
MTEXT
  5
555A
330
5553
100
AcDbEntity
  8
寸法
  6
Continuous
 62
     0
100
AcDbMText
 10
127.1825120145531
 20
370.4906564456901
 30
0.0
 40
5.0
 41
0.0
 46
0.0
 71
     5
 72
     1
  1
\A1;38
  7
ＭＳ ゴシック
 73
     1
 44
1.0
  0
POINT
  5
555B
330
5553
100
AcDbEntity
  8
Defpoints
 62
     0
100
AcDbPoint
 10
108.1825120145531
 20
351.4345575436565
 30
0.0
  0
POINT
  5
555C
330
5553
100
AcDbEntity
  8
Defpoints
 62
     0
100
AcDbPoint
 10
146.1825120145531
 20
351.4345575436565
 30
0.0
  0
POINT
  5
555D
330
5553
100
AcDbEntity
  8
Defpoints
 62
     0
100
AcDbPoint
 10
146.1825120145531
 20
365.9906564456901
 30
0.0
  0
ENDBLK
  5
555E
330
5553
100
AcDbEntity
  8
0
100
AcDbBlockEnd
  0
BLOCK
  5
56BB
330
56BA
100
AcDbEntity
  8
0
100
AcDbBlockBegin
  2
*D28
 70
     1
 10
0.0
 20
0.0
 30
0.0
  3
*D28
  1
*D30
  0
LINE
  5
56BD
330
56BA
100
AcDbEntity
  8
寸法
  6
Continuous
 62
     0
370
    -2
100
AcDbLine
 10
94.93135926942057
 20
348.7335990428101
 30
0.0
 11
82.57835042397778
 21
348.7335990428101
 31
0.0
  0
LINE
  5
56BE
330
56BA
100
AcDbEntity
  8
寸法
  6
Continuous
 62
     0
370
    -2
100
AcDbLine
 10
109.4837282141555
 20
341.0341771438358
 30
0.0
 11
82.57835042397778
 21
341.0341771438358
 31
0.0
  0
LINE
  5
56BF
330
56BA
100
AcDbEntity
  8
寸法
  6
Continuous
 62
     0
370
    -2
100
AcDbLine
 10
82.57835042397778
 20
348.7335990428101
 30
0.0
 11
82.57835042397778
 21
341.0341771438358
 31
0.0
  0
LINE
  5
56C0
330
56BA
100
AcDbEntity
  8
寸法
  6
Continuous
 62
     0
370
    -2
100
AcDbLine
 10
82.57835042397778
 20
350.2335990428101
 30
0.0
 11
82.57835042397778
 21
351.7335990428101
 31
0.0
  0
LINE
  5
56C1
330
56BA
100
AcDbEntity
  8
寸法
  6
Continuous
 62
     0
370
    -2
100
AcDbLine
 10
82.57835042397778
 20
339.5341771438358
 30
0.0
 11
82.57835042397778
 21
338.0341771438358
 31
0.0
  0
INSERT
  5
56C2
330
56BA
100
AcDbEntity
  8
寸法
 62
     0
370
    -2
100
AcDbBlockReference
  2
_DOT
 10
82.57835042397778
 20
348.7335990428101
 30
0.0
 41
1.5
 42
1.5
 43
1.5
 50
270.0
  0
INSERT
  5
56C3
330
56BA
100
AcDbEntity
  8
寸法
 62
     0
370
    -2
100
AcDbBlockReference
  2
_DOT
 10
82.57835042397778
 20
341.0341771438358
 30
0.0
 41
1.5
 42
1.5
 43
1.5
 50
90.0
  0
MTEXT
  5
56C4
330
56BA
100
AcDbEntity
  8
寸法
  6
Continuous
 62
     0
100
AcDbMText
 10
78.07835042397778
 20
344.883888093323
 30
0.0
 40
5.0
 41
0.0
 46
0.0
 71
     5
 72
     1
  1
\A1;8
  7
ＭＳ ゴシック
 11
0.0
 21
1.0
 31
0.0
 73
     1
 44
1.0
  0
POINT
  5
56C5
330
56BA
100
AcDbEntity
  8
Defpoints
 62
     0
100
AcDbPoint
 10
99.93135926942057
 20
348.7335990428101
 30
0.0
  0
POINT
  5
56C6
330
56BA
100
AcDbEntity
  8
Defpoints
 62
     0
100
AcDbPoint
 10
114.4837282141555
 20
341.0341771438358
 30
0.0
  0
POINT
  5
56C7
330
56BA
100
AcDbEntity
  8
Defpoints
 62
     0
100
AcDbPoint
 10
82.57835042397778
 20
341.0341771438358
 30
0.0
  0
ENDBLK
  5
56BC
330
56BA
100
AcDbEntity
  8
0
100
AcDbBlockEnd
  0
BLOCK
  5
56C9
330
56C8
100
AcDbEntity
  8
0
100
AcDbBlockBegin
  2
*D29
 70
     1
 10
0.0
 20
0.0
 30
0.0
  3
*D29
  1
*D31
  0
LINE
  5
56CB
330
56C8
100
AcDbEntity
  8
寸法
  6
Continuous
 62
     0
370
    -2
100
AcDbLine
 10
403.8854160529299
 20
348.7990849693352
 30
0.0
 11
364.2169531300075
 21
348.7990849693352
 31
0.0
  0
LINE
  5
56CC
330
56C8
100
AcDbEntity
  8
寸法
  6
Continuous
 62
     0
370
    -2
100
AcDbLine
 10
403.8854160529299
 20
293.7990849693352
 30
0.0
 11
364.2169531300075
 21
293.7990849693352
 31
0.0
  0
LINE
  5
56CD
330
56C8
100
AcDbEntity
  8
寸法
  6
Continuous
 62
     0
370
    -2
100
AcDbLine
 10
364.2169531300075
 20
347.2990849693352
 30
0.0
 11
364.2169531300075
 21
295.2990849693352
 31
0.0
  0
INSERT
  5
56CE
330
56C8
100
AcDbEntity
  8
寸法
 62
     0
370
    -2
100
AcDbBlockReference
  2
_DOT
 10
364.2169531300075
 20
348.7990849693352
 30
0.0
 41
1.5
 42
1.5
 43
1.5
 50
90.0
  0
INSERT
  5
56CF
330
56C8
100
AcDbEntity
  8
寸法
 62
     0
370
    -2
100
AcDbBlockReference
  2
_DOT
 10
364.2169531300075
 20
293.7990849693352
 30
0.0
 41
1.5
 42
1.5
 43
1.5
 50
270.0
  0
MTEXT
  5
56D0
330
56C8
100
AcDbEntity
  8
寸法
  6
Continuous
 62
     0
100
AcDbMText
 10
359.3119531300075
 20
321.2990849693352
 30
0.0
 40
5.0
 41
0.0
 46
0.0
 71
     5
 72
     1
  1
\A1;φ55
  7
ＭＳ ゴシック
 11
0.0
 21
1.0
 31
0.0
 73
     1
 44
1.0
  0
POINT
  5
56D1
330
56C8
100
AcDbEntity
  8
Defpoints
 62
     0
100
AcDbPoint
 10
408.8854160529299
 20
348.7990849693352
 30
0.0
  0
POINT
  5
56D2
330
56C8
100
AcDbEntity
  8
Defpoints
 62
     0
100
AcDbPoint
 10
408.8854160529299
 20
293.7990849693352
 30
0.0
  0
POINT
  5
56D3
330
56C8
100
AcDbEntity
  8
Defpoints
 62
     0
100
AcDbPoint
 10
364.2169531300075
 20
293.7990849693352
 30
0.0
  0
ENDBLK
  5
56CA
330
56C8
100
AcDbEntity
  8
0
100
AcDbBlockEnd
  0
BLOCK
  5
56D5
330
56D4
100
AcDbEntity
  8
0
100
AcDbBlockBegin
  2
*D30
 70
     1
 10
0.0
 20
0.0
 30
0.0
  3
*D30
  1
*D32
  0
LINE
  5
56D7
330
56D4
100
AcDbEntity
  8
寸法
  6
Continuous
 62
     0
370
    -2
100
AcDbLine
 10
94.06705166406618
 20
348.7335990428101
 30
0.0
 11
62.66820315675285
 21
348.7335990428101
 31
0.0
  0
LINE
  5
56D8
330
56D4
100
AcDbEntity
  8
寸法
  6
Continuous
 62
     0
370
    -2
100
AcDbLine
 10
184.9711760191407
 20
281.0777285890699
 30
0.0
 11
62.66820315675284
 21
281.0777285890699
 31
0.0
  0
LINE
  5
56D9
330
56D4
100
AcDbEntity
  8
寸法
  6
Continuous
 62
     0
370
    -2
100
AcDbLine
 10
62.66820315675285
 20
347.2335990428101
 30
0.0
 11
62.66820315675284
 21
282.5777285890699
 31
0.0
  0
INSERT
  5
56DA
330
56D4
100
AcDbEntity
  8
寸法
 62
     0
370
    -2
100
AcDbBlockReference
  2
_DOT
 10
62.66820315675285
 20
348.7335990428101
 30
0.0
 41
1.5
 42
1.5
 43
1.5
 50
90.0
  0
INSERT
  5
56DB
330
56D4
100
AcDbEntity
  8
寸法
 62
     0
370
    -2
100
AcDbBlockReference
  2
_DOT
 10
62.66820315675284
 20
281.0777285890699
 30
0.0
 41
1.5
 42
1.5
 43
1.5
 50
270.0
  0
MTEXT
  5
56DC
330
56D4
100
AcDbEntity
  8
寸法
  6
Continuous
 62
     0
100
AcDbMText
 10
58.16820315675284
 20
314.90566381594
 30
0.0
 40
5.0
 41
0.0
 46
0.0
 71
     5
 72
     1
  1
\A1;68
  7
ＭＳ ゴシック
 11
1.050230720549128E-16
 21
1.0
 31
0.0
 73
     1
 44
1.0
  0
POINT
  5
56DD
330
56D4
100
AcDbEntity
  8
Defpoints
 62
     0
100
AcDbPoint
 10
99.06705166406618
 20
348.7335990428101
 30
0.0
  0
POINT
  5
56DE
330
56D4
100
AcDbEntity
  8
Defpoints
 62
     0
100
AcDbPoint
 10
189.9711760191407
 20
281.0777285890699
 30
0.0
  0
POINT
  5
56DF
330
56D4
100
AcDbEntity
  8
Defpoints
 62
     0
100
AcDbPoint
 10
62.66820315675284
 20
281.0777285890699
 30
0.0
  0
ENDBLK
  5
56D6
330
56D4
100
AcDbEntity
  8
0
100
AcDbBlockEnd
  0
BLOCK
  5
56E1
330
56E0
100
AcDbEntity
  8
0
100
AcDbBlockBegin
  2
*D31
 70
     1
 10
0.0
 20
0.0
 30
0.0
  3
*D31
  1
*D33
  0
LINE
  5
56E3
330
56E0
100
AcDbEntity
  8
寸法
  6
Continuous
 62
     0
370
    -2
100
AcDbLine
 10
127.0296484505602
 20
145.053068208781
 30
0.0
 11
127.0296484505602
 21
138.3207352236588
 31
0.0
  0
LINE
  5
56E4
330
56E0
100
AcDbEntity
  8
寸法
  6
Continuous
 62
     0
370
    -2
100
AcDbLine
 10
134.8816507401137
 20
163.6511043765549
 30
0.0
 11
134.8816507401137
 21
138.3207352236588
 31
0.0
  0
LINE
  5
56E5
330
56E0
100
AcDbEntity
  8
寸法
  6
Continuous
 62
     0
370
    -2
100
AcDbLine
 10
134.8816507401137
 20
138.3207352236588
 30
0.0
 11
186.7116507401138
 21
138.3207352236588
 31
0.0
  0
INSERT
  5
56E6
330
56E0
100
AcDbEntity
  8
寸法
 62
     0
370
    -2
100
AcDbBlockReference
  2
_DOT
 10
127.0296484505602
 20
138.3207352236588
 30
0.0
 41
1.5
 42
1.5
 43
1.5
 50
180.0
  0
INSERT
  5
56E7
330
56E0
100
AcDbEntity
  8
寸法
 62
     0
370
    -2
100
AcDbBlockReference
  2
_DOT
 10
134.8816507401137
 20
138.3207352236588
 30
0.0
 41
1.5
 42
1.5
 43
1.5
  0
MTEXT
  5
56E8
330
56E0
100
AcDbEntity
  8
寸法
  6
Continuous
 62
     0
100
AcDbMText
 10
164.2966507401138
 20
143.3782352236588
 30
0.0
 40
5.0
 41
0.0
 46
0.0
 71
     5
 72
     1
  1
\A1;プレート部分8
  7
ＭＳ ゴシック
 73
     1
 44
1.0
  0
POINT
  5
56E9
330
56E0
100
AcDbEntity
  8
Defpoints
 62
     0
100
AcDbPoint
 10
127.0296484505602
 20
150.053068208781
 30
0.0
  0
POINT
  5
56EA
330
56E0
100
AcDbEntity
  8
Defpoints
 62
     0
100
AcDbPoint
 10
134.8816507401137
 20
168.6511043765549
 30
0.0
  0
POINT
  5
56EB
330
56E0
100
AcDbEntity
  8
Defpoints
 62
     0
100
AcDbPoint
 10
134.8816507401137
 20
138.3207352236588
 30
0.0
  0
ENDBLK
  5
56E2
330
56E0
100
AcDbEntity
  8
0
100
AcDbBlockEnd
  0
BLOCK
  5
56ED
330
56EC
100
AcDbEntity
  8
0
100
AcDbBlockBegin
  2
*D32
 70
     1
 10
0.0
 20
0.0
 30
0.0
  3
*D32
  1
*D34
  0
LINE
  5
56EF
330
56EC
100
AcDbEntity
  8
寸法
  6
Continuous
 62
     0
370
    -2
100
AcDbLine
 10
110.0726103713298
 20
341.022953810548
 30
0.0
 11
82.52647935856646
 21
341.022953810548
 31
0.0
  0
LINE
  5
56F0
330
56EC
100
AcDbEntity
  8
寸法
  6
Continuous
 62
     0
370
    -2
100
AcDbLine
 10
189.9711760191407
 20
281.0777285890699
 30
0.0
 11
82.52647935856646
 21
281.0777285890699
 31
0.0
  0
LINE
  5
56F1
330
56EC
100
AcDbEntity
  8
寸法
  6
Continuous
 62
     0
370
    -2
100
AcDbLine
 10
82.52647935856646
 20
339.522953810548
 30
0.0
 11
82.52647935856646
 21
282.5777285890699
 31
0.0
  0
INSERT
  5
56F2
330
56EC
100
AcDbEntity
  8
寸法
 62
     0
370
    -2
100
AcDbBlockReference
  2
_DOT
 10
82.52647935856646
 20
341.022953810548
 30
0.0
 41
1.5
 42
1.5
 43
1.5
 50
90.0
  0
INSERT
  5
56F3
330
56EC
100
AcDbEntity
  8
寸法
 62
     0
370
    -2
100
AcDbBlockReference
  2
_DOT
 10
82.52647935856646
 20
281.0777285890699
 30
0.0
 41
1.5
 42
1.5
 43
1.5
 50
270.0
  0
MTEXT
  5
56F4
330
56EC
100
AcDbEntity
  8
寸法
  6
Continuous
 62
     0
100
AcDbMText
 10
78.02647935856646
 20
311.0503411998089
 30
0.0
 40
5.0
 41
0.0
 46
0.0
 71
     5
 72
     1
  1
\A1;60
  7
ＭＳ ゴシック
 11
0.0
 21
1.0
 31
0.0
 73
     1
 44
1.0
  0
POINT
  5
56F5
330
56EC
100
AcDbEntity
  8
Defpoints
 62
     0
100
AcDbPoint
 10
115.0726103713298
 20
341.022953810548
 30
0.0
  0
POINT
  5
56F6
330
56EC
100
AcDbEntity
  8
Defpoints
 62
     0
100
AcDbPoint
 10
194.9711760191407
 20
281.0777285890699
 30
0.0
  0
POINT
  5
56F7
330
56EC
100
AcDbEntity
  8
Defpoints
 62
     0
100
AcDbPoint
 10
82.52647935856646
 20
281.0777285890699
 30
0.0
  0
ENDBLK
  5
56EE
330
56EC
100
AcDbEntity
  8
0
100
AcDbBlockEnd
  0
BLOCK
  5
56F9
330
56F8
100
AcDbEntity
  8
0
100
AcDbBlockBegin
  2
*D33
 70
     1
 10
0.0
 20
0.0
 30
0.0
  3
*D33
  1
*D35
  0
LINE
  5
56FB
330
56F8
100
AcDbEntity
  8
寸法
  6
Continuous
 62
     0
370
    -2
100
AcDbLine
 10
115.1935433875918
 20
326.04005183593
 30
0.0
 11
115.1935433875918
 21
262.1267427827099
 31
0.0
  0
LINE
  5
56FC
330
56F8
100
AcDbEntity
  8
寸法
  6
Continuous
 62
     0
370
    -2
100
AcDbLine
 10
234.1687403875918
 20
292.9484688359301
 30
0.0
 11
234.1687403875918
 21
262.1267427827099
 31
0.0
  0
LINE
  5
56FD
330
56F8
100
AcDbEntity
  8
寸法
  6
Continuous
 62
     0
370
    -2
100
AcDbLine
 10
116.6935433875918
 20
262.1267427827099
 30
0.0
 11
232.6687403875918
 21
262.1267427827099
 31
0.0
  0
INSERT
  5
56FE
330
56F8
100
AcDbEntity
  8
寸法
 62
     0
370
    -2
100
AcDbBlockReference
  2
_DOT
 10
115.1935433875918
 20
262.1267427827099
 30
0.0
 41
1.5
 42
1.5
 43
1.5
 50
180.0
  0
INSERT
  5
56FF
330
56F8
100
AcDbEntity
  8
寸法
 62
     0
370
    -2
100
AcDbBlockReference
  2
_DOT
 10
234.1687403875918
 20
262.1267427827099
 30
0.0
 41
1.5
 42
1.5
 43
1.5
  0
MTEXT
  5
5700
330
56F8
100
AcDbEntity
  8
寸法
  6
Continuous
 62
     0
100
AcDbMText
 10
174.6811418875918
 20
266.6267427827099
 30
0.0
 40
5.0
 41
0.0
 46
0.0
 71
     5
 72
     1
  1
\A1;119
  7
ＭＳ ゴシック
 73
     1
 44
1.0
  0
POINT
  5
5701
330
56F8
100
AcDbEntity
  8
Defpoints
 62
     0
100
AcDbPoint
 10
115.1935433875918
 20
331.04005183593
 30
0.0
  0
POINT
  5
5702
330
56F8
100
AcDbEntity
  8
Defpoints
 62
     0
100
AcDbPoint
 10
234.1687403875918
 20
297.9484688359301
 30
0.0
  0
POINT
  5
5703
330
56F8
100
AcDbEntity
  8
Defpoints
 62
     0
100
AcDbPoint
 10
234.1687403875918
 20
262.1267427827099
 30
0.0
  0
ENDBLK
  5
56FA
330
56F8
100
AcDbEntity
  8
0
100
AcDbBlockEnd
  0
BLOCK
  5
5705
330
5704
100
AcDbEntity
  8
0
100
AcDbBlockBegin
  2
*D34
 70
     1
 10
0.0
 20
0.0
 30
0.0
  3
*D34
  1
*D36
  0
LINE
  5
5707
330
5704
100
AcDbEntity
  8
寸法
 62
     0
370
    -2
100
AcDbLine
 10
427.8721245115549
 20
172.3452081951892
 30
0.0
 11
427.8721245115549
 21
144.5573006134969
 31
0.0
  0
LINE
  5
5708
330
5704
100
AcDbEntity
  8
寸法
 62
     0
370
    -2
100
AcDbLine
 10
389.8721245115548
 20
172.3452081951892
 30
0.0
 11
389.8721245115548
 21
144.5573006134969
 31
0.0
  0
LINE
  5
5709
330
5704
100
AcDbEntity
  8
寸法
 62
     0
370
    -2
100
AcDbLine
 10
389.8721245115548
 20
144.5573006134969
 30
0.0
 11
376.2146245115548
 21
144.5573006134969
 31
0.0
  0
LINE
  5
570A
330
5704
100
AcDbEntity
  8
寸法
 62
     0
370
    -2
100
AcDbLine
 10
426.3721245115549
 20
144.5573006134969
 30
0.0
 11
391.3721245115548
 21
144.5573006134969
 31
0.0
  0
INSERT
  5
570B
330
5704
100
AcDbEntity
  8
寸法
 62
     0
370
    -2
100
AcDbBlockReference
  2
_DOT
 10
427.8721245115549
 20
144.5573006134969
 30
0.0
 41
1.5
 42
1.5
 43
1.5
  0
INSERT
  5
570C
330
5704
100
AcDbEntity
  8
寸法
 62
     0
370
    -2
100
AcDbBlockReference
  2
_DOT
 10
389.8721245115548
 20
144.5573006134969
 30
0.0
 41
1.5
 42
1.5
 43
1.5
 50
180.0
  0
POINT
  5
570D
330
5704
100
AcDbEntity
  8
Defpoints
 62
     0
100
AcDbPoint
 10
427.8721245115549
 20
177.3452081951892
 30
0.0
  0
POINT
  5
570E
330
5704
100
AcDbEntity
  8
Defpoints
 62
     0
100
AcDbPoint
 10
389.8721245115548
 20
177.3452081951892
 30
0.0
  0
POINT
  5
570F
330
5704
100
AcDbEntity
  8
Defpoints
 62
     0
100
AcDbPoint
 10
389.8721245115548
 20
144.5573006134969
 30
0.0
  0
ENDBLK
  5
5706
330
5704
100
AcDbEntity
  8
0
100
AcDbBlockEnd
  0
BLOCK
  5
5711
330
5710
100
AcDbEntity
  8
0
100
AcDbBlockBegin
  2
*D35
 70
     1
 10
0.0
 20
0.0
 30
0.0
  3
*D35
  1
*D37
  0
LINE
  5
5713
330
5710
100
AcDbEntity
  8
寸法
 62
     0
370
    -2
100
AcDbLine
 10
389.8721245115548
 20
191.0157099566222
 30
0.0
 11
389.8721245115548
 21
213.8023335341041
 31
0.0
  0
LINE
  5
5714
330
5710
100
AcDbEntity
  8
寸法
 62
     0
370
    -2
100
AcDbLine
 10
408.8721245115548
 20
205.1912224768318
 30
0.0
 11
408.8721245115548
 21
213.8023335341041
 31
0.0
  0
LINE
  5
5715
330
5710
100
AcDbEntity
  8
寸法
 62
     0
370
    -2
100
AcDbLine
 10
391.3721245115548
 20
213.8023335341041
 30
0.0
 11
407.3721245115548
 21
213.8023335341041
 31
0.0
  0
INSERT
  5
5716
330
5710
100
AcDbEntity
  8
寸法
 62
     0
370
    -2
100
AcDbBlockReference
  2
_DOT
 10
389.8721245115548
 20
213.8023335341041
 30
0.0
 41
1.5
 42
1.5
 43
1.5
 50
180.0
  0
INSERT
  5
5717
330
5710
100
AcDbEntity
  8
寸法
 62
     0
370
    -2
100
AcDbBlockReference
  2
_DOT
 10
408.8721245115548
 20
213.8023335341041
 30
0.0
 41
1.5
 42
1.5
 43
1.5
  0
MTEXT
  5
5718
330
5710
100
AcDbEntity
  8
寸法
  6
Continuous
 62
     0
100
AcDbMText
 10
399.3721245115548
 20
218.3023335341041
 30
0.0
 40
5.0
 41
0.0
 46
0.0
 71
     5
 72
     1
  1
\A1;19
  7
ＭＳ ゴシック
 73
     1
 44
1.0
  0
POINT
  5
5719
330
5710
100
AcDbEntity
  8
Defpoints
 62
     0
100
AcDbPoint
 10
389.8721245115548
 20
186.0157099566222
 30
0.0
  0
POINT
  5
571A
330
5710
100
AcDbEntity
  8
Defpoints
 62
     0
100
AcDbPoint
 10
408.8721245115548
 20
200.1912224768318
 30
0.0
  0
POINT
  5
571B
330
5710
100
AcDbEntity
  8
Defpoints
 62
     0
100
AcDbPoint
 10
408.8721245115548
 20
213.8023335341041
 30
0.0
  0
ENDBLK
  5
5712
330
5710
100
AcDbEntity
  8
0
100
AcDbBlockEnd
  0
BLOCK
  5
571D
330
571C
100
AcDbEntity
  8
0
100
AcDbBlockBegin
  2
*D36
 70
     1
 10
0.0
 20
0.0
 30
0.0
  3
*D36
  1
*D38
  0
LINE
  5
571F
330
571C
100
AcDbEntity
  8
寸法
 62
     0
370
    -2
100
AcDbLine
 10
408.8721245115548
 20
205.1912224768318
 30
0.0
 11
408.8721245115548
 21
213.8023335341041
 31
0.0
  0
LINE
  5
5720
330
571C
100
AcDbEntity
  8
寸法
 62
     0
370
    -2
100
AcDbLine
 10
427.8721245115549
 20
191.0157099566222
 30
0.0
 11
427.8721245115549
 21
213.8023335341041
 31
0.0
  0
LINE
  5
5721
330
571C
100
AcDbEntity
  8
寸法
 62
     0
370
    -2
100
AcDbLine
 10
410.3721245115548
 20
213.8023335341041
 30
0.0
 11
426.3721245115549
 21
213.8023335341041
 31
0.0
  0
INSERT
  5
5722
330
571C
100
AcDbEntity
  8
寸法
 62
     0
370
    -2
100
AcDbBlockReference
  2
_DOT
 10
408.8721245115548
 20
213.8023335341041
 30
0.0
 41
1.5
 42
1.5
 43
1.5
 50
180.0
  0
INSERT
  5
5723
330
571C
100
AcDbEntity
  8
寸法
 62
     0
370
    -2
100
AcDbBlockReference
  2
_DOT
 10
427.8721245115549
 20
213.8023335341041
 30
0.0
 41
1.5
 42
1.5
 43
1.5
  0
MTEXT
  5
5724
330
571C
100
AcDbEntity
  8
寸法
  6
Continuous
 62
     0
100
AcDbMText
 10
418.3721245115548
 20
218.3023335341041
 30
0.0
 40
5.0
 41
0.0
 46
0.0
 71
     5
 72
     1
  1
\A1;19
  7
ＭＳ ゴシック
 73
     1
 44
1.0
  0
POINT
  5
5725
330
571C
100
AcDbEntity
  8
Defpoints
 62
     0
100
AcDbPoint
 10
408.8721245115548
 20
200.1912224768318
 30
0.0
  0
POINT
  5
5726
330
571C
100
AcDbEntity
  8
Defpoints
 62
     0
100
AcDbPoint
 10
427.8721245115549
 20
186.0157099566222
 30
0.0
  0
POINT
  5
5727
330
571C
100
AcDbEntity
  8
Defpoints
 62
     0
100
AcDbPoint
 10
427.8721245115549
 20
213.8023335341041
 30
0.0
  0
ENDBLK
  5
571E
330
571C
100
AcDbEntity
  8
0
100
AcDbBlockEnd
  0
BLOCK
  5
5729
330
5728
100
AcDbEntity
  8
0
100
AcDbBlockBegin
  2
*D37
 70
     1
 10
0.0
 20
0.0
 30
0.0
  3
*D37
  1
*D39
  0
LINE
  5
572B
330
5728
100
AcDbEntity
  8
寸法
 62
     0
370
    -2
100
AcDbLine
 10
108.1825120145531
 20
356.4345575436565
 30
0.0
 11
108.1825120145531
 21
365.9906564456901
 31
0.0
  0
LINE
  5
572C
330
5728
100
AcDbEntity
  8
寸法
 62
     0
370
    -2
100
AcDbLine
 10
146.1825120145531
 20
356.4345575436565
 30
0.0
 11
146.1825120145531
 21
365.9906564456901
 31
0.0
  0
LINE
  5
572D
330
5728
100
AcDbEntity
  8
寸法
 62
     0
370
    -2
100
AcDbLine
 10
109.6825120145531
 20
365.9906564456901
 30
0.0
 11
144.6825120145531
 21
365.9906564456901
 31
0.0
  0
INSERT
  5
572E
330
5728
100
AcDbEntity
  8
寸法
 62
     0
370
    -2
100
AcDbBlockReference
  2
_DOT
 10
108.1825120145531
 20
365.9906564456901
 30
0.0
 41
1.5
 42
1.5
 43
1.5
 50
180.0
  0
INSERT
  5
572F
330
5728
100
AcDbEntity
  8
寸法
 62
     0
370
    -2
100
AcDbBlockReference
  2
_DOT
 10
146.1825120145531
 20
365.9906564456901
 30
0.0
 41
1.5
 42
1.5
 43
1.5
  0
MTEXT
  5
5730
330
5728
100
AcDbEntity
  8
寸法
  6
Continuous
 62
     0
100
AcDbMText
 10
127.1825120145531
 20
370.4906564456901
 30
0.0
 40
5.0
 41
0.0
 46
0.0
 71
     5
 72
     1
  1
\A1;38
  7
ＭＳ ゴシック
 73
     1
 44
1.0
  0
POINT
  5
5731
330
5728
100
AcDbEntity
  8
Defpoints
 62
     0
100
AcDbPoint
 10
108.1825120145531
 20
351.4345575436565
 30
0.0
  0
POINT
  5
5732
330
5728
100
AcDbEntity
  8
Defpoints
 62
     0
100
AcDbPoint
 10
146.1825120145531
 20
351.4345575436565
 30
0.0
  0
POINT
  5
5733
330
5728
100
AcDbEntity
  8
Defpoints
 62
     0
100
AcDbPoint
 10
146.1825120145531
 20
365.9906564456901
 30
0.0
  0
ENDBLK
  5
572A
330
5728
100
AcDbEntity
  8
0
100
AcDbBlockEnd
  0
BLOCK
  5
574C
330
574B
100
AcDbEntity
  8
0
100
AcDbBlockBegin
  2
*D38
 70
     1
 10
0.0
 20
0.0
 30
0.0
  3
*D38
  1
*D38
  0
LINE
  5
574E
330
574B
100
AcDbEntity
  8
CutoutUnderlay
  6
Continuous
 62
     0
370
    -2
100
AcDbLine
 10
372.0506765076041
 20
692.3535561504085
 30
0.0
 11
338.4652148472486
 21
692.3535561504085
 31
0.0
  0
LINE
  5
574F
330
574B
100
AcDbEntity
  8
CutoutUnderlay
  6
Continuous
 62
     0
370
    -2
100
AcDbLine
 10
372.0506765076041
 20
637.5535561504083
 30
0.0
 11
338.4652148472486
 21
637.5535561504083
 31
0.0
  0
LINE
  5
5750
330
574B
100
AcDbEntity
  8
CutoutUnderlay
  6
Continuous
 62
     0
370
    -2
100
AcDbLine
 10
338.4652148472486
 20
690.8535561504085
 30
0.0
 11
338.4652148472486
 21
639.0535561504083
 31
0.0
  0
INSERT
  5
5751
330
574B
100
AcDbEntity
  8
CutoutUnderlay
 62
     0
370
    -2
100
AcDbBlockReference
  2
_DOT
 10
338.4652148472486
 20
692.3535561504085
 30
0.0
 41
1.5
 42
1.5
 43
1.5
 50
90.0
  0
INSERT
  5
5752
330
574B
100
AcDbEntity
  8
CutoutUnderlay
 62
     0
370
    -2
100
AcDbBlockReference
  2
_DOT
 10
338.4652148472486
 20
637.5535561504083
 30
0.0
 41
1.5
 42
1.5
 43
1.5
 50
270.0
  0
MTEXT
  5
5753
330
574B
100
AcDbEntity
  8
CutoutUnderlay
  6
Continuous
 62
     0
100
AcDbMText
 10
333.5602148472486
 20
664.9535561504084
 30
0.0
 40
5.0
 41
0.0
 46
0.0
 71
     5
 72
     1
  1
\A1;φ55
  7
ＭＳ ゴシック
 11
0.0
 21
1.0
 31
0.0
 73
     1
 44
1.0
  0
POINT
  5
5754
330
574B
100
AcDbEntity
  8
Defpoints
 62
     0
100
AcDbPoint
 10
377.0506765076041
 20
692.3535561504085
 30
0.0
  0
POINT
  5
5755
330
574B
100
AcDbEntity
  8
Defpoints
 62
     0
100
AcDbPoint
 10
377.0506765076041
 20
637.5535561504083
 30
0.0
  0
POINT
  5
5756
330
574B
100
AcDbEntity
  8
Defpoints
 62
     0
100
AcDbPoint
 10
338.4652148472486
 20
637.5535561504083
 30
0.0
  0
ENDBLK
  5
574D
330
574B
100
AcDbEntity
  8
0
100
AcDbBlockEnd
  0
BLOCK
  5
587F
330
587E
100
AcDbEntity
  8
0
100
AcDbBlockBegin
  2
*D39
 70
     1
 10
0.0
 20
0.0
 30
0.0
  3
*D39
  1
*D40
  0
LINE
  5
5880
330
587E
100
AcDbEntity
  8
寸法
  6
Continuous
 62
     0
370
    -2
100
AcDbLine
 10
0.375
 20
9.573144235081088
 30
0.0
 11
0.375
 21
0.375
 31
0.0
  0
LINE
  5
5881
330
587E
100
AcDbEntity
  8
寸法
  6
Continuous
 62
     0
370
    -2
100
AcDbLine
 10
8.074570739085033
 20
24.7782398278371
 30
0.0
 11
8.074570739085033
 21
0.375
 31
0.0
  0
LINE
  5
5882
330
587E
100
AcDbEntity
  8
寸法
  6
Continuous
 62
     0
370
    -2
100
AcDbLine
 10
8.074570739085033
 20
0.375
 30
0.0
 11
18.17765809326037
 21
0.375
 31
0.0
  0
LINE
  5
5883
330
587E
100
AcDbEntity
  8
寸法
  6
Continuous
 62
     0
370
    -2
100
AcDbLine
 10
1.875
 20
0.375
 30
0.0
 11
6.574570739085033
 21
0.375
 31
0.0
  0
INSERT
  5
5884
330
587E
100
AcDbEntity
  8
寸法
 62
     0
370
    -2
100
AcDbBlockReference
  2
_DOT
 10
0.375
 20
0.375
 30
0.0
 41
1.5
 42
1.5
 43
1.5
 50
180.0
  0
INSERT
  5
5885
330
587E
100
AcDbEntity
  8
寸法
 62
     0
370
    -2
100
AcDbBlockReference
  2
_DOT
 10
8.074570739085033
 20
0.375
 30
0.0
 41
1.5
 42
1.5
 43
1.5
  0
MTEXT
  5
5886
330
587E
100
AcDbEntity
  8
寸法
  6
Continuous
 62
     0
100
AcDbMText
 10
14.85765809326037
 20
4.875
 30
0.0
 40
5.0
 41
0.0
 46
0.0
 71
     5
 72
     1
  1
\A1;8
  7
ＭＳ ゴシック
 73
     1
 44
1.0
  0
POINT
  5
5887
330
587E
100
AcDbEntity
  8
Defpoints
 62
     0
100
AcDbPoint
 10
0.375
 20
14.57314423508109
 30
0.0
  0
POINT
  5
5888
330
587E
100
AcDbEntity
  8
Defpoints
 62
     0
100
AcDbPoint
 10
8.074570739085033
 20
29.7782398278371
 30
0.0
  0
POINT
  5
5889
330
587E
100
AcDbEntity
  8
Defpoints
 62
     0
100
AcDbPoint
 10
8.074570739085033
 20
0.375
 30
0.0
  0
ENDBLK
  5
588A
330
587E
100
AcDbEntity
  8
0
100
AcDbBlockEnd
  0
BLOCK
  5
5890
330
588F
100
AcDbEntity
  8
0
100
AcDbBlockBegin
  2
*D40
 70
     1
 10
0.0
 20
0.0
 30
0.0
  3
*D40
  1
*D41
  0
LINE
  5
5892
330
588F
100
AcDbEntity
  8
寸法
  6
Continuous
 62
     0
370
    -2
100
AcDbLine
 10
127.1816507401138
 20
148.4628469200377
 30
0.0
 11
127.1816507401138
 21
139.2647026849566
 31
0.0
  0
LINE
  5
5893
330
588F
100
AcDbEntity
  8
寸法
  6
Continuous
 62
     0
370
    -2
100
AcDbLine
 10
134.8812214791988
 20
163.6679425127937
 30
0.0
 11
134.8812214791988
 21
139.2647026849566
 31
0.0
  0
LINE
  5
5894
330
588F
100
AcDbEntity
  8
寸法
  6
Continuous
 62
     0
370
    -2
100
AcDbLine
 10
134.8812214791988
 20
139.2647026849566
 30
0.0
 11
144.9843088333741
 21
139.2647026849566
 31
0.0
  0
LINE
  5
5895
330
588F
100
AcDbEntity
  8
寸法
  6
Continuous
 62
     0
370
    -2
100
AcDbLine
 10
128.6816507401138
 20
139.2647026849566
 30
0.0
 11
133.3812214791988
 21
139.2647026849566
 31
0.0
  0
INSERT
  5
5896
330
588F
100
AcDbEntity
  8
寸法
 62
     0
370
    -2
100
AcDbBlockReference
  2
_DOT
 10
127.1816507401138
 20
139.2647026849566
 30
0.0
 41
1.5
 42
1.5
 43
1.5
 50
180.0
  0
INSERT
  5
5897
330
588F
100
AcDbEntity
  8
寸法
 62
     0
370
    -2
100
AcDbBlockReference
  2
_DOT
 10
134.8812214791988
 20
139.2647026849566
 30
0.0
 41
1.5
 42
1.5
 43
1.5
  0
MTEXT
  5
5898
330
588F
100
AcDbEntity
  8
寸法
  6
Continuous
 62
     0
100
AcDbMText
 10
141.6643088333742
 20
143.7647026849566
 30
0.0
 40
5.0
 41
0.0
 46
0.0
 71
     5
 72
     1
  1
\A1;8
  7
ＭＳ ゴシック
 73
     1
 44
1.0
  0
POINT
  5
5899
330
588F
100
AcDbEntity
  8
Defpoints
 62
     0
100
AcDbPoint
 10
127.1816507401138
 20
153.4628469200377
 30
0.0
  0
POINT
  5
589A
330
588F
100
AcDbEntity
  8
Defpoints
 62
     0
100
AcDbPoint
 10
134.8812214791988
 20
168.6679425127937
 30
0.0
  0
POINT
  5
589B
330
588F
100
AcDbEntity
  8
Defpoints
 62
     0
100
AcDbPoint
 10
134.8812214791988
 20
139.2647026849566
 30
0.0
  0
ENDBLK
  5
5891
330
588F
100
AcDbEntity
  8
0
100
AcDbBlockEnd
  0
BLOCK
  5
5932
330
5931
100
AcDbEntity
  8
0
100
AcDbBlockBegin
  2
*D41
 70
     1
 10
0.0
 20
0.0
 30
0.0
  3
*D41
  1
*D42
  0
LINE
  5
5933
330
5931
100
AcDbEntity
  8
寸法
  6
Continuous
 62
     0
370
    -2
100
AcDbLine
 10
12.67192425945136
 20
214.4558524656296
 30
0.0
 11
12.67192425945136
 21
221.1724008234254
 31
0.0
  0
LINE
  5
5934
330
5931
100
AcDbEntity
  8
寸法
  6
Continuous
 62
     0
370
    -2
100
AcDbLine
 10
21.17192425945136
 20
214.4558524656296
 30
0.0
 11
21.17192425945136
 21
221.1724008234254
 31
0.0
  0
LINE
  5
5935
330
5931
100
AcDbEntity
  8
寸法
  6
Continuous
 62
     0
370
    -2
100
AcDbLine
 10
14.17192425945136
 20
221.1724008234254
 30
0.0
 11
19.67192425945136
 21
221.1724008234254
 31
0.0
  0
INSERT
  5
5936
330
5931
100
AcDbEntity
  8
寸法
 62
     0
370
    -2
100
AcDbBlockReference
  2
_DOT
 10
12.67192425945136
 20
221.1724008234254
 30
0.0
 41
1.5
 42
1.5
 43
1.5
 50
180.0
  0
INSERT
  5
5937
330
5931
100
AcDbEntity
  8
寸法
 62
     0
370
    -2
100
AcDbBlockReference
  2
_DOT
 10
21.17192425945136
 20
221.1724008234254
 30
0.0
 41
1.5
 42
1.5
 43
1.5
  0
MTEXT
  5
5938
330
5931
100
AcDbEntity
  8
寸法
  6
Continuous
 62
     0
100
AcDbMText
 10
16.92192425945136
 20
225.6724008234254
 30
0.0
 40
5.0
 41
0.0
 46
0.0
 71
     5
 72
     1
  1
\A1;8.5
  7
ＭＳ ゴシック
 73
     1
 44
1.0
  0
POINT
  5
5939
330
5931
100
AcDbEntity
  8
Defpoints
 62
     0
100
AcDbPoint
 10
12.67192425945136
 20
209.4558524656296
 30
0.0
  0
POINT
  5
593A
330
5931
100
AcDbEntity
  8
Defpoints
 62
     0
100
AcDbPoint
 10
21.17192425945136
 20
209.4558524656296
 30
0.0
  0
POINT
  5
593B
330
5931
100
AcDbEntity
  8
Defpoints
 62
     0
100
AcDbPoint
 10
21.17192425945136
 20
221.1724008234254
 30
0.0
  0
ENDBLK
  5
593C
330
5931
100
AcDbEntity
  8
0
100
AcDbBlockEnd
  0
BLOCK
  5
5944
330
5943
100
AcDbEntity
  8
0
100
AcDbBlockBegin
  2
*D42
 70
     1
 10
0.0
 20
0.0
 30
0.0
  3
*D42
  1
*D43
  0
LINE
  5
5945
330
5943
100
AcDbEntity
  8
寸法
  6
Continuous
 62
     0
370
    -2
100
AcDbLine
 10
62.46043540515663
 20
197.1207521227724
 30
0.0
 11
77.8834322030564
 21
197.1207521227724
 31
0.0
  0
LINE
  5
5946
330
5943
100
AcDbEntity
  8
寸法
  6
Continuous
 62
     0
370
    -2
100
AcDbLine
 10
68.2153519287707
 20
191.1207521227724
 30
0.0
 11
77.8834322030564
 21
191.1207521227724
 31
0.0
  0
LINE
  5
5947
330
5943
100
AcDbEntity
  8
寸法
  6
Continuous
 62
     0
370
    -2
100
AcDbLine
 10
77.8834322030564
 20
195.6207521227724
 30
0.0
 11
77.8834322030564
 21
192.6207521227724
 31
0.0
  0
INSERT
  5
5948
330
5943
100
AcDbEntity
  8
寸法
 62
     0
370
    -2
100
AcDbBlockReference
  2
_DOT
 10
77.8834322030564
 20
197.1207521227724
 30
0.0
 41
1.5
 42
1.5
 43
1.5
 50
90.0
  0
INSERT
  5
5949
330
5943
100
AcDbEntity
  8
寸法
 62
     0
370
    -2
100
AcDbBlockReference
  2
_DOT
 10
77.8834322030564
 20
191.1207521227724
 30
0.0
 41
1.5
 42
1.5
 43
1.5
 50
270.0
  0
MTEXT
  5
594A
330
5943
100
AcDbEntity
  8
寸法
  6
Continuous
 62
     0
100
AcDbMText
 10
73.3834322030564
 20
194.1207521227724
 30
0.0
 40
5.0
 41
0.0
 46
0.0
 71
     5
 72
     1
  1
\A1;6
  7
ＭＳ ゴシック
 11
0.0
 21
1.0
 31
0.0
 73
     1
 44
1.0
  0
POINT
  5
594B
330
5943
100
AcDbEntity
  8
Defpoints
 62
     0
100
AcDbPoint
 10
57.46043540515663
 20
197.1207521227724
 30
0.0
  0
POINT
  5
594C
330
5943
100
AcDbEntity
  8
Defpoints
 62
     0
100
AcDbPoint
 10
63.2153519287707
 20
191.1207521227724
 30
0.0
  0
POINT
  5
594D
330
5943
100
AcDbEntity
  8
Defpoints
 62
     0
100
AcDbPoint
 10
77.8834322030564
 20
191.1207521227724
 30
0.0
  0
ENDBLK
  5
594E
330
5943
100
AcDbEntity
  8
0
100
AcDbBlockEnd
  0
BLOCK
  5
596F
330
596E
100
AcDbEntity
  8
0
100
AcDbBlockBegin
  2
*D43
 70
     1
 10
0.0
 20
0.0
 30
0.0
  3
*D43
  1
*D44
  0
LINE
  5
5971
330
596E
100
AcDbEntity
  8
寸法
  6
Continuous
 62
     0
370
    -2
100
AcDbLine
 10
103.9325120145531
 20
372.0686993856673
 30
0.0
 11
103.9325120145531
 21
378.7852477434631
 31
0.0
  0
LINE
  5
5972
330
596E
100
AcDbEntity
  8
寸法
  6
Continuous
 62
     0
370
    -2
100
AcDbLine
 10
112.4325120145531
 20
372.0686993856673
 30
0.0
 11
112.4325120145531
 21
378.7852477434631
 31
0.0
  0
LINE
  5
5973
330
596E
100
AcDbEntity
  8
寸法
  6
Continuous
 62
     0
370
    -2
100
AcDbLine
 10
105.4325120145531
 20
378.7852477434631
 30
0.0
 11
110.9325120145531
 21
378.7852477434631
 31
0.0
  0
INSERT
  5
5974
330
596E
100
AcDbEntity
  8
寸法
 62
     0
370
    -2
100
AcDbBlockReference
  2
_DOT
 10
103.9325120145531
 20
378.7852477434631
 30
0.0
 41
1.5
 42
1.5
 43
1.5
 50
180.0
  0
INSERT
  5
5975
330
596E
100
AcDbEntity
  8
寸法
 62
     0
370
    -2
100
AcDbBlockReference
  2
_DOT
 10
112.4325120145531
 20
378.7852477434631
 30
0.0
 41
1.5
 42
1.5
 43
1.5
  0
MTEXT
  5
5976
330
596E
100
AcDbEntity
  8
寸法
  6
Continuous
 62
     0
100
AcDbMText
 10
108.1825120145531
 20
383.2852477434631
 30
0.0
 40
5.0
 41
0.0
 46
0.0
 71
     5
 72
     1
  1
\A1;8.5
  7
ＭＳ ゴシック
 73
     1
 44
1.0
  0
POINT
  5
5977
330
596E
100
AcDbEntity
  8
Defpoints
 62
     0
100
AcDbPoint
 10
103.9325120145531
 20
367.0686993856673
 30
0.0
  0
POINT
  5
5978
330
596E
100
AcDbEntity
  8
Defpoints
 62
     0
100
AcDbPoint
 10
112.4325120145531
 20
367.0686993856673
 30
0.0
  0
POINT
  5
5979
330
596E
100
AcDbEntity
  8
Defpoints
 62
     0
100
AcDbPoint
 10
112.4325120145531
 20
378.7852477434631
 30
0.0
  0
ENDBLK
  5
5970
330
596E
100
AcDbEntity
  8
0
100
AcDbBlockEnd
  0
BLOCK
  5
597B
330
597A
100
AcDbEntity
  8
0
100
AcDbBlockBegin
  2
*D44
 70
     1
 10
0.0
 20
0.0
 30
0.0
  3
*D44
  1
*D45
  0
LINE
  5
597D
330
597A
100
AcDbEntity
  8
寸法
  6
Continuous
 62
     0
370
    -2
100
AcDbLine
 10
153.7210231602584
 20
354.7335990428101
 30
0.0
 11
169.1440199581582
 21
354.7335990428101
 31
0.0
  0
LINE
  5
597E
330
597A
100
AcDbEntity
  8
寸法
  6
Continuous
 62
     0
370
    -2
100
AcDbLine
 10
159.4759396838725
 20
348.7335990428101
 30
0.0
 11
169.1440199581582
 21
348.7335990428101
 31
0.0
  0
LINE
  5
597F
330
597A
100
AcDbEntity
  8
寸法
  6
Continuous
 62
     0
370
    -2
100
AcDbLine
 10
169.1440199581582
 20
353.2335990428101
 30
0.0
 11
169.1440199581582
 21
350.2335990428101
 31
0.0
  0
INSERT
  5
5980
330
597A
100
AcDbEntity
  8
寸法
 62
     0
370
    -2
100
AcDbBlockReference
  2
_DOT
 10
169.1440199581582
 20
354.7335990428101
 30
0.0
 41
1.5
 42
1.5
 43
1.5
 50
90.0
  0
INSERT
  5
5981
330
597A
100
AcDbEntity
  8
寸法
 62
     0
370
    -2
100
AcDbBlockReference
  2
_DOT
 10
169.1440199581582
 20
348.7335990428101
 30
0.0
 41
1.5
 42
1.5
 43
1.5
 50
270.0
  0
MTEXT
  5
5982
330
597A
100
AcDbEntity
  8
寸法
  6
Continuous
 62
     0
100
AcDbMText
 10
164.6440199581582
 20
351.7335990428101
 30
0.0
 40
5.0
 41
0.0
 46
0.0
 71
     5
 72
     1
  1
\A1;6
  7
ＭＳ ゴシック
 11
0.0
 21
1.0
 31
0.0
 73
     1
 44
1.0
  0
POINT
  5
5983
330
597A
100
AcDbEntity
  8
Defpoints
 62
     0
100
AcDbPoint
 10
148.7210231602584
 20
354.7335990428101
 30
0.0
  0
POINT
  5
5984
330
597A
100
AcDbEntity
  8
Defpoints
 62
     0
100
AcDbPoint
 10
154.4759396838725
 20
348.7335990428101
 30
0.0
  0
POINT
  5
5985
330
597A
100
AcDbEntity
  8
Defpoints
 62
     0
100
AcDbPoint
 10
169.1440199581582
 20
348.7335990428101
 30
0.0
  0
ENDBLK
  5
597C
330
597A
100
AcDbEntity
  8
0
100
AcDbBlockEnd
  0
ENDSEC
  0
SECTION
  2
ENTITIES
  0
POINT
  5
1301
330
A
100
AcDbEntity
  8
MODEL
100
AcDbPoint
 10
963.7243970754489
 20
138.0847547131194
 30
0.0
  0
POINT
  5
1306
330
A
100
AcDbEntity
  8
MODEL
100
AcDbPoint
 10
847.7244070754489
 20
138.0847547131194
 30
0.0
  0
POINT
  5
1307
330
A
100
AcDbEntity
  8
MODEL
100
AcDbPoint
 10
973.7862873746794
 20
166.0075841667841
 30
0.0
  0
POINT
  5
1308
330
A
100
AcDbEntity
  8
MODEL
100
AcDbPoint
 10
973.7862873746794
 20
184.0075841667841
 30
0.0
  0
POINT
  5
1312
330
A
100
AcDbEntity
  8
MODEL
100
AcDbPoint
 10
810.9244070754489
 20
149.007583882008
 30
0.0
  0
POINT
  5
1313
330
A
100
AcDbEntity
  8
MODEL
100
AcDbPoint
 10
810.9244070754489
 20
201.007583882008
 30
0.0
  0
POINT
  5
131E
330
A
100
AcDbEntity
  8
MODEL
100
AcDbPoint
 10
1111.259263541787
 20
138.207583607055
 30
0.0
  0
POINT
  5
131F
330
A
100
AcDbEntity
  8
MODEL
100
AcDbPoint
 10
1104.759263541787
 20
138.207583607055
 30
0.0
  0
POINT
  5
1342
330
A
100
AcDbEntity
  8
MODEL
100
AcDbPoint
 10
973.354966229004
 20
368.3598201219507
 30
0.0
  0
POINT
  5
1343
330
A
100
AcDbEntity
  8
MODEL
100
AcDbPoint
 10
973.354966229004
 20
319.3598501219507
 30
0.0
  0
POINT
  5
1346
330
A
100
AcDbEntity
  8
MODEL
100
AcDbPoint
 10
983.2218070738209
 20
368.3598201219507
 30
0.0
  0
POINT
  5
1347
330
A
100
AcDbEntity
  8
MODEL
100
AcDbPoint
 10
983.2218070738209
 20
301.3598201219507
 30
0.0
  0
POINT
  5
1350
330
A
100
AcDbEntity
  8
MODEL
100
AcDbPoint
 10
963.7243970754489
 20
286.3598201219507
 30
0.0
  0
POINT
  5
1351
330
A
100
AcDbEntity
  8
MODEL
100
AcDbPoint
 10
838.7244070754489
 20
286.3598201219507
 30
0.0
  0
POINT
  5
1357
330
A
100
AcDbEntity
  8
MODEL
100
AcDbPoint
 10
810.9244070754489
 20
301.3598201219507
 30
0.0
  0
POINT
  5
1359
330
A
100
AcDbEntity
  8
MODEL
100
AcDbPoint
 10
810.9244070754489
 20
361.3598201219507
 30
0.0
  0
POINT
  5
135A
330
A
100
AcDbEntity
  8
MODEL
100
AcDbPoint
 10
810.9244070754489
 20
368.3598201219507
 30
0.0
  0
POINT
  5
135B
330
A
100
AcDbEntity
  8
MODEL
100
AcDbPoint
 10
810.9244070754489
 20
361.3598201219507
 30
0.0
  0
POINT
  5
1371
330
A
100
AcDbEntity
  8
MODEL
100
AcDbPoint
 10
1164.81489702863
 20
383.9337336502628
 30
0.0
  0
POINT
  5
1372
330
A
100
AcDbEntity
  8
MODEL
100
AcDbPoint
 10
1164.81489702863
 20
279.9338376502628
 30
0.0
  0
POINT
  5
1378
330
A
100
AcDbEntity
  8
MODEL
100
AcDbPoint
 10
1180.157201609016
 20
264.2731813749589
 30
0.0
  0
POINT
  5
1379
330
A
100
AcDbEntity
  8
MODEL
100
AcDbPoint
 10
1193.957187809016
 20
264.2731813749589
 30
0.0
  0
POINT
  5
1389
330
A
100
AcDbEntity
  8
MODEL
100
AcDbPoint
 10
1079.093440814797
 20
383.9337336502628
 30
0.0
  0
POINT
  5
138A
330
A
100
AcDbEntity
  8
MODEL
100
AcDbPoint
 10
1079.093440814797
 20
279.9337336502626
 30
0.0
  0
POINT
  5
138D
330
A
100
AcDbEntity
  8
MODEL
100
AcDbPoint
 10
1093.467555113589
 20
264.2731813749589
 30
0.0
  0
POINT
  5
138E
330
A
100
AcDbEntity
  8
MODEL
100
AcDbPoint
 10
1106.467555113589
 20
264.2731813749589
 30
0.0
  0
POINT
  5
1398
330
A
100
AcDbEntity
  8
MODEL
100
AcDbPoint
 10
1180.157201609016
 20
398.2298339817613
 30
0.0
  0
POINT
  5
1399
330
A
100
AcDbEntity
  8
MODEL
100
AcDbPoint
 10
1194.157187609016
 20
398.2298339817613
 30
0.0
  0
POINT
  5
139C
330
A
100
AcDbEntity
  8
MODEL
100
AcDbPoint
 10
1093.467555113589
 20
398.2298339817613
 30
0.0
  0
POINT
  5
139D
330
A
100
AcDbEntity
  8
MODEL
100
AcDbPoint
 10
1107.467555113589
 20
398.2298339817613
 30
0.0
  0
POINT
  5
4967
330
A
100
AcDbEntity
  8
MODEL
 62
     7
100
AcDbPoint
 10
159.6608149866037
 20
1112.943495860789
 30
0.0
  0
POINT
  5
4968
330
A
100
AcDbEntity
  8
MODEL
 62
     7
100
AcDbPoint
 10
159.6608149866037
 20
1058.143496245838
 30
0.0
  0
ARC
  5
4976
330
A
100
AcDbEntity
  8
MODEL
  6
STYLE_02
100
AcDbCircle
 10
408.2477951778305
 20
319.0906963606652
 30
0.0
 40
12.0
100
AcDbArc
 50
179.9992630000003
 51
180.4691690000001
  0
LINE
  5
4980
330
A
100
AcDbEntity
  8
MODEL
  6
STYLE_02
100
AcDbLine
 10
396.2482061778306
 20
318.9994893606651
 30
0.0
 11
396.2481971778305
 21
318.9924343606654
 31
0.0
  0
POINT
  5
499D
330
A
100
AcDbEntity
  8
MODEL
 62
     7
100
AcDbPoint
 10
471.5926809920595
 20
1039.574930990415
 30
0.0
  0
POINT
  5
499E
330
A
100
AcDbEntity
  8
MODEL
 62
     7
100
AcDbPoint
 10
478.7926809920594
 20
1039.574930990415
 30
0.0
  0
DIMENSION
  5
4A6C
330
A
100
AcDbEntity
  8
寸法
  6
Continuous
100
AcDbDimension
  2
*D4
 10
82.65107948014888
 20
340.834177143836
 30
0.0
 11
78.15107948014888
 21
344.683888093323
 31
0.0
 70
    32
 71
     5
 42
7.699421898974037
 73
     0
 74
     0
 75
     0
  3
tfrom線あり
100
AcDbAlignedDimension
 13
100.0040883255916
 23
348.5335990428101
 33
0.0
 14
114.5564572703265
 24
340.834177143836
 34
0.0
 50
90.0
100
AcDbRotatedDimension
1001
ACAD
1000
DSTYLE
1002
{
1070
   271
1070
     0
1002
}
  0
DIMENSION
  5
4A99
330
A
100
AcDbEntity
  8
寸法
  6
Continuous
100
AcDbDimension
  2
*D5
 10
359.1198310770533
 20
293.835024462444
 30
0.0
 11
354.2148310770533
 21
321.2350244624441
 31
0.0
 70
    32
 71
     5
 42
54.80000000000018
 73
     0
 74
     0
 75
     0
  3
tfrom線あり
100
AcDbAlignedDimension
 13
397.7052927374087
 23
348.6350244624442
 33
0.0
 14
397.7052927374087
 24
293.835024462444
 34
0.0
 50
90.0
100
AcDbRotatedDimension
1001
ACAD
1000
DSTYLE
1002
{
1070
     3
1000
φ<>
1002
}
  0
DIMENSION
  5
4AD2
330
A
100
AcDbEntity
  8
寸法
  6
Continuous
100
AcDbDimension
  2
*D6
 10
70.75582078314875
 20
283.004112342821
 30
0.0
 11
66.25582078314875
 21
315.7688556928155
 31
0.0
 70
    32
 71
     5
 42
65.52948669998909
 73
     0
 74
     0
 75
     0
  3
tfrom線あり
100
AcDbAlignedDimension
 13
99.13978072023728
 23
348.5335990428101
 33
0.0
 14
108.924517206292
 24
283.004112342821
 34
0.0
 50
90.0
100
AcDbRotatedDimension
1001
ACAD
1000
DSTYLE
1002
{
1070
   271
1070
     0
1002
}
  0
LINE
  5
4CC1
330
A
100
AcDbEntity
  8
寸法
  6
Continuous
100
AcDbLine
 10
82.65107948014888
 20
347.0335990428101
 30
0.0
 11
82.65107948014888
 21
342.334177143836
 31
0.0
  0
POINT
  5
4ECE
330
A
100
AcDbEntity
  8
MODEL
 62
     7
100
AcDbPoint
 10
130.0913409417582
 20
1181.156054141915
 30
0.0
  0
POINT
  5
4ECF
330
A
100
AcDbEntity
  8
MODEL
 62
     7
100
AcDbPoint
 10
260.0913409417582
 20
1181.156054141915
 30
0.0
  0
DIMENSION
  5
4EF1
330
A
100
AcDbEntity
  8
寸法
  6
Continuous
100
AcDbDimension
  2
*D8
 10
82.59920841473748
 20
283.004112342821
 30
0.0
 11
78.09920841473748
 21
311.9135330766845
 31
0.0
 70
    32
 71
     5
 42
57.818841467727
 73
     0
 74
     0
 75
     0
  3
tfrom線あり
100
AcDbAlignedDimension
 13
115.1453394275008
 23
340.822953810548
 33
0.0
 14
172.3405422502963
 24
283.004112342821
 34
0.0
 50
90.0
100
AcDbRotatedDimension
  0
ARC
  5
4FF4
330
A
100
AcDbEntity
  8
MODEL
  6
Continuous
100
AcDbCircle
 10
408.8721245115548
 20
321.3335990428101
 30
0.0
 40
12.0
100
AcDbArc
 50
69.0533100000001
 51
290.9466899999999
  0
LINE
  5
4FF5
330
A
100
AcDbEntity
  8
MODEL
  6
Continuous
 62
     7
100
AcDbLine
 10
127.1816507401138
 20
208.2628469200376
 30
0.0
 11
133.3816507401137
 21
208.2628469200376
 31
0.0
  0
LINE
  5
4FF6
330
A
100
AcDbEntity
  8
MODEL
  6
Continuous
 62
     7
100
AcDbLine
 10
133.3816507401137
 20
153.4628469200377
 30
0.0
 11
127.1816507401138
 21
153.4628469200377
 31
0.0
  0
LINE
  5
4FF7
330
A
100
AcDbEntity
  8
MODEL
  6
Continuous
100
AcDbLine
 10
153.5825120145532
 20
341.5335990428101
 30
0.0
 11
100.7825120145531
 21
341.5335990428101
 31
0.0
  0
ARC
  5
4FF8
330
A
100
AcDbEntity
  8
MODEL
  6
Continuous
100
AcDbCircle
 10
100.7825120145531
 20
342.5335990428101
 30
0.0
 40
1.0
100
AcDbArc
 50
180.0
 51
270.0
  0
ARC
  5
4FF9
330
A
100
AcDbEntity
  8
MODEL
  6
Continuous
100
AcDbCircle
 10
153.5825120145532
 20
342.5335990428101
 30
0.0
 40
1.0
100
AcDbArc
 50
270.0
 51
0.0
  0
LINE
  5
4FFA
330
A
100
AcDbEntity
  8
MODEL
  6
Continuous
100
AcDbLine
 10
99.78251201455308
 20
342.5335990428101
 30
0.0
 11
99.78251201455308
 21
348.7335990428101
 31
0.0
  0
LINE
  5
4FFB
330
A
100
AcDbEntity
  8
MODEL
  6
Continuous
100
AcDbLine
 10
154.5825120145532
 20
348.7335990428101
 30
0.0
 11
154.5825120145532
 21
342.5335990428101
 31
0.0
  0
LINE
  5
4FFC
330
A
100
AcDbEntity
  8
MODEL
  6
Continuous
100
AcDbLine
 10
139.4237631164623
 20
341.5335990428101
 30
0.0
 11
139.4237631164623
 21
341.246678442145
 31
0.0
  0
LINE
  5
4FFD
330
A
100
AcDbEntity
  8
MODEL
  6
Continuous
100
AcDbLine
 10
114.9237631164623
 20
341.5335990428101
 30
0.0
 11
114.9237631164623
 21
341.2260583756571
 31
0.0
  0
LINE
  5
4FFE
330
A
100
AcDbEntity
  8
MODEL
  6
Continuous
100
AcDbLine
 10
114.9237631164623
 20
341.5335990428101
 30
0.0
 11
114.9237631164623
 21
341.246678442145
 31
0.0
  0
ARC
  5
4FFF
330
A
100
AcDbEntity
  8
MODEL
  6
Continuous
100
AcDbCircle
 10
523.8721245115548
 20
321.3335990428101
 30
0.0
 40
8.0
100
AcDbArc
 50
271.657503999999
 51
88.34249600000103
  0
LINE
  5
5000
330
A
100
AcDbEntity
  8
MODEL
  6
Continuous
100
AcDbLine
 10
524.1035235115546
 20
313.3369460428102
 30
0.0
 11
413.1621145115548
 21
310.1266370428101
 31
0.0
  0
LINE
  5
5001
330
A
100
AcDbEntity
  8
MODEL
  6
Continuous
100
AcDbLine
 10
413.1621145115548
 20
332.5405610428101
 30
0.0
 11
524.1035235115546
 21
329.3302520428102
 31
0.0
  0
ARC
  5
5002
330
A
100
AcDbEntity
  8
MODEL
  6
DASHED1
100
AcDbCircle
 10
408.8721245115548
 20
321.3335990428101
 30
0.0
 40
12.0
100
AcDbArc
 50
290.9466899999999
 51
69.0533100000001
  0
CIRCLE
  5
5003
330
A
100
AcDbEntity
  8
MODEL
  6
DASHED1
100
AcDbCircle
 10
408.8721245115548
 20
321.3335990428101
 30
0.0
 40
8.925
  0
LINE
  5
5004
330
A
100
AcDbEntity
  8
MODEL
  6
Continuous
 62
     7
100
AcDbLine
 10
127.1816507401138
 20
208.2628469200376
 30
0.0
 11
127.1816507401138
 21
153.4628469200377
 31
0.0
  0
ARC
  5
5005
330
A
100
AcDbEntity
  8
MODEL
  6
DASHED1
100
AcDbCircle
 10
408.9068761902253
 20
321.3350244624439
 30
0.0
 40
27.5
100
AcDbArc
 50
337.3343331091832
 51
22.65915152931698
  0
ARC
  5
5006
330
A
100
AcDbEntity
  8
MODEL
  6
Continuous
100
AcDbCircle
 10
408.9068761902253
 20
321.3350244624439
 30
0.0
 40
27.5
100
AcDbArc
 50
22.65915152931698
 51
337.3343331091832
  0
POINT
  5
5007
330
A
100
AcDbEntity
  8
MODEL
 62
     7
100
AcDbPoint
 10
137.5905868519285
 20
1179.159430912719
 30
0.0
  0
POINT
  5
5008
330
A
100
AcDbEntity
  8
MODEL
 62
     7
100
AcDbPoint
 10
273.1672015268097
 20
1179.159430912719
 30
0.0
  0
LINE
  5
5009
330
A
100
AcDbEntity
  8
MODEL
  6
Continuous
 62
     7
100
AcDbLine
 10
134.3816507401137
 20
168.6128469200377
 30
0.0
 11
134.3816507401137
 21
154.4628469200377
 31
0.0
  0
LINE
  5
500A
330
A
100
AcDbEntity
  8
MODEL
  6
Continuous
 62
     7
100
AcDbLine
 10
134.3816507401137
 20
207.2628469200376
 30
0.0
 11
134.3816507401137
 21
193.1128469200377
 31
0.0
  0
ARC
  5
500B
330
A
100
AcDbEntity
  8
MODEL
  6
Continuous
 62
     7
100
AcDbCircle
 10
133.3816507401137
 20
154.4628469200377
 30
0.0
 40
1.0
100
AcDbArc
 50
270.0
 51
0.0
  0
ARC
  5
500C
330
A
100
AcDbEntity
  8
MODEL
  6
Continuous
 62
     7
100
AcDbCircle
 10
133.3816507401137
 20
207.2628469200376
 30
0.0
 40
1.0
100
AcDbArc
 50
0.0
 51
90.0
  0
LINE
  5
500D
330
A
100
AcDbEntity
  8
MODEL
  6
Continuous
 62
     7
100
AcDbLine
 10
134.3816507401137
 20
168.6128469200377
 30
0.0
 11
134.3816507401137
 21
193.1128469200377
 31
0.0
  0
LINE
  5
500E
330
A
100
AcDbEntity
  8
MODEL
  6
Continuous
 62
     7
100
AcDbLine
 10
134.3756763402889
 20
168.8410430786446
 30
0.0
 11
134.3756763402889
 21
192.8410430786446
 31
0.0
  0
LINE
  5
500F
330
A
100
AcDbEntity
  8
MODEL
  6
Continuous
 62
     7
100
AcDbLine
 10
134.8816507401137
 20
192.6868054765337
 30
0.0
 11
134.8816507401137
 21
193.1132827288387
 31
0.0
  0
ARC
  5
5010
330
A
100
AcDbEntity
  8
MODEL
  6
Continuous
 62
     7
100
AcDbCircle
 10
183.8756763402889
 20
178.3410430786446
 30
0.0
 40
7.5
100
AcDbArc
 50
272.9588710000001
 51
0.0
  0
ARC
  5
5011
330
A
100
AcDbEntity
  8
MODEL
  6
Continuous
 62
     7
100
AcDbCircle
 10
183.8756763402889
 20
183.3410430786446
 30
0.0
 40
7.5
100
AcDbArc
 50
0.0
 51
87.04112899999991
  0
LINE
  5
5012
330
A
100
AcDbEntity
  8
MODEL
  6
Continuous
 62
     7
100
AcDbLine
 10
134.8816507401137
 20
168.6511043765548
 30
0.0
 11
134.8816507401137
 21
192.6868054765337
 31
0.0
  0
LINE
  5
5013
330
A
100
AcDbEntity
  8
MODEL
  6
Continuous
 62
     7
100
AcDbLine
 10
134.8816507401139
 20
169.1128469200377
 30
0.0
 11
134.8816507401139
 21
192.6128469200377
 31
0.0
  0
LINE
  5
5014
330
A
100
AcDbEntity
  8
MODEL
  6
Continuous
 62
     7
100
AcDbLine
 10
134.8818376441981
 20
168.8641440028258
 30
0.0
 11
134.8818376441981
 21
192.8641440028258
 31
0.0
  0
LINE
  5
5015
330
A
100
AcDbEntity
  8
MODEL
  6
Continuous
 62
     7
100
AcDbLine
 10
134.902772654635
 20
168.8711198796595
 30
0.0
 11
134.902772654635
 21
192.8711198796595
 31
0.0
  0
LINE
  5
5016
330
A
100
AcDbEntity
  8
MODEL
  6
Continuous
 62
     7
100
AcDbLine
 10
134.8511761809597
 20
168.8592872546847
 30
0.0
 11
134.8511761809597
 21
192.8592872546847
 31
0.0
  0
LINE
  5
5017
330
A
100
AcDbEntity
  8
MODEL
  6
Continuous
 62
     7
100
AcDbLine
 10
134.8812214791986
 20
192.8583577032446
 30
0.0
 11
134.8812214791986
 21
168.8583577032446
 31
0.0
  0
LINE
  5
5018
330
A
100
AcDbEntity
  8
MODEL
  6
Continuous
 62
     7
100
AcDbLine
 10
191.3756763402889
 20
178.3410430786446
 30
0.0
 11
191.3756763402889
 21
183.3410430786446
 31
0.0
  0
ARC
  5
5019
330
A
100
AcDbEntity
  8
MODEL
  6
DASHED1
 62
     7
100
AcDbCircle
 10
183.8756763402889
 20
178.3410430786446
 30
0.0
 40
7.5
100
AcDbArc
 50
180.0
 51
272.9588710000001
  0
ARC
  5
501A
330
A
100
AcDbEntity
  8
MODEL
  6
DASHED1
 62
     7
100
AcDbCircle
 10
183.8756763402889
 20
183.3410430786446
 30
0.0
 40
7.5
100
AcDbArc
 50
87.04112899999991
 51
180.0
  0
LINE
  5
501B
330
A
100
AcDbEntity
  8
MODEL
  6
DASHED1
 62
     7
100
AcDbLine
 10
176.3756763402889
 20
178.3410430786446
 30
0.0
 11
176.3756763402889
 21
183.3410430786446
 31
0.0
  0
LINE
  5
501C
330
A
100
AcDbEntity
  8
MODEL
  6
Continuous
 62
     7
100
AcDbLine
 10
184.262819340289
 20
190.8310440786457
 30
0.0
 11
134.3816507401137
 21
192.8013079428427
 31
0.0
  0
LINE
  5
501D
330
A
100
AcDbEntity
  8
MODEL
  6
Continuous
 62
     7
100
AcDbLine
 10
134.3816507401137
 20
168.8807782144466
 30
0.0
 11
184.262819340289
 21
170.8510420786457
 31
0.0
  0
LINE
  5
501E
330
A
100
AcDbEntity
  8
MODEL
  6
Continuous
 62
     7
100
AcDbLine
 10
134.3816507401137
 20
193.1050322715918
 30
0.0
 11
134.902772654635
 21
193.1050322715918
 31
0.0
  0
LINE
  5
501F
330
A
100
AcDbEntity
  8
MODEL
  6
Continuous
 62
     7
100
AcDbLine
 10
134.3816507401137
 20
168.6679425127937
 30
0.0
 11
134.902772654635
 21
168.6679425127937
 31
0.0
  0
LINE
  5
5020
330
A
100
AcDbEntity
  8
MODEL
  6
Continuous
100
AcDbLine
 10
139.4325120145531
 20
341.022953810549
 30
0.0
 11
114.9237631164623
 21
341.022953810549
 31
0.0
  0
ARC
  5
5025
102
{ACAD_REACTORS
330
5039
102
}
330
A
100
AcDbEntity
  8
MODEL
  6
Continuous
100
AcDbCircle
 10
244.6720832502963
 20
310.504112342821
 30
0.0
 40
5.5
100
AcDbArc
 50
323.8600299999996
 51
138.7789840000007
  0
ARC
  5
5026
330
A
100
AcDbEntity
  8
MODEL
  6
Continuous
100
AcDbCircle
 10
148.1305552502963
 20
311.004112342821
 30
0.0
 40
10.0
100
AcDbArc
 50
178.0000000000003
 51
258.1173630000001
  0
ARC
  5
5027
330
A
100
AcDbEntity
  8
MODEL
  6
Continuous
100
AcDbCircle
 10
141.2000242502963
 20
312.004112342821
 30
0.0
 40
25.0
100
AcDbArc
 50
182.0
 51
253.3144099999998
  0
ARC
  5
5028
330
A
100
AcDbEntity
  8
MODEL
  6
Continuous
100
AcDbCircle
 10
176.2046972502962
 20
483.004112342821
 30
0.0
 40
200.0
100
AcDbArc
 50
270.0
 51
278.109614
  0
ARC
  5
5029
330
A
100
AcDbEntity
  8
MODEL
  6
Continuous
100
AcDbCircle
 10
168.4763872502963
 20
403.004112342821
 30
0.0
 40
120.0
100
AcDbArc
 50
253.31441
 51
270.0
  0
ARC
  5
502A
330
A
100
AcDbEntity
  8
MODEL
  6
Continuous
100
AcDbCircle
 10
190.3114332502963
 20
384.004112342821
 30
0.0
 40
100.0
100
AcDbArc
 50
278.109614
 51
294.103558
  0
ARC
  5
502B
330
A
100
AcDbEntity
  8
MODEL
  6
Continuous
100
AcDbCircle
 10
212.7727262502963
 20
333.7996273428211
 30
0.0
 40
45.0
100
AcDbArc
 50
294.103558
 51
323.86003
  0
ARC
  5
502C
330
A
100
AcDbEntity
  8
MODEL
  6
Continuous
100
AcDbCircle
 10
178.4791692502963
 20
597.9963953428216
 30
0.0
 40
300.0
100
AcDbArc
 50
269.4188030000001
 51
276.7793310000002
  0
ARC
  5
502D
330
A
100
AcDbEntity
  8
MODEL
  6
Continuous
100
AcDbCircle
 10
208.9333192502963
 20
341.8141973428212
 30
0.0
 40
42.01400462019
100
AcDbArc
 50
276.779331
 51
318.7789839999999
  0
LINE
  5
502E
102
{ACAD_REACTORS
330
5039
102
}
330
A
100
AcDbEntity
  8
MODEL
  6
Continuous
100
AcDbLine
 10
115.1720832502963
 20
341.004112342821
 30
0.0
 11
116.2152532502963
 21
311.1316253428211
 31
0.0
  0
LINE
  5
502F
330
A
100
AcDbEntity
  8
MODEL
  6
Continuous
100
AcDbLine
 10
138.1366472502963
 20
311.3531073428211
 30
0.0
 11
139.1720832502963
 21
341.004112342821
 31
0.0
  0
LINE
  5
5030
330
A
100
AcDbEntity
  8
MODEL
  6
Continuous
100
AcDbLine
 10
139.1720832502963
 20
341.004112342821
 30
0.0
 11
115.1720832502963
 21
341.004112342821
 31
0.0
  0
LINE
  5
5031
330
A
100
AcDbEntity
  8
MODEL
  6
Continuous
100
AcDbLine
 10
176.2046972502962
 20
283.004112342821
 30
0.0
 11
168.4763872502963
 21
283.004112342821
 31
0.0
  0
ARC
  5
5032
330
A
100
AcDbEntity
  8
MODEL
  6
Continuous
100
AcDbCircle
 10
176.9576262502963
 20
448.004112342821
 30
0.0
 40
150.0
100
AcDbArc
 50
258.117363
 51
269.4188030000001
  0
LINE
  5
5033
330
A
100
AcDbEntity
  8
MODEL
  6
Continuous
100
AcDbLine
 10
114.9237631164623
 20
341.2260583756571
 30
0.0
 11
114.9237631164623
 21
341.034177143836
 31
0.0
  0
LINE
  5
5034
330
A
100
AcDbEntity
  8
MODEL
  6
Continuous
100
AcDbLine
 10
139.4237631164623
 20
341.5335990428101
 30
0.0
 11
139.4237631164623
 21
341.034177143836
 31
0.0
  0
LINE
  5
5035
330
A
100
AcDbEntity
  8
MODEL
  6
Continuous
100
AcDbLine
 10
99.78251201455308
 20
348.7335990428101
 30
0.0
 11
154.5825120145532
 21
348.7335990428101
 31
0.0
  0
POINT
  5
5036
330
A
100
AcDbEntity
  8
MODEL
 62
     7
100
AcDbPoint
 10
194.7540044135167
 20
1200.241183042513
 30
0.0
  0
DIMENSION
  5
5037
102
{ACAD_REACTORS
330
5039
102
}
102
{ACAD_XDICTIONARY
360
5038
102
}
330
A
100
AcDbEntity
  8
寸法
  6
Continuous
100
AcDbDimension
  2
*D9
 10
250.1720832502963
 20
263.5264786702161
 30
0.0
 11
182.6720832502963
 21
268.0264786702161
 31
0.0
 70
    32
 71
     5
 42
135.0
 73
     0
 74
     0
 75
     0
  3
tfrom線あり
100
AcDbAlignedDimension
 13
115.1720832502963
 23
341.004112342821
 33
0.0
 14
250.1720832502963
 24
310.504112342821
 34
0.0
100
AcDbRotatedDimension
  0
TEXT
  5
5315
330
A
100
AcDbEntity
  8
_0-1_
 62
     1
100
AcDbText
 10
845.2809566235318
 20
126.4176635867213
 30
0.0
 40
4.0
  1
   
  7
ＭＳ ゴシック
100
AcDbText
  0
LINE
  5
5576
330
A
100
AcDbEntity
  8
PRINT BORDER
100
AcDbLine
 10
296.9999999999999
 20
0.0
 30
0.0
 11
296.9999999999999
 21
15.30952622855898
 31
0.0
  0
LINE
  5
5577
330
A
100
AcDbEntity
  8
テンプレート
100
AcDbLine
 10
437.9999999999999
 20
38.27810890422097
 30
0.0
 11
15.30952622855898
 21
38.27810890422097
 31
0.0
  0
LINE
  5
5578
330
A
100
AcDbEntity
  8
テンプレート
100
AcDbLine
 10
15.30952622855898
 20
26.22153683920783
 30
0.0
 11
578.6904737714407
 21
26.22153683920783
 31
0.0
  0
TEXT
  5
5579
330
A
100
AcDbEntity
  8
テンプレート
100
AcDbText
 10
18.06121699514119
 20
32.16825981613692
 30
0.0
 40
3.5
  1
材質
  7
ＭＳ ゴシック
100
AcDbText
  0
TEXT
  5
557A
330
A
100
AcDbEntity
  8
テンプレート
100
AcDbText
 10
18.06121699514119
 20
56.50959028673083
 30
0.0
 40
3.5
  1
品名
  7
ＭＳ ゴシック
100
AcDbText
  0
TEXT
  5
557B
330
A
100
AcDbEntity
  8
テンプレート
100
AcDbText
 10
18.06121699514119
 20
44.65099339080098
 30
0.0
 40
3.5
  1
仕上げ
  7
ＭＳ ゴシック
100
AcDbText
  0
TEXT
  5
557C
330
A
100
AcDbEntity
  8
テンプレート
100
AcDbText
 10
298.8233485179306
 20
56.58523052309897
 30
0.0
 40
3.5
  1
品番
  7
ＭＳ ゴシック
100
AcDbText
  0
TEXT
  5
557D
330
A
100
AcDbEntity
  8
テンプレート
100
AcDbText
 10
36.7528253083583
 20
53.09440584367189
 30
0.0
 40
5.5
  1
レバーハンドル - FSB -
  7
ＭＳ ゴシック
100
AcDbText
  0
TEXT
  5
557E
330
A
100
AcDbEntity
  8
テンプレート
100
AcDbText
 10
313.0171205424464
 20
52.977080524553
 30
0.0
 40
5.5
  1
FSB10-1023-C
  7
ＭＳ ゴシック
100
AcDbText
  0
LINE
  5
557F
330
A
100
AcDbEntity
  8
テンプレート
100
AcDbLine
 10
437.9999999999999
 20
50.16496477419605
 30
0.0
 11
15.30952622855898
 21
50.16496477419605
 31
0.0
  0
LINE
  5
5580
330
A
100
AcDbEntity
  8
テンプレート
100
AcDbLine
 10
578.6904737714411
 20
62.22153683920783
 30
0.0
 11
15.30952622855898
 21
62.22153683920783
 31
0.0
  0
LINE
  5
5581
330
A
100
AcDbEntity
  8
PRINT BORDER
100
AcDbLine
 10
593.9999999999999
 20
210.0
 30
0.0
 11
578.6904737714411
 21
210.0
 31
0.0
  0
LINE
  5
5582
330
A
100
AcDbEntity
  8
PRINT BORDER
100
AcDbLine
 10
0.0
 20
210.0
 30
0.0
 11
15.30952622855898
 21
210.0
 31
0.0
  0
LINE
  5
5583
330
A
100
AcDbEntity
  8
PRINT BORDER
100
AcDbLine
 10
296.9999999999999
 20
420.0
 30
0.0
 11
296.9999999999999
 21
404.690473771441
 31
0.0
  0
LINE
  5
5584
330
A
100
AcDbEntity
  8
テンプレート
100
AcDbLine
 10
578.6904737714411
 20
62.22153683920783
 30
0.0
 11
578.6904737714411
 21
26.22153683920783
 31
0.0
  0
LINE
  5
5585
330
A
100
AcDbEntity
  8
テンプレート
100
AcDbLine
 10
15.30952622855898
 20
62.22153683920783
 30
0.0
 11
15.30952622855898
 21
26.22153683920783
 31
0.0
  0
TEXT
  5
5586
330
A
100
AcDbEntity
  8
テンプレート
100
AcDbText
 10
494.9733384955217
 20
16.51938390313694
 30
0.0
 40
5.5
  1
大洋金物株式会社  
  7
ＭＳ ゴシック
100
AcDbText
  0
LINE
  5
5587
330
A
100
AcDbEntity
  8
テンプレート
100
AcDbLine
 10
437.9999999999999
 20
62.22153683920783
 30
0.0
 11
437.9999999999999
 21
26.22153683920783
 31
0.0
  0
LINE
  5
5588
330
A
100
AcDbEntity
  8
テンプレート
100
AcDbLine
 10
296.9999999999999
 20
62.22153683920783
 30
0.0
 11
296.9999999999999
 21
26.22153683920783
 31
0.0
  0
INSERT
  5
5589
330
A
100
AcDbEntity
  8
テンプレート
100
AcDbBlockReference
  2
名称未設定-1
 10
548.3945198859805
 20
-7.642344203993161
 30
0.0
 41
0.180975
 42
0.180975
 43
0.180975
  0
TEXT
  5
558A
330
A
100
AcDbEntity
  8
テンプレート
100
AcDbText
 10
18.42255191974346
 20
18.90483678917599
 30
0.0
 40
4.0
  1
20151207N
  7
ＭＳ ゴシック
100
AcDbText
  0
LINE
  5
558B
330
A
100
AcDbEntity
  8
テンプレート
100
AcDbLine
 10
15.30952622855898
 20
210.0
 30
0.0
 11
15.30952622855898
 21
26.22153683920783
 31
0.0
  0
LINE
  5
558C
330
A
100
AcDbEntity
  8
テンプレート
100
AcDbLine
 10
15.30952622855898
 20
210.0
 30
0.0
 11
15.30952622855898
 21
404.690473771441
 31
0.0
  0
LINE
  5
558D
330
A
100
AcDbEntity
  8
テンプレート
100
AcDbLine
 10
296.9999999999999
 20
404.690473771441
 30
0.0
 11
15.30952622855887
 21
404.690473771441
 31
0.0
  0
LINE
  5
558E
330
A
100
AcDbEntity
  8
テンプレート
100
AcDbLine
 10
296.9999999999999
 20
404.690473771441
 30
0.0
 11
578.6904737714411
 21
404.690473771441
 31
0.0
  0
LINE
  5
558F
330
A
100
AcDbEntity
  8
テンプレート
100
AcDbLine
 10
578.6904737714411
 20
210.0
 30
0.0
 11
578.6904737714411
 21
404.690473771441
 31
0.0
  0
LINE
  5
5590
330
A
100
AcDbEntity
  8
テンプレート
100
AcDbLine
 10
578.6904737714411
 20
210.0
 30
0.0
 11
578.6904737714411
 21
26.22153683920783
 31
0.0
  0
LWPOLYLINE
  5
5591
330
A
100
AcDbEntity
  8
PRINT BORDER
  6
HIDDEN
 48
3.0
100
AcDbPolyline
 90
        4
 70
     1
 43
0.0
 10
0.0
 20
0.0
 10
0.0
 20
420.0
 10
593.9999999999999
 20
420.0
 10
593.9999999999999
 20
0.0
  0
TEXT
  5
5592
330
A
100
AcDbEntity
  8
テンプレート
100
AcDbText
 10
298.7989156222221
 20
32.62405342819488
 30
0.0
 40
3.5
  1
縮尺
  7
ＭＳ ゴシック
100
AcDbText
  0
TEXT
  5
5593
330
A
100
AcDbEntity
  8
テンプレート
100
AcDbText
 10
313.0171205424464
 20
28.29362070227194
 30
0.0
 40
5.5
  1
1/2
  7
ＭＳ ゴシック
100
AcDbText
  0
TEXT
  5
5594
330
A
100
AcDbEntity
  8
テンプレート
100
AcDbText
 10
298.8233485179306
 20
44.52865845808583
 30
0.0
 40
3.5
  1
扉厚
  7
ＭＳ ゴシック
100
AcDbText
  0
TEXT
  5
5595
330
A
100
AcDbEntity
  8
テンプレート
100
AcDbText
 10
440.0887524673468
 20
56.58523052309897
 30
0.0
 40
3.5
  1
備考
  7
ＭＳ ゴシック
100
AcDbText
  0
TEXT
  5
5596
330
A
100
AcDbEntity
  8
テンプレート
100
AcDbText
 10
449.0017237694899
 20
47.28154793898159
 30
0.0
 40
5.5
  1
取付方＝呼込み(ビス付)
  7
ＭＳ ゴシック
100
AcDbText
  0
TEXT
  5
5597
330
A
100
AcDbEntity
  8
_0-1_
 62
     1
100
AcDbText
 10
177.7468866874332
 20
79.37939740351129
 30
0.0
 40
4.0
  1
   
  7
ＭＳ ゴシック
100
AcDbText
  0
LINE
  5
5598
330
A
100
AcDbEntity
  8
SPACER
  6
CENTER
 48
3.0
100
AcDbLine
 10
127.1816507401138
 20
224.6771809568476
 30
0.0
 11
127.1816507401138
 21
137.0485128832279
 31
0.0
  0
LINE
  5
5599
330
A
100
AcDbEntity
  8
SPACER
  6
CENTER
 48
3.0
100
AcDbLine
 10
83.36731670330403
 20
180.8628469200378
 30
0.0
 11
170.9959847769237
 21
180.8628469200378
 31
0.0
  0
LINE
  5
559A
330
A
100
AcDbEntity
  8
SPACER
  6
CENTER
 48
3.0
100
AcDbLine
 10
83.36817797774336
 20
348.7335990428101
 30
0.0
 11
170.9968460513629
 21
348.7335990428101
 31
0.0
  0
LINE
  5
559B
330
A
100
AcDbEntity
  8
SPACER
  6
CENTER
 48
3.0
100
AcDbLine
 10
408.8721245115548
 20
365.1479330796199
 30
0.0
 11
408.8721245115548
 21
277.5192650060002
 31
0.0
  0
LINE
  5
559C
330
A
100
AcDbEntity
  8
SPACER
  6
CENTER
 48
3.0
100
AcDbLine
 10
365.0577904747449
 20
321.33359904281
 30
0.0
 11
452.6864585483646
 21
321.33359904281
 31
0.0
  0
LWPOLYLINE
  5
55FE
330
A
100
AcDbEntity
  8
SPACER
100
AcDbPolyline
 90
        4
 70
     1
 43
0.0
 10
161.5928474918056
 20
97.1045060433407
 10
161.5928474918056
 20
69.6571102646527
 10
432.4071525081941
 20
69.6571102646527
 10
432.4071525081941
 20
97.1045060433407
  0
LINE
  5
55FF
330
A
100
AcDbEntity
  8
SPACER
  6
CENTER
 48
3.0
100
AcDbLine
 10
296.9999999999999
 20
404.690473771441
 30
0.0
 11
297.0
 21
106.25363796957
 31
0.0
  0
LINE
  5
5600
330
A
100
AcDbEntity
  8
SPACER
  6
CENTER
 48
3.0
100
AcDbLine
 10
15.30952622855898
 20
255.4720558705055
 30
0.0
 11
578.690473771441
 21
255.4720558705055
 31
0.0
  0
LINE
  5
5601
330
A
100
AcDbEntity
  8
SPACER
  6
CENTER
 48
3.0
100
AcDbLine
 10
15.30952622855898
 20
106.25363796957
 30
0.0
 11
578.690473771441
 21
106.25363796957
 31
0.0
  0
LINE
  5
5602
330
A
100
AcDbEntity
  8
SPACER
  6
CENTER
 48
3.0
100
AcDbLine
 10
408.8721245115548
 20
224.6771809568476
 30
0.0
 11
408.8721245115548
 21
137.0485128832279
 31
0.0
  0
LINE
  5
5603
330
A
100
AcDbEntity
  8
SPACER
  6
CENTER
 48
3.0
100
AcDbLine
 10
365.057790474745
 20
180.8628469200378
 30
0.0
 11
452.6864585483647
 21
180.8628469200378
 31
0.0
  0
CIRCLE
  5
5618
102
{ACAD_REACTORS
330
56A7
102
}
330
A
100
AcDbEntity
  8
CutoutOverlay
100
AcDbCircle
 10
427.8721245115549
 20
180.8628469200378
 30
0.0
 40
5.0
  0
CIRCLE
  5
5619
102
{ACAD_REACTORS
330
56A7
102
}
330
A
100
AcDbEntity
  8
CutoutOverlay
100
AcDbCircle
 10
389.8721245115548
 20
180.8628469200378
 30
0.0
 40
5.0
  0
CIRCLE
  5
561A
102
{ACAD_REACTORS
330
56A3
330
56A6
330
56A7
102
}
330
A
100
AcDbEntity
  8
CutoutOverlay
100
AcDbCircle
 10
408.8721245115548
 20
180.8628469200378
 30
0.0
 40
14.0
  0
DIMENSION
  5
561B
330
A
100
AcDbEntity
  8
寸法
100
AcDbDimension
  2
*D34
 10
389.8721245115548
 20
144.5573006134969
 30
0.0
 11
376.2146245115548
 21
144.5573006134969
 31
0.0
 70
   160
  1
 
 71
     5
 42
38.00000000000011
 73
     0
 74
     1
 75
     1
  3
tfrom線あり
100
AcDbAlignedDimension
 13
427.8721245115549
 23
177.3452081951892
 33
0.0
 14
389.8721245115548
 24
177.3452081951892
 34
0.0
100
AcDbRotatedDimension
1001
ACAD
1000
DSTYLE
1002
{
1070
   172
1070
     1
1002
}
  0
DIMENSION
  5
561C
330
A
100
AcDbEntity
  8
寸法
100
AcDbDimension
  2
*D35
 10
408.8721245115548
 20
213.8023335341041
 30
0.0
 11
399.3721245115548
 21
218.3023335341041
 31
0.0
 70
    32
 71
     5
 42
19.0
 73
     0
 74
     0
 75
     0
  3
tfrom線あり
100
AcDbAlignedDimension
 13
389.8721245115548
 23
186.0157099566222
 33
0.0
 14
408.8721245115548
 24
200.1912224768318
 34
0.0
100
AcDbRotatedDimension
  0
DIMENSION
  5
561D
330
A
100
AcDbEntity
  8
寸法
100
AcDbDimension
  2
*D36
 10
427.8721245115549
 20
213.8023335341041
 30
0.0
 11
418.3721245115548
 21
218.3023335341041
 31
0.0
 70
    32
 71
     5
 42
19.00000000000011
 73
     0
 74
     0
 75
     0
  3
tfrom線あり
100
AcDbAlignedDimension
 13
408.8721245115548
 23
200.1912224768318
 33
0.0
 14
427.8721245115549
 24
186.0157099566222
 34
0.0
100
AcDbRotatedDimension
  0
DIMENSION
  5
569C
330
A
100
AcDbEntity
  8
寸法
100
AcDbDimension
  2
*D37
 10
146.1825120145531
 20
365.9906564456901
 30
0.0
 11
127.1825120145531
 21
370.4906564456901
 31
0.0
 70
    32
 71
     5
 42
38.00000000000001
 73
     0
 74
     0
 75
     0
  3
tfrom線あり
100
AcDbAlignedDimension
 13
108.1825120145531
 23
351.4345575436565
 33
0.0
 14
146.1825120145531
 24
351.4345575436565
 34
0.0
100
AcDbRotatedDimension
  0
LINE
  5
569D
330
A
100
AcDbEntity
  8
寸法
  6
CENTER
 48
0.5
100
AcDbLine
 10
108.1825120145531
 20
351.4345575436565
 30
0.0
 11
108.1825120145531
 21
345.8123890105664
 31
0.0
  0
LINE
  5
569E
330
A
100
AcDbEntity
  8
寸法
  6
CENTER
 48
0.5
100
AcDbLine
 10
146.1825120145531
 20
351.4345575436565
 30
0.0
 11
146.1825120145531
 21
345.8123890105664
 31
0.0
  0
TEXT
  5
56A0
330
A
100
AcDbEntity
  8
寸法
100
AcDbText
 10
348.1659509202454
 20
231.4229447852761
 30
0.0
 40
5.0
  1
<切欠図>
  7
ＭＳ ゴシック
100
AcDbText
  0
LEADER
  5
56A1
102
{ACAD_REACTORS
330
56A3
102
}
102
{ACAD_XDICTIONARY
360
56A2
102
}
330
A
100
AcDbEntity
  8
寸法
100
AcDbLeader
  3
tfrom線あり
 76
     3
 10
408.8721245115548
 20
194.8628469200378
 30
0.0
 10
408.8721245115548
 20
200.7337752882268
 30
0.0
 10
447.9531070495427
 20
200.7337752882268
 30
0.0
  0
LEADER
  5
56A4
102
{ACAD_REACTORS
330
56A6
102
}
102
{ACAD_XDICTIONARY
360
56A5
102
}
330
A
100
AcDbEntity
  8
寸法
100
AcDbLeader
  3
tfrom線あり
 76
     3
 10
408.8721245115548
 20
180.8628469200378
 30
0.0
 10
442.1530114131083
 20
156.5669494488204
 30
0.0
 10
510.1082899407156
 20
156.5669494488204
 30
0.0
  0
HATCH
  5
56A7
330
A
100
AcDbEntity
  8
CutoutOverlay
100
AcDbHatch
 10
0.0
 20
0.0
 30
0.0
210
0.0
220
0.0
230
1.0
  2
ANSI31
 70
     0
 71
     1
 91
        3
 92
        1
 93
        1
 72
     2
 10
389.8721245115548
 20
180.8628469200378
 40
5.0
 50
0.0
 51
360.0
 73
     1
 97
        1
330
5619
 92
        1
 93
        1
 72
     2
 10
408.8721245115548
 20
180.8628469200378
 40
14.0
 50
0.0
 51
360.0
 73
     1
 97
        1
330
561A
 92
        1
 93
        1
 72
     2
 10
427.8721245115549
 20
180.8628469200378
 40
5.0
 50
0.0
 51
360.0
 73
     1
 97
        1
330
5618
 75
     0
 76
     1
 52
0.0
 41
1.0
 77
     0
 78
     1
 53
45.0
 43
0.0
 44
0.0
 45
-2.245064030267288
 46
2.245064030267288
 79
     0
 98
        1
 10
0.0
 20
0.0
1001
ACAD
1010
0.0
1020
0.0
1030
0.0
  0
TEXT
  5
56A8
330
A
100
AcDbEntity
  8
寸法
100
AcDbText
 10
443.7339484827306
 20
159.2024023985158
 30
0.0
 40
5.0
  1
レバー角芯 センター
  7
ＭＳ ゴシック
100
AcDbText
  0
TEXT
  5
56A9
330
A
100
AcDbEntity
  8
寸法
100
AcDbText
 10
438.0695551162909
 20
203.042649715703
 30
0.0
 40
5.0
  1
ø28
  7
ＭＳ ゴシック
100
AcDbText
  0
TEXT
  5
56AA
330
A
100
AcDbEntity
  8
寸法
100
AcDbText
 10
375.8306164726592
 20
147.0523164739852
 30
0.0
 40
5.0
  1
ø10
  7
ＭＳ ゴシック
100
AcDbText
  0
LINE
  5
56AD
330
A
100
AcDbEntity
  8
SPACER
  6
CENTER
 48
3.0
100
AcDbLine
 10
127.1825120145532
 20
392.54793307962
 30
0.0
 11
127.1825120145532
 21
304.9192650060003
 31
0.0
  0
ARC
  5
5740
330
A
100
AcDbEntity
  8
CutoutUnderlay
  6
STYLE_02
100
AcDbCircle
 10
408.2477951778307
 20
178.6199442378929
 30
0.0
 40
12.0
100
AcDbArc
 50
179.9992630000003
 51
180.4691690000001
  0
LINE
  5
5741
330
A
100
AcDbEntity
  8
CutoutUnderlay
  6
STYLE_02
100
AcDbLine
 10
396.2482061778306
 20
178.5287372378928
 30
0.0
 11
396.2481971778307
 21
178.5216822378931
 31
0.0
  0
ARC
  5
5743
330
A
100
AcDbEntity
  8
CutoutUnderlay
  6
Continuous
100
AcDbCircle
 10
408.8721245115548
 20
180.8628469200378
 30
0.0
 40
12.0
100
AcDbArc
 50
69.05330999999987
 51
290.9466900000002
  0
ARC
  5
5744
330
A
100
AcDbEntity
  8
CutoutUnderlay
  6
Continuous
100
AcDbCircle
 10
523.8721245115548
 20
180.8628469200378
 30
0.0
 40
8.0
100
AcDbArc
 50
271.6575039999998
 51
88.34249600000022
  0
LINE
  5
5745
330
A
100
AcDbEntity
  8
CutoutUnderlay
  6
Continuous
100
AcDbLine
 10
524.1035235115547
 20
172.8661939200379
 30
0.0
 11
413.1621145115548
 21
169.6558849200378
 31
0.0
  0
LINE
  5
5746
330
A
100
AcDbEntity
  8
CutoutUnderlay
  6
Continuous
100
AcDbLine
 10
413.1621145115548
 20
192.0698089200378
 30
0.0
 11
524.1035235115547
 21
188.8594999200379
 31
0.0
  0
ARC
  5
5747
330
A
100
AcDbEntity
  8
CutoutUnderlay
  6
DASHED1
100
AcDbCircle
 10
408.8721245115548
 20
180.8628469200378
 30
0.0
 40
12.0
100
AcDbArc
 50
290.9466900000002
 51
69.05330999999987
  0
CIRCLE
  5
5748
330
A
100
AcDbEntity
  8
CutoutUnderlay
  6
DASHED1
100
AcDbCircle
 10
408.8721245115548
 20
180.8628469200378
 30
0.0
 40
8.925
  0
ARC
  5
5749
330
A
100
AcDbEntity
  8
CutoutUnderlay
  6
DASHED1
100
AcDbCircle
 10
408.9068761902254
 20
180.8642723396716
 30
0.0
 40
27.5
100
AcDbArc
 50
337.3343331091832
 51
22.65915152931702
  0
ARC
  5
574A
330
A
100
AcDbEntity
  8
CutoutUnderlay
  6
Continuous
100
AcDbCircle
 10
408.9068761902254
 20
180.8642723396716
 30
0.0
 40
27.5
100
AcDbArc
 50
22.65915152931702
 51
337.3343331091832
  0
MTEXT
  5
5763
330
A
100
AcDbEntity
  8
MODEL
390
1D
100
AcDbMText
 10
38.03405527742478
 20
47.05019516162861
 30
0.0
 40
4.5
 41
0.0
 46
5.0
 71
     1
 72
     1
  1
{シャンパンシルバー}
  7
ＭＳ ゴシック
 73
     1
 44
0.7828267384257843
1001
ACAD
1000
ACAD_MTEXT_DEFINED_HEIGHT_BEGIN
1070
    46
1040
5.0
1000
ACAD_MTEXT_DEFINED_HEIGHT_END
  0
MTEXT
  5
5764
330
A
100
AcDbEntity
  8
MODEL
390
1D
100
AcDbMText
 10
38.29463285381777
 20
34.53595548721796
 30
0.0
 40
5.0
 41
0.0
 46
5.0
 71
     1
 72
     1
  1
{アルミ}
  7
ＭＳ ゴシック
 73
     1
 44
0.7828267384257843
1001
ACAD
1000
ACAD_MTEXT_DEFINED_HEIGHT_BEGIN
1070
    46
1040
5.0
1000
ACAD_MTEXT_DEFINED_HEIGHT_END
  0
LINE
  5
5765
330
A
100
AcDbEntity
  8
MODEL
  6
Continuous
100
AcDbLine
 10
156.1410039482255
 20
50.22153683920783
 30
0.0
 11
156.1410039482255
 21
26.22153683920783
 31
0.0
  0
MTEXT
  5
5766
330
A
100
AcDbEntity
  8
MODEL
390
1D
100
AcDbMText
 10
96.57840830751599
 20
34.53595548721796
 30
0.0
 40
5.0
 41
0.0
 46
5.0
 71
     1
 72
     1
  1
{ステンレス}
  7
ＭＳ ゴシック
 73
     1
 44
0.7828267384257843
1001
ACAD
1000
ACAD_MTEXT_DEFINED_HEIGHT_BEGIN
1070
    46
1040
5.0
1000
ACAD_MTEXT_DEFINED_HEIGHT_END
  0
MTEXT
  5
5767
330
A
100
AcDbEntity
  8
MODEL
390
1D
100
AcDbMText
 10
158.4175222983466
 20
34.53595548721796
 30
0.0
 40
5.0
 41
0.0
 46
5.0
 71
     1
 72
     1
  1
{真鍮}
  7
ＭＳ ゴシック
 73
     1
 44
0.7828267384257843
1001
ACAD
1000
ACAD_MTEXT_DEFINED_HEIGHT_BEGIN
1070
    46
1040
5.0
1000
ACAD_MTEXT_DEFINED_HEIGHT_END
  0
MTEXT
  5
5768
330
A
100
AcDbEntity
  8
MODEL
390
1D
100
AcDbMText
 10
158.3157341825681
 20
46.89424965475848
 30
0.0
 40
5.0
 41
0.0
 46
4.0
 71
     1
 72
     1
  1
{ブラスポリッシュ}
  7
ＭＳ ゴシック
 73
     1
 44
0.7828267384257843
1001
ACAD
1000
ACAD_MTEXT_DEFINED_HEIGHT_BEGIN
1070
    46
1040
4.0
1000
ACAD_MTEXT_DEFINED_HEIGHT_END
  0
LINE
  5
5769
330
A
100
AcDbEntity
  8
MODEL
  6
Continuous
100
AcDbLine
 10
214.0697651739962
 20
50.22153683920783
 30
0.0
 11
214.0697651739962
 21
26.22153683920783
 31
0.0
  0
MTEXT
  5
576A
330
A
100
AcDbEntity
  8
MODEL
390
1D
100
AcDbMText
 10
218.3839549469457
 20
34.53595548721796
 30
0.0
 40
5.0
 41
0.0
 46
5.0
 71
     1
 72
     1
  1
{銅}
  7
ＭＳ ゴシック
 73
     1
 44
0.7828267384257843
1001
ACAD
1000
ACAD_MTEXT_DEFINED_HEIGHT_BEGIN
1070
    46
1040
5.0
1000
ACAD_MTEXT_DEFINED_HEIGHT_END
  0
MTEXT
  5
576B
330
A
100
AcDbEntity
  8
MODEL
390
1D
100
AcDbMText
 10
218.0541614518232
 20
46.89424965475848
 30
0.0
 40
5.0
 41
0.0
 46
5.0
 71
     1
 72
     1
  1
{ブロンズワックス}
  7
ＭＳ ゴシック
 73
     1
 44
0.7828267384257843
1001
ACAD
1000
ACAD_MTEXT_DEFINED_HEIGHT_BEGIN
1070
    46
1040
5.0
1000
ACAD_MTEXT_DEFINED_HEIGHT_END
  0
LINE
  5
576C
330
A
100
AcDbEntity
  8
MODEL
  6
Continuous
100
AcDbLine
 10
93.21719333840568
 20
50.22153683920783
 30
0.0
 11
93.21719333840568
 21
26.22153683920783
 31
0.0
  0
LINE
  5
576D
330
A
100
AcDbEntity
  8
MODEL
  6
Continuous
100
AcDbLine
 10
34.42847634208678
 20
50.22153683920783
 30
0.0
 11
34.42847634208678
 21
26.22153683920783
 31
0.0
  0
MTEXT
  5
576E
330
A
100
AcDbEntity
  8
MODEL
390
1D
100
AcDbMText
 10
95.9681105498035
 20
44.09019396888129
 30
0.0
 40
4.5
 41
0.0
 46
5.0
 71
     1
 72
     1
  1
{ステンレスポリッシュ}
  7
ＭＳ ゴシック
 73
     1
 44
0.7828267384257843
1001
ACAD
1000
ACAD_MTEXT_DEFINED_HEIGHT_BEGIN
1070
    46
1040
5.0
1000
ACAD_MTEXT_DEFINED_HEIGHT_END
  0
MTEXT
  5
576F
330
A
100
AcDbEntity
  8
MODEL
390
1D
100
AcDbMText
 10
96.09839933799998
 20
49.71866961897024
 30
0.0
 40
4.5
 41
0.0
 46
4.5
 71
     1
 72
     1
  1
{ステンレスマット}
  7
ＭＳ ゴシック
 73
     1
 44
0.7828267384257843
1001
ACAD
1000
ACAD_MTEXT_DEFINED_HEIGHT_BEGIN
1070
    46
1040
4.5
1000
ACAD_MTEXT_DEFINED_HEIGHT_END
  0
TEXT
  5
5846
330
A
100
AcDbEntity
  8
テンプレート
100
AcDbText
 10
192.6640855805966
 20
77.17630111113851
 30
0.0
 40
5.0
  1
　 加工は現物合わせの上行って下さい。
  7
ＭＳ ゴシック
100
AcDbText
  0
TEXT
  5
5847
330
A
100
AcDbEntity
  8
テンプレート
100
AcDbText
 10
192.8363286628053
 20
85.28008520727872
 30
0.0
 40
5.0
  1
※ 輸入製品の為、国内製品と比べ製品寸法の個体差に幅が有ります。
  7
ＭＳ ゴシック
100
AcDbText
  0
TEXT
  5
5848
330
A
100
AcDbEntity
  8
テンプレート
100
AcDbText
 10
192.6640855805966
 20
67.80466980665801
 30
0.0
 40
5.0
  1
※ ご注文の際は正確な扉厚の指示をしてください。
  7
ＭＳ ゴシック
100
AcDbText
  0
DIMENSION
  5
588E
330
A
100
AcDbEntity
  8
寸法
  6
Continuous
100
AcDbDimension
  2
*D40
 10
134.8812214791988
 20
139.2647026849566
 30
0.0
 11
141.6643088333742
 21
139.2647026849566
 31
0.0
 70
   160
 71
     5
 42
7.699570739085019
 73
     0
 74
     1
 75
     1
  3
tfrom線あり
100
AcDbAlignedDimension
 13
127.1816507401138
 23
153.4628469200377
 33
0.0
 14
134.8812214791988
 24
168.6679425127937
 34
0.0
100
AcDbRotatedDimension
1001
ACAD
1000
DSTYLE
1002
{
1070
   172
1070
     1
1070
   175
1070
     1
1070
   174
1070
     1
1070
     3
1000
<>
1070
   271
1070
     0
1002
}
  0
TEXT
  5
58F5
330
A
100
AcDbEntity
  8
テンプレート
100
AcDbText
 10
313.0505831322697
 20
44.82304125840494
 30
0.0
 40
4.0
  1
MIWAケース：37～45
  7
ＭＳ ゴシック
100
AcDbText
  0
TEXT
  5
58F6
330
A
100
AcDbEntity
  8
テンプレート
100
AcDbText
 10
313.0505831322697
 20
39.8279918743558
 30
0.0
 40
4.0
  1
ユーロケース(DIN規格)：36～45
  7
ＭＳ ゴシック
100
AcDbText
  0
DIMENSION
  5
595C
330
A
100
AcDbEntity
  8
寸法
  6
Continuous
100
AcDbDimension
  2
*D43
 10
112.4325120145531
 20
378.7852477434631
 30
0.0
 11
108.1825120145531
 21
378.7852477434631
 31
0.0
 70
   160
 71
     5
 42
8.5
 73
     0
 74
     0
 75
     0
  3
tfrom線あり
100
AcDbAlignedDimension
 13
103.9325120145531
 23
367.0686993856673
 33
0.0
 14
112.4325120145531
 24
367.0686993856673
 34
0.0
100
AcDbRotatedDimension
1001
ACAD
1000
DSTYLE
1002
{
1070
   271
1070
     1
1002
}
  0
LINE
  5
595F
330
A
100
AcDbEntity
  8
MODEL
  6
Continuous
100
AcDbLine
 10
110.6317432308796
 20
354.7335990428101
 30
0.0
 11
105.7332807982266
 21
354.7335990428101
 31
0.0
  0
LINE
  5
5960
330
A
100
AcDbEntity
  8
MODEL
  6
Continuous
100
AcDbLine
 10
112.4325120145531
 20
348.7335990428101
 30
0.0
 11
110.6317432308797
 21
354.7335990428101
 31
0.0
  0
LINE
  5
5961
330
A
100
AcDbEntity
  8
MODEL
  6
Continuous
100
AcDbLine
 10
103.9325120145531
 20
348.7335990428101
 30
0.0
 11
105.7332807982266
 21
354.7335990428101
 31
0.0
  0
DIMENSION
  5
5962
330
A
100
AcDbEntity
  8
寸法
  6
Continuous
100
AcDbDimension
  2
*D44
 10
169.1440199581582
 20
348.7335990428101
 30
0.0
 11
169.1440199581582
 21
351.7335990428101
 31
0.0
 70
   160
 71
     5
 42
5.999999999999943
 73
     0
 74
     0
 75
     0
  3
tfrom線あり
100
AcDbAlignedDimension
 13
148.7210231602584
 23
354.7335990428101
 33
0.0
 14
154.4759396838725
 24
348.7335990428101
 34
0.0
 50
90.0
100
AcDbRotatedDimension
  0
LINE
  5
5964
330
A
100
AcDbEntity
  8
MODEL
  6
Continuous
100
AcDbLine
 10
150.4325120145531
 20
348.7335990428101
 30
0.0
 11
148.6317432308797
 21
354.7335990428101
 31
0.0
  0
LINE
  5
5965
330
A
100
AcDbEntity
  8
MODEL
  6
Continuous
100
AcDbLine
 10
148.6317432308796
 20
354.7335990428101
 30
0.0
 11
143.7332807982266
 21
354.7335990428101
 31
0.0
  0
LINE
  5
5966
330
A
100
AcDbEntity
  8
MODEL
  6
Continuous
100
AcDbLine
 10
141.9325120145531
 20
348.7335990428101
 30
0.0
 11
143.7332807982266
 21
354.7335990428101
 31
0.0
  0
LINE
  5
59C0
330
A
100
AcDbEntity
  8
MODEL
  6
Continuous
100
AcDbLine
 10
127.1816507401138
 20
185.1128469200377
 30
0.0
 11
121.1816507401139
 21
183.3120781363642
 31
0.0
  0
LINE
  5
59C1
330
A
100
AcDbEntity
  8
MODEL
  6
Continuous
100
AcDbLine
 10
121.1816507401138
 20
183.3120781363642
 30
0.0
 11
121.1816507401138
 21
178.4136157037111
 31
0.0
  0
LINE
  5
59C2
330
A
100
AcDbEntity
  8
MODEL
  6
Continuous
100
AcDbLine
 10
127.1816507401138
 20
176.6128469200377
 30
0.0
 11
121.1816507401139
 21
178.4136157037111
 31
0.0
  0
VIEWPORT
  5
349
330
B
100
AcDbEntity
 67
     1
  8
0
100
AcDbViewport
 10
202.5
 20
128.5
 30
0.0
 40
486.0
 41
308.4
 68
     1
 69
     1
 12
202.5
 22
128.5
 13
0.0
 23
0.0
 14
0.5
 24
0.5
 15
0.0
 25
0.0
 16
0.0
 26
0.0
 36
1.0
 17
0.0
 27
0.0
 37
0.0
 42
50.0
 43
0.0
 44
0.0
 45
308.4
 50
0.0
 51
0.0
 72
   100
 90
   557152
  1

281
     0
 71
     1
 74
     0
110
0.0
120
0.0
130
0.0
111
1.0
121
0.0
131
0.0
112
0.0
122
1.0
132
0.0
 79
     0
146
0.0
170
     0
 61
     5
348
26C
292
     1
282
     1
141
0.0
142
0.0
 63
   256
361
44F1
  0
VIEWPORT
  5
34A
330
B
100
AcDbEntity
 67
     1
  8
0
100
AcDbViewport
 10
202.5
 20
128.5
 30
0.0
 40
324.0
 41
205.6
 68
     2
 69
     2
 12
986.6781359294573
 22
1427.077061889956
 13
0.0
 23
0.0
 14
0.5
 24
0.5
 15
0.0
 25
0.0
 16
0.0
 26
0.0
 36
1.0
 17
0.0
 27
0.0
 37
0.0
 42
50.0
 43
0.0
 44
0.0
 45
2890.021615685494
 50
0.0
 51
0.0
 72
   100
 90
   557152
  1

281
     0
 71
     1
 74
     0
110
0.0
120
0.0
130
0.0
111
1.0
121
0.0
131
0.0
112
0.0
122
1.0
132
0.0
 79
     0
146
0.0
170
     0
 61
     5
348
26C
292
     1
282
     1
141
0.0
142
0.0
 63
   256
  0
ENDSEC
  0
SECTION
  2
OBJECTS
  0
DICTIONARY
  5
19
330
0
100
AcDbDictionary
281
     1
  3
ACAD_COLOR
350
674
  3
ACAD_DETAILVIEWSTYLE
350
13B5
  3
ACAD_GROUP
350
1A
  3
ACAD_IMAGE_VARS
350
27B
  3
ACAD_LAYOUT
350
1E
  3
ACAD_MATERIAL
350
263
  3
ACAD_MLEADERSTYLE
350
336
  3
ACAD_MLINESTYLE
350
1B
  3
ACAD_PLOTSETTINGS
350
22
  3
ACAD_PLOTSTYLENAME
350
1F
  3
ACAD_SCALELIST
350
241
  3
ACAD_SECTIONVIEWSTYLE
350
13B6
  3
ACAD_TABLESTYLE
350
278
  3
ACAD_VISUALSTYLE
350
267
  3
ACDB_RECOMPOSE_DATA
350
59D4
  3
AcDbVariableDictionary
350
330
  3
APPDATA
350
27A
  0
SUN
  5
F1A
330
15
100
AcDbSun
 90
        1
290
     0
 63
     7
421
 16777215
 40
1.0
291
     1
 91
  2455826
 92
 54000000
292
     0
 70
     2
 71
   256
280
     1
  0
DICTIONARY
  5
2E1
330
2
100
AcDbDictionary
280
     1
281
     1
  3
ACAD_LAYERSTATES
360
2E2
  3
ACLYDICTIONARY
360
5162
  0
DICTIONARY
  5
5038
330
5037
100
AcDbDictionary
280
     1
281
     1
  3
ACAD_DIMASSOC
360
5039
  0
DICTIONARY
  5
56A2
330
56A1
100
AcDbDictionary
280
     1
281
     1
  3
ACAD_DIMASSOC
360
56A3
  0
DICTIONARY
  5
56A5
330
56A4
100
AcDbDictionary
280
     1
281
     1
  3
ACAD_DIMASSOC
360
56A6
  0
SUN
  5
44F1
330
349
100
AcDbSun
 90
        1
290
     0
 63
     7
421
 16777215
 40
1.0
291
     1
 91
  2455826
 92
 54000000
292
     0
 70
     2
 71
   256
280
     1
  0
DICTIONARY
  5
674
102
{ACAD_REACTORS
330
19
102
}
330
19
100
AcDbDictionary
281
     1
  0
DICTIONARY
  5
13B5
102
{ACAD_REACTORS
330
19
102
}
330
19
100
AcDbDictionary
281
     1
  0
DICTIONARY
  5
1A
102
{ACAD_REACTORS
330
19
102
}
330
19
100
AcDbDictionary
281
     1
  0
RASTERVARIABLES
  5
27B
102
{ACAD_REACTORS
330
19
102
}
330
19
100
AcDbRasterVariables
 90
        0
 70
     1
 71
     1
 72
     1
  0
DICTIONARY
  5
1E
102
{ACAD_REACTORS
330
19
102
}
330
19
100
AcDbDictionary
281
     1
  3
Layout1
350
21
  3
Model
350
20
  0
DICTIONARY
  5
263
102
{ACAD_REACTORS
330
19
102
}
330
19
100
AcDbDictionary
281
     1
  3
ByBlock
350
5183
  3
ByLayer
350
264
  3
Global
350
266
  0
DICTIONARY
  5
336
102
{ACAD_REACTORS
330
19
102
}
330
19
100
AcDbDictionary
281
     1
  3
Standard
350
5901
  0
DICTIONARY
  5
1B
102
{ACAD_REACTORS
330
19
102
}
330
19
100
AcDbDictionary
281
     1
  3
Standard
350
1C
  0
DICTIONARY
  5
22
102
{ACAD_REACTORS
330
19
102
}
330
19
100
AcDbDictionary
281
     1
  0
ACDBDICTIONARYWDFLT
  5
1F
102
{ACAD_REACTORS
330
19
102
}
330
19
100
AcDbDictionary
281
     1
  3
Normal
350
1D
100
AcDbDictionaryWithDefault
340
1D
  0
DICTIONARY
  5
241
102
{ACAD_REACTORS
330
19
102
}
330
19
100
AcDbDictionary
281
     1
  3
A0
350
242
  3
A1
350
243
  3
A2
350
244
  3
A3
350
245
  3
A4
350
246
  3
A5
350
247
  3
A6
350
248
  3
A7
350
249
  3
A8
350
24A
  3
A9
350
24B
  3
B0
350
24C
  3
B1
350
24D
  3
B2
350
24E
  3
B3
350
24F
  3
B4
350
250
  3
B5
350
251
  3
B6
350
252
  3
B7
350
253
  3
B8
350
254
  3
B9
350
255
  3
C0
350
256
  3
C1
350
257
  3
C2
350
258
  3
C3
350
259
  3
C4
350
25A
  3
C5
350
25B
  3
C6
350
25C
  3
C7
350
25D
  3
C8
350
25E
  3
C9
350
25F
  3
D0
350
260
  3
D1
350
261
  3
D2
350
262
  0
DICTIONARY
  5
13B6
102
{ACAD_REACTORS
330
19
102
}
330
19
100
AcDbDictionary
281
     1
  0
DICTIONARY
  5
278
102
{ACAD_REACTORS
330
19
102
}
330
19
100
AcDbDictionary
281
     1
  3
Standard
350
279
  0
DICTIONARY
  5
267
102
{ACAD_REACTORS
330
19
102
}
330
19
100
AcDbDictionary
281
     1
  3
2dWireframe
350
26C
  3
3D Hidden
350
26E
  3
3dWireframe
350
26D
  3
Basic
350
26F
  3
Brighten
350
273
  3
ColorChange
350
277
  3
Conceptual
350
271
  3
Dim
350
272
  3
EdgeColorOff
350
F14
  3
Facepattern
350
276
  3
Flat
350
268
  3
FlatWithEdges
350
269
  3
Gouraud
350
26A
  3
GouraudWithEdges
350
26B
  3
Hidden
350
F11
  3
JitterOff
350
F12
  3
Linepattern
350
275
  3
OverhangOff
350
F13
  3
Realistic
350
270
  3
Shaded
350
F19
  3
Shaded with edges
350
F18
  3
Shades of Gray
350
F15
  3
Sketchy
350
F16
  3
Thicken
350
274
  3
Wireframe
350
F10
  3
X-Ray
350
F17
  0
XRECORD
  5
59D4
102
{ACAD_REACTORS
330
19
102
}
330
19
100
AcDbXrecord
280
     1
 90
        1
330
279
  0
DICTIONARY
  5
330
102
{ACAD_REACTORS
330
19
102
}
330
19
100
AcDbDictionary
281
     1
  3
CANNOSCALE
350
331
  3
CMLEADERSTYLE
350
598A
  3
CTABLESTYLE
350
335
  3
HPTRANSPARENCY
350
56B9
  3
XCLIPFRAME
350
13B4
  0
DICTIONARY
  5
27A
102
{ACAD_REACTORS
330
19
102
}
330
19
100
AcDbDictionary
281
     1
  0
DICTIONARY
  5
2E2
102
{ACAD_REACTORS
330
2E1
102
}
330
2E1
100
AcDbDictionary
281
     1
  3
ARGON_LAYERP_6
350
44F0
  3
ARGON_LAYERP_7
350
DEA
  3
ARGON_LAYERP_8
350
C70
  3
ARGON_LAYERP_9
350
7AA
  0
DICTIONARY
  5
5162
102
{ACAD_REACTORS
330
2E1
102
}
330
2E1
100
AcDbDictionary
281
     1
1001
ACAD
1000
<All
  0
DIMASSOC
  5
5039
102
{ACAD_REACTORS
330
5038
102
}
330
5038
100
AcDbDimAssoc
330
5037
 90
        3
 70
     0
 71
     1
  1
AcDbOsnapPointRef
 72
    13
331
502E
 73
     0
 91
        0
 40
0.0
 10
0.0
 20
0.0
 30
0.0
 75
     0
  1
AcDbOsnapPointRef
 72
     5
331
5025
 73
     0
 91
        0
 40
6.283185307179586
 10
0.0
 20
0.0
 30
0.0
 75
     0
  0
DIMASSOC
  5
56A3
102
{ACAD_REACTORS
330
56A2
102
}
330
56A2
100
AcDbDimAssoc
330
56A1
 90
        1
 70
     0
 71
     1
  1
AcDbOsnapPointRef
 72
     5
331
561A
 73
     0
 91
        0
 40
1.570796326794897
 10
0.0
 20
0.0
 30
0.0
 75
     0
  0
DIMASSOC
  5
56A6
102
{ACAD_REACTORS
330
56A5
102
}
330
56A5
100
AcDbDimAssoc
330
56A4
 90
        1
 70
     0
 71
     1
  1
AcDbOsnapPointRef
 72
     3
331
561A
 73
     0
 91
        0
 40
0.0
 10
0.0
 20
0.0
 30
0.0
 75
     0
  0
LAYOUT
  5
21
102
{ACAD_REACTORS
330
1E
102
}
330
1E
100
AcDbPlotSettings
  1

  2
none_device
  4
ISO_A3_(420.00_x_297.00_MM)
  6

 40
7.5
 41
20.0
 42
7.5
 43
20.0
 44
420.0
 45
297.0
 46
0.0
 47
0.0
 48
0.0
 49
0.0
140
0.0
141
0.0
142
1.0
143
1.0
 70
     0
 72
     1
 73
     0
 74
     0
  7

 75
     0
 76
     0
 77
     2
 78
   300
147
1.0
148
0.0
149
0.0
100
AcDbLayout
  1
Layout1
 70
     1
 71
     0
 10
-7.5
 20
-20.0
 11
412.5
 21
277.0
 12
0.0
 22
0.0
 32
0.0
 14
0.0
 24
0.0
 34
0.0
 15
0.0
 25
0.0
 35
0.0
146
0.0
 13
0.0
 23
0.0
 33
0.0
 16
0.0
 26
0.0
 36
0.0
 17
0.0
 27
0.0
 37
0.0
 76
     0
330
B
331
349
  0
LAYOUT
  5
20
102
{ACAD_REACTORS
330
1E
102
}
330
1E
100
AcDbPlotSettings
  1

  2
none_device
  4
ISO_A3_(420.00_x_297.00_MM)
  6

 40
7.5
 41
20.0
 42
7.5
 43
20.0
 44
420.0
 45
297.0
 46
0.0
 47
0.0
 48
0.0
 49
0.0
140
0.0
141
0.0
142
1.0
143
1.0
 70
  1024
 72
     1
 73
     0
 74
     0
  7

 75
     0
 76
     0
 77
     2
 78
   300
147
1.0
148
0.0
149
0.0
100
AcDbLayout
  1
Model
 70
     0
 71
     1
 10
0.0
 20
0.0
 11
594.0
 21
419.9999999999996
 12
0.0
 22
0.0
 32
0.0
 14
0.0
 24
0.0
 34
0.0
 15
593.9999999999999
 25
420.0
 35
0.0
146
0.0
 13
0.0
 23
0.0
 33
0.0
 16
0.0
 26
0.0
 36
0.0
 17
0.0
 27
0.0
 37
0.0
 76
     0
330
A
331
15
  0
MATERIAL
  5
5183
102
{ACAD_REACTORS
330
263
330
263
102
}
330
263
100
AcDbMaterial
  1
ByBlock
 72
     1
 94
      127
  0
MATERIAL
  5
264
102
{ACAD_REACTORS
330
263
102
}
330
263
100
AcDbMaterial
  1
ByLayer
 72
     1
 94
      127
  0
MATERIAL
  5
266
102
{ACAD_REACTORS
330
263
102
}
330
263
100
AcDbMaterial
  1
Global
 72
     1
 94
      127
  0
MLEADERSTYLE
  5
5901
102
{ACAD_REACTORS
330
336
102
}
330
336
100
AcDbMLeaderStyle
170
     2
171
     1
172
     0
 90
        2
 40
0.0
 41
0.0
173
     1
 91
-1056964608
340
11
 92
       -2
290
     1
 42
2.0
291
     1
 43
8.0
  3
Standard
341
0
 44
4.0
300

342
17
174
     1
178
     6
175
     1
176
     0
 93
-1056964608
 45
4.0
292
     0
297
     0
 46
4.0
343
0
 94
-1056964608
 47
1.0
 49
1.0
140
1.0
293
     1
141
0.0
294
     1
177
     0
142
1.0
295
     0
296
     0
143
3.75
1001
ACAD_MLEADERVER
1070
     2
  0
MLINESTYLE
  5
1C
102
{ACAD_REACTORS
330
1B
102
}
330
1B
100
AcDbMlineStyle
  2
Standard
 70
     0
  3

 62
     0
 51
90.0
 52
90.0
 71
     2
 49
0.5
 62
   256
  6
BYLAYER
 49
-0.5
 62
   256
  6
BYLAYER
  0
ACDBPLACEHOLDER
  5
1D
102
{ACAD_REACTORS
330
1F
102
}
330
1F
  0
SCALE
  5
242
102
{ACAD_REACTORS
330
241
102
}
330
241
100
AcDbScale
 70
     0
300
1:1
140
1.0
141
1.0
290
     1
  0
SCALE
  5
243
102
{ACAD_REACTORS
330
241
102
}
330
241
100
AcDbScale
 70
     0
300
1:2
140
1.0
141
2.0
290
     0
  0
SCALE
  5
244
102
{ACAD_REACTORS
330
241
102
}
330
241
100
AcDbScale
 70
     0
300
1:4
140
1.0
141
4.0
290
     0
  0
SCALE
  5
245
102
{ACAD_REACTORS
330
241
102
}
330
241
100
AcDbScale
 70
     0
300
1:5
140
1.0
141
5.0
290
     0
  0
SCALE
  5
246
102
{ACAD_REACTORS
330
241
102
}
330
241
100
AcDbScale
 70
     0
300
1:8
140
1.0
141
8.0
290
     0
  0
SCALE
  5
247
102
{ACAD_REACTORS
330
241
102
}
330
241
100
AcDbScale
 70
     0
300
1:10
140
1.0
141
10.0
290
     0
  0
SCALE
  5
248
102
{ACAD_REACTORS
330
241
102
}
330
241
100
AcDbScale
 70
     0
300
1:16
140
1.0
141
16.0
290
     0
  0
SCALE
  5
249
102
{ACAD_REACTORS
330
241
102
}
330
241
100
AcDbScale
 70
     0
300
1:20
140
1.0
141
20.0
290
     0
  0
SCALE
  5
24A
102
{ACAD_REACTORS
330
241
102
}
330
241
100
AcDbScale
 70
     0
300
1:30
140
1.0
141
30.0
290
     0
  0
SCALE
  5
24B
102
{ACAD_REACTORS
330
241
102
}
330
241
100
AcDbScale
 70
     0
300
1:40
140
1.0
141
40.0
290
     0
  0
SCALE
  5
24C
102
{ACAD_REACTORS
330
241
102
}
330
241
100
AcDbScale
 70
     0
300
1:50
140
1.0
141
50.0
290
     0
  0
SCALE
  5
24D
102
{ACAD_REACTORS
330
241
102
}
330
241
100
AcDbScale
 70
     0
300
1:100
140
1.0
141
100.0
290
     0
  0
SCALE
  5
24E
102
{ACAD_REACTORS
330
241
102
}
330
241
100
AcDbScale
 70
     0
300
2:1
140
2.0
141
1.0
290
     0
  0
SCALE
  5
24F
102
{ACAD_REACTORS
330
241
102
}
330
241
100
AcDbScale
 70
     0
300
4:1
140
4.0
141
1.0
290
     0
  0
SCALE
  5
250
102
{ACAD_REACTORS
330
241
102
}
330
241
100
AcDbScale
 70
     0
300
8:1
140
8.0
141
1.0
290
     0
  0
SCALE
  5
251
102
{ACAD_REACTORS
330
241
102
}
330
241
100
AcDbScale
 70
     0
300
10:1
140
10.0
141
1.0
290
     0
  0
SCALE
  5
252
102
{ACAD_REACTORS
330
241
102
}
330
241
100
AcDbScale
 70
     0
300
100:1
140
100.0
141
1.0
290
     0
  0
SCALE
  5
253
102
{ACAD_REACTORS
330
241
102
}
330
241
100
AcDbScale
 70
     0
300
1/128" = 1'-0"
140
0.0078125
141
12.0
290
     0
  0
SCALE
  5
254
102
{ACAD_REACTORS
330
241
102
}
330
241
100
AcDbScale
 70
     0
300
1/64" = 1'-0"
140
0.015625
141
12.0
290
     0
  0
SCALE
  5
255
102
{ACAD_REACTORS
330
241
102
}
330
241
100
AcDbScale
 70
     0
300
1/32" = 1'-0"
140
0.03125
141
12.0
290
     0
  0
SCALE
  5
256
102
{ACAD_REACTORS
330
241
102
}
330
241
100
AcDbScale
 70
     0
300
1/16" = 1'-0"
140
0.0625
141
12.0
290
     0
  0
SCALE
  5
257
102
{ACAD_REACTORS
330
241
102
}
330
241
100
AcDbScale
 70
     0
300
3/32" = 1'-0"
140
0.09375
141
12.0
290
     0
  0
SCALE
  5
258
102
{ACAD_REACTORS
330
241
102
}
330
241
100
AcDbScale
 70
     0
300
1/8" = 1'-0"
140
0.125
141
12.0
290
     0
  0
SCALE
  5
259
102
{ACAD_REACTORS
330
241
102
}
330
241
100
AcDbScale
 70
     0
300
3/16" = 1'-0"
140
0.1875
141
12.0
290
     0
  0
SCALE
  5
25A
102
{ACAD_REACTORS
330
241
102
}
330
241
100
AcDbScale
 70
     0
300
1/4" = 1'-0"
140
0.25
141
12.0
290
     0
  0
SCALE
  5
25B
102
{ACAD_REACTORS
330
241
102
}
330
241
100
AcDbScale
 70
     0
300
3/8" = 1'-0"
140
0.375
141
12.0
290
     0
  0
SCALE
  5
25C
102
{ACAD_REACTORS
330
241
102
}
330
241
100
AcDbScale
 70
     0
300
1/2" = 1'-0"
140
0.5
141
12.0
290
     0
  0
SCALE
  5
25D
102
{ACAD_REACTORS
330
241
102
}
330
241
100
AcDbScale
 70
     0
300
3/4" = 1'-0"
140
0.75
141
12.0
290
     0
  0
SCALE
  5
25E
102
{ACAD_REACTORS
330
241
102
}
330
241
100
AcDbScale
 70
     0
300
1" = 1'-0"
140
1.0
141
12.0
290
     0
  0
SCALE
  5
25F
102
{ACAD_REACTORS
330
241
102
}
330
241
100
AcDbScale
 70
     0
300
1-1/2" = 1'-0"
140
1.5
141
12.0
290
     0
  0
SCALE
  5
260
102
{ACAD_REACTORS
330
241
102
}
330
241
100
AcDbScale
 70
     0
300
3" = 1'-0"
140
3.0
141
12.0
290
     0
  0
SCALE
  5
261
102
{ACAD_REACTORS
330
241
102
}
330
241
100
AcDbScale
 70
     0
300
6" = 1'-0"
140
6.0
141
12.0
290
     0
  0
SCALE
  5
262
102
{ACAD_REACTORS
330
241
102
}
330
241
100
AcDbScale
 70
     0
300
1'-0" = 1'-0"
140
12.0
141
12.0
290
     0
  0
TABLESTYLE
  5
279
102
{ACAD_REACTORS
330
278
102
}
102
{ACAD_XDICTIONARY
360
59D2
102
}
330
278
100
AcDbTableStyle
  3
Standard
 70
     0
 71
     0
 40
0.06
 41
0.06
280
     0
281
     0
  7
Standard
140
4.5
170
     2
 62
     0
 63
   257
283
     0
 90
        4
 91
        0
  1

274
    -2
284
     1
 64
     0
275
    -2
285
     1
 65
     0
276
    -2
286
     1
 66
     0
277
    -2
287
     1
 67
     0
278
    -2
288
     1
 68
     0
279
    -2
289
     1
 69
     0
  7
Standard
140
6.0
170
     5
 62
     0
 63
   257
283
     0
 90
        4
 91
        0
  1

274
    -2
284
     1
 64
     0
275
    -2
285
     1
 65
     0
276
    -2
286
     1
 66
     0
277
    -2
287
     1
 67
     0
278
    -2
288
     1
 68
     0
279
    -2
289
     1
 69
     0
  7
Standard
140
4.5
170
     5
 62
     0
 63
   257
283
     0
 90
        4
 91
        0
  1

274
    -2
284
     1
 64
     0
275
    -2
285
     1
 65
     0
276
    -2
286
     1
 66
     0
277
    -2
287
     1
 67
     0
278
    -2
288
     1
 68
     0
279
    -2
289
     1
 69
     0
  0
VISUALSTYLE
  5
26C
102
{ACAD_REACTORS
330
267
102
}
330
267
100
AcDbVisualStyle
  2
2dWireframe
 70
     4
 71
     0
 72
     2
 73
     0
 90
        0
 40
-0.6
 41
-30.0
 62
     5
 63
     7
421
 16777215
 74
     1
 91
        4
 64
     7
 65
   257
 75
     1
175
     1
 42
1.0
 92
        0
 66
   257
 43
1.0
 76
     1
 77
     6
 78
     2
 67
     7
 79
     5
170
     0
171
     0
290
     0
174
     0
 93
        1
 44
0.0
173
     0
291
     0
 45
0.0
  0
VISUALSTYLE
  5
26E
102
{ACAD_REACTORS
330
267
102
}
330
267
100
AcDbVisualStyle
  2
3D Hidden
 70
     6
 71
     1
 72
     2
 73
     2
 90
        0
 40
-0.6
 41
-30.0
 62
     5
 63
     7
421
 16777215
 74
     2
 91
        2
 64
     7
 65
   257
 75
     2
175
     1
 42
40.0
 92
        0
 66
   257
 43
1.0
 76
     1
 77
     6
 78
     2
 67
     7
 79
     3
170
     0
171
     0
290
     0
174
     0
 93
        1
 44
0.0
173
     0
291
     0
 45
0.0
  0
VISUALSTYLE
  5
26D
102
{ACAD_REACTORS
330
267
102
}
330
267
100
AcDbVisualStyle
  2
3dWireframe
 70
     5
 71
     0
 72
     2
 73
     0
 90
        0
 40
-0.6
 41
-30.0
 62
     5
 63
     7
421
 16777215
 74
     1
 91
        4
 64
     7
 65
   257
 75
     1
175
     1
 42
1.0
 92
        0
 66
   257
 43
1.0
 76
     1
 77
     6
 78
     2
 67
     7
 79
     5
170
     0
171
     0
290
     0
174
     0
 93
        1
 44
0.0
173
     0
291
     0
 45
0.0
  0
VISUALSTYLE
  5
26F
102
{ACAD_REACTORS
330
267
102
}
330
267
100
AcDbVisualStyle
  2
Basic
 70
     7
 71
     1
 72
     0
 73
     1
 90
        0
 40
-0.6
 41
-30.0
 62
     5
 63
     7
421
 16777215
 74
     0
 91
        4
 64
     7
 65
   257
 75
     1
175
     1
 42
1.0
 92
        8
 66
     7
 43
1.0
 76
     1
 77
     6
 78
     2
 67
     7
 79
     5
170
     0
171
     0
290
     0
174
     0
 93
        1
 44
0.0
173
     0
291
     1
 45
0.0
  0
VISUALSTYLE
  5
273
102
{ACAD_REACTORS
330
267
102
}
330
267
100
AcDbVisualStyle
  2
Brighten
 70
    12
 71
     2
 72
     2
 73
     0
 90
        0
 40
-0.6
 41
-30.0
 62
     5
 63
     7
421
 16777215
 74
     1
 91
        4
 64
     7
 65
   257
 75
     1
175
     1
 42
1.0
 92
        8
 66
     7
 43
1.0
 76
     1
 77
     6
 78
     2
 67
     7
 79
     5
170
     0
171
     0
290
     0
174
     0
 93
        1
 44
50.0
173
     0
291
     1
 45
0.0
  0
VISUALSTYLE
  5
277
102
{ACAD_REACTORS
330
267
102
}
330
267
100
AcDbVisualStyle
  2
ColorChange
 70
    16
 71
     2
 72
     2
 73
     3
 90
        0
 40
-0.6
 41
-30.0
 62
     5
 63
     8
421
  8421504
 74
     1
 91
        4
 64
     7
 65
   257
 75
     1
175
     1
 42
1.0
 92
        8
 66
     8
424
  8421504
 43
1.0
 76
     1
 77
     6
 78
     2
 67
     7
 79
     5
170
     0
171
     0
290
     0
174
     0
 93
        1
 44
0.0
173
     0
291
     1
 45
0.0
  0
VISUALSTYLE
  5
271
102
{ACAD_REACTORS
330
267
102
}
330
267
100
AcDbVisualStyle
  2
Conceptual
 70
     9
 71
     3
 72
     2
 73
     0
 90
        0
 40
-0.6
 41
-30.0
 62
     5
 63
     7
421
 16777215
 74
     2
 91
        2
 64
     7
 65
   257
 75
     1
175
     1
 42
40.0
 92
        8
 66
     7
 43
1.0
 76
     1
 77
     6
 78
     2
 67
     7
 79
     3
170
     0
171
     0
290
     0
174
     0
 93
        1
 44
0.0
173
     0
291
     0
 45
0.0
  0
VISUALSTYLE
  5
272
102
{ACAD_REACTORS
330
267
102
}
330
267
100
AcDbVisualStyle
  2
Dim
 70
    11
 71
     2
 72
     2
 73
     0
 90
        0
 40
-0.6
 41
-30.0
 62
     5
 63
     7
421
 16777215
 74
     1
 91
        4
 64
     7
 65
   257
 75
     1
175
     1
 42
1.0
 92
        8
 66
     7
 43
1.0
 76
     1
 77
     6
 78
     2
 67
     7
 79
     5
170
     0
171
     0
290
     0
174
     0
 93
        1
 44
-50.0
173
     0
291
     1
 45
0.0
  0
VISUALSTYLE
  5
F14
102
{ACAD_REACTORS
330
267
102
}
330
267
100
AcDbVisualStyle
  2
EdgeColorOff
 70
    22
 71
     2
 72
     2
 73
     0
 90
        0
 40
0.6
 41
30.0
 62
     5
 63
     7
421
 16777215
 74
     1
 91
        4
 64
     7
 65
   257
 75
     1
175
     1
 42
1.0
 92
        8
 66
     7
 43
1.0
 76
     1
 77
     6
 78
     2
 67
     7
 79
     5
170
     0
171
     0
290
     0
174
     0
 93
        1
 44
0.0
173
     0
291
     1
 45
0.0
  0
VISUALSTYLE
  5
276
102
{ACAD_REACTORS
330
267
102
}
330
267
100
AcDbVisualStyle
  2
Facepattern
 70
    15
 71
     2
 72
     2
 73
     0
 90
        0
 40
-0.6
 41
-30.0
 62
     5
 63
     7
421
 16777215
 74
     1
 91
        4
 64
     7
 65
   257
 75
     1
175
     1
 42
1.0
 92
        8
 66
     7
 43
1.0
 76
     1
 77
     6
 78
     2
 67
     7
 79
     5
170
     0
171
     0
290
     0
174
     0
 93
        1
 44
0.0
173
     0
291
     1
 45
0.0
  0
VISUALSTYLE
  5
268
102
{ACAD_REACTORS
330
267
102
}
330
267
100
AcDbVisualStyle
  2
Flat
 70
     0
 71
     2
 72
     1
 73
     1
 90
        2
 40
-0.6
 41
30.0
 62
     5
 63
     7
421
 16777215
 74
     0
 91
        4
 64
     7
 65
   257
 75
     1
175
     1
 42
1.0
 92
        8
 66
     7
 43
1.0
 76
     1
 77
     6
 78
     2
 67
     7
 79
     5
170
     0
171
     0
290
     0
174
     0
 93
       13
 44
0.0
173
     0
291
     1
 45
0.0
  0
VISUALSTYLE
  5
269
102
{ACAD_REACTORS
330
267
102
}
330
267
100
AcDbVisualStyle
  2
FlatWithEdges
 70
     1
 71
     2
 72
     1
 73
     1
 90
        2
 40
-0.6
 41
30.0
 62
     5
 63
     7
421
 16777215
 74
     1
 91
        4
 64
     7
 65
   257
 75
     1
175
     1
 42
1.0
 92
        0
 66
   257
 43
1.0
 76
     1
 77
     6
 78
     2
 67
     7
 79
     5
170
     0
171
     0
290
     0
174
     0
 93
       13
 44
0.0
173
     0
291
     1
 45
0.0
  0
VISUALSTYLE
  5
26A
102
{ACAD_REACTORS
330
267
102
}
330
267
100
AcDbVisualStyle
  2
Gouraud
 70
     2
 71
     2
 72
     2
 73
     1
 90
        2
 40
-0.6
 41
30.0
 62
     5
 63
     7
421
 16777215
 74
     0
 91
        4
 64
     7
 65
   257
 75
     1
175
     1
 42
1.0
 92
        0
 66
     7
 43
1.0
 76
     1
 77
     6
 78
     2
 67
     7
 79
     5
170
     0
171
     0
290
     0
174
     0
 93
       13
 44
0.0
173
     0
291
     1
 45
0.0
  0
VISUALSTYLE
  5
26B
102
{ACAD_REACTORS
330
267
102
}
330
267
100
AcDbVisualStyle
  2
GouraudWithEdges
 70
     3
 71
     2
 72
     2
 73
     1
 90
        2
 40
-0.6
 41
30.0
 62
     5
 63
     7
421
 16777215
 74
     1
 91
        4
 64
     7
 65
   257
 75
     1
175
     1
 42
1.0
 92
        0
 66
   257
 43
1.0
 76
     1
 77
     6
 78
     2
 67
     7
 79
     5
170
     0
171
     0
290
     0
174
     0
 93
       13
 44
0.0
173
     0
291
     1
 45
0.0
  0
VISUALSTYLE
  5
F11
102
{ACAD_REACTORS
330
267
102
}
330
267
100
AcDbVisualStyle
  2
Hidden
 70
     6
 71
     1
 72
     2
 73
     2
 90
        0
 40
0.6
 41
30.0
 62
     5
 63
     7
421
 16777215
 74
     2
 91
        2
 64
     7
 65
   257
 75
     2
175
     1
 42
40.0
 92
        0
 66
   257
 43
1.0
 76
     1
 77
     6
 78
     2
 67
     7
 79
     3
170
     0
171
     0
290
     0
174
     0
 93
        1
 44
0.0
173
     0
291
     0
 45
0.0
  0
VISUALSTYLE
  5
F12
102
{ACAD_REACTORS
330
267
102
}
330
267
100
AcDbVisualStyle
  2
JitterOff
 70
    20
 71
     2
 72
     2
 73
     0
 90
        0
 40
0.6
 41
30.0
 62
     5
 63
     7
421
 16777215
 74
     1
 91
        4
 64
     7
 65
   257
 75
     1
175
     1
 42
1.0
 92
       10
 66
     7
 43
1.0
 76
     1
 77
     6
 78
     2
 67
     7
 79
     5
170
     0
171
     0
290
     0
174
     0
 93
        1
 44
0.0
173
     0
291
     1
 45
0.0
  0
VISUALSTYLE
  5
275
102
{ACAD_REACTORS
330
267
102
}
330
267
100
AcDbVisualStyle
  2
Linepattern
 70
    14
 71
     2
 72
     2
 73
     0
 90
        0
 40
-0.6
 41
-30.0
 62
     5
 63
     7
421
 16777215
 74
     1
 91
        4
 64
     7
 65
   257
 75
     7
175
     7
 42
1.0
 92
        8
 66
     7
 43
1.0
 76
     1
 77
     6
 78
     2
 67
     7
 79
     5
170
     0
171
     0
290
     0
174
     0
 93
        1
 44
0.0
173
     0
291
     1
 45
0.0
  0
VISUALSTYLE
  5
F13
102
{ACAD_REACTORS
330
267
102
}
330
267
100
AcDbVisualStyle
  2
OverhangOff
 70
    21
 71
     2
 72
     2
 73
     0
 90
        0
 40
0.6
 41
30.0
 62
     5
 63
     7
421
 16777215
 74
     1
 91
        4
 64
     7
 65
   257
 75
     1
175
     1
 42
1.0
 92
        9
 66
     7
 43
1.0
 76
     1
 77
     6
 78
     2
 67
     7
 79
     5
170
     0
171
     0
290
     0
174
     0
 93
        1
 44
0.0
173
     0
291
     1
 45
0.0
  0
VISUALSTYLE
  5
270
102
{ACAD_REACTORS
330
267
102
}
330
267
100
AcDbVisualStyle
  2
Realistic
 70
     8
 71
     2
 72
     2
 73
     0
 90
        0
 40
-0.6
 41
-30.0
 62
     5
 63
     7
421
 16777215
 74
     1
 91
        0
 64
     7
 65
   257
 75
     1
175
     1
 42
1.0
 92
        8
 66
     8
424
  7895160
 43
1.0
 76
     1
 77
     6
 78
     2
 67
     7
 79
     5
170
     0
171
     0
290
     0
174
     0
 93
       13
 44
0.0
173
     0
291
     0
 45
0.0
  0
VISUALSTYLE
  5
F19
102
{ACAD_REACTORS
330
267
102
}
330
267
100
AcDbVisualStyle
  2
Shaded
 70
    27
 71
     2
 72
     2
 73
     1
 90
        2
 40
0.6
 41
30.0
 62
     5
 63
     7
421
 16777215
 74
     0
 91
        4
 64
     7
 65
   257
 75
     1
175
     1
 42
1.0
 92
        8
 66
   257
 43
1.0
 76
     1
 77
     6
 78
     2
 67
     8
425
  7895160
 79
     3
170
     0
171
     0
290
     0
174
     0
 93
        5
 44
0.0
173
     0
291
     0
 45
0.0
  0
VISUALSTYLE
  5
F18
102
{ACAD_REACTORS
330
267
102
}
330
267
100
AcDbVisualStyle
  2
Shaded with edges
 70
    26
 71
     2
 72
     2
 73
     1
 90
        2
 40
0.6
 41
30.0
 62
     5
 63
     7
421
 16777215
 74
     1
 91
       10
 64
     7
 65
   257
 75
     2
175
     1
 42
1.0
 92
        8
 66
   257
 43
1.0
 76
     1
 77
     6
 78
     2
 67
     7
 79
     3
170
     0
171
     0
290
     0
174
     0
 93
        5
 44
0.0
173
     0
291
     0
 45
0.0
  0
VISUALSTYLE
  5
F15
102
{ACAD_REACTORS
330
267
102
}
330
267
100
AcDbVisualStyle
  2
Shades of Gray
 70
    23
 71
     2
 72
     2
 73
     3
 90
        0
 40
0.6
 41
30.0
 62
     5
 63
     7
421
 16777215
 74
     2
 91
        2
 64
     7
 65
     7
 75
     1
175
     1
 42
40.0
 92
        8
 66
     7
 43
1.0
 76
     1
 77
     6
 78
     2
 67
     7
 79
     3
170
     0
171
     0
290
     0
174
     0
 93
        1
 44
0.0
173
     0
291
     0
 45
0.0
  0
VISUALSTYLE
  5
F16
102
{ACAD_REACTORS
330
267
102
}
330
267
100
AcDbVisualStyle
  2
Sketchy
 70
    24
 71
     1
 72
     2
 73
     2
 90
        0
 40
0.6
 41
30.0
 62
     5
 63
     7
421
 16777215
 74
     2
 91
        2
 64
     7
 65
     7
 75
     1
175
     1
 42
40.0
 92
       11
 66
     7
 43
1.0
 76
     1
 77
     6
 78
     2
 67
     7
 79
     6
170
     0
171
     0
290
     0
174
     0
 93
        1
 44
0.0
173
     0
291
     0
 45
0.0
  0
VISUALSTYLE
  5
274
102
{ACAD_REACTORS
330
267
102
}
330
267
100
AcDbVisualStyle
  2
Thicken
 70
    13
 71
     2
 72
     2
 73
     0
 90
        0
 40
-0.6
 41
-30.0
 62
     5
 63
     7
421
 16777215
 74
     1
 91
        4
 64
     7
 65
   257
 75
     1
175
     1
 42
1.0
 92
       12
 66
     7
 43
1.0
 76
     1
 77
     6
 78
     2
 67
     7
 79
     5
170
     0
171
     0
290
     0
174
     0
 93
        1
 44
0.0
173
     0
291
     1
 45
0.0
  0
VISUALSTYLE
  5
F10
102
{ACAD_REACTORS
330
267
102
}
330
267
100
AcDbVisualStyle
  2
Wireframe
 70
     5
 71
     0
 72
     2
 73
     0
 90
        0
 40
0.6
 41
30.0
 62
     5
 63
     7
421
 16777215
 74
     1
 91
        4
 64
     7
 65
   257
 75
     1
175
     1
 42
1.0
 92
        0
 66
   257
 43
1.0
 76
     1
 77
     6
 78
     2
 67
     7
 79
     3
170
     0
171
     0
290
     0
174
     0
 93
        1
 44
0.0
173
     0
291
     0
 45
0.0
  0
VISUALSTYLE
  5
F17
102
{ACAD_REACTORS
330
267
102
}
330
267
100
AcDbVisualStyle
  2
X-Ray
 70
    25
 71
     2
 72
     2
 73
     1
 90
        1
 40
0.5
 41
30.0
 62
     5
 63
     7
421
 16777215
 74
     1
 91
        0
 64
     7
 65
   257
 75
     1
175
     1
 42
1.0
 92
        8
 66
     7
 43
1.0
 76
     1
 77
     6
 78
     2
 67
     7
 79
     3
170
     0
171
     0
290
     0
174
     0
 93
       13
 44
0.0
173
     0
291
     0
 45
0.0
  0
DICTIONARYVAR
  5
331
102
{ACAD_REACTORS
330
330
102
}
330
330
100
DictionaryVariables
280
     0
  1
1:1
  0
DICTIONARYVAR
  5
598A
102
{ACAD_REACTORS
330
330
102
}
330
330
100
DictionaryVariables
280
     0
  1
Standard
  0
DICTIONARYVAR
  5
335
102
{ACAD_REACTORS
330
330
102
}
330
330
100
DictionaryVariables
280
     0
  1
Standard
  0
DICTIONARYVAR
  5
56B9
102
{ACAD_REACTORS
330
330
102
}
330
330
100
DictionaryVariables
280
     0
  1
ByLayer
  0
DICTIONARYVAR
  5
13B4
102
{ACAD_REACTORS
330
330
102
}
330
330
100
DictionaryVariables
280
     0
  1
0
  0
XRECORD
  5
44F0
102
{ACAD_REACTORS
330
2E2
102
}
330
2E2
100
AcDbXrecord
280
     1
 91
     1023
301

290
     0
302
DIM
330
14
 90
        9
 62
     7
370
    -3
331
13
  1
Color_7
330
4A
 90
        1
 62
     7
370
    -3
331
13
  1
Color_7
330
4D
 90
        8
 62
     7
370
    20
331
13
  1
Color_7
330
667
 90
        8
 62
     7
370
    -3
331
13
  1
Color_7
330
13AF
 90
        8
 62
     7
370
    13
331
13
  1
Color_7
330
5226
 90
        8
 62
     7
370
    13
331
13
  1
Color_7
330
5229
 90
        8
 62
     7
370
    20
331
13
  1
Color_7
330
522A
 90
        8
 62
     7
370
    20
331
13
  1
Color_7
330
522B
 90
        8
 62
     7
370
    20
331
13
  1
Color_7
330
522C
 90
        0
 62
     4
370
    -3
331
13
  1
Color_4
330
522D
 90
        1
 62
     3
370
    -3
331
13
  1
Color_3
330
522E
 90
        0
 62
     7
370
    -3
331
13
  1
Color_7
330
522F
 90
        8
 62
     7
370
    20
331
13
  1
Color_7
330
536E
 90
        8
 62
   254
370
    20
331
13
  1
Color_254
  0
XRECORD
  5
DEA
102
{ACAD_REACTORS
330
2E2
102
}
330
2E2
100
AcDbXrecord
280
     1
 91
     1023
301

290
     0
302
MODEL
330
14
 90
        8
 62
     7
370
    -3
331
13
  1
Color_7
330
4A
 90
        1
 62
     7
370
    -3
331
13
  1
Color_7
330
0
 90
        8
 62
     7
370
    15
331
13
  1
Color_7
330
0
 90
        8
 62
     7
370
    -3
331
13
  1
Color_7
330
4D
 90
        8
 62
     7
370
    15
331
13
  1
Color_7
330
667
 90
        8
 62
     7
370
    -3
331
13
  1
Color_7
330
0
 90
        1
 62
     7
370
    -3
331
13
  1
Color_7
330
0
 90
        1
 62
     7
370
    -3
331
13
  1
Color_7
330
0
 90
        1
 62
     7
370
    -3
331
13
  1
Color_7
330
0
 90
        1
 62
     7
370
    -3
331
13
  1
Color_7
330
13AF
 90
        8
 62
     7
370
     9
331
13
  1
Color_7
330
0
 90
        9
 62
     7
370
    -3
331
13
  1
Color_7
  0
XRECORD
  5
C70
102
{ACAD_REACTORS
330
2E2
102
}
330
2E2
100
AcDbXrecord
280
     1
 91
     1023
301

290
     0
302
DIM
330
14
 90
        8
 62
     7
370
    -3
331
13
  1
Color_7
330
4A
 90
        0
 62
     7
370
    -3
331
13
  1
Color_7
330
0
 90
        8
 62
     7
370
    15
331
13
  1
Color_7
330
0
 90
        8
 62
     7
370
    -3
331
13
  1
Color_7
330
4D
 90
        8
 62
     7
370
    15
331
13
  1
Color_7
330
667
 90
        8
 62
     7
370
    -3
331
13
  1
Color_7
330
0
 90
        0
 62
     7
370
    -3
331
13
  1
Color_7
330
0
 90
        0
 62
     7
370
    -3
331
13
  1
Color_7
330
0
 90
        1
 62
     7
370
    -3
331
13
  1
Color_7
330
0
 90
        0
 62
     7
370
    -3
331
13
  1
Color_7
330
13AF
 90
        8
 62
     7
370
     9
331
13
  1
Color_7
330
0
 90
        8
 62
     7
370
    -3
331
13
  1
Color_7
  0
XRECORD
  5
7AA
102
{ACAD_REACTORS
330
2E2
102
}
330
2E2
100
AcDbXrecord
280
     1
 91
     1023
301

290
     0
302
レイヤー 1
330
14
 90
        9
 62
     7
370
    -3
331
13
  1
Color_7
330
4A
 90
        1
 62
     7
370
    -3
331
13
  1
Color_7
330
0
 90
        8
 62
     7
370
    -3
331
13
  1
Color_7
330
0
 90
        9
 62
     7
370
    -3
331
13
  1
Color_7
330
4D
 90
        9
 62
     7
370
    -3
331
13
  1
Color_7
330
667
 90
       13
 62
     7
370
    -3
331
13
  1
Color_7
330
0
 90
        9
 62
     7
370
    -3
331
13
  1
Color_7
330
0
 90
        9
 62
     7
370
    -3
331
13
  1
Color_7
330
0
 90
        9
 62
     7
370
    -3
331
13
  1
Color_7
330
0
 90
        9
 62
     7
370
    -3
331
13
  1
Color_7
330
0
 90
        9
 62
     7
370
    -3
331
13
  1
Color_7
330
0
 90
        8
 62
     7
370
    -3
331
13
  1
Color_7
  0
DICTIONARY
  5
59D2
330
279
100
AcDbDictionary
280
     1
281
     1
  3
ACAD_ROUNDTRIP_2008_TABLESTYLE_CELLSTYLEMAP
360
59D3
  0
CELLSTYLEMAP
  5
59D3
102
{ACAD_REACTORS
330
59D2
102
}
330
59D2
100
AcDbCellStyleMap
 90
        3
300
CELLSTYLE
  1
TABLEFORMAT_BEGIN
 90
        5
170
     1
 91
        0
 92
    32768
 62
   257
 93
        1
300
CONTENTFORMAT
  1
CONTENTFORMAT_BEGIN
 90
        0
 91
        0
 92
        4
 93
        0
300

 40
0.0
140
1.0
 94
        5
 62
     0
340
17
144
6.0
309
CONTENTFORMAT_END
171
     1
301
MARGIN
  1
CELLMARGIN_BEGIN
 40
0.06
 40
0.06
 40
0.06
 40
0.06
 40
0.18
 40
0.18
309
CELLMARGIN_END
 94
        6
 95
        1
302
GRIDFORMAT
  1
GRIDFORMAT_BEGIN
 90
        0
 91
        1
 62
     0
 92
       -2
340
0
 93
        0
 40
0.045
309
GRIDFORMAT_END
 95
        2
302
GRIDFORMAT
  1
GRIDFORMAT_BEGIN
 90
        0
 91
        1
 62
     0
 92
       -2
340
0
 93
        0
 40
0.045
309
GRIDFORMAT_END
 95
        4
302
GRIDFORMAT
  1
GRIDFORMAT_BEGIN
 90
        0
 91
        1
 62
     0
 92
       -2
340
0
 93
        0
 40
0.045
309
GRIDFORMAT_END
 95
        8
302
GRIDFORMAT
  1
GRIDFORMAT_BEGIN
 90
        0
 91
        1
 62
     0
 92
       -2
340
0
 93
        0
 40
0.045
309
GRIDFORMAT_END
 95
       16
302
GRIDFORMAT
  1
GRIDFORMAT_BEGIN
 90
        0
 91
        1
 62
     0
 92
       -2
340
0
 93
        0
 40
0.045
309
GRIDFORMAT_END
 95
       32
302
GRIDFORMAT
  1
GRIDFORMAT_BEGIN
 90
        0
 91
        1
 62
     0
 92
       -2
340
0
 93
        0
 40
0.045
309
GRIDFORMAT_END
309
TABLEFORMAT_END
  1
CELLSTYLE_BEGIN
 90
        1
 91
        1
300
_TITLE
309
CELLSTYLE_END
300
CELLSTYLE
  1
TABLEFORMAT_BEGIN
 90
        5
170
     1
 91
        0
 92
        0
 62
   257
 93
        1
300
CONTENTFORMAT
  1
CONTENTFORMAT_BEGIN
 90
        0
 91
        0
 92
        4
 93
        0
300

 40
0.0
140
1.0
 94
        5
 62
     0
340
17
144
4.5
309
CONTENTFORMAT_END
171
     1
301
MARGIN
  1
CELLMARGIN_BEGIN
 40
0.06
 40
0.06
 40
0.06
 40
0.06
 40
0.18
 40
0.18
309
CELLMARGIN_END
 94
        6
 95
        1
302
GRIDFORMAT
  1
GRIDFORMAT_BEGIN
 90
        0
 91
        1
 62
     0
 92
       -2
340
0
 93
        0
 40
0.045
309
GRIDFORMAT_END
 95
        2
302
GRIDFORMAT
  1
GRIDFORMAT_BEGIN
 90
        0
 91
        1
 62
     0
 92
       -2
340
0
 93
        0
 40
0.045
309
GRIDFORMAT_END
 95
        4
302
GRIDFORMAT
  1
GRIDFORMAT_BEGIN
 90
        0
 91
        1
 62
     0
 92
       -2
340
0
 93
        0
 40
0.045
309
GRIDFORMAT_END
 95
        8
302
GRIDFORMAT
  1
GRIDFORMAT_BEGIN
 90
        0
 91
        1
 62
     0
 92
       -2
340
0
 93
        0
 40
0.045
309
GRIDFORMAT_END
 95
       16
302
GRIDFORMAT
  1
GRIDFORMAT_BEGIN
 90
        0
 91
        1
 62
     0
 92
       -2
340
0
 93
        0
 40
0.045
309
GRIDFORMAT_END
 95
       32
302
GRIDFORMAT
  1
GRIDFORMAT_BEGIN
 90
        0
 91
        1
 62
     0
 92
       -2
340
0
 93
        0
 40
0.045
309
GRIDFORMAT_END
309
TABLEFORMAT_END
  1
CELLSTYLE_BEGIN
 90
        2
 91
        1
300
_HEADER
309
CELLSTYLE_END
300
CELLSTYLE
  1
TABLEFORMAT_BEGIN
 90
        5
170
     1
 91
        0
 92
        0
 62
   257
 93
        1
300
CONTENTFORMAT
  1
CONTENTFORMAT_BEGIN
 90
        0
 91
        0
 92
        4
 93
        0
300

 40
0.0
140
1.0
 94
        2
 62
     0
340
17
144
4.5
309
CONTENTFORMAT_END
171
     1
301
MARGIN
  1
CELLMARGIN_BEGIN
 40
0.06
 40
0.06
 40
0.06
 40
0.06
 40
0.18
 40
0.18
309
CELLMARGIN_END
 94
        6
 95
        1
302
GRIDFORMAT
  1
GRIDFORMAT_BEGIN
 90
        0
 91
        1
 62
     0
 92
       -2
340
0
 93
        0
 40
0.045
309
GRIDFORMAT_END
 95
        2
302
GRIDFORMAT
  1
GRIDFORMAT_BEGIN
 90
        0
 91
        1
 62
     0
 92
       -2
340
0
 93
        0
 40
0.045
309
GRIDFORMAT_END
 95
        4
302
GRIDFORMAT
  1
GRIDFORMAT_BEGIN
 90
        0
 91
        1
 62
     0
 92
       -2
340
0
 93
        0
 40
0.045
309
GRIDFORMAT_END
 95
        8
302
GRIDFORMAT
  1
GRIDFORMAT_BEGIN
 90
        0
 91
        1
 62
     0
 92
       -2
340
0
 93
        0
 40
0.045
309
GRIDFORMAT_END
 95
       16
302
GRIDFORMAT
  1
GRIDFORMAT_BEGIN
 90
        0
 91
        1
 62
     0
 92
       -2
340
0
 93
        0
 40
0.045
309
GRIDFORMAT_END
 95
       32
302
GRIDFORMAT
  1
GRIDFORMAT_BEGIN
 90
        0
 91
        1
 62
     0
 92
       -2
340
0
 93
        0
 40
0.045
309
GRIDFORMAT_END
309
TABLEFORMAT_END
  1
CELLSTYLE_BEGIN
 90
        3
 91
        2
300
_DATA
309
CELLSTYLE_END
  0
ENDSEC
  0
EOF
