  0
SECTION
  2
HEADER
  9
$ACADVER
  1
AC1021
  9
$ACADMAINTVER
 70
    25
  9
$DWGCODEPAGE
  3
ANSI_932
  9
$LASTSAVEDBY
  1
howeNelson
  9
$INSBASE
 10
0.0
 20
0.0
 30
0.0
  9
$EXTMIN
 10
0.0
 20
0.0
 30
0.0
  9
$EXTMAX
 10
593.9999999999998
 20
420.0
 30
0.0
  9
$LIMMIN
 10
0.0
 20
0.0
  9
$LIMMAX
 10
594.0
 20
419.9999999999996
  9
$ORTHOMODE
 70
     0
  9
$REGENMODE
 70
     1
  9
$FILLMODE
 70
     1
  9
$QTEXTMODE
 70
     0
  9
$MIRRTEXT
 70
     1
  9
$LTSCALE
 40
2.0
  9
$ATTMODE
 70
     1
  9
$TEXTSIZE
 40
2.5
  9
$TRACEWID
 40
1.0
  9
$TEXTSTYLE
  7
ＭＳ ゴシック
  9
$CLAYER
  8
DIM
  9
$CELTYPE
  6
Continuous
  9
$CECOLOR
 62
   256
  9
$CELTSCALE
 40
1.0
  9
$DISPSILH
 70
     0
  9
$DIMSCALE
 40
1.0
  9
$DIMASZ
 40
1.5
  9
$DIMEXO
 40
5.0
  9
$DIMDLI
 40
0.9999999999999999
  9
$DIMRND
 40
0.0
  9
$DIMDLE
 40
0.0
  9
$DIMEXE
 40
0.0
  9
$DIMTP
 40
0.0
  9
$DIMTM
 40
0.0
  9
$DIMTXT
 40
5.0
  9
$DIMCEN
 40
0.0
  9
$DIMTSZ
 40
0.0
  9
$DIMTOL
 70
     0
  9
$DIMLIM
 70
     0
  9
$DIMTIH
 70
     0
  9
$DIMTOH
 70
     0
  9
$DIMSE1
 70
     0
  9
$DIMSE2
 70
     0
  9
$DIMTAD
 70
     1
  9
$DIMZIN
 70
    11
  9
$DIMBLK
  1
DOT
  9
$DIMASO
 70
     1
  9
$DIMSHO
 70
     1
  9
$DIMPOST
  1
<>
  9
$DIMAPOST
  1
[]
  9
$DIMALT
 70
     0
  9
$DIMALTD
 70
     1
  9
$DIMALTF
 40
1.0
  9
$DIMLFAC
 40
1.0
  9
$DIMTOFL
 70
     0
  9
$DIMTVP
 40
0.0
  9
$DIMTIX
 70
     1
  9
$DIMSOXD
 70
     0
  9
$DIMSAH
 70
     0
  9
$DIMBLK1
  1

  9
$DIMBLK2
  1

  9
$DIMSTYLE
  2
tfrom線あり
  9
$DIMCLRD
 70
     0
  9
$DIMCLRE
 70
     0
  9
$DIMCLRT
 70
     0
  9
$DIMTFAC
 40
1.0
  9
$DIMGAP
 40
2.0
  9
$DIMJUST
 70
     0
  9
$DIMSD1
 70
     0
  9
$DIMSD2
 70
     0
  9
$DIMTOLJ
 70
     1
  9
$DIMTZIN
 70
    11
  9
$DIMALTZ
 70
    11
  9
$DIMALTTZ
 70
    11
  9
$DIMUPT
 70
     0
  9
$DIMDEC
 70
     0
  9
$DIMTDEC
 70
     1
  9
$DIMALTU
 70
     2
  9
$DIMALTTD
 70
     2
  9
$DIMTXSTY
  7
ＭＳ ゴシック
  9
$DIMAUNIT
 70
     0
  9
$DIMADEC
 70
     2
  9
$DIMALTRND
 40
0.0
  9
$DIMAZIN
 70
     0
  9
$DIMDSEP
 70
    46
  9
$DIMATFIT
 70
     0
  9
$DIMFRAC
 70
     2
  9
$DIMLDRBLK
  1
DOT
  9
$DIMLUNIT
 70
     2
  9
$DIMLWD
 70
    -2
  9
$DIMLWE
 70
    -2
  9
$DIMTMOVE
 70
     0
  9
$DIMFXL
 40
1.0
  9
$DIMFXLON
 70
     0
  9
$DIMJOGANG
 40
0.7853981633974483
  9
$DIMTFILL
 70
     0
  9
$DIMTFILLCLR
 70
     0
  9
$DIMARCSYM
 70
     0
  9
$DIMLTYPE
  6

  9
$DIMLTEX1
  6

  9
$DIMLTEX2
  6

  9
$LUNITS
 70
     2
  9
$LUPREC
 70
     0
  9
$SKETCHINC
 40
0.1
  9
$FILLETRAD
 40
0.0
  9
$AUNITS
 70
     0
  9
$AUPREC
 70
     0
  9
$MENU
  1
acad
  9
$ELEVATION
 40
0.0
  9
$PELEVATION
 40
0.0
  9
$THICKNESS
 40
0.0
  9
$LIMCHECK
 70
     0
  9
$CHAMFERA
 40
0.0
  9
$CHAMFERB
 40
0.0
  9
$CHAMFERC
 40
0.0
  9
$CHAMFERD
 40
0.0
  9
$SKPOLY
 70
     0
  9
$TDCREATE
 40
2447893.375
  9
$TDUCREATE
 40
0.0
  9
$TDUPDATE
 40
2457623.584852465
  9
$TDUUPDATE
 40
2457623.209852465
  9
$TDINDWG
 40
0.0
  9
$TDUSRTIMER
 40
0.0
  9
$USRTIMER
 70
     1
  9
$ANGBASE
 50
0.0
  9
$ANGDIR
 70
     0
  9
$PDMODE
 70
     1
  9
$PDSIZE
 40
-2.0
  9
$PLINEWID
 40
0.0
  9
$SPLFRAME
 70
     0
  9
$SPLINETYPE
 70
     6
  9
$SPLINESEGS
 70
     8
  9
$HANDSEED
  5
62B2
  9
$SURFTAB1
 70
     6
  9
$SURFTAB2
 70
     6
  9
$SURFTYPE
 70
     6
  9
$SURFU
 70
     6
  9
$SURFV
 70
     6
  9
$UCSBASE
  2

  9
$UCSNAME
  2

  9
$UCSORG
 10
0.0
 20
0.0
 30
0.0
  9
$UCSXDIR
 10
1.0
 20
0.0
 30
0.0
  9
$UCSYDIR
 10
0.0
 20
1.0
 30
0.0
  9
$UCSORTHOREF
  2

  9
$UCSORTHOVIEW
 70
     0
  9
$UCSORGTOP
 10
0.0
 20
0.0
 30
0.0
  9
$UCSORGBOTTOM
 10
0.0
 20
0.0
 30
0.0
  9
$UCSORGLEFT
 10
0.0
 20
0.0
 30
0.0
  9
$UCSORGRIGHT
 10
0.0
 20
0.0
 30
0.0
  9
$UCSORGFRONT
 10
0.0
 20
0.0
 30
0.0
  9
$UCSORGBACK
 10
0.0
 20
0.0
 30
0.0
  9
$PUCSBASE
  2

  9
$PUCSNAME
  2

  9
$PUCSORG
 10
0.0
 20
0.0
 30
0.0
  9
$PUCSXDIR
 10
1.0
 20
0.0
 30
0.0
  9
$PUCSYDIR
 10
0.0
 20
1.0
 30
0.0
  9
$PUCSORTHOREF
  2

  9
$PUCSORTHOVIEW
 70
     0
  9
$PUCSORGTOP
 10
0.0
 20
0.0
 30
0.0
  9
$PUCSORGBOTTOM
 10
0.0
 20
0.0
 30
0.0
  9
$PUCSORGLEFT
 10
0.0
 20
0.0
 30
0.0
  9
$PUCSORGRIGHT
 10
0.0
 20
0.0
 30
0.0
  9
$PUCSORGFRONT
 10
0.0
 20
0.0
 30
0.0
  9
$PUCSORGBACK
 10
0.0
 20
0.0
 30
0.0
  9
$USERI1
 70
     0
  9
$USERI2
 70
     0
  9
$USERI3
 70
     0
  9
$USERI4
 70
     0
  9
$USERI5
 70
     0
  9
$USERR1
 40
0.0
  9
$USERR2
 40
0.0
  9
$USERR3
 40
0.0
  9
$USERR4
 40
0.0
  9
$USERR5
 40
0.0
  9
$WORLDVIEW
 70
     1
  9
$SHADEDGE
 70
     3
  9
$SHADEDIF
 70
    70
  9
$TILEMODE
 70
     1
  9
$MAXACTVP
 70
    64
  9
$PINSBASE
 10
0.0
 20
0.0
 30
0.0
  9
$PLIMCHECK
 70
     0
  9
$PEXTMIN
 10
0.0
 20
0.0
 30
0.0
  9
$PEXTMAX
 10
0.0
 20
0.0
 30
0.0
  9
$PLIMMIN
 10
-95.87226993865028
 20
-25.69999999999999
  9
$PLIMMAX
 10
201.1277300613497
 20
184.3
  9
$UNITMODE
 70
     0
  9
$VISRETAIN
 70
     0
  9
$PLINEGEN
 70
     1
  9
$PSLTSCALE
 70
     1
  9
$TREEDEPTH
 70
  3020
  9
$CMLSTYLE
  2
Standard
  9
$CMLJUST
 70
     0
  9
$CMLSCALE
 40
1.0
  9
$PROXYGRAPHICS
 70
     0
  9
$MEASUREMENT
 70
     1
  9
$CELWEIGHT
370
     0
  9
$ENDCAPS
280
     0
  9
$JOINSTYLE
280
     0
  9
$LWDISPLAY
290
     1
  9
$INSUNITS
 70
     4
  9
$HYPERLINKBASE
  1

  9
$STYLESHEET
  1

  9
$XEDIT
290
     1
  9
$CEPSNTYPE
380
     0
  9
$PSTYLEMODE
290
     1
  9
$FINGERPRINTGUID
  2

  9
$VERSIONGUID
  2

  9
$EXTNAMES
290
     1
  9
$PSVPSCALE
 40
0.0
  9
$OLESTARTUP
290
     0
  9
$SORTENTS
280
   127
  9
$INDEXCTL
280
     0
  9
$HIDETEXT
280
     1
  9
$XCLIPFRAME
290
     0
  9
$HALOGAP
280
     0
  9
$OBSCOLOR
 70
   257
  9
$OBSLTYPE
280
     0
  9
$INTERSECTIONDISPLAY
280
     0
  9
$INTERSECTIONCOLOR
 70
   257
  9
$DIMASSOC
280
     2
  9
$PROJECTNAME
  1

  9
$CAMERADISPLAY
290
     0
  9
$LENSLENGTH
 40
50.0
  9
$CAMERAHEIGHT
 40
0.0
  9
$STEPSPERSEC
 40
2.0
  9
$STEPSIZE
 40
6.0
  9
$3DDWFPREC
 40
2.0
  9
$PSOLWIDTH
 40
0.25
  9
$PSOLHEIGHT
 40
4.0
  9
$LOFTANG1
 40
1.570796326794897
  9
$LOFTANG2
 40
1.570796326794897
  9
$LOFTMAG1
 40
0.0
  9
$LOFTMAG2
 40
0.0
  9
$LOFTPARAM
 70
     7
  9
$LOFTNORMALS
280
     1
  9
$LATITUDE
 40
37.795
  9
$LONGITUDE
 40
-122.394
  9
$NORTHDIRECTION
 40
0.0
  9
$TIMEZONE
 70
 -8000
  9
$LIGHTGLYPHDISPLAY
280
     1
  9
$TILEMODELIGHTSYNCH
280
     1
  9
$SOLIDHIST
280
     1
  9
$SHOWHIST
280
     1
  9
$DWFFRAME
280
     2
  9
$DGNFRAME
280
     2
  9
$REALWORLDSCALE
290
     1
  9
$INTERFERECOLOR
 62
   256
  9
$CSHADOW
280
     0
  9
$SHADOWPLANELOCATION
 40
0.0
  0
ENDSEC
  0
SECTION
  2
CLASSES
  0
CLASS
  1
LWPOLYLINE
  2
AcDbPolyline
  3
ObjectDBX Classes
 90
        0
 91
        1
280
     0
281
     1
  0
CLASS
  1
IMAGE
  2
AcDbRasterImage
  3
ISM
 90
      127
 91
       41
280
     0
281
     1
  0
CLASS
  1
OLE2FRAME
  2
AcDbOle2Frame
  3
ObjectDBX Classes
 90
        0
 91
        1
280
     0
281
     1
  0
CLASS
  1
HATCH
  2
AcDbHatch
  3
ObjectDBX Classes
 90
        0
 91
        1
280
     0
281
     1
  0
CLASS
  1
DICTIONARYVAR
  2
AcDbDictionaryVar
  3
ObjectDBX Classes
 90
        0
 91
       40
280
     0
281
     0
  0
CLASS
  1
RASTERVARIABLES
  2
AcDbRasterVariables
  3
ISM
 90
        0
 91
       40
280
     0
281
     0
  0
CLASS
  1
IMAGEDEF
  2
AcDbRasterImageDef
  3
ISM
 90
        0
 91
       40
280
     0
281
     0
  0
CLASS
  1
IMAGEDEF_REACTOR
  2
AcDbRasterImageDefReactor
  3
ISM
 90
        1
 91
       40
280
     0
281
     0
  0
CLASS
  1
IDBUFFER
  2
AcDbIdBuffer
  3
ObjectDBX Classes
 90
        0
 91
       40
280
     0
281
     0
  0
CLASS
  1
SPATIAL_FILTER
  2
AcDbSpatialFilter
  3
ObjectDBX Classes
 90
        0
 91
       40
280
     0
281
     0
  0
CLASS
  1
XRECORD
  2
AcDbXrecord
  3
ObjectDBX Classes
 90
        0
 91
        1
280
     0
281
     0
  0
CLASS
  1
SORTENTSTABLE
  2
AcDbSortentsTable
  3
ObjectDBX Classes
 90
        0
 91
       40
280
     0
281
     0
  0
CLASS
  1
LAYER_INDEX
  2
AcDbLayerIndex
  3
ObjectDBX Classes
 90
        0
 91
       40
280
     0
281
     0
  0
CLASS
  1
SPATIAL_INDEX
  2
AcDbSpatialIndex
  3
AutoCAD 2000
 90
        0
 91
       40
280
     0
281
     0
  0
CLASS
  1
OBJECT_PTR
  2
CAseDLPNTableRecord
  3
ASE-LPNTableRecord
 90
        1
 91
       40
280
     0
281
     0
  0
CLASS
  1
LAYOUT
  2
AcDbLayout
  3
ObjectDBX Classes
 90
        0
 91
        1
280
     0
281
     0
  0
CLASS
  1
PLOTSETTINGS
  2
AcDbPlotSettings
  3
ObjectDBX Classes
 90
        0
 91
       40
280
     0
281
     0
  0
CLASS
  1
ACDBDICTIONARYWDFLT
  2
AcDbDictionaryWithDefault
  3
ObjectDBX Classes
 90
        0
 91
       40
280
     0
281
     0
  0
CLASS
  1
ACDBPLACEHOLDER
  2
AcDbPlaceHolder
  3
ObjectDBX Classes
 90
        0
 91
        1
280
     0
281
     0
  0
CLASS
  1
SCALE
  2
AcDbScale
  3
ObjectDBX Classes
 90
     1153
 91
       40
280
     0
281
     0
  0
CLASS
  1
MATERIAL
  2
AcDbMaterial
  3
ObjectDBX Classes
 90
     1153
 91
       40
280
     0
281
     0
  0
CLASS
  1
VISUALSTYLE
  2
AcDbVisualStyle
  3
ObjectDBX Classes
 90
     4095
 91
       40
280
     0
281
     0
  0
CLASS
  1
TABLESTYLE
  2
AcDbTableStyle
  3
ObjectDBX Classes
 90
     4095
 91
       40
280
     0
281
     0
  0
CLASS
  1
DIMASSOC
  2
AcDbDimAssoc
  3
"AcDbDimAssoc|Product Desc:     AcDim ARX App For Dimension|Company:          Autodesk, Inc.|WEB Address:      www.autodesk.com"
 90
        0
 91
       40
280
     0
281
     0
  0
CLASS
  1
CELLSTYLEMAP
  2
AcDbCellStyleMap
  3
ObjectDBX Classes
 90
     1152
 91
       40
280
     0
281
     0
  0
CLASS
  1
SUN
  2
AcDbSun
  3
SCENEOE
 90
     1153
 91
       40
280
     0
281
     0
  0
CLASS
  1
MLEADERSTYLE
  2
AcDbMLeaderStyle
  3
ACDB_MLEADERSTYLE_CLASS
 90
     4095
 91
       40
280
     0
281
     0
  0
ENDSEC
  0
SECTION
  2
TABLES
  0
TABLE
  2
VPORT
  5
7
330
0
100
AcDbSymbolTable
 70
     1
  0
VPORT
  5
15
330
7
100
AcDbSymbolTableRecord
100
AcDbViewportTableRecord
  2
*ACTIVE
 70
     0
 10
0.0
 20
0.0
 11
1.0
 21
1.0
 12
296.9999999999999
 22
210.0
 13
0.0
 23
0.0
 14
1.0
 24
1.0
 15
0.0
 25
0.0
 16
0.0
 26
0.0
 36
1.0
 17
0.0
 27
0.0
 37
0.0
 40
428.4000000000003
 41
2.432944606413994
 42
50.0
 43
0.0
 44
0.0
 50
0.0
 51
0.0
 71
    16
 72
  2000
 73
     1
 74
     1
 75
     0
 76
     0
 77
     0
 78
     0
281
     0
 65
     1
110
0.0
120
0.0
130
0.0
111
1.0
121
0.0
131
0.0
112
0.0
122
1.0
132
0.0
 79
     0
146
0.0
348
26C
 60
     3
 61
     5
292
     1
282
     1
141
0.0
142
0.0
 63
   256
361
F1A
  0
ENDTAB
  0
TABLE
  2
LTYPE
  5
4
330
0
100
AcDbSymbolTable
 70
     7
  0
LTYPE
  5
11
330
4
100
AcDbSymbolTableRecord
100
AcDbLinetypeTableRecord
  2
ByBlock
 70
     0
  3

 72
    65
 73
     0
 40
0.0
  0
LTYPE
  5
12
330
4
100
AcDbSymbolTableRecord
100
AcDbLinetypeTableRecord
  2
ByLayer
 70
     0
  3
Solid line
 72
    65
 73
     0
 40
0.0
  0
LTYPE
  5
13
330
4
100
AcDbSymbolTableRecord
100
AcDbLinetypeTableRecord
  2
Continuous
 70
     0
  3
Solid line
 72
    65
 73
     0
 40
0.0
  0
LTYPE
  5
3A
330
4
100
AcDbSymbolTableRecord
100
AcDbLinetypeTableRecord
  2
STYLE_01
 70
     0
  3

 72
    65
 73
     2
 40
0.2460629921259842
 49
0.1230314960629921
 74
     0
 49
-0.1230314960629921
 74
     0
  0
LTYPE
  5
3B
330
4
100
AcDbSymbolTableRecord
100
AcDbLinetypeTableRecord
  2
STYLE_02
 70
     0
  3

 72
    65
 73
     2
 40
0.6944250000000001
 49
0.48607
 74
     0
 49
-0.2083550000000001
 74
     0
  0
LTYPE
  5
90E
330
4
100
AcDbSymbolTableRecord
100
AcDbLinetypeTableRecord
  2
DASHED1
 70
     0
  3
--  --  --  --  --  --  --  --  
 72
    65
 73
     2
 40
2.5
 49
1.25
 74
     0
 49
-1.25
 74
     0
  0
LTYPE
  5
51AF
330
4
100
AcDbSymbolTableRecord
100
AcDbLinetypeTableRecord
  2
DASHED2
 70
     0
  3
----    ----    ----    ----    
 72
    65
 73
     2
 40
5.0
 49
2.5
 74
     0
 49
-2.5
 74
     0
  0
LTYPE
  5
57B4
330
4
100
AcDbSymbolTableRecord
100
AcDbLinetypeTableRecord
  2
CENTER
 70
     0
  3
----------  --  ----------  --  
 72
    65
 73
     4
 40
20.0
 49
12.5
 74
     0
 49
-2.5
 74
     0
 49
2.5
 74
     0
 49
-2.5
 74
     0
  0
LTYPE
  5
57B5
330
4
100
AcDbSymbolTableRecord
100
AcDbLinetypeTableRecord
  2
HIDDEN
 70
     0
  3
Hidden _ _ _ _ _ _ _ _ _ _ _ _ _ _ _ _ _ _ _ _ 
 72
    65
 73
     2
 40
9.524999999999999
 49
6.35
 74
     0
 49
-3.175
 74
     0
  0
ENDTAB
  0
TABLE
  2
LAYER
  5
2
102
{ACAD_XDICTIONARY
360
2E1
102
}
330
0
100
AcDbSymbolTable
 70
    14
  0
LAYER
  5
14
330
2
100
AcDbSymbolTableRecord
100
AcDbLayerTableRecord
  2
0
 70
     0
 62
    -7
  6
Continuous
370
    -3
390
1D
347
266
  0
LAYER
  5
4A
330
2
100
AcDbSymbolTableRecord
100
AcDbLayerTableRecord
  2
Defpoints
 70
     0
 62
    -7
  6
Continuous
290
     0
370
    -3
390
1D
347
266
  0
LAYER
  5
4D
330
2
100
AcDbSymbolTableRecord
100
AcDbLayerTableRecord
  2
MODEL
 70
     0
 62
     7
  6
Continuous
370
    20
390
1D
347
266
  0
LAYER
  5
667
330
2
100
AcDbSymbolTableRecord
100
AcDbLayerTableRecord
  2
レイヤー 1
 70
     0
 62
     7
  6
Continuous
370
    -3
390
1D
347
266
  0
LAYER
  5
13AF
330
2
100
AcDbSymbolTableRecord
100
AcDbLayerTableRecord
  2
DIM
 70
     0
 62
     7
  6
Continuous
370
    13
390
1D
347
266
1001
AcAecLayerStandard
1000

1000

  0
LAYER
  5
4598
330
2
100
AcDbSymbolTableRecord
100
AcDbLayerTableRecord
  2
_0-1_
 70
     0
 62
     7
  6
Continuous
370
    -3
390
1D
347
266
  0
LAYER
  5
57A9
330
2
100
AcDbSymbolTableRecord
100
AcDbLayerTableRecord
  2
寸法
 70
     0
 62
     7
  6
Continuous
370
    13
390
1D
347
266
1001
AcAecLayerStandard
1000

1000

  0
LAYER
  5
57AC
330
2
100
AcDbSymbolTableRecord
100
AcDbLayerTableRecord
  2
モデル
 70
     0
 62
     7
  6
Continuous
370
    20
390
1D
347
266
1001
AcAecLayerStandard
1000

1000

  0
LAYER
  5
57AD
330
2
100
AcDbSymbolTableRecord
100
AcDbLayerTableRecord
  2
テンプレート
 70
     0
 62
     7
  6
Continuous
370
    20
390
1D
347
266
1001
AcAecLayerStandard
1000

1000

  0
LAYER
  5
57AE
330
2
100
AcDbSymbolTableRecord
100
AcDbLayerTableRecord
  2
TFORMLOGO
 70
     0
 62
     7
  6
Continuous
370
    20
390
1D
347
266
  0
LAYER
  5
57AF
330
2
100
AcDbSymbolTableRecord
100
AcDbLayerTableRecord
  2
PRINT BORDER
 70
     0
 62
     4
  6
Continuous
290
     0
370
    -3
390
1D
347
266
1001
AcAecLayerStandard
1000

1000

  0
LAYER
  5
57B0
330
2
100
AcDbSymbolTableRecord
100
AcDbLayerTableRecord
  2
SPACER
 70
     0
 62
    -3
  6
Continuous
290
     0
370
    -3
390
1D
347
266
1001
AcAecLayerStandard
1000

1000

  0
LAYER
  5
57B2
330
2
100
AcDbSymbolTableRecord
100
AcDbLayerTableRecord
  2
CutoutUnderlay
 70
     0
 62
   254
  6
Continuous
370
    20
390
1D
347
266
1001
AcAecLayerStandard
1000

1000

  0
LAYER
  5
57B3
330
2
100
AcDbSymbolTableRecord
100
AcDbLayerTableRecord
  2
CutoutOverlay
 70
     0
 62
     7
  6
Continuous
370
    20
390
1D
347
266
1001
AcAecLayerStandard
1000

1000

  0
ENDTAB
  0
TABLE
  2
STYLE
  5
3
330
0
100
AcDbSymbolTable
 70
     2
  0
STYLE
  5
17
330
3
100
AcDbSymbolTableRecord
100
AcDbTextStyleTableRecord
  2
Standard
 70
     0
 40
0.0
 41
1.0
 50
0.0
 71
     0
 42
2.5
  3
txt
  4
BIGFONT.SHX
  0
STYLE
  5
39
330
3
100
AcDbSymbolTableRecord
100
AcDbTextStyleTableRecord
  2
ＭＳ ゴシック
 70
     0
 40
0.0
 41
1.0
 50
0.0
 71
     0
 42
2.5
  3
msgothic.ttc
  4
ＭＳ ゴシック
1001
ACAD
1000
ＭＳ ゴシック
1071
        0
  0
ENDTAB
  0
TABLE
  2
VIEW
  5
5
330
0
100
AcDbSymbolTable
 70
     0
  0
ENDTAB
  0
TABLE
  2
UCS
  5
6
330
0
100
AcDbSymbolTable
 70
     0
  0
ENDTAB
  0
TABLE
  2
APPID
  5
8
330
0
100
AcDbSymbolTable
 70
     3
  0
APPID
  5
16
330
8
100
AcDbSymbolTableRecord
100
AcDbRegAppTableRecord
  2
ACAD
 70
     0
  0
APPID
  5
7AC
330
8
100
AcDbSymbolTableRecord
100
AcDbRegAppTableRecord
  2
AcAecLayerStandard
 70
     0
  0
APPID
  5
62A8
330
8
100
AcDbSymbolTableRecord
100
AcDbRegAppTableRecord
  2
ACAD_MLEADERVER
 70
     0
  0
ENDTAB
  0
TABLE
  2
DIMSTYLE
  5
9
330
0
100
AcDbSymbolTable
 70
     2
100
AcDbDimStyleTable
  0
DIMSTYLE
105
18
330
9
100
AcDbSymbolTableRecord
100
AcDbDimStyleTableRecord
  2
Standard
 70
     0
178
     0
340
17
  0
DIMSTYLE
105
57
102
{ACAD_REACTORS
330
4A6C
330
4A99
330
4AD2
330
4EF1
330
52BD
330
5E94
330
5E95
330
5E96
330
5FF8
330
617E
330
623D
330
6243
102
}
330
9
100
AcDbSymbolTableRecord
100
AcDbDimStyleTableRecord
  2
tfrom線あり
 70
     0
  3
<>
  4
[]
 41
1.5
 42
5.0
 43
0.9999999999999999
 44
0.0
 73
     0
 74
     0
 77
     1
 78
    11
140
5.0
141
0.0
143
1.0
147
2.0
171
     1
174
     1
178
     0
179
     2
271
     0
272
     1
276
     2
284
    11
285
    11
286
    11
289
     0
340
39
341
4E
342
4E
  0
ENDTAB
  0
TABLE
  2
BLOCK_RECORD
  5
1
330
0
100
AcDbSymbolTable
 70
    53
  0
BLOCK_RECORD
  5
A
330
1
100
AcDbSymbolTableRecord
100
AcDbBlockTableRecord
  2
*MODEL_SPACE
340
20
 70
     0
280
     1
281
     0
  0
BLOCK_RECORD
  5
B
330
1
100
AcDbSymbolTableRecord
100
AcDbBlockTableRecord
  2
*PAPER_SPACE
340
21
 70
     0
280
     1
281
     0
  0
BLOCK_RECORD
  5
4E
330
1
100
AcDbSymbolTableRecord
100
AcDbBlockTableRecord
  2
_DOT
340
0
102
{BLKREFS
331
4A75
331
4A76
331
4AA2
331
4AA3
331
4ADB
331
4ADC
331
4CB4
331
4CB5
331
4EFA
331
4EFB
331
52C6
331
52C7
331
5834
331
5835
331
583E
331
583F
331
584B
331
584C
331
5858
331
5859
331
5867
331
5868
331
58C3
331
58C4
331
58F8
331
58F9
331
5904
331
5905
331
5911
331
5912
331
599C
331
599D
331
5B04
331
5B05
331
5B10
331
5B11
331
5C6A
331
5C6B
331
5C77
331
5C78
331
5C84
331
5C85
331
5C91
331
5C92
331
5CA0
331
5CA1
331
5CFC
331
5CFD
331
5D31
331
5D32
331
5D3D
331
5D3E
331
5D4A
331
5D4B
331
5DD5
331
5DD6
331
5F3B
331
5F3C
331
5F47
331
5F48
331
5F53
331
5F54
331
5F5F
331
5F60
331
5F6B
331
5F6C
331
5F77
331
5F78
331
5F84
331
5F85
331
5F8F
331
5F90
331
5F9B
331
5F9C
331
5FA7
331
5FA8
331
5FEC
331
5FED
331
6001
331
6002
331
6174
331
6175
331
6186
331
6187
331
6217
331
6218
331
6229
331
622A
331
6255
331
6256
331
6261
331
6262
102
}
 70
     0
280
     1
281
     0
  0
BLOCK_RECORD
  5
690
330
1
100
AcDbSymbolTableRecord
100
AcDbBlockTableRecord
  2
block 3
340
0
102
{BLKREFS
331
57F6
102
}
 70
     0
280
     1
281
     0
  0
BLOCK_RECORD
  5
693
330
1
100
AcDbSymbolTableRecord
100
AcDbBlockTableRecord
  2
block 4
340
0
102
{BLKREFS
331
692
102
}
 70
     0
280
     1
281
     0
  0
BLOCK_RECORD
  5
6A2
330
1
100
AcDbSymbolTableRecord
100
AcDbBlockTableRecord
  2
block 5
340
0
102
{BLKREFS
331
6A1
102
}
 70
     0
280
     1
281
     0
  0
BLOCK_RECORD
  5
4A6F
330
1
100
AcDbSymbolTableRecord
100
AcDbBlockTableRecord
  2
*D4
340
0
 70
     0
280
     1
281
     0
  0
BLOCK_RECORD
  5
4A9C
330
1
100
AcDbSymbolTableRecord
100
AcDbBlockTableRecord
  2
*D5
340
0
 70
     0
280
     1
281
     0
  0
BLOCK_RECORD
  5
4AD5
330
1
100
AcDbSymbolTableRecord
100
AcDbBlockTableRecord
  2
*D6
340
0
 70
     0
280
     1
281
     0
  0
BLOCK_RECORD
  5
4CAE
330
1
100
AcDbSymbolTableRecord
100
AcDbBlockTableRecord
  2
*D7
340
0
 70
     0
280
     1
281
     0
  0
BLOCK_RECORD
  5
4EF4
330
1
100
AcDbSymbolTableRecord
100
AcDbBlockTableRecord
  2
*D8
340
0
 70
     0
280
     1
281
     0
  0
BLOCK_RECORD
  5
523E
330
1
100
AcDbSymbolTableRecord
100
AcDbBlockTableRecord
  2
-000-LW_POLYLINE_1
340
0
102
{BLKREFS
331
52BA
102
}
 70
     0
280
     1
281
     0
  0
BLOCK_RECORD
  5
52C0
330
1
100
AcDbSymbolTableRecord
100
AcDbBlockTableRecord
  2
*D10
340
0
 70
     0
280
     1
281
     0
  0
BLOCK_RECORD
  5
57F1
330
1
100
AcDbSymbolTableRecord
100
AcDbBlockTableRecord
  2
名称未設定-1
340
0
102
{BLKREFS
331
5E03
102
}
 70
     1
280
     1
281
     0
  0
BLOCK_RECORD
  5
57F4
330
1
100
AcDbSymbolTableRecord
100
AcDbBlockTableRecord
  2
block 2
340
0
102
{BLKREFS
331
57F3
102
}
 70
     0
280
     1
281
     0
  0
BLOCK_RECORD
  5
582D
330
1
100
AcDbSymbolTableRecord
100
AcDbBlockTableRecord
  2
*D13
340
0
 70
     0
280
     1
281
     0
  0
BLOCK_RECORD
  5
5839
330
1
100
AcDbSymbolTableRecord
100
AcDbBlockTableRecord
  2
*D14
340
0
 70
     0
280
     1
281
     0
  0
BLOCK_RECORD
  5
5846
330
1
100
AcDbSymbolTableRecord
100
AcDbBlockTableRecord
  2
*D15
340
0
 70
     0
280
     1
281
     0
  0
BLOCK_RECORD
  5
5853
330
1
100
AcDbSymbolTableRecord
100
AcDbBlockTableRecord
  2
*D16
340
0
 70
     0
280
     1
281
     0
  0
BLOCK_RECORD
  5
5862
330
1
100
AcDbSymbolTableRecord
100
AcDbBlockTableRecord
  2
*D17
340
0
 70
     0
280
     1
281
     0
  0
BLOCK_RECORD
  5
58BE
330
1
100
AcDbSymbolTableRecord
100
AcDbBlockTableRecord
  2
*D18
340
0
 70
     0
280
     1
281
     0
  0
BLOCK_RECORD
  5
58F2
330
1
100
AcDbSymbolTableRecord
100
AcDbBlockTableRecord
  2
*D19
340
0
 70
     0
280
     1
281
     0
  0
BLOCK_RECORD
  5
58FF
330
1
100
AcDbSymbolTableRecord
100
AcDbBlockTableRecord
  2
*D20
340
0
 70
     0
280
     1
281
     0
  0
BLOCK_RECORD
  5
590C
330
1
100
AcDbSymbolTableRecord
100
AcDbBlockTableRecord
  2
*D21
340
0
 70
     0
280
     1
281
     0
  0
BLOCK_RECORD
  5
5997
330
1
100
AcDbSymbolTableRecord
100
AcDbBlockTableRecord
  2
*D22
340
0
 70
     0
280
     1
281
     0
  0
BLOCK_RECORD
  5
5AFE
330
1
100
AcDbSymbolTableRecord
100
AcDbBlockTableRecord
  2
*D23
340
0
 70
     0
280
     1
281
     0
  0
BLOCK_RECORD
  5
5B0A
330
1
100
AcDbSymbolTableRecord
100
AcDbBlockTableRecord
  2
*D24
340
0
 70
     0
280
     1
281
     0
  0
BLOCK_RECORD
  5
5C63
330
1
100
AcDbSymbolTableRecord
100
AcDbBlockTableRecord
  2
*D25
340
0
 70
     0
280
     1
281
     0
  0
BLOCK_RECORD
  5
5C72
330
1
100
AcDbSymbolTableRecord
100
AcDbBlockTableRecord
  2
*D26
340
0
 70
     0
280
     1
281
     0
  0
BLOCK_RECORD
  5
5C7F
330
1
100
AcDbSymbolTableRecord
100
AcDbBlockTableRecord
  2
*D27
340
0
 70
     0
280
     1
281
     0
  0
BLOCK_RECORD
  5
5C8C
330
1
100
AcDbSymbolTableRecord
100
AcDbBlockTableRecord
  2
*D28
340
0
 70
     0
280
     1
281
     0
  0
BLOCK_RECORD
  5
5C9B
330
1
100
AcDbSymbolTableRecord
100
AcDbBlockTableRecord
  2
*D29
340
0
 70
     0
280
     1
281
     0
  0
BLOCK_RECORD
  5
5CF7
330
1
100
AcDbSymbolTableRecord
100
AcDbBlockTableRecord
  2
*D30
340
0
 70
     0
280
     1
281
     0
  0
BLOCK_RECORD
  5
5D2B
330
1
100
AcDbSymbolTableRecord
100
AcDbBlockTableRecord
  2
*D31
340
0
 70
     0
280
     1
281
     0
  0
BLOCK_RECORD
  5
5D38
330
1
100
AcDbSymbolTableRecord
100
AcDbBlockTableRecord
  2
*D32
340
0
 70
     0
280
     1
281
     0
  0
BLOCK_RECORD
  5
5D45
330
1
100
AcDbSymbolTableRecord
100
AcDbBlockTableRecord
  2
*D33
340
0
 70
     0
280
     1
281
     0
  0
BLOCK_RECORD
  5
5DD0
330
1
100
AcDbSymbolTableRecord
100
AcDbBlockTableRecord
  2
*D34
340
0
 70
     0
280
     1
281
     0
  0
BLOCK_RECORD
  5
5F33
330
1
100
AcDbSymbolTableRecord
100
AcDbBlockTableRecord
  2
*D35
340
0
 70
     0
280
     1
281
     0
  0
BLOCK_RECORD
  5
5F41
330
1
100
AcDbSymbolTableRecord
100
AcDbBlockTableRecord
  2
*D36
340
0
 70
     0
280
     1
281
     0
  0
BLOCK_RECORD
  5
5F4D
330
1
100
AcDbSymbolTableRecord
100
AcDbBlockTableRecord
  2
*D37
340
0
 70
     0
280
     1
281
     0
  0
BLOCK_RECORD
  5
5F59
330
1
100
AcDbSymbolTableRecord
100
AcDbBlockTableRecord
  2
*D38
340
0
 70
     0
280
     1
281
     0
  0
BLOCK_RECORD
  5
5F65
330
1
100
AcDbSymbolTableRecord
100
AcDbBlockTableRecord
  2
*D39
340
0
 70
     0
280
     1
281
     0
  0
BLOCK_RECORD
  5
5F71
330
1
100
AcDbSymbolTableRecord
100
AcDbBlockTableRecord
  2
*D40
340
0
 70
     0
280
     1
281
     0
  0
BLOCK_RECORD
  5
5F7D
330
1
100
AcDbSymbolTableRecord
100
AcDbBlockTableRecord
  2
*D41
340
0
 70
     0
280
     1
281
     0
  0
BLOCK_RECORD
  5
5F89
330
1
100
AcDbSymbolTableRecord
100
AcDbBlockTableRecord
  2
*D42
340
0
 70
     0
280
     1
281
     0
  0
BLOCK_RECORD
  5
5F95
330
1
100
AcDbSymbolTableRecord
100
AcDbBlockTableRecord
  2
*D43
340
0
 70
     0
280
     1
281
     0
  0
BLOCK_RECORD
  5
5FA1
330
1
100
AcDbSymbolTableRecord
100
AcDbBlockTableRecord
  2
*D44
340
0
 70
     0
280
     1
281
     0
  0
BLOCK_RECORD
  5
5FE7
330
1
100
AcDbSymbolTableRecord
100
AcDbBlockTableRecord
  2
*D45
340
0
 70
     0
280
     1
281
     0
  0
BLOCK_RECORD
  5
5FFB
330
1
100
AcDbSymbolTableRecord
100
AcDbBlockTableRecord
  2
*D46
340
0
 70
     0
280
     1
281
     0
  0
BLOCK_RECORD
  5
616E
330
1
100
AcDbSymbolTableRecord
100
AcDbBlockTableRecord
  2
*D47
340
0
 70
     0
280
     1
281
     0
  0
BLOCK_RECORD
  5
617F
330
1
100
AcDbSymbolTableRecord
100
AcDbBlockTableRecord
  2
*D48
340
0
 70
     0
280
     1
281
     0
  0
BLOCK_RECORD
  5
6212
330
1
100
AcDbSymbolTableRecord
100
AcDbBlockTableRecord
  2
*D49
340
0
 70
     0
280
     1
281
     0
  0
BLOCK_RECORD
  5
6224
330
1
100
AcDbSymbolTableRecord
100
AcDbBlockTableRecord
  2
*D50
340
0
 70
     0
280
     1
281
     0
  0
BLOCK_RECORD
  5
624F
330
1
100
AcDbSymbolTableRecord
100
AcDbBlockTableRecord
  2
*D51
340
0
 70
     0
280
     1
281
     0
  0
BLOCK_RECORD
  5
625B
330
1
100
AcDbSymbolTableRecord
100
AcDbBlockTableRecord
  2
*D52
340
0
 70
     0
280
     1
281
     0
  0
ENDTAB
  0
ENDSEC
  0
SECTION
  2
BLOCKS
  0
BLOCK
  5
D
330
A
100
AcDbEntity
  8
0
390
1D
100
AcDbBlockBegin
  2
*MODEL_SPACE
 70
     0
 10
0.0
 20
0.0
 30
0.0
  3
*MODEL_SPACE
  1
*MODEL_SPACE
  0
ENDBLK
  5
E
330
A
100
AcDbEntity
  8
0
390
1D
100
AcDbBlockEnd
  0
BLOCK
  5
F
330
B
100
AcDbEntity
 67
     1
  8
0
390
1D
100
AcDbBlockBegin
  2
*PAPER_SPACE
 70
     0
 10
0.0
 20
0.0
 30
0.0
  3
*PAPER_SPACE
  1
*PAPER_SPACE
  0
ENDBLK
  5
10
330
B
100
AcDbEntity
 67
     1
  8
0
390
1D
100
AcDbBlockEnd
  0
BLOCK
  5
5F2A
330
4E
100
AcDbEntity
  8
0
390
1D
100
AcDbBlockBegin
  2
_DOT
 70
     0
 10
0.0
 20
0.0
 30
0.0
  3
_DOT
  1
_DOT
  0
POLYLINE
  5
5F2C
330
4E
100
AcDbEntity
  8
0
  6
ByBlock
 62
     0
370
    -2
390
1D
100
AcDb2dPolyline
 66
     1
 10
0.0
 20
0.0
 30
0.0
 70
     1
 40
0.5
 41
0.5
  0
VERTEX
  5
5F2D
330
5F2C
100
AcDbEntity
  8
0
  6
ByBlock
 62
     0
370
    -2
390
1D
100
AcDbVertex
100
AcDb2dVertex
 10
-0.25
 20
0.0
 30
0.0
 42
1.0
  0
VERTEX
  5
5F2E
330
5F2C
100
AcDbEntity
  8
0
  6
ByBlock
 62
     0
370
    -2
390
1D
100
AcDbVertex
100
AcDb2dVertex
 10
0.25
 20
0.0
 30
0.0
 42
1.0
  0
SEQEND
  5
5F2F
330
5F2C
100
AcDbEntity
  8
0
390
1D
  0
LINE
  5
5F30
330
4E
100
AcDbEntity
  8
0
  6
ByBlock
 62
     0
370
    -2
390
1D
100
AcDbLine
 10
-0.5
 20
0.0
 30
0.0
 11
-1.0
 21
0.0
 31
0.0
  0
ENDBLK
  5
5F31
330
4E
100
AcDbEntity
  8
0
390
1D
100
AcDbBlockEnd
  0
BLOCK
  5
691
330
690
100
AcDbEntity
  8
0
100
AcDbBlockBegin
  2
block 3
 70
     0
 10
0.0
 20
0.0
 30
0.0
  3
block 3
  1
block 3
  0
INSERT
  5
692
330
690
100
AcDbEntity
  8
レイヤー 1
100
AcDbBlockReference
  2
block 4
 10
0.0
 20
0.0
 30
0.0
  0
ENDBLK
  5
6AF
330
690
100
AcDbEntity
  8
0
100
AcDbBlockEnd
  0
BLOCK
  5
694
330
693
100
AcDbEntity
  8
0
100
AcDbBlockBegin
  2
block 4
 70
     0
 10
0.0
 20
0.0
 30
0.0
  3
block 4
  1
block 4
  0
POLYLINE
  5
695
330
693
100
AcDbEntity
  8
レイヤー 1
370
     0
100
AcDb2dPolyline
 66
     1
 10
0.0
 20
0.0
 30
0.0
  0
VERTEX
  5
696
330
695
100
AcDbEntity
  8
レイヤー 1
370
     0
100
AcDbVertex
100
AcDb2dVertex
 10
83.79545727667795
 20
167.6444858234922
 30
0.0
  0
VERTEX
  5
697
330
695
100
AcDbEntity
  8
レイヤー 1
370
     0
100
AcDbVertex
100
AcDb2dVertex
 10
83.79545727667795
 20
159.7968976406313
 30
0.0
  0
VERTEX
  5
698
330
695
100
AcDbEntity
  8
レイヤー 1
370
     0
100
AcDbVertex
100
AcDb2dVertex
 10
71.3631329975216
 20
159.7968976406313
 30
0.0
  0
VERTEX
  5
699
330
695
100
AcDbEntity
  8
レイヤー 1
370
     0
100
AcDbVertex
100
AcDb2dVertex
 10
71.3631329975216
 20
127.8027915271048
 30
0.0
  0
VERTEX
  5
69A
330
695
100
AcDbEntity
  8
レイヤー 1
370
     0
100
AcDbVertex
100
AcDb2dVertex
 10
60.43011526263018
 20
127.8027915271048
 30
0.0
  0
VERTEX
  5
69B
330
695
100
AcDbEntity
  8
レイヤー 1
370
     0
100
AcDbVertex
100
AcDb2dVertex
 10
60.43011526263018
 20
159.7968976406313
 30
0.0
  0
VERTEX
  5
69C
330
695
100
AcDbEntity
  8
レイヤー 1
370
     0
100
AcDbVertex
100
AcDb2dVertex
 10
48.21793273020759
 20
159.7968976406313
 30
0.0
  0
VERTEX
  5
69D
330
695
100
AcDbEntity
  8
レイヤー 1
370
     0
100
AcDbVertex
100
AcDb2dVertex
 10
48.21793273020759
 20
167.6444858234922
 30
0.0
  0
VERTEX
  5
69E
330
695
100
AcDbEntity
  8
レイヤー 1
370
     0
100
AcDbVertex
100
AcDb2dVertex
 10
83.79545727667795
 20
167.6444858234922
 30
0.0
  0
SEQEND
  5
69F
330
695
100
AcDbEntity
  8
レイヤー 1
370
     0
  0
HATCH
  5
6A0
330
693
100
AcDbEntity
  8
レイヤー 1
 62
   250
420
  2234388
100
AcDbHatch
 10
0.0
 20
0.0
 30
0.0
210
0.0
220
0.0
230
1.0
  2
SOLID
 70
     1
 71
     0
 91
        1
 92
        1
 93
        8
 72
     1
 10
83.79545727667795
 20
167.6444858234922
 11
83.79545727667795
 21
159.7968976406313
 72
     1
 10
83.79545727667795
 20
159.7968976406313
 11
71.3631329975216
 21
159.7968976406313
 72
     1
 10
71.3631329975216
 20
159.7968976406313
 11
71.3631329975216
 21
127.8027915271048
 72
     1
 10
71.3631329975216
 20
127.8027915271048
 11
60.43011526263018
 21
127.8027915271048
 72
     1
 10
60.43011526263018
 20
127.8027915271048
 11
60.43011526263018
 21
159.7968976406313
 72
     1
 10
60.43011526263018
 20
159.7968976406313
 11
48.21793273020759
 21
159.7968976406313
 72
     1
 10
48.21793273020759
 20
159.7968976406313
 11
48.21793273020759
 21
167.6444858234922
 72
     1
 10
48.21793273020759
 20
167.6444858234922
 11
83.79545727667795
 21
167.6444858234922
 97
        0
 75
     2
 76
     1
 98
        0
  0
INSERT
  5
6A1
330
693
100
AcDbEntity
  8
レイヤー 1
100
AcDbBlockReference
  2
block 5
 10
0.0
 20
0.0
 30
0.0
  0
ENDBLK
  5
6AE
330
693
100
AcDbEntity
  8
0
100
AcDbBlockEnd
  0
BLOCK
  5
6A3
330
6A2
100
AcDbEntity
  8
0
100
AcDbBlockBegin
  2
block 5
 70
     0
 10
0.0
 20
0.0
 30
0.0
  3
block 5
  1
block 5
  0
SPLINE
  5
6A4
330
6A2
100
AcDbEntity
  8
レイヤー 1
370
     0
100
AcDbSpline
210
0.0
220
0.0
230
1.0
 70
    11
 71
     3
 72
    56
 73
    52
 74
     0
 42
0.000000001
 43
0.0000000001
 40
0.0
 40
0.0
 40
0.0
 40
0.0
 40
1.0
 40
1.0
 40
1.0
 40
2.0
 40
2.0
 40
2.0
 40
3.0
 40
3.0
 40
3.0
 40
4.0
 40
4.0
 40
4.0
 40
5.0
 40
5.0
 40
5.0
 40
6.0
 40
6.0
 40
6.0
 40
7.0
 40
7.0
 40
7.0
 40
8.0
 40
8.0
 40
8.0
 40
9.0
 40
9.0
 40
9.0
 40
10.0
 40
10.0
 40
10.0
 40
11.0
 40
11.0
 40
11.0
 40
12.0
 40
12.0
 40
12.0
 40
13.0
 40
13.0
 40
13.0
 40
14.0
 40
14.0
 40
14.0
 40
15.0
 40
15.0
 40
15.0
 40
16.0
 40
16.0
 40
16.0
 40
17.0
 40
17.0
 40
17.0
 40
17.0
 10
100.4504378777679
 20
166.69157178364
 30
0.0
 10
101.9848844191641
 20
167.1313385124438
 30
0.0
 10
103.9637485713373
 20
166.7649523658846
 30
0.0
 10
103.9637485713373
 20
166.7649523658846
 30
0.0
 10
103.9637485713373
 20
166.7649523658846
 30
0.0
 10
103.0132460999156
 20
163.911205638077
 30
0.0
 10
103.0132460999156
 20
163.911205638077
 30
0.0
 10
103.0132460999156
 20
163.911205638077
 30
0.0
 10
101.0674548862189
 20
164.3601018759394
 30
0.0
 10
99.57090442016032
 20
163.1805004036133
 30
0.0
 10
98.40508333886608
 20
162.258247733807
 30
0.0
 10
97.65301849830304
 20
159.804132345923
 30
0.0
 10
97.3598406791005
 20
158.8699940888517
 30
0.0
 10
97.3598406791005
 20
158.8699940888517
 30
0.0
 10
96.07137411762282
 20
154.9119212747295
 30
0.0
 10
96.07137411762282
 20
154.9119212747295
 30
0.0
 10
96.07137411762282
 20
154.9119212747295
 30
0.0
 10
100.3012651448482
 20
154.9119212747295
 30
0.0
 10
100.3012651448482
 20
154.9119212747295
 30
0.0
 10
100.3012651448482
 20
154.9119212747295
 30
0.0
 10
99.64152892419852
 20
152.4199098115079
 30
0.0
 10
99.64152892419852
 20
152.4199098115079
 30
0.0
 10
99.64152892419852
 20
152.4199098115079
 30
0.0
 10
95.38097652692731
 20
152.4199098115079
 30
0.0
 10
95.38097652692731
 20
152.4199098115079
 30
0.0
 10
95.38097652692731
 20
152.4199098115079
 30
0.0
 10
87.75353009080013
 20
127.8027915271048
 30
0.0
 10
87.75353009080013
 20
127.8027915271048
 30
0.0
 10
87.75353009080013
 20
127.8027915271048
 30
0.0
 10
85.36538832498108
 20
127.8027915271048
 30
0.0
 10
85.36538832498108
 20
127.8027915271048
 30
0.0
 10
85.36538832498108
 20
127.8027915271048
 30
0.0
 10
93.00006946639998
 20
152.4199098115079
 30
0.0
 10
93.00006946639998
 20
152.4199098115079
 30
0.0
 10
93.00006946639998
 20
152.4199098115079
 30
0.0
 10
89.85297266450198
 20
152.4199098115079
 30
0.0
 10
89.85297266450198
 20
152.4199098115079
 30
0.0
 10
89.85297266450198
 20
152.4199098115079
 30
0.0
 10
90.51270888515164
 20
154.9119212747295
 30
0.0
 10
90.51270888515164
 20
154.9119212747295
 30
0.0
 10
90.51270888515164
 20
154.9119212747295
 30
0.0
 10
93.6904670570955
 20
154.9119212747295
 30
0.0
 10
93.6904670570955
 20
154.9119212747295
 30
0.0
 10
93.6904670570955
 20
154.9119212747295
 30
0.0
 10
94.81598049462158
 20
158.3616699146644
 30
0.0
 10
94.81598049462158
 20
158.3616699146644
 30
0.0
 10
95.7237637538445
 20
161.2605474231013
 30
0.0
 10
96.4968436907311
 20
162.8139420021662
 30
0.0
 10
97.15657991138076
 20
163.9844139654337
 30
0.0
 10
97.81183750494507
 20
165.1523021053827
 30
0.0
 10
99.1047826935081
 20
166.3084769129547
 30
0.0
 10
100.4504378777679
 20
166.69157178364
 30
0.0
  0
HATCH
  5
6A5
330
6A2
100
AcDbEntity
  8
レイヤー 1
 62
   250
420
  2234388
100
AcDbHatch
 10
0.0
 20
0.0
 30
0.0
210
0.0
220
0.0
230
1.0
  2
SOLID
 70
     1
 71
     0
 91
        1
 92
        1
 93
        1
 72
     4
 94
        3
 73
     0
 74
     1
 95
       56
 96
       52
 40
0.0
 40
0.0
 40
0.0
 40
0.0
 40
1.0
 40
1.0
 40
1.0
 40
2.0
 40
2.0
 40
2.0
 40
3.0
 40
3.0
 40
3.0
 40
4.0
 40
4.0
 40
4.0
 40
5.0
 40
5.0
 40
5.0
 40
6.0
 40
6.0
 40
6.0
 40
7.0
 40
7.0
 40
7.0
 40
8.0
 40
8.0
 40
8.0
 40
9.0
 40
9.0
 40
9.0
 40
10.0
 40
10.0
 40
10.0
 40
11.0
 40
11.0
 40
11.0
 40
12.0
 40
12.0
 40
12.0
 40
13.0
 40
13.0
 40
13.0
 40
14.0
 40
14.0
 40
14.0
 40
15.0
 40
15.0
 40
15.0
 40
16.0
 40
16.0
 40
16.0
 40
17.0
 40
17.0
 40
17.0
 40
17.0
 10
100.4504378777679
 20
166.69157178364
 10
101.9848844191641
 20
167.1313385124438
 10
103.9637485713373
 20
166.7649523658846
 10
103.9637485713373
 20
166.7649523658846
 10
103.9637485713373
 20
166.7649523658846
 10
103.0132460999156
 20
163.911205638077
 10
103.0132460999156
 20
163.911205638077
 10
103.0132460999156
 20
163.911205638077
 10
101.0674548862189
 20
164.3601018759394
 10
99.57090442016032
 20
163.1805004036133
 10
98.40508333886608
 20
162.258247733807
 10
97.65301849830304
 20
159.804132345923
 10
97.3598406791005
 20
158.8699940888517
 10
97.3598406791005
 20
158.8699940888517
 10
96.07137411762282
 20
154.9119212747295
 10
96.07137411762282
 20
154.9119212747295
 10
96.07137411762282
 20
154.9119212747295
 10
100.3012651448482
 20
154.9119212747295
 10
100.3012651448482
 20
154.9119212747295
 10
100.3012651448482
 20
154.9119212747295
 10
99.64152892419852
 20
152.4199098115079
 10
99.64152892419852
 20
152.4199098115079
 10
99.64152892419852
 20
152.4199098115079
 10
95.38097652692731
 20
152.4199098115079
 10
95.38097652692731
 20
152.4199098115079
 10
95.38097652692731
 20
152.4199098115079
 10
87.75353009080013
 20
127.8027915271048
 10
87.75353009080013
 20
127.8027915271048
 10
87.75353009080013
 20
127.8027915271048
 10
85.36538832498108
 20
127.8027915271048
 10
85.36538832498108
 20
127.8027915271048
 10
85.36538832498108
 20
127.8027915271048
 10
93.00006946639998
 20
152.4199098115079
 10
93.00006946639998
 20
152.4199098115079
 10
93.00006946639998
 20
152.4199098115079
 10
89.85297266450198
 20
152.4199098115079
 10
89.85297266450198
 20
152.4199098115079
 10
89.85297266450198
 20
152.4199098115079
 10
90.51270888515164
 20
154.9119212747295
 10
90.51270888515164
 20
154.9119212747295
 10
90.51270888515164
 20
154.9119212747295
 10
93.6904670570955
 20
154.9119212747295
 10
93.6904670570955
 20
154.9119212747295
 10
93.6904670570955
 20
154.9119212747295
 10
94.81598049462158
 20
158.3616699146644
 10
94.81598049462158
 20
158.3616699146644
 10
95.7237637538445
 20
161.2605474231013
 10
96.4968436907311
 20
162.8139420021662
 10
97.15657991138076
 20
163.9844139654337
 10
97.81183750494507
 20
165.1523021053827
 10
99.1047826935081
 20
166.3084769129547
 10
100.4504378777679
 20
166.69157178364
 97
        0
 75
     2
 76
     1
 98
        0
  0
SPLINE
  5
6A6
330
6A2
100
AcDbEntity
  8
レイヤー 1
370
     0
100
AcDbSpline
210
0.0
220
0.0
230
1.0
 70
    11
 71
     3
 72
    38
 73
    34
 74
     0
 42
0.000000001
 43
0.0000000001
 40
0.0
 40
0.0
 40
0.0
 40
0.0
 40
1.0
 40
1.0
 40
1.0
 40
2.0
 40
2.0
 40
2.0
 40
3.0
 40
3.0
 40
3.0
 40
4.0
 40
4.0
 40
4.0
 40
5.0
 40
5.0
 40
5.0
 40
6.0
 40
6.0
 40
6.0
 40
7.0
 40
7.0
 40
7.0
 40
8.0
 40
8.0
 40
8.0
 40
9.0
 40
9.0
 40
9.0
 40
10.0
 40
10.0
 40
10.0
 40
11.0
 40
11.0
 40
11.0
 40
11.0
 10
126.377554584636
 20
154.8151140277308
 30
0.0
 10
126.377554584636
 20
154.8151140277308
 30
0.0
 10
128.8311532078563
 20
154.8151140277308
 30
0.0
 10
128.8311532078563
 20
154.8151140277308
 30
0.0
 10
128.8311532078563
 20
154.8151140277308
 30
0.0
 10
127.7345785914971
 20
151.3062819612468
 30
0.0
 10
127.7345785914971
 20
151.3062819612468
 30
0.0
 10
128.571392836906
 20
152.2922689395754
 30
0.0
 10
129.8860421413442
 20
153.604506675583
 30
0.0
 10
131.0163787157314
 20
154.2664822097754
 30
0.0
 10
132.7044766171327
 20
155.2500576196734
 30
0.0
 10
133.6642808525008
 20
155.3847609420097
 30
0.0
 10
134.7284715499351
 20
155.3565111403944
 30
0.0
 10
134.7284715499351
 20
155.3565111403944
 30
0.0
 10
133.6877075172549
 20
152.0345756272799
 30
0.0
 10
133.6877075172549
 20
152.0345756272799
 30
0.0
 10
133.011434827367
 20
152.3184516825359
 30
0.0
 10
130.930940291334
 20
151.7768823149844
 30
0.0
 10
129.739280976855
 20
150.9162968950455
 30
0.0
 10
128.66613302525
 20
150.1454562717016
 30
0.0
 10
127.9192358313239
 20
149.4857200510519
 30
0.0
 10
127.0393578639405
 20
147.8282835196966
 30
0.0
 10
126.164647543194
 20
146.1699857139017
 30
0.0
 10
125.4742499524985
 20
143.5262176944419
 30
0.0
 10
124.2822461282437
 20
139.6959580071401
 30
0.0
 10
124.2822461282437
 20
139.6959580071401
 30
0.0
 10
120.5753209406769
 20
127.8027915271048
 30
0.0
 10
120.5753209406769
 20
127.8027915271048
 30
0.0
 10
120.5753209406769
 20
127.8027915271048
 30
0.0
 10
118.1964809388044
 20
127.8027915271048
 30
0.0
 10
118.1964809388044
 20
127.8027915271048
 30
0.0
 10
118.1964809388044
 20
127.8027915271048
 30
0.0
 10
126.377554584636
 20
154.8151140277308
 30
0.0
 10
126.377554584636
 20
154.8151140277308
 30
0.0
  0
HATCH
  5
6A7
330
6A2
100
AcDbEntity
  8
レイヤー 1
 62
   250
420
  2234388
100
AcDbHatch
 10
0.0
 20
0.0
 30
0.0
210
0.0
220
0.0
230
1.0
  2
SOLID
 70
     1
 71
     0
 91
        1
 92
        1
 93
        1
 72
     4
 94
        3
 73
     0
 74
     1
 95
       38
 96
       34
 40
0.0
 40
0.0
 40
0.0
 40
0.0
 40
1.0
 40
1.0
 40
1.0
 40
2.0
 40
2.0
 40
2.0
 40
3.0
 40
3.0
 40
3.0
 40
4.0
 40
4.0
 40
4.0
 40
5.0
 40
5.0
 40
5.0
 40
6.0
 40
6.0
 40
6.0
 40
7.0
 40
7.0
 40
7.0
 40
8.0
 40
8.0
 40
8.0
 40
9.0
 40
9.0
 40
9.0
 40
10.0
 40
10.0
 40
10.0
 40
11.0
 40
11.0
 40
11.0
 40
11.0
 10
126.377554584636
 20
154.8151140277308
 10
126.377554584636
 20
154.8151140277308
 10
128.8311532078563
 20
154.8151140277308
 10
128.8311532078563
 20
154.8151140277308
 10
128.8311532078563
 20
154.8151140277308
 10
127.7345785914971
 20
151.3062819612468
 10
127.7345785914971
 20
151.3062819612468
 10
128.571392836906
 20
152.2922689395754
 10
129.8860421413442
 20
153.604506675583
 10
131.0163787157314
 20
154.2664822097754
 10
132.7044766171327
 20
155.2500576196734
 10
133.6642808525008
 20
155.3847609420097
 10
134.7284715499351
 20
155.3565111403944
 10
134.7284715499351
 20
155.3565111403944
 10
133.6877075172549
 20
152.0345756272799
 10
133.6877075172549
 20
152.0345756272799
 10
133.011434827367
 20
152.3184516825359
 10
130.930940291334
 20
151.7768823149844
 10
129.739280976855
 20
150.9162968950455
 10
128.66613302525
 20
150.1454562717016
 10
127.9192358313239
 20
149.4857200510519
 10
127.0393578639405
 20
147.8282835196966
 10
126.164647543194
 20
146.1699857139017
 10
125.4742499524985
 20
143.5262176944419
 10
124.2822461282437
 20
139.6959580071401
 10
124.2822461282437
 20
139.6959580071401
 10
120.5753209406769
 20
127.8027915271048
 10
120.5753209406769
 20
127.8027915271048
 10
120.5753209406769
 20
127.8027915271048
 10
118.1964809388044
 20
127.8027915271048
 10
118.1964809388044
 20
127.8027915271048
 10
118.1964809388044
 20
127.8027915271048
 10
126.377554584636
 20
154.8151140277308
 10
126.377554584636
 20
154.8151140277308
 97
        0
 75
     2
 76
     1
 98
        0
  0
SPLINE
  5
6A8
330
6A2
100
AcDbEntity
  8
レイヤー 1
370
     0
100
AcDbSpline
210
0.0
220
0.0
230
1.0
 70
    11
 71
     3
 72
   104
 73
   100
 74
     0
 42
0.000000001
 43
0.0000000001
 40
0.0
 40
0.0
 40
0.0
 40
0.0
 40
1.0
 40
1.0
 40
1.0
 40
2.0
 40
2.0
 40
2.0
 40
3.0
 40
3.0
 40
3.0
 40
4.0
 40
4.0
 40
4.0
 40
5.0
 40
5.0
 40
5.0
 40
6.0
 40
6.0
 40
6.0
 40
7.0
 40
7.0
 40
7.0
 40
8.0
 40
8.0
 40
8.0
 40
9.0
 40
9.0
 40
9.0
 40
10.0
 40
10.0
 40
10.0
 40
11.0
 40
11.0
 40
11.0
 40
12.0
 40
12.0
 40
12.0
 40
13.0
 40
13.0
 40
13.0
 40
14.0
 40
14.0
 40
14.0
 40
15.0
 40
15.0
 40
15.0
 40
16.0
 40
16.0
 40
16.0
 40
17.0
 40
17.0
 40
17.0
 40
18.0
 40
18.0
 40
18.0
 40
19.0
 40
19.0
 40
19.0
 40
20.0
 40
20.0
 40
20.0
 40
21.0
 40
21.0
 40
21.0
 40
22.0
 40
22.0
 40
22.0
 40
23.0
 40
23.0
 40
23.0
 40
24.0
 40
24.0
 40
24.0
 40
25.0
 40
25.0
 40
25.0
 40
26.0
 40
26.0
 40
26.0
 40
27.0
 40
27.0
 40
27.0
 40
28.0
 40
28.0
 40
28.0
 40
29.0
 40
29.0
 40
29.0
 40
30.0
 40
30.0
 40
30.0
 40
31.0
 40
31.0
 40
31.0
 40
32.0
 40
32.0
 40
32.0
 40
33.0
 40
33.0
 40
33.0
 40
33.0
 10
139.8926730891197
 20
154.8294111834263
 30
0.0
 10
139.8926730891197
 20
154.8294111834263
 30
0.0
 10
142.0344903652445
 20
154.8294111834263
 30
0.0
 10
142.0344903652445
 20
154.8294111834263
 30
0.0
 10
142.0344903652445
 20
154.8294111834263
 30
0.0
 10
140.9516961399171
 20
151.3157559800812
 30
0.0
 10
140.9516961399171
 20
151.3157559800812
 30
0.0
 10
141.8928968473923
 20
152.7887075264977
 30
0.0
 10
142.7341897198865
 20
153.4484437471474
 30
0.0
 10
143.8552245303272
 20
154.2926649527359
 30
0.0
 10
144.9803934580775
 20
155.1296514530327
 30
0.0
 10
146.3139908001845
 20
155.3044901642492
 30
0.0
 10
147.241066606852
 20
155.3044901642492
 30
0.0
 10
148.3855280820469
 20
155.3044901642492
 30
0.0
 10
149.4969166187653
 20
155.0752189084569
 30
0.0
 10
150.0784491203092
 20
153.8172414621372
 30
0.0
 10
150.5228667310863
 20
152.833838307127
 30
0.0
 10
150.5414702589793
 20
152.7201500811143
 30
0.0
 10
150.4140016419347
 20
150.7765981809602
 30
0.0
 10
151.5818897818837
 20
152.7699317437168
 30
0.0
 10
152.4424752018226
 20
153.6256940267945
 30
0.0
 10
153.9038856707499
 20
154.4507949398263
 30
0.0
 10
155.4455669174378
 20
155.3044901642492
 30
0.0
 10
156.339225275853
 20
155.3659851592288
 30
0.0
 10
157.3748216618963
 20
155.2147453676543
 30
0.0
 10
158.911679771723
 20
154.9877134254046
 30
0.0
 10
159.8859534176746
 20
154.4390816074493
 30
0.0
 10
160.3965169054045
 20
152.7816450760939
 30
0.0
 10
160.9070803931344
 20
151.1219692311958
 30
0.0
 10
160.6328506116007
 20
150.2303779314354
 30
0.0
 10
159.9992971339115
 20
147.597634224801
 30
0.0
 10
159.7105979417943
 20
146.4014962832367
 30
0.0
 10
159.2947746424084
 20
144.9400858143094
 30
0.0
 10
158.7463150793409
 20
143.2092687007094
 30
0.0
 10
158.7463150793409
 20
143.2092687007094
 30
0.0
 10
153.9038856707499
 20
127.8027915271048
 30
0.0
 10
153.9038856707499
 20
127.8027915271048
 30
0.0
 10
153.9038856707499
 20
127.8027915271048
 30
0.0
 10
151.3882752878863
 20
127.8027915271048
 30
0.0
 10
151.3882752878863
 20
127.8027915271048
 30
0.0
 10
151.3882752878863
 20
127.8027915271048
 30
0.0
 10
155.6250565106276
 20
141.2751908193897
 30
0.0
 10
155.6250565106276
 20
141.2751908193897
 30
0.0
 10
156.5094131050963
 20
144.0936252951782
 30
0.0
 10
157.109893644309
 20
146.1506931664571
 30
0.0
 10
157.4220195011804
 20
147.4415712963654
 30
0.0
 10
157.8095929989511
 20
149.0530157726519
 30
0.0
 10
157.9656559273867
 20
149.5826995529385
 30
0.0
 10
157.7816877071116
 20
150.7529992613181
 30
0.0
 10
157.6111553680925
 20
151.8430281919372
 30
0.0
 10
157.0582171779396
 20
152.5547853887321
 30
0.0
 10
156.1170164704645
 20
152.5547853887321
 30
0.0
 10
155.1096698860365
 20
152.5547853887321
 30
0.0
 10
154.2962823053817
 20
152.4412694176073
 30
0.0
 10
153.156643967048
 20
151.2945686288697
 30
0.0
 10
152.0170056287143
 20
150.1476955852443
 30
0.0
 10
151.076149431015
 20
148.7930831468137
 30
0.0
 10
150.3337308641742
 20
147.2290087646991
 30
0.0
 10
149.5957909244188
 20
145.6683794803425
 30
0.0
 10
148.8530278478023
 20
143.6822806228776
 30
0.0
 10
148.0964843801539
 20
141.2751908193897
 30
0.0
 10
148.0964843801539
 20
141.2751908193897
 30
0.0
 10
143.8552245303272
 20
127.8027915271048
 30
0.0
 10
143.8552245303272
 20
127.8027915271048
 30
0.0
 10
143.8552245303272
 20
127.8027915271048
 30
0.0
 10
141.486030802177
 20
127.8027915271048
 30
0.0
 10
141.486030802177
 20
127.8027915271048
 30
0.0
 10
141.486030802177
 20
127.8027915271048
 30
0.0
 10
146.3329388378533
 20
143.2092687007094
 30
0.0
 10
146.3329388378533
 20
143.2092687007094
 30
0.0
 10
146.8483254624444
 20
144.8408669988801
 30
0.0
 10
147.2314203331297
 20
146.1837661049335
 30
0.0
 10
147.4867020769946
 20
147.224185627838
 30
0.0
 10
147.9169947869641
 20
149.0197705792876
 30
0.0
 10
148.0306830129768
 20
150.2400242051577
 30
0.0
 10
147.709255392159
 20
151.3157559800812
 30
0.0
 10
147.3874832615654
 20
152.3916600098926
 30
0.0
 10
146.8245542879144
 20
152.6683013598569
 30
0.0
 10
145.8840425999909
 20
152.6683013598569
 30
0.0
 10
145.0989048209514
 20
152.6683013598569
 30
0.0
 10
144.3282364524954
 20
152.3275811915945
 30
0.0
 10
143.4531816219731
 20
151.6538923250251
 30
0.0
 10
142.34627171234
 20
150.8074318058939
 30
0.0
 10
141.901854101563
 20
150.1097995099067
 30
0.0
 10
141.3578731655808
 20
149.289521733736
 30
0.0
 10
140.6299240093235
 20
148.192602607601
 30
0.0
 10
140.2850697237515
 20
147.455696197173
 30
0.0
 10
139.6652966370942
 20
145.8385673095858
 30
0.0
 10
139.0506911970739
 20
144.2214384219986
 30
0.0
 10
138.463991048893
 20
142.3252566160164
 30
0.0
 10
138.0571250036777
 20
141.0154304484394
 30
0.0
 10
138.0571250036777
 20
141.0154304484394
 30
0.0
 10
133.9009590684727
 20
127.8027915271048
 30
0.0
 10
133.9009590684727
 20
127.8027915271048
 30
0.0
 10
133.9009590684727
 20
127.8027915271048
 30
0.0
 10
131.4180771143097
 20
127.8027915271048
 30
0.0
 10
131.4180771143097
 20
127.8027915271048
 30
0.0
 10
131.4180771143097
 20
127.8027915271048
 30
0.0
 10
139.8926730891197
 20
154.8294111834263
 30
0.0
 10
139.8926730891197
 20
154.8294111834263
 30
0.0
  0
HATCH
  5
6A9
330
6A2
100
AcDbEntity
  8
レイヤー 1
 62
   250
420
  2234388
100
AcDbHatch
 10
0.0
 20
0.0
 30
0.0
210
0.0
220
0.0
230
1.0
  2
SOLID
 70
     1
 71
     0
 91
        1
 92
        1
 93
        1
 72
     4
 94
        3
 73
     0
 74
     1
 95
      104
 96
      100
 40
0.0
 40
0.0
 40
0.0
 40
0.0
 40
1.0
 40
1.0
 40
1.0
 40
2.0
 40
2.0
 40
2.0
 40
3.0
 40
3.0
 40
3.0
 40
4.0
 40
4.0
 40
4.0
 40
5.0
 40
5.0
 40
5.0
 40
6.0
 40
6.0
 40
6.0
 40
7.0
 40
7.0
 40
7.0
 40
8.0
 40
8.0
 40
8.0
 40
9.0
 40
9.0
 40
9.0
 40
10.0
 40
10.0
 40
10.0
 40
11.0
 40
11.0
 40
11.0
 40
12.0
 40
12.0
 40
12.0
 40
13.0
 40
13.0
 40
13.0
 40
14.0
 40
14.0
 40
14.0
 40
15.0
 40
15.0
 40
15.0
 40
16.0
 40
16.0
 40
16.0
 40
17.0
 40
17.0
 40
17.0
 40
18.0
 40
18.0
 40
18.0
 40
19.0
 40
19.0
 40
19.0
 40
20.0
 40
20.0
 40
20.0
 40
21.0
 40
21.0
 40
21.0
 40
22.0
 40
22.0
 40
22.0
 40
23.0
 40
23.0
 40
23.0
 40
24.0
 40
24.0
 40
24.0
 40
25.0
 40
25.0
 40
25.0
 40
26.0
 40
26.0
 40
26.0
 40
27.0
 40
27.0
 40
27.0
 40
28.0
 40
28.0
 40
28.0
 40
29.0
 40
29.0
 40
29.0
 40
30.0
 40
30.0
 40
30.0
 40
31.0
 40
31.0
 40
31.0
 40
32.0
 40
32.0
 40
32.0
 40
33.0
 40
33.0
 40
33.0
 40
33.0
 10
139.8926730891197
 20
154.8294111834263
 10
139.8926730891197
 20
154.8294111834263
 10
142.0344903652445
 20
154.8294111834263
 10
142.0344903652445
 20
154.8294111834263
 10
142.0344903652445
 20
154.8294111834263
 10
140.9516961399171
 20
151.3157559800812
 10
140.9516961399171
 20
151.3157559800812
 10
141.8928968473923
 20
152.7887075264977
 10
142.7341897198865
 20
153.4484437471474
 10
143.8552245303272
 20
154.2926649527359
 10
144.9803934580775
 20
155.1296514530327
 10
146.3139908001845
 20
155.3044901642492
 10
147.241066606852
 20
155.3044901642492
 10
148.3855280820469
 20
155.3044901642492
 10
149.4969166187653
 20
155.0752189084569
 10
150.0784491203092
 20
153.8172414621372
 10
150.5228667310863
 20
152.833838307127
 10
150.5414702589793
 20
152.7201500811143
 10
150.4140016419347
 20
150.7765981809602
 10
151.5818897818837
 20
152.7699317437168
 10
152.4424752018226
 20
153.6256940267945
 10
153.9038856707499
 20
154.4507949398263
 10
155.4455669174378
 20
155.3044901642492
 10
156.339225275853
 20
155.3659851592288
 10
157.3748216618963
 20
155.2147453676543
 10
158.911679771723
 20
154.9877134254046
 10
159.8859534176746
 20
154.4390816074493
 10
160.3965169054045
 20
152.7816450760939
 10
160.9070803931344
 20
151.1219692311958
 10
160.6328506116007
 20
150.2303779314354
 10
159.9992971339115
 20
147.597634224801
 10
159.7105979417943
 20
146.4014962832367
 10
159.2947746424084
 20
144.9400858143094
 10
158.7463150793409
 20
143.2092687007094
 10
158.7463150793409
 20
143.2092687007094
 10
153.9038856707499
 20
127.8027915271048
 10
153.9038856707499
 20
127.8027915271048
 10
153.9038856707499
 20
127.8027915271048
 10
151.3882752878863
 20
127.8027915271048
 10
151.3882752878863
 20
127.8027915271048
 10
151.3882752878863
 20
127.8027915271048
 10
155.6250565106276
 20
141.2751908193897
 10
155.6250565106276
 20
141.2751908193897
 10
156.5094131050963
 20
144.0936252951782
 10
157.109893644309
 20
146.1506931664571
 10
157.4220195011804
 20
147.4415712963654
 10
157.8095929989511
 20
149.0530157726519
 10
157.9656559273867
 20
149.5826995529385
 10
157.7816877071116
 20
150.7529992613181
 10
157.6111553680925
 20
151.8430281919372
 10
157.0582171779396
 20
152.5547853887321
 10
156.1170164704645
 20
152.5547853887321
 10
155.1096698860365
 20
152.5547853887321
 10
154.2962823053817
 20
152.4412694176073
 10
153.156643967048
 20
151.2945686288697
 10
152.0170056287143
 20
150.1476955852443
 10
151.076149431015
 20
148.7930831468137
 10
150.3337308641742
 20
147.2290087646991
 10
149.5957909244188
 20
145.6683794803425
 10
148.8530278478023
 20
143.6822806228776
 10
148.0964843801539
 20
141.2751908193897
 10
148.0964843801539
 20
141.2751908193897
 10
143.8552245303272
 20
127.8027915271048
 10
143.8552245303272
 20
127.8027915271048
 10
143.8552245303272
 20
127.8027915271048
 10
141.486030802177
 20
127.8027915271048
 10
141.486030802177
 20
127.8027915271048
 10
141.486030802177
 20
127.8027915271048
 10
146.3329388378533
 20
143.2092687007094
 10
146.3329388378533
 20
143.2092687007094
 10
146.8483254624444
 20
144.8408669988801
 10
147.2314203331297
 20
146.1837661049335
 10
147.4867020769946
 20
147.224185627838
 10
147.9169947869641
 20
149.0197705792876
 10
148.0306830129768
 20
150.2400242051577
 10
147.709255392159
 20
151.3157559800812
 10
147.3874832615654
 20
152.3916600098926
 10
146.8245542879144
 20
152.6683013598569
 10
145.8840425999909
 20
152.6683013598569
 10
145.0989048209514
 20
152.6683013598569
 10
144.3282364524954
 20
152.3275811915945
 10
143.4531816219731
 20
151.6538923250251
 10
142.34627171234
 20
150.8074318058939
 10
141.901854101563
 20
150.1097995099067
 10
141.3578731655808
 20
149.289521733736
 10
140.6299240093235
 20
148.192602607601
 10
140.2850697237515
 20
147.455696197173
 10
139.6652966370942
 20
145.8385673095858
 10
139.0506911970739
 20
144.2214384219986
 10
138.463991048893
 20
142.3252566160164
 10
138.0571250036777
 20
141.0154304484394
 10
138.0571250036777
 20
141.0154304484394
 10
133.9009590684727
 20
127.8027915271048
 10
133.9009590684727
 20
127.8027915271048
 10
133.9009590684727
 20
127.8027915271048
 10
131.4180771143097
 20
127.8027915271048
 10
131.4180771143097
 20
127.8027915271048
 10
131.4180771143097
 20
127.8027915271048
 10
139.8926730891197
 20
154.8294111834263
 10
139.8926730891197
 20
154.8294111834263
 97
        0
 75
     2
 76
     1
 98
        0
  0
SPLINE
  5
6AA
330
6A2
100
AcDbEntity
  8
レイヤー 1
370
     0
100
AcDbSpline
210
0.0
220
0.0
230
1.0
 70
    11
 71
     3
 72
    29
 73
    25
 74
     0
 42
0.000000001
 43
0.0000000001
 40
0.0
 40
0.0
 40
0.0
 40
0.0
 40
1.0
 40
1.0
 40
1.0
 40
2.0
 40
2.0
 40
2.0
 40
3.0
 40
3.0
 40
3.0
 40
4.0
 40
4.0
 40
4.0
 40
5.0
 40
5.0
 40
5.0
 40
6.0
 40
6.0
 40
6.0
 40
7.0
 40
7.0
 40
7.0
 40
8.0
 40
8.0
 40
8.0
 40
8.0
 10
101.6420971922469
 20
132.8388354296931
 30
0.0
 10
101.630039350094
 20
134.7164137077823
 30
0.0
 10
102.2236296937908
 20
138.0598810818841
 30
0.0
 10
103.7487744712405
 20
142.5378191476827
 30
0.0
 10
105.819967243327
 20
148.5896501242061
 30
0.0
 10
107.0602024361932
 20
150.8074318058939
 30
0.0
 10
108.1522984254671
 20
151.8833358357054
 30
0.0
 10
109.741177511439
 20
153.4532668840085
 30
0.0
 10
111.8740375333931
 20
153.5290590346837
 30
0.0
 10
112.5075910110823
 20
153.4532668840085
 30
0.0
 10
113.4012493694975
 20
153.3490526768302
 30
0.0
 10
114.6683563248758
 20
152.7580461564518
 30
0.0
 10
114.7493161221879
 20
150.7838328862519
 30
0.0
 10
114.8106388622796
 20
149.0909118479895
 30
0.0
 10
114.3186789024427
 20
145.9191825971221
 30
0.0
 10
112.6164561002338
 20
140.9489400617108
 30
0.0
 10
110.6444821435766
 20
135.1746117095912
 30
0.0
 10
109.4669477299053
 20
132.8960240524753
 30
0.0
 10
108.5212683953448
 20
131.9072809959403
 30
0.0
 10
106.7346406980658
 20
130.0538184021569
 30
0.0
 10
104.8222669326213
 20
130.2336525051225
 30
0.0
 10
104.5408024457958
 20
130.2336525051225
 30
0.0
 10
104.1721769856939
 20
130.2336525051225
 30
0.0
 10
101.6465758193322
 20
130.6305277668397
 30
0.0
 10
101.6420971922469
 20
132.8388354296931
 30
0.0
  0
SPLINE
  5
6AB
330
6A2
100
AcDbEntity
  8
レイヤー 1
370
     0
100
AcDbSpline
210
0.0
220
0.0
230
1.0
 70
    11
 71
     3
 72
    32
 73
    28
 74
     0
 42
0.000000001
 43
0.0000000001
 40
0.0
 40
0.0
 40
0.0
 40
0.0
 40
1.0
 40
1.0
 40
1.0
 40
2.0
 40
2.0
 40
2.0
 40
3.0
 40
3.0
 40
3.0
 40
4.0
 40
4.0
 40
4.0
 40
5.0
 40
5.0
 40
5.0
 40
6.0
 40
6.0
 40
6.0
 40
7.0
 40
7.0
 40
7.0
 40
8.0
 40
8.0
 40
8.0
 40
9.0
 40
9.0
 40
9.0
 40
9.0
 10
106.2595617172429
 20
153.4105476718098
 30
0.0
 10
104.8222669326213
 20
151.5474388043041
 30
0.0
 10
103.7177685914188
 20
149.8758773721411
 30
0.0
 10
101.9232171692965
 20
144.6141795664062
 30
0.0
 10
100.2754269116635
 20
139.7999999594306
 30
0.0
 10
99.22777268346732
 20
136.3052927937542
 30
0.0
 10
99.06964269637689
 20
132.039572749846
 30
0.0
 10
98.94665270641765
 20
128.8673267343149
 30
0.0
 10
100.8807305877373
 20
127.8027915271048
 30
0.0
 10
103.7129454545577
 20
127.8027915271048
 30
0.0
 10
104.9352661390825
 20
127.8027915271048
 30
0.0
 10
108.0151835347002
 20
127.8827177950895
 30
0.0
 10
110.2045431598849
 20
130.5926316915021
 30
0.0
 10
111.7417457794874
 20
132.4984597712065
 30
0.0
 10
113.155269389579
 20
134.475256864725
 30
0.0
 10
115.0562743324223
 20
140.9489400617108
 30
0.0
 10
116.6361961642235
 20
146.3680788349845
 30
0.0
 10
117.7282921534974
 20
149.8639917848761
 30
0.0
 10
117.6480213757369
 20
151.8595646611754
 30
0.0
 10
117.6480213757369
 20
151.8595646611754
 30
0.0
 10
117.6480213757369
 20
151.8595646611754
 30
0.0
 10
117.6480213757369
 20
151.8595646611754
 30
0.0
 10
117.13229024137
 20
155.18150017429
 30
0.0
 10
114.7162431837115
 20
155.886194920681
 30
0.0
 10
113.3351034925446
 20
155.886194920681
 30
0.0
 10
111.9829026225447
 20
155.886194920681
 30
0.0
 10
108.3414342923792
 20
156.1251124501957
 30
0.0
 10
106.2595617172429
 20
153.4105476718098
 30
0.0
  0
HATCH
  5
6AC
330
6A2
100
AcDbEntity
  8
レイヤー 1
 62
   250
420
  2234388
100
AcDbHatch
 10
0.0
 20
0.0
 30
0.0
210
0.0
220
0.0
230
1.0
  2
SOLID
 70
     1
 71
     0
 91
        2
 92
        1
 93
        1
 72
     4
 94
        3
 73
     0
 74
     1
 95
       29
 96
       25
 40
0.0
 40
0.0
 40
0.0
 40
0.0
 40
1.0
 40
1.0
 40
1.0
 40
2.0
 40
2.0
 40
2.0
 40
3.0
 40
3.0
 40
3.0
 40
4.0
 40
4.0
 40
4.0
 40
5.0
 40
5.0
 40
5.0
 40
6.0
 40
6.0
 40
6.0
 40
7.0
 40
7.0
 40
7.0
 40
8.0
 40
8.0
 40
8.0
 40
8.0
 10
101.6420971922469
 20
132.8388354296931
 10
101.630039350094
 20
134.7164137077823
 10
102.2236296937908
 20
138.0598810818841
 10
103.7487744712405
 20
142.5378191476827
 10
105.819967243327
 20
148.5896501242061
 10
107.0602024361932
 20
150.8074318058939
 10
108.1522984254671
 20
151.8833358357054
 10
109.741177511439
 20
153.4532668840085
 10
111.8740375333931
 20
153.5290590346837
 10
112.5075910110823
 20
153.4532668840085
 10
113.4012493694975
 20
153.3490526768302
 10
114.6683563248758
 20
152.7580461564518
 10
114.7493161221879
 20
150.7838328862519
 10
114.8106388622796
 20
149.0909118479895
 10
114.3186789024427
 20
145.9191825971221
 10
112.6164561002338
 20
140.9489400617108
 10
110.6444821435766
 20
135.1746117095912
 10
109.4669477299053
 20
132.8960240524753
 10
108.5212683953448
 20
131.9072809959403
 10
106.7346406980658
 20
130.0538184021569
 10
104.8222669326213
 20
130.2336525051225
 10
104.5408024457958
 20
130.2336525051225
 10
104.1721769856939
 20
130.2336525051225
 10
101.6465758193322
 20
130.6305277668397
 10
101.6420971922469
 20
132.8388354296931
 97
        0
 92
        1
 93
        1
 72
     4
 94
        3
 73
     0
 74
     1
 95
       32
 96
       28
 40
0.0
 40
0.0
 40
0.0
 40
0.0
 40
1.0
 40
1.0
 40
1.0
 40
2.0
 40
2.0
 40
2.0
 40
3.0
 40
3.0
 40
3.0
 40
4.0
 40
4.0
 40
4.0
 40
5.0
 40
5.0
 40
5.0
 40
6.0
 40
6.0
 40
6.0
 40
7.0
 40
7.0
 40
7.0
 40
8.0
 40
8.0
 40
8.0
 40
9.0
 40
9.0
 40
9.0
 40
9.0
 10
106.2595617172429
 20
153.4105476718098
 10
104.8222669326213
 20
151.5474388043041
 10
103.7177685914188
 20
149.8758773721411
 10
101.9232171692965
 20
144.6141795664062
 10
100.2754269116635
 20
139.7999999594306
 10
99.22777268346732
 20
136.3052927937542
 10
99.06964269637689
 20
132.039572749846
 10
98.94665270641765
 20
128.8673267343149
 10
100.8807305877373
 20
127.8027915271048
 10
103.7129454545577
 20
127.8027915271048
 10
104.9352661390825
 20
127.8027915271048
 10
108.0151835347002
 20
127.8827177950895
 10
110.2045431598849
 20
130.5926316915021
 10
111.7417457794874
 20
132.4984597712065
 10
113.155269389579
 20
134.475256864725
 10
115.0562743324223
 20
140.9489400617108
 10
116.6361961642235
 20
146.3680788349845
 10
117.7282921534974
 20
149.8639917848761
 10
117.6480213757369
 20
151.8595646611754
 10
117.6480213757369
 20
151.8595646611754
 10
117.6480213757369
 20
151.8595646611754
 10
117.6480213757369
 20
151.8595646611754
 10
117.13229024137
 20
155.18150017429
 10
114.7162431837115
 20
155.886194920681
 10
113.3351034925446
 20
155.886194920681
 10
111.9829026225447
 20
155.886194920681
 10
108.3414342923792
 20
156.1251124501957
 10
106.2595617172429
 20
153.4105476718098
 97
        0
 75
     2
 76
     1
 98
        0
  0
ENDBLK
  5
6AD
330
6A2
100
AcDbEntity
  8
0
100
AcDbBlockEnd
  0
BLOCK
  5
4A70
330
4A6F
100
AcDbEntity
  8
0
100
AcDbBlockBegin
  2
*D4
 70
     1
 10
0.0
 20
0.0
 30
0.0
  3
*D4
  1
*D201
  0
LINE
  5
4A72
330
4A6F
100
AcDbEntity
  8
寸法
  6
Continuous
 62
     0
370
    -2
100
AcDbLine
 10
97.47890521174921
 20
348.7335990428102
 30
0.0
 11
85.1258963663065
 21
348.7335990428102
 31
0.0
  0
LINE
  5
4A73
330
4A6F
100
AcDbEntity
  8
寸法
  6
Continuous
 62
     0
370
    -2
100
AcDbLine
 10
112.0312741564841
 20
341.034177143836
 30
0.0
 11
85.1258963663065
 21
341.034177143836
 31
0.0
  0
LINE
  5
4A74
330
4A6F
100
AcDbEntity
  8
寸法
  6
Continuous
 62
     0
370
    -2
100
AcDbLine
 10
85.1258963663065
 20
347.2335990428102
 30
0.0
 11
85.1258963663065
 21
342.534177143836
 31
0.0
  0
INSERT
  5
4A75
330
4A6F
100
AcDbEntity
  8
寸法
 62
     0
370
    -2
100
AcDbBlockReference
  2
_DOT
 10
85.1258963663065
 20
348.7335990428102
 30
0.0
 41
1.5
 42
1.5
 43
1.5
 50
90.0
  0
INSERT
  5
4A76
330
4A6F
100
AcDbEntity
  8
寸法
 62
     0
370
    -2
100
AcDbBlockReference
  2
_DOT
 10
85.1258963663065
 20
341.034177143836
 30
0.0
 41
1.5
 42
1.5
 43
1.5
 50
270.0
  0
MTEXT
  5
4A77
330
4A6F
100
AcDbEntity
  8
寸法
  6
Continuous
 62
     0
100
AcDbMText
 10
80.6258963663065
 20
344.8838880933231
 30
0.0
 40
5.0
 41
0.0
 46
0.0
 71
     5
 72
     1
  1
\A1;8
  7
ＭＳ ゴシック
 11
0.0
 21
1.0
 31
0.0
 73
     1
 44
1.0
  0
POINT
  5
4A78
330
4A6F
100
AcDbEntity
  8
Defpoints
 62
     0
100
AcDbPoint
 10
102.4789052117492
 20
348.7335990428102
 30
0.0
  0
POINT
  5
4A79
330
4A6F
100
AcDbEntity
  8
Defpoints
 62
     0
100
AcDbPoint
 10
117.0312741564841
 20
341.034177143836
 30
0.0
  0
POINT
  5
52D5
330
4A6F
100
AcDbEntity
  8
Defpoints
 62
     0
100
AcDbPoint
 10
85.1258963663065
 20
341.034177143836
 30
0.0
  0
ENDBLK
  5
4A71
330
4A6F
100
AcDbEntity
  8
0
100
AcDbBlockEnd
  0
BLOCK
  5
4A9D
330
4A9C
100
AcDbEntity
  8
0
100
AcDbBlockBegin
  2
*D5
 70
     1
 10
0.0
 20
0.0
 30
0.0
  3
*D5
  1
*D204
  0
LINE
  5
4A9F
330
4A9C
100
AcDbEntity
  8
寸法
  6
Continuous
 62
     0
370
    -2
100
AcDbLine
 10
389.5069938650306
 20
348.9927098378442
 30
0.0
 11
353.3656877670142
 21
348.9927098378442
 31
0.0
  0
LINE
  5
4AA0
330
4A9C
100
AcDbEntity
  8
寸法
  6
Continuous
 62
     0
370
    -2
100
AcDbLine
 10
389.5069938650306
 20
294.192709837844
 30
0.0
 11
353.3656877670142
 21
294.192709837844
 31
0.0
  0
LINE
  5
4AA1
330
4A9C
100
AcDbEntity
  8
寸法
  6
Continuous
 62
     0
370
    -2
100
AcDbLine
 10
353.3656877670142
 20
347.4927098378442
 30
0.0
 11
353.3656877670142
 21
295.692709837844
 31
0.0
  0
INSERT
  5
4AA2
330
4A9C
100
AcDbEntity
  8
寸法
 62
     0
370
    -2
100
AcDbBlockReference
  2
_DOT
 10
353.3656877670142
 20
348.9927098378442
 30
0.0
 41
1.5
 42
1.5
 43
1.5
 50
90.0
  0
INSERT
  5
4AA3
330
4A9C
100
AcDbEntity
  8
寸法
 62
     0
370
    -2
100
AcDbBlockReference
  2
_DOT
 10
353.3656877670142
 20
294.192709837844
 30
0.0
 41
1.5
 42
1.5
 43
1.5
 50
270.0
  0
MTEXT
  5
4AA4
330
4A9C
100
AcDbEntity
  8
寸法
  6
Continuous
 62
     0
100
AcDbMText
 10
348.4606877670142
 20
321.5927098378441
 30
0.0
 40
5.0
 41
0.0
 46
0.0
 71
     5
 72
     1
  1
\A1;φ55
  7
ＭＳ ゴシック
 11
0.0
 21
1.0
 31
0.0
 73
     1
 44
1.0
  0
POINT
  5
4AA5
330
4A9C
100
AcDbEntity
  8
Defpoints
 62
     0
100
AcDbPoint
 10
394.5069938650306
 20
348.9927098378442
 30
0.0
  0
POINT
  5
4AA6
330
4A9C
100
AcDbEntity
  8
Defpoints
 62
     0
100
AcDbPoint
 10
394.5069938650306
 20
294.192709837844
 30
0.0
  0
POINT
  5
4AA7
330
4A9C
100
AcDbEntity
  8
Defpoints
 62
     0
100
AcDbPoint
 10
353.3656877670142
 20
294.192709837844
 30
0.0
  0
ENDBLK
  5
4A9E
330
4A9C
100
AcDbEntity
  8
0
100
AcDbBlockEnd
  0
BLOCK
  5
4AD6
330
4AD5
100
AcDbEntity
  8
0
100
AcDbBlockBegin
  2
*D6
 70
     1
 10
0.0
 20
0.0
 30
0.0
  3
*D6
  1
*D205
  0
LINE
  5
4AD8
330
4AD5
100
AcDbEntity
  8
寸法
  6
Continuous
 62
     0
370
    -2
100
AcDbLine
 10
96.61459760639491
 20
348.7335990428102
 30
0.0
 11
73.23063766930638
 21
348.7335990428102
 31
0.0
  0
LINE
  5
4AD9
330
4AD5
100
AcDbEntity
  8
寸法
  6
Continuous
 62
     0
370
    -2
100
AcDbLine
 10
111.1257815346022
 20
283.0579914400502
 30
0.0
 11
73.23063766930638
 21
283.0579914400502
 31
0.0
  0
LINE
  5
4ADA
330
4AD5
100
AcDbEntity
  8
寸法
  6
Continuous
 62
     0
370
    -2
100
AcDbLine
 10
73.23063766930638
 20
347.2335990428102
 30
0.0
 11
73.23063766930638
 21
284.5579914400502
 31
0.0
  0
INSERT
  5
4ADB
330
4AD5
100
AcDbEntity
  8
寸法
 62
     0
370
    -2
100
AcDbBlockReference
  2
_DOT
 10
73.23063766930638
 20
348.7335990428102
 30
0.0
 41
1.5
 42
1.5
 43
1.5
 50
90.0
  0
INSERT
  5
4ADC
330
4AD5
100
AcDbEntity
  8
寸法
 62
     0
370
    -2
100
AcDbBlockReference
  2
_DOT
 10
73.23063766930638
 20
283.0579914400502
 30
0.0
 41
1.5
 42
1.5
 43
1.5
 50
270.0
  0
MTEXT
  5
4ADD
330
4AD5
100
AcDbEntity
  8
寸法
  6
Continuous
 62
     0
100
AcDbMText
 10
68.73063766930638
 20
315.8957952414302
 30
0.0
 40
5.0
 41
0.0
 46
0.0
 71
     5
 72
     1
  1
\A1;66
  7
ＭＳ ゴシック
 11
0.0
 21
1.0
 31
0.0
 73
     1
 44
1.0
  0
POINT
  5
4ADE
330
4AD5
100
AcDbEntity
  8
Defpoints
 62
     0
100
AcDbPoint
 10
101.6145976063949
 20
348.7335990428102
 30
0.0
  0
POINT
  5
4ADF
330
4AD5
100
AcDbEntity
  8
Defpoints
 62
     0
100
AcDbPoint
 10
116.1257815346022
 20
283.0579914400502
 30
0.0
  0
POINT
  5
4AE0
330
4AD5
100
AcDbEntity
  8
Defpoints
 62
     0
100
AcDbPoint
 10
73.23063766930638
 20
283.0579914400502
 30
0.0
  0
ENDBLK
  5
4AD7
330
4AD5
100
AcDbEntity
  8
0
100
AcDbBlockEnd
  0
BLOCK
  5
4CAF
330
4CAE
100
AcDbEntity
  8
0
100
AcDbBlockBegin
  2
*D7
 70
     1
 10
0.0
 20
0.0
 30
0.0
  3
*D7
  1
*D212
  0
LINE
  5
4CB1
330
4CAE
100
AcDbEntity
  8
寸法
  6
Continuous
 62
     0
370
    -2
100
AcDbLine
 10
127.1209189124219
 20
146.3720356700788
 30
0.0
 11
127.1209189124219
 21
139.6397026849567
 31
0.0
  0
LINE
  5
4CB2
330
4CAE
100
AcDbEntity
  8
寸法
  6
Continuous
 62
     0
370
    -2
100
AcDbLine
 10
134.9293746245949
 20
163.6679425127937
 30
0.0
 11
134.9293746245949
 21
139.6397026849567
 31
0.0
  0
LINE
  5
4CB3
330
4CAE
100
AcDbEntity
  8
寸法
  6
Continuous
 62
     0
370
    -2
100
AcDbLine
 10
134.9293746245949
 20
139.6397026849567
 30
0.0
 11
182.7593746245949
 21
139.6397026849567
 31
0.0
  0
INSERT
  5
4CB4
330
4CAE
100
AcDbEntity
  8
寸法
 62
     0
370
    -2
100
AcDbBlockReference
  2
_DOT
 10
127.1209189124219
 20
139.6397026849567
 30
0.0
 41
1.5
 42
1.5
 43
1.5
 50
180.0
  0
INSERT
  5
4CB5
330
4CAE
100
AcDbEntity
  8
寸法
 62
     0
370
    -2
100
AcDbBlockReference
  2
_DOT
 10
134.9293746245949
 20
139.6397026849567
 30
0.0
 41
1.5
 42
1.5
 43
1.5
  0
MTEXT
  5
4CB6
330
4CAE
100
AcDbEntity
  8
寸法
  6
Continuous
 62
     0
100
AcDbMText
 10
160.3443746245949
 20
144.6972026849567
 30
0.0
 40
5.0
 41
0.0
 46
0.0
 71
     5
 72
     1
  1
\A1;プレート部分8
  7
ＭＳ ゴシック
 73
     1
 44
1.0
  0
POINT
  5
4CB7
330
4CAE
100
AcDbEntity
  8
Defpoints
 62
     0
100
AcDbPoint
 10
127.1209189124219
 20
151.3720356700788
 30
0.0
  0
POINT
  5
4CB8
330
4CAE
100
AcDbEntity
  8
Defpoints
 62
     0
100
AcDbPoint
 10
134.9293746245949
 20
168.6679425127937
 30
0.0
  0
POINT
  5
4CB9
330
4CAE
100
AcDbEntity
  8
Defpoints
 62
     0
100
AcDbPoint
 10
134.9293746245949
 20
139.6397026849567
 30
0.0
  0
ENDBLK
  5
4CB0
330
4CAE
100
AcDbEntity
  8
0
100
AcDbBlockEnd
  0
BLOCK
  5
4EF5
330
4EF4
100
AcDbEntity
  8
0
100
AcDbBlockBegin
  2
*D8
 70
     1
 10
0.0
 20
0.0
 30
0.0
  3
*D8
  1
*D205
  0
LINE
  5
4EF7
330
4EF4
100
AcDbEntity
  8
寸法
  6
Continuous
 62
     0
370
    -2
100
AcDbLine
 10
112.6201563136584
 20
341.0229538105481
 30
0.0
 11
85.0740253008951
 21
341.0229538105481
 31
0.0
  0
LINE
  5
4EF8
330
4EF4
100
AcDbEntity
  8
寸法
  6
Continuous
 62
     0
370
    -2
100
AcDbLine
 10
116.1257815346022
 20
283.0579914400502
 30
0.0
 11
85.0740253008951
 21
283.0579914400502
 31
0.0
  0
LINE
  5
4EF9
330
4EF4
100
AcDbEntity
  8
寸法
  6
Continuous
 62
     0
370
    -2
100
AcDbLine
 10
85.0740253008951
 20
339.5229538105481
 30
0.0
 11
85.0740253008951
 21
284.5579914400502
 31
0.0
  0
INSERT
  5
4EFA
330
4EF4
100
AcDbEntity
  8
寸法
 62
     0
370
    -2
100
AcDbBlockReference
  2
_DOT
 10
85.0740253008951
 20
341.0229538105481
 30
0.0
 41
1.5
 42
1.5
 43
1.5
 50
90.0
  0
INSERT
  5
4EFB
330
4EF4
100
AcDbEntity
  8
寸法
 62
     0
370
    -2
100
AcDbBlockReference
  2
_DOT
 10
85.0740253008951
 20
283.0579914400502
 30
0.0
 41
1.5
 42
1.5
 43
1.5
 50
270.0
  0
MTEXT
  5
4EFC
330
4EF4
100
AcDbEntity
  8
寸法
  6
Continuous
 62
     0
100
AcDbMText
 10
80.5740253008951
 20
312.0404726252991
 30
0.0
 40
5.0
 41
0.0
 46
0.0
 71
     5
 72
     1
  1
\A1;58
  7
ＭＳ ゴシック
 11
0.0
 21
1.0
 31
0.0
 73
     1
 44
1.0
  0
POINT
  5
4EFD
330
4EF4
100
AcDbEntity
  8
Defpoints
 62
     0
100
AcDbPoint
 10
117.6201563136584
 20
341.0229538105481
 30
0.0
  0
POINT
  5
4EFE
330
4EF4
100
AcDbEntity
  8
Defpoints
 62
     0
100
AcDbPoint
 10
121.1257815346022
 20
283.0579914400502
 30
0.0
  0
POINT
  5
4EFF
330
4EF4
100
AcDbEntity
  8
Defpoints
 62
     0
100
AcDbPoint
 10
85.0740253008951
 20
283.0579914400502
 30
0.0
  0
ENDBLK
  5
4EF6
330
4EF4
100
AcDbEntity
  8
0
100
AcDbBlockEnd
  0
BLOCK
  5
523F
330
523E
100
AcDbEntity
  8
0
100
AcDbBlockBegin
  2
-000-LW_POLYLINE_1
 70
     0
 10
0.0
 20
0.0
 30
0.0
  3
-000-LW_POLYLINE_1
  1
-000-LW_POLYLINE_1
  0
LINE
  5
5240
330
523E
100
AcDbEntity
  8
_0-1_
  6
Continuous
 62
     7
100
AcDbLine
 10
-601.827882
 20
9.676374
 30
0.0
 11
-603.1550900000001
 21
8.426163999999998
 31
0.0
  0
LINE
  5
5241
330
523E
100
AcDbEntity
  8
_0-1_
  6
Continuous
 62
     7
100
AcDbLine
 10
-603.1550900000001
 20
8.426163999999998
 30
0.0
 11
-604.5554200000001
 21
7.258525999999998
 31
0.0
  0
LINE
  5
5242
330
523E
100
AcDbEntity
  8
_0-1_
  6
Continuous
 62
     7
100
AcDbLine
 10
-604.5554200000001
 20
7.258525999999998
 30
0.0
 11
-606.0309460000001
 21
6.187273999999999
 31
0.0
  0
LINE
  5
5243
330
523E
100
AcDbEntity
  8
_0-1_
  6
Continuous
 62
     7
100
AcDbLine
 10
-606.0309460000001
 20
6.187273999999999
 30
0.0
 11
-607.5711060000001
 21
5.211261999999998
 31
0.0
  0
LINE
  5
5244
330
523E
100
AcDbEntity
  8
_0-1_
  6
Continuous
 62
     7
100
AcDbLine
 10
-607.5711060000001
 20
5.211261999999998
 30
0.0
 11
-609.177124
 21
4.348081999999998
 31
0.0
  0
LINE
  5
5245
330
523E
100
AcDbEntity
  8
_0-1_
  6
Continuous
 62
     7
100
AcDbLine
 10
-609.177124
 20
4.348081999999998
 30
0.0
 11
-610.8458260000001
 21
3.613433999999998
 31
0.0
  0
LINE
  5
5246
330
523E
100
AcDbEntity
  8
_0-1_
  6
Continuous
 62
     7
100
AcDbLine
 10
-610.8458260000001
 20
3.613433999999998
 30
0.0
 11
-612.5731200000001
 21
3.029967999999997
 31
0.0
  0
LINE
  5
5247
330
523E
100
AcDbEntity
  8
_0-1_
  6
Continuous
 62
     7
100
AcDbLine
 10
-612.5731200000001
 20
3.029967999999997
 30
0.0
 11
-614.347962
 21
2.613655999999999
 31
0.0
  0
LINE
  5
5248
330
523E
100
AcDbEntity
  8
_0-1_
  6
Continuous
 62
     7
100
AcDbLine
 10
-614.347962
 20
2.613655999999999
 30
0.0
 11
-616.1613780000001
 21
2.431451999999997
 31
0.0
  0
ENDBLK
  5
5249
330
523E
100
AcDbEntity
  8
0
100
AcDbBlockEnd
  0
BLOCK
  5
52C1
330
52C0
100
AcDbEntity
  8
0
100
AcDbBlockBegin
  2
*D10
 70
     1
 10
0.0
 20
0.0
 30
0.0
  3
*D10
  1
*D208
  0
LINE
  5
52C3
330
52C0
100
AcDbEntity
  8
寸法
  6
Continuous
 62
     0
370
    -2
100
AcDbLine
 10
115.1257815346022
 20
284.0579914400503
 30
0.0
 11
115.1257815346022
 21
262.310987207737
 31
0.0
  0
LINE
  5
52C4
330
52C0
100
AcDbEntity
  8
寸法
  6
Continuous
 62
     0
370
    -2
100
AcDbLine
 10
248.1257815346022
 20
279.0579914400502
 30
0.0
 11
248.1257815346022
 21
262.310987207737
 31
0.0
  0
LINE
  5
52C5
330
52C0
100
AcDbEntity
  8
寸法
  6
Continuous
 62
     0
370
    -2
100
AcDbLine
 10
116.6257815346022
 20
262.310987207737
 30
0.0
 11
246.6257815346022
 21
262.310987207737
 31
0.0
  0
INSERT
  5
52C6
330
52C0
100
AcDbEntity
  8
寸法
 62
     0
370
    -2
100
AcDbBlockReference
  2
_DOT
 10
115.1257815346022
 20
262.310987207737
 30
0.0
 41
1.5
 42
1.5
 43
1.5
 50
180.0
  0
INSERT
  5
52C7
330
52C0
100
AcDbEntity
  8
寸法
 62
     0
370
    -2
100
AcDbBlockReference
  2
_DOT
 10
248.1257815346022
 20
262.310987207737
 30
0.0
 41
1.5
 42
1.5
 43
1.5
  0
MTEXT
  5
52C8
330
52C0
100
AcDbEntity
  8
寸法
  6
Continuous
 62
     0
100
AcDbMText
 10
181.6257815346022
 20
266.810987207737
 30
0.0
 40
5.0
 41
0.0
 46
0.0
 71
     5
 72
     1
  1
\A1;133
  7
ＭＳ ゴシック
 73
     1
 44
1.0
  0
POINT
  5
52C9
330
52C0
100
AcDbEntity
  8
Defpoints
 62
     0
100
AcDbPoint
 10
115.1257815346022
 20
289.0579914400503
 30
0.0
  0
POINT
  5
52CA
330
52C0
100
AcDbEntity
  8
Defpoints
 62
     0
100
AcDbPoint
 10
248.1257815346022
 20
284.0579914400502
 30
0.0
  0
POINT
  5
52CB
330
52C0
100
AcDbEntity
  8
Defpoints
 62
     0
100
AcDbPoint
 10
248.1257815346022
 20
262.310987207737
 30
0.0
  0
ENDBLK
  5
52C2
330
52C0
100
AcDbEntity
  8
0
100
AcDbBlockEnd
  0
BLOCK
  5
57F2
330
57F1
100
AcDbEntity
  8
0
100
AcDbBlockBegin
  2
名称未設定-1
 70
     0
 10
0.0
 20
0.0
 30
0.0
  3
名称未設定-1
  1
名称未設定-1
  0
INSERT
  5
57F3
330
57F1
100
AcDbEntity
  8
TFORMLOGO
100
AcDbBlockReference
  2
block 2
 10
0.0
 20
0.0
 30
0.0
  0
ENDBLK
  5
5818
330
57F1
100
AcDbEntity
  8
0
100
AcDbBlockEnd
  0
BLOCK
  5
57F5
330
57F4
100
AcDbEntity
  8
0
100
AcDbBlockBegin
  2
block 2
 70
     0
 10
0.0
 20
0.0
 30
0.0
  3
block 2
  1
block 2
  0
INSERT
  5
57F6
330
57F4
100
AcDbEntity
  8
TFORMLOGO
100
AcDbBlockReference
  2
block 3
 10
0.0
 20
0.0
 30
0.0
  0
ENDBLK
  5
5817
330
57F4
100
AcDbEntity
  8
0
100
AcDbBlockEnd
  0
BLOCK
  5
582E
330
582D
100
AcDbEntity
  8
0
100
AcDbBlockBegin
  2
*D13
 70
     1
 10
0.0
 20
0.0
 30
0.0
  3
*D13
  1
*D53
  0
LINE
  5
582F
330
582D
100
AcDbEntity
  8
寸法
  6
Continuous
 62
     0
370
    -2
100
AcDbLine
 10
94.93135926942057
 20
348.7335990428101
 30
0.0
 11
82.57835042397778
 21
348.7335990428101
 31
0.0
  0
LINE
  5
5830
330
582D
100
AcDbEntity
  8
寸法
  6
Continuous
 62
     0
370
    -2
100
AcDbLine
 10
109.4837282141555
 20
341.0341771438358
 30
0.0
 11
82.57835042397778
 21
341.0341771438358
 31
0.0
  0
LINE
  5
5831
330
582D
100
AcDbEntity
  8
寸法
  6
Continuous
 62
     0
370
    -2
100
AcDbLine
 10
82.57835042397778
 20
348.7335990428101
 30
0.0
 11
82.57835042397778
 21
341.0341771438358
 31
0.0
  0
LINE
  5
5832
330
582D
100
AcDbEntity
  8
寸法
  6
Continuous
 62
     0
370
    -2
100
AcDbLine
 10
82.57835042397778
 20
350.2335990428101
 30
0.0
 11
82.57835042397778
 21
351.7335990428101
 31
0.0
  0
LINE
  5
5833
330
582D
100
AcDbEntity
  8
寸法
  6
Continuous
 62
     0
370
    -2
100
AcDbLine
 10
82.57835042397778
 20
339.5341771438358
 30
0.0
 11
82.57835042397778
 21
338.0341771438358
 31
0.0
  0
INSERT
  5
5834
330
582D
100
AcDbEntity
  8
寸法
 62
     0
370
    -2
100
AcDbBlockReference
  2
_DOT
 10
82.57835042397778
 20
348.7335990428101
 30
0.0
 41
1.5
 42
1.5
 43
1.5
 50
270.0
  0
INSERT
  5
5835
330
582D
100
AcDbEntity
  8
寸法
 62
     0
370
    -2
100
AcDbBlockReference
  2
_DOT
 10
82.57835042397778
 20
341.0341771438358
 30
0.0
 41
1.5
 42
1.5
 43
1.5
 50
90.0
  0
MTEXT
  5
5836
330
582D
100
AcDbEntity
  8
寸法
  6
Continuous
 62
     0
100
AcDbMText
 10
78.07835042397778
 20
344.883888093323
 30
0.0
 40
5.0
 41
0.0
 46
0.0
 71
     5
 72
     1
  1
\A1;8
  7
ＭＳ ゴシック
 11
0.0
 21
1.0
 31
0.0
 73
     1
 44
1.0
  0
POINT
  5
59B6
330
582D
100
AcDbEntity
  8
Defpoints
 62
     0
100
AcDbPoint
 10
99.93135926942057
 20
348.7335990428101
 30
0.0
  0
POINT
  5
59B7
330
582D
100
AcDbEntity
  8
Defpoints
 62
     0
100
AcDbPoint
 10
114.4837282141555
 20
341.0341771438358
 30
0.0
  0
POINT
  5
59B8
330
582D
100
AcDbEntity
  8
Defpoints
 62
     0
100
AcDbPoint
 10
82.57835042397778
 20
341.0341771438358
 30
0.0
  0
ENDBLK
  5
5837
330
582D
100
AcDbEntity
  8
0
100
AcDbBlockEnd
  0
BLOCK
  5
583A
330
5839
100
AcDbEntity
  8
0
100
AcDbBlockBegin
  2
*D14
 70
     1
 10
0.0
 20
0.0
 30
0.0
  3
*D14
  1
*D54
  0
LINE
  5
583B
330
5839
100
AcDbEntity
  8
寸法
  6
Continuous
 62
     0
370
    -2
100
AcDbLine
 10
403.8854160529299
 20
348.7990849693352
 30
0.0
 11
364.2169531300075
 21
348.7990849693352
 31
0.0
  0
LINE
  5
583C
330
5839
100
AcDbEntity
  8
寸法
  6
Continuous
 62
     0
370
    -2
100
AcDbLine
 10
403.8854160529299
 20
293.7990849693352
 30
0.0
 11
364.2169531300075
 21
293.7990849693352
 31
0.0
  0
LINE
  5
583D
330
5839
100
AcDbEntity
  8
寸法
  6
Continuous
 62
     0
370
    -2
100
AcDbLine
 10
364.2169531300075
 20
347.2990849693352
 30
0.0
 11
364.2169531300075
 21
295.2990849693352
 31
0.0
  0
INSERT
  5
583E
330
5839
100
AcDbEntity
  8
寸法
 62
     0
370
    -2
100
AcDbBlockReference
  2
_DOT
 10
364.2169531300075
 20
348.7990849693352
 30
0.0
 41
1.5
 42
1.5
 43
1.5
 50
90.0
  0
INSERT
  5
583F
330
5839
100
AcDbEntity
  8
寸法
 62
     0
370
    -2
100
AcDbBlockReference
  2
_DOT
 10
364.2169531300075
 20
293.7990849693352
 30
0.0
 41
1.5
 42
1.5
 43
1.5
 50
270.0
  0
MTEXT
  5
5840
330
5839
100
AcDbEntity
  8
寸法
  6
Continuous
 62
     0
100
AcDbMText
 10
359.3119531300075
 20
321.2990849693352
 30
0.0
 40
5.0
 41
0.0
 46
0.0
 71
     5
 72
     1
  1
\A1;φ55
  7
ＭＳ ゴシック
 11
0.0
 21
1.0
 31
0.0
 73
     1
 44
1.0
  0
POINT
  5
5841
330
5839
100
AcDbEntity
  8
Defpoints
 62
     0
100
AcDbPoint
 10
408.8854160529299
 20
348.7990849693352
 30
0.0
  0
POINT
  5
5842
330
5839
100
AcDbEntity
  8
Defpoints
 62
     0
100
AcDbPoint
 10
408.8854160529299
 20
293.7990849693352
 30
0.0
  0
POINT
  5
5843
330
5839
100
AcDbEntity
  8
Defpoints
 62
     0
100
AcDbPoint
 10
364.2169531300075
 20
293.7990849693352
 30
0.0
  0
ENDBLK
  5
5844
330
5839
100
AcDbEntity
  8
0
100
AcDbBlockEnd
  0
BLOCK
  5
5847
330
5846
100
AcDbEntity
  8
0
100
AcDbBlockBegin
  2
*D15
 70
     1
 10
0.0
 20
0.0
 30
0.0
  3
*D15
  1
*D55
  0
LINE
  5
5848
330
5846
100
AcDbEntity
  8
寸法
  6
Continuous
 62
     0
370
    -2
100
AcDbLine
 10
94.06705166406618
 20
348.7335990428101
 30
0.0
 11
62.66820315675285
 21
348.7335990428101
 31
0.0
  0
LINE
  5
5849
330
5846
100
AcDbEntity
  8
寸法
  6
Continuous
 62
     0
370
    -2
100
AcDbLine
 10
184.9711760191407
 20
281.0777285890699
 30
0.0
 11
62.66820315675284
 21
281.0777285890699
 31
0.0
  0
LINE
  5
584A
330
5846
100
AcDbEntity
  8
寸法
  6
Continuous
 62
     0
370
    -2
100
AcDbLine
 10
62.66820315675285
 20
347.2335990428101
 30
0.0
 11
62.66820315675284
 21
282.5777285890699
 31
0.0
  0
INSERT
  5
584B
330
5846
100
AcDbEntity
  8
寸法
 62
     0
370
    -2
100
AcDbBlockReference
  2
_DOT
 10
62.66820315675285
 20
348.7335990428101
 30
0.0
 41
1.5
 42
1.5
 43
1.5
 50
90.0
  0
INSERT
  5
584C
330
5846
100
AcDbEntity
  8
寸法
 62
     0
370
    -2
100
AcDbBlockReference
  2
_DOT
 10
62.66820315675284
 20
281.0777285890699
 30
0.0
 41
1.5
 42
1.5
 43
1.5
 50
270.0
  0
MTEXT
  5
584D
330
5846
100
AcDbEntity
  8
寸法
  6
Continuous
 62
     0
100
AcDbMText
 10
58.16820315675284
 20
314.90566381594
 30
0.0
 40
5.0
 41
0.0
 46
0.0
 71
     5
 72
     1
  1
\A1;68
  7
ＭＳ ゴシック
 11
1.050230720549128E-16
 21
1.0
 31
0.0
 73
     1
 44
1.0
  0
POINT
  5
584E
330
5846
100
AcDbEntity
  8
Defpoints
 62
     0
100
AcDbPoint
 10
99.06705166406618
 20
348.7335990428101
 30
0.0
  0
POINT
  5
584F
330
5846
100
AcDbEntity
  8
Defpoints
 62
     0
100
AcDbPoint
 10
189.9711760191407
 20
281.0777285890699
 30
0.0
  0
POINT
  5
5850
330
5846
100
AcDbEntity
  8
Defpoints
 62
     0
100
AcDbPoint
 10
62.66820315675284
 20
281.0777285890699
 30
0.0
  0
ENDBLK
  5
5851
330
5846
100
AcDbEntity
  8
0
100
AcDbBlockEnd
  0
BLOCK
  5
5854
330
5853
100
AcDbEntity
  8
0
100
AcDbBlockBegin
  2
*D16
 70
     1
 10
0.0
 20
0.0
 30
0.0
  3
*D16
  1
*D56
  0
LINE
  5
5855
330
5853
100
AcDbEntity
  8
寸法
  6
Continuous
 62
     0
370
    -2
100
AcDbLine
 10
127.0296484505602
 20
145.053068208781
 30
0.0
 11
127.0296484505602
 21
138.3207352236588
 31
0.0
  0
LINE
  5
5856
330
5853
100
AcDbEntity
  8
寸法
  6
Continuous
 62
     0
370
    -2
100
AcDbLine
 10
134.8816507401137
 20
163.6511043765549
 30
0.0
 11
134.8816507401137
 21
138.3207352236588
 31
0.0
  0
LINE
  5
5857
330
5853
100
AcDbEntity
  8
寸法
  6
Continuous
 62
     0
370
    -2
100
AcDbLine
 10
134.8816507401137
 20
138.3207352236588
 30
0.0
 11
186.7116507401138
 21
138.3207352236588
 31
0.0
  0
INSERT
  5
5858
330
5853
100
AcDbEntity
  8
寸法
 62
     0
370
    -2
100
AcDbBlockReference
  2
_DOT
 10
127.0296484505602
 20
138.3207352236588
 30
0.0
 41
1.5
 42
1.5
 43
1.5
 50
180.0
  0
INSERT
  5
5859
330
5853
100
AcDbEntity
  8
寸法
 62
     0
370
    -2
100
AcDbBlockReference
  2
_DOT
 10
134.8816507401137
 20
138.3207352236588
 30
0.0
 41
1.5
 42
1.5
 43
1.5
  0
MTEXT
  5
585A
330
5853
100
AcDbEntity
  8
寸法
  6
Continuous
 62
     0
100
AcDbMText
 10
164.2966507401138
 20
143.3782352236588
 30
0.0
 40
5.0
 41
0.0
 46
0.0
 71
     5
 72
     1
  1
\A1;プレート部分8
  7
ＭＳ ゴシック
 73
     1
 44
1.0
  0
POINT
  5
585B
330
5853
100
AcDbEntity
  8
Defpoints
 62
     0
100
AcDbPoint
 10
127.0296484505602
 20
150.053068208781
 30
0.0
  0
POINT
  5
585C
330
5853
100
AcDbEntity
  8
Defpoints
 62
     0
100
AcDbPoint
 10
134.8816507401137
 20
168.6511043765549
 30
0.0
  0
POINT
  5
585D
330
5853
100
AcDbEntity
  8
Defpoints
 62
     0
100
AcDbPoint
 10
134.8816507401137
 20
138.3207352236588
 30
0.0
  0
ENDBLK
  5
585E
330
5853
100
AcDbEntity
  8
0
100
AcDbBlockEnd
  0
BLOCK
  5
5863
330
5862
100
AcDbEntity
  8
0
100
AcDbBlockBegin
  2
*D17
 70
     1
 10
0.0
 20
0.0
 30
0.0
  3
*D17
  1
*D57
  0
LINE
  5
5864
330
5862
100
AcDbEntity
  8
寸法
  6
Continuous
 62
     0
370
    -2
100
AcDbLine
 10
110.0726103713298
 20
341.022953810548
 30
0.0
 11
82.52647935856646
 21
341.022953810548
 31
0.0
  0
LINE
  5
5865
330
5862
100
AcDbEntity
  8
寸法
  6
Continuous
 62
     0
370
    -2
100
AcDbLine
 10
189.9711760191407
 20
281.0777285890699
 30
0.0
 11
82.52647935856646
 21
281.0777285890699
 31
0.0
  0
LINE
  5
5866
330
5862
100
AcDbEntity
  8
寸法
  6
Continuous
 62
     0
370
    -2
100
AcDbLine
 10
82.52647935856646
 20
339.522953810548
 30
0.0
 11
82.52647935856646
 21
282.5777285890699
 31
0.0
  0
INSERT
  5
5867
330
5862
100
AcDbEntity
  8
寸法
 62
     0
370
    -2
100
AcDbBlockReference
  2
_DOT
 10
82.52647935856646
 20
341.022953810548
 30
0.0
 41
1.5
 42
1.5
 43
1.5
 50
90.0
  0
INSERT
  5
5868
330
5862
100
AcDbEntity
  8
寸法
 62
     0
370
    -2
100
AcDbBlockReference
  2
_DOT
 10
82.52647935856646
 20
281.0777285890699
 30
0.0
 41
1.5
 42
1.5
 43
1.5
 50
270.0
  0
MTEXT
  5
5869
330
5862
100
AcDbEntity
  8
寸法
  6
Continuous
 62
     0
100
AcDbMText
 10
78.02647935856646
 20
311.0503411998089
 30
0.0
 40
5.0
 41
0.0
 46
0.0
 71
     5
 72
     1
  1
\A1;60
  7
ＭＳ ゴシック
 11
0.0
 21
1.0
 31
0.0
 73
     1
 44
1.0
  0
POINT
  5
586A
330
5862
100
AcDbEntity
  8
Defpoints
 62
     0
100
AcDbPoint
 10
115.0726103713298
 20
341.022953810548
 30
0.0
  0
POINT
  5
586B
330
5862
100
AcDbEntity
  8
Defpoints
 62
     0
100
AcDbPoint
 10
194.9711760191407
 20
281.0777285890699
 30
0.0
  0
POINT
  5
586C
330
5862
100
AcDbEntity
  8
Defpoints
 62
     0
100
AcDbPoint
 10
82.52647935856646
 20
281.0777285890699
 30
0.0
  0
ENDBLK
  5
586D
330
5862
100
AcDbEntity
  8
0
100
AcDbBlockEnd
  0
BLOCK
  5
58BF
330
58BE
100
AcDbEntity
  8
0
100
AcDbBlockBegin
  2
*D18
 70
     1
 10
0.0
 20
0.0
 30
0.0
  3
*D18
  1
*D58
  0
LINE
  5
58C0
330
58BE
100
AcDbEntity
  8
寸法
  6
Continuous
 62
     0
370
    -2
100
AcDbLine
 10
115.1935433875918
 20
326.04005183593
 30
0.0
 11
115.1935433875918
 21
262.1267427827099
 31
0.0
  0
LINE
  5
58C1
330
58BE
100
AcDbEntity
  8
寸法
  6
Continuous
 62
     0
370
    -2
100
AcDbLine
 10
234.1687403875918
 20
292.9484688359301
 30
0.0
 11
234.1687403875918
 21
262.1267427827099
 31
0.0
  0
LINE
  5
58C2
330
58BE
100
AcDbEntity
  8
寸法
  6
Continuous
 62
     0
370
    -2
100
AcDbLine
 10
116.6935433875918
 20
262.1267427827099
 30
0.0
 11
232.6687403875918
 21
262.1267427827099
 31
0.0
  0
INSERT
  5
58C3
330
58BE
100
AcDbEntity
  8
寸法
 62
     0
370
    -2
100
AcDbBlockReference
  2
_DOT
 10
115.1935433875918
 20
262.1267427827099
 30
0.0
 41
1.5
 42
1.5
 43
1.5
 50
180.0
  0
INSERT
  5
58C4
330
58BE
100
AcDbEntity
  8
寸法
 62
     0
370
    -2
100
AcDbBlockReference
  2
_DOT
 10
234.1687403875918
 20
262.1267427827099
 30
0.0
 41
1.5
 42
1.5
 43
1.5
  0
MTEXT
  5
58C5
330
58BE
100
AcDbEntity
  8
寸法
  6
Continuous
 62
     0
100
AcDbMText
 10
174.6811418875918
 20
266.6267427827099
 30
0.0
 40
5.0
 41
0.0
 46
0.0
 71
     5
 72
     1
  1
\A1;119
  7
ＭＳ ゴシック
 73
     1
 44
1.0
  0
POINT
  5
58C6
330
58BE
100
AcDbEntity
  8
Defpoints
 62
     0
100
AcDbPoint
 10
115.1935433875918
 20
331.04005183593
 30
0.0
  0
POINT
  5
58C7
330
58BE
100
AcDbEntity
  8
Defpoints
 62
     0
100
AcDbPoint
 10
234.1687403875918
 20
297.9484688359301
 30
0.0
  0
POINT
  5
58C8
330
58BE
100
AcDbEntity
  8
Defpoints
 62
     0
100
AcDbPoint
 10
234.1687403875918
 20
262.1267427827099
 30
0.0
  0
ENDBLK
  5
58C9
330
58BE
100
AcDbEntity
  8
0
100
AcDbBlockEnd
  0
BLOCK
  5
58F3
330
58F2
100
AcDbEntity
  8
0
100
AcDbBlockBegin
  2
*D19
 70
     1
 10
0.0
 20
0.0
 30
0.0
  3
*D19
  1
*D63
  0
LINE
  5
58F4
330
58F2
100
AcDbEntity
  8
寸法
 62
     0
370
    -2
100
AcDbLine
 10
427.8721245115549
 20
172.3452081951892
 30
0.0
 11
427.8721245115549
 21
144.5573006134969
 31
0.0
  0
LINE
  5
58F5
330
58F2
100
AcDbEntity
  8
寸法
 62
     0
370
    -2
100
AcDbLine
 10
389.8721245115548
 20
172.3452081951892
 30
0.0
 11
389.8721245115548
 21
144.5573006134969
 31
0.0
  0
LINE
  5
58F6
330
58F2
100
AcDbEntity
  8
寸法
 62
     0
370
    -2
100
AcDbLine
 10
389.8721245115548
 20
144.5573006134969
 30
0.0
 11
376.2146245115548
 21
144.5573006134969
 31
0.0
  0
LINE
  5
58F7
330
58F2
100
AcDbEntity
  8
寸法
 62
     0
370
    -2
100
AcDbLine
 10
426.3721245115549
 20
144.5573006134969
 30
0.0
 11
391.3721245115548
 21
144.5573006134969
 31
0.0
  0
INSERT
  5
58F8
330
58F2
100
AcDbEntity
  8
寸法
 62
     0
370
    -2
100
AcDbBlockReference
  2
_DOT
 10
427.8721245115549
 20
144.5573006134969
 30
0.0
 41
1.5
 42
1.5
 43
1.5
  0
INSERT
  5
58F9
330
58F2
100
AcDbEntity
  8
寸法
 62
     0
370
    -2
100
AcDbBlockReference
  2
_DOT
 10
389.8721245115548
 20
144.5573006134969
 30
0.0
 41
1.5
 42
1.5
 43
1.5
 50
180.0
  0
POINT
  5
58FA
330
58F2
100
AcDbEntity
  8
Defpoints
 62
     0
100
AcDbPoint
 10
427.8721245115549
 20
177.3452081951892
 30
0.0
  0
POINT
  5
58FB
330
58F2
100
AcDbEntity
  8
Defpoints
 62
     0
100
AcDbPoint
 10
389.8721245115548
 20
177.3452081951892
 30
0.0
  0
POINT
  5
58FC
330
58F2
100
AcDbEntity
  8
Defpoints
 62
     0
100
AcDbPoint
 10
389.8721245115548
 20
144.5573006134969
 30
0.0
  0
ENDBLK
  5
58FD
330
58F2
100
AcDbEntity
  8
0
100
AcDbBlockEnd
  0
BLOCK
  5
5900
330
58FF
100
AcDbEntity
  8
0
100
AcDbBlockBegin
  2
*D20
 70
     1
 10
0.0
 20
0.0
 30
0.0
  3
*D20
  1
*D67
  0
LINE
  5
5901
330
58FF
100
AcDbEntity
  8
寸法
 62
     0
370
    -2
100
AcDbLine
 10
389.8721245115548
 20
191.0157099566222
 30
0.0
 11
389.8721245115548
 21
213.8023335341041
 31
0.0
  0
LINE
  5
5902
330
58FF
100
AcDbEntity
  8
寸法
 62
     0
370
    -2
100
AcDbLine
 10
408.8721245115548
 20
205.1912224768318
 30
0.0
 11
408.8721245115548
 21
213.8023335341041
 31
0.0
  0
LINE
  5
5903
330
58FF
100
AcDbEntity
  8
寸法
 62
     0
370
    -2
100
AcDbLine
 10
391.3721245115548
 20
213.8023335341041
 30
0.0
 11
407.3721245115548
 21
213.8023335341041
 31
0.0
  0
INSERT
  5
5904
330
58FF
100
AcDbEntity
  8
寸法
 62
     0
370
    -2
100
AcDbBlockReference
  2
_DOT
 10
389.8721245115548
 20
213.8023335341041
 30
0.0
 41
1.5
 42
1.5
 43
1.5
 50
180.0
  0
INSERT
  5
5905
330
58FF
100
AcDbEntity
  8
寸法
 62
     0
370
    -2
100
AcDbBlockReference
  2
_DOT
 10
408.8721245115548
 20
213.8023335341041
 30
0.0
 41
1.5
 42
1.5
 43
1.5
  0
MTEXT
  5
5906
330
58FF
100
AcDbEntity
  8
寸法
  6
Continuous
 62
     0
100
AcDbMText
 10
399.3721245115548
 20
218.3023335341041
 30
0.0
 40
5.0
 41
0.0
 46
0.0
 71
     5
 72
     1
  1
\A1;19
  7
ＭＳ ゴシック
 73
     1
 44
1.0
  0
POINT
  5
5907
330
58FF
100
AcDbEntity
  8
Defpoints
 62
     0
100
AcDbPoint
 10
389.8721245115548
 20
186.0157099566222
 30
0.0
  0
POINT
  5
5908
330
58FF
100
AcDbEntity
  8
Defpoints
 62
     0
100
AcDbPoint
 10
408.8721245115548
 20
200.1912224768318
 30
0.0
  0
POINT
  5
5909
330
58FF
100
AcDbEntity
  8
Defpoints
 62
     0
100
AcDbPoint
 10
408.8721245115548
 20
213.8023335341041
 30
0.0
  0
ENDBLK
  5
590A
330
58FF
100
AcDbEntity
  8
0
100
AcDbBlockEnd
  0
BLOCK
  5
590D
330
590C
100
AcDbEntity
  8
0
100
AcDbBlockBegin
  2
*D21
 70
     1
 10
0.0
 20
0.0
 30
0.0
  3
*D21
  1
*D68
  0
LINE
  5
590E
330
590C
100
AcDbEntity
  8
寸法
 62
     0
370
    -2
100
AcDbLine
 10
408.8721245115548
 20
205.1912224768318
 30
0.0
 11
408.8721245115548
 21
213.8023335341041
 31
0.0
  0
LINE
  5
590F
330
590C
100
AcDbEntity
  8
寸法
 62
     0
370
    -2
100
AcDbLine
 10
427.8721245115549
 20
191.0157099566222
 30
0.0
 11
427.8721245115549
 21
213.8023335341041
 31
0.0
  0
LINE
  5
5910
330
590C
100
AcDbEntity
  8
寸法
 62
     0
370
    -2
100
AcDbLine
 10
410.3721245115548
 20
213.8023335341041
 30
0.0
 11
426.3721245115549
 21
213.8023335341041
 31
0.0
  0
INSERT
  5
5911
330
590C
100
AcDbEntity
  8
寸法
 62
     0
370
    -2
100
AcDbBlockReference
  2
_DOT
 10
408.8721245115548
 20
213.8023335341041
 30
0.0
 41
1.5
 42
1.5
 43
1.5
 50
180.0
  0
INSERT
  5
5912
330
590C
100
AcDbEntity
  8
寸法
 62
     0
370
    -2
100
AcDbBlockReference
  2
_DOT
 10
427.8721245115549
 20
213.8023335341041
 30
0.0
 41
1.5
 42
1.5
 43
1.5
  0
MTEXT
  5
5913
330
590C
100
AcDbEntity
  8
寸法
  6
Continuous
 62
     0
100
AcDbMText
 10
418.3721245115548
 20
218.3023335341041
 30
0.0
 40
5.0
 41
0.0
 46
0.0
 71
     5
 72
     1
  1
\A1;19
  7
ＭＳ ゴシック
 73
     1
 44
1.0
  0
POINT
  5
5914
330
590C
100
AcDbEntity
  8
Defpoints
 62
     0
100
AcDbPoint
 10
408.8721245115548
 20
200.1912224768318
 30
0.0
  0
POINT
  5
5915
330
590C
100
AcDbEntity
  8
Defpoints
 62
     0
100
AcDbPoint
 10
427.8721245115549
 20
186.0157099566222
 30
0.0
  0
POINT
  5
5916
330
590C
100
AcDbEntity
  8
Defpoints
 62
     0
100
AcDbPoint
 10
427.8721245115549
 20
213.8023335341041
 30
0.0
  0
ENDBLK
  5
5917
330
590C
100
AcDbEntity
  8
0
100
AcDbBlockEnd
  0
BLOCK
  5
5998
330
5997
100
AcDbEntity
  8
0
100
AcDbBlockBegin
  2
*D22
 70
     1
 10
0.0
 20
0.0
 30
0.0
  3
*D22
  1
*D69
  0
LINE
  5
5999
330
5997
100
AcDbEntity
  8
寸法
 62
     0
370
    -2
100
AcDbLine
 10
108.1825120145531
 20
356.4345575436565
 30
0.0
 11
108.1825120145531
 21
365.9906564456901
 31
0.0
  0
LINE
  5
599A
330
5997
100
AcDbEntity
  8
寸法
 62
     0
370
    -2
100
AcDbLine
 10
146.1825120145531
 20
356.4345575436565
 30
0.0
 11
146.1825120145531
 21
365.9906564456901
 31
0.0
  0
LINE
  5
599B
330
5997
100
AcDbEntity
  8
寸法
 62
     0
370
    -2
100
AcDbLine
 10
109.6825120145531
 20
365.9906564456901
 30
0.0
 11
144.6825120145531
 21
365.9906564456901
 31
0.0
  0
INSERT
  5
599C
330
5997
100
AcDbEntity
  8
寸法
 62
     0
370
    -2
100
AcDbBlockReference
  2
_DOT
 10
108.1825120145531
 20
365.9906564456901
 30
0.0
 41
1.5
 42
1.5
 43
1.5
 50
180.0
  0
INSERT
  5
599D
330
5997
100
AcDbEntity
  8
寸法
 62
     0
370
    -2
100
AcDbBlockReference
  2
_DOT
 10
146.1825120145531
 20
365.9906564456901
 30
0.0
 41
1.5
 42
1.5
 43
1.5
  0
MTEXT
  5
599E
330
5997
100
AcDbEntity
  8
寸法
  6
Continuous
 62
     0
100
AcDbMText
 10
127.1825120145531
 20
370.4906564456901
 30
0.0
 40
5.0
 41
0.0
 46
0.0
 71
     5
 72
     1
  1
\A1;38
  7
ＭＳ ゴシック
 73
     1
 44
1.0
  0
POINT
  5
599F
330
5997
100
AcDbEntity
  8
Defpoints
 62
     0
100
AcDbPoint
 10
108.1825120145531
 20
351.4345575436565
 30
0.0
  0
POINT
  5
59A0
330
5997
100
AcDbEntity
  8
Defpoints
 62
     0
100
AcDbPoint
 10
146.1825120145531
 20
351.4345575436565
 30
0.0
  0
POINT
  5
59A1
330
5997
100
AcDbEntity
  8
Defpoints
 62
     0
100
AcDbPoint
 10
146.1825120145531
 20
365.9906564456901
 30
0.0
  0
ENDBLK
  5
59A2
330
5997
100
AcDbEntity
  8
0
100
AcDbBlockEnd
  0
BLOCK
  5
5AFF
330
5AFE
100
AcDbEntity
  8
0
100
AcDbBlockBegin
  2
*D23
 70
     1
 10
0.0
 20
0.0
 30
0.0
  3
*D23
  1
*D24
  0
LINE
  5
5B01
330
5AFE
100
AcDbEntity
  8
寸法
 62
     0
370
    -2
100
AcDbLine
 10
389.8721245115548
 20
191.0157099566222
 30
0.0
 11
389.8721245115548
 21
213.8023335341041
 31
0.0
  0
LINE
  5
5B02
330
5AFE
100
AcDbEntity
  8
寸法
 62
     0
370
    -2
100
AcDbLine
 10
408.8721245115548
 20
205.1912224768318
 30
0.0
 11
408.8721245115548
 21
213.8023335341041
 31
0.0
  0
LINE
  5
5B03
330
5AFE
100
AcDbEntity
  8
寸法
 62
     0
370
    -2
100
AcDbLine
 10
391.3721245115548
 20
213.8023335341041
 30
0.0
 11
407.3721245115548
 21
213.8023335341041
 31
0.0
  0
INSERT
  5
5B04
330
5AFE
100
AcDbEntity
  8
寸法
 62
     0
370
    -2
100
AcDbBlockReference
  2
_DOT
 10
389.8721245115548
 20
213.8023335341041
 30
0.0
 41
1.5
 42
1.5
 43
1.5
 50
180.0
  0
INSERT
  5
5B05
330
5AFE
100
AcDbEntity
  8
寸法
 62
     0
370
    -2
100
AcDbBlockReference
  2
_DOT
 10
408.8721245115548
 20
213.8023335341041
 30
0.0
 41
1.5
 42
1.5
 43
1.5
  0
MTEXT
  5
5B06
330
5AFE
100
AcDbEntity
  8
寸法
  6
Continuous
 62
     0
100
AcDbMText
 10
399.3721245115548
 20
218.3023335341041
 30
0.0
 40
5.0
 41
0.0
 46
0.0
 71
     5
 72
     1
  1
\A1;19
  7
ＭＳ ゴシック
 73
     1
 44
1.0
  0
POINT
  5
5B07
330
5AFE
100
AcDbEntity
  8
Defpoints
 62
     0
100
AcDbPoint
 10
389.8721245115548
 20
186.0157099566222
 30
0.0
  0
POINT
  5
5B08
330
5AFE
100
AcDbEntity
  8
Defpoints
 62
     0
100
AcDbPoint
 10
408.8721245115548
 20
200.1912224768318
 30
0.0
  0
POINT
  5
5B09
330
5AFE
100
AcDbEntity
  8
Defpoints
 62
     0
100
AcDbPoint
 10
408.8721245115548
 20
213.8023335341041
 30
0.0
  0
ENDBLK
  5
5B00
330
5AFE
100
AcDbEntity
  8
0
100
AcDbBlockEnd
  0
BLOCK
  5
5B0B
330
5B0A
100
AcDbEntity
  8
0
100
AcDbBlockBegin
  2
*D24
 70
     1
 10
0.0
 20
0.0
 30
0.0
  3
*D24
  1
*D25
  0
LINE
  5
5B0D
330
5B0A
100
AcDbEntity
  8
寸法
 62
     0
370
    -2
100
AcDbLine
 10
408.8721245115548
 20
205.1912224768318
 30
0.0
 11
408.8721245115548
 21
213.8023335341041
 31
0.0
  0
LINE
  5
5B0E
330
5B0A
100
AcDbEntity
  8
寸法
 62
     0
370
    -2
100
AcDbLine
 10
427.8721245115549
 20
191.0157099566222
 30
0.0
 11
427.8721245115549
 21
213.8023335341041
 31
0.0
  0
LINE
  5
5B0F
330
5B0A
100
AcDbEntity
  8
寸法
 62
     0
370
    -2
100
AcDbLine
 10
410.3721245115548
 20
213.8023335341041
 30
0.0
 11
426.3721245115549
 21
213.8023335341041
 31
0.0
  0
INSERT
  5
5B10
330
5B0A
100
AcDbEntity
  8
寸法
 62
     0
370
    -2
100
AcDbBlockReference
  2
_DOT
 10
408.8721245115548
 20
213.8023335341041
 30
0.0
 41
1.5
 42
1.5
 43
1.5
 50
180.0
  0
INSERT
  5
5B11
330
5B0A
100
AcDbEntity
  8
寸法
 62
     0
370
    -2
100
AcDbBlockReference
  2
_DOT
 10
427.8721245115549
 20
213.8023335341041
 30
0.0
 41
1.5
 42
1.5
 43
1.5
  0
MTEXT
  5
5B12
330
5B0A
100
AcDbEntity
  8
寸法
  6
Continuous
 62
     0
100
AcDbMText
 10
418.3721245115548
 20
218.3023335341041
 30
0.0
 40
5.0
 41
0.0
 46
0.0
 71
     5
 72
     1
  1
\A1;19
  7
ＭＳ ゴシック
 73
     1
 44
1.0
  0
POINT
  5
5B13
330
5B0A
100
AcDbEntity
  8
Defpoints
 62
     0
100
AcDbPoint
 10
408.8721245115548
 20
200.1912224768318
 30
0.0
  0
POINT
  5
5B14
330
5B0A
100
AcDbEntity
  8
Defpoints
 62
     0
100
AcDbPoint
 10
427.8721245115549
 20
186.0157099566222
 30
0.0
  0
POINT
  5
5B15
330
5B0A
100
AcDbEntity
  8
Defpoints
 62
     0
100
AcDbPoint
 10
427.8721245115549
 20
213.8023335341041
 30
0.0
  0
ENDBLK
  5
5B0C
330
5B0A
100
AcDbEntity
  8
0
100
AcDbBlockEnd
  0
BLOCK
  5
5C64
330
5C63
100
AcDbEntity
  8
0
100
AcDbBlockBegin
  2
*D25
 70
     1
 10
0.0
 20
0.0
 30
0.0
  3
*D25
  1
*D27
  0
LINE
  5
5C65
330
5C63
100
AcDbEntity
  8
寸法
  6
Continuous
 62
     0
370
    -2
100
AcDbLine
 10
94.93135926942057
 20
348.7335990428101
 30
0.0
 11
82.57835042397778
 21
348.7335990428101
 31
0.0
  0
LINE
  5
5C66
330
5C63
100
AcDbEntity
  8
寸法
  6
Continuous
 62
     0
370
    -2
100
AcDbLine
 10
109.4837282141555
 20
341.0341771438358
 30
0.0
 11
82.57835042397778
 21
341.0341771438358
 31
0.0
  0
LINE
  5
5C67
330
5C63
100
AcDbEntity
  8
寸法
  6
Continuous
 62
     0
370
    -2
100
AcDbLine
 10
82.57835042397778
 20
348.7335990428101
 30
0.0
 11
82.57835042397778
 21
341.0341771438358
 31
0.0
  0
LINE
  5
5C68
330
5C63
100
AcDbEntity
  8
寸法
  6
Continuous
 62
     0
370
    -2
100
AcDbLine
 10
82.57835042397778
 20
350.2335990428101
 30
0.0
 11
82.57835042397778
 21
351.7335990428101
 31
0.0
  0
LINE
  5
5C69
330
5C63
100
AcDbEntity
  8
寸法
  6
Continuous
 62
     0
370
    -2
100
AcDbLine
 10
82.57835042397778
 20
339.5341771438358
 30
0.0
 11
82.57835042397778
 21
338.0341771438358
 31
0.0
  0
INSERT
  5
5C6A
330
5C63
100
AcDbEntity
  8
寸法
 62
     0
370
    -2
100
AcDbBlockReference
  2
_DOT
 10
82.57835042397778
 20
348.7335990428101
 30
0.0
 41
1.5
 42
1.5
 43
1.5
 50
270.0
  0
INSERT
  5
5C6B
330
5C63
100
AcDbEntity
  8
寸法
 62
     0
370
    -2
100
AcDbBlockReference
  2
_DOT
 10
82.57835042397778
 20
341.0341771438358
 30
0.0
 41
1.5
 42
1.5
 43
1.5
 50
90.0
  0
MTEXT
  5
5C6C
330
5C63
100
AcDbEntity
  8
寸法
  6
Continuous
 62
     0
100
AcDbMText
 10
78.07835042397778
 20
344.883888093323
 30
0.0
 40
5.0
 41
0.0
 46
0.0
 71
     5
 72
     1
  1
\A1;8
  7
ＭＳ ゴシック
 11
0.0
 21
1.0
 31
0.0
 73
     1
 44
1.0
  0
POINT
  5
5C6D
330
5C63
100
AcDbEntity
  8
Defpoints
 62
     0
100
AcDbPoint
 10
99.93135926942057
 20
348.7335990428101
 30
0.0
  0
POINT
  5
5C6E
330
5C63
100
AcDbEntity
  8
Defpoints
 62
     0
100
AcDbPoint
 10
114.4837282141555
 20
341.0341771438358
 30
0.0
  0
POINT
  5
5C6F
330
5C63
100
AcDbEntity
  8
Defpoints
 62
     0
100
AcDbPoint
 10
82.57835042397778
 20
341.0341771438358
 30
0.0
  0
ENDBLK
  5
5C70
330
5C63
100
AcDbEntity
  8
0
100
AcDbBlockEnd
  0
BLOCK
  5
5C73
330
5C72
100
AcDbEntity
  8
0
100
AcDbBlockBegin
  2
*D26
 70
     1
 10
0.0
 20
0.0
 30
0.0
  3
*D26
  1
*D28
  0
LINE
  5
5C74
330
5C72
100
AcDbEntity
  8
寸法
  6
Continuous
 62
     0
370
    -2
100
AcDbLine
 10
403.8854160529299
 20
348.7990849693352
 30
0.0
 11
364.2169531300076
 21
348.7990849693352
 31
0.0
  0
LINE
  5
5C75
330
5C72
100
AcDbEntity
  8
寸法
  6
Continuous
 62
     0
370
    -2
100
AcDbLine
 10
403.8854160529299
 20
293.7990849693352
 30
0.0
 11
364.2169531300076
 21
293.7990849693352
 31
0.0
  0
LINE
  5
5C76
330
5C72
100
AcDbEntity
  8
寸法
  6
Continuous
 62
     0
370
    -2
100
AcDbLine
 10
364.2169531300076
 20
347.2990849693352
 30
0.0
 11
364.2169531300076
 21
295.2990849693352
 31
0.0
  0
INSERT
  5
5C77
330
5C72
100
AcDbEntity
  8
寸法
 62
     0
370
    -2
100
AcDbBlockReference
  2
_DOT
 10
364.2169531300076
 20
348.7990849693352
 30
0.0
 41
1.5
 42
1.5
 43
1.5
 50
90.0
  0
INSERT
  5
5C78
330
5C72
100
AcDbEntity
  8
寸法
 62
     0
370
    -2
100
AcDbBlockReference
  2
_DOT
 10
364.2169531300076
 20
293.7990849693352
 30
0.0
 41
1.5
 42
1.5
 43
1.5
 50
270.0
  0
MTEXT
  5
5C79
330
5C72
100
AcDbEntity
  8
寸法
  6
Continuous
 62
     0
100
AcDbMText
 10
359.3119531300076
 20
321.2990849693352
 30
0.0
 40
5.0
 41
0.0
 46
0.0
 71
     5
 72
     1
  1
\A1;φ55
  7
ＭＳ ゴシック
 11
0.0
 21
1.0
 31
0.0
 73
     1
 44
1.0
  0
POINT
  5
5C7A
330
5C72
100
AcDbEntity
  8
Defpoints
 62
     0
100
AcDbPoint
 10
408.8854160529299
 20
348.7990849693352
 30
0.0
  0
POINT
  5
5C7B
330
5C72
100
AcDbEntity
  8
Defpoints
 62
     0
100
AcDbPoint
 10
408.8854160529299
 20
293.7990849693352
 30
0.0
  0
POINT
  5
5C7C
330
5C72
100
AcDbEntity
  8
Defpoints
 62
     0
100
AcDbPoint
 10
364.2169531300076
 20
293.7990849693352
 30
0.0
  0
ENDBLK
  5
5C7D
330
5C72
100
AcDbEntity
  8
0
100
AcDbBlockEnd
  0
BLOCK
  5
5C80
330
5C7F
100
AcDbEntity
  8
0
100
AcDbBlockBegin
  2
*D27
 70
     1
 10
0.0
 20
0.0
 30
0.0
  3
*D27
  1
*D29
  0
LINE
  5
5C81
330
5C7F
100
AcDbEntity
  8
寸法
  6
Continuous
 62
     0
370
    -2
100
AcDbLine
 10
94.06705166406618
 20
348.7335990428101
 30
0.0
 11
62.66820315675285
 21
348.7335990428101
 31
0.0
  0
LINE
  5
5C82
330
5C7F
100
AcDbEntity
  8
寸法
  6
Continuous
 62
     0
370
    -2
100
AcDbLine
 10
184.9711760191407
 20
281.0777285890699
 30
0.0
 11
62.66820315675284
 21
281.0777285890699
 31
0.0
  0
LINE
  5
5C83
330
5C7F
100
AcDbEntity
  8
寸法
  6
Continuous
 62
     0
370
    -2
100
AcDbLine
 10
62.66820315675285
 20
347.2335990428101
 30
0.0
 11
62.66820315675284
 21
282.5777285890699
 31
0.0
  0
INSERT
  5
5C84
330
5C7F
100
AcDbEntity
  8
寸法
 62
     0
370
    -2
100
AcDbBlockReference
  2
_DOT
 10
62.66820315675285
 20
348.7335990428101
 30
0.0
 41
1.5
 42
1.5
 43
1.5
 50
90.0
  0
INSERT
  5
5C85
330
5C7F
100
AcDbEntity
  8
寸法
 62
     0
370
    -2
100
AcDbBlockReference
  2
_DOT
 10
62.66820315675284
 20
281.0777285890699
 30
0.0
 41
1.5
 42
1.5
 43
1.5
 50
270.0
  0
MTEXT
  5
5C86
330
5C7F
100
AcDbEntity
  8
寸法
  6
Continuous
 62
     0
100
AcDbMText
 10
58.16820315675284
 20
314.90566381594
 30
0.0
 40
5.0
 41
0.0
 46
0.0
 71
     5
 72
     1
  1
\A1;68
  7
ＭＳ ゴシック
 11
1.050230720549128E-16
 21
1.0
 31
0.0
 73
     1
 44
1.0
  0
POINT
  5
5C87
330
5C7F
100
AcDbEntity
  8
Defpoints
 62
     0
100
AcDbPoint
 10
99.06705166406618
 20
348.7335990428101
 30
0.0
  0
POINT
  5
5C88
330
5C7F
100
AcDbEntity
  8
Defpoints
 62
     0
100
AcDbPoint
 10
189.9711760191407
 20
281.0777285890699
 30
0.0
  0
POINT
  5
5C89
330
5C7F
100
AcDbEntity
  8
Defpoints
 62
     0
100
AcDbPoint
 10
62.66820315675284
 20
281.0777285890699
 30
0.0
  0
ENDBLK
  5
5C8A
330
5C7F
100
AcDbEntity
  8
0
100
AcDbBlockEnd
  0
BLOCK
  5
5C8D
330
5C8C
100
AcDbEntity
  8
0
100
AcDbBlockBegin
  2
*D28
 70
     1
 10
0.0
 20
0.0
 30
0.0
  3
*D28
  1
*D30
  0
LINE
  5
5C8E
330
5C8C
100
AcDbEntity
  8
寸法
  6
Continuous
 62
     0
370
    -2
100
AcDbLine
 10
127.0296484505602
 20
145.053068208781
 30
0.0
 11
127.0296484505602
 21
138.3207352236588
 31
0.0
  0
LINE
  5
5C8F
330
5C8C
100
AcDbEntity
  8
寸法
  6
Continuous
 62
     0
370
    -2
100
AcDbLine
 10
134.8816507401137
 20
163.6511043765549
 30
0.0
 11
134.8816507401137
 21
138.3207352236588
 31
0.0
  0
LINE
  5
5C90
330
5C8C
100
AcDbEntity
  8
寸法
  6
Continuous
 62
     0
370
    -2
100
AcDbLine
 10
134.8816507401137
 20
138.3207352236588
 30
0.0
 11
186.7116507401138
 21
138.3207352236588
 31
0.0
  0
INSERT
  5
5C91
330
5C8C
100
AcDbEntity
  8
寸法
 62
     0
370
    -2
100
AcDbBlockReference
  2
_DOT
 10
127.0296484505602
 20
138.3207352236588
 30
0.0
 41
1.5
 42
1.5
 43
1.5
 50
180.0
  0
INSERT
  5
5C92
330
5C8C
100
AcDbEntity
  8
寸法
 62
     0
370
    -2
100
AcDbBlockReference
  2
_DOT
 10
134.8816507401137
 20
138.3207352236588
 30
0.0
 41
1.5
 42
1.5
 43
1.5
  0
MTEXT
  5
5C93
330
5C8C
100
AcDbEntity
  8
寸法
  6
Continuous
 62
     0
100
AcDbMText
 10
164.2966507401138
 20
143.3782352236588
 30
0.0
 40
5.0
 41
0.0
 46
0.0
 71
     5
 72
     1
  1
\A1;プレート部分8
  7
ＭＳ ゴシック
 73
     1
 44
1.0
  0
POINT
  5
5C94
330
5C8C
100
AcDbEntity
  8
Defpoints
 62
     0
100
AcDbPoint
 10
127.0296484505602
 20
150.053068208781
 30
0.0
  0
POINT
  5
5C95
330
5C8C
100
AcDbEntity
  8
Defpoints
 62
     0
100
AcDbPoint
 10
134.8816507401137
 20
168.6511043765549
 30
0.0
  0
POINT
  5
5C96
330
5C8C
100
AcDbEntity
  8
Defpoints
 62
     0
100
AcDbPoint
 10
134.8816507401137
 20
138.3207352236588
 30
0.0
  0
ENDBLK
  5
5C97
330
5C8C
100
AcDbEntity
  8
0
100
AcDbBlockEnd
  0
BLOCK
  5
5C9C
330
5C9B
100
AcDbEntity
  8
0
100
AcDbBlockBegin
  2
*D29
 70
     1
 10
0.0
 20
0.0
 30
0.0
  3
*D29
  1
*D31
  0
LINE
  5
5C9D
330
5C9B
100
AcDbEntity
  8
寸法
  6
Continuous
 62
     0
370
    -2
100
AcDbLine
 10
110.0726103713298
 20
341.022953810548
 30
0.0
 11
82.52647935856646
 21
341.022953810548
 31
0.0
  0
LINE
  5
5C9E
330
5C9B
100
AcDbEntity
  8
寸法
  6
Continuous
 62
     0
370
    -2
100
AcDbLine
 10
189.9711760191407
 20
281.0777285890699
 30
0.0
 11
82.52647935856646
 21
281.0777285890699
 31
0.0
  0
LINE
  5
5C9F
330
5C9B
100
AcDbEntity
  8
寸法
  6
Continuous
 62
     0
370
    -2
100
AcDbLine
 10
82.52647935856646
 20
339.522953810548
 30
0.0
 11
82.52647935856646
 21
282.5777285890699
 31
0.0
  0
INSERT
  5
5CA0
330
5C9B
100
AcDbEntity
  8
寸法
 62
     0
370
    -2
100
AcDbBlockReference
  2
_DOT
 10
82.52647935856646
 20
341.022953810548
 30
0.0
 41
1.5
 42
1.5
 43
1.5
 50
90.0
  0
INSERT
  5
5CA1
330
5C9B
100
AcDbEntity
  8
寸法
 62
     0
370
    -2
100
AcDbBlockReference
  2
_DOT
 10
82.52647935856646
 20
281.0777285890699
 30
0.0
 41
1.5
 42
1.5
 43
1.5
 50
270.0
  0
MTEXT
  5
5CA2
330
5C9B
100
AcDbEntity
  8
寸法
  6
Continuous
 62
     0
100
AcDbMText
 10
78.02647935856646
 20
311.0503411998089
 30
0.0
 40
5.0
 41
0.0
 46
0.0
 71
     5
 72
     1
  1
\A1;60
  7
ＭＳ ゴシック
 11
0.0
 21
1.0
 31
0.0
 73
     1
 44
1.0
  0
POINT
  5
5CA3
330
5C9B
100
AcDbEntity
  8
Defpoints
 62
     0
100
AcDbPoint
 10
115.0726103713298
 20
341.022953810548
 30
0.0
  0
POINT
  5
5CA4
330
5C9B
100
AcDbEntity
  8
Defpoints
 62
     0
100
AcDbPoint
 10
194.9711760191407
 20
281.0777285890699
 30
0.0
  0
POINT
  5
5CA5
330
5C9B
100
AcDbEntity
  8
Defpoints
 62
     0
100
AcDbPoint
 10
82.52647935856646
 20
281.0777285890699
 30
0.0
  0
ENDBLK
  5
5CA6
330
5C9B
100
AcDbEntity
  8
0
100
AcDbBlockEnd
  0
BLOCK
  5
5CF8
330
5CF7
100
AcDbEntity
  8
0
100
AcDbBlockBegin
  2
*D30
 70
     1
 10
0.0
 20
0.0
 30
0.0
  3
*D30
  1
*D32
  0
LINE
  5
5CF9
330
5CF7
100
AcDbEntity
  8
寸法
  6
Continuous
 62
     0
370
    -2
100
AcDbLine
 10
115.1935433875918
 20
326.04005183593
 30
0.0
 11
115.1935433875918
 21
262.1267427827099
 31
0.0
  0
LINE
  5
5CFA
330
5CF7
100
AcDbEntity
  8
寸法
  6
Continuous
 62
     0
370
    -2
100
AcDbLine
 10
234.1687403875919
 20
292.9484688359301
 30
0.0
 11
234.1687403875919
 21
262.1267427827099
 31
0.0
  0
LINE
  5
5CFB
330
5CF7
100
AcDbEntity
  8
寸法
  6
Continuous
 62
     0
370
    -2
100
AcDbLine
 10
116.6935433875918
 20
262.1267427827099
 30
0.0
 11
232.6687403875919
 21
262.1267427827099
 31
0.0
  0
INSERT
  5
5CFC
330
5CF7
100
AcDbEntity
  8
寸法
 62
     0
370
    -2
100
AcDbBlockReference
  2
_DOT
 10
115.1935433875918
 20
262.1267427827099
 30
0.0
 41
1.5
 42
1.5
 43
1.5
 50
180.0
  0
INSERT
  5
5CFD
330
5CF7
100
AcDbEntity
  8
寸法
 62
     0
370
    -2
100
AcDbBlockReference
  2
_DOT
 10
234.1687403875919
 20
262.1267427827099
 30
0.0
 41
1.5
 42
1.5
 43
1.5
  0
MTEXT
  5
5CFE
330
5CF7
100
AcDbEntity
  8
寸法
  6
Continuous
 62
     0
100
AcDbMText
 10
174.6811418875919
 20
266.6267427827099
 30
0.0
 40
5.0
 41
0.0
 46
0.0
 71
     5
 72
     1
  1
\A1;119
  7
ＭＳ ゴシック
 73
     1
 44
1.0
  0
POINT
  5
5CFF
330
5CF7
100
AcDbEntity
  8
Defpoints
 62
     0
100
AcDbPoint
 10
115.1935433875918
 20
331.04005183593
 30
0.0
  0
POINT
  5
5D00
330
5CF7
100
AcDbEntity
  8
Defpoints
 62
     0
100
AcDbPoint
 10
234.1687403875919
 20
297.9484688359301
 30
0.0
  0
POINT
  5
5D01
330
5CF7
100
AcDbEntity
  8
Defpoints
 62
     0
100
AcDbPoint
 10
234.1687403875919
 20
262.1267427827099
 30
0.0
  0
ENDBLK
  5
5D02
330
5CF7
100
AcDbEntity
  8
0
100
AcDbBlockEnd
  0
BLOCK
  5
5D2C
330
5D2B
100
AcDbEntity
  8
0
100
AcDbBlockBegin
  2
*D31
 70
     1
 10
0.0
 20
0.0
 30
0.0
  3
*D31
  1
*D33
  0
LINE
  5
5D2D
330
5D2B
100
AcDbEntity
  8
寸法
 62
     0
370
    -2
100
AcDbLine
 10
427.8721245115548
 20
172.3452081951892
 30
0.0
 11
427.8721245115548
 21
144.5573006134969
 31
0.0
  0
LINE
  5
5D2E
330
5D2B
100
AcDbEntity
  8
寸法
 62
     0
370
    -2
100
AcDbLine
 10
389.8721245115548
 20
172.3452081951892
 30
0.0
 11
389.8721245115548
 21
144.5573006134969
 31
0.0
  0
LINE
  5
5D2F
330
5D2B
100
AcDbEntity
  8
寸法
 62
     0
370
    -2
100
AcDbLine
 10
389.8721245115548
 20
144.5573006134969
 30
0.0
 11
376.2146245115548
 21
144.5573006134969
 31
0.0
  0
LINE
  5
5D30
330
5D2B
100
AcDbEntity
  8
寸法
 62
     0
370
    -2
100
AcDbLine
 10
426.3721245115548
 20
144.5573006134969
 30
0.0
 11
391.3721245115548
 21
144.5573006134969
 31
0.0
  0
INSERT
  5
5D31
330
5D2B
100
AcDbEntity
  8
寸法
 62
     0
370
    -2
100
AcDbBlockReference
  2
_DOT
 10
427.8721245115548
 20
144.5573006134969
 30
0.0
 41
1.5
 42
1.5
 43
1.5
  0
INSERT
  5
5D32
330
5D2B
100
AcDbEntity
  8
寸法
 62
     0
370
    -2
100
AcDbBlockReference
  2
_DOT
 10
389.8721245115548
 20
144.5573006134969
 30
0.0
 41
1.5
 42
1.5
 43
1.5
 50
180.0
  0
POINT
  5
5D33
330
5D2B
100
AcDbEntity
  8
Defpoints
 62
     0
100
AcDbPoint
 10
427.8721245115548
 20
177.3452081951892
 30
0.0
  0
POINT
  5
5D34
330
5D2B
100
AcDbEntity
  8
Defpoints
 62
     0
100
AcDbPoint
 10
389.8721245115548
 20
177.3452081951892
 30
0.0
  0
POINT
  5
5D35
330
5D2B
100
AcDbEntity
  8
Defpoints
 62
     0
100
AcDbPoint
 10
389.8721245115548
 20
144.5573006134969
 30
0.0
  0
ENDBLK
  5
5D36
330
5D2B
100
AcDbEntity
  8
0
100
AcDbBlockEnd
  0
BLOCK
  5
5D39
330
5D38
100
AcDbEntity
  8
0
100
AcDbBlockBegin
  2
*D32
 70
     1
 10
0.0
 20
0.0
 30
0.0
  3
*D32
  1
*D34
  0
LINE
  5
5D3A
330
5D38
100
AcDbEntity
  8
寸法
 62
     0
370
    -2
100
AcDbLine
 10
389.8721245115548
 20
191.0157099566222
 30
0.0
 11
389.8721245115548
 21
213.8023335341041
 31
0.0
  0
LINE
  5
5D3B
330
5D38
100
AcDbEntity
  8
寸法
 62
     0
370
    -2
100
AcDbLine
 10
408.8721245115548
 20
205.1912224768318
 30
0.0
 11
408.8721245115548
 21
213.8023335341041
 31
0.0
  0
LINE
  5
5D3C
330
5D38
100
AcDbEntity
  8
寸法
 62
     0
370
    -2
100
AcDbLine
 10
391.3721245115548
 20
213.8023335341041
 30
0.0
 11
407.3721245115548
 21
213.8023335341041
 31
0.0
  0
INSERT
  5
5D3D
330
5D38
100
AcDbEntity
  8
寸法
 62
     0
370
    -2
100
AcDbBlockReference
  2
_DOT
 10
389.8721245115548
 20
213.8023335341041
 30
0.0
 41
1.5
 42
1.5
 43
1.5
 50
180.0
  0
INSERT
  5
5D3E
330
5D38
100
AcDbEntity
  8
寸法
 62
     0
370
    -2
100
AcDbBlockReference
  2
_DOT
 10
408.8721245115548
 20
213.8023335341041
 30
0.0
 41
1.5
 42
1.5
 43
1.5
  0
MTEXT
  5
5D3F
330
5D38
100
AcDbEntity
  8
寸法
  6
Continuous
 62
     0
100
AcDbMText
 10
399.3721245115548
 20
218.3023335341041
 30
0.0
 40
5.0
 41
0.0
 46
0.0
 71
     5
 72
     1
  1
\A1;19
  7
ＭＳ ゴシック
 73
     1
 44
1.0
  0
POINT
  5
5D40
330
5D38
100
AcDbEntity
  8
Defpoints
 62
     0
100
AcDbPoint
 10
389.8721245115548
 20
186.0157099566222
 30
0.0
  0
POINT
  5
5D41
330
5D38
100
AcDbEntity
  8
Defpoints
 62
     0
100
AcDbPoint
 10
408.8721245115548
 20
200.1912224768318
 30
0.0
  0
POINT
  5
5D42
330
5D38
100
AcDbEntity
  8
Defpoints
 62
     0
100
AcDbPoint
 10
408.8721245115548
 20
213.8023335341041
 30
0.0
  0
ENDBLK
  5
5D43
330
5D38
100
AcDbEntity
  8
0
100
AcDbBlockEnd
  0
BLOCK
  5
5D46
330
5D45
100
AcDbEntity
  8
0
100
AcDbBlockBegin
  2
*D33
 70
     1
 10
0.0
 20
0.0
 30
0.0
  3
*D33
  1
*D35
  0
LINE
  5
5D47
330
5D45
100
AcDbEntity
  8
寸法
 62
     0
370
    -2
100
AcDbLine
 10
408.8721245115548
 20
205.1912224768318
 30
0.0
 11
408.8721245115548
 21
213.8023335341041
 31
0.0
  0
LINE
  5
5D48
330
5D45
100
AcDbEntity
  8
寸法
 62
     0
370
    -2
100
AcDbLine
 10
427.8721245115548
 20
191.0157099566222
 30
0.0
 11
427.8721245115548
 21
213.8023335341041
 31
0.0
  0
LINE
  5
5D49
330
5D45
100
AcDbEntity
  8
寸法
 62
     0
370
    -2
100
AcDbLine
 10
410.3721245115548
 20
213.8023335341041
 30
0.0
 11
426.3721245115548
 21
213.8023335341041
 31
0.0
  0
INSERT
  5
5D4A
330
5D45
100
AcDbEntity
  8
寸法
 62
     0
370
    -2
100
AcDbBlockReference
  2
_DOT
 10
408.8721245115548
 20
213.8023335341041
 30
0.0
 41
1.5
 42
1.5
 43
1.5
 50
180.0
  0
INSERT
  5
5D4B
330
5D45
100
AcDbEntity
  8
寸法
 62
     0
370
    -2
100
AcDbBlockReference
  2
_DOT
 10
427.8721245115548
 20
213.8023335341041
 30
0.0
 41
1.5
 42
1.5
 43
1.5
  0
MTEXT
  5
5D4C
330
5D45
100
AcDbEntity
  8
寸法
  6
Continuous
 62
     0
100
AcDbMText
 10
418.3721245115548
 20
218.3023335341041
 30
0.0
 40
5.0
 41
0.0
 46
0.0
 71
     5
 72
     1
  1
\A1;19
  7
ＭＳ ゴシック
 73
     1
 44
1.0
  0
POINT
  5
5D4D
330
5D45
100
AcDbEntity
  8
Defpoints
 62
     0
100
AcDbPoint
 10
408.8721245115548
 20
200.1912224768318
 30
0.0
  0
POINT
  5
5D4E
330
5D45
100
AcDbEntity
  8
Defpoints
 62
     0
100
AcDbPoint
 10
427.8721245115548
 20
186.0157099566222
 30
0.0
  0
POINT
  5
5D4F
330
5D45
100
AcDbEntity
  8
Defpoints
 62
     0
100
AcDbPoint
 10
427.8721245115548
 20
213.8023335341041
 30
0.0
  0
ENDBLK
  5
5D50
330
5D45
100
AcDbEntity
  8
0
100
AcDbBlockEnd
  0
BLOCK
  5
5DD1
330
5DD0
100
AcDbEntity
  8
0
100
AcDbBlockBegin
  2
*D34
 70
     1
 10
0.0
 20
0.0
 30
0.0
  3
*D34
  1
*D36
  0
LINE
  5
5DD2
330
5DD0
100
AcDbEntity
  8
寸法
 62
     0
370
    -2
100
AcDbLine
 10
108.1825120145531
 20
356.4345575436565
 30
0.0
 11
108.1825120145531
 21
365.9906564456901
 31
0.0
  0
LINE
  5
5DD3
330
5DD0
100
AcDbEntity
  8
寸法
 62
     0
370
    -2
100
AcDbLine
 10
146.1825120145531
 20
356.4345575436565
 30
0.0
 11
146.1825120145531
 21
365.9906564456901
 31
0.0
  0
LINE
  5
5DD4
330
5DD0
100
AcDbEntity
  8
寸法
 62
     0
370
    -2
100
AcDbLine
 10
109.6825120145531
 20
365.9906564456901
 30
0.0
 11
144.6825120145531
 21
365.9906564456901
 31
0.0
  0
INSERT
  5
5DD5
330
5DD0
100
AcDbEntity
  8
寸法
 62
     0
370
    -2
100
AcDbBlockReference
  2
_DOT
 10
108.1825120145531
 20
365.9906564456901
 30
0.0
 41
1.5
 42
1.5
 43
1.5
 50
180.0
  0
INSERT
  5
5DD6
330
5DD0
100
AcDbEntity
  8
寸法
 62
     0
370
    -2
100
AcDbBlockReference
  2
_DOT
 10
146.1825120145531
 20
365.9906564456901
 30
0.0
 41
1.5
 42
1.5
 43
1.5
  0
MTEXT
  5
5DD7
330
5DD0
100
AcDbEntity
  8
寸法
  6
Continuous
 62
     0
100
AcDbMText
 10
127.1825120145531
 20
370.4906564456901
 30
0.0
 40
5.0
 41
0.0
 46
0.0
 71
     5
 72
     1
  1
\A1;38
  7
ＭＳ ゴシック
 73
     1
 44
1.0
  0
POINT
  5
5DD8
330
5DD0
100
AcDbEntity
  8
Defpoints
 62
     0
100
AcDbPoint
 10
108.1825120145531
 20
351.4345575436565
 30
0.0
  0
POINT
  5
5DD9
330
5DD0
100
AcDbEntity
  8
Defpoints
 62
     0
100
AcDbPoint
 10
146.1825120145531
 20
351.4345575436565
 30
0.0
  0
POINT
  5
5DDA
330
5DD0
100
AcDbEntity
  8
Defpoints
 62
     0
100
AcDbPoint
 10
146.1825120145531
 20
365.9906564456901
 30
0.0
  0
ENDBLK
  5
5DDB
330
5DD0
100
AcDbEntity
  8
0
100
AcDbBlockEnd
  0
BLOCK
  5
5F34
330
5F33
100
AcDbEntity
  8
0
100
AcDbBlockBegin
  2
*D35
 70
     1
 10
0.0
 20
0.0
 30
0.0
  3
*D35
  1
*D37
  0
LINE
  5
5F36
330
5F33
100
AcDbEntity
  8
寸法
  6
Continuous
 62
     0
370
    -2
100
AcDbLine
 10
94.93135926942057
 20
348.7335990428101
 30
0.0
 11
82.57835042397778
 21
348.7335990428101
 31
0.0
  0
LINE
  5
5F37
330
5F33
100
AcDbEntity
  8
寸法
  6
Continuous
 62
     0
370
    -2
100
AcDbLine
 10
109.4837282141555
 20
341.0341771438358
 30
0.0
 11
82.57835042397778
 21
341.0341771438358
 31
0.0
  0
LINE
  5
5F38
330
5F33
100
AcDbEntity
  8
寸法
  6
Continuous
 62
     0
370
    -2
100
AcDbLine
 10
82.57835042397778
 20
348.7335990428101
 30
0.0
 11
82.57835042397778
 21
341.0341771438358
 31
0.0
  0
LINE
  5
5F39
330
5F33
100
AcDbEntity
  8
寸法
  6
Continuous
 62
     0
370
    -2
100
AcDbLine
 10
82.57835042397778
 20
350.2335990428101
 30
0.0
 11
82.57835042397778
 21
351.7335990428101
 31
0.0
  0
LINE
  5
5F3A
330
5F33
100
AcDbEntity
  8
寸法
  6
Continuous
 62
     0
370
    -2
100
AcDbLine
 10
82.57835042397778
 20
339.5341771438358
 30
0.0
 11
82.57835042397778
 21
338.0341771438358
 31
0.0
  0
INSERT
  5
5F3B
330
5F33
100
AcDbEntity
  8
寸法
 62
     0
370
    -2
100
AcDbBlockReference
  2
_DOT
 10
82.57835042397778
 20
348.7335990428101
 30
0.0
 41
1.5
 42
1.5
 43
1.5
 50
270.0
  0
INSERT
  5
5F3C
330
5F33
100
AcDbEntity
  8
寸法
 62
     0
370
    -2
100
AcDbBlockReference
  2
_DOT
 10
82.57835042397778
 20
341.0341771438358
 30
0.0
 41
1.5
 42
1.5
 43
1.5
 50
90.0
  0
MTEXT
  5
5F3D
330
5F33
100
AcDbEntity
  8
寸法
  6
Continuous
 62
     0
100
AcDbMText
 10
78.07835042397778
 20
344.883888093323
 30
0.0
 40
5.0
 41
0.0
 46
0.0
 71
     5
 72
     1
  1
\A1;8
  7
ＭＳ ゴシック
 11
0.0
 21
1.0
 31
0.0
 73
     1
 44
1.0
  0
POINT
  5
5F3E
330
5F33
100
AcDbEntity
  8
Defpoints
 62
     0
100
AcDbPoint
 10
99.93135926942057
 20
348.7335990428101
 30
0.0
  0
POINT
  5
5F3F
330
5F33
100
AcDbEntity
  8
Defpoints
 62
     0
100
AcDbPoint
 10
114.4837282141555
 20
341.0341771438358
 30
0.0
  0
POINT
  5
5F40
330
5F33
100
AcDbEntity
  8
Defpoints
 62
     0
100
AcDbPoint
 10
82.57835042397778
 20
341.0341771438358
 30
0.0
  0
ENDBLK
  5
5F35
330
5F33
100
AcDbEntity
  8
0
100
AcDbBlockEnd
  0
BLOCK
  5
5F42
330
5F41
100
AcDbEntity
  8
0
100
AcDbBlockBegin
  2
*D36
 70
     1
 10
0.0
 20
0.0
 30
0.0
  3
*D36
  1
*D38
  0
LINE
  5
5F44
330
5F41
100
AcDbEntity
  8
寸法
  6
Continuous
 62
     0
370
    -2
100
AcDbLine
 10
403.8854160529299
 20
348.7990849693352
 30
0.0
 11
364.2169531300076
 21
348.7990849693352
 31
0.0
  0
LINE
  5
5F45
330
5F41
100
AcDbEntity
  8
寸法
  6
Continuous
 62
     0
370
    -2
100
AcDbLine
 10
403.8854160529299
 20
293.7990849693352
 30
0.0
 11
364.2169531300076
 21
293.7990849693352
 31
0.0
  0
LINE
  5
5F46
330
5F41
100
AcDbEntity
  8
寸法
  6
Continuous
 62
     0
370
    -2
100
AcDbLine
 10
364.2169531300076
 20
347.2990849693352
 30
0.0
 11
364.2169531300076
 21
295.2990849693352
 31
0.0
  0
INSERT
  5
5F47
330
5F41
100
AcDbEntity
  8
寸法
 62
     0
370
    -2
100
AcDbBlockReference
  2
_DOT
 10
364.2169531300076
 20
348.7990849693352
 30
0.0
 41
1.5
 42
1.5
 43
1.5
 50
90.0
  0
INSERT
  5
5F48
330
5F41
100
AcDbEntity
  8
寸法
 62
     0
370
    -2
100
AcDbBlockReference
  2
_DOT
 10
364.2169531300076
 20
293.7990849693352
 30
0.0
 41
1.5
 42
1.5
 43
1.5
 50
270.0
  0
MTEXT
  5
5F49
330
5F41
100
AcDbEntity
  8
寸法
  6
Continuous
 62
     0
100
AcDbMText
 10
359.3119531300076
 20
321.2990849693352
 30
0.0
 40
5.0
 41
0.0
 46
0.0
 71
     5
 72
     1
  1
\A1;φ55
  7
ＭＳ ゴシック
 11
0.0
 21
1.0
 31
0.0
 73
     1
 44
1.0
  0
POINT
  5
5F4A
330
5F41
100
AcDbEntity
  8
Defpoints
 62
     0
100
AcDbPoint
 10
408.8854160529299
 20
348.7990849693352
 30
0.0
  0
POINT
  5
5F4B
330
5F41
100
AcDbEntity
  8
Defpoints
 62
     0
100
AcDbPoint
 10
408.8854160529299
 20
293.7990849693352
 30
0.0
  0
POINT
  5
5F4C
330
5F41
100
AcDbEntity
  8
Defpoints
 62
     0
100
AcDbPoint
 10
364.2169531300076
 20
293.7990849693352
 30
0.0
  0
ENDBLK
  5
5F43
330
5F41
100
AcDbEntity
  8
0
100
AcDbBlockEnd
  0
BLOCK
  5
5F4E
330
5F4D
100
AcDbEntity
  8
0
100
AcDbBlockBegin
  2
*D37
 70
     1
 10
0.0
 20
0.0
 30
0.0
  3
*D37
  1
*D39
  0
LINE
  5
5F50
330
5F4D
100
AcDbEntity
  8
寸法
  6
Continuous
 62
     0
370
    -2
100
AcDbLine
 10
94.06705166406618
 20
348.7335990428101
 30
0.0
 11
62.66820315675285
 21
348.7335990428101
 31
0.0
  0
LINE
  5
5F51
330
5F4D
100
AcDbEntity
  8
寸法
  6
Continuous
 62
     0
370
    -2
100
AcDbLine
 10
184.9711760191407
 20
281.0777285890699
 30
0.0
 11
62.66820315675284
 21
281.0777285890699
 31
0.0
  0
LINE
  5
5F52
330
5F4D
100
AcDbEntity
  8
寸法
  6
Continuous
 62
     0
370
    -2
100
AcDbLine
 10
62.66820315675285
 20
347.2335990428101
 30
0.0
 11
62.66820315675284
 21
282.5777285890699
 31
0.0
  0
INSERT
  5
5F53
330
5F4D
100
AcDbEntity
  8
寸法
 62
     0
370
    -2
100
AcDbBlockReference
  2
_DOT
 10
62.66820315675285
 20
348.7335990428101
 30
0.0
 41
1.5
 42
1.5
 43
1.5
 50
90.0
  0
INSERT
  5
5F54
330
5F4D
100
AcDbEntity
  8
寸法
 62
     0
370
    -2
100
AcDbBlockReference
  2
_DOT
 10
62.66820315675284
 20
281.0777285890699
 30
0.0
 41
1.5
 42
1.5
 43
1.5
 50
270.0
  0
MTEXT
  5
5F55
330
5F4D
100
AcDbEntity
  8
寸法
  6
Continuous
 62
     0
100
AcDbMText
 10
58.16820315675284
 20
314.90566381594
 30
0.0
 40
5.0
 41
0.0
 46
0.0
 71
     5
 72
     1
  1
\A1;68
  7
ＭＳ ゴシック
 11
1.050230720549128E-16
 21
1.0
 31
0.0
 73
     1
 44
1.0
  0
POINT
  5
5F56
330
5F4D
100
AcDbEntity
  8
Defpoints
 62
     0
100
AcDbPoint
 10
99.06705166406618
 20
348.7335990428101
 30
0.0
  0
POINT
  5
5F57
330
5F4D
100
AcDbEntity
  8
Defpoints
 62
     0
100
AcDbPoint
 10
189.9711760191407
 20
281.0777285890699
 30
0.0
  0
POINT
  5
5F58
330
5F4D
100
AcDbEntity
  8
Defpoints
 62
     0
100
AcDbPoint
 10
62.66820315675284
 20
281.0777285890699
 30
0.0
  0
ENDBLK
  5
5F4F
330
5F4D
100
AcDbEntity
  8
0
100
AcDbBlockEnd
  0
BLOCK
  5
5F5A
330
5F59
100
AcDbEntity
  8
0
100
AcDbBlockBegin
  2
*D38
 70
     1
 10
0.0
 20
0.0
 30
0.0
  3
*D38
  1
*D40
  0
LINE
  5
5F5C
330
5F59
100
AcDbEntity
  8
寸法
  6
Continuous
 62
     0
370
    -2
100
AcDbLine
 10
127.0296484505602
 20
145.053068208781
 30
0.0
 11
127.0296484505602
 21
138.3207352236588
 31
0.0
  0
LINE
  5
5F5D
330
5F59
100
AcDbEntity
  8
寸法
  6
Continuous
 62
     0
370
    -2
100
AcDbLine
 10
134.8816507401137
 20
163.6511043765549
 30
0.0
 11
134.8816507401137
 21
138.3207352236588
 31
0.0
  0
LINE
  5
5F5E
330
5F59
100
AcDbEntity
  8
寸法
  6
Continuous
 62
     0
370
    -2
100
AcDbLine
 10
134.8816507401137
 20
138.3207352236588
 30
0.0
 11
186.7116507401138
 21
138.3207352236588
 31
0.0
  0
INSERT
  5
5F5F
330
5F59
100
AcDbEntity
  8
寸法
 62
     0
370
    -2
100
AcDbBlockReference
  2
_DOT
 10
127.0296484505602
 20
138.3207352236588
 30
0.0
 41
1.5
 42
1.5
 43
1.5
 50
180.0
  0
INSERT
  5
5F60
330
5F59
100
AcDbEntity
  8
寸法
 62
     0
370
    -2
100
AcDbBlockReference
  2
_DOT
 10
134.8816507401137
 20
138.3207352236588
 30
0.0
 41
1.5
 42
1.5
 43
1.5
  0
MTEXT
  5
5F61
330
5F59
100
AcDbEntity
  8
寸法
  6
Continuous
 62
     0
100
AcDbMText
 10
164.2966507401138
 20
143.3782352236588
 30
0.0
 40
5.0
 41
0.0
 46
0.0
 71
     5
 72
     1
  1
\A1;プレート部分8
  7
ＭＳ ゴシック
 73
     1
 44
1.0
  0
POINT
  5
5F62
330
5F59
100
AcDbEntity
  8
Defpoints
 62
     0
100
AcDbPoint
 10
127.0296484505602
 20
150.053068208781
 30
0.0
  0
POINT
  5
5F63
330
5F59
100
AcDbEntity
  8
Defpoints
 62
     0
100
AcDbPoint
 10
134.8816507401137
 20
168.6511043765549
 30
0.0
  0
POINT
  5
5F64
330
5F59
100
AcDbEntity
  8
Defpoints
 62
     0
100
AcDbPoint
 10
134.8816507401137
 20
138.3207352236588
 30
0.0
  0
ENDBLK
  5
5F5B
330
5F59
100
AcDbEntity
  8
0
100
AcDbBlockEnd
  0
BLOCK
  5
5F66
330
5F65
100
AcDbEntity
  8
0
100
AcDbBlockBegin
  2
*D39
 70
     1
 10
0.0
 20
0.0
 30
0.0
  3
*D39
  1
*D41
  0
LINE
  5
5F68
330
5F65
100
AcDbEntity
  8
寸法
  6
Continuous
 62
     0
370
    -2
100
AcDbLine
 10
110.0726103713298
 20
341.022953810548
 30
0.0
 11
82.52647935856646
 21
341.022953810548
 31
0.0
  0
LINE
  5
5F69
330
5F65
100
AcDbEntity
  8
寸法
  6
Continuous
 62
     0
370
    -2
100
AcDbLine
 10
189.9711760191407
 20
281.0777285890699
 30
0.0
 11
82.52647935856646
 21
281.0777285890699
 31
0.0
  0
LINE
  5
5F6A
330
5F65
100
AcDbEntity
  8
寸法
  6
Continuous
 62
     0
370
    -2
100
AcDbLine
 10
82.52647935856646
 20
339.522953810548
 30
0.0
 11
82.52647935856646
 21
282.5777285890699
 31
0.0
  0
INSERT
  5
5F6B
330
5F65
100
AcDbEntity
  8
寸法
 62
     0
370
    -2
100
AcDbBlockReference
  2
_DOT
 10
82.52647935856646
 20
341.022953810548
 30
0.0
 41
1.5
 42
1.5
 43
1.5
 50
90.0
  0
INSERT
  5
5F6C
330
5F65
100
AcDbEntity
  8
寸法
 62
     0
370
    -2
100
AcDbBlockReference
  2
_DOT
 10
82.52647935856646
 20
281.0777285890699
 30
0.0
 41
1.5
 42
1.5
 43
1.5
 50
270.0
  0
MTEXT
  5
5F6D
330
5F65
100
AcDbEntity
  8
寸法
  6
Continuous
 62
     0
100
AcDbMText
 10
78.02647935856646
 20
311.0503411998089
 30
0.0
 40
5.0
 41
0.0
 46
0.0
 71
     5
 72
     1
  1
\A1;60
  7
ＭＳ ゴシック
 11
0.0
 21
1.0
 31
0.0
 73
     1
 44
1.0
  0
POINT
  5
5F6E
330
5F65
100
AcDbEntity
  8
Defpoints
 62
     0
100
AcDbPoint
 10
115.0726103713298
 20
341.022953810548
 30
0.0
  0
POINT
  5
5F6F
330
5F65
100
AcDbEntity
  8
Defpoints
 62
     0
100
AcDbPoint
 10
194.9711760191407
 20
281.0777285890699
 30
0.0
  0
POINT
  5
5F70
330
5F65
100
AcDbEntity
  8
Defpoints
 62
     0
100
AcDbPoint
 10
82.52647935856646
 20
281.0777285890699
 30
0.0
  0
ENDBLK
  5
5F67
330
5F65
100
AcDbEntity
  8
0
100
AcDbBlockEnd
  0
BLOCK
  5
5F72
330
5F71
100
AcDbEntity
  8
0
100
AcDbBlockBegin
  2
*D40
 70
     1
 10
0.0
 20
0.0
 30
0.0
  3
*D40
  1
*D42
  0
LINE
  5
5F74
330
5F71
100
AcDbEntity
  8
寸法
  6
Continuous
 62
     0
370
    -2
100
AcDbLine
 10
115.1935433875918
 20
326.04005183593
 30
0.0
 11
115.1935433875918
 21
262.1267427827099
 31
0.0
  0
LINE
  5
5F75
330
5F71
100
AcDbEntity
  8
寸法
  6
Continuous
 62
     0
370
    -2
100
AcDbLine
 10
234.1687403875919
 20
292.9484688359301
 30
0.0
 11
234.1687403875919
 21
262.1267427827099
 31
0.0
  0
LINE
  5
5F76
330
5F71
100
AcDbEntity
  8
寸法
  6
Continuous
 62
     0
370
    -2
100
AcDbLine
 10
116.6935433875918
 20
262.1267427827099
 30
0.0
 11
232.6687403875919
 21
262.1267427827099
 31
0.0
  0
INSERT
  5
5F77
330
5F71
100
AcDbEntity
  8
寸法
 62
     0
370
    -2
100
AcDbBlockReference
  2
_DOT
 10
115.1935433875918
 20
262.1267427827099
 30
0.0
 41
1.5
 42
1.5
 43
1.5
 50
180.0
  0
INSERT
  5
5F78
330
5F71
100
AcDbEntity
  8
寸法
 62
     0
370
    -2
100
AcDbBlockReference
  2
_DOT
 10
234.1687403875919
 20
262.1267427827099
 30
0.0
 41
1.5
 42
1.5
 43
1.5
  0
MTEXT
  5
5F79
330
5F71
100
AcDbEntity
  8
寸法
  6
Continuous
 62
     0
100
AcDbMText
 10
174.6811418875919
 20
266.6267427827099
 30
0.0
 40
5.0
 41
0.0
 46
0.0
 71
     5
 72
     1
  1
\A1;119
  7
ＭＳ ゴシック
 73
     1
 44
1.0
  0
POINT
  5
5F7A
330
5F71
100
AcDbEntity
  8
Defpoints
 62
     0
100
AcDbPoint
 10
115.1935433875918
 20
331.04005183593
 30
0.0
  0
POINT
  5
5F7B
330
5F71
100
AcDbEntity
  8
Defpoints
 62
     0
100
AcDbPoint
 10
234.1687403875919
 20
297.9484688359301
 30
0.0
  0
POINT
  5
5F7C
330
5F71
100
AcDbEntity
  8
Defpoints
 62
     0
100
AcDbPoint
 10
234.1687403875919
 20
262.1267427827099
 30
0.0
  0
ENDBLK
  5
5F73
330
5F71
100
AcDbEntity
  8
0
100
AcDbBlockEnd
  0
BLOCK
  5
5F7E
330
5F7D
100
AcDbEntity
  8
0
100
AcDbBlockBegin
  2
*D41
 70
     1
 10
0.0
 20
0.0
 30
0.0
  3
*D41
  1
*D43
  0
LINE
  5
5F80
330
5F7D
100
AcDbEntity
  8
寸法
 62
     0
370
    -2
100
AcDbLine
 10
427.8721245115548
 20
172.3452081951892
 30
0.0
 11
427.8721245115548
 21
144.5573006134969
 31
0.0
  0
LINE
  5
5F81
330
5F7D
100
AcDbEntity
  8
寸法
 62
     0
370
    -2
100
AcDbLine
 10
389.8721245115548
 20
172.3452081951892
 30
0.0
 11
389.8721245115548
 21
144.5573006134969
 31
0.0
  0
LINE
  5
5F82
330
5F7D
100
AcDbEntity
  8
寸法
 62
     0
370
    -2
100
AcDbLine
 10
389.8721245115548
 20
144.5573006134969
 30
0.0
 11
376.2146245115548
 21
144.5573006134969
 31
0.0
  0
LINE
  5
5F83
330
5F7D
100
AcDbEntity
  8
寸法
 62
     0
370
    -2
100
AcDbLine
 10
426.3721245115548
 20
144.5573006134969
 30
0.0
 11
391.3721245115548
 21
144.5573006134969
 31
0.0
  0
INSERT
  5
5F84
330
5F7D
100
AcDbEntity
  8
寸法
 62
     0
370
    -2
100
AcDbBlockReference
  2
_DOT
 10
427.8721245115548
 20
144.5573006134969
 30
0.0
 41
1.5
 42
1.5
 43
1.5
  0
INSERT
  5
5F85
330
5F7D
100
AcDbEntity
  8
寸法
 62
     0
370
    -2
100
AcDbBlockReference
  2
_DOT
 10
389.8721245115548
 20
144.5573006134969
 30
0.0
 41
1.5
 42
1.5
 43
1.5
 50
180.0
  0
POINT
  5
5F86
330
5F7D
100
AcDbEntity
  8
Defpoints
 62
     0
100
AcDbPoint
 10
427.8721245115548
 20
177.3452081951892
 30
0.0
  0
POINT
  5
5F87
330
5F7D
100
AcDbEntity
  8
Defpoints
 62
     0
100
AcDbPoint
 10
389.8721245115548
 20
177.3452081951892
 30
0.0
  0
POINT
  5
5F88
330
5F7D
100
AcDbEntity
  8
Defpoints
 62
     0
100
AcDbPoint
 10
389.8721245115548
 20
144.5573006134969
 30
0.0
  0
ENDBLK
  5
5F7F
330
5F7D
100
AcDbEntity
  8
0
100
AcDbBlockEnd
  0
BLOCK
  5
5F8A
330
5F89
100
AcDbEntity
  8
0
100
AcDbBlockBegin
  2
*D42
 70
     1
 10
0.0
 20
0.0
 30
0.0
  3
*D42
  1
*D44
  0
LINE
  5
5F8C
330
5F89
100
AcDbEntity
  8
寸法
 62
     0
370
    -2
100
AcDbLine
 10
389.8721245115548
 20
191.0157099566222
 30
0.0
 11
389.8721245115548
 21
213.8023335341041
 31
0.0
  0
LINE
  5
5F8D
330
5F89
100
AcDbEntity
  8
寸法
 62
     0
370
    -2
100
AcDbLine
 10
408.8721245115548
 20
205.1912224768318
 30
0.0
 11
408.8721245115548
 21
213.8023335341041
 31
0.0
  0
LINE
  5
5F8E
330
5F89
100
AcDbEntity
  8
寸法
 62
     0
370
    -2
100
AcDbLine
 10
391.3721245115548
 20
213.8023335341041
 30
0.0
 11
407.3721245115548
 21
213.8023335341041
 31
0.0
  0
INSERT
  5
5F8F
330
5F89
100
AcDbEntity
  8
寸法
 62
     0
370
    -2
100
AcDbBlockReference
  2
_DOT
 10
389.8721245115548
 20
213.8023335341041
 30
0.0
 41
1.5
 42
1.5
 43
1.5
 50
180.0
  0
INSERT
  5
5F90
330
5F89
100
AcDbEntity
  8
寸法
 62
     0
370
    -2
100
AcDbBlockReference
  2
_DOT
 10
408.8721245115548
 20
213.8023335341041
 30
0.0
 41
1.5
 42
1.5
 43
1.5
  0
MTEXT
  5
5F91
330
5F89
100
AcDbEntity
  8
寸法
  6
Continuous
 62
     0
100
AcDbMText
 10
399.3721245115548
 20
218.3023335341041
 30
0.0
 40
5.0
 41
0.0
 46
0.0
 71
     5
 72
     1
  1
\A1;19
  7
ＭＳ ゴシック
 73
     1
 44
1.0
  0
POINT
  5
5F92
330
5F89
100
AcDbEntity
  8
Defpoints
 62
     0
100
AcDbPoint
 10
389.8721245115548
 20
186.0157099566222
 30
0.0
  0
POINT
  5
5F93
330
5F89
100
AcDbEntity
  8
Defpoints
 62
     0
100
AcDbPoint
 10
408.8721245115548
 20
200.1912224768318
 30
0.0
  0
POINT
  5
5F94
330
5F89
100
AcDbEntity
  8
Defpoints
 62
     0
100
AcDbPoint
 10
408.8721245115548
 20
213.8023335341041
 30
0.0
  0
ENDBLK
  5
5F8B
330
5F89
100
AcDbEntity
  8
0
100
AcDbBlockEnd
  0
BLOCK
  5
5F96
330
5F95
100
AcDbEntity
  8
0
100
AcDbBlockBegin
  2
*D43
 70
     1
 10
0.0
 20
0.0
 30
0.0
  3
*D43
  1
*D45
  0
LINE
  5
5F98
330
5F95
100
AcDbEntity
  8
寸法
 62
     0
370
    -2
100
AcDbLine
 10
408.8721245115548
 20
205.1912224768318
 30
0.0
 11
408.8721245115548
 21
213.8023335341041
 31
0.0
  0
LINE
  5
5F99
330
5F95
100
AcDbEntity
  8
寸法
 62
     0
370
    -2
100
AcDbLine
 10
427.8721245115548
 20
191.0157099566222
 30
0.0
 11
427.8721245115548
 21
213.8023335341041
 31
0.0
  0
LINE
  5
5F9A
330
5F95
100
AcDbEntity
  8
寸法
 62
     0
370
    -2
100
AcDbLine
 10
410.3721245115548
 20
213.8023335341041
 30
0.0
 11
426.3721245115548
 21
213.8023335341041
 31
0.0
  0
INSERT
  5
5F9B
330
5F95
100
AcDbEntity
  8
寸法
 62
     0
370
    -2
100
AcDbBlockReference
  2
_DOT
 10
408.8721245115548
 20
213.8023335341041
 30
0.0
 41
1.5
 42
1.5
 43
1.5
 50
180.0
  0
INSERT
  5
5F9C
330
5F95
100
AcDbEntity
  8
寸法
 62
     0
370
    -2
100
AcDbBlockReference
  2
_DOT
 10
427.8721245115548
 20
213.8023335341041
 30
0.0
 41
1.5
 42
1.5
 43
1.5
  0
MTEXT
  5
5F9D
330
5F95
100
AcDbEntity
  8
寸法
  6
Continuous
 62
     0
100
AcDbMText
 10
418.3721245115548
 20
218.3023335341041
 30
0.0
 40
5.0
 41
0.0
 46
0.0
 71
     5
 72
     1
  1
\A1;19
  7
ＭＳ ゴシック
 73
     1
 44
1.0
  0
POINT
  5
5F9E
330
5F95
100
AcDbEntity
  8
Defpoints
 62
     0
100
AcDbPoint
 10
408.8721245115548
 20
200.1912224768318
 30
0.0
  0
POINT
  5
5F9F
330
5F95
100
AcDbEntity
  8
Defpoints
 62
     0
100
AcDbPoint
 10
427.8721245115548
 20
186.0157099566222
 30
0.0
  0
POINT
  5
5FA0
330
5F95
100
AcDbEntity
  8
Defpoints
 62
     0
100
AcDbPoint
 10
427.8721245115548
 20
213.8023335341041
 30
0.0
  0
ENDBLK
  5
5F97
330
5F95
100
AcDbEntity
  8
0
100
AcDbBlockEnd
  0
BLOCK
  5
5FA2
330
5FA1
100
AcDbEntity
  8
0
100
AcDbBlockBegin
  2
*D44
 70
     1
 10
0.0
 20
0.0
 30
0.0
  3
*D44
  1
*D46
  0
LINE
  5
5FA4
330
5FA1
100
AcDbEntity
  8
寸法
 62
     0
370
    -2
100
AcDbLine
 10
108.1825120145531
 20
356.4345575436565
 30
0.0
 11
108.1825120145531
 21
365.9906564456901
 31
0.0
  0
LINE
  5
5FA5
330
5FA1
100
AcDbEntity
  8
寸法
 62
     0
370
    -2
100
AcDbLine
 10
146.1825120145531
 20
356.4345575436565
 30
0.0
 11
146.1825120145531
 21
365.9906564456901
 31
0.0
  0
LINE
  5
5FA6
330
5FA1
100
AcDbEntity
  8
寸法
 62
     0
370
    -2
100
AcDbLine
 10
109.6825120145531
 20
365.9906564456901
 30
0.0
 11
144.6825120145531
 21
365.9906564456901
 31
0.0
  0
INSERT
  5
5FA7
330
5FA1
100
AcDbEntity
  8
寸法
 62
     0
370
    -2
100
AcDbBlockReference
  2
_DOT
 10
108.1825120145531
 20
365.9906564456901
 30
0.0
 41
1.5
 42
1.5
 43
1.5
 50
180.0
  0
INSERT
  5
5FA8
330
5FA1
100
AcDbEntity
  8
寸法
 62
     0
370
    -2
100
AcDbBlockReference
  2
_DOT
 10
146.1825120145531
 20
365.9906564456901
 30
0.0
 41
1.5
 42
1.5
 43
1.5
  0
MTEXT
  5
5FA9
330
5FA1
100
AcDbEntity
  8
寸法
  6
Continuous
 62
     0
100
AcDbMText
 10
127.1825120145531
 20
370.4906564456901
 30
0.0
 40
5.0
 41
0.0
 46
0.0
 71
     5
 72
     1
  1
\A1;38
  7
ＭＳ ゴシック
 73
     1
 44
1.0
  0
POINT
  5
5FAA
330
5FA1
100
AcDbEntity
  8
Defpoints
 62
     0
100
AcDbPoint
 10
108.1825120145531
 20
351.4345575436565
 30
0.0
  0
POINT
  5
5FAB
330
5FA1
100
AcDbEntity
  8
Defpoints
 62
     0
100
AcDbPoint
 10
146.1825120145531
 20
351.4345575436565
 30
0.0
  0
POINT
  5
5FAC
330
5FA1
100
AcDbEntity
  8
Defpoints
 62
     0
100
AcDbPoint
 10
146.1825120145531
 20
365.9906564456901
 30
0.0
  0
ENDBLK
  5
5FA3
330
5FA1
100
AcDbEntity
  8
0
100
AcDbBlockEnd
  0
BLOCK
  5
5FE8
330
5FE7
100
AcDbEntity
  8
0
100
AcDbBlockBegin
  2
*D45
 70
     1
 10
0.0
 20
0.0
 30
0.0
  3
*D45
  1
*D48
  0
LINE
  5
5FE9
330
5FE7
100
AcDbEntity
  8
寸法
 62
     0
370
    -2
100
AcDbLine
 10
0.375
 20
10.62216853309013
 30
0.0
 11
0.375
 21
20.1782674351237
 31
0.0
  0
LINE
  5
5FEA
330
5FE7
100
AcDbEntity
  8
寸法
 62
     0
370
    -2
100
AcDbLine
 10
38.375
 20
10.62216853309013
 30
0.0
 11
38.375
 21
20.1782674351237
 31
0.0
  0
LINE
  5
5FEB
330
5FE7
100
AcDbEntity
  8
寸法
 62
     0
370
    -2
100
AcDbLine
 10
1.875
 20
20.1782674351237
 30
0.0
 11
36.875
 21
20.1782674351237
 31
0.0
  0
INSERT
  5
5FEC
330
5FE7
100
AcDbEntity
  8
寸法
 62
     0
370
    -2
100
AcDbBlockReference
  2
_DOT
 10
0.375
 20
20.1782674351237
 30
0.0
 41
1.5
 42
1.5
 43
1.5
 50
180.0
  0
INSERT
  5
5FED
330
5FE7
100
AcDbEntity
  8
寸法
 62
     0
370
    -2
100
AcDbBlockReference
  2
_DOT
 10
38.375
 20
20.1782674351237
 30
0.0
 41
1.5
 42
1.5
 43
1.5
  0
MTEXT
  5
5FEE
330
5FE7
100
AcDbEntity
  8
寸法
  6
Continuous
 62
     0
100
AcDbMText
 10
19.375
 20
24.6782674351237
 30
0.0
 40
5.0
 41
0.0
 46
0.0
 71
     5
 72
     1
  1
\A1;38
  7
ＭＳ ゴシック
 73
     1
 44
1.0
  0
POINT
  5
5FEF
330
5FE7
100
AcDbEntity
  8
Defpoints
 62
     0
100
AcDbPoint
 10
0.375
 20
5.622168533090132
 30
0.0
  0
POINT
  5
5FF0
330
5FE7
100
AcDbEntity
  8
Defpoints
 62
     0
100
AcDbPoint
 10
38.375
 20
5.622168533090132
 30
0.0
  0
POINT
  5
5FF1
330
5FE7
100
AcDbEntity
  8
Defpoints
 62
     0
100
AcDbPoint
 10
38.375
 20
20.1782674351237
 30
0.0
  0
ENDBLK
  5
5FF2
330
5FE7
100
AcDbEntity
  8
0
100
AcDbBlockEnd
  0
BLOCK
  5
5FFC
330
5FFB
100
AcDbEntity
  8
0
100
AcDbBlockBegin
  2
*D46
 70
     1
 10
0.0
 20
0.0
 30
0.0
  3
*D46
  1
*D49
  0
LINE
  5
5FFE
330
5FFB
100
AcDbEntity
  8
寸法
 62
     0
370
    -2
100
AcDbLine
 10
108.1825120145532
 20
356.4254941772619
 30
0.0
 11
108.1825120145532
 21
365.9815930792955
 31
0.0
  0
LINE
  5
5FFF
330
5FFB
100
AcDbEntity
  8
寸法
 62
     0
370
    -2
100
AcDbLine
 10
146.1825120145532
 20
356.4254941772619
 30
0.0
 11
146.1825120145532
 21
365.9815930792955
 31
0.0
  0
LINE
  5
6000
330
5FFB
100
AcDbEntity
  8
寸法
 62
     0
370
    -2
100
AcDbLine
 10
109.6825120145532
 20
365.9815930792955
 30
0.0
 11
144.6825120145532
 21
365.9815930792955
 31
0.0
  0
INSERT
  5
6001
330
5FFB
100
AcDbEntity
  8
寸法
 62
     0
370
    -2
100
AcDbBlockReference
  2
_DOT
 10
108.1825120145532
 20
365.9815930792955
 30
0.0
 41
1.5
 42
1.5
 43
1.5
 50
180.0
  0
INSERT
  5
6002
330
5FFB
100
AcDbEntity
  8
寸法
 62
     0
370
    -2
100
AcDbBlockReference
  2
_DOT
 10
146.1825120145532
 20
365.9815930792955
 30
0.0
 41
1.5
 42
1.5
 43
1.5
  0
MTEXT
  5
6003
330
5FFB
100
AcDbEntity
  8
寸法
  6
Continuous
 62
     0
100
AcDbMText
 10
127.1825120145532
 20
370.4815930792955
 30
0.0
 40
5.0
 41
0.0
 46
0.0
 71
     5
 72
     1
  1
\A1;38
  7
ＭＳ ゴシック
 73
     1
 44
1.0
  0
POINT
  5
6004
330
5FFB
100
AcDbEntity
  8
Defpoints
 62
     0
100
AcDbPoint
 10
108.1825120145532
 20
351.4254941772619
 30
0.0
  0
POINT
  5
6005
330
5FFB
100
AcDbEntity
  8
Defpoints
 62
     0
100
AcDbPoint
 10
146.1825120145532
 20
351.4254941772619
 30
0.0
  0
POINT
  5
6006
330
5FFB
100
AcDbEntity
  8
Defpoints
 62
     0
100
AcDbPoint
 10
146.1825120145532
 20
365.9815930792955
 30
0.0
  0
ENDBLK
  5
5FFD
330
5FFB
100
AcDbEntity
  8
0
100
AcDbBlockEnd
  0
BLOCK
  5
616F
330
616E
100
AcDbEntity
  8
0
100
AcDbBlockBegin
  2
*D47
 70
     1
 10
0.0
 20
0.0
 30
0.0
  3
*D47
  1
*D48
  0
LINE
  5
6170
330
616E
100
AcDbEntity
  8
寸法
  6
Continuous
 62
     0
370
    -2
100
AcDbLine
 10
0.375
 20
9.573144235081088
 30
0.0
 11
0.375
 21
0.375
 31
0.0
  0
LINE
  5
6171
330
616E
100
AcDbEntity
  8
寸法
  6
Continuous
 62
     0
370
    -2
100
AcDbLine
 10
8.074570739085033
 20
24.7782398278371
 30
0.0
 11
8.074570739085033
 21
0.375
 31
0.0
  0
LINE
  5
6172
330
616E
100
AcDbEntity
  8
寸法
  6
Continuous
 62
     0
370
    -2
100
AcDbLine
 10
8.074570739085033
 20
0.375
 30
0.0
 11
18.17765809326037
 21
0.375
 31
0.0
  0
LINE
  5
6173
330
616E
100
AcDbEntity
  8
寸法
  6
Continuous
 62
     0
370
    -2
100
AcDbLine
 10
1.875
 20
0.375
 30
0.0
 11
6.574570739085033
 21
0.375
 31
0.0
  0
INSERT
  5
6174
330
616E
100
AcDbEntity
  8
寸法
 62
     0
370
    -2
100
AcDbBlockReference
  2
_DOT
 10
0.375
 20
0.375
 30
0.0
 41
1.5
 42
1.5
 43
1.5
 50
180.0
  0
INSERT
  5
6175
330
616E
100
AcDbEntity
  8
寸法
 62
     0
370
    -2
100
AcDbBlockReference
  2
_DOT
 10
8.074570739085033
 20
0.375
 30
0.0
 41
1.5
 42
1.5
 43
1.5
  0
MTEXT
  5
6176
330
616E
100
AcDbEntity
  8
寸法
  6
Continuous
 62
     0
100
AcDbMText
 10
14.85765809326037
 20
4.875
 30
0.0
 40
5.0
 41
0.0
 46
0.0
 71
     5
 72
     1
  1
\A1;8
  7
ＭＳ ゴシック
 73
     1
 44
1.0
  0
POINT
  5
6177
330
616E
100
AcDbEntity
  8
Defpoints
 62
     0
100
AcDbPoint
 10
0.375
 20
14.57314423508109
 30
0.0
  0
POINT
  5
6178
330
616E
100
AcDbEntity
  8
Defpoints
 62
     0
100
AcDbPoint
 10
8.074570739085033
 20
29.7782398278371
 30
0.0
  0
POINT
  5
6179
330
616E
100
AcDbEntity
  8
Defpoints
 62
     0
100
AcDbPoint
 10
8.074570739085033
 20
0.375
 30
0.0
  0
ENDBLK
  5
617A
330
616E
100
AcDbEntity
  8
0
100
AcDbBlockEnd
  0
BLOCK
  5
6180
330
617F
100
AcDbEntity
  8
0
100
AcDbBlockBegin
  2
*D48
 70
     1
 10
0.0
 20
0.0
 30
0.0
  3
*D48
  1
*D49
  0
LINE
  5
6182
330
617F
100
AcDbEntity
  8
寸法
  6
Continuous
 62
     0
370
    -2
100
AcDbLine
 10
127.1816507401139
 20
148.4628469200378
 30
0.0
 11
127.1816507401139
 21
139.2647026849567
 31
0.0
  0
LINE
  5
6183
330
617F
100
AcDbEntity
  8
寸法
  6
Continuous
 62
     0
370
    -2
100
AcDbLine
 10
134.8812214791989
 20
163.6679425127938
 30
0.0
 11
134.8812214791989
 21
139.2647026849567
 31
0.0
  0
LINE
  5
6184
330
617F
100
AcDbEntity
  8
寸法
  6
Continuous
 62
     0
370
    -2
100
AcDbLine
 10
134.8812214791989
 20
139.2647026849567
 30
0.0
 11
144.9843088333743
 21
139.2647026849567
 31
0.0
  0
LINE
  5
6185
330
617F
100
AcDbEntity
  8
寸法
  6
Continuous
 62
     0
370
    -2
100
AcDbLine
 10
128.6816507401139
 20
139.2647026849567
 30
0.0
 11
133.3812214791989
 21
139.2647026849567
 31
0.0
  0
INSERT
  5
6186
330
617F
100
AcDbEntity
  8
寸法
 62
     0
370
    -2
100
AcDbBlockReference
  2
_DOT
 10
127.1816507401139
 20
139.2647026849567
 30
0.0
 41
1.5
 42
1.5
 43
1.5
 50
180.0
  0
INSERT
  5
6187
330
617F
100
AcDbEntity
  8
寸法
 62
     0
370
    -2
100
AcDbBlockReference
  2
_DOT
 10
134.8812214791989
 20
139.2647026849567
 30
0.0
 41
1.5
 42
1.5
 43
1.5
  0
MTEXT
  5
6188
330
617F
100
AcDbEntity
  8
寸法
  6
Continuous
 62
     0
100
AcDbMText
 10
141.6643088333743
 20
143.7647026849567
 30
0.0
 40
5.0
 41
0.0
 46
0.0
 71
     5
 72
     1
  1
\A1;8
  7
ＭＳ ゴシック
 73
     1
 44
1.0
  0
POINT
  5
6189
330
617F
100
AcDbEntity
  8
Defpoints
 62
     0
100
AcDbPoint
 10
127.1816507401139
 20
153.4628469200378
 30
0.0
  0
POINT
  5
618A
330
617F
100
AcDbEntity
  8
Defpoints
 62
     0
100
AcDbPoint
 10
134.8812214791989
 20
168.6679425127938
 30
0.0
  0
POINT
  5
618B
330
617F
100
AcDbEntity
  8
Defpoints
 62
     0
100
AcDbPoint
 10
134.8812214791989
 20
139.2647026849567
 30
0.0
  0
ENDBLK
  5
6181
330
617F
100
AcDbEntity
  8
0
100
AcDbBlockEnd
  0
BLOCK
  5
6213
330
6212
100
AcDbEntity
  8
0
100
AcDbBlockBegin
  2
*D49
 70
     1
 10
0.0
 20
0.0
 30
0.0
  3
*D49
  1
*D50
  0
LINE
  5
6214
330
6212
100
AcDbEntity
  8
寸法
  6
Continuous
 62
     0
370
    -2
100
AcDbLine
 10
12.67192425945136
 20
214.4558524656296
 30
0.0
 11
12.67192425945136
 21
221.1724008234254
 31
0.0
  0
LINE
  5
6215
330
6212
100
AcDbEntity
  8
寸法
  6
Continuous
 62
     0
370
    -2
100
AcDbLine
 10
21.17192425945136
 20
214.4558524656296
 30
0.0
 11
21.17192425945136
 21
221.1724008234254
 31
0.0
  0
LINE
  5
6216
330
6212
100
AcDbEntity
  8
寸法
  6
Continuous
 62
     0
370
    -2
100
AcDbLine
 10
14.17192425945136
 20
221.1724008234254
 30
0.0
 11
19.67192425945136
 21
221.1724008234254
 31
0.0
  0
INSERT
  5
6217
330
6212
100
AcDbEntity
  8
寸法
 62
     0
370
    -2
100
AcDbBlockReference
  2
_DOT
 10
12.67192425945136
 20
221.1724008234254
 30
0.0
 41
1.5
 42
1.5
 43
1.5
 50
180.0
  0
INSERT
  5
6218
330
6212
100
AcDbEntity
  8
寸法
 62
     0
370
    -2
100
AcDbBlockReference
  2
_DOT
 10
21.17192425945136
 20
221.1724008234254
 30
0.0
 41
1.5
 42
1.5
 43
1.5
  0
MTEXT
  5
6219
330
6212
100
AcDbEntity
  8
寸法
  6
Continuous
 62
     0
100
AcDbMText
 10
16.92192425945136
 20
225.6724008234254
 30
0.0
 40
5.0
 41
0.0
 46
0.0
 71
     5
 72
     1
  1
\A1;8.5
  7
ＭＳ ゴシック
 73
     1
 44
1.0
  0
POINT
  5
621A
330
6212
100
AcDbEntity
  8
Defpoints
 62
     0
100
AcDbPoint
 10
12.67192425945136
 20
209.4558524656296
 30
0.0
  0
POINT
  5
621B
330
6212
100
AcDbEntity
  8
Defpoints
 62
     0
100
AcDbPoint
 10
21.17192425945136
 20
209.4558524656296
 30
0.0
  0
POINT
  5
621C
330
6212
100
AcDbEntity
  8
Defpoints
 62
     0
100
AcDbPoint
 10
21.17192425945136
 20
221.1724008234254
 30
0.0
  0
ENDBLK
  5
621D
330
6212
100
AcDbEntity
  8
0
100
AcDbBlockEnd
  0
BLOCK
  5
6225
330
6224
100
AcDbEntity
  8
0
100
AcDbBlockBegin
  2
*D50
 70
     1
 10
0.0
 20
0.0
 30
0.0
  3
*D50
  1
*D51
  0
LINE
  5
6226
330
6224
100
AcDbEntity
  8
寸法
  6
Continuous
 62
     0
370
    -2
100
AcDbLine
 10
62.46043540515663
 20
197.1207521227724
 30
0.0
 11
77.8834322030564
 21
197.1207521227724
 31
0.0
  0
LINE
  5
6227
330
6224
100
AcDbEntity
  8
寸法
  6
Continuous
 62
     0
370
    -2
100
AcDbLine
 10
68.2153519287707
 20
191.1207521227724
 30
0.0
 11
77.8834322030564
 21
191.1207521227724
 31
0.0
  0
LINE
  5
6228
330
6224
100
AcDbEntity
  8
寸法
  6
Continuous
 62
     0
370
    -2
100
AcDbLine
 10
77.8834322030564
 20
195.6207521227724
 30
0.0
 11
77.8834322030564
 21
192.6207521227724
 31
0.0
  0
INSERT
  5
6229
330
6224
100
AcDbEntity
  8
寸法
 62
     0
370
    -2
100
AcDbBlockReference
  2
_DOT
 10
77.8834322030564
 20
197.1207521227724
 30
0.0
 41
1.5
 42
1.5
 43
1.5
 50
90.0
  0
INSERT
  5
622A
330
6224
100
AcDbEntity
  8
寸法
 62
     0
370
    -2
100
AcDbBlockReference
  2
_DOT
 10
77.8834322030564
 20
191.1207521227724
 30
0.0
 41
1.5
 42
1.5
 43
1.5
 50
270.0
  0
MTEXT
  5
622B
330
6224
100
AcDbEntity
  8
寸法
  6
Continuous
 62
     0
100
AcDbMText
 10
73.3834322030564
 20
194.1207521227724
 30
0.0
 40
5.0
 41
0.0
 46
0.0
 71
     5
 72
     1
  1
\A1;6
  7
ＭＳ ゴシック
 11
0.0
 21
1.0
 31
0.0
 73
     1
 44
1.0
  0
POINT
  5
622C
330
6224
100
AcDbEntity
  8
Defpoints
 62
     0
100
AcDbPoint
 10
57.46043540515663
 20
197.1207521227724
 30
0.0
  0
POINT
  5
622D
330
6224
100
AcDbEntity
  8
Defpoints
 62
     0
100
AcDbPoint
 10
63.2153519287707
 20
191.1207521227724
 30
0.0
  0
POINT
  5
622E
330
6224
100
AcDbEntity
  8
Defpoints
 62
     0
100
AcDbPoint
 10
77.8834322030564
 20
191.1207521227724
 30
0.0
  0
ENDBLK
  5
622F
330
6224
100
AcDbEntity
  8
0
100
AcDbBlockEnd
  0
BLOCK
  5
6250
330
624F
100
AcDbEntity
  8
0
100
AcDbBlockBegin
  2
*D51
 70
     1
 10
0.0
 20
0.0
 30
0.0
  3
*D51
  1
*D52
  0
LINE
  5
6252
330
624F
100
AcDbEntity
  8
寸法
  6
Continuous
 62
     0
370
    -2
100
AcDbLine
 10
103.9325120145531
 20
372.0686993856674
 30
0.0
 11
103.9325120145531
 21
378.7852477434632
 31
0.0
  0
LINE
  5
6253
330
624F
100
AcDbEntity
  8
寸法
  6
Continuous
 62
     0
370
    -2
100
AcDbLine
 10
112.4325120145531
 20
372.0686993856674
 30
0.0
 11
112.4325120145531
 21
378.7852477434632
 31
0.0
  0
LINE
  5
6254
330
624F
100
AcDbEntity
  8
寸法
  6
Continuous
 62
     0
370
    -2
100
AcDbLine
 10
105.4325120145531
 20
378.7852477434632
 30
0.0
 11
110.9325120145531
 21
378.7852477434632
 31
0.0
  0
INSERT
  5
6255
330
624F
100
AcDbEntity
  8
寸法
 62
     0
370
    -2
100
AcDbBlockReference
  2
_DOT
 10
103.9325120145531
 20
378.7852477434632
 30
0.0
 41
1.5
 42
1.5
 43
1.5
 50
180.0
  0
INSERT
  5
6256
330
624F
100
AcDbEntity
  8
寸法
 62
     0
370
    -2
100
AcDbBlockReference
  2
_DOT
 10
112.4325120145531
 20
378.7852477434632
 30
0.0
 41
1.5
 42
1.5
 43
1.5
  0
MTEXT
  5
6257
330
624F
100
AcDbEntity
  8
寸法
  6
Continuous
 62
     0
100
AcDbMText
 10
108.1825120145531
 20
383.2852477434632
 30
0.0
 40
5.0
 41
0.0
 46
0.0
 71
     5
 72
     1
  1
\A1;8.5
  7
ＭＳ ゴシック
 73
     1
 44
1.0
  0
POINT
  5
6258
330
624F
100
AcDbEntity
  8
Defpoints
 62
     0
100
AcDbPoint
 10
103.9325120145531
 20
367.0686993856674
 30
0.0
  0
POINT
  5
6259
330
624F
100
AcDbEntity
  8
Defpoints
 62
     0
100
AcDbPoint
 10
112.4325120145531
 20
367.0686993856674
 30
0.0
  0
POINT
  5
625A
330
624F
100
AcDbEntity
  8
Defpoints
 62
     0
100
AcDbPoint
 10
112.4325120145531
 20
378.7852477434632
 30
0.0
  0
ENDBLK
  5
6251
330
624F
100
AcDbEntity
  8
0
100
AcDbBlockEnd
  0
BLOCK
  5
625C
330
625B
100
AcDbEntity
  8
0
100
AcDbBlockBegin
  2
*D52
 70
     1
 10
0.0
 20
0.0
 30
0.0
  3
*D52
  1
*D53
  0
LINE
  5
625E
330
625B
100
AcDbEntity
  8
寸法
  6
Continuous
 62
     0
370
    -2
100
AcDbLine
 10
153.7210231602584
 20
354.7335990428102
 30
0.0
 11
169.1440199581582
 21
354.7335990428102
 31
0.0
  0
LINE
  5
625F
330
625B
100
AcDbEntity
  8
寸法
  6
Continuous
 62
     0
370
    -2
100
AcDbLine
 10
159.4759396838725
 20
348.7335990428102
 30
0.0
 11
169.1440199581582
 21
348.7335990428102
 31
0.0
  0
LINE
  5
6260
330
625B
100
AcDbEntity
  8
寸法
  6
Continuous
 62
     0
370
    -2
100
AcDbLine
 10
169.1440199581582
 20
353.2335990428102
 30
0.0
 11
169.1440199581582
 21
350.2335990428102
 31
0.0
  0
INSERT
  5
6261
330
625B
100
AcDbEntity
  8
寸法
 62
     0
370
    -2
100
AcDbBlockReference
  2
_DOT
 10
169.1440199581582
 20
354.7335990428102
 30
0.0
 41
1.5
 42
1.5
 43
1.5
 50
90.0
  0
INSERT
  5
6262
330
625B
100
AcDbEntity
  8
寸法
 62
     0
370
    -2
100
AcDbBlockReference
  2
_DOT
 10
169.1440199581582
 20
348.7335990428102
 30
0.0
 41
1.5
 42
1.5
 43
1.5
 50
270.0
  0
MTEXT
  5
6263
330
625B
100
AcDbEntity
  8
寸法
  6
Continuous
 62
     0
100
AcDbMText
 10
164.6440199581582
 20
351.7335990428102
 30
0.0
 40
5.0
 41
0.0
 46
0.0
 71
     5
 72
     1
  1
\A1;6
  7
ＭＳ ゴシック
 11
0.0
 21
1.0
 31
0.0
 73
     1
 44
1.0
  0
POINT
  5
6264
330
625B
100
AcDbEntity
  8
Defpoints
 62
     0
100
AcDbPoint
 10
148.7210231602584
 20
354.7335990428102
 30
0.0
  0
POINT
  5
6265
330
625B
100
AcDbEntity
  8
Defpoints
 62
     0
100
AcDbPoint
 10
154.4759396838725
 20
348.7335990428102
 30
0.0
  0
POINT
  5
6266
330
625B
100
AcDbEntity
  8
Defpoints
 62
     0
100
AcDbPoint
 10
169.1440199581582
 20
348.7335990428102
 30
0.0
  0
ENDBLK
  5
625D
330
625B
100
AcDbEntity
  8
0
100
AcDbBlockEnd
  0
ENDSEC
  0
SECTION
  2
ENTITIES
  0
POINT
  5
1301
330
A
100
AcDbEntity
  8
MODEL
100
AcDbPoint
 10
963.7243970754489
 20
138.0847547131194
 30
0.0
  0
POINT
  5
1306
330
A
100
AcDbEntity
  8
MODEL
100
AcDbPoint
 10
847.7244070754489
 20
138.0847547131194
 30
0.0
  0
POINT
  5
1307
330
A
100
AcDbEntity
  8
MODEL
100
AcDbPoint
 10
973.7862873746794
 20
166.0075841667841
 30
0.0
  0
POINT
  5
1308
330
A
100
AcDbEntity
  8
MODEL
100
AcDbPoint
 10
973.7862873746794
 20
184.0075841667841
 30
0.0
  0
POINT
  5
1312
330
A
100
AcDbEntity
  8
MODEL
100
AcDbPoint
 10
810.9244070754489
 20
149.007583882008
 30
0.0
  0
POINT
  5
1313
330
A
100
AcDbEntity
  8
MODEL
100
AcDbPoint
 10
810.9244070754489
 20
201.007583882008
 30
0.0
  0
POINT
  5
131E
330
A
100
AcDbEntity
  8
MODEL
100
AcDbPoint
 10
1111.259263541787
 20
138.207583607055
 30
0.0
  0
POINT
  5
131F
330
A
100
AcDbEntity
  8
MODEL
100
AcDbPoint
 10
1104.759263541787
 20
138.207583607055
 30
0.0
  0
POINT
  5
1342
330
A
100
AcDbEntity
  8
MODEL
100
AcDbPoint
 10
973.354966229004
 20
368.3598201219507
 30
0.0
  0
POINT
  5
1343
330
A
100
AcDbEntity
  8
MODEL
100
AcDbPoint
 10
973.354966229004
 20
319.3598501219507
 30
0.0
  0
POINT
  5
1346
330
A
100
AcDbEntity
  8
MODEL
100
AcDbPoint
 10
983.2218070738209
 20
368.3598201219507
 30
0.0
  0
POINT
  5
1347
330
A
100
AcDbEntity
  8
MODEL
100
AcDbPoint
 10
983.2218070738209
 20
301.3598201219507
 30
0.0
  0
POINT
  5
1350
330
A
100
AcDbEntity
  8
MODEL
100
AcDbPoint
 10
963.7243970754489
 20
286.3598201219507
 30
0.0
  0
POINT
  5
1351
330
A
100
AcDbEntity
  8
MODEL
100
AcDbPoint
 10
838.7244070754489
 20
286.3598201219507
 30
0.0
  0
POINT
  5
1357
330
A
100
AcDbEntity
  8
MODEL
100
AcDbPoint
 10
810.9244070754489
 20
301.3598201219507
 30
0.0
  0
POINT
  5
1359
330
A
100
AcDbEntity
  8
MODEL
100
AcDbPoint
 10
810.9244070754489
 20
361.3598201219507
 30
0.0
  0
POINT
  5
135A
330
A
100
AcDbEntity
  8
MODEL
100
AcDbPoint
 10
810.9244070754489
 20
368.3598201219507
 30
0.0
  0
POINT
  5
135B
330
A
100
AcDbEntity
  8
MODEL
100
AcDbPoint
 10
810.9244070754489
 20
361.3598201219507
 30
0.0
  0
POINT
  5
1371
330
A
100
AcDbEntity
  8
MODEL
100
AcDbPoint
 10
1164.81489702863
 20
383.9337336502628
 30
0.0
  0
POINT
  5
1372
330
A
100
AcDbEntity
  8
MODEL
100
AcDbPoint
 10
1164.81489702863
 20
279.9338376502628
 30
0.0
  0
POINT
  5
1378
330
A
100
AcDbEntity
  8
MODEL
100
AcDbPoint
 10
1180.157201609016
 20
264.2731813749589
 30
0.0
  0
POINT
  5
1379
330
A
100
AcDbEntity
  8
MODEL
100
AcDbPoint
 10
1193.957187809016
 20
264.2731813749589
 30
0.0
  0
POINT
  5
1389
330
A
100
AcDbEntity
  8
MODEL
100
AcDbPoint
 10
1079.093440814797
 20
383.9337336502628
 30
0.0
  0
POINT
  5
138A
330
A
100
AcDbEntity
  8
MODEL
100
AcDbPoint
 10
1079.093440814797
 20
279.9337336502626
 30
0.0
  0
POINT
  5
138D
330
A
100
AcDbEntity
  8
MODEL
100
AcDbPoint
 10
1093.467555113589
 20
264.2731813749589
 30
0.0
  0
POINT
  5
138E
330
A
100
AcDbEntity
  8
MODEL
100
AcDbPoint
 10
1106.467555113589
 20
264.2731813749589
 30
0.0
  0
POINT
  5
1398
330
A
100
AcDbEntity
  8
MODEL
100
AcDbPoint
 10
1180.157201609016
 20
398.2298339817613
 30
0.0
  0
POINT
  5
1399
330
A
100
AcDbEntity
  8
MODEL
100
AcDbPoint
 10
1194.157187609016
 20
398.2298339817613
 30
0.0
  0
POINT
  5
139C
330
A
100
AcDbEntity
  8
MODEL
100
AcDbPoint
 10
1093.467555113589
 20
398.2298339817613
 30
0.0
  0
POINT
  5
139D
330
A
100
AcDbEntity
  8
MODEL
100
AcDbPoint
 10
1107.467555113589
 20
398.2298339817613
 30
0.0
  0
POINT
  5
4967
330
A
100
AcDbEntity
  8
MODEL
 62
     7
100
AcDbPoint
 10
159.6608149866037
 20
1112.943495860789
 30
0.0
  0
POINT
  5
4968
330
A
100
AcDbEntity
  8
MODEL
 62
     7
100
AcDbPoint
 10
159.6608149866037
 20
1058.143496245838
 30
0.0
  0
ARC
  5
4976
330
A
100
AcDbEntity
  8
MODEL
  6
STYLE_02
 62
     1
100
AcDbCircle
 10
410.7170669250786
 20
319.4483817360652
 30
0.0
 40
12.0
100
AcDbArc
 50
179.9992630000003
 51
180.4691690000001
  0
LINE
  5
4980
330
A
100
AcDbEntity
  8
MODEL
  6
STYLE_02
 62
     1
100
AcDbLine
 10
398.7174779250786
 20
319.357174736065
 30
0.0
 11
398.7174689250786
 21
319.3501197360652
 31
0.0
  0
POINT
  5
499D
330
A
100
AcDbEntity
  8
MODEL
 62
     7
100
AcDbPoint
 10
471.5926809920595
 20
1039.574930990415
 30
0.0
  0
POINT
  5
499E
330
A
100
AcDbEntity
  8
MODEL
 62
     7
100
AcDbPoint
 10
478.7926809920594
 20
1039.574930990415
 30
0.0
  0
DIMENSION
  5
4A6C
330
A
100
AcDbEntity
  8
寸法
  6
Continuous
100
AcDbDimension
  2
*D4
 10
85.1258963663065
 20
341.034177143836
 30
0.0
 11
80.6258963663065
 21
344.8838880933231
 31
0.0
 70
    32
 71
     5
 42
7.69942189897415
 73
     0
 74
     0
 75
     0
  3
tfrom線あり
100
AcDbAlignedDimension
 13
102.4789052117492
 23
348.7335990428102
 33
0.0
 14
117.0312741564841
 24
341.034177143836
 34
0.0
 50
90.0
100
AcDbRotatedDimension
1001
ACAD
1000
DSTYLE
1002
{
1070
   271
1070
     0
1002
}
  0
DIMENSION
  5
4A99
330
A
100
AcDbEntity
  8
寸法
  6
Continuous
100
AcDbDimension
  2
*D5
 10
353.3656877670142
 20
294.192709837844
 30
0.0
 11
348.4606877670142
 21
321.5927098378441
 31
0.0
 70
    32
 71
     5
 42
54.80000000000018
 73
     0
 74
     0
 75
     0
  3
tfrom線あり
100
AcDbAlignedDimension
 13
394.5069938650306
 23
348.9927098378442
 33
0.0
 14
394.5069938650306
 24
294.192709837844
 34
0.0
 50
90.0
100
AcDbRotatedDimension
1001
ACAD
1000
DSTYLE
1002
{
1070
     3
1000
φ<>
1002
}
  0
DIMENSION
  5
4AD2
330
A
100
AcDbEntity
  8
寸法
  6
Continuous
100
AcDbDimension
  2
*D6
 10
73.23063766930638
 20
283.0579914400502
 30
0.0
 11
68.73063766930638
 21
315.8957952414302
 31
0.0
 70
    32
 71
     5
 42
65.67560760276001
 73
     0
 74
     0
 75
     0
  3
tfrom線あり
100
AcDbAlignedDimension
 13
101.6145976063949
 23
348.7335990428102
 33
0.0
 14
116.1257815346022
 24
283.0579914400502
 34
0.0
 50
90.0
100
AcDbRotatedDimension
1001
ACAD
1000
DSTYLE
1002
{
1070
   271
1070
     0
1002
}
  0
LINE
  5
4CC1
330
A
100
AcDbEntity
  8
寸法
  6
Continuous
100
AcDbLine
 10
85.1258963663065
 20
347.2335990428102
 30
0.0
 11
85.1258963663065
 21
342.534177143836
 31
0.0
  0
POINT
  5
4ECE
330
A
100
AcDbEntity
  8
MODEL
 62
     7
100
AcDbPoint
 10
130.0913409417582
 20
1181.156054141915
 30
0.0
  0
POINT
  5
4ECF
330
A
100
AcDbEntity
  8
MODEL
 62
     7
100
AcDbPoint
 10
260.0913409417582
 20
1181.156054141915
 30
0.0
  0
DIMENSION
  5
4EF1
330
A
100
AcDbEntity
  8
寸法
  6
Continuous
100
AcDbDimension
  2
*D8
 10
85.0740253008951
 20
283.0579914400502
 30
0.0
 11
80.5740253008951
 21
312.0404726252991
 31
0.0
 70
    32
 71
     5
 42
57.96496237049791
 73
     0
 74
     0
 75
     0
  3
tfrom線あり
100
AcDbAlignedDimension
 13
117.6201563136584
 23
341.0229538105481
 33
0.0
 14
121.1257815346022
 24
283.0579914400502
 34
0.0
 50
90.0
100
AcDbRotatedDimension
  0
ARC
  5
524D
330
A
100
AcDbEntity
  8
MODEL
  6
Continuous
 62
     7
100
AcDbCircle
 10
406.6580276569512
 20
323.104365515439
 30
0.0
 40
9.228216888108
100
AcDbArc
 50
90.0
 51
270.0
  0
LINE
  5
524E
330
A
100
AcDbEntity
  8
MODEL
  6
Continuous
 62
     7
100
AcDbLine
 10
420.3484856569511
 20
313.8761485154392
 30
0.0
 11
406.6580276569512
 21
313.8761485154392
 31
0.0
  0
LINE
  5
524F
330
A
100
AcDbEntity
  8
MODEL
  6
Continuous
 62
     7
100
AcDbLine
 10
416.6659256569511
 20
332.332581515439
 30
0.0
 11
406.6580276569512
 21
332.332581515439
 31
0.0
  0
ARC
  5
5250
330
A
100
AcDbEntity
  8
MODEL
  6
Continuous
 62
     7
100
AcDbCircle
 10
408.8202776569511
 20
321.3701635154391
 30
0.0
 40
12.0
100
AcDbArc
 50
75.13516900000005
 51
312.6976779999997
  0
ARC
  5
5251
330
A
100
AcDbEntity
  8
MODEL
  6
Continuous
 62
     7
100
AcDbCircle
 10
408.8721245115548
 20
321.33359904281
 30
0.0
 40
12.0
100
AcDbArc
 50
180.0
 51
315.1442180000008
  0
LINE
  5
5252
330
A
100
AcDbEntity
  8
MODEL
  6
Continuous
 62
     7
100
AcDbLine
 10
127.1816507401139
 20
208.2628469200378
 30
0.0
 11
127.1816507401139
 21
153.4628469200378
 31
0.0
  0
POINT
  5
5253
330
A
100
AcDbEntity
  8
MODEL
 62
     7
100
AcDbPoint
 10
92.23819849397387
 20
1114.879468422888
 30
0.0
  0
POINT
  5
5254
330
A
100
AcDbEntity
  8
MODEL
 62
     7
100
AcDbPoint
 10
92.23819849397387
 20
1060.079468807937
 30
0.0
  0
LINE
  5
5255
330
A
100
AcDbEntity
  8
MODEL
  6
Continuous
 62
     7
100
AcDbLine
 10
127.1816507401139
 20
208.2628469200378
 30
0.0
 11
133.3816507401137
 21
208.2628469200378
 31
0.0
  0
LINE
  5
5256
330
A
100
AcDbEntity
  8
MODEL
  6
Continuous
 62
     7
100
AcDbLine
 10
133.3816507401137
 20
153.4628469200378
 30
0.0
 11
127.1816507401139
 21
153.4628469200378
 31
0.0
  0
LINE
  5
5257
330
A
100
AcDbEntity
  8
MODEL
  6
Continuous
 62
     7
100
AcDbLine
 10
153.5825120145532
 20
341.53359904281
 30
0.0
 11
100.7825120145531
 21
341.53359904281
 31
0.0
  0
ARC
  5
5258
330
A
100
AcDbEntity
  8
MODEL
  6
Continuous
 62
     7
100
AcDbCircle
 10
100.7825120145531
 20
342.53359904281
 30
0.0
 40
1.0
100
AcDbArc
 50
180.0
 51
270.0
  0
ARC
  5
5259
330
A
100
AcDbEntity
  8
MODEL
  6
Continuous
 62
     7
100
AcDbCircle
 10
153.5825120145532
 20
342.53359904281
 30
0.0
 40
1.0
100
AcDbArc
 50
270.0
 51
0.0
  0
LINE
  5
525A
330
A
100
AcDbEntity
  8
MODEL
  6
Continuous
 62
     7
100
AcDbLine
 10
139.4237631164623
 20
341.53359904281
 30
0.0
 11
139.4237631164623
 21
341.2260583756571
 31
0.0
  0
LINE
  5
525B
330
A
100
AcDbEntity
  8
MODEL
  6
Continuous
 62
     7
100
AcDbLine
 10
139.4237631164623
 20
341.53359904281
 30
0.0
 11
139.4237631164623
 21
341.2466784421449
 31
0.0
  0
LINE
  5
525C
330
A
100
AcDbEntity
  8
MODEL
  6
Continuous
 62
     7
100
AcDbLine
 10
114.9237631164623
 20
341.53359904281
 30
0.0
 11
114.9237631164623
 21
341.2260583756571
 31
0.0
  0
LINE
  5
525D
330
A
100
AcDbEntity
  8
MODEL
  6
Continuous
 62
     7
100
AcDbLine
 10
114.9237631164623
 20
341.53359904281
 30
0.0
 11
114.9237631164623
 21
341.2466784421449
 31
0.0
  0
ARC
  5
525E
330
A
100
AcDbEntity
  8
MODEL
  6
Continuous
 62
     7
100
AcDbCircle
 10
528.8202776569511
 20
314.8761485154392
 30
0.0
 40
1.0
100
AcDbArc
 50
270.0
 51
0.0
  0
ARC
  5
525F
330
A
100
AcDbEntity
  8
MODEL
  6
Continuous
 62
     7
100
AcDbCircle
 10
528.8202776569511
 20
331.332581515439
 30
0.0
 40
1.0
100
AcDbArc
 50
0.0
 51
90.0
  0
ARC
  5
5260
330
A
100
AcDbEntity
  8
MODEL
  6
Continuous
 62
     7
100
AcDbCircle
 10
420.3484856569511
 20
308.8761485154392
 30
0.0
 40
5.0
100
AcDbArc
 50
90.0
 51
132.6976780000001
  0
ARC
  5
5261
330
A
100
AcDbEntity
  8
MODEL
  6
Continuous
 62
     7
100
AcDbCircle
 10
416.7739786569512
 20
351.3363805154391
 30
0.0
 40
19.003799019395
100
AcDbArc
 50
255.135169
 51
269.868265
  0
LINE
  5
5262
330
A
100
AcDbEntity
  8
MODEL
  6
Continuous
 62
     7
100
AcDbLine
 10
528.8202776569511
 20
313.8761485154392
 30
0.0
 11
420.3484856569511
 21
313.8761485154392
 31
0.0
  0
LINE
  5
5263
330
A
100
AcDbEntity
  8
MODEL
  6
Continuous
 62
     7
100
AcDbLine
 10
528.8202776569511
 20
332.332581515439
 30
0.0
 11
416.6659256569511
 21
332.332581515439
 31
0.0
  0
LINE
  5
5264
330
A
100
AcDbEntity
  8
MODEL
  6
Continuous
 62
     7
100
AcDbLine
 10
529.8202776569511
 20
314.8761485154392
 30
0.0
 11
529.8202776569511
 21
331.332581515439
 31
0.0
  0
CIRCLE
  5
5265
330
A
100
AcDbEntity
  8
MODEL
  6
DASHED1
 62
     7
100
AcDbCircle
 10
408.8202776569511
 20
321.3701635154391
 30
0.0
 40
8.925
  0
ARC
  5
5266
330
A
100
AcDbEntity
  8
MODEL
  6
DASHED1
 62
     7
100
AcDbCircle
 10
408.8202776569511
 20
321.3701635154391
 30
0.0
 40
12.0
100
AcDbArc
 50
327.419951
 51
75.13516900000005
  0
ARC
  5
5267
330
A
100
AcDbEntity
  8
MODEL
  6
Continuous
 62
     7
100
AcDbCircle
 10
408.8202776569511
 20
321.3701635154391
 30
0.0
 40
12.0
100
AcDbArc
 50
312.6976779999997
 51
327.419951
  0
LINE
  5
5268
330
A
100
AcDbEntity
  8
MODEL
  6
Continuous
 62
     7
100
AcDbLine
 10
528.9457386569511
 20
331.464247515439
 30
0.0
 11
528.9457386569511
 21
314.7591575154391
 31
0.0
  0
ARC
  5
5269
330
A
100
AcDbEntity
  8
MODEL
  6
Continuous
 62
     7
100
AcDbCircle
 10
408.9013310513159
 20
321.317709837844
 30
0.0
 40
27.5
100
AcDbArc
 50
24.31690667545317
 51
344.4086643247161
  0
ARC
  5
526A
330
A
100
AcDbEntity
  8
MODEL
  6
DASHED1
 62
     7
100
AcDbCircle
 10
408.9013310513159
 20
321.317709837844
 30
0.0
 40
27.5
100
AcDbArc
 50
344.2998938272057
 51
23.61199011636321
  0
LINE
  5
526B
330
A
100
AcDbEntity
  8
MODEL
  6
Continuous
 62
     7
100
AcDbLine
 10
134.3816507401137
 20
168.6128469200377
 30
0.0
 11
134.3816507401137
 21
154.4628469200378
 31
0.0
  0
LINE
  5
526C
330
A
100
AcDbEntity
  8
MODEL
  6
Continuous
 62
     7
100
AcDbLine
 10
134.3816507401137
 20
207.2628469200378
 30
0.0
 11
134.3816507401137
 21
193.1128469200377
 31
0.0
  0
ARC
  5
526D
330
A
100
AcDbEntity
  8
MODEL
  6
Continuous
 62
     7
100
AcDbCircle
 10
133.3816507401137
 20
154.4628469200378
 30
0.0
 40
1.0
100
AcDbArc
 50
270.0
 51
0.0
  0
ARC
  5
526E
330
A
100
AcDbEntity
  8
MODEL
  6
Continuous
 62
     7
100
AcDbCircle
 10
133.3816507401137
 20
207.2628469200378
 30
0.0
 40
1.0
100
AcDbArc
 50
0.0
 51
90.0
  0
LINE
  5
526F
330
A
100
AcDbEntity
  8
MODEL
  6
Continuous
 62
     7
100
AcDbLine
 10
134.3816507401137
 20
168.6128469200377
 30
0.0
 11
134.3816507401137
 21
193.1128469200377
 31
0.0
  0
LINE
  5
5270
330
A
100
AcDbEntity
  8
MODEL
  6
Continuous
 62
     7
100
AcDbLine
 10
134.8816507401137
 20
168.6511043765548
 30
0.0
 11
134.8816507401137
 21
192.6868054765338
 31
0.0
  0
LINE
  5
5271
330
A
100
AcDbEntity
  8
MODEL
  6
Continuous
 62
     7
100
AcDbLine
 10
134.8816507401137
 20
192.6868054765338
 30
0.0
 11
134.8816507401137
 21
193.1132827288386
 31
0.0
  0
LINE
  5
5272
330
A
100
AcDbEntity
  8
MODEL
  6
Continuous
 62
     7
100
AcDbLine
 10
134.8816507401139
 20
169.1128469200377
 30
0.0
 11
134.8816507401139
 21
192.6128469200377
 31
0.0
  0
LINE
  5
5273
330
A
100
AcDbEntity
  8
MODEL
  6
Continuous
 62
     7
100
AcDbLine
 10
134.8818376441981
 20
168.8641440028258
 30
0.0
 11
134.8818376441981
 21
192.8641440028258
 31
0.0
  0
LINE
  5
5274
330
A
100
AcDbEntity
  8
MODEL
  6
Continuous
 62
     7
100
AcDbLine
 10
134.902772654635
 20
168.8711198796597
 30
0.0
 11
134.902772654635
 21
192.8711198796597
 31
0.0
  0
LINE
  5
5275
330
A
100
AcDbEntity
  8
MODEL
  6
Continuous
 62
     7
100
AcDbLine
 10
134.8511761809597
 20
168.8592872546848
 30
0.0
 11
134.8511761809597
 21
192.8592872546848
 31
0.0
  0
LINE
  5
5276
330
A
100
AcDbEntity
  8
MODEL
  6
Continuous
 62
     7
100
AcDbLine
 10
134.8812214791987
 20
192.8583577032447
 30
0.0
 11
134.8812214791987
 21
168.8583577032447
 31
0.0
  0
ARC
  5
5277
330
A
100
AcDbEntity
  8
MODEL
  6
Continuous
 62
     7
100
AcDbCircle
 10
191.4293746245949
 20
189.4209841758737
 30
0.0
 40
1.5
100
AcDbArc
 50
348.4004419999982
 51
90.0
  0
ARC
  5
5278
330
A
100
AcDbEntity
  8
MODEL
  6
Continuous
 62
     7
100
AcDbCircle
 10
167.7040246245949
 20
194.2909091758737
 30
0.0
 40
25.72
100
AcDbArc
 50
314.8505159999994
 51
348.400442
  0
LINE
  5
5279
330
A
100
AcDbEntity
  8
MODEL
  6
Continuous
 62
     7
100
AcDbLine
 10
134.9293746245949
 20
192.8949221758737
 30
0.0
 11
191.4293746245949
 21
190.9209841758737
 31
0.0
  0
LINE
  5
527A
330
A
100
AcDbEntity
  8
MODEL
  6
Continuous
 62
     7
100
AcDbLine
 10
134.9293746245949
 20
168.8949221758738
 30
0.0
 11
178.6765626245949
 21
172.4342751758737
 31
0.0
  0
LINE
  5
527B
330
A
100
AcDbEntity
  8
MODEL
  6
Continuous
 62
     7
100
AcDbLine
 10
134.9293746245949
 20
168.8949221758738
 30
0.0
 11
134.9293746245949
 21
192.8949221758737
 31
0.0
  0
ARC
  5
527C
330
A
100
AcDbEntity
  8
MODEL
  6
STYLE_01
 62
     7
100
AcDbCircle
 10
196.2992986245949
 20
165.6956341758738
 30
0.0
 40
25.72
100
AcDbArc
 50
101.599558
 51
135.1494840000004
  0
ARC
  5
527D
330
A
100
AcDbEntity
  8
MODEL
  6
STYLE_01
 62
     7
100
AcDbCircle
 10
191.4293746245949
 20
189.4209841758737
 30
0.0
 40
1.5
100
AcDbArc
 50
90.0
 51
101.5995579999992
  0
ARC
  5
5281
330
A
100
AcDbEntity
  8
MODEL
  6
DASHED2
 62
     7
100
AcDbCircle
 10
178.1079668249774
 20
176.6126470879676
 30
0.0
 40
4.369962452677391
100
AcDbArc
 50
253.8499091743866
 51
258.4618343359196
  0
ARC
  5
5282
330
A
100
AcDbEntity
  8
MODEL
  6
DASHED2
 62
     7
100
AcDbCircle
 10
178.125564128294
 20
176.6701774938948
 30
0.0
 40
4.430117359269899
100
AcDbArc
 50
249.2706293325987
 51
253.8382626912045
  0
ARC
  5
5283
330
A
100
AcDbEntity
  8
MODEL
  6
DASHED2
 62
     7
100
AcDbCircle
 10
177.8203717256715
 20
175.8681491002677
 30
0.0
 40
3.571986277767455
100
AcDbArc
 50
242.9305559106013
 51
249.2955505180933
  0
ARC
  5
5284
330
A
100
AcDbEntity
  8
MODEL
  6
DASHED2
 62
     7
100
AcDbCircle
 10
177.8147957362897
 20
175.8551615480077
 30
0.0
 40
3.557884098383438
100
AcDbArc
 50
236.5401289270683
 51
242.9153365170795
  0
ARC
  5
5285
330
A
100
AcDbEntity
  8
MODEL
  6
DASHED2
 62
     7
100
AcDbCircle
 10
177.74869147343
 20
175.7655915482957
 30
0.0
 40
3.446716387991241
100
AcDbArc
 50
230.0964154334132
 51
236.635950235746
  0
ARC
  5
5286
330
A
100
AcDbEntity
  8
MODEL
  6
DASHED2
 62
     7
100
AcDbCircle
 10
177.640432695055
 20
175.6335162795139
 30
0.0
 40
3.275950825232044
100
AcDbArc
 50
223.3126086261286
 51
230.0670683259324
  0
ARC
  5
5287
330
A
100
AcDbEntity
  8
MODEL
  6
DASHED2
 62
     7
100
AcDbCircle
 10
177.6747266648312
 20
175.6636147467358
 30
0.0
 40
3.321551164303785
100
AcDbArc
 50
216.5998015832567
 51
223.2845843354123
  0
LINE
  5
5288
330
A
100
AcDbEntity
  8
MODEL
  6
DASHED2
 62
     7
100
AcDbLine
 10
174.893814486077
 20
173.8462496599267
 30
0.0
 11
175.0081204872568
 21
173.6832325536199
 31
0.0
  0
ARC
  5
5289
330
A
100
AcDbEntity
  8
MODEL
  6
DASHED2
 62
     7
100
AcDbCircle
 10
177.8561393590683
 20
175.8044441970948
 30
0.0
 40
3.551041325940964
100
AcDbArc
 50
207.07851468245
 51
213.466019873379
  0
ARC
  5
528A
330
A
100
AcDbEntity
  8
MODEL
  6
DASHED2
 62
     7
100
AcDbCircle
 10
177.8890042271325
 20
175.8196567796869
 30
0.0
 40
3.587228879391896
100
AcDbArc
 50
200.7179861620139
 51
207.0559074093041
  0
ARC
  5
528B
330
A
100
AcDbEntity
  8
MODEL
  6
DASHED2
 62
     7
100
AcDbCircle
 10
178.6619221909101
 20
176.1136136763868
 30
0.0
 40
4.414157518449248
100
AcDbArc
 50
196.1534755347838
 51
200.7376324414084
  0
ARC
  5
528C
330
A
100
AcDbEntity
  8
MODEL
  6
DASHED2
 62
     7
100
AcDbCircle
 10
178.6178509112197
 20
176.1006529618446
 30
0.0
 40
4.368220364229231
100
AcDbArc
 50
191.5372455267813
 51
196.1510109629105
  0
ARC
  5
528D
330
A
100
AcDbEntity
  8
MODEL
  6
DASHED2
 62
     7
100
AcDbCircle
 10
178.6563667682905
 20
176.1077378053177
 30
0.0
 40
4.40737507366182
100
AcDbArc
 50
186.9434130572461
 51
191.5273438771938
  0
ARC
  5
528E
330
A
100
AcDbEntity
  8
MODEL
  6
DASHED2
 62
     7
100
AcDbCircle
 10
179.9909333019246
 20
176.2715902977217
 30
0.0
 40
5.751962052703995
100
AcDbArc
 50
182.3648436962895
 51
186.9565254925804
  0
ARC
  5
528F
330
A
100
AcDbEntity
  8
MODEL
  6
DASHED2
 62
     7
100
AcDbCircle
 10
179.9595159815892
 20
176.2698540386017
 30
0.0
 40
5.720499863600065
100
AcDbArc
 50
177.7544258599449
 51
182.3604525350479
  0
ARC
  5
5290
330
A
100
AcDbEntity
  8
MODEL
  6
DASHED2
 62
     7
100
AcDbCircle
 10
181.13331549808
 20
176.1950346625277
 30
0.0
 40
6.896389607538958
100
AcDbArc
 50
173.5084834294026
 51
177.5154068574317
  0
ARC
  5
5291
330
A
100
AcDbEntity
  8
MODEL
  6
DASHED2
 62
     7
100
AcDbCircle
 10
181.7459210492989
 20
176.1318451033668
 30
0.0
 40
7.512214258358407
100
AcDbArc
 50
169.7251206648024
 51
173.5578635507738
  0
ARC
  5
5292
330
A
100
AcDbEntity
  8
MODEL
  6
DASHED2
 62
     7
100
AcDbCircle
 10
181.7679718375176
 20
176.1272196860797
 30
0.0
 40
7.534736490363762
100
AcDbArc
 50
165.8967453278761
 51
169.7204210774773
  0
ARC
  5
5293
330
A
100
AcDbEntity
  8
MODEL
  6
DASHED2
 62
     7
100
AcDbCircle
 10
183.7663837850166
 20
175.6259650033459
 30
0.0
 40
9.59505347012311
100
AcDbArc
 50
162.648857063107
 51
165.9015660085212
  0
ARC
  5
5294
330
A
100
AcDbEntity
  8
MODEL
  6
DASHED2
 62
     7
100
AcDbCircle
 10
183.7432693986179
 20
175.6329039302228
 30
0.0
 40
9.570921532929226
100
AcDbArc
 50
159.3899421717517
 51
162.6472397478968
  0
ARC
  5
5295
330
A
100
AcDbEntity
  8
MODEL
  6
DASHED2
 62
     7
100
AcDbCircle
 10
185.0188034608827
 20
175.1276118651969
 30
0.0
 40
10.94271059861836
100
AcDbArc
 50
156.3162466634385
 51
159.2645056231142
  0
ARC
  5
5296
330
A
100
AcDbEntity
  8
MODEL
  6
DASHED2
 62
     7
100
AcDbCircle
 10
185.661774936446
 20
174.8510994541128
 30
0.0
 40
11.64260163186115
100
AcDbArc
 50
153.4833747481856
 51
156.3411009041849
  0
ARC
  5
5297
330
A
100
AcDbEntity
  8
MODEL
  6
DASHED2
 62
     7
100
AcDbCircle
 10
185.6819431641487
 20
174.8405776362978
 30
0.0
 40
11.66534581130771
100
AcDbArc
 50
150.627938402967
 51
153.4813574579249
  0
ARC
  5
5298
330
A
100
AcDbEntity
  8
MODEL
  6
DASHED2
 62
     7
100
AcDbCircle
 10
187.2258155542697
 20
173.9723941185297
 30
0.0
 40
13.43658385413462
100
AcDbArc
 50
147.384003679662
 51
150.6307339636089
  0
ARC
  5
5299
330
A
100
AcDbEntity
  8
MODEL
  6
DASHED2
 62
     7
100
AcDbCircle
 10
187.2303912534572
 20
173.9687979149718
 30
0.0
 40
13.44237636141881
100
AcDbArc
 50
144.1366765539484
 51
147.3816050131544
  0
ARC
  5
529A
330
A
100
AcDbEntity
  8
MODEL
  6
DASHED2
 62
     7
100
AcDbCircle
 10
188.2019351879868
 20
173.2672244325717
 30
0.0
 40
14.64075135277774
100
AcDbArc
 50
141.0729088572794
 51
144.1390859073819
  0
ARC
  5
529B
330
A
100
AcDbEntity
  8
MODEL
  6
DASHED2
 62
     7
100
AcDbCircle
 10
188.207865005033
 20
173.2617573589517
 30
0.0
 40
14.64879957219568
100
AcDbArc
 50
138.0065247441169
 51
141.0708468178687
  0
ARC
  5
529C
330
A
100
AcDbEntity
  8
MODEL
  6
DASHED2
 62
     7
100
AcDbCircle
 10
188.5183570245426
 20
172.9830206212727
 30
0.0
 40
15.0660514706084
100
AcDbArc
 50
135.0004754239439
 51
138.0086940854706
  0
LINE
  5
529D
330
A
100
AcDbEntity
  8
MODEL
  6
Continuous
 62
     7
100
AcDbLine
 10
134.3816507401137
 20
193.1050322715918
 30
0.0
 11
134.9293746245949
 21
193.1050322715918
 31
0.0
  0
LINE
  5
529E
330
A
100
AcDbEntity
  8
MODEL
  6
Continuous
 62
     7
100
AcDbLine
 10
134.3816507401137
 20
168.6679425127937
 30
0.0
 11
134.9293746245949
 21
168.6679425127937
 31
0.0
  0
LINE
  5
529F
330
A
100
AcDbEntity
  8
MODEL
  6
Continuous
 62
     7
100
AcDbLine
 10
139.4325120145532
 20
341.0229538105481
 30
0.0
 11
114.9237631164623
 21
341.0229538105481
 31
0.0
  0
LINE
  5
52A0
330
A
100
AcDbEntity
  8
MODEL
  6
Continuous
 62
     7
100
AcDbLine
 10
115.1991885646423
 20
341.034177143836
 30
0.0
 11
139.1991885646423
 21
341.034177143836
 31
0.0
  0
LINE
  5
52A1
330
A
100
AcDbEntity
  8
MODEL
  6
Continuous
 62
     7
100
AcDbLine
 10
115.1904852108879
 20
341.048966174475
 30
0.0
 11
139.1904852108879
 21
341.048966174475
 31
0.0
  0
LINE
  5
52A2
330
A
100
AcDbEntity
  8
MODEL
  6
Continuous
 62
     7
100
AcDbLine
 10
139.1338587022739
 20
340.9878436993671
 30
0.0
 11
115.1338587022739
 21
340.9878436993671
 31
0.0
  0
LINE
  5
52A3
330
A
100
AcDbEntity
  8
MODEL
  6
Continuous
 62
     7
100
AcDbLine
 10
115.1776283892059
 20
341.021426967421
 30
0.0
 11
139.1776283892059
 21
341.021426967421
 31
0.0
  0
ARC
  5
52A4
102
{ACAD_REACTORS
330
52BF
102
}
330
A
100
AcDbEntity
  8
MODEL
  6
Continuous
 62
     7
100
AcDbCircle
 10
247.1257815346022
 20
284.0579914400502
 30
0.0
 40
1.0
100
AcDbArc
 50
270.0
 51
0.0
  0
ARC
  5
52A5
330
A
100
AcDbEntity
  8
MODEL
  6
Continuous
 62
     7
100
AcDbCircle
 10
247.1257815346022
 20
300.5197204400499
 30
0.0
 40
1.0
100
AcDbArc
 50
0.0
 51
90.0
  0
ARC
  5
52A6
102
{ACAD_REACTORS
330
52BF
102
}
330
A
100
AcDbEntity
  8
MODEL
  6
Continuous
 62
     7
100
AcDbCircle
 10
121.1257815346022
 20
289.0579914400503
 30
0.0
 40
6.0
100
AcDbArc
 50
180.0
 51
270.0
  0
ARC
  5
52A7
330
A
100
AcDbEntity
  8
MODEL
  6
Continuous
 62
     7
100
AcDbCircle
 10
143.1257815346022
 20
305.5197204400499
 30
0.0
 40
4.0
100
AcDbArc
 50
180.0
 51
270.0
  0
LINE
  5
52A8
330
A
100
AcDbEntity
  8
MODEL
  6
Continuous
 62
     7
100
AcDbLine
 10
143.1257815346022
 20
301.5197204400499
 30
0.0
 11
247.1257815346022
 21
301.5197204400499
 31
0.0
  0
LINE
  5
52A9
330
A
100
AcDbEntity
  8
MODEL
  6
Continuous
 62
     7
100
AcDbLine
 10
121.1257815346022
 20
283.0579914400502
 30
0.0
 11
247.1257815346022
 21
283.0579914400502
 31
0.0
  0
LINE
  5
52AA
330
A
100
AcDbEntity
  8
MODEL
  6
Continuous
 62
     7
100
AcDbLine
 10
139.1257815346022
 20
341.0579914400503
 30
0.0
 11
139.1257815346022
 21
305.5197204400499
 31
0.0
  0
LINE
  5
52AB
330
A
100
AcDbEntity
  8
MODEL
  6
Continuous
 62
     7
100
AcDbLine
 10
115.1257815346022
 20
341.0579914400503
 30
0.0
 11
115.1257815346022
 21
289.0579914400503
 31
0.0
  0
LINE
  5
52AC
330
A
100
AcDbEntity
  8
MODEL
  6
Continuous
 62
     7
100
AcDbLine
 10
248.1257815346022
 20
300.5197204400499
 30
0.0
 11
248.1257815346022
 21
284.0579914400502
 31
0.0
  0
LINE
  5
52AD
330
A
100
AcDbEntity
  8
MODEL
  6
Continuous
 62
     7
100
AcDbLine
 10
115.1257815346022
 20
341.0579914400503
 30
0.0
 11
139.1257815346022
 21
341.0579914400503
 31
0.0
  0
LINE
  5
52AE
330
A
100
AcDbEntity
  8
MODEL
  6
Continuous
 62
     7
100
AcDbLine
 10
247.2512425346022
 20
300.5389474400499
 30
0.0
 11
247.2512425346022
 21
283.88915844005
 31
0.0
  0
ARC
  5
52AF
330
A
100
AcDbEntity
  8
MODEL
  6
Continuous
 62
     7
100
AcDbCircle
 10
106.8390115346022
 20
312.77482744005
 30
0.0
 40
34.286495020001
100
AcDbArc
 50
313.6946520000002
 51
341.1055500000002
  0
POINT
  5
52B0
330
A
100
AcDbEntity
  8
MODEL
 62
     7
100
AcDbPoint
 10
135.3177883839108
 20
1180.532414115681
 30
0.0
  0
POINT
  5
52B1
330
A
100
AcDbEntity
  8
MODEL
 62
     7
100
AcDbPoint
 10
268.3177883839108
 20
1180.532414115681
 30
0.0
  0
LINE
  5
52B2
330
A
100
AcDbEntity
  8
MODEL
  6
Continuous
 62
     7
100
AcDbLine
 10
114.9237631164623
 20
341.2260583756571
 30
0.0
 11
114.9237631164623
 21
341.034177143836
 31
0.0
  0
LINE
  5
52B3
330
A
100
AcDbEntity
  8
MODEL
  6
Continuous
 62
     7
100
AcDbLine
 10
139.4237631164623
 20
341.2260583756571
 30
0.0
 11
139.4237631164623
 21
341.034177143836
 31
0.0
  0
LINE
  5
52B4
330
A
100
AcDbEntity
  8
MODEL
  6
Continuous
 62
     7
100
AcDbLine
 10
99.7825120145531
 20
348.7335990428102
 30
0.0
 11
154.5825120145532
 21
348.7335990428102
 31
0.0
  0
LINE
  5
52B5
330
A
100
AcDbEntity
  8
MODEL
  6
Continuous
 62
     7
100
AcDbLine
 10
99.7825120145531
 20
342.53359904281
 30
0.0
 11
99.7825120145531
 21
348.7335990428102
 31
0.0
  0
LINE
  5
52B6
330
A
100
AcDbEntity
  8
MODEL
  6
Continuous
 62
     7
100
AcDbLine
 10
154.5825120145532
 20
348.7335990428102
 30
0.0
 11
154.5825120145532
 21
342.53359904281
 31
0.0
  0
POINT
  5
52B7
330
A
100
AcDbEntity
  8
MODEL
 62
     7
100
AcDbPoint
 10
97.91753455370508
 20
1265.676330053509
 30
0.0
  0
POINT
  5
52B8
330
A
100
AcDbEntity
  8
MODEL
 62
     7
100
AcDbPoint
 10
97.91753455370508
 20
1257.967096054561
 30
0.0
  0
POINT
  5
52B9
330
A
100
AcDbEntity
  8
MODEL
 62
     7
100
AcDbPoint
 10
97.99147682337684
 20
1257.931985943379
 30
0.0
  0
INSERT
  5
52BA
330
A
100
AcDbEntity
  8
MODEL
100
AcDbBlockReference
  2
-000-LW_POLYLINE_1
 10
486.7572556245951
 20
171.2185481758737
 30
0.0
 41
0.5
 42
0.5
  0
DIMENSION
  5
52BD
102
{ACAD_REACTORS
330
52BF
102
}
102
{ACAD_XDICTIONARY
360
52BE
102
}
330
A
100
AcDbEntity
  8
寸法
  6
Continuous
100
AcDbDimension
  2
*D10
 10
248.1257815346022
 20
262.310987207737
 30
0.0
 11
181.6257815346022
 21
266.810987207737
 31
0.0
 70
    32
 71
     5
 42
133.0
 73
     0
 74
     0
 75
     0
  3
tfrom線あり
100
AcDbAlignedDimension
 13
115.1257815346022
 23
289.0579914400503
 33
0.0
 14
248.1257815346022
 24
284.0579914400502
 34
0.0
100
AcDbRotatedDimension
  0
TEXT
  5
59DB
330
A
100
AcDbEntity
  8
_0-1_
 62
     1
100
AcDbText
 10
177.7468866874332
 20
79.37939740351129
 30
0.0
 40
4.0
  1
   
  7
ＭＳ ゴシック
100
AcDbText
  0
LINE
  5
59DC
330
A
100
AcDbEntity
  8
SPACER
  6
CENTER
 48
3.0
100
AcDbLine
 10
127.1816507401138
 20
224.6771809568476
 30
0.0
 11
127.1816507401138
 21
137.0485128832279
 31
0.0
  0
LINE
  5
59DD
330
A
100
AcDbEntity
  8
SPACER
  6
CENTER
 48
3.0
100
AcDbLine
 10
83.36731670330403
 20
180.8628469200378
 30
0.0
 11
170.9959847769237
 21
180.8628469200378
 31
0.0
  0
LINE
  5
59DE
330
A
100
AcDbEntity
  8
SPACER
  6
CENTER
 48
3.0
100
AcDbLine
 10
83.36817797774336
 20
348.7335990428101
 30
0.0
 11
170.9968460513629
 21
348.7335990428101
 31
0.0
  0
LINE
  5
59DF
330
A
100
AcDbEntity
  8
SPACER
  6
CENTER
 48
3.0
100
AcDbLine
 10
408.8721245115548
 20
365.1479330796199
 30
0.0
 11
408.8721245115548
 21
277.5192650060002
 31
0.0
  0
LINE
  5
59E0
330
A
100
AcDbEntity
  8
SPACER
  6
CENTER
 48
3.0
100
AcDbLine
 10
365.0577904747449
 20
321.33359904281
 30
0.0
 11
452.6864585483646
 21
321.33359904281
 31
0.0
  0
LWPOLYLINE
  5
5A42
330
A
100
AcDbEntity
  8
SPACER
100
AcDbPolyline
 90
        4
 70
     1
 43
0.0
 10
161.5928474918056
 20
97.1045060433407
 10
161.5928474918056
 20
69.6571102646527
 10
432.4071525081941
 20
69.6571102646527
 10
432.4071525081941
 20
97.1045060433407
  0
LINE
  5
5A43
330
A
100
AcDbEntity
  8
SPACER
  6
CENTER
 48
3.0
100
AcDbLine
 10
296.9999999999999
 20
404.690473771441
 30
0.0
 11
297.0
 21
106.25363796957
 31
0.0
  0
LINE
  5
5A44
330
A
100
AcDbEntity
  8
SPACER
  6
CENTER
 48
3.0
100
AcDbLine
 10
15.30952622855898
 20
255.4720558705055
 30
0.0
 11
578.690473771441
 21
255.4720558705055
 31
0.0
  0
LINE
  5
5A45
330
A
100
AcDbEntity
  8
SPACER
  6
CENTER
 48
3.0
100
AcDbLine
 10
15.30952622855898
 20
106.25363796957
 30
0.0
 11
578.690473771441
 21
106.25363796957
 31
0.0
  0
LINE
  5
5A46
330
A
100
AcDbEntity
  8
SPACER
  6
CENTER
 48
3.0
100
AcDbLine
 10
408.8721245115548
 20
224.6771809568476
 30
0.0
 11
408.8721245115548
 21
137.0485128832279
 31
0.0
  0
LINE
  5
5A47
330
A
100
AcDbEntity
  8
SPACER
  6
CENTER
 48
3.0
100
AcDbLine
 10
365.057790474745
 20
180.8628469200378
 30
0.0
 11
452.6864585483647
 21
180.8628469200378
 31
0.0
  0
LINE
  5
5AF1
330
A
100
AcDbEntity
  8
SPACER
  6
CENTER
 48
3.0
100
AcDbLine
 10
127.1825120145532
 20
392.54793307962
 30
0.0
 11
127.1825120145532
 21
304.9192650060003
 31
0.0
  0
LINE
  5
5DF0
330
A
100
AcDbEntity
  8
PRINT BORDER
100
AcDbLine
 10
296.9999999999998
 20
0.0
 30
0.0
 11
296.9999999999998
 21
15.30952622855898
 31
0.0
  0
LINE
  5
5DF1
330
A
100
AcDbEntity
  8
テンプレート
100
AcDbLine
 10
437.9999999999998
 20
38.27810890422097
 30
0.0
 11
15.30952622855898
 21
38.27810890422097
 31
0.0
  0
LINE
  5
5DF2
330
A
100
AcDbEntity
  8
テンプレート
100
AcDbLine
 10
15.30952622855898
 20
26.22153683920783
 30
0.0
 11
578.6904737714406
 21
26.22153683920783
 31
0.0
  0
TEXT
  5
5DF3
330
A
100
AcDbEntity
  8
テンプレート
100
AcDbText
 10
18.06121699514119
 20
32.16825981613692
 30
0.0
 40
3.5
  1
材質
  7
ＭＳ ゴシック
100
AcDbText
  0
TEXT
  5
5DF4
330
A
100
AcDbEntity
  8
テンプレート
100
AcDbText
 10
18.06121699514119
 20
56.50959028673083
 30
0.0
 40
3.5
  1
品名
  7
ＭＳ ゴシック
100
AcDbText
  0
TEXT
  5
5DF5
330
A
100
AcDbEntity
  8
テンプレート
100
AcDbText
 10
18.06121699514119
 20
44.65099339080098
 30
0.0
 40
3.5
  1
仕上げ
  7
ＭＳ ゴシック
100
AcDbText
  0
TEXT
  5
5DF6
330
A
100
AcDbEntity
  8
テンプレート
100
AcDbText
 10
298.8233485179305
 20
56.58523052309897
 30
0.0
 40
3.5
  1
品番
  7
ＭＳ ゴシック
100
AcDbText
  0
TEXT
  5
5DF7
330
A
100
AcDbEntity
  8
テンプレート
100
AcDbText
 10
38.85540199547486
 20
53.09440584367189
 30
0.0
 40
5.5
  1
レバーハンドル - FSB -
  7
ＭＳ ゴシック
100
AcDbText
  0
TEXT
  5
5DF8
330
A
100
AcDbEntity
  8
テンプレート
100
AcDbText
 10
313.0171205424465
 20
52.977080524553
 30
0.0
 40
5.5
  1
FSB10-1025L-C
  7
ＭＳ ゴシック
100
AcDbText
  0
LINE
  5
5DF9
330
A
100
AcDbEntity
  8
テンプレート
100
AcDbLine
 10
437.9999999999998
 20
50.16496477419605
 30
0.0
 11
15.30952622855898
 21
50.16496477419605
 31
0.0
  0
LINE
  5
5DFA
330
A
100
AcDbEntity
  8
テンプレート
100
AcDbLine
 10
578.690473771441
 20
62.22153683920783
 30
0.0
 11
15.30952622855898
 21
62.22153683920783
 31
0.0
  0
LINE
  5
5DFB
330
A
100
AcDbEntity
  8
PRINT BORDER
100
AcDbLine
 10
593.9999999999998
 20
210.0
 30
0.0
 11
578.690473771441
 21
210.0
 31
0.0
  0
LINE
  5
5DFC
330
A
100
AcDbEntity
  8
PRINT BORDER
100
AcDbLine
 10
0.0
 20
210.0
 30
0.0
 11
15.30952622855898
 21
210.0
 31
0.0
  0
LINE
  5
5DFD
330
A
100
AcDbEntity
  8
PRINT BORDER
100
AcDbLine
 10
296.9999999999998
 20
420.0
 30
0.0
 11
296.9999999999998
 21
404.690473771441
 31
0.0
  0
LINE
  5
5DFE
330
A
100
AcDbEntity
  8
テンプレート
100
AcDbLine
 10
578.690473771441
 20
62.22153683920783
 30
0.0
 11
578.690473771441
 21
26.22153683920783
 31
0.0
  0
LINE
  5
5DFF
330
A
100
AcDbEntity
  8
テンプレート
100
AcDbLine
 10
15.30952622855898
 20
62.22153683920783
 30
0.0
 11
15.30952622855898
 21
26.22153683920783
 31
0.0
  0
TEXT
  5
5E00
330
A
100
AcDbEntity
  8
テンプレート
100
AcDbText
 10
494.9733384955218
 20
16.51938390313694
 30
0.0
 40
5.5
  1
大洋金物株式会社  
  7
ＭＳ ゴシック
100
AcDbText
  0
LINE
  5
5E01
330
A
100
AcDbEntity
  8
テンプレート
100
AcDbLine
 10
437.9999999999998
 20
62.22153683920783
 30
0.0
 11
437.9999999999998
 21
26.22153683920783
 31
0.0
  0
LINE
  5
5E02
330
A
100
AcDbEntity
  8
テンプレート
100
AcDbLine
 10
296.9999999999998
 20
62.22153683920783
 30
0.0
 11
296.9999999999998
 21
26.22153683920783
 31
0.0
  0
INSERT
  5
5E03
330
A
100
AcDbEntity
  8
テンプレート
100
AcDbBlockReference
  2
名称未設定-1
 10
548.3945198859803
 20
-7.642344203993161
 30
0.0
 41
0.180975
 42
0.180975
 43
0.180975
  0
TEXT
  5
5E04
330
A
100
AcDbEntity
  8
テンプレート
100
AcDbText
 10
18.42255191974346
 20
18.90483678917599
 30
0.0
 40
4.0
  1
20151207N
  7
ＭＳ ゴシック
100
AcDbText
  0
LINE
  5
5E05
330
A
100
AcDbEntity
  8
テンプレート
100
AcDbLine
 10
15.30952622855898
 20
210.0
 30
0.0
 11
15.30952622855898
 21
26.22153683920783
 31
0.0
  0
LINE
  5
5E06
330
A
100
AcDbEntity
  8
テンプレート
100
AcDbLine
 10
15.30952622855898
 20
210.0
 30
0.0
 11
15.30952622855898
 21
404.690473771441
 31
0.0
  0
LINE
  5
5E07
330
A
100
AcDbEntity
  8
テンプレート
100
AcDbLine
 10
296.9999999999998
 20
404.690473771441
 30
0.0
 11
15.30952622855887
 21
404.690473771441
 31
0.0
  0
LINE
  5
5E08
330
A
100
AcDbEntity
  8
テンプレート
100
AcDbLine
 10
296.9999999999998
 20
404.690473771441
 30
0.0
 11
578.690473771441
 21
404.690473771441
 31
0.0
  0
LINE
  5
5E09
330
A
100
AcDbEntity
  8
テンプレート
100
AcDbLine
 10
578.690473771441
 20
210.0
 30
0.0
 11
578.690473771441
 21
404.690473771441
 31
0.0
  0
LINE
  5
5E0A
330
A
100
AcDbEntity
  8
テンプレート
100
AcDbLine
 10
578.690473771441
 20
210.0
 30
0.0
 11
578.690473771441
 21
26.22153683920783
 31
0.0
  0
LWPOLYLINE
  5
5E0B
330
A
100
AcDbEntity
  8
PRINT BORDER
  6
HIDDEN
 48
3.0
100
AcDbPolyline
 90
        4
 70
     1
 43
0.0
 10
0.0
 20
0.0
 10
0.0
 20
420.0
 10
593.9999999999998
 20
420.0
 10
593.9999999999998
 20
0.0
  0
TEXT
  5
5E0C
330
A
100
AcDbEntity
  8
テンプレート
100
AcDbText
 10
298.7989156222222
 20
32.62405342819488
 30
0.0
 40
3.5
  1
縮尺
  7
ＭＳ ゴシック
100
AcDbText
  0
TEXT
  5
5E0D
330
A
100
AcDbEntity
  8
テンプレート
100
AcDbText
 10
313.0171205424465
 20
28.29362070227194
 30
0.0
 40
5.5
  1
1/2
  7
ＭＳ ゴシック
100
AcDbText
  0
TEXT
  5
5E0E
330
A
100
AcDbEntity
  8
テンプレート
100
AcDbText
 10
298.8233485179305
 20
44.52865845808583
 30
0.0
 40
3.5
  1
扉厚
  7
ＭＳ ゴシック
100
AcDbText
  0
TEXT
  5
5E0F
330
A
100
AcDbEntity
  8
テンプレート
100
AcDbText
 10
440.0887524673469
 20
56.58523052309897
 30
0.0
 40
3.5
  1
備考
  7
ＭＳ ゴシック
100
AcDbText
  0
TEXT
  5
5E10
330
A
100
AcDbEntity
  8
テンプレート
100
AcDbText
 10
449.0017237694899
 20
47.28154793898159
 30
0.0
 40
5.5
  1
取付方＝呼込み(ビス付)
  7
ＭＳ ゴシック
100
AcDbText
  0
LINE
  5
5E11
330
A
100
AcDbEntity
  8
SPACER
  6
CENTER
 48
3.0
100
AcDbLine
 10
127.1816507401138
 20
224.6771809568476
 30
0.0
 11
127.1816507401138
 21
137.0485128832279
 31
0.0
  0
LINE
  5
5E12
330
A
100
AcDbEntity
  8
SPACER
  6
CENTER
 48
3.0
100
AcDbLine
 10
83.36731670330403
 20
180.8628469200378
 30
0.0
 11
170.9959847769237
 21
180.8628469200378
 31
0.0
  0
LINE
  5
5E13
330
A
100
AcDbEntity
  8
SPACER
  6
CENTER
 48
3.0
100
AcDbLine
 10
83.36817797774336
 20
348.7335990428101
 30
0.0
 11
170.9968460513629
 21
348.7335990428101
 31
0.0
  0
LINE
  5
5E14
330
A
100
AcDbEntity
  8
SPACER
  6
CENTER
 48
3.0
100
AcDbLine
 10
408.8721245115548
 20
365.1479330796199
 30
0.0
 11
408.8721245115548
 21
277.5192650060002
 31
0.0
  0
LINE
  5
5E15
330
A
100
AcDbEntity
  8
SPACER
  6
CENTER
 48
3.0
100
AcDbLine
 10
365.0577904747449
 20
321.33359904281
 30
0.0
 11
452.6864585483647
 21
321.33359904281
 31
0.0
  0
LINE
  5
5E6D
330
A
100
AcDbEntity
  8
テンプレート
  6
Continuous
100
AcDbLine
 10
38.80044932550163
 20
50.22153683920783
 30
0.0
 11
38.80044932550163
 21
26.22153683920783
 31
0.0
  0
LWPOLYLINE
  5
5E77
330
A
100
AcDbEntity
  8
SPACER
100
AcDbPolyline
 90
        4
 70
     1
 43
0.0
 10
161.5928474918056
 20
97.1045060433407
 10
161.5928474918056
 20
69.6571102646527
 10
432.407152508194
 20
69.6571102646527
 10
432.407152508194
 20
97.1045060433407
  0
LINE
  5
5E78
330
A
100
AcDbEntity
  8
SPACER
  6
CENTER
 48
3.0
100
AcDbLine
 10
296.9999999999998
 20
404.690473771441
 30
0.0
 11
297.0
 21
106.25363796957
 31
0.0
  0
LINE
  5
5E79
330
A
100
AcDbEntity
  8
SPACER
  6
CENTER
 48
3.0
100
AcDbLine
 10
15.30952622855898
 20
255.4720558705055
 30
0.0
 11
578.690473771441
 21
255.4720558705055
 31
0.0
  0
LINE
  5
5E7A
330
A
100
AcDbEntity
  8
SPACER
  6
CENTER
 48
3.0
100
AcDbLine
 10
15.30952622855898
 20
106.25363796957
 30
0.0
 11
578.690473771441
 21
106.25363796957
 31
0.0
  0
LINE
  5
5E7B
330
A
100
AcDbEntity
  8
SPACER
  6
CENTER
 48
3.0
100
AcDbLine
 10
408.8721245115548
 20
224.6771809568476
 30
0.0
 11
408.8721245115548
 21
137.0485128832279
 31
0.0
  0
LINE
  5
5E7C
330
A
100
AcDbEntity
  8
SPACER
  6
CENTER
 48
3.0
100
AcDbLine
 10
365.0577904747449
 20
180.8628469200378
 30
0.0
 11
452.6864585483647
 21
180.8628469200378
 31
0.0
  0
CIRCLE
  5
5E91
102
{ACAD_REACTORS
330
5F20
102
}
330
A
100
AcDbEntity
  8
CutoutOverlay
100
AcDbCircle
 10
427.8721245115548
 20
180.8628469200378
 30
0.0
 40
5.0
  0
CIRCLE
  5
5E92
102
{ACAD_REACTORS
330
5F20
102
}
330
A
100
AcDbEntity
  8
CutoutOverlay
100
AcDbCircle
 10
389.8721245115548
 20
180.8628469200378
 30
0.0
 40
5.0
  0
CIRCLE
  5
5E93
102
{ACAD_REACTORS
330
5F1C
330
5F1F
330
5F20
102
}
330
A
100
AcDbEntity
  8
CutoutOverlay
100
AcDbCircle
 10
408.8721245115548
 20
180.8628469200378
 30
0.0
 40
14.0
  0
DIMENSION
  5
5E94
330
A
100
AcDbEntity
  8
寸法
100
AcDbDimension
  2
*D41
 10
389.8721245115548
 20
144.5573006134969
 30
0.0
 11
376.2146245115548
 21
144.5573006134969
 31
0.0
 70
   160
  1
 
 71
     5
 42
38.0
 73
     0
 74
     1
 75
     1
  3
tfrom線あり
100
AcDbAlignedDimension
 13
427.8721245115548
 23
177.3452081951892
 33
0.0
 14
389.8721245115548
 24
177.3452081951892
 34
0.0
100
AcDbRotatedDimension
1001
ACAD
1000
DSTYLE
1002
{
1070
   172
1070
     1
1002
}
  0
DIMENSION
  5
5E95
330
A
100
AcDbEntity
  8
寸法
100
AcDbDimension
  2
*D42
 10
408.8721245115548
 20
213.8023335341041
 30
0.0
 11
399.3721245115548
 21
218.3023335341041
 31
0.0
 70
    32
 71
     5
 42
19.0
 73
     0
 74
     0
 75
     0
  3
tfrom線あり
100
AcDbAlignedDimension
 13
389.8721245115548
 23
186.0157099566222
 33
0.0
 14
408.8721245115548
 24
200.1912224768318
 34
0.0
100
AcDbRotatedDimension
  0
DIMENSION
  5
5E96
330
A
100
AcDbEntity
  8
寸法
100
AcDbDimension
  2
*D43
 10
427.8721245115548
 20
213.8023335341041
 30
0.0
 11
418.3721245115548
 21
218.3023335341041
 31
0.0
 70
    32
 71
     5
 42
19.0
 73
     0
 74
     0
 75
     0
  3
tfrom線あり
100
AcDbAlignedDimension
 13
408.8721245115548
 23
200.1912224768318
 33
0.0
 14
427.8721245115548
 24
186.0157099566222
 34
0.0
100
AcDbRotatedDimension
  0
TEXT
  5
5F19
330
A
100
AcDbEntity
  8
寸法
100
AcDbText
 10
348.1659509202455
 20
231.4229447852761
 30
0.0
 40
5.0
  1
<切欠図>
  7
ＭＳ ゴシック
100
AcDbText
  0
LEADER
  5
5F1A
102
{ACAD_REACTORS
330
5F1C
102
}
102
{ACAD_XDICTIONARY
360
5F1B
102
}
330
A
100
AcDbEntity
  8
寸法
100
AcDbLeader
  3
tfrom線あり
 76
     3
 10
408.8721245115548
 20
194.8628469200378
 30
0.0
 10
408.8721245115548
 20
200.7337752882268
 30
0.0
 10
447.9531070495427
 20
200.7337752882268
 30
0.0
  0
LEADER
  5
5F1D
102
{ACAD_REACTORS
330
5F1F
102
}
102
{ACAD_XDICTIONARY
360
5F1E
102
}
330
A
100
AcDbEntity
  8
寸法
100
AcDbLeader
  3
tfrom線あり
 76
     3
 10
408.8721245115548
 20
180.8628469200378
 30
0.0
 10
442.1530114131083
 20
156.5669494488204
 30
0.0
 10
510.1082899407156
 20
156.5669494488204
 30
0.0
  0
HATCH
  5
5F20
330
A
100
AcDbEntity
  8
CutoutOverlay
100
AcDbHatch
 10
0.0
 20
0.0
 30
0.0
210
0.0
220
0.0
230
1.0
  2
ANSI31
 70
     0
 71
     1
 91
        3
 92
        1
 93
        1
 72
     2
 10
389.8721245115548
 20
180.8628469200378
 40
5.0
 50
0.0
 51
360.0
 73
     1
 97
        1
330
5E92
 92
        1
 93
        1
 72
     2
 10
408.8721245115548
 20
180.8628469200378
 40
14.0
 50
0.0
 51
360.0
 73
     1
 97
        1
330
5E93
 92
        1
 93
        1
 72
     2
 10
427.8721245115548
 20
180.8628469200378
 40
5.0
 50
0.0
 51
360.0
 73
     1
 97
        1
330
5E91
 75
     0
 76
     1
 52
0.0
 41
1.0
 77
     0
 78
     1
 53
45.0
 43
0.0
 44
0.0
 45
-2.245064030267288
 46
2.245064030267288
 79
     0
 98
        1
 10
0.0
 20
0.0
1001
ACAD
1010
0.0
1020
0.0
1030
0.0
  0
TEXT
  5
5F21
330
A
100
AcDbEntity
  8
寸法
100
AcDbText
 10
443.7339484827305
 20
159.2024023985158
 30
0.0
 40
5.0
  1
レバー角芯 センター
  7
ＭＳ ゴシック
100
AcDbText
  0
TEXT
  5
5F22
330
A
100
AcDbEntity
  8
寸法
100
AcDbText
 10
438.069555116291
 20
203.042649715703
 30
0.0
 40
5.0
  1
ø28
  7
ＭＳ ゴシック
100
AcDbText
  0
TEXT
  5
5F23
330
A
100
AcDbEntity
  8
寸法
100
AcDbText
 10
375.8306164726591
 20
147.0523164739852
 30
0.0
 40
5.0
  1
ø10
  7
ＭＳ ゴシック
100
AcDbText
  0
LINE
  5
5F26
330
A
100
AcDbEntity
  8
SPACER
  6
CENTER
 48
3.0
100
AcDbLine
 10
127.1825120145531
 20
392.54793307962
 30
0.0
 11
127.1825120145531
 21
304.9192650060003
 31
0.0
  0
MTEXT
  5
5FAD
330
A
100
AcDbEntity
  8
MODEL
390
1D
100
AcDbMText
 10
124.4785527524682
 20
35.09213750811614
 30
0.0
 40
5.0
 41
0.0
 46
5.0
 71
     1
 72
     1
  1
{ステンレス}
  7
ＭＳ ゴシック
 73
     1
 44
0.7828267384257843
1001
ACAD
1000
ACAD_MTEXT_DEFINED_HEIGHT_BEGIN
1070
    46
1040
5.0
1000
ACAD_MTEXT_DEFINED_HEIGHT_END
  0
MTEXT
  5
5FAE
330
A
100
AcDbEntity
  8
MODEL
390
1D
100
AcDbMText
 10
123.7351886867096
 20
49.82962576524289
 30
0.0
 40
4.5
 41
0.0
 46
4.5
 71
     1
 72
     1
  1
{ステンレスマット}
  7
ＭＳ ゴシック
 73
     1
 44
0.7828267384257843
1001
ACAD
1000
ACAD_MTEXT_DEFINED_HEIGHT_BEGIN
1070
    46
1040
4.5
1000
ACAD_MTEXT_DEFINED_HEIGHT_END
  0
MTEXT
  5
5FAF
330
A
100
AcDbEntity
  8
MODEL
390
1D
100
AcDbMText
 10
41.32914657228991
 20
46.7989877346738
 30
0.0
 40
5.0
 41
0.0
 46
5.0
 71
     1
 72
     1
  1
{シャンパンシルバー}
  7
ＭＳ ゴシック
 73
     1
 44
0.7828267384257843
1001
ACAD
1000
ACAD_MTEXT_DEFINED_HEIGHT_BEGIN
1070
    46
1040
5.0
1000
ACAD_MTEXT_DEFINED_HEIGHT_END
  0
MTEXT
  5
5FB0
330
A
100
AcDbEntity
  8
MODEL
390
1D
100
AcDbMText
 10
41.58972414868282
 20
35.09213750811614
 30
0.0
 40
5.0
 41
0.0
 46
5.0
 71
     1
 72
     1
  1
{アルミ}
  7
ＭＳ ゴシック
 73
     1
 44
0.7828267384257843
1001
ACAD
1000
ACAD_MTEXT_DEFINED_HEIGHT_BEGIN
1070
    46
1040
5.0
1000
ACAD_MTEXT_DEFINED_HEIGHT_END
  0
LINE
  5
5FB1
330
A
100
AcDbEntity
  8
MODEL
  6
Continuous
100
AcDbLine
 10
121.5742476958486
 20
50.22153683920783
 30
0.0
 11
121.5742476958486
 21
26.22153683920772
 31
0.0
  0
MTEXT
  5
5FB2
330
A
100
AcDbEntity
  8
MODEL
390
1D
100
AcDbMText
 10
123.6048998985131
 20
44.20115011515395
 30
0.0
 40
4.5
 41
0.0
 46
5.0
 71
     1
 72
     1
  1
{ステンレスポリッシュ}
  7
ＭＳ ゴシック
 73
     1
 44
0.7828267384257843
1001
ACAD
1000
ACAD_MTEXT_DEFINED_HEIGHT_BEGIN
1070
    46
1040
5.0
1000
ACAD_MTEXT_DEFINED_HEIGHT_END
  0
DIMENSION
  5
5FF8
330
A
100
AcDbEntity
  8
寸法
100
AcDbDimension
  2
*D46
 10
146.1825120145532
 20
365.9815930792955
 30
0.0
 11
127.1825120145532
 21
370.4815930792955
 31
0.0
 70
    32
 71
     5
 42
37.99999999999999
 73
     0
 74
     0
 75
     0
  3
tfrom線あり
100
AcDbAlignedDimension
 13
108.1825120145532
 23
351.4254941772619
 33
0.0
 14
146.1825120145532
 24
351.4254941772619
 34
0.0
100
AcDbRotatedDimension
  0
LINE
  5
5FF9
330
A
100
AcDbEntity
  8
寸法
  6
CENTER
 48
0.5
100
AcDbLine
 10
146.1825120145532
 20
351.4254941772619
 30
0.0
 11
146.1825120145532
 21
345.8033256441718
 31
0.0
  0
LINE
  5
5FFA
330
A
100
AcDbEntity
  8
寸法
  6
CENTER
 48
0.5
100
AcDbLine
 10
108.1825120145532
 20
351.4254941772619
 30
0.0
 11
108.1825120145532
 21
345.8033256441718
 31
0.0
  0
ARC
  5
6052
330
A
100
AcDbEntity
  8
CutoutUnderlay
  6
STYLE_02
100
AcDbCircle
 10
410.7689137796823
 20
178.9410651406639
 30
0.0
 40
12.0
100
AcDbArc
 50
179.9992630000003
 51
180.4691690000001
  0
LINE
  5
6053
330
A
100
AcDbEntity
  8
CutoutUnderlay
  6
STYLE_02
100
AcDbLine
 10
398.7693247796823
 20
178.8498581406637
 30
0.0
 11
398.7693157796823
 21
178.8428031406639
 31
0.0
  0
ARC
  5
6054
330
A
100
AcDbEntity
  8
CutoutUnderlay
  6
Continuous
100
AcDbCircle
 10
406.709874511555
 20
182.5970489200377
 30
0.0
 40
9.228216888108
100
AcDbArc
 50
90.0
 51
270.0
  0
LINE
  5
6055
330
A
100
AcDbEntity
  8
CutoutUnderlay
  6
Continuous
100
AcDbLine
 10
420.4003325115548
 20
173.3688319200379
 30
0.0
 11
406.709874511555
 21
173.3688319200379
 31
0.0
  0
LINE
  5
6056
330
A
100
AcDbEntity
  8
CutoutUnderlay
  6
Continuous
100
AcDbLine
 10
416.7177725115548
 20
191.8252649200377
 30
0.0
 11
406.709874511555
 21
191.8252649200377
 31
0.0
  0
ARC
  5
6057
330
A
100
AcDbEntity
  8
CutoutUnderlay
  6
Continuous
100
AcDbCircle
 10
408.8721245115548
 20
180.8628469200378
 30
0.0
 40
12.0
100
AcDbArc
 50
75.13516900000052
 51
312.6976779999994
  0
ARC
  5
6058
330
A
100
AcDbEntity
  8
CutoutUnderlay
  6
Continuous
100
AcDbCircle
 10
408.9239713661584
 20
180.8262824474087
 30
0.0
 40
12.0
100
AcDbArc
 50
180.0
 51
315.1442180000006
  0
ARC
  5
6059
330
A
100
AcDbEntity
  8
CutoutUnderlay
  6
Continuous
100
AcDbCircle
 10
528.8721245115548
 20
174.3688319200379
 30
0.0
 40
1.0
100
AcDbArc
 50
270.0
 51
0.0
  0
ARC
  5
605A
330
A
100
AcDbEntity
  8
CutoutUnderlay
  6
Continuous
100
AcDbCircle
 10
528.8721245115548
 20
190.8252649200377
 30
0.0
 40
1.0
100
AcDbArc
 50
0.0
 51
90.0
  0
ARC
  5
605B
330
A
100
AcDbEntity
  8
CutoutUnderlay
  6
Continuous
100
AcDbCircle
 10
420.4003325115548
 20
168.3688319200379
 30
0.0
 40
5.0
100
AcDbArc
 50
90.0
 51
132.6976779999997
  0
ARC
  5
605C
330
A
100
AcDbEntity
  8
CutoutUnderlay
  6
Continuous
100
AcDbCircle
 10
416.825825511555
 20
210.8290639200378
 30
0.0
 40
19.003799019395
100
AcDbArc
 50
255.1351689999996
 51
269.8682649999997
  0
LINE
  5
605D
330
A
100
AcDbEntity
  8
CutoutUnderlay
  6
Continuous
100
AcDbLine
 10
528.8721245115548
 20
173.3688319200379
 30
0.0
 11
420.4003325115548
 21
173.3688319200379
 31
0.0
  0
LINE
  5
605E
330
A
100
AcDbEntity
  8
CutoutUnderlay
  6
Continuous
100
AcDbLine
 10
528.8721245115548
 20
191.8252649200377
 30
0.0
 11
416.7177725115548
 21
191.8252649200377
 31
0.0
  0
LINE
  5
605F
330
A
100
AcDbEntity
  8
CutoutUnderlay
  6
Continuous
100
AcDbLine
 10
529.8721245115548
 20
174.3688319200379
 30
0.0
 11
529.8721245115548
 21
190.8252649200377
 31
0.0
  0
CIRCLE
  5
6060
330
A
100
AcDbEntity
  8
CutoutUnderlay
  6
DASHED1
100
AcDbCircle
 10
408.8721245115548
 20
180.8628469200378
 30
0.0
 40
8.925
  0
ARC
  5
6061
330
A
100
AcDbEntity
  8
CutoutUnderlay
  6
DASHED1
100
AcDbCircle
 10
408.8721245115548
 20
180.8628469200378
 30
0.0
 40
12.0
100
AcDbArc
 50
327.4199509999996
 51
75.13516900000052
  0
ARC
  5
6062
330
A
100
AcDbEntity
  8
CutoutUnderlay
  6
Continuous
100
AcDbCircle
 10
408.8721245115548
 20
180.8628469200378
 30
0.0
 40
12.0
100
AcDbArc
 50
312.6976779999994
 51
327.4199509999996
  0
LINE
  5
6063
330
A
100
AcDbEntity
  8
CutoutUnderlay
  6
Continuous
100
AcDbLine
 10
528.9975855115548
 20
190.9569309200377
 30
0.0
 11
528.9975855115548
 21
174.2518409200378
 31
0.0
  0
ARC
  5
6064
330
A
100
AcDbEntity
  8
CutoutUnderlay
  6
Continuous
100
AcDbCircle
 10
408.9531779059196
 20
180.8103932424427
 30
0.0
 40
27.5
100
AcDbArc
 50
24.31690667545313
 51
344.4086643247161
  0
ARC
  5
6065
330
A
100
AcDbEntity
  8
CutoutUnderlay
  6
DASHED1
100
AcDbCircle
 10
408.9531779059196
 20
180.8103932424427
 30
0.0
 40
27.5
100
AcDbArc
 50
344.2998938272057
 51
23.61199011636321
  0
TEXT
  5
6136
330
A
100
AcDbEntity
  8
テンプレート
100
AcDbText
 10
192.6640855805966
 20
77.17630111113851
 30
0.0
 40
5.0
  1
　 加工は現物合わせの上行って下さい。
  7
ＭＳ ゴシック
100
AcDbText
  0
TEXT
  5
6137
330
A
100
AcDbEntity
  8
テンプレート
100
AcDbText
 10
192.8363286628053
 20
85.28008520727872
 30
0.0
 40
5.0
  1
※ 輸入製品の為、国内製品と比べ製品寸法の個体差に幅が有ります。
  7
ＭＳ ゴシック
100
AcDbText
  0
TEXT
  5
6138
330
A
100
AcDbEntity
  8
テンプレート
100
AcDbText
 10
192.6640855805966
 20
67.80466980665801
 30
0.0
 40
5.0
  1
※ ご注文の際は正確な扉厚の指示をしてください。
  7
ＭＳ ゴシック
100
AcDbText
  0
DIMENSION
  5
617E
330
A
100
AcDbEntity
  8
寸法
  6
Continuous
100
AcDbDimension
  2
*D48
 10
134.8812214791989
 20
139.2647026849567
 30
0.0
 11
141.6643088333743
 21
139.2647026849567
 31
0.0
 70
   160
 71
     5
 42
7.699570739085033
 73
     0
 74
     1
 75
     1
  3
tfrom線あり
100
AcDbAlignedDimension
 13
127.1816507401139
 23
153.4628469200378
 33
0.0
 14
134.8812214791989
 24
168.6679425127938
 34
0.0
100
AcDbRotatedDimension
1001
ACAD
1000
DSTYLE
1002
{
1070
   172
1070
     1
1070
   175
1070
     1
1070
   174
1070
     1
1070
     3
1000
<>
1070
   271
1070
     0
1002
}
  0
TEXT
  5
61D6
330
A
100
AcDbEntity
  8
テンプレート
100
AcDbText
 10
313.0505831322695
 20
44.82304125840494
 30
0.0
 40
4.0
  1
MIWAケース：37～45
  7
ＭＳ ゴシック
100
AcDbText
  0
TEXT
  5
61D7
330
A
100
AcDbEntity
  8
テンプレート
100
AcDbText
 10
313.0505831322695
 20
39.8279918743558
 30
0.0
 40
4.0
  1
ユーロケース(DIN規格)：36～45
  7
ＭＳ ゴシック
100
AcDbText
  0
DIMENSION
  5
623D
330
A
100
AcDbEntity
  8
寸法
  6
Continuous
100
AcDbDimension
  2
*D51
 10
112.4325120145531
 20
378.7852477434632
 30
0.0
 11
108.1825120145531
 21
378.7852477434632
 31
0.0
 70
   160
 71
     5
 42
8.5
 73
     0
 74
     0
 75
     0
  3
tfrom線あり
100
AcDbAlignedDimension
 13
103.9325120145531
 23
367.0686993856674
 33
0.0
 14
112.4325120145531
 24
367.0686993856674
 34
0.0
100
AcDbRotatedDimension
1001
ACAD
1000
DSTYLE
1002
{
1070
   271
1070
     1
1002
}
  0
LINE
  5
6240
330
A
100
AcDbEntity
  8
MODEL
  6
Continuous
100
AcDbLine
 10
110.6317432308796
 20
354.7335990428102
 30
0.0
 11
105.7332807982266
 21
354.7335990428102
 31
0.0
  0
LINE
  5
6241
330
A
100
AcDbEntity
  8
MODEL
  6
Continuous
100
AcDbLine
 10
112.4325120145531
 20
348.7335990428102
 30
0.0
 11
110.6317432308797
 21
354.7335990428102
 31
0.0
  0
LINE
  5
6242
330
A
100
AcDbEntity
  8
MODEL
  6
Continuous
100
AcDbLine
 10
103.9325120145531
 20
348.7335990428102
 30
0.0
 11
105.7332807982266
 21
354.7335990428102
 31
0.0
  0
DIMENSION
  5
6243
330
A
100
AcDbEntity
  8
寸法
  6
Continuous
100
AcDbDimension
  2
*D52
 10
169.1440199581582
 20
348.7335990428102
 30
0.0
 11
169.1440199581582
 21
351.7335990428102
 31
0.0
 70
   160
 71
     5
 42
5.999999999999943
 73
     0
 74
     0
 75
     0
  3
tfrom線あり
100
AcDbAlignedDimension
 13
148.7210231602584
 23
354.7335990428102
 33
0.0
 14
154.4759396838725
 24
348.7335990428102
 34
0.0
 50
90.0
100
AcDbRotatedDimension
  0
LINE
  5
6245
330
A
100
AcDbEntity
  8
MODEL
  6
Continuous
100
AcDbLine
 10
150.4325120145531
 20
348.7335990428102
 30
0.0
 11
148.6317432308797
 21
354.7335990428102
 31
0.0
  0
LINE
  5
6246
330
A
100
AcDbEntity
  8
MODEL
  6
Continuous
100
AcDbLine
 10
148.6317432308796
 20
354.7335990428102
 30
0.0
 11
143.7332807982266
 21
354.7335990428102
 31
0.0
  0
LINE
  5
6247
330
A
100
AcDbEntity
  8
MODEL
  6
Continuous
100
AcDbLine
 10
141.9325120145531
 20
348.7335990428102
 30
0.0
 11
143.7332807982266
 21
354.7335990428102
 31
0.0
  0
LINE
  5
62A1
330
A
100
AcDbEntity
  8
MODEL
  6
Continuous
100
AcDbLine
 10
127.1816507401139
 20
185.1128469200378
 30
0.0
 11
121.181650740114
 21
183.3120781363644
 31
0.0
  0
LINE
  5
62A2
330
A
100
AcDbEntity
  8
MODEL
  6
Continuous
100
AcDbLine
 10
121.1816507401139
 20
183.3120781363643
 30
0.0
 11
121.1816507401139
 21
178.4136157037113
 31
0.0
  0
LINE
  5
62A3
330
A
100
AcDbEntity
  8
MODEL
  6
Continuous
100
AcDbLine
 10
127.1816507401139
 20
176.6128469200378
 30
0.0
 11
121.181650740114
 21
178.4136157037113
 31
0.0
  0
VIEWPORT
  5
349
330
B
100
AcDbEntity
 67
     1
  8
0
100
AcDbViewport
 10
202.5
 20
128.5
 30
0.0
 40
486.0
 41
308.4
 68
     1
 69
     1
 12
202.5
 22
128.5
 13
0.0
 23
0.0
 14
0.5
 24
0.5
 15
0.0
 25
0.0
 16
0.0
 26
0.0
 36
1.0
 17
0.0
 27
0.0
 37
0.0
 42
50.0
 43
0.0
 44
0.0
 45
308.4
 50
0.0
 51
0.0
 72
   100
 90
   557152
  1

281
     0
 71
     1
 74
     0
110
0.0
120
0.0
130
0.0
111
1.0
121
0.0
131
0.0
112
0.0
122
1.0
132
0.0
 79
     0
146
0.0
170
     0
 61
     5
348
26C
292
     1
282
     1
141
0.0
142
0.0
 63
   256
361
44F1
  0
VIEWPORT
  5
34A
330
B
100
AcDbEntity
 67
     1
  8
0
100
AcDbViewport
 10
202.5
 20
128.5
 30
0.0
 40
324.0
 41
205.6
 68
     2
 69
     2
 12
986.6781359294573
 22
1427.077061889956
 13
0.0
 23
0.0
 14
0.5
 24
0.5
 15
0.0
 25
0.0
 16
0.0
 26
0.0
 36
1.0
 17
0.0
 27
0.0
 37
0.0
 42
50.0
 43
0.0
 44
0.0
 45
2890.021615685494
 50
0.0
 51
0.0
 72
   100
 90
   557152
  1

281
     0
 71
     1
 74
     0
110
0.0
120
0.0
130
0.0
111
1.0
121
0.0
131
0.0
112
0.0
122
1.0
132
0.0
 79
     0
146
0.0
170
     0
 61
     5
348
26C
292
     1
282
     1
141
0.0
142
0.0
 63
   256
  0
ENDSEC
  0
SECTION
  2
OBJECTS
  0
DICTIONARY
  5
19
330
0
100
AcDbDictionary
281
     1
  3
ACAD_COLOR
350
674
  3
ACAD_DETAILVIEWSTYLE
350
13B5
  3
ACAD_GROUP
350
1A
  3
ACAD_IMAGE_VARS
350
27B
  3
ACAD_LAYOUT
350
1E
  3
ACAD_MATERIAL
350
263
  3
ACAD_MLEADERSTYLE
350
336
  3
ACAD_MLINESTYLE
350
1B
  3
ACAD_PLOTSETTINGS
350
22
  3
ACAD_PLOTSTYLENAME
350
1F
  3
ACAD_SCALELIST
350
241
  3
ACAD_SECTIONVIEWSTYLE
350
13B6
  3
ACAD_TABLESTYLE
350
278
  3
ACAD_VISUALSTYLE
350
267
  3
ACDB_RECOMPOSE_DATA
350
62B1
  3
AcDbVariableDictionary
350
330
  3
APPDATA
350
27A
  0
SUN
  5
F1A
330
15
100
AcDbSun
 90
        1
290
     0
 63
     7
421
 16777215
 40
1.0
291
     1
 91
  2455826
 92
 54000000
292
     0
 70
     2
 71
   256
280
     1
  0
DICTIONARY
  5
2E1
330
2
100
AcDbDictionary
280
     1
281
     1
  3
ACAD_LAYERSTATES
360
2E2
  3
ACLYDICTIONARY
360
53B6
  0
DICTIONARY
  5
52BE
330
52BD
100
AcDbDictionary
280
     1
281
     1
  3
ACAD_DIMASSOC
360
52BF
  0
DICTIONARY
  5
5F1B
330
5F1A
100
AcDbDictionary
280
     1
281
     1
  3
ACAD_DIMASSOC
360
5F1C
  0
DICTIONARY
  5
5F1E
330
5F1D
100
AcDbDictionary
280
     1
281
     1
  3
ACAD_DIMASSOC
360
5F1F
  0
SUN
  5
44F1
330
349
100
AcDbSun
 90
        1
290
     0
 63
     7
421
 16777215
 40
1.0
291
     1
 91
  2455826
 92
 54000000
292
     0
 70
     2
 71
   256
280
     1
  0
DICTIONARY
  5
674
102
{ACAD_REACTORS
330
19
102
}
330
19
100
AcDbDictionary
281
     1
  0
DICTIONARY
  5
13B5
102
{ACAD_REACTORS
330
19
102
}
330
19
100
AcDbDictionary
281
     1
  0
DICTIONARY
  5
1A
102
{ACAD_REACTORS
330
19
102
}
330
19
100
AcDbDictionary
281
     1
  0
RASTERVARIABLES
  5
27B
102
{ACAD_REACTORS
330
19
102
}
330
19
100
AcDbRasterVariables
 90
        0
 70
     1
 71
     1
 72
     1
  0
DICTIONARY
  5
1E
102
{ACAD_REACTORS
330
19
102
}
330
19
100
AcDbDictionary
281
     1
  3
Layout1
350
21
  3
Model
350
20
  0
DICTIONARY
  5
263
102
{ACAD_REACTORS
330
19
102
}
330
19
100
AcDbDictionary
281
     1
  3
ByBlock
350
53CB
  3
ByLayer
350
264
  3
Global
350
266
  0
DICTIONARY
  5
336
102
{ACAD_REACTORS
330
19
102
}
330
19
100
AcDbDictionary
281
     1
  3
Standard
350
61E2
  0
DICTIONARY
  5
1B
102
{ACAD_REACTORS
330
19
102
}
330
19
100
AcDbDictionary
281
     1
  3
Standard
350
1C
  0
DICTIONARY
  5
22
102
{ACAD_REACTORS
330
19
102
}
330
19
100
AcDbDictionary
281
     1
  0
ACDBDICTIONARYWDFLT
  5
1F
102
{ACAD_REACTORS
330
19
102
}
330
19
100
AcDbDictionary
281
     1
  3
Normal
350
1D
100
AcDbDictionaryWithDefault
340
1D
  0
DICTIONARY
  5
241
102
{ACAD_REACTORS
330
19
102
}
330
19
100
AcDbDictionary
281
     1
  3
A0
350
242
  3
A1
350
243
  3
A2
350
244
  3
A3
350
245
  3
A4
350
246
  3
A5
350
247
  3
A6
350
248
  3
A7
350
249
  3
A8
350
24A
  3
A9
350
24B
  3
B0
350
24C
  3
B1
350
24D
  3
B2
350
24E
  3
B3
350
24F
  3
B4
350
250
  3
B5
350
251
  3
B6
350
252
  3
B7
350
253
  3
B8
350
254
  3
B9
350
255
  3
C0
350
256
  3
C1
350
257
  3
C2
350
258
  3
C3
350
259
  3
C4
350
25A
  3
C5
350
25B
  3
C6
350
25C
  3
C7
350
25D
  3
C8
350
25E
  3
C9
350
25F
  3
D0
350
260
  3
D1
350
261
  3
D2
350
262
  0
DICTIONARY
  5
13B6
102
{ACAD_REACTORS
330
19
102
}
330
19
100
AcDbDictionary
281
     1
  0
DICTIONARY
  5
278
102
{ACAD_REACTORS
330
19
102
}
330
19
100
AcDbDictionary
281
     1
  3
Standard
350
279
  0
DICTIONARY
  5
267
102
{ACAD_REACTORS
330
19
102
}
330
19
100
AcDbDictionary
281
     1
  3
2dWireframe
350
26C
  3
3D Hidden
350
26E
  3
3dWireframe
350
26D
  3
Basic
350
26F
  3
Brighten
350
273
  3
ColorChange
350
277
  3
Conceptual
350
271
  3
Dim
350
272
  3
EdgeColorOff
350
F14
  3
Facepattern
350
276
  3
Flat
350
268
  3
FlatWithEdges
350
269
  3
Gouraud
350
26A
  3
GouraudWithEdges
350
26B
  3
Hidden
350
F11
  3
JitterOff
350
F12
  3
Linepattern
350
275
  3
OverhangOff
350
F13
  3
Realistic
350
270
  3
Shaded
350
F19
  3
Shaded with edges
350
F18
  3
Shades of Gray
350
F15
  3
Sketchy
350
F16
  3
Thicken
350
274
  3
Wireframe
350
F10
  3
X-Ray
350
F17
  0
XRECORD
  5
62B1
102
{ACAD_REACTORS
330
19
102
}
330
19
100
AcDbXrecord
280
     1
 90
        1
330
279
  0
DICTIONARY
  5
330
102
{ACAD_REACTORS
330
19
102
}
330
19
100
AcDbDictionary
281
     1
  3
CANNOSCALE
350
331
  3
CMLEADERSTYLE
350
626B
  3
CTABLESTYLE
350
335
  3
HPTRANSPARENCY
350
5F32
  3
XCLIPFRAME
350
13B4
  0
DICTIONARY
  5
27A
102
{ACAD_REACTORS
330
19
102
}
330
19
100
AcDbDictionary
281
     1
  0
DICTIONARY
  5
2E2
102
{ACAD_REACTORS
330
2E1
102
}
330
2E1
100
AcDbDictionary
281
     1
  3
ARGON_LAYERP_6
350
44F0
  3
ARGON_LAYERP_7
350
DEA
  3
ARGON_LAYERP_8
350
C70
  3
ARGON_LAYERP_9
350
7AA
  0
DICTIONARY
  5
53B6
102
{ACAD_REACTORS
330
2E1
102
}
330
2E1
100
AcDbDictionary
281
     1
1001
ACAD
1000
<All
  0
DIMASSOC
  5
52BF
102
{ACAD_REACTORS
330
52BE
102
}
330
52BE
100
AcDbDimAssoc
330
52BD
 90
        3
 70
     0
 71
     1
  1
AcDbOsnapPointRef
 72
    13
331
52A6
 73
     0
 91
        0
 40
0.0
 10
0.0
 20
0.0
 30
0.0
 75
     0
  1
AcDbOsnapPointRef
 72
     1
331
52A4
 73
     0
 91
        0
 40
0.0
 10
0.0
 20
0.0
 30
0.0
 75
     0
  0
DIMASSOC
  5
5F1C
102
{ACAD_REACTORS
330
5F1B
102
}
330
5F1B
100
AcDbDimAssoc
330
5F1A
 90
        1
 70
     0
 71
     1
  1
AcDbOsnapPointRef
 72
     5
331
5E93
 73
     0
 91
        0
 40
1.570796326794897
 10
0.0
 20
0.0
 30
0.0
 75
     0
  0
DIMASSOC
  5
5F1F
102
{ACAD_REACTORS
330
5F1E
102
}
330
5F1E
100
AcDbDimAssoc
330
5F1D
 90
        1
 70
     0
 71
     1
  1
AcDbOsnapPointRef
 72
     3
331
5E93
 73
     0
 91
        0
 40
0.0
 10
0.0
 20
0.0
 30
0.0
 75
     0
  0
LAYOUT
  5
21
102
{ACAD_REACTORS
330
1E
102
}
330
1E
100
AcDbPlotSettings
  1

  2
none_device
  4
ISO_A3_(420.00_x_297.00_MM)
  6

 40
7.5
 41
20.0
 42
7.5
 43
20.0
 44
420.0
 45
297.0
 46
0.0
 47
0.0
 48
0.0
 49
0.0
140
0.0
141
0.0
142
1.0
143
1.0
 70
     0
 72
     1
 73
     0
 74
     0
  7

 75
     0
 76
     0
 77
     2
 78
   300
147
1.0
148
0.0
149
0.0
100
AcDbLayout
  1
Layout1
 70
     1
 71
     0
 10
-7.5
 20
-20.0
 11
412.5
 21
277.0
 12
0.0
 22
0.0
 32
0.0
 14
0.0
 24
0.0
 34
0.0
 15
0.0
 25
0.0
 35
0.0
146
0.0
 13
0.0
 23
0.0
 33
0.0
 16
0.0
 26
0.0
 36
0.0
 17
0.0
 27
0.0
 37
0.0
 76
     0
330
B
331
349
  0
LAYOUT
  5
20
102
{ACAD_REACTORS
330
1E
102
}
330
1E
100
AcDbPlotSettings
  1

  2
none_device
  4
ISO_A3_(420.00_x_297.00_MM)
  6

 40
7.5
 41
20.0
 42
7.5
 43
20.0
 44
420.0
 45
297.0
 46
0.0
 47
0.0
 48
0.0
 49
0.0
140
0.0
141
0.0
142
1.0
143
1.0
 70
  1024
 72
     1
 73
     0
 74
     0
  7

 75
     0
 76
     0
 77
     2
 78
   300
147
1.0
148
0.0
149
0.0
100
AcDbLayout
  1
Model
 70
     0
 71
     1
 10
0.0
 20
0.0
 11
594.0
 21
419.9999999999996
 12
0.0
 22
0.0
 32
0.0
 14
0.0
 24
0.0
 34
0.0
 15
593.9999999999998
 25
420.0
 35
0.0
146
0.0
 13
0.0
 23
0.0
 33
0.0
 16
0.0
 26
0.0
 36
0.0
 17
0.0
 27
0.0
 37
0.0
 76
     0
330
A
331
15
  0
MATERIAL
  5
53CB
102
{ACAD_REACTORS
330
263
330
263
102
}
330
263
100
AcDbMaterial
  1
ByBlock
 72
     1
 94
      127
  0
MATERIAL
  5
264
102
{ACAD_REACTORS
330
263
102
}
330
263
100
AcDbMaterial
  1
ByLayer
 72
     1
 94
      127
  0
MATERIAL
  5
266
102
{ACAD_REACTORS
330
263
102
}
330
263
100
AcDbMaterial
  1
Global
 72
     1
 94
      127
  0
MLEADERSTYLE
  5
61E2
102
{ACAD_REACTORS
330
336
102
}
330
336
100
AcDbMLeaderStyle
170
     2
171
     1
172
     0
 90
        2
 40
0.0
 41
0.0
173
     1
 91
-1056964608
340
11
 92
       -2
290
     1
 42
2.0
291
     1
 43
8.0
  3
Standard
341
0
 44
4.0
300

342
17
174
     1
178
     6
175
     1
176
     0
 93
-1056964608
 45
4.0
292
     0
297
     0
 46
4.0
343
0
 94
-1056964608
 47
1.0
 49
1.0
140
1.0
293
     1
141
0.0
294
     1
177
     0
142
1.0
295
     0
296
     0
143
3.75
1001
ACAD_MLEADERVER
1070
     2
  0
MLINESTYLE
  5
1C
102
{ACAD_REACTORS
330
1B
102
}
330
1B
100
AcDbMlineStyle
  2
Standard
 70
     0
  3

 62
     0
 51
90.0
 52
90.0
 71
     2
 49
0.5
 62
   256
  6
BYLAYER
 49
-0.5
 62
   256
  6
BYLAYER
  0
ACDBPLACEHOLDER
  5
1D
102
{ACAD_REACTORS
330
1F
102
}
330
1F
  0
SCALE
  5
242
102
{ACAD_REACTORS
330
241
102
}
330
241
100
AcDbScale
 70
     0
300
1:1
140
1.0
141
1.0
290
     1
  0
SCALE
  5
243
102
{ACAD_REACTORS
330
241
102
}
330
241
100
AcDbScale
 70
     0
300
1:2
140
1.0
141
2.0
290
     0
  0
SCALE
  5
244
102
{ACAD_REACTORS
330
241
102
}
330
241
100
AcDbScale
 70
     0
300
1:4
140
1.0
141
4.0
290
     0
  0
SCALE
  5
245
102
{ACAD_REACTORS
330
241
102
}
330
241
100
AcDbScale
 70
     0
300
1:5
140
1.0
141
5.0
290
     0
  0
SCALE
  5
246
102
{ACAD_REACTORS
330
241
102
}
330
241
100
AcDbScale
 70
     0
300
1:8
140
1.0
141
8.0
290
     0
  0
SCALE
  5
247
102
{ACAD_REACTORS
330
241
102
}
330
241
100
AcDbScale
 70
     0
300
1:10
140
1.0
141
10.0
290
     0
  0
SCALE
  5
248
102
{ACAD_REACTORS
330
241
102
}
330
241
100
AcDbScale
 70
     0
300
1:16
140
1.0
141
16.0
290
     0
  0
SCALE
  5
249
102
{ACAD_REACTORS
330
241
102
}
330
241
100
AcDbScale
 70
     0
300
1:20
140
1.0
141
20.0
290
     0
  0
SCALE
  5
24A
102
{ACAD_REACTORS
330
241
102
}
330
241
100
AcDbScale
 70
     0
300
1:30
140
1.0
141
30.0
290
     0
  0
SCALE
  5
24B
102
{ACAD_REACTORS
330
241
102
}
330
241
100
AcDbScale
 70
     0
300
1:40
140
1.0
141
40.0
290
     0
  0
SCALE
  5
24C
102
{ACAD_REACTORS
330
241
102
}
330
241
100
AcDbScale
 70
     0
300
1:50
140
1.0
141
50.0
290
     0
  0
SCALE
  5
24D
102
{ACAD_REACTORS
330
241
102
}
330
241
100
AcDbScale
 70
     0
300
1:100
140
1.0
141
100.0
290
     0
  0
SCALE
  5
24E
102
{ACAD_REACTORS
330
241
102
}
330
241
100
AcDbScale
 70
     0
300
2:1
140
2.0
141
1.0
290
     0
  0
SCALE
  5
24F
102
{ACAD_REACTORS
330
241
102
}
330
241
100
AcDbScale
 70
     0
300
4:1
140
4.0
141
1.0
290
     0
  0
SCALE
  5
250
102
{ACAD_REACTORS
330
241
102
}
330
241
100
AcDbScale
 70
     0
300
8:1
140
8.0
141
1.0
290
     0
  0
SCALE
  5
251
102
{ACAD_REACTORS
330
241
102
}
330
241
100
AcDbScale
 70
     0
300
10:1
140
10.0
141
1.0
290
     0
  0
SCALE
  5
252
102
{ACAD_REACTORS
330
241
102
}
330
241
100
AcDbScale
 70
     0
300
100:1
140
100.0
141
1.0
290
     0
  0
SCALE
  5
253
102
{ACAD_REACTORS
330
241
102
}
330
241
100
AcDbScale
 70
     0
300
1/128" = 1'-0"
140
0.0078125
141
12.0
290
     0
  0
SCALE
  5
254
102
{ACAD_REACTORS
330
241
102
}
330
241
100
AcDbScale
 70
     0
300
1/64" = 1'-0"
140
0.015625
141
12.0
290
     0
  0
SCALE
  5
255
102
{ACAD_REACTORS
330
241
102
}
330
241
100
AcDbScale
 70
     0
300
1/32" = 1'-0"
140
0.03125
141
12.0
290
     0
  0
SCALE
  5
256
102
{ACAD_REACTORS
330
241
102
}
330
241
100
AcDbScale
 70
     0
300
1/16" = 1'-0"
140
0.0625
141
12.0
290
     0
  0
SCALE
  5
257
102
{ACAD_REACTORS
330
241
102
}
330
241
100
AcDbScale
 70
     0
300
3/32" = 1'-0"
140
0.09375
141
12.0
290
     0
  0
SCALE
  5
258
102
{ACAD_REACTORS
330
241
102
}
330
241
100
AcDbScale
 70
     0
300
1/8" = 1'-0"
140
0.125
141
12.0
290
     0
  0
SCALE
  5
259
102
{ACAD_REACTORS
330
241
102
}
330
241
100
AcDbScale
 70
     0
300
3/16" = 1'-0"
140
0.1875
141
12.0
290
     0
  0
SCALE
  5
25A
102
{ACAD_REACTORS
330
241
102
}
330
241
100
AcDbScale
 70
     0
300
1/4" = 1'-0"
140
0.25
141
12.0
290
     0
  0
SCALE
  5
25B
102
{ACAD_REACTORS
330
241
102
}
330
241
100
AcDbScale
 70
     0
300
3/8" = 1'-0"
140
0.375
141
12.0
290
     0
  0
SCALE
  5
25C
102
{ACAD_REACTORS
330
241
102
}
330
241
100
AcDbScale
 70
     0
300
1/2" = 1'-0"
140
0.5
141
12.0
290
     0
  0
SCALE
  5
25D
102
{ACAD_REACTORS
330
241
102
}
330
241
100
AcDbScale
 70
     0
300
3/4" = 1'-0"
140
0.75
141
12.0
290
     0
  0
SCALE
  5
25E
102
{ACAD_REACTORS
330
241
102
}
330
241
100
AcDbScale
 70
     0
300
1" = 1'-0"
140
1.0
141
12.0
290
     0
  0
SCALE
  5
25F
102
{ACAD_REACTORS
330
241
102
}
330
241
100
AcDbScale
 70
     0
300
1-1/2" = 1'-0"
140
1.5
141
12.0
290
     0
  0
SCALE
  5
260
102
{ACAD_REACTORS
330
241
102
}
330
241
100
AcDbScale
 70
     0
300
3" = 1'-0"
140
3.0
141
12.0
290
     0
  0
SCALE
  5
261
102
{ACAD_REACTORS
330
241
102
}
330
241
100
AcDbScale
 70
     0
300
6" = 1'-0"
140
6.0
141
12.0
290
     0
  0
SCALE
  5
262
102
{ACAD_REACTORS
330
241
102
}
330
241
100
AcDbScale
 70
     0
300
1'-0" = 1'-0"
140
12.0
141
12.0
290
     0
  0
TABLESTYLE
  5
279
102
{ACAD_REACTORS
330
278
102
}
102
{ACAD_XDICTIONARY
360
62AF
102
}
330
278
100
AcDbTableStyle
  3
Standard
 70
     0
 71
     0
 40
0.06
 41
0.06
280
     0
281
     0
  7
Standard
140
4.5
170
     2
 62
     0
 63
   257
283
     0
 90
        4
 91
        0
  1

274
    -2
284
     1
 64
     0
275
    -2
285
     1
 65
     0
276
    -2
286
     1
 66
     0
277
    -2
287
     1
 67
     0
278
    -2
288
     1
 68
     0
279
    -2
289
     1
 69
     0
  7
Standard
140
6.0
170
     5
 62
     0
 63
   257
283
     0
 90
        4
 91
        0
  1

274
    -2
284
     1
 64
     0
275
    -2
285
     1
 65
     0
276
    -2
286
     1
 66
     0
277
    -2
287
     1
 67
     0
278
    -2
288
     1
 68
     0
279
    -2
289
     1
 69
     0
  7
Standard
140
4.5
170
     5
 62
     0
 63
   257
283
     0
 90
        4
 91
        0
  1

274
    -2
284
     1
 64
     0
275
    -2
285
     1
 65
     0
276
    -2
286
     1
 66
     0
277
    -2
287
     1
 67
     0
278
    -2
288
     1
 68
     0
279
    -2
289
     1
 69
     0
  0
VISUALSTYLE
  5
26C
102
{ACAD_REACTORS
330
267
102
}
330
267
100
AcDbVisualStyle
  2
2dWireframe
 70
     4
 71
     0
 72
     2
 73
     0
 90
        0
 40
-0.6
 41
-30.0
 62
     5
 63
     7
421
 16777215
 74
     1
 91
        4
 64
     7
 65
   257
 75
     1
175
     1
 42
1.0
 92
        0
 66
   257
 43
1.0
 76
     1
 77
     6
 78
     2
 67
     7
 79
     5
170
     0
171
     0
290
     0
174
     0
 93
        1
 44
0.0
173
     0
291
     0
 45
0.0
  0
VISUALSTYLE
  5
26E
102
{ACAD_REACTORS
330
267
102
}
330
267
100
AcDbVisualStyle
  2
3D Hidden
 70
     6
 71
     1
 72
     2
 73
     2
 90
        0
 40
-0.6
 41
-30.0
 62
     5
 63
     7
421
 16777215
 74
     2
 91
        2
 64
     7
 65
   257
 75
     2
175
     1
 42
40.0
 92
        0
 66
   257
 43
1.0
 76
     1
 77
     6
 78
     2
 67
     7
 79
     3
170
     0
171
     0
290
     0
174
     0
 93
        1
 44
0.0
173
     0
291
     0
 45
0.0
  0
VISUALSTYLE
  5
26D
102
{ACAD_REACTORS
330
267
102
}
330
267
100
AcDbVisualStyle
  2
3dWireframe
 70
     5
 71
     0
 72
     2
 73
     0
 90
        0
 40
-0.6
 41
-30.0
 62
     5
 63
     7
421
 16777215
 74
     1
 91
        4
 64
     7
 65
   257
 75
     1
175
     1
 42
1.0
 92
        0
 66
   257
 43
1.0
 76
     1
 77
     6
 78
     2
 67
     7
 79
     5
170
     0
171
     0
290
     0
174
     0
 93
        1
 44
0.0
173
     0
291
     0
 45
0.0
  0
VISUALSTYLE
  5
26F
102
{ACAD_REACTORS
330
267
102
}
330
267
100
AcDbVisualStyle
  2
Basic
 70
     7
 71
     1
 72
     0
 73
     1
 90
        0
 40
-0.6
 41
-30.0
 62
     5
 63
     7
421
 16777215
 74
     0
 91
        4
 64
     7
 65
   257
 75
     1
175
     1
 42
1.0
 92
        8
 66
     7
 43
1.0
 76
     1
 77
     6
 78
     2
 67
     7
 79
     5
170
     0
171
     0
290
     0
174
     0
 93
        1
 44
0.0
173
     0
291
     1
 45
0.0
  0
VISUALSTYLE
  5
273
102
{ACAD_REACTORS
330
267
102
}
330
267
100
AcDbVisualStyle
  2
Brighten
 70
    12
 71
     2
 72
     2
 73
     0
 90
        0
 40
-0.6
 41
-30.0
 62
     5
 63
     7
421
 16777215
 74
     1
 91
        4
 64
     7
 65
   257
 75
     1
175
     1
 42
1.0
 92
        8
 66
     7
 43
1.0
 76
     1
 77
     6
 78
     2
 67
     7
 79
     5
170
     0
171
     0
290
     0
174
     0
 93
        1
 44
50.0
173
     0
291
     1
 45
0.0
  0
VISUALSTYLE
  5
277
102
{ACAD_REACTORS
330
267
102
}
330
267
100
AcDbVisualStyle
  2
ColorChange
 70
    16
 71
     2
 72
     2
 73
     3
 90
        0
 40
-0.6
 41
-30.0
 62
     5
 63
     8
421
  8421504
 74
     1
 91
        4
 64
     7
 65
   257
 75
     1
175
     1
 42
1.0
 92
        8
 66
     8
424
  8421504
 43
1.0
 76
     1
 77
     6
 78
     2
 67
     7
 79
     5
170
     0
171
     0
290
     0
174
     0
 93
        1
 44
0.0
173
     0
291
     1
 45
0.0
  0
VISUALSTYLE
  5
271
102
{ACAD_REACTORS
330
267
102
}
330
267
100
AcDbVisualStyle
  2
Conceptual
 70
     9
 71
     3
 72
     2
 73
     0
 90
        0
 40
-0.6
 41
-30.0
 62
     5
 63
     7
421
 16777215
 74
     2
 91
        2
 64
     7
 65
   257
 75
     1
175
     1
 42
40.0
 92
        8
 66
     7
 43
1.0
 76
     1
 77
     6
 78
     2
 67
     7
 79
     3
170
     0
171
     0
290
     0
174
     0
 93
        1
 44
0.0
173
     0
291
     0
 45
0.0
  0
VISUALSTYLE
  5
272
102
{ACAD_REACTORS
330
267
102
}
330
267
100
AcDbVisualStyle
  2
Dim
 70
    11
 71
     2
 72
     2
 73
     0
 90
        0
 40
-0.6
 41
-30.0
 62
     5
 63
     7
421
 16777215
 74
     1
 91
        4
 64
     7
 65
   257
 75
     1
175
     1
 42
1.0
 92
        8
 66
     7
 43
1.0
 76
     1
 77
     6
 78
     2
 67
     7
 79
     5
170
     0
171
     0
290
     0
174
     0
 93
        1
 44
-50.0
173
     0
291
     1
 45
0.0
  0
VISUALSTYLE
  5
F14
102
{ACAD_REACTORS
330
267
102
}
330
267
100
AcDbVisualStyle
  2
EdgeColorOff
 70
    22
 71
     2
 72
     2
 73
     0
 90
        0
 40
0.6
 41
30.0
 62
     5
 63
     7
421
 16777215
 74
     1
 91
        4
 64
     7
 65
   257
 75
     1
175
     1
 42
1.0
 92
        8
 66
     7
 43
1.0
 76
     1
 77
     6
 78
     2
 67
     7
 79
     5
170
     0
171
     0
290
     0
174
     0
 93
        1
 44
0.0
173
     0
291
     1
 45
0.0
  0
VISUALSTYLE
  5
276
102
{ACAD_REACTORS
330
267
102
}
330
267
100
AcDbVisualStyle
  2
Facepattern
 70
    15
 71
     2
 72
     2
 73
     0
 90
        0
 40
-0.6
 41
-30.0
 62
     5
 63
     7
421
 16777215
 74
     1
 91
        4
 64
     7
 65
   257
 75
     1
175
     1
 42
1.0
 92
        8
 66
     7
 43
1.0
 76
     1
 77
     6
 78
     2
 67
     7
 79
     5
170
     0
171
     0
290
     0
174
     0
 93
        1
 44
0.0
173
     0
291
     1
 45
0.0
  0
VISUALSTYLE
  5
268
102
{ACAD_REACTORS
330
267
102
}
330
267
100
AcDbVisualStyle
  2
Flat
 70
     0
 71
     2
 72
     1
 73
     1
 90
        2
 40
-0.6
 41
30.0
 62
     5
 63
     7
421
 16777215
 74
     0
 91
        4
 64
     7
 65
   257
 75
     1
175
     1
 42
1.0
 92
        8
 66
     7
 43
1.0
 76
     1
 77
     6
 78
     2
 67
     7
 79
     5
170
     0
171
     0
290
     0
174
     0
 93
       13
 44
0.0
173
     0
291
     1
 45
0.0
  0
VISUALSTYLE
  5
269
102
{ACAD_REACTORS
330
267
102
}
330
267
100
AcDbVisualStyle
  2
FlatWithEdges
 70
     1
 71
     2
 72
     1
 73
     1
 90
        2
 40
-0.6
 41
30.0
 62
     5
 63
     7
421
 16777215
 74
     1
 91
        4
 64
     7
 65
   257
 75
     1
175
     1
 42
1.0
 92
        0
 66
   257
 43
1.0
 76
     1
 77
     6
 78
     2
 67
     7
 79
     5
170
     0
171
     0
290
     0
174
     0
 93
       13
 44
0.0
173
     0
291
     1
 45
0.0
  0
VISUALSTYLE
  5
26A
102
{ACAD_REACTORS
330
267
102
}
330
267
100
AcDbVisualStyle
  2
Gouraud
 70
     2
 71
     2
 72
     2
 73
     1
 90
        2
 40
-0.6
 41
30.0
 62
     5
 63
     7
421
 16777215
 74
     0
 91
        4
 64
     7
 65
   257
 75
     1
175
     1
 42
1.0
 92
        0
 66
     7
 43
1.0
 76
     1
 77
     6
 78
     2
 67
     7
 79
     5
170
     0
171
     0
290
     0
174
     0
 93
       13
 44
0.0
173
     0
291
     1
 45
0.0
  0
VISUALSTYLE
  5
26B
102
{ACAD_REACTORS
330
267
102
}
330
267
100
AcDbVisualStyle
  2
GouraudWithEdges
 70
     3
 71
     2
 72
     2
 73
     1
 90
        2
 40
-0.6
 41
30.0
 62
     5
 63
     7
421
 16777215
 74
     1
 91
        4
 64
     7
 65
   257
 75
     1
175
     1
 42
1.0
 92
        0
 66
   257
 43
1.0
 76
     1
 77
     6
 78
     2
 67
     7
 79
     5
170
     0
171
     0
290
     0
174
     0
 93
       13
 44
0.0
173
     0
291
     1
 45
0.0
  0
VISUALSTYLE
  5
F11
102
{ACAD_REACTORS
330
267
102
}
330
267
100
AcDbVisualStyle
  2
Hidden
 70
     6
 71
     1
 72
     2
 73
     2
 90
        0
 40
0.6
 41
30.0
 62
     5
 63
     7
421
 16777215
 74
     2
 91
        2
 64
     7
 65
   257
 75
     2
175
     1
 42
40.0
 92
        0
 66
   257
 43
1.0
 76
     1
 77
     6
 78
     2
 67
     7
 79
     3
170
     0
171
     0
290
     0
174
     0
 93
        1
 44
0.0
173
     0
291
     0
 45
0.0
  0
VISUALSTYLE
  5
F12
102
{ACAD_REACTORS
330
267
102
}
330
267
100
AcDbVisualStyle
  2
JitterOff
 70
    20
 71
     2
 72
     2
 73
     0
 90
        0
 40
0.6
 41
30.0
 62
     5
 63
     7
421
 16777215
 74
     1
 91
        4
 64
     7
 65
   257
 75
     1
175
     1
 42
1.0
 92
       10
 66
     7
 43
1.0
 76
     1
 77
     6
 78
     2
 67
     7
 79
     5
170
     0
171
     0
290
     0
174
     0
 93
        1
 44
0.0
173
     0
291
     1
 45
0.0
  0
VISUALSTYLE
  5
275
102
{ACAD_REACTORS
330
267
102
}
330
267
100
AcDbVisualStyle
  2
Linepattern
 70
    14
 71
     2
 72
     2
 73
     0
 90
        0
 40
-0.6
 41
-30.0
 62
     5
 63
     7
421
 16777215
 74
     1
 91
        4
 64
     7
 65
   257
 75
     7
175
     7
 42
1.0
 92
        8
 66
     7
 43
1.0
 76
     1
 77
     6
 78
     2
 67
     7
 79
     5
170
     0
171
     0
290
     0
174
     0
 93
        1
 44
0.0
173
     0
291
     1
 45
0.0
  0
VISUALSTYLE
  5
F13
102
{ACAD_REACTORS
330
267
102
}
330
267
100
AcDbVisualStyle
  2
OverhangOff
 70
    21
 71
     2
 72
     2
 73
     0
 90
        0
 40
0.6
 41
30.0
 62
     5
 63
     7
421
 16777215
 74
     1
 91
        4
 64
     7
 65
   257
 75
     1
175
     1
 42
1.0
 92
        9
 66
     7
 43
1.0
 76
     1
 77
     6
 78
     2
 67
     7
 79
     5
170
     0
171
     0
290
     0
174
     0
 93
        1
 44
0.0
173
     0
291
     1
 45
0.0
  0
VISUALSTYLE
  5
270
102
{ACAD_REACTORS
330
267
102
}
330
267
100
AcDbVisualStyle
  2
Realistic
 70
     8
 71
     2
 72
     2
 73
     0
 90
        0
 40
-0.6
 41
-30.0
 62
     5
 63
     7
421
 16777215
 74
     1
 91
        0
 64
     7
 65
   257
 75
     1
175
     1
 42
1.0
 92
        8
 66
     8
424
  7895160
 43
1.0
 76
     1
 77
     6
 78
     2
 67
     7
 79
     5
170
     0
171
     0
290
     0
174
     0
 93
       13
 44
0.0
173
     0
291
     0
 45
0.0
  0
VISUALSTYLE
  5
F19
102
{ACAD_REACTORS
330
267
102
}
330
267
100
AcDbVisualStyle
  2
Shaded
 70
    27
 71
     2
 72
     2
 73
     1
 90
        2
 40
0.6
 41
30.0
 62
     5
 63
     7
421
 16777215
 74
     0
 91
        4
 64
     7
 65
   257
 75
     1
175
     1
 42
1.0
 92
        8
 66
   257
 43
1.0
 76
     1
 77
     6
 78
     2
 67
     8
425
  7895160
 79
     3
170
     0
171
     0
290
     0
174
     0
 93
        5
 44
0.0
173
     0
291
     0
 45
0.0
  0
VISUALSTYLE
  5
F18
102
{ACAD_REACTORS
330
267
102
}
330
267
100
AcDbVisualStyle
  2
Shaded with edges
 70
    26
 71
     2
 72
     2
 73
     1
 90
        2
 40
0.6
 41
30.0
 62
     5
 63
     7
421
 16777215
 74
     1
 91
       10
 64
     7
 65
   257
 75
     2
175
     1
 42
1.0
 92
        8
 66
   257
 43
1.0
 76
     1
 77
     6
 78
     2
 67
     7
 79
     3
170
     0
171
     0
290
     0
174
     0
 93
        5
 44
0.0
173
     0
291
     0
 45
0.0
  0
VISUALSTYLE
  5
F15
102
{ACAD_REACTORS
330
267
102
}
330
267
100
AcDbVisualStyle
  2
Shades of Gray
 70
    23
 71
     2
 72
     2
 73
     3
 90
        0
 40
0.6
 41
30.0
 62
     5
 63
     7
421
 16777215
 74
     2
 91
        2
 64
     7
 65
     7
 75
     1
175
     1
 42
40.0
 92
        8
 66
     7
 43
1.0
 76
     1
 77
     6
 78
     2
 67
     7
 79
     3
170
     0
171
     0
290
     0
174
     0
 93
        1
 44
0.0
173
     0
291
     0
 45
0.0
  0
VISUALSTYLE
  5
F16
102
{ACAD_REACTORS
330
267
102
}
330
267
100
AcDbVisualStyle
  2
Sketchy
 70
    24
 71
     1
 72
     2
 73
     2
 90
        0
 40
0.6
 41
30.0
 62
     5
 63
     7
421
 16777215
 74
     2
 91
        2
 64
     7
 65
     7
 75
     1
175
     1
 42
40.0
 92
       11
 66
     7
 43
1.0
 76
     1
 77
     6
 78
     2
 67
     7
 79
     6
170
     0
171
     0
290
     0
174
     0
 93
        1
 44
0.0
173
     0
291
     0
 45
0.0
  0
VISUALSTYLE
  5
274
102
{ACAD_REACTORS
330
267
102
}
330
267
100
AcDbVisualStyle
  2
Thicken
 70
    13
 71
     2
 72
     2
 73
     0
 90
        0
 40
-0.6
 41
-30.0
 62
     5
 63
     7
421
 16777215
 74
     1
 91
        4
 64
     7
 65
   257
 75
     1
175
     1
 42
1.0
 92
       12
 66
     7
 43
1.0
 76
     1
 77
     6
 78
     2
 67
     7
 79
     5
170
     0
171
     0
290
     0
174
     0
 93
        1
 44
0.0
173
     0
291
     1
 45
0.0
  0
VISUALSTYLE
  5
F10
102
{ACAD_REACTORS
330
267
102
}
330
267
100
AcDbVisualStyle
  2
Wireframe
 70
     5
 71
     0
 72
     2
 73
     0
 90
        0
 40
0.6
 41
30.0
 62
     5
 63
     7
421
 16777215
 74
     1
 91
        4
 64
     7
 65
   257
 75
     1
175
     1
 42
1.0
 92
        0
 66
   257
 43
1.0
 76
     1
 77
     6
 78
     2
 67
     7
 79
     3
170
     0
171
     0
290
     0
174
     0
 93
        1
 44
0.0
173
     0
291
     0
 45
0.0
  0
VISUALSTYLE
  5
F17
102
{ACAD_REACTORS
330
267
102
}
330
267
100
AcDbVisualStyle
  2
X-Ray
 70
    25
 71
     2
 72
     2
 73
     1
 90
        1
 40
0.5
 41
30.0
 62
     5
 63
     7
421
 16777215
 74
     1
 91
        0
 64
     7
 65
   257
 75
     1
175
     1
 42
1.0
 92
        8
 66
     7
 43
1.0
 76
     1
 77
     6
 78
     2
 67
     7
 79
     3
170
     0
171
     0
290
     0
174
     0
 93
       13
 44
0.0
173
     0
291
     0
 45
0.0
  0
DICTIONARYVAR
  5
331
102
{ACAD_REACTORS
330
330
102
}
330
330
100
DictionaryVariables
280
     0
  1
1:1
  0
DICTIONARYVAR
  5
626B
102
{ACAD_REACTORS
330
330
102
}
330
330
100
DictionaryVariables
280
     0
  1
Standard
  0
DICTIONARYVAR
  5
335
102
{ACAD_REACTORS
330
330
102
}
330
330
100
DictionaryVariables
280
     0
  1
Standard
  0
DICTIONARYVAR
  5
5F32
102
{ACAD_REACTORS
330
330
102
}
330
330
100
DictionaryVariables
280
     0
  1
ByLayer
  0
DICTIONARYVAR
  5
13B4
102
{ACAD_REACTORS
330
330
102
}
330
330
100
DictionaryVariables
280
     0
  1
0
  0
XRECORD
  5
44F0
102
{ACAD_REACTORS
330
2E2
102
}
330
2E2
100
AcDbXrecord
280
     1
 91
     1023
301

290
     0
302
DIM
330
14
 90
        9
 62
     7
370
    -3
331
13
  1
Color_7
330
4A
 90
        1
 62
     7
370
    -3
331
13
  1
Color_7
330
4D
 90
        8
 62
     7
370
    20
331
13
  1
Color_7
330
667
 90
        8
 62
     7
370
    -3
331
13
  1
Color_7
330
13AF
 90
        8
 62
     7
370
    13
331
13
  1
Color_7
330
4598
 90
        8
 62
     7
370
    -3
331
13
  1
Color_7
330
57A9
 90
        8
 62
     7
370
    13
331
13
  1
Color_7
330
57AC
 90
        8
 62
     7
370
    20
331
13
  1
Color_7
330
57AD
 90
        8
 62
     7
370
    20
331
13
  1
Color_7
330
57AE
 90
        8
 62
     7
370
    20
331
13
  1
Color_7
330
57AF
 90
        0
 62
     4
370
    -3
331
13
  1
Color_4
330
57B0
 90
        0
 62
     3
370
    -3
331
13
  1
Color_3
330
57B2
 90
        8
 62
   254
370
    20
331
13
  1
Color_254
330
57B3
 90
        8
 62
     7
370
    20
331
13
  1
Color_7
  0
XRECORD
  5
DEA
102
{ACAD_REACTORS
330
2E2
102
}
330
2E2
100
AcDbXrecord
280
     1
 91
     1023
301

290
     0
302
MODEL
330
14
 90
        8
 62
     7
370
    -3
331
13
  1
Color_7
330
4A
 90
        1
 62
     7
370
    -3
331
13
  1
Color_7
330
0
 90
        8
 62
     7
370
    15
331
13
  1
Color_7
330
0
 90
        8
 62
     7
370
    -3
331
13
  1
Color_7
330
4D
 90
        8
 62
     7
370
    15
331
13
  1
Color_7
330
667
 90
        8
 62
     7
370
    -3
331
13
  1
Color_7
330
0
 90
        1
 62
     7
370
    -3
331
13
  1
Color_7
330
0
 90
        1
 62
     7
370
    -3
331
13
  1
Color_7
330
0
 90
        1
 62
     7
370
    -3
331
13
  1
Color_7
330
0
 90
        1
 62
     7
370
    -3
331
13
  1
Color_7
330
13AF
 90
        8
 62
     7
370
     9
331
13
  1
Color_7
330
0
 90
        9
 62
     7
370
    -3
331
13
  1
Color_7
  0
XRECORD
  5
C70
102
{ACAD_REACTORS
330
2E2
102
}
330
2E2
100
AcDbXrecord
280
     1
 91
     1023
301

290
     0
302
DIM
330
14
 90
        8
 62
     7
370
    -3
331
13
  1
Color_7
330
4A
 90
        0
 62
     7
370
    -3
331
13
  1
Color_7
330
0
 90
        8
 62
     7
370
    15
331
13
  1
Color_7
330
0
 90
        8
 62
     7
370
    -3
331
13
  1
Color_7
330
4D
 90
        8
 62
     7
370
    15
331
13
  1
Color_7
330
667
 90
        8
 62
     7
370
    -3
331
13
  1
Color_7
330
0
 90
        0
 62
     7
370
    -3
331
13
  1
Color_7
330
0
 90
        0
 62
     7
370
    -3
331
13
  1
Color_7
330
0
 90
        1
 62
     7
370
    -3
331
13
  1
Color_7
330
0
 90
        0
 62
     7
370
    -3
331
13
  1
Color_7
330
13AF
 90
        8
 62
     7
370
     9
331
13
  1
Color_7
330
0
 90
        8
 62
     7
370
    -3
331
13
  1
Color_7
  0
XRECORD
  5
7AA
102
{ACAD_REACTORS
330
2E2
102
}
330
2E2
100
AcDbXrecord
280
     1
 91
     1023
301

290
     0
302
レイヤー 1
330
14
 90
        9
 62
     7
370
    -3
331
13
  1
Color_7
330
4A
 90
        1
 62
     7
370
    -3
331
13
  1
Color_7
330
0
 90
        8
 62
     7
370
    -3
331
13
  1
Color_7
330
0
 90
        9
 62
     7
370
    -3
331
13
  1
Color_7
330
4D
 90
        9
 62
     7
370
    -3
331
13
  1
Color_7
330
667
 90
       13
 62
     7
370
    -3
331
13
  1
Color_7
330
0
 90
        9
 62
     7
370
    -3
331
13
  1
Color_7
330
0
 90
        9
 62
     7
370
    -3
331
13
  1
Color_7
330
0
 90
        9
 62
     7
370
    -3
331
13
  1
Color_7
330
0
 90
        9
 62
     7
370
    -3
331
13
  1
Color_7
330
0
 90
        9
 62
     7
370
    -3
331
13
  1
Color_7
330
0
 90
        8
 62
     7
370
    -3
331
13
  1
Color_7
  0
DICTIONARY
  5
62AF
330
279
100
AcDbDictionary
280
     1
281
     1
  3
ACAD_ROUNDTRIP_2008_TABLESTYLE_CELLSTYLEMAP
360
62B0
  0
CELLSTYLEMAP
  5
62B0
102
{ACAD_REACTORS
330
62AF
102
}
330
62AF
100
AcDbCellStyleMap
 90
        3
300
CELLSTYLE
  1
TABLEFORMAT_BEGIN
 90
        5
170
     1
 91
        0
 92
    32768
 62
   257
 93
        1
300
CONTENTFORMAT
  1
CONTENTFORMAT_BEGIN
 90
        0
 91
        0
 92
        4
 93
        0
300

 40
0.0
140
1.0
 94
        5
 62
     0
340
17
144
6.0
309
CONTENTFORMAT_END
171
     1
301
MARGIN
  1
CELLMARGIN_BEGIN
 40
0.06
 40
0.06
 40
0.06
 40
0.06
 40
0.18
 40
0.18
309
CELLMARGIN_END
 94
        6
 95
        1
302
GRIDFORMAT
  1
GRIDFORMAT_BEGIN
 90
        0
 91
        1
 62
     0
 92
       -2
340
0
 93
        0
 40
0.045
309
GRIDFORMAT_END
 95
        2
302
GRIDFORMAT
  1
GRIDFORMAT_BEGIN
 90
        0
 91
        1
 62
     0
 92
       -2
340
0
 93
        0
 40
0.045
309
GRIDFORMAT_END
 95
        4
302
GRIDFORMAT
  1
GRIDFORMAT_BEGIN
 90
        0
 91
        1
 62
     0
 92
       -2
340
0
 93
        0
 40
0.045
309
GRIDFORMAT_END
 95
        8
302
GRIDFORMAT
  1
GRIDFORMAT_BEGIN
 90
        0
 91
        1
 62
     0
 92
       -2
340
0
 93
        0
 40
0.045
309
GRIDFORMAT_END
 95
       16
302
GRIDFORMAT
  1
GRIDFORMAT_BEGIN
 90
        0
 91
        1
 62
     0
 92
       -2
340
0
 93
        0
 40
0.045
309
GRIDFORMAT_END
 95
       32
302
GRIDFORMAT
  1
GRIDFORMAT_BEGIN
 90
        0
 91
        1
 62
     0
 92
       -2
340
0
 93
        0
 40
0.045
309
GRIDFORMAT_END
309
TABLEFORMAT_END
  1
CELLSTYLE_BEGIN
 90
        1
 91
        1
300
_TITLE
309
CELLSTYLE_END
300
CELLSTYLE
  1
TABLEFORMAT_BEGIN
 90
        5
170
     1
 91
        0
 92
        0
 62
   257
 93
        1
300
CONTENTFORMAT
  1
CONTENTFORMAT_BEGIN
 90
        0
 91
        0
 92
        4
 93
        0
300

 40
0.0
140
1.0
 94
        5
 62
     0
340
17
144
4.5
309
CONTENTFORMAT_END
171
     1
301
MARGIN
  1
CELLMARGIN_BEGIN
 40
0.06
 40
0.06
 40
0.06
 40
0.06
 40
0.18
 40
0.18
309
CELLMARGIN_END
 94
        6
 95
        1
302
GRIDFORMAT
  1
GRIDFORMAT_BEGIN
 90
        0
 91
        1
 62
     0
 92
       -2
340
0
 93
        0
 40
0.045
309
GRIDFORMAT_END
 95
        2
302
GRIDFORMAT
  1
GRIDFORMAT_BEGIN
 90
        0
 91
        1
 62
     0
 92
       -2
340
0
 93
        0
 40
0.045
309
GRIDFORMAT_END
 95
        4
302
GRIDFORMAT
  1
GRIDFORMAT_BEGIN
 90
        0
 91
        1
 62
     0
 92
       -2
340
0
 93
        0
 40
0.045
309
GRIDFORMAT_END
 95
        8
302
GRIDFORMAT
  1
GRIDFORMAT_BEGIN
 90
        0
 91
        1
 62
     0
 92
       -2
340
0
 93
        0
 40
0.045
309
GRIDFORMAT_END
 95
       16
302
GRIDFORMAT
  1
GRIDFORMAT_BEGIN
 90
        0
 91
        1
 62
     0
 92
       -2
340
0
 93
        0
 40
0.045
309
GRIDFORMAT_END
 95
       32
302
GRIDFORMAT
  1
GRIDFORMAT_BEGIN
 90
        0
 91
        1
 62
     0
 92
       -2
340
0
 93
        0
 40
0.045
309
GRIDFORMAT_END
309
TABLEFORMAT_END
  1
CELLSTYLE_BEGIN
 90
        2
 91
        1
300
_HEADER
309
CELLSTYLE_END
300
CELLSTYLE
  1
TABLEFORMAT_BEGIN
 90
        5
170
     1
 91
        0
 92
        0
 62
   257
 93
        1
300
CONTENTFORMAT
  1
CONTENTFORMAT_BEGIN
 90
        0
 91
        0
 92
        4
 93
        0
300

 40
0.0
140
1.0
 94
        2
 62
     0
340
17
144
4.5
309
CONTENTFORMAT_END
171
     1
301
MARGIN
  1
CELLMARGIN_BEGIN
 40
0.06
 40
0.06
 40
0.06
 40
0.06
 40
0.18
 40
0.18
309
CELLMARGIN_END
 94
        6
 95
        1
302
GRIDFORMAT
  1
GRIDFORMAT_BEGIN
 90
        0
 91
        1
 62
     0
 92
       -2
340
0
 93
        0
 40
0.045
309
GRIDFORMAT_END
 95
        2
302
GRIDFORMAT
  1
GRIDFORMAT_BEGIN
 90
        0
 91
        1
 62
     0
 92
       -2
340
0
 93
        0
 40
0.045
309
GRIDFORMAT_END
 95
        4
302
GRIDFORMAT
  1
GRIDFORMAT_BEGIN
 90
        0
 91
        1
 62
     0
 92
       -2
340
0
 93
        0
 40
0.045
309
GRIDFORMAT_END
 95
        8
302
GRIDFORMAT
  1
GRIDFORMAT_BEGIN
 90
        0
 91
        1
 62
     0
 92
       -2
340
0
 93
        0
 40
0.045
309
GRIDFORMAT_END
 95
       16
302
GRIDFORMAT
  1
GRIDFORMAT_BEGIN
 90
        0
 91
        1
 62
     0
 92
       -2
340
0
 93
        0
 40
0.045
309
GRIDFORMAT_END
 95
       32
302
GRIDFORMAT
  1
GRIDFORMAT_BEGIN
 90
        0
 91
        1
 62
     0
 92
       -2
340
0
 93
        0
 40
0.045
309
GRIDFORMAT_END
309
TABLEFORMAT_END
  1
CELLSTYLE_BEGIN
 90
        3
 91
        2
300
_DATA
309
CELLSTYLE_END
  0
ENDSEC
  0
EOF
