  0
SECTION
  2
HEADER
  9
$ACADVER
  1
AC1021
  9
$ACADMAINTVER
 70
    25
  9
$DWGCODEPAGE
  3
ANSI_932
  9
$LASTSAVEDBY
  1
tform
  9
$INSBASE
 10
0.0
 20
0.0
 30
0.0
  9
$EXTMIN
 10
0.0
 20
0.0
 30
0.0
  9
$EXTMAX
 10
593.9999999999999
 20
420.0
 30
0.0
  9
$LIMMIN
 10
0.0
 20
0.0
  9
$LIMMAX
 10
594.0
 20
419.9999999999996
  9
$ORTHOMODE
 70
     1
  9
$REGENMODE
 70
     1
  9
$FILLMODE
 70
     1
  9
$QTEXTMODE
 70
     0
  9
$MIRRTEXT
 70
     1
  9
$LTSCALE
 40
2.0
  9
$ATTMODE
 70
     1
  9
$TEXTSIZE
 40
2.5
  9
$TRACEWID
 40
1.0
  9
$TEXTSTYLE
  7
ＭＳ ゴシック
  9
$CLAYER
  8
DIM
  9
$CELTYPE
  6
Continuous
  9
$CECOLOR
 62
   256
  9
$CELTSCALE
 40
1.0
  9
$DISPSILH
 70
     0
  9
$DIMSCALE
 40
1.0
  9
$DIMASZ
 40
1.5
  9
$DIMEXO
 40
5.0
  9
$DIMDLI
 40
0.9999999999999999
  9
$DIMRND
 40
0.0
  9
$DIMDLE
 40
0.0
  9
$DIMEXE
 40
0.0
  9
$DIMTP
 40
0.0
  9
$DIMTM
 40
0.0
  9
$DIMTXT
 40
5.0
  9
$DIMCEN
 40
0.0
  9
$DIMTSZ
 40
0.0
  9
$DIMTOL
 70
     0
  9
$DIMLIM
 70
     0
  9
$DIMTIH
 70
     0
  9
$DIMTOH
 70
     0
  9
$DIMSE1
 70
     0
  9
$DIMSE2
 70
     0
  9
$DIMTAD
 70
     1
  9
$DIMZIN
 70
    11
  9
$DIMBLK
  1
DOT
  9
$DIMASO
 70
     1
  9
$DIMSHO
 70
     1
  9
$DIMPOST
  1
<>
  9
$DIMAPOST
  1
[]
  9
$DIMALT
 70
     0
  9
$DIMALTD
 70
     1
  9
$DIMALTF
 40
1.0
  9
$DIMLFAC
 40
1.0
  9
$DIMTOFL
 70
     0
  9
$DIMTVP
 40
0.0
  9
$DIMTIX
 70
     1
  9
$DIMSOXD
 70
     0
  9
$DIMSAH
 70
     0
  9
$DIMBLK1
  1

  9
$DIMBLK2
  1

  9
$DIMSTYLE
  2
tfrom線あり
  9
$DIMCLRD
 70
     0
  9
$DIMCLRE
 70
     0
  9
$DIMCLRT
 70
     0
  9
$DIMTFAC
 40
1.0
  9
$DIMGAP
 40
2.0
  9
$DIMJUST
 70
     0
  9
$DIMSD1
 70
     0
  9
$DIMSD2
 70
     0
  9
$DIMTOLJ
 70
     1
  9
$DIMTZIN
 70
    11
  9
$DIMALTZ
 70
    11
  9
$DIMALTTZ
 70
    11
  9
$DIMUPT
 70
     0
  9
$DIMDEC
 70
     0
  9
$DIMTDEC
 70
     1
  9
$DIMALTU
 70
     2
  9
$DIMALTTD
 70
     2
  9
$DIMTXSTY
  7
ＭＳ ゴシック
  9
$DIMAUNIT
 70
     0
  9
$DIMADEC
 70
     2
  9
$DIMALTRND
 40
0.0
  9
$DIMAZIN
 70
     0
  9
$DIMDSEP
 70
    46
  9
$DIMATFIT
 70
     0
  9
$DIMFRAC
 70
     2
  9
$DIMLDRBLK
  1
DOT
  9
$DIMLUNIT
 70
     2
  9
$DIMLWD
 70
    -2
  9
$DIMLWE
 70
    -2
  9
$DIMTMOVE
 70
     0
  9
$DIMFXL
 40
1.0
  9
$DIMFXLON
 70
     0
  9
$DIMJOGANG
 40
0.7853981633974483
  9
$DIMTFILL
 70
     0
  9
$DIMTFILLCLR
 70
     0
  9
$DIMARCSYM
 70
     0
  9
$DIMLTYPE
  6

  9
$DIMLTEX1
  6

  9
$DIMLTEX2
  6

  9
$LUNITS
 70
     2
  9
$LUPREC
 70
     0
  9
$SKETCHINC
 40
0.1
  9
$FILLETRAD
 40
0.0
  9
$AUNITS
 70
     0
  9
$AUPREC
 70
     0
  9
$MENU
  1
acad
  9
$ELEVATION
 40
0.0
  9
$PELEVATION
 40
0.0
  9
$THICKNESS
 40
0.0
  9
$LIMCHECK
 70
     0
  9
$CHAMFERA
 40
0.0
  9
$CHAMFERB
 40
0.0
  9
$CHAMFERC
 40
0.0
  9
$CHAMFERD
 40
0.0
  9
$SKPOLY
 70
     0
  9
$TDCREATE
 40
2447893.375
  9
$TDUCREATE
 40
0.0
  9
$TDUPDATE
 40
2460201.68022544
  9
$TDUUPDATE
 40
2460201.30522544
  9
$TDINDWG
 40
0.0328948958
  9
$TDUSRTIMER
 40
0.000041794
  9
$USRTIMER
 70
     1
  9
$ANGBASE
 50
0.0
  9
$ANGDIR
 70
     0
  9
$PDMODE
 70
     1
  9
$PDSIZE
 40
-2.0
  9
$PLINEWID
 40
0.0
  9
$SPLFRAME
 70
     0
  9
$SPLINETYPE
 70
     6
  9
$SPLINESEGS
 70
     8
  9
$HANDSEED
  5
7610
  9
$SURFTAB1
 70
     6
  9
$SURFTAB2
 70
     6
  9
$SURFTYPE
 70
     6
  9
$SURFU
 70
     6
  9
$SURFV
 70
     6
  9
$UCSBASE
  2

  9
$UCSNAME
  2

  9
$UCSORG
 10
0.0
 20
0.0
 30
0.0
  9
$UCSXDIR
 10
1.0
 20
0.0
 30
0.0
  9
$UCSYDIR
 10
0.0
 20
1.0
 30
0.0
  9
$UCSORTHOREF
  2

  9
$UCSORTHOVIEW
 70
     0
  9
$UCSORGTOP
 10
0.0
 20
0.0
 30
0.0
  9
$UCSORGBOTTOM
 10
0.0
 20
0.0
 30
0.0
  9
$UCSORGLEFT
 10
0.0
 20
0.0
 30
0.0
  9
$UCSORGRIGHT
 10
0.0
 20
0.0
 30
0.0
  9
$UCSORGFRONT
 10
0.0
 20
0.0
 30
0.0
  9
$UCSORGBACK
 10
0.0
 20
0.0
 30
0.0
  9
$PUCSBASE
  2

  9
$PUCSNAME
  2

  9
$PUCSORG
 10
0.0
 20
0.0
 30
0.0
  9
$PUCSXDIR
 10
1.0
 20
0.0
 30
0.0
  9
$PUCSYDIR
 10
0.0
 20
1.0
 30
0.0
  9
$PUCSORTHOREF
  2

  9
$PUCSORTHOVIEW
 70
     0
  9
$PUCSORGTOP
 10
0.0
 20
0.0
 30
0.0
  9
$PUCSORGBOTTOM
 10
0.0
 20
0.0
 30
0.0
  9
$PUCSORGLEFT
 10
0.0
 20
0.0
 30
0.0
  9
$PUCSORGRIGHT
 10
0.0
 20
0.0
 30
0.0
  9
$PUCSORGFRONT
 10
0.0
 20
0.0
 30
0.0
  9
$PUCSORGBACK
 10
0.0
 20
0.0
 30
0.0
  9
$USERI1
 70
     0
  9
$USERI2
 70
     0
  9
$USERI3
 70
     0
  9
$USERI4
 70
     0
  9
$USERI5
 70
     0
  9
$USERR1
 40
0.0
  9
$USERR2
 40
0.0
  9
$USERR3
 40
0.0
  9
$USERR4
 40
0.0
  9
$USERR5
 40
0.0
  9
$WORLDVIEW
 70
     1
  9
$SHADEDGE
 70
     3
  9
$SHADEDIF
 70
    70
  9
$TILEMODE
 70
     1
  9
$MAXACTVP
 70
    64
  9
$PINSBASE
 10
0.0
 20
0.0
 30
0.0
  9
$PLIMCHECK
 70
     0
  9
$PEXTMIN
 10
0.0
 20
0.0
 30
0.0
  9
$PEXTMAX
 10
0.0
 20
0.0
 30
0.0
  9
$PLIMMIN
 10
-7.5
 20
-20.0
  9
$PLIMMAX
 10
412.5
 20
277.0
  9
$UNITMODE
 70
     0
  9
$VISRETAIN
 70
     0
  9
$PLINEGEN
 70
     1
  9
$PSLTSCALE
 70
     1
  9
$TREEDEPTH
 70
  3020
  9
$CMLSTYLE
  2
Standard
  9
$CMLJUST
 70
     0
  9
$CMLSCALE
 40
1.0
  9
$PROXYGRAPHICS
 70
     0
  9
$MEASUREMENT
 70
     1
  9
$CELWEIGHT
370
    -1
  9
$ENDCAPS
280
     0
  9
$JOINSTYLE
280
     0
  9
$LWDISPLAY
290
     1
  9
$INSUNITS
 70
     4
  9
$HYPERLINKBASE
  1

  9
$STYLESHEET
  1

  9
$XEDIT
290
     1
  9
$CEPSNTYPE
380
     0
  9
$PSTYLEMODE
290
     1
  9
$FINGERPRINTGUID
  2

  9
$VERSIONGUID
  2

  9
$EXTNAMES
290
     1
  9
$PSVPSCALE
 40
0.0
  9
$OLESTARTUP
290
     0
  9
$SORTENTS
280
   127
  9
$INDEXCTL
280
     0
  9
$HIDETEXT
280
     1
  9
$XCLIPFRAME
290
     0
  9
$HALOGAP
280
     0
  9
$OBSCOLOR
 70
   257
  9
$OBSLTYPE
280
     0
  9
$INTERSECTIONDISPLAY
280
     0
  9
$INTERSECTIONCOLOR
 70
   257
  9
$DIMASSOC
280
     2
  9
$PROJECTNAME
  1

  9
$CAMERADISPLAY
290
     0
  9
$LENSLENGTH
 40
50.0
  9
$CAMERAHEIGHT
 40
0.0
  9
$STEPSPERSEC
 40
2.0
  9
$STEPSIZE
 40
6.0
  9
$3DDWFPREC
 40
2.0
  9
$PSOLWIDTH
 40
0.25
  9
$PSOLHEIGHT
 40
4.0
  9
$LOFTANG1
 40
1.570796326794897
  9
$LOFTANG2
 40
1.570796326794897
  9
$LOFTMAG1
 40
0.0
  9
$LOFTMAG2
 40
0.0
  9
$LOFTPARAM
 70
     7
  9
$LOFTNORMALS
280
     1
  9
$LATITUDE
 40
37.795
  9
$LONGITUDE
 40
-122.394
  9
$NORTHDIRECTION
 40
0.0
  9
$TIMEZONE
 70
 -8000
  9
$LIGHTGLYPHDISPLAY
280
     1
  9
$TILEMODELIGHTSYNCH
280
     1
  9
$SOLIDHIST
280
     1
  9
$SHOWHIST
280
     1
  9
$DWFFRAME
280
     2
  9
$DGNFRAME
280
     2
  9
$REALWORLDSCALE
290
     1
  9
$INTERFERECOLOR
 62
   256
  9
$CSHADOW
280
     0
  9
$SHADOWPLANELOCATION
 40
0.0
  0
ENDSEC
  0
SECTION
  2
CLASSES
  0
CLASS
  1
LWPOLYLINE
  2
AcDbPolyline
  3
ObjectDBX Classes
 90
        0
 91
        1
280
     0
281
     1
  0
CLASS
  1
IMAGE
  2
AcDbRasterImage
  3
ISM
 90
      127
 91
        4
280
     0
281
     1
  0
CLASS
  1
OLE2FRAME
  2
AcDbOle2Frame
  3
ObjectDBX Classes
 90
        0
 91
        1
280
     0
281
     1
  0
CLASS
  1
HATCH
  2
AcDbHatch
  3
ObjectDBX Classes
 90
        0
 91
        1
280
     0
281
     1
  0
CLASS
  1
DICTIONARYVAR
  2
AcDbDictionaryVar
  3
ObjectDBX Classes
 90
        0
 91
        3
280
     0
281
     0
  0
CLASS
  1
RASTERVARIABLES
  2
AcDbRasterVariables
  3
ISM
 90
        0
 91
        3
280
     0
281
     0
  0
CLASS
  1
IMAGEDEF
  2
AcDbRasterImageDef
  3
ISM
 90
        0
 91
        3
280
     0
281
     0
  0
CLASS
  1
IMAGEDEF_REACTOR
  2
AcDbRasterImageDefReactor
  3
ISM
 90
        1
 91
        3
280
     0
281
     0
  0
CLASS
  1
IDBUFFER
  2
AcDbIdBuffer
  3
ObjectDBX Classes
 90
        0
 91
        3
280
     0
281
     0
  0
CLASS
  1
SPATIAL_FILTER
  2
AcDbSpatialFilter
  3
ObjectDBX Classes
 90
        0
 91
        3
280
     0
281
     0
  0
CLASS
  1
XRECORD
  2
AcDbXrecord
  3
ObjectDBX Classes
 90
        0
 91
        1
280
     0
281
     0
  0
CLASS
  1
SORTENTSTABLE
  2
AcDbSortentsTable
  3
ObjectDBX Classes
 90
        0
 91
        3
280
     0
281
     0
  0
CLASS
  1
LAYER_INDEX
  2
AcDbLayerIndex
  3
ObjectDBX Classes
 90
        0
 91
        3
280
     0
281
     0
  0
CLASS
  1
SPATIAL_INDEX
  2
AcDbSpatialIndex
  3
AutoCAD 2000
 90
        0
 91
        3
280
     0
281
     0
  0
CLASS
  1
OBJECT_PTR
  2
CAseDLPNTableRecord
  3
ASE-LPNTableRecord
 90
        1
 91
        3
280
     0
281
     0
  0
CLASS
  1
LAYOUT
  2
AcDbLayout
  3
ObjectDBX Classes
 90
        0
 91
        1
280
     0
281
     0
  0
CLASS
  1
PLOTSETTINGS
  2
AcDbPlotSettings
  3
ObjectDBX Classes
 90
        0
 91
        3
280
     0
281
     0
  0
CLASS
  1
ACDBDICTIONARYWDFLT
  2
AcDbDictionaryWithDefault
  3
ObjectDBX Classes
 90
        0
 91
        3
280
     0
281
     0
  0
CLASS
  1
ACDBPLACEHOLDER
  2
AcDbPlaceHolder
  3
ObjectDBX Classes
 90
        0
 91
        1
280
     0
281
     0
  0
CLASS
  1
SCALE
  2
AcDbScale
  3
ObjectDBX Classes
 90
     1153
 91
        3
280
     0
281
     0
  0
CLASS
  1
MATERIAL
  2
AcDbMaterial
  3
ObjectDBX Classes
 90
     1153
 91
        3
280
     0
281
     0
  0
CLASS
  1
VISUALSTYLE
  2
AcDbVisualStyle
  3
ObjectDBX Classes
 90
     4095
 91
        3
280
     0
281
     0
  0
CLASS
  1
TABLESTYLE
  2
AcDbTableStyle
  3
ObjectDBX Classes
 90
     4095
 91
        3
280
     0
281
     0
  0
CLASS
  1
DIMASSOC
  2
AcDbDimAssoc
  3
"AcDbDimAssoc|Product Desc:     AcDim ARX App For Dimension|Company:          Autodesk, Inc.|WEB Address:      www.autodesk.com"
 90
        0
 91
        3
280
     0
281
     0
  0
CLASS
  1
CELLSTYLEMAP
  2
AcDbCellStyleMap
  3
ObjectDBX Classes
 90
     1152
 91
        3
280
     0
281
     0
  0
CLASS
  1
SUN
  2
AcDbSun
  3
SCENEOE
 90
     1153
 91
        3
280
     0
281
     0
  0
CLASS
  1
MLEADERSTYLE
  2
AcDbMLeaderStyle
  3
ACDB_MLEADERSTYLE_CLASS
 90
     4095
 91
        3
280
     0
281
     0
  0
CLASS
  1
FIELD
  2
AcDbField
  3
ObjectDBX Classes
 90
     1152
 91
        3
280
     0
281
     0
  0
CLASS
  1
FIELDLIST
  2
AcDbFieldList
  3
ObjectDBX Classes
 90
     1152
 91
        3
280
     0
281
     0
  0
ENDSEC
  0
SECTION
  2
TABLES
  0
TABLE
  2
VPORT
  5
7
330
0
100
AcDbSymbolTable
 70
     1
  0
VPORT
  5
15
330
7
100
AcDbSymbolTableRecord
100
AcDbViewportTableRecord
  2
*ACTIVE
 70
     0
 10
0.0
 20
0.0
 11
1.0
 21
1.0
 12
296.9999999999999
 22
210.0
 13
0.0
 23
0.0
 14
1.0
 24
1.0
 15
0.0
 25
0.0
 16
0.0
 26
0.0
 36
1.0
 17
0.0
 27
0.0
 37
0.0
 40
428.4
 41
2.189300411522634
 42
50.0
 43
0.0
 44
0.0
 50
0.0
 51
0.0
 71
    16
 72
  2000
 73
     1
 74
     1
 75
     0
 76
     0
 77
     0
 78
     0
281
     0
 65
     1
110
0.0
120
0.0
130
0.0
111
1.0
121
0.0
131
0.0
112
0.0
122
1.0
132
0.0
 79
     0
146
0.0
348
26C
 60
     3
 61
     5
292
     1
282
     1
141
0.0
142
0.0
 63
   256
361
F1A
  0
ENDTAB
  0
TABLE
  2
LTYPE
  5
4
330
0
100
AcDbSymbolTable
 70
     6
  0
LTYPE
  5
11
330
4
100
AcDbSymbolTableRecord
100
AcDbLinetypeTableRecord
  2
ByBlock
 70
     0
  3

 72
    65
 73
     0
 40
0.0
  0
LTYPE
  5
12
330
4
100
AcDbSymbolTableRecord
100
AcDbLinetypeTableRecord
  2
ByLayer
 70
     0
  3
Solid line
 72
    65
 73
     0
 40
0.0
  0
LTYPE
  5
13
330
4
100
AcDbSymbolTableRecord
100
AcDbLinetypeTableRecord
  2
Continuous
 70
     0
  3
Solid line
 72
    65
 73
     0
 40
0.0
  0
LTYPE
  5
3A
330
4
100
AcDbSymbolTableRecord
100
AcDbLinetypeTableRecord
  2
STYLE_01
 70
     0
  3

 72
    65
 73
     2
 40
0.2460629921259842
 49
0.1230314960629921
 74
     0
 49
-0.1230314960629921
 74
     0
  0
LTYPE
  5
3B
330
4
100
AcDbSymbolTableRecord
100
AcDbLinetypeTableRecord
  2
STYLE_02
 70
     0
  3

 72
    65
 73
     2
 40
0.6944250000000001
 49
0.48607
 74
     0
 49
-0.2083550000000001
 74
     0
  0
LTYPE
  5
90E
330
4
100
AcDbSymbolTableRecord
100
AcDbLinetypeTableRecord
  2
DASHED1
 70
     0
  3
--  --  --  --  --  --  --  --  
 72
    65
 73
     2
 40
2.5
 49
1.25
 74
     0
 49
-1.25
 74
     0
  0
LTYPE
  5
53AE
330
4
100
AcDbSymbolTableRecord
100
AcDbLinetypeTableRecord
  2
CENTER
 70
     0
  3
----------  --  ----------  --  
 72
    65
 73
     4
 40
20.0
 49
12.5
 74
     0
 49
-2.5
 74
     0
 49
2.5
 74
     0
 49
-2.5
 74
     0
  0
LTYPE
  5
53AF
330
4
100
AcDbSymbolTableRecord
100
AcDbLinetypeTableRecord
  2
HIDDEN
 70
     0
  3
Hidden _ _ _ _ _ _ _ _ _ _ _ _ _ _ _ _ _ _ _ _ 
 72
    65
 73
     2
 40
9.524999999999999
 49
6.35
 74
     0
 49
-3.175
 74
     0
  0
ENDTAB
  0
TABLE
  2
LAYER
  5
2
102
{ACAD_XDICTIONARY
360
2E1
102
}
330
0
100
AcDbSymbolTable
 70
    14
  0
LAYER
  5
14
330
2
100
AcDbSymbolTableRecord
100
AcDbLayerTableRecord
  2
0
 70
     0
 62
    -7
  6
Continuous
370
    -3
390
1D
347
266
  0
LAYER
  5
4A
330
2
100
AcDbSymbolTableRecord
100
AcDbLayerTableRecord
  2
Defpoints
 70
     0
 62
    -7
  6
Continuous
290
     0
370
    -3
390
1D
347
266
  0
LAYER
  5
4D
330
2
100
AcDbSymbolTableRecord
100
AcDbLayerTableRecord
  2
MODEL
 70
     0
 62
     7
  6
Continuous
370
    20
390
1D
347
266
  0
LAYER
  5
667
330
2
100
AcDbSymbolTableRecord
100
AcDbLayerTableRecord
  2
レイヤー 1
 70
     0
 62
     7
  6
Continuous
370
    -3
390
1D
347
266
  0
LAYER
  5
13AF
330
2
100
AcDbSymbolTableRecord
100
AcDbLayerTableRecord
  2
DIM
 70
     0
 62
     7
  6
Continuous
370
    13
390
1D
347
266
1001
AcAecLayerStandard
1000

1000

  0
LAYER
  5
53A4
330
2
100
AcDbSymbolTableRecord
100
AcDbLayerTableRecord
  2
寸法
 70
     0
 62
     7
  6
Continuous
370
    13
390
1D
347
266
1001
AcAecLayerStandard
1000

1000

  0
LAYER
  5
53A7
330
2
100
AcDbSymbolTableRecord
100
AcDbLayerTableRecord
  2
モデル
 70
     0
 62
     7
  6
Continuous
370
    20
390
1D
347
266
1001
AcAecLayerStandard
1000

1000

  0
LAYER
  5
53A8
330
2
100
AcDbSymbolTableRecord
100
AcDbLayerTableRecord
  2
テンプレート
 70
     0
 62
     7
  6
Continuous
370
    20
390
1D
347
266
1001
AcAecLayerStandard
1000

1000

  0
LAYER
  5
53A9
330
2
100
AcDbSymbolTableRecord
100
AcDbLayerTableRecord
  2
TFORMLOGO
 70
     0
 62
     7
  6
Continuous
370
    20
390
1D
347
266
  0
LAYER
  5
53AA
330
2
100
AcDbSymbolTableRecord
100
AcDbLayerTableRecord
  2
PRINT BORDER
 70
     0
 62
     4
  6
Continuous
290
     0
370
    -3
390
1D
347
266
1001
AcAecLayerStandard
1000

1000

  0
LAYER
  5
53AB
330
2
100
AcDbSymbolTableRecord
100
AcDbLayerTableRecord
  2
SPACER
 70
     0
 62
    -3
  6
Continuous
290
     0
370
    -3
390
1D
347
266
1001
AcAecLayerStandard
1000

1000

  0
LAYER
  5
53AC
330
2
100
AcDbSymbolTableRecord
100
AcDbLayerTableRecord
  2
CutoutUnderlay
 70
     0
 62
   254
  6
Continuous
370
    20
390
1D
347
266
1001
AcAecLayerStandard
1000

1000

  0
LAYER
  5
53AD
330
2
100
AcDbSymbolTableRecord
100
AcDbLayerTableRecord
  2
CutoutOverlay
 70
     0
 62
     7
  6
Continuous
370
    20
390
1D
347
266
1001
AcAecLayerStandard
1000

1000

  0
LAYER
  5
5CEB
330
2
100
AcDbSymbolTableRecord
100
AcDbLayerTableRecord
  2
_0-1_
 70
     0
 62
     7
  6
Continuous
290
     0
370
    -3
390
1D
347
266
  0
ENDTAB
  0
TABLE
  2
STYLE
  5
3
330
0
100
AcDbSymbolTable
 70
     2
  0
STYLE
  5
17
330
3
100
AcDbSymbolTableRecord
100
AcDbTextStyleTableRecord
  2
Standard
 70
     0
 40
0.0
 41
1.0
 50
0.0
 71
     0
 42
2.5
  3
txt
  4
BIGFONT.SHX
  0
STYLE
  5
39
330
3
100
AcDbSymbolTableRecord
100
AcDbTextStyleTableRecord
  2
ＭＳ ゴシック
 70
     0
 40
0.0
 41
1.0
 50
0.0
 71
     0
 42
2.5
  3
msgothic.ttc
  4
ＭＳ ゴシック
1001
ACAD
1000
ＭＳ ゴシック
1071
        0
  0
ENDTAB
  0
TABLE
  2
VIEW
  5
5
330
0
100
AcDbSymbolTable
 70
     0
  0
ENDTAB
  0
TABLE
  2
UCS
  5
6
330
0
100
AcDbSymbolTable
 70
     0
  0
ENDTAB
  0
TABLE
  2
APPID
  5
8
330
0
100
AcDbSymbolTable
 70
     4
  0
APPID
  5
16
330
8
100
AcDbSymbolTableRecord
100
AcDbRegAppTableRecord
  2
ACAD
 70
     0
  0
APPID
  5
7AC
330
8
100
AcDbSymbolTableRecord
100
AcDbRegAppTableRecord
  2
AcAecLayerStandard
 70
     0
  0
APPID
  5
5990
330
8
100
AcDbSymbolTableRecord
100
AcDbRegAppTableRecord
  2
ACAD_MLEADERVER
 70
     0
  0
APPID
  5
7606
330
8
100
AcDbSymbolTableRecord
100
AcDbRegAppTableRecord
  2
PLOTTRANSPARENCY
 70
     0
  0
ENDTAB
  0
TABLE
  2
DIMSTYLE
  5
9
330
0
100
AcDbSymbolTable
 70
     2
100
AcDbDimStyleTable
  0
DIMSTYLE
105
18
330
9
100
AcDbSymbolTableRecord
100
AcDbDimStyleTableRecord
  2
Standard
 70
     0
178
     0
340
17
  0
DIMSTYLE
105
57
102
{ACAD_REACTORS
330
4A99
330
5207
330
5AF5
330
5B08
330
5B35
330
5BEC
330
5BEF
330
5BF1
330
5BF5
330
56DD
330
56E0
102
}
330
9
100
AcDbSymbolTableRecord
100
AcDbDimStyleTableRecord
  2
tfrom線あり
 70
     0
  3
<>
  4
[]
 41
1.5
 42
5.0
 43
0.9999999999999999
 44
0.0
 73
     0
 74
     0
 77
     1
 78
    11
140
5.0
141
0.0
143
1.0
147
2.0
171
     1
174
     1
178
     0
179
     2
271
     0
272
     1
276
     2
284
    11
285
    11
286
    11
289
     0
340
39
341
4E
342
4E
  0
ENDTAB
  0
TABLE
  2
BLOCK_RECORD
  5
1
330
0
100
AcDbSymbolTable
 70
    90
  0
BLOCK_RECORD
  5
A
102
{ACAD_XDICTIONARY
360
5C3B
102
}
330
1
100
AcDbSymbolTableRecord
100
AcDbBlockTableRecord
  2
*MODEL_SPACE
340
20
 70
     0
280
     1
281
     0
  0
BLOCK_RECORD
  5
B
330
1
100
AcDbSymbolTableRecord
100
AcDbBlockTableRecord
  2
*PAPER_SPACE
340
21
 70
     0
280
     1
281
     0
  0
BLOCK_RECORD
  5
4E
330
1
100
AcDbSymbolTableRecord
100
AcDbBlockTableRecord
  2
_DOT
340
0
102
{BLKREFS
331
4A75
331
4A76
331
4AA2
331
4AA3
331
4ADB
331
4ADC
331
4CB4
331
4CB5
331
4EFA
331
4EFB
331
5210
331
5211
331
542D
331
542E
331
5437
331
5438
331
5444
331
5445
331
5451
331
5452
331
5460
331
5461
331
54BC
331
54BD
331
54F1
331
54F2
331
54FD
331
54FE
331
550A
331
550B
331
5595
331
5596
331
5727
331
5728
331
577B
331
577C
331
5864
331
5865
331
5877
331
5878
331
58FB
331
58FC
331
590D
331
590E
331
5939
331
593A
331
5945
331
5946
331
5AFC
331
5AFD
331
5B0F
331
5B10
331
5B3C
331
5B3D
331
5B94
331
5B95
331
5BA2
331
5BA3
331
5BB4
331
5BB5
331
5BC3
331
5BC4
331
5C07
331
5C08
331
5C13
331
5C14
331
5C21
331
5C22
331
5C2D
331
5C2E
331
5D99
331
5D9A
331
5DA6
331
5DA7
331
5DBA
331
5DBB
331
5DC7
331
5DC8
331
5DD8
331
5DD9
331
5DE7
331
5DE8
331
6553
331
6554
331
6560
331
6561
331
65C5
331
65C6
331
6668
331
6669
331
6675
331
6676
331
6684
331
6685
331
66EB
331
66EC
331
66F8
331
66F9
331
6707
331
6708
331
6718
331
6719
331
673F
331
6740
331
674C
331
674D
331
6759
331
675A
331
67CF
331
67D0
331
71CA
331
71CB
331
71D6
331
71D7
331
71E2
331
71E3
331
71EE
331
71EF
331
71FC
331
71FD
331
7208
331
7209
331
7214
331
7215
331
7220
331
7221
331
722C
331
722D
331
7238
331
7239
331
7244
331
7245
331
7250
331
7251
331
725C
331
725D
331
7268
331
7269
331
7274
331
7275
331
7282
331
7283
331
728E
331
728F
331
729A
331
729B
331
72A6
331
72A7
331
72B2
331
72B3
331
72F0
331
72F1
331
72FC
331
72FD
331
7308
331
7309
331
7314
331
7315
331
7320
331
7321
331
732E
331
732F
331
733A
331
733B
331
7354
331
7355
331
7360
331
7361
102
}
 70
     0
280
     1
281
     0
  0
BLOCK_RECORD
  5
690
330
1
100
AcDbSymbolTableRecord
100
AcDbBlockTableRecord
  2
block 3
340
0
102
{BLKREFS
331
53F0
102
}
 70
     0
280
     1
281
     0
  0
BLOCK_RECORD
  5
693
330
1
100
AcDbSymbolTableRecord
100
AcDbBlockTableRecord
  2
block 4
340
0
102
{BLKREFS
331
692
102
}
 70
     0
280
     1
281
     0
  0
BLOCK_RECORD
  5
6A2
330
1
100
AcDbSymbolTableRecord
100
AcDbBlockTableRecord
  2
block 5
340
0
102
{BLKREFS
331
6A1
102
}
 70
     0
280
     1
281
     0
  0
BLOCK_RECORD
  5
4A6F
330
1
100
AcDbSymbolTableRecord
100
AcDbBlockTableRecord
  2
*D4
340
0
 70
     0
280
     1
281
     0
  0
BLOCK_RECORD
  5
4A9C
330
1
100
AcDbSymbolTableRecord
100
AcDbBlockTableRecord
  2
*D5
340
0
 70
     0
280
     1
281
     0
  0
BLOCK_RECORD
  5
4AD5
330
1
100
AcDbSymbolTableRecord
100
AcDbBlockTableRecord
  2
*D6
340
0
 70
     0
280
     1
281
     0
  0
BLOCK_RECORD
  5
4CAE
330
1
100
AcDbSymbolTableRecord
100
AcDbBlockTableRecord
  2
*D7
340
0
 70
     0
280
     1
281
     0
  0
BLOCK_RECORD
  5
4EF4
330
1
100
AcDbSymbolTableRecord
100
AcDbBlockTableRecord
  2
*D8
340
0
 70
     0
280
     1
281
     0
  0
BLOCK_RECORD
  5
520A
330
1
100
AcDbSymbolTableRecord
100
AcDbBlockTableRecord
  2
*D9
340
0
 70
     0
280
     1
281
     0
  0
BLOCK_RECORD
  5
53EB
330
1
100
AcDbSymbolTableRecord
100
AcDbBlockTableRecord
  2
名称未設定-1
340
0
102
{BLKREFS
331
55C6
102
}
 70
     1
280
     1
281
     0
  0
BLOCK_RECORD
  5
53EE
330
1
100
AcDbSymbolTableRecord
100
AcDbBlockTableRecord
  2
block 2
340
0
102
{BLKREFS
331
53ED
102
}
 70
     0
280
     1
281
     0
  0
BLOCK_RECORD
  5
5426
330
1
100
AcDbSymbolTableRecord
100
AcDbBlockTableRecord
  2
*D12
340
0
 70
     0
280
     1
281
     0
  0
BLOCK_RECORD
  5
5432
330
1
100
AcDbSymbolTableRecord
100
AcDbBlockTableRecord
  2
*D13
340
0
 70
     0
280
     1
281
     0
  0
BLOCK_RECORD
  5
543F
330
1
100
AcDbSymbolTableRecord
100
AcDbBlockTableRecord
  2
*D14
340
0
 70
     0
280
     1
281
     0
  0
BLOCK_RECORD
  5
544C
330
1
100
AcDbSymbolTableRecord
100
AcDbBlockTableRecord
  2
*D15
340
0
 70
     0
280
     1
281
     0
  0
BLOCK_RECORD
  5
545B
330
1
100
AcDbSymbolTableRecord
100
AcDbBlockTableRecord
  2
*D16
340
0
 70
     0
280
     1
281
     0
  0
BLOCK_RECORD
  5
54B7
330
1
100
AcDbSymbolTableRecord
100
AcDbBlockTableRecord
  2
*D17
340
0
 70
     0
280
     1
281
     0
  0
BLOCK_RECORD
  5
54EB
330
1
100
AcDbSymbolTableRecord
100
AcDbBlockTableRecord
  2
*D18
340
0
 70
     0
280
     1
281
     0
  0
BLOCK_RECORD
  5
54F8
330
1
100
AcDbSymbolTableRecord
100
AcDbBlockTableRecord
  2
*D19
340
0
 70
     0
280
     1
281
     0
  0
BLOCK_RECORD
  5
5505
330
1
100
AcDbSymbolTableRecord
100
AcDbBlockTableRecord
  2
*D20
340
0
 70
     0
280
     1
281
     0
  0
BLOCK_RECORD
  5
5590
330
1
100
AcDbSymbolTableRecord
100
AcDbBlockTableRecord
  2
*D21
340
0
 70
     0
280
     1
281
     0
  0
BLOCK_RECORD
  5
5721
330
1
100
AcDbSymbolTableRecord
100
AcDbBlockTableRecord
  2
*D22
340
0
 70
     0
280
     1
281
     0
  0
BLOCK_RECORD
  5
5773
330
1
100
AcDbSymbolTableRecord
100
AcDbBlockTableRecord
  2
*D23
340
0
 70
     0
280
     1
281
     0
  0
BLOCK_RECORD
  5
585E
330
1
100
AcDbSymbolTableRecord
100
AcDbBlockTableRecord
  2
*D24
340
0
 70
     0
280
     1
281
     0
  0
BLOCK_RECORD
  5
586F
330
1
100
AcDbSymbolTableRecord
100
AcDbBlockTableRecord
  2
*D25
340
0
 70
     0
280
     1
281
     0
  0
BLOCK_RECORD
  5
58F6
330
1
100
AcDbSymbolTableRecord
100
AcDbBlockTableRecord
  2
*D26
340
0
 70
     0
280
     1
281
     0
  0
BLOCK_RECORD
  5
5908
330
1
100
AcDbSymbolTableRecord
100
AcDbBlockTableRecord
  2
*D27
340
0
 70
     0
280
     1
281
     0
  0
BLOCK_RECORD
  5
5933
330
1
100
AcDbSymbolTableRecord
100
AcDbBlockTableRecord
  2
*D28
340
0
 70
     0
280
     1
281
     0
  0
BLOCK_RECORD
  5
593F
330
1
100
AcDbSymbolTableRecord
100
AcDbBlockTableRecord
  2
*D29
340
0
 70
     0
280
     1
281
     0
  0
BLOCK_RECORD
  5
5AF6
330
1
100
AcDbSymbolTableRecord
100
AcDbBlockTableRecord
  2
*D30
340
0
 70
     0
280
     1
281
     0
  0
BLOCK_RECORD
  5
5B09
330
1
100
AcDbSymbolTableRecord
100
AcDbBlockTableRecord
  2
*D31
340
0
 70
     0
280
     1
281
     0
  0
BLOCK_RECORD
  5
5B36
330
1
100
AcDbSymbolTableRecord
100
AcDbBlockTableRecord
  2
*D32
340
0
 70
     0
280
     1
281
     0
  0
BLOCK_RECORD
  5
5B8F
330
1
100
AcDbSymbolTableRecord
100
AcDbBlockTableRecord
  2
*D33
340
0
 70
     0
280
     1
281
     0
  0
BLOCK_RECORD
  5
5B9D
330
1
100
AcDbSymbolTableRecord
100
AcDbBlockTableRecord
  2
*D34
340
0
 70
     0
280
     1
281
     0
  0
BLOCK_RECORD
  5
5BAD
330
1
100
AcDbSymbolTableRecord
100
AcDbBlockTableRecord
  2
*D35
340
0
 70
     0
280
     1
281
     0
  0
BLOCK_RECORD
  5
5BBE
330
1
100
AcDbSymbolTableRecord
100
AcDbBlockTableRecord
  2
*D36
340
0
 70
     0
280
     1
281
     0
  0
BLOCK_RECORD
  5
5C01
330
1
100
AcDbSymbolTableRecord
100
AcDbBlockTableRecord
  2
*D37
340
0
 70
     0
280
     1
281
     0
  0
BLOCK_RECORD
  5
5C0D
330
1
100
AcDbSymbolTableRecord
100
AcDbBlockTableRecord
  2
*D38
340
0
 70
     0
280
     1
281
     0
  0
BLOCK_RECORD
  5
5C19
330
1
100
AcDbSymbolTableRecord
100
AcDbBlockTableRecord
  2
*D39
340
0
 70
     0
280
     1
281
     0
  0
BLOCK_RECORD
  5
5C27
330
1
100
AcDbSymbolTableRecord
100
AcDbBlockTableRecord
  2
*D40
340
0
 70
     0
280
     1
281
     0
  0
BLOCK_RECORD
  5
5D94
330
1
100
AcDbSymbolTableRecord
100
AcDbBlockTableRecord
  2
*D41
340
0
 70
     0
280
     1
281
     0
  0
BLOCK_RECORD
  5
5DA1
330
1
100
AcDbSymbolTableRecord
100
AcDbBlockTableRecord
  2
*D42
340
0
 70
     0
280
     1
281
     0
  0
BLOCK_RECORD
  5
5DB5
330
1
100
AcDbSymbolTableRecord
100
AcDbBlockTableRecord
  2
*D43
340
0
 70
     0
280
     1
281
     0
  0
BLOCK_RECORD
  5
5DC2
330
1
100
AcDbSymbolTableRecord
100
AcDbBlockTableRecord
  2
*D44
340
0
 70
     0
280
     1
281
     0
  0
BLOCK_RECORD
  5
5DD1
330
1
100
AcDbSymbolTableRecord
100
AcDbBlockTableRecord
  2
*D45
340
0
 70
     0
280
     1
281
     0
  0
BLOCK_RECORD
  5
5DE2
330
1
100
AcDbSymbolTableRecord
100
AcDbBlockTableRecord
  2
*D46
340
0
 70
     0
280
     1
281
     0
  0
BLOCK_RECORD
  5
654E
330
1
100
AcDbSymbolTableRecord
100
AcDbBlockTableRecord
  2
*D47
340
0
 70
     0
280
     1
281
     0
  0
BLOCK_RECORD
  5
655B
330
1
100
AcDbSymbolTableRecord
100
AcDbBlockTableRecord
  2
*D48
340
0
 70
     0
280
     1
281
     0
  0
BLOCK_RECORD
  5
65C0
330
1
100
AcDbSymbolTableRecord
100
AcDbBlockTableRecord
  2
*D49
340
0
 70
     0
280
     1
281
     0
  0
BLOCK_RECORD
  5
6663
330
1
100
AcDbSymbolTableRecord
100
AcDbBlockTableRecord
  2
*D50
340
0
 70
     0
280
     1
281
     0
  0
BLOCK_RECORD
  5
6670
330
1
100
AcDbSymbolTableRecord
100
AcDbBlockTableRecord
  2
*D51
340
0
 70
     0
280
     1
281
     0
  0
BLOCK_RECORD
  5
667F
330
1
100
AcDbSymbolTableRecord
100
AcDbBlockTableRecord
  2
*D52
340
0
 70
     0
280
     1
281
     0
  0
BLOCK_RECORD
  5
66E6
330
1
100
AcDbSymbolTableRecord
100
AcDbBlockTableRecord
  2
*D53
340
0
 70
     0
280
     1
281
     0
  0
BLOCK_RECORD
  5
66F3
330
1
100
AcDbSymbolTableRecord
100
AcDbBlockTableRecord
  2
*D54
340
0
 70
     0
280
     1
281
     0
  0
BLOCK_RECORD
  5
6702
330
1
100
AcDbSymbolTableRecord
100
AcDbBlockTableRecord
  2
*D55
340
0
 70
     0
280
     1
281
     0
  0
BLOCK_RECORD
  5
6711
330
1
100
AcDbSymbolTableRecord
100
AcDbBlockTableRecord
  2
*D56
340
0
 70
     0
280
     1
281
     0
  0
BLOCK_RECORD
  5
673A
330
1
100
AcDbSymbolTableRecord
100
AcDbBlockTableRecord
  2
*D57
340
0
 70
     0
280
     1
281
     0
  0
BLOCK_RECORD
  5
6747
330
1
100
AcDbSymbolTableRecord
100
AcDbBlockTableRecord
  2
*D58
340
0
 70
     0
280
     1
281
     0
  0
BLOCK_RECORD
  5
6754
330
1
100
AcDbSymbolTableRecord
100
AcDbBlockTableRecord
  2
*D59
340
0
 70
     0
280
     1
281
     0
  0
BLOCK_RECORD
  5
67CA
330
1
100
AcDbSymbolTableRecord
100
AcDbBlockTableRecord
  2
*D60
340
0
 70
     0
280
     1
281
     0
  0
BLOCK_RECORD
  5
71C4
330
1
100
AcDbSymbolTableRecord
100
AcDbBlockTableRecord
  2
*D61
340
0
 70
     0
280
     1
281
     0
  0
BLOCK_RECORD
  5
71D0
330
1
100
AcDbSymbolTableRecord
100
AcDbBlockTableRecord
  2
*D62
340
0
 70
     0
280
     1
281
     0
  0
BLOCK_RECORD
  5
71DC
330
1
100
AcDbSymbolTableRecord
100
AcDbBlockTableRecord
  2
*D63
340
0
 70
     0
280
     1
281
     0
  0
BLOCK_RECORD
  5
71E8
330
1
100
AcDbSymbolTableRecord
100
AcDbBlockTableRecord
  2
*D64
340
0
 70
     0
280
     1
281
     0
  0
BLOCK_RECORD
  5
71F4
330
1
100
AcDbSymbolTableRecord
100
AcDbBlockTableRecord
  2
*D65
340
0
 70
     0
280
     1
281
     0
  0
BLOCK_RECORD
  5
7202
330
1
100
AcDbSymbolTableRecord
100
AcDbBlockTableRecord
  2
*D66
340
0
 70
     0
280
     1
281
     0
  0
BLOCK_RECORD
  5
720E
330
1
100
AcDbSymbolTableRecord
100
AcDbBlockTableRecord
  2
*D67
340
0
 70
     0
280
     1
281
     0
  0
BLOCK_RECORD
  5
721A
330
1
100
AcDbSymbolTableRecord
100
AcDbBlockTableRecord
  2
*D68
340
0
 70
     0
280
     1
281
     0
  0
BLOCK_RECORD
  5
7226
330
1
100
AcDbSymbolTableRecord
100
AcDbBlockTableRecord
  2
*D69
340
0
 70
     0
280
     1
281
     0
  0
BLOCK_RECORD
  5
7232
330
1
100
AcDbSymbolTableRecord
100
AcDbBlockTableRecord
  2
*D70
340
0
 70
     0
280
     1
281
     0
  0
BLOCK_RECORD
  5
723E
330
1
100
AcDbSymbolTableRecord
100
AcDbBlockTableRecord
  2
*D71
340
0
 70
     0
280
     1
281
     0
  0
BLOCK_RECORD
  5
724A
330
1
100
AcDbSymbolTableRecord
100
AcDbBlockTableRecord
  2
*D72
340
0
 70
     0
280
     1
281
     0
  0
BLOCK_RECORD
  5
7256
330
1
100
AcDbSymbolTableRecord
100
AcDbBlockTableRecord
  2
*D73
340
0
 70
     0
280
     1
281
     0
  0
BLOCK_RECORD
  5
7262
330
1
100
AcDbSymbolTableRecord
100
AcDbBlockTableRecord
  2
*D74
340
0
 70
     0
280
     1
281
     0
  0
BLOCK_RECORD
  5
726E
330
1
100
AcDbSymbolTableRecord
100
AcDbBlockTableRecord
  2
*D75
340
0
 70
     0
280
     1
281
     0
  0
BLOCK_RECORD
  5
727A
330
1
100
AcDbSymbolTableRecord
100
AcDbBlockTableRecord
  2
*D76
340
0
 70
     0
280
     1
281
     0
  0
BLOCK_RECORD
  5
7288
330
1
100
AcDbSymbolTableRecord
100
AcDbBlockTableRecord
  2
*D77
340
0
 70
     0
280
     1
281
     0
  0
BLOCK_RECORD
  5
7294
330
1
100
AcDbSymbolTableRecord
100
AcDbBlockTableRecord
  2
*D78
340
0
 70
     0
280
     1
281
     0
  0
BLOCK_RECORD
  5
72A0
330
1
100
AcDbSymbolTableRecord
100
AcDbBlockTableRecord
  2
*D79
340
0
 70
     0
280
     1
281
     0
  0
BLOCK_RECORD
  5
72AC
330
1
100
AcDbSymbolTableRecord
100
AcDbBlockTableRecord
  2
*D80
340
0
 70
     0
280
     1
281
     0
  0
BLOCK_RECORD
  5
72EA
330
1
100
AcDbSymbolTableRecord
100
AcDbBlockTableRecord
  2
*D81
340
0
 70
     0
280
     1
281
     0
  0
BLOCK_RECORD
  5
72F6
330
1
100
AcDbSymbolTableRecord
100
AcDbBlockTableRecord
  2
*D82
340
0
 70
     0
280
     1
281
     0
  0
BLOCK_RECORD
  5
7302
330
1
100
AcDbSymbolTableRecord
100
AcDbBlockTableRecord
  2
*D83
340
0
 70
     0
280
     1
281
     0
  0
BLOCK_RECORD
  5
730E
330
1
100
AcDbSymbolTableRecord
100
AcDbBlockTableRecord
  2
*D84
340
0
 70
     0
280
     1
281
     0
  0
BLOCK_RECORD
  5
731A
330
1
100
AcDbSymbolTableRecord
100
AcDbBlockTableRecord
  2
*D85
340
0
 70
     0
280
     1
281
     0
  0
BLOCK_RECORD
  5
7326
330
1
100
AcDbSymbolTableRecord
100
AcDbBlockTableRecord
  2
*D86
340
0
 70
     0
280
     1
281
     0
  0
BLOCK_RECORD
  5
7334
330
1
100
AcDbSymbolTableRecord
100
AcDbBlockTableRecord
  2
*D87
340
0
 70
     0
280
     1
281
     0
  0
BLOCK_RECORD
  5
734E
330
1
100
AcDbSymbolTableRecord
100
AcDbBlockTableRecord
  2
*D88
340
0
 70
     0
280
     1
281
     0
  0
BLOCK_RECORD
  5
735A
330
1
100
AcDbSymbolTableRecord
100
AcDbBlockTableRecord
  2
*D89
340
0
 70
     0
280
     1
281
     0
  0
ENDTAB
  0
ENDSEC
  0
SECTION
  2
BLOCKS
  0
BLOCK
  5
D
330
A
100
AcDbEntity
  8
0
390
1D
100
AcDbBlockBegin
  2
*MODEL_SPACE
 70
     0
 10
0.0
 20
0.0
 30
0.0
  3
*MODEL_SPACE
  1
*MODEL_SPACE
  0
ENDBLK
  5
E
330
A
100
AcDbEntity
  8
0
390
1D
100
AcDbBlockEnd
  0
BLOCK
  5
F
330
B
100
AcDbEntity
 67
     1
  8
0
390
1D
100
AcDbBlockBegin
  2
*PAPER_SPACE
 70
     0
 10
0.0
 20
0.0
 30
0.0
  3
*PAPER_SPACE
  1
*PAPER_SPACE
  0
ENDBLK
  5
10
330
B
100
AcDbEntity
 67
     1
  8
0
390
1D
100
AcDbBlockEnd
  0
BLOCK
  5
576A
330
4E
100
AcDbEntity
  8
0
390
1D
100
AcDbBlockBegin
  2
_DOT
 70
     0
 10
0.0
 20
0.0
 30
0.0
  3
_DOT
  1
_DOT
  0
POLYLINE
  5
576C
330
4E
100
AcDbEntity
  8
0
  6
ByBlock
 62
     0
370
    -2
390
1D
100
AcDb2dPolyline
 66
     1
 10
0.0
 20
0.0
 30
0.0
 70
     1
 40
0.5
 41
0.5
  0
VERTEX
  5
576D
330
576C
100
AcDbEntity
  8
0
  6
ByBlock
 62
     0
370
    -2
390
1D
100
AcDbVertex
100
AcDb2dVertex
 10
-0.25
 20
0.0
 30
0.0
 42
1.0
  0
VERTEX
  5
576E
330
576C
100
AcDbEntity
  8
0
  6
ByBlock
 62
     0
370
    -2
390
1D
100
AcDbVertex
100
AcDb2dVertex
 10
0.25
 20
0.0
 30
0.0
 42
1.0
  0
SEQEND
  5
576F
330
576C
100
AcDbEntity
  8
0
390
1D
  0
LINE
  5
5770
330
4E
100
AcDbEntity
  8
0
  6
ByBlock
 62
     0
370
    -2
390
1D
100
AcDbLine
 10
-0.5
 20
0.0
 30
0.0
 11
-1.0
 21
0.0
 31
0.0
  0
ENDBLK
  5
5771
330
4E
100
AcDbEntity
  8
0
390
1D
100
AcDbBlockEnd
  0
BLOCK
  5
691
330
690
100
AcDbEntity
  8
0
100
AcDbBlockBegin
  2
block 3
 70
     0
 10
0.0
 20
0.0
 30
0.0
  3
block 3
  1
block 3
  0
INSERT
  5
692
330
690
100
AcDbEntity
  8
レイヤー 1
100
AcDbBlockReference
  2
block 4
 10
0.0
 20
0.0
 30
0.0
  0
ENDBLK
  5
6AF
330
690
100
AcDbEntity
  8
0
100
AcDbBlockEnd
  0
BLOCK
  5
694
330
693
100
AcDbEntity
  8
0
100
AcDbBlockBegin
  2
block 4
 70
     0
 10
0.0
 20
0.0
 30
0.0
  3
block 4
  1
block 4
  0
POLYLINE
  5
695
330
693
100
AcDbEntity
  8
レイヤー 1
370
     0
100
AcDb2dPolyline
 66
     1
 10
0.0
 20
0.0
 30
0.0
  0
VERTEX
  5
696
330
695
100
AcDbEntity
  8
レイヤー 1
370
     0
100
AcDbVertex
100
AcDb2dVertex
 10
83.79545727667795
 20
167.6444858234922
 30
0.0
  0
VERTEX
  5
697
330
695
100
AcDbEntity
  8
レイヤー 1
370
     0
100
AcDbVertex
100
AcDb2dVertex
 10
83.79545727667795
 20
159.7968976406313
 30
0.0
  0
VERTEX
  5
698
330
695
100
AcDbEntity
  8
レイヤー 1
370
     0
100
AcDbVertex
100
AcDb2dVertex
 10
71.3631329975216
 20
159.7968976406313
 30
0.0
  0
VERTEX
  5
699
330
695
100
AcDbEntity
  8
レイヤー 1
370
     0
100
AcDbVertex
100
AcDb2dVertex
 10
71.3631329975216
 20
127.8027915271048
 30
0.0
  0
VERTEX
  5
69A
330
695
100
AcDbEntity
  8
レイヤー 1
370
     0
100
AcDbVertex
100
AcDb2dVertex
 10
60.43011526263018
 20
127.8027915271048
 30
0.0
  0
VERTEX
  5
69B
330
695
100
AcDbEntity
  8
レイヤー 1
370
     0
100
AcDbVertex
100
AcDb2dVertex
 10
60.43011526263018
 20
159.7968976406313
 30
0.0
  0
VERTEX
  5
69C
330
695
100
AcDbEntity
  8
レイヤー 1
370
     0
100
AcDbVertex
100
AcDb2dVertex
 10
48.21793273020759
 20
159.7968976406313
 30
0.0
  0
VERTEX
  5
69D
330
695
100
AcDbEntity
  8
レイヤー 1
370
     0
100
AcDbVertex
100
AcDb2dVertex
 10
48.21793273020759
 20
167.6444858234922
 30
0.0
  0
VERTEX
  5
69E
330
695
100
AcDbEntity
  8
レイヤー 1
370
     0
100
AcDbVertex
100
AcDb2dVertex
 10
83.79545727667795
 20
167.6444858234922
 30
0.0
  0
SEQEND
  5
69F
330
695
100
AcDbEntity
  8
レイヤー 1
370
     0
  0
HATCH
  5
6A0
330
693
100
AcDbEntity
  8
レイヤー 1
 62
   250
420
  2234388
100
AcDbHatch
 10
0.0
 20
0.0
 30
0.0
210
0.0
220
0.0
230
1.0
  2
SOLID
 70
     1
 71
     0
 91
        1
 92
        1
 93
        8
 72
     1
 10
83.79545727667795
 20
167.6444858234922
 11
83.79545727667795
 21
159.7968976406313
 72
     1
 10
83.79545727667795
 20
159.7968976406313
 11
71.3631329975216
 21
159.7968976406313
 72
     1
 10
71.3631329975216
 20
159.7968976406313
 11
71.3631329975216
 21
127.8027915271048
 72
     1
 10
71.3631329975216
 20
127.8027915271048
 11
60.43011526263018
 21
127.8027915271048
 72
     1
 10
60.43011526263018
 20
127.8027915271048
 11
60.43011526263018
 21
159.7968976406313
 72
     1
 10
60.43011526263018
 20
159.7968976406313
 11
48.21793273020759
 21
159.7968976406313
 72
     1
 10
48.21793273020759
 20
159.7968976406313
 11
48.21793273020759
 21
167.6444858234922
 72
     1
 10
48.21793273020759
 20
167.6444858234922
 11
83.79545727667795
 21
167.6444858234922
 97
        0
 75
     2
 76
     1
 98
        0
  0
INSERT
  5
6A1
330
693
100
AcDbEntity
  8
レイヤー 1
100
AcDbBlockReference
  2
block 5
 10
0.0
 20
0.0
 30
0.0
  0
ENDBLK
  5
6AE
330
693
100
AcDbEntity
  8
0
100
AcDbBlockEnd
  0
BLOCK
  5
6A3
330
6A2
100
AcDbEntity
  8
0
100
AcDbBlockBegin
  2
block 5
 70
     0
 10
0.0
 20
0.0
 30
0.0
  3
block 5
  1
block 5
  0
SPLINE
  5
6A4
330
6A2
100
AcDbEntity
  8
レイヤー 1
370
     0
100
AcDbSpline
210
0.0
220
0.0
230
1.0
 70
    11
 71
     3
 72
    56
 73
    52
 74
     0
 42
0.000000001
 43
0.0000000001
 40
0.0
 40
0.0
 40
0.0
 40
0.0
 40
1.0
 40
1.0
 40
1.0
 40
2.0
 40
2.0
 40
2.0
 40
3.0
 40
3.0
 40
3.0
 40
4.0
 40
4.0
 40
4.0
 40
5.0
 40
5.0
 40
5.0
 40
6.0
 40
6.0
 40
6.0
 40
7.0
 40
7.0
 40
7.0
 40
8.0
 40
8.0
 40
8.0
 40
9.0
 40
9.0
 40
9.0
 40
10.0
 40
10.0
 40
10.0
 40
11.0
 40
11.0
 40
11.0
 40
12.0
 40
12.0
 40
12.0
 40
13.0
 40
13.0
 40
13.0
 40
14.0
 40
14.0
 40
14.0
 40
15.0
 40
15.0
 40
15.0
 40
16.0
 40
16.0
 40
16.0
 40
17.0
 40
17.0
 40
17.0
 40
17.0
 10
100.4504378777679
 20
166.69157178364
 30
0.0
 10
101.9848844191641
 20
167.1313385124438
 30
0.0
 10
103.9637485713373
 20
166.7649523658846
 30
0.0
 10
103.9637485713373
 20
166.7649523658846
 30
0.0
 10
103.9637485713373
 20
166.7649523658846
 30
0.0
 10
103.0132460999156
 20
163.911205638077
 30
0.0
 10
103.0132460999156
 20
163.911205638077
 30
0.0
 10
103.0132460999156
 20
163.911205638077
 30
0.0
 10
101.0674548862189
 20
164.3601018759394
 30
0.0
 10
99.57090442016032
 20
163.1805004036133
 30
0.0
 10
98.40508333886608
 20
162.258247733807
 30
0.0
 10
97.65301849830304
 20
159.804132345923
 30
0.0
 10
97.3598406791005
 20
158.8699940888517
 30
0.0
 10
97.3598406791005
 20
158.8699940888517
 30
0.0
 10
96.07137411762282
 20
154.9119212747295
 30
0.0
 10
96.07137411762282
 20
154.9119212747295
 30
0.0
 10
96.07137411762282
 20
154.9119212747295
 30
0.0
 10
100.3012651448482
 20
154.9119212747295
 30
0.0
 10
100.3012651448482
 20
154.9119212747295
 30
0.0
 10
100.3012651448482
 20
154.9119212747295
 30
0.0
 10
99.64152892419852
 20
152.4199098115079
 30
0.0
 10
99.64152892419852
 20
152.4199098115079
 30
0.0
 10
99.64152892419852
 20
152.4199098115079
 30
0.0
 10
95.38097652692731
 20
152.4199098115079
 30
0.0
 10
95.38097652692731
 20
152.4199098115079
 30
0.0
 10
95.38097652692731
 20
152.4199098115079
 30
0.0
 10
87.75353009080013
 20
127.8027915271048
 30
0.0
 10
87.75353009080013
 20
127.8027915271048
 30
0.0
 10
87.75353009080013
 20
127.8027915271048
 30
0.0
 10
85.36538832498108
 20
127.8027915271048
 30
0.0
 10
85.36538832498108
 20
127.8027915271048
 30
0.0
 10
85.36538832498108
 20
127.8027915271048
 30
0.0
 10
93.00006946639998
 20
152.4199098115079
 30
0.0
 10
93.00006946639998
 20
152.4199098115079
 30
0.0
 10
93.00006946639998
 20
152.4199098115079
 30
0.0
 10
89.85297266450198
 20
152.4199098115079
 30
0.0
 10
89.85297266450198
 20
152.4199098115079
 30
0.0
 10
89.85297266450198
 20
152.4199098115079
 30
0.0
 10
90.51270888515164
 20
154.9119212747295
 30
0.0
 10
90.51270888515164
 20
154.9119212747295
 30
0.0
 10
90.51270888515164
 20
154.9119212747295
 30
0.0
 10
93.6904670570955
 20
154.9119212747295
 30
0.0
 10
93.6904670570955
 20
154.9119212747295
 30
0.0
 10
93.6904670570955
 20
154.9119212747295
 30
0.0
 10
94.81598049462158
 20
158.3616699146644
 30
0.0
 10
94.81598049462158
 20
158.3616699146644
 30
0.0
 10
95.7237637538445
 20
161.2605474231013
 30
0.0
 10
96.4968436907311
 20
162.8139420021662
 30
0.0
 10
97.15657991138076
 20
163.9844139654337
 30
0.0
 10
97.81183750494507
 20
165.1523021053827
 30
0.0
 10
99.1047826935081
 20
166.3084769129547
 30
0.0
 10
100.4504378777679
 20
166.69157178364
 30
0.0
  0
HATCH
  5
6A5
330
6A2
100
AcDbEntity
  8
レイヤー 1
 62
   250
420
  2234388
100
AcDbHatch
 10
0.0
 20
0.0
 30
0.0
210
0.0
220
0.0
230
1.0
  2
SOLID
 70
     1
 71
     0
 91
        1
 92
        1
 93
        1
 72
     4
 94
        3
 73
     0
 74
     1
 95
       56
 96
       52
 40
0.0
 40
0.0
 40
0.0
 40
0.0
 40
1.0
 40
1.0
 40
1.0
 40
2.0
 40
2.0
 40
2.0
 40
3.0
 40
3.0
 40
3.0
 40
4.0
 40
4.0
 40
4.0
 40
5.0
 40
5.0
 40
5.0
 40
6.0
 40
6.0
 40
6.0
 40
7.0
 40
7.0
 40
7.0
 40
8.0
 40
8.0
 40
8.0
 40
9.0
 40
9.0
 40
9.0
 40
10.0
 40
10.0
 40
10.0
 40
11.0
 40
11.0
 40
11.0
 40
12.0
 40
12.0
 40
12.0
 40
13.0
 40
13.0
 40
13.0
 40
14.0
 40
14.0
 40
14.0
 40
15.0
 40
15.0
 40
15.0
 40
16.0
 40
16.0
 40
16.0
 40
17.0
 40
17.0
 40
17.0
 40
17.0
 10
100.4504378777679
 20
166.69157178364
 10
101.9848844191641
 20
167.1313385124438
 10
103.9637485713373
 20
166.7649523658846
 10
103.9637485713373
 20
166.7649523658846
 10
103.9637485713373
 20
166.7649523658846
 10
103.0132460999156
 20
163.911205638077
 10
103.0132460999156
 20
163.911205638077
 10
103.0132460999156
 20
163.911205638077
 10
101.0674548862189
 20
164.3601018759394
 10
99.57090442016032
 20
163.1805004036133
 10
98.40508333886608
 20
162.258247733807
 10
97.65301849830304
 20
159.804132345923
 10
97.3598406791005
 20
158.8699940888517
 10
97.3598406791005
 20
158.8699940888517
 10
96.07137411762282
 20
154.9119212747295
 10
96.07137411762282
 20
154.9119212747295
 10
96.07137411762282
 20
154.9119212747295
 10
100.3012651448482
 20
154.9119212747295
 10
100.3012651448482
 20
154.9119212747295
 10
100.3012651448482
 20
154.9119212747295
 10
99.64152892419852
 20
152.4199098115079
 10
99.64152892419852
 20
152.4199098115079
 10
99.64152892419852
 20
152.4199098115079
 10
95.38097652692731
 20
152.4199098115079
 10
95.38097652692731
 20
152.4199098115079
 10
95.38097652692731
 20
152.4199098115079
 10
87.75353009080013
 20
127.8027915271048
 10
87.75353009080013
 20
127.8027915271048
 10
87.75353009080013
 20
127.8027915271048
 10
85.36538832498108
 20
127.8027915271048
 10
85.36538832498108
 20
127.8027915271048
 10
85.36538832498108
 20
127.8027915271048
 10
93.00006946639998
 20
152.4199098115079
 10
93.00006946639998
 20
152.4199098115079
 10
93.00006946639998
 20
152.4199098115079
 10
89.85297266450198
 20
152.4199098115079
 10
89.85297266450198
 20
152.4199098115079
 10
89.85297266450198
 20
152.4199098115079
 10
90.51270888515164
 20
154.9119212747295
 10
90.51270888515164
 20
154.9119212747295
 10
90.51270888515164
 20
154.9119212747295
 10
93.6904670570955
 20
154.9119212747295
 10
93.6904670570955
 20
154.9119212747295
 10
93.6904670570955
 20
154.9119212747295
 10
94.81598049462158
 20
158.3616699146644
 10
94.81598049462158
 20
158.3616699146644
 10
95.7237637538445
 20
161.2605474231013
 10
96.4968436907311
 20
162.8139420021662
 10
97.15657991138076
 20
163.9844139654337
 10
97.81183750494507
 20
165.1523021053827
 10
99.1047826935081
 20
166.3084769129547
 10
100.4504378777679
 20
166.69157178364
 97
        0
 75
     2
 76
     1
 98
        0
  0
SPLINE
  5
6A6
330
6A2
100
AcDbEntity
  8
レイヤー 1
370
     0
100
AcDbSpline
210
0.0
220
0.0
230
1.0
 70
    11
 71
     3
 72
    38
 73
    34
 74
     0
 42
0.000000001
 43
0.0000000001
 40
0.0
 40
0.0
 40
0.0
 40
0.0
 40
1.0
 40
1.0
 40
1.0
 40
2.0
 40
2.0
 40
2.0
 40
3.0
 40
3.0
 40
3.0
 40
4.0
 40
4.0
 40
4.0
 40
5.0
 40
5.0
 40
5.0
 40
6.0
 40
6.0
 40
6.0
 40
7.0
 40
7.0
 40
7.0
 40
8.0
 40
8.0
 40
8.0
 40
9.0
 40
9.0
 40
9.0
 40
10.0
 40
10.0
 40
10.0
 40
11.0
 40
11.0
 40
11.0
 40
11.0
 10
126.377554584636
 20
154.8151140277308
 30
0.0
 10
126.377554584636
 20
154.8151140277308
 30
0.0
 10
128.8311532078563
 20
154.8151140277308
 30
0.0
 10
128.8311532078563
 20
154.8151140277308
 30
0.0
 10
128.8311532078563
 20
154.8151140277308
 30
0.0
 10
127.7345785914971
 20
151.3062819612468
 30
0.0
 10
127.7345785914971
 20
151.3062819612468
 30
0.0
 10
128.571392836906
 20
152.2922689395754
 30
0.0
 10
129.8860421413442
 20
153.604506675583
 30
0.0
 10
131.0163787157314
 20
154.2664822097754
 30
0.0
 10
132.7044766171327
 20
155.2500576196734
 30
0.0
 10
133.6642808525008
 20
155.3847609420097
 30
0.0
 10
134.7284715499351
 20
155.3565111403944
 30
0.0
 10
134.7284715499351
 20
155.3565111403944
 30
0.0
 10
133.6877075172549
 20
152.0345756272799
 30
0.0
 10
133.6877075172549
 20
152.0345756272799
 30
0.0
 10
133.011434827367
 20
152.3184516825359
 30
0.0
 10
130.930940291334
 20
151.7768823149844
 30
0.0
 10
129.739280976855
 20
150.9162968950455
 30
0.0
 10
128.66613302525
 20
150.1454562717016
 30
0.0
 10
127.9192358313239
 20
149.4857200510519
 30
0.0
 10
127.0393578639405
 20
147.8282835196966
 30
0.0
 10
126.164647543194
 20
146.1699857139017
 30
0.0
 10
125.4742499524985
 20
143.5262176944419
 30
0.0
 10
124.2822461282437
 20
139.6959580071401
 30
0.0
 10
124.2822461282437
 20
139.6959580071401
 30
0.0
 10
120.5753209406769
 20
127.8027915271048
 30
0.0
 10
120.5753209406769
 20
127.8027915271048
 30
0.0
 10
120.5753209406769
 20
127.8027915271048
 30
0.0
 10
118.1964809388044
 20
127.8027915271048
 30
0.0
 10
118.1964809388044
 20
127.8027915271048
 30
0.0
 10
118.1964809388044
 20
127.8027915271048
 30
0.0
 10
126.377554584636
 20
154.8151140277308
 30
0.0
 10
126.377554584636
 20
154.8151140277308
 30
0.0
  0
HATCH
  5
6A7
330
6A2
100
AcDbEntity
  8
レイヤー 1
 62
   250
420
  2234388
100
AcDbHatch
 10
0.0
 20
0.0
 30
0.0
210
0.0
220
0.0
230
1.0
  2
SOLID
 70
     1
 71
     0
 91
        1
 92
        1
 93
        1
 72
     4
 94
        3
 73
     0
 74
     1
 95
       38
 96
       34
 40
0.0
 40
0.0
 40
0.0
 40
0.0
 40
1.0
 40
1.0
 40
1.0
 40
2.0
 40
2.0
 40
2.0
 40
3.0
 40
3.0
 40
3.0
 40
4.0
 40
4.0
 40
4.0
 40
5.0
 40
5.0
 40
5.0
 40
6.0
 40
6.0
 40
6.0
 40
7.0
 40
7.0
 40
7.0
 40
8.0
 40
8.0
 40
8.0
 40
9.0
 40
9.0
 40
9.0
 40
10.0
 40
10.0
 40
10.0
 40
11.0
 40
11.0
 40
11.0
 40
11.0
 10
126.377554584636
 20
154.8151140277308
 10
126.377554584636
 20
154.8151140277308
 10
128.8311532078563
 20
154.8151140277308
 10
128.8311532078563
 20
154.8151140277308
 10
128.8311532078563
 20
154.8151140277308
 10
127.7345785914971
 20
151.3062819612468
 10
127.7345785914971
 20
151.3062819612468
 10
128.571392836906
 20
152.2922689395754
 10
129.8860421413442
 20
153.604506675583
 10
131.0163787157314
 20
154.2664822097754
 10
132.7044766171327
 20
155.2500576196734
 10
133.6642808525008
 20
155.3847609420097
 10
134.7284715499351
 20
155.3565111403944
 10
134.7284715499351
 20
155.3565111403944
 10
133.6877075172549
 20
152.0345756272799
 10
133.6877075172549
 20
152.0345756272799
 10
133.011434827367
 20
152.3184516825359
 10
130.930940291334
 20
151.7768823149844
 10
129.739280976855
 20
150.9162968950455
 10
128.66613302525
 20
150.1454562717016
 10
127.9192358313239
 20
149.4857200510519
 10
127.0393578639405
 20
147.8282835196966
 10
126.164647543194
 20
146.1699857139017
 10
125.4742499524985
 20
143.5262176944419
 10
124.2822461282437
 20
139.6959580071401
 10
124.2822461282437
 20
139.6959580071401
 10
120.5753209406769
 20
127.8027915271048
 10
120.5753209406769
 20
127.8027915271048
 10
120.5753209406769
 20
127.8027915271048
 10
118.1964809388044
 20
127.8027915271048
 10
118.1964809388044
 20
127.8027915271048
 10
118.1964809388044
 20
127.8027915271048
 10
126.377554584636
 20
154.8151140277308
 10
126.377554584636
 20
154.8151140277308
 97
        0
 75
     2
 76
     1
 98
        0
  0
SPLINE
  5
6A8
330
6A2
100
AcDbEntity
  8
レイヤー 1
370
     0
100
AcDbSpline
210
0.0
220
0.0
230
1.0
 70
    11
 71
     3
 72
   104
 73
   100
 74
     0
 42
0.000000001
 43
0.0000000001
 40
0.0
 40
0.0
 40
0.0
 40
0.0
 40
1.0
 40
1.0
 40
1.0
 40
2.0
 40
2.0
 40
2.0
 40
3.0
 40
3.0
 40
3.0
 40
4.0
 40
4.0
 40
4.0
 40
5.0
 40
5.0
 40
5.0
 40
6.0
 40
6.0
 40
6.0
 40
7.0
 40
7.0
 40
7.0
 40
8.0
 40
8.0
 40
8.0
 40
9.0
 40
9.0
 40
9.0
 40
10.0
 40
10.0
 40
10.0
 40
11.0
 40
11.0
 40
11.0
 40
12.0
 40
12.0
 40
12.0
 40
13.0
 40
13.0
 40
13.0
 40
14.0
 40
14.0
 40
14.0
 40
15.0
 40
15.0
 40
15.0
 40
16.0
 40
16.0
 40
16.0
 40
17.0
 40
17.0
 40
17.0
 40
18.0
 40
18.0
 40
18.0
 40
19.0
 40
19.0
 40
19.0
 40
20.0
 40
20.0
 40
20.0
 40
21.0
 40
21.0
 40
21.0
 40
22.0
 40
22.0
 40
22.0
 40
23.0
 40
23.0
 40
23.0
 40
24.0
 40
24.0
 40
24.0
 40
25.0
 40
25.0
 40
25.0
 40
26.0
 40
26.0
 40
26.0
 40
27.0
 40
27.0
 40
27.0
 40
28.0
 40
28.0
 40
28.0
 40
29.0
 40
29.0
 40
29.0
 40
30.0
 40
30.0
 40
30.0
 40
31.0
 40
31.0
 40
31.0
 40
32.0
 40
32.0
 40
32.0
 40
33.0
 40
33.0
 40
33.0
 40
33.0
 10
139.8926730891197
 20
154.8294111834263
 30
0.0
 10
139.8926730891197
 20
154.8294111834263
 30
0.0
 10
142.0344903652445
 20
154.8294111834263
 30
0.0
 10
142.0344903652445
 20
154.8294111834263
 30
0.0
 10
142.0344903652445
 20
154.8294111834263
 30
0.0
 10
140.9516961399171
 20
151.3157559800812
 30
0.0
 10
140.9516961399171
 20
151.3157559800812
 30
0.0
 10
141.8928968473923
 20
152.7887075264977
 30
0.0
 10
142.7341897198865
 20
153.4484437471474
 30
0.0
 10
143.8552245303272
 20
154.2926649527359
 30
0.0
 10
144.9803934580775
 20
155.1296514530327
 30
0.0
 10
146.3139908001845
 20
155.3044901642492
 30
0.0
 10
147.241066606852
 20
155.3044901642492
 30
0.0
 10
148.3855280820469
 20
155.3044901642492
 30
0.0
 10
149.4969166187653
 20
155.0752189084569
 30
0.0
 10
150.0784491203092
 20
153.8172414621372
 30
0.0
 10
150.5228667310863
 20
152.833838307127
 30
0.0
 10
150.5414702589793
 20
152.7201500811143
 30
0.0
 10
150.4140016419347
 20
150.7765981809602
 30
0.0
 10
151.5818897818837
 20
152.7699317437168
 30
0.0
 10
152.4424752018226
 20
153.6256940267945
 30
0.0
 10
153.9038856707499
 20
154.4507949398263
 30
0.0
 10
155.4455669174378
 20
155.3044901642492
 30
0.0
 10
156.339225275853
 20
155.3659851592288
 30
0.0
 10
157.3748216618963
 20
155.2147453676543
 30
0.0
 10
158.911679771723
 20
154.9877134254046
 30
0.0
 10
159.8859534176746
 20
154.4390816074493
 30
0.0
 10
160.3965169054045
 20
152.7816450760939
 30
0.0
 10
160.9070803931344
 20
151.1219692311958
 30
0.0
 10
160.6328506116007
 20
150.2303779314354
 30
0.0
 10
159.9992971339115
 20
147.597634224801
 30
0.0
 10
159.7105979417943
 20
146.4014962832367
 30
0.0
 10
159.2947746424084
 20
144.9400858143094
 30
0.0
 10
158.7463150793409
 20
143.2092687007094
 30
0.0
 10
158.7463150793409
 20
143.2092687007094
 30
0.0
 10
153.9038856707499
 20
127.8027915271048
 30
0.0
 10
153.9038856707499
 20
127.8027915271048
 30
0.0
 10
153.9038856707499
 20
127.8027915271048
 30
0.0
 10
151.3882752878863
 20
127.8027915271048
 30
0.0
 10
151.3882752878863
 20
127.8027915271048
 30
0.0
 10
151.3882752878863
 20
127.8027915271048
 30
0.0
 10
155.6250565106276
 20
141.2751908193897
 30
0.0
 10
155.6250565106276
 20
141.2751908193897
 30
0.0
 10
156.5094131050963
 20
144.0936252951782
 30
0.0
 10
157.109893644309
 20
146.1506931664571
 30
0.0
 10
157.4220195011804
 20
147.4415712963654
 30
0.0
 10
157.8095929989511
 20
149.0530157726519
 30
0.0
 10
157.9656559273867
 20
149.5826995529385
 30
0.0
 10
157.7816877071116
 20
150.7529992613181
 30
0.0
 10
157.6111553680925
 20
151.8430281919372
 30
0.0
 10
157.0582171779396
 20
152.5547853887321
 30
0.0
 10
156.1170164704645
 20
152.5547853887321
 30
0.0
 10
155.1096698860365
 20
152.5547853887321
 30
0.0
 10
154.2962823053817
 20
152.4412694176073
 30
0.0
 10
153.156643967048
 20
151.2945686288697
 30
0.0
 10
152.0170056287143
 20
150.1476955852443
 30
0.0
 10
151.076149431015
 20
148.7930831468137
 30
0.0
 10
150.3337308641742
 20
147.2290087646991
 30
0.0
 10
149.5957909244188
 20
145.6683794803425
 30
0.0
 10
148.8530278478023
 20
143.6822806228776
 30
0.0
 10
148.0964843801539
 20
141.2751908193897
 30
0.0
 10
148.0964843801539
 20
141.2751908193897
 30
0.0
 10
143.8552245303272
 20
127.8027915271048
 30
0.0
 10
143.8552245303272
 20
127.8027915271048
 30
0.0
 10
143.8552245303272
 20
127.8027915271048
 30
0.0
 10
141.486030802177
 20
127.8027915271048
 30
0.0
 10
141.486030802177
 20
127.8027915271048
 30
0.0
 10
141.486030802177
 20
127.8027915271048
 30
0.0
 10
146.3329388378533
 20
143.2092687007094
 30
0.0
 10
146.3329388378533
 20
143.2092687007094
 30
0.0
 10
146.8483254624444
 20
144.8408669988801
 30
0.0
 10
147.2314203331297
 20
146.1837661049335
 30
0.0
 10
147.4867020769946
 20
147.224185627838
 30
0.0
 10
147.9169947869641
 20
149.0197705792876
 30
0.0
 10
148.0306830129768
 20
150.2400242051577
 30
0.0
 10
147.709255392159
 20
151.3157559800812
 30
0.0
 10
147.3874832615654
 20
152.3916600098926
 30
0.0
 10
146.8245542879144
 20
152.6683013598569
 30
0.0
 10
145.8840425999909
 20
152.6683013598569
 30
0.0
 10
145.0989048209514
 20
152.6683013598569
 30
0.0
 10
144.3282364524954
 20
152.3275811915945
 30
0.0
 10
143.4531816219731
 20
151.6538923250251
 30
0.0
 10
142.34627171234
 20
150.8074318058939
 30
0.0
 10
141.901854101563
 20
150.1097995099067
 30
0.0
 10
141.3578731655808
 20
149.289521733736
 30
0.0
 10
140.6299240093235
 20
148.192602607601
 30
0.0
 10
140.2850697237515
 20
147.455696197173
 30
0.0
 10
139.6652966370942
 20
145.8385673095858
 30
0.0
 10
139.0506911970739
 20
144.2214384219986
 30
0.0
 10
138.463991048893
 20
142.3252566160164
 30
0.0
 10
138.0571250036777
 20
141.0154304484394
 30
0.0
 10
138.0571250036777
 20
141.0154304484394
 30
0.0
 10
133.9009590684727
 20
127.8027915271048
 30
0.0
 10
133.9009590684727
 20
127.8027915271048
 30
0.0
 10
133.9009590684727
 20
127.8027915271048
 30
0.0
 10
131.4180771143097
 20
127.8027915271048
 30
0.0
 10
131.4180771143097
 20
127.8027915271048
 30
0.0
 10
131.4180771143097
 20
127.8027915271048
 30
0.0
 10
139.8926730891197
 20
154.8294111834263
 30
0.0
 10
139.8926730891197
 20
154.8294111834263
 30
0.0
  0
HATCH
  5
6A9
330
6A2
100
AcDbEntity
  8
レイヤー 1
 62
   250
420
  2234388
100
AcDbHatch
 10
0.0
 20
0.0
 30
0.0
210
0.0
220
0.0
230
1.0
  2
SOLID
 70
     1
 71
     0
 91
        1
 92
        1
 93
        1
 72
     4
 94
        3
 73
     0
 74
     1
 95
      104
 96
      100
 40
0.0
 40
0.0
 40
0.0
 40
0.0
 40
1.0
 40
1.0
 40
1.0
 40
2.0
 40
2.0
 40
2.0
 40
3.0
 40
3.0
 40
3.0
 40
4.0
 40
4.0
 40
4.0
 40
5.0
 40
5.0
 40
5.0
 40
6.0
 40
6.0
 40
6.0
 40
7.0
 40
7.0
 40
7.0
 40
8.0
 40
8.0
 40
8.0
 40
9.0
 40
9.0
 40
9.0
 40
10.0
 40
10.0
 40
10.0
 40
11.0
 40
11.0
 40
11.0
 40
12.0
 40
12.0
 40
12.0
 40
13.0
 40
13.0
 40
13.0
 40
14.0
 40
14.0
 40
14.0
 40
15.0
 40
15.0
 40
15.0
 40
16.0
 40
16.0
 40
16.0
 40
17.0
 40
17.0
 40
17.0
 40
18.0
 40
18.0
 40
18.0
 40
19.0
 40
19.0
 40
19.0
 40
20.0
 40
20.0
 40
20.0
 40
21.0
 40
21.0
 40
21.0
 40
22.0
 40
22.0
 40
22.0
 40
23.0
 40
23.0
 40
23.0
 40
24.0
 40
24.0
 40
24.0
 40
25.0
 40
25.0
 40
25.0
 40
26.0
 40
26.0
 40
26.0
 40
27.0
 40
27.0
 40
27.0
 40
28.0
 40
28.0
 40
28.0
 40
29.0
 40
29.0
 40
29.0
 40
30.0
 40
30.0
 40
30.0
 40
31.0
 40
31.0
 40
31.0
 40
32.0
 40
32.0
 40
32.0
 40
33.0
 40
33.0
 40
33.0
 40
33.0
 10
139.8926730891197
 20
154.8294111834263
 10
139.8926730891197
 20
154.8294111834263
 10
142.0344903652445
 20
154.8294111834263
 10
142.0344903652445
 20
154.8294111834263
 10
142.0344903652445
 20
154.8294111834263
 10
140.9516961399171
 20
151.3157559800812
 10
140.9516961399171
 20
151.3157559800812
 10
141.8928968473923
 20
152.7887075264977
 10
142.7341897198865
 20
153.4484437471474
 10
143.8552245303272
 20
154.2926649527359
 10
144.9803934580775
 20
155.1296514530327
 10
146.3139908001845
 20
155.3044901642492
 10
147.241066606852
 20
155.3044901642492
 10
148.3855280820469
 20
155.3044901642492
 10
149.4969166187653
 20
155.0752189084569
 10
150.0784491203092
 20
153.8172414621372
 10
150.5228667310863
 20
152.833838307127
 10
150.5414702589793
 20
152.7201500811143
 10
150.4140016419347
 20
150.7765981809602
 10
151.5818897818837
 20
152.7699317437168
 10
152.4424752018226
 20
153.6256940267945
 10
153.9038856707499
 20
154.4507949398263
 10
155.4455669174378
 20
155.3044901642492
 10
156.339225275853
 20
155.3659851592288
 10
157.3748216618963
 20
155.2147453676543
 10
158.911679771723
 20
154.9877134254046
 10
159.8859534176746
 20
154.4390816074493
 10
160.3965169054045
 20
152.7816450760939
 10
160.9070803931344
 20
151.1219692311958
 10
160.6328506116007
 20
150.2303779314354
 10
159.9992971339115
 20
147.597634224801
 10
159.7105979417943
 20
146.4014962832367
 10
159.2947746424084
 20
144.9400858143094
 10
158.7463150793409
 20
143.2092687007094
 10
158.7463150793409
 20
143.2092687007094
 10
153.9038856707499
 20
127.8027915271048
 10
153.9038856707499
 20
127.8027915271048
 10
153.9038856707499
 20
127.8027915271048
 10
151.3882752878863
 20
127.8027915271048
 10
151.3882752878863
 20
127.8027915271048
 10
151.3882752878863
 20
127.8027915271048
 10
155.6250565106276
 20
141.2751908193897
 10
155.6250565106276
 20
141.2751908193897
 10
156.5094131050963
 20
144.0936252951782
 10
157.109893644309
 20
146.1506931664571
 10
157.4220195011804
 20
147.4415712963654
 10
157.8095929989511
 20
149.0530157726519
 10
157.9656559273867
 20
149.5826995529385
 10
157.7816877071116
 20
150.7529992613181
 10
157.6111553680925
 20
151.8430281919372
 10
157.0582171779396
 20
152.5547853887321
 10
156.1170164704645
 20
152.5547853887321
 10
155.1096698860365
 20
152.5547853887321
 10
154.2962823053817
 20
152.4412694176073
 10
153.156643967048
 20
151.2945686288697
 10
152.0170056287143
 20
150.1476955852443
 10
151.076149431015
 20
148.7930831468137
 10
150.3337308641742
 20
147.2290087646991
 10
149.5957909244188
 20
145.6683794803425
 10
148.8530278478023
 20
143.6822806228776
 10
148.0964843801539
 20
141.2751908193897
 10
148.0964843801539
 20
141.2751908193897
 10
143.8552245303272
 20
127.8027915271048
 10
143.8552245303272
 20
127.8027915271048
 10
143.8552245303272
 20
127.8027915271048
 10
141.486030802177
 20
127.8027915271048
 10
141.486030802177
 20
127.8027915271048
 10
141.486030802177
 20
127.8027915271048
 10
146.3329388378533
 20
143.2092687007094
 10
146.3329388378533
 20
143.2092687007094
 10
146.8483254624444
 20
144.8408669988801
 10
147.2314203331297
 20
146.1837661049335
 10
147.4867020769946
 20
147.224185627838
 10
147.9169947869641
 20
149.0197705792876
 10
148.0306830129768
 20
150.2400242051577
 10
147.709255392159
 20
151.3157559800812
 10
147.3874832615654
 20
152.3916600098926
 10
146.8245542879144
 20
152.6683013598569
 10
145.8840425999909
 20
152.6683013598569
 10
145.0989048209514
 20
152.6683013598569
 10
144.3282364524954
 20
152.3275811915945
 10
143.4531816219731
 20
151.6538923250251
 10
142.34627171234
 20
150.8074318058939
 10
141.901854101563
 20
150.1097995099067
 10
141.3578731655808
 20
149.289521733736
 10
140.6299240093235
 20
148.192602607601
 10
140.2850697237515
 20
147.455696197173
 10
139.6652966370942
 20
145.8385673095858
 10
139.0506911970739
 20
144.2214384219986
 10
138.463991048893
 20
142.3252566160164
 10
138.0571250036777
 20
141.0154304484394
 10
138.0571250036777
 20
141.0154304484394
 10
133.9009590684727
 20
127.8027915271048
 10
133.9009590684727
 20
127.8027915271048
 10
133.9009590684727
 20
127.8027915271048
 10
131.4180771143097
 20
127.8027915271048
 10
131.4180771143097
 20
127.8027915271048
 10
131.4180771143097
 20
127.8027915271048
 10
139.8926730891197
 20
154.8294111834263
 10
139.8926730891197
 20
154.8294111834263
 97
        0
 75
     2
 76
     1
 98
        0
  0
SPLINE
  5
6AA
330
6A2
100
AcDbEntity
  8
レイヤー 1
370
     0
100
AcDbSpline
210
0.0
220
0.0
230
1.0
 70
    11
 71
     3
 72
    29
 73
    25
 74
     0
 42
0.000000001
 43
0.0000000001
 40
0.0
 40
0.0
 40
0.0
 40
0.0
 40
1.0
 40
1.0
 40
1.0
 40
2.0
 40
2.0
 40
2.0
 40
3.0
 40
3.0
 40
3.0
 40
4.0
 40
4.0
 40
4.0
 40
5.0
 40
5.0
 40
5.0
 40
6.0
 40
6.0
 40
6.0
 40
7.0
 40
7.0
 40
7.0
 40
8.0
 40
8.0
 40
8.0
 40
8.0
 10
101.6420971922469
 20
132.8388354296931
 30
0.0
 10
101.630039350094
 20
134.7164137077823
 30
0.0
 10
102.2236296937908
 20
138.0598810818841
 30
0.0
 10
103.7487744712405
 20
142.5378191476827
 30
0.0
 10
105.819967243327
 20
148.5896501242061
 30
0.0
 10
107.0602024361932
 20
150.8074318058939
 30
0.0
 10
108.1522984254671
 20
151.8833358357054
 30
0.0
 10
109.741177511439
 20
153.4532668840085
 30
0.0
 10
111.8740375333931
 20
153.5290590346837
 30
0.0
 10
112.5075910110823
 20
153.4532668840085
 30
0.0
 10
113.4012493694975
 20
153.3490526768302
 30
0.0
 10
114.6683563248758
 20
152.7580461564518
 30
0.0
 10
114.7493161221879
 20
150.7838328862519
 30
0.0
 10
114.8106388622796
 20
149.0909118479895
 30
0.0
 10
114.3186789024427
 20
145.9191825971221
 30
0.0
 10
112.6164561002338
 20
140.9489400617108
 30
0.0
 10
110.6444821435766
 20
135.1746117095912
 30
0.0
 10
109.4669477299053
 20
132.8960240524753
 30
0.0
 10
108.5212683953448
 20
131.9072809959403
 30
0.0
 10
106.7346406980658
 20
130.0538184021569
 30
0.0
 10
104.8222669326213
 20
130.2336525051225
 30
0.0
 10
104.5408024457958
 20
130.2336525051225
 30
0.0
 10
104.1721769856939
 20
130.2336525051225
 30
0.0
 10
101.6465758193322
 20
130.6305277668397
 30
0.0
 10
101.6420971922469
 20
132.8388354296931
 30
0.0
  0
SPLINE
  5
6AB
330
6A2
100
AcDbEntity
  8
レイヤー 1
370
     0
100
AcDbSpline
210
0.0
220
0.0
230
1.0
 70
    11
 71
     3
 72
    32
 73
    28
 74
     0
 42
0.000000001
 43
0.0000000001
 40
0.0
 40
0.0
 40
0.0
 40
0.0
 40
1.0
 40
1.0
 40
1.0
 40
2.0
 40
2.0
 40
2.0
 40
3.0
 40
3.0
 40
3.0
 40
4.0
 40
4.0
 40
4.0
 40
5.0
 40
5.0
 40
5.0
 40
6.0
 40
6.0
 40
6.0
 40
7.0
 40
7.0
 40
7.0
 40
8.0
 40
8.0
 40
8.0
 40
9.0
 40
9.0
 40
9.0
 40
9.0
 10
106.2595617172429
 20
153.4105476718098
 30
0.0
 10
104.8222669326213
 20
151.5474388043041
 30
0.0
 10
103.7177685914188
 20
149.8758773721411
 30
0.0
 10
101.9232171692965
 20
144.6141795664062
 30
0.0
 10
100.2754269116635
 20
139.7999999594306
 30
0.0
 10
99.22777268346732
 20
136.3052927937542
 30
0.0
 10
99.06964269637689
 20
132.039572749846
 30
0.0
 10
98.94665270641765
 20
128.8673267343149
 30
0.0
 10
100.8807305877373
 20
127.8027915271048
 30
0.0
 10
103.7129454545577
 20
127.8027915271048
 30
0.0
 10
104.9352661390825
 20
127.8027915271048
 30
0.0
 10
108.0151835347002
 20
127.8827177950895
 30
0.0
 10
110.2045431598849
 20
130.5926316915021
 30
0.0
 10
111.7417457794874
 20
132.4984597712065
 30
0.0
 10
113.155269389579
 20
134.475256864725
 30
0.0
 10
115.0562743324223
 20
140.9489400617108
 30
0.0
 10
116.6361961642235
 20
146.3680788349845
 30
0.0
 10
117.7282921534974
 20
149.8639917848761
 30
0.0
 10
117.6480213757369
 20
151.8595646611754
 30
0.0
 10
117.6480213757369
 20
151.8595646611754
 30
0.0
 10
117.6480213757369
 20
151.8595646611754
 30
0.0
 10
117.6480213757369
 20
151.8595646611754
 30
0.0
 10
117.13229024137
 20
155.18150017429
 30
0.0
 10
114.7162431837115
 20
155.886194920681
 30
0.0
 10
113.3351034925446
 20
155.886194920681
 30
0.0
 10
111.9829026225447
 20
155.886194920681
 30
0.0
 10
108.3414342923792
 20
156.1251124501957
 30
0.0
 10
106.2595617172429
 20
153.4105476718098
 30
0.0
  0
HATCH
  5
6AC
330
6A2
100
AcDbEntity
  8
レイヤー 1
 62
   250
420
  2234388
100
AcDbHatch
 10
0.0
 20
0.0
 30
0.0
210
0.0
220
0.0
230
1.0
  2
SOLID
 70
     1
 71
     0
 91
        2
 92
        1
 93
        1
 72
     4
 94
        3
 73
     0
 74
     1
 95
       29
 96
       25
 40
0.0
 40
0.0
 40
0.0
 40
0.0
 40
1.0
 40
1.0
 40
1.0
 40
2.0
 40
2.0
 40
2.0
 40
3.0
 40
3.0
 40
3.0
 40
4.0
 40
4.0
 40
4.0
 40
5.0
 40
5.0
 40
5.0
 40
6.0
 40
6.0
 40
6.0
 40
7.0
 40
7.0
 40
7.0
 40
8.0
 40
8.0
 40
8.0
 40
8.0
 10
101.6420971922469
 20
132.8388354296931
 10
101.630039350094
 20
134.7164137077823
 10
102.2236296937908
 20
138.0598810818841
 10
103.7487744712405
 20
142.5378191476827
 10
105.819967243327
 20
148.5896501242061
 10
107.0602024361932
 20
150.8074318058939
 10
108.1522984254671
 20
151.8833358357054
 10
109.741177511439
 20
153.4532668840085
 10
111.8740375333931
 20
153.5290590346837
 10
112.5075910110823
 20
153.4532668840085
 10
113.4012493694975
 20
153.3490526768302
 10
114.6683563248758
 20
152.7580461564518
 10
114.7493161221879
 20
150.7838328862519
 10
114.8106388622796
 20
149.0909118479895
 10
114.3186789024427
 20
145.9191825971221
 10
112.6164561002338
 20
140.9489400617108
 10
110.6444821435766
 20
135.1746117095912
 10
109.4669477299053
 20
132.8960240524753
 10
108.5212683953448
 20
131.9072809959403
 10
106.7346406980658
 20
130.0538184021569
 10
104.8222669326213
 20
130.2336525051225
 10
104.5408024457958
 20
130.2336525051225
 10
104.1721769856939
 20
130.2336525051225
 10
101.6465758193322
 20
130.6305277668397
 10
101.6420971922469
 20
132.8388354296931
 97
        0
 92
        1
 93
        1
 72
     4
 94
        3
 73
     0
 74
     1
 95
       32
 96
       28
 40
0.0
 40
0.0
 40
0.0
 40
0.0
 40
1.0
 40
1.0
 40
1.0
 40
2.0
 40
2.0
 40
2.0
 40
3.0
 40
3.0
 40
3.0
 40
4.0
 40
4.0
 40
4.0
 40
5.0
 40
5.0
 40
5.0
 40
6.0
 40
6.0
 40
6.0
 40
7.0
 40
7.0
 40
7.0
 40
8.0
 40
8.0
 40
8.0
 40
9.0
 40
9.0
 40
9.0
 40
9.0
 10
106.2595617172429
 20
153.4105476718098
 10
104.8222669326213
 20
151.5474388043041
 10
103.7177685914188
 20
149.8758773721411
 10
101.9232171692965
 20
144.6141795664062
 10
100.2754269116635
 20
139.7999999594306
 10
99.22777268346732
 20
136.3052927937542
 10
99.06964269637689
 20
132.039572749846
 10
98.94665270641765
 20
128.8673267343149
 10
100.8807305877373
 20
127.8027915271048
 10
103.7129454545577
 20
127.8027915271048
 10
104.9352661390825
 20
127.8027915271048
 10
108.0151835347002
 20
127.8827177950895
 10
110.2045431598849
 20
130.5926316915021
 10
111.7417457794874
 20
132.4984597712065
 10
113.155269389579
 20
134.475256864725
 10
115.0562743324223
 20
140.9489400617108
 10
116.6361961642235
 20
146.3680788349845
 10
117.7282921534974
 20
149.8639917848761
 10
117.6480213757369
 20
151.8595646611754
 10
117.6480213757369
 20
151.8595646611754
 10
117.6480213757369
 20
151.8595646611754
 10
117.6480213757369
 20
151.8595646611754
 10
117.13229024137
 20
155.18150017429
 10
114.7162431837115
 20
155.886194920681
 10
113.3351034925446
 20
155.886194920681
 10
111.9829026225447
 20
155.886194920681
 10
108.3414342923792
 20
156.1251124501957
 10
106.2595617172429
 20
153.4105476718098
 97
        0
 75
     2
 76
     1
 98
        0
  0
ENDBLK
  5
6AD
330
6A2
100
AcDbEntity
  8
0
100
AcDbBlockEnd
  0
BLOCK
  5
4A70
330
4A6F
100
AcDbEntity
  8
0
100
AcDbBlockBegin
  2
*D4
 70
     1
 10
0.0
 20
0.0
 30
0.0
  3
*D4
  1
*D201
  0
LINE
  5
4A72
330
4A6F
100
AcDbEntity
  8
寸法
  6
Continuous
 62
     0
370
    -2
100
AcDbLine
 10
95.2259869026101
 20
348.7335990428102
 30
0.0
 11
82.87297805716736
 21
348.7335990428102
 31
0.0
  0
LINE
  5
4A73
330
4A6F
100
AcDbEntity
  8
寸法
  6
Continuous
 62
     0
370
    -2
100
AcDbLine
 10
109.778355847345
 20
341.0341771438359
 30
0.0
 11
82.87297805716736
 21
341.0341771438359
 31
0.0
  0
LINE
  5
4A74
330
4A6F
100
AcDbEntity
  8
寸法
  6
Continuous
 62
     0
370
    -2
100
AcDbLine
 10
82.87297805716736
 20
347.2335990428102
 30
0.0
 11
82.87297805716736
 21
342.5341771438359
 31
0.0
  0
INSERT
  5
4A75
330
4A6F
100
AcDbEntity
  8
寸法
 62
     0
370
    -2
100
AcDbBlockReference
  2
_DOT
 10
82.87297805716736
 20
348.7335990428102
 30
0.0
 41
1.5
 42
1.5
 43
1.5
 50
90.0
  0
INSERT
  5
4A76
330
4A6F
100
AcDbEntity
  8
寸法
 62
     0
370
    -2
100
AcDbBlockReference
  2
_DOT
 10
82.87297805716736
 20
341.0341771438359
 30
0.0
 41
1.5
 42
1.5
 43
1.5
 50
270.0
  0
MTEXT
  5
4A77
330
4A6F
100
AcDbEntity
  8
寸法
  6
Continuous
 62
     0
100
AcDbMText
 10
78.37297805716736
 20
344.8838880933231
 30
0.0
 40
5.0
 41
0.0
 46
0.0
 71
     5
 72
     1
  1
\A1;8
  7
ＭＳ ゴシック
 11
0.0
 21
1.0
 31
0.0
 73
     1
 44
1.0
  0
POINT
  5
4A78
330
4A6F
100
AcDbEntity
  8
Defpoints
 62
     0
100
AcDbPoint
 10
100.2259869026101
 20
348.7335990428102
 30
0.0
  0
POINT
  5
4A79
330
4A6F
100
AcDbEntity
  8
Defpoints
 62
     0
100
AcDbPoint
 10
114.778355847345
 20
341.0341771438359
 30
0.0
  0
POINT
  5
5222
330
4A6F
100
AcDbEntity
  8
Defpoints
 62
     0
100
AcDbPoint
 10
82.87297805716736
 20
341.0341771438359
 30
0.0
  0
ENDBLK
  5
4A71
330
4A6F
100
AcDbEntity
  8
0
100
AcDbBlockEnd
  0
BLOCK
  5
4A9D
330
4A9C
100
AcDbEntity
  8
0
100
AcDbBlockBegin
  2
*D5
 70
     1
 10
0.0
 20
0.0
 30
0.0
  3
*D5
  1
*D204
  0
LINE
  5
4A9F
330
4A9C
100
AcDbEntity
  8
寸法
  6
Continuous
 62
     0
370
    -2
100
AcDbLine
 10
396.8532189115548
 20
336.3335990428101
 30
0.0
 11
368.9392464000001
 21
336.3335990428101
 31
0.0
  0
LINE
  5
4AA0
330
4A9C
100
AcDbEntity
  8
寸法
  6
Continuous
 62
     0
370
    -2
100
AcDbLine
 10
396.8532189115548
 20
306.3335990428101
 30
0.0
 11
368.9392464000001
 21
306.3335990428101
 31
0.0
  0
LINE
  5
4AA1
330
4A9C
100
AcDbEntity
  8
寸法
  6
Continuous
 62
     0
370
    -2
100
AcDbLine
 10
368.9392464000001
 20
334.8335990428101
 30
0.0
 11
368.9392464000001
 21
307.8335990428101
 31
0.0
  0
INSERT
  5
4AA2
330
4A9C
100
AcDbEntity
  8
寸法
 62
     0
370
    -2
100
AcDbBlockReference
  2
_DOT
 10
368.9392464000001
 20
336.3335990428101
 30
0.0
 41
1.5
 42
1.5
 43
1.5
 50
90.0
  0
INSERT
  5
4AA3
330
4A9C
100
AcDbEntity
  8
寸法
 62
     0
370
    -2
100
AcDbBlockReference
  2
_DOT
 10
368.9392464000001
 20
306.3335990428101
 30
0.0
 41
1.5
 42
1.5
 43
1.5
 50
270.0
  0
MTEXT
  5
4AA4
330
4A9C
100
AcDbEntity
  8
寸法
  6
Continuous
 62
     0
100
AcDbMText
 10
364.0342464000001
 20
321.3335990428101
 30
0.0
 40
5.0
 41
0.0
 46
0.0
 71
     5
 72
     1
  1
\A1;φ30
  7
ＭＳ ゴシック
 11
0.0
 21
1.0
 31
0.0
 73
     1
 44
1.0
  0
POINT
  5
4AA5
330
4A9C
100
AcDbEntity
  8
Defpoints
 62
     0
100
AcDbPoint
 10
401.8532189115548
 20
336.3335990428101
 30
0.0
  0
POINT
  5
4AA6
330
4A9C
100
AcDbEntity
  8
Defpoints
 62
     0
100
AcDbPoint
 10
401.8532189115548
 20
306.3335990428101
 30
0.0
  0
POINT
  5
4AA7
330
4A9C
100
AcDbEntity
  8
Defpoints
 62
     0
100
AcDbPoint
 10
368.9392464000001
 20
306.3335990428101
 30
0.0
  0
ENDBLK
  5
4A9E
330
4A9C
100
AcDbEntity
  8
0
100
AcDbBlockEnd
  0
BLOCK
  5
4AD6
330
4AD5
100
AcDbEntity
  8
0
100
AcDbBlockBegin
  2
*D6
 70
     1
 10
0.0
 20
0.0
 30
0.0
  3
*D6
  1
*D205
  0
LINE
  5
4AD8
330
4AD5
100
AcDbEntity
  8
寸法
  6
Continuous
 62
     0
370
    -2
100
AcDbLine
 10
94.36167929725576
 20
348.7335990428102
 30
0.0
 11
70.97771936016723
 21
348.7335990428102
 31
0.0
  0
LINE
  5
4AD9
330
4AD5
100
AcDbEntity
  8
寸法
  6
Continuous
 62
     0
370
    -2
100
AcDbLine
 10
111.2229790385805
 20
283.9692617244852
 30
0.0
 11
70.97771936016723
 21
283.9692617244852
 31
0.0
  0
LINE
  5
4ADA
330
4AD5
100
AcDbEntity
  8
寸法
  6
Continuous
 62
     0
370
    -2
100
AcDbLine
 10
70.97771936016723
 20
347.2335990428102
 30
0.0
 11
70.97771936016723
 21
285.4692617244852
 31
0.0
  0
INSERT
  5
4ADB
330
4AD5
100
AcDbEntity
  8
寸法
 62
     0
370
    -2
100
AcDbBlockReference
  2
_DOT
 10
70.97771936016723
 20
348.7335990428102
 30
0.0
 41
1.5
 42
1.5
 43
1.5
 50
90.0
  0
INSERT
  5
4ADC
330
4AD5
100
AcDbEntity
  8
寸法
 62
     0
370
    -2
100
AcDbBlockReference
  2
_DOT
 10
70.97771936016723
 20
283.9692617244852
 30
0.0
 41
1.5
 42
1.5
 43
1.5
 50
270.0
  0
MTEXT
  5
4ADD
330
4AD5
100
AcDbEntity
  8
寸法
  6
Continuous
 62
     0
100
AcDbMText
 10
66.47771936016723
 20
316.3514303836477
 30
0.0
 40
5.0
 41
0.0
 46
0.0
 71
     5
 72
     1
  1
\A1;65
  7
ＭＳ ゴシック
 11
0.0
 21
1.0
 31
0.0
 73
     1
 44
1.0
  0
POINT
  5
4ADE
330
4AD5
100
AcDbEntity
  8
Defpoints
 62
     0
100
AcDbPoint
 10
99.36167929725576
 20
348.7335990428102
 30
0.0
  0
POINT
  5
4ADF
330
4AD5
100
AcDbEntity
  8
Defpoints
 62
     0
100
AcDbPoint
 10
116.2229790385805
 20
283.9692617244852
 30
0.0
  0
POINT
  5
4AE0
330
4AD5
100
AcDbEntity
  8
Defpoints
 62
     0
100
AcDbPoint
 10
70.97771936016723
 20
283.9692617244852
 30
0.0
  0
ENDBLK
  5
4AD7
330
4AD5
100
AcDbEntity
  8
0
100
AcDbBlockEnd
  0
BLOCK
  5
4CAF
330
4CAE
100
AcDbEntity
  8
0
100
AcDbBlockBegin
  2
*D7
 70
     1
 10
0.0
 20
0.0
 30
0.0
  3
*D7
  1
*D212
  0
LINE
  5
4CB1
330
4CAE
100
AcDbEntity
  8
寸法
  6
Continuous
 62
     0
370
    -2
100
AcDbLine
 10
127.1816507401139
 20
148.4628469200378
 30
0.0
 11
127.1816507401139
 21
139.2647026849567
 31
0.0
  0
LINE
  5
4CB2
330
4CAE
100
AcDbEntity
  8
寸法
  6
Continuous
 62
     0
370
    -2
100
AcDbLine
 10
134.8816507401137
 20
163.6511043765548
 30
0.0
 11
134.8816507401137
 21
139.2647026849567
 31
0.0
  0
LINE
  5
4CB3
330
4CAE
100
AcDbEntity
  8
寸法
  6
Continuous
 62
     0
370
    -2
100
AcDbLine
 10
134.8816507401137
 20
139.2647026849567
 30
0.0
 11
182.7116507401137
 21
139.2647026849567
 31
0.0
  0
INSERT
  5
4CB4
330
4CAE
100
AcDbEntity
  8
寸法
 62
     0
370
    -2
100
AcDbBlockReference
  2
_DOT
 10
127.1816507401139
 20
139.2647026849567
 30
0.0
 41
1.5
 42
1.5
 43
1.5
 50
180.0
  0
INSERT
  5
4CB5
330
4CAE
100
AcDbEntity
  8
寸法
 62
     0
370
    -2
100
AcDbBlockReference
  2
_DOT
 10
134.8816507401137
 20
139.2647026849567
 30
0.0
 41
1.5
 42
1.5
 43
1.5
  0
MTEXT
  5
4CB6
330
4CAE
100
AcDbEntity
  8
寸法
  6
Continuous
 62
     0
100
AcDbMText
 10
160.2966507401137
 20
144.3222026849567
 30
0.0
 40
5.0
 41
0.0
 46
0.0
 71
     5
 72
     1
  1
\A1;プレート部分8
  7
ＭＳ ゴシック
 73
     1
 44
1.0
  0
POINT
  5
4CB7
330
4CAE
100
AcDbEntity
  8
Defpoints
 62
     0
100
AcDbPoint
 10
127.1816507401139
 20
153.4628469200378
 30
0.0
  0
POINT
  5
4CB8
330
4CAE
100
AcDbEntity
  8
Defpoints
 62
     0
100
AcDbPoint
 10
134.8816507401137
 20
168.6511043765548
 30
0.0
  0
POINT
  5
4CB9
330
4CAE
100
AcDbEntity
  8
Defpoints
 62
     0
100
AcDbPoint
 10
134.8816507401137
 20
139.2647026849567
 30
0.0
  0
ENDBLK
  5
4CB0
330
4CAE
100
AcDbEntity
  8
0
100
AcDbBlockEnd
  0
BLOCK
  5
4EF5
330
4EF4
100
AcDbEntity
  8
0
100
AcDbBlockBegin
  2
*D8
 70
     1
 10
0.0
 20
0.0
 30
0.0
  3
*D8
  1
*D205
  0
LINE
  5
4EF7
330
4EF4
100
AcDbEntity
  8
寸法
  6
Continuous
 62
     0
370
    -2
100
AcDbLine
 10
110.3672380045193
 20
341.0229538105481
 30
0.0
 11
82.82110699175595
 21
341.0229538105481
 31
0.0
  0
LINE
  5
4EF8
330
4EF4
100
AcDbEntity
  8
寸法
  6
Continuous
 62
     0
370
    -2
100
AcDbLine
 10
111.2229790385805
 20
283.9692617244852
 30
0.0
 11
82.82110699175595
 21
283.9692617244852
 31
0.0
  0
LINE
  5
4EF9
330
4EF4
100
AcDbEntity
  8
寸法
  6
Continuous
 62
     0
370
    -2
100
AcDbLine
 10
82.82110699175595
 20
339.5229538105481
 30
0.0
 11
82.82110699175595
 21
285.4692617244852
 31
0.0
  0
INSERT
  5
4EFA
330
4EF4
100
AcDbEntity
  8
寸法
 62
     0
370
    -2
100
AcDbBlockReference
  2
_DOT
 10
82.82110699175595
 20
341.0229538105481
 30
0.0
 41
1.5
 42
1.5
 43
1.5
 50
90.0
  0
INSERT
  5
4EFB
330
4EF4
100
AcDbEntity
  8
寸法
 62
     0
370
    -2
100
AcDbBlockReference
  2
_DOT
 10
82.82110699175595
 20
283.9692617244852
 30
0.0
 41
1.5
 42
1.5
 43
1.5
 50
270.0
  0
MTEXT
  5
4EFC
330
4EF4
100
AcDbEntity
  8
寸法
  6
Continuous
 62
     0
100
AcDbMText
 10
78.32110699175595
 20
312.4961077675166
 30
0.0
 40
5.0
 41
0.0
 46
0.0
 71
     5
 72
     1
  1
\A1;57
  7
ＭＳ ゴシック
 11
0.0
 21
1.0
 31
0.0
 73
     1
 44
1.0
  0
POINT
  5
4EFD
330
4EF4
100
AcDbEntity
  8
Defpoints
 62
     0
100
AcDbPoint
 10
115.3672380045193
 20
341.0229538105481
 30
0.0
  0
POINT
  5
4EFE
330
4EF4
100
AcDbEntity
  8
Defpoints
 62
     0
100
AcDbPoint
 10
116.2229790385805
 20
283.9692617244852
 30
0.0
  0
POINT
  5
4EFF
330
4EF4
100
AcDbEntity
  8
Defpoints
 62
     0
100
AcDbPoint
 10
82.82110699175595
 20
283.9692617244852
 30
0.0
  0
ENDBLK
  5
4EF6
330
4EF4
100
AcDbEntity
  8
0
100
AcDbBlockEnd
  0
BLOCK
  5
520B
330
520A
100
AcDbEntity
  8
0
100
AcDbBlockBegin
  2
*D9
 70
     1
 10
0.0
 20
0.0
 30
0.0
  3
*D9
  1
*D209
  0
LINE
  5
520D
330
520A
100
AcDbEntity
  8
寸法
  6
Continuous
 62
     0
370
    -2
100
AcDbLine
 10
115.2229790385805
 20
279.9692617244852
 30
0.0
 11
115.2229790385805
 21
259.1311541215662
 31
0.0
  0
LINE
  5
520E
330
520A
100
AcDbEntity
  8
寸法
  6
Continuous
 62
     0
370
    -2
100
AcDbLine
 10
252.2229790385804
 20
280.852417724485
 30
0.0
 11
252.2229790385804
 21
259.1311541215662
 31
0.0
  0
LINE
  5
520F
330
520A
100
AcDbEntity
  8
寸法
  6
Continuous
 62
     0
370
    -2
100
AcDbLine
 10
116.7229790385805
 20
259.1311541215662
 30
0.0
 11
250.7229790385804
 21
259.1311541215662
 31
0.0
  0
INSERT
  5
5210
330
520A
100
AcDbEntity
  8
寸法
 62
     0
370
    -2
100
AcDbBlockReference
  2
_DOT
 10
115.2229790385805
 20
259.1311541215662
 30
0.0
 41
1.5
 42
1.5
 43
1.5
 50
180.0
  0
INSERT
  5
5211
330
520A
100
AcDbEntity
  8
寸法
 62
     0
370
    -2
100
AcDbBlockReference
  2
_DOT
 10
252.2229790385804
 20
259.1311541215662
 30
0.0
 41
1.5
 42
1.5
 43
1.5
  0
MTEXT
  5
5212
330
520A
100
AcDbEntity
  8
寸法
  6
Continuous
 62
     0
100
AcDbMText
 10
183.7229790385805
 20
263.6311541215662
 30
0.0
 40
5.0
 41
0.0
 46
0.0
 71
     5
 72
     1
  1
\A1;137
  7
ＭＳ ゴシック
 73
     1
 44
1.0
  0
POINT
  5
5213
330
520A
100
AcDbEntity
  8
Defpoints
 62
     0
100
AcDbPoint
 10
115.2229790385805
 20
284.9692617244852
 30
0.0
  0
POINT
  5
5214
330
520A
100
AcDbEntity
  8
Defpoints
 62
     0
100
AcDbPoint
 10
252.2229790385804
 20
285.852417724485
 30
0.0
  0
POINT
  5
5215
330
520A
100
AcDbEntity
  8
Defpoints
 62
     0
100
AcDbPoint
 10
252.2229790385804
 20
259.1311541215662
 30
0.0
  0
ENDBLK
  5
520C
330
520A
100
AcDbEntity
  8
0
100
AcDbBlockEnd
  0
BLOCK
  5
53EC
330
53EB
100
AcDbEntity
  8
0
100
AcDbBlockBegin
  2
名称未設定-1
 70
     0
 10
0.0
 20
0.0
 30
0.0
  3
名称未設定-1
  1
名称未設定-1
  0
INSERT
  5
53ED
330
53EB
100
AcDbEntity
  8
TFORMLOGO
100
AcDbBlockReference
  2
block 2
 10
0.0
 20
0.0
 30
0.0
  0
ENDBLK
  5
5412
330
53EB
100
AcDbEntity
  8
0
100
AcDbBlockEnd
  0
BLOCK
  5
53EF
330
53EE
100
AcDbEntity
  8
0
100
AcDbBlockBegin
  2
block 2
 70
     0
 10
0.0
 20
0.0
 30
0.0
  3
block 2
  1
block 2
  0
INSERT
  5
53F0
330
53EE
100
AcDbEntity
  8
TFORMLOGO
100
AcDbBlockReference
  2
block 3
 10
0.0
 20
0.0
 30
0.0
  0
ENDBLK
  5
5411
330
53EE
100
AcDbEntity
  8
0
100
AcDbBlockEnd
  0
BLOCK
  5
5427
330
5426
100
AcDbEntity
  8
0
100
AcDbBlockBegin
  2
*D12
 70
     1
 10
0.0
 20
0.0
 30
0.0
  3
*D12
  1
*D53
  0
LINE
  5
5428
330
5426
100
AcDbEntity
  8
寸法
  6
Continuous
 62
     0
370
    -2
100
AcDbLine
 10
94.93135926942057
 20
348.7335990428101
 30
0.0
 11
82.57835042397778
 21
348.7335990428101
 31
0.0
  0
LINE
  5
5429
330
5426
100
AcDbEntity
  8
寸法
  6
Continuous
 62
     0
370
    -2
100
AcDbLine
 10
109.4837282141555
 20
341.0341771438358
 30
0.0
 11
82.57835042397778
 21
341.0341771438358
 31
0.0
  0
LINE
  5
542A
330
5426
100
AcDbEntity
  8
寸法
  6
Continuous
 62
     0
370
    -2
100
AcDbLine
 10
82.57835042397778
 20
348.7335990428101
 30
0.0
 11
82.57835042397778
 21
341.0341771438358
 31
0.0
  0
LINE
  5
542B
330
5426
100
AcDbEntity
  8
寸法
  6
Continuous
 62
     0
370
    -2
100
AcDbLine
 10
82.57835042397778
 20
350.2335990428101
 30
0.0
 11
82.57835042397778
 21
351.7335990428101
 31
0.0
  0
LINE
  5
542C
330
5426
100
AcDbEntity
  8
寸法
  6
Continuous
 62
     0
370
    -2
100
AcDbLine
 10
82.57835042397778
 20
339.5341771438358
 30
0.0
 11
82.57835042397778
 21
338.0341771438358
 31
0.0
  0
INSERT
  5
542D
330
5426
100
AcDbEntity
  8
寸法
 62
     0
370
    -2
100
AcDbBlockReference
  2
_DOT
 10
82.57835042397778
 20
348.7335990428101
 30
0.0
 41
1.5
 42
1.5
 43
1.5
 50
270.0
  0
INSERT
  5
542E
330
5426
100
AcDbEntity
  8
寸法
 62
     0
370
    -2
100
AcDbBlockReference
  2
_DOT
 10
82.57835042397778
 20
341.0341771438358
 30
0.0
 41
1.5
 42
1.5
 43
1.5
 50
90.0
  0
MTEXT
  5
542F
330
5426
100
AcDbEntity
  8
寸法
  6
Continuous
 62
     0
100
AcDbMText
 10
78.57835042397778
 20
344.883888093323
 30
0.0
 40
4.0
 41
0.0
 46
0.0
 71
     5
 72
     1
  1
\A1;8
  7
ＭＳ ゴシック
 11
0.0
 21
1.0
 31
0.0
 73
     1
 44
1.0
  0
POINT
  5
55AF
330
5426
100
AcDbEntity
  8
Defpoints
 62
     0
100
AcDbPoint
 10
99.93135926942057
 20
348.7335990428101
 30
0.0
  0
POINT
  5
55B0
330
5426
100
AcDbEntity
  8
Defpoints
 62
     0
100
AcDbPoint
 10
114.4837282141555
 20
341.0341771438358
 30
0.0
  0
POINT
  5
55B1
330
5426
100
AcDbEntity
  8
Defpoints
 62
     0
100
AcDbPoint
 10
82.57835042397778
 20
341.0341771438358
 30
0.0
  0
ENDBLK
  5
5430
330
5426
100
AcDbEntity
  8
0
100
AcDbBlockEnd
  0
BLOCK
  5
5433
330
5432
100
AcDbEntity
  8
0
100
AcDbBlockBegin
  2
*D13
 70
     1
 10
0.0
 20
0.0
 30
0.0
  3
*D13
  1
*D54
  0
LINE
  5
5434
330
5432
100
AcDbEntity
  8
寸法
  6
Continuous
 62
     0
370
    -2
100
AcDbLine
 10
403.8854160529299
 20
348.7990849693352
 30
0.0
 11
364.2169531300075
 21
348.7990849693352
 31
0.0
  0
LINE
  5
5435
330
5432
100
AcDbEntity
  8
寸法
  6
Continuous
 62
     0
370
    -2
100
AcDbLine
 10
403.8854160529299
 20
293.7990849693352
 30
0.0
 11
364.2169531300075
 21
293.7990849693352
 31
0.0
  0
LINE
  5
5436
330
5432
100
AcDbEntity
  8
寸法
  6
Continuous
 62
     0
370
    -2
100
AcDbLine
 10
364.2169531300075
 20
347.2990849693352
 30
0.0
 11
364.2169531300075
 21
295.2990849693352
 31
0.0
  0
INSERT
  5
5437
330
5432
100
AcDbEntity
  8
寸法
 62
     0
370
    -2
100
AcDbBlockReference
  2
_DOT
 10
364.2169531300075
 20
348.7990849693352
 30
0.0
 41
1.5
 42
1.5
 43
1.5
 50
90.0
  0
INSERT
  5
5438
330
5432
100
AcDbEntity
  8
寸法
 62
     0
370
    -2
100
AcDbBlockReference
  2
_DOT
 10
364.2169531300075
 20
293.7990849693352
 30
0.0
 41
1.5
 42
1.5
 43
1.5
 50
270.0
  0
MTEXT
  5
5439
330
5432
100
AcDbEntity
  8
寸法
  6
Continuous
 62
     0
100
AcDbMText
 10
359.8929531300075
 20
321.2990849693352
 30
0.0
 40
4.0
 41
0.0
 46
0.0
 71
     5
 72
     1
  1
\A1;φ55
  7
ＭＳ ゴシック
 11
0.0
 21
1.0
 31
0.0
 73
     1
 44
1.0
  0
POINT
  5
543A
330
5432
100
AcDbEntity
  8
Defpoints
 62
     0
100
AcDbPoint
 10
408.8854160529299
 20
348.7990849693352
 30
0.0
  0
POINT
  5
543B
330
5432
100
AcDbEntity
  8
Defpoints
 62
     0
100
AcDbPoint
 10
408.8854160529299
 20
293.7990849693352
 30
0.0
  0
POINT
  5
543C
330
5432
100
AcDbEntity
  8
Defpoints
 62
     0
100
AcDbPoint
 10
364.2169531300075
 20
293.7990849693352
 30
0.0
  0
ENDBLK
  5
543D
330
5432
100
AcDbEntity
  8
0
100
AcDbBlockEnd
  0
BLOCK
  5
5440
330
543F
100
AcDbEntity
  8
0
100
AcDbBlockBegin
  2
*D14
 70
     1
 10
0.0
 20
0.0
 30
0.0
  3
*D14
  1
*D55
  0
LINE
  5
5441
330
543F
100
AcDbEntity
  8
寸法
  6
Continuous
 62
     0
370
    -2
100
AcDbLine
 10
94.06705166406618
 20
348.7335990428101
 30
0.0
 11
62.66820315675285
 21
348.7335990428101
 31
0.0
  0
LINE
  5
5442
330
543F
100
AcDbEntity
  8
寸法
  6
Continuous
 62
     0
370
    -2
100
AcDbLine
 10
184.9711760191407
 20
281.0777285890699
 30
0.0
 11
62.66820315675284
 21
281.0777285890699
 31
0.0
  0
LINE
  5
5443
330
543F
100
AcDbEntity
  8
寸法
  6
Continuous
 62
     0
370
    -2
100
AcDbLine
 10
62.66820315675285
 20
347.2335990428101
 30
0.0
 11
62.66820315675284
 21
282.5777285890699
 31
0.0
  0
INSERT
  5
5444
330
543F
100
AcDbEntity
  8
寸法
 62
     0
370
    -2
100
AcDbBlockReference
  2
_DOT
 10
62.66820315675285
 20
348.7335990428101
 30
0.0
 41
1.5
 42
1.5
 43
1.5
 50
90.0
  0
INSERT
  5
5445
330
543F
100
AcDbEntity
  8
寸法
 62
     0
370
    -2
100
AcDbBlockReference
  2
_DOT
 10
62.66820315675284
 20
281.0777285890699
 30
0.0
 41
1.5
 42
1.5
 43
1.5
 50
270.0
  0
MTEXT
  5
5446
330
543F
100
AcDbEntity
  8
寸法
  6
Continuous
 62
     0
100
AcDbMText
 10
58.66820315675284
 20
314.90566381594
 30
0.0
 40
4.0
 41
0.0
 46
0.0
 71
     5
 72
     1
  1
\A1;68
  7
ＭＳ ゴシック
 11
1.050230720549128E-16
 21
1.0
 31
0.0
 73
     1
 44
1.0
  0
POINT
  5
5447
330
543F
100
AcDbEntity
  8
Defpoints
 62
     0
100
AcDbPoint
 10
99.06705166406618
 20
348.7335990428101
 30
0.0
  0
POINT
  5
5448
330
543F
100
AcDbEntity
  8
Defpoints
 62
     0
100
AcDbPoint
 10
189.9711760191407
 20
281.0777285890699
 30
0.0
  0
POINT
  5
5449
330
543F
100
AcDbEntity
  8
Defpoints
 62
     0
100
AcDbPoint
 10
62.66820315675284
 20
281.0777285890699
 30
0.0
  0
ENDBLK
  5
544A
330
543F
100
AcDbEntity
  8
0
100
AcDbBlockEnd
  0
BLOCK
  5
544D
330
544C
100
AcDbEntity
  8
0
100
AcDbBlockBegin
  2
*D15
 70
     1
 10
0.0
 20
0.0
 30
0.0
  3
*D15
  1
*D56
  0
LINE
  5
544E
330
544C
100
AcDbEntity
  8
寸法
  6
Continuous
 62
     0
370
    -2
100
AcDbLine
 10
127.0296484505602
 20
145.053068208781
 30
0.0
 11
127.0296484505602
 21
138.3207352236588
 31
0.0
  0
LINE
  5
544F
330
544C
100
AcDbEntity
  8
寸法
  6
Continuous
 62
     0
370
    -2
100
AcDbLine
 10
134.8816507401137
 20
163.6511043765549
 30
0.0
 11
134.8816507401137
 21
138.3207352236588
 31
0.0
  0
LINE
  5
5450
330
544C
100
AcDbEntity
  8
寸法
  6
Continuous
 62
     0
370
    -2
100
AcDbLine
 10
134.8816507401137
 20
138.3207352236588
 30
0.0
 11
182.6286507401138
 21
138.3207352236588
 31
0.0
  0
INSERT
  5
5451
330
544C
100
AcDbEntity
  8
寸法
 62
     0
370
    -2
100
AcDbBlockReference
  2
_DOT
 10
127.0296484505602
 20
138.3207352236588
 30
0.0
 41
1.5
 42
1.5
 43
1.5
 50
180.0
  0
INSERT
  5
5452
330
544C
100
AcDbEntity
  8
寸法
 62
     0
370
    -2
100
AcDbBlockReference
  2
_DOT
 10
134.8816507401137
 20
138.3207352236588
 30
0.0
 41
1.5
 42
1.5
 43
1.5
  0
MTEXT
  5
5453
330
544C
100
AcDbEntity
  8
寸法
  6
Continuous
 62
     0
100
AcDbMText
 10
164.2966507401138
 20
142.7667352236588
 30
0.0
 40
4.0
 41
0.0
 46
0.0
 71
     5
 72
     1
  1
\A1;プレート部分8
  7
ＭＳ ゴシック
 73
     1
 44
1.0
  0
POINT
  5
5454
330
544C
100
AcDbEntity
  8
Defpoints
 62
     0
100
AcDbPoint
 10
127.0296484505602
 20
150.053068208781
 30
0.0
  0
POINT
  5
5455
330
544C
100
AcDbEntity
  8
Defpoints
 62
     0
100
AcDbPoint
 10
134.8816507401137
 20
168.6511043765549
 30
0.0
  0
POINT
  5
5456
330
544C
100
AcDbEntity
  8
Defpoints
 62
     0
100
AcDbPoint
 10
134.8816507401137
 20
138.3207352236588
 30
0.0
  0
ENDBLK
  5
5457
330
544C
100
AcDbEntity
  8
0
100
AcDbBlockEnd
  0
BLOCK
  5
545C
330
545B
100
AcDbEntity
  8
0
100
AcDbBlockBegin
  2
*D16
 70
     1
 10
0.0
 20
0.0
 30
0.0
  3
*D16
  1
*D57
  0
LINE
  5
545D
330
545B
100
AcDbEntity
  8
寸法
  6
Continuous
 62
     0
370
    -2
100
AcDbLine
 10
110.0726103713298
 20
341.022953810548
 30
0.0
 11
82.52647935856646
 21
341.022953810548
 31
0.0
  0
LINE
  5
545E
330
545B
100
AcDbEntity
  8
寸法
  6
Continuous
 62
     0
370
    -2
100
AcDbLine
 10
189.9711760191407
 20
281.0777285890699
 30
0.0
 11
82.52647935856646
 21
281.0777285890699
 31
0.0
  0
LINE
  5
545F
330
545B
100
AcDbEntity
  8
寸法
  6
Continuous
 62
     0
370
    -2
100
AcDbLine
 10
82.52647935856646
 20
339.522953810548
 30
0.0
 11
82.52647935856646
 21
282.5777285890699
 31
0.0
  0
INSERT
  5
5460
330
545B
100
AcDbEntity
  8
寸法
 62
     0
370
    -2
100
AcDbBlockReference
  2
_DOT
 10
82.52647935856646
 20
341.022953810548
 30
0.0
 41
1.5
 42
1.5
 43
1.5
 50
90.0
  0
INSERT
  5
5461
330
545B
100
AcDbEntity
  8
寸法
 62
     0
370
    -2
100
AcDbBlockReference
  2
_DOT
 10
82.52647935856646
 20
281.0777285890699
 30
0.0
 41
1.5
 42
1.5
 43
1.5
 50
270.0
  0
MTEXT
  5
5462
330
545B
100
AcDbEntity
  8
寸法
  6
Continuous
 62
     0
100
AcDbMText
 10
78.52647935856646
 20
311.0503411998089
 30
0.0
 40
4.0
 41
0.0
 46
0.0
 71
     5
 72
     1
  1
\A1;60
  7
ＭＳ ゴシック
 11
0.0
 21
1.0
 31
0.0
 73
     1
 44
1.0
  0
POINT
  5
5463
330
545B
100
AcDbEntity
  8
Defpoints
 62
     0
100
AcDbPoint
 10
115.0726103713298
 20
341.022953810548
 30
0.0
  0
POINT
  5
5464
330
545B
100
AcDbEntity
  8
Defpoints
 62
     0
100
AcDbPoint
 10
194.9711760191407
 20
281.0777285890699
 30
0.0
  0
POINT
  5
5465
330
545B
100
AcDbEntity
  8
Defpoints
 62
     0
100
AcDbPoint
 10
82.52647935856646
 20
281.0777285890699
 30
0.0
  0
ENDBLK
  5
5466
330
545B
100
AcDbEntity
  8
0
100
AcDbBlockEnd
  0
BLOCK
  5
54B8
330
54B7
100
AcDbEntity
  8
0
100
AcDbBlockBegin
  2
*D17
 70
     1
 10
0.0
 20
0.0
 30
0.0
  3
*D17
  1
*D58
  0
LINE
  5
54B9
330
54B7
100
AcDbEntity
  8
寸法
  6
Continuous
 62
     0
370
    -2
100
AcDbLine
 10
115.1935433875918
 20
326.04005183593
 30
0.0
 11
115.1935433875918
 21
262.1267427827099
 31
0.0
  0
LINE
  5
54BA
330
54B7
100
AcDbEntity
  8
寸法
  6
Continuous
 62
     0
370
    -2
100
AcDbLine
 10
234.1687403875918
 20
292.9484688359301
 30
0.0
 11
234.1687403875918
 21
262.1267427827099
 31
0.0
  0
LINE
  5
54BB
330
54B7
100
AcDbEntity
  8
寸法
  6
Continuous
 62
     0
370
    -2
100
AcDbLine
 10
116.6935433875918
 20
262.1267427827099
 30
0.0
 11
232.6687403875918
 21
262.1267427827099
 31
0.0
  0
INSERT
  5
54BC
330
54B7
100
AcDbEntity
  8
寸法
 62
     0
370
    -2
100
AcDbBlockReference
  2
_DOT
 10
115.1935433875918
 20
262.1267427827099
 30
0.0
 41
1.5
 42
1.5
 43
1.5
 50
180.0
  0
INSERT
  5
54BD
330
54B7
100
AcDbEntity
  8
寸法
 62
     0
370
    -2
100
AcDbBlockReference
  2
_DOT
 10
234.1687403875918
 20
262.1267427827099
 30
0.0
 41
1.5
 42
1.5
 43
1.5
  0
MTEXT
  5
54BE
330
54B7
100
AcDbEntity
  8
寸法
  6
Continuous
 62
     0
100
AcDbMText
 10
174.6811418875918
 20
266.1267427827099
 30
0.0
 40
4.0
 41
0.0
 46
0.0
 71
     5
 72
     1
  1
\A1;119
  7
ＭＳ ゴシック
 73
     1
 44
1.0
  0
POINT
  5
54BF
330
54B7
100
AcDbEntity
  8
Defpoints
 62
     0
100
AcDbPoint
 10
115.1935433875918
 20
331.04005183593
 30
0.0
  0
POINT
  5
54C0
330
54B7
100
AcDbEntity
  8
Defpoints
 62
     0
100
AcDbPoint
 10
234.1687403875918
 20
297.9484688359301
 30
0.0
  0
POINT
  5
54C1
330
54B7
100
AcDbEntity
  8
Defpoints
 62
     0
100
AcDbPoint
 10
234.1687403875918
 20
262.1267427827099
 30
0.0
  0
ENDBLK
  5
54C2
330
54B7
100
AcDbEntity
  8
0
100
AcDbBlockEnd
  0
BLOCK
  5
54EC
330
54EB
100
AcDbEntity
  8
0
100
AcDbBlockBegin
  2
*D18
 70
     1
 10
0.0
 20
0.0
 30
0.0
  3
*D18
  1
*D63
  0
LINE
  5
54ED
330
54EB
100
AcDbEntity
  8
寸法
 62
     0
370
    -2
100
AcDbLine
 10
427.8721245115549
 20
172.3452081951892
 30
0.0
 11
427.8721245115549
 21
144.5573006134969
 31
0.0
  0
LINE
  5
54EE
330
54EB
100
AcDbEntity
  8
寸法
 62
     0
370
    -2
100
AcDbLine
 10
389.8721245115548
 20
172.3452081951892
 30
0.0
 11
389.8721245115548
 21
144.5573006134969
 31
0.0
  0
LINE
  5
54EF
330
54EB
100
AcDbEntity
  8
寸法
 62
     0
370
    -2
100
AcDbLine
 10
389.8721245115548
 20
144.5573006134969
 30
0.0
 11
376.2146245115548
 21
144.5573006134969
 31
0.0
  0
LINE
  5
54F0
330
54EB
100
AcDbEntity
  8
寸法
 62
     0
370
    -2
100
AcDbLine
 10
426.3721245115549
 20
144.5573006134969
 30
0.0
 11
391.3721245115548
 21
144.5573006134969
 31
0.0
  0
INSERT
  5
54F1
330
54EB
100
AcDbEntity
  8
寸法
 62
     0
370
    -2
100
AcDbBlockReference
  2
_DOT
 10
427.8721245115549
 20
144.5573006134969
 30
0.0
 41
1.5
 42
1.5
 43
1.5
  0
INSERT
  5
54F2
330
54EB
100
AcDbEntity
  8
寸法
 62
     0
370
    -2
100
AcDbBlockReference
  2
_DOT
 10
389.8721245115548
 20
144.5573006134969
 30
0.0
 41
1.5
 42
1.5
 43
1.5
 50
180.0
  0
POINT
  5
54F3
330
54EB
100
AcDbEntity
  8
Defpoints
 62
     0
100
AcDbPoint
 10
427.8721245115549
 20
177.3452081951892
 30
0.0
  0
POINT
  5
54F4
330
54EB
100
AcDbEntity
  8
Defpoints
 62
     0
100
AcDbPoint
 10
389.8721245115548
 20
177.3452081951892
 30
0.0
  0
POINT
  5
54F5
330
54EB
100
AcDbEntity
  8
Defpoints
 62
     0
100
AcDbPoint
 10
389.8721245115548
 20
144.5573006134969
 30
0.0
  0
ENDBLK
  5
54F6
330
54EB
100
AcDbEntity
  8
0
100
AcDbBlockEnd
  0
BLOCK
  5
54F9
330
54F8
100
AcDbEntity
  8
0
100
AcDbBlockBegin
  2
*D19
 70
     1
 10
0.0
 20
0.0
 30
0.0
  3
*D19
  1
*D67
  0
LINE
  5
54FA
330
54F8
100
AcDbEntity
  8
寸法
 62
     0
370
    -2
100
AcDbLine
 10
389.8721245115548
 20
191.0157099566222
 30
0.0
 11
389.8721245115548
 21
213.8023335341041
 31
0.0
  0
LINE
  5
54FB
330
54F8
100
AcDbEntity
  8
寸法
 62
     0
370
    -2
100
AcDbLine
 10
408.8721245115548
 20
205.1912224768318
 30
0.0
 11
408.8721245115548
 21
213.8023335341041
 31
0.0
  0
LINE
  5
54FC
330
54F8
100
AcDbEntity
  8
寸法
 62
     0
370
    -2
100
AcDbLine
 10
391.3721245115548
 20
213.8023335341041
 30
0.0
 11
407.3721245115548
 21
213.8023335341041
 31
0.0
  0
INSERT
  5
54FD
330
54F8
100
AcDbEntity
  8
寸法
 62
     0
370
    -2
100
AcDbBlockReference
  2
_DOT
 10
389.8721245115548
 20
213.8023335341041
 30
0.0
 41
1.5
 42
1.5
 43
1.5
 50
180.0
  0
INSERT
  5
54FE
330
54F8
100
AcDbEntity
  8
寸法
 62
     0
370
    -2
100
AcDbBlockReference
  2
_DOT
 10
408.8721245115548
 20
213.8023335341041
 30
0.0
 41
1.5
 42
1.5
 43
1.5
  0
MTEXT
  5
54FF
330
54F8
100
AcDbEntity
  8
寸法
  6
Continuous
 62
     0
100
AcDbMText
 10
399.3721245115548
 20
218.3023335341041
 30
0.0
 40
5.0
 41
0.0
 46
0.0
 71
     5
 72
     1
  1
\A1;19
  7
ＭＳ ゴシック
 73
     1
 44
1.0
  0
POINT
  5
5500
330
54F8
100
AcDbEntity
  8
Defpoints
 62
     0
100
AcDbPoint
 10
389.8721245115548
 20
186.0157099566222
 30
0.0
  0
POINT
  5
5501
330
54F8
100
AcDbEntity
  8
Defpoints
 62
     0
100
AcDbPoint
 10
408.8721245115548
 20
200.1912224768318
 30
0.0
  0
POINT
  5
5502
330
54F8
100
AcDbEntity
  8
Defpoints
 62
     0
100
AcDbPoint
 10
408.8721245115548
 20
213.8023335341041
 30
0.0
  0
ENDBLK
  5
5503
330
54F8
100
AcDbEntity
  8
0
100
AcDbBlockEnd
  0
BLOCK
  5
5506
330
5505
100
AcDbEntity
  8
0
100
AcDbBlockBegin
  2
*D20
 70
     1
 10
0.0
 20
0.0
 30
0.0
  3
*D20
  1
*D68
  0
LINE
  5
5507
330
5505
100
AcDbEntity
  8
寸法
 62
     0
370
    -2
100
AcDbLine
 10
408.8721245115548
 20
205.1912224768318
 30
0.0
 11
408.8721245115548
 21
213.8023335341041
 31
0.0
  0
LINE
  5
5508
330
5505
100
AcDbEntity
  8
寸法
 62
     0
370
    -2
100
AcDbLine
 10
427.8721245115549
 20
191.0157099566222
 30
0.0
 11
427.8721245115549
 21
213.8023335341041
 31
0.0
  0
LINE
  5
5509
330
5505
100
AcDbEntity
  8
寸法
 62
     0
370
    -2
100
AcDbLine
 10
410.3721245115548
 20
213.8023335341041
 30
0.0
 11
426.3721245115549
 21
213.8023335341041
 31
0.0
  0
INSERT
  5
550A
330
5505
100
AcDbEntity
  8
寸法
 62
     0
370
    -2
100
AcDbBlockReference
  2
_DOT
 10
408.8721245115548
 20
213.8023335341041
 30
0.0
 41
1.5
 42
1.5
 43
1.5
 50
180.0
  0
INSERT
  5
550B
330
5505
100
AcDbEntity
  8
寸法
 62
     0
370
    -2
100
AcDbBlockReference
  2
_DOT
 10
427.8721245115549
 20
213.8023335341041
 30
0.0
 41
1.5
 42
1.5
 43
1.5
  0
MTEXT
  5
550C
330
5505
100
AcDbEntity
  8
寸法
  6
Continuous
 62
     0
100
AcDbMText
 10
418.3721245115548
 20
218.3023335341041
 30
0.0
 40
5.0
 41
0.0
 46
0.0
 71
     5
 72
     1
  1
\A1;19
  7
ＭＳ ゴシック
 73
     1
 44
1.0
  0
POINT
  5
550D
330
5505
100
AcDbEntity
  8
Defpoints
 62
     0
100
AcDbPoint
 10
408.8721245115548
 20
200.1912224768318
 30
0.0
  0
POINT
  5
550E
330
5505
100
AcDbEntity
  8
Defpoints
 62
     0
100
AcDbPoint
 10
427.8721245115549
 20
186.0157099566222
 30
0.0
  0
POINT
  5
550F
330
5505
100
AcDbEntity
  8
Defpoints
 62
     0
100
AcDbPoint
 10
427.8721245115549
 20
213.8023335341041
 30
0.0
  0
ENDBLK
  5
5510
330
5505
100
AcDbEntity
  8
0
100
AcDbBlockEnd
  0
BLOCK
  5
5591
330
5590
100
AcDbEntity
  8
0
100
AcDbBlockBegin
  2
*D21
 70
     1
 10
0.0
 20
0.0
 30
0.0
  3
*D21
  1
*D69
  0
LINE
  5
5592
330
5590
100
AcDbEntity
  8
寸法
 62
     0
370
    -2
100
AcDbLine
 10
108.1825120145531
 20
356.4345575436565
 30
0.0
 11
108.1825120145531
 21
365.9906564456901
 31
0.0
  0
LINE
  5
5593
330
5590
100
AcDbEntity
  8
寸法
 62
     0
370
    -2
100
AcDbLine
 10
146.1825120145531
 20
356.4345575436565
 30
0.0
 11
146.1825120145531
 21
365.9906564456901
 31
0.0
  0
LINE
  5
5594
330
5590
100
AcDbEntity
  8
寸法
 62
     0
370
    -2
100
AcDbLine
 10
109.6825120145531
 20
365.9906564456901
 30
0.0
 11
144.6825120145531
 21
365.9906564456901
 31
0.0
  0
INSERT
  5
5595
330
5590
100
AcDbEntity
  8
寸法
 62
     0
370
    -2
100
AcDbBlockReference
  2
_DOT
 10
108.1825120145531
 20
365.9906564456901
 30
0.0
 41
1.5
 42
1.5
 43
1.5
 50
180.0
  0
INSERT
  5
5596
330
5590
100
AcDbEntity
  8
寸法
 62
     0
370
    -2
100
AcDbBlockReference
  2
_DOT
 10
146.1825120145531
 20
365.9906564456901
 30
0.0
 41
1.5
 42
1.5
 43
1.5
  0
MTEXT
  5
5597
330
5590
100
AcDbEntity
  8
寸法
  6
Continuous
 62
     0
100
AcDbMText
 10
127.1825120145531
 20
370.4906564456901
 30
0.0
 40
5.0
 41
0.0
 46
0.0
 71
     5
 72
     1
  1
\A1;38
  7
ＭＳ ゴシック
 73
     1
 44
1.0
  0
POINT
  5
5598
330
5590
100
AcDbEntity
  8
Defpoints
 62
     0
100
AcDbPoint
 10
108.1825120145531
 20
351.4345575436565
 30
0.0
  0
POINT
  5
5599
330
5590
100
AcDbEntity
  8
Defpoints
 62
     0
100
AcDbPoint
 10
146.1825120145531
 20
351.4345575436565
 30
0.0
  0
POINT
  5
559A
330
5590
100
AcDbEntity
  8
Defpoints
 62
     0
100
AcDbPoint
 10
146.1825120145531
 20
365.9906564456901
 30
0.0
  0
ENDBLK
  5
559B
330
5590
100
AcDbEntity
  8
0
100
AcDbBlockEnd
  0
BLOCK
  5
5722
330
5721
100
AcDbEntity
  8
0
100
AcDbBlockBegin
  2
*D22
 70
     1
 10
0.0
 20
0.0
 30
0.0
  3
*D22
  1
*D22
  0
LINE
  5
5724
330
5721
100
AcDbEntity
  8
寸法
  6
Continuous
 62
     0
370
    -2
100
AcDbLine
 10
390.5571726885235
 20
640.5929716243508
 30
0.0
 11
337.7686110950826
 21
640.5929716243508
 31
0.0
  0
LINE
  5
5725
330
5721
100
AcDbEntity
  8
寸法
  6
Continuous
 62
     0
370
    -2
100
AcDbLine
 10
390.5571726885235
 20
585.5929716243508
 30
0.0
 11
337.7686110950826
 21
585.5929716243508
 31
0.0
  0
LINE
  5
5726
330
5721
100
AcDbEntity
  8
寸法
  6
Continuous
 62
     0
370
    -2
100
AcDbLine
 10
337.7686110950826
 20
639.0929716243508
 30
0.0
 11
337.7686110950826
 21
587.0929716243508
 31
0.0
  0
INSERT
  5
5727
330
5721
100
AcDbEntity
  8
寸法
 62
     0
370
    -2
100
AcDbBlockReference
  2
_DOT
 10
337.7686110950826
 20
640.5929716243508
 30
0.0
 41
1.5
 42
1.5
 43
1.5
 50
90.0
  0
INSERT
  5
5728
330
5721
100
AcDbEntity
  8
寸法
 62
     0
370
    -2
100
AcDbBlockReference
  2
_DOT
 10
337.7686110950826
 20
585.5929716243508
 30
0.0
 41
1.5
 42
1.5
 43
1.5
 50
270.0
  0
MTEXT
  5
5729
330
5721
100
AcDbEntity
  8
寸法
  6
Continuous
 62
     0
100
AcDbMText
 10
333.4446110950827
 20
613.0929716243508
 30
0.0
 40
4.0
 41
0.0
 46
0.0
 71
     5
 72
     1
  1
\A1;φ55
  7
ＭＳ ゴシック
 11
0.0
 21
1.0
 31
0.0
 73
     1
 44
1.0
  0
POINT
  5
572A
330
5721
100
AcDbEntity
  8
Defpoints
 62
     0
100
AcDbPoint
 10
395.5571726885235
 20
640.5929716243508
 30
0.0
  0
POINT
  5
572B
330
5721
100
AcDbEntity
  8
Defpoints
 62
     0
100
AcDbPoint
 10
395.5571726885235
 20
585.5929716243508
 30
0.0
  0
POINT
  5
572C
330
5721
100
AcDbEntity
  8
Defpoints
 62
     0
100
AcDbPoint
 10
337.7686110950826
 20
585.5929716243508
 30
0.0
  0
ENDBLK
  5
5723
330
5721
100
AcDbEntity
  8
0
100
AcDbBlockEnd
  0
BLOCK
  5
5774
330
5773
100
AcDbEntity
  8
0
100
AcDbBlockBegin
  2
*D23
 70
     1
 10
0.0
 20
0.0
 30
0.0
  3
*D23
  1
*D23
  0
LINE
  5
5776
330
5773
100
AcDbEntity
  8
寸法
 62
     0
370
    -2
100
AcDbLine
 10
427.8721245115549
 20
172.3452081951892
 30
0.0
 11
427.8721245115549
 21
144.5573006134969
 31
0.0
  0
LINE
  5
5777
330
5773
100
AcDbEntity
  8
寸法
 62
     0
370
    -2
100
AcDbLine
 10
389.8721245115548
 20
172.3452081951892
 30
0.0
 11
389.8721245115548
 21
144.5573006134969
 31
0.0
  0
LINE
  5
5778
330
5773
100
AcDbEntity
  8
寸法
 62
     0
370
    -2
100
AcDbLine
 10
389.8721245115548
 20
144.5573006134969
 30
0.0
 11
372.5896245115548
 21
144.5573006134969
 31
0.0
  0
LINE
  5
5779
330
5773
100
AcDbEntity
  8
寸法
 62
     0
370
    -2
100
AcDbLine
 10
426.3721245115549
 20
144.5573006134969
 30
0.0
 11
391.3721245115548
 21
144.5573006134969
 31
0.0
  0
LINE
  5
577A
330
5773
100
AcDbEntity
  8
寸法
 62
     0
370
    -2
100
AcDbLine
 10
391.3721245115548
 20
144.5573006134969
 30
0.0
 11
392.8721245115548
 21
144.5573006134969
 31
0.0
  0
INSERT
  5
577B
330
5773
100
AcDbEntity
  8
寸法
 62
     0
370
    -2
100
AcDbBlockReference
  2
_DOT
 10
427.8721245115549
 20
144.5573006134969
 30
0.0
 41
1.5
 42
1.5
 43
1.5
  0
INSERT
  5
577C
330
5773
100
AcDbEntity
  8
寸法
 62
     0
370
    -2
100
AcDbBlockReference
  2
_DOT
 10
389.8721245115548
 20
144.5573006134969
 30
0.0
 41
1.5
 42
1.5
 43
1.5
 50
180.0
  0
MTEXT
  5
577D
330
5773
100
AcDbEntity
  8
寸法
  6
Continuous
 62
     0
100
AcDbMText
 10
376.2146245115548
 20
149.0573006134969
 30
0.0
 40
5.0
 41
0.0
 46
0.0
 71
     5
 72
     1
  1
\A1; 
  7
ＭＳ ゴシック
 73
     1
 44
1.0
  0
POINT
  5
577E
330
5773
100
AcDbEntity
  8
Defpoints
 62
     0
100
AcDbPoint
 10
427.8721245115549
 20
177.3452081951892
 30
0.0
  0
POINT
  5
5A84
330
5773
100
AcDbEntity
  8
Defpoints
 62
     0
100
AcDbPoint
 10
389.8721245115548
 20
177.3452081951892
 30
0.0
  0
POINT
  5
5A85
330
5773
100
AcDbEntity
  8
Defpoints
 62
     0
100
AcDbPoint
 10
389.8721245115548
 20
144.5573006134969
 30
0.0
  0
ENDBLK
  5
5775
330
5773
100
AcDbEntity
  8
0
100
AcDbBlockEnd
  0
BLOCK
  5
585F
330
585E
100
AcDbEntity
  8
0
100
AcDbBlockBegin
  2
*D24
 70
     1
 10
0.0
 20
0.0
 30
0.0
  3
*D24
  1
*D25
  0
LINE
  5
5860
330
585E
100
AcDbEntity
  8
寸法
  6
Continuous
 62
     0
370
    -2
100
AcDbLine
 10
0.375
 20
9.573144235081088
 30
0.0
 11
0.375
 21
0.375
 31
0.0
  0
LINE
  5
5861
330
585E
100
AcDbEntity
  8
寸法
  6
Continuous
 62
     0
370
    -2
100
AcDbLine
 10
8.074570739085033
 20
24.7782398278371
 30
0.0
 11
8.074570739085033
 21
0.375
 31
0.0
  0
LINE
  5
5862
330
585E
100
AcDbEntity
  8
寸法
  6
Continuous
 62
     0
370
    -2
100
AcDbLine
 10
8.074570739085033
 20
0.375
 30
0.0
 11
18.17765809326037
 21
0.375
 31
0.0
  0
LINE
  5
5863
330
585E
100
AcDbEntity
  8
寸法
  6
Continuous
 62
     0
370
    -2
100
AcDbLine
 10
1.875
 20
0.375
 30
0.0
 11
6.574570739085033
 21
0.375
 31
0.0
  0
INSERT
  5
5864
330
585E
100
AcDbEntity
  8
寸法
 62
     0
370
    -2
100
AcDbBlockReference
  2
_DOT
 10
0.375
 20
0.375
 30
0.0
 41
1.5
 42
1.5
 43
1.5
 50
180.0
  0
INSERT
  5
5865
330
585E
100
AcDbEntity
  8
寸法
 62
     0
370
    -2
100
AcDbBlockReference
  2
_DOT
 10
8.074570739085033
 20
0.375
 30
0.0
 41
1.5
 42
1.5
 43
1.5
  0
MTEXT
  5
5866
330
585E
100
AcDbEntity
  8
寸法
  6
Continuous
 62
     0
100
AcDbMText
 10
14.85765809326037
 20
4.875
 30
0.0
 40
5.0
 41
0.0
 46
0.0
 71
     5
 72
     1
  1
\A1;8
  7
ＭＳ ゴシック
 73
     1
 44
1.0
  0
POINT
  5
5867
330
585E
100
AcDbEntity
  8
Defpoints
 62
     0
100
AcDbPoint
 10
0.375
 20
14.57314423508109
 30
0.0
  0
POINT
  5
5868
330
585E
100
AcDbEntity
  8
Defpoints
 62
     0
100
AcDbPoint
 10
8.074570739085033
 20
29.7782398278371
 30
0.0
  0
POINT
  5
5869
330
585E
100
AcDbEntity
  8
Defpoints
 62
     0
100
AcDbPoint
 10
8.074570739085033
 20
0.375
 30
0.0
  0
ENDBLK
  5
586A
330
585E
100
AcDbEntity
  8
0
100
AcDbBlockEnd
  0
BLOCK
  5
5870
330
586F
100
AcDbEntity
  8
0
100
AcDbBlockBegin
  2
*D25
 70
     1
 10
0.0
 20
0.0
 30
0.0
  3
*D25
  1
*D26
  0
LINE
  5
5872
330
586F
100
AcDbEntity
  8
寸法
  6
Continuous
 62
     0
370
    -2
100
AcDbLine
 10
127.1816507401139
 20
148.4628469200378
 30
0.0
 11
127.1816507401139
 21
139.2647026849567
 31
0.0
  0
LINE
  5
5873
330
586F
100
AcDbEntity
  8
寸法
  6
Continuous
 62
     0
370
    -2
100
AcDbLine
 10
134.8812214791989
 20
163.6679425127938
 30
0.0
 11
134.8812214791989
 21
139.2647026849567
 31
0.0
  0
LINE
  5
5874
330
586F
100
AcDbEntity
  8
寸法
  6
Continuous
 62
     0
370
    -2
100
AcDbLine
 10
134.8812214791989
 20
139.2647026849567
 30
0.0
 11
144.9843088333743
 21
139.2647026849567
 31
0.0
  0
LINE
  5
5875
330
586F
100
AcDbEntity
  8
寸法
  6
Continuous
 62
     0
370
    -2
100
AcDbLine
 10
128.6816507401139
 20
139.2647026849567
 30
0.0
 11
133.3812214791989
 21
139.2647026849567
 31
0.0
  0
LINE
  5
5876
330
586F
100
AcDbEntity
  8
寸法
  6
Continuous
 62
     0
370
    -2
100
AcDbLine
 10
133.3812214791989
 20
139.2647026849567
 30
0.0
 11
131.8812214791989
 21
139.2647026849567
 31
0.0
  0
INSERT
  5
5877
330
586F
100
AcDbEntity
  8
寸法
 62
     0
370
    -2
100
AcDbBlockReference
  2
_DOT
 10
127.1816507401139
 20
139.2647026849567
 30
0.0
 41
1.5
 42
1.5
 43
1.5
 50
180.0
  0
INSERT
  5
5878
330
586F
100
AcDbEntity
  8
寸法
 62
     0
370
    -2
100
AcDbBlockReference
  2
_DOT
 10
134.8812214791989
 20
139.2647026849567
 30
0.0
 41
1.5
 42
1.5
 43
1.5
  0
MTEXT
  5
5879
330
586F
100
AcDbEntity
  8
寸法
  6
Continuous
 62
     0
100
AcDbMText
 10
141.6643088333743
 20
143.7647026849567
 30
0.0
 40
5.0
 41
0.0
 46
0.0
 71
     5
 72
     1
  1
\A1;8
  7
ＭＳ ゴシック
 73
     1
 44
1.0
  0
POINT
  5
587A
330
586F
100
AcDbEntity
  8
Defpoints
 62
     0
100
AcDbPoint
 10
127.1816507401139
 20
153.4628469200378
 30
0.0
  0
POINT
  5
587B
330
586F
100
AcDbEntity
  8
Defpoints
 62
     0
100
AcDbPoint
 10
134.8812214791989
 20
168.6679425127938
 30
0.0
  0
POINT
  5
5A86
330
586F
100
AcDbEntity
  8
Defpoints
 62
     0
100
AcDbPoint
 10
134.8812214791989
 20
139.2647026849567
 30
0.0
  0
ENDBLK
  5
5871
330
586F
100
AcDbEntity
  8
0
100
AcDbBlockEnd
  0
BLOCK
  5
58F7
330
58F6
100
AcDbEntity
  8
0
100
AcDbBlockBegin
  2
*D26
 70
     1
 10
0.0
 20
0.0
 30
0.0
  3
*D26
  1
*D27
  0
LINE
  5
58F8
330
58F6
100
AcDbEntity
  8
寸法
  6
Continuous
 62
     0
370
    -2
100
AcDbLine
 10
12.67192425945136
 20
214.4558524656296
 30
0.0
 11
12.67192425945136
 21
221.1724008234254
 31
0.0
  0
LINE
  5
58F9
330
58F6
100
AcDbEntity
  8
寸法
  6
Continuous
 62
     0
370
    -2
100
AcDbLine
 10
21.17192425945136
 20
214.4558524656296
 30
0.0
 11
21.17192425945136
 21
221.1724008234254
 31
0.0
  0
LINE
  5
58FA
330
58F6
100
AcDbEntity
  8
寸法
  6
Continuous
 62
     0
370
    -2
100
AcDbLine
 10
14.17192425945136
 20
221.1724008234254
 30
0.0
 11
19.67192425945136
 21
221.1724008234254
 31
0.0
  0
INSERT
  5
58FB
330
58F6
100
AcDbEntity
  8
寸法
 62
     0
370
    -2
100
AcDbBlockReference
  2
_DOT
 10
12.67192425945136
 20
221.1724008234254
 30
0.0
 41
1.5
 42
1.5
 43
1.5
 50
180.0
  0
INSERT
  5
58FC
330
58F6
100
AcDbEntity
  8
寸法
 62
     0
370
    -2
100
AcDbBlockReference
  2
_DOT
 10
21.17192425945136
 20
221.1724008234254
 30
0.0
 41
1.5
 42
1.5
 43
1.5
  0
MTEXT
  5
58FD
330
58F6
100
AcDbEntity
  8
寸法
  6
Continuous
 62
     0
100
AcDbMText
 10
16.92192425945136
 20
225.6724008234254
 30
0.0
 40
5.0
 41
0.0
 46
0.0
 71
     5
 72
     1
  1
\A1;8.5
  7
ＭＳ ゴシック
 73
     1
 44
1.0
  0
POINT
  5
58FE
330
58F6
100
AcDbEntity
  8
Defpoints
 62
     0
100
AcDbPoint
 10
12.67192425945136
 20
209.4558524656296
 30
0.0
  0
POINT
  5
58FF
330
58F6
100
AcDbEntity
  8
Defpoints
 62
     0
100
AcDbPoint
 10
21.17192425945136
 20
209.4558524656296
 30
0.0
  0
POINT
  5
5900
330
58F6
100
AcDbEntity
  8
Defpoints
 62
     0
100
AcDbPoint
 10
21.17192425945136
 20
221.1724008234254
 30
0.0
  0
ENDBLK
  5
5901
330
58F6
100
AcDbEntity
  8
0
100
AcDbBlockEnd
  0
BLOCK
  5
5909
330
5908
100
AcDbEntity
  8
0
100
AcDbBlockBegin
  2
*D27
 70
     1
 10
0.0
 20
0.0
 30
0.0
  3
*D27
  1
*D28
  0
LINE
  5
590A
330
5908
100
AcDbEntity
  8
寸法
  6
Continuous
 62
     0
370
    -2
100
AcDbLine
 10
62.46043540515663
 20
197.1207521227724
 30
0.0
 11
77.8834322030564
 21
197.1207521227724
 31
0.0
  0
LINE
  5
590B
330
5908
100
AcDbEntity
  8
寸法
  6
Continuous
 62
     0
370
    -2
100
AcDbLine
 10
68.2153519287707
 20
191.1207521227724
 30
0.0
 11
77.8834322030564
 21
191.1207521227724
 31
0.0
  0
LINE
  5
590C
330
5908
100
AcDbEntity
  8
寸法
  6
Continuous
 62
     0
370
    -2
100
AcDbLine
 10
77.8834322030564
 20
195.6207521227724
 30
0.0
 11
77.8834322030564
 21
192.6207521227724
 31
0.0
  0
INSERT
  5
590D
330
5908
100
AcDbEntity
  8
寸法
 62
     0
370
    -2
100
AcDbBlockReference
  2
_DOT
 10
77.8834322030564
 20
197.1207521227724
 30
0.0
 41
1.5
 42
1.5
 43
1.5
 50
90.0
  0
INSERT
  5
590E
330
5908
100
AcDbEntity
  8
寸法
 62
     0
370
    -2
100
AcDbBlockReference
  2
_DOT
 10
77.8834322030564
 20
191.1207521227724
 30
0.0
 41
1.5
 42
1.5
 43
1.5
 50
270.0
  0
MTEXT
  5
590F
330
5908
100
AcDbEntity
  8
寸法
  6
Continuous
 62
     0
100
AcDbMText
 10
73.3834322030564
 20
194.1207521227724
 30
0.0
 40
5.0
 41
0.0
 46
0.0
 71
     5
 72
     1
  1
\A1;6
  7
ＭＳ ゴシック
 11
0.0
 21
1.0
 31
0.0
 73
     1
 44
1.0
  0
POINT
  5
5910
330
5908
100
AcDbEntity
  8
Defpoints
 62
     0
100
AcDbPoint
 10
57.46043540515663
 20
197.1207521227724
 30
0.0
  0
POINT
  5
5911
330
5908
100
AcDbEntity
  8
Defpoints
 62
     0
100
AcDbPoint
 10
63.2153519287707
 20
191.1207521227724
 30
0.0
  0
POINT
  5
5912
330
5908
100
AcDbEntity
  8
Defpoints
 62
     0
100
AcDbPoint
 10
77.8834322030564
 20
191.1207521227724
 30
0.0
  0
ENDBLK
  5
5913
330
5908
100
AcDbEntity
  8
0
100
AcDbBlockEnd
  0
BLOCK
  5
5934
330
5933
100
AcDbEntity
  8
0
100
AcDbBlockBegin
  2
*D28
 70
     1
 10
0.0
 20
0.0
 30
0.0
  3
*D28
  1
*D29
  0
LINE
  5
5936
330
5933
100
AcDbEntity
  8
寸法
  6
Continuous
 62
     0
370
    -2
100
AcDbLine
 10
103.9325120145532
 20
372.0686993856674
 30
0.0
 11
103.9325120145532
 21
378.7852477434632
 31
0.0
  0
LINE
  5
5937
330
5933
100
AcDbEntity
  8
寸法
  6
Continuous
 62
     0
370
    -2
100
AcDbLine
 10
112.4325120145532
 20
372.0686993856674
 30
0.0
 11
112.4325120145532
 21
378.7852477434632
 31
0.0
  0
LINE
  5
5938
330
5933
100
AcDbEntity
  8
寸法
  6
Continuous
 62
     0
370
    -2
100
AcDbLine
 10
105.4325120145532
 20
378.7852477434632
 30
0.0
 11
110.9325120145532
 21
378.7852477434632
 31
0.0
  0
INSERT
  5
5939
330
5933
100
AcDbEntity
  8
寸法
 62
     0
370
    -2
100
AcDbBlockReference
  2
_DOT
 10
103.9325120145532
 20
378.7852477434632
 30
0.0
 41
1.5
 42
1.5
 43
1.5
 50
180.0
  0
INSERT
  5
593A
330
5933
100
AcDbEntity
  8
寸法
 62
     0
370
    -2
100
AcDbBlockReference
  2
_DOT
 10
112.4325120145532
 20
378.7852477434632
 30
0.0
 41
1.5
 42
1.5
 43
1.5
  0
MTEXT
  5
593B
330
5933
100
AcDbEntity
  8
寸法
  6
Continuous
 62
     0
100
AcDbMText
 10
108.1825120145532
 20
383.2852477434632
 30
0.0
 40
5.0
 41
0.0
 46
0.0
 71
     5
 72
     1
  1
\A1;8.5
  7
ＭＳ ゴシック
 73
     1
 44
1.0
  0
POINT
  5
593C
330
5933
100
AcDbEntity
  8
Defpoints
 62
     0
100
AcDbPoint
 10
103.9325120145532
 20
367.0686993856674
 30
0.0
  0
POINT
  5
593D
330
5933
100
AcDbEntity
  8
Defpoints
 62
     0
100
AcDbPoint
 10
112.4325120145532
 20
367.0686993856674
 30
0.0
  0
POINT
  5
593E
330
5933
100
AcDbEntity
  8
Defpoints
 62
     0
100
AcDbPoint
 10
112.4325120145532
 20
378.7852477434632
 30
0.0
  0
ENDBLK
  5
5935
330
5933
100
AcDbEntity
  8
0
100
AcDbBlockEnd
  0
BLOCK
  5
5940
330
593F
100
AcDbEntity
  8
0
100
AcDbBlockBegin
  2
*D29
 70
     1
 10
0.0
 20
0.0
 30
0.0
  3
*D29
  1
*D30
  0
LINE
  5
5942
330
593F
100
AcDbEntity
  8
寸法
  6
Continuous
 62
     0
370
    -2
100
AcDbLine
 10
153.7210231602585
 20
354.7335990428102
 30
0.0
 11
169.1440199581583
 21
354.7335990428102
 31
0.0
  0
LINE
  5
5943
330
593F
100
AcDbEntity
  8
寸法
  6
Continuous
 62
     0
370
    -2
100
AcDbLine
 10
159.4759396838726
 20
348.7335990428102
 30
0.0
 11
169.1440199581583
 21
348.7335990428102
 31
0.0
  0
LINE
  5
5944
330
593F
100
AcDbEntity
  8
寸法
  6
Continuous
 62
     0
370
    -2
100
AcDbLine
 10
169.1440199581583
 20
353.2335990428102
 30
0.0
 11
169.1440199581583
 21
350.2335990428102
 31
0.0
  0
INSERT
  5
5945
330
593F
100
AcDbEntity
  8
寸法
 62
     0
370
    -2
100
AcDbBlockReference
  2
_DOT
 10
169.1440199581583
 20
354.7335990428102
 30
0.0
 41
1.5
 42
1.5
 43
1.5
 50
90.0
  0
INSERT
  5
5946
330
593F
100
AcDbEntity
  8
寸法
 62
     0
370
    -2
100
AcDbBlockReference
  2
_DOT
 10
169.1440199581583
 20
348.7335990428102
 30
0.0
 41
1.5
 42
1.5
 43
1.5
 50
270.0
  0
MTEXT
  5
5947
330
593F
100
AcDbEntity
  8
寸法
  6
Continuous
 62
     0
100
AcDbMText
 10
164.6440199581583
 20
351.7335990428102
 30
0.0
 40
5.0
 41
0.0
 46
0.0
 71
     5
 72
     1
  1
\A1;6
  7
ＭＳ ゴシック
 11
0.0
 21
1.0
 31
0.0
 73
     1
 44
1.0
  0
POINT
  5
5948
330
593F
100
AcDbEntity
  8
Defpoints
 62
     0
100
AcDbPoint
 10
148.7210231602585
 20
354.7335990428102
 30
0.0
  0
POINT
  5
5949
330
593F
100
AcDbEntity
  8
Defpoints
 62
     0
100
AcDbPoint
 10
154.4759396838726
 20
348.7335990428102
 30
0.0
  0
POINT
  5
594A
330
593F
100
AcDbEntity
  8
Defpoints
 62
     0
100
AcDbPoint
 10
169.1440199581583
 20
348.7335990428102
 30
0.0
  0
ENDBLK
  5
5941
330
593F
100
AcDbEntity
  8
0
100
AcDbBlockEnd
  0
BLOCK
  5
5AF7
330
5AF6
100
AcDbEntity
  8
0
100
AcDbBlockBegin
  2
*D30
 70
     1
 10
0.0
 20
0.0
 30
0.0
  3
*D30
  1

  0
LINE
  5
5AF9
330
5AF6
100
AcDbEntity
  8
DIM
  6
Continuous
 62
     0
370
    -2
100
AcDbLine
 10
254.8553774545454
 20
304.9692617244852
 30
0.0
 11
272.1376174545454
 21
304.9692617244852
 31
0.0
  0
LINE
  5
5AFA
330
5AF6
100
AcDbEntity
  8
DIM
  6
Continuous
 62
     0
370
    -2
100
AcDbLine
 10
254.8553774545454
 20
283.9692617244852
 30
0.0
 11
272.1376174545454
 21
283.9692617244852
 31
0.0
  0
LINE
  5
5AFB
330
5AF6
100
AcDbEntity
  8
DIM
  6
Continuous
 62
     0
370
    -2
100
AcDbLine
 10
272.1376174545454
 20
303.4692617244852
 30
0.0
 11
272.1376174545454
 21
285.4692617244852
 31
0.0
  0
INSERT
  5
5AFC
330
5AF6
100
AcDbEntity
  8
DIM
 62
     0
370
    -2
100
AcDbBlockReference
  2
_DOT
 10
272.1376174545454
 20
304.9692617244852
 30
0.0
 41
1.5
 42
1.5
 43
1.5
 50
90.0
  0
INSERT
  5
5AFD
330
5AF6
100
AcDbEntity
  8
DIM
 62
     0
370
    -2
100
AcDbBlockReference
  2
_DOT
 10
272.1376174545454
 20
283.9692617244852
 30
0.0
 41
1.5
 42
1.5
 43
1.5
 50
270.0
  0
MTEXT
  5
5AFE
330
5AF6
100
AcDbEntity
  8
DIM
  6
Continuous
 62
     0
100
AcDbMText
 10
267.6376174545454
 20
294.4692617244852
 30
0.0
 40
5.0
 41
0.0
 46
0.0
 71
     5
 72
     1
  1
\A1;21
  7
ＭＳ ゴシック
 11
0.0
 21
1.0
 31
0.0
 73
     1
 44
1.0
  0
POINT
  5
5AFF
330
5AF6
100
AcDbEntity
  8
Defpoints
 62
     0
100
AcDbPoint
 10
249.8553774545454
 20
304.9692617244852
 30
0.0
  0
POINT
  5
5B00
330
5AF6
100
AcDbEntity
  8
Defpoints
 62
     0
100
AcDbPoint
 10
249.8553774545454
 20
283.9692617244852
 30
0.0
  0
POINT
  5
5B01
330
5AF6
100
AcDbEntity
  8
Defpoints
 62
     0
100
AcDbPoint
 10
272.1376174545454
 20
283.9692617244852
 30
0.0
  0
ENDBLK
  5
5AF8
330
5AF6
100
AcDbEntity
  8
0
100
AcDbBlockEnd
  0
BLOCK
  5
5B0A
330
5B09
100
AcDbEntity
  8
0
100
AcDbBlockBegin
  2
*D31
 70
     1
 10
0.0
 20
0.0
 30
0.0
  3
*D31
  1

  0
LINE
  5
5B0C
330
5B09
100
AcDbEntity
  8
DIM
  6
Continuous
 62
     0
370
    -2
100
AcDbLine
 10
535.6116014545454
 20
327.39732300484
 30
0.0
 11
546.4117352727272
 21
327.39732300484
 31
0.0
  0
LINE
  5
5B0D
330
5B09
100
AcDbEntity
  8
DIM
  6
Continuous
 62
     0
370
    -2
100
AcDbLine
 10
535.6116014545454
 20
315.39732300484
 30
0.0
 11
546.4117352727272
 21
315.39732300484
 31
0.0
  0
LINE
  5
5B0E
330
5B09
100
AcDbEntity
  8
DIM
  6
Continuous
 62
     0
370
    -2
100
AcDbLine
 10
546.4117352727272
 20
325.89732300484
 30
0.0
 11
546.4117352727272
 21
316.89732300484
 31
0.0
  0
INSERT
  5
5B0F
330
5B09
100
AcDbEntity
  8
DIM
 62
     0
370
    -2
100
AcDbBlockReference
  2
_DOT
 10
546.4117352727272
 20
327.39732300484
 30
0.0
 41
1.5
 42
1.5
 43
1.5
 50
90.0
  0
INSERT
  5
5B10
330
5B09
100
AcDbEntity
  8
DIM
 62
     0
370
    -2
100
AcDbBlockReference
  2
_DOT
 10
546.4117352727272
 20
315.39732300484
 30
0.0
 41
1.5
 42
1.5
 43
1.5
 50
270.0
  0
MTEXT
  5
5B11
330
5B09
100
AcDbEntity
  8
DIM
  6
Continuous
 62
     0
100
AcDbMText
 10
541.9117352727272
 20
321.39732300484
 30
0.0
 40
5.0
 41
0.0
 46
0.0
 71
     5
 72
     1
  1
\A1;12
  7
ＭＳ ゴシック
 11
0.0
 21
1.0
 31
0.0
 73
     1
 44
1.0
  0
POINT
  5
5B12
330
5B09
100
AcDbEntity
  8
Defpoints
 62
     0
100
AcDbPoint
 10
530.6116014545454
 20
327.39732300484
 30
0.0
  0
POINT
  5
5B13
330
5B09
100
AcDbEntity
  8
Defpoints
 62
     0
100
AcDbPoint
 10
530.6116014545454
 20
315.39732300484
 30
0.0
  0
POINT
  5
5B14
330
5B09
100
AcDbEntity
  8
Defpoints
 62
     0
100
AcDbPoint
 10
546.4117352727272
 20
315.39732300484
 30
0.0
  0
ENDBLK
  5
5B0B
330
5B09
100
AcDbEntity
  8
0
100
AcDbBlockEnd
  0
BLOCK
  5
5B37
330
5B36
100
AcDbEntity
  8
0
100
AcDbBlockBegin
  2
*D32
 70
     1
 10
0.0
 20
0.0
 30
0.0
  3
*D32
  1

  0
LINE
  5
5B39
330
5B36
100
AcDbEntity
  8
DIM
  6
Continuous
 62
     0
370
    -2
100
AcDbLine
 10
110.2229790385805
 20
340.9692617244852
 30
0.0
 11
83.06881325381792
 21
340.9692617244852
 31
0.0
  0
LINE
  5
5B3A
330
5B36
100
AcDbEntity
  8
DIM
  6
Continuous
 62
     0
370
    -2
100
AcDbLine
 10
110.2229790385805
 20
283.9692617244852
 30
0.0
 11
83.06881325381792
 21
283.9692617244852
 31
0.0
  0
LINE
  5
5B3B
330
5B36
100
AcDbEntity
  8
DIM
  6
Continuous
 62
     0
370
    -2
100
AcDbLine
 10
83.06881325381792
 20
339.4692617244852
 30
0.0
 11
83.06881325381792
 21
285.4692617244852
 31
0.0
  0
INSERT
  5
5B3C
330
5B36
100
AcDbEntity
  8
DIM
 62
     0
370
    -2
100
AcDbBlockReference
  2
_DOT
 10
83.06881325381792
 20
340.9692617244852
 30
0.0
 41
1.5
 42
1.5
 43
1.5
 50
90.0
  0
INSERT
  5
5B3D
330
5B36
100
AcDbEntity
  8
DIM
 62
     0
370
    -2
100
AcDbBlockReference
  2
_DOT
 10
83.06881325381792
 20
283.9692617244852
 30
0.0
 41
1.5
 42
1.5
 43
1.5
 50
270.0
  0
MTEXT
  5
5B3E
330
5B36
100
AcDbEntity
  8
DIM
  6
Continuous
 62
     0
100
AcDbMText
 10
78.56881325381792
 20
312.4692617244852
 30
0.0
 40
5.0
 41
0.0
 46
0.0
 71
     5
 72
     1
  1
\A1;57
  7
ＭＳ ゴシック
 11
0.0
 21
1.0
 31
0.0
 73
     1
 44
1.0
  0
POINT
  5
5B3F
330
5B36
100
AcDbEntity
  8
Defpoints
 62
     0
100
AcDbPoint
 10
115.2229790385805
 20
340.9692617244852
 30
0.0
  0
POINT
  5
5B40
330
5B36
100
AcDbEntity
  8
Defpoints
 62
     0
100
AcDbPoint
 10
115.2229790385805
 20
283.9692617244852
 30
0.0
  0
POINT
  5
5B41
330
5B36
100
AcDbEntity
  8
Defpoints
 62
     0
100
AcDbPoint
 10
83.06881325381792
 20
283.9692617244852
 30
0.0
  0
ENDBLK
  5
5B38
330
5B36
100
AcDbEntity
  8
0
100
AcDbBlockEnd
  0
BLOCK
  5
5B90
330
5B8F
100
AcDbEntity
  8
0
100
AcDbBlockBegin
  2
*D33
 70
     1
 10
0.0
 20
0.0
 30
0.0
  3
*D33
  1

  0
LINE
  5
5B91
330
5B8F
100
AcDbEntity
  8
DIM
  6
Continuous
 62
     0
370
    -2
100
AcDbLine
 10
0.75
 20
207.4659644281479
 30
0.0
 11
0.75
 21
230.0416113310096
 31
0.0
  0
LINE
  5
5B92
330
5B8F
100
AcDbEntity
  8
DIM
  6
Continuous
 62
     0
370
    -2
100
AcDbLine
 10
30.75
 20
207.4659644281479
 30
0.0
 11
30.75
 21
230.0416113310096
 31
0.0
  0
LINE
  5
5B93
330
5B8F
100
AcDbEntity
  8
DIM
  6
Continuous
 62
     0
370
    -2
100
AcDbLine
 10
2.25
 20
230.0416113310096
 30
0.0
 11
29.25
 21
230.0416113310096
 31
0.0
  0
INSERT
  5
5B94
330
5B8F
100
AcDbEntity
  8
DIM
 62
     0
370
    -2
100
AcDbBlockReference
  2
_DOT
 10
0.75
 20
230.0416113310096
 30
0.0
 41
1.5
 42
1.5
 43
1.5
 50
180.0
  0
INSERT
  5
5B95
330
5B8F
100
AcDbEntity
  8
DIM
 62
     0
370
    -2
100
AcDbBlockReference
  2
_DOT
 10
30.75
 20
230.0416113310096
 30
0.0
 41
1.5
 42
1.5
 43
1.5
  0
MTEXT
  5
5B96
330
5B8F
100
AcDbEntity
  8
DIM
  6
Continuous
 62
     0
100
AcDbMText
 10
15.75
 20
234.5416113310096
 30
0.0
 40
5.0
 41
0.0
 46
0.0
 71
     5
 72
     1
  1
\A1;30
  7
ＭＳ ゴシック
 73
     1
 44
1.0
  0
POINT
  5
5B97
330
5B8F
100
AcDbEntity
  8
Defpoints
 62
     0
100
AcDbPoint
 10
0.75
 20
202.4659644281479
 30
0.0
  0
POINT
  5
5B98
330
5B8F
100
AcDbEntity
  8
Defpoints
 62
     0
100
AcDbPoint
 10
30.75
 20
202.4659644281479
 30
0.0
  0
POINT
  5
5B99
330
5B8F
100
AcDbEntity
  8
Defpoints
 62
     0
100
AcDbPoint
 10
30.75
 20
230.0416113310096
 30
0.0
  0
ENDBLK
  5
5B9A
330
5B8F
100
AcDbEntity
  8
0
100
AcDbBlockEnd
  0
BLOCK
  5
5B9E
330
5B9D
100
AcDbEntity
  8
0
100
AcDbBlockBegin
  2
*D34
 70
     1
 10
0.0
 20
0.0
 30
0.0
  3
*D34
  1

  0
LINE
  5
5B9F
330
5B9D
100
AcDbEntity
  8
DIM
  6
Continuous
 62
     0
370
    -2
100
AcDbLine
 10
2.25
 20
212.4659644281479
 30
0.0
 11
2.25
 21
219.7362064030096
 31
0.0
  0
LINE
  5
5BA0
330
5B9D
100
AcDbEntity
  8
DIM
  6
Continuous
 62
     0
370
    -2
100
AcDbLine
 10
29.25
 20
212.4659644281479
 30
0.0
 11
29.25
 21
219.7362064030096
 31
0.0
  0
LINE
  5
5BA1
330
5B9D
100
AcDbEntity
  8
DIM
  6
Continuous
 62
     0
370
    -2
100
AcDbLine
 10
3.75
 20
219.7362064030096
 30
0.0
 11
27.75
 21
219.7362064030096
 31
0.0
  0
INSERT
  5
5BA2
330
5B9D
100
AcDbEntity
  8
DIM
 62
     0
370
    -2
100
AcDbBlockReference
  2
_DOT
 10
2.25
 20
219.7362064030096
 30
0.0
 41
1.5
 42
1.5
 43
1.5
 50
180.0
  0
INSERT
  5
5BA3
330
5B9D
100
AcDbEntity
  8
DIM
 62
     0
370
    -2
100
AcDbBlockReference
  2
_DOT
 10
29.25
 20
219.7362064030096
 30
0.0
 41
1.5
 42
1.5
 43
1.5
  0
MTEXT
  5
5BA4
330
5B9D
100
AcDbEntity
  8
DIM
  6
Continuous
 62
     0
100
AcDbMText
 10
15.75
 20
224.2362064030096
 30
0.0
 40
5.0
 41
0.0
 46
0.0
 71
     5
 72
     1
  1
\A1;27
  7
ＭＳ ゴシック
 73
     1
 44
1.0
  0
POINT
  5
5BA5
330
5B9D
100
AcDbEntity
  8
Defpoints
 62
     0
100
AcDbPoint
 10
2.25
 20
207.4659644281479
 30
0.0
  0
POINT
  5
5BA6
330
5B9D
100
AcDbEntity
  8
Defpoints
 62
     0
100
AcDbPoint
 10
29.25
 20
207.4659644281479
 30
0.0
  0
POINT
  5
5BA7
330
5B9D
100
AcDbEntity
  8
Defpoints
 62
     0
100
AcDbPoint
 10
29.25
 20
219.7362064030096
 30
0.0
  0
ENDBLK
  5
5BA8
330
5B9D
100
AcDbEntity
  8
0
100
AcDbBlockEnd
  0
BLOCK
  5
5BAE
330
5BAD
100
AcDbEntity
  8
0
100
AcDbBlockBegin
  2
*D35
 70
     1
 10
0.0
 20
0.0
 30
0.0
  3
*D35
  1

  0
LINE
  5
5BAF
330
5BAD
100
AcDbEntity
  8
DIM
  6
Continuous
 62
     0
370
    -2
100
AcDbLine
 10
35.75
 20
200.4659644281479
 30
0.0
 11
46.31359482494815
 21
200.4659644281479
 31
0.0
  0
LINE
  5
5BB0
330
5BAD
100
AcDbEntity
  8
DIM
  6
Continuous
 62
     0
370
    -2
100
AcDbLine
 10
35.75
 20
202.4659644281479
 30
0.0
 11
46.31359482494815
 21
202.4659644281479
 31
0.0
  0
LINE
  5
5BB1
330
5BAD
100
AcDbEntity
  8
DIM
  6
Continuous
 62
     0
370
    -2
100
AcDbLine
 10
46.31359482494815
 20
200.4659644281479
 30
0.0
 11
46.31359482494815
 21
190.8809644281479
 31
0.0
  0
LINE
  5
5BB2
330
5BAD
100
AcDbEntity
  8
DIM
  6
Continuous
 62
     0
370
    -2
100
AcDbLine
 10
46.31359482494815
 20
201.9659644281479
 30
0.0
 11
46.31359482494815
 21
203.4659644281479
 31
0.0
  0
LINE
  5
5BB3
330
5BAD
100
AcDbEntity
  8
DIM
  6
Continuous
 62
     0
370
    -2
100
AcDbLine
 10
46.31359482494815
 20
202.4659644281479
 30
0.0
 11
46.31359482494815
 21
203.9659644281479
 31
0.0
  0
INSERT
  5
5BB4
330
5BAD
100
AcDbEntity
  8
DIM
 62
     0
370
    -2
100
AcDbBlockReference
  2
_DOT
 10
46.31359482494815
 20
200.4659644281479
 30
0.0
 41
1.5
 42
1.5
 43
1.5
 50
270.0
  0
INSERT
  5
5BB5
330
5BAD
100
AcDbEntity
  8
DIM
 62
     0
370
    -2
100
AcDbBlockReference
  2
_DOT
 10
46.31359482494815
 20
202.4659644281479
 30
0.0
 41
1.5
 42
1.5
 43
1.5
 50
90.0
  0
MTEXT
  5
5BB6
330
5BAD
100
AcDbEntity
  8
DIM
  6
Continuous
 62
     0
100
AcDbMText
 10
41.81359482494815
 20
194.1734644281479
 30
0.0
 40
5.0
 41
0.0
 46
0.0
 71
     5
 72
     1
  1
\A1;2
  7
ＭＳ ゴシック
 11
0.0
 21
1.0
 31
0.0
 73
     1
 44
1.0
  0
POINT
  5
5BB7
330
5BAD
100
AcDbEntity
  8
Defpoints
 62
     0
100
AcDbPoint
 10
30.75
 20
200.4659644281479
 30
0.0
  0
POINT
  5
5BB8
330
5BAD
100
AcDbEntity
  8
Defpoints
 62
     0
100
AcDbPoint
 10
30.75
 20
202.4659644281479
 30
0.0
  0
POINT
  5
5BB9
330
5BAD
100
AcDbEntity
  8
Defpoints
 62
     0
100
AcDbPoint
 10
46.31359482494815
 20
202.4659644281479
 30
0.0
  0
ENDBLK
  5
5BBA
330
5BAD
100
AcDbEntity
  8
0
100
AcDbBlockEnd
  0
BLOCK
  5
5BBF
330
5BBE
100
AcDbEntity
  8
0
100
AcDbBlockBegin
  2
*D36
 70
     1
 10
0.0
 20
0.0
 30
0.0
  3
*D36
  1

  0
LINE
  5
5BC0
330
5BBE
100
AcDbEntity
  8
DIM
  6
Continuous
 62
     0
370
    -2
100
AcDbLine
 10
34.25
 20
207.4659644281479
 30
0.0
 11
46.31359482494815
 21
207.4659644281479
 31
0.0
  0
LINE
  5
5BC1
330
5BBE
100
AcDbEntity
  8
DIM
  6
Continuous
 62
     0
370
    -2
100
AcDbLine
 10
35.75
 20
202.4659644281479
 30
0.0
 11
46.31359482494815
 21
202.4659644281479
 31
0.0
  0
LINE
  5
5BC2
330
5BBE
100
AcDbEntity
  8
DIM
  6
Continuous
 62
     0
370
    -2
100
AcDbLine
 10
46.31359482494815
 20
205.9659644281479
 30
0.0
 11
46.31359482494815
 21
203.9659644281479
 31
0.0
  0
INSERT
  5
5BC3
330
5BBE
100
AcDbEntity
  8
DIM
 62
     0
370
    -2
100
AcDbBlockReference
  2
_DOT
 10
46.31359482494815
 20
207.4659644281479
 30
0.0
 41
1.5
 42
1.5
 43
1.5
 50
90.0
  0
INSERT
  5
5BC4
330
5BBE
100
AcDbEntity
  8
DIM
 62
     0
370
    -2
100
AcDbBlockReference
  2
_DOT
 10
46.31359482494815
 20
202.4659644281479
 30
0.0
 41
1.5
 42
1.5
 43
1.5
 50
270.0
  0
MTEXT
  5
5BC5
330
5BBE
100
AcDbEntity
  8
DIM
  6
Continuous
 62
     0
100
AcDbMText
 10
41.81359482494815
 20
204.9659644281479
 30
0.0
 40
5.0
 41
0.0
 46
0.0
 71
     5
 72
     1
  1
\A1;5
  7
ＭＳ ゴシック
 11
0.0
 21
1.0
 31
0.0
 73
     1
 44
1.0
  0
POINT
  5
5BC6
330
5BBE
100
AcDbEntity
  8
Defpoints
 62
     0
100
AcDbPoint
 10
29.25
 20
207.4659644281479
 30
0.0
  0
POINT
  5
5BC7
330
5BBE
100
AcDbEntity
  8
Defpoints
 62
     0
100
AcDbPoint
 10
30.75
 20
202.4659644281479
 30
0.0
  0
POINT
  5
5BC8
330
5BBE
100
AcDbEntity
  8
Defpoints
 62
     0
100
AcDbPoint
 10
46.31359482494815
 20
202.4659644281479
 30
0.0
  0
ENDBLK
  5
5BC9
330
5BBE
100
AcDbEntity
  8
0
100
AcDbBlockEnd
  0
BLOCK
  5
5C02
330
5C01
100
AcDbEntity
  8
0
100
AcDbBlockBegin
  2
*D37
 70
     1
 10
0.0
 20
0.0
 30
0.0
  3
*D37
  1

  0
LINE
  5
5C04
330
5C01
100
AcDbEntity
  8
DIM
  6
Continuous
 62
     0
370
    -2
100
AcDbLine
 10
112.2229790385805
 20
347.9692617244852
 30
0.0
 11
112.2229790385805
 21
370.544908627347
 31
0.0
  0
LINE
  5
5C05
330
5C01
100
AcDbEntity
  8
DIM
  6
Continuous
 62
     0
370
    -2
100
AcDbLine
 10
142.2229790385805
 20
347.9692617244852
 30
0.0
 11
142.2229790385805
 21
370.544908627347
 31
0.0
  0
LINE
  5
5C06
330
5C01
100
AcDbEntity
  8
DIM
  6
Continuous
 62
     0
370
    -2
100
AcDbLine
 10
113.7229790385805
 20
370.544908627347
 30
0.0
 11
140.7229790385805
 21
370.544908627347
 31
0.0
  0
INSERT
  5
5C07
330
5C01
100
AcDbEntity
  8
DIM
 62
     0
370
    -2
100
AcDbBlockReference
  2
_DOT
 10
112.2229790385805
 20
370.544908627347
 30
0.0
 41
1.5
 42
1.5
 43
1.5
 50
180.0
  0
INSERT
  5
5C08
330
5C01
100
AcDbEntity
  8
DIM
 62
     0
370
    -2
100
AcDbBlockReference
  2
_DOT
 10
142.2229790385805
 20
370.544908627347
 30
0.0
 41
1.5
 42
1.5
 43
1.5
  0
MTEXT
  5
5C09
330
5C01
100
AcDbEntity
  8
DIM
  6
Continuous
 62
     0
100
AcDbMText
 10
127.2229790385805
 20
375.044908627347
 30
0.0
 40
5.0
 41
0.0
 46
0.0
 71
     5
 72
     1
  1
\A1;30
  7
ＭＳ ゴシック
 73
     1
 44
1.0
  0
POINT
  5
5C0A
330
5C01
100
AcDbEntity
  8
Defpoints
 62
     0
100
AcDbPoint
 10
112.2229790385805
 20
342.9692617244852
 30
0.0
  0
POINT
  5
5C0B
330
5C01
100
AcDbEntity
  8
Defpoints
 62
     0
100
AcDbPoint
 10
142.2229790385805
 20
342.9692617244852
 30
0.0
  0
POINT
  5
5C0C
330
5C01
100
AcDbEntity
  8
Defpoints
 62
     0
100
AcDbPoint
 10
142.2229790385805
 20
370.544908627347
 30
0.0
  0
ENDBLK
  5
5C03
330
5C01
100
AcDbEntity
  8
0
100
AcDbBlockEnd
  0
BLOCK
  5
5C0E
330
5C0D
100
AcDbEntity
  8
0
100
AcDbBlockBegin
  2
*D38
 70
     1
 10
0.0
 20
0.0
 30
0.0
  3
*D38
  1

  0
LINE
  5
5C10
330
5C0D
100
AcDbEntity
  8
DIM
  6
Continuous
 62
     0
370
    -2
100
AcDbLine
 10
113.7229790385805
 20
352.9692617244852
 30
0.0
 11
113.7229790385805
 21
360.2395036993469
 31
0.0
  0
LINE
  5
5C11
330
5C0D
100
AcDbEntity
  8
DIM
  6
Continuous
 62
     0
370
    -2
100
AcDbLine
 10
140.7229790385805
 20
352.9692617244852
 30
0.0
 11
140.7229790385805
 21
360.2395036993469
 31
0.0
  0
LINE
  5
5C12
330
5C0D
100
AcDbEntity
  8
DIM
  6
Continuous
 62
     0
370
    -2
100
AcDbLine
 10
115.2229790385805
 20
360.2395036993469
 30
0.0
 11
139.2229790385805
 21
360.2395036993469
 31
0.0
  0
INSERT
  5
5C13
330
5C0D
100
AcDbEntity
  8
DIM
 62
     0
370
    -2
100
AcDbBlockReference
  2
_DOT
 10
113.7229790385805
 20
360.2395036993469
 30
0.0
 41
1.5
 42
1.5
 43
1.5
 50
180.0
  0
INSERT
  5
5C14
330
5C0D
100
AcDbEntity
  8
DIM
 62
     0
370
    -2
100
AcDbBlockReference
  2
_DOT
 10
140.7229790385805
 20
360.2395036993469
 30
0.0
 41
1.5
 42
1.5
 43
1.5
  0
MTEXT
  5
5C15
330
5C0D
100
AcDbEntity
  8
DIM
  6
Continuous
 62
     0
100
AcDbMText
 10
127.2229790385805
 20
364.7395036993469
 30
0.0
 40
5.0
 41
0.0
 46
0.0
 71
     5
 72
     1
  1
\A1;27
  7
ＭＳ ゴシック
 73
     1
 44
1.0
  0
POINT
  5
5C16
330
5C0D
100
AcDbEntity
  8
Defpoints
 62
     0
100
AcDbPoint
 10
113.7229790385805
 20
347.9692617244852
 30
0.0
  0
POINT
  5
5C17
330
5C0D
100
AcDbEntity
  8
Defpoints
 62
     0
100
AcDbPoint
 10
140.7229790385805
 20
347.9692617244852
 30
0.0
  0
POINT
  5
5C18
330
5C0D
100
AcDbEntity
  8
Defpoints
 62
     0
100
AcDbPoint
 10
140.7229790385805
 20
360.2395036993469
 30
0.0
  0
ENDBLK
  5
5C0F
330
5C0D
100
AcDbEntity
  8
0
100
AcDbBlockEnd
  0
BLOCK
  5
5C1A
330
5C19
100
AcDbEntity
  8
0
100
AcDbBlockBegin
  2
*D39
 70
     1
 10
0.0
 20
0.0
 30
0.0
  3
*D39
  1

  0
LINE
  5
5C1C
330
5C19
100
AcDbEntity
  8
DIM
  6
Continuous
 62
     0
370
    -2
100
AcDbLine
 10
147.2229790385805
 20
340.9692617244852
 30
0.0
 11
157.7865738635286
 21
340.9692617244852
 31
0.0
  0
LINE
  5
5C1D
330
5C19
100
AcDbEntity
  8
DIM
  6
Continuous
 62
     0
370
    -2
100
AcDbLine
 10
147.2229790385805
 20
342.9692617244852
 30
0.0
 11
157.7865738635286
 21
342.9692617244852
 31
0.0
  0
LINE
  5
5C1E
330
5C19
100
AcDbEntity
  8
DIM
  6
Continuous
 62
     0
370
    -2
100
AcDbLine
 10
157.7865738635286
 20
340.9692617244852
 30
0.0
 11
157.7865738635286
 21
331.3842617244852
 31
0.0
  0
LINE
  5
5C1F
330
5C19
100
AcDbEntity
  8
DIM
  6
Continuous
 62
     0
370
    -2
100
AcDbLine
 10
157.7865738635286
 20
342.4692617244852
 30
0.0
 11
157.7865738635286
 21
343.9692617244852
 31
0.0
  0
LINE
  5
5C20
330
5C19
100
AcDbEntity
  8
DIM
  6
Continuous
 62
     0
370
    -2
100
AcDbLine
 10
157.7865738635286
 20
342.9692617244852
 30
0.0
 11
157.7865738635286
 21
344.4692617244852
 31
0.0
  0
INSERT
  5
5C21
330
5C19
100
AcDbEntity
  8
DIM
 62
     0
370
    -2
100
AcDbBlockReference
  2
_DOT
 10
157.7865738635286
 20
340.9692617244852
 30
0.0
 41
1.5
 42
1.5
 43
1.5
 50
270.0
  0
INSERT
  5
5C22
330
5C19
100
AcDbEntity
  8
DIM
 62
     0
370
    -2
100
AcDbBlockReference
  2
_DOT
 10
157.7865738635286
 20
342.9692617244852
 30
0.0
 41
1.5
 42
1.5
 43
1.5
 50
90.0
  0
MTEXT
  5
5C23
330
5C19
100
AcDbEntity
  8
DIM
  6
Continuous
 62
     0
100
AcDbMText
 10
153.2865738635286
 20
334.6767617244852
 30
0.0
 40
5.0
 41
0.0
 46
0.0
 71
     5
 72
     1
  1
\A1;2
  7
ＭＳ ゴシック
 11
0.0
 21
1.0
 31
0.0
 73
     1
 44
1.0
  0
POINT
  5
5C24
330
5C19
100
AcDbEntity
  8
Defpoints
 62
     0
100
AcDbPoint
 10
142.2229790385805
 20
340.9692617244852
 30
0.0
  0
POINT
  5
5C25
330
5C19
100
AcDbEntity
  8
Defpoints
 62
     0
100
AcDbPoint
 10
142.2229790385805
 20
342.9692617244852
 30
0.0
  0
POINT
  5
5C26
330
5C19
100
AcDbEntity
  8
Defpoints
 62
     0
100
AcDbPoint
 10
157.7865738635286
 20
342.9692617244852
 30
0.0
  0
ENDBLK
  5
5C1B
330
5C19
100
AcDbEntity
  8
0
100
AcDbBlockEnd
  0
BLOCK
  5
5C28
330
5C27
100
AcDbEntity
  8
0
100
AcDbBlockBegin
  2
*D40
 70
     1
 10
0.0
 20
0.0
 30
0.0
  3
*D40
  1

  0
LINE
  5
5C2A
330
5C27
100
AcDbEntity
  8
DIM
  6
Continuous
 62
     0
370
    -2
100
AcDbLine
 10
145.7229790385805
 20
347.9692617244852
 30
0.0
 11
157.7865738635286
 21
347.9692617244852
 31
0.0
  0
LINE
  5
5C2B
330
5C27
100
AcDbEntity
  8
DIM
  6
Continuous
 62
     0
370
    -2
100
AcDbLine
 10
147.2229790385805
 20
342.9692617244852
 30
0.0
 11
157.7865738635286
 21
342.9692617244852
 31
0.0
  0
LINE
  5
5C2C
330
5C27
100
AcDbEntity
  8
DIM
  6
Continuous
 62
     0
370
    -2
100
AcDbLine
 10
157.7865738635286
 20
346.4692617244852
 30
0.0
 11
157.7865738635286
 21
344.4692617244852
 31
0.0
  0
INSERT
  5
5C2D
330
5C27
100
AcDbEntity
  8
DIM
 62
     0
370
    -2
100
AcDbBlockReference
  2
_DOT
 10
157.7865738635286
 20
347.9692617244852
 30
0.0
 41
1.5
 42
1.5
 43
1.5
 50
90.0
  0
INSERT
  5
5C2E
330
5C27
100
AcDbEntity
  8
DIM
 62
     0
370
    -2
100
AcDbBlockReference
  2
_DOT
 10
157.7865738635286
 20
342.9692617244852
 30
0.0
 41
1.5
 42
1.5
 43
1.5
 50
270.0
  0
MTEXT
  5
5C2F
330
5C27
100
AcDbEntity
  8
DIM
  6
Continuous
 62
     0
100
AcDbMText
 10
153.2865738635286
 20
345.4692617244852
 30
0.0
 40
5.0
 41
0.0
 46
0.0
 71
     5
 72
     1
  1
\A1;5
  7
ＭＳ ゴシック
 11
0.0
 21
1.0
 31
0.0
 73
     1
 44
1.0
  0
POINT
  5
5C30
330
5C27
100
AcDbEntity
  8
Defpoints
 62
     0
100
AcDbPoint
 10
140.7229790385805
 20
347.9692617244852
 30
0.0
  0
POINT
  5
5C31
330
5C27
100
AcDbEntity
  8
Defpoints
 62
     0
100
AcDbPoint
 10
142.2229790385805
 20
342.9692617244852
 30
0.0
  0
POINT
  5
5C32
330
5C27
100
AcDbEntity
  8
Defpoints
 62
     0
100
AcDbPoint
 10
157.7865738635286
 20
342.9692617244852
 30
0.0
  0
ENDBLK
  5
5C29
330
5C27
100
AcDbEntity
  8
0
100
AcDbBlockEnd
  0
BLOCK
  5
5D95
330
5D94
100
AcDbEntity
  8
0
100
AcDbBlockBegin
  2
*D41
 70
     1
 10
0.0
 20
0.0
 30
0.0
  3
*D41
  1

  0
LINE
  5
5D96
330
5D94
100
AcDbEntity
  8
寸法
  6
Continuous
 62
     0
370
    -2
100
AcDbLine
 10
115.2052558458749
 20
303.794070725264
 30
0.0
 11
115.2052558458749
 21
288.448840151157
 31
0.0
  0
LINE
  5
5D97
330
5D94
100
AcDbEntity
  8
寸法
  6
Continuous
 62
     0
370
    -2
100
AcDbLine
 10
246.199812904345
 20
317.2804763466514
 30
0.0
 11
246.199812904345
 21
288.448840151157
 31
0.0
  0
LINE
  5
5D98
330
5D94
100
AcDbEntity
  8
寸法
  6
Continuous
 62
     0
370
    -2
100
AcDbLine
 10
116.7052558458749
 20
288.448840151157
 30
0.0
 11
244.699812904345
 21
288.448840151157
 31
0.0
  0
INSERT
  5
5D99
330
5D94
100
AcDbEntity
  8
寸法
 62
     0
370
    -2
100
AcDbBlockReference
  2
_DOT
 10
115.2052558458749
 20
288.448840151157
 30
0.0
 41
1.5
 42
1.5
 43
1.5
 50
180.0
  0
INSERT
  5
5D9A
330
5D94
100
AcDbEntity
  8
寸法
 62
     0
370
    -2
100
AcDbBlockReference
  2
_DOT
 10
246.199812904345
 20
288.448840151157
 30
0.0
 41
1.5
 42
1.5
 43
1.5
  0
MTEXT
  5
5D9B
330
5D94
100
AcDbEntity
  8
寸法
  6
Continuous
 62
     0
100
AcDbMText
 10
180.70253437511
 20
292.948840151157
 30
0.0
 40
5.0
 41
0.0
 46
0.0
 71
     5
 72
     1
  1
\A1;131
  7
ＭＳ ゴシック
 73
     1
 44
1.0
  0
POINT
  5
5D9C
330
5D94
100
AcDbEntity
  8
Defpoints
 62
     0
100
AcDbPoint
 10
115.2052558458749
 20
308.794070725264
 30
0.0
  0
POINT
  5
5D9D
330
5D94
100
AcDbEntity
  8
Defpoints
 62
     0
100
AcDbPoint
 10
246.199812904345
 20
322.2804763466514
 30
0.0
  0
POINT
  5
5D9E
330
5D94
100
AcDbEntity
  8
Defpoints
 62
     0
100
AcDbPoint
 10
246.199812904345
 20
288.448840151157
 30
0.0
  0
ENDBLK
  5
5D9F
330
5D94
100
AcDbEntity
  8
0
100
AcDbBlockEnd
  0
BLOCK
  5
5DA2
330
5DA1
100
AcDbEntity
  8
0
100
AcDbBlockBegin
  2
*D42
 70
     1
 10
0.0
 20
0.0
 30
0.0
  3
*D42
  1

  0
LINE
  5
5DA3
330
5DA1
100
AcDbEntity
  8
DIM
  6
Continuous
 62
     0
370
    -2
100
AcDbLine
 10
110.2052558458749
 20
367.7311093070652
 30
0.0
 11
88.38178428781589
 21
367.7311093070652
 31
0.0
  0
LINE
  5
5DA4
330
5DA1
100
AcDbEntity
  8
DIM
  6
Continuous
 62
     0
370
    -2
100
AcDbLine
 10
110.2052558458761
 20
304.7311093070652
 30
0.0
 11
88.38178428781589
 21
304.7311093070652
 31
0.0
  0
LINE
  5
5DA5
330
5DA1
100
AcDbEntity
  8
DIM
  6
Continuous
 62
     0
370
    -2
100
AcDbLine
 10
88.38178428781589
 20
366.2311093070652
 30
0.0
 11
88.38178428781589
 21
306.2311093070652
 31
0.0
  0
INSERT
  5
5DA6
330
5DA1
100
AcDbEntity
  8
DIM
 62
     0
370
    -2
100
AcDbBlockReference
  2
_DOT
 10
88.38178428781589
 20
367.7311093070652
 30
0.0
 41
1.5
 42
1.5
 43
1.5
 50
90.0
  0
INSERT
  5
5DA7
330
5DA1
100
AcDbEntity
  8
DIM
 62
     0
370
    -2
100
AcDbBlockReference
  2
_DOT
 10
88.38178428781589
 20
304.7311093070652
 30
0.0
 41
1.5
 42
1.5
 43
1.5
 50
270.0
  0
MTEXT
  5
5DA8
330
5DA1
100
AcDbEntity
  8
DIM
  6
Continuous
 62
     0
100
AcDbMText
 10
83.88178428781589
 20
336.2311093070652
 30
0.0
 40
5.0
 41
0.0
 46
0.0
 71
     5
 72
     1
  1
\A1;63
  7
ＭＳ ゴシック
 11
0.0
 21
1.0
 31
0.0
 73
     1
 44
1.0
  0
POINT
  5
5DA9
330
5DA1
100
AcDbEntity
  8
Defpoints
 62
     0
100
AcDbPoint
 10
115.2052558458749
 20
367.7311093070652
 30
0.0
  0
POINT
  5
5DAA
330
5DA1
100
AcDbEntity
  8
Defpoints
 62
     0
100
AcDbPoint
 10
115.2052558458761
 20
304.7311093070652
 30
0.0
  0
POINT
  5
5DAB
330
5DA1
100
AcDbEntity
  8
Defpoints
 62
     0
100
AcDbPoint
 10
88.38178428781589
 20
304.7311093070652
 30
0.0
  0
ENDBLK
  5
5DAC
330
5DA1
100
AcDbEntity
  8
0
100
AcDbBlockEnd
  0
BLOCK
  5
5DB6
330
5DB5
100
AcDbEntity
  8
0
100
AcDbBlockBegin
  2
*D43
 70
     1
 10
0.0
 20
0.0
 30
0.0
  3
*D43
  1

  0
LINE
  5
5DB7
330
5DB5
100
AcDbEntity
  8
DIM
  6
Continuous
 62
     0
370
    -2
100
AcDbLine
 10
112.2052558458749
 20
370.8996126030653
 30
0.0
 11
112.2052558458749
 21
389.5312692393573
 31
0.0
  0
LINE
  5
5DB8
330
5DB5
100
AcDbEntity
  8
DIM
  6
Continuous
 62
     0
370
    -2
100
AcDbLine
 10
142.2052558458749
 20
370.8996126030653
 30
0.0
 11
142.2052558458749
 21
389.5312692393573
 31
0.0
  0
LINE
  5
5DB9
330
5DB5
100
AcDbEntity
  8
DIM
  6
Continuous
 62
     0
370
    -2
100
AcDbLine
 10
113.7052558458749
 20
389.5312692393573
 30
0.0
 11
140.7052558458749
 21
389.5312692393573
 31
0.0
  0
INSERT
  5
5DBA
330
5DB5
100
AcDbEntity
  8
DIM
 62
     0
370
    -2
100
AcDbBlockReference
  2
_DOT
 10
112.2052558458749
 20
389.5312692393573
 30
0.0
 41
1.5
 42
1.5
 43
1.5
 50
180.0
  0
INSERT
  5
5DBB
330
5DB5
100
AcDbEntity
  8
DIM
 62
     0
370
    -2
100
AcDbBlockReference
  2
_DOT
 10
142.2052558458749
 20
389.5312692393573
 30
0.0
 41
1.5
 42
1.5
 43
1.5
  0
MTEXT
  5
5DBC
330
5DB5
100
AcDbEntity
  8
DIM
  6
Continuous
 62
     0
100
AcDbMText
 10
127.2052558458749
 20
394.0312692393573
 30
0.0
 40
5.0
 41
0.0
 46
0.0
 71
     5
 72
     1
  1
\A1;30
  7
ＭＳ ゴシック
 73
     1
 44
1.0
  0
POINT
  5
5DBD
330
5DB5
100
AcDbEntity
  8
Defpoints
 62
     0
100
AcDbPoint
 10
112.2052558458749
 20
365.8996126030653
 30
0.0
  0
POINT
  5
5DBE
330
5DB5
100
AcDbEntity
  8
Defpoints
 62
     0
100
AcDbPoint
 10
142.2052558458749
 20
365.8996126030653
 30
0.0
  0
POINT
  5
5DBF
330
5DB5
100
AcDbEntity
  8
Defpoints
 62
     0
100
AcDbPoint
 10
142.2052558458749
 20
389.5312692393573
 30
0.0
  0
ENDBLK
  5
5DC0
330
5DB5
100
AcDbEntity
  8
0
100
AcDbBlockEnd
  0
BLOCK
  5
5DC3
330
5DC2
100
AcDbEntity
  8
0
100
AcDbBlockBegin
  2
*D44
 70
     1
 10
0.0
 20
0.0
 30
0.0
  3
*D44
  1

  0
LINE
  5
5DC4
330
5DC2
100
AcDbEntity
  8
DIM
  6
Continuous
 62
     0
370
    -2
100
AcDbLine
 10
113.7052558458749
 20
377.0886977870651
 30
0.0
 11
113.7052558458749
 21
380.723818774496
 31
0.0
  0
LINE
  5
5DC5
330
5DC2
100
AcDbEntity
  8
DIM
  6
Continuous
 62
     0
370
    -2
100
AcDbLine
 10
140.7052558458749
 20
377.0886977870652
 30
0.0
 11
140.7052558458749
 21
380.723818774496
 31
0.0
  0
LINE
  5
5DC6
330
5DC2
100
AcDbEntity
  8
DIM
  6
Continuous
 62
     0
370
    -2
100
AcDbLine
 10
115.2052558458749
 20
380.723818774496
 30
0.0
 11
139.2052558458749
 21
380.723818774496
 31
0.0
  0
INSERT
  5
5DC7
330
5DC2
100
AcDbEntity
  8
DIM
 62
     0
370
    -2
100
AcDbBlockReference
  2
_DOT
 10
113.7052558458749
 20
380.723818774496
 30
0.0
 41
1.5
 42
1.5
 43
1.5
 50
180.0
  0
INSERT
  5
5DC8
330
5DC2
100
AcDbEntity
  8
DIM
 62
     0
370
    -2
100
AcDbBlockReference
  2
_DOT
 10
140.7052558458749
 20
380.723818774496
 30
0.0
 41
1.5
 42
1.5
 43
1.5
  0
MTEXT
  5
5DC9
330
5DC2
100
AcDbEntity
  8
DIM
  6
Continuous
 62
     0
100
AcDbMText
 10
127.2052558458749
 20
385.223818774496
 30
0.0
 40
5.0
 41
0.0
 46
0.0
 71
     5
 72
     1
  1
\A1;27
  7
ＭＳ ゴシック
 73
     1
 44
1.0
  0
POINT
  5
5DCA
330
5DC2
100
AcDbEntity
  8
Defpoints
 62
     0
100
AcDbPoint
 10
113.7052558458749
 20
372.0886977870651
 30
0.0
  0
POINT
  5
5DCB
330
5DC2
100
AcDbEntity
  8
Defpoints
 62
     0
100
AcDbPoint
 10
140.7052558458749
 20
372.0886977870652
 30
0.0
  0
POINT
  5
5DCC
330
5DC2
100
AcDbEntity
  8
Defpoints
 62
     0
100
AcDbPoint
 10
140.7052558458749
 20
380.723818774496
 30
0.0
  0
ENDBLK
  5
5DCD
330
5DC2
100
AcDbEntity
  8
0
100
AcDbBlockEnd
  0
BLOCK
  5
5DD2
330
5DD1
100
AcDbEntity
  8
0
100
AcDbBlockBegin
  2
*D45
 70
     1
 10
0.0
 20
0.0
 30
0.0
  3
*D45
  1

  0
LINE
  5
5DD3
330
5DD1
100
AcDbEntity
  8
DIM
  6
Continuous
 62
     0
370
    -2
100
AcDbLine
 10
147.2052558458749
 20
367.7311093070652
 30
0.0
 11
157.7688506708239
 21
367.7311093070652
 31
0.0
  0
LINE
  5
5DD4
330
5DD1
100
AcDbEntity
  8
DIM
  6
Continuous
 62
     0
370
    -2
100
AcDbLine
 10
147.2052558458749
 20
369.7311093070652
 30
0.0
 11
157.7688506708239
 21
369.7311093070652
 31
0.0
  0
LINE
  5
5DD5
330
5DD1
100
AcDbEntity
  8
DIM
  6
Continuous
 62
     0
370
    -2
100
AcDbLine
 10
157.7688506708239
 20
367.7311093070652
 30
0.0
 11
157.7688506708239
 21
358.1461093070652
 31
0.0
  0
LINE
  5
5DD6
330
5DD1
100
AcDbEntity
  8
DIM
  6
Continuous
 62
     0
370
    -2
100
AcDbLine
 10
157.7688506708239
 20
369.2311093070652
 30
0.0
 11
157.7688506708239
 21
370.7311093070652
 31
0.0
  0
LINE
  5
5DD7
330
5DD1
100
AcDbEntity
  8
DIM
  6
Continuous
 62
     0
370
    -2
100
AcDbLine
 10
157.7688506708239
 20
369.7311093070652
 30
0.0
 11
157.7688506708239
 21
371.2311093070652
 31
0.0
  0
INSERT
  5
5DD8
330
5DD1
100
AcDbEntity
  8
DIM
 62
     0
370
    -2
100
AcDbBlockReference
  2
_DOT
 10
157.7688506708239
 20
367.7311093070652
 30
0.0
 41
1.5
 42
1.5
 43
1.5
 50
270.0
  0
INSERT
  5
5DD9
330
5DD1
100
AcDbEntity
  8
DIM
 62
     0
370
    -2
100
AcDbBlockReference
  2
_DOT
 10
157.7688506708239
 20
369.7311093070652
 30
0.0
 41
1.5
 42
1.5
 43
1.5
 50
90.0
  0
MTEXT
  5
5DDA
330
5DD1
100
AcDbEntity
  8
DIM
  6
Continuous
 62
     0
100
AcDbMText
 10
153.2688506708239
 20
361.4386093070652
 30
0.0
 40
5.0
 41
0.0
 46
0.0
 71
     5
 72
     1
  1
\A1;2
  7
ＭＳ ゴシック
 11
0.0
 21
1.0
 31
0.0
 73
     1
 44
1.0
  0
POINT
  5
5DDB
330
5DD1
100
AcDbEntity
  8
Defpoints
 62
     0
100
AcDbPoint
 10
142.2052558458749
 20
367.7311093070652
 30
0.0
  0
POINT
  5
5DDC
330
5DD1
100
AcDbEntity
  8
Defpoints
 62
     0
100
AcDbPoint
 10
142.2052558458749
 20
369.7311093070652
 30
0.0
  0
POINT
  5
5DDD
330
5DD1
100
AcDbEntity
  8
Defpoints
 62
     0
100
AcDbPoint
 10
157.7688506708239
 20
369.7311093070652
 30
0.0
  0
ENDBLK
  5
5DDE
330
5DD1
100
AcDbEntity
  8
0
100
AcDbBlockEnd
  0
BLOCK
  5
5DE3
330
5DE2
100
AcDbEntity
  8
0
100
AcDbBlockBegin
  2
*D46
 70
     1
 10
0.0
 20
0.0
 30
0.0
  3
*D46
  1

  0
LINE
  5
5DE4
330
5DE2
100
AcDbEntity
  8
DIM
  6
Continuous
 62
     0
370
    -2
100
AcDbLine
 10
145.7052558458749
 20
374.7311093070652
 30
0.0
 11
157.7688506708239
 21
374.7311093070652
 31
0.0
  0
LINE
  5
5DE5
330
5DE2
100
AcDbEntity
  8
DIM
  6
Continuous
 62
     0
370
    -2
100
AcDbLine
 10
147.2052558458749
 20
369.7311093070652
 30
0.0
 11
157.7688506708239
 21
369.7311093070652
 31
0.0
  0
LINE
  5
5DE6
330
5DE2
100
AcDbEntity
  8
DIM
  6
Continuous
 62
     0
370
    -2
100
AcDbLine
 10
157.7688506708239
 20
373.2311093070652
 30
0.0
 11
157.7688506708239
 21
371.2311093070652
 31
0.0
  0
INSERT
  5
5DE7
330
5DE2
100
AcDbEntity
  8
DIM
 62
     0
370
    -2
100
AcDbBlockReference
  2
_DOT
 10
157.7688506708239
 20
374.7311093070652
 30
0.0
 41
1.5
 42
1.5
 43
1.5
 50
90.0
  0
INSERT
  5
5DE8
330
5DE2
100
AcDbEntity
  8
DIM
 62
     0
370
    -2
100
AcDbBlockReference
  2
_DOT
 10
157.7688506708239
 20
369.7311093070652
 30
0.0
 41
1.5
 42
1.5
 43
1.5
 50
270.0
  0
MTEXT
  5
5DE9
330
5DE2
100
AcDbEntity
  8
DIM
  6
Continuous
 62
     0
100
AcDbMText
 10
153.2688506708239
 20
372.2311093070652
 30
0.0
 40
5.0
 41
0.0
 46
0.0
 71
     5
 72
     1
  1
\A1;5
  7
ＭＳ ゴシック
 11
0.0
 21
1.0
 31
0.0
 73
     1
 44
1.0
  0
POINT
  5
5DEA
330
5DE2
100
AcDbEntity
  8
Defpoints
 62
     0
100
AcDbPoint
 10
140.7052558458749
 20
374.7311093070652
 30
0.0
  0
POINT
  5
5DEB
330
5DE2
100
AcDbEntity
  8
Defpoints
 62
     0
100
AcDbPoint
 10
142.2052558458749
 20
369.7311093070652
 30
0.0
  0
POINT
  5
5DEC
330
5DE2
100
AcDbEntity
  8
Defpoints
 62
     0
100
AcDbPoint
 10
157.7688506708239
 20
369.7311093070652
 30
0.0
  0
ENDBLK
  5
5DED
330
5DE2
100
AcDbEntity
  8
0
100
AcDbBlockEnd
  0
BLOCK
  5
654F
330
654E
100
AcDbEntity
  8
0
100
AcDbBlockBegin
  2
*D47
 70
     1
 10
0.0
 20
0.0
 30
0.0
  3
*D47
  1

  0
LINE
  5
6550
330
654E
100
AcDbEntity
  8
DIM
  6
Continuous
 62
     0
370
    -2
100
AcDbLine
 10
445.966251147714
 20
280.8029918721453
 30
0.0
 11
427.0193967477139
 21
280.8029918721453
 31
0.0
  0
LINE
  5
6551
330
654E
100
AcDbEntity
  8
DIM
  6
Continuous
 62
     0
370
    -2
100
AcDbLine
 10
446.4617033077141
 20
234.800773764971
 30
0.0
 11
427.0193967477139
 21
234.800773764971
 31
0.0
  0
LINE
  5
6552
330
654E
100
AcDbEntity
  8
DIM
  6
Continuous
 62
     0
370
    -2
100
AcDbLine
 10
427.0193967477139
 20
279.3029918721453
 30
0.0
 11
427.0193967477139
 21
236.300773764971
 31
0.0
  0
INSERT
  5
6553
330
654E
100
AcDbEntity
  8
DIM
 62
     0
370
    -2
100
AcDbBlockReference
  2
_DOT
 10
427.0193967477139
 20
280.8029918721453
 30
0.0
 41
1.5
 42
1.5
 43
1.5
 50
90.0
  0
INSERT
  5
6554
330
654E
100
AcDbEntity
  8
DIM
 62
     0
370
    -2
100
AcDbBlockReference
  2
_DOT
 10
427.0193967477139
 20
234.800773764971
 30
0.0
 41
1.5
 42
1.5
 43
1.5
 50
270.0
  0
MTEXT
  5
6555
330
654E
100
AcDbEntity
  8
DIM
  6
Continuous
 62
     0
100
AcDbMText
 10
422.5193967477139
 20
257.8018828185581
 30
0.0
 40
5.0
 41
0.0
 46
0.0
 71
     5
 72
     1
  1
\A1;46
  7
ＭＳ ゴシック
 11
0.0
 21
1.0
 31
0.0
 73
     1
 44
1.0
  0
POINT
  5
6556
330
654E
100
AcDbEntity
  8
Defpoints
 62
     0
100
AcDbPoint
 10
450.966251147714
 20
280.8029918721453
 30
0.0
  0
POINT
  5
6557
330
654E
100
AcDbEntity
  8
Defpoints
 62
     0
100
AcDbPoint
 10
451.4617033077141
 20
234.800773764971
 30
0.0
  0
POINT
  5
6558
330
654E
100
AcDbEntity
  8
Defpoints
 62
     0
100
AcDbPoint
 10
427.0193967477139
 20
234.800773764971
 30
0.0
  0
ENDBLK
  5
6559
330
654E
100
AcDbEntity
  8
0
100
AcDbBlockEnd
  0
BLOCK
  5
655C
330
655B
100
AcDbEntity
  8
0
100
AcDbBlockBegin
  2
*D48
 70
     1
 10
0.0
 20
0.0
 30
0.0
  3
*D48
  1

  0
LINE
  5
655D
330
655B
100
AcDbEntity
  8
DIM
  6
Continuous
 62
     0
370
    -2
100
AcDbLine
 10
440.1924624949459
 20
274.813970657557
 30
0.0
 11
440.1924624949457
 21
292.6799827004706
 31
0.0
  0
LINE
  5
655E
330
655B
100
AcDbEntity
  8
DIM
  6
Continuous
 62
     0
370
    -2
100
AcDbLine
 10
470.213905632263
 20
274.8139706575571
 30
0.0
 11
470.213905632263
 21
292.6799827004706
 31
0.0
  0
LINE
  5
655F
330
655B
100
AcDbEntity
  8
DIM
  6
Continuous
 62
     0
370
    -2
100
AcDbLine
 10
441.6924624949457
 20
292.6799827004706
 30
0.0
 11
468.713905632263
 21
292.6799827004706
 31
0.0
  0
INSERT
  5
6560
330
655B
100
AcDbEntity
  8
DIM
 62
     0
370
    -2
100
AcDbBlockReference
  2
_DOT
 10
440.1924624949457
 20
292.6799827004706
 30
0.0
 41
1.5
 42
1.5
 43
1.5
 50
180.0
  0
INSERT
  5
6561
330
655B
100
AcDbEntity
  8
DIM
 62
     0
370
    -2
100
AcDbBlockReference
  2
_DOT
 10
470.213905632263
 20
292.6799827004706
 30
0.0
 41
1.5
 42
1.5
 43
1.5
  0
MTEXT
  5
6562
330
655B
100
AcDbEntity
  8
DIM
  6
Continuous
 62
     0
100
AcDbMText
 10
455.2031840636043
 20
297.1799827004706
 30
0.0
 40
5.0
 41
0.0
 46
0.0
 71
     5
 72
     1
  1
\A1;30
  7
ＭＳ ゴシック
 73
     1
 44
1.0
  0
POINT
  5
6563
330
655B
100
AcDbEntity
  8
Defpoints
 62
     0
100
AcDbPoint
 10
440.1924624949459
 20
269.813970657557
 30
0.0
  0
POINT
  5
6564
330
655B
100
AcDbEntity
  8
Defpoints
 62
     0
100
AcDbPoint
 10
470.213905632263
 20
269.8139706575571
 30
0.0
  0
POINT
  5
6565
330
655B
100
AcDbEntity
  8
Defpoints
 62
     0
100
AcDbPoint
 10
470.213905632263
 20
292.6799827004706
 30
0.0
  0
ENDBLK
  5
6566
330
655B
100
AcDbEntity
  8
0
100
AcDbBlockEnd
  0
BLOCK
  5
65C1
330
65C0
100
AcDbEntity
  8
0
100
AcDbBlockBegin
  2
*D49
 70
     1
 10
0.0
 20
0.0
 30
0.0
  3
*D49
  1

  0
LINE
  5
65C2
330
65C0
100
AcDbEntity
  8
DIM
  6
Continuous
 62
     0
370
    -2
100
AcDbLine
 10
460.2208401896139
 20
243.8319252825795
 30
0.0
 11
483.0054908277139
 21
243.8319252825795
 31
0.0
  0
LINE
  5
65C3
330
65C0
100
AcDbEntity
  8
DIM
  6
Continuous
 62
     0
370
    -2
100
AcDbLine
 10
459.479971916764
 20
271.7718403545366
 30
0.0
 11
483.0054908277139
 21
271.7718403545366
 31
0.0
  0
LINE
  5
65C4
330
65C0
100
AcDbEntity
  8
DIM
  6
Continuous
 62
     0
370
    -2
100
AcDbLine
 10
483.0054908277139
 20
245.3319252825795
 30
0.0
 11
483.0054908277139
 21
270.2718403545366
 31
0.0
  0
INSERT
  5
65C5
330
65C0
100
AcDbEntity
  8
DIM
 62
     0
370
    -2
100
AcDbBlockReference
  2
_DOT
 10
483.0054908277139
 20
243.8319252825795
 30
0.0
 41
1.5
 42
1.5
 43
1.5
 50
270.0
  0
INSERT
  5
65C6
330
65C0
100
AcDbEntity
  8
DIM
 62
     0
370
    -2
100
AcDbBlockReference
  2
_DOT
 10
483.0054908277139
 20
271.7718403545366
 30
0.0
 41
1.5
 42
1.5
 43
1.5
 50
90.0
  0
MTEXT
  5
65C7
330
65C0
100
AcDbEntity
  8
DIM
  6
Continuous
 62
     0
100
AcDbMText
 10
478.5054908277139
 20
257.801882818558
 30
0.0
 40
5.0
 41
0.0
 46
0.0
 71
     5
 72
     1
  1
\A1;%%c28
  7
ＭＳ ゴシック
 11
0.0
 21
1.0
 31
0.0
 73
     1
 44
1.0
  0
POINT
  5
65C8
330
65C0
100
AcDbEntity
  8
Defpoints
 62
     0
100
AcDbPoint
 10
455.2208401896139
 20
243.8319252825795
 30
0.0
  0
POINT
  5
65C9
330
65C0
100
AcDbEntity
  8
Defpoints
 62
     0
100
AcDbPoint
 10
454.479971916764
 20
271.7718403545366
 30
0.0
  0
POINT
  5
65CA
330
65C0
100
AcDbEntity
  8
Defpoints
 62
     0
100
AcDbPoint
 10
483.0054908277139
 20
271.7718403545366
 30
0.0
  0
ENDBLK
  5
65CB
330
65C0
100
AcDbEntity
  8
0
100
AcDbBlockEnd
  0
BLOCK
  5
6664
330
6663
100
AcDbEntity
  8
0
100
AcDbBlockBegin
  2
*D50
 70
     1
 10
0.0
 20
0.0
 30
0.0
  3
*D50
  1

  0
LINE
  5
6665
330
6663
100
AcDbEntity
  8
DIM
  6
Continuous
 62
     0
370
    -2
100
AcDbLine
 10
351.6056162869459
 20
274.813970657557
 30
0.0
 11
351.6056162869457
 21
292.6799827004706
 31
0.0
  0
LINE
  5
6666
330
6663
100
AcDbEntity
  8
DIM
  6
Continuous
 62
     0
370
    -2
100
AcDbLine
 10
381.627059424264
 20
274.8139706575571
 30
0.0
 11
381.6270594242639
 21
292.6799827004706
 31
0.0
  0
LINE
  5
6667
330
6663
100
AcDbEntity
  8
DIM
  6
Continuous
 62
     0
370
    -2
100
AcDbLine
 10
353.1056162869457
 20
292.6799827004706
 30
0.0
 11
380.1270594242639
 21
292.6799827004706
 31
0.0
  0
INSERT
  5
6668
330
6663
100
AcDbEntity
  8
DIM
 62
     0
370
    -2
100
AcDbBlockReference
  2
_DOT
 10
351.6056162869457
 20
292.6799827004706
 30
0.0
 41
1.5
 42
1.5
 43
1.5
 50
180.0
  0
INSERT
  5
6669
330
6663
100
AcDbEntity
  8
DIM
 62
     0
370
    -2
100
AcDbBlockReference
  2
_DOT
 10
381.6270594242639
 20
292.6799827004706
 30
0.0
 41
1.5
 42
1.5
 43
1.5
  0
MTEXT
  5
666A
330
6663
100
AcDbEntity
  8
DIM
  6
Continuous
 62
     0
100
AcDbMText
 10
366.6163378556048
 20
297.1799827004706
 30
0.0
 40
5.0
 41
0.0
 46
0.0
 71
     5
 72
     1
  1
\A1;30
  7
ＭＳ ゴシック
 73
     1
 44
1.0
  0
POINT
  5
666B
330
6663
100
AcDbEntity
  8
Defpoints
 62
     0
100
AcDbPoint
 10
351.6056162869459
 20
269.813970657557
 30
0.0
  0
POINT
  5
666C
330
6663
100
AcDbEntity
  8
Defpoints
 62
     0
100
AcDbPoint
 10
381.627059424264
 20
269.8139706575571
 30
0.0
  0
POINT
  5
666D
330
6663
100
AcDbEntity
  8
Defpoints
 62
     0
100
AcDbPoint
 10
381.6270594242639
 20
292.6799827004706
 30
0.0
  0
ENDBLK
  5
666E
330
6663
100
AcDbEntity
  8
0
100
AcDbBlockEnd
  0
BLOCK
  5
6671
330
6670
100
AcDbEntity
  8
0
100
AcDbBlockBegin
  2
*D51
 70
     1
 10
0.0
 20
0.0
 30
0.0
  3
*D51
  1

  0
LINE
  5
6672
330
6670
100
AcDbEntity
  8
DIM
  6
Continuous
 62
     0
370
    -2
100
AcDbLine
 10
359.2043203957139
 20
280.8029918721453
 30
0.0
 11
340.257465995714
 21
280.8029918721453
 31
0.0
  0
LINE
  5
6673
330
6670
100
AcDbEntity
  8
DIM
  6
Continuous
 62
     0
370
    -2
100
AcDbLine
 10
359.6997725557139
 20
234.800773764971
 30
0.0
 11
340.257465995714
 21
234.800773764971
 31
0.0
  0
LINE
  5
6674
330
6670
100
AcDbEntity
  8
DIM
  6
Continuous
 62
     0
370
    -2
100
AcDbLine
 10
340.257465995714
 20
279.3029918721453
 30
0.0
 11
340.257465995714
 21
236.300773764971
 31
0.0
  0
INSERT
  5
6675
330
6670
100
AcDbEntity
  8
DIM
 62
     0
370
    -2
100
AcDbBlockReference
  2
_DOT
 10
340.257465995714
 20
280.8029918721453
 30
0.0
 41
1.5
 42
1.5
 43
1.5
 50
90.0
  0
INSERT
  5
6676
330
6670
100
AcDbEntity
  8
DIM
 62
     0
370
    -2
100
AcDbBlockReference
  2
_DOT
 10
340.257465995714
 20
234.800773764971
 30
0.0
 41
1.5
 42
1.5
 43
1.5
 50
270.0
  0
MTEXT
  5
6677
330
6670
100
AcDbEntity
  8
DIM
  6
Continuous
 62
     0
100
AcDbMText
 10
335.757465995714
 20
257.8018828185581
 30
0.0
 40
5.0
 41
0.0
 46
0.0
 71
     5
 72
     1
  1
\A1;46
  7
ＭＳ ゴシック
 11
0.0
 21
1.0
 31
0.0
 73
     1
 44
1.0
  0
POINT
  5
6678
330
6670
100
AcDbEntity
  8
Defpoints
 62
     0
100
AcDbPoint
 10
364.2043203957139
 20
280.8029918721453
 30
0.0
  0
POINT
  5
6679
330
6670
100
AcDbEntity
  8
Defpoints
 62
     0
100
AcDbPoint
 10
364.6997725557139
 20
234.800773764971
 30
0.0
  0
POINT
  5
667A
330
6670
100
AcDbEntity
  8
Defpoints
 62
     0
100
AcDbPoint
 10
340.257465995714
 20
234.800773764971
 30
0.0
  0
ENDBLK
  5
667B
330
6670
100
AcDbEntity
  8
0
100
AcDbBlockEnd
  0
BLOCK
  5
6680
330
667F
100
AcDbEntity
  8
0
100
AcDbBlockBegin
  2
*D52
 70
     1
 10
0.0
 20
0.0
 30
0.0
  3
*D52
  1

  0
LINE
  5
6681
330
667F
100
AcDbEntity
  8
DIM
  6
Continuous
 62
     0
370
    -2
100
AcDbLine
 10
374.1360273896139
 20
243.8319252825795
 30
0.0
 11
396.9206780277141
 21
243.8319252825795
 31
0.0
  0
LINE
  5
6682
330
667F
100
AcDbEntity
  8
DIM
  6
Continuous
 62
     0
370
    -2
100
AcDbLine
 10
373.3951591167649
 20
271.7718403545366
 30
0.0
 11
396.9206780277141
 21
271.7718403545366
 31
0.0
  0
LINE
  5
6683
330
667F
100
AcDbEntity
  8
DIM
  6
Continuous
 62
     0
370
    -2
100
AcDbLine
 10
396.9206780277141
 20
245.3319252825795
 30
0.0
 11
396.9206780277141
 21
270.2718403545366
 31
0.0
  0
INSERT
  5
6684
330
667F
100
AcDbEntity
  8
DIM
 62
     0
370
    -2
100
AcDbBlockReference
  2
_DOT
 10
396.9206780277141
 20
243.8319252825795
 30
0.0
 41
1.5
 42
1.5
 43
1.5
 50
270.0
  0
INSERT
  5
6685
330
667F
100
AcDbEntity
  8
DIM
 62
     0
370
    -2
100
AcDbBlockReference
  2
_DOT
 10
396.9206780277141
 20
271.7718403545366
 30
0.0
 41
1.5
 42
1.5
 43
1.5
 50
90.0
  0
MTEXT
  5
6686
330
667F
100
AcDbEntity
  8
DIM
  6
Continuous
 62
     0
100
AcDbMText
 10
392.4206780277141
 20
257.801882818558
 30
0.0
 40
5.0
 41
0.0
 46
0.0
 71
     5
 72
     1
  1
\A1;%%c28
  7
ＭＳ ゴシック
 11
0.0
 21
1.0
 31
0.0
 73
     1
 44
1.0
  0
POINT
  5
6687
330
667F
100
AcDbEntity
  8
Defpoints
 62
     0
100
AcDbPoint
 10
369.1360273896139
 20
243.8319252825795
 30
0.0
  0
POINT
  5
6688
330
667F
100
AcDbEntity
  8
Defpoints
 62
     0
100
AcDbPoint
 10
368.3951591167649
 20
271.7718403545366
 30
0.0
  0
POINT
  5
6689
330
667F
100
AcDbEntity
  8
Defpoints
 62
     0
100
AcDbPoint
 10
396.9206780277141
 20
271.7718403545366
 30
0.0
  0
ENDBLK
  5
668A
330
667F
100
AcDbEntity
  8
0
100
AcDbBlockEnd
  0
BLOCK
  5
66E7
330
66E6
100
AcDbEntity
  8
0
100
AcDbBlockBegin
  2
*D53
 70
     1
 10
0.0
 20
0.0
 30
0.0
  3
*D53
  1

  0
LINE
  5
66E8
330
66E6
100
AcDbEntity
  8
DIM
  6
Continuous
 62
     0
370
    -2
100
AcDbLine
 10
426.571066821193
 20
338.0642602210067
 30
0.0
 11
426.571066821193
 21
326.5818699660338
 31
0.0
  0
LINE
  5
66E9
330
66E6
100
AcDbEntity
  8
DIM
  6
Continuous
 62
     0
370
    -2
100
AcDbLine
 10
447.571066821193
 20
349.4794779874068
 30
0.0
 11
447.571066821193
 21
326.5818699660338
 31
0.0
  0
LINE
  5
66EA
330
66E6
100
AcDbEntity
  8
DIM
  6
Continuous
 62
     0
370
    -2
100
AcDbLine
 10
428.071066821193
 20
326.5818699660338
 30
0.0
 11
446.071066821193
 21
326.5818699660338
 31
0.0
  0
INSERT
  5
66EB
330
66E6
100
AcDbEntity
  8
DIM
 62
     0
370
    -2
100
AcDbBlockReference
  2
_DOT
 10
426.571066821193
 20
326.5818699660338
 30
0.0
 41
1.5
 42
1.5
 43
1.5
 50
180.0
  0
INSERT
  5
66EC
330
66E6
100
AcDbEntity
  8
DIM
 62
     0
370
    -2
100
AcDbBlockReference
  2
_DOT
 10
447.571066821193
 20
326.5818699660338
 30
0.0
 41
1.5
 42
1.5
 43
1.5
  0
MTEXT
  5
66ED
330
66E6
100
AcDbEntity
  8
DIM
  6
Continuous
 62
     0
100
AcDbMText
 10
437.071066821193
 20
331.0818699660338
 30
0.0
 40
5.0
 41
0.0
 46
0.0
 71
     5
 72
     1
  1
\A1;21
  7
ＭＳ ゴシック
 73
     1
 44
1.0
  0
POINT
  5
66EE
330
66E6
100
AcDbEntity
  8
Defpoints
 62
     0
100
AcDbPoint
 10
426.571066821193
 20
343.0642602210067
 30
0.0
  0
POINT
  5
66EF
330
66E6
100
AcDbEntity
  8
Defpoints
 62
     0
100
AcDbPoint
 10
447.571066821193
 20
354.4794779874068
 30
0.0
  0
POINT
  5
66F0
330
66E6
100
AcDbEntity
  8
Defpoints
 62
     0
100
AcDbPoint
 10
447.571066821193
 20
326.5818699660338
 30
0.0
  0
ENDBLK
  5
66F1
330
66E6
100
AcDbEntity
  8
0
100
AcDbBlockEnd
  0
BLOCK
  5
66F4
330
66F3
100
AcDbEntity
  8
0
100
AcDbBlockBegin
  2
*D54
 70
     1
 10
0.0
 20
0.0
 30
0.0
  3
*D54
  1

  0
LINE
  5
66F5
330
66F3
100
AcDbEntity
  8
DIM
  6
Continuous
 62
     0
370
    -2
100
AcDbLine
 10
387.709680192678
 20
338.3179317269268
 30
0.0
 11
387.709680192678
 21
326.5818699660338
 31
0.0
  0
LINE
  5
66F6
330
66F3
100
AcDbEntity
  8
DIM
  6
Continuous
 62
     0
370
    -2
100
AcDbLine
 10
426.571066821193
 20
338.0642602210067
 30
0.0
 11
426.571066821193
 21
326.5818699660338
 31
0.0
  0
LINE
  5
66F7
330
66F3
100
AcDbEntity
  8
DIM
  6
Continuous
 62
     0
370
    -2
100
AcDbLine
 10
389.209680192678
 20
326.5818699660338
 30
0.0
 11
425.071066821193
 21
326.5818699660338
 31
0.0
  0
INSERT
  5
66F8
330
66F3
100
AcDbEntity
  8
DIM
 62
     0
370
    -2
100
AcDbBlockReference
  2
_DOT
 10
387.709680192678
 20
326.5818699660338
 30
0.0
 41
1.5
 42
1.5
 43
1.5
 50
180.0
  0
INSERT
  5
66F9
330
66F3
100
AcDbEntity
  8
DIM
 62
     0
370
    -2
100
AcDbBlockReference
  2
_DOT
 10
426.571066821193
 20
326.5818699660338
 30
0.0
 41
1.5
 42
1.5
 43
1.5
  0
MTEXT
  5
66FA
330
66F3
100
AcDbEntity
  8
DIM
  6
Continuous
 62
     0
100
AcDbMText
 10
407.1403735069355
 20
331.0818699660338
 30
0.0
 40
5.0
 41
0.0
 46
0.0
 71
     5
 72
     1
  1
\A1;39-48
  7
ＭＳ ゴシック
 73
     1
 44
1.0
  0
POINT
  5
66FB
330
66F3
100
AcDbEntity
  8
Defpoints
 62
     0
100
AcDbPoint
 10
387.709680192678
 20
343.3179317269268
 30
0.0
  0
POINT
  5
66FC
330
66F3
100
AcDbEntity
  8
Defpoints
 62
     0
100
AcDbPoint
 10
426.571066821193
 20
343.0642602210067
 30
0.0
  0
POINT
  5
66FD
330
66F3
100
AcDbEntity
  8
Defpoints
 62
     0
100
AcDbPoint
 10
426.571066821193
 20
326.5818699660338
 30
0.0
  0
ENDBLK
  5
66FE
330
66F3
100
AcDbEntity
  8
0
100
AcDbBlockEnd
  0
BLOCK
  5
6703
330
6702
100
AcDbEntity
  8
0
100
AcDbBlockBegin
  2
*D55
 70
     1
 10
0.0
 20
0.0
 30
0.0
  3
*D55
  1

  0
LINE
  5
6704
330
6702
100
AcDbEntity
  8
DIM
  6
Continuous
 62
     0
370
    -2
100
AcDbLine
 10
380.566737855605
 20
344.8133493070652
 30
0.0
 11
367.3429946384861
 21
344.8133493070652
 31
0.0
  0
LINE
  5
6705
330
6702
100
AcDbEntity
  8
DIM
  6
Continuous
 62
     0
370
    -2
100
AcDbLine
 10
380.566737855605
 20
372.7885766310416
 30
0.0
 11
367.3429946384861
 21
372.7885766310416
 31
0.0
  0
LINE
  5
6706
330
6702
100
AcDbEntity
  8
DIM
  6
Continuous
 62
     0
370
    -2
100
AcDbLine
 10
367.3429946384861
 20
346.3133493070652
 30
0.0
 11
367.3429946384861
 21
371.2885766310416
 31
0.0
  0
INSERT
  5
6707
330
6702
100
AcDbEntity
  8
DIM
 62
     0
370
    -2
100
AcDbBlockReference
  2
_DOT
 10
367.3429946384861
 20
344.8133493070652
 30
0.0
 41
1.5
 42
1.5
 43
1.5
 50
270.0
  0
INSERT
  5
6708
330
6702
100
AcDbEntity
  8
DIM
 62
     0
370
    -2
100
AcDbBlockReference
  2
_DOT
 10
367.3429946384861
 20
372.7885766310416
 30
0.0
 41
1.5
 42
1.5
 43
1.5
 50
90.0
  0
MTEXT
  5
6709
330
6702
100
AcDbEntity
  8
DIM
  6
Continuous
 62
     0
100
AcDbMText
 10
362.8429946384861
 20
358.8009629690533
 30
0.0
 40
5.0
 41
0.0
 46
0.0
 71
     5
 72
     1
  1
\A1;%%c28
  7
ＭＳ ゴシック
 11
0.0
 21
1.0
 31
0.0
 73
     1
 44
1.0
  0
POINT
  5
670A
330
6702
100
AcDbEntity
  8
Defpoints
 62
     0
100
AcDbPoint
 10
385.566737855605
 20
344.8133493070652
 30
0.0
  0
POINT
  5
670B
330
6702
100
AcDbEntity
  8
Defpoints
 62
     0
100
AcDbPoint
 10
385.566737855605
 20
372.7885766310416
 30
0.0
  0
POINT
  5
670C
330
6702
100
AcDbEntity
  8
Defpoints
 62
     0
100
AcDbPoint
 10
367.3429946384861
 20
372.7885766310416
 30
0.0
  0
ENDBLK
  5
670D
330
6702
100
AcDbEntity
  8
0
100
AcDbBlockEnd
  0
BLOCK
  5
6712
330
6711
100
AcDbEntity
  8
0
100
AcDbBlockBegin
  2
*D56
 70
     1
 10
0.0
 20
0.0
 30
0.0
  3
*D56
  1

  0
LINE
  5
6713
330
6711
100
AcDbEntity
  8
DIM
  6
Continuous
 62
     0
370
    -2
100
AcDbLine
 10
387.709680192678
 20
338.3179317269268
 30
0.0
 11
387.709680192678
 21
326.5818699660338
 31
0.0
  0
LINE
  5
6714
330
6711
100
AcDbEntity
  8
DIM
  6
Continuous
 62
     0
370
    -2
100
AcDbLine
 10
385.566737855605
 20
339.8133493070652
 30
0.0
 11
385.566737855605
 21
326.5818699660338
 31
0.0
  0
LINE
  5
6715
330
6711
100
AcDbEntity
  8
DIM
  6
Continuous
 62
     0
370
    -2
100
AcDbLine
 10
385.566737855605
 20
326.5818699660338
 30
0.0
 11
375.9817378556049
 21
326.5818699660338
 31
0.0
  0
LINE
  5
6716
330
6711
100
AcDbEntity
  8
DIM
  6
Continuous
 62
     0
370
    -2
100
AcDbLine
 10
387.709680192678
 20
326.5818699660338
 30
0.0
 11
389.209680192678
 21
326.5818699660338
 31
0.0
  0
LINE
  5
6717
330
6711
100
AcDbEntity
  8
DIM
  6
Continuous
 62
     0
370
    -2
100
AcDbLine
 10
387.066737855605
 20
326.5818699660338
 30
0.0
 11
388.566737855605
 21
326.5818699660338
 31
0.0
  0
INSERT
  5
6718
330
6711
100
AcDbEntity
  8
DIM
 62
     0
370
    -2
100
AcDbBlockReference
  2
_DOT
 10
387.709680192678
 20
326.5818699660338
 30
0.0
 41
1.5
 42
1.5
 43
1.5
  0
INSERT
  5
6719
330
6711
100
AcDbEntity
  8
DIM
 62
     0
370
    -2
100
AcDbBlockReference
  2
_DOT
 10
385.566737855605
 20
326.5818699660338
 30
0.0
 41
1.5
 42
1.5
 43
1.5
 50
180.0
  0
MTEXT
  5
671A
330
6711
100
AcDbEntity
  8
DIM
  6
Continuous
 62
     0
100
AcDbMText
 10
379.274237855605
 20
331.0818699660338
 30
0.0
 40
5.0
 41
0.0
 46
0.0
 71
     5
 72
     1
  1
\A1;2
  7
ＭＳ ゴシック
 73
     1
 44
1.0
  0
POINT
  5
671B
330
6711
100
AcDbEntity
  8
Defpoints
 62
     0
100
AcDbPoint
 10
387.709680192678
 20
343.3179317269268
 30
0.0
  0
POINT
  5
671C
330
6711
100
AcDbEntity
  8
Defpoints
 62
     0
100
AcDbPoint
 10
385.566737855605
 20
344.8133493070652
 30
0.0
  0
POINT
  5
671D
330
6711
100
AcDbEntity
  8
Defpoints
 62
     0
100
AcDbPoint
 10
385.566737855605
 20
326.5818699660338
 30
0.0
  0
ENDBLK
  5
671E
330
6711
100
AcDbEntity
  8
0
100
AcDbBlockEnd
  0
BLOCK
  5
673B
330
673A
100
AcDbEntity
  8
0
100
AcDbBlockBegin
  2
*D57
 70
     1
 10
0.0
 20
0.0
 30
0.0
  3
*D57
  1

  0
LINE
  5
673C
330
673A
100
AcDbEntity
  8
DIM
  6
Continuous
 62
     0
370
    -2
100
AcDbLine
 10
392.8617778556049
 20
106.3543608811946
 30
0.0
 11
378.1068921772101
 21
106.3543608811946
 31
0.0
  0
LINE
  5
673D
330
673A
100
AcDbEntity
  8
DIM
  6
Continuous
 62
     0
370
    -2
100
AcDbLine
 10
387.8617778556049
 20
184.3543608811946
 30
0.0
 11
378.1068921772101
 21
184.3543608811946
 31
0.0
  0
LINE
  5
673E
330
673A
100
AcDbEntity
  8
DIM
  6
Continuous
 62
     0
370
    -2
100
AcDbLine
 10
378.1068921772101
 20
107.8543608811946
 30
0.0
 11
378.1068921772101
 21
182.8543608811946
 31
0.0
  0
INSERT
  5
673F
330
673A
100
AcDbEntity
  8
DIM
 62
     0
370
    -2
100
AcDbBlockReference
  2
_DOT
 10
378.1068921772101
 20
106.3543608811946
 30
0.0
 41
1.5
 42
1.5
 43
1.5
 50
270.0
  0
INSERT
  5
6740
330
673A
100
AcDbEntity
  8
DIM
 62
     0
370
    -2
100
AcDbBlockReference
  2
_DOT
 10
378.1068921772101
 20
184.3543608811946
 30
0.0
 41
1.5
 42
1.5
 43
1.5
 50
90.0
  0
MTEXT
  5
6741
330
673A
100
AcDbEntity
  8
DIM
  6
Continuous
 62
     0
100
AcDbMText
 10
373.6068921772101
 20
145.3543608811946
 30
0.0
 40
5.0
 41
0.0
 46
0.0
 71
     5
 72
     1
  1
\A1;78
  7
ＭＳ ゴシック
 11
0.0
 21
1.0
 31
0.0
 73
     1
 44
1.0
  0
POINT
  5
6742
330
673A
100
AcDbEntity
  8
Defpoints
 62
     0
100
AcDbPoint
 10
397.8617778556049
 20
106.3543608811946
 30
0.0
  0
POINT
  5
6743
330
673A
100
AcDbEntity
  8
Defpoints
 62
     0
100
AcDbPoint
 10
392.8617778556049
 20
184.3543608811946
 30
0.0
  0
POINT
  5
6744
330
673A
100
AcDbEntity
  8
Defpoints
 62
     0
100
AcDbPoint
 10
378.1068921772101
 20
184.3543608811946
 30
0.0
  0
ENDBLK
  5
6745
330
673A
100
AcDbEntity
  8
0
100
AcDbBlockEnd
  0
BLOCK
  5
6748
330
6747
100
AcDbEntity
  8
0
100
AcDbBlockBegin
  2
*D58
 70
     1
 10
0.0
 20
0.0
 30
0.0
  3
*D58
  1

  0
LINE
  5
6749
330
6747
100
AcDbEntity
  8
DIM
  6
Continuous
 62
     0
370
    -2
100
AcDbLine
 10
452.6706533805159
 20
362.8009629690534
 30
0.0
 11
465.110569412516
 21
362.8009629690534
 31
0.0
  0
LINE
  5
674A
330
6747
100
AcDbEntity
  8
DIM
  6
Continuous
 62
     0
370
    -2
100
AcDbLine
 10
452.6706533805159
 20
354.8009629690534
 30
0.0
 11
465.110569412516
 21
354.8009629690534
 31
0.0
  0
LINE
  5
674B
330
6747
100
AcDbEntity
  8
DIM
  6
Continuous
 62
     0
370
    -2
100
AcDbLine
 10
465.110569412516
 20
361.3009629690534
 30
0.0
 11
465.110569412516
 21
356.3009629690534
 31
0.0
  0
INSERT
  5
674C
330
6747
100
AcDbEntity
  8
DIM
 62
     0
370
    -2
100
AcDbBlockReference
  2
_DOT
 10
465.110569412516
 20
362.8009629690534
 30
0.0
 41
1.5
 42
1.5
 43
1.5
 50
90.0
  0
INSERT
  5
674D
330
6747
100
AcDbEntity
  8
DIM
 62
     0
370
    -2
100
AcDbBlockReference
  2
_DOT
 10
465.110569412516
 20
354.8009629690534
 30
0.0
 41
1.5
 42
1.5
 43
1.5
 50
270.0
  0
MTEXT
  5
674E
330
6747
100
AcDbEntity
  8
DIM
  6
Continuous
 62
     0
100
AcDbMText
 10
460.610569412516
 20
358.8009629690534
 30
0.0
 40
5.0
 41
0.0
 46
0.0
 71
     5
 72
     1
  1
\A1;8
  7
ＭＳ ゴシック
 11
0.0
 21
1.0
 31
0.0
 73
     1
 44
1.0
  0
POINT
  5
674F
330
6747
100
AcDbEntity
  8
Defpoints
 62
     0
100
AcDbPoint
 10
447.6706533805159
 20
362.8009629690534
 30
0.0
  0
POINT
  5
6750
330
6747
100
AcDbEntity
  8
Defpoints
 62
     0
100
AcDbPoint
 10
447.6706533805159
 20
354.8009629690534
 30
0.0
  0
POINT
  5
6751
330
6747
100
AcDbEntity
  8
Defpoints
 62
     0
100
AcDbPoint
 10
465.110569412516
 20
354.8009629690534
 30
0.0
  0
ENDBLK
  5
6752
330
6747
100
AcDbEntity
  8
0
100
AcDbBlockEnd
  0
BLOCK
  5
6755
330
6754
100
AcDbEntity
  8
0
100
AcDbBlockBegin
  2
*D59
 70
     1
 10
0.0
 20
0.0
 30
0.0
  3
*D59
  1

  0
LINE
  5
6756
330
6754
100
AcDbEntity
  8
DIM
  6
Continuous
 62
     0
370
    -2
100
AcDbLine
 10
203.5368414689249
 20
137.3762358811946
 30
0.0
 11
216.6779115217439
 21
137.3762358811946
 31
0.0
  0
LINE
  5
6757
330
6754
100
AcDbEntity
  8
DIM
  6
Continuous
 62
     0
370
    -2
100
AcDbLine
 10
203.5368414689249
 20
110.3762358811945
 30
0.0
 11
216.6779115217439
 21
110.3762358811945
 31
0.0
  0
LINE
  5
6758
330
6754
100
AcDbEntity
  8
DIM
  6
Continuous
 62
     0
370
    -2
100
AcDbLine
 10
216.6779115217439
 20
135.8762358811946
 30
0.0
 11
216.6779115217439
 21
111.8762358811945
 31
0.0
  0
INSERT
  5
6759
330
6754
100
AcDbEntity
  8
DIM
 62
     0
370
    -2
100
AcDbBlockReference
  2
_DOT
 10
216.6779115217439
 20
137.3762358811946
 30
0.0
 41
1.5
 42
1.5
 43
1.5
 50
90.0
  0
INSERT
  5
675A
330
6754
100
AcDbEntity
  8
DIM
 62
     0
370
    -2
100
AcDbBlockReference
  2
_DOT
 10
216.6779115217439
 20
110.3762358811945
 30
0.0
 41
1.5
 42
1.5
 43
1.5
 50
270.0
  0
MTEXT
  5
675B
330
6754
100
AcDbEntity
  8
DIM
  6
Continuous
 62
     0
100
AcDbMText
 10
212.1779115217439
 20
123.8762358811945
 30
0.0
 40
5.0
 41
0.0
 46
0.0
 71
     5
 72
     1
  1
\A1;27
  7
ＭＳ ゴシック
 11
0.0
 21
1.0
 31
0.0
 73
     1
 44
1.0
  0
POINT
  5
675C
330
6754
100
AcDbEntity
  8
Defpoints
 62
     0
100
AcDbPoint
 10
198.5368414689249
 20
137.3762358811946
 30
0.0
  0
POINT
  5
675D
330
6754
100
AcDbEntity
  8
Defpoints
 62
     0
100
AcDbPoint
 10
198.5368414689249
 20
110.3762358811945
 30
0.0
  0
POINT
  5
675E
330
6754
100
AcDbEntity
  8
Defpoints
 62
     0
100
AcDbPoint
 10
216.6779115217439
 20
110.3762358811945
 30
0.0
  0
ENDBLK
  5
675F
330
6754
100
AcDbEntity
  8
0
100
AcDbBlockEnd
  0
BLOCK
  5
67CB
330
67CA
100
AcDbEntity
  8
0
100
AcDbBlockBegin
  2
*D60
 70
     1
 10
0.0
 20
0.0
 30
0.0
  3
*D60
  1

  0
LINE
  5
67CC
330
67CA
100
AcDbEntity
  8
寸法
  6
Continuous
 62
     0
370
    -2
100
AcDbLine
 10
122.204975157907
 20
273.7979650239481
 30
0.0
 11
88.38178428781589
 21
273.7979650239481
 31
0.0
  0
LINE
  5
67CD
330
67CA
100
AcDbEntity
  8
寸法
  6
Continuous
 62
     0
370
    -2
100
AcDbLine
 10
122.204975157907
 20
243.7979650239481
 30
0.0
 11
88.38178428781589
 21
243.7979650239481
 31
0.0
  0
LINE
  5
67CE
330
67CA
100
AcDbEntity
  8
寸法
  6
Continuous
 62
     0
370
    -2
100
AcDbLine
 10
88.38178428781589
 20
272.2979650239481
 30
0.0
 11
88.38178428781589
 21
245.2979650239481
 31
0.0
  0
INSERT
  5
67CF
330
67CA
100
AcDbEntity
  8
寸法
 62
     0
370
    -2
100
AcDbBlockReference
  2
_DOT
 10
88.38178428781589
 20
273.7979650239481
 30
0.0
 41
1.5
 42
1.5
 43
1.5
 50
90.0
  0
INSERT
  5
67D0
330
67CA
100
AcDbEntity
  8
寸法
 62
     0
370
    -2
100
AcDbBlockReference
  2
_DOT
 10
88.38178428781589
 20
243.7979650239481
 30
0.0
 41
1.5
 42
1.5
 43
1.5
 50
270.0
  0
MTEXT
  5
67D1
330
67CA
100
AcDbEntity
  8
寸法
  6
Continuous
 62
     0
100
AcDbMText
 10
83.4767842878159
 20
258.7979650239481
 30
0.0
 40
5.0
 41
0.0
 46
0.0
 71
     5
 72
     1
  1
\A1;φ30
  7
ＭＳ ゴシック
 11
0.0
 21
1.0
 31
0.0
 73
     1
 44
1.0
  0
POINT
  5
67D2
330
67CA
100
AcDbEntity
  8
Defpoints
 62
     0
100
AcDbPoint
 10
127.204975157907
 20
273.7979650239481
 30
0.0
  0
POINT
  5
67D3
330
67CA
100
AcDbEntity
  8
Defpoints
 62
     0
100
AcDbPoint
 10
127.204975157907
 20
243.7979650239481
 30
0.0
  0
POINT
  5
67D4
330
67CA
100
AcDbEntity
  8
Defpoints
 62
     0
100
AcDbPoint
 10
88.38178428781589
 20
243.7979650239481
 30
0.0
  0
ENDBLK
  5
67D5
330
67CA
100
AcDbEntity
  8
0
100
AcDbBlockEnd
  0
BLOCK
  5
71C5
330
71C4
100
AcDbEntity
  8
0
100
AcDbBlockBegin
  2
*D61
 70
     1
 10
0.0
 20
0.0
 30
0.0
  3
*D61
  1

  0
LINE
  5
71C7
330
71C4
100
AcDbEntity
  8
寸法
  6
Continuous
 62
     0
370
    -2
100
AcDbLine
 10
115.2052558458749
 20
-116.205929274736
 30
0.0
 11
115.2052558458749
 21
-131.551159848843
 31
0.0
  0
LINE
  5
71C8
330
71C4
100
AcDbEntity
  8
寸法
  6
Continuous
 62
     0
370
    -2
100
AcDbLine
 10
246.199812904345
 20
-102.7195236533486
 30
0.0
 11
246.199812904345
 21
-131.551159848843
 31
0.0
  0
LINE
  5
71C9
330
71C4
100
AcDbEntity
  8
寸法
  6
Continuous
 62
     0
370
    -2
100
AcDbLine
 10
116.7052558458749
 20
-131.551159848843
 30
0.0
 11
244.699812904345
 21
-131.551159848843
 31
0.0
  0
INSERT
  5
71CA
330
71C4
100
AcDbEntity
  8
寸法
 62
     0
370
    -2
100
AcDbBlockReference
  2
_DOT
 10
115.2052558458749
 20
-131.551159848843
 30
0.0
 41
1.5
 42
1.5
 43
1.5
 50
180.0
  0
INSERT
  5
71CB
330
71C4
100
AcDbEntity
  8
寸法
 62
     0
370
    -2
100
AcDbBlockReference
  2
_DOT
 10
246.199812904345
 20
-131.551159848843
 30
0.0
 41
1.5
 42
1.5
 43
1.5
  0
MTEXT
  5
71CC
330
71C4
100
AcDbEntity
  8
寸法
  6
Continuous
 62
     0
100
AcDbMText
 10
180.70253437511
 20
-127.051159848843
 30
0.0
 40
5.0
 41
0.0
 46
0.0
 71
     5
 72
     1
  1
\A1;131
  7
ＭＳ ゴシック
 73
     1
 44
1.0
  0
POINT
  5
71CD
330
71C4
100
AcDbEntity
  8
Defpoints
 62
     0
100
AcDbPoint
 10
115.2052558458749
 20
-111.205929274736
 30
0.0
  0
POINT
  5
71CE
330
71C4
100
AcDbEntity
  8
Defpoints
 62
     0
100
AcDbPoint
 10
246.199812904345
 20
-97.71952365334863
 30
0.0
  0
POINT
  5
71CF
330
71C4
100
AcDbEntity
  8
Defpoints
 62
     0
100
AcDbPoint
 10
246.199812904345
 20
-131.551159848843
 30
0.0
  0
ENDBLK
  5
71C6
330
71C4
100
AcDbEntity
  8
0
100
AcDbBlockEnd
  0
BLOCK
  5
71D1
330
71D0
100
AcDbEntity
  8
0
100
AcDbBlockBegin
  2
*D62
 70
     1
 10
0.0
 20
0.0
 30
0.0
  3
*D62
  1

  0
LINE
  5
71D3
330
71D0
100
AcDbEntity
  8
DIM
  6
Continuous
 62
     0
370
    -2
100
AcDbLine
 10
110.2052558458749
 20
-52.2688906929348
 30
0.0
 11
88.38178428781589
 21
-52.2688906929348
 31
0.0
  0
LINE
  5
71D4
330
71D0
100
AcDbEntity
  8
DIM
  6
Continuous
 62
     0
370
    -2
100
AcDbLine
 10
110.2052558458761
 20
-115.2688906929348
 30
0.0
 11
88.38178428781589
 21
-115.2688906929348
 31
0.0
  0
LINE
  5
71D5
330
71D0
100
AcDbEntity
  8
DIM
  6
Continuous
 62
     0
370
    -2
100
AcDbLine
 10
88.38178428781589
 20
-53.7688906929348
 30
0.0
 11
88.38178428781589
 21
-113.7688906929348
 31
0.0
  0
INSERT
  5
71D6
330
71D0
100
AcDbEntity
  8
DIM
 62
     0
370
    -2
100
AcDbBlockReference
  2
_DOT
 10
88.38178428781589
 20
-52.2688906929348
 30
0.0
 41
1.5
 42
1.5
 43
1.5
 50
90.0
  0
INSERT
  5
71D7
330
71D0
100
AcDbEntity
  8
DIM
 62
     0
370
    -2
100
AcDbBlockReference
  2
_DOT
 10
88.38178428781589
 20
-115.2688906929348
 30
0.0
 41
1.5
 42
1.5
 43
1.5
 50
270.0
  0
MTEXT
  5
71D8
330
71D0
100
AcDbEntity
  8
DIM
  6
Continuous
 62
     0
100
AcDbMText
 10
83.88178428781589
 20
-83.7688906929348
 30
0.0
 40
5.0
 41
0.0
 46
0.0
 71
     5
 72
     1
  1
\A1;63
  7
ＭＳ ゴシック
 11
0.0
 21
1.0
 31
0.0
 73
     1
 44
1.0
  0
POINT
  5
71D9
330
71D0
100
AcDbEntity
  8
Defpoints
 62
     0
100
AcDbPoint
 10
115.2052558458749
 20
-52.2688906929348
 30
0.0
  0
POINT
  5
71DA
330
71D0
100
AcDbEntity
  8
Defpoints
 62
     0
100
AcDbPoint
 10
115.2052558458761
 20
-115.2688906929348
 30
0.0
  0
POINT
  5
71DB
330
71D0
100
AcDbEntity
  8
Defpoints
 62
     0
100
AcDbPoint
 10
88.38178428781589
 20
-115.2688906929348
 30
0.0
  0
ENDBLK
  5
71D2
330
71D0
100
AcDbEntity
  8
0
100
AcDbBlockEnd
  0
BLOCK
  5
71DD
330
71DC
100
AcDbEntity
  8
0
100
AcDbBlockBegin
  2
*D63
 70
     1
 10
0.0
 20
0.0
 30
0.0
  3
*D63
  1

  0
LINE
  5
71DF
330
71DC
100
AcDbEntity
  8
DIM
  6
Continuous
 62
     0
370
    -2
100
AcDbLine
 10
112.2052558458749
 20
-49.10038739693471
 30
0.0
 11
112.2052558458749
 21
-30.4687307606427
 31
0.0
  0
LINE
  5
71E0
330
71DC
100
AcDbEntity
  8
DIM
  6
Continuous
 62
     0
370
    -2
100
AcDbLine
 10
142.2052558458749
 20
-49.10038739693471
 30
0.0
 11
142.2052558458749
 21
-30.4687307606427
 31
0.0
  0
LINE
  5
71E1
330
71DC
100
AcDbEntity
  8
DIM
  6
Continuous
 62
     0
370
    -2
100
AcDbLine
 10
113.7052558458749
 20
-30.4687307606427
 30
0.0
 11
140.7052558458749
 21
-30.4687307606427
 31
0.0
  0
INSERT
  5
71E2
330
71DC
100
AcDbEntity
  8
DIM
 62
     0
370
    -2
100
AcDbBlockReference
  2
_DOT
 10
112.2052558458749
 20
-30.4687307606427
 30
0.0
 41
1.5
 42
1.5
 43
1.5
 50
180.0
  0
INSERT
  5
71E3
330
71DC
100
AcDbEntity
  8
DIM
 62
     0
370
    -2
100
AcDbBlockReference
  2
_DOT
 10
142.2052558458749
 20
-30.4687307606427
 30
0.0
 41
1.5
 42
1.5
 43
1.5
  0
MTEXT
  5
71E4
330
71DC
100
AcDbEntity
  8
DIM
  6
Continuous
 62
     0
100
AcDbMText
 10
127.2052558458749
 20
-25.9687307606427
 30
0.0
 40
5.0
 41
0.0
 46
0.0
 71
     5
 72
     1
  1
\A1;30
  7
ＭＳ ゴシック
 73
     1
 44
1.0
  0
POINT
  5
71E5
330
71DC
100
AcDbEntity
  8
Defpoints
 62
     0
100
AcDbPoint
 10
112.2052558458749
 20
-54.10038739693471
 30
0.0
  0
POINT
  5
71E6
330
71DC
100
AcDbEntity
  8
Defpoints
 62
     0
100
AcDbPoint
 10
142.2052558458749
 20
-54.10038739693471
 30
0.0
  0
POINT
  5
71E7
330
71DC
100
AcDbEntity
  8
Defpoints
 62
     0
100
AcDbPoint
 10
142.2052558458749
 20
-30.4687307606427
 30
0.0
  0
ENDBLK
  5
71DE
330
71DC
100
AcDbEntity
  8
0
100
AcDbBlockEnd
  0
BLOCK
  5
71E9
330
71E8
100
AcDbEntity
  8
0
100
AcDbBlockBegin
  2
*D64
 70
     1
 10
0.0
 20
0.0
 30
0.0
  3
*D64
  1

  0
LINE
  5
71EB
330
71E8
100
AcDbEntity
  8
DIM
  6
Continuous
 62
     0
370
    -2
100
AcDbLine
 10
113.7052558458749
 20
-42.91130221293491
 30
0.0
 11
113.7052558458749
 21
-39.27618122550405
 31
0.0
  0
LINE
  5
71EC
330
71E8
100
AcDbEntity
  8
DIM
  6
Continuous
 62
     0
370
    -2
100
AcDbLine
 10
140.7052558458749
 20
-42.9113022129348
 30
0.0
 11
140.7052558458749
 21
-39.27618122550405
 31
0.0
  0
LINE
  5
71ED
330
71E8
100
AcDbEntity
  8
DIM
  6
Continuous
 62
     0
370
    -2
100
AcDbLine
 10
115.2052558458749
 20
-39.27618122550405
 30
0.0
 11
139.2052558458749
 21
-39.27618122550405
 31
0.0
  0
INSERT
  5
71EE
330
71E8
100
AcDbEntity
  8
DIM
 62
     0
370
    -2
100
AcDbBlockReference
  2
_DOT
 10
113.7052558458749
 20
-39.27618122550405
 30
0.0
 41
1.5
 42
1.5
 43
1.5
 50
180.0
  0
INSERT
  5
71EF
330
71E8
100
AcDbEntity
  8
DIM
 62
     0
370
    -2
100
AcDbBlockReference
  2
_DOT
 10
140.7052558458749
 20
-39.27618122550405
 30
0.0
 41
1.5
 42
1.5
 43
1.5
  0
MTEXT
  5
71F0
330
71E8
100
AcDbEntity
  8
DIM
  6
Continuous
 62
     0
100
AcDbMText
 10
127.2052558458749
 20
-34.77618122550405
 30
0.0
 40
5.0
 41
0.0
 46
0.0
 71
     5
 72
     1
  1
\A1;27
  7
ＭＳ ゴシック
 73
     1
 44
1.0
  0
POINT
  5
71F1
330
71E8
100
AcDbEntity
  8
Defpoints
 62
     0
100
AcDbPoint
 10
113.7052558458749
 20
-47.91130221293491
 30
0.0
  0
POINT
  5
71F2
330
71E8
100
AcDbEntity
  8
Defpoints
 62
     0
100
AcDbPoint
 10
140.7052558458749
 20
-47.9113022129348
 30
0.0
  0
POINT
  5
71F3
330
71E8
100
AcDbEntity
  8
Defpoints
 62
     0
100
AcDbPoint
 10
140.7052558458749
 20
-39.27618122550405
 30
0.0
  0
ENDBLK
  5
71EA
330
71E8
100
AcDbEntity
  8
0
100
AcDbBlockEnd
  0
BLOCK
  5
71F5
330
71F4
100
AcDbEntity
  8
0
100
AcDbBlockBegin
  2
*D65
 70
     1
 10
0.0
 20
0.0
 30
0.0
  3
*D65
  1

  0
LINE
  5
71F7
330
71F4
100
AcDbEntity
  8
DIM
  6
Continuous
 62
     0
370
    -2
100
AcDbLine
 10
147.2052558458749
 20
-52.2688906929348
 30
0.0
 11
157.7688506708239
 21
-52.2688906929348
 31
0.0
  0
LINE
  5
71F8
330
71F4
100
AcDbEntity
  8
DIM
  6
Continuous
 62
     0
370
    -2
100
AcDbLine
 10
147.2052558458749
 20
-50.2688906929348
 30
0.0
 11
157.7688506708239
 21
-50.2688906929348
 31
0.0
  0
LINE
  5
71F9
330
71F4
100
AcDbEntity
  8
DIM
  6
Continuous
 62
     0
370
    -2
100
AcDbLine
 10
157.7688506708239
 20
-52.2688906929348
 30
0.0
 11
157.7688506708239
 21
-61.85389069293481
 31
0.0
  0
LINE
  5
71FA
330
71F4
100
AcDbEntity
  8
DIM
  6
Continuous
 62
     0
370
    -2
100
AcDbLine
 10
157.7688506708239
 20
-50.7688906929348
 30
0.0
 11
157.7688506708239
 21
-49.2688906929348
 31
0.0
  0
LINE
  5
71FB
330
71F4
100
AcDbEntity
  8
DIM
  6
Continuous
 62
     0
370
    -2
100
AcDbLine
 10
157.7688506708239
 20
-50.2688906929348
 30
0.0
 11
157.7688506708239
 21
-48.7688906929348
 31
0.0
  0
INSERT
  5
71FC
330
71F4
100
AcDbEntity
  8
DIM
 62
     0
370
    -2
100
AcDbBlockReference
  2
_DOT
 10
157.7688506708239
 20
-52.2688906929348
 30
0.0
 41
1.5
 42
1.5
 43
1.5
 50
270.0
  0
INSERT
  5
71FD
330
71F4
100
AcDbEntity
  8
DIM
 62
     0
370
    -2
100
AcDbBlockReference
  2
_DOT
 10
157.7688506708239
 20
-50.2688906929348
 30
0.0
 41
1.5
 42
1.5
 43
1.5
 50
90.0
  0
MTEXT
  5
71FE
330
71F4
100
AcDbEntity
  8
DIM
  6
Continuous
 62
     0
100
AcDbMText
 10
153.2688506708239
 20
-58.56139069293482
 30
0.0
 40
5.0
 41
0.0
 46
0.0
 71
     5
 72
     1
  1
\A1;2
  7
ＭＳ ゴシック
 11
0.0
 21
1.0
 31
0.0
 73
     1
 44
1.0
  0
POINT
  5
71FF
330
71F4
100
AcDbEntity
  8
Defpoints
 62
     0
100
AcDbPoint
 10
142.2052558458749
 20
-52.2688906929348
 30
0.0
  0
POINT
  5
7200
330
71F4
100
AcDbEntity
  8
Defpoints
 62
     0
100
AcDbPoint
 10
142.2052558458749
 20
-50.2688906929348
 30
0.0
  0
POINT
  5
7201
330
71F4
100
AcDbEntity
  8
Defpoints
 62
     0
100
AcDbPoint
 10
157.7688506708239
 20
-50.2688906929348
 30
0.0
  0
ENDBLK
  5
71F6
330
71F4
100
AcDbEntity
  8
0
100
AcDbBlockEnd
  0
BLOCK
  5
7203
330
7202
100
AcDbEntity
  8
0
100
AcDbBlockBegin
  2
*D66
 70
     1
 10
0.0
 20
0.0
 30
0.0
  3
*D66
  1

  0
LINE
  5
7205
330
7202
100
AcDbEntity
  8
DIM
  6
Continuous
 62
     0
370
    -2
100
AcDbLine
 10
145.7052558458749
 20
-45.2688906929348
 30
0.0
 11
157.7688506708239
 21
-45.2688906929348
 31
0.0
  0
LINE
  5
7206
330
7202
100
AcDbEntity
  8
DIM
  6
Continuous
 62
     0
370
    -2
100
AcDbLine
 10
147.2052558458749
 20
-50.2688906929348
 30
0.0
 11
157.7688506708239
 21
-50.2688906929348
 31
0.0
  0
LINE
  5
7207
330
7202
100
AcDbEntity
  8
DIM
  6
Continuous
 62
     0
370
    -2
100
AcDbLine
 10
157.7688506708239
 20
-46.7688906929348
 30
0.0
 11
157.7688506708239
 21
-48.7688906929348
 31
0.0
  0
INSERT
  5
7208
330
7202
100
AcDbEntity
  8
DIM
 62
     0
370
    -2
100
AcDbBlockReference
  2
_DOT
 10
157.7688506708239
 20
-45.2688906929348
 30
0.0
 41
1.5
 42
1.5
 43
1.5
 50
90.0
  0
INSERT
  5
7209
330
7202
100
AcDbEntity
  8
DIM
 62
     0
370
    -2
100
AcDbBlockReference
  2
_DOT
 10
157.7688506708239
 20
-50.2688906929348
 30
0.0
 41
1.5
 42
1.5
 43
1.5
 50
270.0
  0
MTEXT
  5
720A
330
7202
100
AcDbEntity
  8
DIM
  6
Continuous
 62
     0
100
AcDbMText
 10
153.2688506708239
 20
-47.7688906929348
 30
0.0
 40
5.0
 41
0.0
 46
0.0
 71
     5
 72
     1
  1
\A1;5
  7
ＭＳ ゴシック
 11
0.0
 21
1.0
 31
0.0
 73
     1
 44
1.0
  0
POINT
  5
720B
330
7202
100
AcDbEntity
  8
Defpoints
 62
     0
100
AcDbPoint
 10
140.7052558458749
 20
-45.2688906929348
 30
0.0
  0
POINT
  5
720C
330
7202
100
AcDbEntity
  8
Defpoints
 62
     0
100
AcDbPoint
 10
142.2052558458749
 20
-50.2688906929348
 30
0.0
  0
POINT
  5
720D
330
7202
100
AcDbEntity
  8
Defpoints
 62
     0
100
AcDbPoint
 10
157.7688506708239
 20
-50.2688906929348
 30
0.0
  0
ENDBLK
  5
7204
330
7202
100
AcDbEntity
  8
0
100
AcDbBlockEnd
  0
BLOCK
  5
720F
330
720E
100
AcDbEntity
  8
0
100
AcDbBlockBegin
  2
*D67
 70
     1
 10
0.0
 20
0.0
 30
0.0
  3
*D67
  1

  0
LINE
  5
7211
330
720E
100
AcDbEntity
  8
DIM
  6
Continuous
 62
     0
370
    -2
100
AcDbLine
 10
445.9662511477142
 20
-124.0770081278547
 30
0.0
 11
427.0193967477142
 21
-124.0770081278547
 31
0.0
  0
LINE
  5
7212
330
720E
100
AcDbEntity
  8
DIM
  6
Continuous
 62
     0
370
    -2
100
AcDbLine
 10
446.4617033077143
 20
-170.079226235029
 30
0.0
 11
427.0193967477142
 21
-170.079226235029
 31
0.0
  0
LINE
  5
7213
330
720E
100
AcDbEntity
  8
DIM
  6
Continuous
 62
     0
370
    -2
100
AcDbLine
 10
427.0193967477142
 20
-125.5770081278547
 30
0.0
 11
427.0193967477142
 21
-168.579226235029
 31
0.0
  0
INSERT
  5
7214
330
720E
100
AcDbEntity
  8
DIM
 62
     0
370
    -2
100
AcDbBlockReference
  2
_DOT
 10
427.0193967477142
 20
-124.0770081278547
 30
0.0
 41
1.5
 42
1.5
 43
1.5
 50
90.0
  0
INSERT
  5
7215
330
720E
100
AcDbEntity
  8
DIM
 62
     0
370
    -2
100
AcDbBlockReference
  2
_DOT
 10
427.0193967477142
 20
-170.079226235029
 30
0.0
 41
1.5
 42
1.5
 43
1.5
 50
270.0
  0
MTEXT
  5
7216
330
720E
100
AcDbEntity
  8
DIM
  6
Continuous
 62
     0
100
AcDbMText
 10
422.5193967477142
 20
-147.0781171814419
 30
0.0
 40
5.0
 41
0.0
 46
0.0
 71
     5
 72
     1
  1
\A1;46
  7
ＭＳ ゴシック
 11
0.0
 21
1.0
 31
0.0
 73
     1
 44
1.0
  0
POINT
  5
7217
330
720E
100
AcDbEntity
  8
Defpoints
 62
     0
100
AcDbPoint
 10
450.9662511477142
 20
-124.0770081278547
 30
0.0
  0
POINT
  5
7218
330
720E
100
AcDbEntity
  8
Defpoints
 62
     0
100
AcDbPoint
 10
451.4617033077143
 20
-170.079226235029
 30
0.0
  0
POINT
  5
7219
330
720E
100
AcDbEntity
  8
Defpoints
 62
     0
100
AcDbPoint
 10
427.0193967477142
 20
-170.079226235029
 30
0.0
  0
ENDBLK
  5
7210
330
720E
100
AcDbEntity
  8
0
100
AcDbBlockEnd
  0
BLOCK
  5
721B
330
721A
100
AcDbEntity
  8
0
100
AcDbBlockBegin
  2
*D68
 70
     1
 10
0.0
 20
0.0
 30
0.0
  3
*D68
  1

  0
LINE
  5
721D
330
721A
100
AcDbEntity
  8
DIM
  6
Continuous
 62
     0
370
    -2
100
AcDbLine
 10
440.1924624949461
 20
-130.066029342443
 30
0.0
 11
440.1924624949461
 21
-112.2000172995294
 31
0.0
  0
LINE
  5
721E
330
721A
100
AcDbEntity
  8
DIM
  6
Continuous
 62
     0
370
    -2
100
AcDbLine
 10
470.2139056322632
 20
-130.0660293424429
 30
0.0
 11
470.2139056322632
 21
-112.2000172995294
 31
0.0
  0
LINE
  5
721F
330
721A
100
AcDbEntity
  8
DIM
  6
Continuous
 62
     0
370
    -2
100
AcDbLine
 10
441.6924624949461
 20
-112.2000172995294
 30
0.0
 11
468.7139056322632
 21
-112.2000172995294
 31
0.0
  0
INSERT
  5
7220
330
721A
100
AcDbEntity
  8
DIM
 62
     0
370
    -2
100
AcDbBlockReference
  2
_DOT
 10
440.1924624949461
 20
-112.2000172995294
 30
0.0
 41
1.5
 42
1.5
 43
1.5
 50
180.0
  0
INSERT
  5
7221
330
721A
100
AcDbEntity
  8
DIM
 62
     0
370
    -2
100
AcDbBlockReference
  2
_DOT
 10
470.2139056322632
 20
-112.2000172995294
 30
0.0
 41
1.5
 42
1.5
 43
1.5
  0
MTEXT
  5
7222
330
721A
100
AcDbEntity
  8
DIM
  6
Continuous
 62
     0
100
AcDbMText
 10
455.2031840636046
 20
-107.7000172995294
 30
0.0
 40
5.0
 41
0.0
 46
0.0
 71
     5
 72
     1
  1
\A1;30
  7
ＭＳ ゴシック
 73
     1
 44
1.0
  0
POINT
  5
7223
330
721A
100
AcDbEntity
  8
Defpoints
 62
     0
100
AcDbPoint
 10
440.1924624949461
 20
-135.066029342443
 30
0.0
  0
POINT
  5
7224
330
721A
100
AcDbEntity
  8
Defpoints
 62
     0
100
AcDbPoint
 10
470.2139056322632
 20
-135.0660293424429
 30
0.0
  0
POINT
  5
7225
330
721A
100
AcDbEntity
  8
Defpoints
 62
     0
100
AcDbPoint
 10
470.2139056322632
 20
-112.2000172995294
 30
0.0
  0
ENDBLK
  5
721C
330
721A
100
AcDbEntity
  8
0
100
AcDbBlockEnd
  0
BLOCK
  5
7227
330
7226
100
AcDbEntity
  8
0
100
AcDbBlockBegin
  2
*D69
 70
     1
 10
0.0
 20
0.0
 30
0.0
  3
*D69
  1

  0
LINE
  5
7229
330
7226
100
AcDbEntity
  8
DIM
  6
Continuous
 62
     0
370
    -2
100
AcDbLine
 10
460.2208401896141
 20
-161.0480747174205
 30
0.0
 11
483.0054908277141
 21
-161.0480747174205
 31
0.0
  0
LINE
  5
722A
330
7226
100
AcDbEntity
  8
DIM
  6
Continuous
 62
     0
370
    -2
100
AcDbLine
 10
459.4799719167642
 20
-133.1081596454634
 30
0.0
 11
483.0054908277141
 21
-133.1081596454634
 31
0.0
  0
LINE
  5
722B
330
7226
100
AcDbEntity
  8
DIM
  6
Continuous
 62
     0
370
    -2
100
AcDbLine
 10
483.0054908277141
 20
-159.5480747174205
 30
0.0
 11
483.0054908277141
 21
-134.6081596454634
 31
0.0
  0
INSERT
  5
722C
330
7226
100
AcDbEntity
  8
DIM
 62
     0
370
    -2
100
AcDbBlockReference
  2
_DOT
 10
483.0054908277141
 20
-161.0480747174205
 30
0.0
 41
1.5
 42
1.5
 43
1.5
 50
270.0
  0
INSERT
  5
722D
330
7226
100
AcDbEntity
  8
DIM
 62
     0
370
    -2
100
AcDbBlockReference
  2
_DOT
 10
483.0054908277141
 20
-133.1081596454634
 30
0.0
 41
1.5
 42
1.5
 43
1.5
 50
90.0
  0
MTEXT
  5
722E
330
7226
100
AcDbEntity
  8
DIM
  6
Continuous
 62
     0
100
AcDbMText
 10
478.5054908277141
 20
-147.0781171814419
 30
0.0
 40
5.0
 41
0.0
 46
0.0
 71
     5
 72
     1
  1
\A1;%%c28
  7
ＭＳ ゴシック
 11
0.0
 21
1.0
 31
0.0
 73
     1
 44
1.0
  0
POINT
  5
722F
330
7226
100
AcDbEntity
  8
Defpoints
 62
     0
100
AcDbPoint
 10
455.2208401896141
 20
-161.0480747174205
 30
0.0
  0
POINT
  5
7230
330
7226
100
AcDbEntity
  8
Defpoints
 62
     0
100
AcDbPoint
 10
454.4799719167642
 20
-133.1081596454634
 30
0.0
  0
POINT
  5
7231
330
7226
100
AcDbEntity
  8
Defpoints
 62
     0
100
AcDbPoint
 10
483.0054908277141
 20
-133.1081596454634
 30
0.0
  0
ENDBLK
  5
7228
330
7226
100
AcDbEntity
  8
0
100
AcDbBlockEnd
  0
BLOCK
  5
7233
330
7232
100
AcDbEntity
  8
0
100
AcDbBlockBegin
  2
*D70
 70
     1
 10
0.0
 20
0.0
 30
0.0
  3
*D70
  1

  0
LINE
  5
7235
330
7232
100
AcDbEntity
  8
DIM
  6
Continuous
 62
     0
370
    -2
100
AcDbLine
 10
351.6056162869461
 20
-130.066029342443
 30
0.0
 11
351.6056162869461
 21
-112.2000172995294
 31
0.0
  0
LINE
  5
7236
330
7232
100
AcDbEntity
  8
DIM
  6
Continuous
 62
     0
370
    -2
100
AcDbLine
 10
381.6270594242642
 20
-130.0660293424429
 30
0.0
 11
381.6270594242642
 21
-112.2000172995294
 31
0.0
  0
LINE
  5
7237
330
7232
100
AcDbEntity
  8
DIM
  6
Continuous
 62
     0
370
    -2
100
AcDbLine
 10
353.1056162869461
 20
-112.2000172995294
 30
0.0
 11
380.1270594242642
 21
-112.2000172995294
 31
0.0
  0
INSERT
  5
7238
330
7232
100
AcDbEntity
  8
DIM
 62
     0
370
    -2
100
AcDbBlockReference
  2
_DOT
 10
351.6056162869461
 20
-112.2000172995294
 30
0.0
 41
1.5
 42
1.5
 43
1.5
 50
180.0
  0
INSERT
  5
7239
330
7232
100
AcDbEntity
  8
DIM
 62
     0
370
    -2
100
AcDbBlockReference
  2
_DOT
 10
381.6270594242642
 20
-112.2000172995294
 30
0.0
 41
1.5
 42
1.5
 43
1.5
  0
MTEXT
  5
723A
330
7232
100
AcDbEntity
  8
DIM
  6
Continuous
 62
     0
100
AcDbMText
 10
366.6163378556051
 20
-107.7000172995294
 30
0.0
 40
5.0
 41
0.0
 46
0.0
 71
     5
 72
     1
  1
\A1;30
  7
ＭＳ ゴシック
 73
     1
 44
1.0
  0
POINT
  5
723B
330
7232
100
AcDbEntity
  8
Defpoints
 62
     0
100
AcDbPoint
 10
351.6056162869461
 20
-135.066029342443
 30
0.0
  0
POINT
  5
723C
330
7232
100
AcDbEntity
  8
Defpoints
 62
     0
100
AcDbPoint
 10
381.6270594242642
 20
-135.0660293424429
 30
0.0
  0
POINT
  5
723D
330
7232
100
AcDbEntity
  8
Defpoints
 62
     0
100
AcDbPoint
 10
381.6270594242642
 20
-112.2000172995294
 30
0.0
  0
ENDBLK
  5
7234
330
7232
100
AcDbEntity
  8
0
100
AcDbBlockEnd
  0
BLOCK
  5
723F
330
723E
100
AcDbEntity
  8
0
100
AcDbBlockBegin
  2
*D71
 70
     1
 10
0.0
 20
0.0
 30
0.0
  3
*D71
  1

  0
LINE
  5
7241
330
723E
100
AcDbEntity
  8
DIM
  6
Continuous
 62
     0
370
    -2
100
AcDbLine
 10
359.2043203957141
 20
-124.0770081278547
 30
0.0
 11
340.2574659957143
 21
-124.0770081278547
 31
0.0
  0
LINE
  5
7242
330
723E
100
AcDbEntity
  8
DIM
  6
Continuous
 62
     0
370
    -2
100
AcDbLine
 10
359.6997725557141
 20
-170.079226235029
 30
0.0
 11
340.2574659957143
 21
-170.079226235029
 31
0.0
  0
LINE
  5
7243
330
723E
100
AcDbEntity
  8
DIM
  6
Continuous
 62
     0
370
    -2
100
AcDbLine
 10
340.2574659957143
 20
-125.5770081278547
 30
0.0
 11
340.2574659957143
 21
-168.579226235029
 31
0.0
  0
INSERT
  5
7244
330
723E
100
AcDbEntity
  8
DIM
 62
     0
370
    -2
100
AcDbBlockReference
  2
_DOT
 10
340.2574659957143
 20
-124.0770081278547
 30
0.0
 41
1.5
 42
1.5
 43
1.5
 50
90.0
  0
INSERT
  5
7245
330
723E
100
AcDbEntity
  8
DIM
 62
     0
370
    -2
100
AcDbBlockReference
  2
_DOT
 10
340.2574659957143
 20
-170.079226235029
 30
0.0
 41
1.5
 42
1.5
 43
1.5
 50
270.0
  0
MTEXT
  5
7246
330
723E
100
AcDbEntity
  8
DIM
  6
Continuous
 62
     0
100
AcDbMText
 10
335.7574659957143
 20
-147.0781171814419
 30
0.0
 40
5.0
 41
0.0
 46
0.0
 71
     5
 72
     1
  1
\A1;46
  7
ＭＳ ゴシック
 11
0.0
 21
1.0
 31
0.0
 73
     1
 44
1.0
  0
POINT
  5
7247
330
723E
100
AcDbEntity
  8
Defpoints
 62
     0
100
AcDbPoint
 10
364.2043203957141
 20
-124.0770081278547
 30
0.0
  0
POINT
  5
7248
330
723E
100
AcDbEntity
  8
Defpoints
 62
     0
100
AcDbPoint
 10
364.6997725557141
 20
-170.079226235029
 30
0.0
  0
POINT
  5
7249
330
723E
100
AcDbEntity
  8
Defpoints
 62
     0
100
AcDbPoint
 10
340.2574659957143
 20
-170.079226235029
 30
0.0
  0
ENDBLK
  5
7240
330
723E
100
AcDbEntity
  8
0
100
AcDbBlockEnd
  0
BLOCK
  5
724B
330
724A
100
AcDbEntity
  8
0
100
AcDbBlockBegin
  2
*D72
 70
     1
 10
0.0
 20
0.0
 30
0.0
  3
*D72
  1

  0
LINE
  5
724D
330
724A
100
AcDbEntity
  8
DIM
  6
Continuous
 62
     0
370
    -2
100
AcDbLine
 10
374.1360273896141
 20
-161.0480747174205
 30
0.0
 11
396.9206780277143
 21
-161.0480747174205
 31
0.0
  0
LINE
  5
724E
330
724A
100
AcDbEntity
  8
DIM
  6
Continuous
 62
     0
370
    -2
100
AcDbLine
 10
373.3951591167651
 20
-133.1081596454634
 30
0.0
 11
396.9206780277143
 21
-133.1081596454634
 31
0.0
  0
LINE
  5
724F
330
724A
100
AcDbEntity
  8
DIM
  6
Continuous
 62
     0
370
    -2
100
AcDbLine
 10
396.9206780277143
 20
-159.5480747174205
 30
0.0
 11
396.9206780277143
 21
-134.6081596454634
 31
0.0
  0
INSERT
  5
7250
330
724A
100
AcDbEntity
  8
DIM
 62
     0
370
    -2
100
AcDbBlockReference
  2
_DOT
 10
396.9206780277143
 20
-161.0480747174205
 30
0.0
 41
1.5
 42
1.5
 43
1.5
 50
270.0
  0
INSERT
  5
7251
330
724A
100
AcDbEntity
  8
DIM
 62
     0
370
    -2
100
AcDbBlockReference
  2
_DOT
 10
396.9206780277143
 20
-133.1081596454634
 30
0.0
 41
1.5
 42
1.5
 43
1.5
 50
90.0
  0
MTEXT
  5
7252
330
724A
100
AcDbEntity
  8
DIM
  6
Continuous
 62
     0
100
AcDbMText
 10
392.4206780277143
 20
-147.0781171814419
 30
0.0
 40
5.0
 41
0.0
 46
0.0
 71
     5
 72
     1
  1
\A1;%%c28
  7
ＭＳ ゴシック
 11
0.0
 21
1.0
 31
0.0
 73
     1
 44
1.0
  0
POINT
  5
7253
330
724A
100
AcDbEntity
  8
Defpoints
 62
     0
100
AcDbPoint
 10
369.1360273896141
 20
-161.0480747174205
 30
0.0
  0
POINT
  5
7254
330
724A
100
AcDbEntity
  8
Defpoints
 62
     0
100
AcDbPoint
 10
368.3951591167651
 20
-133.1081596454634
 30
0.0
  0
POINT
  5
7255
330
724A
100
AcDbEntity
  8
Defpoints
 62
     0
100
AcDbPoint
 10
396.9206780277143
 20
-133.1081596454634
 30
0.0
  0
ENDBLK
  5
724C
330
724A
100
AcDbEntity
  8
0
100
AcDbBlockEnd
  0
BLOCK
  5
7257
330
7256
100
AcDbEntity
  8
0
100
AcDbBlockBegin
  2
*D73
 70
     1
 10
0.0
 20
0.0
 30
0.0
  3
*D73
  1

  0
LINE
  5
7259
330
7256
100
AcDbEntity
  8
DIM
  6
Continuous
 62
     0
370
    -2
100
AcDbLine
 10
426.5710668211933
 20
-66.81573977899325
 30
0.0
 11
426.5710668211933
 21
-78.29813003396623
 31
0.0
  0
LINE
  5
725A
330
7256
100
AcDbEntity
  8
DIM
  6
Continuous
 62
     0
370
    -2
100
AcDbLine
 10
447.5710668211933
 20
-55.40052201259323
 30
0.0
 11
447.5710668211933
 21
-78.29813003396623
 31
0.0
  0
LINE
  5
725B
330
7256
100
AcDbEntity
  8
DIM
  6
Continuous
 62
     0
370
    -2
100
AcDbLine
 10
428.0710668211933
 20
-78.29813003396623
 30
0.0
 11
446.0710668211933
 21
-78.29813003396623
 31
0.0
  0
INSERT
  5
725C
330
7256
100
AcDbEntity
  8
DIM
 62
     0
370
    -2
100
AcDbBlockReference
  2
_DOT
 10
426.5710668211933
 20
-78.29813003396623
 30
0.0
 41
1.5
 42
1.5
 43
1.5
 50
180.0
  0
INSERT
  5
725D
330
7256
100
AcDbEntity
  8
DIM
 62
     0
370
    -2
100
AcDbBlockReference
  2
_DOT
 10
447.5710668211933
 20
-78.29813003396623
 30
0.0
 41
1.5
 42
1.5
 43
1.5
  0
MTEXT
  5
725E
330
7256
100
AcDbEntity
  8
DIM
  6
Continuous
 62
     0
100
AcDbMText
 10
437.0710668211933
 20
-73.79813003396623
 30
0.0
 40
5.0
 41
0.0
 46
0.0
 71
     5
 72
     1
  1
\A1;21
  7
ＭＳ ゴシック
 73
     1
 44
1.0
  0
POINT
  5
725F
330
7256
100
AcDbEntity
  8
Defpoints
 62
     0
100
AcDbPoint
 10
426.5710668211933
 20
-61.81573977899325
 30
0.0
  0
POINT
  5
7260
330
7256
100
AcDbEntity
  8
Defpoints
 62
     0
100
AcDbPoint
 10
447.5710668211933
 20
-50.40052201259323
 30
0.0
  0
POINT
  5
7261
330
7256
100
AcDbEntity
  8
Defpoints
 62
     0
100
AcDbPoint
 10
447.5710668211933
 20
-78.29813003396623
 30
0.0
  0
ENDBLK
  5
7258
330
7256
100
AcDbEntity
  8
0
100
AcDbBlockEnd
  0
BLOCK
  5
7263
330
7262
100
AcDbEntity
  8
0
100
AcDbBlockBegin
  2
*D74
 70
     1
 10
0.0
 20
0.0
 30
0.0
  3
*D74
  1

  0
LINE
  5
7265
330
7262
100
AcDbEntity
  8
DIM
  6
Continuous
 62
     0
370
    -2
100
AcDbLine
 10
387.7096801926782
 20
-66.56206827307324
 30
0.0
 11
387.7096801926782
 21
-78.29813003396623
 31
0.0
  0
LINE
  5
7266
330
7262
100
AcDbEntity
  8
DIM
  6
Continuous
 62
     0
370
    -2
100
AcDbLine
 10
426.5710668211933
 20
-66.81573977899325
 30
0.0
 11
426.5710668211933
 21
-78.29813003396623
 31
0.0
  0
LINE
  5
7267
330
7262
100
AcDbEntity
  8
DIM
  6
Continuous
 62
     0
370
    -2
100
AcDbLine
 10
389.2096801926782
 20
-78.29813003396623
 30
0.0
 11
425.0710668211933
 21
-78.29813003396623
 31
0.0
  0
INSERT
  5
7268
330
7262
100
AcDbEntity
  8
DIM
 62
     0
370
    -2
100
AcDbBlockReference
  2
_DOT
 10
387.7096801926782
 20
-78.29813003396623
 30
0.0
 41
1.5
 42
1.5
 43
1.5
 50
180.0
  0
INSERT
  5
7269
330
7262
100
AcDbEntity
  8
DIM
 62
     0
370
    -2
100
AcDbBlockReference
  2
_DOT
 10
426.5710668211933
 20
-78.29813003396623
 30
0.0
 41
1.5
 42
1.5
 43
1.5
  0
MTEXT
  5
726A
330
7262
100
AcDbEntity
  8
DIM
  6
Continuous
 62
     0
100
AcDbMText
 10
407.1403735069357
 20
-73.79813003396623
 30
0.0
 40
5.0
 41
0.0
 46
0.0
 71
     5
 72
     1
  1
\A1;39-48
  7
ＭＳ ゴシック
 73
     1
 44
1.0
  0
POINT
  5
726B
330
7262
100
AcDbEntity
  8
Defpoints
 62
     0
100
AcDbPoint
 10
387.7096801926782
 20
-61.56206827307324
 30
0.0
  0
POINT
  5
726C
330
7262
100
AcDbEntity
  8
Defpoints
 62
     0
100
AcDbPoint
 10
426.5710668211933
 20
-61.81573977899325
 30
0.0
  0
POINT
  5
726D
330
7262
100
AcDbEntity
  8
Defpoints
 62
     0
100
AcDbPoint
 10
426.5710668211933
 20
-78.29813003396623
 30
0.0
  0
ENDBLK
  5
7264
330
7262
100
AcDbEntity
  8
0
100
AcDbBlockEnd
  0
BLOCK
  5
726F
330
726E
100
AcDbEntity
  8
0
100
AcDbBlockBegin
  2
*D75
 70
     1
 10
0.0
 20
0.0
 30
0.0
  3
*D75
  1

  0
LINE
  5
7271
330
726E
100
AcDbEntity
  8
DIM
  6
Continuous
 62
     0
370
    -2
100
AcDbLine
 10
380.5667378556053
 20
-60.06665069293484
 30
0.0
 11
367.3429946384863
 21
-60.06665069293484
 31
0.0
  0
LINE
  5
7272
330
726E
100
AcDbEntity
  8
DIM
  6
Continuous
 62
     0
370
    -2
100
AcDbLine
 10
380.5667378556053
 20
-32.09142336895844
 30
0.0
 11
367.3429946384863
 21
-32.09142336895844
 31
0.0
  0
LINE
  5
7273
330
726E
100
AcDbEntity
  8
DIM
  6
Continuous
 62
     0
370
    -2
100
AcDbLine
 10
367.3429946384863
 20
-58.56665069293484
 30
0.0
 11
367.3429946384863
 21
-33.59142336895844
 31
0.0
  0
INSERT
  5
7274
330
726E
100
AcDbEntity
  8
DIM
 62
     0
370
    -2
100
AcDbBlockReference
  2
_DOT
 10
367.3429946384863
 20
-60.06665069293484
 30
0.0
 41
1.5
 42
1.5
 43
1.5
 50
270.0
  0
INSERT
  5
7275
330
726E
100
AcDbEntity
  8
DIM
 62
     0
370
    -2
100
AcDbBlockReference
  2
_DOT
 10
367.3429946384863
 20
-32.09142336895844
 30
0.0
 41
1.5
 42
1.5
 43
1.5
 50
90.0
  0
MTEXT
  5
7276
330
726E
100
AcDbEntity
  8
DIM
  6
Continuous
 62
     0
100
AcDbMText
 10
362.8429946384863
 20
-46.07903703094664
 30
0.0
 40
5.0
 41
0.0
 46
0.0
 71
     5
 72
     1
  1
\A1;%%c28
  7
ＭＳ ゴシック
 11
0.0
 21
1.0
 31
0.0
 73
     1
 44
1.0
  0
POINT
  5
7277
330
726E
100
AcDbEntity
  8
Defpoints
 62
     0
100
AcDbPoint
 10
385.5667378556053
 20
-60.06665069293484
 30
0.0
  0
POINT
  5
7278
330
726E
100
AcDbEntity
  8
Defpoints
 62
     0
100
AcDbPoint
 10
385.5667378556053
 20
-32.09142336895844
 30
0.0
  0
POINT
  5
7279
330
726E
100
AcDbEntity
  8
Defpoints
 62
     0
100
AcDbPoint
 10
367.3429946384863
 20
-32.09142336895844
 30
0.0
  0
ENDBLK
  5
7270
330
726E
100
AcDbEntity
  8
0
100
AcDbBlockEnd
  0
BLOCK
  5
727B
330
727A
100
AcDbEntity
  8
0
100
AcDbBlockBegin
  2
*D76
 70
     1
 10
0.0
 20
0.0
 30
0.0
  3
*D76
  1

  0
LINE
  5
727D
330
727A
100
AcDbEntity
  8
DIM
  6
Continuous
 62
     0
370
    -2
100
AcDbLine
 10
387.7096801926782
 20
-66.56206827307324
 30
0.0
 11
387.7096801926782
 21
-78.29813003396623
 31
0.0
  0
LINE
  5
727E
330
727A
100
AcDbEntity
  8
DIM
  6
Continuous
 62
     0
370
    -2
100
AcDbLine
 10
385.5667378556053
 20
-65.06665069293484
 30
0.0
 11
385.5667378556053
 21
-78.29813003396623
 31
0.0
  0
LINE
  5
727F
330
727A
100
AcDbEntity
  8
DIM
  6
Continuous
 62
     0
370
    -2
100
AcDbLine
 10
385.5667378556053
 20
-78.29813003396623
 30
0.0
 11
375.9817378556052
 21
-78.29813003396623
 31
0.0
  0
LINE
  5
7280
330
727A
100
AcDbEntity
  8
DIM
  6
Continuous
 62
     0
370
    -2
100
AcDbLine
 10
387.7096801926782
 20
-78.29813003396623
 30
0.0
 11
389.2096801926782
 21
-78.29813003396623
 31
0.0
  0
LINE
  5
7281
330
727A
100
AcDbEntity
  8
DIM
  6
Continuous
 62
     0
370
    -2
100
AcDbLine
 10
387.0667378556053
 20
-78.29813003396623
 30
0.0
 11
388.5667378556053
 21
-78.29813003396623
 31
0.0
  0
INSERT
  5
7282
330
727A
100
AcDbEntity
  8
DIM
 62
     0
370
    -2
100
AcDbBlockReference
  2
_DOT
 10
387.7096801926782
 20
-78.29813003396623
 30
0.0
 41
1.5
 42
1.5
 43
1.5
  0
INSERT
  5
7283
330
727A
100
AcDbEntity
  8
DIM
 62
     0
370
    -2
100
AcDbBlockReference
  2
_DOT
 10
385.5667378556053
 20
-78.29813003396623
 30
0.0
 41
1.5
 42
1.5
 43
1.5
 50
180.0
  0
MTEXT
  5
7284
330
727A
100
AcDbEntity
  8
DIM
  6
Continuous
 62
     0
100
AcDbMText
 10
379.2742378556052
 20
-73.79813003396623
 30
0.0
 40
5.0
 41
0.0
 46
0.0
 71
     5
 72
     1
  1
\A1;2
  7
ＭＳ ゴシック
 73
     1
 44
1.0
  0
POINT
  5
7285
330
727A
100
AcDbEntity
  8
Defpoints
 62
     0
100
AcDbPoint
 10
387.7096801926782
 20
-61.56206827307324
 30
0.0
  0
POINT
  5
7286
330
727A
100
AcDbEntity
  8
Defpoints
 62
     0
100
AcDbPoint
 10
385.5667378556053
 20
-60.06665069293484
 30
0.0
  0
POINT
  5
7287
330
727A
100
AcDbEntity
  8
Defpoints
 62
     0
100
AcDbPoint
 10
385.5667378556053
 20
-78.29813003396623
 30
0.0
  0
ENDBLK
  5
727C
330
727A
100
AcDbEntity
  8
0
100
AcDbBlockEnd
  0
BLOCK
  5
7289
330
7288
100
AcDbEntity
  8
0
100
AcDbBlockBegin
  2
*D77
 70
     1
 10
0.0
 20
0.0
 30
0.0
  3
*D77
  1

  0
LINE
  5
728B
330
7288
100
AcDbEntity
  8
DIM
  6
Continuous
 62
     0
370
    -2
100
AcDbLine
 10
392.8617778556049
 20
-300.7432391188054
 30
0.0
 11
378.1068921772101
 21
-300.7432391188054
 31
0.0
  0
LINE
  5
728C
330
7288
100
AcDbEntity
  8
DIM
  6
Continuous
 62
     0
370
    -2
100
AcDbLine
 10
387.8617778556049
 20
-222.7432391188054
 30
0.0
 11
378.1068921772101
 21
-222.7432391188054
 31
0.0
  0
LINE
  5
728D
330
7288
100
AcDbEntity
  8
DIM
  6
Continuous
 62
     0
370
    -2
100
AcDbLine
 10
378.1068921772101
 20
-299.2432391188054
 30
0.0
 11
378.1068921772101
 21
-224.2432391188054
 31
0.0
  0
INSERT
  5
728E
330
7288
100
AcDbEntity
  8
DIM
 62
     0
370
    -2
100
AcDbBlockReference
  2
_DOT
 10
378.1068921772101
 20
-300.7432391188054
 30
0.0
 41
1.5
 42
1.5
 43
1.5
 50
270.0
  0
INSERT
  5
728F
330
7288
100
AcDbEntity
  8
DIM
 62
     0
370
    -2
100
AcDbBlockReference
  2
_DOT
 10
378.1068921772101
 20
-222.7432391188054
 30
0.0
 41
1.5
 42
1.5
 43
1.5
 50
90.0
  0
MTEXT
  5
7290
330
7288
100
AcDbEntity
  8
DIM
  6
Continuous
 62
     0
100
AcDbMText
 10
373.6068921772101
 20
-261.7432391188054
 30
0.0
 40
5.0
 41
0.0
 46
0.0
 71
     5
 72
     1
  1
\A1;78
  7
ＭＳ ゴシック
 11
0.0
 21
1.0
 31
0.0
 73
     1
 44
1.0
  0
POINT
  5
7291
330
7288
100
AcDbEntity
  8
Defpoints
 62
     0
100
AcDbPoint
 10
397.8617778556049
 20
-300.7432391188054
 30
0.0
  0
POINT
  5
7292
330
7288
100
AcDbEntity
  8
Defpoints
 62
     0
100
AcDbPoint
 10
392.8617778556049
 20
-222.7432391188054
 30
0.0
  0
POINT
  5
7293
330
7288
100
AcDbEntity
  8
Defpoints
 62
     0
100
AcDbPoint
 10
378.1068921772101
 20
-222.7432391188054
 30
0.0
  0
ENDBLK
  5
728A
330
7288
100
AcDbEntity
  8
0
100
AcDbBlockEnd
  0
BLOCK
  5
7295
330
7294
100
AcDbEntity
  8
0
100
AcDbBlockBegin
  2
*D78
 70
     1
 10
0.0
 20
0.0
 30
0.0
  3
*D78
  1

  0
LINE
  5
7297
330
7294
100
AcDbEntity
  8
DIM
  6
Continuous
 62
     0
370
    -2
100
AcDbLine
 10
452.6706533805161
 20
-42.07903703094661
 30
0.0
 11
465.1105694125162
 21
-42.07903703094661
 31
0.0
  0
LINE
  5
7298
330
7294
100
AcDbEntity
  8
DIM
  6
Continuous
 62
     0
370
    -2
100
AcDbLine
 10
452.6706533805161
 20
-50.07903703094661
 30
0.0
 11
465.1105694125162
 21
-50.07903703094661
 31
0.0
  0
LINE
  5
7299
330
7294
100
AcDbEntity
  8
DIM
  6
Continuous
 62
     0
370
    -2
100
AcDbLine
 10
465.1105694125162
 20
-43.57903703094661
 30
0.0
 11
465.1105694125162
 21
-48.57903703094661
 31
0.0
  0
INSERT
  5
729A
330
7294
100
AcDbEntity
  8
DIM
 62
     0
370
    -2
100
AcDbBlockReference
  2
_DOT
 10
465.1105694125162
 20
-42.07903703094661
 30
0.0
 41
1.5
 42
1.5
 43
1.5
 50
90.0
  0
INSERT
  5
729B
330
7294
100
AcDbEntity
  8
DIM
 62
     0
370
    -2
100
AcDbBlockReference
  2
_DOT
 10
465.1105694125162
 20
-50.07903703094661
 30
0.0
 41
1.5
 42
1.5
 43
1.5
 50
270.0
  0
MTEXT
  5
729C
330
7294
100
AcDbEntity
  8
DIM
  6
Continuous
 62
     0
100
AcDbMText
 10
460.6105694125162
 20
-46.07903703094661
 30
0.0
 40
5.0
 41
0.0
 46
0.0
 71
     5
 72
     1
  1
\A1;8
  7
ＭＳ ゴシック
 11
0.0
 21
1.0
 31
0.0
 73
     1
 44
1.0
  0
POINT
  5
729D
330
7294
100
AcDbEntity
  8
Defpoints
 62
     0
100
AcDbPoint
 10
447.6706533805161
 20
-42.07903703094661
 30
0.0
  0
POINT
  5
729E
330
7294
100
AcDbEntity
  8
Defpoints
 62
     0
100
AcDbPoint
 10
447.6706533805161
 20
-50.07903703094661
 30
0.0
  0
POINT
  5
729F
330
7294
100
AcDbEntity
  8
Defpoints
 62
     0
100
AcDbPoint
 10
465.1105694125162
 20
-50.07903703094661
 30
0.0
  0
ENDBLK
  5
7296
330
7294
100
AcDbEntity
  8
0
100
AcDbBlockEnd
  0
BLOCK
  5
72A1
330
72A0
100
AcDbEntity
  8
0
100
AcDbBlockBegin
  2
*D79
 70
     1
 10
0.0
 20
0.0
 30
0.0
  3
*D79
  1

  0
LINE
  5
72A3
330
72A0
100
AcDbEntity
  8
DIM
  6
Continuous
 62
     0
370
    -2
100
AcDbLine
 10
203.5368414689249
 20
-282.6237641188054
 30
0.0
 11
216.6779115217439
 21
-282.6237641188054
 31
0.0
  0
LINE
  5
72A4
330
72A0
100
AcDbEntity
  8
DIM
  6
Continuous
 62
     0
370
    -2
100
AcDbLine
 10
203.5368414689249
 20
-309.6237641188055
 30
0.0
 11
216.6779115217439
 21
-309.6237641188055
 31
0.0
  0
LINE
  5
72A5
330
72A0
100
AcDbEntity
  8
DIM
  6
Continuous
 62
     0
370
    -2
100
AcDbLine
 10
216.6779115217439
 20
-284.1237641188054
 30
0.0
 11
216.6779115217439
 21
-308.1237641188055
 31
0.0
  0
INSERT
  5
72A6
330
72A0
100
AcDbEntity
  8
DIM
 62
     0
370
    -2
100
AcDbBlockReference
  2
_DOT
 10
216.6779115217439
 20
-282.6237641188054
 30
0.0
 41
1.5
 42
1.5
 43
1.5
 50
90.0
  0
INSERT
  5
72A7
330
72A0
100
AcDbEntity
  8
DIM
 62
     0
370
    -2
100
AcDbBlockReference
  2
_DOT
 10
216.6779115217439
 20
-309.6237641188055
 30
0.0
 41
1.5
 42
1.5
 43
1.5
 50
270.0
  0
MTEXT
  5
72A8
330
72A0
100
AcDbEntity
  8
DIM
  6
Continuous
 62
     0
100
AcDbMText
 10
212.1779115217439
 20
-296.1237641188055
 30
0.0
 40
5.0
 41
0.0
 46
0.0
 71
     5
 72
     1
  1
\A1;27
  7
ＭＳ ゴシック
 11
0.0
 21
1.0
 31
0.0
 73
     1
 44
1.0
  0
POINT
  5
72A9
330
72A0
100
AcDbEntity
  8
Defpoints
 62
     0
100
AcDbPoint
 10
198.5368414689249
 20
-282.6237641188054
 30
0.0
  0
POINT
  5
72AA
330
72A0
100
AcDbEntity
  8
Defpoints
 62
     0
100
AcDbPoint
 10
198.5368414689249
 20
-309.6237641188055
 30
0.0
  0
POINT
  5
72AB
330
72A0
100
AcDbEntity
  8
Defpoints
 62
     0
100
AcDbPoint
 10
216.6779115217439
 20
-309.6237641188055
 30
0.0
  0
ENDBLK
  5
72A2
330
72A0
100
AcDbEntity
  8
0
100
AcDbBlockEnd
  0
BLOCK
  5
72AD
330
72AC
100
AcDbEntity
  8
0
100
AcDbBlockBegin
  2
*D80
 70
     1
 10
0.0
 20
0.0
 30
0.0
  3
*D80
  1

  0
LINE
  5
72AF
330
72AC
100
AcDbEntity
  8
寸法
  6
Continuous
 62
     0
370
    -2
100
AcDbLine
 10
122.204975157907
 20
-146.2020349760519
 30
0.0
 11
88.38178428781589
 21
-146.2020349760519
 31
0.0
  0
LINE
  5
72B0
330
72AC
100
AcDbEntity
  8
寸法
  6
Continuous
 62
     0
370
    -2
100
AcDbLine
 10
122.204975157907
 20
-176.2020349760519
 30
0.0
 11
88.38178428781589
 21
-176.2020349760519
 31
0.0
  0
LINE
  5
72B1
330
72AC
100
AcDbEntity
  8
寸法
  6
Continuous
 62
     0
370
    -2
100
AcDbLine
 10
88.38178428781589
 20
-147.7020349760519
 30
0.0
 11
88.38178428781589
 21
-174.7020349760519
 31
0.0
  0
INSERT
  5
72B2
330
72AC
100
AcDbEntity
  8
寸法
 62
     0
370
    -2
100
AcDbBlockReference
  2
_DOT
 10
88.38178428781589
 20
-146.2020349760519
 30
0.0
 41
1.5
 42
1.5
 43
1.5
 50
90.0
  0
INSERT
  5
72B3
330
72AC
100
AcDbEntity
  8
寸法
 62
     0
370
    -2
100
AcDbBlockReference
  2
_DOT
 10
88.38178428781589
 20
-176.2020349760519
 30
0.0
 41
1.5
 42
1.5
 43
1.5
 50
270.0
  0
MTEXT
  5
72B4
330
72AC
100
AcDbEntity
  8
寸法
  6
Continuous
 62
     0
100
AcDbMText
 10
83.47678428781589
 20
-161.2020349760519
 30
0.0
 40
5.0
 41
0.0
 46
0.0
 71
     5
 72
     1
  1
\A1;φ30
  7
ＭＳ ゴシック
 11
0.0
 21
1.0
 31
0.0
 73
     1
 44
1.0
  0
POINT
  5
72B5
330
72AC
100
AcDbEntity
  8
Defpoints
 62
     0
100
AcDbPoint
 10
127.204975157907
 20
-146.2020349760519
 30
0.0
  0
POINT
  5
72B6
330
72AC
100
AcDbEntity
  8
Defpoints
 62
     0
100
AcDbPoint
 10
127.204975157907
 20
-176.2020349760519
 30
0.0
  0
POINT
  5
72B7
330
72AC
100
AcDbEntity
  8
Defpoints
 62
     0
100
AcDbPoint
 10
88.38178428781589
 20
-176.2020349760519
 30
0.0
  0
ENDBLK
  5
72AE
330
72AC
100
AcDbEntity
  8
0
100
AcDbBlockEnd
  0
BLOCK
  5
72EB
330
72EA
100
AcDbEntity
  8
0
100
AcDbBlockBegin
  2
*D81
 70
     1
 10
0.0
 20
0.0
 30
0.0
  3
*D81
  1

  0
LINE
  5
72ED
330
72EA
100
AcDbEntity
  8
寸法
  6
Continuous
 62
     0
370
    -2
100
AcDbLine
 10
115.2229790385804
 20
-115.1667382755148
 30
0.0
 11
115.2229790385805
 21
-136.0048458784337
 31
0.0
  0
LINE
  5
72EE
330
72EA
100
AcDbEntity
  8
寸法
  6
Continuous
 62
     0
370
    -2
100
AcDbLine
 10
252.2229790385803
 20
-114.283582275515
 30
0.0
 11
252.2229790385804
 21
-136.0048458784337
 31
0.0
  0
LINE
  5
72EF
330
72EA
100
AcDbEntity
  8
寸法
  6
Continuous
 62
     0
370
    -2
100
AcDbLine
 10
116.7229790385805
 20
-136.0048458784337
 30
0.0
 11
250.7229790385804
 21
-136.0048458784337
 31
0.0
  0
INSERT
  5
72F0
330
72EA
100
AcDbEntity
  8
寸法
 62
     0
370
    -2
100
AcDbBlockReference
  2
_DOT
 10
115.2229790385805
 20
-136.0048458784337
 30
0.0
 41
1.5
 42
1.5
 43
1.5
 50
180.0
  0
INSERT
  5
72F1
330
72EA
100
AcDbEntity
  8
寸法
 62
     0
370
    -2
100
AcDbBlockReference
  2
_DOT
 10
252.2229790385804
 20
-136.0048458784337
 30
0.0
 41
1.5
 42
1.5
 43
1.5
  0
MTEXT
  5
72F2
330
72EA
100
AcDbEntity
  8
寸法
  6
Continuous
 62
     0
100
AcDbMText
 10
183.7229790385804
 20
-131.5048458784337
 30
0.0
 40
5.0
 41
0.0
 46
0.0
 71
     5
 72
     1
  1
\A1;137
  7
ＭＳ ゴシック
 73
     1
 44
1.0
  0
POINT
  5
72F3
330
72EA
100
AcDbEntity
  8
Defpoints
 62
     0
100
AcDbPoint
 10
115.2229790385804
 20
-110.1667382755148
 30
0.0
  0
POINT
  5
72F4
330
72EA
100
AcDbEntity
  8
Defpoints
 62
     0
100
AcDbPoint
 10
252.2229790385803
 20
-109.283582275515
 30
0.0
  0
POINT
  5
72F5
330
72EA
100
AcDbEntity
  8
Defpoints
 62
     0
100
AcDbPoint
 10
252.2229790385803
 20
-136.0048458784337
 30
0.0
  0
ENDBLK
  5
72EC
330
72EA
100
AcDbEntity
  8
0
100
AcDbBlockEnd
  0
BLOCK
  5
72F7
330
72F6
100
AcDbEntity
  8
0
100
AcDbBlockBegin
  2
*D82
 70
     1
 10
0.0
 20
0.0
 30
0.0
  3
*D82
  1

  0
LINE
  5
72F9
330
72F6
100
AcDbEntity
  8
DIM
  6
Continuous
 62
     0
370
    -2
100
AcDbLine
 10
254.8553774545453
 20
-90.16673827551477
 30
0.0
 11
272.1376174545454
 21
-90.16673827551477
 31
0.0
  0
LINE
  5
72FA
330
72F6
100
AcDbEntity
  8
DIM
  6
Continuous
 62
     0
370
    -2
100
AcDbLine
 10
254.8553774545453
 20
-111.1667382755148
 30
0.0
 11
272.1376174545454
 21
-111.1667382755148
 31
0.0
  0
LINE
  5
72FB
330
72F6
100
AcDbEntity
  8
DIM
  6
Continuous
 62
     0
370
    -2
100
AcDbLine
 10
272.1376174545454
 20
-91.66673827551477
 30
0.0
 11
272.1376174545454
 21
-109.6667382755148
 31
0.0
  0
INSERT
  5
72FC
330
72F6
100
AcDbEntity
  8
DIM
 62
     0
370
    -2
100
AcDbBlockReference
  2
_DOT
 10
272.1376174545454
 20
-90.16673827551477
 30
0.0
 41
1.5
 42
1.5
 43
1.5
 50
90.0
  0
INSERT
  5
72FD
330
72F6
100
AcDbEntity
  8
DIM
 62
     0
370
    -2
100
AcDbBlockReference
  2
_DOT
 10
272.1376174545454
 20
-111.1667382755148
 30
0.0
 41
1.5
 42
1.5
 43
1.5
 50
270.0
  0
MTEXT
  5
72FE
330
72F6
100
AcDbEntity
  8
DIM
  6
Continuous
 62
     0
100
AcDbMText
 10
267.6376174545454
 20
-100.6667382755148
 30
0.0
 40
5.0
 41
0.0
 46
0.0
 71
     5
 72
     1
  1
\A1;21
  7
ＭＳ ゴシック
 11
0.0
 21
1.0
 31
0.0
 73
     1
 44
1.0
  0
POINT
  5
72FF
330
72F6
100
AcDbEntity
  8
Defpoints
 62
     0
100
AcDbPoint
 10
249.8553774545453
 20
-90.16673827551477
 30
0.0
  0
POINT
  5
7300
330
72F6
100
AcDbEntity
  8
Defpoints
 62
     0
100
AcDbPoint
 10
249.8553774545453
 20
-111.1667382755148
 30
0.0
  0
POINT
  5
7301
330
72F6
100
AcDbEntity
  8
Defpoints
 62
     0
100
AcDbPoint
 10
272.1376174545454
 20
-111.1667382755148
 30
0.0
  0
ENDBLK
  5
72F8
330
72F6
100
AcDbEntity
  8
0
100
AcDbBlockEnd
  0
BLOCK
  5
7303
330
7302
100
AcDbEntity
  8
0
100
AcDbBlockBegin
  2
*D83
 70
     1
 10
0.0
 20
0.0
 30
0.0
  3
*D83
  1

  0
LINE
  5
7305
330
7302
100
AcDbEntity
  8
DIM
  6
Continuous
 62
     0
370
    -2
100
AcDbLine
 10
110.2229790385804
 20
-54.16673827551477
 30
0.0
 11
83.06881325381786
 21
-54.16673827551477
 31
0.0
  0
LINE
  5
7306
330
7302
100
AcDbEntity
  8
DIM
  6
Continuous
 62
     0
370
    -2
100
AcDbLine
 10
110.2229790385804
 20
-111.1667382755148
 30
0.0
 11
83.06881325381786
 21
-111.1667382755148
 31
0.0
  0
LINE
  5
7307
330
7302
100
AcDbEntity
  8
DIM
  6
Continuous
 62
     0
370
    -2
100
AcDbLine
 10
83.06881325381786
 20
-55.66673827551477
 30
0.0
 11
83.06881325381786
 21
-109.6667382755148
 31
0.0
  0
INSERT
  5
7308
330
7302
100
AcDbEntity
  8
DIM
 62
     0
370
    -2
100
AcDbBlockReference
  2
_DOT
 10
83.06881325381786
 20
-54.16673827551477
 30
0.0
 41
1.5
 42
1.5
 43
1.5
 50
90.0
  0
INSERT
  5
7309
330
7302
100
AcDbEntity
  8
DIM
 62
     0
370
    -2
100
AcDbBlockReference
  2
_DOT
 10
83.06881325381786
 20
-111.1667382755148
 30
0.0
 41
1.5
 42
1.5
 43
1.5
 50
270.0
  0
MTEXT
  5
730A
330
7302
100
AcDbEntity
  8
DIM
  6
Continuous
 62
     0
100
AcDbMText
 10
78.56881325381786
 20
-82.66673827551477
 30
0.0
 40
5.0
 41
0.0
 46
0.0
 71
     5
 72
     1
  1
\A1;57
  7
ＭＳ ゴシック
 11
0.0
 21
1.0
 31
0.0
 73
     1
 44
1.0
  0
POINT
  5
730B
330
7302
100
AcDbEntity
  8
Defpoints
 62
     0
100
AcDbPoint
 10
115.2229790385804
 20
-54.16673827551477
 30
0.0
  0
POINT
  5
730C
330
7302
100
AcDbEntity
  8
Defpoints
 62
     0
100
AcDbPoint
 10
115.2229790385804
 20
-111.1667382755148
 30
0.0
  0
POINT
  5
730D
330
7302
100
AcDbEntity
  8
Defpoints
 62
     0
100
AcDbPoint
 10
83.06881325381786
 20
-111.1667382755148
 30
0.0
  0
ENDBLK
  5
7304
330
7302
100
AcDbEntity
  8
0
100
AcDbBlockEnd
  0
BLOCK
  5
730F
330
730E
100
AcDbEntity
  8
0
100
AcDbBlockBegin
  2
*D84
 70
     1
 10
0.0
 20
0.0
 30
0.0
  3
*D84
  1

  0
LINE
  5
7311
330
730E
100
AcDbEntity
  8
DIM
  6
Continuous
 62
     0
370
    -2
100
AcDbLine
 10
112.2229790385804
 20
-47.16673827551477
 30
0.0
 11
112.2229790385804
 21
-24.59109137265295
 31
0.0
  0
LINE
  5
7312
330
730E
100
AcDbEntity
  8
DIM
  6
Continuous
 62
     0
370
    -2
100
AcDbLine
 10
142.2229790385804
 20
-47.16673827551477
 30
0.0
 11
142.2229790385804
 21
-24.59109137265295
 31
0.0
  0
LINE
  5
7313
330
730E
100
AcDbEntity
  8
DIM
  6
Continuous
 62
     0
370
    -2
100
AcDbLine
 10
113.7229790385804
 20
-24.59109137265295
 30
0.0
 11
140.7229790385804
 21
-24.59109137265295
 31
0.0
  0
INSERT
  5
7314
330
730E
100
AcDbEntity
  8
DIM
 62
     0
370
    -2
100
AcDbBlockReference
  2
_DOT
 10
112.2229790385804
 20
-24.59109137265295
 30
0.0
 41
1.5
 42
1.5
 43
1.5
 50
180.0
  0
INSERT
  5
7315
330
730E
100
AcDbEntity
  8
DIM
 62
     0
370
    -2
100
AcDbBlockReference
  2
_DOT
 10
142.2229790385804
 20
-24.59109137265295
 30
0.0
 41
1.5
 42
1.5
 43
1.5
  0
MTEXT
  5
7316
330
730E
100
AcDbEntity
  8
DIM
  6
Continuous
 62
     0
100
AcDbMText
 10
127.2229790385804
 20
-20.09109137265295
 30
0.0
 40
5.0
 41
0.0
 46
0.0
 71
     5
 72
     1
  1
\A1;30
  7
ＭＳ ゴシック
 73
     1
 44
1.0
  0
POINT
  5
7317
330
730E
100
AcDbEntity
  8
Defpoints
 62
     0
100
AcDbPoint
 10
112.2229790385804
 20
-52.16673827551477
 30
0.0
  0
POINT
  5
7318
330
730E
100
AcDbEntity
  8
Defpoints
 62
     0
100
AcDbPoint
 10
142.2229790385804
 20
-52.16673827551477
 30
0.0
  0
POINT
  5
7319
330
730E
100
AcDbEntity
  8
Defpoints
 62
     0
100
AcDbPoint
 10
142.2229790385804
 20
-24.59109137265295
 30
0.0
  0
ENDBLK
  5
7310
330
730E
100
AcDbEntity
  8
0
100
AcDbBlockEnd
  0
BLOCK
  5
731B
330
731A
100
AcDbEntity
  8
0
100
AcDbBlockBegin
  2
*D85
 70
     1
 10
0.0
 20
0.0
 30
0.0
  3
*D85
  1

  0
LINE
  5
731D
330
731A
100
AcDbEntity
  8
DIM
  6
Continuous
 62
     0
370
    -2
100
AcDbLine
 10
113.7229790385804
 20
-42.16673827551477
 30
0.0
 11
113.7229790385804
 21
-34.89649630065304
 31
0.0
  0
LINE
  5
731E
330
731A
100
AcDbEntity
  8
DIM
  6
Continuous
 62
     0
370
    -2
100
AcDbLine
 10
140.7229790385804
 20
-42.16673827551477
 30
0.0
 11
140.7229790385804
 21
-34.89649630065304
 31
0.0
  0
LINE
  5
731F
330
731A
100
AcDbEntity
  8
DIM
  6
Continuous
 62
     0
370
    -2
100
AcDbLine
 10
115.2229790385804
 20
-34.89649630065304
 30
0.0
 11
139.2229790385804
 21
-34.89649630065304
 31
0.0
  0
INSERT
  5
7320
330
731A
100
AcDbEntity
  8
DIM
 62
     0
370
    -2
100
AcDbBlockReference
  2
_DOT
 10
113.7229790385804
 20
-34.89649630065304
 30
0.0
 41
1.5
 42
1.5
 43
1.5
 50
180.0
  0
INSERT
  5
7321
330
731A
100
AcDbEntity
  8
DIM
 62
     0
370
    -2
100
AcDbBlockReference
  2
_DOT
 10
140.7229790385804
 20
-34.89649630065304
 30
0.0
 41
1.5
 42
1.5
 43
1.5
  0
MTEXT
  5
7322
330
731A
100
AcDbEntity
  8
DIM
  6
Continuous
 62
     0
100
AcDbMText
 10
127.2229790385804
 20
-30.39649630065304
 30
0.0
 40
5.0
 41
0.0
 46
0.0
 71
     5
 72
     1
  1
\A1;27
  7
ＭＳ ゴシック
 73
     1
 44
1.0
  0
POINT
  5
7323
330
731A
100
AcDbEntity
  8
Defpoints
 62
     0
100
AcDbPoint
 10
113.7229790385804
 20
-47.16673827551477
 30
0.0
  0
POINT
  5
7324
330
731A
100
AcDbEntity
  8
Defpoints
 62
     0
100
AcDbPoint
 10
140.7229790385804
 20
-47.16673827551477
 30
0.0
  0
POINT
  5
7325
330
731A
100
AcDbEntity
  8
Defpoints
 62
     0
100
AcDbPoint
 10
140.7229790385804
 20
-34.89649630065304
 30
0.0
  0
ENDBLK
  5
731C
330
731A
100
AcDbEntity
  8
0
100
AcDbBlockEnd
  0
BLOCK
  5
7327
330
7326
100
AcDbEntity
  8
0
100
AcDbBlockBegin
  2
*D86
 70
     1
 10
0.0
 20
0.0
 30
0.0
  3
*D86
  1

  0
LINE
  5
7329
330
7326
100
AcDbEntity
  8
DIM
  6
Continuous
 62
     0
370
    -2
100
AcDbLine
 10
147.2229790385804
 20
-54.16673827551477
 30
0.0
 11
157.7865738635285
 21
-54.16673827551477
 31
0.0
  0
LINE
  5
732A
330
7326
100
AcDbEntity
  8
DIM
  6
Continuous
 62
     0
370
    -2
100
AcDbLine
 10
147.2229790385804
 20
-52.16673827551477
 30
0.0
 11
157.7865738635285
 21
-52.16673827551477
 31
0.0
  0
LINE
  5
732B
330
7326
100
AcDbEntity
  8
DIM
  6
Continuous
 62
     0
370
    -2
100
AcDbLine
 10
157.7865738635285
 20
-54.16673827551477
 30
0.0
 11
157.7865738635285
 21
-63.75173827551478
 31
0.0
  0
LINE
  5
732C
330
7326
100
AcDbEntity
  8
DIM
  6
Continuous
 62
     0
370
    -2
100
AcDbLine
 10
157.7865738635285
 20
-52.66673827551477
 30
0.0
 11
157.7865738635285
 21
-51.16673827551477
 31
0.0
  0
LINE
  5
732D
330
7326
100
AcDbEntity
  8
DIM
  6
Continuous
 62
     0
370
    -2
100
AcDbLine
 10
157.7865738635285
 20
-52.16673827551477
 30
0.0
 11
157.7865738635285
 21
-50.66673827551477
 31
0.0
  0
INSERT
  5
732E
330
7326
100
AcDbEntity
  8
DIM
 62
     0
370
    -2
100
AcDbBlockReference
  2
_DOT
 10
157.7865738635285
 20
-54.16673827551477
 30
0.0
 41
1.5
 42
1.5
 43
1.5
 50
270.0
  0
INSERT
  5
732F
330
7326
100
AcDbEntity
  8
DIM
 62
     0
370
    -2
100
AcDbBlockReference
  2
_DOT
 10
157.7865738635285
 20
-52.16673827551477
 30
0.0
 41
1.5
 42
1.5
 43
1.5
 50
90.0
  0
MTEXT
  5
7330
330
7326
100
AcDbEntity
  8
DIM
  6
Continuous
 62
     0
100
AcDbMText
 10
153.2865738635285
 20
-60.45923827551479
 30
0.0
 40
5.0
 41
0.0
 46
0.0
 71
     5
 72
     1
  1
\A1;2
  7
ＭＳ ゴシック
 11
0.0
 21
1.0
 31
0.0
 73
     1
 44
1.0
  0
POINT
  5
7331
330
7326
100
AcDbEntity
  8
Defpoints
 62
     0
100
AcDbPoint
 10
142.2229790385804
 20
-54.16673827551477
 30
0.0
  0
POINT
  5
7332
330
7326
100
AcDbEntity
  8
Defpoints
 62
     0
100
AcDbPoint
 10
142.2229790385804
 20
-52.16673827551477
 30
0.0
  0
POINT
  5
7333
330
7326
100
AcDbEntity
  8
Defpoints
 62
     0
100
AcDbPoint
 10
157.7865738635285
 20
-52.16673827551477
 30
0.0
  0
ENDBLK
  5
7328
330
7326
100
AcDbEntity
  8
0
100
AcDbBlockEnd
  0
BLOCK
  5
7335
330
7334
100
AcDbEntity
  8
0
100
AcDbBlockBegin
  2
*D87
 70
     1
 10
0.0
 20
0.0
 30
0.0
  3
*D87
  1

  0
LINE
  5
7337
330
7334
100
AcDbEntity
  8
DIM
  6
Continuous
 62
     0
370
    -2
100
AcDbLine
 10
145.7229790385804
 20
-47.16673827551477
 30
0.0
 11
157.7865738635285
 21
-47.16673827551477
 31
0.0
  0
LINE
  5
7338
330
7334
100
AcDbEntity
  8
DIM
  6
Continuous
 62
     0
370
    -2
100
AcDbLine
 10
147.2229790385804
 20
-52.16673827551477
 30
0.0
 11
157.7865738635285
 21
-52.16673827551477
 31
0.0
  0
LINE
  5
7339
330
7334
100
AcDbEntity
  8
DIM
  6
Continuous
 62
     0
370
    -2
100
AcDbLine
 10
157.7865738635285
 20
-48.66673827551477
 30
0.0
 11
157.7865738635285
 21
-50.66673827551477
 31
0.0
  0
INSERT
  5
733A
330
7334
100
AcDbEntity
  8
DIM
 62
     0
370
    -2
100
AcDbBlockReference
  2
_DOT
 10
157.7865738635285
 20
-47.16673827551477
 30
0.0
 41
1.5
 42
1.5
 43
1.5
 50
90.0
  0
INSERT
  5
733B
330
7334
100
AcDbEntity
  8
DIM
 62
     0
370
    -2
100
AcDbBlockReference
  2
_DOT
 10
157.7865738635285
 20
-52.16673827551477
 30
0.0
 41
1.5
 42
1.5
 43
1.5
 50
270.0
  0
MTEXT
  5
733C
330
7334
100
AcDbEntity
  8
DIM
  6
Continuous
 62
     0
100
AcDbMText
 10
153.2865738635285
 20
-49.66673827551477
 30
0.0
 40
5.0
 41
0.0
 46
0.0
 71
     5
 72
     1
  1
\A1;5
  7
ＭＳ ゴシック
 11
0.0
 21
1.0
 31
0.0
 73
     1
 44
1.0
  0
POINT
  5
733D
330
7334
100
AcDbEntity
  8
Defpoints
 62
     0
100
AcDbPoint
 10
140.7229790385804
 20
-47.16673827551477
 30
0.0
  0
POINT
  5
733E
330
7334
100
AcDbEntity
  8
Defpoints
 62
     0
100
AcDbPoint
 10
142.2229790385804
 20
-52.16673827551477
 30
0.0
  0
POINT
  5
733F
330
7334
100
AcDbEntity
  8
Defpoints
 62
     0
100
AcDbPoint
 10
157.7865738635285
 20
-52.16673827551477
 30
0.0
  0
ENDBLK
  5
7336
330
7334
100
AcDbEntity
  8
0
100
AcDbBlockEnd
  0
BLOCK
  5
734F
330
734E
100
AcDbEntity
  8
0
100
AcDbBlockBegin
  2
*D88
 70
     1
 10
0.0
 20
0.0
 30
0.0
  3
*D88
  1

  0
LINE
  5
7351
330
734E
100
AcDbEntity
  8
寸法
  6
Continuous
 62
     0
370
    -2
100
AcDbLine
 10
115.1879293289669
 20
-147.5064009571901
 30
0.0
 11
87.27395681741226
 21
-147.5064009571901
 31
0.0
  0
LINE
  5
7352
330
734E
100
AcDbEntity
  8
寸法
  6
Continuous
 62
     0
370
    -2
100
AcDbLine
 10
115.1879293289669
 20
-177.5064009571901
 30
0.0
 11
87.27395681741226
 21
-177.5064009571901
 31
0.0
  0
LINE
  5
7353
330
734E
100
AcDbEntity
  8
寸法
  6
Continuous
 62
     0
370
    -2
100
AcDbLine
 10
87.27395681741226
 20
-149.0064009571901
 30
0.0
 11
87.27395681741226
 21
-176.0064009571901
 31
0.0
  0
INSERT
  5
7354
330
734E
100
AcDbEntity
  8
寸法
 62
     0
370
    -2
100
AcDbBlockReference
  2
_DOT
 10
87.27395681741226
 20
-147.5064009571901
 30
0.0
 41
1.5
 42
1.5
 43
1.5
 50
90.0
  0
INSERT
  5
7355
330
734E
100
AcDbEntity
  8
寸法
 62
     0
370
    -2
100
AcDbBlockReference
  2
_DOT
 10
87.27395681741226
 20
-177.5064009571901
 30
0.0
 41
1.5
 42
1.5
 43
1.5
 50
270.0
  0
MTEXT
  5
7356
330
734E
100
AcDbEntity
  8
寸法
  6
Continuous
 62
     0
100
AcDbMText
 10
82.36895681741225
 20
-162.5064009571901
 30
0.0
 40
5.0
 41
0.0
 46
0.0
 71
     5
 72
     1
  1
\A1;φ30
  7
ＭＳ ゴシック
 11
0.0
 21
1.0
 31
0.0
 73
     1
 44
1.0
  0
POINT
  5
7357
330
734E
100
AcDbEntity
  8
Defpoints
 62
     0
100
AcDbPoint
 10
120.1879293289669
 20
-147.5064009571901
 30
0.0
  0
POINT
  5
7358
330
734E
100
AcDbEntity
  8
Defpoints
 62
     0
100
AcDbPoint
 10
120.1879293289669
 20
-177.5064009571901
 30
0.0
  0
POINT
  5
7359
330
734E
100
AcDbEntity
  8
Defpoints
 62
     0
100
AcDbPoint
 10
87.27395681741226
 20
-177.5064009571901
 30
0.0
  0
ENDBLK
  5
7350
330
734E
100
AcDbEntity
  8
0
100
AcDbBlockEnd
  0
BLOCK
  5
735B
330
735A
100
AcDbEntity
  8
0
100
AcDbBlockBegin
  2
*D89
 70
     1
 10
0.0
 20
0.0
 30
0.0
  3
*D89
  1

  0
LINE
  5
735D
330
735A
100
AcDbEntity
  8
DIM
  6
Continuous
 62
     0
370
    -2
100
AcDbLine
 10
253.9463118719575
 20
-156.4426769951601
 30
0.0
 11
264.7464456901394
 21
-156.4426769951601
 31
0.0
  0
LINE
  5
735E
330
735A
100
AcDbEntity
  8
DIM
  6
Continuous
 62
     0
370
    -2
100
AcDbLine
 10
253.9463118719575
 20
-168.4426769951601
 30
0.0
 11
264.7464456901394
 21
-168.4426769951601
 31
0.0
  0
LINE
  5
735F
330
735A
100
AcDbEntity
  8
DIM
  6
Continuous
 62
     0
370
    -2
100
AcDbLine
 10
264.7464456901394
 20
-157.9426769951601
 30
0.0
 11
264.7464456901394
 21
-166.9426769951601
 31
0.0
  0
INSERT
  5
7360
330
735A
100
AcDbEntity
  8
DIM
 62
     0
370
    -2
100
AcDbBlockReference
  2
_DOT
 10
264.7464456901394
 20
-156.4426769951601
 30
0.0
 41
1.5
 42
1.5
 43
1.5
 50
90.0
  0
INSERT
  5
7361
330
735A
100
AcDbEntity
  8
DIM
 62
     0
370
    -2
100
AcDbBlockReference
  2
_DOT
 10
264.7464456901394
 20
-168.4426769951601
 30
0.0
 41
1.5
 42
1.5
 43
1.5
 50
270.0
  0
MTEXT
  5
7362
330
735A
100
AcDbEntity
  8
DIM
  6
Continuous
 62
     0
100
AcDbMText
 10
260.2464456901394
 20
-162.4426769951601
 30
0.0
 40
5.0
 41
0.0
 46
0.0
 71
     5
 72
     1
  1
\A1;12
  7
ＭＳ ゴシック
 11
0.0
 21
1.0
 31
0.0
 73
     1
 44
1.0
  0
POINT
  5
7363
330
735A
100
AcDbEntity
  8
Defpoints
 62
     0
100
AcDbPoint
 10
248.9463118719575
 20
-156.4426769951601
 30
0.0
  0
POINT
  5
7364
330
735A
100
AcDbEntity
  8
Defpoints
 62
     0
100
AcDbPoint
 10
248.9463118719575
 20
-168.4426769951601
 30
0.0
  0
POINT
  5
7365
330
735A
100
AcDbEntity
  8
Defpoints
 62
     0
100
AcDbPoint
 10
264.7464456901394
 20
-168.4426769951601
 30
0.0
  0
ENDBLK
  5
735C
330
735A
100
AcDbEntity
  8
0
100
AcDbBlockEnd
  0
ENDSEC
  0
SECTION
  2
ENTITIES
  0
POINT
  5
1301
330
A
100
AcDbEntity
  8
MODEL
100
AcDbPoint
 10
963.7243970754489
 20
138.0847547131194
 30
0.0
  0
POINT
  5
1306
330
A
100
AcDbEntity
  8
MODEL
100
AcDbPoint
 10
847.7244070754489
 20
138.0847547131194
 30
0.0
  0
POINT
  5
1307
330
A
100
AcDbEntity
  8
MODEL
100
AcDbPoint
 10
973.7862873746794
 20
166.0075841667841
 30
0.0
  0
POINT
  5
1308
330
A
100
AcDbEntity
  8
MODEL
100
AcDbPoint
 10
973.7862873746794
 20
184.0075841667841
 30
0.0
  0
POINT
  5
1312
330
A
100
AcDbEntity
  8
MODEL
100
AcDbPoint
 10
810.9244070754489
 20
149.007583882008
 30
0.0
  0
POINT
  5
1313
330
A
100
AcDbEntity
  8
MODEL
100
AcDbPoint
 10
810.9244070754489
 20
201.007583882008
 30
0.0
  0
POINT
  5
131E
330
A
100
AcDbEntity
  8
MODEL
100
AcDbPoint
 10
1111.259263541787
 20
138.207583607055
 30
0.0
  0
POINT
  5
131F
330
A
100
AcDbEntity
  8
MODEL
100
AcDbPoint
 10
1104.759263541787
 20
138.207583607055
 30
0.0
  0
POINT
  5
1342
330
A
100
AcDbEntity
  8
MODEL
100
AcDbPoint
 10
973.354966229004
 20
368.3598201219507
 30
0.0
  0
POINT
  5
1343
330
A
100
AcDbEntity
  8
MODEL
100
AcDbPoint
 10
973.354966229004
 20
319.3598501219507
 30
0.0
  0
POINT
  5
1346
330
A
100
AcDbEntity
  8
MODEL
100
AcDbPoint
 10
983.2218070738209
 20
368.3598201219507
 30
0.0
  0
POINT
  5
1347
330
A
100
AcDbEntity
  8
MODEL
100
AcDbPoint
 10
983.2218070738209
 20
301.3598201219507
 30
0.0
  0
POINT
  5
1350
330
A
100
AcDbEntity
  8
MODEL
100
AcDbPoint
 10
963.7243970754489
 20
286.3598201219507
 30
0.0
  0
POINT
  5
1351
330
A
100
AcDbEntity
  8
MODEL
100
AcDbPoint
 10
838.7244070754489
 20
286.3598201219507
 30
0.0
  0
POINT
  5
1357
330
A
100
AcDbEntity
  8
MODEL
100
AcDbPoint
 10
810.9244070754489
 20
301.3598201219507
 30
0.0
  0
POINT
  5
1359
330
A
100
AcDbEntity
  8
MODEL
100
AcDbPoint
 10
810.9244070754489
 20
361.3598201219507
 30
0.0
  0
POINT
  5
135A
330
A
100
AcDbEntity
  8
MODEL
100
AcDbPoint
 10
810.9244070754489
 20
368.3598201219507
 30
0.0
  0
POINT
  5
135B
330
A
100
AcDbEntity
  8
MODEL
100
AcDbPoint
 10
810.9244070754489
 20
361.3598201219507
 30
0.0
  0
POINT
  5
1371
330
A
100
AcDbEntity
  8
MODEL
100
AcDbPoint
 10
1164.81489702863
 20
383.9337336502628
 30
0.0
  0
POINT
  5
1372
330
A
100
AcDbEntity
  8
MODEL
100
AcDbPoint
 10
1164.81489702863
 20
279.9338376502628
 30
0.0
  0
POINT
  5
1378
330
A
100
AcDbEntity
  8
MODEL
100
AcDbPoint
 10
1180.157201609016
 20
264.2731813749589
 30
0.0
  0
POINT
  5
1379
330
A
100
AcDbEntity
  8
MODEL
100
AcDbPoint
 10
1193.957187809016
 20
264.2731813749589
 30
0.0
  0
POINT
  5
1389
330
A
100
AcDbEntity
  8
MODEL
100
AcDbPoint
 10
1079.093440814797
 20
383.9337336502628
 30
0.0
  0
POINT
  5
138A
330
A
100
AcDbEntity
  8
MODEL
100
AcDbPoint
 10
1079.093440814797
 20
279.9337336502626
 30
0.0
  0
POINT
  5
138D
330
A
100
AcDbEntity
  8
MODEL
100
AcDbPoint
 10
1093.467555113589
 20
264.2731813749589
 30
0.0
  0
POINT
  5
138E
330
A
100
AcDbEntity
  8
MODEL
100
AcDbPoint
 10
1106.467555113589
 20
264.2731813749589
 30
0.0
  0
POINT
  5
1398
330
A
100
AcDbEntity
  8
MODEL
100
AcDbPoint
 10
1180.157201609016
 20
398.2298339817613
 30
0.0
  0
POINT
  5
1399
330
A
100
AcDbEntity
  8
MODEL
100
AcDbPoint
 10
1194.157187609016
 20
398.2298339817613
 30
0.0
  0
POINT
  5
139C
330
A
100
AcDbEntity
  8
MODEL
100
AcDbPoint
 10
1093.467555113589
 20
398.2298339817613
 30
0.0
  0
POINT
  5
139D
330
A
100
AcDbEntity
  8
MODEL
100
AcDbPoint
 10
1107.467555113589
 20
398.2298339817613
 30
0.0
  0
POINT
  5
4967
330
A
100
AcDbEntity
  8
MODEL
 62
     7
100
AcDbPoint
 10
159.6608149866037
 20
1112.943495860789
 30
0.0
  0
POINT
  5
4968
330
A
100
AcDbEntity
  8
MODEL
 62
     7
100
AcDbPoint
 10
159.6608149866037
 20
1058.143496245838
 30
0.0
  0
ARC
  5
4976
330
A
100
AcDbEntity
  8
MODEL
  6
STYLE_02
100
AcDbCircle
 10
408.4349420761783
 20
319.0892709410313
 30
0.0
 40
12.0
100
AcDbArc
 50
179.9992630000003
 51
180.4691690000001
  0
LINE
  5
4980
330
A
100
AcDbEntity
  8
MODEL
  6
STYLE_02
100
AcDbLine
 10
396.4353530761784
 20
318.9980639410311
 30
0.0
 11
396.4353440761784
 21
318.9910089410313
 31
0.0
  0
POINT
  5
499D
330
A
100
AcDbEntity
  8
MODEL
 62
     7
100
AcDbPoint
 10
471.5926809920595
 20
1039.574930990415
 30
0.0
  0
POINT
  5
499E
330
A
100
AcDbEntity
  8
MODEL
 62
     7
100
AcDbPoint
 10
478.7926809920594
 20
1039.574930990415
 30
0.0
  0
DIMENSION
  5
4A99
330
A
100
AcDbEntity
  8
寸法
  6
Continuous
100
AcDbDimension
  2
*D5
 10
368.9392464000001
 20
306.3335990428101
 30
0.0
 11
368.9392464000001
 21
321.3335990428101
 31
0.0
 70
   160
 71
     5
 42
30.0
 73
     0
 74
     0
 75
     0
  3
tfrom線あり
100
AcDbAlignedDimension
 13
401.8532189115548
 23
336.3335990428101
 33
0.0
 14
401.8532189115548
 24
306.3335990428101
 34
0.0
 50
90.0
100
AcDbRotatedDimension
1001
ACAD
1000
DSTYLE
1002
{
1070
   144
1040
1.0
1070
     3
1000
φ<>
1002
}
  0
POINT
  5
4ECE
330
A
100
AcDbEntity
  8
MODEL
 62
     7
100
AcDbPoint
 10
130.0913409417582
 20
1181.156054141915
 30
0.0
  0
POINT
  5
4ECF
330
A
100
AcDbEntity
  8
MODEL
 62
     7
100
AcDbPoint
 10
260.0913409417582
 20
1181.156054141915
 30
0.0
  0
ARC
  5
50D6
330
A
100
AcDbEntity
  8
MODEL
  6
Continuous
100
AcDbCircle
 10
532.8882686211682
 20
326.39732300484
 30
0.0
 40
1.0
100
AcDbArc
 50
0.0
 51
90.0
  0
ARC
  5
50D7
330
A
100
AcDbEntity
  8
MODEL
  6
Continuous
100
AcDbCircle
 10
532.8882686211682
 20
316.39732300484
 30
0.0
 40
1.0
100
AcDbArc
 50
270.0
 51
0.0
  0
ARC
  5
50D8
330
A
100
AcDbEntity
  8
MODEL
  6
Continuous
100
AcDbCircle
 10
408.8882686211683
 20
321.39732300484
 30
0.0
 40
12.0
100
AcDbArc
 50
30.0
 51
330.0
  0
LINE
  5
50D9
330
A
100
AcDbEntity
  8
MODEL
  6
Continuous
100
AcDbLine
 10
532.8882686211682
 20
327.39732300484
 30
0.0
 11
398.4959636211683
 21
327.39732300484
 31
0.0
  0
LINE
  5
50DA
330
A
100
AcDbEntity
  8
MODEL
  6
Continuous
100
AcDbLine
 10
533.8882686211682
 20
326.39732300484
 30
0.0
 11
533.8882686211682
 21
316.39732300484
 31
0.0
  0
LINE
  5
50DB
330
A
100
AcDbEntity
  8
MODEL
  6
Continuous
100
AcDbLine
 10
532.8882686211682
 20
315.39732300484
 30
0.0
 11
398.4959636211683
 21
315.39732300484
 31
0.0
  0
ARC
  5
50DC
330
A
100
AcDbEntity
  8
MODEL
  6
DASHED1
100
AcDbCircle
 10
408.8882686211683
 20
321.39732300484
 30
0.0
 40
12.0
100
AcDbArc
 50
330.0
 51
30.0
  0
CIRCLE
  5
50DD
330
A
100
AcDbEntity
  8
MODEL
  6
DASHED1
100
AcDbCircle
 10
408.8882686211683
 20
321.39732300484
 30
0.0
 40
8.925
  0
ARC
  5
50DE
330
A
100
AcDbEntity
  8
MODEL
  6
Continuous
100
AcDbCircle
 10
408.8721245115548
 20
321.3335990428101
 30
0.0
 40
15.0
100
AcDbArc
 50
23.84402808013574
 51
336.6871338495929
  0
ARC
  5
50DF
330
A
100
AcDbEntity
  8
MODEL
  6
DASHED1
100
AcDbCircle
 10
408.8721245115548
 20
321.3335990428101
 30
0.0
 40
15.0
100
AcDbArc
 50
348.7250759260381
 51
12.03120704836379
  0
ARC
  5
50E0
330
A
100
AcDbEntity
  8
MODEL
  6
Continuous
100
AcDbCircle
 10
141.7229790385805
 20
307.4692617244852
 30
0.0
 40
2.5
100
AcDbArc
 50
180.0
 51
270.0
  0
ARC
  5
50E1
330
A
100
AcDbEntity
  8
MODEL
  6
Continuous
100
AcDbCircle
 10
251.2229790385804
 20
284.9692617244852
 30
0.0
 40
1.0
100
AcDbArc
 50
270.0
 51
0.0
  0
ARC
  5
50E2
330
A
100
AcDbEntity
  8
MODEL
  6
Continuous
100
AcDbCircle
 10
251.2229790385804
 20
303.9692617244852
 30
0.0
 40
1.0
100
AcDbArc
 50
0.0
 51
90.0
  0
ARC
  5
50E3
330
A
100
AcDbEntity
  8
MODEL
  6
Continuous
100
AcDbCircle
 10
116.2229790385805
 20
284.9692617244852
 30
0.0
 40
1.0
100
AcDbArc
 50
180.0
 51
270.0
  0
LINE
  5
50E4
330
A
100
AcDbEntity
  8
MODEL
  6
Continuous
100
AcDbLine
 10
139.2229790385805
 20
340.9692617244852
 30
0.0
 11
115.2229790385805
 21
340.9692617244852
 31
0.0
  0
LINE
  5
50E5
330
A
100
AcDbEntity
  8
MODEL
  6
Continuous
100
AcDbLine
 10
141.7229790385805
 20
304.9692617244852
 30
0.0
 11
251.2229790385804
 21
304.9692617244852
 31
0.0
  0
LINE
  5
50E6
102
{ACAD_REACTORS
330
5209
102
}
330
A
100
AcDbEntity
  8
MODEL
  6
Continuous
100
AcDbLine
 10
115.2229790385805
 20
284.9692617244852
 30
0.0
 11
115.2229790385805
 21
340.9692617244852
 31
0.0
  0
LINE
  5
50E7
330
A
100
AcDbEntity
  8
MODEL
  6
Continuous
100
AcDbLine
 10
116.2229790385805
 20
283.9692617244852
 30
0.0
 11
251.2229790385804
 21
283.9692617244852
 31
0.0
  0
LINE
  5
50E8
330
A
100
AcDbEntity
  8
MODEL
  6
Continuous
100
AcDbLine
 10
252.2229790385804
 20
284.9692617244852
 30
0.0
 11
252.2229790385804
 21
303.9692617244852
 31
0.0
  0
LINE
  5
50E9
330
A
100
AcDbEntity
  8
MODEL
  6
Continuous
100
AcDbLine
 10
139.2229790385805
 20
340.9692617244852
 30
0.0
 11
139.2229790385805
 21
307.4692617244852
 31
0.0
  0
ARC
  5
50EF
330
A
100
AcDbEntity
  8
MODEL
  6
Continuous
100
AcDbCircle
 10
139.5746250385805
 20
305.5861057244852
 30
0.0
 40
2.5
100
AcDbArc
 50
180.0
 51
270.0
  0
ARC
  5
50F0
330
A
100
AcDbEntity
  8
MODEL
  6
Continuous
100
AcDbCircle
 10
132.0746250385805
 20
307.9692617244852
 30
0.0
 40
5.0
100
AcDbArc
 50
0.0
 51
90.0
  0
ARC
  5
50F1
330
A
100
AcDbEntity
  8
MODEL
  6
Continuous
100
AcDbCircle
 10
122.3713320385804
 20
307.9692617244852
 30
0.0
 40
5.0
100
AcDbArc
 50
90.0
 51
180.0
  0
LINE
  5
50F2
102
{ACAD_REACTORS
330
5209
102
}
330
A
100
AcDbEntity
  8
MODEL
  6
Continuous
100
AcDbLine
 10
252.2229790385804
 20
285.852417724485
 30
0.0
 11
117.3713320385804
 21
285.852417724485
 31
0.0
  0
LINE
  5
50F3
330
A
100
AcDbEntity
  8
MODEL
  6
Continuous
100
AcDbLine
 10
139.5746250385805
 20
303.0861057244852
 30
0.0
 11
252.2229790385804
 21
303.0861057244852
 31
0.0
  0
LINE
  5
50F4
330
A
100
AcDbEntity
  8
MODEL
  6
Continuous
100
AcDbLine
 10
137.0746250385805
 20
307.9692617244852
 30
0.0
 11
137.0746250385805
 21
305.5861057244852
 31
0.0
  0
LINE
  5
50F5
330
A
100
AcDbEntity
  8
MODEL
  6
Continuous
100
AcDbLine
 10
122.3713320385804
 20
312.9692617244852
 30
0.0
 11
132.0746250385805
 21
312.9692617244852
 31
0.0
  0
LINE
  5
50F6
330
A
100
AcDbEntity
  8
MODEL
  6
Continuous
100
AcDbLine
 10
117.3713320385804
 20
307.9692617244852
 30
0.0
 11
117.3713320385804
 21
285.852417724485
 31
0.0
  0
POINT
  5
50F7
330
A
100
AcDbEntity
  8
MODEL
 62
     7
100
AcDbPoint
 10
137.6679041970282
 20
1181.744843055498
 30
0.0
  0
POINT
  5
50F8
330
A
100
AcDbEntity
  8
MODEL
 62
     7
100
AcDbPoint
 10
274.6679041970282
 20
1181.744843055498
 30
0.0
  0
ARC
  5
5106
102
{ACAD_REACTORS
330
7367
102
}
330
A
100
AcDbEntity
  8
MODEL
  6
Continuous
100
AcDbCircle
 10
162.4265721285731
 20
169.4061924603086
 30
0.0
 40
0.5
100
AcDbArc
 50
270.0
 51
0.0
  0
ARC
  5
5107
102
{ACAD_REACTORS
330
7367
102
}
330
A
100
AcDbEntity
  8
MODEL
  6
Continuous
100
AcDbCircle
 10
162.4265721285731
 20
192.4061924603086
 30
0.0
 40
0.5
100
AcDbArc
 50
0.0
 51
90.0
  0
ARC
  5
5108
102
{ACAD_REACTORS
330
7367
102
}
330
A
100
AcDbEntity
  8
MODEL
  6
Continuous
100
AcDbCircle
 10
167.9265721285731
 20
169.9061924603086
 30
0.0
 40
5.0
100
AcDbArc
 50
90.0
 51
180.0
  0
ARC
  5
5109
102
{ACAD_REACTORS
330
7367
102
}
330
A
100
AcDbEntity
  8
MODEL
  6
Continuous
100
AcDbCircle
 10
167.9265721285731
 20
191.9061924603086
 30
0.0
 40
5.0
100
AcDbArc
 50
180.0
 51
270.0
  0
ARC
  5
510A
102
{ACAD_REACTORS
330
7367
102
}
330
A
100
AcDbEntity
  8
MODEL
  6
Continuous
100
AcDbCircle
 10
189.778218128573
 20
175.4061924603086
 30
0.0
 40
0.5
100
AcDbArc
 50
270.0
 51
326.632986999996
  0
ARC
  5
510B
102
{ACAD_REACTORS
330
7367
102
}
330
A
100
AcDbEntity
  8
MODEL
  6
Continuous
100
AcDbCircle
 10
189.778218128573
 20
186.4061924603086
 30
0.0
 40
0.5
100
AcDbArc
 50
33.36701300000411
 51
90.0
  0
ARC
  5
510C
102
{ACAD_REACTORS
330
7367
102
}
330
A
100
AcDbEntity
  8
MODEL
  6
Continuous
100
AcDbCircle
 10
181.4265721285731
 20
180.9061924603086
 30
0.0
 40
10.5
100
AcDbArc
 50
326.6329869999995
 51
33.36701300000049
  0
LINE
  5
510D
330
A
100
AcDbEntity
  8
MODEL
  6
Continuous
100
AcDbLine
 10
134.9265721285731
 20
168.9061924603086
 30
0.0
 11
134.9265721285731
 21
192.9061924603086
 31
0.0
  0
LINE
  5
510E
102
{ACAD_REACTORS
330
7367
102
}
330
A
100
AcDbEntity
  8
MODEL
  6
Continuous
100
AcDbLine
 10
162.4265721285731
 20
168.9061924603086
 30
0.0
 11
134.9265721285731
 21
168.9061924603086
 31
0.0
  0
LINE
  5
510F
102
{ACAD_REACTORS
330
7367
102
}
330
A
100
AcDbEntity
  8
MODEL
  6
Continuous
100
AcDbLine
 10
162.9265721285731
 20
169.4061924603086
 30
0.0
 11
162.9265721285731
 21
169.9061924603086
 31
0.0
  0
LINE
  5
5110
102
{ACAD_REACTORS
330
7367
102
}
330
A
100
AcDbEntity
  8
MODEL
  6
Continuous
100
AcDbLine
 10
162.9265721285731
 20
192.4061924603086
 30
0.0
 11
162.9265721285731
 21
191.9061924603086
 31
0.0
  0
LINE
  5
5111
102
{ACAD_REACTORS
330
7367
102
}
330
A
100
AcDbEntity
  8
MODEL
  6
Continuous
100
AcDbLine
 10
189.778218128573
 20
174.9061924603086
 30
0.0
 11
167.9265721285731
 21
174.9061924603086
 31
0.0
  0
LINE
  5
5112
102
{ACAD_REACTORS
330
7367
102
}
330
A
100
AcDbEntity
  8
MODEL
  6
Continuous
100
AcDbLine
 10
189.778218128573
 20
186.9061924603086
 30
0.0
 11
167.9265721285731
 21
186.9061924603086
 31
0.0
  0
LINE
  5
5113
102
{ACAD_REACTORS
330
7367
102
}
330
A
100
AcDbEntity
  8
MODEL
  6
Continuous
100
AcDbLine
 10
134.9265721285731
 20
192.9061924603086
 30
0.0
 11
162.4265721285731
 21
192.9061924603086
 31
0.0
  0
ARC
  5
5114
102
{ACAD_REACTORS
330
7367
102
}
330
A
100
AcDbEntity
  8
MODEL
  6
STYLE_01
100
AcDbCircle
 10
173.0749251285731
 20
175.4061924603086
 30
0.0
 40
0.5
100
AcDbArc
 50
213.3670130000041
 51
270.0
  0
ARC
  5
5115
102
{ACAD_REACTORS
330
7367
102
}
330
A
100
AcDbEntity
  8
MODEL
  6
STYLE_01
100
AcDbCircle
 10
173.0749251285731
 20
186.4061924603086
 30
0.0
 40
0.5
100
AcDbArc
 50
90.0
 51
146.6329869999959
  0
ARC
  5
5116
102
{ACAD_REACTORS
330
7367
102
}
330
A
100
AcDbEntity
  8
MODEL
  6
DASHED1
100
AcDbCircle
 10
181.4265721285731
 20
180.9061924603086
 30
0.0
 40
10.5
100
AcDbArc
 50
146.6329869999995
 51
213.3670130000005
  0
DIMENSION
  5
5207
102
{ACAD_REACTORS
330
5209
102
}
102
{ACAD_XDICTIONARY
360
5208
102
}
330
A
100
AcDbEntity
  8
寸法
  6
Continuous
100
AcDbDimension
  2
*D9
 10
252.2229790385804
 20
259.1311541215662
 30
0.0
 11
183.7229790385805
 21
259.1311541215662
 31
0.0
 70
   160
 71
     5
 42
136.9999999999999
 73
     0
 74
     0
 75
     0
  3
tfrom線あり
100
AcDbAlignedDimension
 13
115.2229790385805
 23
284.9692617244852
 33
0.0
 14
252.2229790385804
 24
285.852417724485
 34
0.0
100
AcDbRotatedDimension
1001
ACAD
1000
DSTYLE
1002
{
1070
   144
1040
1.0
1002
}
  0
LINE
  5
55B3
330
A
100
AcDbEntity
  8
PRINT BORDER
100
AcDbLine
 10
296.9999999999999
 20
0.0
 30
0.0
 11
296.9999999999999
 21
15.30952622855898
 31
0.0
  0
LINE
  5
55B5
330
A
100
AcDbEntity
  8
テンプレート
100
AcDbLine
 10
15.30952622855898
 20
26.22153683920783
 30
0.0
 11
578.6904737714407
 21
26.22153683920783
 31
0.0
  0
LINE
  5
55BE
330
A
100
AcDbEntity
  8
PRINT BORDER
100
AcDbLine
 10
593.9999999999999
 20
210.0
 30
0.0
 11
578.6904737714411
 21
210.0
 31
0.0
  0
LINE
  5
55BF
330
A
100
AcDbEntity
  8
PRINT BORDER
100
AcDbLine
 10
0.0
 20
210.0
 30
0.0
 11
15.30952622855898
 21
210.0
 31
0.0
  0
LINE
  5
55C0
330
A
100
AcDbEntity
  8
PRINT BORDER
100
AcDbLine
 10
296.9999999999999
 20
420.0
 30
0.0
 11
296.9999999999999
 21
404.690473771441
 31
0.0
  0
LINE
  5
55C1
330
A
100
AcDbEntity
  8
テンプレート
100
AcDbLine
 10
578.6904737714411
 20
62.22153683920783
 30
0.0
 11
578.6904737714411
 21
26.22153683920783
 31
0.0
  0
LINE
  5
55C2
330
A
100
AcDbEntity
  8
テンプレート
100
AcDbLine
 10
15.30952622855898
 20
62.22153683920783
 30
0.0
 11
15.30952622855898
 21
26.22153683920783
 31
0.0
  0
TEXT
  5
55C3
330
A
100
AcDbEntity
  8
テンプレート
100
AcDbText
 10
494.9733384955217
 20
16.51938390313694
 30
0.0
 40
5.5
  1
大洋金物株式会社  
  7
ＭＳ ゴシック
100
AcDbText
  0
INSERT
  5
55C6
330
A
100
AcDbEntity
  8
テンプレート
100
AcDbBlockReference
  2
名称未設定-1
 10
548.3945198859805
 20
-7.642344203993161
 30
0.0
 41
0.180975
 42
0.180975
 43
0.180975
  0
LINE
  5
55C8
330
A
100
AcDbEntity
  8
テンプレート
100
AcDbLine
 10
15.30952622855898
 20
210.0
 30
0.0
 11
15.30952622855898
 21
26.22153683920783
 31
0.0
  0
LINE
  5
55C9
330
A
100
AcDbEntity
  8
テンプレート
100
AcDbLine
 10
15.30952622855898
 20
210.0
 30
0.0
 11
15.30952622855898
 21
404.690473771441
 31
0.0
  0
LINE
  5
55CA
330
A
100
AcDbEntity
  8
テンプレート
100
AcDbLine
 10
296.9999999999999
 20
404.690473771441
 30
0.0
 11
15.30952622855887
 21
404.690473771441
 31
0.0
  0
LINE
  5
55CB
330
A
100
AcDbEntity
  8
テンプレート
100
AcDbLine
 10
296.9999999999999
 20
404.690473771441
 30
0.0
 11
578.6904737714411
 21
404.690473771441
 31
0.0
  0
LINE
  5
55CC
330
A
100
AcDbEntity
  8
テンプレート
100
AcDbLine
 10
578.6904737714411
 20
210.0
 30
0.0
 11
578.6904737714411
 21
404.690473771441
 31
0.0
  0
LINE
  5
55CD
330
A
100
AcDbEntity
  8
テンプレート
100
AcDbLine
 10
578.6904737714411
 20
210.0
 30
0.0
 11
578.6904737714411
 21
26.22153683920783
 31
0.0
  0
LWPOLYLINE
  5
55CE
330
A
100
AcDbEntity
  8
PRINT BORDER
  6
HIDDEN
 48
3.0
100
AcDbPolyline
 90
        4
 70
     1
 43
0.0
 10
0.0
 20
0.0
 10
0.0
 20
420.0
 10
593.9999999999999
 20
420.0
 10
593.9999999999999
 20
0.0
  0
LINE
  5
55D4
330
A
100
AcDbEntity
  8
SPACER
  6
CENTER
 48
3.0
100
AcDbLine
 10
127.1816507401138
 20
224.6771809568476
 30
0.0
 11
127.1816507401138
 21
137.0485128832279
 31
0.0
  0
LINE
  5
55D5
330
A
100
AcDbEntity
  8
SPACER
  6
CENTER
 48
3.0
100
AcDbLine
 10
83.36731670330403
 20
180.8628469200378
 30
0.0
 11
170.9959847769237
 21
180.8628469200378
 31
0.0
  0
LINE
  5
55D6
330
A
100
AcDbEntity
  8
SPACER
  6
CENTER
 48
3.0
100
AcDbLine
 10
83.36817797774336
 20
348.7335990428101
 30
0.0
 11
170.9968460513629
 21
348.7335990428101
 31
0.0
  0
LINE
  5
55D7
330
A
100
AcDbEntity
  8
SPACER
  6
CENTER
 48
3.0
100
AcDbLine
 10
408.8721245115548
 20
365.1479330796199
 30
0.0
 11
408.8721245115548
 21
277.5192650060002
 31
0.0
  0
LINE
  5
55D8
330
A
100
AcDbEntity
  8
SPACER
  6
CENTER
 48
3.0
100
AcDbLine
 10
365.0577904747449
 20
321.33359904281
 30
0.0
 11
452.6864585483646
 21
321.33359904281
 31
0.0
  0
LWPOLYLINE
  5
563A
330
A
100
AcDbEntity
  8
SPACER
100
AcDbPolyline
 90
        4
 70
     1
 43
0.0
 10
161.5928474918056
 20
97.1045060433407
 10
161.5928474918056
 20
69.6571102646527
 10
432.4071525081941
 20
69.6571102646527
 10
432.4071525081941
 20
97.1045060433407
  0
LINE
  5
563B
330
A
100
AcDbEntity
  8
SPACER
  6
CENTER
 48
3.0
100
AcDbLine
 10
296.9999999999999
 20
404.690473771441
 30
0.0
 11
297.0
 21
106.25363796957
 31
0.0
  0
LINE
  5
563C
330
A
100
AcDbEntity
  8
SPACER
  6
CENTER
 48
3.0
100
AcDbLine
 10
15.30952622855898
 20
255.4720558705055
 30
0.0
 11
578.690473771441
 21
255.4720558705055
 31
0.0
  0
LINE
  5
563D
330
A
100
AcDbEntity
  8
SPACER
  6
CENTER
 48
3.0
100
AcDbLine
 10
15.30952622855898
 20
106.25363796957
 30
0.0
 11
578.690473771441
 21
106.25363796957
 31
0.0
  0
LINE
  5
563E
330
A
100
AcDbEntity
  8
SPACER
  6
CENTER
 48
3.0
100
AcDbLine
 10
408.8721245115548
 20
224.6771809568476
 30
0.0
 11
408.8721245115548
 21
137.0485128832279
 31
0.0
  0
LINE
  5
563F
330
A
100
AcDbEntity
  8
SPACER
  6
CENTER
 48
3.0
100
AcDbLine
 10
365.057790474745
 20
180.8628469200378
 30
0.0
 11
452.6864585483647
 21
180.8628469200378
 31
0.0
  0
CIRCLE
  5
5656
102
{ACAD_REACTORS
330
56DF
330
56E2
330
5C3D
102
}
330
A
100
AcDbEntity
  8
CutoutOverlay
100
AcDbCircle
 10
408.8721245115548
 20
180.8628469200378
 30
0.0
 40
14.0
  0
TEXT
  5
56DC
330
A
100
AcDbEntity
  8
寸法
100
AcDbText
 10
348.1659509202454
 20
231.4229447852761
 30
0.0
 40
5.0
  1
<切欠図>
  7
ＭＳ ゴシック
100
AcDbText
  0
LEADER
  5
56DD
102
{ACAD_REACTORS
330
56DF
102
}
102
{ACAD_XDICTIONARY
360
56DE
102
}
330
A
100
AcDbEntity
  8
寸法
100
AcDbLeader
  3
tfrom線あり
 76
     3
 10
408.8721245115548
 20
194.8628469200378
 30
0.0
 10
408.8721245115548
 20
200.7337752882268
 30
0.0
 10
430.28392896
 20
200.7337752882268
 30
0.0
  0
LEADER
  5
56E0
102
{ACAD_REACTORS
330
56E2
102
}
102
{ACAD_XDICTIONARY
360
56E1
102
}
330
A
100
AcDbEntity
  8
寸法
100
AcDbLeader
  3
tfrom線あり
 76
     3
 10
408.8721245115548
 20
180.8628469200378
 30
0.0
 10
442.1530114131083
 20
156.5669494488204
 30
0.0
 10
510.1082899407156
 20
156.5669494488204
 30
0.0
  0
TEXT
  5
56E4
330
A
100
AcDbEntity
  8
寸法
100
AcDbText
 10
443.7339484827306
 20
159.2024023985158
 30
0.0
 40
5.0
  1
レバー角芯 センター
  7
ＭＳ ゴシック
100
AcDbText
  0
LINE
  5
56E9
330
A
100
AcDbEntity
  8
SPACER
  6
CENTER
 48
3.0
100
AcDbLine
 10
127.1825120145532
 20
392.54793307962
 30
0.0
 11
127.1825120145532
 21
304.9192650060003
 31
0.0
  0
ARC
  5
5714
330
A
100
AcDbEntity
  8
CutoutUnderlay
  6
STYLE_02
100
AcDbCircle
 10
408.4187979665649
 20
178.554794856229
 30
0.0
 40
12.0
100
AcDbArc
 50
179.9992630000003
 51
180.4691690000001
  0
LINE
  5
5715
330
A
100
AcDbEntity
  8
CutoutUnderlay
  6
STYLE_02
100
AcDbLine
 10
396.4192089665649
 20
178.4635878562288
 30
0.0
 11
396.4191999665649
 21
178.456532856229
 31
0.0
  0
ARC
  5
5717
102
{ACAD_REACTORS
330
73B3
102
}
330
A
100
AcDbEntity
  8
CutoutUnderlay
  6
Continuous
100
AcDbCircle
 10
532.8721245115548
 20
185.8628469200377
 30
0.0
 40
1.0
100
AcDbArc
 50
0.0
 51
90.0
  0
ARC
  5
5718
102
{ACAD_REACTORS
330
73B3
102
}
330
A
100
AcDbEntity
  8
CutoutUnderlay
  6
Continuous
100
AcDbCircle
 10
532.8721245115548
 20
175.8628469200377
 30
0.0
 40
1.0
100
AcDbArc
 50
270.0
 51
0.0
  0
ARC
  5
5719
102
{ACAD_REACTORS
330
73B3
102
}
330
A
100
AcDbEntity
  8
CutoutUnderlay
  6
Continuous
100
AcDbCircle
 10
408.8721245115548
 20
180.8628469200377
 30
0.0
 40
12.0
100
AcDbArc
 50
30.0
 51
330.0
  0
LINE
  5
571A
102
{ACAD_REACTORS
330
73B3
102
}
330
A
100
AcDbEntity
  8
CutoutUnderlay
  6
Continuous
100
AcDbLine
 10
532.8721245115548
 20
186.8628469200377
 30
0.0
 11
398.4798195115548
 21
186.8628469200377
 31
0.0
  0
LINE
  5
571B
102
{ACAD_REACTORS
330
73B3
102
}
330
A
100
AcDbEntity
  8
CutoutUnderlay
  6
Continuous
100
AcDbLine
 10
533.8721245115548
 20
185.8628469200377
 30
0.0
 11
533.8721245115548
 21
175.8628469200377
 31
0.0
  0
LINE
  5
571C
102
{ACAD_REACTORS
330
73B3
102
}
330
A
100
AcDbEntity
  8
CutoutUnderlay
  6
Continuous
100
AcDbLine
 10
532.8721245115548
 20
174.8628469200377
 30
0.0
 11
398.4798195115548
 21
174.8628469200377
 31
0.0
  0
ARC
  5
571D
330
A
100
AcDbEntity
  8
CutoutUnderlay
  6
DASHED1
100
AcDbCircle
 10
408.8721245115548
 20
180.8628469200377
 30
0.0
 40
12.0
100
AcDbArc
 50
330.0
 51
30.0
  0
CIRCLE
  5
571E
102
{ACAD_REACTORS
330
73B3
102
}
330
A
100
AcDbEntity
  8
CutoutUnderlay
  6
DASHED1
100
AcDbCircle
 10
408.8721245115548
 20
180.8628469200377
 30
0.0
 40
8.925
  0
ARC
  5
571F
102
{ACAD_REACTORS
330
73B3
102
}
330
A
100
AcDbEntity
  8
CutoutUnderlay
  6
Continuous
100
AcDbCircle
 10
408.8559804019413
 20
180.7991229580078
 30
0.0
 40
15.0
100
AcDbArc
 50
23.84402808013546
 51
336.6871338495927
  0
TEXT
  5
59D6
330
A
100
AcDbEntity
  8
テンプレート
100
AcDbText
 10
187.3255251873665
 20
95.58845453164052
 30
0.0
 40
5.0
  1
　 加工は現物合わせの上行って下さい。
  7
ＭＳ ゴシック
100
AcDbText
  0
TEXT
  5
59D7
330
A
100
AcDbEntity
  8
テンプレート
100
AcDbText
 10
187.4977682695751
 20
103.6922386277807
 30
0.0
 40
5.0
  1
※ 輸入製品の為、国内製品と比べ製品寸法の個体差に幅が有ります。
  7
ＭＳ ゴシック
100
AcDbText
  0
TEXT
  5
59D8
330
A
100
AcDbEntity
  8
テンプレート
100
AcDbText
 10
187.3255251873665
 20
86.21682322716002
 30
0.0
 40
5.0
  1
※ ご注文の際は正確な扉厚の指示をしてください。
  7
ＭＳ ゴシック
100
AcDbText
  0
TEXT
  5
59D9
330
A
100
AcDbEntity
  8
テンプレート
100
AcDbText
 10
187.3255251873665
 20
77.5173345961741
 30
0.0
 40
5.0
  1
※ イモネジ・ビスのゆるみ止め防止のために金属製ネジ用ゆるみ止め剤(中強度タイプ)
  7
ＭＳ ゴシック
100
AcDbText
  0
TEXT
  5
59DA
330
A
100
AcDbEntity
  8
テンプレート
100
AcDbText
 10
183.5610795085161
 20
68.07646144979785
 30
0.0
 40
5.0
  1
　　を用意して塗布してください。(推奨商品　住友3M社TL42J等)
  7
ＭＳ ゴシック
100
AcDbText
  0
MTEXT
  5
5A73
102
{ACAD_XDICTIONARY
360
5A74
102
}
330
A
100
AcDbEntity
  8
寸法
  6
Continuous
370
     0
100
AcDbMText
 10
16.03746315898588
 20
23.37395828580276
 30
0.0
 40
4.0
 41
0.0
 46
4.0
 71
     1
 72
     1
  1
{20230913M}
  7
ＭＳ ゴシック
 73
     1
 44
1.0
1001
ACAD
1000
ACAD_MTEXT_DEFINED_HEIGHT_BEGIN
1070
    46
1040
4.0
1000
ACAD_MTEXT_DEFINED_HEIGHT_END
  0
DIMENSION
  5
5AF5
330
A
100
AcDbEntity
  8
DIM
  6
Continuous
100
AcDbDimension
  2
*D30
 10
272.1376174545454
 20
283.9692617244852
 30
0.0
 11
267.6376174545454
 21
294.4692617244852
 31
0.0
 70
    32
 71
     5
 42
21.0
 73
     0
 74
     0
 75
     0
  3
tfrom線あり
100
AcDbAlignedDimension
 13
249.8553774545454
 23
304.9692617244852
 33
0.0
 14
249.8553774545454
 24
283.9692617244852
 34
0.0
 50
90.0
100
AcDbRotatedDimension
1001
ACAD
1000
DSTYLE
1002
{
1070
   144
1040
1.0
1002
}
  0
DIMENSION
  5
5B08
330
A
100
AcDbEntity
  8
DIM
  6
Continuous
100
AcDbDimension
  2
*D31
 10
546.4117352727272
 20
315.39732300484
 30
0.0
 11
541.9117352727272
 21
321.39732300484
 31
0.0
 70
    32
 71
     5
 42
12.0
 73
     0
 74
     0
 75
     0
  3
tfrom線あり
100
AcDbAlignedDimension
 13
530.6116014545454
 23
327.39732300484
 33
0.0
 14
530.6116014545454
 24
315.39732300484
 34
0.0
 50
90.0
100
AcDbRotatedDimension
1001
ACAD
1000
DSTYLE
1002
{
1070
   144
1040
1.0
1002
}
  0
DIMENSION
  5
5B35
330
A
100
AcDbEntity
  8
DIM
  6
Continuous
100
AcDbDimension
  2
*D32
 10
83.06881325381792
 20
283.9692617244852
 30
0.0
 11
78.56881325381792
 21
312.4692617244852
 31
0.0
 70
    32
 71
     5
 42
57.0
 73
     0
 74
     0
 75
     0
  3
tfrom線あり
100
AcDbAlignedDimension
 13
115.2229790385805
 23
340.9692617244852
 33
0.0
 14
115.2229790385805
 24
283.9692617244852
 34
0.0
 50
90.0
100
AcDbRotatedDimension
1001
ACAD
1000
DSTYLE
1002
{
1070
   144
1040
1.0
1002
}
  0
LINE
  5
5BD6
330
A
100
AcDbEntity
  8
MODEL
  6
Continuous
 62
     7
100
AcDbLine
 10
134.9265721285731
 20
168.9061924603086
 30
0.0
 11
134.9265721285731
 21
192.9061924603086
 31
0.0
  0
LINE
  5
5BD7
330
A
100
AcDbEntity
  8
MODEL
  6
Continuous
100
AcDbLine
 10
134.9265721285731
 20
168.9061924603086
 30
0.0
 11
134.9265721285731
 21
192.9061924603086
 31
0.0
  0
LINE
  5
5BD8
330
A
100
AcDbEntity
  8
MODEL
  6
Continuous
100
AcDbLine
 10
134.9265721285731
 20
192.9061924603086
 30
0.0
 11
134.9265721285731
 21
168.9061924603086
 31
0.0
  0
LINE
  5
5BD9
330
A
100
AcDbEntity
  8
MODEL
  6
Continuous
100
AcDbLine
 10
134.9265721285731
 20
165.9061924603086
 30
0.0
 11
134.9265721285731
 21
195.9061924603086
 31
0.0
  0
LINE
  5
5BDA
330
A
100
AcDbEntity
  8
MODEL
  6
Continuous
100
AcDbLine
 10
134.9265721285731
 20
195.9061924603086
 30
0.0
 11
132.9265721285731
 21
195.9061924603086
 31
0.0
  0
LINE
  5
5BDB
330
A
100
AcDbEntity
  8
MODEL
  6
Continuous
100
AcDbLine
 10
132.9265721285731
 20
195.9061924603086
 30
0.0
 11
132.9265721285731
 21
165.9061924603086
 31
0.0
  0
LINE
  5
5BDC
330
A
100
AcDbEntity
  8
MODEL
  6
Continuous
100
AcDbLine
 10
132.9265721285731
 20
165.9061924603086
 30
0.0
 11
134.9265721285731
 21
165.9061924603086
 31
0.0
  0
LINE
  5
5BDD
330
A
100
AcDbEntity
  8
MODEL
  6
Continuous
100
AcDbLine
 10
132.9265721285732
 20
167.4061924603086
 30
0.0
 11
127.9265721285732
 21
167.4061924603086
 31
0.0
  0
LINE
  5
5BDE
330
A
100
AcDbEntity
  8
MODEL
  6
Continuous
100
AcDbLine
 10
127.9265721285732
 20
167.4061924603086
 30
0.0
 11
127.9265721285731
 21
194.4061924603086
 31
0.0
  0
LINE
  5
5BDF
330
A
100
AcDbEntity
  8
MODEL
  6
Continuous
100
AcDbLine
 10
127.9265721285731
 20
194.4061924603086
 30
0.0
 11
132.9265721285731
 21
194.4061924603086
 31
0.0
  0
LINE
  5
5BE0
330
A
100
AcDbEntity
  8
MODEL
  6
CENTER
 48
0.35
100
AcDbLine
 10
112.5595341877847
 20
335.9692617244852
 30
0.0
 11
96.57117737908071
 21
335.9692617244852
 31
0.0
  0
LINE
  5
5BE1
330
A
100
AcDbEntity
  8
MODEL
  6
Continuous
100
AcDbLine
 10
94.56811896108904
 20
335.9692617244852
 30
0.0
 11
93.17984879671131
 21
334.0914980380853
 31
0.0
  0
LINE
  5
5BE2
330
A
100
AcDbEntity
  8
MODEL
  6
Continuous
100
AcDbLine
 10
89.6435094594954
 20
337.8470254108852
 30
0.0
 11
89.6435094594954
 21
334.0914980380853
 31
0.0
  0
LINE
  5
5BE3
330
A
100
AcDbEntity
  8
MODEL
  6
Continuous
100
AcDbLine
 10
94.56811896108904
 20
335.9692617244852
 30
0.0
 11
93.17984879671131
 21
337.8470254108852
 31
0.0
  0
LINE
  5
5BE4
330
A
100
AcDbEntity
  8
MODEL
  6
Continuous
100
AcDbLine
 10
93.17984879671131
 20
334.0914980380853
 30
0.0
 11
89.6435094594954
 21
334.0914980380853
 31
0.0
  0
LINE
  5
5BE5
330
A
100
AcDbEntity
  8
MODEL
  6
Continuous
100
AcDbLine
 10
93.17984879671131
 20
337.8470254108852
 30
0.0
 11
89.6435094594954
 21
337.8470254108852
 31
0.0
  0
LINE
  5
5BE6
330
A
100
AcDbEntity
  8
MODEL
  6
Continuous
100
AcDbLine
 10
90.72584121808738
 20
337.8470254108852
 30
0.0
 11
91.37524027324257
 21
334.0914980380853
 31
0.0
  0
LINE
  5
5BE7
330
A
100
AcDbEntity
  8
MODEL
  6
Continuous
100
AcDbLine
 10
91.37524027324251
 20
337.8470254108852
 30
0.0
 11
92.02463932839781
 21
334.0914980380853
 31
0.0
  0
LINE
  5
5BE8
330
A
100
AcDbEntity
  8
MODEL
  6
Continuous
100
AcDbLine
 10
92.18698909218647
 20
337.8470254108852
 30
0.0
 11
92.83638814734176
 21
334.0914980380853
 31
0.0
  0
LINE
  5
5BE9
330
A
100
AcDbEntity
  8
MODEL
  6
Continuous
100
AcDbLine
 10
92.99873791113059
 20
337.8470254108852
 30
0.0
 11
93.55937126999531
 21
334.6048372546093
 31
0.0
  0
LINE
  5
5BEA
330
A
100
AcDbEntity
  8
MODEL
  6
Continuous
100
AcDbLine
 10
89.94656235190114
 20
337.8470254108852
 30
0.0
 11
90.59596140705632
 21
334.0914980380853
 31
0.0
  0
LINE
  5
5BEB
330
A
100
AcDbEntity
  8
MODEL
  6
Continuous
100
AcDbLine
 10
89.6435094594954
 20
335.5937089872052
 30
0.0
 11
89.90326908155741
 21
334.0914980380853
 31
0.0
  0
DIMENSION
  5
5BEC
102
{ACAD_XDICTIONARY
360
5BED
102
}
330
A
100
AcDbEntity
  8
DIM
  6
Continuous
100
AcDbDimension
  2
*D37
 10
142.2229790385805
 20
370.544908627347
 30
0.0
 11
127.2229790385805
 21
375.044908627347
 31
0.0
 70
    32
 71
     5
 42
30.0
 73
     0
 74
     0
 75
     0
  3
tfrom線あり
100
AcDbAlignedDimension
 13
112.2229790385805
 23
342.9692617244852
 33
0.0
 14
142.2229790385805
 24
342.9692617244852
 34
0.0
100
AcDbRotatedDimension
1001
ACAD
1000
DSTYLE
1002
{
1070
   144
1040
1.0
1002
}
  0
DIMENSION
  5
5BEF
330
A
100
AcDbEntity
  8
DIM
  6
Continuous
100
AcDbDimension
  2
*D38
 10
140.7229790385805
 20
360.2395036993469
 30
0.0
 11
127.2229790385805
 21
364.7395036993469
 31
0.0
 70
    32
 71
     5
 42
27.0
 73
     0
 74
     0
 75
     0
  3
tfrom線あり
100
AcDbAlignedDimension
 13
113.7229790385805
 23
347.9692617244852
 33
0.0
 14
140.7229790385805
 24
347.9692617244852
 34
0.0
100
AcDbRotatedDimension
1001
ACAD
1000
DSTYLE
1002
{
1070
   144
1040
1.0
1002
}
  0
DIMENSION
  5
5BF1
102
{ACAD_XDICTIONARY
360
5BF2
102
}
330
A
100
AcDbEntity
  8
DIM
  6
Continuous
100
AcDbDimension
  2
*D39
 10
157.7865738635286
 20
342.9692617244852
 30
0.0
 11
157.7865738635286
 21
334.6767617244852
 31
0.0
 70
   160
 71
     5
 42
2.0
 73
     0
 74
     1
 75
     1
  3
tfrom線あり
100
AcDbAlignedDimension
 13
142.2229790385805
 23
340.9692617244852
 33
0.0
 14
142.2229790385805
 24
342.9692617244852
 34
0.0
 50
90.0
100
AcDbRotatedDimension
1001
ACAD
1000
DSTYLE
1002
{
1070
   144
1040
1.0
1002
}
  0
DIMENSION
  5
5BF5
102
{ACAD_XDICTIONARY
360
5BF6
102
}
330
A
100
AcDbEntity
  8
DIM
  6
Continuous
100
AcDbDimension
  2
*D40
 10
157.7865738635286
 20
342.9692617244852
 30
0.0
 11
157.7865738635286
 21
345.4692617244852
 31
0.0
 70
   160
 71
     5
 42
5.0
 73
     0
 74
     0
 75
     0
  3
tfrom線あり
100
AcDbAlignedDimension
 13
140.7229790385805
 23
347.9692617244852
 33
0.0
 14
142.2229790385805
 24
342.9692617244852
 34
0.0
 50
90.0
100
AcDbRotatedDimension
1001
ACAD
1000
DSTYLE
1002
{
1070
   144
1040
1.0
1002
}
  0
LINE
  5
5BF8
102
{ACAD_REACTORS
330
5C41
102
}
330
A
100
AcDbEntity
  8
MODEL
  6
Continuous
100
AcDbLine
 10
112.2229790385805
 20
340.9692617244852
 30
0.0
 11
142.2229790385805
 21
340.9692617244852
 31
0.0
  0
LINE
  5
5BF9
102
{ACAD_REACTORS
330
5C41
102
}
330
A
100
AcDbEntity
  8
MODEL
  6
Continuous
100
AcDbLine
 10
142.2229790385805
 20
340.9692617244852
 30
0.0
 11
142.2229790385805
 21
342.9692617244852
 31
0.0
  0
LINE
  5
5BFA
102
{ACAD_REACTORS
330
5C41
102
}
330
A
100
AcDbEntity
  8
MODEL
  6
Continuous
100
AcDbLine
 10
142.2229790385805
 20
342.9692617244852
 30
0.0
 11
112.2229790385805
 21
342.9692617244852
 31
0.0
  0
LINE
  5
5BFB
102
{ACAD_REACTORS
330
5C41
102
}
330
A
100
AcDbEntity
  8
MODEL
  6
Continuous
100
AcDbLine
 10
112.2229790385805
 20
342.9692617244852
 30
0.0
 11
112.2229790385805
 21
340.9692617244852
 31
0.0
  0
LINE
  5
5BFC
102
{ACAD_REACTORS
330
5C41
102
}
330
A
100
AcDbEntity
  8
MODEL
  6
Continuous
100
AcDbLine
 10
113.7229790385805
 20
342.9692617244852
 30
0.0
 11
113.7229790385805
 21
347.9692617244852
 31
0.0
  0
LINE
  5
5BFD
102
{ACAD_REACTORS
330
5C41
102
}
330
A
100
AcDbEntity
  8
MODEL
  6
Continuous
100
AcDbLine
 10
113.7229790385805
 20
347.9692617244852
 30
0.0
 11
140.7229790385805
 21
347.9692617244852
 31
0.0
  0
LINE
  5
5BFE
102
{ACAD_REACTORS
330
5C41
102
}
330
A
100
AcDbEntity
  8
MODEL
  6
Continuous
100
AcDbLine
 10
140.7229790385805
 20
347.9692617244852
 30
0.0
 11
140.7229790385805
 21
342.9692617244852
 31
0.0
  0
CIRCLE
  5
5BFF
330
A
100
AcDbEntity
  8
MODEL
  6
HIDDEN
 48
0.2
100
AcDbCircle
 10
139.9265721285731
 20
180.9061924603086
 30
0.0
 40
2.303517829507655
  0
TEXT
  5
5C00
330
A
100
AcDbEntity
  8
寸法
100
AcDbText
 10
414.013223230935
 20
205.7427009303182
 30
0.0
 40
5.0
  1
ø27
  7
ＭＳ ゴシック
100
AcDbText
  0
HATCH
  5
5C3D
330
A
100
AcDbEntity
  8
DIM
  6
Continuous
100
AcDbHatch
 10
0.0
 20
0.0
 30
0.0
210
0.0
220
0.0
230
1.0
  2
ANSI31
 70
     0
 71
     1
 91
        1
 92
        1
 93
        1
 72
     2
 10
408.8721245115548
 20
180.8628469200378
 40
14.0
 50
0.0
 51
360.0
 73
     1
 97
        1
330
5656
 75
     0
 76
     1
 52
0.0
 41
1.0
 77
     0
 78
     1
 53
45.0
 43
0.0
 44
0.0
 45
-2.245064030267288
 46
2.245064030267288
 79
     0
 98
        1
 10
0.0
 20
0.0
1001
ACAD
1010
0.0
1020
0.0
1030
0.0
  0
LINE
  5
5C86
330
A
100
AcDbEntity
  8
寸法
  6
Continuous
100
AcDbLine
 10
113.7229790385805
 20
342.9692617244852
 30
0.0
 11
140.7229790385805
 21
344.2413286115371
 31
0.0
  0
LINE
  5
5C87
330
A
100
AcDbEntity
  8
寸法
  6
Continuous
100
AcDbLine
 10
113.7229790385805
 20
344.3433157148852
 30
0.0
 11
140.7229790385805
 21
345.6153826019371
 31
0.0
  0
LINE
  5
5C88
330
A
100
AcDbEntity
  8
寸法
  6
Continuous
100
AcDbLine
 10
113.7229790385805
 20
345.8230661660852
 30
0.0
 11
140.7229790385805
 21
347.0951330531371
 31
0.0
  0
LINE
  5
5C89
330
A
100
AcDbEntity
  8
寸法
  6
Continuous
100
AcDbLine
 10
113.7229790385805
 20
347.1971201564852
 30
0.0
 11
130.1119146741242
 21
347.9692617244852
 31
0.0
  0
LINE
  5
5CCF
330
A
100
AcDbEntity
  8
寸法
  6
Continuous
100
AcDbLine
 10
132.9265721285732
 20
167.4061924603086
 30
0.0
 11
131.6545052415213
 21
194.4061924603086
 31
0.0
  0
LINE
  5
5CD0
330
A
100
AcDbEntity
  8
寸法
  6
Continuous
100
AcDbLine
 10
131.5525181381732
 20
167.4061924603086
 30
0.0
 11
130.2804512511213
 21
194.4061924603086
 31
0.0
  0
LINE
  5
5CD1
330
A
100
AcDbEntity
  8
寸法
  6
Continuous
100
AcDbLine
 10
130.0727676869732
 20
167.4061924603086
 30
0.0
 11
128.8007007999213
 21
194.4061924603086
 31
0.0
  0
LINE
  5
5CD2
330
A
100
AcDbEntity
  8
寸法
  6
Continuous
100
AcDbLine
 10
128.6987136965732
 20
167.4061924603086
 30
0.0
 11
127.9265721285732
 21
183.7951280958523
 31
0.0
  0
LINE
  5
74FD
330
A
100
AcDbEntity
  8
テンプレート
100
AcDbLine
 10
437.9999999999999
 20
38.27810890422097
 30
0.0
 11
15.30952622855898
 21
38.27810890422097
 31
0.0
  0
TEXT
  5
74FE
330
A
100
AcDbEntity
  8
テンプレート
100
AcDbText
 10
18.06121699514119
 20
32.16825981613692
 30
0.0
 40
3.5
  1
材質
  7
ＭＳ ゴシック
100
AcDbText
  0
TEXT
  5
74FF
330
A
100
AcDbEntity
  8
テンプレート
100
AcDbText
 10
18.06121699514119
 20
56.50959028673083
 30
0.0
 40
3.5
  1
品名
  7
ＭＳ ゴシック
100
AcDbText
  0
TEXT
  5
7500
330
A
100
AcDbEntity
  8
テンプレート
100
AcDbText
 10
18.06121699514119
 20
44.65099339080098
 30
0.0
 40
3.5
  1
仕上げ
  7
ＭＳ ゴシック
100
AcDbText
  0
TEXT
  5
7501
330
A
100
AcDbEntity
  8
テンプレート
100
AcDbText
 10
363.3835141214133
 20
56.58523052309897
 30
0.0
 40
3.5
  1
品番
  7
ＭＳ ゴシック
100
AcDbText
  0
TEXT
  5
7502
330
A
100
AcDbEntity
  8
テンプレート
100
AcDbText
 10
36.7528253083583
 20
53.09440584367189
 30
0.0
 40
5.5
  1
プラグイン レバーハンドル(室内用) - FSB -
  7
ＭＳ ゴシック
100
AcDbText
  0
TEXT
  5
7503
330
A
100
AcDbEntity
  8
テンプレート
100
AcDbText
 10
377.5772861459291
 20
52.977080524553
 30
0.0
 40
5.5
  1
FSB10-1035-PG00
  7
ＭＳ ゴシック
100
AcDbText
  0
LINE
  5
7504
330
A
100
AcDbEntity
  8
テンプレート
100
AcDbLine
 10
437.9999999999999
 20
50.16496477419605
 30
0.0
 11
15.30952622855898
 21
50.16496477419605
 31
0.0
  0
LINE
  5
7505
330
A
100
AcDbEntity
  8
テンプレート
100
AcDbLine
 10
578.6904737714411
 20
62.22153683920783
 30
0.0
 11
15.30952622855898
 21
62.22153683920783
 31
0.0
  0
LINE
  5
7506
330
A
100
AcDbEntity
  8
テンプレート
100
AcDbLine
 10
437.9999999999999
 20
62.22153683920783
 30
0.0
 11
437.9999999999999
 21
26.22153683920783
 31
0.0
  0
LINE
  5
7507
330
A
100
AcDbEntity
  8
テンプレート
100
AcDbLine
 10
361.5601656034826
 20
62.22153683920783
 30
0.0
 11
361.5601656034826
 21
26.22153683920783
 31
0.0
  0
TEXT
  5
7508
330
A
100
AcDbEntity
  8
テンプレート
100
AcDbText
 10
363.3590812257049
 20
32.62405342819488
 30
0.0
 40
3.5
  1
縮尺
  7
ＭＳ ゴシック
100
AcDbText
  0
TEXT
  5
7509
330
A
100
AcDbEntity
  8
テンプレート
100
AcDbText
 10
377.5772861459291
 20
28.29362070227194
 30
0.0
 40
5.5
  1
1/2
  7
ＭＳ ゴシック
100
AcDbText
  0
TEXT
  5
750A
330
A
100
AcDbEntity
  8
テンプレート
100
AcDbText
 10
363.3835141214133
 20
44.52865845808583
 30
0.0
 40
3.5
  1
扉厚
  7
ＭＳ ゴシック
100
AcDbText
  0
TEXT
  5
750B
330
A
100
AcDbEntity
  8
テンプレート
100
AcDbText
 10
440.0887524673468
 20
56.58523052309897
 30
0.0
 40
3.5
  1
備考
  7
ＭＳ ゴシック
100
AcDbText
  0
TEXT
  5
750C
330
A
100
AcDbEntity
  8
テンプレート
100
AcDbText
 10
377.3514644884797
 20
44.82304125840494
 30
0.0
 40
3.0
  1
MIWAケース：39～48
  7
ＭＳ ゴシック
100
AcDbText
  0
TEXT
  5
750D
330
A
100
AcDbEntity
  8
テンプレート
100
AcDbText
 10
377.3514644884797
 20
39.8279918743558
 30
0.0
 40
3.0
  1
ユーロケース(DIN規格)：39～48
  7
ＭＳ ゴシック
100
AcDbText
  0
LINE
  5
750E
330
A
100
AcDbEntity
  8
テンプレート
100
AcDbLine
 10
33.63100153769659
 20
26.22153683920783
 30
0.0
 11
33.63100153769659
 21
50.16496477419605
 31
0.0
  0
LINE
  5
751B
330
A
100
AcDbEntity
  8
テンプレート
  6
Continuous
100
AcDbLine
 10
361.5601656034826
 20
44.22153683920783
 30
0.0
 11
33.63100153769662
 21
44.22153683920783
 31
0.0
  0
TEXT
  5
7588
330
A
100
AcDbEntity
  8
テンプレート
100
AcDbText
 10
449.8113636479999
 20
47.86939833599997
 30
0.0
 40
5.0
  1
室内専用レバーハンドル
  7
ＭＳ ゴシック
100
AcDbText
  0
MTEXT
  5
75D7
330
A
100
AcDbEntity
  8
テンプレート
390
1D
100
AcDbMText
 10
35.02123153496908
 20
34.57354675141926
 30
0.0
 40
5.0
 41
0.0
 46
5.205
 71
     1
 72
     1
  1
{アルミ}
  7
ＭＳ ゴシック
 73
     1
 44
0.7828267384257843
1001
ACAD
1000
ACAD_MTEXT_DEFINED_HEIGHT_BEGIN
1070
    46
1040
5.205
1000
ACAD_MTEXT_DEFINED_HEIGHT_END
  0
MTEXT
  5
75D8
330
A
100
AcDbEntity
  8
テンプレート
390
1D
100
AcDbMText
 10
74.18448363728936
 20
34.5735467514192
 30
0.0
 40
5.0
 41
0.0
 46
5.075
 71
     1
 72
     1
  1
{ステンレス}
  7
ＭＳ ゴシック
 73
     1
 44
0.7828267384257843
1001
ACAD
1000
ACAD_MTEXT_DEFINED_HEIGHT_BEGIN
1070
    46
1040
5.075
1000
ACAD_MTEXT_DEFINED_HEIGHT_END
  0
MTEXT
  5
75D9
330
A
100
AcDbEntity
  8
テンプレート
390
1D
100
AcDbMText
 10
36.11014297489677
 20
48.77911613324937
 30
0.0
 40
3.0
 41
0.0
 46
4.224
 71
     1
 72
     1
  1
{ナチュラル}
  7
ＭＳ ゴシック
 73
     1
 44
0.7828267384257843
1001
ACAD
1000
ACAD_MTEXT_DEFINED_HEIGHT_BEGIN
1070
    46
1040
4.224
1000
ACAD_MTEXT_DEFINED_HEIGHT_END
  0
MTEXT
  5
75DA
330
A
100
AcDbEntity
  8
テンプレート
390
1D
100
AcDbMText
 10
35.99622461874418
 20
42.7508301007428
 30
0.0
 40
3.0
 41
0.0
 46
4.468
 71
     1
 72
     1
  1
{ブラックブラスト}
  7
ＭＳ ゴシック
 73
     1
 44
0.7828267384257843
1001
ACAD
1000
ACAD_MTEXT_DEFINED_HEIGHT_BEGIN
1070
    46
1040
4.468
1000
ACAD_MTEXT_DEFINED_HEIGHT_END
  0
LINE
  5
75DC
330
A
100
AcDbEntity
  8
テンプレート
  6
Continuous
100
AcDbLine
 10
72.13707359999987
 20
50.16496477419605
 30
0.0
 11
72.13707359999987
 21
26.22153683920777
 31
0.0
  0
MTEXT
  5
75DD
330
A
100
AcDbEntity
  8
テンプレート
390
1D
100
AcDbMText
 10
74.50229668104745
 20
48.77911613324943
 30
0.0
 40
3.0
 41
0.0
 46
3.138
 71
     1
 72
     1
  1
{サテン}
  7
ＭＳ ゴシック
 73
     1
 44
0.7828267384257843
1001
ACAD
1000
ACAD_MTEXT_DEFINED_HEIGHT_BEGIN
1070
    46
1040
3.138
1000
ACAD_MTEXT_DEFINED_HEIGHT_END
  0
MTEXT
  5
75DE
330
A
100
AcDbEntity
  8
テンプレート
390
1D
100
AcDbMText
 10
74.50229668104745
 20
42.83568819826115
 30
0.0
 40
3.0
 41
0.0
 46
3.258
 71
     1
 72
     1
  1
{ポリッシュ}
  7
ＭＳ ゴシック
 73
     1
 44
0.7828267384257843
1001
ACAD
1000
ACAD_MTEXT_DEFINED_HEIGHT_BEGIN
1070
    46
1040
3.258
1000
ACAD_MTEXT_DEFINED_HEIGHT_END
  0
VIEWPORT
  5
349
330
B
100
AcDbEntity
 67
     1
  8
0
100
AcDbViewport
 10
202.5
 20
128.5
 30
0.0
 40
486.0
 41
308.4
 68
     1
 69
     1
 12
202.5
 22
128.5
 13
0.0
 23
0.0
 14
0.5
 24
0.5
 15
0.0
 25
0.0
 16
0.0
 26
0.0
 36
1.0
 17
0.0
 27
0.0
 37
0.0
 42
50.0
 43
0.0
 44
0.0
 45
308.4
 50
0.0
 51
0.0
 72
   100
 90
   557152
  1

281
     0
 71
     1
 74
     0
110
0.0
120
0.0
130
0.0
111
1.0
121
0.0
131
0.0
112
0.0
122
1.0
132
0.0
 79
     0
146
0.0
170
     0
 61
     5
348
26C
292
     1
282
     1
141
0.0
142
0.0
 63
   256
361
44F1
  0
VIEWPORT
  5
34A
330
B
100
AcDbEntity
 67
     1
  8
0
100
AcDbViewport
 10
202.5
 20
128.5
 30
0.0
 40
324.0
 41
205.6
 68
     2
 69
     2
 12
986.6781359294573
 22
1427.077061889956
 13
0.0
 23
0.0
 14
0.5
 24
0.5
 15
0.0
 25
0.0
 16
0.0
 26
0.0
 36
1.0
 17
0.0
 27
0.0
 37
0.0
 42
50.0
 43
0.0
 44
0.0
 45
2890.021615685494
 50
0.0
 51
0.0
 72
   100
 90
   557152
  1

281
     0
 71
     1
 74
     0
110
0.0
120
0.0
130
0.0
111
1.0
121
0.0
131
0.0
112
0.0
122
1.0
132
0.0
 79
     0
146
0.0
170
     0
 61
     5
348
26C
292
     1
282
     1
141
0.0
142
0.0
 63
   256
  0
ENDSEC
  0
SECTION
  2
OBJECTS
  0
DICTIONARY
  5
19
330
0
100
AcDbDictionary
281
     1
  3
ACAD_COLOR
350
674
  3
ACAD_DETAILVIEWSTYLE
350
13B5
  3
ACAD_FIELDLIST
350
5A71
  3
ACAD_GROUP
350
1A
  3
ACAD_IMAGE_VARS
350
27B
  3
ACAD_LAYOUT
350
1E
  3
ACAD_MATERIAL
350
263
  3
ACAD_MLEADERSTYLE
350
336
  3
ACAD_MLINESTYLE
350
1B
  3
ACAD_PLOTSETTINGS
350
22
  3
ACAD_PLOTSTYLENAME
350
1F
  3
ACAD_SCALELIST
350
241
  3
ACAD_SECTIONVIEWSTYLE
350
13B6
  3
ACAD_TABLESTYLE
350
278
  3
ACAD_VISUALSTYLE
350
267
  3
ACDB_RECOMPOSE_DATA
350
760F
  3
AcDbVariableDictionary
350
330
  3
APPDATA
350
27A
  0
SUN
  5
F1A
330
15
100
AcDbSun
 90
        1
290
     0
 63
     7
421
 16777215
 40
1.0
291
     1
 91
  2455826
 92
 54000000
292
     0
 70
     2
 71
   256
280
     1
  0
DICTIONARY
  5
2E1
330
2
100
AcDbDictionary
280
     1
281
     1
  3
ACAD_LAYERSTATES
360
2E2
  3
ACLYDICTIONARY
360
52A7
  0
DICTIONARY
  5
5C3B
330
A
100
AcDbDictionary
280
     1
281
     1
  3
ACAD_SORTENTS
360
5C3C
  0
DICTIONARY
  5
5208
330
5207
100
AcDbDictionary
280
     1
281
     1
  3
ACAD_DIMASSOC
360
5209
  0
DICTIONARY
  5
56DE
330
56DD
100
AcDbDictionary
280
     1
281
     1
  3
ACAD_DIMASSOC
360
56DF
  0
DICTIONARY
  5
56E1
330
56E0
100
AcDbDictionary
280
     1
281
     1
  3
ACAD_DIMASSOC
360
56E2
  0
DICTIONARY
  5
5A74
330
5A73
100
AcDbDictionary
280
     1
281
     1
  3
ACAD_FIELD
360
7602
  0
DICTIONARY
  5
5BED
330
5BEC
100
AcDbDictionary
280
     1
281
     1
  3
*A1
360
5BEE
  0
DICTIONARY
  5
5BF2
330
5BF1
100
AcDbDictionary
280
     1
281
     1
  3
*A1
360
5BF3
  3
*A2
360
5BF4
  0
DICTIONARY
  5
5BF6
330
5BF5
100
AcDbDictionary
280
     1
281
     1
  3
*A1
360
5BF7
  0
SUN
  5
44F1
330
349
100
AcDbSun
 90
        1
290
     0
 63
     7
421
 16777215
 40
1.0
291
     1
 91
  2455826
 92
 54000000
292
     0
 70
     2
 71
   256
280
     1
  0
DICTIONARY
  5
674
102
{ACAD_REACTORS
330
19
102
}
330
19
100
AcDbDictionary
281
     1
  0
DICTIONARY
  5
13B5
102
{ACAD_REACTORS
330
19
102
}
330
19
100
AcDbDictionary
281
     1
  0
FIELDLIST
  5
5A71
102
{ACAD_REACTORS
330
19
102
}
330
19
100
AcDbIdSet
 90
        2
330
5A77
330
5A76
100
AcDbFieldList
  0
DICTIONARY
  5
1A
102
{ACAD_REACTORS
330
19
102
}
330
19
100
AcDbDictionary
281
     1
  3
*A1
350
5C41
  3
*A2
350
7367
  3
*A3
350
73B3
  0
RASTERVARIABLES
  5
27B
102
{ACAD_REACTORS
330
19
102
}
330
19
100
AcDbRasterVariables
 90
        0
 70
     1
 71
     1
 72
     1
  0
DICTIONARY
  5
1E
102
{ACAD_REACTORS
330
19
102
}
330
19
100
AcDbDictionary
281
     1
  3
Layout1
350
21
  3
Model
350
20
  0
DICTIONARY
  5
263
102
{ACAD_REACTORS
330
19
102
}
330
19
100
AcDbDictionary
281
     1
  3
ByBlock
350
52BF
  3
ByLayer
350
264
  3
Global
350
266
  0
DICTIONARY
  5
336
102
{ACAD_REACTORS
330
19
102
}
330
19
100
AcDbDictionary
281
     1
  3
Standard
350
58C6
  0
DICTIONARY
  5
1B
102
{ACAD_REACTORS
330
19
102
}
330
19
100
AcDbDictionary
281
     1
  3
Standard
350
1C
  0
DICTIONARY
  5
22
102
{ACAD_REACTORS
330
19
102
}
330
19
100
AcDbDictionary
281
     1
  0
ACDBDICTIONARYWDFLT
  5
1F
102
{ACAD_REACTORS
330
19
102
}
330
19
100
AcDbDictionary
281
     1
  3
Normal
350
1D
100
AcDbDictionaryWithDefault
340
1D
  0
DICTIONARY
  5
241
102
{ACAD_REACTORS
330
19
102
}
330
19
100
AcDbDictionary
281
     1
  3
A0
350
242
  3
A1
350
243
  3
A2
350
244
  3
A3
350
245
  3
A4
350
246
  3
A5
350
247
  3
A6
350
248
  3
A7
350
249
  3
A8
350
24A
  3
A9
350
24B
  3
B0
350
24C
  3
B1
350
24D
  3
B2
350
24E
  3
B3
350
24F
  3
B4
350
250
  3
B5
350
251
  3
B6
350
252
  3
B7
350
253
  3
B8
350
254
  3
B9
350
255
  3
C0
350
256
  3
C1
350
257
  3
C2
350
258
  3
C3
350
259
  3
C4
350
25A
  3
C5
350
25B
  3
C6
350
25C
  3
C7
350
25D
  3
C8
350
25E
  3
C9
350
25F
  3
D0
350
260
  3
D1
350
261
  3
D2
350
262
  0
DICTIONARY
  5
13B6
102
{ACAD_REACTORS
330
19
102
}
330
19
100
AcDbDictionary
281
     1
  0
DICTIONARY
  5
278
102
{ACAD_REACTORS
330
19
102
}
330
19
100
AcDbDictionary
281
     1
  3
Standard
350
279
  0
DICTIONARY
  5
267
102
{ACAD_REACTORS
330
19
102
}
330
19
100
AcDbDictionary
281
     1
  3
2dWireframe
350
26C
  3
3D Hidden
350
26E
  3
3dWireframe
350
26D
  3
Basic
350
26F
  3
Brighten
350
273
  3
ColorChange
350
277
  3
Conceptual
350
271
  3
Dim
350
272
  3
EdgeColorOff
350
F14
  3
Facepattern
350
276
  3
Flat
350
268
  3
FlatWithEdges
350
269
  3
Gouraud
350
26A
  3
GouraudWithEdges
350
26B
  3
Hidden
350
F11
  3
JitterOff
350
F12
  3
Linepattern
350
275
  3
OverhangOff
350
F13
  3
Realistic
350
270
  3
Shaded
350
F19
  3
Shaded with edges
350
F18
  3
Shades of Gray
350
F15
  3
Sketchy
350
F16
  3
Thicken
350
274
  3
Wireframe
350
F10
  3
X-Ray
350
F17
  0
XRECORD
  5
760F
102
{ACAD_REACTORS
330
19
102
}
330
19
100
AcDbXrecord
280
     1
 90
        1
330
279
  0
DICTIONARY
  5
330
102
{ACAD_REACTORS
330
19
102
}
330
19
100
AcDbDictionary
281
     1
  3
CANNOSCALE
350
331
  3
CMLEADERSTYLE
350
594B
  3
CTABLESTYLE
350
335
  3
HPTRANSPARENCY
350
5772
  3
XCLIPFRAME
350
13B4
  0
DICTIONARY
  5
27A
102
{ACAD_REACTORS
330
19
102
}
330
19
100
AcDbDictionary
281
     1
  0
DICTIONARY
  5
2E2
102
{ACAD_REACTORS
330
2E1
102
}
330
2E1
100
AcDbDictionary
281
     1
  0
DICTIONARY
  5
52A7
102
{ACAD_REACTORS
330
2E1
102
}
330
2E1
100
AcDbDictionary
281
     1
1001
ACAD
1000
<All
  0
SORTENTSTABLE
  5
5C3C
102
{ACAD_REACTORS
330
5C3B
102
}
330
5C3B
100
AcDbSortentsTable
330
A
331
1301
  5
1342
331
1306
  5
1343
331
1307
  5
1346
331
1308
  5
1347
331
1312
  5
1350
331
1313
  5
1351
331
131E
  5
1357
331
131F
  5
1359
331
1342
  5
135A
331
1343
  5
135B
331
1346
  5
1371
331
1347
  5
1372
331
1350
  5
1378
331
1351
  5
1379
331
1357
  5
1389
331
1359
  5
138A
331
135A
  5
138D
331
135B
  5
138E
331
1371
  5
1398
331
1372
  5
1399
331
1378
  5
139C
331
1379
  5
139D
331
1389
  5
4967
331
138A
  5
4968
331
138D
  5
4976
331
138E
  5
4980
331
1398
  5
499D
331
1399
  5
499E
331
139C
  5
4A99
331
139D
  5
4ECE
331
4967
  5
4ECF
331
4968
  5
50D6
331
4976
  5
50D7
331
4980
  5
50D8
331
499D
  5
50D9
331
499E
  5
50DA
331
4A99
  5
50DB
331
4ECE
  5
50DC
331
4ECF
  5
50DD
331
50D6
  5
50DE
331
50D7
  5
50DF
331
50D8
  5
50E0
331
50D9
  5
50E1
331
50DA
  5
50E2
331
50DB
  5
50E3
331
50DC
  5
50E4
331
50DD
  5
50E5
331
50DE
  5
50E6
331
50DF
  5
50E7
331
50E0
  5
50E8
331
50E1
  5
50E9
331
50E2
  5
50EF
331
50E3
  5
50F0
331
50E4
  5
50F1
331
50E5
  5
50F2
331
50E6
  5
50F3
331
50E7
  5
50F4
331
50E8
  5
50F5
331
50E9
  5
50F6
331
50EF
  5
50F7
331
50F0
  5
50F8
331
50F1
  5
5106
331
50F2
  5
5107
331
50F3
  5
5108
331
50F4
  5
5109
331
50F5
  5
510A
331
50F6
  5
510B
331
50F7
  5
510C
331
50F8
  5
510D
331
5106
  5
510E
331
5107
  5
510F
331
5108
  5
5110
331
5109
  5
5111
331
510A
  5
5112
331
510B
  5
5113
331
510C
  5
5114
331
510D
  5
5115
331
510E
  5
5116
331
510F
  5
5207
331
5110
  5
55B3
331
5111
  5
55B5
331
5112
  5
55BE
331
5113
  5
55BF
331
5114
  5
55C0
331
5115
  5
55C1
331
5116
  5
55C2
331
5207
  5
55C3
331
55B3
  5
55C6
331
55B5
  5
55C8
331
55BE
  5
55C9
331
55BF
  5
55CA
331
55C0
  5
55CB
331
55C1
  5
55CC
331
55C2
  5
55CD
331
55C3
  5
55CE
331
55C6
  5
55D4
331
55C8
  5
55D5
331
55C9
  5
55D6
331
55CA
  5
55D7
331
55CB
  5
55D8
331
55CC
  5
563A
331
55CD
  5
563B
331
55CE
  5
563C
331
55D4
  5
563D
331
55D5
  5
563E
331
55D6
  5
563F
331
55D7
  5
5657
331
55D8
  5
5658
331
563A
  5
56E0
331
563B
  5
56E3
331
563C
  5
56E4
331
563D
  5
56E6
331
563E
  5
5715
331
563F
  5
5717
331
5656
  5
5719
331
56DC
  5
571A
331
56DD
  5
571B
331
56E0
  5
571C
331
56E4
  5
571D
331
56E9
  5
571E
331
5714
  5
571F
331
5715
  5
5720
331
5717
  5
1301
331
5718
  5
1306
331
5719
  5
1307
331
571A
  5
1308
331
571B
  5
1312
331
571C
  5
1313
331
571D
  5
5742
331
571E
  5
131E
331
571F
  5
131F
331
59D6
  5
59D8
331
59D7
  5
59D9
331
59D8
  5
59DA
331
59D9
  5
5A73
331
59DA
  5
5ADA
331
5A73
  5
5ADB
331
5AF5
  5
5B24
331
5B08
  5
5B25
331
5B35
  5
5BD6
331
5BD6
  5
5BD8
331
5BD7
  5
5BD9
331
5BD8
  5
5BDA
331
5BD9
  5
5BDB
331
5BDA
  5
5BDC
331
5BDB
  5
5BDD
331
5BDC
  5
5BDE
331
5BDD
  5
5BDF
331
5BDE
  5
5BE0
331
5BDF
  5
5BE1
331
5BE0
  5
5BE2
331
5BE1
  5
5BE3
331
5BE2
  5
5BE4
331
5BE3
  5
5BE5
331
5BE4
  5
5BE6
331
5BE5
  5
5BE7
331
5BE6
  5
5BE8
331
5BE7
  5
5BE9
331
5BE8
  5
5BEA
331
5BE9
  5
5BEB
331
5BEA
  5
5BEC
331
5BEB
  5
5BEF
331
5BEC
  5
5BF1
331
5BEF
  5
5BF5
331
5BF1
  5
5BF8
331
5BF5
  5
5BF9
331
5BF8
  5
5BFA
331
5BF9
  5
5BFB
331
5BFA
  5
5BFC
331
5BFB
  5
5BFD
331
5BFC
  5
5BFE
331
5BFD
  5
5BFF
331
5BFE
  5
5C00
331
5BFF
  5
5C3A
331
5C00
  5
5C3D
331
5C3D
  5
5718
  0
DIMASSOC
  5
5209
102
{ACAD_REACTORS
330
5208
102
}
330
5208
100
AcDbDimAssoc
330
5207
 90
        3
 70
     0
 71
     1
  1
AcDbOsnapPointRef
 72
    13
331
50E6
 73
     0
 91
        0
 40
0.0
 10
0.0
 20
0.0
 30
0.0
 75
     0
  1
AcDbOsnapPointRef
 72
    13
331
50F2
 73
     0
 91
        0
 40
0.0
 10
0.0
 20
0.0
 30
0.0
 75
     0
  0
DIMASSOC
  5
56DF
102
{ACAD_REACTORS
330
56DE
102
}
330
56DE
100
AcDbDimAssoc
330
56DD
 90
        1
 70
     0
 71
     1
  1
AcDbOsnapPointRef
 72
     5
331
5656
 73
     0
 91
        0
 40
1.570796326794897
 10
0.0
 20
0.0
 30
0.0
 75
     0
  0
DIMASSOC
  5
56E2
102
{ACAD_REACTORS
330
56E1
102
}
330
56E1
100
AcDbDimAssoc
330
56E0
 90
        1
 70
     0
 71
     1
  1
AcDbOsnapPointRef
 72
     3
331
5656
 73
     0
 91
        0
 40
0.0
 10
0.0
 20
0.0
 30
0.0
 75
     0
  0
DICTIONARY
  5
7602
102
{ACAD_REACTORS
330
5A74
102
}
330
5A74
100
AcDbDictionary
280
     1
281
     1
  3
TEXT
360
5A76
  0
LINE
  5
5BEE
102
{ACAD_REACTORS
330
5BED
102
}
330
5BED
100
AcDbEntity
  8
MODEL
  6
Continuous
100
AcDbLine
 10
112.2052558458758
 20
342.993830557065
 30
0.0
 11
112.2052558458758
 21
340.993830557065
 31
0.0
  0
LINE
  5
5BF3
102
{ACAD_REACTORS
330
5BF2
102
}
330
5BF2
100
AcDbEntity
  8
MODEL
  6
Continuous
100
AcDbLine
 10
112.2052558458758
 20
340.993830557065
 30
0.0
 11
142.2052558458758
 21
340.993830557065
 31
0.0
  0
LINE
  5
5BF4
102
{ACAD_REACTORS
330
5BF2
102
}
330
5BF2
100
AcDbEntity
  8
MODEL
  6
Continuous
100
AcDbLine
 10
142.2052558458758
 20
340.993830557065
 30
0.0
 11
142.2052558458758
 21
342.993830557065
 31
0.0
  0
LINE
  5
5BF7
102
{ACAD_REACTORS
330
5BF6
102
}
330
5BF6
100
AcDbEntity
  8
MODEL
  6
Continuous
100
AcDbLine
 10
113.7052558458758
 20
347.9938305570649
 30
0.0
 11
140.7052558458758
 21
347.993830557065
 31
0.0
  0
GROUP
  5
5C41
102
{ACAD_REACTORS
330
1A
102
}
330
1A
100
AcDbGroup
300

 70
     1
 71
     1
340
5BF9
340
5BFA
340
5BFB
340
5BFC
340
5BFD
340
5BFE
340
5BF8
  0
GROUP
  5
7367
102
{ACAD_REACTORS
330
1A
102
}
330
1A
100
AcDbGroup
300

 70
     1
 71
     1
340
5106
340
5107
340
5108
340
5109
340
510A
340
510B
340
510C
340
510E
340
510F
340
5110
340
5111
340
5112
340
5113
340
5114
340
5115
340
5116
  0
GROUP
  5
73B3
102
{ACAD_REACTORS
330
1A
102
}
330
1A
100
AcDbGroup
300

 70
     1
 71
     1
340
5717
340
5718
340
571A
340
571B
340
571C
340
5719
340
571F
340
571E
  0
LAYOUT
  5
21
102
{ACAD_REACTORS
330
1E
102
}
330
1E
100
AcDbPlotSettings
  1

  2
none_device
  4
ISO_A3_(420.00_x_297.00_MM)
  6

 40
7.5
 41
20.0
 42
7.5
 43
20.0
 44
420.0
 45
297.0
 46
0.0
 47
0.0
 48
0.0
 49
0.0
140
0.0
141
0.0
142
1.0
143
1.0
 70
     0
 72
     1
 73
     0
 74
     0
  7

 75
     0
 76
     0
 77
     2
 78
   300
147
1.0
148
0.0
149
0.0
100
AcDbLayout
  1
Layout1
 70
     1
 71
     0
 10
-7.5
 20
-20.0
 11
412.5
 21
277.0
 12
0.0
 22
0.0
 32
0.0
 14
0.0
 24
0.0
 34
0.0
 15
0.0
 25
0.0
 35
0.0
146
0.0
 13
0.0
 23
0.0
 33
0.0
 16
0.0
 26
0.0
 36
0.0
 17
0.0
 27
0.0
 37
0.0
 76
     0
330
B
331
349
  0
LAYOUT
  5
20
102
{ACAD_REACTORS
330
1E
102
}
330
1E
100
AcDbPlotSettings
  1

  2
Adobe PDF
  4
USER32767
  6

 40
0.0
 41
0.0
 42
0.0
 43
0.0
 44
210.0
 45
297.0
 46
0.0
 47
0.0
 48
0.0
 49
0.0
140
0.0
141
0.0
142
1.0
143
2.0
 70
  1584
 72
     1
 73
     1
 74
     1
  7
monochrome.ctb
 75
     0
 76
     0
 77
     2
 78
   300
147
0.5
148
0.0
149
0.0
100
AcDbLayout
  1
Model
 70
     0
 71
     1
 10
0.0
 20
0.0
 11
594.0
 21
419.9999999999996
 12
0.0
 22
0.0
 32
0.0
 14
0.0
 24
0.0
 34
0.0
 15
593.9999999999999
 25
420.0
 35
0.0
146
0.0
 13
0.0
 23
0.0
 33
0.0
 16
0.0
 26
0.0
 36
0.0
 17
0.0
 27
0.0
 37
0.0
 76
     0
330
A
331
15
1001
PLOTTRANSPARENCY
1071
        0
  0
MATERIAL
  5
52BF
102
{ACAD_REACTORS
330
263
102
}
330
263
100
AcDbMaterial
  1
ByBlock
 72
     1
 94
      127
  0
MATERIAL
  5
264
102
{ACAD_REACTORS
330
263
102
}
330
263
100
AcDbMaterial
  1
ByLayer
 72
     1
 94
      127
  0
MATERIAL
  5
266
102
{ACAD_REACTORS
330
263
102
}
330
263
100
AcDbMaterial
  1
Global
 72
     1
 94
      127
  0
MLEADERSTYLE
  5
58C6
102
{ACAD_REACTORS
330
336
102
}
330
336
100
AcDbMLeaderStyle
170
     2
171
     1
172
     0
 90
        2
 40
0.0
 41
0.0
173
     1
 91
-1056964608
340
11
 92
       -2
290
     1
 42
2.0
291
     1
 43
8.0
  3
Standard
341
0
 44
4.0
300

342
17
174
     1
178
     6
175
     1
176
     0
 93
-1056964608
 45
4.0
292
     0
297
     0
 46
4.0
343
0
 94
-1056964608
 47
1.0
 49
1.0
140
1.0
293
     1
141
0.0
294
     1
177
     0
142
1.0
295
     0
296
     0
143
3.75
1001
ACAD_MLEADERVER
1070
     2
  0
MLINESTYLE
  5
1C
102
{ACAD_REACTORS
330
1B
102
}
330
1B
100
AcDbMlineStyle
  2
Standard
 70
     0
  3

 62
     0
 51
90.0
 52
90.0
 71
     2
 49
0.5
 62
   256
  6
BYLAYER
 49
-0.5
 62
   256
  6
BYLAYER
  0
ACDBPLACEHOLDER
  5
1D
102
{ACAD_REACTORS
330
1F
102
}
330
1F
  0
SCALE
  5
242
102
{ACAD_REACTORS
330
241
102
}
330
241
100
AcDbScale
 70
     0
300
1:1
140
1.0
141
1.0
290
     1
  0
SCALE
  5
243
102
{ACAD_REACTORS
330
241
102
}
330
241
100
AcDbScale
 70
     0
300
1:2
140
1.0
141
2.0
290
     0
  0
SCALE
  5
244
102
{ACAD_REACTORS
330
241
102
}
330
241
100
AcDbScale
 70
     0
300
1:4
140
1.0
141
4.0
290
     0
  0
SCALE
  5
245
102
{ACAD_REACTORS
330
241
102
}
330
241
100
AcDbScale
 70
     0
300
1:5
140
1.0
141
5.0
290
     0
  0
SCALE
  5
246
102
{ACAD_REACTORS
330
241
102
}
330
241
100
AcDbScale
 70
     0
300
1:8
140
1.0
141
8.0
290
     0
  0
SCALE
  5
247
102
{ACAD_REACTORS
330
241
102
}
330
241
100
AcDbScale
 70
     0
300
1:10
140
1.0
141
10.0
290
     0
  0
SCALE
  5
248
102
{ACAD_REACTORS
330
241
102
}
330
241
100
AcDbScale
 70
     0
300
1:16
140
1.0
141
16.0
290
     0
  0
SCALE
  5
249
102
{ACAD_REACTORS
330
241
102
}
330
241
100
AcDbScale
 70
     0
300
1:20
140
1.0
141
20.0
290
     0
  0
SCALE
  5
24A
102
{ACAD_REACTORS
330
241
102
}
330
241
100
AcDbScale
 70
     0
300
1:30
140
1.0
141
30.0
290
     0
  0
SCALE
  5
24B
102
{ACAD_REACTORS
330
241
102
}
330
241
100
AcDbScale
 70
     0
300
1:40
140
1.0
141
40.0
290
     0
  0
SCALE
  5
24C
102
{ACAD_REACTORS
330
241
102
}
330
241
100
AcDbScale
 70
     0
300
1:50
140
1.0
141
50.0
290
     0
  0
SCALE
  5
24D
102
{ACAD_REACTORS
330
241
102
}
330
241
100
AcDbScale
 70
     0
300
1:100
140
1.0
141
100.0
290
     0
  0
SCALE
  5
24E
102
{ACAD_REACTORS
330
241
102
}
330
241
100
AcDbScale
 70
     0
300
2:1
140
2.0
141
1.0
290
     0
  0
SCALE
  5
24F
102
{ACAD_REACTORS
330
241
102
}
330
241
100
AcDbScale
 70
     0
300
4:1
140
4.0
141
1.0
290
     0
  0
SCALE
  5
250
102
{ACAD_REACTORS
330
241
102
}
330
241
100
AcDbScale
 70
     0
300
8:1
140
8.0
141
1.0
290
     0
  0
SCALE
  5
251
102
{ACAD_REACTORS
330
241
102
}
330
241
100
AcDbScale
 70
     0
300
10:1
140
10.0
141
1.0
290
     0
  0
SCALE
  5
252
102
{ACAD_REACTORS
330
241
102
}
330
241
100
AcDbScale
 70
     0
300
100:1
140
100.0
141
1.0
290
     0
  0
SCALE
  5
253
102
{ACAD_REACTORS
330
241
102
}
330
241
100
AcDbScale
 70
     0
300
1/128" = 1'-0"
140
0.0078125
141
12.0
290
     0
  0
SCALE
  5
254
102
{ACAD_REACTORS
330
241
102
}
330
241
100
AcDbScale
 70
     0
300
1/64" = 1'-0"
140
0.015625
141
12.0
290
     0
  0
SCALE
  5
255
102
{ACAD_REACTORS
330
241
102
}
330
241
100
AcDbScale
 70
     0
300
1/32" = 1'-0"
140
0.03125
141
12.0
290
     0
  0
SCALE
  5
256
102
{ACAD_REACTORS
330
241
102
}
330
241
100
AcDbScale
 70
     0
300
1/16" = 1'-0"
140
0.0625
141
12.0
290
     0
  0
SCALE
  5
257
102
{ACAD_REACTORS
330
241
102
}
330
241
100
AcDbScale
 70
     0
300
3/32" = 1'-0"
140
0.09375
141
12.0
290
     0
  0
SCALE
  5
258
102
{ACAD_REACTORS
330
241
102
}
330
241
100
AcDbScale
 70
     0
300
1/8" = 1'-0"
140
0.125
141
12.0
290
     0
  0
SCALE
  5
259
102
{ACAD_REACTORS
330
241
102
}
330
241
100
AcDbScale
 70
     0
300
3/16" = 1'-0"
140
0.1875
141
12.0
290
     0
  0
SCALE
  5
25A
102
{ACAD_REACTORS
330
241
102
}
330
241
100
AcDbScale
 70
     0
300
1/4" = 1'-0"
140
0.25
141
12.0
290
     0
  0
SCALE
  5
25B
102
{ACAD_REACTORS
330
241
102
}
330
241
100
AcDbScale
 70
     0
300
3/8" = 1'-0"
140
0.375
141
12.0
290
     0
  0
SCALE
  5
25C
102
{ACAD_REACTORS
330
241
102
}
330
241
100
AcDbScale
 70
     0
300
1/2" = 1'-0"
140
0.5
141
12.0
290
     0
  0
SCALE
  5
25D
102
{ACAD_REACTORS
330
241
102
}
330
241
100
AcDbScale
 70
     0
300
3/4" = 1'-0"
140
0.75
141
12.0
290
     0
  0
SCALE
  5
25E
102
{ACAD_REACTORS
330
241
102
}
330
241
100
AcDbScale
 70
     0
300
1" = 1'-0"
140
1.0
141
12.0
290
     0
  0
SCALE
  5
25F
102
{ACAD_REACTORS
330
241
102
}
330
241
100
AcDbScale
 70
     0
300
1-1/2" = 1'-0"
140
1.5
141
12.0
290
     0
  0
SCALE
  5
260
102
{ACAD_REACTORS
330
241
102
}
330
241
100
AcDbScale
 70
     0
300
3" = 1'-0"
140
3.0
141
12.0
290
     0
  0
SCALE
  5
261
102
{ACAD_REACTORS
330
241
102
}
330
241
100
AcDbScale
 70
     0
300
6" = 1'-0"
140
6.0
141
12.0
290
     0
  0
SCALE
  5
262
102
{ACAD_REACTORS
330
241
102
}
330
241
100
AcDbScale
 70
     0
300
1'-0" = 1'-0"
140
12.0
141
12.0
290
     0
  0
TABLESTYLE
  5
279
102
{ACAD_REACTORS
330
278
102
}
102
{ACAD_XDICTIONARY
360
760D
102
}
330
278
100
AcDbTableStyle
  3
Standard
 70
     0
 71
     0
 40
0.06
 41
0.06
280
     0
281
     0
  7
Standard
140
4.5
170
     2
 62
     0
 63
   257
283
     0
 90
        4
 91
        0
  1

274
    -2
284
     1
 64
     0
275
    -2
285
     1
 65
     0
276
    -2
286
     1
 66
     0
277
    -2
287
     1
 67
     0
278
    -2
288
     1
 68
     0
279
    -2
289
     1
 69
     0
  7
Standard
140
6.0
170
     5
 62
     0
 63
   257
283
     0
 90
        4
 91
        0
  1

274
    -2
284
     1
 64
     0
275
    -2
285
     1
 65
     0
276
    -2
286
     1
 66
     0
277
    -2
287
     1
 67
     0
278
    -2
288
     1
 68
     0
279
    -2
289
     1
 69
     0
  7
Standard
140
4.5
170
     5
 62
     0
 63
   257
283
     0
 90
        4
 91
        0
  1

274
    -2
284
     1
 64
     0
275
    -2
285
     1
 65
     0
276
    -2
286
     1
 66
     0
277
    -2
287
     1
 67
     0
278
    -2
288
     1
 68
     0
279
    -2
289
     1
 69
     0
  0
VISUALSTYLE
  5
26C
102
{ACAD_REACTORS
330
267
102
}
330
267
100
AcDbVisualStyle
  2
2dWireframe
 70
     4
 71
     0
 72
     2
 73
     0
 90
        0
 40
-0.6
 41
-30.0
 62
     5
 63
     7
421
 16777215
 74
     1
 91
        4
 64
     7
 65
   257
 75
     1
175
     1
 42
1.0
 92
        0
 66
   257
 43
1.0
 76
     1
 77
     6
 78
     2
 67
     7
 79
     5
170
     0
171
     0
290
     0
174
     0
 93
        1
 44
0.0
173
     0
291
     0
 45
0.0
  0
VISUALSTYLE
  5
26E
102
{ACAD_REACTORS
330
267
102
}
330
267
100
AcDbVisualStyle
  2
3D Hidden
 70
     6
 71
     1
 72
     2
 73
     2
 90
        0
 40
-0.6
 41
-30.0
 62
     5
 63
     7
421
 16777215
 74
     2
 91
        2
 64
     7
 65
   257
 75
     2
175
     1
 42
40.0
 92
        0
 66
   257
 43
1.0
 76
     1
 77
     6
 78
     2
 67
     7
 79
     3
170
     0
171
     0
290
     0
174
     0
 93
        1
 44
0.0
173
     0
291
     0
 45
0.0
  0
VISUALSTYLE
  5
26D
102
{ACAD_REACTORS
330
267
102
}
330
267
100
AcDbVisualStyle
  2
3dWireframe
 70
     5
 71
     0
 72
     2
 73
     0
 90
        0
 40
-0.6
 41
-30.0
 62
     5
 63
     7
421
 16777215
 74
     1
 91
        4
 64
     7
 65
   257
 75
     1
175
     1
 42
1.0
 92
        0
 66
   257
 43
1.0
 76
     1
 77
     6
 78
     2
 67
     7
 79
     5
170
     0
171
     0
290
     0
174
     0
 93
        1
 44
0.0
173
     0
291
     0
 45
0.0
  0
VISUALSTYLE
  5
26F
102
{ACAD_REACTORS
330
267
102
}
330
267
100
AcDbVisualStyle
  2
Basic
 70
     7
 71
     1
 72
     0
 73
     1
 90
        0
 40
-0.6
 41
-30.0
 62
     5
 63
     7
421
 16777215
 74
     0
 91
        4
 64
     7
 65
   257
 75
     1
175
     1
 42
1.0
 92
        8
 66
     7
 43
1.0
 76
     1
 77
     6
 78
     2
 67
     7
 79
     5
170
     0
171
     0
290
     0
174
     0
 93
        1
 44
0.0
173
     0
291
     1
 45
0.0
  0
VISUALSTYLE
  5
273
102
{ACAD_REACTORS
330
267
102
}
330
267
100
AcDbVisualStyle
  2
Brighten
 70
    12
 71
     2
 72
     2
 73
     0
 90
        0
 40
-0.6
 41
-30.0
 62
     5
 63
     7
421
 16777215
 74
     1
 91
        4
 64
     7
 65
   257
 75
     1
175
     1
 42
1.0
 92
        8
 66
     7
 43
1.0
 76
     1
 77
     6
 78
     2
 67
     7
 79
     5
170
     0
171
     0
290
     0
174
     0
 93
        1
 44
50.0
173
     0
291
     1
 45
0.0
  0
VISUALSTYLE
  5
277
102
{ACAD_REACTORS
330
267
102
}
330
267
100
AcDbVisualStyle
  2
ColorChange
 70
    16
 71
     2
 72
     2
 73
     3
 90
        0
 40
-0.6
 41
-30.0
 62
     5
 63
     8
421
  8421504
 74
     1
 91
        4
 64
     7
 65
   257
 75
     1
175
     1
 42
1.0
 92
        8
 66
     8
424
  8421504
 43
1.0
 76
     1
 77
     6
 78
     2
 67
     7
 79
     5
170
     0
171
     0
290
     0
174
     0
 93
        1
 44
0.0
173
     0
291
     1
 45
0.0
  0
VISUALSTYLE
  5
271
102
{ACAD_REACTORS
330
267
102
}
330
267
100
AcDbVisualStyle
  2
Conceptual
 70
     9
 71
     3
 72
     2
 73
     0
 90
        0
 40
-0.6
 41
-30.0
 62
     5
 63
     7
421
 16777215
 74
     2
 91
        2
 64
     7
 65
   257
 75
     1
175
     1
 42
40.0
 92
        8
 66
     7
 43
1.0
 76
     1
 77
     6
 78
     2
 67
     7
 79
     3
170
     0
171
     0
290
     0
174
     0
 93
        1
 44
0.0
173
     0
291
     0
 45
0.0
  0
VISUALSTYLE
  5
272
102
{ACAD_REACTORS
330
267
102
}
330
267
100
AcDbVisualStyle
  2
Dim
 70
    11
 71
     2
 72
     2
 73
     0
 90
        0
 40
-0.6
 41
-30.0
 62
     5
 63
     7
421
 16777215
 74
     1
 91
        4
 64
     7
 65
   257
 75
     1
175
     1
 42
1.0
 92
        8
 66
     7
 43
1.0
 76
     1
 77
     6
 78
     2
 67
     7
 79
     5
170
     0
171
     0
290
     0
174
     0
 93
        1
 44
-50.0
173
     0
291
     1
 45
0.0
  0
VISUALSTYLE
  5
F14
102
{ACAD_REACTORS
330
267
102
}
330
267
100
AcDbVisualStyle
  2
EdgeColorOff
 70
    22
 71
     2
 72
     2
 73
     0
 90
        0
 40
0.6
 41
30.0
 62
     5
 63
     7
421
 16777215
 74
     1
 91
        4
 64
     7
 65
   257
 75
     1
175
     1
 42
1.0
 92
        8
 66
     7
 43
1.0
 76
     1
 77
     6
 78
     2
 67
     7
 79
     5
170
     0
171
     0
290
     0
174
     0
 93
        1
 44
0.0
173
     0
291
     1
 45
0.0
  0
VISUALSTYLE
  5
276
102
{ACAD_REACTORS
330
267
102
}
330
267
100
AcDbVisualStyle
  2
Facepattern
 70
    15
 71
     2
 72
     2
 73
     0
 90
        0
 40
-0.6
 41
-30.0
 62
     5
 63
     7
421
 16777215
 74
     1
 91
        4
 64
     7
 65
   257
 75
     1
175
     1
 42
1.0
 92
        8
 66
     7
 43
1.0
 76
     1
 77
     6
 78
     2
 67
     7
 79
     5
170
     0
171
     0
290
     0
174
     0
 93
        1
 44
0.0
173
     0
291
     1
 45
0.0
  0
VISUALSTYLE
  5
268
102
{ACAD_REACTORS
330
267
102
}
330
267
100
AcDbVisualStyle
  2
Flat
 70
     0
 71
     2
 72
     1
 73
     1
 90
        2
 40
-0.6
 41
30.0
 62
     5
 63
     7
421
 16777215
 74
     0
 91
        4
 64
     7
 65
   257
 75
     1
175
     1
 42
1.0
 92
        8
 66
     7
 43
1.0
 76
     1
 77
     6
 78
     2
 67
     7
 79
     5
170
     0
171
     0
290
     0
174
     0
 93
       13
 44
0.0
173
     0
291
     1
 45
0.0
  0
VISUALSTYLE
  5
269
102
{ACAD_REACTORS
330
267
102
}
330
267
100
AcDbVisualStyle
  2
FlatWithEdges
 70
     1
 71
     2
 72
     1
 73
     1
 90
        2
 40
-0.6
 41
30.0
 62
     5
 63
     7
421
 16777215
 74
     1
 91
        4
 64
     7
 65
   257
 75
     1
175
     1
 42
1.0
 92
        0
 66
   257
 43
1.0
 76
     1
 77
     6
 78
     2
 67
     7
 79
     5
170
     0
171
     0
290
     0
174
     0
 93
       13
 44
0.0
173
     0
291
     1
 45
0.0
  0
VISUALSTYLE
  5
26A
102
{ACAD_REACTORS
330
267
102
}
330
267
100
AcDbVisualStyle
  2
Gouraud
 70
     2
 71
     2
 72
     2
 73
     1
 90
        2
 40
-0.6
 41
30.0
 62
     5
 63
     7
421
 16777215
 74
     0
 91
        4
 64
     7
 65
   257
 75
     1
175
     1
 42
1.0
 92
        0
 66
     7
 43
1.0
 76
     1
 77
     6
 78
     2
 67
     7
 79
     5
170
     0
171
     0
290
     0
174
     0
 93
       13
 44
0.0
173
     0
291
     1
 45
0.0
  0
VISUALSTYLE
  5
26B
102
{ACAD_REACTORS
330
267
102
}
330
267
100
AcDbVisualStyle
  2
GouraudWithEdges
 70
     3
 71
     2
 72
     2
 73
     1
 90
        2
 40
-0.6
 41
30.0
 62
     5
 63
     7
421
 16777215
 74
     1
 91
        4
 64
     7
 65
   257
 75
     1
175
     1
 42
1.0
 92
        0
 66
   257
 43
1.0
 76
     1
 77
     6
 78
     2
 67
     7
 79
     5
170
     0
171
     0
290
     0
174
     0
 93
       13
 44
0.0
173
     0
291
     1
 45
0.0
  0
VISUALSTYLE
  5
F11
102
{ACAD_REACTORS
330
267
102
}
330
267
100
AcDbVisualStyle
  2
Hidden
 70
     6
 71
     1
 72
     2
 73
     2
 90
        0
 40
0.6
 41
30.0
 62
     5
 63
     7
421
 16777215
 74
     2
 91
        2
 64
     7
 65
   257
 75
     2
175
     1
 42
40.0
 92
        0
 66
   257
 43
1.0
 76
     1
 77
     6
 78
     2
 67
     7
 79
     3
170
     0
171
     0
290
     0
174
     0
 93
        1
 44
0.0
173
     0
291
     0
 45
0.0
  0
VISUALSTYLE
  5
F12
102
{ACAD_REACTORS
330
267
102
}
330
267
100
AcDbVisualStyle
  2
JitterOff
 70
    20
 71
     2
 72
     2
 73
     0
 90
        0
 40
0.6
 41
30.0
 62
     5
 63
     7
421
 16777215
 74
     1
 91
        4
 64
     7
 65
   257
 75
     1
175
     1
 42
1.0
 92
       10
 66
     7
 43
1.0
 76
     1
 77
     6
 78
     2
 67
     7
 79
     5
170
     0
171
     0
290
     0
174
     0
 93
        1
 44
0.0
173
     0
291
     1
 45
0.0
  0
VISUALSTYLE
  5
275
102
{ACAD_REACTORS
330
267
102
}
330
267
100
AcDbVisualStyle
  2
Linepattern
 70
    14
 71
     2
 72
     2
 73
     0
 90
        0
 40
-0.6
 41
-30.0
 62
     5
 63
     7
421
 16777215
 74
     1
 91
        4
 64
     7
 65
   257
 75
     7
175
     7
 42
1.0
 92
        8
 66
     7
 43
1.0
 76
     1
 77
     6
 78
     2
 67
     7
 79
     5
170
     0
171
     0
290
     0
174
     0
 93
        1
 44
0.0
173
     0
291
     1
 45
0.0
  0
VISUALSTYLE
  5
F13
102
{ACAD_REACTORS
330
267
102
}
330
267
100
AcDbVisualStyle
  2
OverhangOff
 70
    21
 71
     2
 72
     2
 73
     0
 90
        0
 40
0.6
 41
30.0
 62
     5
 63
     7
421
 16777215
 74
     1
 91
        4
 64
     7
 65
   257
 75
     1
175
     1
 42
1.0
 92
        9
 66
     7
 43
1.0
 76
     1
 77
     6
 78
     2
 67
     7
 79
     5
170
     0
171
     0
290
     0
174
     0
 93
        1
 44
0.0
173
     0
291
     1
 45
0.0
  0
VISUALSTYLE
  5
270
102
{ACAD_REACTORS
330
267
102
}
330
267
100
AcDbVisualStyle
  2
Realistic
 70
     8
 71
     2
 72
     2
 73
     0
 90
        0
 40
-0.6
 41
-30.0
 62
     5
 63
     7
421
 16777215
 74
     1
 91
        0
 64
     7
 65
   257
 75
     1
175
     1
 42
1.0
 92
        8
 66
     8
424
  7895160
 43
1.0
 76
     1
 77
     6
 78
     2
 67
     7
 79
     5
170
     0
171
     0
290
     0
174
     0
 93
       13
 44
0.0
173
     0
291
     0
 45
0.0
  0
VISUALSTYLE
  5
F19
102
{ACAD_REACTORS
330
267
102
}
330
267
100
AcDbVisualStyle
  2
Shaded
 70
    27
 71
     2
 72
     2
 73
     1
 90
        2
 40
0.6
 41
30.0
 62
     5
 63
     7
421
 16777215
 74
     0
 91
        4
 64
     7
 65
   257
 75
     1
175
     1
 42
1.0
 92
        8
 66
   257
 43
1.0
 76
     1
 77
     6
 78
     2
 67
     8
425
  7895160
 79
     3
170
     0
171
     0
290
     0
174
     0
 93
        5
 44
0.0
173
     0
291
     0
 45
0.0
  0
VISUALSTYLE
  5
F18
102
{ACAD_REACTORS
330
267
102
}
330
267
100
AcDbVisualStyle
  2
Shaded with edges
 70
    26
 71
     2
 72
     2
 73
     1
 90
        2
 40
0.6
 41
30.0
 62
     5
 63
     7
421
 16777215
 74
     1
 91
       10
 64
     7
 65
   257
 75
     2
175
     1
 42
1.0
 92
        8
 66
   257
 43
1.0
 76
     1
 77
     6
 78
     2
 67
     7
 79
     3
170
     0
171
     0
290
     0
174
     0
 93
        5
 44
0.0
173
     0
291
     0
 45
0.0
  0
VISUALSTYLE
  5
F15
102
{ACAD_REACTORS
330
267
102
}
330
267
100
AcDbVisualStyle
  2
Shades of Gray
 70
    23
 71
     2
 72
     2
 73
     3
 90
        0
 40
0.6
 41
30.0
 62
     5
 63
     7
421
 16777215
 74
     2
 91
        2
 64
     7
 65
     7
 75
     1
175
     1
 42
40.0
 92
        8
 66
     7
 43
1.0
 76
     1
 77
     6
 78
     2
 67
     7
 79
     3
170
     0
171
     0
290
     0
174
     0
 93
        1
 44
0.0
173
     0
291
     0
 45
0.0
  0
VISUALSTYLE
  5
F16
102
{ACAD_REACTORS
330
267
102
}
330
267
100
AcDbVisualStyle
  2
Sketchy
 70
    24
 71
     1
 72
     2
 73
     2
 90
        0
 40
0.6
 41
30.0
 62
     5
 63
     7
421
 16777215
 74
     2
 91
        2
 64
     7
 65
     7
 75
     1
175
     1
 42
40.0
 92
       11
 66
     7
 43
1.0
 76
     1
 77
     6
 78
     2
 67
     7
 79
     6
170
     0
171
     0
290
     0
174
     0
 93
        1
 44
0.0
173
     0
291
     0
 45
0.0
  0
VISUALSTYLE
  5
274
102
{ACAD_REACTORS
330
267
102
}
330
267
100
AcDbVisualStyle
  2
Thicken
 70
    13
 71
     2
 72
     2
 73
     0
 90
        0
 40
-0.6
 41
-30.0
 62
     5
 63
     7
421
 16777215
 74
     1
 91
        4
 64
     7
 65
   257
 75
     1
175
     1
 42
1.0
 92
       12
 66
     7
 43
1.0
 76
     1
 77
     6
 78
     2
 67
     7
 79
     5
170
     0
171
     0
290
     0
174
     0
 93
        1
 44
0.0
173
     0
291
     1
 45
0.0
  0
VISUALSTYLE
  5
F10
102
{ACAD_REACTORS
330
267
102
}
330
267
100
AcDbVisualStyle
  2
Wireframe
 70
     5
 71
     0
 72
     2
 73
     0
 90
        0
 40
0.6
 41
30.0
 62
     5
 63
     7
421
 16777215
 74
     1
 91
        4
 64
     7
 65
   257
 75
     1
175
     1
 42
1.0
 92
        0
 66
   257
 43
1.0
 76
     1
 77
     6
 78
     2
 67
     7
 79
     3
170
     0
171
     0
290
     0
174
     0
 93
        1
 44
0.0
173
     0
291
     0
 45
0.0
  0
VISUALSTYLE
  5
F17
102
{ACAD_REACTORS
330
267
102
}
330
267
100
AcDbVisualStyle
  2
X-Ray
 70
    25
 71
     2
 72
     2
 73
     1
 90
        1
 40
0.5
 41
30.0
 62
     5
 63
     7
421
 16777215
 74
     1
 91
        0
 64
     7
 65
   257
 75
     1
175
     1
 42
1.0
 92
        8
 66
     7
 43
1.0
 76
     1
 77
     6
 78
     2
 67
     7
 79
     3
170
     0
171
     0
290
     0
174
     0
 93
       13
 44
0.0
173
     0
291
     0
 45
0.0
  0
DICTIONARYVAR
  5
331
102
{ACAD_REACTORS
330
330
102
}
330
330
100
DictionaryVariables
280
     0
  1
1:1
  0
DICTIONARYVAR
  5
594B
102
{ACAD_REACTORS
330
330
102
}
330
330
100
DictionaryVariables
280
     0
  1
Standard
  0
DICTIONARYVAR
  5
335
102
{ACAD_REACTORS
330
330
102
}
330
330
100
DictionaryVariables
280
     0
  1
Standard
  0
DICTIONARYVAR
  5
5772
102
{ACAD_REACTORS
330
330
102
}
330
330
100
DictionaryVariables
280
     0
  1
ByLayer
  0
DICTIONARYVAR
  5
13B4
102
{ACAD_REACTORS
330
330
102
}
330
330
100
DictionaryVariables
280
     0
  1
0
  0
FIELD
  5
5A76
102
{ACAD_REACTORS
330
7602
102
}
330
7602
100
AcDbField
  1
_text
  2
{%<\_FldIdx 0>%M}
 90
        1
360
5A77
 97
        0
 91
       63
 92
        0
 94
       11
 95
        2
 96
        0
300

 93
        1
  6
ACFD_FIELDTEXT_CHECKSUM
 93
        2
 90
        2
140
4505.0
 94
        0
300

302

304
ACVALUE_END
  7
ACFD_FIELD_VALUE
 93
        6
 90
        4
  1
{20230913M}
 94
        0
300

302

304
ACVALUE_END
301
{20230913M}
 98
       11
  0
DICTIONARY
  5
760D
330
279
100
AcDbDictionary
280
     1
281
     1
  3
ACAD_ROUNDTRIP_2008_TABLESTYLE_CELLSTYLEMAP
360
760E
  0
FIELD
  5
5A77
330
5A76
100
AcDbField
  1
AcVar
  2
\AcVar Date \f "yyyyMMdd"
 90
        0
 97
        0
 91
       63
 92
        0
 94
       11
 95
       64
 96
        0
300
Variable not supported
 93
        1
  6
Variable
 93
        2
 90
        4
  1
Date
 94
        0
300

302

304
ACVALUE_END
  7
ACFD_FIELD_VALUE
 93
        6
 90
        8
 92
       16
310
E707090000000D000500220009000000
 94
        0
300
yyyyMMdd
302

304
ACVALUE_END
301
20230913
 98
        8
  0
CELLSTYLEMAP
  5
760E
102
{ACAD_REACTORS
330
760D
102
}
330
760D
100
AcDbCellStyleMap
 90
        3
300
CELLSTYLE
  1
TABLEFORMAT_BEGIN
 90
        5
170
     1
 91
        0
 92
    32768
 62
   257
 93
        1
300
CONTENTFORMAT
  1
CONTENTFORMAT_BEGIN
 90
        0
 91
        0
 92
        4
 93
        0
300

 40
0.0
140
1.0
 94
        5
 62
     0
340
17
144
6.0
309
CONTENTFORMAT_END
171
     1
301
MARGIN
  1
CELLMARGIN_BEGIN
 40
0.06
 40
0.06
 40
0.06
 40
0.06
 40
0.18
 40
0.18
309
CELLMARGIN_END
 94
        6
 95
        1
302
GRIDFORMAT
  1
GRIDFORMAT_BEGIN
 90
        0
 91
        1
 62
     0
 92
       -2
340
0
 93
        0
 40
0.045
309
GRIDFORMAT_END
 95
        2
302
GRIDFORMAT
  1
GRIDFORMAT_BEGIN
 90
        0
 91
        1
 62
     0
 92
       -2
340
0
 93
        0
 40
0.045
309
GRIDFORMAT_END
 95
        4
302
GRIDFORMAT
  1
GRIDFORMAT_BEGIN
 90
        0
 91
        1
 62
     0
 92
       -2
340
0
 93
        0
 40
0.045
309
GRIDFORMAT_END
 95
        8
302
GRIDFORMAT
  1
GRIDFORMAT_BEGIN
 90
        0
 91
        1
 62
     0
 92
       -2
340
0
 93
        0
 40
0.045
309
GRIDFORMAT_END
 95
       16
302
GRIDFORMAT
  1
GRIDFORMAT_BEGIN
 90
        0
 91
        1
 62
     0
 92
       -2
340
0
 93
        0
 40
0.045
309
GRIDFORMAT_END
 95
       32
302
GRIDFORMAT
  1
GRIDFORMAT_BEGIN
 90
        0
 91
        1
 62
     0
 92
       -2
340
0
 93
        0
 40
0.045
309
GRIDFORMAT_END
309
TABLEFORMAT_END
  1
CELLSTYLE_BEGIN
 90
        1
 91
        1
300
_TITLE
309
CELLSTYLE_END
300
CELLSTYLE
  1
TABLEFORMAT_BEGIN
 90
        5
170
     1
 91
        0
 92
        0
 62
   257
 93
        1
300
CONTENTFORMAT
  1
CONTENTFORMAT_BEGIN
 90
        0
 91
        0
 92
        4
 93
        0
300

 40
0.0
140
1.0
 94
        5
 62
     0
340
17
144
4.5
309
CONTENTFORMAT_END
171
     1
301
MARGIN
  1
CELLMARGIN_BEGIN
 40
0.06
 40
0.06
 40
0.06
 40
0.06
 40
0.18
 40
0.18
309
CELLMARGIN_END
 94
        6
 95
        1
302
GRIDFORMAT
  1
GRIDFORMAT_BEGIN
 90
        0
 91
        1
 62
     0
 92
       -2
340
0
 93
        0
 40
0.045
309
GRIDFORMAT_END
 95
        2
302
GRIDFORMAT
  1
GRIDFORMAT_BEGIN
 90
        0
 91
        1
 62
     0
 92
       -2
340
0
 93
        0
 40
0.045
309
GRIDFORMAT_END
 95
        4
302
GRIDFORMAT
  1
GRIDFORMAT_BEGIN
 90
        0
 91
        1
 62
     0
 92
       -2
340
0
 93
        0
 40
0.045
309
GRIDFORMAT_END
 95
        8
302
GRIDFORMAT
  1
GRIDFORMAT_BEGIN
 90
        0
 91
        1
 62
     0
 92
       -2
340
0
 93
        0
 40
0.045
309
GRIDFORMAT_END
 95
       16
302
GRIDFORMAT
  1
GRIDFORMAT_BEGIN
 90
        0
 91
        1
 62
     0
 92
       -2
340
0
 93
        0
 40
0.045
309
GRIDFORMAT_END
 95
       32
302
GRIDFORMAT
  1
GRIDFORMAT_BEGIN
 90
        0
 91
        1
 62
     0
 92
       -2
340
0
 93
        0
 40
0.045
309
GRIDFORMAT_END
309
TABLEFORMAT_END
  1
CELLSTYLE_BEGIN
 90
        2
 91
        1
300
_HEADER
309
CELLSTYLE_END
300
CELLSTYLE
  1
TABLEFORMAT_BEGIN
 90
        5
170
     1
 91
        0
 92
        0
 62
   257
 93
        1
300
CONTENTFORMAT
  1
CONTENTFORMAT_BEGIN
 90
        0
 91
        0
 92
        4
 93
        0
300

 40
0.0
140
1.0
 94
        2
 62
     0
340
17
144
4.5
309
CONTENTFORMAT_END
171
     1
301
MARGIN
  1
CELLMARGIN_BEGIN
 40
0.06
 40
0.06
 40
0.06
 40
0.06
 40
0.18
 40
0.18
309
CELLMARGIN_END
 94
        6
 95
        1
302
GRIDFORMAT
  1
GRIDFORMAT_BEGIN
 90
        0
 91
        1
 62
     0
 92
       -2
340
0
 93
        0
 40
0.045
309
GRIDFORMAT_END
 95
        2
302
GRIDFORMAT
  1
GRIDFORMAT_BEGIN
 90
        0
 91
        1
 62
     0
 92
       -2
340
0
 93
        0
 40
0.045
309
GRIDFORMAT_END
 95
        4
302
GRIDFORMAT
  1
GRIDFORMAT_BEGIN
 90
        0
 91
        1
 62
     0
 92
       -2
340
0
 93
        0
 40
0.045
309
GRIDFORMAT_END
 95
        8
302
GRIDFORMAT
  1
GRIDFORMAT_BEGIN
 90
        0
 91
        1
 62
     0
 92
       -2
340
0
 93
        0
 40
0.045
309
GRIDFORMAT_END
 95
       16
302
GRIDFORMAT
  1
GRIDFORMAT_BEGIN
 90
        0
 91
        1
 62
     0
 92
       -2
340
0
 93
        0
 40
0.045
309
GRIDFORMAT_END
 95
       32
302
GRIDFORMAT
  1
GRIDFORMAT_BEGIN
 90
        0
 91
        1
 62
     0
 92
       -2
340
0
 93
        0
 40
0.045
309
GRIDFORMAT_END
309
TABLEFORMAT_END
  1
CELLSTYLE_BEGIN
 90
        3
 91
        2
300
_DATA
309
CELLSTYLE_END
  0
ENDSEC
  0
EOF
