  0
SECTION
  2
HEADER
  9
$ACADVER
  1
AC1021
  9
$ACADMAINTVER
 70
    25
  9
$DWGCODEPAGE
  3
ANSI_932
  9
$LASTSAVEDBY
  1
howeNelson
  9
$INSBASE
 10
0.0
 20
0.0
 30
0.0
  9
$EXTMIN
 10
0.0
 20
0.0
 30
0.0
  9
$EXTMAX
 10
593.9999999999999
 20
420.0
 30
0.0
  9
$LIMMIN
 10
0.0
 20
0.0
  9
$LIMMAX
 10
594.0
 20
419.9999999999996
  9
$ORTHOMODE
 70
     0
  9
$REGENMODE
 70
     1
  9
$FILLMODE
 70
     1
  9
$QTEXTMODE
 70
     0
  9
$MIRRTEXT
 70
     1
  9
$LTSCALE
 40
2.0
  9
$ATTMODE
 70
     1
  9
$TEXTSIZE
 40
2.5
  9
$TRACEWID
 40
1.0
  9
$TEXTSTYLE
  7
ＭＳ ゴシック
  9
$CLAYER
  8
DIM
  9
$CELTYPE
  6
Continuous
  9
$CECOLOR
 62
   256
  9
$CELTSCALE
 40
1.0
  9
$DISPSILH
 70
     0
  9
$DIMSCALE
 40
1.0
  9
$DIMASZ
 40
1.5
  9
$DIMEXO
 40
5.0
  9
$DIMDLI
 40
0.9999999999999999
  9
$DIMRND
 40
0.0
  9
$DIMDLE
 40
0.0
  9
$DIMEXE
 40
0.0
  9
$DIMTP
 40
0.0
  9
$DIMTM
 40
0.0
  9
$DIMTXT
 40
5.0
  9
$DIMCEN
 40
0.0
  9
$DIMTSZ
 40
0.0
  9
$DIMTOL
 70
     0
  9
$DIMLIM
 70
     0
  9
$DIMTIH
 70
     0
  9
$DIMTOH
 70
     0
  9
$DIMSE1
 70
     0
  9
$DIMSE2
 70
     0
  9
$DIMTAD
 70
     1
  9
$DIMZIN
 70
    11
  9
$DIMBLK
  1
DOT
  9
$DIMASO
 70
     1
  9
$DIMSHO
 70
     1
  9
$DIMPOST
  1
<>
  9
$DIMAPOST
  1
[]
  9
$DIMALT
 70
     0
  9
$DIMALTD
 70
     1
  9
$DIMALTF
 40
1.0
  9
$DIMLFAC
 40
1.0
  9
$DIMTOFL
 70
     0
  9
$DIMTVP
 40
0.0
  9
$DIMTIX
 70
     1
  9
$DIMSOXD
 70
     0
  9
$DIMSAH
 70
     0
  9
$DIMBLK1
  1

  9
$DIMBLK2
  1

  9
$DIMSTYLE
  2
tfrom線あり
  9
$DIMCLRD
 70
     0
  9
$DIMCLRE
 70
     0
  9
$DIMCLRT
 70
     0
  9
$DIMTFAC
 40
1.0
  9
$DIMGAP
 40
2.0
  9
$DIMJUST
 70
     0
  9
$DIMSD1
 70
     0
  9
$DIMSD2
 70
     0
  9
$DIMTOLJ
 70
     1
  9
$DIMTZIN
 70
    11
  9
$DIMALTZ
 70
    11
  9
$DIMALTTZ
 70
    11
  9
$DIMUPT
 70
     0
  9
$DIMDEC
 70
     0
  9
$DIMTDEC
 70
     1
  9
$DIMALTU
 70
     2
  9
$DIMALTTD
 70
     2
  9
$DIMTXSTY
  7
ＭＳ ゴシック
  9
$DIMAUNIT
 70
     0
  9
$DIMADEC
 70
     2
  9
$DIMALTRND
 40
0.0
  9
$DIMAZIN
 70
     0
  9
$DIMDSEP
 70
    46
  9
$DIMATFIT
 70
     0
  9
$DIMFRAC
 70
     2
  9
$DIMLDRBLK
  1
DOT
  9
$DIMLUNIT
 70
     2
  9
$DIMLWD
 70
    -2
  9
$DIMLWE
 70
    -2
  9
$DIMTMOVE
 70
     0
  9
$DIMFXL
 40
1.0
  9
$DIMFXLON
 70
     0
  9
$DIMJOGANG
 40
0.7853981633974483
  9
$DIMTFILL
 70
     0
  9
$DIMTFILLCLR
 70
     0
  9
$DIMARCSYM
 70
     0
  9
$DIMLTYPE
  6

  9
$DIMLTEX1
  6

  9
$DIMLTEX2
  6

  9
$LUNITS
 70
     2
  9
$LUPREC
 70
     0
  9
$SKETCHINC
 40
0.1
  9
$FILLETRAD
 40
0.0
  9
$AUNITS
 70
     0
  9
$AUPREC
 70
     0
  9
$MENU
  1
acad
  9
$ELEVATION
 40
0.0
  9
$PELEVATION
 40
0.0
  9
$THICKNESS
 40
0.0
  9
$LIMCHECK
 70
     0
  9
$CHAMFERA
 40
0.0
  9
$CHAMFERB
 40
0.0
  9
$CHAMFERC
 40
0.0
  9
$CHAMFERD
 40
0.0
  9
$SKPOLY
 70
     0
  9
$TDCREATE
 40
2447893.375
  9
$TDUCREATE
 40
0.0
  9
$TDUPDATE
 40
2458390.618737789
  9
$TDUUPDATE
 40
2458390.243737789
  9
$TDINDWG
 40
0.0
  9
$TDUSRTIMER
 40
0.0
  9
$USRTIMER
 70
     1
  9
$ANGBASE
 50
0.0
  9
$ANGDIR
 70
     0
  9
$PDMODE
 70
     1
  9
$PDSIZE
 40
-2.0
  9
$PLINEWID
 40
0.0
  9
$SPLFRAME
 70
     0
  9
$SPLINETYPE
 70
     6
  9
$SPLINESEGS
 70
     8
  9
$HANDSEED
  5
5E38
  9
$SURFTAB1
 70
     6
  9
$SURFTAB2
 70
     6
  9
$SURFTYPE
 70
     6
  9
$SURFU
 70
     6
  9
$SURFV
 70
     6
  9
$UCSBASE
  2

  9
$UCSNAME
  2

  9
$UCSORG
 10
0.0
 20
0.0
 30
0.0
  9
$UCSXDIR
 10
1.0
 20
0.0
 30
0.0
  9
$UCSYDIR
 10
0.0
 20
1.0
 30
0.0
  9
$UCSORTHOREF
  2

  9
$UCSORTHOVIEW
 70
     0
  9
$UCSORGTOP
 10
0.0
 20
0.0
 30
0.0
  9
$UCSORGBOTTOM
 10
0.0
 20
0.0
 30
0.0
  9
$UCSORGLEFT
 10
0.0
 20
0.0
 30
0.0
  9
$UCSORGRIGHT
 10
0.0
 20
0.0
 30
0.0
  9
$UCSORGFRONT
 10
0.0
 20
0.0
 30
0.0
  9
$UCSORGBACK
 10
0.0
 20
0.0
 30
0.0
  9
$PUCSBASE
  2

  9
$PUCSNAME
  2

  9
$PUCSORG
 10
0.0
 20
0.0
 30
0.0
  9
$PUCSXDIR
 10
1.0
 20
0.0
 30
0.0
  9
$PUCSYDIR
 10
0.0
 20
1.0
 30
0.0
  9
$PUCSORTHOREF
  2

  9
$PUCSORTHOVIEW
 70
     0
  9
$PUCSORGTOP
 10
0.0
 20
0.0
 30
0.0
  9
$PUCSORGBOTTOM
 10
0.0
 20
0.0
 30
0.0
  9
$PUCSORGLEFT
 10
0.0
 20
0.0
 30
0.0
  9
$PUCSORGRIGHT
 10
0.0
 20
0.0
 30
0.0
  9
$PUCSORGFRONT
 10
0.0
 20
0.0
 30
0.0
  9
$PUCSORGBACK
 10
0.0
 20
0.0
 30
0.0
  9
$USERI1
 70
     0
  9
$USERI2
 70
     0
  9
$USERI3
 70
     0
  9
$USERI4
 70
     0
  9
$USERI5
 70
     0
  9
$USERR1
 40
0.0
  9
$USERR2
 40
0.0
  9
$USERR3
 40
0.0
  9
$USERR4
 40
0.0
  9
$USERR5
 40
0.0
  9
$WORLDVIEW
 70
     1
  9
$SHADEDGE
 70
     3
  9
$SHADEDIF
 70
    70
  9
$TILEMODE
 70
     1
  9
$MAXACTVP
 70
    64
  9
$PINSBASE
 10
0.0
 20
0.0
 30
0.0
  9
$PLIMCHECK
 70
     0
  9
$PEXTMIN
 10
0.0
 20
0.0
 30
0.0
  9
$PEXTMAX
 10
0.0
 20
0.0
 30
0.0
  9
$PLIMMIN
 10
-7.5
 20
-20.0
  9
$PLIMMAX
 10
412.5
 20
277.0
  9
$UNITMODE
 70
     0
  9
$VISRETAIN
 70
     0
  9
$PLINEGEN
 70
     1
  9
$PSLTSCALE
 70
     1
  9
$TREEDEPTH
 70
  3020
  9
$CMLSTYLE
  2
Standard
  9
$CMLJUST
 70
     0
  9
$CMLSCALE
 40
1.0
  9
$PROXYGRAPHICS
 70
     0
  9
$MEASUREMENT
 70
     1
  9
$CELWEIGHT
370
     0
  9
$ENDCAPS
280
     0
  9
$JOINSTYLE
280
     0
  9
$LWDISPLAY
290
     1
  9
$INSUNITS
 70
     4
  9
$HYPERLINKBASE
  1

  9
$STYLESHEET
  1

  9
$XEDIT
290
     1
  9
$CEPSNTYPE
380
     0
  9
$PSTYLEMODE
290
     1
  9
$FINGERPRINTGUID
  2

  9
$VERSIONGUID
  2

  9
$EXTNAMES
290
     1
  9
$PSVPSCALE
 40
0.0
  9
$OLESTARTUP
290
     0
  9
$SORTENTS
280
   127
  9
$INDEXCTL
280
     0
  9
$HIDETEXT
280
     1
  9
$XCLIPFRAME
290
     0
  9
$HALOGAP
280
     0
  9
$OBSCOLOR
 70
   257
  9
$OBSLTYPE
280
     0
  9
$INTERSECTIONDISPLAY
280
     0
  9
$INTERSECTIONCOLOR
 70
   257
  9
$DIMASSOC
280
     2
  9
$PROJECTNAME
  1

  9
$CAMERADISPLAY
290
     0
  9
$LENSLENGTH
 40
50.0
  9
$CAMERAHEIGHT
 40
0.0
  9
$STEPSPERSEC
 40
2.0
  9
$STEPSIZE
 40
6.0
  9
$3DDWFPREC
 40
2.0
  9
$PSOLWIDTH
 40
0.25
  9
$PSOLHEIGHT
 40
4.0
  9
$LOFTANG1
 40
1.570796326794897
  9
$LOFTANG2
 40
1.570796326794897
  9
$LOFTMAG1
 40
0.0
  9
$LOFTMAG2
 40
0.0
  9
$LOFTPARAM
 70
     7
  9
$LOFTNORMALS
280
     1
  9
$LATITUDE
 40
37.795
  9
$LONGITUDE
 40
-122.394
  9
$NORTHDIRECTION
 40
0.0
  9
$TIMEZONE
 70
 -8000
  9
$LIGHTGLYPHDISPLAY
280
     1
  9
$TILEMODELIGHTSYNCH
280
     1
  9
$SOLIDHIST
280
     1
  9
$SHOWHIST
280
     1
  9
$DWFFRAME
280
     2
  9
$DGNFRAME
280
     2
  9
$REALWORLDSCALE
290
     1
  9
$INTERFERECOLOR
 62
   256
  9
$CSHADOW
280
     0
  9
$SHADOWPLANELOCATION
 40
0.0
  0
ENDSEC
  0
SECTION
  2
CLASSES
  0
CLASS
  1
LWPOLYLINE
  2
AcDbPolyline
  3
ObjectDBX Classes
 90
        0
 91
        1
280
     0
281
     1
  0
CLASS
  1
IMAGE
  2
AcDbRasterImage
  3
ISM
 90
      127
 91
       14
280
     0
281
     1
  0
CLASS
  1
OLE2FRAME
  2
AcDbOle2Frame
  3
ObjectDBX Classes
 90
        0
 91
        1
280
     0
281
     1
  0
CLASS
  1
HATCH
  2
AcDbHatch
  3
ObjectDBX Classes
 90
        0
 91
        1
280
     0
281
     1
  0
CLASS
  1
DICTIONARYVAR
  2
AcDbDictionaryVar
  3
ObjectDBX Classes
 90
        0
 91
       13
280
     0
281
     0
  0
CLASS
  1
RASTERVARIABLES
  2
AcDbRasterVariables
  3
ISM
 90
        0
 91
       13
280
     0
281
     0
  0
CLASS
  1
IMAGEDEF
  2
AcDbRasterImageDef
  3
ISM
 90
        0
 91
       13
280
     0
281
     0
  0
CLASS
  1
IMAGEDEF_REACTOR
  2
AcDbRasterImageDefReactor
  3
ISM
 90
        1
 91
       13
280
     0
281
     0
  0
CLASS
  1
IDBUFFER
  2
AcDbIdBuffer
  3
ObjectDBX Classes
 90
        0
 91
       13
280
     0
281
     0
  0
CLASS
  1
SPATIAL_FILTER
  2
AcDbSpatialFilter
  3
ObjectDBX Classes
 90
        0
 91
       13
280
     0
281
     0
  0
CLASS
  1
XRECORD
  2
AcDbXrecord
  3
ObjectDBX Classes
 90
        0
 91
        1
280
     0
281
     0
  0
CLASS
  1
SORTENTSTABLE
  2
AcDbSortentsTable
  3
ObjectDBX Classes
 90
        0
 91
       13
280
     0
281
     0
  0
CLASS
  1
LAYER_INDEX
  2
AcDbLayerIndex
  3
ObjectDBX Classes
 90
        0
 91
       13
280
     0
281
     0
  0
CLASS
  1
SPATIAL_INDEX
  2
AcDbSpatialIndex
  3
AutoCAD 2000
 90
        0
 91
       13
280
     0
281
     0
  0
CLASS
  1
OBJECT_PTR
  2
CAseDLPNTableRecord
  3
ASE-LPNTableRecord
 90
        1
 91
       13
280
     0
281
     0
  0
CLASS
  1
LAYOUT
  2
AcDbLayout
  3
ObjectDBX Classes
 90
        0
 91
        1
280
     0
281
     0
  0
CLASS
  1
PLOTSETTINGS
  2
AcDbPlotSettings
  3
ObjectDBX Classes
 90
        0
 91
       13
280
     0
281
     0
  0
CLASS
  1
ACDBDICTIONARYWDFLT
  2
AcDbDictionaryWithDefault
  3
ObjectDBX Classes
 90
        0
 91
       13
280
     0
281
     0
  0
CLASS
  1
ACDBPLACEHOLDER
  2
AcDbPlaceHolder
  3
ObjectDBX Classes
 90
        0
 91
        1
280
     0
281
     0
  0
CLASS
  1
SCALE
  2
AcDbScale
  3
ObjectDBX Classes
 90
     1153
 91
       13
280
     0
281
     0
  0
CLASS
  1
MATERIAL
  2
AcDbMaterial
  3
ObjectDBX Classes
 90
     1153
 91
       13
280
     0
281
     0
  0
CLASS
  1
VISUALSTYLE
  2
AcDbVisualStyle
  3
ObjectDBX Classes
 90
     4095
 91
       13
280
     0
281
     0
  0
CLASS
  1
TABLESTYLE
  2
AcDbTableStyle
  3
ObjectDBX Classes
 90
     4095
 91
       13
280
     0
281
     0
  0
CLASS
  1
DIMASSOC
  2
AcDbDimAssoc
  3
"AcDbDimAssoc|Product Desc:     AcDim ARX App For Dimension|Company:          Autodesk, Inc.|WEB Address:      www.autodesk.com"
 90
        0
 91
       13
280
     0
281
     0
  0
CLASS
  1
CELLSTYLEMAP
  2
AcDbCellStyleMap
  3
ObjectDBX Classes
 90
     1152
 91
       13
280
     0
281
     0
  0
CLASS
  1
SUN
  2
AcDbSun
  3
SCENEOE
 90
     1153
 91
       13
280
     0
281
     0
  0
CLASS
  1
MLEADERSTYLE
  2
AcDbMLeaderStyle
  3
ACDB_MLEADERSTYLE_CLASS
 90
     4095
 91
       13
280
     0
281
     0
  0
CLASS
  1
FIELD
  2
AcDbField
  3
ObjectDBX Classes
 90
     1152
 91
       13
280
     0
281
     0
  0
CLASS
  1
FIELDLIST
  2
AcDbFieldList
  3
ObjectDBX Classes
 90
     1152
 91
       13
280
     0
281
     0
  0
ENDSEC
  0
SECTION
  2
TABLES
  0
TABLE
  2
VPORT
  5
7
330
0
100
AcDbSymbolTable
 70
     1
  0
VPORT
  5
15
330
7
100
AcDbSymbolTableRecord
100
AcDbViewportTableRecord
  2
*ACTIVE
 70
     0
 10
0.0
 20
0.0
 11
1.0
 21
1.0
 12
296.9999999999999
 22
210.0
 13
0.0
 23
0.0
 14
1.0
 24
1.0
 15
0.0
 25
0.0
 16
0.0
 26
0.0
 36
1.0
 17
0.0
 27
0.0
 37
0.0
 40
428.4
 41
2.294372294372294
 42
50.0
 43
0.0
 44
0.0
 50
0.0
 51
0.0
 71
    16
 72
  2000
 73
     1
 74
     1
 75
     0
 76
     0
 77
     0
 78
     0
281
     0
 65
     1
110
0.0
120
0.0
130
0.0
111
1.0
121
0.0
131
0.0
112
0.0
122
1.0
132
0.0
 79
     0
146
0.0
348
26C
 60
     3
 61
     5
292
     1
282
     1
141
0.0
142
0.0
 63
   256
361
F1A
  0
ENDTAB
  0
TABLE
  2
LTYPE
  5
4
330
0
100
AcDbSymbolTable
 70
     6
  0
LTYPE
  5
11
330
4
100
AcDbSymbolTableRecord
100
AcDbLinetypeTableRecord
  2
ByBlock
 70
     0
  3

 72
    65
 73
     0
 40
0.0
  0
LTYPE
  5
12
330
4
100
AcDbSymbolTableRecord
100
AcDbLinetypeTableRecord
  2
ByLayer
 70
     0
  3
Solid line
 72
    65
 73
     0
 40
0.0
  0
LTYPE
  5
13
330
4
100
AcDbSymbolTableRecord
100
AcDbLinetypeTableRecord
  2
Continuous
 70
     0
  3
Solid line
 72
    65
 73
     0
 40
0.0
  0
LTYPE
  5
3A
330
4
100
AcDbSymbolTableRecord
100
AcDbLinetypeTableRecord
  2
STYLE_01
 70
     0
  3

 72
    65
 73
     2
 40
0.2460629921259842
 49
0.1230314960629921
 74
     0
 49
-0.1230314960629921
 74
     0
  0
LTYPE
  5
3B
330
4
100
AcDbSymbolTableRecord
100
AcDbLinetypeTableRecord
  2
STYLE_02
 70
     0
  3

 72
    65
 73
     2
 40
0.6944250000000001
 49
0.48607
 74
     0
 49
-0.2083550000000001
 74
     0
  0
LTYPE
  5
90E
330
4
100
AcDbSymbolTableRecord
100
AcDbLinetypeTableRecord
  2
DASHED1
 70
     0
  3
--  --  --  --  --  --  --  --  
 72
    65
 73
     2
 40
2.5
 49
1.25
 74
     0
 49
-1.25
 74
     0
  0
LTYPE
  5
565E
330
4
100
AcDbSymbolTableRecord
100
AcDbLinetypeTableRecord
  2
CENTER
 70
     0
  3
----------  --  ----------  --  
 72
    65
 73
     4
 40
20.0
 49
12.5
 74
     0
 49
-2.5
 74
     0
 49
2.5
 74
     0
 49
-2.5
 74
     0
  0
LTYPE
  5
565F
330
4
100
AcDbSymbolTableRecord
100
AcDbLinetypeTableRecord
  2
HIDDEN
 70
     0
  3
Hidden _ _ _ _ _ _ _ _ _ _ _ _ _ _ _ _ _ _ _ _ 
 72
    65
 73
     2
 40
9.524999999999999
 49
6.35
 74
     0
 49
-3.175
 74
     0
  0
ENDTAB
  0
TABLE
  2
LAYER
  5
2
102
{ACAD_XDICTIONARY
360
2E1
102
}
330
0
100
AcDbSymbolTable
 70
    13
  0
LAYER
  5
14
330
2
100
AcDbSymbolTableRecord
100
AcDbLayerTableRecord
  2
0
 70
     0
 62
    -7
  6
Continuous
370
    -3
390
1D
347
266
  0
LAYER
  5
4A
330
2
100
AcDbSymbolTableRecord
100
AcDbLayerTableRecord
  2
Defpoints
 70
     0
 62
    -7
  6
Continuous
290
     0
370
    -3
390
1D
347
266
  0
LAYER
  5
4D
330
2
100
AcDbSymbolTableRecord
100
AcDbLayerTableRecord
  2
MODEL
 70
     0
 62
     7
  6
Continuous
370
    20
390
1D
347
266
  0
LAYER
  5
667
330
2
100
AcDbSymbolTableRecord
100
AcDbLayerTableRecord
  2
レイヤー 1
 70
     0
 62
     7
  6
Continuous
370
    -3
390
1D
347
266
  0
LAYER
  5
13AF
330
2
100
AcDbSymbolTableRecord
100
AcDbLayerTableRecord
  2
DIM
 70
     0
 62
     7
  6
Continuous
370
    13
390
1D
347
266
1001
AcAecLayerStandard
1000

1000

  0
LAYER
  5
5654
330
2
100
AcDbSymbolTableRecord
100
AcDbLayerTableRecord
  2
寸法
 70
     0
 62
     7
  6
Continuous
370
    13
390
1D
347
266
1001
AcAecLayerStandard
1000

1000

  0
LAYER
  5
5657
330
2
100
AcDbSymbolTableRecord
100
AcDbLayerTableRecord
  2
モデル
 70
     0
 62
     7
  6
Continuous
370
    20
390
1D
347
266
1001
AcAecLayerStandard
1000

1000

  0
LAYER
  5
5658
330
2
100
AcDbSymbolTableRecord
100
AcDbLayerTableRecord
  2
テンプレート
 70
     0
 62
     7
  6
Continuous
370
    20
390
1D
347
266
1001
AcAecLayerStandard
1000

1000

  0
LAYER
  5
5659
330
2
100
AcDbSymbolTableRecord
100
AcDbLayerTableRecord
  2
TFORMLOGO
 70
     0
 62
     7
  6
Continuous
370
    20
390
1D
347
266
  0
LAYER
  5
565A
330
2
100
AcDbSymbolTableRecord
100
AcDbLayerTableRecord
  2
PRINT BORDER
 70
     0
 62
     4
  6
Continuous
290
     0
370
    -3
390
1D
347
266
1001
AcAecLayerStandard
1000

1000

  0
LAYER
  5
565B
330
2
100
AcDbSymbolTableRecord
100
AcDbLayerTableRecord
  2
SPACER
 70
     0
 62
    -3
  6
Continuous
290
     0
370
    -3
390
1D
347
266
1001
AcAecLayerStandard
1000

1000

  0
LAYER
  5
565C
330
2
100
AcDbSymbolTableRecord
100
AcDbLayerTableRecord
  2
CutoutUnderlay
 70
     0
 62
   254
  6
Continuous
370
    20
390
1D
347
266
1001
AcAecLayerStandard
1000

1000

  0
LAYER
  5
565D
330
2
100
AcDbSymbolTableRecord
100
AcDbLayerTableRecord
  2
CutoutOverlay
 70
     0
 62
     7
  6
Continuous
370
    20
390
1D
347
266
1001
AcAecLayerStandard
1000

1000

  0
ENDTAB
  0
TABLE
  2
STYLE
  5
3
330
0
100
AcDbSymbolTable
 70
     2
  0
STYLE
  5
17
330
3
100
AcDbSymbolTableRecord
100
AcDbTextStyleTableRecord
  2
Standard
 70
     0
 40
0.0
 41
1.0
 50
0.0
 71
     0
 42
2.5
  3
txt
  4
BIGFONT.SHX
  0
STYLE
  5
39
330
3
100
AcDbSymbolTableRecord
100
AcDbTextStyleTableRecord
  2
ＭＳ ゴシック
 70
     0
 40
0.0
 41
1.0
 50
0.0
 71
     0
 42
2.5
  3
msgothic.ttc
  4
ＭＳ ゴシック
1001
ACAD
1000
ＭＳ ゴシック
1071
        0
  0
ENDTAB
  0
TABLE
  2
VIEW
  5
5
330
0
100
AcDbSymbolTable
 70
     0
  0
ENDTAB
  0
TABLE
  2
UCS
  5
6
330
0
100
AcDbSymbolTable
 70
     0
  0
ENDTAB
  0
TABLE
  2
APPID
  5
8
330
0
100
AcDbSymbolTable
 70
     3
  0
APPID
  5
16
330
8
100
AcDbSymbolTableRecord
100
AcDbRegAppTableRecord
  2
ACAD
 70
     0
  0
APPID
  5
7AC
330
8
100
AcDbSymbolTableRecord
100
AcDbRegAppTableRecord
  2
AcAecLayerStandard
 70
     0
  0
APPID
  5
5D01
330
8
100
AcDbSymbolTableRecord
100
AcDbRegAppTableRecord
  2
ACAD_MLEADERVER
 70
     0
  0
ENDTAB
  0
TABLE
  2
DIMSTYLE
  5
9
330
0
100
AcDbSymbolTable
 70
     2
100
AcDbDimStyleTable
  0
DIMSTYLE
105
18
330
9
100
AcDbSymbolTableRecord
100
AcDbDimStyleTableRecord
  2
Standard
 70
     0
178
     0
340
17
  0
DIMSTYLE
105
57
102
{ACAD_REACTORS
330
4A6C
330
4A99
330
4AD2
330
4EF1
330
5474
330
5483
330
5907
330
5908
330
5909
330
5988
330
5BD5
330
5C8E
330
5C94
102
}
330
9
100
AcDbSymbolTableRecord
100
AcDbDimStyleTableRecord
  2
tfrom線あり
 70
     0
  3
<>
  4
[]
 41
1.5
 42
5.0
 43
0.9999999999999999
 44
0.0
 73
     0
 74
     0
 77
     1
 78
    11
140
5.0
141
0.0
143
1.0
147
2.0
171
     1
174
     1
178
     0
179
     2
271
     0
272
     1
276
     2
284
    11
285
    11
286
    11
289
     0
340
39
341
4E
342
4E
  0
ENDTAB
  0
TABLE
  2
BLOCK_RECORD
  5
1
330
0
100
AcDbSymbolTable
 70
    31
  0
BLOCK_RECORD
  5
A
102
{ACAD_XDICTIONARY
360
5D6C
102
}
330
1
100
AcDbSymbolTableRecord
100
AcDbBlockTableRecord
  2
*MODEL_SPACE
340
20
 70
     0
280
     1
281
     0
  0
BLOCK_RECORD
  5
B
330
1
100
AcDbSymbolTableRecord
100
AcDbBlockTableRecord
  2
*PAPER_SPACE
340
21
 70
     0
280
     1
281
     0
  0
BLOCK_RECORD
  5
4E
330
1
100
AcDbSymbolTableRecord
100
AcDbBlockTableRecord
  2
_DOT
340
0
102
{BLKREFS
331
4A75
331
4A76
331
4AA2
331
4AA3
331
4ADB
331
4ADC
331
4CB4
331
4CB5
331
4EFA
331
4EFB
331
547D
331
547E
331
548C
331
548D
331
56DD
331
56DE
331
56E7
331
56E8
331
56F4
331
56F5
331
5701
331
5702
331
5710
331
5711
331
576C
331
576D
331
57A1
331
57A2
331
57AD
331
57AE
331
57BA
331
57BB
331
5845
331
5846
331
5A81
331
5A82
331
5AE7
331
5AE8
331
5BCB
331
5BCC
331
5BDD
331
5BDE
331
5C68
331
5C69
331
5C7A
331
5C7B
331
5CA6
331
5CA7
331
5CB2
331
5CB3
102
}
 70
     0
280
     1
281
     0
  0
BLOCK_RECORD
  5
690
330
1
100
AcDbSymbolTableRecord
100
AcDbBlockTableRecord
  2
block 3
340
0
102
{BLKREFS
331
56A0
102
}
 70
     0
280
     1
281
     0
  0
BLOCK_RECORD
  5
693
330
1
100
AcDbSymbolTableRecord
100
AcDbBlockTableRecord
  2
block 4
340
0
102
{BLKREFS
331
692
102
}
 70
     0
280
     1
281
     0
  0
BLOCK_RECORD
  5
6A2
330
1
100
AcDbSymbolTableRecord
100
AcDbBlockTableRecord
  2
block 5
340
0
102
{BLKREFS
331
6A1
102
}
 70
     0
280
     1
281
     0
  0
BLOCK_RECORD
  5
4A6F
330
1
100
AcDbSymbolTableRecord
100
AcDbBlockTableRecord
  2
*D4
340
0
 70
     0
280
     1
281
     0
  0
BLOCK_RECORD
  5
4A9C
330
1
100
AcDbSymbolTableRecord
100
AcDbBlockTableRecord
  2
*D5
340
0
 70
     0
280
     1
281
     0
  0
BLOCK_RECORD
  5
4AD5
330
1
100
AcDbSymbolTableRecord
100
AcDbBlockTableRecord
  2
*D6
340
0
 70
     0
280
     1
281
     0
  0
BLOCK_RECORD
  5
4CAE
330
1
100
AcDbSymbolTableRecord
100
AcDbBlockTableRecord
  2
*D7
340
0
 70
     0
280
     1
281
     0
  0
BLOCK_RECORD
  5
4EF4
330
1
100
AcDbSymbolTableRecord
100
AcDbBlockTableRecord
  2
*D8
340
0
 70
     0
280
     1
281
     0
  0
BLOCK_RECORD
  5
5477
330
1
100
AcDbSymbolTableRecord
100
AcDbBlockTableRecord
  2
*D9
340
0
 70
     0
280
     1
281
     0
  0
BLOCK_RECORD
  5
5486
330
1
100
AcDbSymbolTableRecord
100
AcDbBlockTableRecord
  2
*D10
340
0
 70
     0
280
     1
281
     0
  0
BLOCK_RECORD
  5
569B
330
1
100
AcDbSymbolTableRecord
100
AcDbBlockTableRecord
  2
名称未設定-1
340
0
102
{BLKREFS
331
5876
102
}
 70
     1
280
     1
281
     0
  0
BLOCK_RECORD
  5
569E
330
1
100
AcDbSymbolTableRecord
100
AcDbBlockTableRecord
  2
block 2
340
0
102
{BLKREFS
331
569D
102
}
 70
     0
280
     1
281
     0
  0
BLOCK_RECORD
  5
56D6
330
1
100
AcDbSymbolTableRecord
100
AcDbBlockTableRecord
  2
*D13
340
0
 70
     0
280
     1
281
     0
  0
BLOCK_RECORD
  5
56E2
330
1
100
AcDbSymbolTableRecord
100
AcDbBlockTableRecord
  2
*D14
340
0
 70
     0
280
     1
281
     0
  0
BLOCK_RECORD
  5
56EF
330
1
100
AcDbSymbolTableRecord
100
AcDbBlockTableRecord
  2
*D15
340
0
 70
     0
280
     1
281
     0
  0
BLOCK_RECORD
  5
56FC
330
1
100
AcDbSymbolTableRecord
100
AcDbBlockTableRecord
  2
*D16
340
0
 70
     0
280
     1
281
     0
  0
BLOCK_RECORD
  5
570B
330
1
100
AcDbSymbolTableRecord
100
AcDbBlockTableRecord
  2
*D17
340
0
 70
     0
280
     1
281
     0
  0
BLOCK_RECORD
  5
5767
330
1
100
AcDbSymbolTableRecord
100
AcDbBlockTableRecord
  2
*D18
340
0
 70
     0
280
     1
281
     0
  0
BLOCK_RECORD
  5
579B
330
1
100
AcDbSymbolTableRecord
100
AcDbBlockTableRecord
  2
*D19
340
0
 70
     0
280
     1
281
     0
  0
BLOCK_RECORD
  5
57A8
330
1
100
AcDbSymbolTableRecord
100
AcDbBlockTableRecord
  2
*D20
340
0
 70
     0
280
     1
281
     0
  0
BLOCK_RECORD
  5
57B5
330
1
100
AcDbSymbolTableRecord
100
AcDbBlockTableRecord
  2
*D21
340
0
 70
     0
280
     1
281
     0
  0
BLOCK_RECORD
  5
5840
330
1
100
AcDbSymbolTableRecord
100
AcDbBlockTableRecord
  2
*D22
340
0
 70
     0
280
     1
281
     0
  0
BLOCK_RECORD
  5
5A7B
330
1
100
AcDbSymbolTableRecord
100
AcDbBlockTableRecord
  2
*D23
340
0
 70
     0
280
     1
281
     0
  0
BLOCK_RECORD
  5
5AE0
330
1
100
AcDbSymbolTableRecord
100
AcDbBlockTableRecord
  2
*D24
340
0
 70
     0
280
     1
281
     0
  0
BLOCK_RECORD
  5
5BC5
330
1
100
AcDbSymbolTableRecord
100
AcDbBlockTableRecord
  2
*D25
340
0
 70
     0
280
     1
281
     0
  0
BLOCK_RECORD
  5
5BD6
330
1
100
AcDbSymbolTableRecord
100
AcDbBlockTableRecord
  2
*D26
340
0
 70
     0
280
     1
281
     0
  0
BLOCK_RECORD
  5
5C63
330
1
100
AcDbSymbolTableRecord
100
AcDbBlockTableRecord
  2
*D27
340
0
 70
     0
280
     1
281
     0
  0
BLOCK_RECORD
  5
5C75
330
1
100
AcDbSymbolTableRecord
100
AcDbBlockTableRecord
  2
*D28
340
0
 70
     0
280
     1
281
     0
  0
BLOCK_RECORD
  5
5CA0
330
1
100
AcDbSymbolTableRecord
100
AcDbBlockTableRecord
  2
*D29
340
0
 70
     0
280
     1
281
     0
  0
BLOCK_RECORD
  5
5CAC
330
1
100
AcDbSymbolTableRecord
100
AcDbBlockTableRecord
  2
*D30
340
0
 70
     0
280
     1
281
     0
  0
ENDTAB
  0
ENDSEC
  0
SECTION
  2
BLOCKS
  0
BLOCK
  5
D
330
A
100
AcDbEntity
  8
0
390
1D
100
AcDbBlockBegin
  2
*MODEL_SPACE
 70
     0
 10
0.0
 20
0.0
 30
0.0
  3
*MODEL_SPACE
  1
*MODEL_SPACE
  0
ENDBLK
  5
E
330
A
100
AcDbEntity
  8
0
390
1D
100
AcDbBlockEnd
  0
BLOCK
  5
F
330
B
100
AcDbEntity
 67
     1
  8
0
390
1D
100
AcDbBlockBegin
  2
*PAPER_SPACE
 70
     0
 10
0.0
 20
0.0
 30
0.0
  3
*PAPER_SPACE
  1
*PAPER_SPACE
  0
ENDBLK
  5
10
330
B
100
AcDbEntity
 67
     1
  8
0
390
1D
100
AcDbBlockEnd
  0
BLOCK
  5
5AD7
330
4E
100
AcDbEntity
  8
0
390
1D
100
AcDbBlockBegin
  2
_DOT
 70
     0
 10
0.0
 20
0.0
 30
0.0
  3
_DOT
  1
_DOT
  0
POLYLINE
  5
5AD9
330
4E
100
AcDbEntity
  8
0
  6
ByBlock
 62
     0
370
    -2
390
1D
100
AcDb2dPolyline
 66
     1
 10
0.0
 20
0.0
 30
0.0
 70
     1
 40
0.5
 41
0.5
  0
VERTEX
  5
5ADA
330
5AD9
100
AcDbEntity
  8
0
  6
ByBlock
 62
     0
370
    -2
390
1D
100
AcDbVertex
100
AcDb2dVertex
 10
-0.25
 20
0.0
 30
0.0
 42
1.0
  0
VERTEX
  5
5ADB
330
5AD9
100
AcDbEntity
  8
0
  6
ByBlock
 62
     0
370
    -2
390
1D
100
AcDbVertex
100
AcDb2dVertex
 10
0.25
 20
0.0
 30
0.0
 42
1.0
  0
SEQEND
  5
5ADC
330
5AD9
100
AcDbEntity
  8
0
390
1D
  0
LINE
  5
5ADD
330
4E
100
AcDbEntity
  8
0
  6
ByBlock
 62
     0
370
    -2
390
1D
100
AcDbLine
 10
-0.5
 20
0.0
 30
0.0
 11
-1.0
 21
0.0
 31
0.0
  0
ENDBLK
  5
5ADE
330
4E
100
AcDbEntity
  8
0
390
1D
100
AcDbBlockEnd
  0
BLOCK
  5
691
330
690
100
AcDbEntity
  8
0
100
AcDbBlockBegin
  2
block 3
 70
     0
 10
0.0
 20
0.0
 30
0.0
  3
block 3
  1
block 3
  0
INSERT
  5
692
330
690
100
AcDbEntity
  8
レイヤー 1
100
AcDbBlockReference
  2
block 4
 10
0.0
 20
0.0
 30
0.0
  0
ENDBLK
  5
6AF
330
690
100
AcDbEntity
  8
0
100
AcDbBlockEnd
  0
BLOCK
  5
694
330
693
100
AcDbEntity
  8
0
100
AcDbBlockBegin
  2
block 4
 70
     0
 10
0.0
 20
0.0
 30
0.0
  3
block 4
  1
block 4
  0
POLYLINE
  5
695
330
693
100
AcDbEntity
  8
レイヤー 1
370
     0
100
AcDb2dPolyline
 66
     1
 10
0.0
 20
0.0
 30
0.0
  0
VERTEX
  5
696
330
695
100
AcDbEntity
  8
レイヤー 1
370
     0
100
AcDbVertex
100
AcDb2dVertex
 10
83.79545727667795
 20
167.6444858234922
 30
0.0
  0
VERTEX
  5
697
330
695
100
AcDbEntity
  8
レイヤー 1
370
     0
100
AcDbVertex
100
AcDb2dVertex
 10
83.79545727667795
 20
159.7968976406313
 30
0.0
  0
VERTEX
  5
698
330
695
100
AcDbEntity
  8
レイヤー 1
370
     0
100
AcDbVertex
100
AcDb2dVertex
 10
71.3631329975216
 20
159.7968976406313
 30
0.0
  0
VERTEX
  5
699
330
695
100
AcDbEntity
  8
レイヤー 1
370
     0
100
AcDbVertex
100
AcDb2dVertex
 10
71.3631329975216
 20
127.8027915271048
 30
0.0
  0
VERTEX
  5
69A
330
695
100
AcDbEntity
  8
レイヤー 1
370
     0
100
AcDbVertex
100
AcDb2dVertex
 10
60.43011526263018
 20
127.8027915271048
 30
0.0
  0
VERTEX
  5
69B
330
695
100
AcDbEntity
  8
レイヤー 1
370
     0
100
AcDbVertex
100
AcDb2dVertex
 10
60.43011526263018
 20
159.7968976406313
 30
0.0
  0
VERTEX
  5
69C
330
695
100
AcDbEntity
  8
レイヤー 1
370
     0
100
AcDbVertex
100
AcDb2dVertex
 10
48.21793273020759
 20
159.7968976406313
 30
0.0
  0
VERTEX
  5
69D
330
695
100
AcDbEntity
  8
レイヤー 1
370
     0
100
AcDbVertex
100
AcDb2dVertex
 10
48.21793273020759
 20
167.6444858234922
 30
0.0
  0
VERTEX
  5
69E
330
695
100
AcDbEntity
  8
レイヤー 1
370
     0
100
AcDbVertex
100
AcDb2dVertex
 10
83.79545727667795
 20
167.6444858234922
 30
0.0
  0
SEQEND
  5
69F
330
695
100
AcDbEntity
  8
レイヤー 1
370
     0
  0
HATCH
  5
6A0
330
693
100
AcDbEntity
  8
レイヤー 1
 62
   250
420
  2234388
100
AcDbHatch
 10
0.0
 20
0.0
 30
0.0
210
0.0
220
0.0
230
1.0
  2
SOLID
 70
     1
 71
     0
 91
        1
 92
        1
 93
        8
 72
     1
 10
83.79545727667795
 20
167.6444858234922
 11
83.79545727667795
 21
159.7968976406313
 72
     1
 10
83.79545727667795
 20
159.7968976406313
 11
71.3631329975216
 21
159.7968976406313
 72
     1
 10
71.3631329975216
 20
159.7968976406313
 11
71.3631329975216
 21
127.8027915271048
 72
     1
 10
71.3631329975216
 20
127.8027915271048
 11
60.43011526263018
 21
127.8027915271048
 72
     1
 10
60.43011526263018
 20
127.8027915271048
 11
60.43011526263018
 21
159.7968976406313
 72
     1
 10
60.43011526263018
 20
159.7968976406313
 11
48.21793273020759
 21
159.7968976406313
 72
     1
 10
48.21793273020759
 20
159.7968976406313
 11
48.21793273020759
 21
167.6444858234922
 72
     1
 10
48.21793273020759
 20
167.6444858234922
 11
83.79545727667795
 21
167.6444858234922
 97
        0
 75
     2
 76
     1
 98
        0
  0
INSERT
  5
6A1
330
693
100
AcDbEntity
  8
レイヤー 1
100
AcDbBlockReference
  2
block 5
 10
0.0
 20
0.0
 30
0.0
  0
ENDBLK
  5
6AE
330
693
100
AcDbEntity
  8
0
100
AcDbBlockEnd
  0
BLOCK
  5
6A3
330
6A2
100
AcDbEntity
  8
0
100
AcDbBlockBegin
  2
block 5
 70
     0
 10
0.0
 20
0.0
 30
0.0
  3
block 5
  1
block 5
  0
SPLINE
  5
6A4
330
6A2
100
AcDbEntity
  8
レイヤー 1
370
     0
100
AcDbSpline
210
0.0
220
0.0
230
1.0
 70
    11
 71
     3
 72
    56
 73
    52
 74
     0
 42
0.000000001
 43
0.0000000001
 40
0.0
 40
0.0
 40
0.0
 40
0.0
 40
1.0
 40
1.0
 40
1.0
 40
2.0
 40
2.0
 40
2.0
 40
3.0
 40
3.0
 40
3.0
 40
4.0
 40
4.0
 40
4.0
 40
5.0
 40
5.0
 40
5.0
 40
6.0
 40
6.0
 40
6.0
 40
7.0
 40
7.0
 40
7.0
 40
8.0
 40
8.0
 40
8.0
 40
9.0
 40
9.0
 40
9.0
 40
10.0
 40
10.0
 40
10.0
 40
11.0
 40
11.0
 40
11.0
 40
12.0
 40
12.0
 40
12.0
 40
13.0
 40
13.0
 40
13.0
 40
14.0
 40
14.0
 40
14.0
 40
15.0
 40
15.0
 40
15.0
 40
16.0
 40
16.0
 40
16.0
 40
17.0
 40
17.0
 40
17.0
 40
17.0
 10
100.4504378777679
 20
166.69157178364
 30
0.0
 10
101.9848844191641
 20
167.1313385124438
 30
0.0
 10
103.9637485713373
 20
166.7649523658846
 30
0.0
 10
103.9637485713373
 20
166.7649523658846
 30
0.0
 10
103.9637485713373
 20
166.7649523658846
 30
0.0
 10
103.0132460999156
 20
163.911205638077
 30
0.0
 10
103.0132460999156
 20
163.911205638077
 30
0.0
 10
103.0132460999156
 20
163.911205638077
 30
0.0
 10
101.0674548862189
 20
164.3601018759394
 30
0.0
 10
99.57090442016032
 20
163.1805004036133
 30
0.0
 10
98.40508333886608
 20
162.258247733807
 30
0.0
 10
97.65301849830304
 20
159.804132345923
 30
0.0
 10
97.3598406791005
 20
158.8699940888517
 30
0.0
 10
97.3598406791005
 20
158.8699940888517
 30
0.0
 10
96.07137411762282
 20
154.9119212747295
 30
0.0
 10
96.07137411762282
 20
154.9119212747295
 30
0.0
 10
96.07137411762282
 20
154.9119212747295
 30
0.0
 10
100.3012651448482
 20
154.9119212747295
 30
0.0
 10
100.3012651448482
 20
154.9119212747295
 30
0.0
 10
100.3012651448482
 20
154.9119212747295
 30
0.0
 10
99.64152892419852
 20
152.4199098115079
 30
0.0
 10
99.64152892419852
 20
152.4199098115079
 30
0.0
 10
99.64152892419852
 20
152.4199098115079
 30
0.0
 10
95.38097652692731
 20
152.4199098115079
 30
0.0
 10
95.38097652692731
 20
152.4199098115079
 30
0.0
 10
95.38097652692731
 20
152.4199098115079
 30
0.0
 10
87.75353009080013
 20
127.8027915271048
 30
0.0
 10
87.75353009080013
 20
127.8027915271048
 30
0.0
 10
87.75353009080013
 20
127.8027915271048
 30
0.0
 10
85.36538832498108
 20
127.8027915271048
 30
0.0
 10
85.36538832498108
 20
127.8027915271048
 30
0.0
 10
85.36538832498108
 20
127.8027915271048
 30
0.0
 10
93.00006946639998
 20
152.4199098115079
 30
0.0
 10
93.00006946639998
 20
152.4199098115079
 30
0.0
 10
93.00006946639998
 20
152.4199098115079
 30
0.0
 10
89.85297266450198
 20
152.4199098115079
 30
0.0
 10
89.85297266450198
 20
152.4199098115079
 30
0.0
 10
89.85297266450198
 20
152.4199098115079
 30
0.0
 10
90.51270888515164
 20
154.9119212747295
 30
0.0
 10
90.51270888515164
 20
154.9119212747295
 30
0.0
 10
90.51270888515164
 20
154.9119212747295
 30
0.0
 10
93.6904670570955
 20
154.9119212747295
 30
0.0
 10
93.6904670570955
 20
154.9119212747295
 30
0.0
 10
93.6904670570955
 20
154.9119212747295
 30
0.0
 10
94.81598049462158
 20
158.3616699146644
 30
0.0
 10
94.81598049462158
 20
158.3616699146644
 30
0.0
 10
95.7237637538445
 20
161.2605474231013
 30
0.0
 10
96.4968436907311
 20
162.8139420021662
 30
0.0
 10
97.15657991138076
 20
163.9844139654337
 30
0.0
 10
97.81183750494507
 20
165.1523021053827
 30
0.0
 10
99.1047826935081
 20
166.3084769129547
 30
0.0
 10
100.4504378777679
 20
166.69157178364
 30
0.0
  0
HATCH
  5
6A5
330
6A2
100
AcDbEntity
  8
レイヤー 1
 62
   250
420
  2234388
100
AcDbHatch
 10
0.0
 20
0.0
 30
0.0
210
0.0
220
0.0
230
1.0
  2
SOLID
 70
     1
 71
     0
 91
        1
 92
        1
 93
        1
 72
     4
 94
        3
 73
     0
 74
     1
 95
       56
 96
       52
 40
0.0
 40
0.0
 40
0.0
 40
0.0
 40
1.0
 40
1.0
 40
1.0
 40
2.0
 40
2.0
 40
2.0
 40
3.0
 40
3.0
 40
3.0
 40
4.0
 40
4.0
 40
4.0
 40
5.0
 40
5.0
 40
5.0
 40
6.0
 40
6.0
 40
6.0
 40
7.0
 40
7.0
 40
7.0
 40
8.0
 40
8.0
 40
8.0
 40
9.0
 40
9.0
 40
9.0
 40
10.0
 40
10.0
 40
10.0
 40
11.0
 40
11.0
 40
11.0
 40
12.0
 40
12.0
 40
12.0
 40
13.0
 40
13.0
 40
13.0
 40
14.0
 40
14.0
 40
14.0
 40
15.0
 40
15.0
 40
15.0
 40
16.0
 40
16.0
 40
16.0
 40
17.0
 40
17.0
 40
17.0
 40
17.0
 10
100.4504378777679
 20
166.69157178364
 10
101.9848844191641
 20
167.1313385124438
 10
103.9637485713373
 20
166.7649523658846
 10
103.9637485713373
 20
166.7649523658846
 10
103.9637485713373
 20
166.7649523658846
 10
103.0132460999156
 20
163.911205638077
 10
103.0132460999156
 20
163.911205638077
 10
103.0132460999156
 20
163.911205638077
 10
101.0674548862189
 20
164.3601018759394
 10
99.57090442016032
 20
163.1805004036133
 10
98.40508333886608
 20
162.258247733807
 10
97.65301849830304
 20
159.804132345923
 10
97.3598406791005
 20
158.8699940888517
 10
97.3598406791005
 20
158.8699940888517
 10
96.07137411762282
 20
154.9119212747295
 10
96.07137411762282
 20
154.9119212747295
 10
96.07137411762282
 20
154.9119212747295
 10
100.3012651448482
 20
154.9119212747295
 10
100.3012651448482
 20
154.9119212747295
 10
100.3012651448482
 20
154.9119212747295
 10
99.64152892419852
 20
152.4199098115079
 10
99.64152892419852
 20
152.4199098115079
 10
99.64152892419852
 20
152.4199098115079
 10
95.38097652692731
 20
152.4199098115079
 10
95.38097652692731
 20
152.4199098115079
 10
95.38097652692731
 20
152.4199098115079
 10
87.75353009080013
 20
127.8027915271048
 10
87.75353009080013
 20
127.8027915271048
 10
87.75353009080013
 20
127.8027915271048
 10
85.36538832498108
 20
127.8027915271048
 10
85.36538832498108
 20
127.8027915271048
 10
85.36538832498108
 20
127.8027915271048
 10
93.00006946639998
 20
152.4199098115079
 10
93.00006946639998
 20
152.4199098115079
 10
93.00006946639998
 20
152.4199098115079
 10
89.85297266450198
 20
152.4199098115079
 10
89.85297266450198
 20
152.4199098115079
 10
89.85297266450198
 20
152.4199098115079
 10
90.51270888515164
 20
154.9119212747295
 10
90.51270888515164
 20
154.9119212747295
 10
90.51270888515164
 20
154.9119212747295
 10
93.6904670570955
 20
154.9119212747295
 10
93.6904670570955
 20
154.9119212747295
 10
93.6904670570955
 20
154.9119212747295
 10
94.81598049462158
 20
158.3616699146644
 10
94.81598049462158
 20
158.3616699146644
 10
95.7237637538445
 20
161.2605474231013
 10
96.4968436907311
 20
162.8139420021662
 10
97.15657991138076
 20
163.9844139654337
 10
97.81183750494507
 20
165.1523021053827
 10
99.1047826935081
 20
166.3084769129547
 10
100.4504378777679
 20
166.69157178364
 97
        0
 75
     2
 76
     1
 98
        0
  0
SPLINE
  5
6A6
330
6A2
100
AcDbEntity
  8
レイヤー 1
370
     0
100
AcDbSpline
210
0.0
220
0.0
230
1.0
 70
    11
 71
     3
 72
    38
 73
    34
 74
     0
 42
0.000000001
 43
0.0000000001
 40
0.0
 40
0.0
 40
0.0
 40
0.0
 40
1.0
 40
1.0
 40
1.0
 40
2.0
 40
2.0
 40
2.0
 40
3.0
 40
3.0
 40
3.0
 40
4.0
 40
4.0
 40
4.0
 40
5.0
 40
5.0
 40
5.0
 40
6.0
 40
6.0
 40
6.0
 40
7.0
 40
7.0
 40
7.0
 40
8.0
 40
8.0
 40
8.0
 40
9.0
 40
9.0
 40
9.0
 40
10.0
 40
10.0
 40
10.0
 40
11.0
 40
11.0
 40
11.0
 40
11.0
 10
126.377554584636
 20
154.8151140277308
 30
0.0
 10
126.377554584636
 20
154.8151140277308
 30
0.0
 10
128.8311532078563
 20
154.8151140277308
 30
0.0
 10
128.8311532078563
 20
154.8151140277308
 30
0.0
 10
128.8311532078563
 20
154.8151140277308
 30
0.0
 10
127.7345785914971
 20
151.3062819612468
 30
0.0
 10
127.7345785914971
 20
151.3062819612468
 30
0.0
 10
128.571392836906
 20
152.2922689395754
 30
0.0
 10
129.8860421413442
 20
153.604506675583
 30
0.0
 10
131.0163787157314
 20
154.2664822097754
 30
0.0
 10
132.7044766171327
 20
155.2500576196734
 30
0.0
 10
133.6642808525008
 20
155.3847609420097
 30
0.0
 10
134.7284715499351
 20
155.3565111403944
 30
0.0
 10
134.7284715499351
 20
155.3565111403944
 30
0.0
 10
133.6877075172549
 20
152.0345756272799
 30
0.0
 10
133.6877075172549
 20
152.0345756272799
 30
0.0
 10
133.011434827367
 20
152.3184516825359
 30
0.0
 10
130.930940291334
 20
151.7768823149844
 30
0.0
 10
129.739280976855
 20
150.9162968950455
 30
0.0
 10
128.66613302525
 20
150.1454562717016
 30
0.0
 10
127.9192358313239
 20
149.4857200510519
 30
0.0
 10
127.0393578639405
 20
147.8282835196966
 30
0.0
 10
126.164647543194
 20
146.1699857139017
 30
0.0
 10
125.4742499524985
 20
143.5262176944419
 30
0.0
 10
124.2822461282437
 20
139.6959580071401
 30
0.0
 10
124.2822461282437
 20
139.6959580071401
 30
0.0
 10
120.5753209406769
 20
127.8027915271048
 30
0.0
 10
120.5753209406769
 20
127.8027915271048
 30
0.0
 10
120.5753209406769
 20
127.8027915271048
 30
0.0
 10
118.1964809388044
 20
127.8027915271048
 30
0.0
 10
118.1964809388044
 20
127.8027915271048
 30
0.0
 10
118.1964809388044
 20
127.8027915271048
 30
0.0
 10
126.377554584636
 20
154.8151140277308
 30
0.0
 10
126.377554584636
 20
154.8151140277308
 30
0.0
  0
HATCH
  5
6A7
330
6A2
100
AcDbEntity
  8
レイヤー 1
 62
   250
420
  2234388
100
AcDbHatch
 10
0.0
 20
0.0
 30
0.0
210
0.0
220
0.0
230
1.0
  2
SOLID
 70
     1
 71
     0
 91
        1
 92
        1
 93
        1
 72
     4
 94
        3
 73
     0
 74
     1
 95
       38
 96
       34
 40
0.0
 40
0.0
 40
0.0
 40
0.0
 40
1.0
 40
1.0
 40
1.0
 40
2.0
 40
2.0
 40
2.0
 40
3.0
 40
3.0
 40
3.0
 40
4.0
 40
4.0
 40
4.0
 40
5.0
 40
5.0
 40
5.0
 40
6.0
 40
6.0
 40
6.0
 40
7.0
 40
7.0
 40
7.0
 40
8.0
 40
8.0
 40
8.0
 40
9.0
 40
9.0
 40
9.0
 40
10.0
 40
10.0
 40
10.0
 40
11.0
 40
11.0
 40
11.0
 40
11.0
 10
126.377554584636
 20
154.8151140277308
 10
126.377554584636
 20
154.8151140277308
 10
128.8311532078563
 20
154.8151140277308
 10
128.8311532078563
 20
154.8151140277308
 10
128.8311532078563
 20
154.8151140277308
 10
127.7345785914971
 20
151.3062819612468
 10
127.7345785914971
 20
151.3062819612468
 10
128.571392836906
 20
152.2922689395754
 10
129.8860421413442
 20
153.604506675583
 10
131.0163787157314
 20
154.2664822097754
 10
132.7044766171327
 20
155.2500576196734
 10
133.6642808525008
 20
155.3847609420097
 10
134.7284715499351
 20
155.3565111403944
 10
134.7284715499351
 20
155.3565111403944
 10
133.6877075172549
 20
152.0345756272799
 10
133.6877075172549
 20
152.0345756272799
 10
133.011434827367
 20
152.3184516825359
 10
130.930940291334
 20
151.7768823149844
 10
129.739280976855
 20
150.9162968950455
 10
128.66613302525
 20
150.1454562717016
 10
127.9192358313239
 20
149.4857200510519
 10
127.0393578639405
 20
147.8282835196966
 10
126.164647543194
 20
146.1699857139017
 10
125.4742499524985
 20
143.5262176944419
 10
124.2822461282437
 20
139.6959580071401
 10
124.2822461282437
 20
139.6959580071401
 10
120.5753209406769
 20
127.8027915271048
 10
120.5753209406769
 20
127.8027915271048
 10
120.5753209406769
 20
127.8027915271048
 10
118.1964809388044
 20
127.8027915271048
 10
118.1964809388044
 20
127.8027915271048
 10
118.1964809388044
 20
127.8027915271048
 10
126.377554584636
 20
154.8151140277308
 10
126.377554584636
 20
154.8151140277308
 97
        0
 75
     2
 76
     1
 98
        0
  0
SPLINE
  5
6A8
330
6A2
100
AcDbEntity
  8
レイヤー 1
370
     0
100
AcDbSpline
210
0.0
220
0.0
230
1.0
 70
    11
 71
     3
 72
   104
 73
   100
 74
     0
 42
0.000000001
 43
0.0000000001
 40
0.0
 40
0.0
 40
0.0
 40
0.0
 40
1.0
 40
1.0
 40
1.0
 40
2.0
 40
2.0
 40
2.0
 40
3.0
 40
3.0
 40
3.0
 40
4.0
 40
4.0
 40
4.0
 40
5.0
 40
5.0
 40
5.0
 40
6.0
 40
6.0
 40
6.0
 40
7.0
 40
7.0
 40
7.0
 40
8.0
 40
8.0
 40
8.0
 40
9.0
 40
9.0
 40
9.0
 40
10.0
 40
10.0
 40
10.0
 40
11.0
 40
11.0
 40
11.0
 40
12.0
 40
12.0
 40
12.0
 40
13.0
 40
13.0
 40
13.0
 40
14.0
 40
14.0
 40
14.0
 40
15.0
 40
15.0
 40
15.0
 40
16.0
 40
16.0
 40
16.0
 40
17.0
 40
17.0
 40
17.0
 40
18.0
 40
18.0
 40
18.0
 40
19.0
 40
19.0
 40
19.0
 40
20.0
 40
20.0
 40
20.0
 40
21.0
 40
21.0
 40
21.0
 40
22.0
 40
22.0
 40
22.0
 40
23.0
 40
23.0
 40
23.0
 40
24.0
 40
24.0
 40
24.0
 40
25.0
 40
25.0
 40
25.0
 40
26.0
 40
26.0
 40
26.0
 40
27.0
 40
27.0
 40
27.0
 40
28.0
 40
28.0
 40
28.0
 40
29.0
 40
29.0
 40
29.0
 40
30.0
 40
30.0
 40
30.0
 40
31.0
 40
31.0
 40
31.0
 40
32.0
 40
32.0
 40
32.0
 40
33.0
 40
33.0
 40
33.0
 40
33.0
 10
139.8926730891197
 20
154.8294111834263
 30
0.0
 10
139.8926730891197
 20
154.8294111834263
 30
0.0
 10
142.0344903652445
 20
154.8294111834263
 30
0.0
 10
142.0344903652445
 20
154.8294111834263
 30
0.0
 10
142.0344903652445
 20
154.8294111834263
 30
0.0
 10
140.9516961399171
 20
151.3157559800812
 30
0.0
 10
140.9516961399171
 20
151.3157559800812
 30
0.0
 10
141.8928968473923
 20
152.7887075264977
 30
0.0
 10
142.7341897198865
 20
153.4484437471474
 30
0.0
 10
143.8552245303272
 20
154.2926649527359
 30
0.0
 10
144.9803934580775
 20
155.1296514530327
 30
0.0
 10
146.3139908001845
 20
155.3044901642492
 30
0.0
 10
147.241066606852
 20
155.3044901642492
 30
0.0
 10
148.3855280820469
 20
155.3044901642492
 30
0.0
 10
149.4969166187653
 20
155.0752189084569
 30
0.0
 10
150.0784491203092
 20
153.8172414621372
 30
0.0
 10
150.5228667310863
 20
152.833838307127
 30
0.0
 10
150.5414702589793
 20
152.7201500811143
 30
0.0
 10
150.4140016419347
 20
150.7765981809602
 30
0.0
 10
151.5818897818837
 20
152.7699317437168
 30
0.0
 10
152.4424752018226
 20
153.6256940267945
 30
0.0
 10
153.9038856707499
 20
154.4507949398263
 30
0.0
 10
155.4455669174378
 20
155.3044901642492
 30
0.0
 10
156.339225275853
 20
155.3659851592288
 30
0.0
 10
157.3748216618963
 20
155.2147453676543
 30
0.0
 10
158.911679771723
 20
154.9877134254046
 30
0.0
 10
159.8859534176746
 20
154.4390816074493
 30
0.0
 10
160.3965169054045
 20
152.7816450760939
 30
0.0
 10
160.9070803931344
 20
151.1219692311958
 30
0.0
 10
160.6328506116007
 20
150.2303779314354
 30
0.0
 10
159.9992971339115
 20
147.597634224801
 30
0.0
 10
159.7105979417943
 20
146.4014962832367
 30
0.0
 10
159.2947746424084
 20
144.9400858143094
 30
0.0
 10
158.7463150793409
 20
143.2092687007094
 30
0.0
 10
158.7463150793409
 20
143.2092687007094
 30
0.0
 10
153.9038856707499
 20
127.8027915271048
 30
0.0
 10
153.9038856707499
 20
127.8027915271048
 30
0.0
 10
153.9038856707499
 20
127.8027915271048
 30
0.0
 10
151.3882752878863
 20
127.8027915271048
 30
0.0
 10
151.3882752878863
 20
127.8027915271048
 30
0.0
 10
151.3882752878863
 20
127.8027915271048
 30
0.0
 10
155.6250565106276
 20
141.2751908193897
 30
0.0
 10
155.6250565106276
 20
141.2751908193897
 30
0.0
 10
156.5094131050963
 20
144.0936252951782
 30
0.0
 10
157.109893644309
 20
146.1506931664571
 30
0.0
 10
157.4220195011804
 20
147.4415712963654
 30
0.0
 10
157.8095929989511
 20
149.0530157726519
 30
0.0
 10
157.9656559273867
 20
149.5826995529385
 30
0.0
 10
157.7816877071116
 20
150.7529992613181
 30
0.0
 10
157.6111553680925
 20
151.8430281919372
 30
0.0
 10
157.0582171779396
 20
152.5547853887321
 30
0.0
 10
156.1170164704645
 20
152.5547853887321
 30
0.0
 10
155.1096698860365
 20
152.5547853887321
 30
0.0
 10
154.2962823053817
 20
152.4412694176073
 30
0.0
 10
153.156643967048
 20
151.2945686288697
 30
0.0
 10
152.0170056287143
 20
150.1476955852443
 30
0.0
 10
151.076149431015
 20
148.7930831468137
 30
0.0
 10
150.3337308641742
 20
147.2290087646991
 30
0.0
 10
149.5957909244188
 20
145.6683794803425
 30
0.0
 10
148.8530278478023
 20
143.6822806228776
 30
0.0
 10
148.0964843801539
 20
141.2751908193897
 30
0.0
 10
148.0964843801539
 20
141.2751908193897
 30
0.0
 10
143.8552245303272
 20
127.8027915271048
 30
0.0
 10
143.8552245303272
 20
127.8027915271048
 30
0.0
 10
143.8552245303272
 20
127.8027915271048
 30
0.0
 10
141.486030802177
 20
127.8027915271048
 30
0.0
 10
141.486030802177
 20
127.8027915271048
 30
0.0
 10
141.486030802177
 20
127.8027915271048
 30
0.0
 10
146.3329388378533
 20
143.2092687007094
 30
0.0
 10
146.3329388378533
 20
143.2092687007094
 30
0.0
 10
146.8483254624444
 20
144.8408669988801
 30
0.0
 10
147.2314203331297
 20
146.1837661049335
 30
0.0
 10
147.4867020769946
 20
147.224185627838
 30
0.0
 10
147.9169947869641
 20
149.0197705792876
 30
0.0
 10
148.0306830129768
 20
150.2400242051577
 30
0.0
 10
147.709255392159
 20
151.3157559800812
 30
0.0
 10
147.3874832615654
 20
152.3916600098926
 30
0.0
 10
146.8245542879144
 20
152.6683013598569
 30
0.0
 10
145.8840425999909
 20
152.6683013598569
 30
0.0
 10
145.0989048209514
 20
152.6683013598569
 30
0.0
 10
144.3282364524954
 20
152.3275811915945
 30
0.0
 10
143.4531816219731
 20
151.6538923250251
 30
0.0
 10
142.34627171234
 20
150.8074318058939
 30
0.0
 10
141.901854101563
 20
150.1097995099067
 30
0.0
 10
141.3578731655808
 20
149.289521733736
 30
0.0
 10
140.6299240093235
 20
148.192602607601
 30
0.0
 10
140.2850697237515
 20
147.455696197173
 30
0.0
 10
139.6652966370942
 20
145.8385673095858
 30
0.0
 10
139.0506911970739
 20
144.2214384219986
 30
0.0
 10
138.463991048893
 20
142.3252566160164
 30
0.0
 10
138.0571250036777
 20
141.0154304484394
 30
0.0
 10
138.0571250036777
 20
141.0154304484394
 30
0.0
 10
133.9009590684727
 20
127.8027915271048
 30
0.0
 10
133.9009590684727
 20
127.8027915271048
 30
0.0
 10
133.9009590684727
 20
127.8027915271048
 30
0.0
 10
131.4180771143097
 20
127.8027915271048
 30
0.0
 10
131.4180771143097
 20
127.8027915271048
 30
0.0
 10
131.4180771143097
 20
127.8027915271048
 30
0.0
 10
139.8926730891197
 20
154.8294111834263
 30
0.0
 10
139.8926730891197
 20
154.8294111834263
 30
0.0
  0
HATCH
  5
6A9
330
6A2
100
AcDbEntity
  8
レイヤー 1
 62
   250
420
  2234388
100
AcDbHatch
 10
0.0
 20
0.0
 30
0.0
210
0.0
220
0.0
230
1.0
  2
SOLID
 70
     1
 71
     0
 91
        1
 92
        1
 93
        1
 72
     4
 94
        3
 73
     0
 74
     1
 95
      104
 96
      100
 40
0.0
 40
0.0
 40
0.0
 40
0.0
 40
1.0
 40
1.0
 40
1.0
 40
2.0
 40
2.0
 40
2.0
 40
3.0
 40
3.0
 40
3.0
 40
4.0
 40
4.0
 40
4.0
 40
5.0
 40
5.0
 40
5.0
 40
6.0
 40
6.0
 40
6.0
 40
7.0
 40
7.0
 40
7.0
 40
8.0
 40
8.0
 40
8.0
 40
9.0
 40
9.0
 40
9.0
 40
10.0
 40
10.0
 40
10.0
 40
11.0
 40
11.0
 40
11.0
 40
12.0
 40
12.0
 40
12.0
 40
13.0
 40
13.0
 40
13.0
 40
14.0
 40
14.0
 40
14.0
 40
15.0
 40
15.0
 40
15.0
 40
16.0
 40
16.0
 40
16.0
 40
17.0
 40
17.0
 40
17.0
 40
18.0
 40
18.0
 40
18.0
 40
19.0
 40
19.0
 40
19.0
 40
20.0
 40
20.0
 40
20.0
 40
21.0
 40
21.0
 40
21.0
 40
22.0
 40
22.0
 40
22.0
 40
23.0
 40
23.0
 40
23.0
 40
24.0
 40
24.0
 40
24.0
 40
25.0
 40
25.0
 40
25.0
 40
26.0
 40
26.0
 40
26.0
 40
27.0
 40
27.0
 40
27.0
 40
28.0
 40
28.0
 40
28.0
 40
29.0
 40
29.0
 40
29.0
 40
30.0
 40
30.0
 40
30.0
 40
31.0
 40
31.0
 40
31.0
 40
32.0
 40
32.0
 40
32.0
 40
33.0
 40
33.0
 40
33.0
 40
33.0
 10
139.8926730891197
 20
154.8294111834263
 10
139.8926730891197
 20
154.8294111834263
 10
142.0344903652445
 20
154.8294111834263
 10
142.0344903652445
 20
154.8294111834263
 10
142.0344903652445
 20
154.8294111834263
 10
140.9516961399171
 20
151.3157559800812
 10
140.9516961399171
 20
151.3157559800812
 10
141.8928968473923
 20
152.7887075264977
 10
142.7341897198865
 20
153.4484437471474
 10
143.8552245303272
 20
154.2926649527359
 10
144.9803934580775
 20
155.1296514530327
 10
146.3139908001845
 20
155.3044901642492
 10
147.241066606852
 20
155.3044901642492
 10
148.3855280820469
 20
155.3044901642492
 10
149.4969166187653
 20
155.0752189084569
 10
150.0784491203092
 20
153.8172414621372
 10
150.5228667310863
 20
152.833838307127
 10
150.5414702589793
 20
152.7201500811143
 10
150.4140016419347
 20
150.7765981809602
 10
151.5818897818837
 20
152.7699317437168
 10
152.4424752018226
 20
153.6256940267945
 10
153.9038856707499
 20
154.4507949398263
 10
155.4455669174378
 20
155.3044901642492
 10
156.339225275853
 20
155.3659851592288
 10
157.3748216618963
 20
155.2147453676543
 10
158.911679771723
 20
154.9877134254046
 10
159.8859534176746
 20
154.4390816074493
 10
160.3965169054045
 20
152.7816450760939
 10
160.9070803931344
 20
151.1219692311958
 10
160.6328506116007
 20
150.2303779314354
 10
159.9992971339115
 20
147.597634224801
 10
159.7105979417943
 20
146.4014962832367
 10
159.2947746424084
 20
144.9400858143094
 10
158.7463150793409
 20
143.2092687007094
 10
158.7463150793409
 20
143.2092687007094
 10
153.9038856707499
 20
127.8027915271048
 10
153.9038856707499
 20
127.8027915271048
 10
153.9038856707499
 20
127.8027915271048
 10
151.3882752878863
 20
127.8027915271048
 10
151.3882752878863
 20
127.8027915271048
 10
151.3882752878863
 20
127.8027915271048
 10
155.6250565106276
 20
141.2751908193897
 10
155.6250565106276
 20
141.2751908193897
 10
156.5094131050963
 20
144.0936252951782
 10
157.109893644309
 20
146.1506931664571
 10
157.4220195011804
 20
147.4415712963654
 10
157.8095929989511
 20
149.0530157726519
 10
157.9656559273867
 20
149.5826995529385
 10
157.7816877071116
 20
150.7529992613181
 10
157.6111553680925
 20
151.8430281919372
 10
157.0582171779396
 20
152.5547853887321
 10
156.1170164704645
 20
152.5547853887321
 10
155.1096698860365
 20
152.5547853887321
 10
154.2962823053817
 20
152.4412694176073
 10
153.156643967048
 20
151.2945686288697
 10
152.0170056287143
 20
150.1476955852443
 10
151.076149431015
 20
148.7930831468137
 10
150.3337308641742
 20
147.2290087646991
 10
149.5957909244188
 20
145.6683794803425
 10
148.8530278478023
 20
143.6822806228776
 10
148.0964843801539
 20
141.2751908193897
 10
148.0964843801539
 20
141.2751908193897
 10
143.8552245303272
 20
127.8027915271048
 10
143.8552245303272
 20
127.8027915271048
 10
143.8552245303272
 20
127.8027915271048
 10
141.486030802177
 20
127.8027915271048
 10
141.486030802177
 20
127.8027915271048
 10
141.486030802177
 20
127.8027915271048
 10
146.3329388378533
 20
143.2092687007094
 10
146.3329388378533
 20
143.2092687007094
 10
146.8483254624444
 20
144.8408669988801
 10
147.2314203331297
 20
146.1837661049335
 10
147.4867020769946
 20
147.224185627838
 10
147.9169947869641
 20
149.0197705792876
 10
148.0306830129768
 20
150.2400242051577
 10
147.709255392159
 20
151.3157559800812
 10
147.3874832615654
 20
152.3916600098926
 10
146.8245542879144
 20
152.6683013598569
 10
145.8840425999909
 20
152.6683013598569
 10
145.0989048209514
 20
152.6683013598569
 10
144.3282364524954
 20
152.3275811915945
 10
143.4531816219731
 20
151.6538923250251
 10
142.34627171234
 20
150.8074318058939
 10
141.901854101563
 20
150.1097995099067
 10
141.3578731655808
 20
149.289521733736
 10
140.6299240093235
 20
148.192602607601
 10
140.2850697237515
 20
147.455696197173
 10
139.6652966370942
 20
145.8385673095858
 10
139.0506911970739
 20
144.2214384219986
 10
138.463991048893
 20
142.3252566160164
 10
138.0571250036777
 20
141.0154304484394
 10
138.0571250036777
 20
141.0154304484394
 10
133.9009590684727
 20
127.8027915271048
 10
133.9009590684727
 20
127.8027915271048
 10
133.9009590684727
 20
127.8027915271048
 10
131.4180771143097
 20
127.8027915271048
 10
131.4180771143097
 20
127.8027915271048
 10
131.4180771143097
 20
127.8027915271048
 10
139.8926730891197
 20
154.8294111834263
 10
139.8926730891197
 20
154.8294111834263
 97
        0
 75
     2
 76
     1
 98
        0
  0
SPLINE
  5
6AA
330
6A2
100
AcDbEntity
  8
レイヤー 1
370
     0
100
AcDbSpline
210
0.0
220
0.0
230
1.0
 70
    11
 71
     3
 72
    29
 73
    25
 74
     0
 42
0.000000001
 43
0.0000000001
 40
0.0
 40
0.0
 40
0.0
 40
0.0
 40
1.0
 40
1.0
 40
1.0
 40
2.0
 40
2.0
 40
2.0
 40
3.0
 40
3.0
 40
3.0
 40
4.0
 40
4.0
 40
4.0
 40
5.0
 40
5.0
 40
5.0
 40
6.0
 40
6.0
 40
6.0
 40
7.0
 40
7.0
 40
7.0
 40
8.0
 40
8.0
 40
8.0
 40
8.0
 10
101.6420971922469
 20
132.8388354296931
 30
0.0
 10
101.630039350094
 20
134.7164137077823
 30
0.0
 10
102.2236296937908
 20
138.0598810818841
 30
0.0
 10
103.7487744712405
 20
142.5378191476827
 30
0.0
 10
105.819967243327
 20
148.5896501242061
 30
0.0
 10
107.0602024361932
 20
150.8074318058939
 30
0.0
 10
108.1522984254671
 20
151.8833358357054
 30
0.0
 10
109.741177511439
 20
153.4532668840085
 30
0.0
 10
111.8740375333931
 20
153.5290590346837
 30
0.0
 10
112.5075910110823
 20
153.4532668840085
 30
0.0
 10
113.4012493694975
 20
153.3490526768302
 30
0.0
 10
114.6683563248758
 20
152.7580461564518
 30
0.0
 10
114.7493161221879
 20
150.7838328862519
 30
0.0
 10
114.8106388622796
 20
149.0909118479895
 30
0.0
 10
114.3186789024427
 20
145.9191825971221
 30
0.0
 10
112.6164561002338
 20
140.9489400617108
 30
0.0
 10
110.6444821435766
 20
135.1746117095912
 30
0.0
 10
109.4669477299053
 20
132.8960240524753
 30
0.0
 10
108.5212683953448
 20
131.9072809959403
 30
0.0
 10
106.7346406980658
 20
130.0538184021569
 30
0.0
 10
104.8222669326213
 20
130.2336525051225
 30
0.0
 10
104.5408024457958
 20
130.2336525051225
 30
0.0
 10
104.1721769856939
 20
130.2336525051225
 30
0.0
 10
101.6465758193322
 20
130.6305277668397
 30
0.0
 10
101.6420971922469
 20
132.8388354296931
 30
0.0
  0
SPLINE
  5
6AB
330
6A2
100
AcDbEntity
  8
レイヤー 1
370
     0
100
AcDbSpline
210
0.0
220
0.0
230
1.0
 70
    11
 71
     3
 72
    32
 73
    28
 74
     0
 42
0.000000001
 43
0.0000000001
 40
0.0
 40
0.0
 40
0.0
 40
0.0
 40
1.0
 40
1.0
 40
1.0
 40
2.0
 40
2.0
 40
2.0
 40
3.0
 40
3.0
 40
3.0
 40
4.0
 40
4.0
 40
4.0
 40
5.0
 40
5.0
 40
5.0
 40
6.0
 40
6.0
 40
6.0
 40
7.0
 40
7.0
 40
7.0
 40
8.0
 40
8.0
 40
8.0
 40
9.0
 40
9.0
 40
9.0
 40
9.0
 10
106.2595617172429
 20
153.4105476718098
 30
0.0
 10
104.8222669326213
 20
151.5474388043041
 30
0.0
 10
103.7177685914188
 20
149.8758773721411
 30
0.0
 10
101.9232171692965
 20
144.6141795664062
 30
0.0
 10
100.2754269116635
 20
139.7999999594306
 30
0.0
 10
99.22777268346732
 20
136.3052927937542
 30
0.0
 10
99.06964269637689
 20
132.039572749846
 30
0.0
 10
98.94665270641765
 20
128.8673267343149
 30
0.0
 10
100.8807305877373
 20
127.8027915271048
 30
0.0
 10
103.7129454545577
 20
127.8027915271048
 30
0.0
 10
104.9352661390825
 20
127.8027915271048
 30
0.0
 10
108.0151835347002
 20
127.8827177950895
 30
0.0
 10
110.2045431598849
 20
130.5926316915021
 30
0.0
 10
111.7417457794874
 20
132.4984597712065
 30
0.0
 10
113.155269389579
 20
134.475256864725
 30
0.0
 10
115.0562743324223
 20
140.9489400617108
 30
0.0
 10
116.6361961642235
 20
146.3680788349845
 30
0.0
 10
117.7282921534974
 20
149.8639917848761
 30
0.0
 10
117.6480213757369
 20
151.8595646611754
 30
0.0
 10
117.6480213757369
 20
151.8595646611754
 30
0.0
 10
117.6480213757369
 20
151.8595646611754
 30
0.0
 10
117.6480213757369
 20
151.8595646611754
 30
0.0
 10
117.13229024137
 20
155.18150017429
 30
0.0
 10
114.7162431837115
 20
155.886194920681
 30
0.0
 10
113.3351034925446
 20
155.886194920681
 30
0.0
 10
111.9829026225447
 20
155.886194920681
 30
0.0
 10
108.3414342923792
 20
156.1251124501957
 30
0.0
 10
106.2595617172429
 20
153.4105476718098
 30
0.0
  0
HATCH
  5
6AC
330
6A2
100
AcDbEntity
  8
レイヤー 1
 62
   250
420
  2234388
100
AcDbHatch
 10
0.0
 20
0.0
 30
0.0
210
0.0
220
0.0
230
1.0
  2
SOLID
 70
     1
 71
     0
 91
        2
 92
        1
 93
        1
 72
     4
 94
        3
 73
     0
 74
     1
 95
       29
 96
       25
 40
0.0
 40
0.0
 40
0.0
 40
0.0
 40
1.0
 40
1.0
 40
1.0
 40
2.0
 40
2.0
 40
2.0
 40
3.0
 40
3.0
 40
3.0
 40
4.0
 40
4.0
 40
4.0
 40
5.0
 40
5.0
 40
5.0
 40
6.0
 40
6.0
 40
6.0
 40
7.0
 40
7.0
 40
7.0
 40
8.0
 40
8.0
 40
8.0
 40
8.0
 10
101.6420971922469
 20
132.8388354296931
 10
101.630039350094
 20
134.7164137077823
 10
102.2236296937908
 20
138.0598810818841
 10
103.7487744712405
 20
142.5378191476827
 10
105.819967243327
 20
148.5896501242061
 10
107.0602024361932
 20
150.8074318058939
 10
108.1522984254671
 20
151.8833358357054
 10
109.741177511439
 20
153.4532668840085
 10
111.8740375333931
 20
153.5290590346837
 10
112.5075910110823
 20
153.4532668840085
 10
113.4012493694975
 20
153.3490526768302
 10
114.6683563248758
 20
152.7580461564518
 10
114.7493161221879
 20
150.7838328862519
 10
114.8106388622796
 20
149.0909118479895
 10
114.3186789024427
 20
145.9191825971221
 10
112.6164561002338
 20
140.9489400617108
 10
110.6444821435766
 20
135.1746117095912
 10
109.4669477299053
 20
132.8960240524753
 10
108.5212683953448
 20
131.9072809959403
 10
106.7346406980658
 20
130.0538184021569
 10
104.8222669326213
 20
130.2336525051225
 10
104.5408024457958
 20
130.2336525051225
 10
104.1721769856939
 20
130.2336525051225
 10
101.6465758193322
 20
130.6305277668397
 10
101.6420971922469
 20
132.8388354296931
 97
        0
 92
        1
 93
        1
 72
     4
 94
        3
 73
     0
 74
     1
 95
       32
 96
       28
 40
0.0
 40
0.0
 40
0.0
 40
0.0
 40
1.0
 40
1.0
 40
1.0
 40
2.0
 40
2.0
 40
2.0
 40
3.0
 40
3.0
 40
3.0
 40
4.0
 40
4.0
 40
4.0
 40
5.0
 40
5.0
 40
5.0
 40
6.0
 40
6.0
 40
6.0
 40
7.0
 40
7.0
 40
7.0
 40
8.0
 40
8.0
 40
8.0
 40
9.0
 40
9.0
 40
9.0
 40
9.0
 10
106.2595617172429
 20
153.4105476718098
 10
104.8222669326213
 20
151.5474388043041
 10
103.7177685914188
 20
149.8758773721411
 10
101.9232171692965
 20
144.6141795664062
 10
100.2754269116635
 20
139.7999999594306
 10
99.22777268346732
 20
136.3052927937542
 10
99.06964269637689
 20
132.039572749846
 10
98.94665270641765
 20
128.8673267343149
 10
100.8807305877373
 20
127.8027915271048
 10
103.7129454545577
 20
127.8027915271048
 10
104.9352661390825
 20
127.8027915271048
 10
108.0151835347002
 20
127.8827177950895
 10
110.2045431598849
 20
130.5926316915021
 10
111.7417457794874
 20
132.4984597712065
 10
113.155269389579
 20
134.475256864725
 10
115.0562743324223
 20
140.9489400617108
 10
116.6361961642235
 20
146.3680788349845
 10
117.7282921534974
 20
149.8639917848761
 10
117.6480213757369
 20
151.8595646611754
 10
117.6480213757369
 20
151.8595646611754
 10
117.6480213757369
 20
151.8595646611754
 10
117.6480213757369
 20
151.8595646611754
 10
117.13229024137
 20
155.18150017429
 10
114.7162431837115
 20
155.886194920681
 10
113.3351034925446
 20
155.886194920681
 10
111.9829026225447
 20
155.886194920681
 10
108.3414342923792
 20
156.1251124501957
 10
106.2595617172429
 20
153.4105476718098
 97
        0
 75
     2
 76
     1
 98
        0
  0
ENDBLK
  5
6AD
330
6A2
100
AcDbEntity
  8
0
100
AcDbBlockEnd
  0
BLOCK
  5
4A70
330
4A6F
100
AcDbEntity
  8
0
100
AcDbBlockBegin
  2
*D4
 70
     1
 10
0.0
 20
0.0
 30
0.0
  3
*D4
  1
*D201
  0
LINE
  5
4A72
330
4A6F
100
AcDbEntity
  8
寸法
  6
Continuous
 62
     0
370
    -2
100
AcDbLine
 10
95.29098772652098
 20
348.7335990428101
 30
0.0
 11
82.93797888107828
 21
348.7335990428101
 31
0.0
  0
LINE
  5
4A73
330
4A6F
100
AcDbEntity
  8
寸法
  6
Continuous
 62
     0
370
    -2
100
AcDbLine
 10
109.8433566712559
 20
341.0341771438359
 30
0.0
 11
82.93797888107828
 21
341.0341771438359
 31
0.0
  0
LINE
  5
4A74
330
4A6F
100
AcDbEntity
  8
寸法
  6
Continuous
 62
     0
370
    -2
100
AcDbLine
 10
82.93797888107828
 20
347.2335990428101
 30
0.0
 11
82.93797888107828
 21
342.5341771438359
 31
0.0
  0
INSERT
  5
4A75
330
4A6F
100
AcDbEntity
  8
寸法
 62
     0
370
    -2
100
AcDbBlockReference
  2
_DOT
 10
82.93797888107828
 20
348.7335990428101
 30
0.0
 41
1.5
 42
1.5
 43
1.5
 50
90.0
  0
INSERT
  5
4A76
330
4A6F
100
AcDbEntity
  8
寸法
 62
     0
370
    -2
100
AcDbBlockReference
  2
_DOT
 10
82.93797888107828
 20
341.0341771438359
 30
0.0
 41
1.5
 42
1.5
 43
1.5
 50
270.0
  0
MTEXT
  5
4A77
330
4A6F
100
AcDbEntity
  8
寸法
  6
Continuous
 62
     0
100
AcDbMText
 10
78.43797888107828
 20
344.883888093323
 30
0.0
 40
5.0
 41
0.0
 46
0.0
 71
     5
 72
     1
  1
\A1;8
  7
ＭＳ ゴシック
 11
0.0
 21
1.0
 31
0.0
 73
     1
 44
1.0
  0
POINT
  5
4A78
330
4A6F
100
AcDbEntity
  8
Defpoints
 62
     0
100
AcDbPoint
 10
100.290987726521
 20
348.7335990428101
 30
0.0
  0
POINT
  5
4A79
330
4A6F
100
AcDbEntity
  8
Defpoints
 62
     0
100
AcDbPoint
 10
114.8433566712559
 20
341.0341771438359
 30
0.0
  0
POINT
  5
549B
330
4A6F
100
AcDbEntity
  8
Defpoints
 62
     0
100
AcDbPoint
 10
82.93797888107828
 20
341.0341771438359
 30
0.0
  0
ENDBLK
  5
4A71
330
4A6F
100
AcDbEntity
  8
0
100
AcDbBlockEnd
  0
BLOCK
  5
4A9D
330
4A9C
100
AcDbEntity
  8
0
100
AcDbBlockBegin
  2
*D5
 70
     1
 10
0.0
 20
0.0
 30
0.0
  3
*D5
  1
*D204
  0
LINE
  5
4A9F
330
4A9C
100
AcDbEntity
  8
寸法
  6
Continuous
 62
     0
370
    -2
100
AcDbLine
 10
404.3592428309525
 20
348.905864872291
 30
0.0
 11
351.1571548855399
 21
348.905864872291
 31
0.0
  0
LINE
  5
4AA0
330
4A9C
100
AcDbEntity
  8
寸法
  6
Continuous
 62
     0
370
    -2
100
AcDbLine
 10
403.8807156550697
 20
293.8366222085349
 30
0.0
 11
351.1571548855399
 21
293.8366222085349
 31
0.0
  0
LINE
  5
4AA1
330
4A9C
100
AcDbEntity
  8
寸法
  6
Continuous
 62
     0
370
    -2
100
AcDbLine
 10
351.1571548855399
 20
347.405864872291
 30
0.0
 11
351.1571548855399
 21
295.3366222085349
 31
0.0
  0
INSERT
  5
4AA2
330
4A9C
100
AcDbEntity
  8
寸法
 62
     0
370
    -2
100
AcDbBlockReference
  2
_DOT
 10
351.1571548855399
 20
348.905864872291
 30
0.0
 41
1.5
 42
1.5
 43
1.5
 50
90.0
  0
INSERT
  5
4AA3
330
4A9C
100
AcDbEntity
  8
寸法
 62
     0
370
    -2
100
AcDbBlockReference
  2
_DOT
 10
351.1571548855399
 20
293.8366222085349
 30
0.0
 41
1.5
 42
1.5
 43
1.5
 50
270.0
  0
MTEXT
  5
4AA4
330
4A9C
100
AcDbEntity
  8
寸法
  6
Continuous
 62
     0
100
AcDbMText
 10
346.2521548855399
 20
321.371243540413
 30
0.0
 40
5.0
 41
0.0
 46
0.0
 71
     5
 72
     1
  1
\A1;φ55
  7
ＭＳ ゴシック
 11
0.0
 21
1.0
 31
0.0
 73
     1
 44
1.0
  0
POINT
  5
4AA5
330
4A9C
100
AcDbEntity
  8
Defpoints
 62
     0
100
AcDbPoint
 10
409.3592428309525
 20
348.905864872291
 30
0.0
  0
POINT
  5
4AA6
330
4A9C
100
AcDbEntity
  8
Defpoints
 62
     0
100
AcDbPoint
 10
408.8807156550697
 20
293.8366222085349
 30
0.0
  0
POINT
  5
4AA7
330
4A9C
100
AcDbEntity
  8
Defpoints
 62
     0
100
AcDbPoint
 10
351.1571548855399
 20
293.8366222085349
 30
0.0
  0
ENDBLK
  5
4A9E
330
4A9C
100
AcDbEntity
  8
0
100
AcDbBlockEnd
  0
BLOCK
  5
4AD6
330
4AD5
100
AcDbEntity
  8
0
100
AcDbBlockBegin
  2
*D6
 70
     1
 10
0.0
 20
0.0
 30
0.0
  3
*D6
  1
*D205
  0
LINE
  5
4AD8
330
4AD5
100
AcDbEntity
  8
寸法
  6
Continuous
 62
     0
370
    -2
100
AcDbLine
 10
94.42668012116668
 20
348.7335990428101
 30
0.0
 11
71.04272018407815
 21
348.7335990428101
 31
0.0
  0
LINE
  5
4AD9
330
4AD5
100
AcDbEntity
  8
寸法
  6
Continuous
 62
     0
370
    -2
100
AcDbLine
 10
104.2114166072214
 20
287.00741959673
 30
0.0
 11
71.04272018407815
 21
287.00741959673
 31
0.0
  0
LINE
  5
4ADA
330
4AD5
100
AcDbEntity
  8
寸法
  6
Continuous
 62
     0
370
    -2
100
AcDbLine
 10
71.04272018407815
 20
347.2335990428101
 30
0.0
 11
71.04272018407815
 21
288.50741959673
 31
0.0
  0
INSERT
  5
4ADB
330
4AD5
100
AcDbEntity
  8
寸法
 62
     0
370
    -2
100
AcDbBlockReference
  2
_DOT
 10
71.04272018407815
 20
348.7335990428101
 30
0.0
 41
1.5
 42
1.5
 43
1.5
 50
90.0
  0
INSERT
  5
4ADC
330
4AD5
100
AcDbEntity
  8
寸法
 62
     0
370
    -2
100
AcDbBlockReference
  2
_DOT
 10
71.04272018407815
 20
287.00741959673
 30
0.0
 41
1.5
 42
1.5
 43
1.5
 50
270.0
  0
MTEXT
  5
4ADD
330
4AD5
100
AcDbEntity
  8
寸法
  6
Continuous
 62
     0
100
AcDbMText
 10
66.54272018407815
 20
317.87050931977
 30
0.0
 40
5.0
 41
0.0
 46
0.0
 71
     5
 72
     1
  1
\A1;62
  7
ＭＳ ゴシック
 11
0.0
 21
1.0
 31
0.0
 73
     1
 44
1.0
  0
POINT
  5
4ADE
330
4AD5
100
AcDbEntity
  8
Defpoints
 62
     0
100
AcDbPoint
 10
99.42668012116668
 20
348.7335990428101
 30
0.0
  0
POINT
  5
4ADF
330
4AD5
100
AcDbEntity
  8
Defpoints
 62
     0
100
AcDbPoint
 10
109.2114166072214
 20
287.00741959673
 30
0.0
  0
POINT
  5
4AE0
330
4AD5
100
AcDbEntity
  8
Defpoints
 62
     0
100
AcDbPoint
 10
71.04272018407815
 20
287.00741959673
 30
0.0
  0
ENDBLK
  5
4AD7
330
4AD5
100
AcDbEntity
  8
0
100
AcDbBlockEnd
  0
BLOCK
  5
4CAF
330
4CAE
100
AcDbEntity
  8
0
100
AcDbBlockBegin
  2
*D7
 70
     1
 10
0.0
 20
0.0
 30
0.0
  3
*D7
  1
*D212
  0
LINE
  5
4CB1
330
4CAE
100
AcDbEntity
  8
寸法
  6
Continuous
 62
     0
370
    -2
100
AcDbLine
 10
127.1816507401138
 20
148.4628469200372
 30
0.0
 11
127.1816507401138
 21
139.5339453487122
 31
0.0
  0
LINE
  5
4CB2
330
4CAE
100
AcDbEntity
  8
寸法
  6
Continuous
 62
     0
370
    -2
100
AcDbLine
 10
134.902772654635
 20
163.6679425127943
 30
0.0
 11
134.902772654635
 21
139.5339453487122
 31
0.0
  0
LINE
  5
4CB3
330
4CAE
100
AcDbEntity
  8
寸法
  6
Continuous
 62
     0
370
    -2
100
AcDbLine
 10
134.902772654635
 20
139.5339453487122
 30
0.0
 11
182.732772654635
 21
139.5339453487122
 31
0.0
  0
INSERT
  5
4CB4
330
4CAE
100
AcDbEntity
  8
寸法
 62
     0
370
    -2
100
AcDbBlockReference
  2
_DOT
 10
127.1816507401138
 20
139.5339453487122
 30
0.0
 41
1.5
 42
1.5
 43
1.5
 50
180.0
  0
INSERT
  5
4CB5
330
4CAE
100
AcDbEntity
  8
寸法
 62
     0
370
    -2
100
AcDbBlockReference
  2
_DOT
 10
134.902772654635
 20
139.5339453487122
 30
0.0
 41
1.5
 42
1.5
 43
1.5
  0
MTEXT
  5
4CB6
330
4CAE
100
AcDbEntity
  8
寸法
  6
Continuous
 62
     0
100
AcDbMText
 10
160.317772654635
 20
144.5914453487122
 30
0.0
 40
5.0
 41
0.0
 46
0.0
 71
     5
 72
     1
  1
\A1;プレート部分8
  7
ＭＳ ゴシック
 73
     1
 44
1.0
  0
POINT
  5
4CB7
330
4CAE
100
AcDbEntity
  8
Defpoints
 62
     0
100
AcDbPoint
 10
127.1816507401138
 20
153.4628469200372
 30
0.0
  0
POINT
  5
4CB8
330
4CAE
100
AcDbEntity
  8
Defpoints
 62
     0
100
AcDbPoint
 10
134.902772654635
 20
168.6679425127943
 30
0.0
  0
POINT
  5
4CB9
330
4CAE
100
AcDbEntity
  8
Defpoints
 62
     0
100
AcDbPoint
 10
134.902772654635
 20
139.5339453487122
 30
0.0
  0
ENDBLK
  5
4CB0
330
4CAE
100
AcDbEntity
  8
0
100
AcDbBlockEnd
  0
BLOCK
  5
4EF5
330
4EF4
100
AcDbEntity
  8
0
100
AcDbBlockBegin
  2
*D8
 70
     1
 10
0.0
 20
0.0
 30
0.0
  3
*D8
  1
*D205
  0
LINE
  5
4EF7
330
4EF4
100
AcDbEntity
  8
寸法
  6
Continuous
 62
     0
370
    -2
100
AcDbLine
 10
110.4322388284302
 20
341.022953810548
 30
0.0
 11
82.88610781566688
 21
341.022953810548
 31
0.0
  0
LINE
  5
4EF8
330
4EF4
100
AcDbEntity
  8
寸法
  6
Continuous
 62
     0
370
    -2
100
AcDbLine
 10
162.5493807854519
 20
287.00741959673
 30
0.0
 11
82.88610781566688
 21
287.00741959673
 31
0.0
  0
LINE
  5
4EF9
330
4EF4
100
AcDbEntity
  8
寸法
  6
Continuous
 62
     0
370
    -2
100
AcDbLine
 10
82.88610781566688
 20
339.522953810548
 30
0.0
 11
82.88610781566688
 21
288.50741959673
 31
0.0
  0
INSERT
  5
4EFA
330
4EF4
100
AcDbEntity
  8
寸法
 62
     0
370
    -2
100
AcDbBlockReference
  2
_DOT
 10
82.88610781566688
 20
341.022953810548
 30
0.0
 41
1.5
 42
1.5
 43
1.5
 50
90.0
  0
INSERT
  5
4EFB
330
4EF4
100
AcDbEntity
  8
寸法
 62
     0
370
    -2
100
AcDbBlockReference
  2
_DOT
 10
82.88610781566688
 20
287.00741959673
 30
0.0
 41
1.5
 42
1.5
 43
1.5
 50
270.0
  0
MTEXT
  5
4EFC
330
4EF4
100
AcDbEntity
  8
寸法
  6
Continuous
 62
     0
100
AcDbMText
 10
78.38610781566688
 20
314.015186703639
 30
0.0
 40
5.0
 41
0.0
 46
0.0
 71
     5
 72
     1
  1
\A1;54
  7
ＭＳ ゴシック
 11
0.0
 21
1.0
 31
0.0
 73
     1
 44
1.0
  0
POINT
  5
4EFD
330
4EF4
100
AcDbEntity
  8
Defpoints
 62
     0
100
AcDbPoint
 10
115.4322388284302
 20
341.022953810548
 30
0.0
  0
POINT
  5
4EFE
330
4EF4
100
AcDbEntity
  8
Defpoints
 62
     0
100
AcDbPoint
 10
167.5493807854519
 20
287.00741959673
 30
0.0
  0
POINT
  5
4EFF
330
4EF4
100
AcDbEntity
  8
Defpoints
 62
     0
100
AcDbPoint
 10
82.88610781566688
 20
287.00741959673
 30
0.0
  0
ENDBLK
  5
4EF6
330
4EF4
100
AcDbEntity
  8
0
100
AcDbBlockEnd
  0
BLOCK
  5
5478
330
5477
100
AcDbEntity
  8
0
100
AcDbBlockBegin
  2
*D9
 70
     1
 10
0.0
 20
0.0
 30
0.0
  3
*D9
  1
*D207
  0
LINE
  5
547A
330
5477
100
AcDbEntity
  8
寸法
  6
Continuous
 62
     0
370
    -2
100
AcDbLine
 10
115.2174687854519
 20
290.5917535967299
 30
0.0
 11
115.2174687854519
 21
272.3185003022579
 31
0.0
  0
LINE
  5
547B
330
5477
100
AcDbEntity
  8
寸法
  6
Continuous
 62
     0
370
    -2
100
AcDbLine
 10
247.0302880534238
 20
318.28143559724
 30
0.0
 11
247.0302880534238
 21
272.3185003022579
 31
0.0
  0
LINE
  5
547C
330
5477
100
AcDbEntity
  8
寸法
  6
Continuous
 62
     0
370
    -2
100
AcDbLine
 10
116.7174687854519
 20
272.3185003022579
 30
0.0
 11
245.5302880534238
 21
272.3185003022579
 31
0.0
  0
INSERT
  5
547D
330
5477
100
AcDbEntity
  8
寸法
 62
     0
370
    -2
100
AcDbBlockReference
  2
_DOT
 10
115.2174687854519
 20
272.3185003022579
 30
0.0
 41
1.5
 42
1.5
 43
1.5
 50
180.0
  0
INSERT
  5
547E
330
5477
100
AcDbEntity
  8
寸法
 62
     0
370
    -2
100
AcDbBlockReference
  2
_DOT
 10
247.0302880534238
 20
272.3185003022579
 30
0.0
 41
1.5
 42
1.5
 43
1.5
  0
MTEXT
  5
547F
330
5477
100
AcDbEntity
  8
寸法
  6
Continuous
 62
     0
100
AcDbMText
 10
181.1238784194378
 20
276.8185003022579
 30
0.0
 40
5.0
 41
0.0
 46
0.0
 71
     5
 72
     1
  1
\A1;132
  7
ＭＳ ゴシック
 73
     1
 44
1.0
  0
POINT
  5
5480
330
5477
100
AcDbEntity
  8
Defpoints
 62
     0
100
AcDbPoint
 10
115.2174687854519
 20
295.5917535967299
 30
0.0
  0
POINT
  5
5481
330
5477
100
AcDbEntity
  8
Defpoints
 62
     0
100
AcDbPoint
 10
247.0302880534238
 20
323.28143559724
 30
0.0
  0
POINT
  5
5482
330
5477
100
AcDbEntity
  8
Defpoints
 62
     0
100
AcDbPoint
 10
247.0302880534238
 20
272.3185003022579
 30
0.0
  0
ENDBLK
  5
5479
330
5477
100
AcDbEntity
  8
0
100
AcDbBlockEnd
  0
BLOCK
  5
5487
330
5486
100
AcDbEntity
  8
0
100
AcDbBlockBegin
  2
*D10
 70
     1
 10
0.0
 20
0.0
 30
0.0
  3
*D10
  1
*D208
  0
LINE
  5
5489
330
5486
100
AcDbEntity
  8
寸法
  6
Continuous
 62
     0
370
    -2
100
AcDbLine
 10
243.2580012564562
 20
325.843380852393
 30
0.0
 11
268.9125266997738
 21
325.843380852393
 31
0.0
  0
LINE
  5
548A
330
5486
100
AcDbEntity
  8
寸法
  6
Continuous
 62
     0
370
    -2
100
AcDbLine
 10
169.0505632854519
 20
287.0923595967299
 30
0.0
 11
268.9125266997738
 21
287.0923595967299
 31
0.0
  0
LINE
  5
548B
330
5486
100
AcDbEntity
  8
寸法
  6
Continuous
 62
     0
370
    -2
100
AcDbLine
 10
268.9125266997738
 20
324.343380852393
 30
0.0
 11
268.9125266997738
 21
288.5923595967299
 31
0.0
  0
INSERT
  5
548C
330
5486
100
AcDbEntity
  8
寸法
 62
     0
370
    -2
100
AcDbBlockReference
  2
_DOT
 10
268.9125266997738
 20
325.843380852393
 30
0.0
 41
1.5
 42
1.5
 43
1.5
 50
90.0
  0
INSERT
  5
548D
330
5486
100
AcDbEntity
  8
寸法
 62
     0
370
    -2
100
AcDbBlockReference
  2
_DOT
 10
268.9125266997738
 20
287.0923595967299
 30
0.0
 41
1.5
 42
1.5
 43
1.5
 50
270.0
  0
MTEXT
  5
548E
330
5486
100
AcDbEntity
  8
寸法
  6
Continuous
 62
     0
100
AcDbMText
 10
264.4125266997738
 20
306.4678702245615
 30
0.0
 40
5.0
 41
0.0
 46
0.0
 71
     5
 72
     1
  1
\A1;40
  7
ＭＳ ゴシック
 11
0.0
 21
1.0
 31
0.0
 73
     1
 44
1.0
  0
POINT
  5
548F
330
5486
100
AcDbEntity
  8
Defpoints
 62
     0
100
AcDbPoint
 10
238.2580012564562
 20
325.843380852393
 30
0.0
  0
POINT
  5
5490
330
5486
100
AcDbEntity
  8
Defpoints
 62
     0
100
AcDbPoint
 10
164.0505632854519
 20
287.0923595967299
 30
0.0
  0
POINT
  5
5491
330
5486
100
AcDbEntity
  8
Defpoints
 62
     0
100
AcDbPoint
 10
268.9125266997738
 20
287.0923595967299
 30
0.0
  0
ENDBLK
  5
5488
330
5486
100
AcDbEntity
  8
0
100
AcDbBlockEnd
  0
BLOCK
  5
569C
330
569B
100
AcDbEntity
  8
0
100
AcDbBlockBegin
  2
名称未設定-1
 70
     0
 10
0.0
 20
0.0
 30
0.0
  3
名称未設定-1
  1
名称未設定-1
  0
INSERT
  5
569D
330
569B
100
AcDbEntity
  8
TFORMLOGO
100
AcDbBlockReference
  2
block 2
 10
0.0
 20
0.0
 30
0.0
  0
ENDBLK
  5
56C2
330
569B
100
AcDbEntity
  8
0
100
AcDbBlockEnd
  0
BLOCK
  5
569F
330
569E
100
AcDbEntity
  8
0
100
AcDbBlockBegin
  2
block 2
 70
     0
 10
0.0
 20
0.0
 30
0.0
  3
block 2
  1
block 2
  0
INSERT
  5
56A0
330
569E
100
AcDbEntity
  8
TFORMLOGO
100
AcDbBlockReference
  2
block 3
 10
0.0
 20
0.0
 30
0.0
  0
ENDBLK
  5
56C1
330
569E
100
AcDbEntity
  8
0
100
AcDbBlockEnd
  0
BLOCK
  5
56D7
330
56D6
100
AcDbEntity
  8
0
100
AcDbBlockBegin
  2
*D13
 70
     1
 10
0.0
 20
0.0
 30
0.0
  3
*D13
  1
*D53
  0
LINE
  5
56D8
330
56D6
100
AcDbEntity
  8
寸法
  6
Continuous
 62
     0
370
    -2
100
AcDbLine
 10
94.93135926942057
 20
348.7335990428101
 30
0.0
 11
82.57835042397778
 21
348.7335990428101
 31
0.0
  0
LINE
  5
56D9
330
56D6
100
AcDbEntity
  8
寸法
  6
Continuous
 62
     0
370
    -2
100
AcDbLine
 10
109.4837282141555
 20
341.0341771438358
 30
0.0
 11
82.57835042397778
 21
341.0341771438358
 31
0.0
  0
LINE
  5
56DA
330
56D6
100
AcDbEntity
  8
寸法
  6
Continuous
 62
     0
370
    -2
100
AcDbLine
 10
82.57835042397778
 20
348.7335990428101
 30
0.0
 11
82.57835042397778
 21
341.0341771438358
 31
0.0
  0
LINE
  5
56DB
330
56D6
100
AcDbEntity
  8
寸法
  6
Continuous
 62
     0
370
    -2
100
AcDbLine
 10
82.57835042397778
 20
350.2335990428101
 30
0.0
 11
82.57835042397778
 21
351.7335990428101
 31
0.0
  0
LINE
  5
56DC
330
56D6
100
AcDbEntity
  8
寸法
  6
Continuous
 62
     0
370
    -2
100
AcDbLine
 10
82.57835042397778
 20
339.5341771438358
 30
0.0
 11
82.57835042397778
 21
338.0341771438358
 31
0.0
  0
INSERT
  5
56DD
330
56D6
100
AcDbEntity
  8
寸法
 62
     0
370
    -2
100
AcDbBlockReference
  2
_DOT
 10
82.57835042397778
 20
348.7335990428101
 30
0.0
 41
1.5
 42
1.5
 43
1.5
 50
270.0
  0
INSERT
  5
56DE
330
56D6
100
AcDbEntity
  8
寸法
 62
     0
370
    -2
100
AcDbBlockReference
  2
_DOT
 10
82.57835042397778
 20
341.0341771438358
 30
0.0
 41
1.5
 42
1.5
 43
1.5
 50
90.0
  0
MTEXT
  5
56DF
330
56D6
100
AcDbEntity
  8
寸法
  6
Continuous
 62
     0
100
AcDbMText
 10
78.57835042397778
 20
344.883888093323
 30
0.0
 40
4.0
 41
0.0
 46
0.0
 71
     5
 72
     1
  1
\A1;8
  7
ＭＳ ゴシック
 11
0.0
 21
1.0
 31
0.0
 73
     1
 44
1.0
  0
POINT
  5
585F
330
56D6
100
AcDbEntity
  8
Defpoints
 62
     0
100
AcDbPoint
 10
99.93135926942057
 20
348.7335990428101
 30
0.0
  0
POINT
  5
5860
330
56D6
100
AcDbEntity
  8
Defpoints
 62
     0
100
AcDbPoint
 10
114.4837282141555
 20
341.0341771438358
 30
0.0
  0
POINT
  5
5861
330
56D6
100
AcDbEntity
  8
Defpoints
 62
     0
100
AcDbPoint
 10
82.57835042397778
 20
341.0341771438358
 30
0.0
  0
ENDBLK
  5
56E0
330
56D6
100
AcDbEntity
  8
0
100
AcDbBlockEnd
  0
BLOCK
  5
56E3
330
56E2
100
AcDbEntity
  8
0
100
AcDbBlockBegin
  2
*D14
 70
     1
 10
0.0
 20
0.0
 30
0.0
  3
*D14
  1
*D54
  0
LINE
  5
56E4
330
56E2
100
AcDbEntity
  8
寸法
  6
Continuous
 62
     0
370
    -2
100
AcDbLine
 10
403.8854160529299
 20
348.7990849693352
 30
0.0
 11
364.2169531300075
 21
348.7990849693352
 31
0.0
  0
LINE
  5
56E5
330
56E2
100
AcDbEntity
  8
寸法
  6
Continuous
 62
     0
370
    -2
100
AcDbLine
 10
403.8854160529299
 20
293.7990849693352
 30
0.0
 11
364.2169531300075
 21
293.7990849693352
 31
0.0
  0
LINE
  5
56E6
330
56E2
100
AcDbEntity
  8
寸法
  6
Continuous
 62
     0
370
    -2
100
AcDbLine
 10
364.2169531300075
 20
347.2990849693352
 30
0.0
 11
364.2169531300075
 21
295.2990849693352
 31
0.0
  0
INSERT
  5
56E7
330
56E2
100
AcDbEntity
  8
寸法
 62
     0
370
    -2
100
AcDbBlockReference
  2
_DOT
 10
364.2169531300075
 20
348.7990849693352
 30
0.0
 41
1.5
 42
1.5
 43
1.5
 50
90.0
  0
INSERT
  5
56E8
330
56E2
100
AcDbEntity
  8
寸法
 62
     0
370
    -2
100
AcDbBlockReference
  2
_DOT
 10
364.2169531300075
 20
293.7990849693352
 30
0.0
 41
1.5
 42
1.5
 43
1.5
 50
270.0
  0
MTEXT
  5
56E9
330
56E2
100
AcDbEntity
  8
寸法
  6
Continuous
 62
     0
100
AcDbMText
 10
359.8929531300075
 20
321.2990849693352
 30
0.0
 40
4.0
 41
0.0
 46
0.0
 71
     5
 72
     1
  1
\A1;φ55
  7
ＭＳ ゴシック
 11
0.0
 21
1.0
 31
0.0
 73
     1
 44
1.0
  0
POINT
  5
56EA
330
56E2
100
AcDbEntity
  8
Defpoints
 62
     0
100
AcDbPoint
 10
408.8854160529299
 20
348.7990849693352
 30
0.0
  0
POINT
  5
56EB
330
56E2
100
AcDbEntity
  8
Defpoints
 62
     0
100
AcDbPoint
 10
408.8854160529299
 20
293.7990849693352
 30
0.0
  0
POINT
  5
56EC
330
56E2
100
AcDbEntity
  8
Defpoints
 62
     0
100
AcDbPoint
 10
364.2169531300075
 20
293.7990849693352
 30
0.0
  0
ENDBLK
  5
56ED
330
56E2
100
AcDbEntity
  8
0
100
AcDbBlockEnd
  0
BLOCK
  5
56F0
330
56EF
100
AcDbEntity
  8
0
100
AcDbBlockBegin
  2
*D15
 70
     1
 10
0.0
 20
0.0
 30
0.0
  3
*D15
  1
*D55
  0
LINE
  5
56F1
330
56EF
100
AcDbEntity
  8
寸法
  6
Continuous
 62
     0
370
    -2
100
AcDbLine
 10
94.06705166406618
 20
348.7335990428101
 30
0.0
 11
62.66820315675285
 21
348.7335990428101
 31
0.0
  0
LINE
  5
56F2
330
56EF
100
AcDbEntity
  8
寸法
  6
Continuous
 62
     0
370
    -2
100
AcDbLine
 10
184.9711760191407
 20
281.0777285890699
 30
0.0
 11
62.66820315675284
 21
281.0777285890699
 31
0.0
  0
LINE
  5
56F3
330
56EF
100
AcDbEntity
  8
寸法
  6
Continuous
 62
     0
370
    -2
100
AcDbLine
 10
62.66820315675285
 20
347.2335990428101
 30
0.0
 11
62.66820315675284
 21
282.5777285890699
 31
0.0
  0
INSERT
  5
56F4
330
56EF
100
AcDbEntity
  8
寸法
 62
     0
370
    -2
100
AcDbBlockReference
  2
_DOT
 10
62.66820315675285
 20
348.7335990428101
 30
0.0
 41
1.5
 42
1.5
 43
1.5
 50
90.0
  0
INSERT
  5
56F5
330
56EF
100
AcDbEntity
  8
寸法
 62
     0
370
    -2
100
AcDbBlockReference
  2
_DOT
 10
62.66820315675284
 20
281.0777285890699
 30
0.0
 41
1.5
 42
1.5
 43
1.5
 50
270.0
  0
MTEXT
  5
56F6
330
56EF
100
AcDbEntity
  8
寸法
  6
Continuous
 62
     0
100
AcDbMText
 10
58.66820315675284
 20
314.90566381594
 30
0.0
 40
4.0
 41
0.0
 46
0.0
 71
     5
 72
     1
  1
\A1;68
  7
ＭＳ ゴシック
 11
1.050230720549128E-16
 21
1.0
 31
0.0
 73
     1
 44
1.0
  0
POINT
  5
56F7
330
56EF
100
AcDbEntity
  8
Defpoints
 62
     0
100
AcDbPoint
 10
99.06705166406618
 20
348.7335990428101
 30
0.0
  0
POINT
  5
56F8
330
56EF
100
AcDbEntity
  8
Defpoints
 62
     0
100
AcDbPoint
 10
189.9711760191407
 20
281.0777285890699
 30
0.0
  0
POINT
  5
56F9
330
56EF
100
AcDbEntity
  8
Defpoints
 62
     0
100
AcDbPoint
 10
62.66820315675284
 20
281.0777285890699
 30
0.0
  0
ENDBLK
  5
56FA
330
56EF
100
AcDbEntity
  8
0
100
AcDbBlockEnd
  0
BLOCK
  5
56FD
330
56FC
100
AcDbEntity
  8
0
100
AcDbBlockBegin
  2
*D16
 70
     1
 10
0.0
 20
0.0
 30
0.0
  3
*D16
  1
*D56
  0
LINE
  5
56FE
330
56FC
100
AcDbEntity
  8
寸法
  6
Continuous
 62
     0
370
    -2
100
AcDbLine
 10
127.0296484505602
 20
145.053068208781
 30
0.0
 11
127.0296484505602
 21
138.3207352236588
 31
0.0
  0
LINE
  5
56FF
330
56FC
100
AcDbEntity
  8
寸法
  6
Continuous
 62
     0
370
    -2
100
AcDbLine
 10
134.8816507401137
 20
163.6511043765549
 30
0.0
 11
134.8816507401137
 21
138.3207352236588
 31
0.0
  0
LINE
  5
5700
330
56FC
100
AcDbEntity
  8
寸法
  6
Continuous
 62
     0
370
    -2
100
AcDbLine
 10
134.8816507401137
 20
138.3207352236588
 30
0.0
 11
182.6286507401138
 21
138.3207352236588
 31
0.0
  0
INSERT
  5
5701
330
56FC
100
AcDbEntity
  8
寸法
 62
     0
370
    -2
100
AcDbBlockReference
  2
_DOT
 10
127.0296484505602
 20
138.3207352236588
 30
0.0
 41
1.5
 42
1.5
 43
1.5
 50
180.0
  0
INSERT
  5
5702
330
56FC
100
AcDbEntity
  8
寸法
 62
     0
370
    -2
100
AcDbBlockReference
  2
_DOT
 10
134.8816507401137
 20
138.3207352236588
 30
0.0
 41
1.5
 42
1.5
 43
1.5
  0
MTEXT
  5
5703
330
56FC
100
AcDbEntity
  8
寸法
  6
Continuous
 62
     0
100
AcDbMText
 10
164.2966507401138
 20
142.7667352236588
 30
0.0
 40
4.0
 41
0.0
 46
0.0
 71
     5
 72
     1
  1
\A1;プレート部分8
  7
ＭＳ ゴシック
 73
     1
 44
1.0
  0
POINT
  5
5704
330
56FC
100
AcDbEntity
  8
Defpoints
 62
     0
100
AcDbPoint
 10
127.0296484505602
 20
150.053068208781
 30
0.0
  0
POINT
  5
5705
330
56FC
100
AcDbEntity
  8
Defpoints
 62
     0
100
AcDbPoint
 10
134.8816507401137
 20
168.6511043765549
 30
0.0
  0
POINT
  5
5706
330
56FC
100
AcDbEntity
  8
Defpoints
 62
     0
100
AcDbPoint
 10
134.8816507401137
 20
138.3207352236588
 30
0.0
  0
ENDBLK
  5
5707
330
56FC
100
AcDbEntity
  8
0
100
AcDbBlockEnd
  0
BLOCK
  5
570C
330
570B
100
AcDbEntity
  8
0
100
AcDbBlockBegin
  2
*D17
 70
     1
 10
0.0
 20
0.0
 30
0.0
  3
*D17
  1
*D57
  0
LINE
  5
570D
330
570B
100
AcDbEntity
  8
寸法
  6
Continuous
 62
     0
370
    -2
100
AcDbLine
 10
110.0726103713298
 20
341.022953810548
 30
0.0
 11
82.52647935856646
 21
341.022953810548
 31
0.0
  0
LINE
  5
570E
330
570B
100
AcDbEntity
  8
寸法
  6
Continuous
 62
     0
370
    -2
100
AcDbLine
 10
189.9711760191407
 20
281.0777285890699
 30
0.0
 11
82.52647935856646
 21
281.0777285890699
 31
0.0
  0
LINE
  5
570F
330
570B
100
AcDbEntity
  8
寸法
  6
Continuous
 62
     0
370
    -2
100
AcDbLine
 10
82.52647935856646
 20
339.522953810548
 30
0.0
 11
82.52647935856646
 21
282.5777285890699
 31
0.0
  0
INSERT
  5
5710
330
570B
100
AcDbEntity
  8
寸法
 62
     0
370
    -2
100
AcDbBlockReference
  2
_DOT
 10
82.52647935856646
 20
341.022953810548
 30
0.0
 41
1.5
 42
1.5
 43
1.5
 50
90.0
  0
INSERT
  5
5711
330
570B
100
AcDbEntity
  8
寸法
 62
     0
370
    -2
100
AcDbBlockReference
  2
_DOT
 10
82.52647935856646
 20
281.0777285890699
 30
0.0
 41
1.5
 42
1.5
 43
1.5
 50
270.0
  0
MTEXT
  5
5712
330
570B
100
AcDbEntity
  8
寸法
  6
Continuous
 62
     0
100
AcDbMText
 10
78.52647935856646
 20
311.0503411998089
 30
0.0
 40
4.0
 41
0.0
 46
0.0
 71
     5
 72
     1
  1
\A1;60
  7
ＭＳ ゴシック
 11
0.0
 21
1.0
 31
0.0
 73
     1
 44
1.0
  0
POINT
  5
5713
330
570B
100
AcDbEntity
  8
Defpoints
 62
     0
100
AcDbPoint
 10
115.0726103713298
 20
341.022953810548
 30
0.0
  0
POINT
  5
5714
330
570B
100
AcDbEntity
  8
Defpoints
 62
     0
100
AcDbPoint
 10
194.9711760191407
 20
281.0777285890699
 30
0.0
  0
POINT
  5
5715
330
570B
100
AcDbEntity
  8
Defpoints
 62
     0
100
AcDbPoint
 10
82.52647935856646
 20
281.0777285890699
 30
0.0
  0
ENDBLK
  5
5716
330
570B
100
AcDbEntity
  8
0
100
AcDbBlockEnd
  0
BLOCK
  5
5768
330
5767
100
AcDbEntity
  8
0
100
AcDbBlockBegin
  2
*D18
 70
     1
 10
0.0
 20
0.0
 30
0.0
  3
*D18
  1
*D58
  0
LINE
  5
5769
330
5767
100
AcDbEntity
  8
寸法
  6
Continuous
 62
     0
370
    -2
100
AcDbLine
 10
115.1935433875918
 20
326.04005183593
 30
0.0
 11
115.1935433875918
 21
262.1267427827099
 31
0.0
  0
LINE
  5
576A
330
5767
100
AcDbEntity
  8
寸法
  6
Continuous
 62
     0
370
    -2
100
AcDbLine
 10
234.1687403875918
 20
292.9484688359301
 30
0.0
 11
234.1687403875918
 21
262.1267427827099
 31
0.0
  0
LINE
  5
576B
330
5767
100
AcDbEntity
  8
寸法
  6
Continuous
 62
     0
370
    -2
100
AcDbLine
 10
116.6935433875918
 20
262.1267427827099
 30
0.0
 11
232.6687403875918
 21
262.1267427827099
 31
0.0
  0
INSERT
  5
576C
330
5767
100
AcDbEntity
  8
寸法
 62
     0
370
    -2
100
AcDbBlockReference
  2
_DOT
 10
115.1935433875918
 20
262.1267427827099
 30
0.0
 41
1.5
 42
1.5
 43
1.5
 50
180.0
  0
INSERT
  5
576D
330
5767
100
AcDbEntity
  8
寸法
 62
     0
370
    -2
100
AcDbBlockReference
  2
_DOT
 10
234.1687403875918
 20
262.1267427827099
 30
0.0
 41
1.5
 42
1.5
 43
1.5
  0
MTEXT
  5
576E
330
5767
100
AcDbEntity
  8
寸法
  6
Continuous
 62
     0
100
AcDbMText
 10
174.6811418875918
 20
266.1267427827099
 30
0.0
 40
4.0
 41
0.0
 46
0.0
 71
     5
 72
     1
  1
\A1;119
  7
ＭＳ ゴシック
 73
     1
 44
1.0
  0
POINT
  5
576F
330
5767
100
AcDbEntity
  8
Defpoints
 62
     0
100
AcDbPoint
 10
115.1935433875918
 20
331.04005183593
 30
0.0
  0
POINT
  5
5770
330
5767
100
AcDbEntity
  8
Defpoints
 62
     0
100
AcDbPoint
 10
234.1687403875918
 20
297.9484688359301
 30
0.0
  0
POINT
  5
5771
330
5767
100
AcDbEntity
  8
Defpoints
 62
     0
100
AcDbPoint
 10
234.1687403875918
 20
262.1267427827099
 30
0.0
  0
ENDBLK
  5
5772
330
5767
100
AcDbEntity
  8
0
100
AcDbBlockEnd
  0
BLOCK
  5
579C
330
579B
100
AcDbEntity
  8
0
100
AcDbBlockBegin
  2
*D19
 70
     1
 10
0.0
 20
0.0
 30
0.0
  3
*D19
  1
*D63
  0
LINE
  5
579D
330
579B
100
AcDbEntity
  8
寸法
 62
     0
370
    -2
100
AcDbLine
 10
427.8721245115549
 20
172.3452081951892
 30
0.0
 11
427.8721245115549
 21
144.5573006134969
 31
0.0
  0
LINE
  5
579E
330
579B
100
AcDbEntity
  8
寸法
 62
     0
370
    -2
100
AcDbLine
 10
389.8721245115548
 20
172.3452081951892
 30
0.0
 11
389.8721245115548
 21
144.5573006134969
 31
0.0
  0
LINE
  5
579F
330
579B
100
AcDbEntity
  8
寸法
 62
     0
370
    -2
100
AcDbLine
 10
389.8721245115548
 20
144.5573006134969
 30
0.0
 11
376.2146245115548
 21
144.5573006134969
 31
0.0
  0
LINE
  5
57A0
330
579B
100
AcDbEntity
  8
寸法
 62
     0
370
    -2
100
AcDbLine
 10
426.3721245115549
 20
144.5573006134969
 30
0.0
 11
391.3721245115548
 21
144.5573006134969
 31
0.0
  0
INSERT
  5
57A1
330
579B
100
AcDbEntity
  8
寸法
 62
     0
370
    -2
100
AcDbBlockReference
  2
_DOT
 10
427.8721245115549
 20
144.5573006134969
 30
0.0
 41
1.5
 42
1.5
 43
1.5
  0
INSERT
  5
57A2
330
579B
100
AcDbEntity
  8
寸法
 62
     0
370
    -2
100
AcDbBlockReference
  2
_DOT
 10
389.8721245115548
 20
144.5573006134969
 30
0.0
 41
1.5
 42
1.5
 43
1.5
 50
180.0
  0
POINT
  5
57A3
330
579B
100
AcDbEntity
  8
Defpoints
 62
     0
100
AcDbPoint
 10
427.8721245115549
 20
177.3452081951892
 30
0.0
  0
POINT
  5
57A4
330
579B
100
AcDbEntity
  8
Defpoints
 62
     0
100
AcDbPoint
 10
389.8721245115548
 20
177.3452081951892
 30
0.0
  0
POINT
  5
57A5
330
579B
100
AcDbEntity
  8
Defpoints
 62
     0
100
AcDbPoint
 10
389.8721245115548
 20
144.5573006134969
 30
0.0
  0
ENDBLK
  5
57A6
330
579B
100
AcDbEntity
  8
0
100
AcDbBlockEnd
  0
BLOCK
  5
57A9
330
57A8
100
AcDbEntity
  8
0
100
AcDbBlockBegin
  2
*D20
 70
     1
 10
0.0
 20
0.0
 30
0.0
  3
*D20
  1
*D67
  0
LINE
  5
57AA
330
57A8
100
AcDbEntity
  8
寸法
 62
     0
370
    -2
100
AcDbLine
 10
389.8721245115548
 20
191.0157099566222
 30
0.0
 11
389.8721245115548
 21
213.8023335341041
 31
0.0
  0
LINE
  5
57AB
330
57A8
100
AcDbEntity
  8
寸法
 62
     0
370
    -2
100
AcDbLine
 10
408.8721245115548
 20
205.1912224768318
 30
0.0
 11
408.8721245115548
 21
213.8023335341041
 31
0.0
  0
LINE
  5
57AC
330
57A8
100
AcDbEntity
  8
寸法
 62
     0
370
    -2
100
AcDbLine
 10
391.3721245115548
 20
213.8023335341041
 30
0.0
 11
407.3721245115548
 21
213.8023335341041
 31
0.0
  0
INSERT
  5
57AD
330
57A8
100
AcDbEntity
  8
寸法
 62
     0
370
    -2
100
AcDbBlockReference
  2
_DOT
 10
389.8721245115548
 20
213.8023335341041
 30
0.0
 41
1.5
 42
1.5
 43
1.5
 50
180.0
  0
INSERT
  5
57AE
330
57A8
100
AcDbEntity
  8
寸法
 62
     0
370
    -2
100
AcDbBlockReference
  2
_DOT
 10
408.8721245115548
 20
213.8023335341041
 30
0.0
 41
1.5
 42
1.5
 43
1.5
  0
MTEXT
  5
57AF
330
57A8
100
AcDbEntity
  8
寸法
  6
Continuous
 62
     0
100
AcDbMText
 10
399.3721245115548
 20
218.3023335341041
 30
0.0
 40
5.0
 41
0.0
 46
0.0
 71
     5
 72
     1
  1
\A1;19
  7
ＭＳ ゴシック
 73
     1
 44
1.0
  0
POINT
  5
57B0
330
57A8
100
AcDbEntity
  8
Defpoints
 62
     0
100
AcDbPoint
 10
389.8721245115548
 20
186.0157099566222
 30
0.0
  0
POINT
  5
57B1
330
57A8
100
AcDbEntity
  8
Defpoints
 62
     0
100
AcDbPoint
 10
408.8721245115548
 20
200.1912224768318
 30
0.0
  0
POINT
  5
57B2
330
57A8
100
AcDbEntity
  8
Defpoints
 62
     0
100
AcDbPoint
 10
408.8721245115548
 20
213.8023335341041
 30
0.0
  0
ENDBLK
  5
57B3
330
57A8
100
AcDbEntity
  8
0
100
AcDbBlockEnd
  0
BLOCK
  5
57B6
330
57B5
100
AcDbEntity
  8
0
100
AcDbBlockBegin
  2
*D21
 70
     1
 10
0.0
 20
0.0
 30
0.0
  3
*D21
  1
*D68
  0
LINE
  5
57B7
330
57B5
100
AcDbEntity
  8
寸法
 62
     0
370
    -2
100
AcDbLine
 10
408.8721245115548
 20
205.1912224768318
 30
0.0
 11
408.8721245115548
 21
213.8023335341041
 31
0.0
  0
LINE
  5
57B8
330
57B5
100
AcDbEntity
  8
寸法
 62
     0
370
    -2
100
AcDbLine
 10
427.8721245115549
 20
191.0157099566222
 30
0.0
 11
427.8721245115549
 21
213.8023335341041
 31
0.0
  0
LINE
  5
57B9
330
57B5
100
AcDbEntity
  8
寸法
 62
     0
370
    -2
100
AcDbLine
 10
410.3721245115548
 20
213.8023335341041
 30
0.0
 11
426.3721245115549
 21
213.8023335341041
 31
0.0
  0
INSERT
  5
57BA
330
57B5
100
AcDbEntity
  8
寸法
 62
     0
370
    -2
100
AcDbBlockReference
  2
_DOT
 10
408.8721245115548
 20
213.8023335341041
 30
0.0
 41
1.5
 42
1.5
 43
1.5
 50
180.0
  0
INSERT
  5
57BB
330
57B5
100
AcDbEntity
  8
寸法
 62
     0
370
    -2
100
AcDbBlockReference
  2
_DOT
 10
427.8721245115549
 20
213.8023335341041
 30
0.0
 41
1.5
 42
1.5
 43
1.5
  0
MTEXT
  5
57BC
330
57B5
100
AcDbEntity
  8
寸法
  6
Continuous
 62
     0
100
AcDbMText
 10
418.3721245115548
 20
218.3023335341041
 30
0.0
 40
5.0
 41
0.0
 46
0.0
 71
     5
 72
     1
  1
\A1;19
  7
ＭＳ ゴシック
 73
     1
 44
1.0
  0
POINT
  5
57BD
330
57B5
100
AcDbEntity
  8
Defpoints
 62
     0
100
AcDbPoint
 10
408.8721245115548
 20
200.1912224768318
 30
0.0
  0
POINT
  5
57BE
330
57B5
100
AcDbEntity
  8
Defpoints
 62
     0
100
AcDbPoint
 10
427.8721245115549
 20
186.0157099566222
 30
0.0
  0
POINT
  5
57BF
330
57B5
100
AcDbEntity
  8
Defpoints
 62
     0
100
AcDbPoint
 10
427.8721245115549
 20
213.8023335341041
 30
0.0
  0
ENDBLK
  5
57C0
330
57B5
100
AcDbEntity
  8
0
100
AcDbBlockEnd
  0
BLOCK
  5
5841
330
5840
100
AcDbEntity
  8
0
100
AcDbBlockBegin
  2
*D22
 70
     1
 10
0.0
 20
0.0
 30
0.0
  3
*D22
  1
*D69
  0
LINE
  5
5842
330
5840
100
AcDbEntity
  8
寸法
 62
     0
370
    -2
100
AcDbLine
 10
108.1825120145531
 20
356.4345575436565
 30
0.0
 11
108.1825120145531
 21
365.9906564456901
 31
0.0
  0
LINE
  5
5843
330
5840
100
AcDbEntity
  8
寸法
 62
     0
370
    -2
100
AcDbLine
 10
146.1825120145531
 20
356.4345575436565
 30
0.0
 11
146.1825120145531
 21
365.9906564456901
 31
0.0
  0
LINE
  5
5844
330
5840
100
AcDbEntity
  8
寸法
 62
     0
370
    -2
100
AcDbLine
 10
109.6825120145531
 20
365.9906564456901
 30
0.0
 11
144.6825120145531
 21
365.9906564456901
 31
0.0
  0
INSERT
  5
5845
330
5840
100
AcDbEntity
  8
寸法
 62
     0
370
    -2
100
AcDbBlockReference
  2
_DOT
 10
108.1825120145531
 20
365.9906564456901
 30
0.0
 41
1.5
 42
1.5
 43
1.5
 50
180.0
  0
INSERT
  5
5846
330
5840
100
AcDbEntity
  8
寸法
 62
     0
370
    -2
100
AcDbBlockReference
  2
_DOT
 10
146.1825120145531
 20
365.9906564456901
 30
0.0
 41
1.5
 42
1.5
 43
1.5
  0
MTEXT
  5
5847
330
5840
100
AcDbEntity
  8
寸法
  6
Continuous
 62
     0
100
AcDbMText
 10
127.1825120145531
 20
370.4906564456901
 30
0.0
 40
5.0
 41
0.0
 46
0.0
 71
     5
 72
     1
  1
\A1;38
  7
ＭＳ ゴシック
 73
     1
 44
1.0
  0
POINT
  5
5848
330
5840
100
AcDbEntity
  8
Defpoints
 62
     0
100
AcDbPoint
 10
108.1825120145531
 20
351.4345575436565
 30
0.0
  0
POINT
  5
5849
330
5840
100
AcDbEntity
  8
Defpoints
 62
     0
100
AcDbPoint
 10
146.1825120145531
 20
351.4345575436565
 30
0.0
  0
POINT
  5
584A
330
5840
100
AcDbEntity
  8
Defpoints
 62
     0
100
AcDbPoint
 10
146.1825120145531
 20
365.9906564456901
 30
0.0
  0
ENDBLK
  5
584B
330
5840
100
AcDbEntity
  8
0
100
AcDbBlockEnd
  0
BLOCK
  5
5A7C
330
5A7B
100
AcDbEntity
  8
0
100
AcDbBlockBegin
  2
*D23
 70
     1
 10
0.0
 20
0.0
 30
0.0
  3
*D23
  1
*D23
  0
LINE
  5
5A7E
330
5A7B
100
AcDbEntity
  8
寸法
  6
Continuous
 62
     0
370
    -2
100
AcDbLine
 10
386.6779316492852
 20
743.2013123636821
 30
0.0
 11
333.4758437038726
 21
743.2013123636821
 31
0.0
  0
LINE
  5
5A7F
330
5A7B
100
AcDbEntity
  8
寸法
  6
Continuous
 62
     0
370
    -2
100
AcDbLine
 10
386.1994044734024
 20
688.132069699926
 30
0.0
 11
333.4758437038726
 21
688.132069699926
 31
0.0
  0
LINE
  5
5A80
330
5A7B
100
AcDbEntity
  8
寸法
  6
Continuous
 62
     0
370
    -2
100
AcDbLine
 10
333.4758437038726
 20
741.7013123636821
 30
0.0
 11
333.4758437038726
 21
689.632069699926
 31
0.0
  0
INSERT
  5
5A81
330
5A7B
100
AcDbEntity
  8
寸法
 62
     0
370
    -2
100
AcDbBlockReference
  2
_DOT
 10
333.4758437038726
 20
743.2013123636821
 30
0.0
 41
1.5
 42
1.5
 43
1.5
 50
90.0
  0
INSERT
  5
5A82
330
5A7B
100
AcDbEntity
  8
寸法
 62
     0
370
    -2
100
AcDbBlockReference
  2
_DOT
 10
333.4758437038726
 20
688.132069699926
 30
0.0
 41
1.5
 42
1.5
 43
1.5
 50
270.0
  0
MTEXT
  5
5A83
330
5A7B
100
AcDbEntity
  8
寸法
  6
Continuous
 62
     0
100
AcDbMText
 10
329.1518437038726
 20
715.666691031804
 30
0.0
 40
4.0
 41
0.0
 46
0.0
 71
     5
 72
     1
  1
\A1;φ55
  7
ＭＳ ゴシック
 11
0.0
 21
1.0
 31
0.0
 73
     1
 44
1.0
  0
POINT
  5
5A84
330
5A7B
100
AcDbEntity
  8
Defpoints
 62
     0
100
AcDbPoint
 10
391.6779316492852
 20
743.2013123636821
 30
0.0
  0
POINT
  5
5A85
330
5A7B
100
AcDbEntity
  8
Defpoints
 62
     0
100
AcDbPoint
 10
391.1994044734024
 20
688.132069699926
 30
0.0
  0
POINT
  5
5A86
330
5A7B
100
AcDbEntity
  8
Defpoints
 62
     0
100
AcDbPoint
 10
333.4758437038726
 20
688.132069699926
 30
0.0
  0
ENDBLK
  5
5A7D
330
5A7B
100
AcDbEntity
  8
0
100
AcDbBlockEnd
  0
BLOCK
  5
5AE1
330
5AE0
100
AcDbEntity
  8
0
100
AcDbBlockBegin
  2
*D24
 70
     1
 10
0.0
 20
0.0
 30
0.0
  3
*D24
  1
*D24
  0
LINE
  5
5AE3
330
5AE0
100
AcDbEntity
  8
寸法
 62
     0
370
    -2
100
AcDbLine
 10
427.8721245115549
 20
172.3452081951892
 30
0.0
 11
427.8721245115549
 21
144.5573006134969
 31
0.0
  0
LINE
  5
5AE4
330
5AE0
100
AcDbEntity
  8
寸法
 62
     0
370
    -2
100
AcDbLine
 10
389.8721245115548
 20
172.3452081951892
 30
0.0
 11
389.8721245115548
 21
144.5573006134969
 31
0.0
  0
LINE
  5
5AE5
330
5AE0
100
AcDbEntity
  8
寸法
 62
     0
370
    -2
100
AcDbLine
 10
389.8721245115548
 20
144.5573006134969
 30
0.0
 11
376.2146245115548
 21
144.5573006134969
 31
0.0
  0
LINE
  5
5AE6
330
5AE0
100
AcDbEntity
  8
寸法
 62
     0
370
    -2
100
AcDbLine
 10
426.3721245115549
 20
144.5573006134969
 30
0.0
 11
391.3721245115548
 21
144.5573006134969
 31
0.0
  0
INSERT
  5
5AE7
330
5AE0
100
AcDbEntity
  8
寸法
 62
     0
370
    -2
100
AcDbBlockReference
  2
_DOT
 10
427.8721245115549
 20
144.5573006134969
 30
0.0
 41
1.5
 42
1.5
 43
1.5
  0
INSERT
  5
5AE8
330
5AE0
100
AcDbEntity
  8
寸法
 62
     0
370
    -2
100
AcDbBlockReference
  2
_DOT
 10
389.8721245115548
 20
144.5573006134969
 30
0.0
 41
1.5
 42
1.5
 43
1.5
 50
180.0
  0
POINT
  5
5AE9
330
5AE0
100
AcDbEntity
  8
Defpoints
 62
     0
100
AcDbPoint
 10
427.8721245115549
 20
177.3452081951892
 30
0.0
  0
POINT
  5
5AEA
330
5AE0
100
AcDbEntity
  8
Defpoints
 62
     0
100
AcDbPoint
 10
389.8721245115548
 20
177.3452081951892
 30
0.0
  0
POINT
  5
5AEB
330
5AE0
100
AcDbEntity
  8
Defpoints
 62
     0
100
AcDbPoint
 10
389.8721245115548
 20
144.5573006134969
 30
0.0
  0
ENDBLK
  5
5AE2
330
5AE0
100
AcDbEntity
  8
0
100
AcDbBlockEnd
  0
BLOCK
  5
5BC6
330
5BC5
100
AcDbEntity
  8
0
100
AcDbBlockBegin
  2
*D25
 70
     1
 10
0.0
 20
0.0
 30
0.0
  3
*D25
  1
*D26
  0
LINE
  5
5BC7
330
5BC5
100
AcDbEntity
  8
寸法
  6
Continuous
 62
     0
370
    -2
100
AcDbLine
 10
0.375
 20
9.573144235081088
 30
0.0
 11
0.375
 21
0.375
 31
0.0
  0
LINE
  5
5BC8
330
5BC5
100
AcDbEntity
  8
寸法
  6
Continuous
 62
     0
370
    -2
100
AcDbLine
 10
8.074570739085033
 20
24.7782398278371
 30
0.0
 11
8.074570739085033
 21
0.375
 31
0.0
  0
LINE
  5
5BC9
330
5BC5
100
AcDbEntity
  8
寸法
  6
Continuous
 62
     0
370
    -2
100
AcDbLine
 10
8.074570739085033
 20
0.375
 30
0.0
 11
18.17765809326037
 21
0.375
 31
0.0
  0
LINE
  5
5BCA
330
5BC5
100
AcDbEntity
  8
寸法
  6
Continuous
 62
     0
370
    -2
100
AcDbLine
 10
1.875
 20
0.375
 30
0.0
 11
6.574570739085033
 21
0.375
 31
0.0
  0
INSERT
  5
5BCB
330
5BC5
100
AcDbEntity
  8
寸法
 62
     0
370
    -2
100
AcDbBlockReference
  2
_DOT
 10
0.375
 20
0.375
 30
0.0
 41
1.5
 42
1.5
 43
1.5
 50
180.0
  0
INSERT
  5
5BCC
330
5BC5
100
AcDbEntity
  8
寸法
 62
     0
370
    -2
100
AcDbBlockReference
  2
_DOT
 10
8.074570739085033
 20
0.375
 30
0.0
 41
1.5
 42
1.5
 43
1.5
  0
MTEXT
  5
5BCD
330
5BC5
100
AcDbEntity
  8
寸法
  6
Continuous
 62
     0
100
AcDbMText
 10
14.85765809326037
 20
4.875
 30
0.0
 40
5.0
 41
0.0
 46
0.0
 71
     5
 72
     1
  1
\A1;8
  7
ＭＳ ゴシック
 73
     1
 44
1.0
  0
POINT
  5
5BCE
330
5BC5
100
AcDbEntity
  8
Defpoints
 62
     0
100
AcDbPoint
 10
0.375
 20
14.57314423508109
 30
0.0
  0
POINT
  5
5BCF
330
5BC5
100
AcDbEntity
  8
Defpoints
 62
     0
100
AcDbPoint
 10
8.074570739085033
 20
29.7782398278371
 30
0.0
  0
POINT
  5
5BD0
330
5BC5
100
AcDbEntity
  8
Defpoints
 62
     0
100
AcDbPoint
 10
8.074570739085033
 20
0.375
 30
0.0
  0
ENDBLK
  5
5BD1
330
5BC5
100
AcDbEntity
  8
0
100
AcDbBlockEnd
  0
BLOCK
  5
5BD7
330
5BD6
100
AcDbEntity
  8
0
100
AcDbBlockBegin
  2
*D26
 70
     1
 10
0.0
 20
0.0
 30
0.0
  3
*D26
  1
*D27
  0
LINE
  5
5BD9
330
5BD6
100
AcDbEntity
  8
寸法
  6
Continuous
 62
     0
370
    -2
100
AcDbLine
 10
127.1816507401138
 20
148.4628469200372
 30
0.0
 11
127.1816507401138
 21
139.2647026849561
 31
0.0
  0
LINE
  5
5BDA
330
5BD6
100
AcDbEntity
  8
寸法
  6
Continuous
 62
     0
370
    -2
100
AcDbLine
 10
134.8812214791988
 20
163.6679425127932
 30
0.0
 11
134.8812214791988
 21
139.2647026849561
 31
0.0
  0
LINE
  5
5BDB
330
5BD6
100
AcDbEntity
  8
寸法
  6
Continuous
 62
     0
370
    -2
100
AcDbLine
 10
134.8812214791988
 20
139.2647026849561
 30
0.0
 11
144.9843088333741
 21
139.2647026849561
 31
0.0
  0
LINE
  5
5BDC
330
5BD6
100
AcDbEntity
  8
寸法
  6
Continuous
 62
     0
370
    -2
100
AcDbLine
 10
128.6816507401138
 20
139.2647026849561
 30
0.0
 11
133.3812214791988
 21
139.2647026849561
 31
0.0
  0
INSERT
  5
5BDD
330
5BD6
100
AcDbEntity
  8
寸法
 62
     0
370
    -2
100
AcDbBlockReference
  2
_DOT
 10
127.1816507401138
 20
139.2647026849561
 30
0.0
 41
1.5
 42
1.5
 43
1.5
 50
180.0
  0
INSERT
  5
5BDE
330
5BD6
100
AcDbEntity
  8
寸法
 62
     0
370
    -2
100
AcDbBlockReference
  2
_DOT
 10
134.8812214791988
 20
139.2647026849561
 30
0.0
 41
1.5
 42
1.5
 43
1.5
  0
MTEXT
  5
5BDF
330
5BD6
100
AcDbEntity
  8
寸法
  6
Continuous
 62
     0
100
AcDbMText
 10
141.6643088333742
 20
143.7647026849561
 30
0.0
 40
5.0
 41
0.0
 46
0.0
 71
     5
 72
     1
  1
\A1;8
  7
ＭＳ ゴシック
 73
     1
 44
1.0
  0
POINT
  5
5BE0
330
5BD6
100
AcDbEntity
  8
Defpoints
 62
     0
100
AcDbPoint
 10
127.1816507401138
 20
153.4628469200372
 30
0.0
  0
POINT
  5
5BE1
330
5BD6
100
AcDbEntity
  8
Defpoints
 62
     0
100
AcDbPoint
 10
134.8812214791988
 20
168.6679425127932
 30
0.0
  0
POINT
  5
5BE2
330
5BD6
100
AcDbEntity
  8
Defpoints
 62
     0
100
AcDbPoint
 10
134.8812214791988
 20
139.2647026849561
 30
0.0
  0
ENDBLK
  5
5BD8
330
5BD6
100
AcDbEntity
  8
0
100
AcDbBlockEnd
  0
BLOCK
  5
5C64
330
5C63
100
AcDbEntity
  8
0
100
AcDbBlockBegin
  2
*D27
 70
     1
 10
0.0
 20
0.0
 30
0.0
  3
*D27
  1
*D28
  0
LINE
  5
5C65
330
5C63
100
AcDbEntity
  8
寸法
  6
Continuous
 62
     0
370
    -2
100
AcDbLine
 10
12.67192425945136
 20
214.4558524656296
 30
0.0
 11
12.67192425945136
 21
221.1724008234254
 31
0.0
  0
LINE
  5
5C66
330
5C63
100
AcDbEntity
  8
寸法
  6
Continuous
 62
     0
370
    -2
100
AcDbLine
 10
21.17192425945136
 20
214.4558524656296
 30
0.0
 11
21.17192425945136
 21
221.1724008234254
 31
0.0
  0
LINE
  5
5C67
330
5C63
100
AcDbEntity
  8
寸法
  6
Continuous
 62
     0
370
    -2
100
AcDbLine
 10
14.17192425945136
 20
221.1724008234254
 30
0.0
 11
19.67192425945136
 21
221.1724008234254
 31
0.0
  0
INSERT
  5
5C68
330
5C63
100
AcDbEntity
  8
寸法
 62
     0
370
    -2
100
AcDbBlockReference
  2
_DOT
 10
12.67192425945136
 20
221.1724008234254
 30
0.0
 41
1.5
 42
1.5
 43
1.5
 50
180.0
  0
INSERT
  5
5C69
330
5C63
100
AcDbEntity
  8
寸法
 62
     0
370
    -2
100
AcDbBlockReference
  2
_DOT
 10
21.17192425945136
 20
221.1724008234254
 30
0.0
 41
1.5
 42
1.5
 43
1.5
  0
MTEXT
  5
5C6A
330
5C63
100
AcDbEntity
  8
寸法
  6
Continuous
 62
     0
100
AcDbMText
 10
16.92192425945136
 20
225.6724008234254
 30
0.0
 40
5.0
 41
0.0
 46
0.0
 71
     5
 72
     1
  1
\A1;8.5
  7
ＭＳ ゴシック
 73
     1
 44
1.0
  0
POINT
  5
5C6B
330
5C63
100
AcDbEntity
  8
Defpoints
 62
     0
100
AcDbPoint
 10
12.67192425945136
 20
209.4558524656296
 30
0.0
  0
POINT
  5
5C6C
330
5C63
100
AcDbEntity
  8
Defpoints
 62
     0
100
AcDbPoint
 10
21.17192425945136
 20
209.4558524656296
 30
0.0
  0
POINT
  5
5C6D
330
5C63
100
AcDbEntity
  8
Defpoints
 62
     0
100
AcDbPoint
 10
21.17192425945136
 20
221.1724008234254
 30
0.0
  0
ENDBLK
  5
5C6E
330
5C63
100
AcDbEntity
  8
0
100
AcDbBlockEnd
  0
BLOCK
  5
5C76
330
5C75
100
AcDbEntity
  8
0
100
AcDbBlockBegin
  2
*D28
 70
     1
 10
0.0
 20
0.0
 30
0.0
  3
*D28
  1
*D29
  0
LINE
  5
5C77
330
5C75
100
AcDbEntity
  8
寸法
  6
Continuous
 62
     0
370
    -2
100
AcDbLine
 10
62.46043540515663
 20
197.1207521227724
 30
0.0
 11
77.8834322030564
 21
197.1207521227724
 31
0.0
  0
LINE
  5
5C78
330
5C75
100
AcDbEntity
  8
寸法
  6
Continuous
 62
     0
370
    -2
100
AcDbLine
 10
68.2153519287707
 20
191.1207521227724
 30
0.0
 11
77.8834322030564
 21
191.1207521227724
 31
0.0
  0
LINE
  5
5C79
330
5C75
100
AcDbEntity
  8
寸法
  6
Continuous
 62
     0
370
    -2
100
AcDbLine
 10
77.8834322030564
 20
195.6207521227724
 30
0.0
 11
77.8834322030564
 21
192.6207521227724
 31
0.0
  0
INSERT
  5
5C7A
330
5C75
100
AcDbEntity
  8
寸法
 62
     0
370
    -2
100
AcDbBlockReference
  2
_DOT
 10
77.8834322030564
 20
197.1207521227724
 30
0.0
 41
1.5
 42
1.5
 43
1.5
 50
90.0
  0
INSERT
  5
5C7B
330
5C75
100
AcDbEntity
  8
寸法
 62
     0
370
    -2
100
AcDbBlockReference
  2
_DOT
 10
77.8834322030564
 20
191.1207521227724
 30
0.0
 41
1.5
 42
1.5
 43
1.5
 50
270.0
  0
MTEXT
  5
5C7C
330
5C75
100
AcDbEntity
  8
寸法
  6
Continuous
 62
     0
100
AcDbMText
 10
73.3834322030564
 20
194.1207521227724
 30
0.0
 40
5.0
 41
0.0
 46
0.0
 71
     5
 72
     1
  1
\A1;6
  7
ＭＳ ゴシック
 11
0.0
 21
1.0
 31
0.0
 73
     1
 44
1.0
  0
POINT
  5
5C7D
330
5C75
100
AcDbEntity
  8
Defpoints
 62
     0
100
AcDbPoint
 10
57.46043540515663
 20
197.1207521227724
 30
0.0
  0
POINT
  5
5C7E
330
5C75
100
AcDbEntity
  8
Defpoints
 62
     0
100
AcDbPoint
 10
63.2153519287707
 20
191.1207521227724
 30
0.0
  0
POINT
  5
5C7F
330
5C75
100
AcDbEntity
  8
Defpoints
 62
     0
100
AcDbPoint
 10
77.8834322030564
 20
191.1207521227724
 30
0.0
  0
ENDBLK
  5
5C80
330
5C75
100
AcDbEntity
  8
0
100
AcDbBlockEnd
  0
BLOCK
  5
5CA1
330
5CA0
100
AcDbEntity
  8
0
100
AcDbBlockBegin
  2
*D29
 70
     1
 10
0.0
 20
0.0
 30
0.0
  3
*D29
  1
*D30
  0
LINE
  5
5CA3
330
5CA0
100
AcDbEntity
  8
寸法
  6
Continuous
 62
     0
370
    -2
100
AcDbLine
 10
103.9325120145531
 20
372.0686993856673
 30
0.0
 11
103.9325120145531
 21
378.7852477434631
 31
0.0
  0
LINE
  5
5CA4
330
5CA0
100
AcDbEntity
  8
寸法
  6
Continuous
 62
     0
370
    -2
100
AcDbLine
 10
112.4325120145531
 20
372.0686993856673
 30
0.0
 11
112.4325120145531
 21
378.7852477434631
 31
0.0
  0
LINE
  5
5CA5
330
5CA0
100
AcDbEntity
  8
寸法
  6
Continuous
 62
     0
370
    -2
100
AcDbLine
 10
105.4325120145531
 20
378.7852477434631
 30
0.0
 11
110.9325120145531
 21
378.7852477434631
 31
0.0
  0
INSERT
  5
5CA6
330
5CA0
100
AcDbEntity
  8
寸法
 62
     0
370
    -2
100
AcDbBlockReference
  2
_DOT
 10
103.9325120145531
 20
378.7852477434631
 30
0.0
 41
1.5
 42
1.5
 43
1.5
 50
180.0
  0
INSERT
  5
5CA7
330
5CA0
100
AcDbEntity
  8
寸法
 62
     0
370
    -2
100
AcDbBlockReference
  2
_DOT
 10
112.4325120145531
 20
378.7852477434631
 30
0.0
 41
1.5
 42
1.5
 43
1.5
  0
MTEXT
  5
5CA8
330
5CA0
100
AcDbEntity
  8
寸法
  6
Continuous
 62
     0
100
AcDbMText
 10
108.1825120145531
 20
383.2852477434631
 30
0.0
 40
5.0
 41
0.0
 46
0.0
 71
     5
 72
     1
  1
\A1;8.5
  7
ＭＳ ゴシック
 73
     1
 44
1.0
  0
POINT
  5
5CA9
330
5CA0
100
AcDbEntity
  8
Defpoints
 62
     0
100
AcDbPoint
 10
103.9325120145531
 20
367.0686993856673
 30
0.0
  0
POINT
  5
5CAA
330
5CA0
100
AcDbEntity
  8
Defpoints
 62
     0
100
AcDbPoint
 10
112.4325120145531
 20
367.0686993856673
 30
0.0
  0
POINT
  5
5CAB
330
5CA0
100
AcDbEntity
  8
Defpoints
 62
     0
100
AcDbPoint
 10
112.4325120145531
 20
378.7852477434631
 30
0.0
  0
ENDBLK
  5
5CA2
330
5CA0
100
AcDbEntity
  8
0
100
AcDbBlockEnd
  0
BLOCK
  5
5CAD
330
5CAC
100
AcDbEntity
  8
0
100
AcDbBlockBegin
  2
*D30
 70
     1
 10
0.0
 20
0.0
 30
0.0
  3
*D30
  1
*D31
  0
LINE
  5
5CAF
330
5CAC
100
AcDbEntity
  8
寸法
  6
Continuous
 62
     0
370
    -2
100
AcDbLine
 10
153.7210231602584
 20
354.7335990428101
 30
0.0
 11
169.1440199581582
 21
354.7335990428101
 31
0.0
  0
LINE
  5
5CB0
330
5CAC
100
AcDbEntity
  8
寸法
  6
Continuous
 62
     0
370
    -2
100
AcDbLine
 10
159.4759396838725
 20
348.7335990428101
 30
0.0
 11
169.1440199581582
 21
348.7335990428101
 31
0.0
  0
LINE
  5
5CB1
330
5CAC
100
AcDbEntity
  8
寸法
  6
Continuous
 62
     0
370
    -2
100
AcDbLine
 10
169.1440199581582
 20
353.2335990428101
 30
0.0
 11
169.1440199581582
 21
350.2335990428101
 31
0.0
  0
INSERT
  5
5CB2
330
5CAC
100
AcDbEntity
  8
寸法
 62
     0
370
    -2
100
AcDbBlockReference
  2
_DOT
 10
169.1440199581582
 20
354.7335990428101
 30
0.0
 41
1.5
 42
1.5
 43
1.5
 50
90.0
  0
INSERT
  5
5CB3
330
5CAC
100
AcDbEntity
  8
寸法
 62
     0
370
    -2
100
AcDbBlockReference
  2
_DOT
 10
169.1440199581582
 20
348.7335990428101
 30
0.0
 41
1.5
 42
1.5
 43
1.5
 50
270.0
  0
MTEXT
  5
5CB4
330
5CAC
100
AcDbEntity
  8
寸法
  6
Continuous
 62
     0
100
AcDbMText
 10
164.6440199581582
 20
351.7335990428101
 30
0.0
 40
5.0
 41
0.0
 46
0.0
 71
     5
 72
     1
  1
\A1;6
  7
ＭＳ ゴシック
 11
0.0
 21
1.0
 31
0.0
 73
     1
 44
1.0
  0
POINT
  5
5CB5
330
5CAC
100
AcDbEntity
  8
Defpoints
 62
     0
100
AcDbPoint
 10
148.7210231602584
 20
354.7335990428101
 30
0.0
  0
POINT
  5
5CB6
330
5CAC
100
AcDbEntity
  8
Defpoints
 62
     0
100
AcDbPoint
 10
154.4759396838725
 20
348.7335990428101
 30
0.0
  0
POINT
  5
5CB7
330
5CAC
100
AcDbEntity
  8
Defpoints
 62
     0
100
AcDbPoint
 10
169.1440199581582
 20
348.7335990428101
 30
0.0
  0
ENDBLK
  5
5CAE
330
5CAC
100
AcDbEntity
  8
0
100
AcDbBlockEnd
  0
ENDSEC
  0
SECTION
  2
ENTITIES
  0
POINT
  5
1301
330
A
100
AcDbEntity
  8
MODEL
100
AcDbPoint
 10
963.7243970754489
 20
138.0847547131194
 30
0.0
  0
POINT
  5
1306
330
A
100
AcDbEntity
  8
MODEL
100
AcDbPoint
 10
847.7244070754489
 20
138.0847547131194
 30
0.0
  0
POINT
  5
1307
330
A
100
AcDbEntity
  8
MODEL
100
AcDbPoint
 10
973.7862873746794
 20
166.0075841667841
 30
0.0
  0
POINT
  5
1308
330
A
100
AcDbEntity
  8
MODEL
100
AcDbPoint
 10
973.7862873746794
 20
184.0075841667841
 30
0.0
  0
POINT
  5
1312
330
A
100
AcDbEntity
  8
MODEL
100
AcDbPoint
 10
810.9244070754489
 20
149.007583882008
 30
0.0
  0
POINT
  5
1313
330
A
100
AcDbEntity
  8
MODEL
100
AcDbPoint
 10
810.9244070754489
 20
201.007583882008
 30
0.0
  0
POINT
  5
131E
330
A
100
AcDbEntity
  8
MODEL
100
AcDbPoint
 10
1111.259263541787
 20
138.207583607055
 30
0.0
  0
POINT
  5
131F
330
A
100
AcDbEntity
  8
MODEL
100
AcDbPoint
 10
1104.759263541787
 20
138.207583607055
 30
0.0
  0
POINT
  5
1342
330
A
100
AcDbEntity
  8
MODEL
100
AcDbPoint
 10
973.354966229004
 20
368.3598201219507
 30
0.0
  0
POINT
  5
1343
330
A
100
AcDbEntity
  8
MODEL
100
AcDbPoint
 10
973.354966229004
 20
319.3598501219507
 30
0.0
  0
POINT
  5
1346
330
A
100
AcDbEntity
  8
MODEL
100
AcDbPoint
 10
983.2218070738209
 20
368.3598201219507
 30
0.0
  0
POINT
  5
1347
330
A
100
AcDbEntity
  8
MODEL
100
AcDbPoint
 10
983.2218070738209
 20
301.3598201219507
 30
0.0
  0
POINT
  5
1350
330
A
100
AcDbEntity
  8
MODEL
100
AcDbPoint
 10
963.7243970754489
 20
286.3598201219507
 30
0.0
  0
POINT
  5
1351
330
A
100
AcDbEntity
  8
MODEL
100
AcDbPoint
 10
838.7244070754489
 20
286.3598201219507
 30
0.0
  0
POINT
  5
1357
330
A
100
AcDbEntity
  8
MODEL
100
AcDbPoint
 10
810.9244070754489
 20
301.3598201219507
 30
0.0
  0
POINT
  5
1359
330
A
100
AcDbEntity
  8
MODEL
100
AcDbPoint
 10
810.9244070754489
 20
361.3598201219507
 30
0.0
  0
POINT
  5
135A
330
A
100
AcDbEntity
  8
MODEL
100
AcDbPoint
 10
810.9244070754489
 20
368.3598201219507
 30
0.0
  0
POINT
  5
135B
330
A
100
AcDbEntity
  8
MODEL
100
AcDbPoint
 10
810.9244070754489
 20
361.3598201219507
 30
0.0
  0
POINT
  5
1371
330
A
100
AcDbEntity
  8
MODEL
100
AcDbPoint
 10
1164.81489702863
 20
383.9337336502628
 30
0.0
  0
POINT
  5
1372
330
A
100
AcDbEntity
  8
MODEL
100
AcDbPoint
 10
1164.81489702863
 20
279.9338376502628
 30
0.0
  0
POINT
  5
1378
330
A
100
AcDbEntity
  8
MODEL
100
AcDbPoint
 10
1180.157201609016
 20
264.2731813749589
 30
0.0
  0
POINT
  5
1379
330
A
100
AcDbEntity
  8
MODEL
100
AcDbPoint
 10
1193.957187809016
 20
264.2731813749589
 30
0.0
  0
POINT
  5
1389
330
A
100
AcDbEntity
  8
MODEL
100
AcDbPoint
 10
1079.093440814797
 20
383.9337336502628
 30
0.0
  0
POINT
  5
138A
330
A
100
AcDbEntity
  8
MODEL
100
AcDbPoint
 10
1079.093440814797
 20
279.9337336502626
 30
0.0
  0
POINT
  5
138D
330
A
100
AcDbEntity
  8
MODEL
100
AcDbPoint
 10
1093.467555113589
 20
264.2731813749589
 30
0.0
  0
POINT
  5
138E
330
A
100
AcDbEntity
  8
MODEL
100
AcDbPoint
 10
1106.467555113589
 20
264.2731813749589
 30
0.0
  0
POINT
  5
1398
330
A
100
AcDbEntity
  8
MODEL
100
AcDbPoint
 10
1180.157201609016
 20
398.2298339817613
 30
0.0
  0
POINT
  5
1399
330
A
100
AcDbEntity
  8
MODEL
100
AcDbPoint
 10
1194.157187609016
 20
398.2298339817613
 30
0.0
  0
POINT
  5
139C
330
A
100
AcDbEntity
  8
MODEL
100
AcDbPoint
 10
1093.467555113589
 20
398.2298339817613
 30
0.0
  0
POINT
  5
139D
330
A
100
AcDbEntity
  8
MODEL
100
AcDbPoint
 10
1107.467555113589
 20
398.2298339817613
 30
0.0
  0
POINT
  5
4967
330
A
100
AcDbEntity
  8
MODEL
 62
     7
100
AcDbPoint
 10
159.6608149866037
 20
1112.943495860789
 30
0.0
  0
POINT
  5
4968
330
A
100
AcDbEntity
  8
MODEL
 62
     7
100
AcDbPoint
 10
159.6608149866037
 20
1058.143496245838
 30
0.0
  0
ARC
  5
4976
330
A
100
AcDbEntity
  8
MODEL
  6
STYLE_02
100
AcDbCircle
 10
408.5085340436043
 20
319.361536770512
 30
0.0
 40
12.0
100
AcDbArc
 50
179.9992630000003
 51
180.4691690000001
  0
LINE
  5
4980
330
A
100
AcDbEntity
  8
MODEL
  6
STYLE_02
100
AcDbLine
 10
396.5089450436043
 20
319.2703297705119
 30
0.0
 11
396.5089360436043
 21
319.2632747705121
 31
0.0
  0
POINT
  5
499D
330
A
100
AcDbEntity
  8
MODEL
 62
     7
100
AcDbPoint
 10
471.5926809920595
 20
1039.574930990415
 30
0.0
  0
POINT
  5
499E
330
A
100
AcDbEntity
  8
MODEL
 62
     7
100
AcDbPoint
 10
478.7926809920594
 20
1039.574930990415
 30
0.0
  0
DIMENSION
  5
4A6C
330
A
100
AcDbEntity
  8
寸法
  6
Continuous
100
AcDbDimension
  2
*D4
 10
82.93797888107828
 20
341.0341771438359
 30
0.0
 11
78.43797888107828
 21
344.883888093323
 31
0.0
 70
    32
 71
     5
 42
7.69942189897415
 73
     0
 74
     0
 75
     0
  3
tfrom線あり
100
AcDbAlignedDimension
 13
100.290987726521
 23
348.7335990428101
 33
0.0
 14
114.8433566712559
 24
341.0341771438359
 34
0.0
 50
90.0
100
AcDbRotatedDimension
1001
ACAD
1000
DSTYLE
1002
{
1070
   271
1070
     0
1002
}
  0
DIMENSION
  5
4A99
330
A
100
AcDbEntity
  8
寸法
  6
Continuous
100
AcDbDimension
  2
*D5
 10
351.1571548855399
 20
293.8366222085349
 30
0.0
 11
346.2521548855399
 21
321.371243540413
 31
0.0
 70
    32
 71
     5
 42
55.06924266375609
 73
     0
 74
     0
 75
     0
  3
tfrom線あり
100
AcDbAlignedDimension
 13
409.3592428309525
 23
348.905864872291
 33
0.0
 14
408.8807156550697
 24
293.8366222085349
 34
0.0
 50
90.0
100
AcDbRotatedDimension
1001
ACAD
1000
DSTYLE
1002
{
1070
   271
1070
     0
1070
     3
1000
φ<>
1002
}
  0
DIMENSION
  5
4AD2
330
A
100
AcDbEntity
  8
寸法
  6
Continuous
100
AcDbDimension
  2
*D6
 10
71.04272018407815
 20
287.00741959673
 30
0.0
 11
66.54272018407815
 21
317.87050931977
 31
0.0
 70
    32
 71
     5
 42
61.7261794460801
 73
     0
 74
     0
 75
     0
  3
tfrom線あり
100
AcDbAlignedDimension
 13
99.42668012116668
 23
348.7335990428101
 33
0.0
 14
109.2114166072214
 24
287.00741959673
 34
0.0
 50
90.0
100
AcDbRotatedDimension
1001
ACAD
1000
DSTYLE
1002
{
1070
   271
1070
     0
1002
}
  0
LINE
  5
4CC1
330
A
100
AcDbEntity
  8
寸法
  6
Continuous
100
AcDbLine
 10
82.93797888107828
 20
347.2335990428101
 30
0.0
 11
82.93797888107828
 21
342.5341771438359
 31
0.0
  0
POINT
  5
4ECE
330
A
100
AcDbEntity
  8
MODEL
 62
     7
100
AcDbPoint
 10
130.0913409417582
 20
1181.156054141915
 30
0.0
  0
POINT
  5
4ECF
330
A
100
AcDbEntity
  8
MODEL
 62
     7
100
AcDbPoint
 10
260.0913409417582
 20
1181.156054141915
 30
0.0
  0
DIMENSION
  5
4EF1
330
A
100
AcDbEntity
  8
寸法
  6
Continuous
100
AcDbDimension
  2
*D8
 10
82.88610781566688
 20
287.00741959673
 30
0.0
 11
78.38610781566688
 21
314.015186703639
 31
0.0
 70
    32
 71
     5
 42
54.015534213818
 73
     0
 74
     0
 75
     0
  3
tfrom線あり
100
AcDbAlignedDimension
 13
115.4322388284302
 23
341.022953810548
 33
0.0
 14
167.5493807854519
 24
287.00741959673
 34
0.0
 50
90.0
100
AcDbRotatedDimension
1001
ACAD
1000
DSTYLE
1002
{
1070
   271
1070
     0
1002
}
  0
LINE
  5
5214
330
A
100
AcDbEntity
  8
MODEL
  6
Continuous
100
AcDbLine
 10
127.1816507401138
 20
208.2628469200383
 30
0.0
 11
127.1816507401138
 21
153.4628469200372
 31
0.0
  0
LINE
  5
5215
330
A
100
AcDbEntity
  8
MODEL
  6
Continuous
100
AcDbLine
 10
127.1816507401138
 20
208.2628469200383
 30
0.0
 11
133.3816507401137
 21
208.2628469200383
 31
0.0
  0
LINE
  5
5216
330
A
100
AcDbEntity
  8
MODEL
  6
Continuous
100
AcDbLine
 10
133.3816507401137
 20
153.4628469200372
 30
0.0
 11
127.1816507401138
 21
153.4628469200372
 31
0.0
  0
LINE
  5
5217
330
A
100
AcDbEntity
  8
MODEL
  6
Continuous
100
AcDbLine
 10
153.5825120145532
 20
341.53359904281
 30
0.0
 11
100.7825120145531
 21
341.53359904281
 31
0.0
  0
ARC
  5
5218
330
A
100
AcDbEntity
  8
MODEL
  6
Continuous
100
AcDbCircle
 10
100.7825120145531
 20
342.53359904281
 30
0.0
 40
1.0
100
AcDbArc
 50
180.0
 51
270.0
  0
ARC
  5
5219
330
A
100
AcDbEntity
  8
MODEL
  6
Continuous
100
AcDbCircle
 10
153.5825120145532
 20
342.53359904281
 30
0.0
 40
1.0
100
AcDbArc
 50
270.0
 51
0.0
  0
LINE
  5
521A
330
A
100
AcDbEntity
  8
MODEL
  6
Continuous
100
AcDbLine
 10
99.78251201455308
 20
342.53359904281
 30
0.0
 11
99.78251201455308
 21
348.7335990428101
 31
0.0
  0
LINE
  5
521B
330
A
100
AcDbEntity
  8
MODEL
  6
Continuous
100
AcDbLine
 10
154.5825120145532
 20
348.7335990428101
 30
0.0
 11
154.5825120145532
 21
342.53359904281
 31
0.0
  0
LINE
  5
521C
330
A
100
AcDbEntity
  8
MODEL
  6
Continuous
100
AcDbLine
 10
139.4237631164623
 20
341.53359904281
 30
0.0
 11
139.4237631164623
 21
341.226058375657
 31
0.0
  0
LINE
  5
521D
330
A
100
AcDbEntity
  8
MODEL
  6
Continuous
100
AcDbLine
 10
139.4237631164623
 20
341.53359904281
 30
0.0
 11
139.4237631164623
 21
341.022953810548
 31
0.0
  0
LINE
  5
521E
330
A
100
AcDbEntity
  8
MODEL
  6
Continuous
100
AcDbLine
 10
114.9237631164623
 20
341.53359904281
 30
0.0
 11
114.9237631164623
 21
341.226058375657
 31
0.0
  0
LINE
  5
521F
330
A
100
AcDbEntity
  8
MODEL
  6
Continuous
100
AcDbLine
 10
114.9237631164623
 20
341.53359904281
 30
0.0
 11
114.9237631164623
 21
341.022953810548
 31
0.0
  0
LINE
  5
5220
330
A
100
AcDbEntity
  8
MODEL
  6
Continuous
100
AcDbLine
 10
408.3770615115546
 20
331.52573804281
 30
0.0
 11
407.4184795115547
 21
331.4818030428099
 31
0.0
  0
LINE
  5
5221
330
A
100
AcDbEntity
  8
MODEL
  6
Continuous
100
AcDbLine
 10
407.4184795115547
 20
331.4818030428099
 30
0.0
 11
406.7023525115547
 21
331.4035940428099
 31
0.0
  0
LINE
  5
5222
330
A
100
AcDbEntity
  8
MODEL
  6
Continuous
100
AcDbLine
 10
406.7023525115547
 20
331.4035940428099
 30
0.0
 11
405.9913985115547
 21
331.28661304281
 31
0.0
  0
LINE
  5
5223
330
A
100
AcDbEntity
  8
MODEL
  6
Continuous
100
AcDbLine
 10
405.9913985115547
 20
331.28661304281
 30
0.0
 11
405.0499115115547
 21
331.0688090428098
 31
0.0
  0
LINE
  5
5224
330
A
100
AcDbEntity
  8
MODEL
  6
Continuous
100
AcDbLine
 10
405.0499115115547
 20
331.0688090428098
 30
0.0
 11
404.3560435115547
 21
330.8597660428109
 31
0.0
  0
LINE
  5
5225
330
A
100
AcDbEntity
  8
MODEL
  6
Continuous
100
AcDbLine
 10
404.3560435115547
 20
330.8597660428109
 30
0.0
 11
403.6751615115547
 21
330.61163304281
 31
0.0
  0
LINE
  5
5226
330
A
100
AcDbEntity
  8
MODEL
  6
Continuous
100
AcDbLine
 10
403.6751615115547
 20
330.61163304281
 30
0.0
 11
402.7870445115547
 21
330.2179510428101
 31
0.0
  0
LINE
  5
5227
330
A
100
AcDbEntity
  8
MODEL
  6
Continuous
100
AcDbLine
 10
402.7870445115547
 20
330.2179510428101
 30
0.0
 11
402.1429485115547
 21
329.8771480428109
 31
0.0
  0
LINE
  5
5228
330
A
100
AcDbEntity
  8
MODEL
  6
Continuous
100
AcDbLine
 10
402.1429485115547
 20
329.8771480428109
 30
0.0
 11
401.5208525115547
 21
329.4976740428099
 31
0.0
  0
LINE
  5
5229
330
A
100
AcDbEntity
  8
MODEL
  6
Continuous
100
AcDbLine
 10
401.5208525115547
 20
329.4976740428099
 30
0.0
 11
400.7268125115547
 21
328.9293300428099
 31
0.0
  0
LINE
  5
522A
330
A
100
AcDbEntity
  8
MODEL
  6
Continuous
100
AcDbLine
 10
400.7268125115547
 20
328.9293300428099
 30
0.0
 11
400.1651375115547
 21
328.4591170428099
 31
0.0
  0
LINE
  5
522B
330
A
100
AcDbEntity
  8
MODEL
  6
Continuous
100
AcDbLine
 10
400.1651375115547
 20
328.4591170428099
 30
0.0
 11
399.6360585115547
 21
327.9521830428098
 31
0.0
  0
LINE
  5
522C
330
A
100
AcDbEntity
  8
MODEL
  6
Continuous
100
AcDbLine
 10
399.6360585115547
 20
327.9521830428098
 30
0.0
 11
398.9846475115547
 21
327.2182090428099
 31
0.0
  0
LINE
  5
522D
330
A
100
AcDbEntity
  8
MODEL
  6
Continuous
100
AcDbLine
 10
398.9846475115547
 20
327.2182090428099
 30
0.0
 11
398.5436665115546
 21
326.6290900428099
 31
0.0
  0
LINE
  5
522E
330
A
100
AcDbEntity
  8
MODEL
  6
Continuous
100
AcDbLine
 10
398.5436665115546
 20
326.6290900428099
 30
0.0
 11
398.1477185115547
 21
326.00961004281
 31
0.0
  0
LINE
  5
522F
330
A
100
AcDbEntity
  8
MODEL
  6
Continuous
100
AcDbLine
 10
398.1477185115547
 20
326.00961004281
 30
0.0
 11
397.8541135115547
 21
325.47068504281
 31
0.0
  0
LINE
  5
5230
330
A
100
AcDbEntity
  8
MODEL
  6
Continuous
100
AcDbLine
 10
397.8541135115547
 20
325.47068504281
 30
0.0
 11
397.5960355115546
 21
324.9140760428109
 31
0.0
  0
LINE
  5
5231
330
A
100
AcDbEntity
  8
MODEL
  6
Continuous
100
AcDbLine
 10
397.5960355115546
 20
324.9140760428109
 30
0.0
 11
397.4159415115548
 21
324.4567060428099
 31
0.0
  0
LINE
  5
5232
330
A
100
AcDbEntity
  8
MODEL
  6
Continuous
100
AcDbLine
 10
397.4159415115548
 20
324.4567060428099
 30
0.0
 11
397.1924405115548
 21
323.7541190428099
 31
0.0
  0
LINE
  5
5233
330
A
100
AcDbEntity
  8
MODEL
  6
Continuous
100
AcDbLine
 10
397.1924405115548
 20
323.7541190428099
 30
0.0
 11
397.0757645115547
 21
323.2760890428099
 31
0.0
  0
LINE
  5
5234
330
A
100
AcDbEntity
  8
MODEL
  6
Continuous
100
AcDbLine
 10
397.0757645115547
 20
323.2760890428099
 30
0.0
 11
396.9504405115547
 21
322.5489340428099
 31
0.0
  0
LINE
  5
5235
330
A
100
AcDbEntity
  8
MODEL
  6
Continuous
100
AcDbLine
 10
396.9504405115547
 20
322.5489340428099
 30
0.0
 11
396.8925415115547
 21
321.93680104281
 31
0.0
  0
LINE
  5
5236
330
A
100
AcDbEntity
  8
MODEL
  6
Continuous
100
AcDbLine
 10
396.8925415115547
 20
321.93680104281
 30
0.0
 11
396.8795685115547
 21
321.6295870428099
 31
0.0
  0
LINE
  5
5237
330
A
100
AcDbEntity
  8
MODEL
  6
Continuous
100
AcDbLine
 10
396.8795685115547
 20
321.6295870428099
 30
0.0
 11
396.8775615115547
 21
321.3220880428099
 31
0.0
  0
ARC
  5
5238
330
A
100
AcDbEntity
  8
MODEL
  6
Continuous
100
AcDbCircle
 10
523.7535445115548
 20
312.38720304281
 30
0.0
 40
19.186985
100
AcDbArc
 50
80.02758400000015
 51
89.43826200000026
  0
LINE
  5
5239
330
A
100
AcDbEntity
  8
MODEL
  6
Continuous
100
AcDbLine
 10
527.0702945115547
 20
331.2853670428099
 30
0.0
 11
525.8878335115546
 21
331.2400440428099
 31
0.0
  0
LINE
  5
523A
330
A
100
AcDbEntity
  8
MODEL
  6
Continuous
100
AcDbLine
 10
525.8878335115546
 20
331.2400440428099
 30
0.0
 11
525.2959155115548
 21
331.2166250428109
 31
0.0
  0
LINE
  5
523B
330
A
100
AcDbEntity
  8
MODEL
  6
Continuous
100
AcDbLine
 10
525.2959155115548
 20
331.2166250428109
 30
0.0
 11
524.9967515115547
 21
331.2044990428099
 31
0.0
  0
LINE
  5
523C
330
A
100
AcDbEntity
  8
MODEL
  6
Continuous
100
AcDbLine
 10
524.9967515115547
 20
331.2044990428099
 30
0.0
 11
524.7003435115547
 21
331.18745104281
 31
0.0
  0
LINE
  5
523D
330
A
100
AcDbEntity
  8
MODEL
  6
Continuous
100
AcDbLine
 10
524.7003435115547
 20
331.18745104281
 30
0.0
 11
524.5527675115547
 21
331.1737720428098
 31
0.0
  0
LINE
  5
523E
330
A
100
AcDbEntity
  8
MODEL
  6
Continuous
100
AcDbLine
 10
524.5527675115547
 20
331.1737720428098
 30
0.0
 11
524.4020255115547
 21
331.1550610428099
 31
0.0
  0
LINE
  5
523F
330
A
100
AcDbEntity
  8
MODEL
  6
Continuous
100
AcDbLine
 10
524.4020255115547
 20
331.1550610428099
 30
0.0
 11
524.2206525115547
 21
331.13602104281
 31
0.0
  0
LINE
  5
5240
330
A
100
AcDbEntity
  8
MODEL
  6
Continuous
100
AcDbLine
 10
524.2206525115547
 20
331.13602104281
 30
0.0
 11
523.9890165115546
 21
331.1201310428099
 31
0.0
  0
LINE
  5
5241
330
A
100
AcDbEntity
  8
MODEL
  6
Continuous
100
AcDbLine
 10
523.9890165115546
 20
331.1201310428099
 30
0.0
 11
523.3831405115548
 21
331.09612704281
 31
0.0
  0
LINE
  5
5242
330
A
100
AcDbEntity
  8
MODEL
  6
Continuous
100
AcDbLine
 10
523.3831405115548
 20
331.09612704281
 30
0.0
 11
522.6057735115546
 21
331.0827930428109
 31
0.0
  0
LINE
  5
5243
330
A
100
AcDbEntity
  8
MODEL
  6
Continuous
100
AcDbLine
 10
522.6057735115546
 20
331.0827930428109
 30
0.0
 11
521.6578945115547
 21
331.0817190428109
 31
0.0
  0
LINE
  5
5244
330
A
100
AcDbEntity
  8
MODEL
  6
Continuous
100
AcDbLine
 10
521.6578945115547
 20
331.0817190428109
 30
0.0
 11
520.5536025115547
 21
331.08878204281
 31
0.0
  0
LINE
  5
5245
330
A
100
AcDbEntity
  8
MODEL
  6
Continuous
100
AcDbLine
 10
520.5536025115547
 20
331.08878204281
 30
0.0
 11
519.3104805115547
 21
331.0999920428099
 31
0.0
  0
LINE
  5
5246
330
A
100
AcDbEntity
  8
MODEL
  6
Continuous
100
AcDbLine
 10
519.3104805115547
 20
331.0999920428099
 30
0.0
 11
517.9400455115547
 21
331.11271504281
 31
0.0
  0
LINE
  5
5247
330
A
100
AcDbEntity
  8
MODEL
  6
Continuous
100
AcDbLine
 10
517.9400455115547
 20
331.11271504281
 30
0.0
 11
514.8884585115547
 21
331.1495480428098
 31
0.0
  0
LINE
  5
5248
330
A
100
AcDbEntity
  8
MODEL
  6
Continuous
100
AcDbLine
 10
514.8884585115547
 20
331.1495480428098
 30
0.0
 11
513.2412845115547
 21
331.1837090428099
 31
0.0
  0
LINE
  5
5249
330
A
100
AcDbEntity
  8
MODEL
  6
Continuous
100
AcDbLine
 10
513.2412845115547
 20
331.1837090428099
 30
0.0
 11
512.3947625115547
 21
331.2056240428099
 31
0.0
  0
LINE
  5
524A
330
A
100
AcDbEntity
  8
MODEL
  6
Continuous
100
AcDbLine
 10
512.3947625115547
 20
331.2056240428099
 30
0.0
 11
511.5362825115546
 21
331.2298400428099
 31
0.0
  0
LINE
  5
524B
330
A
100
AcDbEntity
  8
MODEL
  6
Continuous
100
AcDbLine
 10
511.5362825115546
 20
331.2298400428099
 30
0.0
 11
509.8147155115547
 21
331.2591550428099
 31
0.0
  0
LINE
  5
524C
330
A
100
AcDbEntity
  8
MODEL
  6
Continuous
100
AcDbLine
 10
509.8147155115547
 20
331.2591550428099
 30
0.0
 11
508.0995925115546
 21
331.2629490428099
 31
0.0
  0
LINE
  5
524D
330
A
100
AcDbEntity
  8
MODEL
  6
Continuous
100
AcDbLine
 10
508.0995925115546
 20
331.2629490428099
 30
0.0
 11
506.3936955115547
 21
331.2605540428099
 31
0.0
  0
LINE
  5
524E
330
A
100
AcDbEntity
  8
MODEL
  6
Continuous
100
AcDbLine
 10
506.3936955115547
 20
331.2605540428099
 30
0.0
 11
504.6863735115547
 21
331.26312404281
 31
0.0
  0
LINE
  5
524F
330
A
100
AcDbEntity
  8
MODEL
  6
Continuous
100
AcDbLine
 10
504.6863735115547
 20
331.26312404281
 30
0.0
 11
502.9745805115547
 21
331.27076504281
 31
0.0
  0
LINE
  5
5250
330
A
100
AcDbEntity
  8
MODEL
  6
Continuous
100
AcDbLine
 10
502.9745805115547
 20
331.27076504281
 30
0.0
 11
501.2599905115547
 21
331.2779310428101
 31
0.0
  0
LINE
  5
5251
330
A
100
AcDbEntity
  8
MODEL
  6
Continuous
100
AcDbLine
 10
501.2599905115547
 20
331.2779310428101
 30
0.0
 11
497.8229495115547
 21
331.2905250428099
 31
0.0
  0
LINE
  5
5252
330
A
100
AcDbEntity
  8
MODEL
  6
Continuous
100
AcDbLine
 10
497.8229495115547
 20
331.2905250428099
 30
0.0
 11
490.9319945115546
 21
331.3210430428099
 31
0.0
  0
LINE
  5
5253
330
A
100
AcDbEntity
  8
MODEL
  6
Continuous
100
AcDbLine
 10
490.9319945115546
 20
331.3210430428099
 30
0.0
 11
484.0169155115547
 21
331.3567290428101
 31
0.0
  0
LINE
  5
5254
330
A
100
AcDbEntity
  8
MODEL
  6
Continuous
100
AcDbLine
 10
484.0169155115547
 20
331.3567290428101
 30
0.0
 11
477.0816565115547
 21
331.3947270428098
 31
0.0
  0
LINE
  5
5255
330
A
100
AcDbEntity
  8
MODEL
  6
Continuous
100
AcDbLine
 10
477.0816565115547
 20
331.3947270428098
 30
0.0
 11
463.1680715115547
 21
331.46091404281
 31
0.0
  0
LINE
  5
5256
330
A
100
AcDbEntity
  8
MODEL
  6
Continuous
100
AcDbLine
 10
463.1680715115547
 20
331.46091404281
 30
0.0
 11
449.2232955115547
 21
331.5154850428099
 31
0.0
  0
LINE
  5
5257
330
A
100
AcDbEntity
  8
MODEL
  6
Continuous
100
AcDbLine
 10
527.0702955115546
 20
311.35880704281
 30
0.0
 11
525.8878455115547
 21
311.40413304281
 31
0.0
  0
LINE
  5
5258
330
A
100
AcDbEntity
  8
MODEL
  6
Continuous
100
AcDbLine
 10
525.8878455115547
 20
311.40413304281
 30
0.0
 11
525.2959135115547
 21
311.4275480428099
 31
0.0
  0
LINE
  5
5259
330
A
100
AcDbEntity
  8
MODEL
  6
Continuous
100
AcDbLine
 10
525.2959135115547
 20
311.4275480428099
 30
0.0
 11
524.9967675115547
 21
311.4396780428099
 31
0.0
  0
LINE
  5
525A
330
A
100
AcDbEntity
  8
MODEL
  6
Continuous
100
AcDbLine
 10
524.9967675115547
 20
311.4396780428099
 30
0.0
 11
524.7003735115547
 21
311.4567320428098
 31
0.0
  0
LINE
  5
525B
330
A
100
AcDbEntity
  8
MODEL
  6
Continuous
100
AcDbLine
 10
524.7003735115547
 20
311.4567320428098
 30
0.0
 11
524.5527155115547
 21
311.4703920428099
 31
0.0
  0
LINE
  5
525C
330
A
100
AcDbEntity
  8
MODEL
  6
Continuous
100
AcDbLine
 10
524.5527155115547
 20
311.4703920428099
 30
0.0
 11
524.4020965115546
 21
311.48913104281
 31
0.0
  0
LINE
  5
525D
330
A
100
AcDbEntity
  8
MODEL
  6
Continuous
100
AcDbLine
 10
524.4020965115546
 20
311.48913104281
 30
0.0
 11
524.2207185115547
 21
311.5081690428099
 31
0.0
  0
LINE
  5
525E
330
A
100
AcDbEntity
  8
MODEL
  6
Continuous
100
AcDbLine
 10
524.2207185115547
 20
311.5081690428099
 30
0.0
 11
523.9889605115548
 21
311.5240390428099
 31
0.0
  0
LINE
  5
525F
330
A
100
AcDbEntity
  8
MODEL
  6
Continuous
100
AcDbLine
 10
523.9889605115548
 20
311.5240390428099
 30
0.0
 11
523.3831555115546
 21
311.5480560428098
 31
0.0
  0
LINE
  5
5260
330
A
100
AcDbEntity
  8
MODEL
  6
Continuous
100
AcDbLine
 10
523.3831555115546
 20
311.5480560428098
 30
0.0
 11
522.6058235115547
 21
311.56139604281
 31
0.0
  0
LINE
  5
5261
330
A
100
AcDbEntity
  8
MODEL
  6
Continuous
100
AcDbLine
 10
522.6058235115547
 20
311.56139604281
 30
0.0
 11
521.6578775115547
 21
311.5624770428099
 31
0.0
  0
LINE
  5
5262
330
A
100
AcDbEntity
  8
MODEL
  6
Continuous
100
AcDbLine
 10
521.6578775115547
 20
311.5624770428099
 30
0.0
 11
520.5536075115547
 21
311.5554120428099
 31
0.0
  0
LINE
  5
5263
330
A
100
AcDbEntity
  8
MODEL
  6
Continuous
100
AcDbLine
 10
520.5536075115547
 20
311.5554120428099
 30
0.0
 11
519.3105525115548
 21
311.5442070428099
 31
0.0
  0
LINE
  5
5264
330
A
100
AcDbEntity
  8
MODEL
  6
Continuous
100
AcDbLine
 10
519.3105525115548
 20
311.5442070428099
 30
0.0
 11
517.9401105115548
 21
311.5314850428099
 31
0.0
  0
LINE
  5
5265
330
A
100
AcDbEntity
  8
MODEL
  6
Continuous
100
AcDbLine
 10
517.9401105115548
 20
311.5314850428099
 30
0.0
 11
514.8885275115547
 21
311.49466604281
 31
0.0
  0
LINE
  5
5266
330
A
100
AcDbEntity
  8
MODEL
  6
Continuous
100
AcDbLine
 10
514.8885275115547
 20
311.49466604281
 30
0.0
 11
513.2413705115547
 21
311.4605220428101
 31
0.0
  0
LINE
  5
5267
330
A
100
AcDbEntity
  8
MODEL
  6
Continuous
100
AcDbLine
 10
513.2413705115547
 20
311.4605220428101
 30
0.0
 11
512.3948305115547
 21
311.4385910428098
 31
0.0
  0
LINE
  5
5268
330
A
100
AcDbEntity
  8
MODEL
  6
Continuous
100
AcDbLine
 10
512.3948305115547
 20
311.4385910428098
 30
0.0
 11
511.5364155115547
 21
311.4144370428099
 31
0.0
  0
LINE
  5
5269
330
A
100
AcDbEntity
  8
MODEL
  6
Continuous
100
AcDbLine
 10
511.5364155115547
 20
311.4144370428099
 30
0.0
 11
509.8147535115547
 21
311.3850630428099
 31
0.0
  0
LINE
  5
526A
330
A
100
AcDbEntity
  8
MODEL
  6
Continuous
100
AcDbLine
 10
509.8147535115547
 20
311.3850630428099
 30
0.0
 11
508.0996545115547
 21
311.38126504281
 31
0.0
  0
LINE
  5
526B
330
A
100
AcDbEntity
  8
MODEL
  6
Continuous
100
AcDbLine
 10
508.0996545115547
 20
311.38126504281
 30
0.0
 11
506.3938265115547
 21
311.3836740428099
 31
0.0
  0
LINE
  5
526C
330
A
100
AcDbEntity
  8
MODEL
  6
Continuous
100
AcDbLine
 10
506.3938265115547
 20
311.3836740428099
 30
0.0
 11
504.6864365115547
 21
311.3811340428099
 31
0.0
  0
LINE
  5
526D
330
A
100
AcDbEntity
  8
MODEL
  6
Continuous
100
AcDbLine
 10
504.6864365115547
 20
311.3811340428099
 30
0.0
 11
502.9747005115547
 21
311.3735010428109
 31
0.0
  0
LINE
  5
526E
330
A
100
AcDbEntity
  8
MODEL
  6
Continuous
100
AcDbLine
 10
502.9747005115547
 20
311.3735010428109
 30
0.0
 11
501.2601005115547
 21
311.3663400428109
 31
0.0
  0
LINE
  5
526F
330
A
100
AcDbEntity
  8
MODEL
  6
Continuous
100
AcDbLine
 10
501.2601005115547
 20
311.3663400428109
 30
0.0
 11
497.8230315115547
 21
311.3537570428098
 31
0.0
  0
LINE
  5
5270
330
A
100
AcDbEntity
  8
MODEL
  6
Continuous
100
AcDbLine
 10
497.8230315115547
 20
311.3537570428098
 30
0.0
 11
490.9320705115547
 21
311.3232680428098
 31
0.0
  0
LINE
  5
5271
330
A
100
AcDbEntity
  8
MODEL
  6
Continuous
100
AcDbLine
 10
490.9320705115547
 20
311.3232680428098
 30
0.0
 11
484.0169855115547
 21
311.28761804281
 31
0.0
  0
LINE
  5
5272
330
A
100
AcDbEntity
  8
MODEL
  6
Continuous
100
AcDbLine
 10
484.0169855115547
 20
311.28761804281
 30
0.0
 11
477.0817235115547
 21
311.2496580428099
 31
0.0
  0
LINE
  5
5273
330
A
100
AcDbEntity
  8
MODEL
  6
Continuous
100
AcDbLine
 10
477.0817235115547
 20
311.2496580428099
 30
0.0
 11
463.1680875115547
 21
311.18355504281
 31
0.0
  0
LINE
  5
5274
330
A
100
AcDbEntity
  8
MODEL
  6
Continuous
100
AcDbLine
 10
463.1680875115547
 20
311.18355504281
 30
0.0
 11
449.2232955115547
 21
311.1290390428099
 31
0.0
  0
ARC
  5
5275
330
A
100
AcDbEntity
  8
MODEL
  6
Continuous
100
AcDbCircle
 10
523.7535445115548
 20
330.2569700428099
 30
0.0
 40
19.186985
100
AcDbArc
 50
270.5617379999997
 51
279.9710289999999
  0
LINE
  5
5276
330
A
100
AcDbEntity
  8
MODEL
  6
Continuous
100
AcDbLine
 10
408.3775465115547
 20
331.5263740428109
 30
0.0
 11
449.2267445115547
 21
331.5158100428098
 31
0.0
  0
LINE
  5
5277
330
A
100
AcDbEntity
  8
MODEL
  6
STYLE_01
100
AcDbLine
 10
449.2233025115547
 20
331.5050280428109
 30
0.0
 11
449.1829295115547
 21
331.50452504281
 31
0.0
  0
LINE
  5
5278
330
A
100
AcDbEntity
  8
MODEL
  6
Continuous
100
AcDbLine
 10
527.8716195115546
 20
312.1610990428099
 30
0.0
 11
527.8781645115547
 21
312.1612690428099
 31
0.0
  0
LINE
  5
5279
330
A
100
AcDbEntity
  8
MODEL
  6
Continuous
100
AcDbLine
 10
527.8781645115547
 20
312.1612690428099
 30
0.0
 11
527.8807655115547
 21
312.16148004281
 31
0.0
  0
LINE
  5
527A
330
A
100
AcDbEntity
  8
MODEL
  6
Continuous
100
AcDbLine
 10
527.8807655115547
 20
312.16148004281
 30
0.0
 11
527.8829165115546
 21
312.1617750428109
 31
0.0
  0
LINE
  5
527B
330
A
100
AcDbEntity
  8
MODEL
  6
Continuous
100
AcDbLine
 10
527.8829165115546
 20
312.1617750428109
 30
0.0
 11
527.8846185115547
 21
312.1621540428098
 31
0.0
  0
LINE
  5
527C
330
A
100
AcDbEntity
  8
MODEL
  6
Continuous
100
AcDbLine
 10
527.8846185115547
 20
312.1621540428098
 30
0.0
 11
527.8852995115546
 21
312.1623750428099
 31
0.0
  0
LINE
  5
527D
330
A
100
AcDbEntity
  8
MODEL
  6
Continuous
100
AcDbLine
 10
527.8852995115546
 20
312.1623750428099
 30
0.0
 11
527.8858685115547
 21
312.1626170428099
 31
0.0
  0
LINE
  5
527E
330
A
100
AcDbEntity
  8
MODEL
  6
Continuous
100
AcDbLine
 10
527.8858685115547
 20
312.1626170428099
 30
0.0
 11
527.8861105115548
 21
312.1627460428099
 31
0.0
  0
LINE
  5
527F
330
A
100
AcDbEntity
  8
MODEL
  6
Continuous
100
AcDbLine
 10
527.8861105115548
 20
312.1627460428099
 30
0.0
 11
527.8863245115547
 21
312.1628800428101
 31
0.0
  0
LINE
  5
5280
330
A
100
AcDbEntity
  8
MODEL
  6
Continuous
100
AcDbLine
 10
527.8863245115547
 20
312.1628800428101
 30
0.0
 11
527.8865105115547
 21
312.16301904281
 31
0.0
  0
LINE
  5
5281
330
A
100
AcDbEntity
  8
MODEL
  6
Continuous
100
AcDbLine
 10
527.8865105115547
 20
312.16301904281
 30
0.0
 11
527.8865925115547
 21
312.16309004281
 31
0.0
  0
LINE
  5
5282
330
A
100
AcDbEntity
  8
MODEL
  6
Continuous
100
AcDbLine
 10
527.8865925115547
 20
312.16309004281
 30
0.0
 11
527.8866675115546
 21
312.1631630428099
 31
0.0
  0
LINE
  5
5283
330
A
100
AcDbEntity
  8
MODEL
  6
Continuous
100
AcDbLine
 10
527.8866675115546
 20
312.1631630428099
 30
0.0
 11
527.8867355115547
 21
312.16323704281
 31
0.0
  0
LINE
  5
5284
330
A
100
AcDbEntity
  8
MODEL
  6
Continuous
100
AcDbLine
 10
527.8867355115547
 20
312.16323704281
 30
0.0
 11
527.8867965115548
 21
312.16331304281
 31
0.0
  0
LINE
  5
5285
330
A
100
AcDbEntity
  8
MODEL
  6
Continuous
100
AcDbLine
 10
527.8867965115548
 20
312.16331304281
 30
0.0
 11
527.8868505115547
 21
312.16338904281
 31
0.0
  0
LINE
  5
5286
330
A
100
AcDbEntity
  8
MODEL
  6
Continuous
100
AcDbLine
 10
527.8868505115547
 20
312.16338904281
 30
0.0
 11
527.8868975115547
 21
312.1634670428101
 31
0.0
  0
LINE
  5
5287
330
A
100
AcDbEntity
  8
MODEL
  6
Continuous
100
AcDbLine
 10
527.8868975115547
 20
312.1634670428101
 30
0.0
 11
527.8869375115546
 21
312.1635470428099
 31
0.0
  0
LINE
  5
5288
330
A
100
AcDbEntity
  8
MODEL
  6
Continuous
100
AcDbLine
 10
527.8869375115546
 20
312.1635470428099
 30
0.0
 11
527.8869695115548
 21
312.1636270428099
 31
0.0
  0
LINE
  5
5289
330
A
100
AcDbEntity
  8
MODEL
  6
Continuous
100
AcDbLine
 10
527.8869695115548
 20
312.1636270428099
 30
0.0
 11
527.8869955115547
 21
312.1637090428099
 31
0.0
  0
LINE
  5
528A
330
A
100
AcDbEntity
  8
MODEL
  6
Continuous
100
AcDbLine
 10
527.8869955115547
 20
312.1637090428099
 30
0.0
 11
527.8870145115548
 21
312.1637930428099
 31
0.0
  0
LINE
  5
528B
330
A
100
AcDbEntity
  8
MODEL
  6
Continuous
100
AcDbLine
 10
411.4973325115546
 20
332.4036000428098
 30
0.0
 11
417.8874655115547
 21
332.3669420428099
 31
0.0
  0
LINE
  5
528C
330
A
100
AcDbEntity
  8
MODEL
  6
Continuous
100
AcDbLine
 10
417.8874655115547
 20
332.3669420428099
 30
0.0
 11
424.5196795115547
 21
332.3433670428099
 31
0.0
  0
LINE
  5
528D
330
A
100
AcDbEntity
  8
MODEL
  6
Continuous
100
AcDbLine
 10
424.5196795115547
 20
332.3433670428099
 30
0.0
 11
431.2442915115547
 21
332.3272490428099
 31
0.0
  0
ARC
  5
528E
330
A
100
AcDbEntity
  8
MODEL
  6
Continuous
100
AcDbCircle
 10
526.9030855115548
 20
330.2995620428099
 30
0.0
 40
1.000404
100
AcDbArc
 50
10.41411300000292
 51
80.02758399999948
  0
ARC
  5
528F
330
A
100
AcDbEntity
  8
MODEL
  6
Continuous
100
AcDbCircle
 10
526.9025495115548
 20
312.3451200428099
 30
0.0
 40
1.00103
100
AcDbArc
 50
279.971029
 51
349.5637230000009
  0
LINE
  5
5290
330
A
100
AcDbEntity
  8
MODEL
  6
Continuous
100
AcDbLine
 10
449.2233065115547
 20
310.32103404281
 30
0.0
 11
523.9416545115547
 21
311.0708590428099
 31
0.0
  0
LINE
  5
5291
330
A
100
AcDbEntity
  8
MODEL
  6
Continuous
100
AcDbLine
 10
449.2233065115547
 20
332.3231400428099
 30
0.0
 11
523.9416545115547
 21
331.5733150428098
 31
0.0
  0
LINE
  5
5292
330
A
100
AcDbEntity
  8
MODEL
  6
Continuous
100
AcDbLine
 10
527.8870095115547
 20
330.4803980428099
 30
0.0
 11
528.2941375115547
 21
327.88186504281
 31
0.0
  0
LINE
  5
5293
330
A
100
AcDbEntity
  8
MODEL
  6
Continuous
100
AcDbLine
 10
528.2941375115547
 20
327.88186504281
 30
0.0
 11
528.5661045115546
 21
325.2652090428099
 31
0.0
  0
LINE
  5
5294
330
A
100
AcDbEntity
  8
MODEL
  6
Continuous
100
AcDbLine
 10
528.5661045115546
 20
325.2652090428099
 30
0.0
 11
528.7022995115547
 21
322.63768004281
 31
0.0
  0
LINE
  5
5295
330
A
100
AcDbEntity
  8
MODEL
  6
Continuous
100
AcDbLine
 10
528.7022995115547
 20
322.63768004281
 30
0.0
 11
528.7022605115546
 21
320.00650904281
 31
0.0
  0
LINE
  5
5296
330
A
100
AcDbEntity
  8
MODEL
  6
Continuous
100
AcDbLine
 10
528.7022605115546
 20
320.00650904281
 30
0.0
 11
528.5660785115547
 21
317.37897004281
 31
0.0
  0
LINE
  5
5297
330
A
100
AcDbEntity
  8
MODEL
  6
Continuous
100
AcDbLine
 10
528.5660785115547
 20
317.37897004281
 30
0.0
 11
528.4470305115547
 21
316.06883104281
 31
0.0
  0
LINE
  5
5298
330
A
100
AcDbEntity
  8
MODEL
  6
Continuous
100
AcDbLine
 10
528.4470305115547
 20
316.06883104281
 30
0.0
 11
528.2941535115547
 21
314.76231004281
 31
0.0
  0
LINE
  5
5299
330
A
100
AcDbEntity
  8
MODEL
  6
Continuous
100
AcDbLine
 10
528.2941535115547
 20
314.76231004281
 30
0.0
 11
528.1074805115547
 21
313.4603210428109
 31
0.0
  0
LINE
  5
529A
330
A
100
AcDbEntity
  8
MODEL
  6
Continuous
100
AcDbLine
 10
528.1074805115547
 20
313.4603210428109
 30
0.0
 11
528.0013295115547
 21
312.8113440428099
 31
0.0
  0
LINE
  5
529B
330
A
100
AcDbEntity
  8
MODEL
  6
Continuous
100
AcDbLine
 10
528.0013295115547
 20
312.8113440428099
 30
0.0
 11
527.9454155115548
 21
312.4873390428109
 31
0.0
  0
LINE
  5
529C
330
A
100
AcDbEntity
  8
MODEL
  6
Continuous
100
AcDbLine
 10
527.9454155115548
 20
312.4873390428109
 30
0.0
 11
527.8870135115546
 21
312.16379204281
 31
0.0
  0
LINE
  5
529D
330
A
100
AcDbEntity
  8
MODEL
  6
Continuous
100
AcDbLine
 10
431.2442915115547
 20
332.3272490428099
 30
0.0
 11
449.2233065115547
 21
332.3231400428099
 31
0.0
  0
LINE
  5
529E
330
A
100
AcDbEntity
  8
MODEL
  6
Continuous
100
AcDbLine
 10
431.2442915115547
 20
310.33995004281
 30
0.0
 11
449.2233065115547
 21
310.34405904281
 31
0.0
  0
LINE
  5
529F
330
A
100
AcDbEntity
  8
MODEL
  6
Continuous
100
AcDbLine
 10
411.4973325115546
 20
310.26359804281
 30
0.0
 11
417.8874655115547
 21
310.3002570428098
 31
0.0
  0
LINE
  5
52A0
330
A
100
AcDbEntity
  8
MODEL
  6
Continuous
100
AcDbLine
 10
417.8874655115547
 20
310.3002570428098
 30
0.0
 11
424.5196795115547
 21
310.3238310428099
 31
0.0
  0
LINE
  5
52A1
330
A
100
AcDbEntity
  8
MODEL
  6
Continuous
100
AcDbLine
 10
424.5196795115547
 20
310.3238310428099
 30
0.0
 11
431.2442915115547
 21
310.33995004281
 31
0.0
  0
LINE
  5
52A2
330
A
100
AcDbEntity
  8
MODEL
  6
Continuous
100
AcDbLine
 10
408.3775465115547
 20
311.14082404281
 30
0.0
 11
449.2267445115547
 21
311.15138804281
 31
0.0
  0
LINE
  5
52A3
330
A
100
AcDbEntity
  8
MODEL
  6
Continuous
100
AcDbLine
 10
408.3770615115546
 20
311.1414610428099
 30
0.0
 11
407.4184795115547
 21
311.1853950428099
 31
0.0
  0
LINE
  5
52A4
330
A
100
AcDbEntity
  8
MODEL
  6
Continuous
100
AcDbLine
 10
407.4184795115547
 20
311.1853950428099
 30
0.0
 11
406.7023525115547
 21
311.26360404281
 31
0.0
  0
LINE
  5
52A5
330
A
100
AcDbEntity
  8
MODEL
  6
Continuous
100
AcDbLine
 10
406.7023525115547
 20
311.26360404281
 30
0.0
 11
405.9913985115547
 21
311.3805850428099
 31
0.0
  0
LINE
  5
52A6
330
A
100
AcDbEntity
  8
MODEL
  6
Continuous
100
AcDbLine
 10
405.9913985115547
 20
311.3805850428099
 30
0.0
 11
405.0499115115547
 21
311.5983900428099
 31
0.0
  0
LINE
  5
52A7
330
A
100
AcDbEntity
  8
MODEL
  6
Continuous
100
AcDbLine
 10
405.0499115115547
 20
311.5983900428099
 30
0.0
 11
404.3560435115547
 21
311.80743204281
 31
0.0
  0
LINE
  5
52A8
330
A
100
AcDbEntity
  8
MODEL
  6
Continuous
100
AcDbLine
 10
404.3560435115547
 20
311.80743204281
 30
0.0
 11
403.6751615115547
 21
312.05556604281
 31
0.0
  0
LINE
  5
52A9
330
A
100
AcDbEntity
  8
MODEL
  6
Continuous
100
AcDbLine
 10
403.6751615115547
 20
312.05556604281
 30
0.0
 11
402.7870445115547
 21
312.44924704281
 31
0.0
  0
LINE
  5
52AA
330
A
100
AcDbEntity
  8
MODEL
  6
Continuous
100
AcDbLine
 10
402.7870445115547
 20
312.44924704281
 30
0.0
 11
402.1429485115547
 21
312.7900510428099
 31
0.0
  0
LINE
  5
52AB
330
A
100
AcDbEntity
  8
MODEL
  6
Continuous
100
AcDbLine
 10
402.1429485115547
 20
312.7900510428099
 30
0.0
 11
401.5208525115547
 21
313.1695250428109
 31
0.0
  0
LINE
  5
52AC
330
A
100
AcDbEntity
  8
MODEL
  6
Continuous
100
AcDbLine
 10
401.5208525115547
 20
313.1695250428109
 30
0.0
 11
400.7268125115547
 21
313.7378680428099
 31
0.0
  0
LINE
  5
52AD
330
A
100
AcDbEntity
  8
MODEL
  6
Continuous
100
AcDbLine
 10
400.7268125115547
 20
313.7378680428099
 30
0.0
 11
400.1651375115547
 21
314.20808104281
 31
0.0
  0
LINE
  5
52AE
330
A
100
AcDbEntity
  8
MODEL
  6
Continuous
100
AcDbLine
 10
400.1651375115547
 20
314.20808104281
 30
0.0
 11
399.6360585115547
 21
314.7150160428099
 31
0.0
  0
LINE
  5
52AF
330
A
100
AcDbEntity
  8
MODEL
  6
Continuous
100
AcDbLine
 10
399.6360585115547
 20
314.7150160428099
 30
0.0
 11
398.9846475115547
 21
315.44898904281
 31
0.0
  0
LINE
  5
52B0
330
A
100
AcDbEntity
  8
MODEL
  6
Continuous
100
AcDbLine
 10
398.9846475115547
 20
315.44898904281
 30
0.0
 11
398.5436665115546
 21
316.0381080428099
 31
0.0
  0
LINE
  5
52B1
330
A
100
AcDbEntity
  8
MODEL
  6
Continuous
100
AcDbLine
 10
398.5436665115546
 20
316.0381080428099
 30
0.0
 11
398.1477185115547
 21
316.6575890428099
 31
0.0
  0
LINE
  5
52B2
330
A
100
AcDbEntity
  8
MODEL
  6
Continuous
100
AcDbLine
 10
398.1477185115547
 20
316.6575890428099
 30
0.0
 11
397.8541135115547
 21
317.19651404281
 31
0.0
  0
LINE
  5
52B3
330
A
100
AcDbEntity
  8
MODEL
  6
Continuous
100
AcDbLine
 10
397.8541135115547
 20
317.19651404281
 30
0.0
 11
397.5960355115546
 21
317.7531230428099
 31
0.0
  0
LINE
  5
52B4
330
A
100
AcDbEntity
  8
MODEL
  6
Continuous
100
AcDbLine
 10
397.5960355115546
 20
317.7531230428099
 30
0.0
 11
397.4159415115548
 21
318.2104930428109
 31
0.0
  0
LINE
  5
52B5
330
A
100
AcDbEntity
  8
MODEL
  6
Continuous
100
AcDbLine
 10
397.4159415115548
 20
318.2104930428109
 30
0.0
 11
397.1924405115548
 21
318.9130790428099
 31
0.0
  0
LINE
  5
52B6
330
A
100
AcDbEntity
  8
MODEL
  6
Continuous
100
AcDbLine
 10
397.1924405115548
 20
318.9130790428099
 30
0.0
 11
397.0757645115547
 21
319.3911100428109
 31
0.0
  0
LINE
  5
52B7
330
A
100
AcDbEntity
  8
MODEL
  6
Continuous
100
AcDbLine
 10
397.0757645115547
 20
319.3911100428109
 30
0.0
 11
396.9504405115547
 21
320.11826504281
 31
0.0
  0
LINE
  5
52B8
330
A
100
AcDbEntity
  8
MODEL
  6
Continuous
100
AcDbLine
 10
396.9504405115547
 20
320.11826504281
 30
0.0
 11
396.8925415115547
 21
320.73039704281
 31
0.0
  0
LINE
  5
52B9
330
A
100
AcDbEntity
  8
MODEL
  6
Continuous
100
AcDbLine
 10
396.8925415115547
 20
320.73039704281
 30
0.0
 11
396.8795685115547
 21
321.0376120428101
 31
0.0
  0
LINE
  5
52BA
330
A
100
AcDbEntity
  8
MODEL
  6
Continuous
100
AcDbLine
 10
396.8795685115547
 20
321.0376120428101
 30
0.0
 11
396.8775615115547
 21
321.3451100428099
 31
0.0
  0
ARC
  5
52BB
330
A
100
AcDbEntity
  8
MODEL
  6
Continuous
100
AcDbCircle
 10
408.8721245115547
 20
321.33359904281
 30
0.0
 40
12.0
100
AcDbArc
 50
67.13648400000042
 51
292.8635160000001
  0
ARC
  5
52BC
330
A
100
AcDbEntity
  8
MODEL
  6
DASHED1
100
AcDbCircle
 10
409.2435195115547
 20
321.26995504281
 30
0.0
 40
11.53571
100
AcDbArc
 50
52.40669999999938
 51
69.75242199999997
  0
LINE
  5
52BD
330
A
100
AcDbEntity
  8
MODEL
  6
STYLE_01
100
AcDbLine
 10
419.0193205115547
 20
321.3232030428099
 30
0.0
 11
419.0127295115547
 21
321.9794510428099
 31
0.0
  0
LINE
  5
52BE
330
A
100
AcDbEntity
  8
MODEL
  6
DASHED1
100
AcDbLine
 10
419.0127295115547
 20
321.9794510428099
 30
0.0
 11
418.9783055115548
 21
322.6392910428099
 31
0.0
  0
LINE
  5
52BF
330
A
100
AcDbEntity
  8
MODEL
  6
DASHED1
100
AcDbLine
 10
418.9783055115548
 20
322.6392910428099
 30
0.0
 11
418.8340545115547
 21
323.97773804281
 31
0.0
  0
LINE
  5
52C0
330
A
100
AcDbEntity
  8
MODEL
  6
DASHED1
100
AcDbLine
 10
418.8340545115547
 20
323.97773804281
 30
0.0
 11
418.5903505115547
 21
325.29881604281
 31
0.0
  0
LINE
  5
52C1
330
A
100
AcDbEntity
  8
MODEL
  6
DASHED1
100
AcDbLine
 10
418.5903505115547
 20
325.29881604281
 30
0.0
 11
418.2411515115547
 21
326.5939520428099
 31
0.0
  0
LINE
  5
52C2
330
A
100
AcDbEntity
  8
MODEL
  6
DASHED1
100
AcDbLine
 10
418.2411515115547
 20
326.5939520428099
 30
0.0
 11
418.0246405115548
 21
327.2289010428099
 31
0.0
  0
LINE
  5
52C3
330
A
100
AcDbEntity
  8
MODEL
  6
DASHED1
100
AcDbLine
 10
418.0246405115548
 20
327.2289010428099
 30
0.0
 11
417.7787635115546
 21
327.8530250428099
 31
0.0
  0
LINE
  5
52C4
330
A
100
AcDbEntity
  8
MODEL
  6
STYLE_01
100
AcDbLine
 10
417.7787635115546
 20
327.8530250428099
 30
0.0
 11
417.5026265115547
 21
328.4640920428099
 31
0.0
  0
LINE
  5
52C5
330
A
100
AcDbEntity
  8
MODEL
  6
DASHED1
100
AcDbLine
 10
417.5026265115547
 20
328.4640920428099
 30
0.0
 11
417.1956065115547
 21
329.0603670428109
 31
0.0
  0
LINE
  5
52C6
330
A
100
AcDbEntity
  8
MODEL
  6
STYLE_01
100
AcDbLine
 10
417.1956065115547
 20
329.0603670428109
 30
0.0
 11
416.8583175115547
 21
329.6375340428099
 31
0.0
  0
LINE
  5
52C7
330
A
100
AcDbEntity
  8
MODEL
  6
DASHED1
100
AcDbLine
 10
416.8583175115547
 20
329.6375340428099
 30
0.0
 11
416.4883275115546
 21
330.1939320428099
 31
0.0
  0
LINE
  5
52C8
330
A
100
AcDbEntity
  8
MODEL
  6
DASHED1
100
AcDbLine
 10
419.0193205115547
 20
321.3439950428099
 30
0.0
 11
419.0127295115547
 21
320.68774804281
 31
0.0
  0
LINE
  5
52C9
330
A
100
AcDbEntity
  8
MODEL
  6
STYLE_01
100
AcDbLine
 10
419.0127295115547
 20
320.68774804281
 30
0.0
 11
418.9783055115548
 21
320.0279070428099
 31
0.0
  0
LINE
  5
52CA
330
A
100
AcDbEntity
  8
MODEL
  6
DASHED1
100
AcDbLine
 10
418.9783055115548
 20
320.0279070428099
 30
0.0
 11
418.8340545115547
 21
318.68946004281
 31
0.0
  0
LINE
  5
52CB
330
A
100
AcDbEntity
  8
MODEL
  6
DASHED1
100
AcDbLine
 10
418.8340545115547
 20
318.68946004281
 30
0.0
 11
418.5903505115547
 21
317.36838304281
 31
0.0
  0
LINE
  5
52CC
330
A
100
AcDbEntity
  8
MODEL
  6
DASHED1
100
AcDbLine
 10
418.5903505115547
 20
317.36838304281
 30
0.0
 11
418.2411515115547
 21
316.07324704281
 31
0.0
  0
LINE
  5
52CD
330
A
100
AcDbEntity
  8
MODEL
  6
DASHED1
100
AcDbLine
 10
418.2411515115547
 20
316.07324704281
 30
0.0
 11
418.0246405115548
 21
315.4382980428109
 31
0.0
  0
LINE
  5
52CE
330
A
100
AcDbEntity
  8
MODEL
  6
STYLE_01
100
AcDbLine
 10
418.0246405115548
 20
315.4382980428109
 30
0.0
 11
417.7787635115546
 21
314.81417304281
 31
0.0
  0
LINE
  5
52CF
330
A
100
AcDbEntity
  8
MODEL
  6
DASHED1
100
AcDbLine
 10
417.7787635115546
 20
314.81417304281
 30
0.0
 11
417.5026265115547
 21
314.2031060428099
 31
0.0
  0
LINE
  5
52D0
330
A
100
AcDbEntity
  8
MODEL
  6
STYLE_01
100
AcDbLine
 10
417.5026265115547
 20
314.2031060428099
 30
0.0
 11
417.1956065115547
 21
313.6068320428099
 31
0.0
  0
LINE
  5
52D1
330
A
100
AcDbEntity
  8
MODEL
  6
DASHED1
100
AcDbLine
 10
417.1956065115547
 20
313.6068320428099
 30
0.0
 11
416.8583175115547
 21
313.0296650428109
 31
0.0
  0
LINE
  5
52D2
330
A
100
AcDbEntity
  8
MODEL
  6
DASHED1
100
AcDbLine
 10
416.8583175115547
 20
313.0296650428109
 30
0.0
 11
416.4883275115546
 21
312.4732660428099
 31
0.0
  0
ARC
  5
52D3
330
A
100
AcDbEntity
  8
MODEL
  6
DASHED1
100
AcDbCircle
 10
409.2435195115547
 20
321.3972430428099
 30
0.0
 40
11.53571
100
AcDbArc
 50
290.247578
 51
307.5933000000009
  0
ARC
  5
52D4
330
A
100
AcDbEntity
  8
MODEL
  6
DASHED1
100
AcDbCircle
 10
408.8721245115547
 20
321.33359904281
 30
0.0
 40
12.0
100
AcDbArc
 50
292.8635160000001
 51
67.13648400000042
  0
CIRCLE
  5
52D5
330
A
100
AcDbEntity
  8
MODEL
  6
DASHED1
100
AcDbCircle
 10
408.8721245115547
 20
321.33359904281
 30
0.0
 40
8.925
  0
ARC
  5
52D6
330
A
100
AcDbEntity
  8
MODEL
  6
STYLE_01
100
AcDbCircle
 10
415.6717855115547
 20
329.61711704281
 30
0.0
 40
1.000143
100
AcDbArc
 50
35.38738599999387
 51
52.4813289999898
  0
LINE
  5
52D7
330
A
100
AcDbEntity
  8
MODEL
  6
STYLE_01
100
AcDbLine
 10
416.3396745115547
 20
330.3616670428099
 30
0.0
 11
416.4882655115547
 21
330.19430104281
 31
0.0
  0
LINE
  5
52D8
330
A
100
AcDbEntity
  8
MODEL
  6
STYLE_01
100
AcDbLine
 10
416.3396745115547
 20
312.3055320428101
 30
0.0
 11
416.4882655115547
 21
312.4728970428098
 31
0.0
  0
ARC
  5
52D9
330
A
100
AcDbEntity
  8
MODEL
  6
DASHED1
100
AcDbCircle
 10
408.8807156550697
 20
321.3366222085349
 30
0.0
 40
27.5
100
AcDbArc
 50
335.1331145348818
 51
24.19940506942377
  0
ARC
  5
52DA
330
A
100
AcDbEntity
  8
MODEL
  6
Continuous
100
AcDbCircle
 10
408.8807156550697
 20
321.3366222085349
 30
0.0
 40
27.5
100
AcDbArc
 50
23.55539467661379
 51
336.4308629710004
  0
ARC
  5
52DB
330
A
100
AcDbEntity
  8
MODEL
  6
DASHED1
100
AcDbCircle
 10
520.5924715115547
 20
330.31632704281
 30
0.0
 40
0.980755
100
AcDbArc
 50
100.8752950000064
 51
170.549575000008
  0
ARC
  5
52DC
330
A
100
AcDbEntity
  8
MODEL
  6
DASHED1
100
AcDbCircle
 10
520.5924705115547
 20
312.3278380428099
 30
0.0
 40
0.9807449999999999
100
AcDbArc
 50
189.4501029999978
 51
259.1252960000001
  0
ARC
  5
52DD
330
A
100
AcDbEntity
  8
MODEL
  6
DASHED1
100
AcDbCircle
 10
523.7576745115547
 20
312.3830130428099
 30
0.0
 40
19.191135
100
AcDbArc
 50
89.45071499999993
 51
100.0537619999998
  0
ARC
  5
52DE
330
A
100
AcDbEntity
  8
MODEL
  6
DASHED1
100
AcDbCircle
 10
523.7576745115547
 20
330.2611650428099
 30
0.0
 40
19.191139
100
AcDbArc
 50
259.9456400000001
 51
270.549284
  0
ARC
  5
52DF
330
A
100
AcDbEntity
  8
MODEL
  6
DASHED1
100
AcDbCircle
 10
569.5391045115547
 20
321.3221000428098
 30
0.0
 40
50.746796
100
AcDbArc
 50
169.6063129999998
 51
190.393649
  0
LINE
  5
52E0
330
A
100
AcDbEntity
  8
MODEL
  6
Continuous
100
AcDbLine
 10
139.4237631164623
 20
341.022953810548
 30
0.0
 11
114.9237631164623
 21
341.022953810548
 31
0.0
  0
LINE
  5
52E1
330
A
100
AcDbEntity
  8
MODEL
  6
Continuous
100
AcDbLine
 10
115.1991885646424
 20
341.0341771438359
 30
0.0
 11
139.1991885646424
 21
341.0341771438359
 31
0.0
  0
LINE
  5
52E2
330
A
100
AcDbEntity
  8
MODEL
  6
Continuous
100
AcDbLine
 10
115.190485210888
 20
341.048966174475
 30
0.0
 11
139.190485210888
 21
341.048966174475
 31
0.0
  0
LINE
  5
52E3
330
A
100
AcDbEntity
  8
MODEL
  6
Continuous
100
AcDbLine
 10
139.133858702274
 20
340.987843699367
 30
0.0
 11
115.133858702274
 21
340.987843699367
 31
0.0
  0
LINE
  5
52E4
330
A
100
AcDbEntity
  8
MODEL
  6
Continuous
100
AcDbLine
 10
115.177628389206
 20
341.0214269674209
 30
0.0
 11
139.1776283892059
 21
341.0214269674209
 31
0.0
  0
ARC
  5
52E5
330
A
100
AcDbEntity
  8
MODEL
  6
Continuous
100
AcDbCircle
 10
125.4296307854519
 20
321.2716915967299
 30
0.0
 40
28.149653
100
AcDbArc
 50
250.242685
 51
257.1623009999998
  0
ARC
  5
52E6
330
A
100
AcDbEntity
  8
MODEL
  6
Continuous
100
AcDbCircle
 10
116.2905347854519
 20
295.80071759673
 30
0.0
 40
1.088767
100
AcDbArc
 50
183.3931620000047
 51
249.7678999999958
  0
LINE
  5
52E7
330
A
100
AcDbEntity
  8
MODEL
  6
Continuous
100
AcDbLine
 10
154.9446687854519
 20
302.3137085967301
 30
0.0
 11
153.9418527854519
 21
302.4366245967299
 31
0.0
  0
LINE
  5
52E8
330
A
100
AcDbEntity
  8
MODEL
  6
Continuous
100
AcDbLine
 10
153.9418527854519
 20
302.4366245967299
 30
0.0
 11
152.9450057854519
 21
302.6101355967301
 31
0.0
  0
LINE
  5
52E9
330
A
100
AcDbEntity
  8
MODEL
  6
Continuous
100
AcDbLine
 10
152.9450057854519
 20
302.6101355967301
 30
0.0
 11
151.9574727854519
 21
302.83433159673
 31
0.0
  0
LINE
  5
52EA
330
A
100
AcDbEntity
  8
MODEL
  6
Continuous
100
AcDbLine
 10
151.9574727854519
 20
302.83433159673
 30
0.0
 11
150.9826007854519
 21
303.1092995967299
 31
0.0
  0
LINE
  5
52EB
330
A
100
AcDbEntity
  8
MODEL
  6
Continuous
100
AcDbLine
 10
150.9826007854519
 20
303.1092995967299
 30
0.0
 11
150.0237337854519
 21
303.43512859673
 31
0.0
  0
LINE
  5
52EC
330
A
100
AcDbEntity
  8
MODEL
  6
Continuous
100
AcDbLine
 10
150.0237337854519
 20
303.43512859673
 30
0.0
 11
149.0803197854519
 21
303.8132505967299
 31
0.0
  0
LINE
  5
52ED
330
A
100
AcDbEntity
  8
MODEL
  6
Continuous
100
AcDbLine
 10
149.0803197854519
 20
303.8132505967299
 30
0.0
 11
148.1586817854519
 21
304.24123459673
 31
0.0
  0
LINE
  5
52EE
330
A
100
AcDbEntity
  8
MODEL
  6
Continuous
100
AcDbLine
 10
148.1586817854519
 20
304.24123459673
 30
0.0
 11
147.2610887854519
 21
304.7175825967299
 31
0.0
  0
LINE
  5
52EF
330
A
100
AcDbEntity
  8
MODEL
  6
Continuous
100
AcDbLine
 10
147.2610887854519
 20
304.7175825967299
 30
0.0
 11
146.3898087854519
 21
305.2407995967299
 31
0.0
  0
LINE
  5
52F0
330
A
100
AcDbEntity
  8
MODEL
  6
Continuous
100
AcDbLine
 10
146.3898087854519
 20
305.2407995967299
 30
0.0
 11
145.5471127854519
 21
305.8093895967299
 31
0.0
  0
LINE
  5
52F1
330
A
100
AcDbEntity
  8
MODEL
  6
Continuous
100
AcDbLine
 10
145.5471127854519
 20
305.8093895967299
 30
0.0
 11
144.7411217854519
 21
306.4169945967299
 31
0.0
  0
LINE
  5
52F2
330
A
100
AcDbEntity
  8
MODEL
  6
Continuous
100
AcDbLine
 10
144.7411217854519
 20
306.4169945967299
 30
0.0
 11
143.9674777854519
 21
307.0653715967298
 31
0.0
  0
LINE
  5
52F3
330
A
100
AcDbEntity
  8
MODEL
  6
Continuous
100
AcDbLine
 10
143.9674777854519
 20
307.0653715967298
 30
0.0
 11
143.2281327854519
 21
307.75206059673
 31
0.0
  0
LINE
  5
52F4
330
A
100
AcDbEntity
  8
MODEL
  6
Continuous
100
AcDbLine
 10
143.2281327854519
 20
307.75206059673
 30
0.0
 11
142.5250367854519
 21
308.4746065967299
 31
0.0
  0
LINE
  5
52F5
330
A
100
AcDbEntity
  8
MODEL
  6
Continuous
100
AcDbLine
 10
142.5250367854519
 20
308.4746065967299
 30
0.0
 11
141.8601417854519
 21
309.2305505967299
 31
0.0
  0
ARC
  5
52F6
330
A
100
AcDbEntity
  8
MODEL
  6
Continuous
100
AcDbCircle
 10
178.9555527854519
 20
552.06080359673
 30
0.0
 40
250.898643
100
AcDbArc
 50
264.508409
 51
267.394372
  0
LINE
  5
52F7
330
A
100
AcDbEntity
  8
MODEL
  6
Continuous
100
AcDbLine
 10
246.2190617854519
 20
324.4396355967299
 30
0.0
 11
245.4031777854519
 21
324.58349759673
 31
0.0
  0
LINE
  5
52F8
330
A
100
AcDbEntity
  8
MODEL
  6
Continuous
100
AcDbLine
 10
115.2036617854519
 20
341.0025095967299
 30
0.0
 11
115.2036767854519
 21
295.7362755967299
 31
0.0
  0
ARC
  5
52F9
330
A
100
AcDbEntity
  8
MODEL
  6
Continuous
100
AcDbCircle
 10
156.8353167854519
 20
321.6989605967299
 30
0.0
 40
19.489804
100
AcDbArc
 50
166.628444
 51
183.0150519999999
  0
ARC
  5
52FA
330
A
100
AcDbEntity
  8
MODEL
  6
Continuous
100
AcDbCircle
 10
156.8982857854519
 20
321.6720675967299
 30
0.0
 40
19.55775
100
AcDbArc
 50
155.4225920000007
 51
160.3725330000005
  0
LINE
  5
52FB
330
A
100
AcDbEntity
  8
MODEL
  6
Continuous
100
AcDbLine
 10
137.372531785452
 20
320.67382959673
 30
0.0
 11
137.4402117854519
 21
319.7814895967299
 31
0.0
  0
LINE
  5
52FC
330
A
100
AcDbEntity
  8
MODEL
  6
Continuous
100
AcDbLine
 10
137.4402117854519
 20
319.7814895967299
 30
0.0
 11
137.5488177854519
 21
318.8930015967298
 31
0.0
  0
LINE
  5
52FD
330
A
100
AcDbEntity
  8
MODEL
  6
Continuous
100
AcDbLine
 10
137.5488177854519
 20
318.8930015967298
 30
0.0
 11
137.6972707854518
 21
318.01486359673
 31
0.0
  0
LINE
  5
52FE
330
A
100
AcDbEntity
  8
MODEL
  6
Continuous
100
AcDbLine
 10
137.6972707854518
 20
318.01486359673
 30
0.0
 11
137.8857077854519
 21
317.14448559673
 31
0.0
  0
LINE
  5
52FF
330
A
100
AcDbEntity
  8
MODEL
  6
Continuous
100
AcDbLine
 10
137.8857077854519
 20
317.14448559673
 30
0.0
 11
138.1139967854519
 21
316.28284859673
 31
0.0
  0
LINE
  5
5300
330
A
100
AcDbEntity
  8
MODEL
  6
Continuous
100
AcDbLine
 10
138.1139967854519
 20
316.28284859673
 30
0.0
 11
138.3814647854519
 21
315.4325425967299
 31
0.0
  0
LINE
  5
5301
330
A
100
AcDbEntity
  8
MODEL
  6
Continuous
100
AcDbLine
 10
138.3814647854519
 20
315.4325425967299
 30
0.0
 11
138.6876757854519
 21
314.59500259673
 31
0.0
  0
LINE
  5
5302
330
A
100
AcDbEntity
  8
MODEL
  6
Continuous
100
AcDbLine
 10
138.6876757854519
 20
314.59500259673
 30
0.0
 11
139.0318747854519
 21
313.7723425967299
 31
0.0
  0
LINE
  5
5303
330
A
100
AcDbEntity
  8
MODEL
  6
Continuous
100
AcDbLine
 10
139.0318747854519
 20
313.7723425967299
 30
0.0
 11
139.4117507854519
 21
312.96954859673
 31
0.0
  0
LINE
  5
5304
330
A
100
AcDbEntity
  8
MODEL
  6
Continuous
100
AcDbLine
 10
139.4117507854519
 20
312.96954859673
 30
0.0
 11
139.8278877854519
 21
312.1849695967301
 31
0.0
  0
LINE
  5
5305
330
A
100
AcDbEntity
  8
MODEL
  6
Continuous
100
AcDbLine
 10
139.8278877854519
 20
312.1849695967301
 30
0.0
 11
140.2830857854519
 21
311.41438359673
 31
0.0
  0
LINE
  5
5306
330
A
100
AcDbEntity
  8
MODEL
  6
Continuous
100
AcDbLine
 10
140.2830857854519
 20
311.41438359673
 30
0.0
 11
140.7729977854519
 21
310.66527159673
 31
0.0
  0
LINE
  5
5307
330
A
100
AcDbEntity
  8
MODEL
  6
Continuous
100
AcDbLine
 10
140.7729977854519
 20
310.66527159673
 30
0.0
 11
141.2998577854519
 21
309.93473559673
 31
0.0
  0
LINE
  5
5308
330
A
100
AcDbEntity
  8
MODEL
  6
Continuous
100
AcDbLine
 10
141.2998577854519
 20
309.93473559673
 30
0.0
 11
141.8606117854519
 21
309.2302065967299
 31
0.0
  0
ARC
  5
5309
330
A
100
AcDbEntity
  8
MODEL
  6
Continuous
100
AcDbCircle
 10
138.1912847854519
 20
330.22452759673
 30
0.0
 40
1.012292
100
AcDbArc
 50
335.6192030000053
 51
359.9267299999976
  0
LINE
  5
530A
330
A
100
AcDbEntity
  8
MODEL
  6
Continuous
100
AcDbLine
 10
139.2036697854519
 20
341.0025095967299
 30
0.0
 11
139.2035747854518
 21
330.2232335967299
 31
0.0
  0
LINE
  5
530B
330
A
100
AcDbEntity
  8
MODEL
  6
STYLE_01
100
AcDbLine
 10
126.7036617854519
 20
341.00251059673
 30
0.0
 11
139.2036697854519
 21
341.0025095967299
 31
0.0
  0
LINE
  5
530C
330
A
100
AcDbEntity
  8
MODEL
  6
Continuous
100
AcDbLine
 10
137.8739197854519
 20
326.2062565967299
 30
0.0
 11
138.0526327854519
 21
326.8997495967299
 31
0.0
  0
LINE
  5
530D
330
A
100
AcDbEntity
  8
MODEL
  6
Continuous
100
AcDbLine
 10
138.0526327854519
 20
326.8997495967299
 30
0.0
 11
138.2529637854519
 21
327.57716859673
 31
0.0
  0
LINE
  5
530E
330
A
100
AcDbEntity
  8
MODEL
  6
Continuous
100
AcDbLine
 10
138.2529637854519
 20
327.57716859673
 30
0.0
 11
138.4768447854519
 21
328.2415995967299
 31
0.0
  0
LINE
  5
530F
330
A
100
AcDbEntity
  8
MODEL
  6
Continuous
100
AcDbLine
 10
237.1184127854519
 20
325.11739259673
 30
0.0
 11
236.351063785452
 21
322.25376259673
 31
0.0
  0
LINE
  5
5310
330
A
100
AcDbEntity
  8
MODEL
  6
Continuous
100
AcDbLine
 10
236.351063785452
 20
322.25376259673
 30
0.0
 11
235.5836847854519
 21
319.3901405967299
 31
0.0
  0
LINE
  5
5311
330
A
100
AcDbEntity
  8
MODEL
  6
Continuous
100
AcDbLine
 10
235.5836847854519
 20
319.3901405967299
 30
0.0
 11
234.8162777854519
 21
316.52652659673
 31
0.0
  0
LINE
  5
5312
330
A
100
AcDbEntity
  8
MODEL
  6
Continuous
100
AcDbLine
 10
234.8162777854519
 20
316.52652659673
 30
0.0
 11
234.4325687854518
 21
315.09472059673
 31
0.0
  0
LINE
  5
5313
330
A
100
AcDbEntity
  8
MODEL
  6
Continuous
100
AcDbLine
 10
234.4325687854518
 20
315.09472059673
 30
0.0
 11
234.2407217854519
 21
314.37881559673
 31
0.0
  0
LINE
  5
5314
330
A
100
AcDbEntity
  8
MODEL
  6
Continuous
100
AcDbLine
 10
234.2407217854519
 20
314.37881559673
 30
0.0
 11
234.0488567854518
 21
313.66291559673
 31
0.0
  0
LINE
  5
5315
330
A
100
AcDbEntity
  8
MODEL
  6
Continuous
100
AcDbLine
 10
234.0488567854518
 20
313.66291559673
 30
0.0
 11
233.8570107854518
 21
312.9470095967299
 31
0.0
  0
LINE
  5
5316
330
A
100
AcDbEntity
  8
MODEL
  6
Continuous
100
AcDbLine
 10
233.8570107854518
 20
312.9470095967299
 30
0.0
 11
233.7610237854519
 21
312.5890765967299
 31
0.0
  0
LINE
  5
5317
330
A
100
AcDbEntity
  8
MODEL
  6
Continuous
100
AcDbLine
 10
233.7610237854519
 20
312.5890765967299
 30
0.0
 11
233.6650927854519
 21
312.23111359673
 31
0.0
  0
LINE
  5
5318
330
A
100
AcDbEntity
  8
MODEL
  6
Continuous
100
AcDbLine
 10
233.6650927854519
 20
312.23111359673
 30
0.0
 11
233.5606077854519
 21
311.8756135967299
 31
0.0
  0
LINE
  5
5319
330
A
100
AcDbEntity
  8
MODEL
  6
Continuous
100
AcDbLine
 10
233.5606077854519
 20
311.8756135967299
 30
0.0
 11
233.4407507854519
 21
311.5249585967299
 31
0.0
  0
LINE
  5
531A
330
A
100
AcDbEntity
  8
MODEL
  6
Continuous
100
AcDbLine
 10
233.4407507854519
 20
311.5249585967299
 30
0.0
 11
233.1581397854519
 21
310.8399905967299
 31
0.0
  0
LINE
  5
531B
330
A
100
AcDbEntity
  8
MODEL
  6
Continuous
100
AcDbLine
 10
233.1581397854519
 20
310.8399905967299
 30
0.0
 11
232.8221567854519
 21
310.17958359673
 31
0.0
  0
LINE
  5
531C
330
A
100
AcDbEntity
  8
MODEL
  6
Continuous
100
AcDbLine
 10
232.8221567854519
 20
310.17958359673
 30
0.0
 11
232.4371937854519
 21
309.5463885967299
 31
0.0
  0
LINE
  5
531D
330
A
100
AcDbEntity
  8
MODEL
  6
Continuous
100
AcDbLine
 10
232.4371937854519
 20
309.5463885967299
 30
0.0
 11
232.0969507854519
 21
309.06125759673
 31
0.0
  0
LINE
  5
531E
330
A
100
AcDbEntity
  8
MODEL
  6
Continuous
100
AcDbLine
 10
232.0969507854519
 20
309.06125759673
 30
0.0
 11
231.5363127854519
 21
308.37073459673
 31
0.0
  0
LINE
  5
531F
330
A
100
AcDbEntity
  8
MODEL
  6
Continuous
100
AcDbLine
 10
231.5363127854519
 20
308.37073459673
 30
0.0
 11
231.1321847854519
 21
307.9373505967299
 31
0.0
  0
LINE
  5
5320
330
A
100
AcDbEntity
  8
MODEL
  6
Continuous
100
AcDbLine
 10
231.1321847854519
 20
307.9373505967299
 30
0.0
 11
230.7049017854519
 21
307.52611759673
 31
0.0
  0
LINE
  5
5321
330
A
100
AcDbEntity
  8
MODEL
  6
Continuous
100
AcDbLine
 10
230.7049017854519
 20
307.52611759673
 30
0.0
 11
230.2559747854519
 21
307.1383975967299
 31
0.0
  0
LINE
  5
5322
330
A
100
AcDbEntity
  8
MODEL
  6
Continuous
100
AcDbLine
 10
230.2559747854519
 20
307.1383975967299
 30
0.0
 11
229.7869177854519
 21
306.7755575967299
 31
0.0
  0
LINE
  5
5323
330
A
100
AcDbEntity
  8
MODEL
  6
Continuous
100
AcDbLine
 10
229.7869177854519
 20
306.7755575967299
 30
0.0
 11
229.2992407854519
 21
306.4389605967299
 31
0.0
  0
LINE
  5
5324
330
A
100
AcDbEntity
  8
MODEL
  6
Continuous
100
AcDbLine
 10
229.2992407854519
 20
306.4389605967299
 30
0.0
 11
228.7932317854519
 21
306.12933759673
 31
0.0
  0
LINE
  5
5325
330
A
100
AcDbEntity
  8
MODEL
  6
Continuous
100
AcDbLine
 10
228.7932317854519
 20
306.12933759673
 30
0.0
 11
228.0041987854519
 21
305.7201775967299
 31
0.0
  0
LINE
  5
5326
330
A
100
AcDbEntity
  8
MODEL
  6
Continuous
100
AcDbLine
 10
228.0041987854519
 20
305.7201775967299
 30
0.0
 11
227.3210707854519
 21
305.4331085967299
 31
0.0
  0
LINE
  5
5327
330
A
100
AcDbEntity
  8
MODEL
  6
Continuous
100
AcDbLine
 10
227.3210707854519
 20
305.4331085967299
 30
0.0
 11
226.6179767854519
 21
305.1992535967299
 31
0.0
  0
LINE
  5
5328
330
A
100
AcDbEntity
  8
MODEL
  6
Continuous
100
AcDbLine
 10
226.6179767854519
 20
305.1992535967299
 30
0.0
 11
225.8983407854519
 21
305.02274659673
 31
0.0
  0
LINE
  5
5329
330
A
100
AcDbEntity
  8
MODEL
  6
Continuous
100
AcDbLine
 10
225.8983407854519
 20
305.02274659673
 30
0.0
 11
225.5336007854519
 21
304.95731359673
 31
0.0
  0
LINE
  5
532A
330
A
100
AcDbEntity
  8
MODEL
  6
Continuous
100
AcDbLine
 10
225.5336007854519
 20
304.95731359673
 30
0.0
 11
225.1666827854519
 21
304.90533659673
 31
0.0
  0
LINE
  5
532B
330
A
100
AcDbEntity
  8
MODEL
  6
Continuous
100
AcDbLine
 10
225.1666827854519
 20
304.90533659673
 30
0.0
 11
224.4323937854519
 21
304.8045865967299
 31
0.0
  0
LINE
  5
532C
330
A
100
AcDbEntity
  8
MODEL
  6
Continuous
100
AcDbLine
 10
224.4323937854519
 20
304.8045865967299
 30
0.0
 11
223.6981697854519
 21
304.7034725967299
 31
0.0
  0
LINE
  5
532D
330
A
100
AcDbEntity
  8
MODEL
  6
Continuous
100
AcDbLine
 10
223.6981697854519
 20
304.7034725967299
 30
0.0
 11
222.2293837854519
 21
304.50350259673
 31
0.0
  0
LINE
  5
532E
330
A
100
AcDbEntity
  8
MODEL
  6
Continuous
100
AcDbLine
 10
222.2293837854519
 20
304.50350259673
 30
0.0
 11
220.7602787854519
 21
304.3059365967299
 31
0.0
  0
LINE
  5
532F
330
A
100
AcDbEntity
  8
MODEL
  6
Continuous
100
AcDbLine
 10
220.7602787854519
 20
304.3059365967299
 30
0.0
 11
219.2906957854519
 21
304.11196759673
 31
0.0
  0
LINE
  5
5330
330
A
100
AcDbEntity
  8
MODEL
  6
Continuous
100
AcDbLine
 10
219.2906957854519
 20
304.11196759673
 30
0.0
 11
217.8205347854519
 21
303.9224215967299
 31
0.0
  0
LINE
  5
5331
330
A
100
AcDbEntity
  8
MODEL
  6
Continuous
100
AcDbLine
 10
217.8205347854519
 20
303.9224215967299
 30
0.0
 11
214.8783157854519
 21
303.5583825967299
 31
0.0
  0
LINE
  5
5332
330
A
100
AcDbEntity
  8
MODEL
  6
Continuous
100
AcDbLine
 10
214.8783157854519
 20
303.5583825967299
 30
0.0
 11
211.9334977854519
 21
303.21600659673
 31
0.0
  0
LINE
  5
5333
330
A
100
AcDbEntity
  8
MODEL
  6
Continuous
100
AcDbLine
 10
211.9334977854519
 20
303.21600659673
 30
0.0
 11
208.9862027854519
 21
302.8956625967301
 31
0.0
  0
LINE
  5
5334
330
A
100
AcDbEntity
  8
MODEL
  6
Continuous
100
AcDbLine
 10
208.9862027854519
 20
302.8956625967301
 30
0.0
 11
206.0366477854519
 21
302.59683959673
 31
0.0
  0
LINE
  5
5335
330
A
100
AcDbEntity
  8
MODEL
  6
Continuous
100
AcDbLine
 10
206.0366477854519
 20
302.59683959673
 30
0.0
 11
203.0850367854518
 21
302.3189985967299
 31
0.0
  0
LINE
  5
5336
330
A
100
AcDbEntity
  8
MODEL
  6
Continuous
100
AcDbLine
 10
203.0850367854518
 20
302.3189985967299
 30
0.0
 11
197.1756977854519
 21
301.8335065967299
 31
0.0
  0
LINE
  5
5337
330
A
100
AcDbEntity
  8
MODEL
  6
Continuous
100
AcDbLine
 10
197.1756977854519
 20
301.8335065967299
 30
0.0
 11
191.2577807854519
 21
301.46818259673
 31
0.0
  0
LINE
  5
5338
330
A
100
AcDbEntity
  8
MODEL
  6
Continuous
100
AcDbLine
 10
191.2577807854519
 20
301.46818259673
 30
0.0
 11
185.3327877854519
 21
301.24537259673
 31
0.0
  0
LINE
  5
5339
330
A
100
AcDbEntity
  8
MODEL
  6
Continuous
100
AcDbLine
 10
185.3327877854519
 20
301.24537259673
 30
0.0
 11
179.4041677854519
 21
301.1634435967298
 31
0.0
  0
LINE
  5
533A
330
A
100
AcDbEntity
  8
MODEL
  6
Continuous
100
AcDbLine
 10
179.4041677854519
 20
301.1634435967298
 30
0.0
 11
173.4752557854518
 21
301.2224785967301
 31
0.0
  0
LINE
  5
533B
330
A
100
AcDbEntity
  8
MODEL
  6
Continuous
100
AcDbLine
 10
173.4752557854518
 20
301.2224785967301
 30
0.0
 11
167.5494217854519
 21
301.4215625967299
 31
0.0
  0
LINE
  5
533C
330
A
100
AcDbEntity
  8
MODEL
  6
Continuous
100
AcDbLine
 10
115.2036617854519
 20
341.0025095967299
 30
0.0
 11
115.2031467854519
 21
295.7351845967301
 31
0.0
  0
LINE
  5
533D
102
{ACAD_REACTORS
330
5485
102
}
330
A
100
AcDbEntity
  8
MODEL
  6
Continuous
100
AcDbLine
 10
167.5493807854519
 20
287.00741959673
 30
0.0
 11
160.5517457854519
 21
287.1772995967299
 31
0.0
  0
LINE
  5
533E
330
A
100
AcDbEntity
  8
MODEL
  6
Continuous
100
AcDbLine
 10
160.5517457854519
 20
287.1772995967299
 30
0.0
 11
153.5657527854519
 21
287.6169735967298
 31
0.0
  0
LINE
  5
533F
330
A
100
AcDbEntity
  8
MODEL
  6
Continuous
100
AcDbLine
 10
153.5657527854519
 20
287.6169735967298
 30
0.0
 11
146.6019977854519
 21
288.3257975967299
 31
0.0
  0
LINE
  5
5340
330
A
100
AcDbEntity
  8
MODEL
  6
Continuous
100
AcDbLine
 10
146.6019977854519
 20
288.3257975967299
 30
0.0
 11
139.670756785452
 21
289.3027275967299
 31
0.0
  0
LINE
  5
5341
330
A
100
AcDbEntity
  8
MODEL
  6
Continuous
100
AcDbLine
 10
139.670756785452
 20
289.3027275967299
 30
0.0
 11
136.2205607854519
 21
289.89129259673
 31
0.0
  0
LINE
  5
5342
330
A
100
AcDbEntity
  8
MODEL
  6
Continuous
100
AcDbLine
 10
136.2205607854519
 20
289.89129259673
 30
0.0
 11
132.7823617854519
 21
290.54631159673
 31
0.0
  0
LINE
  5
5343
330
A
100
AcDbEntity
  8
MODEL
  6
Continuous
100
AcDbLine
 10
132.7823617854519
 20
290.54631159673
 30
0.0
 11
129.3574387854518
 21
291.26754059673
 31
0.0
  0
LINE
  5
5344
330
A
100
AcDbEntity
  8
MODEL
  6
Continuous
100
AcDbLine
 10
129.3574387854518
 20
291.26754059673
 30
0.0
 11
125.9470667854519
 21
292.0547045967301
 31
0.0
  0
LINE
  5
5345
330
A
100
AcDbEntity
  8
MODEL
  6
Continuous
100
AcDbLine
 10
125.9470667854519
 20
292.0547045967301
 30
0.0
 11
124.2477407854519
 21
292.4729435967299
 31
0.0
  0
LINE
  5
5346
330
A
100
AcDbEntity
  8
MODEL
  6
Continuous
100
AcDbLine
 10
124.2477407854519
 20
292.4729435967299
 30
0.0
 11
122.5525197854519
 21
292.90753159673
 31
0.0
  0
LINE
  5
5347
330
A
100
AcDbEntity
  8
MODEL
  6
Continuous
100
AcDbLine
 10
122.5525197854519
 20
292.90753159673
 30
0.0
 11
121.7065037854519
 21
293.13095759673
 31
0.0
  0
LINE
  5
5348
330
A
100
AcDbEntity
  8
MODEL
  6
Continuous
100
AcDbLine
 10
121.7065037854519
 20
293.13095759673
 30
0.0
 11
120.8615737854519
 21
293.3584625967299
 31
0.0
  0
LINE
  5
5349
330
A
100
AcDbEntity
  8
MODEL
  6
Continuous
100
AcDbLine
 10
120.8615737854519
 20
293.3584625967299
 30
0.0
 11
120.0177527854519
 21
293.59004059673
 31
0.0
  0
LINE
  5
534A
330
A
100
AcDbEntity
  8
MODEL
  6
Continuous
100
AcDbLine
 10
120.0177527854519
 20
293.59004059673
 30
0.0
 11
119.1750567854519
 21
293.82568559673
 31
0.0
  0
LINE
  5
534B
330
A
100
AcDbEntity
  8
MODEL
  6
Continuous
100
AcDbLine
 10
247.0302797854519
 20
323.2812955967299
 30
0.0
 11
246.4101977854519
 21
319.76099559673
 31
0.0
  0
LINE
  5
534C
330
A
100
AcDbEntity
  8
MODEL
  6
Continuous
100
AcDbLine
 10
246.4101977854519
 20
319.76099559673
 30
0.0
 11
245.7908777854519
 21
316.2405585967299
 31
0.0
  0
LINE
  5
534D
330
A
100
AcDbEntity
  8
MODEL
  6
Continuous
100
AcDbLine
 10
245.7908777854519
 20
316.2405585967299
 30
0.0
 11
245.1717437854518
 21
312.7200875967299
 31
0.0
  0
LINE
  5
534E
330
A
100
AcDbEntity
  8
MODEL
  6
Continuous
100
AcDbLine
 10
245.1717437854518
 20
312.7200875967299
 30
0.0
 11
244.8606437854519
 21
310.96012759673
 31
0.0
  0
LINE
  5
534F
330
A
100
AcDbEntity
  8
MODEL
  6
Continuous
100
AcDbLine
 10
244.8606437854519
 20
310.96012759673
 30
0.0
 11
244.5517887854518
 21
309.19976359673
 31
0.0
  0
LINE
  5
5350
330
A
100
AcDbEntity
  8
MODEL
  6
Continuous
100
AcDbLine
 10
244.5517887854518
 20
309.19976359673
 30
0.0
 11
244.3976807854519
 21
308.3195235967301
 31
0.0
  0
LINE
  5
5351
330
A
100
AcDbEntity
  8
MODEL
  6
Continuous
100
AcDbLine
 10
244.3976807854519
 20
308.3195235967301
 30
0.0
 11
244.2281597854519
 21
307.44216459673
 31
0.0
  0
LINE
  5
5352
330
A
100
AcDbEntity
  8
MODEL
  6
Continuous
100
AcDbLine
 10
244.2281597854519
 20
307.44216459673
 30
0.0
 11
244.0188607854519
 21
306.5735805967299
 31
0.0
  0
LINE
  5
5353
330
A
100
AcDbEntity
  8
MODEL
  6
Continuous
100
AcDbLine
 10
244.0188607854519
 20
306.5735805967299
 30
0.0
 11
243.7659417854518
 21
305.7164385967299
 31
0.0
  0
LINE
  5
5354
330
A
100
AcDbEntity
  8
MODEL
  6
Continuous
100
AcDbLine
 10
243.7659417854518
 20
305.7164385967299
 30
0.0
 11
243.4712687854519
 21
304.8728325967299
 31
0.0
  0
LINE
  5
5355
330
A
100
AcDbEntity
  8
MODEL
  6
Continuous
100
AcDbLine
 10
243.4712687854519
 20
304.8728325967299
 30
0.0
 11
243.1354977854519
 21
304.0448195967299
 31
0.0
  0
LINE
  5
5356
330
A
100
AcDbEntity
  8
MODEL
  6
Continuous
100
AcDbLine
 10
243.1354977854519
 20
304.0448195967299
 30
0.0
 11
242.7590987854518
 21
303.23443559673
 31
0.0
  0
LINE
  5
5357
330
A
100
AcDbEntity
  8
MODEL
  6
Continuous
100
AcDbLine
 10
242.7590987854518
 20
303.23443559673
 30
0.0
 11
242.3430007854519
 21
302.4436545967299
 31
0.0
  0
LINE
  5
5358
330
A
100
AcDbEntity
  8
MODEL
  6
Continuous
100
AcDbLine
 10
242.3430007854519
 20
302.4436545967299
 30
0.0
 11
241.8882817854519
 21
301.6744255967299
 31
0.0
  0
LINE
  5
5359
330
A
100
AcDbEntity
  8
MODEL
  6
Continuous
100
AcDbLine
 10
241.8882817854519
 20
301.6744255967299
 30
0.0
 11
241.3961527854519
 21
300.92864859673
 31
0.0
  0
LINE
  5
535A
330
A
100
AcDbEntity
  8
MODEL
  6
Continuous
100
AcDbLine
 10
241.3961527854519
 20
300.92864859673
 30
0.0
 11
240.8678197854518
 21
300.2081565967299
 31
0.0
  0
LINE
  5
535B
330
A
100
AcDbEntity
  8
MODEL
  6
Continuous
100
AcDbLine
 10
240.8678197854518
 20
300.2081565967299
 30
0.0
 11
240.3043317854518
 21
299.5145415967299
 31
0.0
  0
LINE
  5
535C
330
A
100
AcDbEntity
  8
MODEL
  6
Continuous
100
AcDbLine
 10
240.3043317854518
 20
299.5145415967299
 30
0.0
 11
239.3338327854519
 21
298.4658235967299
 31
0.0
  0
LINE
  5
535D
330
A
100
AcDbEntity
  8
MODEL
  6
Continuous
100
AcDbLine
 10
239.3338327854519
 20
298.4658235967299
 30
0.0
 11
238.5527997854518
 21
297.7309855967299
 31
0.0
  0
LINE
  5
535E
330
A
100
AcDbEntity
  8
MODEL
  6
Continuous
100
AcDbLine
 10
238.5527997854518
 20
297.7309855967299
 30
0.0
 11
237.7293737854519
 21
297.04365259673
 31
0.0
  0
LINE
  5
535F
330
A
100
AcDbEntity
  8
MODEL
  6
Continuous
100
AcDbLine
 10
237.7293737854519
 20
297.04365259673
 30
0.0
 11
236.5706907854519
 21
296.20575459673
 31
0.0
  0
LINE
  5
5360
330
A
100
AcDbEntity
  8
MODEL
  6
Continuous
100
AcDbLine
 10
236.5706907854519
 20
296.20575459673
 30
0.0
 11
235.6604367854519
 21
295.6390765967299
 31
0.0
  0
LINE
  5
5361
330
A
100
AcDbEntity
  8
MODEL
  6
Continuous
100
AcDbLine
 10
235.6604367854519
 20
295.6390765967299
 30
0.0
 11
234.7186417854518
 21
295.12764359673
 31
0.0
  0
LINE
  5
5362
330
A
100
AcDbEntity
  8
MODEL
  6
Continuous
100
AcDbLine
 10
234.7186417854518
 20
295.12764359673
 30
0.0
 11
233.9111647854519
 21
294.7446375967299
 31
0.0
  0
LINE
  5
5363
330
A
100
AcDbEntity
  8
MODEL
  6
Continuous
100
AcDbLine
 10
233.9111647854519
 20
294.7446375967299
 30
0.0
 11
233.0859667854519
 21
294.40231559673
 31
0.0
  0
LINE
  5
5364
330
A
100
AcDbEntity
  8
MODEL
  6
Continuous
100
AcDbLine
 10
233.0859667854519
 20
294.40231559673
 30
0.0
 11
232.2446797854519
 21
294.10121859673
 31
0.0
  0
LINE
  5
5365
330
A
100
AcDbEntity
  8
MODEL
  6
Continuous
100
AcDbLine
 10
232.2446797854519
 20
294.10121859673
 30
0.0
 11
231.3895017854519
 21
293.84220259673
 31
0.0
  0
LINE
  5
5366
330
A
100
AcDbEntity
  8
MODEL
  6
Continuous
100
AcDbLine
 10
231.3895017854519
 20
293.84220259673
 30
0.0
 11
230.5225447854519
 21
293.6258715967299
 31
0.0
  0
LINE
  5
5367
330
A
100
AcDbEntity
  8
MODEL
  6
Continuous
100
AcDbLine
 10
230.5225447854519
 20
293.6258715967299
 30
0.0
 11
229.6488587854519
 21
293.4380765967301
 31
0.0
  0
LINE
  5
5368
330
A
100
AcDbEntity
  8
MODEL
  6
Continuous
100
AcDbLine
 10
229.6488587854519
 20
293.4380765967301
 30
0.0
 11
228.7747267854519
 21
293.2524855967299
 31
0.0
  0
LINE
  5
5369
330
A
100
AcDbEntity
  8
MODEL
  6
Continuous
100
AcDbLine
 10
228.7747267854519
 20
293.2524855967299
 30
0.0
 11
227.9000187854519
 21
293.06962159673
 31
0.0
  0
LINE
  5
536A
330
A
100
AcDbEntity
  8
MODEL
  6
Continuous
100
AcDbLine
 10
227.9000187854519
 20
293.06962159673
 30
0.0
 11
226.1488387854519
 21
292.7123625967299
 31
0.0
  0
LINE
  5
536B
330
A
100
AcDbEntity
  8
MODEL
  6
Continuous
100
AcDbLine
 10
226.1488387854519
 20
292.7123625967299
 30
0.0
 11
224.3955747854519
 21
292.36550259673
 31
0.0
  0
LINE
  5
536C
330
A
100
AcDbEntity
  8
MODEL
  6
Continuous
100
AcDbLine
 10
224.3955747854519
 20
292.36550259673
 30
0.0
 11
222.6402507854519
 21
292.0292195967299
 31
0.0
  0
LINE
  5
536D
330
A
100
AcDbEntity
  8
MODEL
  6
Continuous
100
AcDbLine
 10
222.6402507854519
 20
292.0292195967299
 30
0.0
 11
220.8829277854519
 21
291.7035425967299
 31
0.0
  0
LINE
  5
536E
330
A
100
AcDbEntity
  8
MODEL
  6
Continuous
100
AcDbLine
 10
220.8829277854519
 20
291.7035425967299
 30
0.0
 11
217.3625257854519
 21
291.0841485967298
 31
0.0
  0
LINE
  5
536F
330
A
100
AcDbEntity
  8
MODEL
  6
Continuous
100
AcDbLine
 10
217.3625257854519
 20
291.0841485967298
 30
0.0
 11
213.8348547854519
 21
290.50757959673
 31
0.0
  0
LINE
  5
5370
330
A
100
AcDbEntity
  8
MODEL
  6
Continuous
100
AcDbLine
 10
213.8348547854519
 20
290.50757959673
 30
0.0
 11
210.3004167854519
 21
289.9740645967299
 31
0.0
  0
LINE
  5
5371
330
A
100
AcDbEntity
  8
MODEL
  6
Continuous
100
AcDbLine
 10
210.3004167854519
 20
289.9740645967299
 30
0.0
 11
206.7597207854519
 21
289.4838005967299
 31
0.0
  0
LINE
  5
5372
330
A
100
AcDbEntity
  8
MODEL
  6
Continuous
100
AcDbLine
 10
206.7597207854519
 20
289.4838005967299
 30
0.0
 11
203.2132807854519
 21
289.03698059673
 31
0.0
  0
LINE
  5
5373
330
A
100
AcDbEntity
  8
MODEL
  6
Continuous
100
AcDbLine
 10
203.2132807854519
 20
289.03698059673
 30
0.0
 11
196.1052357854519
 21
288.2745165967299
 31
0.0
  0
LINE
  5
5374
330
A
100
AcDbEntity
  8
MODEL
  6
Continuous
100
AcDbLine
 10
196.1052357854519
 20
288.2745165967299
 30
0.0
 11
190.4065537854519
 21
287.7918125967299
 31
0.0
  0
LINE
  5
5375
330
A
100
AcDbEntity
  8
MODEL
  6
Continuous
100
AcDbLine
 10
190.4065537854519
 20
287.7918125967299
 30
0.0
 11
181.8432177854519
 21
287.28198159673
 31
0.0
  0
LINE
  5
5376
330
A
100
AcDbEntity
  8
MODEL
  6
Continuous
100
AcDbLine
 10
181.8432177854519
 20
287.28198159673
 30
0.0
 11
174.6980377854519
 21
287.05450359673
 31
0.0
  0
LINE
  5
5377
330
A
100
AcDbEntity
  8
MODEL
  6
Continuous
100
AcDbLine
 10
174.6980377854519
 20
287.05450359673
 30
0.0
 11
171.1238567854519
 21
287.0082775967301
 31
0.0
  0
LINE
  5
5378
330
A
100
AcDbEntity
  8
MODEL
  6
Continuous
100
AcDbLine
 10
171.1238567854519
 20
287.0082775967301
 30
0.0
 11
167.5493807854519
 21
287.00741959673
 31
0.0
  0
ARC
  5
5379
102
{ACAD_REACTORS
330
5485
102
}
330
A
100
AcDbEntity
  8
MODEL
  6
Continuous
100
AcDbCircle
 10
238.0843657854518
 20
324.85855359673
 30
0.0
 40
1.000017
100
AcDbArc
 50
80.00091100000063
 51
164.9996939999989
  0
ARC
  5
537A
102
{ACAD_REACTORS
330
5476
102
}
330
A
100
AcDbEntity
  8
MODEL
  6
Continuous
100
AcDbCircle
 10
246.0453917854518
 20
323.4547945967299
 30
0.0
 40
1.000037
100
AcDbArc
 50
350.0171969999938
 51
79.99913100000263
  0
LINE
  5
537B
102
{ACAD_REACTORS
330
5476
102
}
330
A
100
AcDbEntity
  8
MODEL
  6
Continuous
100
AcDbLine
 10
115.2022797854519
 20
295.73502859673
 30
0.0
 11
115.2174687854519
 21
295.5917535967299
 31
0.0
  0
LINE
  5
537C
330
A
100
AcDbEntity
  8
MODEL
  6
Continuous
100
AcDbLine
 10
245.4031797854519
 20
324.5834965967299
 30
0.0
 11
238.2580007854519
 21
325.84338059673
 31
0.0
  0
LINE
  5
537D
330
A
100
AcDbEntity
  8
MODEL
  6
Continuous
100
AcDbLine
 10
139.2036697854519
 20
341.00250859673
 30
0.0
 11
115.2036617854519
 21
341.0025095967299
 31
0.0
  0
POINT
  5
537E
330
A
100
AcDbEntity
  8
MODEL
 62
     7
100
AcDbPoint
 10
137.5835861248486
 20
1185.478788663848
 30
0.0
  0
POINT
  5
537F
330
A
100
AcDbEntity
  8
MODEL
 62
     7
100
AcDbPoint
 10
269.4102123879606
 20
1185.478788663848
 30
0.0
  0
POINT
  5
5380
330
A
100
AcDbEntity
  8
MODEL
 62
     7
100
AcDbPoint
 10
282.0231157814951
 20
1242.850402685139
 30
0.0
  0
POINT
  5
5381
330
A
100
AcDbEntity
  8
MODEL
 62
     7
100
AcDbPoint
 10
282.0231157814951
 20
1204.087255196013
 30
0.0
  0
LINE
  5
5382
330
A
100
AcDbEntity
  8
MODEL
  6
Continuous
100
AcDbLine
 10
99.78251201455308
 20
348.7335990428101
 30
0.0
 11
154.5825120145532
 21
348.7335990428101
 31
0.0
  0
POINT
  5
5383
330
A
100
AcDbEntity
  8
MODEL
 62
     7
100
AcDbPoint
 10
192.6685948904972
 20
1204.088013071326
 30
0.0
  0
LINE
  5
5384
330
A
100
AcDbEntity
  8
MODEL
  6
Continuous
100
AcDbLine
 10
134.3816507401137
 20
168.6128469200373
 30
0.0
 11
134.3816507401137
 21
154.4628469200372
 31
0.0
  0
LINE
  5
5385
330
A
100
AcDbEntity
  8
MODEL
  6
Continuous
100
AcDbLine
 10
134.3816507401137
 20
207.2628469200383
 30
0.0
 11
134.3816507401137
 21
193.1128469200373
 31
0.0
  0
ARC
  5
5386
330
A
100
AcDbEntity
  8
MODEL
  6
Continuous
100
AcDbCircle
 10
133.3816507401137
 20
154.4628469200372
 30
0.0
 40
1.0
100
AcDbArc
 50
270.0
 51
0.0
  0
ARC
  5
5387
330
A
100
AcDbEntity
  8
MODEL
  6
Continuous
100
AcDbCircle
 10
133.3816507401137
 20
207.2628469200383
 30
0.0
 40
1.0
100
AcDbArc
 50
0.0
 51
90.0
  0
LINE
  5
5388
330
A
100
AcDbEntity
  8
MODEL
  6
Continuous
100
AcDbLine
 10
134.3816507401137
 20
168.6128469200373
 30
0.0
 11
134.3816507401137
 21
193.1128469200373
 31
0.0
  0
LINE
  5
5389
330
A
100
AcDbEntity
  8
MODEL
  6
Continuous
100
AcDbLine
 10
134.8816507401137
 20
168.6511043765554
 30
0.0
 11
134.8816507401137
 21
192.6868054765343
 31
0.0
  0
LINE
  5
538A
330
A
100
AcDbEntity
  8
MODEL
  6
Continuous
100
AcDbLine
 10
134.8816507401137
 20
192.6868054765343
 30
0.0
 11
134.8816507401137
 21
193.1132827288393
 31
0.0
  0
LINE
  5
538B
330
A
100
AcDbEntity
  8
MODEL
  6
Continuous
100
AcDbLine
 10
134.8816507401138
 20
169.1128469200373
 30
0.0
 11
134.8816507401138
 21
192.6128469200373
 31
0.0
  0
LINE
  5
538C
330
A
100
AcDbEntity
  8
MODEL
  6
Continuous
100
AcDbLine
 10
134.8818376441981
 20
168.8641440028264
 30
0.0
 11
134.8818376441981
 21
192.8641440028264
 31
0.0
  0
LINE
  5
538D
330
A
100
AcDbEntity
  8
MODEL
  6
Continuous
100
AcDbLine
 10
134.902772654635
 20
168.8711198796602
 30
0.0
 11
134.902772654635
 21
192.8711198796602
 31
0.0
  0
LINE
  5
538E
330
A
100
AcDbEntity
  8
MODEL
  6
Continuous
100
AcDbLine
 10
134.8511761809597
 20
168.8592872546853
 30
0.0
 11
134.8511761809597
 21
192.8592872546853
 31
0.0
  0
LINE
  5
538F
330
A
100
AcDbEntity
  8
MODEL
  6
Continuous
100
AcDbLine
 10
134.8812214791986
 20
192.8583577032452
 30
0.0
 11
134.8812214791986
 21
168.8583577032452
 31
0.0
  0
LINE
  5
5390
330
A
100
AcDbEntity
  8
MODEL
  6
Continuous
100
AcDbLine
 10
182.4230298754445
 20
191.0430913325533
 30
0.0
 11
182.3663668754445
 21
191.0384833325543
 31
0.0
  0
LINE
  5
5391
330
A
100
AcDbEntity
  8
MODEL
  6
Continuous
100
AcDbLine
 10
182.3663668754445
 20
191.0384833325543
 30
0.0
 11
182.3100618754445
 21
191.0294043325532
 31
0.0
  0
LINE
  5
5392
330
A
100
AcDbEntity
  8
MODEL
  6
Continuous
100
AcDbLine
 10
182.3100618754445
 20
191.0294043325532
 30
0.0
 11
182.2544688754445
 21
191.0160773325533
 31
0.0
  0
LINE
  5
5393
330
A
100
AcDbEntity
  8
MODEL
  6
Continuous
100
AcDbLine
 10
182.2544688754445
 20
191.0160773325533
 30
0.0
 11
182.1999448754445
 21
190.9987243325543
 31
0.0
  0
LINE
  5
5394
330
A
100
AcDbEntity
  8
MODEL
  6
Continuous
100
AcDbLine
 10
182.1999448754445
 20
190.9987243325543
 30
0.0
 11
182.1468448754444
 21
190.9775663325534
 31
0.0
  0
LINE
  5
5395
330
A
100
AcDbEntity
  8
MODEL
  6
Continuous
100
AcDbLine
 10
182.1468448754444
 20
190.9775663325534
 30
0.0
 11
182.0898798754445
 21
190.9498993325533
 31
0.0
  0
LINE
  5
5396
330
A
100
AcDbEntity
  8
MODEL
  6
Continuous
100
AcDbLine
 10
182.0898798754445
 20
190.9498993325533
 30
0.0
 11
182.0350928754445
 21
190.9182593325534
 31
0.0
  0
LINE
  5
5397
330
A
100
AcDbEntity
  8
MODEL
  6
Continuous
100
AcDbLine
 10
182.0350928754445
 20
190.9182593325534
 30
0.0
 11
181.9824708754445
 21
190.8830923325534
 31
0.0
  0
LINE
  5
5398
330
A
100
AcDbEntity
  8
MODEL
  6
Continuous
100
AcDbLine
 10
181.9824708754445
 20
190.8830923325534
 30
0.0
 11
181.9319958754445
 21
190.8448463325533
 31
0.0
  0
LINE
  5
5399
330
A
100
AcDbEntity
  8
MODEL
  6
Continuous
100
AcDbLine
 10
181.9319958754445
 20
190.8448463325533
 30
0.0
 11
181.8836538754444
 21
190.8039663325533
 31
0.0
  0
LINE
  5
539A
330
A
100
AcDbEntity
  8
MODEL
  6
Continuous
100
AcDbLine
 10
181.8836538754444
 20
190.8039663325533
 30
0.0
 11
181.7765188754445
 21
190.6977883325533
 31
0.0
  0
LINE
  5
539B
330
A
100
AcDbEntity
  8
MODEL
  6
Continuous
100
AcDbLine
 10
181.7765188754445
 20
190.6977883325533
 30
0.0
 11
181.7031408754445
 21
190.6116673325532
 31
0.0
  0
LINE
  5
539C
330
A
100
AcDbEntity
  8
MODEL
  6
Continuous
100
AcDbLine
 10
181.7031408754445
 20
190.6116673325532
 30
0.0
 11
181.6349988754445
 21
190.5213073325533
 31
0.0
  0
LINE
  5
539D
330
A
100
AcDbEntity
  8
MODEL
  6
Continuous
100
AcDbLine
 10
181.6349988754445
 20
190.5213073325533
 30
0.0
 11
181.5344318754445
 21
190.3688243325532
 31
0.0
  0
LINE
  5
539E
330
A
100
AcDbEntity
  8
MODEL
  6
Continuous
100
AcDbLine
 10
181.5344318754445
 20
190.3688243325532
 30
0.0
 11
181.4021038754445
 21
190.1289863325533
 31
0.0
  0
LINE
  5
539F
330
A
100
AcDbEntity
  8
MODEL
  6
Continuous
100
AcDbLine
 10
181.4021038754445
 20
190.1289863325533
 30
0.0
 11
181.2873968754445
 21
189.8808453325532
 31
0.0
  0
LINE
  5
53A0
330
A
100
AcDbEntity
  8
MODEL
  6
Continuous
100
AcDbLine
 10
181.2873968754445
 20
189.8808453325532
 30
0.0
 11
181.1865468754445
 21
189.6267413325543
 31
0.0
  0
LINE
  5
53A1
330
A
100
AcDbEntity
  8
MODEL
  6
Continuous
100
AcDbLine
 10
181.1865468754445
 20
189.6267413325543
 30
0.0
 11
180.9895228754445
 21
189.0150273325532
 31
0.0
  0
LINE
  5
53A2
330
A
100
AcDbEntity
  8
MODEL
  6
Continuous
100
AcDbLine
 10
180.9895228754445
 20
189.0150273325532
 30
0.0
 11
180.8010478754445
 21
188.2470963325543
 31
0.0
  0
LINE
  5
53A3
330
A
100
AcDbEntity
  8
MODEL
  6
Continuous
100
AcDbLine
 10
180.8010478754445
 20
188.2470963325543
 30
0.0
 11
180.6547368754445
 21
187.4695363325543
 31
0.0
  0
LINE
  5
53A4
330
A
100
AcDbEntity
  8
MODEL
  6
Continuous
100
AcDbLine
 10
180.6547368754445
 20
187.4695363325543
 30
0.0
 11
180.4034108754445
 21
185.5269633325534
 31
0.0
  0
LINE
  5
53A5
330
A
100
AcDbEntity
  8
MODEL
  6
Continuous
100
AcDbLine
 10
180.4034108754445
 20
185.5269633325534
 30
0.0
 11
180.2402828754444
 21
183.2714723325532
 31
0.0
  0
LINE
  5
53A6
330
A
100
AcDbEntity
  8
MODEL
  6
Continuous
100
AcDbLine
 10
180.2402828754444
 20
183.2714723325532
 30
0.0
 11
180.1680698754445
 21
180.8394413325534
 31
0.0
  0
ARC
  5
53A7
330
A
100
AcDbEntity
  8
MODEL
  6
Continuous
100
AcDbCircle
 10
187.0200178754445
 20
190.0735123325533
 30
0.0
 40
1.0
100
AcDbArc
 50
10.84641799999543
 51
73.60317700000171
  0
ARC
  5
53A8
330
A
100
AcDbEntity
  8
MODEL
  6
Continuous
100
AcDbCircle
 10
181.6883718754445
 20
171.9358493325533
 30
0.0
 40
19.905056
100
AcDbArc
 50
73.61751300000006
 51
88.66052500000006
  0
ARC
  5
53A9
330
A
100
AcDbEntity
  8
MODEL
  6
Continuous
100
AcDbCircle
 10
176.8413608754445
 20
172.0579713325533
 30
0.0
 40
19.788664
100
AcDbArc
 50
73.62272899999999
 51
88.70959900000001
  0
LINE
  5
53AA
330
A
100
AcDbEntity
  8
MODEL
  6
Continuous
100
AcDbLine
 10
182.4209898754445
 20
191.0437273325533
 30
0.0
 11
187.3026748754445
 21
191.0331633325543
 31
0.0
  0
LINE
  5
53AB
330
A
100
AcDbEntity
  8
MODEL
  6
Continuous
100
AcDbLine
 10
174.4117118754445
 20
191.9064273325532
 30
0.0
 11
155.2018418754445
 21
192.3394393325534
 31
0.0
  0
LINE
  5
53AC
330
A
100
AcDbEntity
  8
MODEL
  6
Continuous
100
AcDbLine
 10
155.2018418754445
 20
192.3394393325534
 30
0.0
 11
134.9018358754445
 21
192.8290183325532
 31
0.0
  0
ARC
  5
53AD
330
A
100
AcDbEntity
  8
MODEL
  6
Continuous
100
AcDbCircle
 10
175.3165728754445
 20
168.2338913325534
 30
0.0
 40
23.689823
100
AcDbArc
 50
88.86021800000006
 51
92.189012
  0
LINE
  5
53AE
330
A
100
AcDbEntity
  8
MODEL
  6
STYLE_01
100
AcDbLine
 10
134.9018358754445
 20
168.8498613325532
 30
0.0
 11
134.9018378754445
 21
168.8482393325532
 31
0.0
  0
LINE
  5
53AF
330
A
100
AcDbEntity
  8
MODEL
  6
STYLE_01
100
AcDbLine
 10
134.9018378754445
 20
168.8482393325532
 30
0.0
 11
134.9018388754445
 21
168.8731793325533
 31
0.0
  0
LINE
  5
53B0
330
A
100
AcDbEntity
  8
MODEL
  6
STYLE_01
100
AcDbLine
 10
134.9018388754445
 20
168.8731793325533
 30
0.0
 11
134.9018408754445
 21
168.9148193325534
 31
0.0
  0
LINE
  5
53B1
330
A
100
AcDbEntity
  8
MODEL
  6
STYLE_01
100
AcDbLine
 10
134.9018408754445
 20
168.9148193325534
 30
0.0
 11
134.9018398754445
 21
169.0467893325533
 31
0.0
  0
LINE
  5
53B2
330
A
100
AcDbEntity
  8
MODEL
  6
STYLE_01
100
AcDbLine
 10
134.9018398754445
 20
169.0467893325533
 30
0.0
 11
134.9018318754445
 21
169.2413613325534
 31
0.0
  0
LINE
  5
53B3
330
A
100
AcDbEntity
  8
MODEL
  6
STYLE_01
100
AcDbLine
 10
134.9018318754445
 20
169.2413613325534
 30
0.0
 11
134.9018198754445
 21
169.4959113325533
 31
0.0
  0
LINE
  5
53B4
330
A
100
AcDbEntity
  8
MODEL
  6
STYLE_01
100
AcDbLine
 10
134.9018198754445
 20
169.4959113325533
 30
0.0
 11
134.9018078754445
 21
169.8078703325534
 31
0.0
  0
LINE
  5
53B5
330
A
100
AcDbEntity
  8
MODEL
  6
STYLE_01
100
AcDbLine
 10
134.9018078754445
 20
169.8078703325534
 30
0.0
 11
134.9018008754445
 21
170.1749253325534
 31
0.0
  0
LINE
  5
53B6
330
A
100
AcDbEntity
  8
MODEL
  6
STYLE_01
100
AcDbLine
 10
134.9018438754445
 20
192.8290193325533
 30
0.0
 11
134.9018358754445
 21
192.8291873325534
 31
0.0
  0
LINE
  5
53B7
330
A
100
AcDbEntity
  8
MODEL
  6
STYLE_01
100
AcDbLine
 10
134.9018358754445
 20
192.8291873325534
 30
0.0
 11
134.9017898754445
 21
192.8295273325534
 31
0.0
  0
LINE
  5
53B8
330
A
100
AcDbEntity
  8
MODEL
  6
STYLE_01
100
AcDbLine
 10
134.9017898754445
 20
192.8295273325534
 30
0.0
 11
134.9017148754445
 21
192.8298643325543
 31
0.0
  0
LINE
  5
53B9
330
A
100
AcDbEntity
  8
MODEL
  6
STYLE_01
100
AcDbLine
 10
134.9017148754445
 20
192.8298643325543
 30
0.0
 11
134.9014628754445
 21
192.8306503325534
 31
0.0
  0
LINE
  5
53BA
330
A
100
AcDbEntity
  8
MODEL
  6
STYLE_01
100
AcDbLine
 10
134.9014628754445
 20
192.8306503325534
 30
0.0
 11
134.9011028754445
 21
192.8315293325543
 31
0.0
  0
LINE
  5
53BB
330
A
100
AcDbEntity
  8
MODEL
  6
STYLE_01
100
AcDbLine
 10
134.9011028754445
 20
192.8315293325543
 30
0.0
 11
134.9009458754445
 21
192.8318313325533
 31
0.0
  0
LINE
  5
53BC
330
A
100
AcDbEntity
  8
MODEL
  6
STYLE_01
100
AcDbLine
 10
134.9009458754445
 20
192.8318313325533
 30
0.0
 11
134.9008728754445
 21
192.8319493325532
 31
0.0
  0
LINE
  5
53BD
330
A
100
AcDbEntity
  8
MODEL
  6
STYLE_01
100
AcDbLine
 10
134.9008728754445
 20
192.8319493325532
 30
0.0
 11
134.9008038754445
 21
192.8320453325532
 31
0.0
  0
LINE
  5
53BE
330
A
100
AcDbEntity
  8
MODEL
  6
STYLE_01
100
AcDbLine
 10
134.9008038754445
 20
192.8320453325532
 30
0.0
 11
134.9007708754445
 21
192.8320853325533
 31
0.0
  0
LINE
  5
53BF
330
A
100
AcDbEntity
  8
MODEL
  6
STYLE_01
100
AcDbLine
 10
134.9007708754445
 20
192.8320853325533
 30
0.0
 11
134.9007378754445
 21
192.8321203325534
 31
0.0
  0
LINE
  5
53C0
330
A
100
AcDbEntity
  8
MODEL
  6
STYLE_01
100
AcDbLine
 10
134.9007378754445
 20
192.8321203325534
 30
0.0
 11
134.9007068754445
 21
192.8321503325533
 31
0.0
  0
LINE
  5
53C1
330
A
100
AcDbEntity
  8
MODEL
  6
STYLE_01
100
AcDbLine
 10
134.9007068754445
 20
192.8321503325533
 30
0.0
 11
134.9006768754445
 21
192.8321743325532
 31
0.0
  0
LINE
  5
53C2
330
A
100
AcDbEntity
  8
MODEL
  6
STYLE_01
100
AcDbLine
 10
134.9006768754445
 20
192.8321743325532
 30
0.0
 11
134.9006468754445
 21
192.8321933325533
 31
0.0
  0
LINE
  5
53C3
330
A
100
AcDbEntity
  8
MODEL
  6
STYLE_01
100
AcDbLine
 10
134.9006468754445
 20
192.8321933325533
 30
0.0
 11
134.9006178754445
 21
192.8322083325534
 31
0.0
  0
LINE
  5
53C4
330
A
100
AcDbEntity
  8
MODEL
  6
STYLE_01
100
AcDbLine
 10
134.9006178754445
 20
192.8322083325534
 30
0.0
 11
134.9005898754445
 21
192.8322173325532
 31
0.0
  0
LINE
  5
53C5
330
A
100
AcDbEntity
  8
MODEL
  6
STYLE_01
100
AcDbLine
 10
134.9005898754445
 20
192.8322173325532
 30
0.0
 11
134.9005628754445
 21
192.8322213325532
 31
0.0
  0
LINE
  5
53C6
330
A
100
AcDbEntity
  8
MODEL
  6
STYLE_01
100
AcDbLine
 10
134.9005628754445
 20
192.8322213325532
 30
0.0
 11
134.9005368754445
 21
192.8322203325533
 31
0.0
  0
LINE
  5
53C7
330
A
100
AcDbEntity
  8
MODEL
  6
STYLE_01
100
AcDbLine
 10
134.9005368754445
 20
192.8322203325533
 30
0.0
 11
134.9005108754445
 21
192.8322153325532
 31
0.0
  0
LINE
  5
53C8
330
A
100
AcDbEntity
  8
MODEL
  6
STYLE_01
100
AcDbLine
 10
134.9005108754445
 20
192.8322153325532
 30
0.0
 11
134.9004868754445
 21
192.8322043325534
 31
0.0
  0
LINE
  5
53C9
330
A
100
AcDbEntity
  8
MODEL
  6
STYLE_01
100
AcDbLine
 10
134.9004868754445
 20
192.8322043325534
 30
0.0
 11
134.9004628754445
 21
192.8321893325533
 31
0.0
  0
LINE
  5
53CA
330
A
100
AcDbEntity
  8
MODEL
  6
STYLE_01
100
AcDbLine
 10
134.9004628754445
 20
192.8321893325533
 30
0.0
 11
134.9004398754445
 21
192.8321693325533
 31
0.0
  0
LINE
  5
53CB
330
A
100
AcDbEntity
  8
MODEL
  6
STYLE_01
100
AcDbLine
 10
134.9004398754445
 20
192.8321693325533
 30
0.0
 11
134.9004178754445
 21
192.8321443325533
 31
0.0
  0
LINE
  5
53CC
330
A
100
AcDbEntity
  8
MODEL
  6
STYLE_01
100
AcDbLine
 10
134.9004178754445
 20
192.8321443325533
 30
0.0
 11
134.9003958754445
 21
192.8321153325533
 31
0.0
  0
LINE
  5
53CD
330
A
100
AcDbEntity
  8
MODEL
  6
STYLE_01
100
AcDbLine
 10
134.9003958754445
 20
192.8321153325533
 30
0.0
 11
134.9003748754445
 21
192.8320813325533
 31
0.0
  0
LINE
  5
53CE
330
A
100
AcDbEntity
  8
MODEL
  6
STYLE_01
100
AcDbLine
 10
134.9003748754445
 20
192.8320813325533
 30
0.0
 11
134.9003558754445
 21
192.8320423325533
 31
0.0
  0
LINE
  5
53CF
330
A
100
AcDbEntity
  8
MODEL
  6
STYLE_01
100
AcDbLine
 10
134.9003558754445
 20
192.8320423325533
 30
0.0
 11
134.9003178754445
 21
192.8319513325532
 31
0.0
  0
LINE
  5
53D0
330
A
100
AcDbEntity
  8
MODEL
  6
STYLE_01
100
AcDbLine
 10
134.9003178754445
 20
192.8319513325532
 30
0.0
 11
134.9002838754445
 21
192.8318433325533
 31
0.0
  0
LINE
  5
53D1
330
A
100
AcDbEntity
  8
MODEL
  6
STYLE_01
100
AcDbLine
 10
134.9002838754445
 20
192.8318433325533
 30
0.0
 11
134.9002238754445
 21
192.8315733325533
 31
0.0
  0
LINE
  5
53D2
330
A
100
AcDbEntity
  8
MODEL
  6
STYLE_01
100
AcDbLine
 10
134.9002238754445
 20
192.8315733325533
 30
0.0
 11
134.9001368754445
 21
192.8308373325533
 31
0.0
  0
LINE
  5
53D3
330
A
100
AcDbEntity
  8
MODEL
  6
STYLE_01
100
AcDbLine
 10
134.9001368754445
 20
192.8308373325533
 30
0.0
 11
134.9014678754445
 21
192.8057093325533
 31
0.0
  0
LINE
  5
53D4
330
A
100
AcDbEntity
  8
MODEL
  6
STYLE_01
100
AcDbLine
 10
134.9014678754445
 20
192.8057093325533
 30
0.0
 11
134.9022478754445
 21
192.7845913325534
 31
0.0
  0
LINE
  5
53D5
330
A
100
AcDbEntity
  8
MODEL
  6
STYLE_01
100
AcDbLine
 10
134.9022478754445
 20
192.7845913325534
 30
0.0
 11
134.9015498754445
 21
192.7640673325534
 31
0.0
  0
LINE
  5
53D6
330
A
100
AcDbEntity
  8
MODEL
  6
STYLE_01
100
AcDbLine
 10
134.9015498754445
 20
192.7640673325534
 30
0.0
 11
134.9016698754445
 21
192.7060773325534
 31
0.0
  0
LINE
  5
53D7
330
A
100
AcDbEntity
  8
MODEL
  6
STYLE_01
100
AcDbLine
 10
134.9016698754445
 20
192.7060773325534
 30
0.0
 11
134.9017878754445
 21
192.6320913325533
 31
0.0
  0
LINE
  5
53D8
330
A
100
AcDbEntity
  8
MODEL
  6
STYLE_01
100
AcDbLine
 10
134.9017878754445
 20
192.6320913325533
 30
0.0
 11
134.9018678754445
 21
192.5424613325533
 31
0.0
  0
LINE
  5
53D9
330
A
100
AcDbEntity
  8
MODEL
  6
STYLE_01
100
AcDbLine
 10
134.9018678754445
 20
192.5424613325533
 30
0.0
 11
134.9019028754445
 21
192.4375163325533
 31
0.0
  0
LINE
  5
53DA
330
A
100
AcDbEntity
  8
MODEL
  6
STYLE_01
100
AcDbLine
 10
134.9019028754445
 20
192.4375163325533
 30
0.0
 11
134.9018828754445
 21
192.1829683325534
 31
0.0
  0
LINE
  5
53DB
330
A
100
AcDbEntity
  8
MODEL
  6
STYLE_01
100
AcDbLine
 10
134.9018828754445
 20
192.1829683325534
 30
0.0
 11
134.9018148754445
 21
191.8710113325533
 31
0.0
  0
LINE
  5
53DC
330
A
100
AcDbEntity
  8
MODEL
  6
STYLE_01
100
AcDbLine
 10
134.9018148754445
 20
191.8710113325533
 30
0.0
 11
134.9017788754445
 21
191.5039553325532
 31
0.0
  0
ARC
  5
53DD
330
A
100
AcDbEntity
  8
MODEL
  6
Continuous
100
AcDbCircle
 10
138.3600518754445
 20
180.8366213325532
 30
0.0
 40
50.528923
100
AcDbArc
 50
349.2567849999999
 51
10.75076099999991
  0
LINE
  5
53DE
330
A
100
AcDbEntity
  8
MODEL
  6
Continuous
100
AcDbLine
 10
175.7878018754445
 20
191.9190273325532
 30
0.0
 11
175.7101728754445
 21
191.9196833325534
 31
0.0
  0
LINE
  5
53DF
330
A
100
AcDbEntity
  8
MODEL
  6
Continuous
100
AcDbLine
 10
175.7101728754445
 20
191.9196833325534
 30
0.0
 11
175.6868768754444
 21
191.9194213325543
 31
0.0
  0
LINE
  5
53E0
330
A
100
AcDbEntity
  8
MODEL
  6
Continuous
100
AcDbLine
 10
175.6868768754444
 20
191.9194213325543
 30
0.0
 11
176.2143298754445
 21
191.9115543325534
 31
0.0
  0
LINE
  5
53E1
330
A
100
AcDbEntity
  8
MODEL
  6
Continuous
100
AcDbLine
 10
176.2143298754445
 20
191.9115543325534
 30
0.0
 11
177.1413188754445
 21
191.8959453325533
 31
0.0
  0
LINE
  5
53E2
330
A
100
AcDbEntity
  8
MODEL
  6
Continuous
100
AcDbLine
 10
177.1413188754445
 20
191.8959453325533
 30
0.0
 11
177.9430468754444
 21
191.8828993325533
 31
0.0
  0
LINE
  5
53E3
330
A
100
AcDbEntity
  8
MODEL
  6
Continuous
100
AcDbLine
 10
177.9430468754444
 20
191.8828993325533
 30
0.0
 11
178.6531808754445
 21
191.8721463325533
 31
0.0
  0
LINE
  5
53E4
330
A
100
AcDbEntity
  8
MODEL
  6
Continuous
100
AcDbLine
 10
178.6531808754445
 20
191.8721463325533
 30
0.0
 11
179.2921448754445
 21
191.8631123325533
 31
0.0
  0
LINE
  5
53E5
330
A
100
AcDbEntity
  8
MODEL
  6
Continuous
100
AcDbLine
 10
179.2921448754445
 20
191.8631123325533
 30
0.0
 11
179.8777078754444
 21
191.8552063325533
 31
0.0
  0
LINE
  5
53E6
330
A
100
AcDbEntity
  8
MODEL
  6
Continuous
100
AcDbLine
 10
179.8777078754444
 20
191.8552063325533
 30
0.0
 11
180.4109158754445
 21
191.8485353325534
 31
0.0
  0
LINE
  5
53E7
330
A
100
AcDbEntity
  8
MODEL
  6
Continuous
100
AcDbLine
 10
188.0082618754445
 20
171.4234463325533
 30
0.0
 11
188.4452408754445
 21
174.0938563325533
 31
0.0
  0
LINE
  5
53E8
330
A
100
AcDbEntity
  8
MODEL
  6
Continuous
100
AcDbLine
 10
188.4452408754445
 20
174.0938563325533
 30
0.0
 11
188.7373148754445
 21
176.7845533325533
 31
0.0
  0
LINE
  5
53E9
330
A
100
AcDbEntity
  8
MODEL
  6
Continuous
100
AcDbLine
 10
188.7373148754445
 20
176.7845533325533
 30
0.0
 11
188.8836838754445
 21
179.4865183325533
 31
0.0
  0
LINE
  5
53EA
330
A
100
AcDbEntity
  8
MODEL
  6
Continuous
100
AcDbLine
 10
188.8836838754445
 20
179.4865183325533
 30
0.0
 11
188.8835188754444
 21
182.1928753325533
 31
0.0
  0
LINE
  5
53EB
330
A
100
AcDbEntity
  8
MODEL
  6
Continuous
100
AcDbLine
 10
188.8835188754444
 20
182.1928753325533
 30
0.0
 11
188.8284108754445
 21
183.5447683325533
 31
0.0
  0
LINE
  5
53EC
330
A
100
AcDbEntity
  8
MODEL
  6
Continuous
100
AcDbLine
 10
188.8284108754445
 20
183.5447683325533
 30
0.0
 11
188.7368188754445
 21
184.8948433325534
 31
0.0
  0
LINE
  5
53ED
330
A
100
AcDbEntity
  8
MODEL
  6
Continuous
100
AcDbLine
 10
188.7368188754445
 20
184.8948433325534
 30
0.0
 11
188.6087978754444
 21
186.2421373325533
 31
0.0
  0
LINE
  5
53EE
330
A
100
AcDbEntity
  8
MODEL
  6
Continuous
100
AcDbLine
 10
188.6087978754444
 20
186.2421373325533
 30
0.0
 11
188.4444168754445
 21
187.5855233325533
 31
0.0
  0
LINE
  5
53EF
330
A
100
AcDbEntity
  8
MODEL
  6
Continuous
100
AcDbLine
 10
188.4444168754445
 20
187.5855233325533
 30
0.0
 11
188.3486238754445
 21
188.2553943325534
 31
0.0
  0
LINE
  5
53F0
330
A
100
AcDbEntity
  8
MODEL
  6
Continuous
100
AcDbLine
 10
188.3486238754445
 20
188.2553943325534
 30
0.0
 11
188.2438718754445
 21
188.9238713325533
 31
0.0
  0
LINE
  5
53F1
330
A
100
AcDbEntity
  8
MODEL
  6
Continuous
100
AcDbLine
 10
188.2438718754445
 20
188.9238713325533
 30
0.0
 11
188.1296708754445
 21
189.5906973325534
 31
0.0
  0
LINE
  5
53F2
330
A
100
AcDbEntity
  8
MODEL
  6
Continuous
100
AcDbLine
 10
188.1296708754445
 20
189.5906973325534
 30
0.0
 11
188.0071078754445
 21
190.2558833325543
 31
0.0
  0
LINE
  5
53F3
330
A
100
AcDbEntity
  8
MODEL
  6
Continuous
100
AcDbLine
 10
182.1490748754445
 20
191.8356083325534
 30
0.0
 11
180.4109158754445
 21
191.8485353325534
 31
0.0
  0
LINE
  5
53F4
330
A
100
AcDbEntity
  8
MODEL
  6
Continuous
100
AcDbLine
 10
134.9018358754445
 20
192.8290183325532
 30
0.0
 11
134.9018358754445
 21
168.8498623325534
 31
0.0
  0
LINE
  5
53F5
330
A
100
AcDbEntity
  8
MODEL
  6
Continuous
100
AcDbLine
 10
182.4230298754445
 20
170.6588143325532
 30
0.0
 11
182.3663668754445
 21
170.6634223325534
 31
0.0
  0
LINE
  5
53F6
330
A
100
AcDbEntity
  8
MODEL
  6
Continuous
100
AcDbLine
 10
182.3663668754445
 20
170.6634223325534
 30
0.0
 11
182.3100618754445
 21
170.6725003325532
 31
0.0
  0
LINE
  5
53F7
330
A
100
AcDbEntity
  8
MODEL
  6
Continuous
100
AcDbLine
 10
182.3100618754445
 20
170.6725003325532
 30
0.0
 11
182.2544688754445
 21
170.6858273325533
 31
0.0
  0
LINE
  5
53F8
330
A
100
AcDbEntity
  8
MODEL
  6
Continuous
100
AcDbLine
 10
182.2544688754445
 20
170.6858273325533
 30
0.0
 11
182.1999448754445
 21
170.7031813325534
 31
0.0
  0
LINE
  5
53F9
330
A
100
AcDbEntity
  8
MODEL
  6
Continuous
100
AcDbLine
 10
182.1999448754445
 20
170.7031813325534
 30
0.0
 11
182.1468448754444
 21
170.7243393325534
 31
0.0
  0
LINE
  5
53FA
330
A
100
AcDbEntity
  8
MODEL
  6
Continuous
100
AcDbLine
 10
182.1468448754444
 20
170.7243393325534
 30
0.0
 11
182.0898798754445
 21
170.7520063325533
 31
0.0
  0
LINE
  5
53FB
330
A
100
AcDbEntity
  8
MODEL
  6
Continuous
100
AcDbLine
 10
182.0898798754445
 20
170.7520063325533
 30
0.0
 11
182.0350928754445
 21
170.7836463325534
 31
0.0
  0
LINE
  5
53FC
330
A
100
AcDbEntity
  8
MODEL
  6
Continuous
100
AcDbLine
 10
182.0350928754445
 20
170.7836463325534
 30
0.0
 11
181.9824708754445
 21
170.8188123325533
 31
0.0
  0
LINE
  5
53FD
330
A
100
AcDbEntity
  8
MODEL
  6
Continuous
100
AcDbLine
 10
181.9824708754445
 20
170.8188123325533
 30
0.0
 11
181.9319958754445
 21
170.8570593325533
 31
0.0
  0
LINE
  5
53FE
330
A
100
AcDbEntity
  8
MODEL
  6
Continuous
100
AcDbLine
 10
181.9319958754445
 20
170.8570593325533
 30
0.0
 11
181.8836538754444
 21
170.8979383325534
 31
0.0
  0
LINE
  5
53FF
330
A
100
AcDbEntity
  8
MODEL
  6
Continuous
100
AcDbLine
 10
181.8836538754444
 20
170.8979383325534
 30
0.0
 11
181.7765188754445
 21
171.0041173325533
 31
0.0
  0
LINE
  5
5400
330
A
100
AcDbEntity
  8
MODEL
  6
Continuous
100
AcDbLine
 10
181.7765188754445
 20
171.0041173325533
 30
0.0
 11
181.7031408754445
 21
171.0902383325533
 31
0.0
  0
LINE
  5
5401
330
A
100
AcDbEntity
  8
MODEL
  6
Continuous
100
AcDbLine
 10
181.7031408754445
 20
171.0902383325533
 30
0.0
 11
181.6349988754445
 21
171.1805973325534
 31
0.0
  0
LINE
  5
5402
330
A
100
AcDbEntity
  8
MODEL
  6
Continuous
100
AcDbLine
 10
181.6349988754445
 20
171.1805973325534
 30
0.0
 11
181.5344318754445
 21
171.3330803325532
 31
0.0
  0
LINE
  5
5403
330
A
100
AcDbEntity
  8
MODEL
  6
Continuous
100
AcDbLine
 10
181.5344318754445
 20
171.3330803325532
 30
0.0
 11
181.4021038754445
 21
171.5729193325533
 31
0.0
  0
LINE
  5
5404
330
A
100
AcDbEntity
  8
MODEL
  6
Continuous
100
AcDbLine
 10
181.4021038754445
 20
171.5729193325533
 30
0.0
 11
181.2873968754445
 21
171.8210603325533
 31
0.0
  0
LINE
  5
5405
330
A
100
AcDbEntity
  8
MODEL
  6
Continuous
100
AcDbLine
 10
181.2873968754445
 20
171.8210603325533
 30
0.0
 11
181.1865468754445
 21
172.0751633325533
 31
0.0
  0
LINE
  5
5406
330
A
100
AcDbEntity
  8
MODEL
  6
Continuous
100
AcDbLine
 10
181.1865468754445
 20
172.0751633325533
 30
0.0
 11
180.9895228754445
 21
172.6868783325533
 31
0.0
  0
LINE
  5
5407
330
A
100
AcDbEntity
  8
MODEL
  6
Continuous
100
AcDbLine
 10
180.9895228754445
 20
172.6868783325533
 30
0.0
 11
180.8010478754445
 21
173.4548083325533
 31
0.0
  0
LINE
  5
5408
330
A
100
AcDbEntity
  8
MODEL
  6
Continuous
100
AcDbLine
 10
180.8010478754445
 20
173.4548083325533
 30
0.0
 11
180.6547368754445
 21
174.2323693325534
 31
0.0
  0
LINE
  5
5409
330
A
100
AcDbEntity
  8
MODEL
  6
Continuous
100
AcDbLine
 10
180.6547368754445
 20
174.2323693325534
 30
0.0
 11
180.4034108754445
 21
176.1749423325534
 31
0.0
  0
LINE
  5
540A
330
A
100
AcDbEntity
  8
MODEL
  6
Continuous
100
AcDbLine
 10
180.4034108754445
 20
176.1749423325534
 30
0.0
 11
180.2402828754444
 21
178.4304323325532
 31
0.0
  0
LINE
  5
540B
330
A
100
AcDbEntity
  8
MODEL
  6
Continuous
100
AcDbLine
 10
180.2402828754444
 20
178.4304323325532
 30
0.0
 11
180.1680698754445
 21
180.8624633325533
 31
0.0
  0
ARC
  5
540C
330
A
100
AcDbEntity
  8
MODEL
  6
Continuous
100
AcDbCircle
 10
187.0200178754445
 20
171.6283933325533
 30
0.0
 40
1.0
100
AcDbArc
 50
286.3968229999983
 51
349.1535820000046
  0
ARC
  5
540D
330
A
100
AcDbEntity
  8
MODEL
  6
Continuous
100
AcDbCircle
 10
181.6883718754445
 20
189.7660553325543
 30
0.0
 40
19.905056
100
AcDbArc
 50
271.3394749999999
 51
286.3824870000003
  0
ARC
  5
540E
330
A
100
AcDbEntity
  8
MODEL
  6
Continuous
100
AcDbCircle
 10
176.8413608754445
 20
189.6439343325533
 30
0.0
 40
19.788664
100
AcDbArc
 50
271.2904009999999
 51
286.3772710000002
  0
LINE
  5
540F
330
A
100
AcDbEntity
  8
MODEL
  6
Continuous
100
AcDbLine
 10
182.4209898754445
 20
170.6581773325534
 30
0.0
 11
187.3026748754445
 21
170.6687413325533
 31
0.0
  0
LINE
  5
5410
330
A
100
AcDbEntity
  8
MODEL
  6
Continuous
100
AcDbLine
 10
174.4117118754445
 20
169.7954773325532
 30
0.0
 11
155.2018418754445
 21
169.3624663325543
 31
0.0
  0
ARC
  5
5411
330
A
100
AcDbEntity
  8
MODEL
  6
Continuous
100
AcDbCircle
 10
175.3165728754445
 20
193.4680133325533
 30
0.0
 40
23.689823
100
AcDbArc
 50
267.810988
 51
271.1397820000001
  0
ARC
  5
5412
330
A
100
AcDbEntity
  8
MODEL
  6
Continuous
100
AcDbCircle
 10
138.3600518754445
 20
180.8652833325534
 30
0.0
 40
50.528923
100
AcDbArc
 50
349.249239
 51
10.74321500000003
  0
LINE
  5
5413
330
A
100
AcDbEntity
  8
MODEL
  6
Continuous
100
AcDbLine
 10
175.7878018754445
 20
169.7828773325534
 30
0.0
 11
175.7101728754445
 21
169.7822213325533
 31
0.0
  0
LINE
  5
5414
330
A
100
AcDbEntity
  8
MODEL
  6
Continuous
100
AcDbLine
 10
175.7101728754445
 20
169.7822213325533
 30
0.0
 11
175.6868768754444
 21
169.7824843325534
 31
0.0
  0
LINE
  5
5415
330
A
100
AcDbEntity
  8
MODEL
  6
Continuous
100
AcDbLine
 10
175.6868768754444
 20
169.7824843325534
 30
0.0
 11
176.2143298754445
 21
169.7903513325534
 31
0.0
  0
LINE
  5
5416
330
A
100
AcDbEntity
  8
MODEL
  6
Continuous
100
AcDbLine
 10
176.2143298754445
 20
169.7903513325534
 30
0.0
 11
177.1413188754445
 21
169.8059593325534
 31
0.0
  0
LINE
  5
5417
330
A
100
AcDbEntity
  8
MODEL
  6
Continuous
100
AcDbLine
 10
177.1413188754445
 20
169.8059593325534
 30
0.0
 11
177.9430468754444
 21
169.8190063325533
 31
0.0
  0
LINE
  5
5418
330
A
100
AcDbEntity
  8
MODEL
  6
Continuous
100
AcDbLine
 10
177.9430468754444
 20
169.8190063325533
 30
0.0
 11
178.6531808754445
 21
169.8297583325534
 31
0.0
  0
LINE
  5
5419
330
A
100
AcDbEntity
  8
MODEL
  6
Continuous
100
AcDbLine
 10
178.6531808754445
 20
169.8297583325534
 30
0.0
 11
179.2921448754445
 21
169.8387933325532
 31
0.0
  0
LINE
  5
541A
330
A
100
AcDbEntity
  8
MODEL
  6
Continuous
100
AcDbLine
 10
179.2921448754445
 20
169.8387933325532
 30
0.0
 11
179.8777078754444
 21
169.8466993325533
 31
0.0
  0
LINE
  5
541B
330
A
100
AcDbEntity
  8
MODEL
  6
Continuous
100
AcDbLine
 10
179.8777078754444
 20
169.8466993325533
 30
0.0
 11
180.4109158754445
 21
169.8533693325533
 31
0.0
  0
LINE
  5
541C
330
A
100
AcDbEntity
  8
MODEL
  6
Continuous
100
AcDbLine
 10
188.0082618754445
 20
190.2784593325532
 30
0.0
 11
188.4452408754445
 21
187.6080493325533
 31
0.0
  0
LINE
  5
541D
330
A
100
AcDbEntity
  8
MODEL
  6
Continuous
100
AcDbLine
 10
188.4452408754445
 20
187.6080493325533
 30
0.0
 11
188.7373148754445
 21
184.9173513325543
 31
0.0
  0
LINE
  5
541E
330
A
100
AcDbEntity
  8
MODEL
  6
Continuous
100
AcDbLine
 10
188.7373148754445
 20
184.9173513325543
 30
0.0
 11
188.8836838754445
 21
182.2153873325533
 31
0.0
  0
LINE
  5
541F
330
A
100
AcDbEntity
  8
MODEL
  6
Continuous
100
AcDbLine
 10
188.8836838754445
 20
182.2153873325533
 30
0.0
 11
188.8835188754444
 21
179.5090303325533
 31
0.0
  0
LINE
  5
5420
330
A
100
AcDbEntity
  8
MODEL
  6
Continuous
100
AcDbLine
 10
188.8835188754444
 20
179.5090303325533
 30
0.0
 11
188.8284108754445
 21
178.1571363325534
 31
0.0
  0
LINE
  5
5421
330
A
100
AcDbEntity
  8
MODEL
  6
Continuous
100
AcDbLine
 10
188.8284108754445
 20
178.1571363325534
 30
0.0
 11
188.7368188754445
 21
176.8070623325534
 31
0.0
  0
LINE
  5
5422
330
A
100
AcDbEntity
  8
MODEL
  6
Continuous
100
AcDbLine
 10
188.7368188754445
 20
176.8070623325534
 30
0.0
 11
188.6087978754444
 21
175.4597673325534
 31
0.0
  0
LINE
  5
5423
330
A
100
AcDbEntity
  8
MODEL
  6
Continuous
100
AcDbLine
 10
188.6087978754444
 20
175.4597673325534
 30
0.0
 11
188.4444168754445
 21
174.1163813325534
 31
0.0
  0
LINE
  5
5424
330
A
100
AcDbEntity
  8
MODEL
  6
Continuous
100
AcDbLine
 10
188.4444168754445
 20
174.1163813325534
 30
0.0
 11
188.3486238754445
 21
173.4465113325534
 31
0.0
  0
LINE
  5
5425
330
A
100
AcDbEntity
  8
MODEL
  6
Continuous
100
AcDbLine
 10
188.3486238754445
 20
173.4465113325534
 30
0.0
 11
188.2438718754445
 21
172.7780343325533
 31
0.0
  0
LINE
  5
5426
330
A
100
AcDbEntity
  8
MODEL
  6
Continuous
100
AcDbLine
 10
188.2438718754445
 20
172.7780343325533
 30
0.0
 11
188.1296708754445
 21
172.1112073325532
 31
0.0
  0
LINE
  5
5427
330
A
100
AcDbEntity
  8
MODEL
  6
Continuous
100
AcDbLine
 10
188.1296708754445
 20
172.1112073325532
 30
0.0
 11
188.0071078754445
 21
171.4460213325533
 31
0.0
  0
LINE
  5
5428
330
A
100
AcDbEntity
  8
MODEL
  6
Continuous
100
AcDbLine
 10
182.1490748754445
 20
169.8662973325534
 30
0.0
 11
180.4109158754445
 21
169.8533693325533
 31
0.0
  0
LINE
  5
5429
330
A
100
AcDbEntity
  8
MODEL
  6
Continuous
100
AcDbLine
 10
155.2018418754445
 20
169.3624663325543
 30
0.0
 11
134.9018358754445
 21
168.8728873325533
 31
0.0
  0
ARC
  5
542A
330
A
100
AcDbEntity
  8
MODEL
  6
Continuous
100
AcDbCircle
 10
181.5582328754445
 20
111.4383933325533
 30
0.0
 40
80.399316
100
AcDbArc
 50
89.57566
 51
90.22277599999997
  0
ARC
  5
542B
330
A
100
AcDbEntity
  8
MODEL
  6
DASHED1
100
AcDbCircle
 10
181.7060528754445
 20
172.0523023325543
 30
0.0
 40
19.788168
100
AcDbArc
 50
91.33306100000007
 51
103.693908
  0
ARC
  5
542C
330
A
100
AcDbEntity
  8
MODEL
  6
DASHED1
100
AcDbCircle
 10
151.1903688754445
 20
189.8114623325532
 30
0.0
 40
1.000616
100
AcDbArc
 50
135.1113059999994
 51
178.1258440000024
  0
LINE
  5
542D
330
A
100
AcDbEntity
  8
MODEL
  6
Continuous
100
AcDbLine
 10
182.6864668754445
 20
191.8162773325532
 30
0.0
 11
182.1490758754445
 21
191.8356083325534
 31
0.0
  0
LINE
  5
542E
330
A
100
AcDbEntity
  8
MODEL
  6
DASHED1
100
AcDbLine
 10
177.0215038754445
 20
191.2779773325533
 30
0.0
 11
176.6626698754445
 21
191.2556383325534
 31
0.0
  0
LINE
  5
542F
330
A
100
AcDbEntity
  8
MODEL
  6
STYLE_01
100
AcDbLine
 10
176.6626698754445
 20
191.2556383325534
 30
0.0
 11
176.1561958754445
 21
191.2244613325533
 31
0.0
  0
LINE
  5
5430
330
A
100
AcDbEntity
  8
MODEL
  6
DASHED1
100
AcDbLine
 10
176.1561958754445
 20
191.2244613325533
 30
0.0
 11
175.9701098754444
 21
191.2128163325533
 31
0.0
  0
LINE
  5
5431
330
A
100
AcDbEntity
  8
MODEL
  6
DASHED1
100
AcDbLine
 10
175.9701098754444
 20
191.2128163325533
 30
0.0
 11
175.6446188754445
 21
191.2025153325533
 31
0.0
  0
LINE
  5
5432
330
A
100
AcDbEntity
  8
MODEL
  6
DASHED1
100
AcDbLine
 10
175.6446188754445
 20
191.2025153325533
 30
0.0
 11
174.5501688754444
 21
191.1811443325532
 31
0.0
  0
LINE
  5
5433
330
A
100
AcDbEntity
  8
MODEL
  6
DASHED1
100
AcDbLine
 10
174.5501688754444
 20
191.1811443325532
 30
0.0
 11
172.8597758754445
 21
191.1603003325533
 31
0.0
  0
LINE
  5
5434
330
A
100
AcDbEntity
  8
MODEL
  6
DASHED1
100
AcDbLine
 10
172.8597758754445
 20
191.1603003325533
 30
0.0
 11
170.7131868754445
 21
191.1429053325533
 31
0.0
  0
LINE
  5
5435
330
A
100
AcDbEntity
  8
MODEL
  6
DASHED1
100
AcDbLine
 10
170.7131868754445
 20
191.1429053325533
 30
0.0
 11
168.2349378754445
 21
191.1298993325534
 31
0.0
  0
LINE
  5
5436
330
A
100
AcDbEntity
  8
MODEL
  6
DASHED1
100
AcDbLine
 10
168.2349378754445
 20
191.1298993325534
 30
0.0
 11
165.5557198754445
 21
191.1212223325533
 31
0.0
  0
LINE
  5
5437
330
A
100
AcDbEntity
  8
MODEL
  6
DASHED1
100
AcDbLine
 10
165.5557198754445
 20
191.1212223325533
 30
0.0
 11
162.8028718754445
 21
191.1148813325533
 31
0.0
  0
LINE
  5
5438
330
A
100
AcDbEntity
  8
MODEL
  6
DASHED1
100
AcDbLine
 10
162.8028718754445
 20
191.1148813325533
 30
0.0
 11
157.2739848754445
 21
191.1031243325533
 31
0.0
  0
LINE
  5
5439
330
A
100
AcDbEntity
  8
MODEL
  6
DASHED1
100
AcDbLine
 10
157.2739848754445
 20
191.1031243325533
 30
0.0
 11
151.7475428754445
 21
191.0915533325533
 31
0.0
  0
LINE
  5
543A
330
A
100
AcDbEntity
  8
MODEL
  6
DASHED1
100
AcDbLine
 10
150.1902768754445
 20
171.8347603325533
 30
0.0
 11
150.1195368754445
 21
174.3897283325534
 31
0.0
  0
LINE
  5
543B
330
A
100
AcDbEntity
  8
MODEL
  6
DASHED1
100
AcDbLine
 10
150.1195368754445
 20
174.3897283325534
 30
0.0
 11
150.0723478754445
 21
176.9625263325534
 31
0.0
  0
LINE
  5
543C
330
A
100
AcDbEntity
  8
MODEL
  6
DASHED1
100
AcDbLine
 10
150.0723478754445
 20
176.9625263325534
 30
0.0
 11
150.0487248754445
 21
179.5459753325533
 31
0.0
  0
LINE
  5
543D
330
A
100
AcDbEntity
  8
MODEL
  6
DASHED1
100
AcDbLine
 10
150.0487248754445
 20
179.5459753325533
 30
0.0
 11
150.0487318754445
 21
182.1329863325534
 31
0.0
  0
LINE
  5
543E
330
A
100
AcDbEntity
  8
MODEL
  6
DASHED1
100
AcDbLine
 10
150.0487318754445
 20
182.1329863325534
 30
0.0
 11
150.0723538754445
 21
184.7164433325534
 31
0.0
  0
LINE
  5
543F
330
A
100
AcDbEntity
  8
MODEL
  6
DASHED1
100
AcDbLine
 10
150.0723538754445
 20
184.7164433325534
 30
0.0
 11
150.1195288754445
 21
187.2892503325543
 31
0.0
  0
LINE
  5
5440
330
A
100
AcDbEntity
  8
MODEL
  6
DASHED1
100
AcDbLine
 10
150.1195288754445
 20
187.2892503325543
 30
0.0
 11
150.1519478754445
 21
188.5694223325534
 31
0.0
  0
LINE
  5
5441
330
A
100
AcDbEntity
  8
MODEL
  6
DASHED1
100
AcDbLine
 10
150.1519478754445
 20
188.5694223325534
 30
0.0
 11
150.1902788754445
 21
189.8441963325533
 31
0.0
  0
LINE
  5
5442
330
A
100
AcDbEntity
  8
MODEL
  6
DASHED1
100
AcDbLine
 10
151.7471368754445
 20
191.0915273325543
 30
0.0
 11
151.6601278754445
 21
191.0888823325533
 31
0.0
  0
LINE
  5
5443
330
A
100
AcDbEntity
  8
MODEL
  6
DASHED1
100
AcDbLine
 10
151.6601278754445
 20
191.0888823325533
 30
0.0
 11
151.5301458754445
 21
191.0758643325532
 31
0.0
  0
LINE
  5
5444
330
A
100
AcDbEntity
  8
MODEL
  6
DASHED1
100
AcDbLine
 10
151.5301458754445
 20
191.0758643325532
 30
0.0
 11
151.4453848754445
 21
191.0615233325534
 31
0.0
  0
LINE
  5
5445
330
A
100
AcDbEntity
  8
MODEL
  6
DASHED1
100
AcDbLine
 10
151.4453848754445
 20
191.0615233325534
 30
0.0
 11
151.3200068754445
 21
191.0315873325533
 31
0.0
  0
LINE
  5
5446
330
A
100
AcDbEntity
  8
MODEL
  6
DASHED1
100
AcDbLine
 10
151.3200068754445
 20
191.0315873325533
 30
0.0
 11
151.2200478754445
 21
190.9999383325533
 31
0.0
  0
LINE
  5
5447
330
A
100
AcDbEntity
  8
MODEL
  6
DASHED1
100
AcDbLine
 10
151.2200478754445
 20
190.9999383325533
 30
0.0
 11
151.1222778754445
 21
190.9620543325534
 31
0.0
  0
LINE
  5
5448
330
A
100
AcDbEntity
  8
MODEL
  6
DASHED1
100
AcDbLine
 10
151.1222778754445
 20
190.9620543325534
 30
0.0
 11
151.0296938754445
 21
190.9196133325534
 31
0.0
  0
LINE
  5
5449
330
A
100
AcDbEntity
  8
MODEL
  6
DASHED1
100
AcDbLine
 10
151.0296938754445
 20
190.9196133325534
 30
0.0
 11
150.9396648754445
 21
190.8719793325533
 31
0.0
  0
LINE
  5
544A
330
A
100
AcDbEntity
  8
MODEL
  6
DASHED1
100
AcDbLine
 10
150.9396648754445
 20
190.8719793325533
 30
0.0
 11
150.7726648754445
 21
190.7657193325533
 31
0.0
  0
LINE
  5
544B
330
A
100
AcDbEntity
  8
MODEL
  6
DASHED1
100
AcDbLine
 10
150.7726648754445
 20
190.7657193325533
 30
0.0
 11
150.6203878754445
 21
190.6467293325543
 31
0.0
  0
LINE
  5
544C
330
A
100
AcDbEntity
  8
MODEL
  6
DASHED1
100
AcDbLine
 10
150.6203878754445
 20
190.6467293325543
 30
0.0
 11
150.5491538754445
 21
190.5832793325533
 31
0.0
  0
LINE
  5
544D
330
A
100
AcDbEntity
  8
MODEL
  6
DASHED1
100
AcDbLine
 10
150.5491538754445
 20
190.5832793325533
 30
0.0
 11
150.5149318754445
 21
190.5503953325533
 31
0.0
  0
LINE
  5
544E
330
A
100
AcDbEntity
  8
MODEL
  6
DASHED1
100
AcDbLine
 10
150.5149318754445
 20
190.5503953325533
 30
0.0
 11
150.4974758754445
 21
190.5343103325533
 31
0.0
  0
LINE
  5
544F
330
A
100
AcDbEntity
  8
MODEL
  6
DASHED1
100
AcDbLine
 10
150.4974758754445
 20
190.5343103325533
 30
0.0
 11
150.4890388754445
 21
190.5259983325534
 31
0.0
  0
LINE
  5
5450
330
A
100
AcDbEntity
  8
MODEL
  6
DASHED1
100
AcDbLine
 10
150.4890388754445
 20
190.5259983325534
 30
0.0
 11
150.4810868754445
 21
190.5172353325534
 31
0.0
  0
ARC
  5
5451
330
A
100
AcDbEntity
  8
MODEL
  6
Continuous
100
AcDbCircle
 10
181.5582328754445
 20
250.2635123325533
 30
0.0
 40
80.399316
100
AcDbArc
 50
269.777224
 51
270.4243399999999
  0
LINE
  5
5452
330
A
100
AcDbEntity
  8
MODEL
  6
Continuous
100
AcDbLine
 10
182.6864668754445
 20
169.8856273325532
 30
0.0
 11
182.1490758754445
 21
169.8662973325534
 31
0.0
  0
LINE
  5
5453
330
A
100
AcDbEntity
  8
MODEL
  6
STYLE_01
100
AcDbLine
 10
177.0215038754445
 20
170.4239283325533
 30
0.0
 11
176.6626698754445
 21
170.4462663325533
 31
0.0
  0
LINE
  5
5454
330
A
100
AcDbEntity
  8
MODEL
  6
STYLE_01
100
AcDbLine
 10
176.6626698754445
 20
170.4462663325533
 30
0.0
 11
176.1561958754445
 21
170.4774443325534
 31
0.0
  0
LINE
  5
5455
330
A
100
AcDbEntity
  8
MODEL
  6
DASHED1
100
AcDbLine
 10
176.1561958754445
 20
170.4774443325534
 30
0.0
 11
175.9701098754444
 21
170.4890893325532
 31
0.0
  0
LINE
  5
5456
330
A
100
AcDbEntity
  8
MODEL
  6
DASHED1
100
AcDbLine
 10
175.9701098754444
 20
170.4890893325532
 30
0.0
 11
175.6446188754445
 21
170.4993903325533
 31
0.0
  0
LINE
  5
5457
330
A
100
AcDbEntity
  8
MODEL
  6
DASHED1
100
AcDbLine
 10
175.6446188754445
 20
170.4993903325533
 30
0.0
 11
174.5501688754444
 21
170.5207613325533
 31
0.0
  0
LINE
  5
5458
330
A
100
AcDbEntity
  8
MODEL
  6
DASHED1
100
AcDbLine
 10
174.5501688754444
 20
170.5207613325533
 30
0.0
 11
172.8597758754445
 21
170.5416053325532
 31
0.0
  0
LINE
  5
5459
330
A
100
AcDbEntity
  8
MODEL
  6
DASHED1
100
AcDbLine
 10
172.8597758754445
 20
170.5416053325532
 30
0.0
 11
170.7131868754445
 21
170.5589993325534
 31
0.0
  0
LINE
  5
545A
330
A
100
AcDbEntity
  8
MODEL
  6
DASHED1
100
AcDbLine
 10
170.7131868754445
 20
170.5589993325534
 30
0.0
 11
168.2349378754445
 21
170.5720063325534
 31
0.0
  0
LINE
  5
545B
330
A
100
AcDbEntity
  8
MODEL
  6
DASHED1
100
AcDbLine
 10
168.2349378754445
 20
170.5720063325534
 30
0.0
 11
165.5557198754445
 21
170.5806823325534
 31
0.0
  0
LINE
  5
545C
330
A
100
AcDbEntity
  8
MODEL
  6
DASHED1
100
AcDbLine
 10
165.5557198754445
 20
170.5806823325534
 30
0.0
 11
162.8028718754445
 21
170.5870243325533
 31
0.0
  0
LINE
  5
545D
330
A
100
AcDbEntity
  8
MODEL
  6
DASHED1
100
AcDbLine
 10
162.8028718754445
 20
170.5870243325533
 30
0.0
 11
157.2739848754445
 21
170.5987813325532
 31
0.0
  0
LINE
  5
545E
330
A
100
AcDbEntity
  8
MODEL
  6
DASHED1
100
AcDbLine
 10
157.2739848754445
 20
170.5987813325532
 30
0.0
 11
151.7475428754445
 21
170.6103523325532
 31
0.0
  0
LINE
  5
545F
330
A
100
AcDbEntity
  8
MODEL
  6
DASHED1
100
AcDbLine
 10
151.7471368754445
 20
170.6103783325534
 30
0.0
 11
151.6601278754445
 21
170.6130233325532
 31
0.0
  0
LINE
  5
5460
330
A
100
AcDbEntity
  8
MODEL
  6
DASHED1
100
AcDbLine
 10
151.6601278754445
 20
170.6130233325532
 30
0.0
 11
151.5301458754445
 21
170.6260403325534
 31
0.0
  0
LINE
  5
5461
330
A
100
AcDbEntity
  8
MODEL
  6
DASHED1
100
AcDbLine
 10
151.5301458754445
 20
170.6260403325534
 30
0.0
 11
151.4453848754445
 21
170.6403813325533
 31
0.0
  0
LINE
  5
5462
330
A
100
AcDbEntity
  8
MODEL
  6
DASHED1
100
AcDbLine
 10
151.4453848754445
 20
170.6403813325533
 30
0.0
 11
151.3200068754445
 21
170.6703183325533
 31
0.0
  0
LINE
  5
5463
330
A
100
AcDbEntity
  8
MODEL
  6
DASHED1
100
AcDbLine
 10
151.3200068754445
 20
170.6703183325533
 30
0.0
 11
151.2200478754445
 21
170.7019663325534
 31
0.0
  0
LINE
  5
5464
330
A
100
AcDbEntity
  8
MODEL
  6
DASHED1
100
AcDbLine
 10
151.2200478754445
 20
170.7019663325534
 30
0.0
 11
151.1222778754445
 21
170.7398513325534
 31
0.0
  0
LINE
  5
5465
330
A
100
AcDbEntity
  8
MODEL
  6
DASHED1
100
AcDbLine
 10
151.1222778754445
 20
170.7398513325534
 30
0.0
 11
151.0296938754445
 21
170.7822923325534
 31
0.0
  0
LINE
  5
5466
330
A
100
AcDbEntity
  8
MODEL
  6
DASHED1
100
AcDbLine
 10
151.0296938754445
 20
170.7822923325534
 30
0.0
 11
150.9396648754445
 21
170.8299263325532
 31
0.0
  0
LINE
  5
5467
330
A
100
AcDbEntity
  8
MODEL
  6
DASHED1
100
AcDbLine
 10
150.9396648754445
 20
170.8299263325532
 30
0.0
 11
150.7726648754445
 21
170.9361853325534
 31
0.0
  0
LINE
  5
5468
330
A
100
AcDbEntity
  8
MODEL
  6
DASHED1
100
AcDbLine
 10
150.7726648754445
 20
170.9361853325534
 30
0.0
 11
150.6203878754445
 21
171.0551753325533
 31
0.0
  0
LINE
  5
5469
330
A
100
AcDbEntity
  8
MODEL
  6
DASHED1
100
AcDbLine
 10
150.6203878754445
 20
171.0551753325533
 30
0.0
 11
150.5491538754445
 21
171.1186253325534
 31
0.0
  0
LINE
  5
546A
330
A
100
AcDbEntity
  8
MODEL
  6
DASHED1
100
AcDbLine
 10
150.5491538754445
 20
171.1186253325534
 30
0.0
 11
150.5149318754445
 21
171.1515103325532
 31
0.0
  0
LINE
  5
546B
330
A
100
AcDbEntity
  8
MODEL
  6
DASHED1
100
AcDbLine
 10
150.5149318754445
 20
171.1515103325532
 30
0.0
 11
150.4974758754445
 21
171.1675943325533
 31
0.0
  0
LINE
  5
546C
330
A
100
AcDbEntity
  8
MODEL
  6
DASHED1
100
AcDbLine
 10
150.4974758754445
 20
171.1675943325533
 30
0.0
 11
150.4890388754445
 21
171.1759073325534
 31
0.0
  0
LINE
  5
546D
330
A
100
AcDbEntity
  8
MODEL
  6
DASHED1
100
AcDbLine
 10
150.4890388754445
 20
171.1759073325534
 30
0.0
 11
150.4810868754445
 21
171.1846693325533
 31
0.0
  0
ARC
  5
546E
330
A
100
AcDbEntity
  8
MODEL
  6
DASHED1
100
AcDbCircle
 10
151.1903688754445
 20
171.8904423325532
 30
0.0
 40
1.000616
100
AcDbArc
 50
181.8741559999976
 51
224.8886940000006
  0
ARC
  5
546F
330
A
100
AcDbEntity
  8
MODEL
  6
DASHED1
100
AcDbCircle
 10
181.7060528754445
 20
189.6496033325534
 30
0.0
 40
19.788168
100
AcDbArc
 50
256.3060920000001
 51
268.6669390000001
  0
LINE
  5
5470
330
A
100
AcDbEntity
  8
MODEL
  6
Continuous
100
AcDbLine
 10
134.3816507401137
 20
193.1050322715914
 30
0.0
 11
134.902772654635
 21
193.1050322715914
 31
0.0
  0
LINE
  5
5471
330
A
100
AcDbEntity
  8
MODEL
  6
Continuous
100
AcDbLine
 10
134.3816507401137
 20
168.6679425127943
 30
0.0
 11
134.902772654635
 21
168.6679425127943
 31
0.0
  0
POINT
  5
5472
330
A
100
AcDbEntity
  8
MODEL
 62
     7
100
AcDbPoint
 10
406.557981984658
 20
1042.91380060263
 30
0.0
  0
POINT
  5
5473
330
A
100
AcDbEntity
  8
MODEL
 62
     7
100
AcDbPoint
 10
413.7579819846579
 20
1042.91380060263
 30
0.0
  0
DIMENSION
  5
5474
102
{ACAD_REACTORS
330
5476
102
}
102
{ACAD_XDICTIONARY
360
5475
102
}
330
A
100
AcDbEntity
  8
寸法
  6
Continuous
100
AcDbDimension
  2
*D9
 10
247.0302880534238
 20
272.3185003022579
 30
0.0
 11
181.1238784194378
 21
276.8185003022579
 31
0.0
 70
    32
 71
     5
 42
131.8128192679719
 73
     0
 74
     0
 75
     0
  3
tfrom線あり
100
AcDbAlignedDimension
 13
115.2174687854519
 23
295.5917535967299
 33
0.0
 14
247.0302880534238
 24
323.28143559724
 34
0.0
100
AcDbRotatedDimension
  0
DIMENSION
  5
5483
102
{ACAD_REACTORS
330
5485
102
}
102
{ACAD_XDICTIONARY
360
5484
102
}
330
A
100
AcDbEntity
  8
寸法
  6
Continuous
100
AcDbDimension
  2
*D10
 10
268.9125266997738
 20
287.0923595967299
 30
0.0
 11
264.4125266997738
 21
306.4678702245615
 31
0.0
 70
    32
  1
40
 71
     5
 42
38.7510212556631
 73
     0
 74
     0
 75
     0
  3
tfrom線あり
100
AcDbAlignedDimension
 13
238.2580012564562
 23
325.843380852393
 33
0.0
 14
164.0505632854519
 24
287.0923595967299
 34
0.0
 50
90.0
100
AcDbRotatedDimension
  0
LINE
  5
5863
330
A
100
AcDbEntity
  8
PRINT BORDER
100
AcDbLine
 10
296.9999999999999
 20
0.0
 30
0.0
 11
296.9999999999999
 21
15.30952622855898
 31
0.0
  0
LINE
  5
5864
330
A
100
AcDbEntity
  8
テンプレート
100
AcDbLine
 10
437.9999999999999
 20
38.27810890422097
 30
0.0
 11
15.30952622855898
 21
38.27810890422097
 31
0.0
  0
LINE
  5
5865
330
A
100
AcDbEntity
  8
テンプレート
100
AcDbLine
 10
15.30952622855898
 20
26.22153683920783
 30
0.0
 11
578.6904737714407
 21
26.22153683920783
 31
0.0
  0
TEXT
  5
5866
330
A
100
AcDbEntity
  8
テンプレート
100
AcDbText
 10
18.06121699514119
 20
32.16825981613692
 30
0.0
 40
3.5
  1
材質
  7
ＭＳ ゴシック
100
AcDbText
  0
TEXT
  5
5867
330
A
100
AcDbEntity
  8
テンプレート
100
AcDbText
 10
18.06121699514119
 20
56.50959028673083
 30
0.0
 40
3.5
  1
品名
  7
ＭＳ ゴシック
100
AcDbText
  0
TEXT
  5
5868
330
A
100
AcDbEntity
  8
テンプレート
100
AcDbText
 10
18.06121699514119
 20
44.65099339080098
 30
0.0
 40
3.5
  1
仕上げ
  7
ＭＳ ゴシック
100
AcDbText
  0
TEXT
  5
5869
330
A
100
AcDbEntity
  8
テンプレート
100
AcDbText
 10
333.512744881567
 20
56.58523052309897
 30
0.0
 40
3.5
  1
品番
  7
ＭＳ ゴシック
100
AcDbText
  0
TEXT
  5
586A
330
A
100
AcDbEntity
  8
テンプレート
100
AcDbText
 10
36.7528253083583
 20
53.09440584367189
 30
0.0
 40
5.5
  1
レバーハンドル - FSB -
  7
ＭＳ ゴシック
100
AcDbText
  0
TEXT
  5
586B
330
A
100
AcDbEntity
  8
テンプレート
100
AcDbText
 10
347.7065169060828
 20
52.977080524553
 30
0.0
 40
5.5
  1
FSB10-1045-NC
  7
ＭＳ ゴシック
100
AcDbText
  0
LINE
  5
586C
330
A
100
AcDbEntity
  8
テンプレート
100
AcDbLine
 10
437.9999999999999
 20
50.16496477419605
 30
0.0
 11
15.30952622855898
 21
50.16496477419605
 31
0.0
  0
LINE
  5
586D
330
A
100
AcDbEntity
  8
テンプレート
100
AcDbLine
 10
578.6904737714411
 20
62.22153683920783
 30
0.0
 11
15.30952622855898
 21
62.22153683920783
 31
0.0
  0
LINE
  5
586E
330
A
100
AcDbEntity
  8
PRINT BORDER
100
AcDbLine
 10
593.9999999999999
 20
210.0
 30
0.0
 11
578.6904737714411
 21
210.0
 31
0.0
  0
LINE
  5
586F
330
A
100
AcDbEntity
  8
PRINT BORDER
100
AcDbLine
 10
0.0
 20
210.0
 30
0.0
 11
15.30952622855898
 21
210.0
 31
0.0
  0
LINE
  5
5870
330
A
100
AcDbEntity
  8
PRINT BORDER
100
AcDbLine
 10
296.9999999999999
 20
420.0
 30
0.0
 11
296.9999999999999
 21
404.690473771441
 31
0.0
  0
LINE
  5
5871
330
A
100
AcDbEntity
  8
テンプレート
100
AcDbLine
 10
578.6904737714411
 20
62.22153683920783
 30
0.0
 11
578.6904737714411
 21
26.22153683920783
 31
0.0
  0
LINE
  5
5872
330
A
100
AcDbEntity
  8
テンプレート
100
AcDbLine
 10
15.30952622855898
 20
62.22153683920783
 30
0.0
 11
15.30952622855898
 21
26.22153683920783
 31
0.0
  0
TEXT
  5
5873
330
A
100
AcDbEntity
  8
テンプレート
100
AcDbText
 10
494.9733384955217
 20
16.51938390313694
 30
0.0
 40
5.5
  1
大洋金物株式会社  
  7
ＭＳ ゴシック
100
AcDbText
  0
LINE
  5
5874
330
A
100
AcDbEntity
  8
テンプレート
100
AcDbLine
 10
437.9999999999999
 20
62.22153683920783
 30
0.0
 11
437.9999999999999
 21
26.22153683920783
 31
0.0
  0
LINE
  5
5875
330
A
100
AcDbEntity
  8
テンプレート
100
AcDbLine
 10
331.6893963636363
 20
62.22153683920783
 30
0.0
 11
331.6893963636363
 21
26.22153683920783
 31
0.0
  0
INSERT
  5
5876
330
A
100
AcDbEntity
  8
テンプレート
100
AcDbBlockReference
  2
名称未設定-1
 10
548.3945198859805
 20
-7.642344203993161
 30
0.0
 41
0.180975
 42
0.180975
 43
0.180975
  0
LINE
  5
5878
330
A
100
AcDbEntity
  8
テンプレート
100
AcDbLine
 10
15.30952622855898
 20
210.0
 30
0.0
 11
15.30952622855898
 21
26.22153683920783
 31
0.0
  0
LINE
  5
5879
330
A
100
AcDbEntity
  8
テンプレート
100
AcDbLine
 10
15.30952622855898
 20
210.0
 30
0.0
 11
15.30952622855898
 21
404.690473771441
 31
0.0
  0
LINE
  5
587A
330
A
100
AcDbEntity
  8
テンプレート
100
AcDbLine
 10
296.9999999999999
 20
404.690473771441
 30
0.0
 11
15.30952622855887
 21
404.690473771441
 31
0.0
  0
LINE
  5
587B
330
A
100
AcDbEntity
  8
テンプレート
100
AcDbLine
 10
296.9999999999999
 20
404.690473771441
 30
0.0
 11
578.6904737714411
 21
404.690473771441
 31
0.0
  0
LINE
  5
587C
330
A
100
AcDbEntity
  8
テンプレート
100
AcDbLine
 10
578.6904737714411
 20
210.0
 30
0.0
 11
578.6904737714411
 21
404.690473771441
 31
0.0
  0
LINE
  5
587D
330
A
100
AcDbEntity
  8
テンプレート
100
AcDbLine
 10
578.6904737714411
 20
210.0
 30
0.0
 11
578.6904737714411
 21
26.22153683920783
 31
0.0
  0
LWPOLYLINE
  5
587E
330
A
100
AcDbEntity
  8
PRINT BORDER
  6
HIDDEN
 48
3.0
100
AcDbPolyline
 90
        4
 70
     1
 43
0.0
 10
0.0
 20
0.0
 10
0.0
 20
420.0
 10
593.9999999999999
 20
420.0
 10
593.9999999999999
 20
0.0
  0
TEXT
  5
587F
330
A
100
AcDbEntity
  8
テンプレート
100
AcDbText
 10
333.4883119858586
 20
32.62405342819488
 30
0.0
 40
3.5
  1
縮尺
  7
ＭＳ ゴシック
100
AcDbText
  0
TEXT
  5
5880
330
A
100
AcDbEntity
  8
テンプレート
100
AcDbText
 10
347.7065169060828
 20
28.29362070227194
 30
0.0
 40
5.5
  1
1/2
  7
ＭＳ ゴシック
100
AcDbText
  0
TEXT
  5
5881
330
A
100
AcDbEntity
  8
テンプレート
100
AcDbText
 10
333.512744881567
 20
44.52865845808583
 30
0.0
 40
3.5
  1
扉厚
  7
ＭＳ ゴシック
100
AcDbText
  0
TEXT
  5
5882
330
A
100
AcDbEntity
  8
テンプレート
100
AcDbText
 10
440.0887524673468
 20
56.58523052309897
 30
0.0
 40
3.5
  1
備考
  7
ＭＳ ゴシック
100
AcDbText
  0
TEXT
  5
5883
330
A
100
AcDbEntity
  8
テンプレート
100
AcDbText
 10
449.0017237694899
 20
47.28154793898159
 30
0.0
 40
5.5
  1
取付方＝呼込み(ビス付)
  7
ＭＳ ゴシック
100
AcDbText
  0
LINE
  5
5884
330
A
100
AcDbEntity
  8
SPACER
  6
CENTER
 48
3.0
100
AcDbLine
 10
127.1816507401138
 20
224.6771809568476
 30
0.0
 11
127.1816507401138
 21
137.0485128832279
 31
0.0
  0
LINE
  5
5885
330
A
100
AcDbEntity
  8
SPACER
  6
CENTER
 48
3.0
100
AcDbLine
 10
83.36731670330403
 20
180.8628469200378
 30
0.0
 11
170.9959847769237
 21
180.8628469200378
 31
0.0
  0
LINE
  5
5886
330
A
100
AcDbEntity
  8
SPACER
  6
CENTER
 48
3.0
100
AcDbLine
 10
83.36817797774336
 20
348.7335990428101
 30
0.0
 11
170.9968460513629
 21
348.7335990428101
 31
0.0
  0
LINE
  5
5887
330
A
100
AcDbEntity
  8
SPACER
  6
CENTER
 48
3.0
100
AcDbLine
 10
408.8721245115548
 20
365.1479330796199
 30
0.0
 11
408.8721245115548
 21
277.5192650060002
 31
0.0
  0
LINE
  5
5888
330
A
100
AcDbEntity
  8
SPACER
  6
CENTER
 48
3.0
100
AcDbLine
 10
365.0577904747449
 20
321.33359904281
 30
0.0
 11
452.6864585483646
 21
321.33359904281
 31
0.0
  0
LWPOLYLINE
  5
58EA
330
A
100
AcDbEntity
  8
SPACER
100
AcDbPolyline
 90
        4
 70
     1
 43
0.0
 10
161.5928474918056
 20
97.1045060433407
 10
161.5928474918056
 20
69.6571102646527
 10
432.4071525081941
 20
69.6571102646527
 10
432.4071525081941
 20
97.1045060433407
  0
LINE
  5
58EB
330
A
100
AcDbEntity
  8
SPACER
  6
CENTER
 48
3.0
100
AcDbLine
 10
296.9999999999999
 20
404.690473771441
 30
0.0
 11
297.0
 21
106.25363796957
 31
0.0
  0
LINE
  5
58EC
330
A
100
AcDbEntity
  8
SPACER
  6
CENTER
 48
3.0
100
AcDbLine
 10
15.30952622855898
 20
255.4720558705055
 30
0.0
 11
578.690473771441
 21
255.4720558705055
 31
0.0
  0
LINE
  5
58ED
330
A
100
AcDbEntity
  8
SPACER
  6
CENTER
 48
3.0
100
AcDbLine
 10
15.30952622855898
 20
106.25363796957
 30
0.0
 11
578.690473771441
 21
106.25363796957
 31
0.0
  0
LINE
  5
58EE
330
A
100
AcDbEntity
  8
SPACER
  6
CENTER
 48
3.0
100
AcDbLine
 10
408.8721245115548
 20
224.6771809568476
 30
0.0
 11
408.8721245115548
 21
137.0485128832279
 31
0.0
  0
LINE
  5
58EF
330
A
100
AcDbEntity
  8
SPACER
  6
CENTER
 48
3.0
100
AcDbLine
 10
365.057790474745
 20
180.8628469200378
 30
0.0
 11
452.6864585483647
 21
180.8628469200378
 31
0.0
  0
CIRCLE
  5
5904
102
{ACAD_REACTORS
330
5993
102
}
330
A
100
AcDbEntity
  8
CutoutOverlay
100
AcDbCircle
 10
427.8721245115549
 20
180.8628469200378
 30
0.0
 40
5.0
  0
CIRCLE
  5
5905
102
{ACAD_REACTORS
330
5993
102
}
330
A
100
AcDbEntity
  8
CutoutOverlay
100
AcDbCircle
 10
389.8721245115548
 20
180.8628469200378
 30
0.0
 40
5.0
  0
CIRCLE
  5
5906
102
{ACAD_REACTORS
330
598F
330
5992
330
5993
102
}
330
A
100
AcDbEntity
  8
CutoutOverlay
100
AcDbCircle
 10
408.8721245115548
 20
180.8628469200378
 30
0.0
 40
14.0
  0
DIMENSION
  5
5907
330
A
100
AcDbEntity
  8
寸法
100
AcDbDimension
  2
*D24
 10
389.8721245115548
 20
144.5573006134969
 30
0.0
 11
376.2146245115548
 21
144.5573006134969
 31
0.0
 70
   160
  1
 
 71
     5
 42
38.00000000000011
 73
     0
 74
     1
 75
     1
  3
tfrom線あり
100
AcDbAlignedDimension
 13
427.8721245115549
 23
177.3452081951892
 33
0.0
 14
389.8721245115548
 24
177.3452081951892
 34
0.0
100
AcDbRotatedDimension
1001
ACAD
1000
DSTYLE
1002
{
1070
   172
1070
     1
1002
}
  0
DIMENSION
  5
5908
330
A
100
AcDbEntity
  8
寸法
100
AcDbDimension
  2
*D20
 10
408.8721245115548
 20
213.8023335341041
 30
0.0
 11
399.3721245115548
 21
218.3023335341041
 31
0.0
 70
    32
 71
     5
 42
19.0
 73
     0
 74
     0
 75
     0
  3
tfrom線あり
100
AcDbAlignedDimension
 13
389.8721245115548
 23
186.0157099566222
 33
0.0
 14
408.8721245115548
 24
200.1912224768318
 34
0.0
100
AcDbRotatedDimension
  0
DIMENSION
  5
5909
330
A
100
AcDbEntity
  8
寸法
100
AcDbDimension
  2
*D21
 10
427.8721245115549
 20
213.8023335341041
 30
0.0
 11
418.3721245115548
 21
218.3023335341041
 31
0.0
 70
    32
 71
     5
 42
19.00000000000011
 73
     0
 74
     0
 75
     0
  3
tfrom線あり
100
AcDbAlignedDimension
 13
408.8721245115548
 23
200.1912224768318
 33
0.0
 14
427.8721245115549
 24
186.0157099566222
 34
0.0
100
AcDbRotatedDimension
  0
DIMENSION
  5
5988
330
A
100
AcDbEntity
  8
寸法
100
AcDbDimension
  2
*D22
 10
146.1825120145531
 20
365.9906564456901
 30
0.0
 11
127.1825120145531
 21
370.4906564456901
 31
0.0
 70
    32
 71
     5
 42
38.00000000000001
 73
     0
 74
     0
 75
     0
  3
tfrom線あり
100
AcDbAlignedDimension
 13
108.1825120145531
 23
351.4345575436565
 33
0.0
 14
146.1825120145531
 24
351.4345575436565
 34
0.0
100
AcDbRotatedDimension
  0
LINE
  5
5989
330
A
100
AcDbEntity
  8
寸法
  6
CENTER
 48
0.5
100
AcDbLine
 10
108.1825120145531
 20
351.4345575436565
 30
0.0
 11
108.1825120145531
 21
345.8123890105664
 31
0.0
  0
LINE
  5
598A
330
A
100
AcDbEntity
  8
寸法
  6
CENTER
 48
0.5
100
AcDbLine
 10
146.1825120145531
 20
351.4345575436565
 30
0.0
 11
146.1825120145531
 21
345.8123890105664
 31
0.0
  0
TEXT
  5
598C
330
A
100
AcDbEntity
  8
寸法
100
AcDbText
 10
348.1659509202454
 20
231.4229447852761
 30
0.0
 40
5.0
  1
<切欠図>
  7
ＭＳ ゴシック
100
AcDbText
  0
LEADER
  5
598D
102
{ACAD_REACTORS
330
598F
102
}
102
{ACAD_XDICTIONARY
360
598E
102
}
330
A
100
AcDbEntity
  8
寸法
100
AcDbLeader
  3
tfrom線あり
 76
     3
 10
408.8721245115548
 20
194.8628469200378
 30
0.0
 10
408.8721245115548
 20
200.7337752882268
 30
0.0
 10
447.9531070495427
 20
200.7337752882268
 30
0.0
  0
LEADER
  5
5990
102
{ACAD_REACTORS
330
5992
102
}
102
{ACAD_XDICTIONARY
360
5991
102
}
330
A
100
AcDbEntity
  8
寸法
100
AcDbLeader
  3
tfrom線あり
 76
     3
 10
408.8721245115548
 20
180.8628469200378
 30
0.0
 10
442.1530114131083
 20
156.5669494488204
 30
0.0
 10
510.1082899407156
 20
156.5669494488204
 30
0.0
  0
HATCH
  5
5993
330
A
100
AcDbEntity
  8
CutoutOverlay
100
AcDbHatch
 10
0.0
 20
0.0
 30
0.0
210
0.0
220
0.0
230
1.0
  2
ANSI31
 70
     0
 71
     1
 91
        3
 92
        1
 93
        1
 72
     2
 10
389.8721245115548
 20
180.8628469200378
 40
5.0
 50
0.0
 51
360.0
 73
     1
 97
        1
330
5905
 92
        1
 93
        1
 72
     2
 10
408.8721245115548
 20
180.8628469200378
 40
14.0
 50
0.0
 51
360.0
 73
     1
 97
        1
330
5906
 92
        1
 93
        1
 72
     2
 10
427.8721245115549
 20
180.8628469200378
 40
5.0
 50
0.0
 51
360.0
 73
     1
 97
        1
330
5904
 75
     0
 76
     1
 52
0.0
 41
1.0
 77
     0
 78
     1
 53
45.0
 43
0.0
 44
0.0
 45
-2.245064030267288
 46
2.245064030267288
 79
     0
 98
        1
 10
0.0
 20
0.0
1001
ACAD
1010
0.0
1020
0.0
1030
0.0
  0
TEXT
  5
5994
330
A
100
AcDbEntity
  8
寸法
100
AcDbText
 10
443.7339484827306
 20
159.2024023985158
 30
0.0
 40
5.0
  1
レバー角芯 センター
  7
ＭＳ ゴシック
100
AcDbText
  0
TEXT
  5
5995
330
A
100
AcDbEntity
  8
寸法
100
AcDbText
 10
438.0695551162909
 20
203.042649715703
 30
0.0
 40
5.0
  1
ø28
  7
ＭＳ ゴシック
100
AcDbText
  0
TEXT
  5
5996
330
A
100
AcDbEntity
  8
寸法
100
AcDbText
 10
375.8306164726592
 20
147.0523164739852
 30
0.0
 40
5.0
  1
ø10
  7
ＭＳ ゴシック
100
AcDbText
  0
LINE
  5
5999
330
A
100
AcDbEntity
  8
SPACER
  6
CENTER
 48
3.0
100
AcDbLine
 10
127.1825120145532
 20
392.54793307962
 30
0.0
 11
127.1825120145532
 21
304.9192650060003
 31
0.0
  0
ARC
  5
59B8
102
{ACAD_REACTORS
330
5D6B
102
}
330
A
100
AcDbEntity
  8
CutoutUnderlay
  6
STYLE_02
100
AcDbCircle
 10
408.5085340436044
 20
178.8907846477398
 30
0.0
 40
12.0
100
AcDbArc
 50
179.9992630000003
 51
180.4691690000001
  0
LINE
  5
59B9
102
{ACAD_REACTORS
330
5D6B
102
}
330
A
100
AcDbEntity
  8
CutoutUnderlay
  6
STYLE_02
100
AcDbLine
 10
396.5089450436043
 20
178.7995776477396
 30
0.0
 11
396.5089360436044
 21
178.7925226477398
 31
0.0
  0
LINE
  5
59BB
102
{ACAD_REACTORS
330
5D6B
102
}
330
A
100
AcDbEntity
  8
CutoutUnderlay
  6
Continuous
100
AcDbLine
 10
408.3770615115547
 20
191.0549859200378
 30
0.0
 11
407.4184795115547
 21
191.0110509200376
 31
0.0
  0
LINE
  5
59BC
102
{ACAD_REACTORS
330
5D6B
102
}
330
A
100
AcDbEntity
  8
CutoutUnderlay
  6
Continuous
100
AcDbLine
 10
407.4184795115547
 20
191.0110509200376
 30
0.0
 11
406.7023525115547
 21
190.9328419200376
 31
0.0
  0
LINE
  5
59BD
102
{ACAD_REACTORS
330
5D6B
102
}
330
A
100
AcDbEntity
  8
CutoutUnderlay
  6
Continuous
100
AcDbLine
 10
406.7023525115547
 20
190.9328419200376
 30
0.0
 11
405.9913985115547
 21
190.8158609200377
 31
0.0
  0
LINE
  5
59BE
102
{ACAD_REACTORS
330
5D6B
102
}
330
A
100
AcDbEntity
  8
CutoutUnderlay
  6
Continuous
100
AcDbLine
 10
405.9913985115547
 20
190.8158609200377
 30
0.0
 11
405.0499115115547
 21
190.5980569200376
 31
0.0
  0
LINE
  5
59BF
102
{ACAD_REACTORS
330
5D6B
102
}
330
A
100
AcDbEntity
  8
CutoutUnderlay
  6
Continuous
100
AcDbLine
 10
405.0499115115547
 20
190.5980569200376
 30
0.0
 11
404.3560435115547
 21
190.3890139200387
 31
0.0
  0
LINE
  5
59C0
102
{ACAD_REACTORS
330
5D6B
102
}
330
A
100
AcDbEntity
  8
CutoutUnderlay
  6
Continuous
100
AcDbLine
 10
404.3560435115547
 20
190.3890139200387
 30
0.0
 11
403.6751615115547
 21
190.1408809200377
 31
0.0
  0
LINE
  5
59C1
102
{ACAD_REACTORS
330
5D6B
102
}
330
A
100
AcDbEntity
  8
CutoutUnderlay
  6
Continuous
100
AcDbLine
 10
403.6751615115547
 20
190.1408809200377
 30
0.0
 11
402.7870445115547
 21
189.7471989200378
 31
0.0
  0
LINE
  5
59C2
102
{ACAD_REACTORS
330
5D6B
102
}
330
A
100
AcDbEntity
  8
CutoutUnderlay
  6
Continuous
100
AcDbLine
 10
402.7870445115547
 20
189.7471989200378
 30
0.0
 11
402.1429485115547
 21
189.4063959200387
 31
0.0
  0
LINE
  5
59C3
102
{ACAD_REACTORS
330
5D6B
102
}
330
A
100
AcDbEntity
  8
CutoutUnderlay
  6
Continuous
100
AcDbLine
 10
402.1429485115547
 20
189.4063959200387
 30
0.0
 11
401.5208525115548
 21
189.0269219200377
 31
0.0
  0
LINE
  5
59C4
102
{ACAD_REACTORS
330
5D6B
102
}
330
A
100
AcDbEntity
  8
CutoutUnderlay
  6
Continuous
100
AcDbLine
 10
401.5208525115548
 20
189.0269219200377
 30
0.0
 11
400.7268125115548
 21
188.4585779200377
 31
0.0
  0
LINE
  5
59C5
102
{ACAD_REACTORS
330
5D6B
102
}
330
A
100
AcDbEntity
  8
CutoutUnderlay
  6
Continuous
100
AcDbLine
 10
400.7268125115548
 20
188.4585779200377
 30
0.0
 11
400.1651375115547
 21
187.9883649200376
 31
0.0
  0
LINE
  5
59C6
102
{ACAD_REACTORS
330
5D6B
102
}
330
A
100
AcDbEntity
  8
CutoutUnderlay
  6
Continuous
100
AcDbLine
 10
400.1651375115547
 20
187.9883649200376
 30
0.0
 11
399.6360585115547
 21
187.4814309200376
 31
0.0
  0
LINE
  5
59C7
102
{ACAD_REACTORS
330
5D6B
102
}
330
A
100
AcDbEntity
  8
CutoutUnderlay
  6
Continuous
100
AcDbLine
 10
399.6360585115547
 20
187.4814309200376
 30
0.0
 11
398.9846475115548
 21
186.7474569200376
 31
0.0
  0
LINE
  5
59C8
102
{ACAD_REACTORS
330
5D6B
102
}
330
A
100
AcDbEntity
  8
CutoutUnderlay
  6
Continuous
100
AcDbLine
 10
398.9846475115548
 20
186.7474569200376
 30
0.0
 11
398.5436665115547
 21
186.1583379200376
 31
0.0
  0
LINE
  5
59C9
102
{ACAD_REACTORS
330
5D6B
102
}
330
A
100
AcDbEntity
  8
CutoutUnderlay
  6
Continuous
100
AcDbLine
 10
398.5436665115547
 20
186.1583379200376
 30
0.0
 11
398.1477185115547
 21
185.5388579200378
 31
0.0
  0
LINE
  5
59CA
102
{ACAD_REACTORS
330
5D6B
102
}
330
A
100
AcDbEntity
  8
CutoutUnderlay
  6
Continuous
100
AcDbLine
 10
398.1477185115547
 20
185.5388579200378
 30
0.0
 11
397.8541135115548
 21
184.9999329200377
 31
0.0
  0
LINE
  5
59CB
102
{ACAD_REACTORS
330
5D6B
102
}
330
A
100
AcDbEntity
  8
CutoutUnderlay
  6
Continuous
100
AcDbLine
 10
397.8541135115548
 20
184.9999329200377
 30
0.0
 11
397.5960355115547
 21
184.4433239200387
 31
0.0
  0
LINE
  5
59CC
102
{ACAD_REACTORS
330
5D6B
102
}
330
A
100
AcDbEntity
  8
CutoutUnderlay
  6
Continuous
100
AcDbLine
 10
397.5960355115547
 20
184.4433239200387
 30
0.0
 11
397.4159415115549
 21
183.9859539200377
 31
0.0
  0
LINE
  5
59CD
102
{ACAD_REACTORS
330
5D6B
102
}
330
A
100
AcDbEntity
  8
CutoutUnderlay
  6
Continuous
100
AcDbLine
 10
397.4159415115549
 20
183.9859539200377
 30
0.0
 11
397.1924405115548
 21
183.2833669200377
 31
0.0
  0
LINE
  5
59CE
102
{ACAD_REACTORS
330
5D6B
102
}
330
A
100
AcDbEntity
  8
CutoutUnderlay
  6
Continuous
100
AcDbLine
 10
397.1924405115548
 20
183.2833669200377
 30
0.0
 11
397.0757645115547
 21
182.8053369200377
 31
0.0
  0
LINE
  5
59CF
102
{ACAD_REACTORS
330
5D6B
102
}
330
A
100
AcDbEntity
  8
CutoutUnderlay
  6
Continuous
100
AcDbLine
 10
397.0757645115547
 20
182.8053369200377
 30
0.0
 11
396.9504405115547
 21
182.0781819200377
 31
0.0
  0
LINE
  5
59D0
102
{ACAD_REACTORS
330
5D6B
102
}
330
A
100
AcDbEntity
  8
CutoutUnderlay
  6
Continuous
100
AcDbLine
 10
396.9504405115547
 20
182.0781819200377
 30
0.0
 11
396.8925415115547
 21
181.4660489200378
 31
0.0
  0
LINE
  5
59D1
102
{ACAD_REACTORS
330
5D6B
102
}
330
A
100
AcDbEntity
  8
CutoutUnderlay
  6
Continuous
100
AcDbLine
 10
396.8925415115547
 20
181.4660489200378
 30
0.0
 11
396.8795685115547
 21
181.1588349200376
 31
0.0
  0
LINE
  5
59D2
102
{ACAD_REACTORS
330
5D6B
102
}
330
A
100
AcDbEntity
  8
CutoutUnderlay
  6
Continuous
100
AcDbLine
 10
396.8795685115547
 20
181.1588349200376
 30
0.0
 11
396.8775615115547
 21
180.8513359200376
 31
0.0
  0
ARC
  5
59D3
102
{ACAD_REACTORS
330
5D6B
102
}
330
A
100
AcDbEntity
  8
CutoutUnderlay
  6
Continuous
100
AcDbCircle
 10
523.7535445115548
 20
171.9164509200377
 30
0.0
 40
19.186985
100
AcDbArc
 50
80.02758400000015
 51
89.43826199999992
  0
LINE
  5
59D4
102
{ACAD_REACTORS
330
5D6B
102
}
330
A
100
AcDbEntity
  8
CutoutUnderlay
  6
Continuous
100
AcDbLine
 10
527.0702945115547
 20
190.8146149200377
 30
0.0
 11
525.8878335115547
 21
190.7692919200376
 31
0.0
  0
LINE
  5
59D5
102
{ACAD_REACTORS
330
5D6B
102
}
330
A
100
AcDbEntity
  8
CutoutUnderlay
  6
Continuous
100
AcDbLine
 10
525.8878335115547
 20
190.7692919200376
 30
0.0
 11
525.2959155115548
 21
190.7458729200387
 31
0.0
  0
LINE
  5
59D6
102
{ACAD_REACTORS
330
5D6B
102
}
330
A
100
AcDbEntity
  8
CutoutUnderlay
  6
Continuous
100
AcDbLine
 10
525.2959155115548
 20
190.7458729200387
 30
0.0
 11
524.9967515115547
 21
190.7337469200377
 31
0.0
  0
LINE
  5
59D7
102
{ACAD_REACTORS
330
5D6B
102
}
330
A
100
AcDbEntity
  8
CutoutUnderlay
  6
Continuous
100
AcDbLine
 10
524.9967515115547
 20
190.7337469200377
 30
0.0
 11
524.7003435115548
 21
190.7166989200377
 31
0.0
  0
LINE
  5
59D8
102
{ACAD_REACTORS
330
5D6B
102
}
330
A
100
AcDbEntity
  8
CutoutUnderlay
  6
Continuous
100
AcDbLine
 10
524.7003435115548
 20
190.7166989200377
 30
0.0
 11
524.5527675115547
 21
190.7030199200376
 31
0.0
  0
LINE
  5
59D9
102
{ACAD_REACTORS
330
5D6B
102
}
330
A
100
AcDbEntity
  8
CutoutUnderlay
  6
Continuous
100
AcDbLine
 10
524.5527675115547
 20
190.7030199200376
 30
0.0
 11
524.4020255115547
 21
190.6843089200377
 31
0.0
  0
LINE
  5
59DA
102
{ACAD_REACTORS
330
5D6B
102
}
330
A
100
AcDbEntity
  8
CutoutUnderlay
  6
Continuous
100
AcDbLine
 10
524.4020255115547
 20
190.6843089200377
 30
0.0
 11
524.2206525115548
 21
190.6652689200378
 31
0.0
  0
LINE
  5
59DB
102
{ACAD_REACTORS
330
5D6B
102
}
330
A
100
AcDbEntity
  8
CutoutUnderlay
  6
Continuous
100
AcDbLine
 10
524.2206525115548
 20
190.6652689200378
 30
0.0
 11
523.9890165115547
 21
190.6493789200376
 31
0.0
  0
LINE
  5
59DC
102
{ACAD_REACTORS
330
5D6B
102
}
330
A
100
AcDbEntity
  8
CutoutUnderlay
  6
Continuous
100
AcDbLine
 10
523.9890165115547
 20
190.6493789200376
 30
0.0
 11
523.3831405115548
 21
190.6253749200378
 31
0.0
  0
LINE
  5
59DD
102
{ACAD_REACTORS
330
5D6B
102
}
330
A
100
AcDbEntity
  8
CutoutUnderlay
  6
Continuous
100
AcDbLine
 10
523.3831405115548
 20
190.6253749200378
 30
0.0
 11
522.6057735115547
 21
190.6120409200387
 31
0.0
  0
LINE
  5
59DE
102
{ACAD_REACTORS
330
5D6B
102
}
330
A
100
AcDbEntity
  8
CutoutUnderlay
  6
Continuous
100
AcDbLine
 10
522.6057735115547
 20
190.6120409200387
 30
0.0
 11
521.6578945115548
 21
190.6109669200387
 31
0.0
  0
LINE
  5
59DF
102
{ACAD_REACTORS
330
5D6B
102
}
330
A
100
AcDbEntity
  8
CutoutUnderlay
  6
Continuous
100
AcDbLine
 10
521.6578945115548
 20
190.6109669200387
 30
0.0
 11
520.5536025115548
 21
190.6180299200378
 31
0.0
  0
LINE
  5
59E0
102
{ACAD_REACTORS
330
5D6B
102
}
330
A
100
AcDbEntity
  8
CutoutUnderlay
  6
Continuous
100
AcDbLine
 10
520.5536025115548
 20
190.6180299200378
 30
0.0
 11
519.3104805115547
 21
190.6292399200377
 31
0.0
  0
LINE
  5
59E1
102
{ACAD_REACTORS
330
5D6B
102
}
330
A
100
AcDbEntity
  8
CutoutUnderlay
  6
Continuous
100
AcDbLine
 10
519.3104805115547
 20
190.6292399200377
 30
0.0
 11
517.9400455115547
 21
190.6419629200377
 31
0.0
  0
LINE
  5
59E2
102
{ACAD_REACTORS
330
5D6B
102
}
330
A
100
AcDbEntity
  8
CutoutUnderlay
  6
Continuous
100
AcDbLine
 10
517.9400455115547
 20
190.6419629200377
 30
0.0
 11
514.8884585115547
 21
190.6787959200376
 31
0.0
  0
LINE
  5
59E3
102
{ACAD_REACTORS
330
5D6B
102
}
330
A
100
AcDbEntity
  8
CutoutUnderlay
  6
Continuous
100
AcDbLine
 10
514.8884585115547
 20
190.6787959200376
 30
0.0
 11
513.2412845115548
 21
190.7129569200376
 31
0.0
  0
LINE
  5
59E4
102
{ACAD_REACTORS
330
5D6B
102
}
330
A
100
AcDbEntity
  8
CutoutUnderlay
  6
Continuous
100
AcDbLine
 10
513.2412845115548
 20
190.7129569200376
 30
0.0
 11
512.3947625115547
 21
190.7348719200377
 31
0.0
  0
LINE
  5
59E5
102
{ACAD_REACTORS
330
5D6B
102
}
330
A
100
AcDbEntity
  8
CutoutUnderlay
  6
Continuous
100
AcDbLine
 10
512.3947625115547
 20
190.7348719200377
 30
0.0
 11
511.5362825115547
 21
190.7590879200377
 31
0.0
  0
LINE
  5
59E6
102
{ACAD_REACTORS
330
5D6B
102
}
330
A
100
AcDbEntity
  8
CutoutUnderlay
  6
Continuous
100
AcDbLine
 10
511.5362825115547
 20
190.7590879200377
 30
0.0
 11
509.8147155115548
 21
190.7884029200377
 31
0.0
  0
LINE
  5
59E7
102
{ACAD_REACTORS
330
5D6B
102
}
330
A
100
AcDbEntity
  8
CutoutUnderlay
  6
Continuous
100
AcDbLine
 10
509.8147155115548
 20
190.7884029200377
 30
0.0
 11
508.0995925115547
 21
190.7921969200377
 31
0.0
  0
LINE
  5
59E8
102
{ACAD_REACTORS
330
5D6B
102
}
330
A
100
AcDbEntity
  8
CutoutUnderlay
  6
Continuous
100
AcDbLine
 10
508.0995925115547
 20
190.7921969200377
 30
0.0
 11
506.3936955115548
 21
190.7898019200377
 31
0.0
  0
LINE
  5
59E9
102
{ACAD_REACTORS
330
5D6B
102
}
330
A
100
AcDbEntity
  8
CutoutUnderlay
  6
Continuous
100
AcDbLine
 10
506.3936955115548
 20
190.7898019200377
 30
0.0
 11
504.6863735115547
 21
190.7923719200378
 31
0.0
  0
LINE
  5
59EA
102
{ACAD_REACTORS
330
5D6B
102
}
330
A
100
AcDbEntity
  8
CutoutUnderlay
  6
Continuous
100
AcDbLine
 10
504.6863735115547
 20
190.7923719200378
 30
0.0
 11
502.9745805115547
 21
190.8000129200377
 31
0.0
  0
LINE
  5
59EB
102
{ACAD_REACTORS
330
5D6B
102
}
330
A
100
AcDbEntity
  8
CutoutUnderlay
  6
Continuous
100
AcDbLine
 10
502.9745805115547
 20
190.8000129200377
 30
0.0
 11
501.2599905115547
 21
190.8071789200378
 31
0.0
  0
LINE
  5
59EC
102
{ACAD_REACTORS
330
5D6B
102
}
330
A
100
AcDbEntity
  8
CutoutUnderlay
  6
Continuous
100
AcDbLine
 10
501.2599905115547
 20
190.8071789200378
 30
0.0
 11
497.8229495115548
 21
190.8197729200376
 31
0.0
  0
LINE
  5
59ED
102
{ACAD_REACTORS
330
5D6B
102
}
330
A
100
AcDbEntity
  8
CutoutUnderlay
  6
Continuous
100
AcDbLine
 10
497.8229495115548
 20
190.8197729200376
 30
0.0
 11
490.9319945115547
 21
190.8502909200377
 31
0.0
  0
LINE
  5
59EE
102
{ACAD_REACTORS
330
5D6B
102
}
330
A
100
AcDbEntity
  8
CutoutUnderlay
  6
Continuous
100
AcDbLine
 10
490.9319945115547
 20
190.8502909200377
 30
0.0
 11
484.0169155115547
 21
190.8859769200378
 31
0.0
  0
LINE
  5
59EF
102
{ACAD_REACTORS
330
5D6B
102
}
330
A
100
AcDbEntity
  8
CutoutUnderlay
  6
Continuous
100
AcDbLine
 10
484.0169155115547
 20
190.8859769200378
 30
0.0
 11
477.0816565115547
 21
190.9239749200376
 31
0.0
  0
LINE
  5
59F0
102
{ACAD_REACTORS
330
5D6B
102
}
330
A
100
AcDbEntity
  8
CutoutUnderlay
  6
Continuous
100
AcDbLine
 10
477.0816565115547
 20
190.9239749200376
 30
0.0
 11
463.1680715115547
 21
190.9901619200377
 31
0.0
  0
LINE
  5
59F1
102
{ACAD_REACTORS
330
5D6B
102
}
330
A
100
AcDbEntity
  8
CutoutUnderlay
  6
Continuous
100
AcDbLine
 10
463.1680715115547
 20
190.9901619200377
 30
0.0
 11
449.2232955115547
 21
191.0447329200376
 31
0.0
  0
LINE
  5
59F2
102
{ACAD_REACTORS
330
5D6B
102
}
330
A
100
AcDbEntity
  8
CutoutUnderlay
  6
Continuous
100
AcDbLine
 10
527.0702955115547
 20
170.8880549200378
 30
0.0
 11
525.8878455115548
 21
170.9333809200377
 31
0.0
  0
LINE
  5
59F3
102
{ACAD_REACTORS
330
5D6B
102
}
330
A
100
AcDbEntity
  8
CutoutUnderlay
  6
Continuous
100
AcDbLine
 10
525.8878455115548
 20
170.9333809200377
 30
0.0
 11
525.2959135115548
 21
170.9567959200376
 31
0.0
  0
LINE
  5
59F4
102
{ACAD_REACTORS
330
5D6B
102
}
330
A
100
AcDbEntity
  8
CutoutUnderlay
  6
Continuous
100
AcDbLine
 10
525.2959135115548
 20
170.9567959200376
 30
0.0
 11
524.9967675115547
 21
170.9689259200377
 31
0.0
  0
LINE
  5
59F5
102
{ACAD_REACTORS
330
5D6B
102
}
330
A
100
AcDbEntity
  8
CutoutUnderlay
  6
Continuous
100
AcDbLine
 10
524.9967675115547
 20
170.9689259200377
 30
0.0
 11
524.7003735115547
 21
170.9859799200376
 31
0.0
  0
LINE
  5
59F6
102
{ACAD_REACTORS
330
5D6B
102
}
330
A
100
AcDbEntity
  8
CutoutUnderlay
  6
Continuous
100
AcDbLine
 10
524.7003735115547
 20
170.9859799200376
 30
0.0
 11
524.5527155115548
 21
170.9996399200377
 31
0.0
  0
LINE
  5
59F7
102
{ACAD_REACTORS
330
5D6B
102
}
330
A
100
AcDbEntity
  8
CutoutUnderlay
  6
Continuous
100
AcDbLine
 10
524.5527155115548
 20
170.9996399200377
 30
0.0
 11
524.4020965115548
 21
171.0183789200378
 31
0.0
  0
LINE
  5
59F8
102
{ACAD_REACTORS
330
5D6B
102
}
330
A
100
AcDbEntity
  8
CutoutUnderlay
  6
Continuous
100
AcDbLine
 10
524.4020965115548
 20
171.0183789200378
 30
0.0
 11
524.2207185115548
 21
171.0374169200377
 31
0.0
  0
LINE
  5
59F9
102
{ACAD_REACTORS
330
5D6B
102
}
330
A
100
AcDbEntity
  8
CutoutUnderlay
  6
Continuous
100
AcDbLine
 10
524.2207185115548
 20
171.0374169200377
 30
0.0
 11
523.9889605115548
 21
171.0532869200376
 31
0.0
  0
LINE
  5
59FA
102
{ACAD_REACTORS
330
5D6B
102
}
330
A
100
AcDbEntity
  8
CutoutUnderlay
  6
Continuous
100
AcDbLine
 10
523.9889605115548
 20
171.0532869200376
 30
0.0
 11
523.3831555115547
 21
171.0773039200376
 31
0.0
  0
LINE
  5
59FB
102
{ACAD_REACTORS
330
5D6B
102
}
330
A
100
AcDbEntity
  8
CutoutUnderlay
  6
Continuous
100
AcDbLine
 10
523.3831555115547
 20
171.0773039200376
 30
0.0
 11
522.6058235115547
 21
171.0906439200378
 31
0.0
  0
LINE
  5
59FC
102
{ACAD_REACTORS
330
5D6B
102
}
330
A
100
AcDbEntity
  8
CutoutUnderlay
  6
Continuous
100
AcDbLine
 10
522.6058235115547
 20
171.0906439200378
 30
0.0
 11
521.6578775115547
 21
171.0917249200377
 31
0.0
  0
LINE
  5
59FD
102
{ACAD_REACTORS
330
5D6B
102
}
330
A
100
AcDbEntity
  8
CutoutUnderlay
  6
Continuous
100
AcDbLine
 10
521.6578775115547
 20
171.0917249200377
 30
0.0
 11
520.5536075115547
 21
171.0846599200377
 31
0.0
  0
LINE
  5
59FE
102
{ACAD_REACTORS
330
5D6B
102
}
330
A
100
AcDbEntity
  8
CutoutUnderlay
  6
Continuous
100
AcDbLine
 10
520.5536075115547
 20
171.0846599200377
 30
0.0
 11
519.3105525115548
 21
171.0734549200376
 31
0.0
  0
LINE
  5
59FF
102
{ACAD_REACTORS
330
5D6B
102
}
330
A
100
AcDbEntity
  8
CutoutUnderlay
  6
Continuous
100
AcDbLine
 10
519.3105525115548
 20
171.0734549200376
 30
0.0
 11
517.9401105115548
 21
171.0607329200377
 31
0.0
  0
LINE
  5
5A00
102
{ACAD_REACTORS
330
5D6B
102
}
330
A
100
AcDbEntity
  8
CutoutUnderlay
  6
Continuous
100
AcDbLine
 10
517.9401105115548
 20
171.0607329200377
 30
0.0
 11
514.8885275115547
 21
171.0239139200378
 31
0.0
  0
LINE
  5
5A01
102
{ACAD_REACTORS
330
5D6B
102
}
330
A
100
AcDbEntity
  8
CutoutUnderlay
  6
Continuous
100
AcDbLine
 10
514.8885275115547
 20
171.0239139200378
 30
0.0
 11
513.2413705115548
 21
170.9897699200378
 31
0.0
  0
LINE
  5
5A02
102
{ACAD_REACTORS
330
5D6B
102
}
330
A
100
AcDbEntity
  8
CutoutUnderlay
  6
Continuous
100
AcDbLine
 10
513.2413705115548
 20
170.9897699200378
 30
0.0
 11
512.3948305115548
 21
170.9678389200376
 31
0.0
  0
LINE
  5
5A03
102
{ACAD_REACTORS
330
5D6B
102
}
330
A
100
AcDbEntity
  8
CutoutUnderlay
  6
Continuous
100
AcDbLine
 10
512.3948305115548
 20
170.9678389200376
 30
0.0
 11
511.5364155115547
 21
170.9436849200376
 31
0.0
  0
LINE
  5
5A04
102
{ACAD_REACTORS
330
5D6B
102
}
330
A
100
AcDbEntity
  8
CutoutUnderlay
  6
Continuous
100
AcDbLine
 10
511.5364155115547
 20
170.9436849200376
 30
0.0
 11
509.8147535115548
 21
170.9143109200377
 31
0.0
  0
LINE
  5
5A05
102
{ACAD_REACTORS
330
5D6B
102
}
330
A
100
AcDbEntity
  8
CutoutUnderlay
  6
Continuous
100
AcDbLine
 10
509.8147535115548
 20
170.9143109200377
 30
0.0
 11
508.0996545115548
 21
170.9105129200377
 31
0.0
  0
LINE
  5
5A06
102
{ACAD_REACTORS
330
5D6B
102
}
330
A
100
AcDbEntity
  8
CutoutUnderlay
  6
Continuous
100
AcDbLine
 10
508.0996545115548
 20
170.9105129200377
 30
0.0
 11
506.3938265115548
 21
170.9129219200377
 31
0.0
  0
LINE
  5
5A07
102
{ACAD_REACTORS
330
5D6B
102
}
330
A
100
AcDbEntity
  8
CutoutUnderlay
  6
Continuous
100
AcDbLine
 10
506.3938265115548
 20
170.9129219200377
 30
0.0
 11
504.6864365115547
 21
170.9103819200377
 31
0.0
  0
LINE
  5
5A08
102
{ACAD_REACTORS
330
5D6B
102
}
330
A
100
AcDbEntity
  8
CutoutUnderlay
  6
Continuous
100
AcDbLine
 10
504.6864365115547
 20
170.9103819200377
 30
0.0
 11
502.9747005115548
 21
170.9027489200387
 31
0.0
  0
LINE
  5
5A09
102
{ACAD_REACTORS
330
5D6B
102
}
330
A
100
AcDbEntity
  8
CutoutUnderlay
  6
Continuous
100
AcDbLine
 10
502.9747005115548
 20
170.9027489200387
 30
0.0
 11
501.2601005115548
 21
170.8955879200387
 31
0.0
  0
LINE
  5
5A0A
102
{ACAD_REACTORS
330
5D6B
102
}
330
A
100
AcDbEntity
  8
CutoutUnderlay
  6
Continuous
100
AcDbLine
 10
501.2601005115548
 20
170.8955879200387
 30
0.0
 11
497.8230315115547
 21
170.8830049200376
 31
0.0
  0
LINE
  5
5A0B
102
{ACAD_REACTORS
330
5D6B
102
}
330
A
100
AcDbEntity
  8
CutoutUnderlay
  6
Continuous
100
AcDbLine
 10
497.8230315115547
 20
170.8830049200376
 30
0.0
 11
490.9320705115547
 21
170.8525159200376
 31
0.0
  0
LINE
  5
5A0C
102
{ACAD_REACTORS
330
5D6B
102
}
330
A
100
AcDbEntity
  8
CutoutUnderlay
  6
Continuous
100
AcDbLine
 10
490.9320705115547
 20
170.8525159200376
 30
0.0
 11
484.0169855115548
 21
170.8168659200378
 31
0.0
  0
LINE
  5
5A0D
102
{ACAD_REACTORS
330
5D6B
102
}
330
A
100
AcDbEntity
  8
CutoutUnderlay
  6
Continuous
100
AcDbLine
 10
484.0169855115548
 20
170.8168659200378
 30
0.0
 11
477.0817235115547
 21
170.7789059200377
 31
0.0
  0
LINE
  5
5A0E
102
{ACAD_REACTORS
330
5D6B
102
}
330
A
100
AcDbEntity
  8
CutoutUnderlay
  6
Continuous
100
AcDbLine
 10
477.0817235115547
 20
170.7789059200377
 30
0.0
 11
463.1680875115547
 21
170.7128029200378
 31
0.0
  0
LINE
  5
5A0F
102
{ACAD_REACTORS
330
5D6B
102
}
330
A
100
AcDbEntity
  8
CutoutUnderlay
  6
Continuous
100
AcDbLine
 10
463.1680875115547
 20
170.7128029200378
 30
0.0
 11
449.2232955115547
 21
170.6582869200377
 31
0.0
  0
ARC
  5
5A10
102
{ACAD_REACTORS
330
5D6B
102
}
330
A
100
AcDbEntity
  8
CutoutUnderlay
  6
Continuous
100
AcDbCircle
 10
523.7535445115548
 20
189.7862179200376
 30
0.0
 40
19.186985
100
AcDbArc
 50
270.5617379999997
 51
279.9710289999999
  0
LINE
  5
5A11
102
{ACAD_REACTORS
330
5D6B
102
}
330
A
100
AcDbEntity
  8
CutoutUnderlay
  6
Continuous
100
AcDbLine
 10
408.3775465115547
 20
191.0556219200387
 30
0.0
 11
449.2267445115547
 21
191.0450579200376
 31
0.0
  0
LINE
  5
5A12
102
{ACAD_REACTORS
330
5D6B
102
}
330
A
100
AcDbEntity
  8
CutoutUnderlay
  6
STYLE_01
100
AcDbLine
 10
449.2233025115548
 20
191.0342759200387
 30
0.0
 11
449.1829295115547
 21
191.0337729200378
 31
0.0
  0
LINE
  5
5A13
102
{ACAD_REACTORS
330
5D6B
102
}
330
A
100
AcDbEntity
  8
CutoutUnderlay
  6
Continuous
100
AcDbLine
 10
527.8716195115547
 20
171.6903469200377
 30
0.0
 11
527.8781645115548
 21
171.6905169200377
 31
0.0
  0
LINE
  5
5A14
102
{ACAD_REACTORS
330
5D6B
102
}
330
A
100
AcDbEntity
  8
CutoutUnderlay
  6
Continuous
100
AcDbLine
 10
527.8781645115548
 20
171.6905169200377
 30
0.0
 11
527.8807655115547
 21
171.6907279200377
 31
0.0
  0
LINE
  5
5A15
102
{ACAD_REACTORS
330
5D6B
102
}
330
A
100
AcDbEntity
  8
CutoutUnderlay
  6
Continuous
100
AcDbLine
 10
527.8807655115547
 20
171.6907279200377
 30
0.0
 11
527.8829165115548
 21
171.6910229200387
 31
0.0
  0
LINE
  5
5A16
102
{ACAD_REACTORS
330
5D6B
102
}
330
A
100
AcDbEntity
  8
CutoutUnderlay
  6
Continuous
100
AcDbLine
 10
527.8829165115548
 20
171.6910229200387
 30
0.0
 11
527.8846185115547
 21
171.6914019200376
 31
0.0
  0
LINE
  5
5A17
102
{ACAD_REACTORS
330
5D6B
102
}
330
A
100
AcDbEntity
  8
CutoutUnderlay
  6
Continuous
100
AcDbLine
 10
527.8846185115547
 20
171.6914019200376
 30
0.0
 11
527.8852995115548
 21
171.6916229200376
 31
0.0
  0
LINE
  5
5A18
102
{ACAD_REACTORS
330
5D6B
102
}
330
A
100
AcDbEntity
  8
CutoutUnderlay
  6
Continuous
100
AcDbLine
 10
527.8852995115548
 20
171.6916229200376
 30
0.0
 11
527.8858685115547
 21
171.6918649200377
 31
0.0
  0
LINE
  5
5A19
102
{ACAD_REACTORS
330
5D6B
102
}
330
A
100
AcDbEntity
  8
CutoutUnderlay
  6
Continuous
100
AcDbLine
 10
527.8858685115547
 20
171.6918649200377
 30
0.0
 11
527.8861105115548
 21
171.6919939200377
 31
0.0
  0
LINE
  5
5A1A
102
{ACAD_REACTORS
330
5D6B
102
}
330
A
100
AcDbEntity
  8
CutoutUnderlay
  6
Continuous
100
AcDbLine
 10
527.8861105115548
 20
171.6919939200377
 30
0.0
 11
527.8863245115547
 21
171.6921279200378
 31
0.0
  0
LINE
  5
5A1B
102
{ACAD_REACTORS
330
5D6B
102
}
330
A
100
AcDbEntity
  8
CutoutUnderlay
  6
Continuous
100
AcDbLine
 10
527.8863245115547
 20
171.6921279200378
 30
0.0
 11
527.8865105115547
 21
171.6922669200378
 31
0.0
  0
LINE
  5
5A1C
102
{ACAD_REACTORS
330
5D6B
102
}
330
A
100
AcDbEntity
  8
CutoutUnderlay
  6
Continuous
100
AcDbLine
 10
527.8865105115547
 20
171.6922669200378
 30
0.0
 11
527.8865925115547
 21
171.6923379200377
 31
0.0
  0
LINE
  5
5A1D
102
{ACAD_REACTORS
330
5D6B
102
}
330
A
100
AcDbEntity
  8
CutoutUnderlay
  6
Continuous
100
AcDbLine
 10
527.8865925115547
 20
171.6923379200377
 30
0.0
 11
527.8866675115547
 21
171.6924109200377
 31
0.0
  0
LINE
  5
5A1E
102
{ACAD_REACTORS
330
5D6B
102
}
330
A
100
AcDbEntity
  8
CutoutUnderlay
  6
Continuous
100
AcDbLine
 10
527.8866675115547
 20
171.6924109200377
 30
0.0
 11
527.8867355115547
 21
171.6924849200377
 31
0.0
  0
LINE
  5
5A1F
102
{ACAD_REACTORS
330
5D6B
102
}
330
A
100
AcDbEntity
  8
CutoutUnderlay
  6
Continuous
100
AcDbLine
 10
527.8867355115547
 20
171.6924849200377
 30
0.0
 11
527.8867965115548
 21
171.6925609200377
 31
0.0
  0
LINE
  5
5A20
102
{ACAD_REACTORS
330
5D6B
102
}
330
A
100
AcDbEntity
  8
CutoutUnderlay
  6
Continuous
100
AcDbLine
 10
527.8867965115548
 20
171.6925609200377
 30
0.0
 11
527.8868505115547
 21
171.6926369200378
 31
0.0
  0
LINE
  5
5A21
102
{ACAD_REACTORS
330
5D6B
102
}
330
A
100
AcDbEntity
  8
CutoutUnderlay
  6
Continuous
100
AcDbLine
 10
527.8868505115547
 20
171.6926369200378
 30
0.0
 11
527.8868975115547
 21
171.6927149200378
 31
0.0
  0
LINE
  5
5A22
102
{ACAD_REACTORS
330
5D6B
102
}
330
A
100
AcDbEntity
  8
CutoutUnderlay
  6
Continuous
100
AcDbLine
 10
527.8868975115547
 20
171.6927149200378
 30
0.0
 11
527.8869375115547
 21
171.6927949200376
 31
0.0
  0
LINE
  5
5A23
102
{ACAD_REACTORS
330
5D6B
102
}
330
A
100
AcDbEntity
  8
CutoutUnderlay
  6
Continuous
100
AcDbLine
 10
527.8869375115547
 20
171.6927949200376
 30
0.0
 11
527.8869695115548
 21
171.6928749200376
 31
0.0
  0
LINE
  5
5A24
102
{ACAD_REACTORS
330
5D6B
102
}
330
A
100
AcDbEntity
  8
CutoutUnderlay
  6
Continuous
100
AcDbLine
 10
527.8869695115548
 20
171.6928749200376
 30
0.0
 11
527.8869955115547
 21
171.6929569200377
 31
0.0
  0
LINE
  5
5A25
102
{ACAD_REACTORS
330
5D6B
102
}
330
A
100
AcDbEntity
  8
CutoutUnderlay
  6
Continuous
100
AcDbLine
 10
527.8869955115547
 20
171.6929569200377
 30
0.0
 11
527.8870145115548
 21
171.6930409200377
 31
0.0
  0
LINE
  5
5A26
102
{ACAD_REACTORS
330
5D6B
102
}
330
A
100
AcDbEntity
  8
CutoutUnderlay
  6
Continuous
100
AcDbLine
 10
411.4973325115547
 20
191.9328479200376
 30
0.0
 11
417.8874655115548
 21
191.8961899200376
 31
0.0
  0
LINE
  5
5A27
102
{ACAD_REACTORS
330
5D6B
102
}
330
A
100
AcDbEntity
  8
CutoutUnderlay
  6
Continuous
100
AcDbLine
 10
417.8874655115548
 20
191.8961899200376
 30
0.0
 11
424.5196795115547
 21
191.8726149200377
 31
0.0
  0
LINE
  5
5A28
102
{ACAD_REACTORS
330
5D6B
102
}
330
A
100
AcDbEntity
  8
CutoutUnderlay
  6
Continuous
100
AcDbLine
 10
424.5196795115547
 20
191.8726149200377
 30
0.0
 11
431.2442915115548
 21
191.8564969200377
 31
0.0
  0
ARC
  5
5A29
102
{ACAD_REACTORS
330
5D6B
102
}
330
A
100
AcDbEntity
  8
CutoutUnderlay
  6
Continuous
100
AcDbCircle
 10
526.9030855115548
 20
189.8288099200377
 30
0.0
 40
1.000404
100
AcDbArc
 50
10.41411300000175
 51
80.02758399999948
  0
ARC
  5
5A2A
102
{ACAD_REACTORS
330
5D6B
102
}
330
A
100
AcDbEntity
  8
CutoutUnderlay
  6
Continuous
100
AcDbCircle
 10
526.9025495115548
 20
171.8743679200377
 30
0.0
 40
1.00103
100
AcDbArc
 50
279.971029
 51
349.5637230000009
  0
LINE
  5
5A2B
102
{ACAD_REACTORS
330
5D6B
102
}
330
A
100
AcDbEntity
  8
CutoutUnderlay
  6
Continuous
100
AcDbLine
 10
449.2233065115548
 20
169.8502819200378
 30
0.0
 11
523.9416545115548
 21
170.6001069200377
 31
0.0
  0
LINE
  5
5A2C
102
{ACAD_REACTORS
330
5D6B
102
}
330
A
100
AcDbEntity
  8
CutoutUnderlay
  6
Continuous
100
AcDbLine
 10
449.2233065115548
 20
191.8523879200377
 30
0.0
 11
523.9416545115548
 21
191.1025629200376
 31
0.0
  0
LINE
  5
5A2D
102
{ACAD_REACTORS
330
5D6B
102
}
330
A
100
AcDbEntity
  8
CutoutUnderlay
  6
Continuous
100
AcDbLine
 10
527.8870095115548
 20
190.0096459200377
 30
0.0
 11
528.2941375115547
 21
187.4111129200378
 31
0.0
  0
LINE
  5
5A2E
102
{ACAD_REACTORS
330
5D6B
102
}
330
A
100
AcDbEntity
  8
CutoutUnderlay
  6
Continuous
100
AcDbLine
 10
528.2941375115547
 20
187.4111129200378
 30
0.0
 11
528.5661045115547
 21
184.7944569200376
 31
0.0
  0
LINE
  5
5A2F
102
{ACAD_REACTORS
330
5D6B
102
}
330
A
100
AcDbEntity
  8
CutoutUnderlay
  6
Continuous
100
AcDbLine
 10
528.5661045115547
 20
184.7944569200376
 30
0.0
 11
528.7022995115547
 21
182.1669279200378
 31
0.0
  0
LINE
  5
5A30
102
{ACAD_REACTORS
330
5D6B
102
}
330
A
100
AcDbEntity
  8
CutoutUnderlay
  6
Continuous
100
AcDbLine
 10
528.7022995115547
 20
182.1669279200378
 30
0.0
 11
528.7022605115548
 21
179.5357569200378
 31
0.0
  0
LINE
  5
5A31
102
{ACAD_REACTORS
330
5D6B
102
}
330
A
100
AcDbEntity
  8
CutoutUnderlay
  6
Continuous
100
AcDbLine
 10
528.7022605115548
 20
179.5357569200378
 30
0.0
 11
528.5660785115547
 21
176.9082179200377
 31
0.0
  0
LINE
  5
5A32
102
{ACAD_REACTORS
330
5D6B
102
}
330
A
100
AcDbEntity
  8
CutoutUnderlay
  6
Continuous
100
AcDbLine
 10
528.5660785115547
 20
176.9082179200377
 30
0.0
 11
528.4470305115547
 21
175.5980789200378
 31
0.0
  0
LINE
  5
5A33
102
{ACAD_REACTORS
330
5D6B
102
}
330
A
100
AcDbEntity
  8
CutoutUnderlay
  6
Continuous
100
AcDbLine
 10
528.4470305115547
 20
175.5980789200378
 30
0.0
 11
528.2941535115547
 21
174.2915579200378
 31
0.0
  0
LINE
  5
5A34
102
{ACAD_REACTORS
330
5D6B
102
}
330
A
100
AcDbEntity
  8
CutoutUnderlay
  6
Continuous
100
AcDbLine
 10
528.2941535115547
 20
174.2915579200378
 30
0.0
 11
528.1074805115547
 21
172.9895689200387
 31
0.0
  0
LINE
  5
5A35
102
{ACAD_REACTORS
330
5D6B
102
}
330
A
100
AcDbEntity
  8
CutoutUnderlay
  6
Continuous
100
AcDbLine
 10
528.1074805115547
 20
172.9895689200387
 30
0.0
 11
528.0013295115548
 21
172.3405919200377
 31
0.0
  0
LINE
  5
5A36
102
{ACAD_REACTORS
330
5D6B
102
}
330
A
100
AcDbEntity
  8
CutoutUnderlay
  6
Continuous
100
AcDbLine
 10
528.0013295115548
 20
172.3405919200377
 30
0.0
 11
527.9454155115548
 21
172.0165869200387
 31
0.0
  0
LINE
  5
5A37
102
{ACAD_REACTORS
330
5D6B
102
}
330
A
100
AcDbEntity
  8
CutoutUnderlay
  6
Continuous
100
AcDbLine
 10
527.9454155115548
 20
172.0165869200387
 30
0.0
 11
527.8870135115548
 21
171.6930399200378
 31
0.0
  0
LINE
  5
5A38
102
{ACAD_REACTORS
330
5D6B
102
}
330
A
100
AcDbEntity
  8
CutoutUnderlay
  6
Continuous
100
AcDbLine
 10
431.2442915115548
 20
191.8564969200377
 30
0.0
 11
449.2233065115548
 21
191.8523879200377
 31
0.0
  0
LINE
  5
5A39
102
{ACAD_REACTORS
330
5D6B
102
}
330
A
100
AcDbEntity
  8
CutoutUnderlay
  6
Continuous
100
AcDbLine
 10
431.2442915115548
 20
169.8691979200378
 30
0.0
 11
449.2233065115548
 21
169.8733069200377
 31
0.0
  0
LINE
  5
5A3A
102
{ACAD_REACTORS
330
5D6B
102
}
330
A
100
AcDbEntity
  8
CutoutUnderlay
  6
Continuous
100
AcDbLine
 10
411.4973325115547
 20
169.7928459200377
 30
0.0
 11
417.8874655115548
 21
169.8295049200376
 31
0.0
  0
LINE
  5
5A3B
102
{ACAD_REACTORS
330
5D6B
102
}
330
A
100
AcDbEntity
  8
CutoutUnderlay
  6
Continuous
100
AcDbLine
 10
417.8874655115548
 20
169.8295049200376
 30
0.0
 11
424.5196795115547
 21
169.8530789200377
 31
0.0
  0
LINE
  5
5A3C
102
{ACAD_REACTORS
330
5D6B
102
}
330
A
100
AcDbEntity
  8
CutoutUnderlay
  6
Continuous
100
AcDbLine
 10
424.5196795115547
 20
169.8530789200377
 30
0.0
 11
431.2442915115548
 21
169.8691979200378
 31
0.0
  0
LINE
  5
5A3D
102
{ACAD_REACTORS
330
5D6B
102
}
330
A
100
AcDbEntity
  8
CutoutUnderlay
  6
Continuous
100
AcDbLine
 10
408.3775465115547
 20
170.6700719200378
 30
0.0
 11
449.2267445115547
 21
170.6806359200377
 31
0.0
  0
LINE
  5
5A3E
102
{ACAD_REACTORS
330
5D6B
102
}
330
A
100
AcDbEntity
  8
CutoutUnderlay
  6
Continuous
100
AcDbLine
 10
408.3770615115547
 20
170.6707089200377
 30
0.0
 11
407.4184795115547
 21
170.7146429200377
 31
0.0
  0
LINE
  5
5A3F
102
{ACAD_REACTORS
330
5D6B
102
}
330
A
100
AcDbEntity
  8
CutoutUnderlay
  6
Continuous
100
AcDbLine
 10
407.4184795115547
 20
170.7146429200377
 30
0.0
 11
406.7023525115547
 21
170.7928519200377
 31
0.0
  0
LINE
  5
5A40
102
{ACAD_REACTORS
330
5D6B
102
}
330
A
100
AcDbEntity
  8
CutoutUnderlay
  6
Continuous
100
AcDbLine
 10
406.7023525115547
 20
170.7928519200377
 30
0.0
 11
405.9913985115547
 21
170.9098329200376
 31
0.0
  0
LINE
  5
5A41
102
{ACAD_REACTORS
330
5D6B
102
}
330
A
100
AcDbEntity
  8
CutoutUnderlay
  6
Continuous
100
AcDbLine
 10
405.9913985115547
 20
170.9098329200376
 30
0.0
 11
405.0499115115547
 21
171.1276379200376
 31
0.0
  0
LINE
  5
5A42
102
{ACAD_REACTORS
330
5D6B
102
}
330
A
100
AcDbEntity
  8
CutoutUnderlay
  6
Continuous
100
AcDbLine
 10
405.0499115115547
 20
171.1276379200376
 30
0.0
 11
404.3560435115547
 21
171.3366799200378
 31
0.0
  0
LINE
  5
5A43
102
{ACAD_REACTORS
330
5D6B
102
}
330
A
100
AcDbEntity
  8
CutoutUnderlay
  6
Continuous
100
AcDbLine
 10
404.3560435115547
 20
171.3366799200378
 30
0.0
 11
403.6751615115547
 21
171.5848139200377
 31
0.0
  0
LINE
  5
5A44
102
{ACAD_REACTORS
330
5D6B
102
}
330
A
100
AcDbEntity
  8
CutoutUnderlay
  6
Continuous
100
AcDbLine
 10
403.6751615115547
 20
171.5848139200377
 30
0.0
 11
402.7870445115547
 21
171.9784949200377
 31
0.0
  0
LINE
  5
5A45
102
{ACAD_REACTORS
330
5D6B
102
}
330
A
100
AcDbEntity
  8
CutoutUnderlay
  6
Continuous
100
AcDbLine
 10
402.7870445115547
 20
171.9784949200377
 30
0.0
 11
402.1429485115547
 21
172.3192989200377
 31
0.0
  0
LINE
  5
5A46
102
{ACAD_REACTORS
330
5D6B
102
}
330
A
100
AcDbEntity
  8
CutoutUnderlay
  6
Continuous
100
AcDbLine
 10
402.1429485115547
 20
172.3192989200377
 30
0.0
 11
401.5208525115548
 21
172.6987729200387
 31
0.0
  0
LINE
  5
5A47
102
{ACAD_REACTORS
330
5D6B
102
}
330
A
100
AcDbEntity
  8
CutoutUnderlay
  6
Continuous
100
AcDbLine
 10
401.5208525115548
 20
172.6987729200387
 30
0.0
 11
400.7268125115548
 21
173.2671159200377
 31
0.0
  0
LINE
  5
5A48
102
{ACAD_REACTORS
330
5D6B
102
}
330
A
100
AcDbEntity
  8
CutoutUnderlay
  6
Continuous
100
AcDbLine
 10
400.7268125115548
 20
173.2671159200377
 30
0.0
 11
400.1651375115547
 21
173.7373289200377
 31
0.0
  0
LINE
  5
5A49
102
{ACAD_REACTORS
330
5D6B
102
}
330
A
100
AcDbEntity
  8
CutoutUnderlay
  6
Continuous
100
AcDbLine
 10
400.1651375115547
 20
173.7373289200377
 30
0.0
 11
399.6360585115547
 21
174.2442639200376
 31
0.0
  0
LINE
  5
5A4A
102
{ACAD_REACTORS
330
5D6B
102
}
330
A
100
AcDbEntity
  8
CutoutUnderlay
  6
Continuous
100
AcDbLine
 10
399.6360585115547
 20
174.2442639200376
 30
0.0
 11
398.9846475115548
 21
174.9782369200377
 31
0.0
  0
LINE
  5
5A4B
102
{ACAD_REACTORS
330
5D6B
102
}
330
A
100
AcDbEntity
  8
CutoutUnderlay
  6
Continuous
100
AcDbLine
 10
398.9846475115548
 20
174.9782369200377
 30
0.0
 11
398.5436665115547
 21
175.5673559200377
 31
0.0
  0
LINE
  5
5A4C
102
{ACAD_REACTORS
330
5D6B
102
}
330
A
100
AcDbEntity
  8
CutoutUnderlay
  6
Continuous
100
AcDbLine
 10
398.5436665115547
 20
175.5673559200377
 30
0.0
 11
398.1477185115547
 21
176.1868369200376
 31
0.0
  0
LINE
  5
5A4D
102
{ACAD_REACTORS
330
5D6B
102
}
330
A
100
AcDbEntity
  8
CutoutUnderlay
  6
Continuous
100
AcDbLine
 10
398.1477185115547
 20
176.1868369200376
 30
0.0
 11
397.8541135115548
 21
176.7257619200377
 31
0.0
  0
LINE
  5
5A4E
102
{ACAD_REACTORS
330
5D6B
102
}
330
A
100
AcDbEntity
  8
CutoutUnderlay
  6
Continuous
100
AcDbLine
 10
397.8541135115548
 20
176.7257619200377
 30
0.0
 11
397.5960355115547
 21
177.2823709200377
 31
0.0
  0
LINE
  5
5A4F
102
{ACAD_REACTORS
330
5D6B
102
}
330
A
100
AcDbEntity
  8
CutoutUnderlay
  6
Continuous
100
AcDbLine
 10
397.5960355115547
 20
177.2823709200377
 30
0.0
 11
397.4159415115549
 21
177.7397409200387
 31
0.0
  0
LINE
  5
5A50
102
{ACAD_REACTORS
330
5D6B
102
}
330
A
100
AcDbEntity
  8
CutoutUnderlay
  6
Continuous
100
AcDbLine
 10
397.4159415115549
 20
177.7397409200387
 30
0.0
 11
397.1924405115548
 21
178.4423269200377
 31
0.0
  0
LINE
  5
5A51
102
{ACAD_REACTORS
330
5D6B
102
}
330
A
100
AcDbEntity
  8
CutoutUnderlay
  6
Continuous
100
AcDbLine
 10
397.1924405115548
 20
178.4423269200377
 30
0.0
 11
397.0757645115547
 21
178.9203579200387
 31
0.0
  0
LINE
  5
5A52
102
{ACAD_REACTORS
330
5D6B
102
}
330
A
100
AcDbEntity
  8
CutoutUnderlay
  6
Continuous
100
AcDbLine
 10
397.0757645115547
 20
178.9203579200387
 30
0.0
 11
396.9504405115547
 21
179.6475129200378
 31
0.0
  0
LINE
  5
5A53
102
{ACAD_REACTORS
330
5D6B
102
}
330
A
100
AcDbEntity
  8
CutoutUnderlay
  6
Continuous
100
AcDbLine
 10
396.9504405115547
 20
179.6475129200378
 30
0.0
 11
396.8925415115547
 21
180.2596449200378
 31
0.0
  0
LINE
  5
5A54
102
{ACAD_REACTORS
330
5D6B
102
}
330
A
100
AcDbEntity
  8
CutoutUnderlay
  6
Continuous
100
AcDbLine
 10
396.8925415115547
 20
180.2596449200378
 30
0.0
 11
396.8795685115547
 21
180.5668599200378
 31
0.0
  0
LINE
  5
5A55
102
{ACAD_REACTORS
330
5D6B
102
}
330
A
100
AcDbEntity
  8
CutoutUnderlay
  6
Continuous
100
AcDbLine
 10
396.8795685115547
 20
180.5668599200378
 30
0.0
 11
396.8775615115547
 21
180.8743579200377
 31
0.0
  0
ARC
  5
5A56
102
{ACAD_REACTORS
330
5D6B
102
}
330
A
100
AcDbEntity
  8
CutoutUnderlay
  6
Continuous
100
AcDbCircle
 10
408.8721245115548
 20
180.8628469200378
 30
0.0
 40
12.0
100
AcDbArc
 50
67.13648400000042
 51
292.8635160000001
  0
ARC
  5
5A57
102
{ACAD_REACTORS
330
5D6B
102
}
330
A
100
AcDbEntity
  8
CutoutUnderlay
  6
DASHED1
100
AcDbCircle
 10
409.2435195115548
 20
180.7992029200377
 30
0.0
 40
11.53571
100
AcDbArc
 50
52.40669999999914
 51
69.75242199999997
  0
LINE
  5
5A58
102
{ACAD_REACTORS
330
5D6B
102
}
330
A
100
AcDbEntity
  8
CutoutUnderlay
  6
STYLE_01
100
AcDbLine
 10
419.0193205115548
 20
180.8524509200377
 30
0.0
 11
419.0127295115547
 21
181.5086989200377
 31
0.0
  0
LINE
  5
5A59
102
{ACAD_REACTORS
330
5D6B
102
}
330
A
100
AcDbEntity
  8
CutoutUnderlay
  6
DASHED1
100
AcDbLine
 10
419.0127295115547
 20
181.5086989200377
 30
0.0
 11
418.9783055115549
 21
182.1685389200377
 31
0.0
  0
LINE
  5
5A5A
102
{ACAD_REACTORS
330
5D6B
102
}
330
A
100
AcDbEntity
  8
CutoutUnderlay
  6
DASHED1
100
AcDbLine
 10
418.9783055115549
 20
182.1685389200377
 30
0.0
 11
418.8340545115547
 21
183.5069859200378
 31
0.0
  0
LINE
  5
5A5B
102
{ACAD_REACTORS
330
5D6B
102
}
330
A
100
AcDbEntity
  8
CutoutUnderlay
  6
DASHED1
100
AcDbLine
 10
418.8340545115547
 20
183.5069859200378
 30
0.0
 11
418.5903505115547
 21
184.8280639200377
 31
0.0
  0
LINE
  5
5A5C
102
{ACAD_REACTORS
330
5D6B
102
}
330
A
100
AcDbEntity
  8
CutoutUnderlay
  6
DASHED1
100
AcDbLine
 10
418.5903505115547
 20
184.8280639200377
 30
0.0
 11
418.2411515115547
 21
186.1231999200377
 31
0.0
  0
LINE
  5
5A5D
102
{ACAD_REACTORS
330
5D6B
102
}
330
A
100
AcDbEntity
  8
CutoutUnderlay
  6
DASHED1
100
AcDbLine
 10
418.2411515115547
 20
186.1231999200377
 30
0.0
 11
418.0246405115549
 21
186.7581489200377
 31
0.0
  0
LINE
  5
5A5E
102
{ACAD_REACTORS
330
5D6B
102
}
330
A
100
AcDbEntity
  8
CutoutUnderlay
  6
DASHED1
100
AcDbLine
 10
418.0246405115549
 20
186.7581489200377
 30
0.0
 11
417.7787635115547
 21
187.3822729200376
 31
0.0
  0
LINE
  5
5A5F
102
{ACAD_REACTORS
330
5D6B
102
}
330
A
100
AcDbEntity
  8
CutoutUnderlay
  6
STYLE_01
100
AcDbLine
 10
417.7787635115547
 20
187.3822729200376
 30
0.0
 11
417.5026265115548
 21
187.9933399200377
 31
0.0
  0
LINE
  5
5A60
102
{ACAD_REACTORS
330
5D6B
102
}
330
A
100
AcDbEntity
  8
CutoutUnderlay
  6
DASHED1
100
AcDbLine
 10
417.5026265115548
 20
187.9933399200377
 30
0.0
 11
417.1956065115547
 21
188.5896149200387
 31
0.0
  0
LINE
  5
5A61
102
{ACAD_REACTORS
330
5D6B
102
}
330
A
100
AcDbEntity
  8
CutoutUnderlay
  6
STYLE_01
100
AcDbLine
 10
417.1956065115547
 20
188.5896149200387
 30
0.0
 11
416.8583175115547
 21
189.1667819200377
 31
0.0
  0
LINE
  5
5A62
102
{ACAD_REACTORS
330
5D6B
102
}
330
A
100
AcDbEntity
  8
CutoutUnderlay
  6
DASHED1
100
AcDbLine
 10
416.8583175115547
 20
189.1667819200377
 30
0.0
 11
416.4883275115547
 21
189.7231799200376
 31
0.0
  0
LINE
  5
5A63
102
{ACAD_REACTORS
330
5D6B
102
}
330
A
100
AcDbEntity
  8
CutoutUnderlay
  6
DASHED1
100
AcDbLine
 10
419.0193205115548
 20
180.8732429200377
 30
0.0
 11
419.0127295115547
 21
180.2169959200378
 31
0.0
  0
LINE
  5
5A64
102
{ACAD_REACTORS
330
5D6B
102
}
330
A
100
AcDbEntity
  8
CutoutUnderlay
  6
STYLE_01
100
AcDbLine
 10
419.0127295115547
 20
180.2169959200378
 30
0.0
 11
418.9783055115549
 21
179.5571549200376
 31
0.0
  0
LINE
  5
5A65
102
{ACAD_REACTORS
330
5D6B
102
}
330
A
100
AcDbEntity
  8
CutoutUnderlay
  6
DASHED1
100
AcDbLine
 10
418.9783055115549
 20
179.5571549200376
 30
0.0
 11
418.8340545115547
 21
178.2187079200378
 31
0.0
  0
LINE
  5
5A66
102
{ACAD_REACTORS
330
5D6B
102
}
330
A
100
AcDbEntity
  8
CutoutUnderlay
  6
DASHED1
100
AcDbLine
 10
418.8340545115547
 20
178.2187079200378
 30
0.0
 11
418.5903505115547
 21
176.8976309200377
 31
0.0
  0
LINE
  5
5A67
102
{ACAD_REACTORS
330
5D6B
102
}
330
A
100
AcDbEntity
  8
CutoutUnderlay
  6
DASHED1
100
AcDbLine
 10
418.5903505115547
 20
176.8976309200377
 30
0.0
 11
418.2411515115547
 21
175.6024949200378
 31
0.0
  0
LINE
  5
5A68
102
{ACAD_REACTORS
330
5D6B
102
}
330
A
100
AcDbEntity
  8
CutoutUnderlay
  6
DASHED1
100
AcDbLine
 10
418.2411515115547
 20
175.6024949200378
 30
0.0
 11
418.0246405115549
 21
174.9675459200387
 31
0.0
  0
LINE
  5
5A69
102
{ACAD_REACTORS
330
5D6B
102
}
330
A
100
AcDbEntity
  8
CutoutUnderlay
  6
STYLE_01
100
AcDbLine
 10
418.0246405115549
 20
174.9675459200387
 30
0.0
 11
417.7787635115547
 21
174.3434209200377
 31
0.0
  0
LINE
  5
5A6A
102
{ACAD_REACTORS
330
5D6B
102
}
330
A
100
AcDbEntity
  8
CutoutUnderlay
  6
DASHED1
100
AcDbLine
 10
417.7787635115547
 20
174.3434209200377
 30
0.0
 11
417.5026265115548
 21
173.7323539200377
 31
0.0
  0
LINE
  5
5A6B
102
{ACAD_REACTORS
330
5D6B
102
}
330
A
100
AcDbEntity
  8
CutoutUnderlay
  6
STYLE_01
100
AcDbLine
 10
417.5026265115548
 20
173.7323539200377
 30
0.0
 11
417.1956065115547
 21
173.1360799200377
 31
0.0
  0
LINE
  5
5A6C
102
{ACAD_REACTORS
330
5D6B
102
}
330
A
100
AcDbEntity
  8
CutoutUnderlay
  6
DASHED1
100
AcDbLine
 10
417.1956065115547
 20
173.1360799200377
 30
0.0
 11
416.8583175115547
 21
172.5589129200387
 31
0.0
  0
LINE
  5
5A6D
102
{ACAD_REACTORS
330
5D6B
102
}
330
A
100
AcDbEntity
  8
CutoutUnderlay
  6
DASHED1
100
AcDbLine
 10
416.8583175115547
 20
172.5589129200387
 30
0.0
 11
416.4883275115547
 21
172.0025139200377
 31
0.0
  0
ARC
  5
5A6E
102
{ACAD_REACTORS
330
5D6B
102
}
330
A
100
AcDbEntity
  8
CutoutUnderlay
  6
DASHED1
100
AcDbCircle
 10
409.2435195115548
 20
180.9264909200376
 30
0.0
 40
11.53571
100
AcDbArc
 50
290.247578
 51
307.5933000000009
  0
ARC
  5
5A6F
102
{ACAD_REACTORS
330
5D6B
102
}
330
A
100
AcDbEntity
  8
CutoutUnderlay
  6
DASHED1
100
AcDbCircle
 10
408.8721245115548
 20
180.8628469200378
 30
0.0
 40
12.0
100
AcDbArc
 50
292.8635160000001
 51
67.13648400000042
  0
CIRCLE
  5
5A70
102
{ACAD_REACTORS
330
5D6B
102
}
330
A
100
AcDbEntity
  8
CutoutUnderlay
  6
DASHED1
100
AcDbCircle
 10
408.8721245115548
 20
180.8628469200378
 30
0.0
 40
8.925
  0
ARC
  5
5A71
102
{ACAD_REACTORS
330
5D6B
102
}
330
A
100
AcDbEntity
  8
CutoutUnderlay
  6
STYLE_01
100
AcDbCircle
 10
415.6717855115547
 20
189.1463649200377
 30
0.0
 40
1.000143
100
AcDbArc
 50
35.38738599999387
 51
52.4813289999898
  0
LINE
  5
5A72
102
{ACAD_REACTORS
330
5D6B
102
}
330
A
100
AcDbEntity
  8
CutoutUnderlay
  6
STYLE_01
100
AcDbLine
 10
416.3396745115547
 20
189.8909149200376
 30
0.0
 11
416.4882655115547
 21
189.7235489200377
 31
0.0
  0
LINE
  5
5A73
102
{ACAD_REACTORS
330
5D6B
102
}
330
A
100
AcDbEntity
  8
CutoutUnderlay
  6
STYLE_01
100
AcDbLine
 10
416.3396745115547
 20
171.8347799200378
 30
0.0
 11
416.4882655115547
 21
172.0021449200376
 31
0.0
  0
ARC
  5
5A74
102
{ACAD_REACTORS
330
5D6B
102
}
330
A
100
AcDbEntity
  8
CutoutUnderlay
  6
DASHED1
100
AcDbCircle
 10
408.8807156550698
 20
180.8658700857627
 30
0.0
 40
27.5
100
AcDbArc
 50
335.1331145348818
 51
24.19940506942372
  0
ARC
  5
5A75
102
{ACAD_REACTORS
330
5D6B
102
}
330
A
100
AcDbEntity
  8
CutoutUnderlay
  6
Continuous
100
AcDbCircle
 10
408.8807156550698
 20
180.8658700857627
 30
0.0
 40
27.5
100
AcDbArc
 50
23.55539467661379
 51
336.4308629710004
  0
ARC
  5
5A76
102
{ACAD_REACTORS
330
5D6B
102
}
330
A
100
AcDbEntity
  8
CutoutUnderlay
  6
DASHED1
100
AcDbCircle
 10
520.5924715115548
 20
189.8455749200377
 30
0.0
 40
0.980755
100
AcDbArc
 50
100.8752950000064
 51
170.549575000008
  0
ARC
  5
5A77
102
{ACAD_REACTORS
330
5D6B
102
}
330
A
100
AcDbEntity
  8
CutoutUnderlay
  6
DASHED1
100
AcDbCircle
 10
520.5924705115547
 20
171.8570859200377
 30
0.0
 40
0.9807449999999999
100
AcDbArc
 50
189.4501029999978
 51
259.1252960000066
  0
ARC
  5
5A78
102
{ACAD_REACTORS
330
5D6B
102
}
330
A
100
AcDbEntity
  8
CutoutUnderlay
  6
DASHED1
100
AcDbCircle
 10
523.7576745115548
 20
171.9122609200376
 30
0.0
 40
19.191135
100
AcDbArc
 50
89.45071499999993
 51
100.0537620000001
  0
ARC
  5
5A79
102
{ACAD_REACTORS
330
5D6B
102
}
330
A
100
AcDbEntity
  8
CutoutUnderlay
  6
DASHED1
100
AcDbCircle
 10
523.7576745115548
 20
189.7904129200376
 30
0.0
 40
19.191139
100
AcDbArc
 50
259.9456400000001
 51
270.549284
  0
ARC
  5
5A7A
102
{ACAD_REACTORS
330
5D6B
102
}
330
A
100
AcDbEntity
  8
CutoutUnderlay
  6
DASHED1
100
AcDbCircle
 10
569.5391045115548
 20
180.8513479200376
 30
0.0
 40
50.746796
100
AcDbArc
 50
169.6063129999998
 51
190.3936489999999
  0
DIMENSION
  5
5BD5
330
A
100
AcDbEntity
  8
寸法
  6
Continuous
100
AcDbDimension
  2
*D26
 10
134.8812214791988
 20
139.2647026849561
 30
0.0
 11
141.6643088333742
 21
139.2647026849561
 31
0.0
 70
   160
 71
     5
 42
7.699570739085019
 73
     0
 74
     1
 75
     1
  3
tfrom線あり
100
AcDbAlignedDimension
 13
127.1816507401138
 23
153.4628469200372
 33
0.0
 14
134.8812214791988
 24
168.6679425127932
 34
0.0
100
AcDbRotatedDimension
1001
ACAD
1000
DSTYLE
1002
{
1070
   172
1070
     1
1070
   175
1070
     1
1070
   174
1070
     1
1070
     3
1000
<>
1070
   271
1070
     0
1002
}
  0
TEXT
  5
5C27
330
A
100
AcDbEntity
  8
テンプレート
100
AcDbText
 10
347.7399794959061
 20
44.82304125840494
 30
0.0
 40
4.0
  1
MIWAケース：37～54
  7
ＭＳ ゴシック
100
AcDbText
  0
TEXT
  5
5C28
330
A
100
AcDbEntity
  8
テンプレート
100
AcDbText
 10
347.7399794959061
 20
39.8279918743558
 30
0.0
 40
4.0
  1
ユーロケース(DIN規格)：36～54
  7
ＭＳ ゴシック
100
AcDbText
  0
DIMENSION
  5
5C8E
330
A
100
AcDbEntity
  8
寸法
  6
Continuous
100
AcDbDimension
  2
*D29
 10
112.4325120145531
 20
378.7852477434631
 30
0.0
 11
108.1825120145531
 21
378.7852477434631
 31
0.0
 70
   160
 71
     5
 42
8.5
 73
     0
 74
     0
 75
     0
  3
tfrom線あり
100
AcDbAlignedDimension
 13
103.9325120145531
 23
367.0686993856673
 33
0.0
 14
112.4325120145531
 24
367.0686993856673
 34
0.0
100
AcDbRotatedDimension
1001
ACAD
1000
DSTYLE
1002
{
1070
   271
1070
     1
1002
}
  0
LINE
  5
5C91
330
A
100
AcDbEntity
  8
MODEL
  6
Continuous
100
AcDbLine
 10
110.6317432308796
 20
354.7335990428101
 30
0.0
 11
105.7332807982266
 21
354.7335990428101
 31
0.0
  0
LINE
  5
5C92
330
A
100
AcDbEntity
  8
MODEL
  6
Continuous
100
AcDbLine
 10
112.4325120145531
 20
348.7335990428101
 30
0.0
 11
110.6317432308797
 21
354.7335990428101
 31
0.0
  0
LINE
  5
5C93
330
A
100
AcDbEntity
  8
MODEL
  6
Continuous
100
AcDbLine
 10
103.9325120145531
 20
348.7335990428101
 30
0.0
 11
105.7332807982266
 21
354.7335990428101
 31
0.0
  0
DIMENSION
  5
5C94
330
A
100
AcDbEntity
  8
寸法
  6
Continuous
100
AcDbDimension
  2
*D30
 10
169.1440199581582
 20
348.7335990428101
 30
0.0
 11
169.1440199581582
 21
351.7335990428101
 31
0.0
 70
   160
 71
     5
 42
5.999999999999943
 73
     0
 74
     0
 75
     0
  3
tfrom線あり
100
AcDbAlignedDimension
 13
148.7210231602584
 23
354.7335990428101
 33
0.0
 14
154.4759396838725
 24
348.7335990428101
 34
0.0
 50
90.0
100
AcDbRotatedDimension
  0
LINE
  5
5C96
330
A
100
AcDbEntity
  8
MODEL
  6
Continuous
100
AcDbLine
 10
150.4325120145531
 20
348.7335990428101
 30
0.0
 11
148.6317432308797
 21
354.7335990428101
 31
0.0
  0
LINE
  5
5C97
330
A
100
AcDbEntity
  8
MODEL
  6
Continuous
100
AcDbLine
 10
148.6317432308796
 20
354.7335990428101
 30
0.0
 11
143.7332807982266
 21
354.7335990428101
 31
0.0
  0
LINE
  5
5C98
330
A
100
AcDbEntity
  8
MODEL
  6
Continuous
100
AcDbLine
 10
141.9325120145531
 20
348.7335990428101
 30
0.0
 11
143.7332807982266
 21
354.7335990428101
 31
0.0
  0
LINE
  5
5CF2
330
A
100
AcDbEntity
  8
MODEL
  6
Continuous
100
AcDbLine
 10
127.1816507401138
 20
185.1128469200378
 30
0.0
 11
121.1816507401139
 21
183.3120781363643
 31
0.0
  0
LINE
  5
5CF3
330
A
100
AcDbEntity
  8
MODEL
  6
Continuous
100
AcDbLine
 10
121.1816507401138
 20
183.3120781363643
 30
0.0
 11
121.1816507401138
 21
178.4136157037112
 31
0.0
  0
LINE
  5
5CF4
330
A
100
AcDbEntity
  8
MODEL
  6
Continuous
100
AcDbLine
 10
127.1816507401138
 20
176.6128469200378
 30
0.0
 11
121.1816507401139
 21
178.4136157037112
 31
0.0
  0
MTEXT
  5
5D55
102
{ACAD_XDICTIONARY
360
5D56
102
}
330
A
100
AcDbEntity
  8
寸法
  6
Continuous
370
     0
100
AcDbMText
 10
16.03746315898585
 20
23.37395828580276
 30
0.0
 40
4.0
 41
0.0
 46
4.0
 71
     1
 72
     1
  1
{20180416N}
  7
ＭＳ ゴシック
 73
     1
 44
1.0
1001
ACAD
1000
ACAD_MTEXT_DEFINED_HEIGHT_BEGIN
1070
    46
1040
4.0
1000
ACAD_MTEXT_DEFINED_HEIGHT_END
  0
LINE
  5
5D6A
330
A
100
AcDbEntity
  8
テンプレート
  6
Continuous
100
AcDbLine
 10
33.63100153769662
 20
26.22153683920783
 30
0.0
 11
33.63100153769662
 21
50.16496477419605
 31
0.0
  0
TEXT
  5
5DAD
330
A
100
AcDbEntity
  8
テンプレート
100
AcDbText
 10
187.3255251873665
 20
95.58845453164052
 30
0.0
 40
5.0
  1
　 加工は現物合わせの上行って下さい。
  7
ＭＳ ゴシック
100
AcDbText
  0
TEXT
  5
5DAE
330
A
100
AcDbEntity
  8
テンプレート
100
AcDbText
 10
187.4977682695751
 20
103.6922386277807
 30
0.0
 40
5.0
  1
※ 輸入製品の為、国内製品と比べ製品寸法の個体差に幅が有ります。
  7
ＭＳ ゴシック
100
AcDbText
  0
TEXT
  5
5DAF
330
A
100
AcDbEntity
  8
テンプレート
100
AcDbText
 10
187.3255251873665
 20
86.21682322716002
 30
0.0
 40
5.0
  1
※ ご注文の際は正確な扉厚の指示をしてください。
  7
ＭＳ ゴシック
100
AcDbText
  0
TEXT
  5
5DB0
330
A
100
AcDbEntity
  8
テンプレート
100
AcDbText
 10
187.3255251873665
 20
77.5173345961741
 30
0.0
 40
5.0
  1
※ イモネジ・ビスのゆるみ止め防止のために金属製ネジ用ゆるみ止め剤(中強度タイプ)
  7
ＭＳ ゴシック
100
AcDbText
  0
TEXT
  5
5DB1
330
A
100
AcDbEntity
  8
テンプレート
100
AcDbText
 10
183.5610795085161
 20
68.07646144979785
 30
0.0
 40
5.0
  1
　　を用意して塗布してください。(推奨商品　住友3M社TL42J等)
  7
ＭＳ ゴシック
100
AcDbText
  0
MTEXT
  5
5E0A
330
A
100
AcDbEntity
  8
テンプレート
390
1D
100
AcDbMText
 10
35.02123153496908
 20
34.57354675141926
 30
0.0
 40
5.0
 41
0.0
 46
5.205
 71
     1
 72
     1
  1
{アルミ}
  7
ＭＳ ゴシック
 73
     1
 44
0.7828267384257843
1001
ACAD
1000
ACAD_MTEXT_DEFINED_HEIGHT_BEGIN
1070
    46
1040
5.205
1000
ACAD_MTEXT_DEFINED_HEIGHT_END
  0
MTEXT
  5
5E0B
330
A
100
AcDbEntity
  8
テンプレート
390
1D
100
AcDbMText
 10
243.5503247464253
 20
34.57354675141926
 30
0.0
 40
5.0
 41
0.0
 46
5.075
 71
     1
 72
     1
  1
{ステンレス}
  7
ＭＳ ゴシック
 73
     1
 44
0.7828267384257843
1001
ACAD
1000
ACAD_MTEXT_DEFINED_HEIGHT_BEGIN
1070
    46
1040
5.075
1000
ACAD_MTEXT_DEFINED_HEIGHT_END
  0
MTEXT
  5
5E0C
330
A
100
AcDbEntity
  8
テンプレート
390
1D
100
AcDbMText
 10
34.78893721489681
 20
43.13396992254107
 30
0.0
 40
3.0
 41
0.0
 46
4.468
 71
     1
 72
     1
  1
{シャンパンシルバー}
  7
ＭＳ ゴシック
 73
     1
 44
0.7828267384257843
1001
ACAD
1000
ACAD_MTEXT_DEFINED_HEIGHT_BEGIN
1070
    46
1040
4.468
1000
ACAD_MTEXT_DEFINED_HEIGHT_END
  0
MTEXT
  5
5E0D
330
A
100
AcDbEntity
  8
テンプレート
390
1D
100
AcDbMText
 10
34.78893721489681
 20
48.77911613324934
 30
0.0
 40
3.0
 41
0.0
 46
4.224
 71
     1
 72
     1
  1
{ナチュラル}
  7
ＭＳ ゴシック
 73
     1
 44
0.7828267384257843
1001
ACAD
1000
ACAD_MTEXT_DEFINED_HEIGHT_BEGIN
1070
    46
1040
4.224
1000
ACAD_MTEXT_DEFINED_HEIGHT_END
  0
MTEXT
  5
5E0E
330
A
100
AcDbEntity
  8
テンプレート
390
1D
100
AcDbMText
 10
88.87425041605846
 20
43.13396992254107
 30
0.0
 40
3.0
 41
0.0
 46
4.468
 71
     1
 72
     1
  1
{ライトブロンズ}
  7
ＭＳ ゴシック
 73
     1
 44
0.7828267384257843
1001
ACAD
1000
ACAD_MTEXT_DEFINED_HEIGHT_BEGIN
1070
    46
1040
4.468
1000
ACAD_MTEXT_DEFINED_HEIGHT_END
  0
MTEXT
  5
5E0F
330
A
100
AcDbEntity
  8
テンプレート
390
1D
100
AcDbMText
 10
88.87425041605846
 20
48.77911613324933
 30
0.0
 40
3.0
 41
0.0
 46
4.468
 71
     1
 72
     1
  1
{ゴールドブラスト}
  7
ＭＳ ゴシック
 73
     1
 44
0.7828267384257843
1001
ACAD
1000
ACAD_MTEXT_DEFINED_HEIGHT_BEGIN
1070
    46
1040
4.468
1000
ACAD_MTEXT_DEFINED_HEIGHT_END
  0
MTEXT
  5
5E10
330
A
100
AcDbEntity
  8
テンプレート
390
1D
100
AcDbMText
 10
139.8343001147318
 20
43.13396992254113
 30
0.0
 40
3.0
 41
0.0
 46
4.468
 71
     1
 72
     1
  1
{ダークブロンズ}
  7
ＭＳ ゴシック
 73
     1
 44
0.7828267384257843
1001
ACAD
1000
ACAD_MTEXT_DEFINED_HEIGHT_BEGIN
1070
    46
1040
4.468
1000
ACAD_MTEXT_DEFINED_HEIGHT_END
  0
MTEXT
  5
5E11
330
A
100
AcDbEntity
  8
テンプレート
390
1D
100
AcDbMText
 10
139.8343001147318
 20
48.77911613324939
 30
0.0
 40
3.0
 41
0.0
 46
4.468
 71
     1
 72
     1
  1
{ミディアムブロンズ}
  7
ＭＳ ゴシック
 73
     1
 44
0.7828267384257843
1001
ACAD
1000
ACAD_MTEXT_DEFINED_HEIGHT_BEGIN
1070
    46
1040
4.468
1000
ACAD_MTEXT_DEFINED_HEIGHT_END
  0
MTEXT
  5
5E12
330
A
100
AcDbEntity
  8
テンプレート
390
1D
100
AcDbMText
 10
194.0581809025754
 20
48.77911613324942
 30
0.0
 40
3.0
 41
0.0
 46
4.468
 71
     1
 72
     1
  1
{ブラックブラスト}
  7
ＭＳ ゴシック
 73
     1
 44
0.7828267384257843
1001
ACAD
1000
ACAD_MTEXT_DEFINED_HEIGHT_BEGIN
1070
    46
1040
4.468
1000
ACAD_MTEXT_DEFINED_HEIGHT_END
  0
LINE
  5
5E13
330
A
100
AcDbEntity
  8
テンプレート
  6
Continuous
100
AcDbLine
 10
191.6929578215278
 20
50.16496477419608
 30
0.0
 11
191.6929578215278
 21
38.278108904221
 31
0.0
  0
LINE
  5
5E14
330
A
100
AcDbEntity
  8
テンプレート
  6
Continuous
100
AcDbLine
 10
137.2622548266091
 20
50.16496477419606
 30
0.0
 11
137.2622548266091
 21
38.27810890422099
 31
0.0
  0
LINE
  5
5E15
330
A
100
AcDbEntity
  8
テンプレート
  6
Continuous
100
AcDbLine
 10
86.44498978318508
 20
50.16496477419605
 30
0.0
 11
86.44498978318518
 21
38.27810890422097
 31
0.0
  0
LINE
  5
5E16
330
A
100
AcDbEntity
  8
テンプレート
  6
Continuous
100
AcDbLine
 10
331.6893963636363
 20
44.22153683920783
 30
0.0
 11
33.63100153769662
 21
44.22153683920783
 31
0.0
  0
LINE
  5
5E17
330
A
100
AcDbEntity
  8
テンプレート
  6
Continuous
100
AcDbLine
 10
241.5029147091358
 20
50.16496477419611
 30
0.0
 11
241.5029147091358
 21
26.22153683920783
 31
0.0
  0
MTEXT
  5
5E18
330
A
100
AcDbEntity
  8
テンプレート
390
1D
100
AcDbMText
 10
243.8681377901834
 20
48.77911613324945
 30
0.0
 40
3.0
 41
0.0
 46
3.138
 71
     1
 72
     1
  1
{サテン}
  7
ＭＳ ゴシック
 73
     1
 44
0.7828267384257843
1001
ACAD
1000
ACAD_MTEXT_DEFINED_HEIGHT_BEGIN
1070
    46
1040
3.138
1000
ACAD_MTEXT_DEFINED_HEIGHT_END
  0
MTEXT
  5
5E19
330
A
100
AcDbEntity
  8
テンプレート
390
1D
100
AcDbMText
 10
243.8681377901834
 20
42.83568819826117
 30
0.0
 40
3.0
 41
0.0
 46
3.258
 71
     1
 72
     1
  1
{ポリッシュ}
  7
ＭＳ ゴシック
 73
     1
 44
0.7828267384257843
1001
ACAD
1000
ACAD_MTEXT_DEFINED_HEIGHT_BEGIN
1070
    46
1040
3.258
1000
ACAD_MTEXT_DEFINED_HEIGHT_END
  0
MTEXT
  5
5E23
330
A
100
AcDbEntity
  8
テンプレート
390
1D
100
AcDbMText
 10
291.7043991281985
 20
34.57354675141926
 30
0.0
 40
5.0
 41
0.0
 46
5.535
 71
     1
 72
     1
  1
{銅}
  7
ＭＳ ゴシック
 73
     1
 44
0.7828267384257843
1001
ACAD
1000
ACAD_MTEXT_DEFINED_HEIGHT_BEGIN
1070
    46
1040
5.535
1000
ACAD_MTEXT_DEFINED_HEIGHT_END
  0
MTEXT
  5
5E24
330
A
100
AcDbEntity
  8
テンプレート
390
1D
100
AcDbMText
 10
292.0222121719566
 20
48.77911613324945
 30
0.0
 40
3.0
 41
0.0
 46
3.045
 71
     1
 72
     1
  1
{ライトワックス}
  7
ＭＳ ゴシック
 73
     1
 44
0.7828267384257843
1001
ACAD
1000
ACAD_MTEXT_DEFINED_HEIGHT_BEGIN
1070
    46
1040
3.045
1000
ACAD_MTEXT_DEFINED_HEIGHT_END
  0
LINE
  5
5E25
330
A
100
AcDbEntity
  8
テンプレート
  6
Continuous
100
AcDbLine
 10
289.656989090909
 20
50.16496477419611
 30
0.0
 11
289.656989090909
 21
26.22153683920783
 31
0.0
  0
VIEWPORT
  5
349
330
B
100
AcDbEntity
 67
     1
  8
0
100
AcDbViewport
 10
202.5
 20
128.5
 30
0.0
 40
486.0
 41
308.4
 68
     1
 69
     1
 12
202.5
 22
128.5
 13
0.0
 23
0.0
 14
0.5
 24
0.5
 15
0.0
 25
0.0
 16
0.0
 26
0.0
 36
1.0
 17
0.0
 27
0.0
 37
0.0
 42
50.0
 43
0.0
 44
0.0
 45
308.4
 50
0.0
 51
0.0
 72
   100
 90
   557152
  1

281
     0
 71
     1
 74
     0
110
0.0
120
0.0
130
0.0
111
1.0
121
0.0
131
0.0
112
0.0
122
1.0
132
0.0
 79
     0
146
0.0
170
     0
 61
     5
348
26C
292
     1
282
     1
141
0.0
142
0.0
 63
   256
361
44F1
  0
VIEWPORT
  5
34A
330
B
100
AcDbEntity
 67
     1
  8
0
100
AcDbViewport
 10
202.5
 20
128.5
 30
0.0
 40
324.0
 41
205.6
 68
     2
 69
     2
 12
986.6781359294573
 22
1427.077061889956
 13
0.0
 23
0.0
 14
0.5
 24
0.5
 15
0.0
 25
0.0
 16
0.0
 26
0.0
 36
1.0
 17
0.0
 27
0.0
 37
0.0
 42
50.0
 43
0.0
 44
0.0
 45
2890.021615685494
 50
0.0
 51
0.0
 72
   100
 90
   557152
  1

281
     0
 71
     1
 74
     0
110
0.0
120
0.0
130
0.0
111
1.0
121
0.0
131
0.0
112
0.0
122
1.0
132
0.0
 79
     0
146
0.0
170
     0
 61
     5
348
26C
292
     1
282
     1
141
0.0
142
0.0
 63
   256
  0
ENDSEC
  0
SECTION
  2
OBJECTS
  0
DICTIONARY
  5
19
330
0
100
AcDbDictionary
281
     1
  3
ACAD_COLOR
350
674
  3
ACAD_DETAILVIEWSTYLE
350
13B5
  3
ACAD_FIELDLIST
350
5D53
  3
ACAD_GROUP
350
1A
  3
ACAD_IMAGE_VARS
350
27B
  3
ACAD_LAYOUT
350
1E
  3
ACAD_MATERIAL
350
263
  3
ACAD_MLEADERSTYLE
350
336
  3
ACAD_MLINESTYLE
350
1B
  3
ACAD_PLOTSETTINGS
350
22
  3
ACAD_PLOTSTYLENAME
350
1F
  3
ACAD_SCALELIST
350
241
  3
ACAD_SECTIONVIEWSTYLE
350
13B6
  3
ACAD_TABLESTYLE
350
278
  3
ACAD_VISUALSTYLE
350
267
  3
ACDB_RECOMPOSE_DATA
350
5E37
  3
AcDbVariableDictionary
350
330
  3
APPDATA
350
27A
  0
SUN
  5
F1A
330
15
100
AcDbSun
 90
        1
290
     0
 63
     7
421
 16777215
 40
1.0
291
     1
 91
  2455826
 92
 54000000
292
     0
 70
     2
 71
   256
280
     1
  0
DICTIONARY
  5
2E1
330
2
100
AcDbDictionary
280
     1
281
     1
  3
ACAD_LAYERSTATES
360
2E2
  3
ACLYDICTIONARY
360
55D7
  0
DICTIONARY
  5
5D6C
330
A
100
AcDbDictionary
280
     1
281
     1
  3
ACAD_SORTENTS
360
5D6D
  0
DICTIONARY
  5
5475
330
5474
100
AcDbDictionary
280
     1
281
     1
  3
ACAD_DIMASSOC
360
5476
  0
DICTIONARY
  5
5484
330
5483
100
AcDbDictionary
280
     1
281
     1
  3
ACAD_DIMASSOC
360
5485
  0
DICTIONARY
  5
598E
330
598D
100
AcDbDictionary
280
     1
281
     1
  3
ACAD_DIMASSOC
360
598F
  0
DICTIONARY
  5
5991
330
5990
100
AcDbDictionary
280
     1
281
     1
  3
ACAD_DIMASSOC
360
5992
  0
DICTIONARY
  5
5D56
330
5D55
100
AcDbDictionary
280
     1
281
     1
  3
ACAD_FIELD
360
5D57
  0
SUN
  5
44F1
330
349
100
AcDbSun
 90
        1
290
     0
 63
     7
421
 16777215
 40
1.0
291
     1
 91
  2455826
 92
 54000000
292
     0
 70
     2
 71
   256
280
     1
  0
DICTIONARY
  5
674
102
{ACAD_REACTORS
330
19
102
}
330
19
100
AcDbDictionary
281
     1
  0
DICTIONARY
  5
13B5
102
{ACAD_REACTORS
330
19
102
}
330
19
100
AcDbDictionary
281
     1
  0
FIELDLIST
  5
5D53
102
{ACAD_REACTORS
330
19
102
}
330
19
100
AcDbIdSet
 90
        1
330
5D58
100
AcDbFieldList
  0
DICTIONARY
  5
1A
102
{ACAD_REACTORS
330
19
102
}
330
19
100
AcDbDictionary
281
     1
  3
*A1
350
5D6B
  0
RASTERVARIABLES
  5
27B
102
{ACAD_REACTORS
330
19
102
}
330
19
100
AcDbRasterVariables
 90
        0
 70
     1
 71
     1
 72
     1
  0
DICTIONARY
  5
1E
102
{ACAD_REACTORS
330
19
102
}
330
19
100
AcDbDictionary
281
     1
  3
Layout1
350
21
  3
Model
350
20
  0
DICTIONARY
  5
263
102
{ACAD_REACTORS
330
19
102
}
330
19
100
AcDbDictionary
281
     1
  3
ByBlock
350
55DE
  3
ByLayer
350
264
  3
Global
350
266
  0
DICTIONARY
  5
336
102
{ACAD_REACTORS
330
19
102
}
330
19
100
AcDbDictionary
281
     1
  3
Standard
350
5C33
  0
DICTIONARY
  5
1B
102
{ACAD_REACTORS
330
19
102
}
330
19
100
AcDbDictionary
281
     1
  3
Standard
350
1C
  0
DICTIONARY
  5
22
102
{ACAD_REACTORS
330
19
102
}
330
19
100
AcDbDictionary
281
     1
  0
ACDBDICTIONARYWDFLT
  5
1F
102
{ACAD_REACTORS
330
19
102
}
330
19
100
AcDbDictionary
281
     1
  3
Normal
350
1D
100
AcDbDictionaryWithDefault
340
1D
  0
DICTIONARY
  5
241
102
{ACAD_REACTORS
330
19
102
}
330
19
100
AcDbDictionary
281
     1
  3
A0
350
242
  3
A1
350
243
  3
A2
350
244
  3
A3
350
245
  3
A4
350
246
  3
A5
350
247
  3
A6
350
248
  3
A7
350
249
  3
A8
350
24A
  3
A9
350
24B
  3
B0
350
24C
  3
B1
350
24D
  3
B2
350
24E
  3
B3
350
24F
  3
B4
350
250
  3
B5
350
251
  3
B6
350
252
  3
B7
350
253
  3
B8
350
254
  3
B9
350
255
  3
C0
350
256
  3
C1
350
257
  3
C2
350
258
  3
C3
350
259
  3
C4
350
25A
  3
C5
350
25B
  3
C6
350
25C
  3
C7
350
25D
  3
C8
350
25E
  3
C9
350
25F
  3
D0
350
260
  3
D1
350
261
  3
D2
350
262
  0
DICTIONARY
  5
13B6
102
{ACAD_REACTORS
330
19
102
}
330
19
100
AcDbDictionary
281
     1
  0
DICTIONARY
  5
278
102
{ACAD_REACTORS
330
19
102
}
330
19
100
AcDbDictionary
281
     1
  3
Standard
350
279
  0
DICTIONARY
  5
267
102
{ACAD_REACTORS
330
19
102
}
330
19
100
AcDbDictionary
281
     1
  3
2dWireframe
350
26C
  3
3D Hidden
350
26E
  3
3dWireframe
350
26D
  3
Basic
350
26F
  3
Brighten
350
273
  3
ColorChange
350
277
  3
Conceptual
350
271
  3
Dim
350
272
  3
EdgeColorOff
350
F14
  3
Facepattern
350
276
  3
Flat
350
268
  3
FlatWithEdges
350
269
  3
Gouraud
350
26A
  3
GouraudWithEdges
350
26B
  3
Hidden
350
F11
  3
JitterOff
350
F12
  3
Linepattern
350
275
  3
OverhangOff
350
F13
  3
Realistic
350
270
  3
Shaded
350
F19
  3
Shaded with edges
350
F18
  3
Shades of Gray
350
F15
  3
Sketchy
350
F16
  3
Thicken
350
274
  3
Wireframe
350
F10
  3
X-Ray
350
F17
  0
XRECORD
  5
5E37
102
{ACAD_REACTORS
330
19
102
}
330
19
100
AcDbXrecord
280
     1
 90
        1
330
279
  0
DICTIONARY
  5
330
102
{ACAD_REACTORS
330
19
102
}
330
19
100
AcDbDictionary
281
     1
  3
CANNOSCALE
350
331
  3
CMLEADERSTYLE
350
5CB8
  3
CTABLESTYLE
350
335
  3
HPTRANSPARENCY
350
5ADF
  3
XCLIPFRAME
350
13B4
  0
DICTIONARY
  5
27A
102
{ACAD_REACTORS
330
19
102
}
330
19
100
AcDbDictionary
281
     1
  0
DICTIONARY
  5
2E2
102
{ACAD_REACTORS
330
2E1
102
}
330
2E1
100
AcDbDictionary
281
     1
  0
DICTIONARY
  5
55D7
102
{ACAD_REACTORS
330
2E1
102
}
330
2E1
100
AcDbDictionary
281
     1
1001
ACAD
1000
<All
  0
SORTENTSTABLE
  5
5D6D
102
{ACAD_REACTORS
330
5D6C
102
}
330
5D6C
100
AcDbSortentsTable
330
A
331
0
  5
5A52
331
1301
  5
52AB
331
1306
  5
52AC
331
1307
  5
52AD
331
1308
  5
52AE
331
1312
  5
52AF
331
1313
  5
52B0
331
131E
  5
52B1
331
131F
  5
52B2
331
1342
  5
52B3
331
1343
  5
52B4
331
1346
  5
52B5
331
1347
  5
52B6
331
1350
  5
52B7
331
1351
  5
52B8
331
1357
  5
52B9
331
1359
  5
52BA
331
135A
  5
52BB
331
135B
  5
52BC
331
1371
  5
52BD
331
1372
  5
52BE
331
1378
  5
52BF
331
1379
  5
52C0
331
1389
  5
52C1
331
138A
  5
52C2
331
138D
  5
52C3
331
138E
  5
52C4
331
1398
  5
52C5
331
1399
  5
52C6
331
139C
  5
52C7
331
139D
  5
52C8
331
4967
  5
52C9
331
4968
  5
52CA
331
4976
  5
52CB
331
4980
  5
52CC
331
499D
  5
52CD
331
499E
  5
52CE
331
4A6C
  5
52CF
331
4A99
  5
52D0
331
4AD2
  5
52D1
331
4CC1
  5
52D2
331
4ECE
  5
52D3
331
4ECF
  5
52D4
331
4EF1
  5
52D5
331
5214
  5
52D6
331
5215
  5
52D7
331
5216
  5
52D8
331
5217
  5
52D9
331
5218
  5
52DA
331
5219
  5
52DB
331
521A
  5
52DC
331
521B
  5
52DD
331
521C
  5
52DE
331
521D
  5
52DF
331
521E
  5
52E0
331
521F
  5
52E1
331
5220
  5
52E2
331
5221
  5
52E3
331
5222
  5
52E4
331
5223
  5
52E5
331
5224
  5
52E6
331
5225
  5
52E7
331
5226
  5
52E8
331
5227
  5
52E9
331
5228
  5
52EA
331
5229
  5
52EB
331
522A
  5
52EC
331
522B
  5
52ED
331
522C
  5
52EE
331
522D
  5
52EF
331
522E
  5
52F0
331
522F
  5
52F1
331
5230
  5
52F2
331
5231
  5
52F3
331
5232
  5
52F4
331
5233
  5
52F5
331
5234
  5
52F6
331
5235
  5
52F7
331
5236
  5
52F8
331
5237
  5
52F9
331
5238
  5
52FA
331
5239
  5
52FB
331
523A
  5
52FC
331
523B
  5
52FD
331
523C
  5
52FE
331
523D
  5
52FF
331
523E
  5
5300
331
523F
  5
5301
331
5240
  5
5302
331
5241
  5
5303
331
5242
  5
5304
331
5243
  5
5305
331
5244
  5
5306
331
5245
  5
5307
331
5246
  5
5308
331
5247
  5
5309
331
5248
  5
530A
331
5249
  5
530B
331
524A
  5
530C
331
524B
  5
530D
331
524C
  5
530E
331
524D
  5
530F
331
524E
  5
5310
331
524F
  5
5311
331
5250
  5
5312
331
5251
  5
5313
331
5252
  5
5314
331
5253
  5
5315
331
5254
  5
5316
331
5255
  5
5317
331
5256
  5
5318
331
5257
  5
5319
331
5258
  5
531A
331
5259
  5
531B
331
525A
  5
531C
331
525B
  5
531D
331
525C
  5
531E
331
525D
  5
531F
331
525E
  5
5320
331
525F
  5
5321
331
5260
  5
5322
331
5261
  5
5323
331
5262
  5
5324
331
5263
  5
5325
331
5264
  5
5326
331
5265
  5
5327
331
5266
  5
5328
331
5267
  5
5329
331
5268
  5
532A
331
5269
  5
532B
331
526A
  5
532C
331
526B
  5
532D
331
526C
  5
532E
331
526D
  5
532F
331
526E
  5
5330
331
526F
  5
5331
331
5270
  5
5332
331
5271
  5
5333
331
5272
  5
5334
331
5273
  5
5335
331
5274
  5
5336
331
5275
  5
5337
331
5276
  5
5338
331
5277
  5
5339
331
5278
  5
533A
331
5279
  5
533B
331
527A
  5
533C
331
527B
  5
533D
331
527C
  5
533E
331
527D
  5
533F
331
527E
  5
5340
331
527F
  5
5341
331
5280
  5
5342
331
5281
  5
5343
331
5282
  5
5344
331
5283
  5
5345
331
5284
  5
5346
331
5285
  5
5347
331
5286
  5
5348
331
5287
  5
5349
331
5288
  5
534A
331
5289
  5
534B
331
528A
  5
534C
331
528B
  5
534D
331
528C
  5
534E
331
528D
  5
534F
331
528E
  5
5350
331
528F
  5
5351
331
5290
  5
5352
331
5291
  5
5353
331
5292
  5
5354
331
5293
  5
5355
331
5294
  5
5356
331
5295
  5
5357
331
5296
  5
5358
331
5297
  5
5359
331
5298
  5
535A
331
5299
  5
535B
331
529A
  5
535C
331
529B
  5
535D
331
529C
  5
535E
331
529D
  5
535F
331
529E
  5
5360
331
529F
  5
5361
331
52A0
  5
5362
331
52A1
  5
5363
331
52A2
  5
5364
331
52A3
  5
5365
331
52A4
  5
5366
331
52A5
  5
5367
331
52A6
  5
5368
331
52A7
  5
5369
331
52A8
  5
536A
331
52A9
  5
536B
331
52AA
  5
536C
331
52AB
  5
536D
331
52AC
  5
536E
331
52AD
  5
536F
331
52AE
  5
5370
331
52AF
  5
5371
331
52B0
  5
5372
331
52B1
  5
5373
331
52B2
  5
5374
331
52B3
  5
5375
331
52B4
  5
5376
331
52B5
  5
5377
331
52B6
  5
5378
331
52B7
  5
5379
331
52B8
  5
537A
331
52B9
  5
537B
331
52BA
  5
537C
331
52BB
  5
537D
331
52BC
  5
537E
331
52BD
  5
537F
331
52BE
  5
5380
331
52BF
  5
5381
331
52C0
  5
5382
331
52C1
  5
5383
331
52C2
  5
5384
331
52C3
  5
5385
331
52C4
  5
5386
331
52C5
  5
5387
331
52C6
  5
5388
331
52C7
  5
5389
331
52C8
  5
538A
331
52C9
  5
538B
331
52CA
  5
538C
331
52CB
  5
538D
331
52CC
  5
538E
331
52CD
  5
538F
331
52CE
  5
5390
331
52CF
  5
5391
331
52D0
  5
5392
331
52D1
  5
5393
331
52D2
  5
5394
331
52D3
  5
5395
331
52D4
  5
5396
331
52D5
  5
5397
331
52D6
  5
5398
331
52D7
  5
5399
331
52D8
  5
539A
331
52D9
  5
539B
331
52DA
  5
539C
331
52DB
  5
539D
331
52DC
  5
539E
331
52DD
  5
539F
331
52DE
  5
53A0
331
52DF
  5
53A1
331
52E0
  5
53A2
331
52E1
  5
53A3
331
52E2
  5
53A4
331
52E3
  5
53A5
331
52E4
  5
53A6
331
52E5
  5
53A7
331
52E6
  5
53A8
331
52E7
  5
53A9
331
52E8
  5
53AA
331
52E9
  5
53AB
331
52EA
  5
53AC
331
52EB
  5
53AD
331
52EC
  5
53AE
331
52ED
  5
53AF
331
52EE
  5
53B0
331
52EF
  5
53B1
331
52F0
  5
53B2
331
52F1
  5
53B3
331
52F2
  5
53B4
331
52F3
  5
53B5
331
52F4
  5
53B6
331
52F5
  5
53B7
331
52F6
  5
53B8
331
52F7
  5
53B9
331
52F8
  5
53BA
331
52F9
  5
53BB
331
52FA
  5
53BC
331
52FB
  5
53BD
331
52FC
  5
53BE
331
52FD
  5
53BF
331
52FE
  5
53C0
331
52FF
  5
53C1
331
5300
  5
53C2
331
5301
  5
53C3
331
5302
  5
53C4
331
5303
  5
53C5
331
5304
  5
53C6
331
5305
  5
53C7
331
5306
  5
53C8
331
5307
  5
53C9
331
5308
  5
53CA
331
5309
  5
53CB
331
530A
  5
53CC
331
530B
  5
53CD
331
530C
  5
53CE
331
530D
  5
53CF
331
530E
  5
53D0
331
530F
  5
53D1
331
5310
  5
53D2
331
5311
  5
53D3
331
5312
  5
53D4
331
5313
  5
53D5
331
5314
  5
53D6
331
5315
  5
53D7
331
5316
  5
53D8
331
5317
  5
53D9
331
5318
  5
53DA
331
5319
  5
53DB
331
531A
  5
53DC
331
531B
  5
53DD
331
531C
  5
53DE
331
531D
  5
53DF
331
531E
  5
53E0
331
531F
  5
53E1
331
5320
  5
53E2
331
5321
  5
53E3
331
5322
  5
53E4
331
5323
  5
53E5
331
5324
  5
53E6
331
5325
  5
53E7
331
5326
  5
53E8
331
5327
  5
53E9
331
5328
  5
53EA
331
5329
  5
53EB
331
532A
  5
53EC
331
532B
  5
53ED
331
532C
  5
53EE
331
532D
  5
53EF
331
532E
  5
53F0
331
532F
  5
53F1
331
5330
  5
53F2
331
5331
  5
53F3
331
5332
  5
53F4
331
5333
  5
53F5
331
5334
  5
53F6
331
5335
  5
53F7
331
5336
  5
53F8
331
5337
  5
53F9
331
5338
  5
53FA
331
5339
  5
53FB
331
533A
  5
53FC
331
533B
  5
53FD
331
533C
  5
53FE
331
533D
  5
53FF
331
533E
  5
5400
331
533F
  5
5401
331
5340
  5
5402
331
5341
  5
5403
331
5342
  5
5404
331
5343
  5
5405
331
5344
  5
5406
331
5345
  5
5407
331
5346
  5
5408
331
5347
  5
5409
331
5348
  5
540A
331
5349
  5
540B
331
534A
  5
540C
331
534B
  5
540D
331
534C
  5
540E
331
534D
  5
540F
331
534E
  5
5410
331
534F
  5
5411
331
5350
  5
5412
331
5351
  5
5413
331
5352
  5
5414
331
5353
  5
5415
331
5354
  5
5416
331
5355
  5
5417
331
5356
  5
5418
331
5357
  5
5419
331
5358
  5
541A
331
5359
  5
541B
331
535A
  5
541C
331
535B
  5
541D
331
535C
  5
541E
331
535D
  5
541F
331
535E
  5
5420
331
535F
  5
5421
331
5360
  5
5422
331
5361
  5
5423
331
5362
  5
5424
331
5363
  5
5425
331
5364
  5
5426
331
5365
  5
5427
331
5366
  5
5428
331
5367
  5
5429
331
5368
  5
542A
331
5369
  5
542B
331
536A
  5
542C
331
536B
  5
542D
331
536C
  5
542E
331
536D
  5
542F
331
536E
  5
5430
331
536F
  5
5431
331
5370
  5
5432
331
5371
  5
5433
331
5372
  5
5434
331
5373
  5
5435
331
5374
  5
5436
331
5375
  5
5437
331
5376
  5
5438
331
5377
  5
5439
331
5378
  5
543A
331
5379
  5
543B
331
537A
  5
543C
331
537B
  5
543D
331
537C
  5
543E
331
537D
  5
543F
331
537E
  5
5440
331
537F
  5
5441
331
5380
  5
5442
331
5381
  5
5443
331
5382
  5
5444
331
5383
  5
5445
331
5384
  5
5446
331
5385
  5
5447
331
5386
  5
5448
331
5387
  5
5449
331
5388
  5
544A
331
5389
  5
544B
331
538A
  5
544C
331
538B
  5
544D
331
538C
  5
544E
331
538D
  5
544F
331
538E
  5
5450
331
538F
  5
5451
331
5390
  5
5452
331
5391
  5
5453
331
5392
  5
5454
331
5393
  5
5455
331
5394
  5
5456
331
5395
  5
5457
331
5396
  5
5458
331
5397
  5
5459
331
5398
  5
545A
331
5399
  5
545B
331
539A
  5
545C
331
539B
  5
545D
331
539C
  5
545E
331
539D
  5
545F
331
539E
  5
5460
331
539F
  5
5461
331
53A0
  5
5462
331
53A1
  5
5463
331
53A2
  5
5464
331
53A3
  5
5465
331
53A4
  5
5466
331
53A5
  5
5467
331
53A6
  5
5468
331
53A7
  5
5469
331
53A8
  5
546A
331
53A9
  5
546B
331
53AA
  5
546C
331
53AB
  5
546D
331
53AC
  5
546E
331
53AD
  5
546F
331
53AE
  5
5470
331
53AF
  5
5471
331
53B0
  5
5472
331
53B1
  5
5473
331
53B2
  5
5474
331
53B3
  5
5483
331
53B4
  5
5863
331
53B5
  5
5864
331
53B6
  5
5865
331
53B7
  5
5866
331
53B8
  5
5867
331
53B9
  5
5868
331
53BA
  5
5869
331
53BB
  5
586A
331
53BC
  5
586B
331
53BD
  5
586C
331
53BE
  5
586D
331
53BF
  5
586E
331
53C0
  5
586F
331
53C1
  5
5870
331
53C2
  5
5871
331
53C3
  5
5872
331
53C4
  5
5873
331
53C5
  5
5874
331
53C6
  5
5875
331
53C7
  5
5876
331
53C8
  5
5877
331
53C9
  5
5878
331
53CA
  5
5879
331
53CB
  5
587A
331
53CC
  5
587B
331
53CD
  5
587C
331
53CE
  5
587D
331
53CF
  5
587E
331
53D0
  5
587F
331
53D1
  5
5880
331
53D2
  5
5881
331
53D3
  5
5882
331
53D4
  5
5883
331
53D5
  5
5884
331
53D6
  5
5885
331
53D7
  5
5886
331
53D8
  5
5887
331
53D9
  5
5888
331
53DA
  5
58EA
331
53DB
  5
58EB
331
53DC
  5
58EC
331
53DD
  5
58ED
331
53DE
  5
58EE
331
53DF
  5
58EF
331
53E0
  5
5904
331
53E1
  5
5905
331
53E2
  5
5906
331
53E3
  5
5907
331
53E4
  5
5908
331
53E5
  5
5909
331
53E6
  5
5988
331
53E7
  5
5989
331
53E8
  5
598A
331
53E9
  5
598C
331
53EA
  5
598D
331
53EB
  5
5990
331
53EC
  5
5993
331
53ED
  5
5994
331
53EE
  5
5995
331
53EF
  5
5996
331
53F0
  5
5999
331
53F1
  5
59B8
331
53F2
  5
59B9
331
53F3
  5
59BB
331
53F4
  5
59BC
331
53F5
  5
59BD
331
53F6
  5
59BE
331
53F7
  5
59BF
331
53F8
  5
59C0
331
53F9
  5
59C1
331
53FA
  5
59C2
331
53FB
  5
59C3
331
53FC
  5
59C4
331
53FD
  5
59C5
331
53FE
  5
59C6
331
53FF
  5
59C7
331
5400
  5
59C8
331
5401
  5
59C9
331
5402
  5
59CA
331
5403
  5
59CB
331
5404
  5
59CC
331
5405
  5
59CD
331
5406
  5
59CE
331
5407
  5
59CF
331
5408
  5
59D0
331
5409
  5
59D1
331
540A
  5
59D2
331
540B
  5
59D3
331
540C
  5
59D4
331
540D
  5
59D5
331
540E
  5
59D6
331
540F
  5
59D7
331
5410
  5
59D8
331
5411
  5
59D9
331
5412
  5
59DA
331
5413
  5
59DB
331
5414
  5
59DC
331
5415
  5
59DD
331
5416
  5
59DE
331
5417
  5
59DF
331
5418
  5
59E0
331
5419
  5
59E1
331
541A
  5
59E2
331
541B
  5
59E3
331
541C
  5
59E4
331
541D
  5
59E5
331
541E
  5
59E6
331
541F
  5
59E7
331
5420
  5
59E8
331
5421
  5
59E9
331
5422
  5
59EA
331
5423
  5
59EB
331
5424
  5
59EC
331
5425
  5
59ED
331
5426
  5
59EE
331
5427
  5
59EF
331
5428
  5
59F0
331
5429
  5
59F1
331
542A
  5
59F2
331
542B
  5
59F3
331
542C
  5
59F4
331
542D
  5
59F5
331
542E
  5
59F6
331
542F
  5
59F7
331
5430
  5
59F8
331
5431
  5
59F9
331
5432
  5
59FA
331
5433
  5
59FB
331
5434
  5
59FC
331
5435
  5
59FD
331
5436
  5
59FE
331
5437
  5
59FF
331
5438
  5
5A00
331
5439
  5
5A01
331
543A
  5
5A02
331
543B
  5
5A03
331
543C
  5
5A04
331
543D
  5
5A05
331
543E
  5
5A06
331
543F
  5
5A07
331
5440
  5
5A08
331
5441
  5
5A09
331
5442
  5
5A0A
331
5443
  5
5A0B
331
5444
  5
5A0C
331
5445
  5
5A0D
331
5446
  5
5A0E
331
5447
  5
5A0F
331
5448
  5
5A10
331
5449
  5
5A11
331
544A
  5
5A12
331
544B
  5
5A13
331
544C
  5
5A14
331
544D
  5
5A15
331
544E
  5
5A16
331
544F
  5
5A17
331
5450
  5
5A18
331
5451
  5
5A19
331
5452
  5
5A1A
331
5453
  5
5A1B
331
5454
  5
5A1C
331
5455
  5
5A1D
331
5456
  5
5A1E
331
5457
  5
5A1F
331
5458
  5
5A20
331
5459
  5
5A21
331
545A
  5
5A22
331
545B
  5
5A23
331
545C
  5
5A24
331
545D
  5
5A25
331
545E
  5
5A26
331
545F
  5
5A27
331
5460
  5
5A28
331
5461
  5
5A29
331
5462
  5
5A2A
331
5463
  5
5A2B
331
5464
  5
5A2C
331
5465
  5
5A2D
331
5466
  5
5A2E
331
5467
  5
5A2F
331
5468
  5
5A30
331
5469
  5
5A31
331
546A
  5
5A32
331
546B
  5
5A33
331
546C
  5
5A34
331
546D
  5
5A35
331
546E
  5
5A36
331
546F
  5
5A37
331
5470
  5
5A38
331
5471
  5
5A39
331
5472
  5
5A3A
331
5473
  5
5A3B
331
5474
  5
5A3C
331
5483
  5
5A3D
331
5863
  5
5A3E
331
5864
  5
5A3F
331
5865
  5
5A40
331
5866
  5
5A41
331
5867
  5
5A42
331
5868
  5
5A43
331
5869
  5
5A44
331
586A
  5
5A45
331
586B
  5
5A46
331
586C
  5
5A47
331
586D
  5
5A48
331
586E
  5
5A49
331
586F
  5
5A4A
331
5870
  5
5A4B
331
5871
  5
5A4C
331
5872
  5
5A4D
331
5873
  5
5A4E
331
5874
  5
5A4F
331
5875
  5
5A50
331
5876
  5
5A51
331
5878
  5
5A53
331
5879
  5
5A54
331
587A
  5
5A55
331
587B
  5
5A56
331
587C
  5
5A57
331
587D
  5
5A58
331
587E
  5
5A59
331
587F
  5
5A5A
331
5880
  5
5A5B
331
5881
  5
5A5C
331
5882
  5
5A5D
331
5883
  5
5A5E
331
5884
  5
5A5F
331
5885
  5
5A60
331
5886
  5
5A61
331
5887
  5
5A62
331
5888
  5
5A63
331
58EA
  5
5A64
331
58EB
  5
5A65
331
58EC
  5
5A66
331
58ED
  5
5A67
331
58EE
  5
5A68
331
58EF
  5
5A69
331
5904
  5
5A6A
331
5905
  5
5A6B
331
5906
  5
5A6C
331
5907
  5
5A6D
331
5908
  5
5A6E
331
5909
  5
5A6F
331
5988
  5
5A70
331
5989
  5
5A71
331
598A
  5
5A72
331
598C
  5
5A73
331
598D
  5
5A74
331
5990
  5
5A75
331
5993
  5
5A76
331
5994
  5
5A77
331
5995
  5
5A78
331
5996
  5
5A79
331
5999
  5
5A7A
331
59B8
  5
1301
331
59B9
  5
1306
331
59BB
  5
1307
331
59BC
  5
1308
331
59BD
  5
1312
331
59BE
  5
1313
331
59BF
  5
131E
331
59C0
  5
131F
331
59C1
  5
1342
331
59C2
  5
1343
331
59C3
  5
1346
331
59C4
  5
1347
331
59C5
  5
1350
331
59C6
  5
1351
331
59C7
  5
1357
331
59C8
  5
1359
331
59C9
  5
135A
331
59CA
  5
135B
331
59CB
  5
1371
331
59CC
  5
1372
331
59CD
  5
1378
331
59CE
  5
1379
331
59CF
  5
1389
331
59D0
  5
138A
331
59D1
  5
138D
331
59D2
  5
138E
331
59D3
  5
1398
331
59D4
  5
1399
331
59D5
  5
139C
331
59D6
  5
139D
331
59D7
  5
4967
331
59D8
  5
4968
331
59D9
  5
4976
331
59DA
  5
4980
331
59DB
  5
499D
331
59DC
  5
499E
331
59DD
  5
4A6C
331
59DE
  5
4A99
331
59DF
  5
4AD2
331
59E0
  5
4CC1
331
59E1
  5
4ECE
331
59E2
  5
4ECF
331
59E3
  5
4EF1
331
59E4
  5
5214
331
59E5
  5
5215
331
59E6
  5
5216
331
59E7
  5
5217
331
59E8
  5
5218
331
59E9
  5
5219
331
59EA
  5
521A
331
59EB
  5
521B
331
59EC
  5
521C
331
59ED
  5
521D
331
59EE
  5
521E
331
59EF
  5
521F
331
59F0
  5
5220
331
59F1
  5
5221
331
59F2
  5
5222
331
59F3
  5
5223
331
59F4
  5
5224
331
59F5
  5
5225
331
59F6
  5
5226
331
59F7
  5
5227
331
59F8
  5
5228
331
59F9
  5
5229
331
59FA
  5
522A
331
59FB
  5
522B
331
59FC
  5
522C
331
59FD
  5
522D
331
59FE
  5
522E
331
59FF
  5
522F
331
5A00
  5
5230
331
5A01
  5
5231
331
5A02
  5
5232
331
5A03
  5
5233
331
5A04
  5
5234
331
5A05
  5
5235
331
5A06
  5
5236
331
5A07
  5
5237
331
5A08
  5
5238
331
5A09
  5
5239
331
5A0A
  5
523A
331
5A0B
  5
523B
331
5A0C
  5
523C
331
5A0D
  5
523D
331
5A0E
  5
523E
331
5A0F
  5
523F
331
5A10
  5
5240
331
5A11
  5
5241
331
5A12
  5
5242
331
5A13
  5
5243
331
5A14
  5
5244
331
5A15
  5
5245
331
5A16
  5
5246
331
5A17
  5
5247
331
5A18
  5
5248
331
5A19
  5
5249
331
5A1A
  5
524A
331
5A1B
  5
524B
331
5A1C
  5
524C
331
5A1D
  5
524D
331
5A1E
  5
524E
331
5A1F
  5
524F
331
5A20
  5
5250
331
5A21
  5
5251
331
5A22
  5
5252
331
5A23
  5
5253
331
5A24
  5
5254
331
5A25
  5
5255
331
5A26
  5
5256
331
5A27
  5
5257
331
5A28
  5
5258
331
5A29
  5
5259
331
5A2A
  5
525A
331
5A2B
  5
525B
331
5A2C
  5
525C
331
5A2D
  5
525D
331
5A2E
  5
525E
331
5A2F
  5
525F
331
5A30
  5
5260
331
5A31
  5
5261
331
5A32
  5
5262
331
5A33
  5
5263
331
5A34
  5
5264
331
5A35
  5
5265
331
5A36
  5
5266
331
5A37
  5
5267
331
5A38
  5
5268
331
5A39
  5
5269
331
5A3A
  5
526A
331
5A3B
  5
526B
331
5A3C
  5
526C
331
5A3D
  5
526D
331
5A3E
  5
526E
331
5A3F
  5
526F
331
5A40
  5
5270
331
5A41
  5
5271
331
5A42
  5
5272
331
5A43
  5
5273
331
5A44
  5
5274
331
5A45
  5
5275
331
5A46
  5
5276
331
5A47
  5
5277
331
5A48
  5
5278
331
5A49
  5
5279
331
5A4A
  5
527A
331
5A4B
  5
527B
331
5A4C
  5
527C
331
5A4D
  5
527D
331
5A4E
  5
527E
331
5A4F
  5
527F
331
5A50
  5
5280
331
5A51
  5
5281
331
5A52
  5
5282
331
5A53
  5
5283
331
5A54
  5
5284
331
5A55
  5
5285
331
5A56
  5
5286
331
5A57
  5
5287
331
5A58
  5
5288
331
5A59
  5
5289
331
5A5A
  5
528A
331
5A5B
  5
528B
331
5A5C
  5
528C
331
5A5D
  5
528D
331
5A5E
  5
528E
331
5A5F
  5
528F
331
5A60
  5
5290
331
5A61
  5
5291
331
5A62
  5
5292
331
5A63
  5
5293
331
5A64
  5
5294
331
5A65
  5
5295
331
5A66
  5
5296
331
5A67
  5
5297
331
5A68
  5
5298
331
5A69
  5
5299
331
5A6A
  5
529A
331
5A6B
  5
529B
331
5A6C
  5
529C
331
5A6D
  5
529D
331
5A6E
  5
529E
331
5A6F
  5
529F
331
5A70
  5
52A0
331
5A71
  5
52A1
331
5A72
  5
52A2
331
5A73
  5
52A3
331
5A74
  5
52A4
331
5A75
  5
52A5
331
5A76
  5
52A6
331
5A77
  5
52A7
331
5A78
  5
52A8
331
5A79
  5
52A9
331
5A7A
  5
52AA
  0
DIMASSOC
  5
5476
102
{ACAD_REACTORS
330
5475
102
}
330
5475
100
AcDbDimAssoc
330
5474
 90
        3
 70
     0
 71
     1
  1
AcDbOsnapPointRef
 72
     1
331
537B
 73
     0
 91
        0
 40
0.0
 10
0.0
 20
0.0
 30
0.0
 75
     0
  1
AcDbOsnapPointRef
 72
    13
331
537A
 73
     0
 91
        0
 40
0.0
 10
0.0
 20
0.0
 30
0.0
 75
     0
  0
DIMASSOC
  5
5485
102
{ACAD_REACTORS
330
5484
102
}
330
5484
100
AcDbDimAssoc
330
5483
 90
        3
 70
     0
 71
     1
  1
AcDbOsnapPointRef
 72
    13
331
5379
 73
     0
 91
        0
 40
0.0
 10
0.0
 20
0.0
 30
0.0
 75
     0
  1
AcDbOsnapPointRef
 72
     2
331
533D
 73
     0
 91
        0
 40
0.5000000000000003
 10
0.0
 20
0.0
 30
0.0
 75
     0
  0
DIMASSOC
  5
598F
102
{ACAD_REACTORS
330
598E
102
}
330
598E
100
AcDbDimAssoc
330
598D
 90
        1
 70
     0
 71
     1
  1
AcDbOsnapPointRef
 72
     5
331
5906
 73
     0
 91
        0
 40
1.570796326794897
 10
0.0
 20
0.0
 30
0.0
 75
     0
  0
DIMASSOC
  5
5992
102
{ACAD_REACTORS
330
5991
102
}
330
5991
100
AcDbDimAssoc
330
5990
 90
        1
 70
     0
 71
     1
  1
AcDbOsnapPointRef
 72
     3
331
5906
 73
     0
 91
        0
 40
0.0
 10
0.0
 20
0.0
 30
0.0
 75
     0
  0
DICTIONARY
  5
5D57
102
{ACAD_REACTORS
330
5D56
102
}
330
5D56
100
AcDbDictionary
280
     1
281
     1
  3
TEXT
360
5D58
  0
GROUP
  5
5D6B
102
{ACAD_REACTORS
330
1A
102
}
330
1A
100
AcDbGroup
300

 70
     1
 71
     1
340
59B8
340
59B9
340
59BB
340
59BC
340
59BD
340
59BE
340
59BF
340
59C0
340
59C1
340
59C2
340
59C3
340
59C4
340
59C5
340
59C6
340
59C7
340
59C8
340
59C9
340
59CA
340
59CB
340
59CC
340
59CD
340
59CE
340
59CF
340
59D0
340
59D1
340
59D2
340
59D3
340
59D4
340
59D5
340
59D6
340
59D7
340
59D8
340
59D9
340
59DA
340
59DB
340
59DC
340
59DD
340
59DE
340
59DF
340
59E0
340
59E1
340
59E2
340
59E3
340
59E4
340
59E5
340
59E6
340
59E7
340
59E8
340
59E9
340
59EA
340
59EB
340
59EC
340
59ED
340
59EE
340
59EF
340
59F0
340
59F1
340
59F2
340
59F3
340
59F4
340
59F5
340
59F6
340
59F7
340
59F8
340
59F9
340
59FA
340
59FB
340
59FC
340
59FD
340
59FE
340
59FF
340
5A00
340
5A01
340
5A02
340
5A03
340
5A04
340
5A05
340
5A06
340
5A07
340
5A08
340
5A09
340
5A0A
340
5A0B
340
5A0C
340
5A0D
340
5A0E
340
5A0F
340
5A10
340
5A11
340
5A12
340
5A13
340
5A14
340
5A15
340
5A16
340
5A17
340
5A18
340
5A19
340
5A1A
340
5A1B
340
5A1C
340
5A1D
340
5A1E
340
5A1F
340
5A20
340
5A21
340
5A22
340
5A23
340
5A24
340
5A25
340
5A26
340
5A27
340
5A28
340
5A29
340
5A2A
340
5A2B
340
5A2C
340
5A2D
340
5A2E
340
5A2F
340
5A30
340
5A31
340
5A32
340
5A33
340
5A34
340
5A35
340
5A36
340
5A37
340
5A38
340
5A39
340
5A3A
340
5A3B
340
5A3C
340
5A3D
340
5A3E
340
5A3F
340
5A40
340
5A41
340
5A42
340
5A43
340
5A44
340
5A45
340
5A46
340
5A47
340
5A48
340
5A49
340
5A4A
340
5A4B
340
5A4C
340
5A4D
340
5A4E
340
5A4F
340
5A50
340
5A51
340
5A52
340
5A53
340
5A54
340
5A55
340
5A56
340
5A57
340
5A58
340
5A59
340
5A5A
340
5A5B
340
5A5C
340
5A5D
340
5A5E
340
5A5F
340
5A60
340
5A61
340
5A62
340
5A63
340
5A64
340
5A65
340
5A66
340
5A67
340
5A68
340
5A69
340
5A6A
340
5A6B
340
5A6C
340
5A6D
340
5A6E
340
5A6F
340
5A71
340
5A72
340
5A73
340
5A74
340
5A75
340
5A76
340
5A77
340
5A78
340
5A79
340
5A7A
340
5A70
  0
LAYOUT
  5
21
102
{ACAD_REACTORS
330
1E
102
}
330
1E
100
AcDbPlotSettings
  1

  2
none_device
  4
ISO_A3_(420.00_x_297.00_MM)
  6

 40
7.5
 41
20.0
 42
7.5
 43
20.0
 44
420.0
 45
297.0
 46
0.0
 47
0.0
 48
0.0
 49
0.0
140
0.0
141
0.0
142
1.0
143
1.0
 70
     0
 72
     1
 73
     0
 74
     0
  7

 75
     0
 76
     0
 77
     2
 78
   300
147
1.0
148
0.0
149
0.0
100
AcDbLayout
  1
Layout1
 70
     1
 71
     0
 10
-7.5
 20
-20.0
 11
412.5
 21
277.0
 12
0.0
 22
0.0
 32
0.0
 14
0.0
 24
0.0
 34
0.0
 15
0.0
 25
0.0
 35
0.0
146
0.0
 13
0.0
 23
0.0
 33
0.0
 16
0.0
 26
0.0
 36
0.0
 17
0.0
 27
0.0
 37
0.0
 76
     0
330
B
331
349
  0
LAYOUT
  5
20
102
{ACAD_REACTORS
330
1E
102
}
330
1E
100
AcDbPlotSettings
  1

  2
none_device
  4
ISO_A3_(420.00_x_297.00_MM)
  6

 40
7.5
 41
20.0
 42
7.5
 43
20.0
 44
420.0
 45
297.0
 46
0.0
 47
0.0
 48
0.0
 49
0.0
140
0.0
141
0.0
142
1.0
143
1.0
 70
  1024
 72
     1
 73
     0
 74
     0
  7

 75
     0
 76
     0
 77
     2
 78
   300
147
1.0
148
0.0
149
0.0
100
AcDbLayout
  1
Model
 70
     0
 71
     1
 10
0.0
 20
0.0
 11
594.0
 21
419.9999999999996
 12
0.0
 22
0.0
 32
0.0
 14
0.0
 24
0.0
 34
0.0
 15
593.9999999999999
 25
420.0
 35
0.0
146
0.0
 13
0.0
 23
0.0
 33
0.0
 16
0.0
 26
0.0
 36
0.0
 17
0.0
 27
0.0
 37
0.0
 76
     0
330
A
331
15
  0
MATERIAL
  5
55DE
102
{ACAD_REACTORS
330
263
102
}
330
263
100
AcDbMaterial
  1
ByBlock
 72
     1
 94
      127
  0
MATERIAL
  5
264
102
{ACAD_REACTORS
330
263
102
}
330
263
100
AcDbMaterial
  1
ByLayer
 72
     1
 94
      127
  0
MATERIAL
  5
266
102
{ACAD_REACTORS
330
263
102
}
330
263
100
AcDbMaterial
  1
Global
 72
     1
 94
      127
  0
MLEADERSTYLE
  5
5C33
102
{ACAD_REACTORS
330
336
102
}
330
336
100
AcDbMLeaderStyle
170
     2
171
     1
172
     0
 90
        2
 40
0.0
 41
0.0
173
     1
 91
-1056964608
340
11
 92
       -2
290
     1
 42
2.0
291
     1
 43
8.0
  3
Standard
341
0
 44
4.0
300

342
17
174
     1
178
     6
175
     1
176
     0
 93
-1056964608
 45
4.0
292
     0
297
     0
 46
4.0
343
0
 94
-1056964608
 47
1.0
 49
1.0
140
1.0
293
     1
141
0.0
294
     1
177
     0
142
1.0
295
     0
296
     0
143
3.75
1001
ACAD_MLEADERVER
1070
     2
  0
MLINESTYLE
  5
1C
102
{ACAD_REACTORS
330
1B
102
}
330
1B
100
AcDbMlineStyle
  2
Standard
 70
     0
  3

 62
     0
 51
90.0
 52
90.0
 71
     2
 49
0.5
 62
   256
  6
BYLAYER
 49
-0.5
 62
   256
  6
BYLAYER
  0
ACDBPLACEHOLDER
  5
1D
102
{ACAD_REACTORS
330
1F
102
}
330
1F
  0
SCALE
  5
242
102
{ACAD_REACTORS
330
241
102
}
330
241
100
AcDbScale
 70
     0
300
1:1
140
1.0
141
1.0
290
     1
  0
SCALE
  5
243
102
{ACAD_REACTORS
330
241
102
}
330
241
100
AcDbScale
 70
     0
300
1:2
140
1.0
141
2.0
290
     0
  0
SCALE
  5
244
102
{ACAD_REACTORS
330
241
102
}
330
241
100
AcDbScale
 70
     0
300
1:4
140
1.0
141
4.0
290
     0
  0
SCALE
  5
245
102
{ACAD_REACTORS
330
241
102
}
330
241
100
AcDbScale
 70
     0
300
1:5
140
1.0
141
5.0
290
     0
  0
SCALE
  5
246
102
{ACAD_REACTORS
330
241
102
}
330
241
100
AcDbScale
 70
     0
300
1:8
140
1.0
141
8.0
290
     0
  0
SCALE
  5
247
102
{ACAD_REACTORS
330
241
102
}
330
241
100
AcDbScale
 70
     0
300
1:10
140
1.0
141
10.0
290
     0
  0
SCALE
  5
248
102
{ACAD_REACTORS
330
241
102
}
330
241
100
AcDbScale
 70
     0
300
1:16
140
1.0
141
16.0
290
     0
  0
SCALE
  5
249
102
{ACAD_REACTORS
330
241
102
}
330
241
100
AcDbScale
 70
     0
300
1:20
140
1.0
141
20.0
290
     0
  0
SCALE
  5
24A
102
{ACAD_REACTORS
330
241
102
}
330
241
100
AcDbScale
 70
     0
300
1:30
140
1.0
141
30.0
290
     0
  0
SCALE
  5
24B
102
{ACAD_REACTORS
330
241
102
}
330
241
100
AcDbScale
 70
     0
300
1:40
140
1.0
141
40.0
290
     0
  0
SCALE
  5
24C
102
{ACAD_REACTORS
330
241
102
}
330
241
100
AcDbScale
 70
     0
300
1:50
140
1.0
141
50.0
290
     0
  0
SCALE
  5
24D
102
{ACAD_REACTORS
330
241
102
}
330
241
100
AcDbScale
 70
     0
300
1:100
140
1.0
141
100.0
290
     0
  0
SCALE
  5
24E
102
{ACAD_REACTORS
330
241
102
}
330
241
100
AcDbScale
 70
     0
300
2:1
140
2.0
141
1.0
290
     0
  0
SCALE
  5
24F
102
{ACAD_REACTORS
330
241
102
}
330
241
100
AcDbScale
 70
     0
300
4:1
140
4.0
141
1.0
290
     0
  0
SCALE
  5
250
102
{ACAD_REACTORS
330
241
102
}
330
241
100
AcDbScale
 70
     0
300
8:1
140
8.0
141
1.0
290
     0
  0
SCALE
  5
251
102
{ACAD_REACTORS
330
241
102
}
330
241
100
AcDbScale
 70
     0
300
10:1
140
10.0
141
1.0
290
     0
  0
SCALE
  5
252
102
{ACAD_REACTORS
330
241
102
}
330
241
100
AcDbScale
 70
     0
300
100:1
140
100.0
141
1.0
290
     0
  0
SCALE
  5
253
102
{ACAD_REACTORS
330
241
102
}
330
241
100
AcDbScale
 70
     0
300
1/128" = 1'-0"
140
0.0078125
141
12.0
290
     0
  0
SCALE
  5
254
102
{ACAD_REACTORS
330
241
102
}
330
241
100
AcDbScale
 70
     0
300
1/64" = 1'-0"
140
0.015625
141
12.0
290
     0
  0
SCALE
  5
255
102
{ACAD_REACTORS
330
241
102
}
330
241
100
AcDbScale
 70
     0
300
1/32" = 1'-0"
140
0.03125
141
12.0
290
     0
  0
SCALE
  5
256
102
{ACAD_REACTORS
330
241
102
}
330
241
100
AcDbScale
 70
     0
300
1/16" = 1'-0"
140
0.0625
141
12.0
290
     0
  0
SCALE
  5
257
102
{ACAD_REACTORS
330
241
102
}
330
241
100
AcDbScale
 70
     0
300
3/32" = 1'-0"
140
0.09375
141
12.0
290
     0
  0
SCALE
  5
258
102
{ACAD_REACTORS
330
241
102
}
330
241
100
AcDbScale
 70
     0
300
1/8" = 1'-0"
140
0.125
141
12.0
290
     0
  0
SCALE
  5
259
102
{ACAD_REACTORS
330
241
102
}
330
241
100
AcDbScale
 70
     0
300
3/16" = 1'-0"
140
0.1875
141
12.0
290
     0
  0
SCALE
  5
25A
102
{ACAD_REACTORS
330
241
102
}
330
241
100
AcDbScale
 70
     0
300
1/4" = 1'-0"
140
0.25
141
12.0
290
     0
  0
SCALE
  5
25B
102
{ACAD_REACTORS
330
241
102
}
330
241
100
AcDbScale
 70
     0
300
3/8" = 1'-0"
140
0.375
141
12.0
290
     0
  0
SCALE
  5
25C
102
{ACAD_REACTORS
330
241
102
}
330
241
100
AcDbScale
 70
     0
300
1/2" = 1'-0"
140
0.5
141
12.0
290
     0
  0
SCALE
  5
25D
102
{ACAD_REACTORS
330
241
102
}
330
241
100
AcDbScale
 70
     0
300
3/4" = 1'-0"
140
0.75
141
12.0
290
     0
  0
SCALE
  5
25E
102
{ACAD_REACTORS
330
241
102
}
330
241
100
AcDbScale
 70
     0
300
1" = 1'-0"
140
1.0
141
12.0
290
     0
  0
SCALE
  5
25F
102
{ACAD_REACTORS
330
241
102
}
330
241
100
AcDbScale
 70
     0
300
1-1/2" = 1'-0"
140
1.5
141
12.0
290
     0
  0
SCALE
  5
260
102
{ACAD_REACTORS
330
241
102
}
330
241
100
AcDbScale
 70
     0
300
3" = 1'-0"
140
3.0
141
12.0
290
     0
  0
SCALE
  5
261
102
{ACAD_REACTORS
330
241
102
}
330
241
100
AcDbScale
 70
     0
300
6" = 1'-0"
140
6.0
141
12.0
290
     0
  0
SCALE
  5
262
102
{ACAD_REACTORS
330
241
102
}
330
241
100
AcDbScale
 70
     0
300
1'-0" = 1'-0"
140
12.0
141
12.0
290
     0
  0
TABLESTYLE
  5
279
102
{ACAD_REACTORS
330
278
102
}
102
{ACAD_XDICTIONARY
360
5E35
102
}
330
278
100
AcDbTableStyle
  3
Standard
 70
     0
 71
     0
 40
0.06
 41
0.06
280
     0
281
     0
  7
Standard
140
4.5
170
     2
 62
     0
 63
   257
283
     0
 90
        4
 91
        0
  1

274
    -2
284
     1
 64
     0
275
    -2
285
     1
 65
     0
276
    -2
286
     1
 66
     0
277
    -2
287
     1
 67
     0
278
    -2
288
     1
 68
     0
279
    -2
289
     1
 69
     0
  7
Standard
140
6.0
170
     5
 62
     0
 63
   257
283
     0
 90
        4
 91
        0
  1

274
    -2
284
     1
 64
     0
275
    -2
285
     1
 65
     0
276
    -2
286
     1
 66
     0
277
    -2
287
     1
 67
     0
278
    -2
288
     1
 68
     0
279
    -2
289
     1
 69
     0
  7
Standard
140
4.5
170
     5
 62
     0
 63
   257
283
     0
 90
        4
 91
        0
  1

274
    -2
284
     1
 64
     0
275
    -2
285
     1
 65
     0
276
    -2
286
     1
 66
     0
277
    -2
287
     1
 67
     0
278
    -2
288
     1
 68
     0
279
    -2
289
     1
 69
     0
  0
VISUALSTYLE
  5
26C
102
{ACAD_REACTORS
330
267
102
}
330
267
100
AcDbVisualStyle
  2
2dWireframe
 70
     4
 71
     0
 72
     2
 73
     0
 90
        0
 40
-0.6
 41
-30.0
 62
     5
 63
     7
421
 16777215
 74
     1
 91
        4
 64
     7
 65
   257
 75
     1
175
     1
 42
1.0
 92
        0
 66
   257
 43
1.0
 76
     1
 77
     6
 78
     2
 67
     7
 79
     5
170
     0
171
     0
290
     0
174
     0
 93
        1
 44
0.0
173
     0
291
     0
 45
0.0
  0
VISUALSTYLE
  5
26E
102
{ACAD_REACTORS
330
267
102
}
330
267
100
AcDbVisualStyle
  2
3D Hidden
 70
     6
 71
     1
 72
     2
 73
     2
 90
        0
 40
-0.6
 41
-30.0
 62
     5
 63
     7
421
 16777215
 74
     2
 91
        2
 64
     7
 65
   257
 75
     2
175
     1
 42
40.0
 92
        0
 66
   257
 43
1.0
 76
     1
 77
     6
 78
     2
 67
     7
 79
     3
170
     0
171
     0
290
     0
174
     0
 93
        1
 44
0.0
173
     0
291
     0
 45
0.0
  0
VISUALSTYLE
  5
26D
102
{ACAD_REACTORS
330
267
102
}
330
267
100
AcDbVisualStyle
  2
3dWireframe
 70
     5
 71
     0
 72
     2
 73
     0
 90
        0
 40
-0.6
 41
-30.0
 62
     5
 63
     7
421
 16777215
 74
     1
 91
        4
 64
     7
 65
   257
 75
     1
175
     1
 42
1.0
 92
        0
 66
   257
 43
1.0
 76
     1
 77
     6
 78
     2
 67
     7
 79
     5
170
     0
171
     0
290
     0
174
     0
 93
        1
 44
0.0
173
     0
291
     0
 45
0.0
  0
VISUALSTYLE
  5
26F
102
{ACAD_REACTORS
330
267
102
}
330
267
100
AcDbVisualStyle
  2
Basic
 70
     7
 71
     1
 72
     0
 73
     1
 90
        0
 40
-0.6
 41
-30.0
 62
     5
 63
     7
421
 16777215
 74
     0
 91
        4
 64
     7
 65
   257
 75
     1
175
     1
 42
1.0
 92
        8
 66
     7
 43
1.0
 76
     1
 77
     6
 78
     2
 67
     7
 79
     5
170
     0
171
     0
290
     0
174
     0
 93
        1
 44
0.0
173
     0
291
     1
 45
0.0
  0
VISUALSTYLE
  5
273
102
{ACAD_REACTORS
330
267
102
}
330
267
100
AcDbVisualStyle
  2
Brighten
 70
    12
 71
     2
 72
     2
 73
     0
 90
        0
 40
-0.6
 41
-30.0
 62
     5
 63
     7
421
 16777215
 74
     1
 91
        4
 64
     7
 65
   257
 75
     1
175
     1
 42
1.0
 92
        8
 66
     7
 43
1.0
 76
     1
 77
     6
 78
     2
 67
     7
 79
     5
170
     0
171
     0
290
     0
174
     0
 93
        1
 44
50.0
173
     0
291
     1
 45
0.0
  0
VISUALSTYLE
  5
277
102
{ACAD_REACTORS
330
267
102
}
330
267
100
AcDbVisualStyle
  2
ColorChange
 70
    16
 71
     2
 72
     2
 73
     3
 90
        0
 40
-0.6
 41
-30.0
 62
     5
 63
     8
421
  8421504
 74
     1
 91
        4
 64
     7
 65
   257
 75
     1
175
     1
 42
1.0
 92
        8
 66
     8
424
  8421504
 43
1.0
 76
     1
 77
     6
 78
     2
 67
     7
 79
     5
170
     0
171
     0
290
     0
174
     0
 93
        1
 44
0.0
173
     0
291
     1
 45
0.0
  0
VISUALSTYLE
  5
271
102
{ACAD_REACTORS
330
267
102
}
330
267
100
AcDbVisualStyle
  2
Conceptual
 70
     9
 71
     3
 72
     2
 73
     0
 90
        0
 40
-0.6
 41
-30.0
 62
     5
 63
     7
421
 16777215
 74
     2
 91
        2
 64
     7
 65
   257
 75
     1
175
     1
 42
40.0
 92
        8
 66
     7
 43
1.0
 76
     1
 77
     6
 78
     2
 67
     7
 79
     3
170
     0
171
     0
290
     0
174
     0
 93
        1
 44
0.0
173
     0
291
     0
 45
0.0
  0
VISUALSTYLE
  5
272
102
{ACAD_REACTORS
330
267
102
}
330
267
100
AcDbVisualStyle
  2
Dim
 70
    11
 71
     2
 72
     2
 73
     0
 90
        0
 40
-0.6
 41
-30.0
 62
     5
 63
     7
421
 16777215
 74
     1
 91
        4
 64
     7
 65
   257
 75
     1
175
     1
 42
1.0
 92
        8
 66
     7
 43
1.0
 76
     1
 77
     6
 78
     2
 67
     7
 79
     5
170
     0
171
     0
290
     0
174
     0
 93
        1
 44
-50.0
173
     0
291
     1
 45
0.0
  0
VISUALSTYLE
  5
F14
102
{ACAD_REACTORS
330
267
102
}
330
267
100
AcDbVisualStyle
  2
EdgeColorOff
 70
    22
 71
     2
 72
     2
 73
     0
 90
        0
 40
0.6
 41
30.0
 62
     5
 63
     7
421
 16777215
 74
     1
 91
        4
 64
     7
 65
   257
 75
     1
175
     1
 42
1.0
 92
        8
 66
     7
 43
1.0
 76
     1
 77
     6
 78
     2
 67
     7
 79
     5
170
     0
171
     0
290
     0
174
     0
 93
        1
 44
0.0
173
     0
291
     1
 45
0.0
  0
VISUALSTYLE
  5
276
102
{ACAD_REACTORS
330
267
102
}
330
267
100
AcDbVisualStyle
  2
Facepattern
 70
    15
 71
     2
 72
     2
 73
     0
 90
        0
 40
-0.6
 41
-30.0
 62
     5
 63
     7
421
 16777215
 74
     1
 91
        4
 64
     7
 65
   257
 75
     1
175
     1
 42
1.0
 92
        8
 66
     7
 43
1.0
 76
     1
 77
     6
 78
     2
 67
     7
 79
     5
170
     0
171
     0
290
     0
174
     0
 93
        1
 44
0.0
173
     0
291
     1
 45
0.0
  0
VISUALSTYLE
  5
268
102
{ACAD_REACTORS
330
267
102
}
330
267
100
AcDbVisualStyle
  2
Flat
 70
     0
 71
     2
 72
     1
 73
     1
 90
        2
 40
-0.6
 41
30.0
 62
     5
 63
     7
421
 16777215
 74
     0
 91
        4
 64
     7
 65
   257
 75
     1
175
     1
 42
1.0
 92
        8
 66
     7
 43
1.0
 76
     1
 77
     6
 78
     2
 67
     7
 79
     5
170
     0
171
     0
290
     0
174
     0
 93
       13
 44
0.0
173
     0
291
     1
 45
0.0
  0
VISUALSTYLE
  5
269
102
{ACAD_REACTORS
330
267
102
}
330
267
100
AcDbVisualStyle
  2
FlatWithEdges
 70
     1
 71
     2
 72
     1
 73
     1
 90
        2
 40
-0.6
 41
30.0
 62
     5
 63
     7
421
 16777215
 74
     1
 91
        4
 64
     7
 65
   257
 75
     1
175
     1
 42
1.0
 92
        0
 66
   257
 43
1.0
 76
     1
 77
     6
 78
     2
 67
     7
 79
     5
170
     0
171
     0
290
     0
174
     0
 93
       13
 44
0.0
173
     0
291
     1
 45
0.0
  0
VISUALSTYLE
  5
26A
102
{ACAD_REACTORS
330
267
102
}
330
267
100
AcDbVisualStyle
  2
Gouraud
 70
     2
 71
     2
 72
     2
 73
     1
 90
        2
 40
-0.6
 41
30.0
 62
     5
 63
     7
421
 16777215
 74
     0
 91
        4
 64
     7
 65
   257
 75
     1
175
     1
 42
1.0
 92
        0
 66
     7
 43
1.0
 76
     1
 77
     6
 78
     2
 67
     7
 79
     5
170
     0
171
     0
290
     0
174
     0
 93
       13
 44
0.0
173
     0
291
     1
 45
0.0
  0
VISUALSTYLE
  5
26B
102
{ACAD_REACTORS
330
267
102
}
330
267
100
AcDbVisualStyle
  2
GouraudWithEdges
 70
     3
 71
     2
 72
     2
 73
     1
 90
        2
 40
-0.6
 41
30.0
 62
     5
 63
     7
421
 16777215
 74
     1
 91
        4
 64
     7
 65
   257
 75
     1
175
     1
 42
1.0
 92
        0
 66
   257
 43
1.0
 76
     1
 77
     6
 78
     2
 67
     7
 79
     5
170
     0
171
     0
290
     0
174
     0
 93
       13
 44
0.0
173
     0
291
     1
 45
0.0
  0
VISUALSTYLE
  5
F11
102
{ACAD_REACTORS
330
267
102
}
330
267
100
AcDbVisualStyle
  2
Hidden
 70
     6
 71
     1
 72
     2
 73
     2
 90
        0
 40
0.6
 41
30.0
 62
     5
 63
     7
421
 16777215
 74
     2
 91
        2
 64
     7
 65
   257
 75
     2
175
     1
 42
40.0
 92
        0
 66
   257
 43
1.0
 76
     1
 77
     6
 78
     2
 67
     7
 79
     3
170
     0
171
     0
290
     0
174
     0
 93
        1
 44
0.0
173
     0
291
     0
 45
0.0
  0
VISUALSTYLE
  5
F12
102
{ACAD_REACTORS
330
267
102
}
330
267
100
AcDbVisualStyle
  2
JitterOff
 70
    20
 71
     2
 72
     2
 73
     0
 90
        0
 40
0.6
 41
30.0
 62
     5
 63
     7
421
 16777215
 74
     1
 91
        4
 64
     7
 65
   257
 75
     1
175
     1
 42
1.0
 92
       10
 66
     7
 43
1.0
 76
     1
 77
     6
 78
     2
 67
     7
 79
     5
170
     0
171
     0
290
     0
174
     0
 93
        1
 44
0.0
173
     0
291
     1
 45
0.0
  0
VISUALSTYLE
  5
275
102
{ACAD_REACTORS
330
267
102
}
330
267
100
AcDbVisualStyle
  2
Linepattern
 70
    14
 71
     2
 72
     2
 73
     0
 90
        0
 40
-0.6
 41
-30.0
 62
     5
 63
     7
421
 16777215
 74
     1
 91
        4
 64
     7
 65
   257
 75
     7
175
     7
 42
1.0
 92
        8
 66
     7
 43
1.0
 76
     1
 77
     6
 78
     2
 67
     7
 79
     5
170
     0
171
     0
290
     0
174
     0
 93
        1
 44
0.0
173
     0
291
     1
 45
0.0
  0
VISUALSTYLE
  5
F13
102
{ACAD_REACTORS
330
267
102
}
330
267
100
AcDbVisualStyle
  2
OverhangOff
 70
    21
 71
     2
 72
     2
 73
     0
 90
        0
 40
0.6
 41
30.0
 62
     5
 63
     7
421
 16777215
 74
     1
 91
        4
 64
     7
 65
   257
 75
     1
175
     1
 42
1.0
 92
        9
 66
     7
 43
1.0
 76
     1
 77
     6
 78
     2
 67
     7
 79
     5
170
     0
171
     0
290
     0
174
     0
 93
        1
 44
0.0
173
     0
291
     1
 45
0.0
  0
VISUALSTYLE
  5
270
102
{ACAD_REACTORS
330
267
102
}
330
267
100
AcDbVisualStyle
  2
Realistic
 70
     8
 71
     2
 72
     2
 73
     0
 90
        0
 40
-0.6
 41
-30.0
 62
     5
 63
     7
421
 16777215
 74
     1
 91
        0
 64
     7
 65
   257
 75
     1
175
     1
 42
1.0
 92
        8
 66
     8
424
  7895160
 43
1.0
 76
     1
 77
     6
 78
     2
 67
     7
 79
     5
170
     0
171
     0
290
     0
174
     0
 93
       13
 44
0.0
173
     0
291
     0
 45
0.0
  0
VISUALSTYLE
  5
F19
102
{ACAD_REACTORS
330
267
102
}
330
267
100
AcDbVisualStyle
  2
Shaded
 70
    27
 71
     2
 72
     2
 73
     1
 90
        2
 40
0.6
 41
30.0
 62
     5
 63
     7
421
 16777215
 74
     0
 91
        4
 64
     7
 65
   257
 75
     1
175
     1
 42
1.0
 92
        8
 66
   257
 43
1.0
 76
     1
 77
     6
 78
     2
 67
     8
425
  7895160
 79
     3
170
     0
171
     0
290
     0
174
     0
 93
        5
 44
0.0
173
     0
291
     0
 45
0.0
  0
VISUALSTYLE
  5
F18
102
{ACAD_REACTORS
330
267
102
}
330
267
100
AcDbVisualStyle
  2
Shaded with edges
 70
    26
 71
     2
 72
     2
 73
     1
 90
        2
 40
0.6
 41
30.0
 62
     5
 63
     7
421
 16777215
 74
     1
 91
       10
 64
     7
 65
   257
 75
     2
175
     1
 42
1.0
 92
        8
 66
   257
 43
1.0
 76
     1
 77
     6
 78
     2
 67
     7
 79
     3
170
     0
171
     0
290
     0
174
     0
 93
        5
 44
0.0
173
     0
291
     0
 45
0.0
  0
VISUALSTYLE
  5
F15
102
{ACAD_REACTORS
330
267
102
}
330
267
100
AcDbVisualStyle
  2
Shades of Gray
 70
    23
 71
     2
 72
     2
 73
     3
 90
        0
 40
0.6
 41
30.0
 62
     5
 63
     7
421
 16777215
 74
     2
 91
        2
 64
     7
 65
     7
 75
     1
175
     1
 42
40.0
 92
        8
 66
     7
 43
1.0
 76
     1
 77
     6
 78
     2
 67
     7
 79
     3
170
     0
171
     0
290
     0
174
     0
 93
        1
 44
0.0
173
     0
291
     0
 45
0.0
  0
VISUALSTYLE
  5
F16
102
{ACAD_REACTORS
330
267
102
}
330
267
100
AcDbVisualStyle
  2
Sketchy
 70
    24
 71
     1
 72
     2
 73
     2
 90
        0
 40
0.6
 41
30.0
 62
     5
 63
     7
421
 16777215
 74
     2
 91
        2
 64
     7
 65
     7
 75
     1
175
     1
 42
40.0
 92
       11
 66
     7
 43
1.0
 76
     1
 77
     6
 78
     2
 67
     7
 79
     6
170
     0
171
     0
290
     0
174
     0
 93
        1
 44
0.0
173
     0
291
     0
 45
0.0
  0
VISUALSTYLE
  5
274
102
{ACAD_REACTORS
330
267
102
}
330
267
100
AcDbVisualStyle
  2
Thicken
 70
    13
 71
     2
 72
     2
 73
     0
 90
        0
 40
-0.6
 41
-30.0
 62
     5
 63
     7
421
 16777215
 74
     1
 91
        4
 64
     7
 65
   257
 75
     1
175
     1
 42
1.0
 92
       12
 66
     7
 43
1.0
 76
     1
 77
     6
 78
     2
 67
     7
 79
     5
170
     0
171
     0
290
     0
174
     0
 93
        1
 44
0.0
173
     0
291
     1
 45
0.0
  0
VISUALSTYLE
  5
F10
102
{ACAD_REACTORS
330
267
102
}
330
267
100
AcDbVisualStyle
  2
Wireframe
 70
     5
 71
     0
 72
     2
 73
     0
 90
        0
 40
0.6
 41
30.0
 62
     5
 63
     7
421
 16777215
 74
     1
 91
        4
 64
     7
 65
   257
 75
     1
175
     1
 42
1.0
 92
        0
 66
   257
 43
1.0
 76
     1
 77
     6
 78
     2
 67
     7
 79
     3
170
     0
171
     0
290
     0
174
     0
 93
        1
 44
0.0
173
     0
291
     0
 45
0.0
  0
VISUALSTYLE
  5
F17
102
{ACAD_REACTORS
330
267
102
}
330
267
100
AcDbVisualStyle
  2
X-Ray
 70
    25
 71
     2
 72
     2
 73
     1
 90
        1
 40
0.5
 41
30.0
 62
     5
 63
     7
421
 16777215
 74
     1
 91
        0
 64
     7
 65
   257
 75
     1
175
     1
 42
1.0
 92
        8
 66
     7
 43
1.0
 76
     1
 77
     6
 78
     2
 67
     7
 79
     3
170
     0
171
     0
290
     0
174
     0
 93
       13
 44
0.0
173
     0
291
     0
 45
0.0
  0
DICTIONARYVAR
  5
331
102
{ACAD_REACTORS
330
330
102
}
330
330
100
DictionaryVariables
280
     0
  1
1:1
  0
DICTIONARYVAR
  5
5CB8
102
{ACAD_REACTORS
330
330
102
}
330
330
100
DictionaryVariables
280
     0
  1
Standard
  0
DICTIONARYVAR
  5
335
102
{ACAD_REACTORS
330
330
102
}
330
330
100
DictionaryVariables
280
     0
  1
Standard
  0
DICTIONARYVAR
  5
5ADF
102
{ACAD_REACTORS
330
330
102
}
330
330
100
DictionaryVariables
280
     0
  1
ByLayer
  0
DICTIONARYVAR
  5
13B4
102
{ACAD_REACTORS
330
330
102
}
330
330
100
DictionaryVariables
280
     0
  1
0
  0
FIELD
  5
5D58
102
{ACAD_REACTORS
330
5D57
102
}
330
5D57
100
AcDbField
  1
_text
  2
{%<\_FldIdx 0>%N}
 90
        1
360
5D59
 97
        0
 91
       63
 92
        0
 94
       11
 95
        2
 96
        0
300

 93
        1
  6
ACFD_FIELDTEXT_CHECKSUM
 93
        2
 90
        2
140
4528.0
 94
        0
300

302

304
ACVALUE_END
  7
ACFD_FIELD_VALUE
 93
        6
 90
        4
  1
{20180416N}
 94
        0
300

302

304
ACVALUE_END
301
{20180416N}
 98
       11
  0
DICTIONARY
  5
5E35
330
279
100
AcDbDictionary
280
     1
281
     1
  3
ACAD_ROUNDTRIP_2008_TABLESTYLE_CELLSTYLEMAP
360
5E36
  0
FIELD
  5
5D59
330
5D58
100
AcDbField
  1
AcVar
  2
\AcVar Date \f "yyyyMMdd"
 90
        0
 97
        0
 91
       63
 92
        0
 94
       11
 95
       64
 96
        0
300
Variable not supported
 93
        1
  6
Variable
 93
        2
 90
        4
  1
Date
 94
        0
300

302

304
ACVALUE_END
  7
ACFD_FIELD_VALUE
 93
        6
 90
        8
 92
       16
310
E2070400000010000A000E0023000000
 94
        0
300
yyyyMMdd
302

304
ACVALUE_END
301
20180416
 98
        8
  0
CELLSTYLEMAP
  5
5E36
102
{ACAD_REACTORS
330
5E35
102
}
330
5E35
100
AcDbCellStyleMap
 90
        3
300
CELLSTYLE
  1
TABLEFORMAT_BEGIN
 90
        5
170
     1
 91
        0
 92
    32768
 62
   257
 93
        1
300
CONTENTFORMAT
  1
CONTENTFORMAT_BEGIN
 90
        0
 91
        0
 92
        4
 93
        0
300

 40
0.0
140
1.0
 94
        5
 62
     0
340
17
144
6.0
309
CONTENTFORMAT_END
171
     1
301
MARGIN
  1
CELLMARGIN_BEGIN
 40
0.06
 40
0.06
 40
0.06
 40
0.06
 40
0.18
 40
0.18
309
CELLMARGIN_END
 94
        6
 95
        1
302
GRIDFORMAT
  1
GRIDFORMAT_BEGIN
 90
        0
 91
        1
 62
     0
 92
       -2
340
0
 93
        0
 40
0.045
309
GRIDFORMAT_END
 95
        2
302
GRIDFORMAT
  1
GRIDFORMAT_BEGIN
 90
        0
 91
        1
 62
     0
 92
       -2
340
0
 93
        0
 40
0.045
309
GRIDFORMAT_END
 95
        4
302
GRIDFORMAT
  1
GRIDFORMAT_BEGIN
 90
        0
 91
        1
 62
     0
 92
       -2
340
0
 93
        0
 40
0.045
309
GRIDFORMAT_END
 95
        8
302
GRIDFORMAT
  1
GRIDFORMAT_BEGIN
 90
        0
 91
        1
 62
     0
 92
       -2
340
0
 93
        0
 40
0.045
309
GRIDFORMAT_END
 95
       16
302
GRIDFORMAT
  1
GRIDFORMAT_BEGIN
 90
        0
 91
        1
 62
     0
 92
       -2
340
0
 93
        0
 40
0.045
309
GRIDFORMAT_END
 95
       32
302
GRIDFORMAT
  1
GRIDFORMAT_BEGIN
 90
        0
 91
        1
 62
     0
 92
       -2
340
0
 93
        0
 40
0.045
309
GRIDFORMAT_END
309
TABLEFORMAT_END
  1
CELLSTYLE_BEGIN
 90
        1
 91
        1
300
_TITLE
309
CELLSTYLE_END
300
CELLSTYLE
  1
TABLEFORMAT_BEGIN
 90
        5
170
     1
 91
        0
 92
        0
 62
   257
 93
        1
300
CONTENTFORMAT
  1
CONTENTFORMAT_BEGIN
 90
        0
 91
        0
 92
        4
 93
        0
300

 40
0.0
140
1.0
 94
        5
 62
     0
340
17
144
4.5
309
CONTENTFORMAT_END
171
     1
301
MARGIN
  1
CELLMARGIN_BEGIN
 40
0.06
 40
0.06
 40
0.06
 40
0.06
 40
0.18
 40
0.18
309
CELLMARGIN_END
 94
        6
 95
        1
302
GRIDFORMAT
  1
GRIDFORMAT_BEGIN
 90
        0
 91
        1
 62
     0
 92
       -2
340
0
 93
        0
 40
0.045
309
GRIDFORMAT_END
 95
        2
302
GRIDFORMAT
  1
GRIDFORMAT_BEGIN
 90
        0
 91
        1
 62
     0
 92
       -2
340
0
 93
        0
 40
0.045
309
GRIDFORMAT_END
 95
        4
302
GRIDFORMAT
  1
GRIDFORMAT_BEGIN
 90
        0
 91
        1
 62
     0
 92
       -2
340
0
 93
        0
 40
0.045
309
GRIDFORMAT_END
 95
        8
302
GRIDFORMAT
  1
GRIDFORMAT_BEGIN
 90
        0
 91
        1
 62
     0
 92
       -2
340
0
 93
        0
 40
0.045
309
GRIDFORMAT_END
 95
       16
302
GRIDFORMAT
  1
GRIDFORMAT_BEGIN
 90
        0
 91
        1
 62
     0
 92
       -2
340
0
 93
        0
 40
0.045
309
GRIDFORMAT_END
 95
       32
302
GRIDFORMAT
  1
GRIDFORMAT_BEGIN
 90
        0
 91
        1
 62
     0
 92
       -2
340
0
 93
        0
 40
0.045
309
GRIDFORMAT_END
309
TABLEFORMAT_END
  1
CELLSTYLE_BEGIN
 90
        2
 91
        1
300
_HEADER
309
CELLSTYLE_END
300
CELLSTYLE
  1
TABLEFORMAT_BEGIN
 90
        5
170
     1
 91
        0
 92
        0
 62
   257
 93
        1
300
CONTENTFORMAT
  1
CONTENTFORMAT_BEGIN
 90
        0
 91
        0
 92
        4
 93
        0
300

 40
0.0
140
1.0
 94
        2
 62
     0
340
17
144
4.5
309
CONTENTFORMAT_END
171
     1
301
MARGIN
  1
CELLMARGIN_BEGIN
 40
0.06
 40
0.06
 40
0.06
 40
0.06
 40
0.18
 40
0.18
309
CELLMARGIN_END
 94
        6
 95
        1
302
GRIDFORMAT
  1
GRIDFORMAT_BEGIN
 90
        0
 91
        1
 62
     0
 92
       -2
340
0
 93
        0
 40
0.045
309
GRIDFORMAT_END
 95
        2
302
GRIDFORMAT
  1
GRIDFORMAT_BEGIN
 90
        0
 91
        1
 62
     0
 92
       -2
340
0
 93
        0
 40
0.045
309
GRIDFORMAT_END
 95
        4
302
GRIDFORMAT
  1
GRIDFORMAT_BEGIN
 90
        0
 91
        1
 62
     0
 92
       -2
340
0
 93
        0
 40
0.045
309
GRIDFORMAT_END
 95
        8
302
GRIDFORMAT
  1
GRIDFORMAT_BEGIN
 90
        0
 91
        1
 62
     0
 92
       -2
340
0
 93
        0
 40
0.045
309
GRIDFORMAT_END
 95
       16
302
GRIDFORMAT
  1
GRIDFORMAT_BEGIN
 90
        0
 91
        1
 62
     0
 92
       -2
340
0
 93
        0
 40
0.045
309
GRIDFORMAT_END
 95
       32
302
GRIDFORMAT
  1
GRIDFORMAT_BEGIN
 90
        0
 91
        1
 62
     0
 92
       -2
340
0
 93
        0
 40
0.045
309
GRIDFORMAT_END
309
TABLEFORMAT_END
  1
CELLSTYLE_BEGIN
 90
        3
 91
        2
300
_DATA
309
CELLSTYLE_END
  0
ENDSEC
  0
EOF
