  0
SECTION
  2
HEADER
  9
$ACADVER
  1
AC1021
  9
$ACADMAINTVER
 70
    25
  9
$DWGCODEPAGE
  3
ANSI_932
  9
$LASTSAVEDBY
  1
tform
  9
$INSBASE
 10
0.0
 20
0.0
 30
0.0
  9
$EXTMIN
 10
0.0
 20
0.0
 30
0.0
  9
$EXTMAX
 10
593.9999999999999
 20
420.0
 30
0.0
  9
$LIMMIN
 10
0.0
 20
0.0
  9
$LIMMAX
 10
594.0
 20
419.9999999999996
  9
$ORTHOMODE
 70
     0
  9
$REGENMODE
 70
     1
  9
$FILLMODE
 70
     1
  9
$QTEXTMODE
 70
     0
  9
$MIRRTEXT
 70
     1
  9
$LTSCALE
 40
2.0
  9
$ATTMODE
 70
     1
  9
$TEXTSIZE
 40
2.5
  9
$TRACEWID
 40
1.0
  9
$TEXTSTYLE
  7
ＭＳ ゴシック
  9
$CLAYER
  8
寸法
  9
$CELTYPE
  6
Continuous
  9
$CECOLOR
 62
   256
  9
$CELTSCALE
 40
1.0
  9
$DISPSILH
 70
     0
  9
$DIMSCALE
 40
1.0
  9
$DIMASZ
 40
1.5
  9
$DIMEXO
 40
5.0
  9
$DIMDLI
 40
0.9999999999999999
  9
$DIMRND
 40
0.0
  9
$DIMDLE
 40
0.0
  9
$DIMEXE
 40
0.0
  9
$DIMTP
 40
0.0
  9
$DIMTM
 40
0.0
  9
$DIMTXT
 40
5.0
  9
$DIMCEN
 40
0.0
  9
$DIMTSZ
 40
0.0
  9
$DIMTOL
 70
     0
  9
$DIMLIM
 70
     0
  9
$DIMTIH
 70
     0
  9
$DIMTOH
 70
     0
  9
$DIMSE1
 70
     0
  9
$DIMSE2
 70
     0
  9
$DIMTAD
 70
     1
  9
$DIMZIN
 70
    11
  9
$DIMBLK
  1
DOT
  9
$DIMASO
 70
     1
  9
$DIMSHO
 70
     1
  9
$DIMPOST
  1
<>
  9
$DIMAPOST
  1
[]
  9
$DIMALT
 70
     0
  9
$DIMALTD
 70
     1
  9
$DIMALTF
 40
1.0
  9
$DIMLFAC
 40
1.0
  9
$DIMTOFL
 70
     0
  9
$DIMTVP
 40
0.0
  9
$DIMTIX
 70
     1
  9
$DIMSOXD
 70
     0
  9
$DIMSAH
 70
     0
  9
$DIMBLK1
  1

  9
$DIMBLK2
  1

  9
$DIMSTYLE
  2
tfrom線あり
  9
$DIMCLRD
 70
     0
  9
$DIMCLRE
 70
     0
  9
$DIMCLRT
 70
     0
  9
$DIMTFAC
 40
1.0
  9
$DIMGAP
 40
2.0
  9
$DIMJUST
 70
     0
  9
$DIMSD1
 70
     0
  9
$DIMSD2
 70
     0
  9
$DIMTOLJ
 70
     1
  9
$DIMTZIN
 70
    11
  9
$DIMALTZ
 70
    11
  9
$DIMALTTZ
 70
    11
  9
$DIMUPT
 70
     0
  9
$DIMDEC
 70
     0
  9
$DIMTDEC
 70
     1
  9
$DIMALTU
 70
     2
  9
$DIMALTTD
 70
     2
  9
$DIMTXSTY
  7
ＭＳ ゴシック
  9
$DIMAUNIT
 70
     0
  9
$DIMADEC
 70
     2
  9
$DIMALTRND
 40
0.0
  9
$DIMAZIN
 70
     0
  9
$DIMDSEP
 70
    46
  9
$DIMATFIT
 70
     0
  9
$DIMFRAC
 70
     2
  9
$DIMLDRBLK
  1
DOT
  9
$DIMLUNIT
 70
     2
  9
$DIMLWD
 70
    -2
  9
$DIMLWE
 70
    -2
  9
$DIMTMOVE
 70
     0
  9
$DIMFXL
 40
1.0
  9
$DIMFXLON
 70
     0
  9
$DIMJOGANG
 40
0.7853981633974483
  9
$DIMTFILL
 70
     0
  9
$DIMTFILLCLR
 70
     0
  9
$DIMARCSYM
 70
     0
  9
$DIMLTYPE
  6

  9
$DIMLTEX1
  6

  9
$DIMLTEX2
  6

  9
$LUNITS
 70
     2
  9
$LUPREC
 70
     0
  9
$SKETCHINC
 40
0.1
  9
$FILLETRAD
 40
0.0
  9
$AUNITS
 70
     0
  9
$AUPREC
 70
     0
  9
$MENU
  1
acad
  9
$ELEVATION
 40
0.0
  9
$PELEVATION
 40
0.0
  9
$THICKNESS
 40
0.0
  9
$LIMCHECK
 70
     0
  9
$CHAMFERA
 40
0.0
  9
$CHAMFERB
 40
0.0
  9
$CHAMFERC
 40
0.0
  9
$CHAMFERD
 40
0.0
  9
$SKPOLY
 70
     0
  9
$TDCREATE
 40
2447893.375
  9
$TDUCREATE
 40
0.0
  9
$TDUPDATE
 40
2459936.565066551
  9
$TDUUPDATE
 40
2459936.190066551
  9
$TDINDWG
 40
0.0024535301
  9
$TDUSRTIMER
 40
0.0029541088
  9
$USRTIMER
 70
     1
  9
$ANGBASE
 50
0.0
  9
$ANGDIR
 70
     0
  9
$PDMODE
 70
     1
  9
$PDSIZE
 40
-2.0
  9
$PLINEWID
 40
0.0
  9
$SPLFRAME
 70
     0
  9
$SPLINETYPE
 70
     6
  9
$SPLINESEGS
 70
     8
  9
$HANDSEED
  5
5C1D
  9
$SURFTAB1
 70
     6
  9
$SURFTAB2
 70
     6
  9
$SURFTYPE
 70
     6
  9
$SURFU
 70
     6
  9
$SURFV
 70
     6
  9
$UCSBASE
  2

  9
$UCSNAME
  2

  9
$UCSORG
 10
0.0
 20
0.0
 30
0.0
  9
$UCSXDIR
 10
1.0
 20
0.0
 30
0.0
  9
$UCSYDIR
 10
0.0
 20
1.0
 30
0.0
  9
$UCSORTHOREF
  2

  9
$UCSORTHOVIEW
 70
     0
  9
$UCSORGTOP
 10
0.0
 20
0.0
 30
0.0
  9
$UCSORGBOTTOM
 10
0.0
 20
0.0
 30
0.0
  9
$UCSORGLEFT
 10
0.0
 20
0.0
 30
0.0
  9
$UCSORGRIGHT
 10
0.0
 20
0.0
 30
0.0
  9
$UCSORGFRONT
 10
0.0
 20
0.0
 30
0.0
  9
$UCSORGBACK
 10
0.0
 20
0.0
 30
0.0
  9
$PUCSBASE
  2

  9
$PUCSNAME
  2

  9
$PUCSORG
 10
0.0
 20
0.0
 30
0.0
  9
$PUCSXDIR
 10
1.0
 20
0.0
 30
0.0
  9
$PUCSYDIR
 10
0.0
 20
1.0
 30
0.0
  9
$PUCSORTHOREF
  2

  9
$PUCSORTHOVIEW
 70
     0
  9
$PUCSORGTOP
 10
0.0
 20
0.0
 30
0.0
  9
$PUCSORGBOTTOM
 10
0.0
 20
0.0
 30
0.0
  9
$PUCSORGLEFT
 10
0.0
 20
0.0
 30
0.0
  9
$PUCSORGRIGHT
 10
0.0
 20
0.0
 30
0.0
  9
$PUCSORGFRONT
 10
0.0
 20
0.0
 30
0.0
  9
$PUCSORGBACK
 10
0.0
 20
0.0
 30
0.0
  9
$USERI1
 70
     0
  9
$USERI2
 70
     0
  9
$USERI3
 70
     0
  9
$USERI4
 70
     0
  9
$USERI5
 70
     0
  9
$USERR1
 40
0.0
  9
$USERR2
 40
0.0
  9
$USERR3
 40
0.0
  9
$USERR4
 40
0.0
  9
$USERR5
 40
0.0
  9
$WORLDVIEW
 70
     1
  9
$SHADEDGE
 70
     3
  9
$SHADEDIF
 70
    70
  9
$TILEMODE
 70
     1
  9
$MAXACTVP
 70
    64
  9
$PINSBASE
 10
0.0
 20
0.0
 30
0.0
  9
$PLIMCHECK
 70
     0
  9
$PEXTMIN
 10
0.0
 20
0.0
 30
0.0
  9
$PEXTMAX
 10
0.0
 20
0.0
 30
0.0
  9
$PLIMMIN
 10
-7.5
 20
-20.0
  9
$PLIMMAX
 10
412.5
 20
277.0
  9
$UNITMODE
 70
     0
  9
$VISRETAIN
 70
     0
  9
$PLINEGEN
 70
     1
  9
$PSLTSCALE
 70
     1
  9
$TREEDEPTH
 70
  3020
  9
$CMLSTYLE
  2
Standard
  9
$CMLJUST
 70
     0
  9
$CMLSCALE
 40
1.0
  9
$PROXYGRAPHICS
 70
     0
  9
$MEASUREMENT
 70
     1
  9
$CELWEIGHT
370
    -1
  9
$ENDCAPS
280
     0
  9
$JOINSTYLE
280
     0
  9
$LWDISPLAY
290
     1
  9
$INSUNITS
 70
     4
  9
$HYPERLINKBASE
  1

  9
$STYLESHEET
  1

  9
$XEDIT
290
     1
  9
$CEPSNTYPE
380
     0
  9
$PSTYLEMODE
290
     1
  9
$FINGERPRINTGUID
  2

  9
$VERSIONGUID
  2

  9
$EXTNAMES
290
     1
  9
$PSVPSCALE
 40
0.0
  9
$OLESTARTUP
290
     0
  9
$SORTENTS
280
   127
  9
$INDEXCTL
280
     0
  9
$HIDETEXT
280
     1
  9
$XCLIPFRAME
290
     0
  9
$HALOGAP
280
     0
  9
$OBSCOLOR
 70
   257
  9
$OBSLTYPE
280
     0
  9
$INTERSECTIONDISPLAY
280
     0
  9
$INTERSECTIONCOLOR
 70
   257
  9
$DIMASSOC
280
     2
  9
$PROJECTNAME
  1

  9
$CAMERADISPLAY
290
     0
  9
$LENSLENGTH
 40
50.0
  9
$CAMERAHEIGHT
 40
0.0
  9
$STEPSPERSEC
 40
2.0
  9
$STEPSIZE
 40
6.0
  9
$3DDWFPREC
 40
2.0
  9
$PSOLWIDTH
 40
0.25
  9
$PSOLHEIGHT
 40
4.0
  9
$LOFTANG1
 40
1.570796326794897
  9
$LOFTANG2
 40
1.570796326794897
  9
$LOFTMAG1
 40
0.0
  9
$LOFTMAG2
 40
0.0
  9
$LOFTPARAM
 70
     7
  9
$LOFTNORMALS
280
     1
  9
$LATITUDE
 40
37.795
  9
$LONGITUDE
 40
-122.394
  9
$NORTHDIRECTION
 40
0.0
  9
$TIMEZONE
 70
 -8000
  9
$LIGHTGLYPHDISPLAY
280
     1
  9
$TILEMODELIGHTSYNCH
280
     1
  9
$SOLIDHIST
280
     1
  9
$SHOWHIST
280
     1
  9
$DWFFRAME
280
     2
  9
$DGNFRAME
280
     2
  9
$REALWORLDSCALE
290
     1
  9
$INTERFERECOLOR
 62
   256
  9
$CSHADOW
280
     0
  9
$SHADOWPLANELOCATION
 40
0.0
  0
ENDSEC
  0
SECTION
  2
CLASSES
  0
CLASS
  1
LWPOLYLINE
  2
AcDbPolyline
  3
ObjectDBX Classes
 90
        0
 91
        1
280
     0
281
     1
  0
CLASS
  1
IMAGE
  2
AcDbRasterImage
  3
ISM
 90
      127
 91
        4
280
     0
281
     1
  0
CLASS
  1
OLE2FRAME
  2
AcDbOle2Frame
  3
ObjectDBX Classes
 90
        0
 91
        1
280
     0
281
     1
  0
CLASS
  1
HATCH
  2
AcDbHatch
  3
ObjectDBX Classes
 90
        0
 91
        1
280
     0
281
     1
  0
CLASS
  1
DICTIONARYVAR
  2
AcDbDictionaryVar
  3
ObjectDBX Classes
 90
        0
 91
        3
280
     0
281
     0
  0
CLASS
  1
RASTERVARIABLES
  2
AcDbRasterVariables
  3
ISM
 90
        0
 91
        3
280
     0
281
     0
  0
CLASS
  1
IMAGEDEF
  2
AcDbRasterImageDef
  3
ISM
 90
        0
 91
        3
280
     0
281
     0
  0
CLASS
  1
IMAGEDEF_REACTOR
  2
AcDbRasterImageDefReactor
  3
ISM
 90
        1
 91
        3
280
     0
281
     0
  0
CLASS
  1
IDBUFFER
  2
AcDbIdBuffer
  3
ObjectDBX Classes
 90
        0
 91
        3
280
     0
281
     0
  0
CLASS
  1
SPATIAL_FILTER
  2
AcDbSpatialFilter
  3
ObjectDBX Classes
 90
        0
 91
        3
280
     0
281
     0
  0
CLASS
  1
XRECORD
  2
AcDbXrecord
  3
ObjectDBX Classes
 90
        0
 91
        1
280
     0
281
     0
  0
CLASS
  1
SORTENTSTABLE
  2
AcDbSortentsTable
  3
ObjectDBX Classes
 90
        0
 91
        3
280
     0
281
     0
  0
CLASS
  1
LAYER_INDEX
  2
AcDbLayerIndex
  3
ObjectDBX Classes
 90
        0
 91
        3
280
     0
281
     0
  0
CLASS
  1
SPATIAL_INDEX
  2
AcDbSpatialIndex
  3
AutoCAD 2000
 90
        0
 91
        3
280
     0
281
     0
  0
CLASS
  1
OBJECT_PTR
  2
CAseDLPNTableRecord
  3
ASE-LPNTableRecord
 90
        1
 91
        3
280
     0
281
     0
  0
CLASS
  1
LAYOUT
  2
AcDbLayout
  3
ObjectDBX Classes
 90
        0
 91
        1
280
     0
281
     0
  0
CLASS
  1
PLOTSETTINGS
  2
AcDbPlotSettings
  3
ObjectDBX Classes
 90
        0
 91
        3
280
     0
281
     0
  0
CLASS
  1
ACDBDICTIONARYWDFLT
  2
AcDbDictionaryWithDefault
  3
ObjectDBX Classes
 90
        0
 91
        3
280
     0
281
     0
  0
CLASS
  1
ACDBPLACEHOLDER
  2
AcDbPlaceHolder
  3
ObjectDBX Classes
 90
        0
 91
        1
280
     0
281
     0
  0
CLASS
  1
SCALE
  2
AcDbScale
  3
ObjectDBX Classes
 90
     1153
 91
        3
280
     0
281
     0
  0
CLASS
  1
MATERIAL
  2
AcDbMaterial
  3
ObjectDBX Classes
 90
     1153
 91
        3
280
     0
281
     0
  0
CLASS
  1
VISUALSTYLE
  2
AcDbVisualStyle
  3
ObjectDBX Classes
 90
     4095
 91
        3
280
     0
281
     0
  0
CLASS
  1
TABLESTYLE
  2
AcDbTableStyle
  3
ObjectDBX Classes
 90
     4095
 91
        3
280
     0
281
     0
  0
CLASS
  1
DIMASSOC
  2
AcDbDimAssoc
  3
"AcDbDimAssoc|Product Desc:     AcDim ARX App For Dimension|Company:          Autodesk, Inc.|WEB Address:      www.autodesk.com"
 90
        0
 91
        3
280
     0
281
     0
  0
CLASS
  1
CELLSTYLEMAP
  2
AcDbCellStyleMap
  3
ObjectDBX Classes
 90
     1152
 91
        3
280
     0
281
     0
  0
CLASS
  1
SUN
  2
AcDbSun
  3
SCENEOE
 90
     1153
 91
        3
280
     0
281
     0
  0
CLASS
  1
MLEADERSTYLE
  2
AcDbMLeaderStyle
  3
ACDB_MLEADERSTYLE_CLASS
 90
     4095
 91
        3
280
     0
281
     0
  0
CLASS
  1
FIELD
  2
AcDbField
  3
ObjectDBX Classes
 90
     1152
 91
        3
280
     0
281
     0
  0
CLASS
  1
FIELDLIST
  2
AcDbFieldList
  3
ObjectDBX Classes
 90
     1152
 91
        3
280
     0
281
     0
  0
ENDSEC
  0
SECTION
  2
TABLES
  0
TABLE
  2
VPORT
  5
7
330
0
100
AcDbSymbolTable
 70
     1
  0
VPORT
  5
15
330
7
100
AcDbSymbolTableRecord
100
AcDbViewportTableRecord
  2
*ACTIVE
 70
     0
 10
0.0
 20
0.0
 11
1.0
 21
1.0
 12
296.9999999999999
 22
210.0
 13
0.0
 23
0.0
 14
1.0
 24
1.0
 15
0.0
 25
0.0
 16
0.0
 26
0.0
 36
1.0
 17
0.0
 27
0.0
 37
0.0
 40
428.4
 41
2.120713305898491
 42
50.0
 43
0.0
 44
0.0
 50
0.0
 51
0.0
 71
    16
 72
  2000
 73
     1
 74
     1
 75
     0
 76
     0
 77
     0
 78
     0
281
     0
 65
     1
110
0.0
120
0.0
130
0.0
111
1.0
121
0.0
131
0.0
112
0.0
122
1.0
132
0.0
 79
     0
146
0.0
348
26C
 60
     3
 61
     5
292
     1
282
     1
141
0.0
142
0.0
 63
   256
361
F1A
  0
ENDTAB
  0
TABLE
  2
LTYPE
  5
4
330
0
100
AcDbSymbolTable
 70
     6
  0
LTYPE
  5
11
330
4
100
AcDbSymbolTableRecord
100
AcDbLinetypeTableRecord
  2
ByBlock
 70
     0
  3

 72
    65
 73
     0
 40
0.0
  0
LTYPE
  5
12
330
4
100
AcDbSymbolTableRecord
100
AcDbLinetypeTableRecord
  2
ByLayer
 70
     0
  3
Solid line
 72
    65
 73
     0
 40
0.0
  0
LTYPE
  5
13
330
4
100
AcDbSymbolTableRecord
100
AcDbLinetypeTableRecord
  2
Continuous
 70
     0
  3
Solid line
 72
    65
 73
     0
 40
0.0
  0
LTYPE
  5
3B
330
4
100
AcDbSymbolTableRecord
100
AcDbLinetypeTableRecord
  2
STYLE_02
 70
     0
  3

 72
    65
 73
     2
 40
0.6944250000000001
 49
0.48607
 74
     0
 49
-0.2083550000000001
 74
     0
  0
LTYPE
  5
90E
330
4
100
AcDbSymbolTableRecord
100
AcDbLinetypeTableRecord
  2
DASHED1
 70
     0
  3
--  --  --  --  --  --  --  --  
 72
    65
 73
     2
 40
2.5
 49
1.25
 74
     0
 49
-1.25
 74
     0
  0
LTYPE
  5
4E6E
330
4
100
AcDbSymbolTableRecord
100
AcDbLinetypeTableRecord
  2
CENTER
 70
     0
  3
----------  --  ----------  --  
 72
    65
 73
     4
 40
20.0
 49
12.5
 74
     0
 49
-2.5
 74
     0
 49
2.5
 74
     0
 49
-2.5
 74
     0
  0
LTYPE
  5
4E6F
330
4
100
AcDbSymbolTableRecord
100
AcDbLinetypeTableRecord
  2
HIDDEN
 70
     0
  3
Hidden _ _ _ _ _ _ _ _ _ _ _ _ _ _ _ _ _ _ _ _ 
 72
    65
 73
     2
 40
9.524999999999999
 49
6.35
 74
     0
 49
-3.175
 74
     0
  0
LTYPE
  5
5708
330
4
100
AcDbSymbolTableRecord
100
AcDbLinetypeTableRecord
  2
HIDDEN2
 70
     0
  3
Hidden (.5x) _ _ _ _ _ _ _ _ _ _ _ _ _ _ _ _ _ 
 72
    65
 73
     2
 40
4.762499999999999
 49
3.175
 74
     0
 49
-1.5875
 74
     0
  0
ENDTAB
  0
TABLE
  2
LAYER
  5
2
102
{ACAD_XDICTIONARY
360
2E1
102
}
330
0
100
AcDbSymbolTable
 70
    13
  0
LAYER
  5
14
330
2
100
AcDbSymbolTableRecord
100
AcDbLayerTableRecord
  2
0
 70
     0
 62
     7
  6
Continuous
370
    -3
390
1D
347
266
  0
LAYER
  5
4A
330
2
100
AcDbSymbolTableRecord
100
AcDbLayerTableRecord
  2
Defpoints
 70
     0
 62
     7
  6
Continuous
290
     0
370
    -3
390
1D
347
266
  0
LAYER
  5
4D
330
2
100
AcDbSymbolTableRecord
100
AcDbLayerTableRecord
  2
MODEL
 70
     0
 62
     7
  6
Continuous
370
    20
390
1D
347
266
  0
LAYER
  5
667
330
2
100
AcDbSymbolTableRecord
100
AcDbLayerTableRecord
  2
レイヤー 1
 70
     0
 62
     7
  6
Continuous
370
    -3
390
1D
347
266
  0
LAYER
  5
4598
330
2
100
AcDbSymbolTableRecord
100
AcDbLayerTableRecord
  2
_0-1_
 70
     0
 62
     7
  6
Continuous
370
    -3
390
1D
347
266
  0
LAYER
  5
4E64
330
2
100
AcDbSymbolTableRecord
100
AcDbLayerTableRecord
  2
寸法
 70
     0
 62
     7
  6
Continuous
370
    13
390
1D
347
266
1001
AcAecLayerStandard
1000

1000

  0
LAYER
  5
4E68
330
2
100
AcDbSymbolTableRecord
100
AcDbLayerTableRecord
  2
テンプレート
 70
     0
 62
     7
  6
Continuous
370
    20
390
1D
347
266
1001
AcAecLayerStandard
1000

1000

  0
LAYER
  5
4E69
330
2
100
AcDbSymbolTableRecord
100
AcDbLayerTableRecord
  2
TFORMLOGO
 70
     0
 62
     7
  6
Continuous
370
    20
390
1D
347
266
  0
LAYER
  5
4E6A
330
2
100
AcDbSymbolTableRecord
100
AcDbLayerTableRecord
  2
PRINT BORDER
 70
     0
 62
     4
  6
Continuous
290
     0
370
    -3
390
1D
347
266
1001
AcAecLayerStandard
1000

1000

  0
LAYER
  5
4E6B
330
2
100
AcDbSymbolTableRecord
100
AcDbLayerTableRecord
  2
SPACER
 70
     0
 62
    -3
  6
Continuous
290
     0
370
    -3
390
1D
347
266
1001
AcAecLayerStandard
1000

1000

  0
LAYER
  5
4E6D
330
2
100
AcDbSymbolTableRecord
100
AcDbLayerTableRecord
  2
CutoutOverlay
 70
     0
 62
     7
  6
Continuous
370
    20
390
1D
347
266
1001
AcAecLayerStandard
1000

1000

  0
LAYER
  5
4FAC
330
2
100
AcDbSymbolTableRecord
100
AcDbLayerTableRecord
  2
CutoutUnderlay
 70
     0
 62
   254
  6
Continuous
370
    20
390
1D
347
266
1001
AcAecLayerStandard
1000

1000

  0
LAYER
  5
5A2D
330
2
100
AcDbSymbolTableRecord
100
AcDbLayerTableRecord
  2
HIDDEN
 70
     0
 62
     7
  6
HIDDEN
370
    20
390
1D
347
266
1001
AcAecLayerStandard
1000

1000

  0
ENDTAB
  0
TABLE
  2
STYLE
  5
3
330
0
100
AcDbSymbolTable
 70
     2
  0
STYLE
  5
17
330
3
100
AcDbSymbolTableRecord
100
AcDbTextStyleTableRecord
  2
Standard
 70
     0
 40
0.0
 41
1.0
 50
0.0
 71
     0
 42
2.5
  3
txt
  4
BIGFONT.SHX
  0
STYLE
  5
39
330
3
100
AcDbSymbolTableRecord
100
AcDbTextStyleTableRecord
  2
ＭＳ ゴシック
 70
     0
 40
0.0
 41
1.0
 50
0.0
 71
     0
 42
2.5
  3
msgothic.ttc
  4
ＭＳ ゴシック
1001
ACAD
1000
ＭＳ ゴシック
1071
        0
  0
ENDTAB
  0
TABLE
  2
VIEW
  5
5
330
0
100
AcDbSymbolTable
 70
     0
  0
ENDTAB
  0
TABLE
  2
UCS
  5
6
330
0
100
AcDbSymbolTable
 70
     0
  0
ENDTAB
  0
TABLE
  2
APPID
  5
8
330
0
100
AcDbSymbolTable
 70
     4
  0
APPID
  5
16
330
8
100
AcDbSymbolTableRecord
100
AcDbRegAppTableRecord
  2
ACAD
 70
     0
  0
APPID
  5
7AC
330
8
100
AcDbSymbolTableRecord
100
AcDbRegAppTableRecord
  2
AcAecLayerStandard
 70
     0
  0
APPID
  5
56DF
330
8
100
AcDbSymbolTableRecord
100
AcDbRegAppTableRecord
  2
ACAD_MLEADERVER
 70
     0
  0
APPID
  5
5C18
330
8
100
AcDbSymbolTableRecord
100
AcDbRegAppTableRecord
  2
PLOTTRANSPARENCY
 70
     0
  0
ENDTAB
  0
TABLE
  2
DIMSTYLE
  5
9
330
0
100
AcDbSymbolTable
 70
     3
100
AcDbDimStyleTable
  0
DIMSTYLE
105
18
330
9
100
AcDbSymbolTableRecord
100
AcDbDimStyleTableRecord
  2
Standard
 70
     0
178
     0
340
17
  0
DIMSTYLE
105
57
102
{ACAD_REACTORS
330
4A6C
330
4A99
330
5259
330
525A
330
525B
330
52DA
330
557D
330
562B
330
564C
330
5811
330
5821
330
583D
330
595C
330
5969
330
52DF
330
52E2
102
}
330
9
100
AcDbSymbolTableRecord
100
AcDbDimStyleTableRecord
  2
tfrom線あり
 70
     0
  3
<>
  4
[]
 41
1.5
 42
5.0
 43
0.9999999999999999
 44
0.0
 73
     0
 74
     0
 77
     1
 78
    11
140
5.0
141
0.0
143
1.0
147
2.0
171
     1
174
     1
178
     0
179
     2
271
     0
272
     1
276
     2
284
    11
285
    11
286
    11
289
     0
340
39
341
4E
342
4E
  0
DIMSTYLE
105
5BF2
330
9
100
AcDbSymbolTableRecord
100
AcDbDimStyleTableRecord
  2
ISO-25
 70
     0
 41
2.5
 42
0.625
 43
3.75
 44
1.25
 73
     0
 74
     0
 77
     1
 78
     8
140
2.5
141
2.5
143
0.03937
147
0.625
171
     3
172
     1
178
     0
271
     2
272
     2
274
     3
283
     0
284
     8
340
17
  0
ENDTAB
  0
TABLE
  2
BLOCK_RECORD
  5
1
330
0
100
AcDbSymbolTable
 70
    20
  0
BLOCK_RECORD
  5
A
102
{ACAD_XDICTIONARY
360
56F6
102
}
330
1
100
AcDbSymbolTableRecord
100
AcDbBlockTableRecord
  2
*MODEL_SPACE
340
20
 70
     0
280
     1
281
     0
  0
BLOCK_RECORD
  5
B
330
1
100
AcDbSymbolTableRecord
100
AcDbBlockTableRecord
  2
*PAPER_SPACE
340
21
 70
     0
280
     1
281
     0
  0
BLOCK_RECORD
  5
4E
330
1
100
AcDbSymbolTableRecord
100
AcDbBlockTableRecord
  2
_DOT
340
0
102
{BLKREFS
331
4A75
331
4A76
331
4AA2
331
4AA3
331
534A
331
534B
331
5354
331
5355
331
5360
331
5361
331
536C
331
536D
331
5587
331
5588
331
5634
331
5635
331
5655
331
5656
331
5818
331
5819
331
5828
331
5829
331
5846
331
5847
331
5963
331
5964
331
5972
331
5973
102
}
 70
     0
280
     1
281
     0
  0
BLOCK_RECORD
  5
690
330
1
100
AcDbSymbolTableRecord
100
AcDbBlockTableRecord
  2
block 3
340
0
102
{BLKREFS
331
4EB0
102
}
 70
     0
280
     1
281
     0
  0
BLOCK_RECORD
  5
693
330
1
100
AcDbSymbolTableRecord
100
AcDbBlockTableRecord
  2
block 4
340
0
102
{BLKREFS
331
692
102
}
 70
     0
280
     1
281
     0
  0
BLOCK_RECORD
  5
6A2
330
1
100
AcDbSymbolTableRecord
100
AcDbBlockTableRecord
  2
block 5
340
0
102
{BLKREFS
331
6A1
102
}
 70
     0
280
     1
281
     0
  0
BLOCK_RECORD
  5
4A6F
330
1
100
AcDbSymbolTableRecord
100
AcDbBlockTableRecord
  2
*D4
340
0
 70
     0
280
     1
281
     0
  0
BLOCK_RECORD
  5
4A9C
330
1
100
AcDbSymbolTableRecord
100
AcDbBlockTableRecord
  2
*D5
340
0
 70
     0
280
     1
281
     0
  0
BLOCK_RECORD
  5
4EAB
330
1
100
AcDbSymbolTableRecord
100
AcDbBlockTableRecord
  2
名称未設定-1
340
0
102
{BLKREFS
331
51C7
102
}
 70
     1
280
     1
281
     0
  0
BLOCK_RECORD
  5
4EAE
330
1
100
AcDbSymbolTableRecord
100
AcDbBlockTableRecord
  2
block 2
340
0
102
{BLKREFS
331
4EAD
102
}
 70
     0
280
     1
281
     0
  0
BLOCK_RECORD
  5
5342
330
1
100
AcDbSymbolTableRecord
100
AcDbBlockTableRecord
  2
*D8
340
0
 70
     0
280
     1
281
     0
  0
BLOCK_RECORD
  5
534E
330
1
100
AcDbSymbolTableRecord
100
AcDbBlockTableRecord
  2
*D9
340
0
 70
     0
280
     1
281
     0
  0
BLOCK_RECORD
  5
535A
330
1
100
AcDbSymbolTableRecord
100
AcDbBlockTableRecord
  2
*D10
340
0
 70
     0
280
     1
281
     0
  0
BLOCK_RECORD
  5
5366
330
1
100
AcDbSymbolTableRecord
100
AcDbBlockTableRecord
  2
*D11
340
0
 70
     0
280
     1
281
     0
  0
BLOCK_RECORD
  5
557F
330
1
100
AcDbSymbolTableRecord
100
AcDbBlockTableRecord
  2
*D12
340
0
 70
     0
280
     1
281
     0
  0
BLOCK_RECORD
  5
562E
330
1
100
AcDbSymbolTableRecord
100
AcDbBlockTableRecord
  2
*D13
340
0
 70
     0
280
     1
281
     0
  0
BLOCK_RECORD
  5
564F
330
1
100
AcDbSymbolTableRecord
100
AcDbBlockTableRecord
  2
*D14
340
0
 70
     0
280
     1
281
     0
  0
BLOCK_RECORD
  5
5812
330
1
100
AcDbSymbolTableRecord
100
AcDbBlockTableRecord
  2
*D15
340
0
 70
     0
280
     1
281
     0
  0
BLOCK_RECORD
  5
5822
330
1
100
AcDbSymbolTableRecord
100
AcDbBlockTableRecord
  2
*D16
340
0
 70
     0
280
     1
281
     0
  0
BLOCK_RECORD
  5
5840
330
1
100
AcDbSymbolTableRecord
100
AcDbBlockTableRecord
  2
*D17
340
0
 70
     0
280
     1
281
     0
  0
BLOCK_RECORD
  5
595D
330
1
100
AcDbSymbolTableRecord
100
AcDbBlockTableRecord
  2
*D18
340
0
 70
     0
280
     1
281
     0
  0
BLOCK_RECORD
  5
596C
330
1
100
AcDbSymbolTableRecord
100
AcDbBlockTableRecord
  2
*D19
340
0
 70
     0
280
     1
281
     0
  0
ENDTAB
  0
ENDSEC
  0
SECTION
  2
BLOCKS
  0
BLOCK
  5
D
330
A
100
AcDbEntity
  8
0
390
1D
100
AcDbBlockBegin
  2
*MODEL_SPACE
 70
     0
 10
0.0
 20
0.0
 30
0.0
  3
*MODEL_SPACE
  1
*MODEL_SPACE
  0
ENDBLK
  5
E
330
A
100
AcDbEntity
  8
0
390
1D
100
AcDbBlockEnd
  0
BLOCK
  5
F
330
B
100
AcDbEntity
 67
     1
  8
0
390
1D
100
AcDbBlockBegin
  2
*PAPER_SPACE
 70
     0
 10
0.0
 20
0.0
 30
0.0
  3
*PAPER_SPACE
  1
*PAPER_SPACE
  0
ENDBLK
  5
10
330
B
100
AcDbEntity
 67
     1
  8
0
390
1D
100
AcDbBlockEnd
  0
BLOCK
  5
52EF
330
4E
100
AcDbEntity
  8
0
390
1D
100
AcDbBlockBegin
  2
_DOT
 70
     0
 10
0.0
 20
0.0
 30
0.0
  3
_DOT
  1
_DOT
  0
POLYLINE
  5
52F1
330
4E
100
AcDbEntity
  8
0
  6
ByBlock
 62
     0
370
    -2
390
1D
100
AcDb2dPolyline
 66
     1
 10
0.0
 20
0.0
 30
0.0
 70
     1
 40
0.5
 41
0.5
  0
VERTEX
  5
52F2
330
52F1
100
AcDbEntity
  8
0
  6
ByBlock
 62
     0
370
    -2
390
1D
100
AcDbVertex
100
AcDb2dVertex
 10
-0.25
 20
0.0
 30
0.0
 42
1.0
  0
VERTEX
  5
52F3
330
52F1
100
AcDbEntity
  8
0
  6
ByBlock
 62
     0
370
    -2
390
1D
100
AcDbVertex
100
AcDb2dVertex
 10
0.25
 20
0.0
 30
0.0
 42
1.0
  0
SEQEND
  5
52F4
330
52F1
100
AcDbEntity
  8
0
390
1D
  0
LINE
  5
52F5
330
4E
100
AcDbEntity
  8
0
  6
ByBlock
 62
     0
370
    -2
390
1D
100
AcDbLine
 10
-0.5
 20
0.0
 30
0.0
 11
-1.0
 21
0.0
 31
0.0
  0
ENDBLK
  5
52F6
330
4E
100
AcDbEntity
  8
0
390
1D
100
AcDbBlockEnd
  0
BLOCK
  5
691
330
690
100
AcDbEntity
  8
0
100
AcDbBlockBegin
  2
block 3
 70
     0
 10
0.0
 20
0.0
 30
0.0
  3
block 3
  1
block 3
  0
INSERT
  5
692
330
690
100
AcDbEntity
  8
レイヤー 1
100
AcDbBlockReference
  2
block 4
 10
0.0
 20
0.0
 30
0.0
  0
ENDBLK
  5
6AF
330
690
100
AcDbEntity
  8
0
100
AcDbBlockEnd
  0
BLOCK
  5
694
330
693
100
AcDbEntity
  8
0
100
AcDbBlockBegin
  2
block 4
 70
     0
 10
0.0
 20
0.0
 30
0.0
  3
block 4
  1
block 4
  0
POLYLINE
  5
695
330
693
100
AcDbEntity
  8
レイヤー 1
370
     0
100
AcDb2dPolyline
 66
     1
 10
0.0
 20
0.0
 30
0.0
  0
VERTEX
  5
696
330
695
100
AcDbEntity
  8
レイヤー 1
370
     0
100
AcDbVertex
100
AcDb2dVertex
 10
83.79545727667795
 20
167.6444858234922
 30
0.0
  0
VERTEX
  5
697
330
695
100
AcDbEntity
  8
レイヤー 1
370
     0
100
AcDbVertex
100
AcDb2dVertex
 10
83.79545727667795
 20
159.7968976406313
 30
0.0
  0
VERTEX
  5
698
330
695
100
AcDbEntity
  8
レイヤー 1
370
     0
100
AcDbVertex
100
AcDb2dVertex
 10
71.3631329975216
 20
159.7968976406313
 30
0.0
  0
VERTEX
  5
699
330
695
100
AcDbEntity
  8
レイヤー 1
370
     0
100
AcDbVertex
100
AcDb2dVertex
 10
71.3631329975216
 20
127.8027915271048
 30
0.0
  0
VERTEX
  5
69A
330
695
100
AcDbEntity
  8
レイヤー 1
370
     0
100
AcDbVertex
100
AcDb2dVertex
 10
60.43011526263018
 20
127.8027915271048
 30
0.0
  0
VERTEX
  5
69B
330
695
100
AcDbEntity
  8
レイヤー 1
370
     0
100
AcDbVertex
100
AcDb2dVertex
 10
60.43011526263018
 20
159.7968976406313
 30
0.0
  0
VERTEX
  5
69C
330
695
100
AcDbEntity
  8
レイヤー 1
370
     0
100
AcDbVertex
100
AcDb2dVertex
 10
48.21793273020759
 20
159.7968976406313
 30
0.0
  0
VERTEX
  5
69D
330
695
100
AcDbEntity
  8
レイヤー 1
370
     0
100
AcDbVertex
100
AcDb2dVertex
 10
48.21793273020759
 20
167.6444858234922
 30
0.0
  0
VERTEX
  5
69E
330
695
100
AcDbEntity
  8
レイヤー 1
370
     0
100
AcDbVertex
100
AcDb2dVertex
 10
83.79545727667795
 20
167.6444858234922
 30
0.0
  0
SEQEND
  5
69F
330
695
100
AcDbEntity
  8
レイヤー 1
370
     0
  0
HATCH
  5
6A0
330
693
100
AcDbEntity
  8
レイヤー 1
 62
   250
420
  2234388
100
AcDbHatch
 10
0.0
 20
0.0
 30
0.0
210
0.0
220
0.0
230
1.0
  2
SOLID
 70
     1
 71
     0
 91
        1
 92
        1
 93
        8
 72
     1
 10
83.79545727667795
 20
167.6444858234922
 11
83.79545727667795
 21
159.7968976406313
 72
     1
 10
83.79545727667795
 20
159.7968976406313
 11
71.3631329975216
 21
159.7968976406313
 72
     1
 10
71.3631329975216
 20
159.7968976406313
 11
71.3631329975216
 21
127.8027915271048
 72
     1
 10
71.3631329975216
 20
127.8027915271048
 11
60.43011526263018
 21
127.8027915271048
 72
     1
 10
60.43011526263018
 20
127.8027915271048
 11
60.43011526263018
 21
159.7968976406313
 72
     1
 10
60.43011526263018
 20
159.7968976406313
 11
48.21793273020759
 21
159.7968976406313
 72
     1
 10
48.21793273020759
 20
159.7968976406313
 11
48.21793273020759
 21
167.6444858234922
 72
     1
 10
48.21793273020759
 20
167.6444858234922
 11
83.79545727667795
 21
167.6444858234922
 97
        0
 75
     2
 76
     1
 98
        0
  0
INSERT
  5
6A1
330
693
100
AcDbEntity
  8
レイヤー 1
100
AcDbBlockReference
  2
block 5
 10
0.0
 20
0.0
 30
0.0
  0
ENDBLK
  5
6AE
330
693
100
AcDbEntity
  8
0
100
AcDbBlockEnd
  0
BLOCK
  5
6A3
330
6A2
100
AcDbEntity
  8
0
100
AcDbBlockBegin
  2
block 5
 70
     0
 10
0.0
 20
0.0
 30
0.0
  3
block 5
  1
block 5
  0
SPLINE
  5
6A4
330
6A2
100
AcDbEntity
  8
レイヤー 1
370
     0
100
AcDbSpline
210
0.0
220
0.0
230
1.0
 70
    11
 71
     3
 72
    56
 73
    52
 74
     0
 42
0.000000001
 43
0.0000000001
 40
0.0
 40
0.0
 40
0.0
 40
0.0
 40
1.0
 40
1.0
 40
1.0
 40
2.0
 40
2.0
 40
2.0
 40
3.0
 40
3.0
 40
3.0
 40
4.0
 40
4.0
 40
4.0
 40
5.0
 40
5.0
 40
5.0
 40
6.0
 40
6.0
 40
6.0
 40
7.0
 40
7.0
 40
7.0
 40
8.0
 40
8.0
 40
8.0
 40
9.0
 40
9.0
 40
9.0
 40
10.0
 40
10.0
 40
10.0
 40
11.0
 40
11.0
 40
11.0
 40
12.0
 40
12.0
 40
12.0
 40
13.0
 40
13.0
 40
13.0
 40
14.0
 40
14.0
 40
14.0
 40
15.0
 40
15.0
 40
15.0
 40
16.0
 40
16.0
 40
16.0
 40
17.0
 40
17.0
 40
17.0
 40
17.0
 10
100.4504378777679
 20
166.69157178364
 30
0.0
 10
101.9848844191641
 20
167.1313385124438
 30
0.0
 10
103.9637485713373
 20
166.7649523658846
 30
0.0
 10
103.9637485713373
 20
166.7649523658846
 30
0.0
 10
103.9637485713373
 20
166.7649523658846
 30
0.0
 10
103.0132460999156
 20
163.911205638077
 30
0.0
 10
103.0132460999156
 20
163.911205638077
 30
0.0
 10
103.0132460999156
 20
163.911205638077
 30
0.0
 10
101.0674548862189
 20
164.3601018759394
 30
0.0
 10
99.57090442016032
 20
163.1805004036133
 30
0.0
 10
98.40508333886608
 20
162.258247733807
 30
0.0
 10
97.65301849830304
 20
159.804132345923
 30
0.0
 10
97.3598406791005
 20
158.8699940888517
 30
0.0
 10
97.3598406791005
 20
158.8699940888517
 30
0.0
 10
96.07137411762282
 20
154.9119212747295
 30
0.0
 10
96.07137411762282
 20
154.9119212747295
 30
0.0
 10
96.07137411762282
 20
154.9119212747295
 30
0.0
 10
100.3012651448482
 20
154.9119212747295
 30
0.0
 10
100.3012651448482
 20
154.9119212747295
 30
0.0
 10
100.3012651448482
 20
154.9119212747295
 30
0.0
 10
99.64152892419852
 20
152.4199098115079
 30
0.0
 10
99.64152892419852
 20
152.4199098115079
 30
0.0
 10
99.64152892419852
 20
152.4199098115079
 30
0.0
 10
95.38097652692731
 20
152.4199098115079
 30
0.0
 10
95.38097652692731
 20
152.4199098115079
 30
0.0
 10
95.38097652692731
 20
152.4199098115079
 30
0.0
 10
87.75353009080013
 20
127.8027915271048
 30
0.0
 10
87.75353009080013
 20
127.8027915271048
 30
0.0
 10
87.75353009080013
 20
127.8027915271048
 30
0.0
 10
85.36538832498108
 20
127.8027915271048
 30
0.0
 10
85.36538832498108
 20
127.8027915271048
 30
0.0
 10
85.36538832498108
 20
127.8027915271048
 30
0.0
 10
93.00006946639998
 20
152.4199098115079
 30
0.0
 10
93.00006946639998
 20
152.4199098115079
 30
0.0
 10
93.00006946639998
 20
152.4199098115079
 30
0.0
 10
89.85297266450198
 20
152.4199098115079
 30
0.0
 10
89.85297266450198
 20
152.4199098115079
 30
0.0
 10
89.85297266450198
 20
152.4199098115079
 30
0.0
 10
90.51270888515164
 20
154.9119212747295
 30
0.0
 10
90.51270888515164
 20
154.9119212747295
 30
0.0
 10
90.51270888515164
 20
154.9119212747295
 30
0.0
 10
93.6904670570955
 20
154.9119212747295
 30
0.0
 10
93.6904670570955
 20
154.9119212747295
 30
0.0
 10
93.6904670570955
 20
154.9119212747295
 30
0.0
 10
94.81598049462158
 20
158.3616699146644
 30
0.0
 10
94.81598049462158
 20
158.3616699146644
 30
0.0
 10
95.7237637538445
 20
161.2605474231013
 30
0.0
 10
96.4968436907311
 20
162.8139420021662
 30
0.0
 10
97.15657991138076
 20
163.9844139654337
 30
0.0
 10
97.81183750494507
 20
165.1523021053827
 30
0.0
 10
99.1047826935081
 20
166.3084769129547
 30
0.0
 10
100.4504378777679
 20
166.69157178364
 30
0.0
  0
HATCH
  5
6A5
330
6A2
100
AcDbEntity
  8
レイヤー 1
 62
   250
420
  2234388
100
AcDbHatch
 10
0.0
 20
0.0
 30
0.0
210
0.0
220
0.0
230
1.0
  2
SOLID
 70
     1
 71
     0
 91
        1
 92
        1
 93
        1
 72
     4
 94
        3
 73
     0
 74
     1
 95
       56
 96
       52
 40
0.0
 40
0.0
 40
0.0
 40
0.0
 40
1.0
 40
1.0
 40
1.0
 40
2.0
 40
2.0
 40
2.0
 40
3.0
 40
3.0
 40
3.0
 40
4.0
 40
4.0
 40
4.0
 40
5.0
 40
5.0
 40
5.0
 40
6.0
 40
6.0
 40
6.0
 40
7.0
 40
7.0
 40
7.0
 40
8.0
 40
8.0
 40
8.0
 40
9.0
 40
9.0
 40
9.0
 40
10.0
 40
10.0
 40
10.0
 40
11.0
 40
11.0
 40
11.0
 40
12.0
 40
12.0
 40
12.0
 40
13.0
 40
13.0
 40
13.0
 40
14.0
 40
14.0
 40
14.0
 40
15.0
 40
15.0
 40
15.0
 40
16.0
 40
16.0
 40
16.0
 40
17.0
 40
17.0
 40
17.0
 40
17.0
 10
100.4504378777679
 20
166.69157178364
 10
101.9848844191641
 20
167.1313385124438
 10
103.9637485713373
 20
166.7649523658846
 10
103.9637485713373
 20
166.7649523658846
 10
103.9637485713373
 20
166.7649523658846
 10
103.0132460999156
 20
163.911205638077
 10
103.0132460999156
 20
163.911205638077
 10
103.0132460999156
 20
163.911205638077
 10
101.0674548862189
 20
164.3601018759394
 10
99.57090442016032
 20
163.1805004036133
 10
98.40508333886608
 20
162.258247733807
 10
97.65301849830304
 20
159.804132345923
 10
97.3598406791005
 20
158.8699940888517
 10
97.3598406791005
 20
158.8699940888517
 10
96.07137411762282
 20
154.9119212747295
 10
96.07137411762282
 20
154.9119212747295
 10
96.07137411762282
 20
154.9119212747295
 10
100.3012651448482
 20
154.9119212747295
 10
100.3012651448482
 20
154.9119212747295
 10
100.3012651448482
 20
154.9119212747295
 10
99.64152892419852
 20
152.4199098115079
 10
99.64152892419852
 20
152.4199098115079
 10
99.64152892419852
 20
152.4199098115079
 10
95.38097652692731
 20
152.4199098115079
 10
95.38097652692731
 20
152.4199098115079
 10
95.38097652692731
 20
152.4199098115079
 10
87.75353009080013
 20
127.8027915271048
 10
87.75353009080013
 20
127.8027915271048
 10
87.75353009080013
 20
127.8027915271048
 10
85.36538832498108
 20
127.8027915271048
 10
85.36538832498108
 20
127.8027915271048
 10
85.36538832498108
 20
127.8027915271048
 10
93.00006946639998
 20
152.4199098115079
 10
93.00006946639998
 20
152.4199098115079
 10
93.00006946639998
 20
152.4199098115079
 10
89.85297266450198
 20
152.4199098115079
 10
89.85297266450198
 20
152.4199098115079
 10
89.85297266450198
 20
152.4199098115079
 10
90.51270888515164
 20
154.9119212747295
 10
90.51270888515164
 20
154.9119212747295
 10
90.51270888515164
 20
154.9119212747295
 10
93.6904670570955
 20
154.9119212747295
 10
93.6904670570955
 20
154.9119212747295
 10
93.6904670570955
 20
154.9119212747295
 10
94.81598049462158
 20
158.3616699146644
 10
94.81598049462158
 20
158.3616699146644
 10
95.7237637538445
 20
161.2605474231013
 10
96.4968436907311
 20
162.8139420021662
 10
97.15657991138076
 20
163.9844139654337
 10
97.81183750494507
 20
165.1523021053827
 10
99.1047826935081
 20
166.3084769129547
 10
100.4504378777679
 20
166.69157178364
 97
        0
 75
     2
 76
     1
 98
        0
  0
SPLINE
  5
6A6
330
6A2
100
AcDbEntity
  8
レイヤー 1
370
     0
100
AcDbSpline
210
0.0
220
0.0
230
1.0
 70
    11
 71
     3
 72
    38
 73
    34
 74
     0
 42
0.000000001
 43
0.0000000001
 40
0.0
 40
0.0
 40
0.0
 40
0.0
 40
1.0
 40
1.0
 40
1.0
 40
2.0
 40
2.0
 40
2.0
 40
3.0
 40
3.0
 40
3.0
 40
4.0
 40
4.0
 40
4.0
 40
5.0
 40
5.0
 40
5.0
 40
6.0
 40
6.0
 40
6.0
 40
7.0
 40
7.0
 40
7.0
 40
8.0
 40
8.0
 40
8.0
 40
9.0
 40
9.0
 40
9.0
 40
10.0
 40
10.0
 40
10.0
 40
11.0
 40
11.0
 40
11.0
 40
11.0
 10
126.377554584636
 20
154.8151140277308
 30
0.0
 10
126.377554584636
 20
154.8151140277308
 30
0.0
 10
128.8311532078563
 20
154.8151140277308
 30
0.0
 10
128.8311532078563
 20
154.8151140277308
 30
0.0
 10
128.8311532078563
 20
154.8151140277308
 30
0.0
 10
127.7345785914971
 20
151.3062819612468
 30
0.0
 10
127.7345785914971
 20
151.3062819612468
 30
0.0
 10
128.571392836906
 20
152.2922689395754
 30
0.0
 10
129.8860421413442
 20
153.604506675583
 30
0.0
 10
131.0163787157314
 20
154.2664822097754
 30
0.0
 10
132.7044766171327
 20
155.2500576196734
 30
0.0
 10
133.6642808525008
 20
155.3847609420097
 30
0.0
 10
134.7284715499351
 20
155.3565111403944
 30
0.0
 10
134.7284715499351
 20
155.3565111403944
 30
0.0
 10
133.6877075172549
 20
152.0345756272799
 30
0.0
 10
133.6877075172549
 20
152.0345756272799
 30
0.0
 10
133.011434827367
 20
152.3184516825359
 30
0.0
 10
130.930940291334
 20
151.7768823149844
 30
0.0
 10
129.739280976855
 20
150.9162968950455
 30
0.0
 10
128.66613302525
 20
150.1454562717016
 30
0.0
 10
127.9192358313239
 20
149.4857200510519
 30
0.0
 10
127.0393578639405
 20
147.8282835196966
 30
0.0
 10
126.164647543194
 20
146.1699857139017
 30
0.0
 10
125.4742499524985
 20
143.5262176944419
 30
0.0
 10
124.2822461282437
 20
139.6959580071401
 30
0.0
 10
124.2822461282437
 20
139.6959580071401
 30
0.0
 10
120.5753209406769
 20
127.8027915271048
 30
0.0
 10
120.5753209406769
 20
127.8027915271048
 30
0.0
 10
120.5753209406769
 20
127.8027915271048
 30
0.0
 10
118.1964809388044
 20
127.8027915271048
 30
0.0
 10
118.1964809388044
 20
127.8027915271048
 30
0.0
 10
118.1964809388044
 20
127.8027915271048
 30
0.0
 10
126.377554584636
 20
154.8151140277308
 30
0.0
 10
126.377554584636
 20
154.8151140277308
 30
0.0
  0
HATCH
  5
6A7
330
6A2
100
AcDbEntity
  8
レイヤー 1
 62
   250
420
  2234388
100
AcDbHatch
 10
0.0
 20
0.0
 30
0.0
210
0.0
220
0.0
230
1.0
  2
SOLID
 70
     1
 71
     0
 91
        1
 92
        1
 93
        1
 72
     4
 94
        3
 73
     0
 74
     1
 95
       38
 96
       34
 40
0.0
 40
0.0
 40
0.0
 40
0.0
 40
1.0
 40
1.0
 40
1.0
 40
2.0
 40
2.0
 40
2.0
 40
3.0
 40
3.0
 40
3.0
 40
4.0
 40
4.0
 40
4.0
 40
5.0
 40
5.0
 40
5.0
 40
6.0
 40
6.0
 40
6.0
 40
7.0
 40
7.0
 40
7.0
 40
8.0
 40
8.0
 40
8.0
 40
9.0
 40
9.0
 40
9.0
 40
10.0
 40
10.0
 40
10.0
 40
11.0
 40
11.0
 40
11.0
 40
11.0
 10
126.377554584636
 20
154.8151140277308
 10
126.377554584636
 20
154.8151140277308
 10
128.8311532078563
 20
154.8151140277308
 10
128.8311532078563
 20
154.8151140277308
 10
128.8311532078563
 20
154.8151140277308
 10
127.7345785914971
 20
151.3062819612468
 10
127.7345785914971
 20
151.3062819612468
 10
128.571392836906
 20
152.2922689395754
 10
129.8860421413442
 20
153.604506675583
 10
131.0163787157314
 20
154.2664822097754
 10
132.7044766171327
 20
155.2500576196734
 10
133.6642808525008
 20
155.3847609420097
 10
134.7284715499351
 20
155.3565111403944
 10
134.7284715499351
 20
155.3565111403944
 10
133.6877075172549
 20
152.0345756272799
 10
133.6877075172549
 20
152.0345756272799
 10
133.011434827367
 20
152.3184516825359
 10
130.930940291334
 20
151.7768823149844
 10
129.739280976855
 20
150.9162968950455
 10
128.66613302525
 20
150.1454562717016
 10
127.9192358313239
 20
149.4857200510519
 10
127.0393578639405
 20
147.8282835196966
 10
126.164647543194
 20
146.1699857139017
 10
125.4742499524985
 20
143.5262176944419
 10
124.2822461282437
 20
139.6959580071401
 10
124.2822461282437
 20
139.6959580071401
 10
120.5753209406769
 20
127.8027915271048
 10
120.5753209406769
 20
127.8027915271048
 10
120.5753209406769
 20
127.8027915271048
 10
118.1964809388044
 20
127.8027915271048
 10
118.1964809388044
 20
127.8027915271048
 10
118.1964809388044
 20
127.8027915271048
 10
126.377554584636
 20
154.8151140277308
 10
126.377554584636
 20
154.8151140277308
 97
        0
 75
     2
 76
     1
 98
        0
  0
SPLINE
  5
6A8
330
6A2
100
AcDbEntity
  8
レイヤー 1
370
     0
100
AcDbSpline
210
0.0
220
0.0
230
1.0
 70
    11
 71
     3
 72
   104
 73
   100
 74
     0
 42
0.000000001
 43
0.0000000001
 40
0.0
 40
0.0
 40
0.0
 40
0.0
 40
1.0
 40
1.0
 40
1.0
 40
2.0
 40
2.0
 40
2.0
 40
3.0
 40
3.0
 40
3.0
 40
4.0
 40
4.0
 40
4.0
 40
5.0
 40
5.0
 40
5.0
 40
6.0
 40
6.0
 40
6.0
 40
7.0
 40
7.0
 40
7.0
 40
8.0
 40
8.0
 40
8.0
 40
9.0
 40
9.0
 40
9.0
 40
10.0
 40
10.0
 40
10.0
 40
11.0
 40
11.0
 40
11.0
 40
12.0
 40
12.0
 40
12.0
 40
13.0
 40
13.0
 40
13.0
 40
14.0
 40
14.0
 40
14.0
 40
15.0
 40
15.0
 40
15.0
 40
16.0
 40
16.0
 40
16.0
 40
17.0
 40
17.0
 40
17.0
 40
18.0
 40
18.0
 40
18.0
 40
19.0
 40
19.0
 40
19.0
 40
20.0
 40
20.0
 40
20.0
 40
21.0
 40
21.0
 40
21.0
 40
22.0
 40
22.0
 40
22.0
 40
23.0
 40
23.0
 40
23.0
 40
24.0
 40
24.0
 40
24.0
 40
25.0
 40
25.0
 40
25.0
 40
26.0
 40
26.0
 40
26.0
 40
27.0
 40
27.0
 40
27.0
 40
28.0
 40
28.0
 40
28.0
 40
29.0
 40
29.0
 40
29.0
 40
30.0
 40
30.0
 40
30.0
 40
31.0
 40
31.0
 40
31.0
 40
32.0
 40
32.0
 40
32.0
 40
33.0
 40
33.0
 40
33.0
 40
33.0
 10
139.8926730891197
 20
154.8294111834263
 30
0.0
 10
139.8926730891197
 20
154.8294111834263
 30
0.0
 10
142.0344903652445
 20
154.8294111834263
 30
0.0
 10
142.0344903652445
 20
154.8294111834263
 30
0.0
 10
142.0344903652445
 20
154.8294111834263
 30
0.0
 10
140.9516961399171
 20
151.3157559800812
 30
0.0
 10
140.9516961399171
 20
151.3157559800812
 30
0.0
 10
141.8928968473923
 20
152.7887075264977
 30
0.0
 10
142.7341897198865
 20
153.4484437471474
 30
0.0
 10
143.8552245303272
 20
154.2926649527359
 30
0.0
 10
144.9803934580775
 20
155.1296514530327
 30
0.0
 10
146.3139908001845
 20
155.3044901642492
 30
0.0
 10
147.241066606852
 20
155.3044901642492
 30
0.0
 10
148.3855280820469
 20
155.3044901642492
 30
0.0
 10
149.4969166187653
 20
155.0752189084569
 30
0.0
 10
150.0784491203092
 20
153.8172414621372
 30
0.0
 10
150.5228667310863
 20
152.833838307127
 30
0.0
 10
150.5414702589793
 20
152.7201500811143
 30
0.0
 10
150.4140016419347
 20
150.7765981809602
 30
0.0
 10
151.5818897818837
 20
152.7699317437168
 30
0.0
 10
152.4424752018226
 20
153.6256940267945
 30
0.0
 10
153.9038856707499
 20
154.4507949398263
 30
0.0
 10
155.4455669174378
 20
155.3044901642492
 30
0.0
 10
156.339225275853
 20
155.3659851592288
 30
0.0
 10
157.3748216618963
 20
155.2147453676543
 30
0.0
 10
158.911679771723
 20
154.9877134254046
 30
0.0
 10
159.8859534176746
 20
154.4390816074493
 30
0.0
 10
160.3965169054045
 20
152.7816450760939
 30
0.0
 10
160.9070803931344
 20
151.1219692311958
 30
0.0
 10
160.6328506116007
 20
150.2303779314354
 30
0.0
 10
159.9992971339115
 20
147.597634224801
 30
0.0
 10
159.7105979417943
 20
146.4014962832367
 30
0.0
 10
159.2947746424084
 20
144.9400858143094
 30
0.0
 10
158.7463150793409
 20
143.2092687007094
 30
0.0
 10
158.7463150793409
 20
143.2092687007094
 30
0.0
 10
153.9038856707499
 20
127.8027915271048
 30
0.0
 10
153.9038856707499
 20
127.8027915271048
 30
0.0
 10
153.9038856707499
 20
127.8027915271048
 30
0.0
 10
151.3882752878863
 20
127.8027915271048
 30
0.0
 10
151.3882752878863
 20
127.8027915271048
 30
0.0
 10
151.3882752878863
 20
127.8027915271048
 30
0.0
 10
155.6250565106276
 20
141.2751908193897
 30
0.0
 10
155.6250565106276
 20
141.2751908193897
 30
0.0
 10
156.5094131050963
 20
144.0936252951782
 30
0.0
 10
157.109893644309
 20
146.1506931664571
 30
0.0
 10
157.4220195011804
 20
147.4415712963654
 30
0.0
 10
157.8095929989511
 20
149.0530157726519
 30
0.0
 10
157.9656559273867
 20
149.5826995529385
 30
0.0
 10
157.7816877071116
 20
150.7529992613181
 30
0.0
 10
157.6111553680925
 20
151.8430281919372
 30
0.0
 10
157.0582171779396
 20
152.5547853887321
 30
0.0
 10
156.1170164704645
 20
152.5547853887321
 30
0.0
 10
155.1096698860365
 20
152.5547853887321
 30
0.0
 10
154.2962823053817
 20
152.4412694176073
 30
0.0
 10
153.156643967048
 20
151.2945686288697
 30
0.0
 10
152.0170056287143
 20
150.1476955852443
 30
0.0
 10
151.076149431015
 20
148.7930831468137
 30
0.0
 10
150.3337308641742
 20
147.2290087646991
 30
0.0
 10
149.5957909244188
 20
145.6683794803425
 30
0.0
 10
148.8530278478023
 20
143.6822806228776
 30
0.0
 10
148.0964843801539
 20
141.2751908193897
 30
0.0
 10
148.0964843801539
 20
141.2751908193897
 30
0.0
 10
143.8552245303272
 20
127.8027915271048
 30
0.0
 10
143.8552245303272
 20
127.8027915271048
 30
0.0
 10
143.8552245303272
 20
127.8027915271048
 30
0.0
 10
141.486030802177
 20
127.8027915271048
 30
0.0
 10
141.486030802177
 20
127.8027915271048
 30
0.0
 10
141.486030802177
 20
127.8027915271048
 30
0.0
 10
146.3329388378533
 20
143.2092687007094
 30
0.0
 10
146.3329388378533
 20
143.2092687007094
 30
0.0
 10
146.8483254624444
 20
144.8408669988801
 30
0.0
 10
147.2314203331297
 20
146.1837661049335
 30
0.0
 10
147.4867020769946
 20
147.224185627838
 30
0.0
 10
147.9169947869641
 20
149.0197705792876
 30
0.0
 10
148.0306830129768
 20
150.2400242051577
 30
0.0
 10
147.709255392159
 20
151.3157559800812
 30
0.0
 10
147.3874832615654
 20
152.3916600098926
 30
0.0
 10
146.8245542879144
 20
152.6683013598569
 30
0.0
 10
145.8840425999909
 20
152.6683013598569
 30
0.0
 10
145.0989048209514
 20
152.6683013598569
 30
0.0
 10
144.3282364524954
 20
152.3275811915945
 30
0.0
 10
143.4531816219731
 20
151.6538923250251
 30
0.0
 10
142.34627171234
 20
150.8074318058939
 30
0.0
 10
141.901854101563
 20
150.1097995099067
 30
0.0
 10
141.3578731655808
 20
149.289521733736
 30
0.0
 10
140.6299240093235
 20
148.192602607601
 30
0.0
 10
140.2850697237515
 20
147.455696197173
 30
0.0
 10
139.6652966370942
 20
145.8385673095858
 30
0.0
 10
139.0506911970739
 20
144.2214384219986
 30
0.0
 10
138.463991048893
 20
142.3252566160164
 30
0.0
 10
138.0571250036777
 20
141.0154304484394
 30
0.0
 10
138.0571250036777
 20
141.0154304484394
 30
0.0
 10
133.9009590684727
 20
127.8027915271048
 30
0.0
 10
133.9009590684727
 20
127.8027915271048
 30
0.0
 10
133.9009590684727
 20
127.8027915271048
 30
0.0
 10
131.4180771143097
 20
127.8027915271048
 30
0.0
 10
131.4180771143097
 20
127.8027915271048
 30
0.0
 10
131.4180771143097
 20
127.8027915271048
 30
0.0
 10
139.8926730891197
 20
154.8294111834263
 30
0.0
 10
139.8926730891197
 20
154.8294111834263
 30
0.0
  0
HATCH
  5
6A9
330
6A2
100
AcDbEntity
  8
レイヤー 1
 62
   250
420
  2234388
100
AcDbHatch
 10
0.0
 20
0.0
 30
0.0
210
0.0
220
0.0
230
1.0
  2
SOLID
 70
     1
 71
     0
 91
        1
 92
        1
 93
        1
 72
     4
 94
        3
 73
     0
 74
     1
 95
      104
 96
      100
 40
0.0
 40
0.0
 40
0.0
 40
0.0
 40
1.0
 40
1.0
 40
1.0
 40
2.0
 40
2.0
 40
2.0
 40
3.0
 40
3.0
 40
3.0
 40
4.0
 40
4.0
 40
4.0
 40
5.0
 40
5.0
 40
5.0
 40
6.0
 40
6.0
 40
6.0
 40
7.0
 40
7.0
 40
7.0
 40
8.0
 40
8.0
 40
8.0
 40
9.0
 40
9.0
 40
9.0
 40
10.0
 40
10.0
 40
10.0
 40
11.0
 40
11.0
 40
11.0
 40
12.0
 40
12.0
 40
12.0
 40
13.0
 40
13.0
 40
13.0
 40
14.0
 40
14.0
 40
14.0
 40
15.0
 40
15.0
 40
15.0
 40
16.0
 40
16.0
 40
16.0
 40
17.0
 40
17.0
 40
17.0
 40
18.0
 40
18.0
 40
18.0
 40
19.0
 40
19.0
 40
19.0
 40
20.0
 40
20.0
 40
20.0
 40
21.0
 40
21.0
 40
21.0
 40
22.0
 40
22.0
 40
22.0
 40
23.0
 40
23.0
 40
23.0
 40
24.0
 40
24.0
 40
24.0
 40
25.0
 40
25.0
 40
25.0
 40
26.0
 40
26.0
 40
26.0
 40
27.0
 40
27.0
 40
27.0
 40
28.0
 40
28.0
 40
28.0
 40
29.0
 40
29.0
 40
29.0
 40
30.0
 40
30.0
 40
30.0
 40
31.0
 40
31.0
 40
31.0
 40
32.0
 40
32.0
 40
32.0
 40
33.0
 40
33.0
 40
33.0
 40
33.0
 10
139.8926730891197
 20
154.8294111834263
 10
139.8926730891197
 20
154.8294111834263
 10
142.0344903652445
 20
154.8294111834263
 10
142.0344903652445
 20
154.8294111834263
 10
142.0344903652445
 20
154.8294111834263
 10
140.9516961399171
 20
151.3157559800812
 10
140.9516961399171
 20
151.3157559800812
 10
141.8928968473923
 20
152.7887075264977
 10
142.7341897198865
 20
153.4484437471474
 10
143.8552245303272
 20
154.2926649527359
 10
144.9803934580775
 20
155.1296514530327
 10
146.3139908001845
 20
155.3044901642492
 10
147.241066606852
 20
155.3044901642492
 10
148.3855280820469
 20
155.3044901642492
 10
149.4969166187653
 20
155.0752189084569
 10
150.0784491203092
 20
153.8172414621372
 10
150.5228667310863
 20
152.833838307127
 10
150.5414702589793
 20
152.7201500811143
 10
150.4140016419347
 20
150.7765981809602
 10
151.5818897818837
 20
152.7699317437168
 10
152.4424752018226
 20
153.6256940267945
 10
153.9038856707499
 20
154.4507949398263
 10
155.4455669174378
 20
155.3044901642492
 10
156.339225275853
 20
155.3659851592288
 10
157.3748216618963
 20
155.2147453676543
 10
158.911679771723
 20
154.9877134254046
 10
159.8859534176746
 20
154.4390816074493
 10
160.3965169054045
 20
152.7816450760939
 10
160.9070803931344
 20
151.1219692311958
 10
160.6328506116007
 20
150.2303779314354
 10
159.9992971339115
 20
147.597634224801
 10
159.7105979417943
 20
146.4014962832367
 10
159.2947746424084
 20
144.9400858143094
 10
158.7463150793409
 20
143.2092687007094
 10
158.7463150793409
 20
143.2092687007094
 10
153.9038856707499
 20
127.8027915271048
 10
153.9038856707499
 20
127.8027915271048
 10
153.9038856707499
 20
127.8027915271048
 10
151.3882752878863
 20
127.8027915271048
 10
151.3882752878863
 20
127.8027915271048
 10
151.3882752878863
 20
127.8027915271048
 10
155.6250565106276
 20
141.2751908193897
 10
155.6250565106276
 20
141.2751908193897
 10
156.5094131050963
 20
144.0936252951782
 10
157.109893644309
 20
146.1506931664571
 10
157.4220195011804
 20
147.4415712963654
 10
157.8095929989511
 20
149.0530157726519
 10
157.9656559273867
 20
149.5826995529385
 10
157.7816877071116
 20
150.7529992613181
 10
157.6111553680925
 20
151.8430281919372
 10
157.0582171779396
 20
152.5547853887321
 10
156.1170164704645
 20
152.5547853887321
 10
155.1096698860365
 20
152.5547853887321
 10
154.2962823053817
 20
152.4412694176073
 10
153.156643967048
 20
151.2945686288697
 10
152.0170056287143
 20
150.1476955852443
 10
151.076149431015
 20
148.7930831468137
 10
150.3337308641742
 20
147.2290087646991
 10
149.5957909244188
 20
145.6683794803425
 10
148.8530278478023
 20
143.6822806228776
 10
148.0964843801539
 20
141.2751908193897
 10
148.0964843801539
 20
141.2751908193897
 10
143.8552245303272
 20
127.8027915271048
 10
143.8552245303272
 20
127.8027915271048
 10
143.8552245303272
 20
127.8027915271048
 10
141.486030802177
 20
127.8027915271048
 10
141.486030802177
 20
127.8027915271048
 10
141.486030802177
 20
127.8027915271048
 10
146.3329388378533
 20
143.2092687007094
 10
146.3329388378533
 20
143.2092687007094
 10
146.8483254624444
 20
144.8408669988801
 10
147.2314203331297
 20
146.1837661049335
 10
147.4867020769946
 20
147.224185627838
 10
147.9169947869641
 20
149.0197705792876
 10
148.0306830129768
 20
150.2400242051577
 10
147.709255392159
 20
151.3157559800812
 10
147.3874832615654
 20
152.3916600098926
 10
146.8245542879144
 20
152.6683013598569
 10
145.8840425999909
 20
152.6683013598569
 10
145.0989048209514
 20
152.6683013598569
 10
144.3282364524954
 20
152.3275811915945
 10
143.4531816219731
 20
151.6538923250251
 10
142.34627171234
 20
150.8074318058939
 10
141.901854101563
 20
150.1097995099067
 10
141.3578731655808
 20
149.289521733736
 10
140.6299240093235
 20
148.192602607601
 10
140.2850697237515
 20
147.455696197173
 10
139.6652966370942
 20
145.8385673095858
 10
139.0506911970739
 20
144.2214384219986
 10
138.463991048893
 20
142.3252566160164
 10
138.0571250036777
 20
141.0154304484394
 10
138.0571250036777
 20
141.0154304484394
 10
133.9009590684727
 20
127.8027915271048
 10
133.9009590684727
 20
127.8027915271048
 10
133.9009590684727
 20
127.8027915271048
 10
131.4180771143097
 20
127.8027915271048
 10
131.4180771143097
 20
127.8027915271048
 10
131.4180771143097
 20
127.8027915271048
 10
139.8926730891197
 20
154.8294111834263
 10
139.8926730891197
 20
154.8294111834263
 97
        0
 75
     2
 76
     1
 98
        0
  0
SPLINE
  5
6AA
330
6A2
100
AcDbEntity
  8
レイヤー 1
370
     0
100
AcDbSpline
210
0.0
220
0.0
230
1.0
 70
    11
 71
     3
 72
    29
 73
    25
 74
     0
 42
0.000000001
 43
0.0000000001
 40
0.0
 40
0.0
 40
0.0
 40
0.0
 40
1.0
 40
1.0
 40
1.0
 40
2.0
 40
2.0
 40
2.0
 40
3.0
 40
3.0
 40
3.0
 40
4.0
 40
4.0
 40
4.0
 40
5.0
 40
5.0
 40
5.0
 40
6.0
 40
6.0
 40
6.0
 40
7.0
 40
7.0
 40
7.0
 40
8.0
 40
8.0
 40
8.0
 40
8.0
 10
101.6420971922469
 20
132.8388354296931
 30
0.0
 10
101.630039350094
 20
134.7164137077823
 30
0.0
 10
102.2236296937908
 20
138.0598810818841
 30
0.0
 10
103.7487744712405
 20
142.5378191476827
 30
0.0
 10
105.819967243327
 20
148.5896501242061
 30
0.0
 10
107.0602024361932
 20
150.8074318058939
 30
0.0
 10
108.1522984254671
 20
151.8833358357054
 30
0.0
 10
109.741177511439
 20
153.4532668840085
 30
0.0
 10
111.8740375333931
 20
153.5290590346837
 30
0.0
 10
112.5075910110823
 20
153.4532668840085
 30
0.0
 10
113.4012493694975
 20
153.3490526768302
 30
0.0
 10
114.6683563248758
 20
152.7580461564518
 30
0.0
 10
114.7493161221879
 20
150.7838328862519
 30
0.0
 10
114.8106388622796
 20
149.0909118479895
 30
0.0
 10
114.3186789024427
 20
145.9191825971221
 30
0.0
 10
112.6164561002338
 20
140.9489400617108
 30
0.0
 10
110.6444821435766
 20
135.1746117095912
 30
0.0
 10
109.4669477299053
 20
132.8960240524753
 30
0.0
 10
108.5212683953448
 20
131.9072809959403
 30
0.0
 10
106.7346406980658
 20
130.0538184021569
 30
0.0
 10
104.8222669326213
 20
130.2336525051225
 30
0.0
 10
104.5408024457958
 20
130.2336525051225
 30
0.0
 10
104.1721769856939
 20
130.2336525051225
 30
0.0
 10
101.6465758193322
 20
130.6305277668397
 30
0.0
 10
101.6420971922469
 20
132.8388354296931
 30
0.0
  0
SPLINE
  5
6AB
330
6A2
100
AcDbEntity
  8
レイヤー 1
370
     0
100
AcDbSpline
210
0.0
220
0.0
230
1.0
 70
    11
 71
     3
 72
    32
 73
    28
 74
     0
 42
0.000000001
 43
0.0000000001
 40
0.0
 40
0.0
 40
0.0
 40
0.0
 40
1.0
 40
1.0
 40
1.0
 40
2.0
 40
2.0
 40
2.0
 40
3.0
 40
3.0
 40
3.0
 40
4.0
 40
4.0
 40
4.0
 40
5.0
 40
5.0
 40
5.0
 40
6.0
 40
6.0
 40
6.0
 40
7.0
 40
7.0
 40
7.0
 40
8.0
 40
8.0
 40
8.0
 40
9.0
 40
9.0
 40
9.0
 40
9.0
 10
106.2595617172429
 20
153.4105476718098
 30
0.0
 10
104.8222669326213
 20
151.5474388043041
 30
0.0
 10
103.7177685914188
 20
149.8758773721411
 30
0.0
 10
101.9232171692965
 20
144.6141795664062
 30
0.0
 10
100.2754269116635
 20
139.7999999594306
 30
0.0
 10
99.22777268346732
 20
136.3052927937542
 30
0.0
 10
99.06964269637689
 20
132.039572749846
 30
0.0
 10
98.94665270641765
 20
128.8673267343149
 30
0.0
 10
100.8807305877373
 20
127.8027915271048
 30
0.0
 10
103.7129454545577
 20
127.8027915271048
 30
0.0
 10
104.9352661390825
 20
127.8027915271048
 30
0.0
 10
108.0151835347002
 20
127.8827177950895
 30
0.0
 10
110.2045431598849
 20
130.5926316915021
 30
0.0
 10
111.7417457794874
 20
132.4984597712065
 30
0.0
 10
113.155269389579
 20
134.475256864725
 30
0.0
 10
115.0562743324223
 20
140.9489400617108
 30
0.0
 10
116.6361961642235
 20
146.3680788349845
 30
0.0
 10
117.7282921534974
 20
149.8639917848761
 30
0.0
 10
117.6480213757369
 20
151.8595646611754
 30
0.0
 10
117.6480213757369
 20
151.8595646611754
 30
0.0
 10
117.6480213757369
 20
151.8595646611754
 30
0.0
 10
117.6480213757369
 20
151.8595646611754
 30
0.0
 10
117.13229024137
 20
155.18150017429
 30
0.0
 10
114.7162431837115
 20
155.886194920681
 30
0.0
 10
113.3351034925446
 20
155.886194920681
 30
0.0
 10
111.9829026225447
 20
155.886194920681
 30
0.0
 10
108.3414342923792
 20
156.1251124501957
 30
0.0
 10
106.2595617172429
 20
153.4105476718098
 30
0.0
  0
HATCH
  5
6AC
330
6A2
100
AcDbEntity
  8
レイヤー 1
 62
   250
420
  2234388
100
AcDbHatch
 10
0.0
 20
0.0
 30
0.0
210
0.0
220
0.0
230
1.0
  2
SOLID
 70
     1
 71
     0
 91
        2
 92
        1
 93
        1
 72
     4
 94
        3
 73
     0
 74
     1
 95
       29
 96
       25
 40
0.0
 40
0.0
 40
0.0
 40
0.0
 40
1.0
 40
1.0
 40
1.0
 40
2.0
 40
2.0
 40
2.0
 40
3.0
 40
3.0
 40
3.0
 40
4.0
 40
4.0
 40
4.0
 40
5.0
 40
5.0
 40
5.0
 40
6.0
 40
6.0
 40
6.0
 40
7.0
 40
7.0
 40
7.0
 40
8.0
 40
8.0
 40
8.0
 40
8.0
 10
101.6420971922469
 20
132.8388354296931
 10
101.630039350094
 20
134.7164137077823
 10
102.2236296937908
 20
138.0598810818841
 10
103.7487744712405
 20
142.5378191476827
 10
105.819967243327
 20
148.5896501242061
 10
107.0602024361932
 20
150.8074318058939
 10
108.1522984254671
 20
151.8833358357054
 10
109.741177511439
 20
153.4532668840085
 10
111.8740375333931
 20
153.5290590346837
 10
112.5075910110823
 20
153.4532668840085
 10
113.4012493694975
 20
153.3490526768302
 10
114.6683563248758
 20
152.7580461564518
 10
114.7493161221879
 20
150.7838328862519
 10
114.8106388622796
 20
149.0909118479895
 10
114.3186789024427
 20
145.9191825971221
 10
112.6164561002338
 20
140.9489400617108
 10
110.6444821435766
 20
135.1746117095912
 10
109.4669477299053
 20
132.8960240524753
 10
108.5212683953448
 20
131.9072809959403
 10
106.7346406980658
 20
130.0538184021569
 10
104.8222669326213
 20
130.2336525051225
 10
104.5408024457958
 20
130.2336525051225
 10
104.1721769856939
 20
130.2336525051225
 10
101.6465758193322
 20
130.6305277668397
 10
101.6420971922469
 20
132.8388354296931
 97
        0
 92
        1
 93
        1
 72
     4
 94
        3
 73
     0
 74
     1
 95
       32
 96
       28
 40
0.0
 40
0.0
 40
0.0
 40
0.0
 40
1.0
 40
1.0
 40
1.0
 40
2.0
 40
2.0
 40
2.0
 40
3.0
 40
3.0
 40
3.0
 40
4.0
 40
4.0
 40
4.0
 40
5.0
 40
5.0
 40
5.0
 40
6.0
 40
6.0
 40
6.0
 40
7.0
 40
7.0
 40
7.0
 40
8.0
 40
8.0
 40
8.0
 40
9.0
 40
9.0
 40
9.0
 40
9.0
 10
106.2595617172429
 20
153.4105476718098
 10
104.8222669326213
 20
151.5474388043041
 10
103.7177685914188
 20
149.8758773721411
 10
101.9232171692965
 20
144.6141795664062
 10
100.2754269116635
 20
139.7999999594306
 10
99.22777268346732
 20
136.3052927937542
 10
99.06964269637689
 20
132.039572749846
 10
98.94665270641765
 20
128.8673267343149
 10
100.8807305877373
 20
127.8027915271048
 10
103.7129454545577
 20
127.8027915271048
 10
104.9352661390825
 20
127.8027915271048
 10
108.0151835347002
 20
127.8827177950895
 10
110.2045431598849
 20
130.5926316915021
 10
111.7417457794874
 20
132.4984597712065
 10
113.155269389579
 20
134.475256864725
 10
115.0562743324223
 20
140.9489400617108
 10
116.6361961642235
 20
146.3680788349845
 10
117.7282921534974
 20
149.8639917848761
 10
117.6480213757369
 20
151.8595646611754
 10
117.6480213757369
 20
151.8595646611754
 10
117.6480213757369
 20
151.8595646611754
 10
117.6480213757369
 20
151.8595646611754
 10
117.13229024137
 20
155.18150017429
 10
114.7162431837115
 20
155.886194920681
 10
113.3351034925446
 20
155.886194920681
 10
111.9829026225447
 20
155.886194920681
 10
108.3414342923792
 20
156.1251124501957
 10
106.2595617172429
 20
153.4105476718098
 97
        0
 75
     2
 76
     1
 98
        0
  0
ENDBLK
  5
6AD
330
6A2
100
AcDbEntity
  8
0
100
AcDbBlockEnd
  0
BLOCK
  5
4A70
330
4A6F
100
AcDbEntity
  8
0
100
AcDbBlockBegin
  2
*D4
 70
     1
 10
0.0
 20
0.0
 30
0.0
  3
*D4
  1
*D201
  0
LINE
  5
4A72
330
4A6F
100
AcDbEntity
  8
寸法
  6
Continuous
 62
     0
370
    -2
100
AcDbLine
 10
94.78251201455309
 20
348.7335990428101
 30
0.0
 11
83.29381077446469
 21
348.7335990428101
 31
0.0
  0
LINE
  5
4A73
330
4A6F
100
AcDbEntity
  8
寸法
  6
Continuous
 62
     0
370
    -2
100
AcDbLine
 10
110.1991885646423
 20
341.034177143836
 30
0.0
 11
83.29381077446469
 21
341.034177143836
 31
0.0
  0
LINE
  5
4A74
330
4A6F
100
AcDbEntity
  8
寸法
  6
Continuous
 62
     0
370
    -2
100
AcDbLine
 10
83.29381077446469
 20
347.2335990428101
 30
0.0
 11
83.29381077446469
 21
342.534177143836
 31
0.0
  0
INSERT
  5
4A75
330
4A6F
100
AcDbEntity
  8
寸法
 62
     0
370
    -2
100
AcDbBlockReference
  2
_DOT
 10
83.29381077446469
 20
348.7335990428101
 30
0.0
 41
1.5
 42
1.5
 43
1.5
 50
90.0
  0
INSERT
  5
4A76
330
4A6F
100
AcDbEntity
  8
寸法
 62
     0
370
    -2
100
AcDbBlockReference
  2
_DOT
 10
83.29381077446469
 20
341.034177143836
 30
0.0
 41
1.5
 42
1.5
 43
1.5
 50
270.0
  0
MTEXT
  5
4A77
330
4A6F
100
AcDbEntity
  8
寸法
  6
Continuous
 62
     0
100
AcDbMText
 10
78.79381077446469
 20
344.8838880933231
 30
0.0
 40
5.0
 41
0.0
 46
0.0
 71
     5
 72
     1
  1
\A1;8
  7
ＭＳ ゴシック
 11
0.0
 21
1.0
 31
0.0
 73
     1
 44
1.0
  0
POINT
  5
4A78
330
4A6F
100
AcDbEntity
  8
Defpoints
 62
     0
100
AcDbPoint
 10
99.78251201455309
 20
348.7335990428101
 30
0.0
  0
POINT
  5
4A79
330
4A6F
100
AcDbEntity
  8
Defpoints
 62
     0
100
AcDbPoint
 10
115.1991885646423
 20
341.034177143836
 30
0.0
  0
POINT
  5
4D3A
330
4A6F
100
AcDbEntity
  8
Defpoints
 62
     0
100
AcDbPoint
 10
83.29381077446469
 20
341.034177143836
 30
0.0
  0
ENDBLK
  5
4A71
330
4A6F
100
AcDbEntity
  8
0
100
AcDbBlockEnd
  0
BLOCK
  5
4A9D
330
4A9C
100
AcDbEntity
  8
0
100
AcDbBlockBegin
  2
*D5
 70
     1
 10
0.0
 20
0.0
 30
0.0
  3
*D5
  1
*D204
  0
LINE
  5
4A9F
330
4A9C
100
AcDbEntity
  8
寸法
  6
Continuous
 62
     0
370
    -2
100
AcDbLine
 10
388.5088003679508
 20
348.875005369178
 30
0.0
 11
362.1595183098592
 21
348.875005369178
 31
0.0
  0
LINE
  5
4AA0
330
4A9C
100
AcDbEntity
  8
寸法
  6
Continuous
 62
     0
370
    -2
100
AcDbLine
 10
388.5088003679508
 20
293.875005369178
 30
0.0
 11
362.1595183098592
 21
293.875005369178
 31
0.0
  0
LINE
  5
4AA1
330
4A9C
100
AcDbEntity
  8
寸法
  6
Continuous
 62
     0
370
    -2
100
AcDbLine
 10
362.1595183098592
 20
347.375005369178
 30
0.0
 11
362.1595183098592
 21
295.375005369178
 31
0.0
  0
INSERT
  5
4AA2
330
4A9C
100
AcDbEntity
  8
寸法
 62
     0
370
    -2
100
AcDbBlockReference
  2
_DOT
 10
362.1595183098592
 20
348.875005369178
 30
0.0
 41
1.5
 42
1.5
 43
1.5
 50
90.0
  0
INSERT
  5
4AA3
330
4A9C
100
AcDbEntity
  8
寸法
 62
     0
370
    -2
100
AcDbBlockReference
  2
_DOT
 10
362.1595183098592
 20
293.875005369178
 30
0.0
 41
1.5
 42
1.5
 43
1.5
 50
270.0
  0
MTEXT
  5
4AA4
330
4A9C
100
AcDbEntity
  8
寸法
  6
Continuous
 62
     0
100
AcDbMText
 10
357.2545183098592
 20
321.375005369178
 30
0.0
 40
5.0
 41
0.0
 46
0.0
 71
     5
 72
     1
  1
\A1;φ55
  7
ＭＳ ゴシック
 11
0.0
 21
1.0
 31
0.0
 73
     1
 44
1.0
  0
POINT
  5
4AA5
330
4A9C
100
AcDbEntity
  8
Defpoints
 62
     0
100
AcDbPoint
 10
393.5088003679508
 20
348.875005369178
 30
0.0
  0
POINT
  5
4AA6
330
4A9C
100
AcDbEntity
  8
Defpoints
 62
     0
100
AcDbPoint
 10
393.5088003679508
 20
293.875005369178
 30
0.0
  0
POINT
  5
4AA7
330
4A9C
100
AcDbEntity
  8
Defpoints
 62
     0
100
AcDbPoint
 10
362.1595183098592
 20
293.875005369178
 30
0.0
  0
ENDBLK
  5
4A9E
330
4A9C
100
AcDbEntity
  8
0
100
AcDbBlockEnd
  0
BLOCK
  5
4EAC
330
4EAB
100
AcDbEntity
  8
0
100
AcDbBlockBegin
  2
名称未設定-1
 70
     0
 10
0.0
 20
0.0
 30
0.0
  3
名称未設定-1
  1
名称未設定-1
  0
INSERT
  5
4EAD
330
4EAB
100
AcDbEntity
  8
TFORMLOGO
100
AcDbBlockReference
  2
block 2
 10
0.0
 20
0.0
 30
0.0
  0
ENDBLK
  5
4ED2
330
4EAB
100
AcDbEntity
  8
0
100
AcDbBlockEnd
  0
BLOCK
  5
4EAF
330
4EAE
100
AcDbEntity
  8
0
100
AcDbBlockBegin
  2
block 2
 70
     0
 10
0.0
 20
0.0
 30
0.0
  3
block 2
  1
block 2
  0
INSERT
  5
4EB0
330
4EAE
100
AcDbEntity
  8
TFORMLOGO
100
AcDbBlockReference
  2
block 3
 10
0.0
 20
0.0
 30
0.0
  0
ENDBLK
  5
4ED1
330
4EAE
100
AcDbEntity
  8
0
100
AcDbBlockEnd
  0
BLOCK
  5
5343
330
5342
100
AcDbEntity
  8
0
100
AcDbBlockBegin
  2
*D8
 70
     1
 10
0.0
 20
0.0
 30
0.0
  3
*D8
  1
*D39
  0
LINE
  5
5345
330
5342
100
AcDbEntity
  8
寸法
 62
     0
370
    -2
100
AcDbLine
 10
427.8721245115549
 20
172.3452081951892
 30
0.0
 11
427.8721245115549
 21
144.5573006134969
 31
0.0
  0
LINE
  5
5346
330
5342
100
AcDbEntity
  8
寸法
 62
     0
370
    -2
100
AcDbLine
 10
389.8721245115548
 20
172.3452081951892
 30
0.0
 11
389.8721245115548
 21
144.5573006134969
 31
0.0
  0
LINE
  5
5347
330
5342
100
AcDbEntity
  8
寸法
 62
     0
370
    -2
100
AcDbLine
 10
389.8721245115548
 20
144.5573006134969
 30
0.0
 11
372.5896245115548
 21
144.5573006134969
 31
0.0
  0
LINE
  5
5348
330
5342
100
AcDbEntity
  8
寸法
 62
     0
370
    -2
100
AcDbLine
 10
426.3721245115549
 20
144.5573006134969
 30
0.0
 11
391.3721245115548
 21
144.5573006134969
 31
0.0
  0
LINE
  5
5349
330
5342
100
AcDbEntity
  8
寸法
 62
     0
370
    -2
100
AcDbLine
 10
391.3721245115548
 20
144.5573006134969
 30
0.0
 11
392.8721245115548
 21
144.5573006134969
 31
0.0
  0
INSERT
  5
534A
330
5342
100
AcDbEntity
  8
寸法
 62
     0
370
    -2
100
AcDbBlockReference
  2
_DOT
 10
427.8721245115549
 20
144.5573006134969
 30
0.0
 41
1.5
 42
1.5
 43
1.5
  0
INSERT
  5
534B
330
5342
100
AcDbEntity
  8
寸法
 62
     0
370
    -2
100
AcDbBlockReference
  2
_DOT
 10
389.8721245115548
 20
144.5573006134969
 30
0.0
 41
1.5
 42
1.5
 43
1.5
 50
180.0
  0
MTEXT
  5
534C
330
5342
100
AcDbEntity
  8
寸法
  6
Continuous
 62
     0
100
AcDbMText
 10
376.2146245115548
 20
149.0573006134969
 30
0.0
 40
5.0
 41
0.0
 46
0.0
 71
     5
 72
     1
  1
\A1; 
  7
ＭＳ ゴシック
 73
     1
 44
1.0
  0
POINT
  5
534D
330
5342
100
AcDbEntity
  8
Defpoints
 62
     0
100
AcDbPoint
 10
427.8721245115549
 20
177.3452081951892
 30
0.0
  0
POINT
  5
5AB5
330
5342
100
AcDbEntity
  8
Defpoints
 62
     0
100
AcDbPoint
 10
389.8721245115548
 20
177.3452081951892
 30
0.0
  0
POINT
  5
5AB6
330
5342
100
AcDbEntity
  8
Defpoints
 62
     0
100
AcDbPoint
 10
389.8721245115548
 20
144.5573006134969
 30
0.0
  0
ENDBLK
  5
5344
330
5342
100
AcDbEntity
  8
0
100
AcDbBlockEnd
  0
BLOCK
  5
534F
330
534E
100
AcDbEntity
  8
0
100
AcDbBlockBegin
  2
*D9
 70
     1
 10
0.0
 20
0.0
 30
0.0
  3
*D9
  1
*D40
  0
LINE
  5
5351
330
534E
100
AcDbEntity
  8
寸法
 62
     0
370
    -2
100
AcDbLine
 10
389.8721245115548
 20
191.0157099566222
 30
0.0
 11
389.8721245115548
 21
213.8023335341041
 31
0.0
  0
LINE
  5
5352
330
534E
100
AcDbEntity
  8
寸法
 62
     0
370
    -2
100
AcDbLine
 10
408.8721245115548
 20
205.1912224768318
 30
0.0
 11
408.8721245115548
 21
213.8023335341041
 31
0.0
  0
LINE
  5
5353
330
534E
100
AcDbEntity
  8
寸法
 62
     0
370
    -2
100
AcDbLine
 10
391.3721245115548
 20
213.8023335341041
 30
0.0
 11
407.3721245115548
 21
213.8023335341041
 31
0.0
  0
INSERT
  5
5354
330
534E
100
AcDbEntity
  8
寸法
 62
     0
370
    -2
100
AcDbBlockReference
  2
_DOT
 10
389.8721245115548
 20
213.8023335341041
 30
0.0
 41
1.5
 42
1.5
 43
1.5
 50
180.0
  0
INSERT
  5
5355
330
534E
100
AcDbEntity
  8
寸法
 62
     0
370
    -2
100
AcDbBlockReference
  2
_DOT
 10
408.8721245115548
 20
213.8023335341041
 30
0.0
 41
1.5
 42
1.5
 43
1.5
  0
MTEXT
  5
5356
330
534E
100
AcDbEntity
  8
寸法
  6
Continuous
 62
     0
100
AcDbMText
 10
399.3721245115548
 20
218.3023335341041
 30
0.0
 40
5.0
 41
0.0
 46
0.0
 71
     5
 72
     1
  1
\A1;19
  7
ＭＳ ゴシック
 73
     1
 44
1.0
  0
POINT
  5
5357
330
534E
100
AcDbEntity
  8
Defpoints
 62
     0
100
AcDbPoint
 10
389.8721245115548
 20
186.0157099566222
 30
0.0
  0
POINT
  5
5358
330
534E
100
AcDbEntity
  8
Defpoints
 62
     0
100
AcDbPoint
 10
408.8721245115548
 20
200.1912224768318
 30
0.0
  0
POINT
  5
5359
330
534E
100
AcDbEntity
  8
Defpoints
 62
     0
100
AcDbPoint
 10
408.8721245115548
 20
213.8023335341041
 30
0.0
  0
ENDBLK
  5
5350
330
534E
100
AcDbEntity
  8
0
100
AcDbBlockEnd
  0
BLOCK
  5
535B
330
535A
100
AcDbEntity
  8
0
100
AcDbBlockBegin
  2
*D10
 70
     1
 10
0.0
 20
0.0
 30
0.0
  3
*D10
  1
*D41
  0
LINE
  5
535D
330
535A
100
AcDbEntity
  8
寸法
 62
     0
370
    -2
100
AcDbLine
 10
408.8721245115548
 20
205.1912224768318
 30
0.0
 11
408.8721245115548
 21
213.8023335341041
 31
0.0
  0
LINE
  5
535E
330
535A
100
AcDbEntity
  8
寸法
 62
     0
370
    -2
100
AcDbLine
 10
427.8721245115549
 20
191.0157099566222
 30
0.0
 11
427.8721245115549
 21
213.8023335341041
 31
0.0
  0
LINE
  5
535F
330
535A
100
AcDbEntity
  8
寸法
 62
     0
370
    -2
100
AcDbLine
 10
410.3721245115548
 20
213.8023335341041
 30
0.0
 11
426.3721245115549
 21
213.8023335341041
 31
0.0
  0
INSERT
  5
5360
330
535A
100
AcDbEntity
  8
寸法
 62
     0
370
    -2
100
AcDbBlockReference
  2
_DOT
 10
408.8721245115548
 20
213.8023335341041
 30
0.0
 41
1.5
 42
1.5
 43
1.5
 50
180.0
  0
INSERT
  5
5361
330
535A
100
AcDbEntity
  8
寸法
 62
     0
370
    -2
100
AcDbBlockReference
  2
_DOT
 10
427.8721245115549
 20
213.8023335341041
 30
0.0
 41
1.5
 42
1.5
 43
1.5
  0
MTEXT
  5
5362
330
535A
100
AcDbEntity
  8
寸法
  6
Continuous
 62
     0
100
AcDbMText
 10
418.3721245115548
 20
218.3023335341041
 30
0.0
 40
5.0
 41
0.0
 46
0.0
 71
     5
 72
     1
  1
\A1;19
  7
ＭＳ ゴシック
 73
     1
 44
1.0
  0
POINT
  5
5363
330
535A
100
AcDbEntity
  8
Defpoints
 62
     0
100
AcDbPoint
 10
408.8721245115548
 20
200.1912224768318
 30
0.0
  0
POINT
  5
5364
330
535A
100
AcDbEntity
  8
Defpoints
 62
     0
100
AcDbPoint
 10
427.8721245115549
 20
186.0157099566222
 30
0.0
  0
POINT
  5
5365
330
535A
100
AcDbEntity
  8
Defpoints
 62
     0
100
AcDbPoint
 10
427.8721245115549
 20
213.8023335341041
 30
0.0
  0
ENDBLK
  5
535C
330
535A
100
AcDbEntity
  8
0
100
AcDbBlockEnd
  0
BLOCK
  5
5367
330
5366
100
AcDbEntity
  8
0
100
AcDbBlockBegin
  2
*D11
 70
     1
 10
0.0
 20
0.0
 30
0.0
  3
*D11
  1
*D42
  0
LINE
  5
5369
330
5366
100
AcDbEntity
  8
寸法
 62
     0
370
    -2
100
AcDbLine
 10
108.1825120145531
 20
356.4345575436565
 30
0.0
 11
108.1825120145531
 21
365.9906564456901
 31
0.0
  0
LINE
  5
536A
330
5366
100
AcDbEntity
  8
寸法
 62
     0
370
    -2
100
AcDbLine
 10
146.1825120145531
 20
356.4345575436565
 30
0.0
 11
146.1825120145531
 21
365.9906564456901
 31
0.0
  0
LINE
  5
536B
330
5366
100
AcDbEntity
  8
寸法
 62
     0
370
    -2
100
AcDbLine
 10
109.6825120145531
 20
365.9906564456901
 30
0.0
 11
144.6825120145531
 21
365.9906564456901
 31
0.0
  0
INSERT
  5
536C
330
5366
100
AcDbEntity
  8
寸法
 62
     0
370
    -2
100
AcDbBlockReference
  2
_DOT
 10
108.1825120145531
 20
365.9906564456901
 30
0.0
 41
1.5
 42
1.5
 43
1.5
 50
180.0
  0
INSERT
  5
536D
330
5366
100
AcDbEntity
  8
寸法
 62
     0
370
    -2
100
AcDbBlockReference
  2
_DOT
 10
146.1825120145531
 20
365.9906564456901
 30
0.0
 41
1.5
 42
1.5
 43
1.5
  0
MTEXT
  5
536E
330
5366
100
AcDbEntity
  8
寸法
  6
Continuous
 62
     0
100
AcDbMText
 10
127.1825120145531
 20
370.4906564456901
 30
0.0
 40
5.0
 41
0.0
 46
0.0
 71
     5
 72
     1
  1
\A1;38
  7
ＭＳ ゴシック
 73
     1
 44
1.0
  0
POINT
  5
536F
330
5366
100
AcDbEntity
  8
Defpoints
 62
     0
100
AcDbPoint
 10
108.1825120145531
 20
351.4345575436565
 30
0.0
  0
POINT
  5
5370
330
5366
100
AcDbEntity
  8
Defpoints
 62
     0
100
AcDbPoint
 10
146.1825120145531
 20
351.4345575436565
 30
0.0
  0
POINT
  5
5371
330
5366
100
AcDbEntity
  8
Defpoints
 62
     0
100
AcDbPoint
 10
146.1825120145531
 20
365.9906564456901
 30
0.0
  0
ENDBLK
  5
5368
330
5366
100
AcDbEntity
  8
0
100
AcDbBlockEnd
  0
BLOCK
  5
5580
330
557F
100
AcDbEntity
  8
0
100
AcDbBlockBegin
  2
*D12
 70
     1
 10
0.0
 20
0.0
 30
0.0
  3
*D12
  1
*D21
  0
LINE
  5
5582
330
557F
100
AcDbEntity
  8
寸法
  6
Continuous
 62
     0
370
    -2
100
AcDbLine
 10
127.1816507401139
 20
148.4628469200378
 30
0.0
 11
127.1816507401139
 21
139.2647026849567
 31
0.0
  0
LINE
  5
5583
330
557F
100
AcDbEntity
  8
寸法
  6
Continuous
 62
     0
370
    -2
100
AcDbLine
 10
134.8812214791989
 20
163.6679425127938
 30
0.0
 11
134.8812214791989
 21
139.2647026849567
 31
0.0
  0
LINE
  5
5584
330
557F
100
AcDbEntity
  8
寸法
  6
Continuous
 62
     0
370
    -2
100
AcDbLine
 10
134.8812214791989
 20
139.2647026849567
 30
0.0
 11
144.9843088333743
 21
139.2647026849567
 31
0.0
  0
LINE
  5
5585
330
557F
100
AcDbEntity
  8
寸法
  6
Continuous
 62
     0
370
    -2
100
AcDbLine
 10
128.6816507401139
 20
139.2647026849567
 30
0.0
 11
133.3812214791989
 21
139.2647026849567
 31
0.0
  0
LINE
  5
5586
330
557F
100
AcDbEntity
  8
寸法
  6
Continuous
 62
     0
370
    -2
100
AcDbLine
 10
133.3812214791989
 20
139.2647026849567
 30
0.0
 11
131.8812214791989
 21
139.2647026849567
 31
0.0
  0
INSERT
  5
5587
330
557F
100
AcDbEntity
  8
寸法
 62
     0
370
    -2
100
AcDbBlockReference
  2
_DOT
 10
127.1816507401139
 20
139.2647026849567
 30
0.0
 41
1.5
 42
1.5
 43
1.5
 50
180.0
  0
INSERT
  5
5588
330
557F
100
AcDbEntity
  8
寸法
 62
     0
370
    -2
100
AcDbBlockReference
  2
_DOT
 10
134.8812214791989
 20
139.2647026849567
 30
0.0
 41
1.5
 42
1.5
 43
1.5
  0
MTEXT
  5
5589
330
557F
100
AcDbEntity
  8
寸法
  6
Continuous
 62
     0
100
AcDbMText
 10
141.6643088333743
 20
143.7647026849567
 30
0.0
 40
5.0
 41
0.0
 46
0.0
 71
     5
 72
     1
  1
\A1;8
  7
ＭＳ ゴシック
 73
     1
 44
1.0
  0
POINT
  5
558A
330
557F
100
AcDbEntity
  8
Defpoints
 62
     0
100
AcDbPoint
 10
127.1816507401139
 20
153.4628469200378
 30
0.0
  0
POINT
  5
558B
330
557F
100
AcDbEntity
  8
Defpoints
 62
     0
100
AcDbPoint
 10
134.8812214791989
 20
168.6679425127938
 30
0.0
  0
POINT
  5
5AB7
330
557F
100
AcDbEntity
  8
Defpoints
 62
     0
100
AcDbPoint
 10
134.8812214791989
 20
139.2647026849567
 30
0.0
  0
ENDBLK
  5
5581
330
557F
100
AcDbEntity
  8
0
100
AcDbBlockEnd
  0
BLOCK
  5
562F
330
562E
100
AcDbEntity
  8
0
100
AcDbBlockBegin
  2
*D13
 70
     1
 10
0.0
 20
0.0
 30
0.0
  3
*D13
  1
*D21
  0
LINE
  5
5631
330
562E
100
AcDbEntity
  8
寸法
  6
Continuous
 62
     0
370
    -2
100
AcDbLine
 10
103.9325120145531
 20
372.0686993856673
 30
0.0
 11
103.9325120145531
 21
378.7852477434631
 31
0.0
  0
LINE
  5
5632
330
562E
100
AcDbEntity
  8
寸法
  6
Continuous
 62
     0
370
    -2
100
AcDbLine
 10
112.4325120145531
 20
372.0686993856673
 30
0.0
 11
112.4325120145531
 21
378.7852477434631
 31
0.0
  0
LINE
  5
5633
330
562E
100
AcDbEntity
  8
寸法
  6
Continuous
 62
     0
370
    -2
100
AcDbLine
 10
105.4325120145531
 20
378.7852477434631
 30
0.0
 11
110.9325120145531
 21
378.7852477434631
 31
0.0
  0
INSERT
  5
5634
330
562E
100
AcDbEntity
  8
寸法
 62
     0
370
    -2
100
AcDbBlockReference
  2
_DOT
 10
103.9325120145531
 20
378.7852477434631
 30
0.0
 41
1.5
 42
1.5
 43
1.5
 50
180.0
  0
INSERT
  5
5635
330
562E
100
AcDbEntity
  8
寸法
 62
     0
370
    -2
100
AcDbBlockReference
  2
_DOT
 10
112.4325120145531
 20
378.7852477434631
 30
0.0
 41
1.5
 42
1.5
 43
1.5
  0
MTEXT
  5
5636
330
562E
100
AcDbEntity
  8
寸法
  6
Continuous
 62
     0
100
AcDbMText
 10
108.1825120145531
 20
383.2852477434631
 30
0.0
 40
5.0
 41
0.0
 46
0.0
 71
     5
 72
     1
  1
\A1;8.5
  7
ＭＳ ゴシック
 73
     1
 44
1.0
  0
POINT
  5
5637
330
562E
100
AcDbEntity
  8
Defpoints
 62
     0
100
AcDbPoint
 10
103.9325120145531
 20
367.0686993856673
 30
0.0
  0
POINT
  5
5638
330
562E
100
AcDbEntity
  8
Defpoints
 62
     0
100
AcDbPoint
 10
112.4325120145531
 20
367.0686993856673
 30
0.0
  0
POINT
  5
5639
330
562E
100
AcDbEntity
  8
Defpoints
 62
     0
100
AcDbPoint
 10
112.4325120145531
 20
378.7852477434631
 30
0.0
  0
ENDBLK
  5
5630
330
562E
100
AcDbEntity
  8
0
100
AcDbBlockEnd
  0
BLOCK
  5
5650
330
564F
100
AcDbEntity
  8
0
100
AcDbBlockBegin
  2
*D14
 70
     1
 10
0.0
 20
0.0
 30
0.0
  3
*D14
  1
*D22
  0
LINE
  5
5652
330
564F
100
AcDbEntity
  8
寸法
  6
Continuous
 62
     0
370
    -2
100
AcDbLine
 10
153.7210231602584
 20
354.7335990428101
 30
0.0
 11
169.1440199581582
 21
354.7335990428101
 31
0.0
  0
LINE
  5
5653
330
564F
100
AcDbEntity
  8
寸法
  6
Continuous
 62
     0
370
    -2
100
AcDbLine
 10
159.4759396838725
 20
348.7335990428101
 30
0.0
 11
169.1440199581582
 21
348.7335990428101
 31
0.0
  0
LINE
  5
5654
330
564F
100
AcDbEntity
  8
寸法
  6
Continuous
 62
     0
370
    -2
100
AcDbLine
 10
169.1440199581582
 20
353.2335990428101
 30
0.0
 11
169.1440199581582
 21
350.2335990428101
 31
0.0
  0
INSERT
  5
5655
330
564F
100
AcDbEntity
  8
寸法
 62
     0
370
    -2
100
AcDbBlockReference
  2
_DOT
 10
169.1440199581582
 20
354.7335990428101
 30
0.0
 41
1.5
 42
1.5
 43
1.5
 50
90.0
  0
INSERT
  5
5656
330
564F
100
AcDbEntity
  8
寸法
 62
     0
370
    -2
100
AcDbBlockReference
  2
_DOT
 10
169.1440199581582
 20
348.7335990428101
 30
0.0
 41
1.5
 42
1.5
 43
1.5
 50
270.0
  0
MTEXT
  5
5657
330
564F
100
AcDbEntity
  8
寸法
  6
Continuous
 62
     0
100
AcDbMText
 10
164.6440199581582
 20
351.7335990428101
 30
0.0
 40
5.0
 41
0.0
 46
0.0
 71
     5
 72
     1
  1
\A1;6
  7
ＭＳ ゴシック
 11
0.0
 21
1.0
 31
0.0
 73
     1
 44
1.0
  0
POINT
  5
5658
330
564F
100
AcDbEntity
  8
Defpoints
 62
     0
100
AcDbPoint
 10
148.7210231602584
 20
354.7335990428101
 30
0.0
  0
POINT
  5
5659
330
564F
100
AcDbEntity
  8
Defpoints
 62
     0
100
AcDbPoint
 10
154.4759396838725
 20
348.7335990428101
 30
0.0
  0
POINT
  5
565A
330
564F
100
AcDbEntity
  8
Defpoints
 62
     0
100
AcDbPoint
 10
169.1440199581582
 20
348.7335990428101
 30
0.0
  0
ENDBLK
  5
5651
330
564F
100
AcDbEntity
  8
0
100
AcDbBlockEnd
  0
BLOCK
  5
5813
330
5812
100
AcDbEntity
  8
0
100
AcDbBlockBegin
  2
*D15
 70
     1
 10
0.0
 20
0.0
 30
0.0
  3
*D15
  1

  0
LINE
  5
5815
330
5812
100
AcDbEntity
  8
寸法
  6
Continuous
 62
     0
370
    -2
100
AcDbLine
 10
115.1737631164623
 20
302.9883273451515
 30
0.0
 11
115.1737631164623
 21
251.9092507806955
 31
0.0
  0
LINE
  5
5816
330
5812
100
AcDbEntity
  8
寸法
  6
Continuous
 62
     0
370
    -2
100
AcDbLine
 10
260.1737631164622
 20
292.7016328274111
 30
0.0
 11
260.1737631164622
 21
251.9092507806955
 31
0.0
  0
LINE
  5
5817
330
5812
100
AcDbEntity
  8
寸法
  6
Continuous
 62
     0
370
    -2
100
AcDbLine
 10
116.6737631164623
 20
251.9092507806955
 30
0.0
 11
258.6737631164622
 21
251.9092507806955
 31
0.0
  0
INSERT
  5
5818
330
5812
100
AcDbEntity
  8
寸法
 62
     0
370
    -2
100
AcDbBlockReference
  2
_DOT
 10
115.1737631164623
 20
251.9092507806955
 30
0.0
 41
1.5
 42
1.5
 43
1.5
 50
180.0
  0
INSERT
  5
5819
330
5812
100
AcDbEntity
  8
寸法
 62
     0
370
    -2
100
AcDbBlockReference
  2
_DOT
 10
260.1737631164622
 20
251.9092507806955
 30
0.0
 41
1.5
 42
1.5
 43
1.5
  0
MTEXT
  5
581A
330
5812
100
AcDbEntity
  8
寸法
  6
Continuous
 62
     0
100
AcDbMText
 10
187.6737631164623
 20
256.4101886323899
 30
0.0
 40
5.0
 41
0.0
 46
0.0
 71
     5
 72
     1
  1
\A1;X
  7
ＭＳ ゴシック
 73
     1
 44
1.0
  0
POINT
  5
581B
330
5812
100
AcDbEntity
  8
Defpoints
 62
     0
100
AcDbPoint
 10
115.1737631164623
 20
307.9883273451515
 30
0.0
  0
POINT
  5
581C
330
5812
100
AcDbEntity
  8
Defpoints
 62
     0
100
AcDbPoint
 10
260.1737631164622
 20
297.7016328274111
 30
0.0
  0
POINT
  5
581D
330
5812
100
AcDbEntity
  8
Defpoints
 62
     0
100
AcDbPoint
 10
260.1737631164622
 20
251.9092507806955
 30
0.0
  0
ENDBLK
  5
5814
330
5812
100
AcDbEntity
  8
0
100
AcDbBlockEnd
  0
BLOCK
  5
5823
330
5822
100
AcDbEntity
  8
0
100
AcDbBlockBegin
  2
*D16
 70
     1
 10
0.0
 20
0.0
 30
0.0
  3
*D16
  1

  0
LINE
  5
5825
330
5822
100
AcDbEntity
  8
寸法
  6
Continuous
 62
     0
370
    -2
100
AcDbLine
 10
143.3468611164623
 20
279.022953810548
 30
0.0
 11
83.29381077446469
 21
279.022953810548
 31
0.0
  0
LINE
  5
5826
330
5822
100
AcDbEntity
  8
寸法
  6
Continuous
 62
     0
370
    -2
100
AcDbLine
 10
143.3468611164623
 20
341.022953810548
 30
0.0
 11
83.29381077446469
 21
341.022953810548
 31
0.0
  0
LINE
  5
5827
330
5822
100
AcDbEntity
  8
寸法
  6
Continuous
 62
     0
370
    -2
100
AcDbLine
 10
83.29381077446469
 20
280.522953810548
 30
0.0
 11
83.29381077446469
 21
339.522953810548
 31
0.0
  0
INSERT
  5
5828
330
5822
100
AcDbEntity
  8
寸法
 62
     0
370
    -2
100
AcDbBlockReference
  2
_DOT
 10
83.29381077446469
 20
279.022953810548
 30
0.0
 41
1.5
 42
1.5
 43
1.5
 50
270.0
  0
INSERT
  5
5829
330
5822
100
AcDbEntity
  8
寸法
 62
     0
370
    -2
100
AcDbBlockReference
  2
_DOT
 10
83.29381077446469
 20
341.022953810548
 30
0.0
 41
1.5
 42
1.5
 43
1.5
 50
90.0
  0
MTEXT
  5
582A
330
5822
100
AcDbEntity
  8
寸法
  6
Continuous
 62
     0
100
AcDbMText
 10
78.79381077446469
 20
310.022953810548
 30
0.0
 40
5.0
 41
0.0
 46
0.0
 71
     5
 72
     1
  1
\A1;62
  7
ＭＳ ゴシック
 11
0.0
 21
1.0
 31
0.0
 73
     1
 44
1.0
  0
POINT
  5
582B
330
5822
100
AcDbEntity
  8
Defpoints
 62
     0
100
AcDbPoint
 10
148.3468611164623
 20
279.022953810548
 30
0.0
  0
POINT
  5
582C
330
5822
100
AcDbEntity
  8
Defpoints
 62
     0
100
AcDbPoint
 10
148.3468611164623
 20
341.022953810548
 30
0.0
  0
POINT
  5
582D
330
5822
100
AcDbEntity
  8
Defpoints
 62
     0
100
AcDbPoint
 10
83.29381077446469
 20
341.022953810548
 30
0.0
  0
ENDBLK
  5
5824
330
5822
100
AcDbEntity
  8
0
100
AcDbBlockEnd
  0
BLOCK
  5
5841
330
5840
100
AcDbEntity
  8
0
100
AcDbBlockBegin
  2
*D17
 70
     1
 10
0.0
 20
0.0
 30
0.0
  3
*D17
  1

  0
LINE
  5
5843
330
5840
100
AcDbEntity
  8
寸法
  6
Continuous
 62
     0
370
    -2
100
AcDbLine
 10
93.827107338073
 20
279.022953810548
 30
0.0
 11
71.76360277835605
 21
279.022953810548
 31
0.0
  0
LINE
  5
5844
330
5840
100
AcDbEntity
  8
寸法
  6
Continuous
 62
     0
370
    -2
100
AcDbLine
 10
94.78251201455309
 20
348.7335990428101
 30
0.0
 11
71.76360277835605
 21
348.7335990428101
 31
0.0
  0
LINE
  5
5845
330
5840
100
AcDbEntity
  8
寸法
  6
Continuous
 62
     0
370
    -2
100
AcDbLine
 10
71.76360277835605
 20
280.522953810548
 30
0.0
 11
71.76360277835605
 21
347.2335990428101
 31
0.0
  0
INSERT
  5
5846
330
5840
100
AcDbEntity
  8
寸法
 62
     0
370
    -2
100
AcDbBlockReference
  2
_DOT
 10
71.76360277835605
 20
279.022953810548
 30
0.0
 41
1.5
 42
1.5
 43
1.5
 50
270.0
  0
INSERT
  5
5847
330
5840
100
AcDbEntity
  8
寸法
 62
     0
370
    -2
100
AcDbBlockReference
  2
_DOT
 10
71.76360277835605
 20
348.7335990428101
 30
0.0
 41
1.5
 42
1.5
 43
1.5
 50
90.0
  0
MTEXT
  5
5848
330
5840
100
AcDbEntity
  8
寸法
  6
Continuous
 62
     0
100
AcDbMText
 10
67.26360277835605
 20
313.8782764266791
 30
0.0
 40
5.0
 41
0.0
 46
0.0
 71
     5
 72
     1
  1
\A1;70
  7
ＭＳ ゴシック
 11
0.0
 21
1.0
 31
0.0
 73
     1
 44
1.0
  0
POINT
  5
5849
330
5840
100
AcDbEntity
  8
Defpoints
 62
     0
100
AcDbPoint
 10
98.827107338073
 20
279.022953810548
 30
0.0
  0
POINT
  5
584A
330
5840
100
AcDbEntity
  8
Defpoints
 62
     0
100
AcDbPoint
 10
99.78251201455309
 20
348.7335990428101
 30
0.0
  0
POINT
  5
584B
330
5840
100
AcDbEntity
  8
Defpoints
 62
     0
100
AcDbPoint
 10
71.76360277835605
 20
348.7335990428101
 30
0.0
  0
ENDBLK
  5
5842
330
5840
100
AcDbEntity
  8
0
100
AcDbBlockEnd
  0
BLOCK
  5
595E
330
595D
100
AcDbEntity
  8
0
100
AcDbBlockBegin
  2
*D18
 70
     1
 10
0.0
 20
0.0
 30
0.0
  3
*D18
  1

  0
LINE
  5
5960
330
595D
100
AcDbEntity
  8
寸法
  6
Continuous
 62
     0
370
    -2
100
AcDbLine
 10
263.9237631164623
 20
334.022953810548
 30
0.0
 11
283.385732795493
 21
334.022953810548
 31
0.0
  0
LINE
  5
5961
330
595D
100
AcDbEntity
  8
寸法
  6
Continuous
 62
     0
370
    -2
100
AcDbLine
 10
240.9557253480562
 20
279.022953810548
 30
0.0
 11
283.385732795493
 21
279.022953810548
 31
0.0
  0
LINE
  5
5962
330
595D
100
AcDbEntity
  8
寸法
  6
Continuous
 62
     0
370
    -2
100
AcDbLine
 10
283.385732795493
 20
332.522953810548
 30
0.0
 11
283.385732795493
 21
280.522953810548
 31
0.0
  0
INSERT
  5
5963
330
595D
100
AcDbEntity
  8
寸法
 62
     0
370
    -2
100
AcDbBlockReference
  2
_DOT
 10
283.385732795493
 20
334.022953810548
 30
0.0
 41
1.5
 42
1.5
 43
1.5
 50
90.0
  0
INSERT
  5
5964
330
595D
100
AcDbEntity
  8
寸法
 62
     0
370
    -2
100
AcDbBlockReference
  2
_DOT
 10
283.385732795493
 20
279.022953810548
 30
0.0
 41
1.5
 42
1.5
 43
1.5
 50
270.0
  0
MTEXT
  5
5965
330
595D
100
AcDbEntity
  8
寸法
  6
Continuous
 62
     0
100
AcDbMText
 10
278.885732795493
 20
306.522953810548
 30
0.0
 40
5.0
 41
0.0
 46
0.0
 71
     5
 72
     1
  1
\A1;55
  7
ＭＳ ゴシック
 11
0.0
 21
1.0
 31
0.0
 73
     1
 44
1.0
  0
POINT
  5
5966
330
595D
100
AcDbEntity
  8
Defpoints
 62
     0
100
AcDbPoint
 10
258.9237631164623
 20
334.022953810548
 30
0.0
  0
POINT
  5
5967
330
595D
100
AcDbEntity
  8
Defpoints
 62
     0
100
AcDbPoint
 10
235.9557253480562
 20
279.022953810548
 30
0.0
  0
POINT
  5
5968
330
595D
100
AcDbEntity
  8
Defpoints
 62
     0
100
AcDbPoint
 10
283.385732795493
 20
279.022953810548
 30
0.0
  0
ENDBLK
  5
595F
330
595D
100
AcDbEntity
  8
0
100
AcDbBlockEnd
  0
BLOCK
  5
596D
330
596C
100
AcDbEntity
  8
0
100
AcDbBlockBegin
  2
*D19
 70
     1
 10
0.0
 20
0.0
 30
0.0
  3
*D19
  1

  0
LINE
  5
596F
330
596C
100
AcDbEntity
  8
寸法
  6
Continuous
 62
     0
370
    -2
100
AcDbLine
 10
240.4237631164623
 20
340.0537141395621
 30
0.0
 11
240.4237631164623
 21
348.3823408733746
 31
0.0
  0
LINE
  5
5970
330
596C
100
AcDbEntity
  8
寸法
  6
Continuous
 62
     0
370
    -2
100
AcDbLine
 10
260.4237631164623
 20
340.0537141395621
 30
0.0
 11
260.4237631164623
 21
348.3823408733746
 31
0.0
  0
LINE
  5
5971
330
596C
100
AcDbEntity
  8
寸法
  6
Continuous
 62
     0
370
    -2
100
AcDbLine
 10
241.9237631164623
 20
348.3823408733746
 30
0.0
 11
258.9237631164623
 21
348.3823408733746
 31
0.0
  0
INSERT
  5
5972
330
596C
100
AcDbEntity
  8
寸法
 62
     0
370
    -2
100
AcDbBlockReference
  2
_DOT
 10
240.4237631164623
 20
348.3823408733746
 30
0.0
 41
1.5
 42
1.5
 43
1.5
 50
180.0
  0
INSERT
  5
5973
330
596C
100
AcDbEntity
  8
寸法
 62
     0
370
    -2
100
AcDbBlockReference
  2
_DOT
 10
260.4237631164623
 20
348.3823408733746
 30
0.0
 41
1.5
 42
1.5
 43
1.5
  0
MTEXT
  5
5974
330
596C
100
AcDbEntity
  8
寸法
  6
Continuous
 62
     0
100
AcDbMText
 10
250.4237631164623
 20
352.8823408733746
 30
0.0
 40
5.0
 41
0.0
 46
0.0
 71
     5
 72
     1
  1
\A1;20
  7
ＭＳ ゴシック
 73
     1
 44
1.0
  0
POINT
  5
5975
330
596C
100
AcDbEntity
  8
Defpoints
 62
     0
100
AcDbPoint
 10
240.4237631164623
 20
335.0537141395621
 30
0.0
  0
POINT
  5
5976
330
596C
100
AcDbEntity
  8
Defpoints
 62
     0
100
AcDbPoint
 10
260.4237631164623
 20
335.0537141395621
 30
0.0
  0
POINT
  5
5977
330
596C
100
AcDbEntity
  8
Defpoints
 62
     0
100
AcDbPoint
 10
260.4237631164623
 20
348.3823408733746
 30
0.0
  0
ENDBLK
  5
596E
330
596C
100
AcDbEntity
  8
0
100
AcDbBlockEnd
  0
ENDSEC
  0
SECTION
  2
ENTITIES
  0
POINT
  5
1301
330
A
100
AcDbEntity
  8
MODEL
100
AcDbPoint
 10
963.7243970754489
 20
138.0847547131194
 30
0.0
  0
POINT
  5
1306
330
A
100
AcDbEntity
  8
MODEL
100
AcDbPoint
 10
847.7244070754489
 20
138.0847547131194
 30
0.0
  0
POINT
  5
1307
330
A
100
AcDbEntity
  8
MODEL
100
AcDbPoint
 10
973.7862873746794
 20
166.0075841667841
 30
0.0
  0
POINT
  5
1308
330
A
100
AcDbEntity
  8
MODEL
100
AcDbPoint
 10
973.7862873746794
 20
184.0075841667841
 30
0.0
  0
POINT
  5
1312
330
A
100
AcDbEntity
  8
MODEL
100
AcDbPoint
 10
810.9244070754489
 20
149.007583882008
 30
0.0
  0
POINT
  5
1313
330
A
100
AcDbEntity
  8
MODEL
100
AcDbPoint
 10
810.9244070754489
 20
201.007583882008
 30
0.0
  0
POINT
  5
131E
330
A
100
AcDbEntity
  8
MODEL
100
AcDbPoint
 10
1111.259263541787
 20
138.207583607055
 30
0.0
  0
POINT
  5
131F
330
A
100
AcDbEntity
  8
MODEL
100
AcDbPoint
 10
1104.759263541787
 20
138.207583607055
 30
0.0
  0
POINT
  5
1342
330
A
100
AcDbEntity
  8
MODEL
100
AcDbPoint
 10
973.354966229004
 20
368.3598201219507
 30
0.0
  0
POINT
  5
1343
330
A
100
AcDbEntity
  8
MODEL
100
AcDbPoint
 10
973.354966229004
 20
319.3598501219507
 30
0.0
  0
POINT
  5
1346
330
A
100
AcDbEntity
  8
MODEL
100
AcDbPoint
 10
983.2218070738209
 20
368.3598201219507
 30
0.0
  0
POINT
  5
1347
330
A
100
AcDbEntity
  8
MODEL
100
AcDbPoint
 10
983.2218070738209
 20
301.3598201219507
 30
0.0
  0
POINT
  5
1350
330
A
100
AcDbEntity
  8
MODEL
100
AcDbPoint
 10
963.7243970754489
 20
286.3598201219507
 30
0.0
  0
POINT
  5
1351
330
A
100
AcDbEntity
  8
MODEL
100
AcDbPoint
 10
838.7244070754489
 20
286.3598201219507
 30
0.0
  0
POINT
  5
1357
330
A
100
AcDbEntity
  8
MODEL
100
AcDbPoint
 10
810.9244070754489
 20
301.3598201219507
 30
0.0
  0
POINT
  5
1359
330
A
100
AcDbEntity
  8
MODEL
100
AcDbPoint
 10
810.9244070754489
 20
361.3598201219507
 30
0.0
  0
POINT
  5
135A
330
A
100
AcDbEntity
  8
MODEL
100
AcDbPoint
 10
810.9244070754489
 20
368.3598201219507
 30
0.0
  0
POINT
  5
135B
330
A
100
AcDbEntity
  8
MODEL
100
AcDbPoint
 10
810.9244070754489
 20
361.3598201219507
 30
0.0
  0
POINT
  5
1371
330
A
100
AcDbEntity
  8
MODEL
100
AcDbPoint
 10
1164.81489702863
 20
383.9337336502628
 30
0.0
  0
POINT
  5
1372
330
A
100
AcDbEntity
  8
MODEL
100
AcDbPoint
 10
1164.81489702863
 20
279.9338376502628
 30
0.0
  0
POINT
  5
1378
330
A
100
AcDbEntity
  8
MODEL
100
AcDbPoint
 10
1180.157201609016
 20
264.2731813749589
 30
0.0
  0
POINT
  5
1379
330
A
100
AcDbEntity
  8
MODEL
100
AcDbPoint
 10
1193.957187809016
 20
264.2731813749589
 30
0.0
  0
POINT
  5
1389
330
A
100
AcDbEntity
  8
MODEL
100
AcDbPoint
 10
1079.093440814797
 20
383.9337336502628
 30
0.0
  0
POINT
  5
138A
330
A
100
AcDbEntity
  8
MODEL
100
AcDbPoint
 10
1079.093440814797
 20
279.9337336502626
 30
0.0
  0
POINT
  5
138D
330
A
100
AcDbEntity
  8
MODEL
100
AcDbPoint
 10
1093.467555113589
 20
264.2731813749589
 30
0.0
  0
POINT
  5
138E
330
A
100
AcDbEntity
  8
MODEL
100
AcDbPoint
 10
1106.467555113589
 20
264.2731813749589
 30
0.0
  0
POINT
  5
1398
330
A
100
AcDbEntity
  8
MODEL
100
AcDbPoint
 10
1180.157201609016
 20
398.2298339817613
 30
0.0
  0
POINT
  5
1399
330
A
100
AcDbEntity
  8
MODEL
100
AcDbPoint
 10
1194.157187609016
 20
398.2298339817613
 30
0.0
  0
POINT
  5
139C
330
A
100
AcDbEntity
  8
MODEL
100
AcDbPoint
 10
1093.467555113589
 20
398.2298339817613
 30
0.0
  0
POINT
  5
139D
330
A
100
AcDbEntity
  8
MODEL
100
AcDbPoint
 10
1107.467555113589
 20
398.2298339817613
 30
0.0
  0
LINE
  5
3C70
330
A
100
AcDbEntity
  8
MODEL
100
AcDbLine
 10
127.1816507401139
 20
154.8628469200377
 30
0.0
 11
127.1816507401139
 21
206.8628469200377
 31
0.0
  0
LINE
  5
4619
330
A
100
AcDbEntity
  8
MODEL
  6
Continuous
100
AcDbLine
 10
139.4237631164623
 20
341.022953810548
 30
0.0
 11
114.9237631164623
 21
341.022953810548
 31
0.0
  0
LINE
  5
461C
330
A
100
AcDbEntity
  8
MODEL
  6
Continuous
100
AcDbLine
 10
153.5825120145532
 20
341.5335990428101
 30
0.0
 11
100.7825120145531
 21
341.5335990428101
 31
0.0
  0
ARC
  5
461D
330
A
100
AcDbEntity
  8
MODEL
  6
Continuous
100
AcDbCircle
 10
100.7825120145531
 20
342.5335990428101
 30
0.0
 40
1.0
100
AcDbArc
 50
180.0
 51
270.0
  0
ARC
  5
461E
330
A
100
AcDbEntity
  8
MODEL
  6
Continuous
100
AcDbCircle
 10
153.5825120145532
 20
342.5335990428101
 30
0.0
 40
1.0
100
AcDbArc
 50
270.0
 51
0.0
  0
LINE
  5
461F
330
A
100
AcDbEntity
  8
MODEL
  6
Continuous
100
AcDbLine
 10
99.78251201455309
 20
342.5335990428101
 30
0.0
 11
99.78251201455309
 21
348.7335990428101
 31
0.0
  0
LINE
  5
4620
330
A
100
AcDbEntity
  8
MODEL
  6
Continuous
100
AcDbLine
 10
154.5825120145532
 20
348.7335990428101
 30
0.0
 11
154.5825120145532
 21
342.5335990428101
 31
0.0
  0
LINE
  5
4621
330
A
100
AcDbEntity
  8
MODEL
  6
Continuous
100
AcDbLine
 10
139.4237631164623
 20
341.5335990428101
 30
0.0
 11
139.4237631164623
 21
341.226058375657
 31
0.0
  0
LINE
  5
4622
330
A
100
AcDbEntity
  8
MODEL
  6
Continuous
100
AcDbLine
 10
139.4237631164623
 20
341.5335990428101
 30
0.0
 11
139.4237631164623
 21
341.246678442145
 31
0.0
  0
LINE
  5
4623
330
A
100
AcDbEntity
  8
MODEL
  6
Continuous
100
AcDbLine
 10
114.9237631164623
 20
341.5335990428101
 30
0.0
 11
114.9237631164623
 21
341.226058375657
 31
0.0
  0
LINE
  5
4624
330
A
100
AcDbEntity
  8
MODEL
  6
Continuous
100
AcDbLine
 10
114.9237631164623
 20
341.5335990428101
 30
0.0
 11
114.9237631164623
 21
341.246678442145
 31
0.0
  0
LINE
  5
4625
330
A
100
AcDbEntity
  8
MODEL
  6
Continuous
100
AcDbLine
 10
114.9237631164623
 20
341.5335990428101
 30
0.0
 11
114.9237631164623
 21
341.065353067538
 31
0.0
  0
LINE
  5
4626
330
A
100
AcDbEntity
  8
MODEL
  6
Continuous
100
AcDbLine
 10
114.9237631164623
 20
341.065353067538
 30
0.0
 11
114.9237631164623
 21
341.022953810548
 31
0.0
  0
LINE
  5
4627
330
A
100
AcDbEntity
  8
MODEL
  6
Continuous
100
AcDbLine
 10
114.9237631164623
 20
341.5335990428101
 30
0.0
 11
114.9237631164623
 21
341.1581433667341
 31
0.0
  0
LINE
  5
4628
330
A
100
AcDbEntity
  8
MODEL
  6
Continuous
100
AcDbLine
 10
139.4237631164623
 20
341.5335990428101
 30
0.0
 11
139.4237631164623
 21
341.022953810548
 31
0.0
  0
LINE
  5
4629
102
{ACAD_REACTORS
330
4A6E
102
}
330
A
100
AcDbEntity
  8
MODEL
  6
Continuous
100
AcDbLine
 10
99.78251201455309
 20
348.7335990428101
 30
0.0
 11
154.5825120145532
 21
348.7335990428101
 31
0.0
  0
POINT
  5
4967
330
A
100
AcDbEntity
  8
MODEL
100
AcDbPoint
 10
159.6608149866037
 20
1112.943495860789
 30
0.0
  0
POINT
  5
4968
330
A
100
AcDbEntity
  8
MODEL
100
AcDbPoint
 10
159.6608149866037
 20
1058.143496245838
 30
0.0
  0
LINE
  5
4971
330
A
100
AcDbEntity
  8
MODEL
  6
Continuous
100
AcDbLine
 10
133.3816507401138
 20
153.4628469200378
 30
0.0
 11
127.1816507401139
 21
153.4628469200378
 31
0.0
  0
ARC
  5
4976
102
{ACAD_REACTORS
330
5910
102
}
330
A
100
AcDbEntity
  8
MODEL
  6
STYLE_02
100
AcDbCircle
 10
408.8721245115548
 20
321.3335990428101
 30
0.0
 40
12.0
100
AcDbArc
 50
179.9992630000003
 51
180.4691690000001
  0
LINE
  5
4980
102
{ACAD_REACTORS
330
5910
102
}
330
A
100
AcDbEntity
  8
MODEL
  6
STYLE_02
100
AcDbLine
 10
396.8725355115548
 20
321.2423920428099
 30
0.0
 11
396.8725265115548
 21
321.2353370428101
 31
0.0
  0
ARC
  5
4983
102
{ACAD_REACTORS
330
5910
102
}
330
A
100
AcDbEntity
  8
MODEL
  6
Continuous
100
AcDbCircle
 10
408.8919621410434
 20
321.375005369178
 30
0.0
 40
27.5
100
AcDbArc
 50
23.48408455377067
 51
336.3055605938795
  0
LINE
  5
499C
330
A
100
AcDbEntity
  8
MODEL
  6
Continuous
100
AcDbLine
 10
127.1816507401139
 20
208.2628469200378
 30
0.0
 11
127.1816507401139
 21
153.4628469200378
 31
0.0
  0
POINT
  5
499D
330
A
100
AcDbEntity
  8
MODEL
100
AcDbPoint
 10
471.5926809920595
 20
1039.574930990415
 30
0.0
  0
POINT
  5
499E
330
A
100
AcDbEntity
  8
MODEL
100
AcDbPoint
 10
478.7926809920594
 20
1039.574930990415
 30
0.0
  0
DIMENSION
  5
4A6C
102
{ACAD_REACTORS
330
4A6E
102
}
102
{ACAD_XDICTIONARY
360
4A6D
102
}
330
A
100
AcDbEntity
  8
寸法
  6
Continuous
100
AcDbDimension
  2
*D4
 10
83.29381077446469
 20
341.034177143836
 30
0.0
 11
78.79381077446469
 21
344.8838880933231
 31
0.0
 70
    32
 71
     5
 42
7.699421898974093
 73
     0
 74
     0
 75
     0
  3
tfrom線あり
100
AcDbAlignedDimension
 13
99.78251201455309
 23
348.7335990428101
 33
0.0
 14
115.1991885646423
 24
341.034177143836
 34
0.0
 50
90.0
100
AcDbRotatedDimension
1001
ACAD
1000
DSTYLE
1002
{
1070
   144
1040
1.0
1070
   271
1070
     0
1002
}
  0
DIMENSION
  5
4A99
330
A
100
AcDbEntity
  8
寸法
  6
Continuous
100
AcDbDimension
  2
*D5
 10
362.1595183098592
 20
293.875005369178
 30
0.0
 11
362.1595183098592
 21
321.375005369178
 31
0.0
 70
   160
 71
     5
 42
55.0
 73
     0
 74
     0
 75
     0
  3
tfrom線あり
100
AcDbAlignedDimension
 13
393.5088003679508
 23
348.875005369178
 33
0.0
 14
393.5088003679508
 24
293.875005369178
 34
0.0
 50
90.0
100
AcDbRotatedDimension
1001
ACAD
1000
DSTYLE
1002
{
1070
   144
1040
1.0
1070
   271
1070
     0
1070
     3
1000
φ<>
1002
}
  0
ARC
  5
4B95
102
{ACAD_REACTORS
330
5910
102
}
330
A
100
AcDbEntity
  8
MODEL
  6
DASHED1
100
AcDbCircle
 10
408.9531428132897
 20
321.195739482332
 30
0.0
 40
27.5
100
AcDbArc
 50
336.3910372479264
 51
23.29526508500875
  0
ARC
  5
4B97
102
{ACAD_REACTORS
330
5910
102
}
330
A
100
AcDbEntity
  8
MODEL
  6
DASHED1
100
AcDbCircle
 10
408.8919621410434
 20
321.375005369178
 30
0.0
 40
12.0
100
AcDbArc
 50
297.0617228717484
 51
62.01337523178045
  0
LINE
  5
4C45
330
A
100
AcDbEntity
  8
MODEL
  6
Continuous
100
AcDbLine
 10
134.3816507401138
 20
168.6128469200377
 30
0.0
 11
134.3816507401138
 21
154.4628469200378
 31
0.0
  0
LINE
  5
4C46
330
A
100
AcDbEntity
  8
MODEL
  6
Continuous
100
AcDbLine
 10
134.3816507401138
 20
207.2628469200378
 30
0.0
 11
134.3816507401138
 21
193.1128469200377
 31
0.0
  0
ARC
  5
4C47
330
A
100
AcDbEntity
  8
MODEL
  6
Continuous
100
AcDbCircle
 10
133.3816507401138
 20
154.4628469200378
 30
0.0
 40
1.0
100
AcDbArc
 50
270.0
 51
0.0
  0
ARC
  5
4C48
330
A
100
AcDbEntity
  8
MODEL
  6
Continuous
100
AcDbCircle
 10
133.3816507401138
 20
207.2628469200378
 30
0.0
 40
1.0
100
AcDbArc
 50
0.0
 51
90.0
  0
LINE
  5
4C49
330
A
100
AcDbEntity
  8
MODEL
  6
Continuous
100
AcDbLine
 10
134.3816507401138
 20
168.6128469200377
 30
0.0
 11
134.3816507401138
 21
193.1128469200377
 31
0.0
  0
LINE
  5
4C4A
330
A
100
AcDbEntity
  8
MODEL
  6
Continuous
100
AcDbLine
 10
127.1816507401139
 20
208.2628469200378
 30
0.0
 11
133.3816507401138
 21
208.2628469200378
 31
0.0
  0
LINE
  5
4C4C
330
A
100
AcDbEntity
  8
MODEL
  6
Continuous
100
AcDbLine
 10
134.8816507401138
 20
168.6679425127937
 30
0.0
 11
134.8816507401138
 21
192.6868054765347
 31
0.0
  0
LINE
  5
4C4D
330
A
100
AcDbEntity
  8
MODEL
  6
Continuous
100
AcDbLine
 10
134.8816507401138
 20
192.6868054765347
 30
0.0
 11
134.8816507401138
 21
193.1050322715918
 31
0.0
  0
LINE
  5
4C4F
330
A
100
AcDbEntity
  8
MODEL
  6
Continuous
100
AcDbLine
 10
134.8816507401139
 20
169.1128469200377
 30
0.0
 11
134.8816507401139
 21
192.6128469200377
 31
0.0
  0
LINE
  5
4C60
330
A
100
AcDbEntity
  8
MODEL
  6
Continuous
100
AcDbLine
 10
134.3816507401138
 20
193.1050322715918
 30
0.0
 11
134.6252060816011
 21
193.1050322715918
 31
0.0
  0
LINE
  5
4C61
330
A
100
AcDbEntity
  8
MODEL
  6
Continuous
100
AcDbLine
 10
134.6252060816011
 20
193.1050322715918
 30
0.0
 11
134.8816507401138
 21
193.1050322715918
 31
0.0
  0
LINE
  5
4C62
330
A
100
AcDbEntity
  8
MODEL
  6
Continuous
100
AcDbLine
 10
134.3816507401138
 20
168.6679425127937
 30
0.0
 11
134.8816507401138
 21
168.6679425127937
 31
0.0
  0
LINE
  5
51B4
330
A
100
AcDbEntity
  8
PRINT BORDER
100
AcDbLine
 10
296.9999999999999
 20
0.0
 30
0.0
 11
296.9999999999999
 21
15.30952622855898
 31
0.0
  0
LINE
  5
51B5
330
A
100
AcDbEntity
  8
テンプレート
100
AcDbLine
 10
437.9999999999999
 20
38.27810890422097
 30
0.0
 11
15.30952622855898
 21
38.27810890422097
 31
0.0
  0
LINE
  5
51B6
330
A
100
AcDbEntity
  8
テンプレート
100
AcDbLine
 10
15.30952622855898
 20
26.22153683920783
 30
0.0
 11
578.6904737714407
 21
26.22153683920783
 31
0.0
  0
TEXT
  5
51B7
330
A
100
AcDbEntity
  8
テンプレート
100
AcDbText
 10
18.06121699514119
 20
32.16825981613692
 30
0.0
 40
3.5
  1
材質
  7
ＭＳ ゴシック
100
AcDbText
  0
TEXT
  5
51B8
330
A
100
AcDbEntity
  8
テンプレート
100
AcDbText
 10
18.06121699514119
 20
56.50959028673083
 30
0.0
 40
3.5
  1
品名
  7
ＭＳ ゴシック
100
AcDbText
  0
TEXT
  5
51B9
330
A
100
AcDbEntity
  8
テンプレート
100
AcDbText
 10
18.06121699514119
 20
44.65099339080098
 30
0.0
 40
3.5
  1
仕上げ
  7
ＭＳ ゴシック
100
AcDbText
  0
TEXT
  5
51BA
330
A
100
AcDbEntity
  8
テンプレート
100
AcDbText
 10
298.8233485179306
 20
56.58523052309897
 30
0.0
 40
3.5
  1
品番
  7
ＭＳ ゴシック
100
AcDbText
  0
TEXT
  5
51BB
330
A
100
AcDbEntity
  8
テンプレート
100
AcDbText
 10
33.59896027768343
 20
53.09440584367189
 30
0.0
 40
5.5
  1
レバーハンドル - FSB -
  7
ＭＳ ゴシック
100
AcDbText
  0
TEXT
  5
51BC
330
A
100
AcDbEntity
  8
テンプレート
100
AcDbText
 10
313.0171205424464
 20
52.977080524553
 30
0.0
 40
5.5
  1
FSB10-1070-NC
  7
ＭＳ ゴシック
100
AcDbText
  0
LINE
  5
51BD
330
A
100
AcDbEntity
  8
テンプレート
100
AcDbLine
 10
437.9999999999999
 20
50.16496477419605
 30
0.0
 11
15.30952622855898
 21
50.16496477419605
 31
0.0
  0
LINE
  5
51BE
330
A
100
AcDbEntity
  8
テンプレート
100
AcDbLine
 10
578.6904737714411
 20
62.22153683920783
 30
0.0
 11
15.30952622855898
 21
62.22153683920783
 31
0.0
  0
LINE
  5
51BF
330
A
100
AcDbEntity
  8
PRINT BORDER
100
AcDbLine
 10
593.9999999999999
 20
210.0
 30
0.0
 11
578.6904737714411
 21
210.0
 31
0.0
  0
LINE
  5
51C0
330
A
100
AcDbEntity
  8
PRINT BORDER
100
AcDbLine
 10
0.0
 20
210.0
 30
0.0
 11
15.30952622855898
 21
210.0
 31
0.0
  0
LINE
  5
51C1
330
A
100
AcDbEntity
  8
PRINT BORDER
100
AcDbLine
 10
296.9999999999999
 20
420.0
 30
0.0
 11
296.9999999999999
 21
404.690473771441
 31
0.0
  0
LINE
  5
51C2
330
A
100
AcDbEntity
  8
テンプレート
100
AcDbLine
 10
578.6904737714411
 20
62.22153683920783
 30
0.0
 11
578.6904737714411
 21
26.22153683920783
 31
0.0
  0
LINE
  5
51C3
330
A
100
AcDbEntity
  8
テンプレート
100
AcDbLine
 10
15.30952622855898
 20
62.22153683920783
 30
0.0
 11
15.30952622855898
 21
26.22153683920783
 31
0.0
  0
TEXT
  5
51C4
330
A
100
AcDbEntity
  8
テンプレート
100
AcDbText
 10
494.9733384955217
 20
16.51938390313694
 30
0.0
 40
5.5
  1
大洋金物株式会社  
  7
ＭＳ ゴシック
100
AcDbText
  0
LINE
  5
51C5
330
A
100
AcDbEntity
  8
テンプレート
100
AcDbLine
 10
437.9999999999999
 20
62.22153683920783
 30
0.0
 11
437.9999999999999
 21
26.22153683920783
 31
0.0
  0
LINE
  5
51C6
330
A
100
AcDbEntity
  8
テンプレート
100
AcDbLine
 10
296.9999999999999
 20
62.22153683920783
 30
0.0
 11
296.9999999999999
 21
26.22153683920783
 31
0.0
  0
INSERT
  5
51C7
330
A
100
AcDbEntity
  8
テンプレート
100
AcDbBlockReference
  2
名称未設定-1
 10
548.3945198859805
 20
-7.642344203993161
 30
0.0
 41
0.180975
 42
0.180975
 43
0.180975
  0
LINE
  5
51C9
330
A
100
AcDbEntity
  8
テンプレート
100
AcDbLine
 10
15.30952622855898
 20
210.0
 30
0.0
 11
15.30952622855898
 21
26.22153683920783
 31
0.0
  0
LINE
  5
51CA
330
A
100
AcDbEntity
  8
テンプレート
100
AcDbLine
 10
15.30952622855898
 20
210.0
 30
0.0
 11
15.30952622855898
 21
404.690473771441
 31
0.0
  0
LINE
  5
51CB
330
A
100
AcDbEntity
  8
テンプレート
100
AcDbLine
 10
296.9999999999999
 20
404.690473771441
 30
0.0
 11
15.30952622855887
 21
404.690473771441
 31
0.0
  0
LINE
  5
51CC
330
A
100
AcDbEntity
  8
テンプレート
100
AcDbLine
 10
296.9999999999999
 20
404.690473771441
 30
0.0
 11
578.6904737714411
 21
404.690473771441
 31
0.0
  0
LINE
  5
51CD
330
A
100
AcDbEntity
  8
テンプレート
100
AcDbLine
 10
578.6904737714411
 20
210.0
 30
0.0
 11
578.6904737714411
 21
404.690473771441
 31
0.0
  0
LINE
  5
51CE
330
A
100
AcDbEntity
  8
テンプレート
100
AcDbLine
 10
578.6904737714411
 20
210.0
 30
0.0
 11
578.6904737714411
 21
26.22153683920783
 31
0.0
  0
LWPOLYLINE
  5
51CF
330
A
100
AcDbEntity
  8
PRINT BORDER
  6
HIDDEN
 48
3.0
100
AcDbPolyline
 90
        4
 70
     1
 43
0.0
 10
0.0
 20
0.0
 10
0.0
 20
420.0
 10
593.9999999999999
 20
420.0
 10
593.9999999999999
 20
0.0
  0
TEXT
  5
51D0
330
A
100
AcDbEntity
  8
テンプレート
100
AcDbText
 10
298.7989156222221
 20
32.62405342819488
 30
0.0
 40
3.5
  1
縮尺
  7
ＭＳ ゴシック
100
AcDbText
  0
TEXT
  5
51D1
330
A
100
AcDbEntity
  8
テンプレート
100
AcDbText
 10
313.0171205424464
 20
28.29362070227194
 30
0.0
 40
5.5
  1
1/2
  7
ＭＳ ゴシック
100
AcDbText
  0
TEXT
  5
51D2
330
A
100
AcDbEntity
  8
テンプレート
100
AcDbText
 10
298.8233485179306
 20
44.52865845808583
 30
0.0
 40
3.5
  1
扉厚
  7
ＭＳ ゴシック
100
AcDbText
  0
TEXT
  5
51D3
330
A
100
AcDbEntity
  8
テンプレート
100
AcDbText
 10
440.0887524673468
 20
56.58523052309897
 30
0.0
 40
3.5
  1
備考
  7
ＭＳ ゴシック
100
AcDbText
  0
TEXT
  5
51D4
330
A
100
AcDbEntity
  8
テンプレート
100
AcDbText
 10
449.0017237694899
 20
47.28154793898159
 30
0.0
 40
5.5
  1
取付方＝呼込み(ビス付)
  7
ＭＳ ゴシック
100
AcDbText
  0
TEXT
  5
51D5
330
A
100
AcDbEntity
  8
_0-1_
 62
     1
100
AcDbText
 10
177.7468866874332
 20
79.37939740351129
 30
0.0
 40
4.0
  1
   
  7
ＭＳ ゴシック
100
AcDbText
  0
LINE
  5
51D6
330
A
100
AcDbEntity
  8
SPACER
  6
CENTER
 48
3.0
100
AcDbLine
 10
127.1816507401138
 20
224.6771809568476
 30
0.0
 11
127.1816507401138
 21
137.0485128832279
 31
0.0
  0
LINE
  5
51D7
330
A
100
AcDbEntity
  8
SPACER
  6
CENTER
 48
3.0
100
AcDbLine
 10
83.36731670330403
 20
180.8628469200378
 30
0.0
 11
170.9959847769237
 21
180.8628469200378
 31
0.0
  0
LINE
  5
51D8
330
A
100
AcDbEntity
  8
SPACER
  6
CENTER
 48
3.0
100
AcDbLine
 10
83.36817797774336
 20
348.7335990428101
 30
0.0
 11
170.9968460513629
 21
348.7335990428101
 31
0.0
  0
LINE
  5
51D9
330
A
100
AcDbEntity
  8
SPACER
  6
CENTER
 48
3.0
100
AcDbLine
 10
408.8721245115548
 20
365.1479330796199
 30
0.0
 11
408.8721245115548
 21
277.5192650060002
 31
0.0
  0
LINE
  5
51DA
330
A
100
AcDbEntity
  8
SPACER
  6
CENTER
 48
3.0
100
AcDbLine
 10
365.0577904747449
 20
321.33359904281
 30
0.0
 11
452.6864585483646
 21
321.33359904281
 31
0.0
  0
LWPOLYLINE
  5
523C
330
A
100
AcDbEntity
  8
SPACER
100
AcDbPolyline
 90
        4
 70
     1
 43
0.0
 10
161.5928474918056
 20
97.1045060433407
 10
161.5928474918056
 20
69.6571102646527
 10
432.4071525081941
 20
69.6571102646527
 10
432.4071525081941
 20
97.1045060433407
  0
LINE
  5
523D
330
A
100
AcDbEntity
  8
SPACER
  6
CENTER
 48
3.0
100
AcDbLine
 10
296.9999999999999
 20
404.690473771441
 30
0.0
 11
297.0
 21
106.25363796957
 31
0.0
  0
LINE
  5
523E
330
A
100
AcDbEntity
  8
SPACER
  6
CENTER
 48
3.0
100
AcDbLine
 10
15.30952622855898
 20
255.4720558705055
 30
0.0
 11
578.690473771441
 21
255.4720558705055
 31
0.0
  0
LINE
  5
523F
330
A
100
AcDbEntity
  8
SPACER
  6
CENTER
 48
3.0
100
AcDbLine
 10
15.30952622855898
 20
106.25363796957
 30
0.0
 11
578.690473771441
 21
106.25363796957
 31
0.0
  0
LINE
  5
5240
330
A
100
AcDbEntity
  8
SPACER
  6
CENTER
 48
3.0
100
AcDbLine
 10
408.8721245115548
 20
224.6771809568476
 30
0.0
 11
408.8721245115548
 21
137.0485128832279
 31
0.0
  0
LINE
  5
5241
330
A
100
AcDbEntity
  8
SPACER
  6
CENTER
 48
3.0
100
AcDbLine
 10
365.057790474745
 20
180.8628469200378
 30
0.0
 11
452.6864585483647
 21
180.8628469200378
 31
0.0
  0
CIRCLE
  5
5256
102
{ACAD_REACTORS
330
52E5
102
}
330
A
100
AcDbEntity
  8
CutoutOverlay
100
AcDbCircle
 10
427.8721245115549
 20
180.8628469200378
 30
0.0
 40
5.0
  0
CIRCLE
  5
5257
102
{ACAD_REACTORS
330
52E5
102
}
330
A
100
AcDbEntity
  8
CutoutOverlay
100
AcDbCircle
 10
389.8721245115548
 20
180.8628469200378
 30
0.0
 40
5.0
  0
CIRCLE
  5
5258
102
{ACAD_REACTORS
330
52E1
330
52E4
330
52E5
102
}
330
A
100
AcDbEntity
  8
CutoutOverlay
100
AcDbCircle
 10
408.8721245115548
 20
180.8628469200378
 30
0.0
 40
14.0
  0
DIMENSION
  5
5259
330
A
100
AcDbEntity
  8
寸法
100
AcDbDimension
  2
*D8
 10
389.8721245115548
 20
144.5573006134969
 30
0.0
 11
376.2146245115548
 21
144.5573006134969
 31
0.0
 70
   160
  1
 
 71
     5
 42
38.00000000000011
 73
     0
 74
     1
 75
     1
  3
tfrom線あり
100
AcDbAlignedDimension
 13
427.8721245115549
 23
177.3452081951892
 33
0.0
 14
389.8721245115548
 24
177.3452081951892
 34
0.0
100
AcDbRotatedDimension
1001
ACAD
1000
DSTYLE
1002
{
1070
   144
1040
1.0
1070
   172
1070
     1
1002
}
  0
DIMENSION
  5
525A
330
A
100
AcDbEntity
  8
寸法
100
AcDbDimension
  2
*D9
 10
408.8721245115548
 20
213.8023335341041
 30
0.0
 11
399.3721245115548
 21
218.3023335341041
 31
0.0
 70
    32
 71
     5
 42
19.0
 73
     0
 74
     0
 75
     0
  3
tfrom線あり
100
AcDbAlignedDimension
 13
389.8721245115548
 23
186.0157099566222
 33
0.0
 14
408.8721245115548
 24
200.1912224768318
 34
0.0
100
AcDbRotatedDimension
1001
ACAD
1000
DSTYLE
1002
{
1070
   144
1040
1.0
1002
}
  0
DIMENSION
  5
525B
330
A
100
AcDbEntity
  8
寸法
100
AcDbDimension
  2
*D10
 10
427.8721245115549
 20
213.8023335341041
 30
0.0
 11
418.3721245115548
 21
218.3023335341041
 31
0.0
 70
    32
 71
     5
 42
19.00000000000011
 73
     0
 74
     0
 75
     0
  3
tfrom線あり
100
AcDbAlignedDimension
 13
408.8721245115548
 23
200.1912224768318
 33
0.0
 14
427.8721245115549
 24
186.0157099566222
 34
0.0
100
AcDbRotatedDimension
1001
ACAD
1000
DSTYLE
1002
{
1070
   144
1040
1.0
1002
}
  0
DIMENSION
  5
52DA
330
A
100
AcDbEntity
  8
寸法
100
AcDbDimension
  2
*D11
 10
146.1825120145531
 20
365.9906564456901
 30
0.0
 11
127.1825120145531
 21
370.4906564456901
 31
0.0
 70
    32
 71
     5
 42
38.00000000000001
 73
     0
 74
     0
 75
     0
  3
tfrom線あり
100
AcDbAlignedDimension
 13
108.1825120145531
 23
351.4345575436565
 33
0.0
 14
146.1825120145531
 24
351.4345575436565
 34
0.0
100
AcDbRotatedDimension
1001
ACAD
1000
DSTYLE
1002
{
1070
   144
1040
1.0
1002
}
  0
LINE
  5
52DB
330
A
100
AcDbEntity
  8
寸法
  6
CENTER
 48
0.5
100
AcDbLine
 10
108.1825120145531
 20
351.4345575436565
 30
0.0
 11
108.1825120145531
 21
345.8123890105664
 31
0.0
  0
LINE
  5
52DC
330
A
100
AcDbEntity
  8
寸法
  6
CENTER
 48
0.5
100
AcDbLine
 10
146.1825120145531
 20
351.4345575436565
 30
0.0
 11
146.1825120145531
 21
345.8123890105664
 31
0.0
  0
TEXT
  5
52DE
330
A
100
AcDbEntity
  8
寸法
100
AcDbText
 10
348.1659509202454
 20
231.4229447852761
 30
0.0
 40
5.0
  1
<切欠図>
  7
ＭＳ ゴシック
100
AcDbText
  0
LEADER
  5
52DF
102
{ACAD_REACTORS
330
52E1
102
}
102
{ACAD_XDICTIONARY
360
52E0
102
}
330
A
100
AcDbEntity
  8
寸法
100
AcDbLeader
  3
tfrom線あり
 76
     3
 10
408.8721245115548
 20
194.8628469200378
 30
0.0
 10
408.8721245115548
 20
200.7337752882268
 30
0.0
 10
447.9531070495427
 20
200.7337752882268
 30
0.0
  0
LEADER
  5
52E2
102
{ACAD_REACTORS
330
52E4
102
}
102
{ACAD_XDICTIONARY
360
52E3
102
}
330
A
100
AcDbEntity
  8
寸法
100
AcDbLeader
  3
tfrom線あり
 76
     3
 10
408.8721245115548
 20
180.8628469200378
 30
0.0
 10
442.1530114131083
 20
156.5669494488204
 30
0.0
 10
510.1082899407156
 20
156.5669494488204
 30
0.0
  0
HATCH
  5
52E5
330
A
100
AcDbEntity
  8
CutoutOverlay
100
AcDbHatch
 10
0.0
 20
0.0
 30
0.0
210
0.0
220
0.0
230
1.0
  2
ANSI31
 70
     0
 71
     1
 91
        3
 92
        1
 93
        1
 72
     2
 10
389.8721245115548
 20
180.8628469200378
 40
5.0
 50
0.0
 51
360.0
 73
     1
 97
        1
330
5257
 92
        1
 93
        1
 72
     2
 10
408.8721245115548
 20
180.8628469200378
 40
14.0
 50
0.0
 51
360.0
 73
     1
 97
        1
330
5258
 92
        1
 93
        1
 72
     2
 10
427.8721245115549
 20
180.8628469200378
 40
5.0
 50
0.0
 51
360.0
 73
     1
 97
        1
330
5256
 75
     0
 76
     1
 52
0.0
 41
1.0
 77
     0
 78
     1
 53
45.0
 43
0.0
 44
0.0
 45
-2.245064030267288
 46
2.245064030267288
 79
     0
 98
        1
 10
0.0
 20
0.0
1001
ACAD
1010
0.0
1020
0.0
1030
0.0
  0
TEXT
  5
52E6
330
A
100
AcDbEntity
  8
寸法
100
AcDbText
 10
443.7339484827306
 20
159.2024023985158
 30
0.0
 40
5.0
  1
レバー角芯 センター
  7
ＭＳ ゴシック
100
AcDbText
  0
TEXT
  5
52E7
330
A
100
AcDbEntity
  8
寸法
100
AcDbText
 10
438.0695551162909
 20
203.042649715703
 30
0.0
 40
5.0
  1
ø28
  7
ＭＳ ゴシック
100
AcDbText
  0
TEXT
  5
52E8
330
A
100
AcDbEntity
  8
寸法
100
AcDbText
 10
375.8306164726592
 20
147.0523164739852
 30
0.0
 40
5.0
  1
ø10
  7
ＭＳ ゴシック
100
AcDbText
  0
LINE
  5
52EB
330
A
100
AcDbEntity
  8
SPACER
  6
CENTER
 48
3.0
100
AcDbLine
 10
127.1825120145532
 20
392.54793307962
 30
0.0
 11
127.1825120145532
 21
304.9192650060003
 31
0.0
  0
ARC
  5
5384
330
A
100
AcDbEntity
  8
CutoutUnderlay
  6
STYLE_02
100
AcDbCircle
 10
408.8721245115548
 20
180.8628469200378
 30
0.0
 40
12.0
100
AcDbArc
 50
179.9992630000003
 51
180.4691690000001
  0
LINE
  5
538E
330
A
100
AcDbEntity
  8
CutoutUnderlay
  6
STYLE_02
100
AcDbLine
 10
396.8725355115549
 20
180.7716399200376
 30
0.0
 11
396.8725265115548
 21
180.7645849200378
 31
0.0
  0
DIMENSION
  5
557D
330
A
100
AcDbEntity
  8
寸法
  6
Continuous
100
AcDbDimension
  2
*D12
 10
134.8812214791989
 20
139.2647026849567
 30
0.0
 11
141.6643088333743
 21
139.2647026849567
 31
0.0
 70
   160
 71
     5
 42
7.699570739085004
 73
     0
 74
     1
 75
     1
  3
tfrom線あり
100
AcDbAlignedDimension
 13
127.1816507401139
 23
153.4628469200378
 33
0.0
 14
134.8812214791989
 24
168.6679425127938
 34
0.0
100
AcDbRotatedDimension
1001
ACAD
1000
DSTYLE
1002
{
1070
   144
1040
1.0
1070
   172
1070
     1
1070
   175
1070
     1
1070
   174
1070
     1
1070
     3
1000
<>
1070
   271
1070
     0
1002
}
  0
TEXT
  5
55D9
330
A
100
AcDbEntity
  8
テンプレート
100
AcDbText
 10
313.0505831322697
 20
44.82304125840494
 30
0.0
 40
4.0
  1
MIWAケース：37～54
  7
ＭＳ ゴシック
100
AcDbText
  0
TEXT
  5
55DA
330
A
100
AcDbEntity
  8
テンプレート
100
AcDbText
 10
313.0505831322697
 20
39.8279918743558
 30
0.0
 40
4.0
  1
ユーロケース(DIN規格)：36～54
  7
ＭＳ ゴシック
100
AcDbText
  0
LINE
  5
5625
330
A
100
AcDbEntity
  8
MODEL
  6
Continuous
100
AcDbLine
 10
103.9325120145531
 20
348.7335990428101
 30
0.0
 11
105.7332807982266
 21
354.7335990428101
 31
0.0
  0
LINE
  5
5626
330
A
100
AcDbEntity
  8
MODEL
  6
Continuous
100
AcDbLine
 10
110.6317432308796
 20
354.7335990428101
 30
0.0
 11
105.7332807982266
 21
354.7335990428101
 31
0.0
  0
LINE
  5
5627
330
A
100
AcDbEntity
  8
MODEL
  6
Continuous
100
AcDbLine
 10
112.4325120145531
 20
348.7335990428101
 30
0.0
 11
110.6317432308797
 21
354.7335990428101
 31
0.0
  0
LINE
  5
5628
330
A
100
AcDbEntity
  8
MODEL
  6
Continuous
100
AcDbLine
 10
141.9325120145531
 20
348.7335990428101
 30
0.0
 11
143.7332807982266
 21
354.7335990428101
 31
0.0
  0
LINE
  5
5629
330
A
100
AcDbEntity
  8
MODEL
  6
Continuous
100
AcDbLine
 10
148.6317432308796
 20
354.7335990428101
 30
0.0
 11
143.7332807982266
 21
354.7335990428101
 31
0.0
  0
LINE
  5
562A
330
A
100
AcDbEntity
  8
MODEL
  6
Continuous
100
AcDbLine
 10
150.4325120145531
 20
348.7335990428101
 30
0.0
 11
148.6317432308797
 21
354.7335990428101
 31
0.0
  0
DIMENSION
  5
562B
330
A
100
AcDbEntity
  8
寸法
  6
Continuous
100
AcDbDimension
  2
*D13
 10
112.4325120145531
 20
378.7852477434631
 30
0.0
 11
108.1825120145531
 21
378.7852477434631
 31
0.0
 70
   160
 71
     5
 42
8.5
 73
     0
 74
     0
 75
     0
  3
tfrom線あり
100
AcDbAlignedDimension
 13
103.9325120145531
 23
367.0686993856673
 33
0.0
 14
112.4325120145531
 24
367.0686993856673
 34
0.0
100
AcDbRotatedDimension
1001
ACAD
1000
DSTYLE
1002
{
1070
   144
1040
1.0
1070
   271
1070
     1
1002
}
  0
DIMENSION
  5
564C
330
A
100
AcDbEntity
  8
寸法
  6
Continuous
100
AcDbDimension
  2
*D14
 10
169.1440199581582
 20
348.7335990428101
 30
0.0
 11
169.1440199581582
 21
351.7335990428101
 31
0.0
 70
   160
 71
     5
 42
6.0
 73
     0
 74
     0
 75
     0
  3
tfrom線あり
100
AcDbAlignedDimension
 13
148.7210231602584
 23
354.7335990428101
 33
0.0
 14
154.4759396838725
 24
348.7335990428101
 34
0.0
 50
90.0
100
AcDbRotatedDimension
1001
ACAD
1000
DSTYLE
1002
{
1070
   144
1040
1.0
1002
}
  0
LINE
  5
5660
330
A
100
AcDbEntity
  8
MODEL
  6
Continuous
100
AcDbLine
 10
127.1816507401139
 20
185.1128469200377
 30
0.0
 11
121.181650740114
 21
183.3120781363643
 31
0.0
  0
LINE
  5
5661
330
A
100
AcDbEntity
  8
MODEL
  6
Continuous
100
AcDbLine
 10
121.1816507401139
 20
183.3120781363642
 30
0.0
 11
121.1816507401139
 21
178.4136157037112
 31
0.0
  0
LINE
  5
5662
330
A
100
AcDbEntity
  8
MODEL
  6
Continuous
100
AcDbLine
 10
127.1816507401139
 20
176.6128469200377
 30
0.0
 11
121.181650740114
 21
178.4136157037112
 31
0.0
  0
ARC
  5
577D
330
A
100
AcDbEntity
  8
MODEL
  6
Continuous
100
AcDbCircle
 10
150.0329591164623
 20
311.022953810548
 30
0.0
 40
12.0
100
AcDbArc
 50
177.8054769999996
 51
270.0
  0
ARC
  5
577E
330
A
100
AcDbEntity
  8
MODEL
  6
Continuous
100
AcDbCircle
 10
148.3468611164623
 20
311.022953810548
 30
0.0
 40
32.0
100
AcDbArc
 50
182.1945229999999
 51
270.0
  0
ARC
  5
577F
330
A
100
AcDbEntity
  8
MODEL
  6
Continuous
100
AcDbCircle
 10
228.4237631164623
 20
311.022953810548
 30
0.0
 40
32.0
100
AcDbArc
 50
270.0
 51
0.0
  0
ARC
  5
5780
330
A
100
AcDbEntity
  8
MODEL
  6
Continuous
100
AcDbCircle
 10
228.4237631164623
 20
311.022953810548
 30
0.0
 40
12.0
100
AcDbArc
 50
270.0
 51
0.0
  0
ARC
  5
5781
330
A
100
AcDbEntity
  8
MODEL
  6
Continuous
100
AcDbCircle
 10
241.9237631164623
 20
332.522953810548
 30
0.0
 40
1.5
100
AcDbArc
 50
90.0
 51
180.0
  0
ARC
  5
5782
330
A
100
AcDbEntity
  8
MODEL
  6
Continuous
100
AcDbCircle
 10
258.9237631164623
 20
332.522953810548
 30
0.0
 40
1.5
100
AcDbArc
 50
0.0
 51
90.0
  0
ARC
  5
5783
330
A
100
AcDbEntity
  8
MODEL
  6
HIDDEN2
100
AcDbCircle
 10
143.3816507401138
 20
172.3628469200377
 30
0.0
 40
1.5
100
AcDbArc
 50
180.0
 51
270.0
  0
ARC
  5
5784
330
A
100
AcDbEntity
  8
MODEL
  6
HIDDEN2
100
AcDbCircle
 10
143.3816507401138
 20
189.3628469200377
 30
0.0
 40
1.5
100
AcDbArc
 50
90.0
 51
180.0
  0
ARC
  5
5786
102
{ACAD_REACTORS
330
5910
102
}
330
A
100
AcDbEntity
  8
MODEL
  6
Continuous
100
AcDbCircle
 10
408.8721245115547
 20
321.3335990428101
 30
0.0
 40
12.0
100
AcDbArc
 50
62.48052700000021
 51
297.5194729999998
  0
ARC
  5
5787
102
{ACAD_REACTORS
330
5910
102
}
330
A
100
AcDbEntity
  8
MODEL
  6
HIDDEN2
100
AcDbCircle
 10
408.8721245115547
 20
321.3335990428101
 30
0.0
 40
12.0
100
AcDbArc
 50
297.5194729999998
 51
297.5194762735195
  0
ARC
  5
5788
330
A
100
AcDbEntity
  8
MODEL
  6
HIDDEN2
100
AcDbCircle
 10
186.8816507401138
 20
180.8628469200377
 30
0.0
 40
10.0
100
AcDbArc
 50
87.80547700000001
 51
272.194523
  0
ARC
  5
5789
330
A
100
AcDbEntity
  8
MODEL
  6
Continuous
100
AcDbCircle
 10
186.8816507401138
 20
180.8628469200377
 30
0.0
 40
10.0
100
AcDbArc
 50
272.194523
 51
87.80547700000001
  0
ARC
  5
578A
102
{ACAD_REACTORS
330
5910
102
}
330
A
100
AcDbEntity
  8
MODEL
  6
Continuous
100
AcDbCircle
 10
532.1221245115546
 20
321.3335990428101
 30
0.0
 40
10.0
100
AcDbArc
 50
270.0
 51
90.0
  0
ARC
  5
578B
102
{ACAD_REACTORS
330
5910
102
}
330
A
100
AcDbEntity
  8
MODEL
  6
HIDDEN2
100
AcDbCircle
 10
532.1221245115546
 20
321.3335990428101
 30
0.0
 40
10.0
100
AcDbArc
 50
90.0
 51
270.0
  0
LINE
  5
578F
102
{ACAD_REACTORS
330
5910
102
}
330
A
100
AcDbEntity
  8
MODEL
  6
Continuous
100
AcDbLine
 10
409.2952875115548
 20
310.49146604281
 30
0.0
 11
430.8721245115547
 21
311.3335990428101
 31
0.0
  0
LINE
  5
5790
102
{ACAD_REACTORS
330
5910
102
}
330
A
100
AcDbEntity
  8
MODEL
  6
Continuous
100
AcDbLine
 10
430.8721245115547
 20
331.3335990428101
 30
0.0
 11
409.2952875115548
 21
332.1757320428101
 31
0.0
  0
LINE
  5
5793
330
A
100
AcDbEntity
  8
MODEL
  6
Continuous
100
AcDbLine
 10
148.3468611164623
 20
279.022953810548
 30
0.0
 11
228.4237631164623
 21
279.022953810548
 31
0.0
  0
LINE
  5
5794
330
A
100
AcDbEntity
  8
MODEL
  6
Continuous
100
AcDbLine
 10
150.0329591164623
 20
299.022953810548
 30
0.0
 11
228.4237631164623
 21
299.022953810548
 31
0.0
  0
LINE
  5
579B
330
A
100
AcDbEntity
  8
MODEL
  6
Continuous
100
AcDbLine
 10
240.4237631164623
 20
332.522953810548
 30
0.0
 11
240.4237631164623
 21
311.022953810548
 31
0.0
  0
LINE
  5
579C
330
A
100
AcDbEntity
  8
MODEL
  6
Continuous
100
AcDbLine
 10
258.9237631164623
 20
334.022953810548
 30
0.0
 11
241.9237631164623
 21
334.022953810548
 31
0.0
  0
LINE
  5
579D
330
A
100
AcDbEntity
  8
MODEL
  6
Continuous
100
AcDbLine
 10
260.4237631164623
 20
311.022953810548
 30
0.0
 11
260.4237631164623
 21
332.522953810548
 31
0.0
  0
LINE
  5
579E
330
A
100
AcDbEntity
  8
MODEL
  6
Continuous
100
AcDbLine
 10
116.3703311164622
 20
309.7976008105481
 30
0.0
 11
115.1737631164623
 21
341.022953810548
 31
0.0
  0
LINE
  5
579F
330
A
100
AcDbEntity
  8
MODEL
  6
Continuous
100
AcDbLine
 10
139.1737631164623
 20
341.022953810548
 30
0.0
 11
138.0417601164622
 21
311.482460810548
 31
0.0
  0
LINE
  5
57A0
330
A
100
AcDbEntity
  8
MODEL
  6
Continuous
100
AcDbLine
 10
139.1737631164623
 20
341.022953810548
 30
0.0
 11
115.1737631164623
 21
341.022953810548
 31
0.0
  0
LINE
  5
57A8
330
A
100
AcDbEntity
  8
MODEL
  6
HIDDEN2
100
AcDbLine
 10
143.3816507401138
 20
170.8628469200377
 30
0.0
 11
186.8816507401138
 21
170.8628469200377
 31
0.0
  0
LINE
  5
57A9
330
A
100
AcDbEntity
  8
MODEL
  6
HIDDEN2
100
AcDbLine
 10
141.8816507401138
 20
189.3628469200377
 30
0.0
 11
141.8816507401138
 21
172.3628469200377
 31
0.0
  0
LINE
  5
57AA
330
A
100
AcDbEntity
  8
MODEL
  6
HIDDEN2
100
AcDbLine
 10
186.8816507401138
 20
190.8628469200377
 30
0.0
 11
143.3816507401138
 21
190.8628469200377
 31
0.0
  0
LINE
  5
57AB
330
A
100
AcDbEntity
  8
MODEL
  6
Continuous
100
AcDbLine
 10
187.2645737401138
 20
170.8701809200377
 30
0.0
 11
134.8816507401138
 21
168.8628469200377
 31
0.0
  0
LINE
  5
57AC
330
A
100
AcDbEntity
  8
MODEL
  6
Continuous
100
AcDbLine
 10
134.8816507401138
 20
192.8628469200377
 30
0.0
 11
187.2645737401138
 21
190.8555129200376
 31
0.0
  0
LINE
  5
57AD
102
{ACAD_REACTORS
330
5910
102
}
330
A
100
AcDbEntity
  8
MODEL
  6
Continuous
100
AcDbLine
 10
532.1221245115546
 20
311.3335990428101
 30
0.0
 11
430.8721245115547
 21
311.3335990428101
 31
0.0
  0
LINE
  5
57AE
102
{ACAD_REACTORS
330
5910
102
}
330
A
100
AcDbEntity
  8
MODEL
  6
Continuous
100
AcDbLine
 10
532.1221245115546
 20
331.3335990428101
 30
0.0
 11
430.8721245115547
 21
331.3335990428101
 31
0.0
  0
LINE
  5
57AF
330
A
100
AcDbEntity
  8
MODEL
  6
Continuous
100
AcDbLine
 10
134.3816507401137
 20
192.8628469200377
 30
0.0
 11
134.3816507401137
 21
168.8628469200377
 31
0.0
  0
TEXT
  5
57FF
330
A
100
AcDbEntity
  8
テンプレート
100
AcDbText
 10
187.3255251873665
 20
95.58845453164052
 30
0.0
 40
5.0
  1
　 加工は現物合わせの上行って下さい。
  7
ＭＳ ゴシック
100
AcDbText
  0
TEXT
  5
5800
330
A
100
AcDbEntity
  8
テンプレート
100
AcDbText
 10
187.4977682695751
 20
103.6922386277807
 30
0.0
 40
5.0
  1
※ 輸入製品の為、国内製品と比べ製品寸法の個体差に幅が有ります。
  7
ＭＳ ゴシック
100
AcDbText
  0
TEXT
  5
5801
330
A
100
AcDbEntity
  8
テンプレート
100
AcDbText
 10
187.3255251873665
 20
86.21682322716002
 30
0.0
 40
5.0
  1
※ ご注文の際は正確な扉厚の指示をしてください。
  7
ＭＳ ゴシック
100
AcDbText
  0
TEXT
  5
5802
330
A
100
AcDbEntity
  8
テンプレート
100
AcDbText
 10
187.3255251873665
 20
77.5173345961741
 30
0.0
 40
5.0
  1
※ イモネジ・ビスのゆるみ止め防止のために金属製ネジ用ゆるみ止め剤(中強度タイプ)
  7
ＭＳ ゴシック
100
AcDbText
  0
TEXT
  5
5803
330
A
100
AcDbEntity
  8
テンプレート
100
AcDbText
 10
183.5610795085161
 20
68.07646144979785
 30
0.0
 40
5.0
  1
　　を用意して塗布してください。(推奨商品　住友3M社TL42J等)
  7
ＭＳ ゴシック
100
AcDbText
  0
DIMENSION
  5
5811
330
A
100
AcDbEntity
  8
寸法
  6
Continuous
100
AcDbDimension
  2
*D15
 10
260.1737631164622
 20
251.9092507806955
 30
0.0
 11
187.6737631164623
 21
256.4101886323899
 31
0.0
 70
    32
  1
X
 71
     5
 42
144.9999999999999
 73
     0
 74
     0
 75
     0
  3
tfrom線あり
100
AcDbAlignedDimension
 13
115.1737631164623
 23
307.9883273451515
 33
0.0
 14
260.1737631164622
 24
297.7016328274111
 34
0.0
100
AcDbRotatedDimension
1001
ACAD
1000
DSTYLE
1002
{
1070
   144
1040
1.0
1002
}
  0
DIMENSION
  5
5821
330
A
100
AcDbEntity
  8
寸法
  6
Continuous
100
AcDbDimension
  2
*D16
 10
83.29381077446469
 20
341.022953810548
 30
0.0
 11
78.79381077446469
 21
310.022953810548
 31
0.0
 70
    32
 71
     5
 42
62.0
 73
     0
 74
     0
 75
     0
  3
tfrom線あり
100
AcDbAlignedDimension
 13
148.3468611164623
 23
279.022953810548
 33
0.0
 14
148.3468611164623
 24
341.022953810548
 34
0.0
 50
90.0
100
AcDbRotatedDimension
1001
ACAD
1000
DSTYLE
1002
{
1070
   144
1040
1.0
1002
}
  0
DIMENSION
  5
583D
330
A
100
AcDbEntity
  8
寸法
  6
Continuous
100
AcDbDimension
  2
*D17
 10
71.76360277835605
 20
348.7335990428101
 30
0.0
 11
67.26360277835605
 21
313.8782764266791
 31
0.0
 70
    32
 71
     5
 42
69.7106452322621
 73
     0
 74
     0
 75
     0
  3
tfrom線あり
100
AcDbAlignedDimension
 13
98.827107338073
 23
279.022953810548
 33
0.0
 14
99.78251201455309
 24
348.7335990428101
 34
0.0
 50
90.0
100
AcDbRotatedDimension
1001
ACAD
1000
DSTYLE
1002
{
1070
   144
1040
1.0
1002
}
  0
ARC
  5
5911
102
{ACAD_REACTORS
330
591E
102
}
330
A
100
AcDbEntity
  8
CutoutUnderlay
  6
STYLE_02
100
AcDbCircle
 10
408.8522868820662
 20
180.8214405936699
 30
0.0
 40
12.0
100
AcDbArc
 50
179.9992630000003
 51
180.4691690000001
  0
LINE
  5
5912
102
{ACAD_REACTORS
330
591E
102
}
330
A
100
AcDbEntity
  8
CutoutUnderlay
  6
STYLE_02
100
AcDbLine
 10
396.8526978820662
 20
180.7302335936697
 30
0.0
 11
396.8526888820662
 21
180.7231785936699
 31
0.0
  0
ARC
  5
5913
102
{ACAD_REACTORS
330
591E
102
}
330
A
100
AcDbEntity
  8
CutoutUnderlay
  6
Continuous
100
AcDbCircle
 10
408.8721245115548
 20
180.8628469200378
 30
0.0
 40
27.5
100
AcDbArc
 50
23.48408455377067
 51
336.3055605938794
  0
ARC
  5
5914
102
{ACAD_REACTORS
330
591E
102
}
330
A
100
AcDbEntity
  8
CutoutUnderlay
  6
DASHED1
100
AcDbCircle
 10
408.9333051838011
 20
180.6835810331918
 30
0.0
 40
27.5
100
AcDbArc
 50
336.3910372479264
 51
23.2952650850087
  0
ARC
  5
5915
102
{ACAD_REACTORS
330
591E
102
}
330
A
100
AcDbEntity
  8
CutoutUnderlay
  6
Continuous
100
AcDbCircle
 10
408.8522868820661
 20
180.8214405936699
 30
0.0
 40
12.0
100
AcDbArc
 50
62.48052700000021
 51
297.5194729999998
  0
ARC
  5
5916
102
{ACAD_REACTORS
330
591E
102
}
330
A
100
AcDbEntity
  8
CutoutUnderlay
  6
Continuous
100
AcDbCircle
 10
532.102286882066
 20
180.8214405936699
 30
0.0
 40
10.0
100
AcDbArc
 50
270.0
 51
90.0
  0
ARC
  5
5917
102
{ACAD_REACTORS
330
591E
102
}
330
A
100
AcDbEntity
  8
CutoutUnderlay
  6
HIDDEN2
100
AcDbCircle
 10
532.102286882066
 20
180.8214405936699
 30
0.0
 40
10.0
100
AcDbArc
 50
90.0
 51
270.0
  0
LINE
  5
5918
102
{ACAD_REACTORS
330
591E
102
}
330
A
100
AcDbEntity
  8
CutoutUnderlay
  6
Continuous
100
AcDbLine
 10
409.2754498820661
 20
169.9793075936699
 30
0.0
 11
430.8522868820661
 21
170.8214405936699
 31
0.0
  0
LINE
  5
5919
102
{ACAD_REACTORS
330
591E
102
}
330
A
100
AcDbEntity
  8
CutoutUnderlay
  6
Continuous
100
AcDbLine
 10
430.8522868820661
 20
190.8214405936699
 30
0.0
 11
409.2754498820661
 21
191.6635735936699
 31
0.0
  0
LINE
  5
591A
102
{ACAD_REACTORS
330
591E
102
}
330
A
100
AcDbEntity
  8
CutoutUnderlay
  6
Continuous
100
AcDbLine
 10
532.102286882066
 20
170.8214405936699
 30
0.0
 11
430.8522868820661
 21
170.8214405936699
 31
0.0
  0
LINE
  5
591B
102
{ACAD_REACTORS
330
591E
102
}
330
A
100
AcDbEntity
  8
CutoutUnderlay
  6
Continuous
100
AcDbLine
 10
532.102286882066
 20
190.8214405936699
 30
0.0
 11
430.8522868820661
 21
190.8214405936699
 31
0.0
  0
ARC
  5
591C
102
{ACAD_REACTORS
330
591E
102
}
330
A
100
AcDbEntity
  8
CutoutUnderlay
  6
DASHED1
100
AcDbCircle
 10
408.8721245115548
 20
180.8628469200378
 30
0.0
 40
12.0
100
AcDbArc
 50
297.0617228717484
 51
62.01337523178044
  0
ARC
  5
591D
102
{ACAD_REACTORS
330
591E
102
}
330
A
100
AcDbEntity
  8
CutoutUnderlay
  6
HIDDEN2
100
AcDbCircle
 10
408.8522868820661
 20
180.8214405936699
 30
0.0
 40
12.0
100
AcDbArc
 50
297.5194729999998
 51
297.5194762735195
  0
LINE
  5
594C
330
A
100
AcDbEntity
  8
テンプレート
  6
Continuous
100
AcDbLine
 10
33.63100153769659
 20
26.22153683920783
 30
0.0
 11
33.63100153769659
 21
50.16496477419605
 31
0.0
  0
DIMENSION
  5
595C
330
A
100
AcDbEntity
  8
寸法
  6
Continuous
100
AcDbDimension
  2
*D18
 10
283.385732795493
 20
279.022953810548
 30
0.0
 11
278.885732795493
 21
306.522953810548
 31
0.0
 70
    32
 71
     5
 42
55.0
 73
     0
 74
     0
 75
     0
  3
tfrom線あり
100
AcDbAlignedDimension
 13
258.9237631164623
 23
334.022953810548
 33
0.0
 14
235.9557253480562
 24
279.022953810548
 34
0.0
 50
90.0
100
AcDbRotatedDimension
1001
ACAD
1000
DSTYLE
1002
{
1070
   144
1040
1.0
1002
}
  0
DIMENSION
  5
5969
330
A
100
AcDbEntity
  8
寸法
  6
Continuous
100
AcDbDimension
  2
*D19
 10
260.4237631164623
 20
348.3823408733746
 30
0.0
 11
250.4237631164623
 21
352.8823408733746
 31
0.0
 70
    32
 71
     5
 42
19.99999999999997
 73
     0
 74
     0
 75
     0
  3
tfrom線あり
100
AcDbAlignedDimension
 13
240.4237631164623
 23
335.0537141395621
 33
0.0
 14
260.4237631164623
 24
335.0537141395621
 34
0.0
100
AcDbRotatedDimension
1001
ACAD
1000
DSTYLE
1002
{
1070
   144
1040
1.0
1002
}
  0
MTEXT
  5
59CB
102
{ACAD_XDICTIONARY
360
59CC
102
}
330
A
100
AcDbEntity
  8
寸法
  6
Continuous
370
     0
100
AcDbMText
 10
16.03746315898582
 20
23.37395828580276
 30
0.0
 40
4.0
 41
0.0
 46
4.0
 71
     1
 72
     1
  1
{20221222N}
  7
ＭＳ ゴシック
 73
     1
 44
1.0
1001
ACAD
1000
ACAD_MTEXT_DEFINED_HEIGHT_BEGIN
1070
    46
1040
4.0
1000
ACAD_MTEXT_DEFINED_HEIGHT_END
  0
LINE
  5
5A6A
330
A
100
AcDbEntity
  8
寸法
  6
CENTER
 48
0.25
100
AcDbLine
 10
111.7413840658266
 20
332.0457397682868
 30
0.0
 11
100.6533546923752
 21
332.0457397682868
 31
0.0
  0
LINE
  5
5A6B
330
A
100
AcDbEntity
  8
寸法
100
AcDbLine
 10
95.96433716893058
 20
333.5847735873938
 30
0.0
 11
92.83939832788714
 21
333.5847735873938
 31
0.0
  0
LINE
  5
5A6C
330
A
100
AcDbEntity
  8
寸法
100
AcDbLine
 10
95.96433716893058
 20
333.5847735873938
 30
0.0
 11
96.82459533260386
 21
332.1335353232726
 31
0.0
  0
LINE
  5
5A6D
330
A
100
AcDbEntity
  8
寸法
100
AcDbLine
 10
92.83939832788714
 20
333.5847735873938
 30
0.0
 11
92.83939832788714
 21
332.1335353232726
 31
0.0
  0
LINE
  5
5A6E
330
A
100
AcDbEntity
  8
寸法
100
AcDbLine
 10
95.96433716893058
 20
330.6822970591516
 30
0.0
 11
92.83939832788714
 21
330.6822970591516
 31
0.0
  0
LINE
  5
5A6F
330
A
100
AcDbEntity
  8
寸法
100
AcDbLine
 10
95.96433716893058
 20
330.6822970591516
 30
0.0
 11
96.82459533260386
 21
332.1335353232726
 31
0.0
  0
LINE
  5
5A70
330
A
100
AcDbEntity
  8
寸法
100
AcDbLine
 10
92.83939832788714
 20
330.6822970591516
 30
0.0
 11
92.83939832788714
 21
332.1335353232726
 31
0.0
  0
LINE
  5
5A71
330
A
100
AcDbEntity
  8
寸法
100
AcDbLine
 10
95.96433716893058
 20
333.5847735873938
 30
0.0
 11
95.49342138534077
 21
330.6822970591516
 31
0.0
  0
LINE
  5
5A72
330
A
100
AcDbEntity
  8
寸法
100
AcDbLine
 10
95.14515320138402
 20
333.5847735873938
 30
0.0
 11
94.6742374177942
 21
330.6822970591516
 31
0.0
  0
LINE
  5
5A73
330
A
100
AcDbEntity
  8
寸法
100
AcDbLine
 10
94.29183656852321
 20
333.5847735873938
 30
0.0
 11
93.82092078493316
 21
330.6822970591516
 31
0.0
  0
LINE
  5
5A74
330
A
100
AcDbEntity
  8
寸法
100
AcDbLine
 10
93.50678526629112
 20
333.5847735873938
 30
0.0
 11
93.03586948270119
 21
330.6822970591516
 31
0.0
  0
CIRCLE
  5
5A75
330
A
100
AcDbEntity
  8
HIDDEN
 48
0.25
100
AcDbCircle
 10
141.2968952136245
 20
180.6675997183098
 30
0.0
 40
2.458499999999954
  0
MTEXT
  5
5BB6
330
A
100
AcDbEntity
  8
テンプレート
390
1D
100
AcDbMText
 10
35.02123153496905
 20
34.57354675141926
 30
0.0
 40
5.0
 41
0.0
 46
5.205
 71
     1
 72
     1
  1
{アルミ}
  7
ＭＳ ゴシック
 73
     1
 44
0.7828267384257843
1001
ACAD
1000
ACAD_MTEXT_DEFINED_HEIGHT_BEGIN
1070
    46
1040
5.205
1000
ACAD_MTEXT_DEFINED_HEIGHT_END
  0
MTEXT
  5
5BB7
330
A
100
AcDbEntity
  8
テンプレート
390
1D
100
AcDbMText
 10
243.5503247464253
 20
34.57354675141926
 30
0.0
 40
5.0
 41
0.0
 46
5.075
 71
     1
 72
     1
  1
{ステンレス}
  7
ＭＳ ゴシック
 73
     1
 44
0.7828267384257843
1001
ACAD
1000
ACAD_MTEXT_DEFINED_HEIGHT_BEGIN
1070
    46
1040
5.075
1000
ACAD_MTEXT_DEFINED_HEIGHT_END
  0
MTEXT
  5
5BB8
330
A
100
AcDbEntity
  8
テンプレート
390
1D
100
AcDbMText
 10
34.78893721489678
 20
43.13396992254107
 30
0.0
 40
3.0
 41
0.0
 46
4.468
 71
     1
 72
     1
  1
{シャンパンシルバー}
  7
ＭＳ ゴシック
 73
     1
 44
0.7828267384257843
1001
ACAD
1000
ACAD_MTEXT_DEFINED_HEIGHT_BEGIN
1070
    46
1040
4.468
1000
ACAD_MTEXT_DEFINED_HEIGHT_END
  0
MTEXT
  5
5BB9
330
A
100
AcDbEntity
  8
テンプレート
390
1D
100
AcDbMText
 10
34.78893721489678
 20
48.77911613324934
 30
0.0
 40
3.0
 41
0.0
 46
4.224
 71
     1
 72
     1
  1
{ナチュラル}
  7
ＭＳ ゴシック
 73
     1
 44
0.7828267384257843
1001
ACAD
1000
ACAD_MTEXT_DEFINED_HEIGHT_BEGIN
1070
    46
1040
4.224
1000
ACAD_MTEXT_DEFINED_HEIGHT_END
  0
MTEXT
  5
5BBA
330
A
100
AcDbEntity
  8
テンプレート
390
1D
100
AcDbMText
 10
88.87425041605843
 20
43.13396992254107
 30
0.0
 40
3.0
 41
0.0
 46
4.468
 71
     1
 72
     1
  1
{ライトブロンズ}
  7
ＭＳ ゴシック
 73
     1
 44
0.7828267384257843
1001
ACAD
1000
ACAD_MTEXT_DEFINED_HEIGHT_BEGIN
1070
    46
1040
4.468
1000
ACAD_MTEXT_DEFINED_HEIGHT_END
  0
MTEXT
  5
5BBB
330
A
100
AcDbEntity
  8
テンプレート
390
1D
100
AcDbMText
 10
88.87425041605843
 20
48.77911613324933
 30
0.0
 40
3.0
 41
0.0
 46
4.468
 71
     1
 72
     1
  1
{ゴールドブラスト}
  7
ＭＳ ゴシック
 73
     1
 44
0.7828267384257843
1001
ACAD
1000
ACAD_MTEXT_DEFINED_HEIGHT_BEGIN
1070
    46
1040
4.468
1000
ACAD_MTEXT_DEFINED_HEIGHT_END
  0
MTEXT
  5
5BBC
330
A
100
AcDbEntity
  8
テンプレート
390
1D
100
AcDbMText
 10
139.8343001147318
 20
43.13396992254113
 30
0.0
 40
3.0
 41
0.0
 46
4.468
 71
     1
 72
     1
  1
{ダークブロンズ}
  7
ＭＳ ゴシック
 73
     1
 44
0.7828267384257843
1001
ACAD
1000
ACAD_MTEXT_DEFINED_HEIGHT_BEGIN
1070
    46
1040
4.468
1000
ACAD_MTEXT_DEFINED_HEIGHT_END
  0
MTEXT
  5
5BBD
330
A
100
AcDbEntity
  8
テンプレート
390
1D
100
AcDbMText
 10
139.8343001147318
 20
48.77911613324939
 30
0.0
 40
3.0
 41
0.0
 46
4.468
 71
     1
 72
     1
  1
{ミディアムブロンズ}
  7
ＭＳ ゴシック
 73
     1
 44
0.7828267384257843
1001
ACAD
1000
ACAD_MTEXT_DEFINED_HEIGHT_BEGIN
1070
    46
1040
4.468
1000
ACAD_MTEXT_DEFINED_HEIGHT_END
  0
MTEXT
  5
5BBE
330
A
100
AcDbEntity
  8
テンプレート
390
1D
100
AcDbMText
 10
194.0581809025754
 20
48.77911613324942
 30
0.0
 40
3.0
 41
0.0
 46
4.468
 71
     1
 72
     1
  1
{ブラックブラスト}
  7
ＭＳ ゴシック
 73
     1
 44
0.7828267384257843
1001
ACAD
1000
ACAD_MTEXT_DEFINED_HEIGHT_BEGIN
1070
    46
1040
4.468
1000
ACAD_MTEXT_DEFINED_HEIGHT_END
  0
LINE
  5
5BBF
330
A
100
AcDbEntity
  8
テンプレート
  6
Continuous
100
AcDbLine
 10
191.6929578215278
 20
50.16496477419608
 30
0.0
 11
191.6929578215278
 21
38.278108904221
 31
0.0
  0
LINE
  5
5BC0
330
A
100
AcDbEntity
  8
テンプレート
  6
Continuous
100
AcDbLine
 10
137.2622548266091
 20
50.16496477419606
 30
0.0
 11
137.2622548266091
 21
38.27810890422099
 31
0.0
  0
LINE
  5
5BC1
330
A
100
AcDbEntity
  8
テンプレート
  6
Continuous
100
AcDbLine
 10
86.44498978318505
 20
50.16496477419605
 30
0.0
 11
86.44498978318515
 21
38.27810890422097
 31
0.0
  0
LINE
  5
5BC2
330
A
100
AcDbEntity
  8
テンプレート
  6
Continuous
100
AcDbLine
 10
296.9999999999998
 20
44.22153683920783
 30
0.0
 11
33.63100153769659
 21
44.22153683920783
 31
0.0
  0
LINE
  5
5BC3
330
A
100
AcDbEntity
  8
テンプレート
  6
Continuous
100
AcDbLine
 10
241.5029147091358
 20
50.16496477419611
 30
0.0
 11
241.5029147091358
 21
26.22153683920783
 31
0.0
  0
MTEXT
  5
5BC4
330
A
100
AcDbEntity
  8
テンプレート
390
1D
100
AcDbMText
 10
243.8681377901834
 20
48.77911613324945
 30
0.0
 40
3.0
 41
0.0
 46
3.138
 71
     1
 72
     1
  1
{サテン}
  7
ＭＳ ゴシック
 73
     1
 44
0.7828267384257843
1001
ACAD
1000
ACAD_MTEXT_DEFINED_HEIGHT_BEGIN
1070
    46
1040
3.138
1000
ACAD_MTEXT_DEFINED_HEIGHT_END
  0
MTEXT
  5
5BC5
330
A
100
AcDbEntity
  8
テンプレート
390
1D
100
AcDbMText
 10
243.8681377901834
 20
42.83568819826117
 30
0.0
 40
3.0
 41
0.0
 46
3.258
 71
     1
 72
     1
  1
{ポリッシュ}
  7
ＭＳ ゴシック
 73
     1
 44
0.7828267384257843
1001
ACAD
1000
ACAD_MTEXT_DEFINED_HEIGHT_BEGIN
1070
    46
1040
3.258
1000
ACAD_MTEXT_DEFINED_HEIGHT_END
  0
TEXT
  5
5C09
330
A
100
AcDbEntity
  8
テンプレート
100
AcDbText
 10
61.05750033420345
 20
80.31799818380426
 30
0.0
 40
5.0
  1
X = 145mm
  7
ＭＳ ゴシック
100
AcDbText
  0
TEXT
  5
5C0A
330
A
100
AcDbEntity
  8
テンプレート
100
AcDbText
 10
21.66149065120626
 20
80.31799818380426
 30
0.0
 40
5.0
  1
アルミ
  7
ＭＳ ゴシック
100
AcDbText
  0
TEXT
  5
5C0B
330
A
100
AcDbEntity
  8
テンプレート
100
AcDbText
 10
21.66149065120626
 20
69.42997144028848
 30
0.0
 40
5.0
  1
ステンレス
  7
ＭＳ ゴシック
100
AcDbText
  0
TEXT
  5
5C0C
330
A
100
AcDbEntity
  8
テンプレート
100
AcDbText
 10
61.05750033420345
 20
69.42997144028843
 30
0.0
 40
5.0
  1
X = 142mm
  7
ＭＳ ゴシック
100
AcDbText
  0
LINE
  5
5C0F
330
A
100
AcDbEntity
  8
寸法
100
AcDbLine
 10
19.80183464659526
 20
88.3770484431703
 30
0.0
 11
19.80183464659526
 21
66.6326002587322
 31
0.0
  0
LINE
  5
5C10
330
A
100
AcDbEntity
  8
寸法
100
AcDbLine
 10
19.80183464659526
 20
88.3770484431703
 30
0.0
 11
91.86192456013995
 21
88.3770484431703
 31
0.0
  0
LINE
  5
5C11
330
A
100
AcDbEntity
  8
寸法
100
AcDbLine
 10
91.86192456013995
 20
88.3770484431703
 30
0.0
 11
91.86192456013995
 21
66.6326002587322
 31
0.0
  0
LINE
  5
5C12
330
A
100
AcDbEntity
  8
寸法
100
AcDbLine
 10
19.80183464659526
 20
77.50482435095122
 30
0.0
 11
91.86192456013995
 21
77.50482435095122
 31
0.0
  0
LINE
  5
5C13
330
A
100
AcDbEntity
  8
寸法
100
AcDbLine
 10
19.80183464659526
 20
66.6326002587322
 30
0.0
 11
91.86192456013995
 21
66.6326002587322
 31
0.0
  0
VIEWPORT
  5
349
330
B
100
AcDbEntity
 67
     1
  8
0
100
AcDbViewport
 10
202.5
 20
128.5
 30
0.0
 40
486.0
 41
308.4
 68
     1
 69
     1
 12
202.5
 22
128.5
 13
0.0
 23
0.0
 14
0.5
 24
0.5
 15
0.0
 25
0.0
 16
0.0
 26
0.0
 36
1.0
 17
0.0
 27
0.0
 37
0.0
 42
50.0
 43
0.0
 44
0.0
 45
308.4
 50
0.0
 51
0.0
 72
   100
 90
   557152
  1

281
     0
 71
     1
 74
     0
110
0.0
120
0.0
130
0.0
111
1.0
121
0.0
131
0.0
112
0.0
122
1.0
132
0.0
 79
     0
146
0.0
170
     0
 61
     5
348
26C
292
     1
282
     1
141
0.0
142
0.0
 63
   256
361
44F1
  0
VIEWPORT
  5
34A
330
B
100
AcDbEntity
 67
     1
  8
0
100
AcDbViewport
 10
202.5
 20
128.5
 30
0.0
 40
324.0
 41
205.6
 68
     2
 69
     2
 12
986.6781359294573
 22
1427.077061889956
 13
0.0
 23
0.0
 14
0.5
 24
0.5
 15
0.0
 25
0.0
 16
0.0
 26
0.0
 36
1.0
 17
0.0
 27
0.0
 37
0.0
 42
50.0
 43
0.0
 44
0.0
 45
2890.021615685494
 50
0.0
 51
0.0
 72
   100
 90
   557152
  1

281
     0
 71
     1
 74
     0
110
0.0
120
0.0
130
0.0
111
1.0
121
0.0
131
0.0
112
0.0
122
1.0
132
0.0
 79
     0
146
0.0
170
     0
 61
     5
348
26C
292
     1
282
     1
141
0.0
142
0.0
 63
   256
  0
ENDSEC
  0
SECTION
  2
OBJECTS
  0
DICTIONARY
  5
19
330
0
100
AcDbDictionary
281
     1
  3
ACAD_COLOR
350
674
  3
ACAD_DETAILVIEWSTYLE
350
13B5
  3
ACAD_FIELDLIST
350
59C9
  3
ACAD_GROUP
350
1A
  3
ACAD_IMAGE_VARS
350
27B
  3
ACAD_LAYOUT
350
1E
  3
ACAD_MATERIAL
350
263
  3
ACAD_MLEADERSTYLE
350
336
  3
ACAD_MLINESTYLE
350
1B
  3
ACAD_PLOTSETTINGS
350
22
  3
ACAD_PLOTSTYLENAME
350
1F
  3
ACAD_SCALELIST
350
241
  3
ACAD_SECTIONVIEWSTYLE
350
13B6
  3
ACAD_TABLESTYLE
350
278
  3
ACAD_VISUALSTYLE
350
267
  3
ACDB_RECOMPOSE_DATA
350
5C1C
  3
AcDbVariableDictionary
350
330
  3
APPDATA
350
27A
  0
SUN
  5
F1A
330
15
100
AcDbSun
 90
        1
290
     0
 63
     7
421
 16777215
 40
1.0
291
     1
 91
  2455826
 92
 54000000
292
     0
 70
     2
 71
   256
280
     1
  0
DICTIONARY
  5
2E1
330
2
100
AcDbDictionary
280
     1
281
     1
  3
ACAD_LAYERSTATES
360
2E2
  3
ACLYDICTIONARY
360
5A81
  0
DICTIONARY
  5
56F6
330
A
100
AcDbDictionary
280
     1
281
     1
  3
ACAD_SORTENTS
360
56F7
  0
DICTIONARY
  5
4A6D
330
4A6C
100
AcDbDictionary
280
     1
281
     1
  3
ACAD_DIMASSOC
360
4A6E
  0
DICTIONARY
  5
52E0
330
52DF
100
AcDbDictionary
280
     1
281
     1
  3
ACAD_DIMASSOC
360
52E1
  0
DICTIONARY
  5
52E3
330
52E2
100
AcDbDictionary
280
     1
281
     1
  3
ACAD_DIMASSOC
360
52E4
  0
DICTIONARY
  5
59CC
330
59CB
100
AcDbDictionary
280
     1
281
     1
  3
ACAD_FIELD
360
5C19
  0
SUN
  5
44F1
330
349
100
AcDbSun
 90
        1
290
     0
 63
     7
421
 16777215
 40
1.0
291
     1
 91
  2455826
 92
 54000000
292
     0
 70
     2
 71
   256
280
     1
  0
DICTIONARY
  5
674
102
{ACAD_REACTORS
330
19
102
}
330
19
100
AcDbDictionary
281
     1
  0
DICTIONARY
  5
13B5
102
{ACAD_REACTORS
330
19
102
}
330
19
100
AcDbDictionary
281
     1
  0
FIELDLIST
  5
59C9
102
{ACAD_REACTORS
330
19
102
}
330
19
100
AcDbIdSet
 90
        2
330
59CF
330
59CE
100
AcDbFieldList
  0
DICTIONARY
  5
1A
102
{ACAD_REACTORS
330
19
102
}
330
19
100
AcDbDictionary
281
     1
  3
*A1
350
5910
  3
*A2
350
591E
  0
RASTERVARIABLES
  5
27B
102
{ACAD_REACTORS
330
19
102
}
330
19
100
AcDbRasterVariables
 90
        0
 70
     1
 71
     1
 72
     1
  0
DICTIONARY
  5
1E
102
{ACAD_REACTORS
330
19
102
}
330
19
100
AcDbDictionary
281
     1
  3
Layout1
350
21
  3
Model
350
20
  0
DICTIONARY
  5
263
102
{ACAD_REACTORS
330
19
102
}
330
19
100
AcDbDictionary
281
     1
  3
ByBlock
350
54E8
  3
ByLayer
350
264
  3
Global
350
266
  0
DICTIONARY
  5
336
102
{ACAD_REACTORS
330
19
102
}
330
19
100
AcDbDictionary
281
     1
  3
Standard
350
5615
  0
DICTIONARY
  5
1B
102
{ACAD_REACTORS
330
19
102
}
330
19
100
AcDbDictionary
281
     1
  3
Standard
350
1C
  0
DICTIONARY
  5
22
102
{ACAD_REACTORS
330
19
102
}
330
19
100
AcDbDictionary
281
     1
  0
ACDBDICTIONARYWDFLT
  5
1F
102
{ACAD_REACTORS
330
19
102
}
330
19
100
AcDbDictionary
281
     1
  3
Normal
350
1D
100
AcDbDictionaryWithDefault
340
1D
  0
DICTIONARY
  5
241
102
{ACAD_REACTORS
330
19
102
}
330
19
100
AcDbDictionary
281
     1
  3
A0
350
242
  3
A1
350
243
  3
A2
350
244
  3
A3
350
245
  3
A4
350
246
  3
A5
350
247
  3
A6
350
248
  3
A7
350
249
  3
A8
350
24A
  3
A9
350
24B
  3
B0
350
24C
  3
B1
350
24D
  3
B2
350
24E
  3
B3
350
24F
  3
B4
350
250
  3
B5
350
251
  3
B6
350
252
  3
B7
350
253
  3
B8
350
254
  3
B9
350
255
  3
C0
350
256
  3
C1
350
257
  3
C2
350
258
  3
C3
350
259
  3
C4
350
25A
  3
C5
350
25B
  3
C6
350
25C
  3
C7
350
25D
  3
C8
350
25E
  3
C9
350
25F
  3
D0
350
260
  3
D1
350
261
  3
D2
350
262
  0
DICTIONARY
  5
13B6
102
{ACAD_REACTORS
330
19
102
}
330
19
100
AcDbDictionary
281
     1
  0
DICTIONARY
  5
278
102
{ACAD_REACTORS
330
19
102
}
330
19
100
AcDbDictionary
281
     1
  3
Standard
350
279
  0
DICTIONARY
  5
267
102
{ACAD_REACTORS
330
19
102
}
330
19
100
AcDbDictionary
281
     1
  3
2dWireframe
350
26C
  3
3D Hidden
350
26E
  3
3dWireframe
350
26D
  3
Basic
350
26F
  3
Brighten
350
273
  3
ColorChange
350
277
  3
Conceptual
350
271
  3
Dim
350
272
  3
EdgeColorOff
350
F14
  3
Facepattern
350
276
  3
Flat
350
268
  3
FlatWithEdges
350
269
  3
Gouraud
350
26A
  3
GouraudWithEdges
350
26B
  3
Hidden
350
F11
  3
JitterOff
350
F12
  3
Linepattern
350
275
  3
OverhangOff
350
F13
  3
Realistic
350
270
  3
Shaded
350
F19
  3
Shaded with edges
350
F18
  3
Shades of Gray
350
F15
  3
Sketchy
350
F16
  3
Thicken
350
274
  3
Wireframe
350
F10
  3
X-Ray
350
F17
  0
XRECORD
  5
5C1C
102
{ACAD_REACTORS
330
19
102
}
330
19
100
AcDbXrecord
280
     1
 90
        1
330
279
  0
DICTIONARY
  5
330
102
{ACAD_REACTORS
330
19
102
}
330
19
100
AcDbDictionary
281
     1
  3
CANNOSCALE
350
331
  3
CMLEADERSTYLE
350
563E
  3
CTABLESTYLE
350
335
  3
HPTRANSPARENCY
350
52F7
  3
XCLIPFRAME
350
13B4
  0
DICTIONARY
  5
27A
102
{ACAD_REACTORS
330
19
102
}
330
19
100
AcDbDictionary
281
     1
  0
DICTIONARY
  5
2E2
102
{ACAD_REACTORS
330
2E1
102
}
330
2E1
100
AcDbDictionary
281
     1
  0
DICTIONARY
  5
5A81
102
{ACAD_REACTORS
330
2E1
102
}
330
2E1
100
AcDbDictionary
281
     1
1001
ACAD
1000
<All
  0
SORTENTSTABLE
  5
56F7
102
{ACAD_REACTORS
330
56F6
102
}
330
56F6
100
AcDbSortentsTable
330
A
331
1301
  5
1398
331
1306
  5
1399
331
1307
  5
139C
331
1308
  5
139D
331
1312
  5
3C70
331
1313
  5
460D
331
131E
  5
460E
331
131F
  5
460F
331
1342
  5
4610
331
1343
  5
4611
331
1346
  5
4612
331
1347
  5
4613
331
1350
  5
4614
331
1351
  5
4615
331
1357
  5
4616
331
1359
  5
4618
331
135A
  5
4619
331
135B
  5
461C
331
1371
  5
461D
331
1372
  5
461E
331
1378
  5
461F
331
1379
  5
4620
331
1389
  5
4621
331
138A
  5
4622
331
138D
  5
4623
331
138E
  5
4624
331
1398
  5
4625
331
1399
  5
4626
331
139C
  5
4627
331
139D
  5
4628
331
3C70
  5
4629
331
4619
  5
497D
331
461C
  5
497E
331
461D
  5
497F
331
461E
  5
4980
331
461F
  5
4981
331
4620
  5
4983
331
4621
  5
499C
331
4622
  5
499D
331
4623
  5
499E
331
4624
  5
4A5D
331
4625
  5
4A6C
331
4626
  5
4A7B
331
4627
  5
4A99
331
4628
  5
4AD2
331
4629
  5
4B87
331
4967
  5
4B95
331
4968
  5
4B97
331
4971
  5
4C45
331
4976
  5
4C47
331
4980
  5
4C52
331
4983
  5
4C54
331
499C
  5
4C55
331
499D
  5
4C56
331
499E
  5
4C57
331
4A6C
  5
4C59
331
4A99
  5
4C5B
331
4B95
  5
4C5E
331
4B97
  5
4C5F
331
4C45
  5
4C60
331
4C46
  5
4C61
331
4C47
  5
4C62
331
4C48
  5
4CC1
331
4C49
  5
4D17
331
4C4A
  5
4D18
331
4C4C
  5
4D19
331
4C4D
  5
4D1A
331
4C4F
  5
4D1C
331
4C60
  5
4D2D
331
4C61
  5
4D2E
331
4C62
  5
4D2F
331
51B4
  5
51CE
331
51B5
  5
51CF
331
51B6
  5
51D0
331
51B7
  5
51D1
331
51B8
  5
51D2
331
51B9
  5
51D3
331
51BA
  5
51D4
331
51BB
  5
51D5
331
51BC
  5
51D6
331
51BD
  5
51D7
331
51BE
  5
51D8
331
51BF
  5
51D9
331
51C0
  5
51DA
331
51C1
  5
523C
331
51C2
  5
523D
331
51C3
  5
523E
331
51C4
  5
523F
331
51C5
  5
5240
331
51C6
  5
5241
331
51C7
  5
5256
331
51C9
  5
5258
331
51CA
  5
5259
331
51CB
  5
525A
331
51CC
  5
525B
331
51CD
  5
52DA
331
51CE
  5
52DB
331
51CF
  5
52DC
331
51D0
  5
52DE
331
51D1
  5
52DF
331
51D2
  5
52E2
331
51D3
  5
52E5
331
51D4
  5
52E6
331
51D5
  5
52E7
331
51D6
  5
52E8
331
51D7
  5
52EB
331
51D8
  5
537E
331
51D9
  5
537F
331
51DA
  5
5383
331
523C
  5
5384
331
523D
  5
5385
331
523E
  5
5386
331
523F
  5
5387
331
5240
  5
5388
331
5241
  5
5389
331
5256
  5
538A
331
5257
  5
538B
331
5258
  5
538C
331
5259
  5
538D
331
525A
  5
538E
331
525B
  5
538F
331
52DA
  5
5390
331
52DB
  5
5391
331
52DC
  5
5392
331
52DE
  5
5393
331
52DF
  5
557D
331
52E2
  5
55D9
331
52E5
  5
55DA
331
52E6
  5
5625
331
52E7
  5
5626
331
52E8
  5
5627
331
52EB
  5
5628
331
5384
  5
564C
331
538E
  5
5661
331
557D
  5
5662
331
55D9
  5
577B
331
55DA
  5
577C
331
5625
  5
577D
331
5626
  5
577E
331
5627
  5
577F
331
5628
  5
5780
331
5629
  5
5781
331
562A
  5
5782
331
562B
  5
5783
331
564C
  5
5784
331
5660
  5
5785
331
5661
  5
5786
331
5662
  5
5787
331
577D
  5
578A
331
577E
  5
578B
331
577F
  5
578C
331
5780
  5
578D
331
5781
  5
578E
331
5782
  5
578F
331
5783
  5
5790
331
5784
  5
5791
331
5786
  5
5793
331
5787
  5
5794
331
5788
  5
5795
331
5789
  5
5796
331
578A
  5
5797
331
578B
  5
5798
331
578F
  5
579C
331
5790
  5
579D
331
5793
  5
57A0
331
5794
  5
57A1
331
579B
  5
57A8
331
579C
  5
57A9
331
579D
  5
57AA
331
579E
  5
57AB
331
579F
  5
57AC
331
57A0
  5
57AD
331
57A8
  5
57B5
331
57A9
  5
57B6
331
57AA
  5
57B7
331
57AB
  5
57B8
331
57AC
  5
57B9
331
57AD
  5
57BA
331
57AE
  5
57BB
331
57AF
  5
57BC
331
57FF
  5
584E
331
5800
  5
584F
331
5801
  5
5850
331
5802
  5
5851
331
5803
  5
5852
331
5811
  5
5855
331
5821
  5
5856
331
583D
  5
5858
331
5911
  5
1301
331
5912
  5
1306
331
5913
  5
1307
331
5914
  5
1308
331
5915
  5
1312
331
5916
  5
1313
331
5917
  5
131E
331
5918
  5
131F
331
5919
  5
1342
331
591A
  5
1343
331
591B
  5
1346
331
591C
  5
1347
331
591D
  5
1350
  0
DIMASSOC
  5
4A6E
102
{ACAD_REACTORS
330
4A6D
102
}
330
4A6D
100
AcDbDimAssoc
330
4A6C
 90
        1
 70
     0
 71
     1
  1
AcDbOsnapPointRef
 72
    13
331
4629
 73
     0
 91
        0
 40
0.0
 10
0.0
 20
0.0
 30
0.0
 75
     0
  0
DIMASSOC
  5
52E1
102
{ACAD_REACTORS
330
52E0
102
}
330
52E0
100
AcDbDimAssoc
330
52DF
 90
        1
 70
     0
 71
     1
  1
AcDbOsnapPointRef
 72
     5
331
5258
 73
     0
 91
        0
 40
1.570796326794897
 10
0.0
 20
0.0
 30
0.0
 75
     0
  0
DIMASSOC
  5
52E4
102
{ACAD_REACTORS
330
52E3
102
}
330
52E3
100
AcDbDimAssoc
330
52E2
 90
        1
 70
     0
 71
     1
  1
AcDbOsnapPointRef
 72
     3
331
5258
 73
     0
 91
        0
 40
0.0
 10
0.0
 20
0.0
 30
0.0
 75
     0
  0
DICTIONARY
  5
5C19
102
{ACAD_REACTORS
330
59CC
102
}
330
59CC
100
AcDbDictionary
280
     1
281
     1
  3
TEXT
360
59CE
  0
GROUP
  5
5910
102
{ACAD_REACTORS
330
1A
102
}
330
1A
100
AcDbGroup
300

 70
     1
 71
     1
340
4976
340
4980
340
4983
340
4B95
340
5786
340
578A
340
578B
340
578F
340
5790
340
57AD
340
57AE
340
4B97
340
5787
  0
GROUP
  5
591E
102
{ACAD_REACTORS
330
1A
102
}
330
1A
100
AcDbGroup
300

 70
     1
 71
     1
340
5911
340
5912
340
5913
340
5914
340
5915
340
5916
340
5917
340
5918
340
5919
340
591A
340
591B
340
591C
340
591D
  0
LAYOUT
  5
21
102
{ACAD_REACTORS
330
1E
102
}
330
1E
100
AcDbPlotSettings
  1

  2
none_device
  4
ISO_A3_(420.00_x_297.00_MM)
  6

 40
7.5
 41
20.0
 42
7.5
 43
20.0
 44
420.0
 45
297.0
 46
0.0
 47
0.0
 48
0.0
 49
0.0
140
0.0
141
0.0
142
1.0
143
1.0
 70
     0
 72
     1
 73
     0
 74
     0
  7

 75
     0
 76
     0
 77
     2
 78
   300
147
1.0
148
0.0
149
0.0
100
AcDbLayout
  1
Layout1
 70
     1
 71
     0
 10
-7.5
 20
-20.0
 11
412.5
 21
277.0
 12
0.0
 22
0.0
 32
0.0
 14
0.0
 24
0.0
 34
0.0
 15
0.0
 25
0.0
 35
0.0
146
0.0
 13
0.0
 23
0.0
 33
0.0
 16
0.0
 26
0.0
 36
0.0
 17
0.0
 27
0.0
 37
0.0
 76
     0
330
B
331
349
  0
LAYOUT
  5
20
102
{ACAD_REACTORS
330
1E
102
}
330
1E
100
AcDbPlotSettings
  1

  2
none_device
  4
ISO_A3_(420.00_x_297.00_MM)
  6

 40
7.5
 41
20.0
 42
7.5
 43
20.0
 44
420.0
 45
297.0
 46
0.0
 47
0.0
 48
0.0
 49
0.0
140
0.0
141
0.0
142
1.0
143
1.0
 70
  1024
 72
     1
 73
     0
 74
     0
  7

 75
     0
 76
     0
 77
     2
 78
   300
147
1.0
148
0.0
149
0.0
100
AcDbLayout
  1
Model
 70
     0
 71
     1
 10
0.0
 20
0.0
 11
594.0
 21
419.9999999999996
 12
0.0
 22
0.0
 32
0.0
 14
0.0
 24
0.0
 34
0.0
 15
593.9999999999999
 25
420.0
 35
0.0
146
0.0
 13
0.0
 23
0.0
 33
0.0
 16
0.0
 26
0.0
 36
0.0
 17
0.0
 27
0.0
 37
0.0
 76
     0
330
A
331
15
  0
MATERIAL
  5
54E8
102
{ACAD_REACTORS
330
263
102
}
330
263
100
AcDbMaterial
  1
ByBlock
 72
     1
 94
      127
  0
MATERIAL
  5
264
102
{ACAD_REACTORS
330
263
102
}
330
263
100
AcDbMaterial
  1
ByLayer
 72
     1
 94
      127
  0
MATERIAL
  5
266
102
{ACAD_REACTORS
330
263
102
}
330
263
100
AcDbMaterial
  1
Global
 72
     1
 94
      127
  0
MLEADERSTYLE
  5
5615
102
{ACAD_REACTORS
330
336
102
}
330
336
100
AcDbMLeaderStyle
170
     2
171
     1
172
     0
 90
        2
 40
0.0
 41
0.0
173
     1
 91
-1056964608
340
11
 92
       -2
290
     1
 42
2.0
291
     1
 43
8.0
  3
Standard
341
0
 44
4.0
300

342
17
174
     1
178
     6
175
     1
176
     0
 93
-1056964608
 45
4.0
292
     0
297
     0
 46
4.0
343
0
 94
-1056964608
 47
1.0
 49
1.0
140
1.0
293
     1
141
0.0
294
     1
177
     0
142
1.0
295
     0
296
     0
143
3.75
1001
ACAD_MLEADERVER
1070
     2
  0
MLINESTYLE
  5
1C
102
{ACAD_REACTORS
330
1B
102
}
330
1B
100
AcDbMlineStyle
  2
Standard
 70
     0
  3

 62
     0
 51
90.0
 52
90.0
 71
     2
 49
0.5
 62
   256
  6
BYLAYER
 49
-0.5
 62
   256
  6
BYLAYER
  0
ACDBPLACEHOLDER
  5
1D
102
{ACAD_REACTORS
330
1F
102
}
330
1F
  0
SCALE
  5
242
102
{ACAD_REACTORS
330
241
102
}
330
241
100
AcDbScale
 70
     0
300
1:1
140
1.0
141
1.0
290
     1
  0
SCALE
  5
243
102
{ACAD_REACTORS
330
241
102
}
330
241
100
AcDbScale
 70
     0
300
1:2
140
1.0
141
2.0
290
     0
  0
SCALE
  5
244
102
{ACAD_REACTORS
330
241
102
}
330
241
100
AcDbScale
 70
     0
300
1:4
140
1.0
141
4.0
290
     0
  0
SCALE
  5
245
102
{ACAD_REACTORS
330
241
102
}
330
241
100
AcDbScale
 70
     0
300
1:5
140
1.0
141
5.0
290
     0
  0
SCALE
  5
246
102
{ACAD_REACTORS
330
241
102
}
330
241
100
AcDbScale
 70
     0
300
1:8
140
1.0
141
8.0
290
     0
  0
SCALE
  5
247
102
{ACAD_REACTORS
330
241
102
}
330
241
100
AcDbScale
 70
     0
300
1:10
140
1.0
141
10.0
290
     0
  0
SCALE
  5
248
102
{ACAD_REACTORS
330
241
102
}
330
241
100
AcDbScale
 70
     0
300
1:16
140
1.0
141
16.0
290
     0
  0
SCALE
  5
249
102
{ACAD_REACTORS
330
241
102
}
330
241
100
AcDbScale
 70
     0
300
1:20
140
1.0
141
20.0
290
     0
  0
SCALE
  5
24A
102
{ACAD_REACTORS
330
241
102
}
330
241
100
AcDbScale
 70
     0
300
1:30
140
1.0
141
30.0
290
     0
  0
SCALE
  5
24B
102
{ACAD_REACTORS
330
241
102
}
330
241
100
AcDbScale
 70
     0
300
1:40
140
1.0
141
40.0
290
     0
  0
SCALE
  5
24C
102
{ACAD_REACTORS
330
241
102
}
330
241
100
AcDbScale
 70
     0
300
1:50
140
1.0
141
50.0
290
     0
  0
SCALE
  5
24D
102
{ACAD_REACTORS
330
241
102
}
330
241
100
AcDbScale
 70
     0
300
1:100
140
1.0
141
100.0
290
     0
  0
SCALE
  5
24E
102
{ACAD_REACTORS
330
241
102
}
330
241
100
AcDbScale
 70
     0
300
2:1
140
2.0
141
1.0
290
     0
  0
SCALE
  5
24F
102
{ACAD_REACTORS
330
241
102
}
330
241
100
AcDbScale
 70
     0
300
4:1
140
4.0
141
1.0
290
     0
  0
SCALE
  5
250
102
{ACAD_REACTORS
330
241
102
}
330
241
100
AcDbScale
 70
     0
300
8:1
140
8.0
141
1.0
290
     0
  0
SCALE
  5
251
102
{ACAD_REACTORS
330
241
102
}
330
241
100
AcDbScale
 70
     0
300
10:1
140
10.0
141
1.0
290
     0
  0
SCALE
  5
252
102
{ACAD_REACTORS
330
241
102
}
330
241
100
AcDbScale
 70
     0
300
100:1
140
100.0
141
1.0
290
     0
  0
SCALE
  5
253
102
{ACAD_REACTORS
330
241
102
}
330
241
100
AcDbScale
 70
     0
300
1/128" = 1'-0"
140
0.0078125
141
12.0
290
     0
  0
SCALE
  5
254
102
{ACAD_REACTORS
330
241
102
}
330
241
100
AcDbScale
 70
     0
300
1/64" = 1'-0"
140
0.015625
141
12.0
290
     0
  0
SCALE
  5
255
102
{ACAD_REACTORS
330
241
102
}
330
241
100
AcDbScale
 70
     0
300
1/32" = 1'-0"
140
0.03125
141
12.0
290
     0
  0
SCALE
  5
256
102
{ACAD_REACTORS
330
241
102
}
330
241
100
AcDbScale
 70
     0
300
1/16" = 1'-0"
140
0.0625
141
12.0
290
     0
  0
SCALE
  5
257
102
{ACAD_REACTORS
330
241
102
}
330
241
100
AcDbScale
 70
     0
300
3/32" = 1'-0"
140
0.09375
141
12.0
290
     0
  0
SCALE
  5
258
102
{ACAD_REACTORS
330
241
102
}
330
241
100
AcDbScale
 70
     0
300
1/8" = 1'-0"
140
0.125
141
12.0
290
     0
  0
SCALE
  5
259
102
{ACAD_REACTORS
330
241
102
}
330
241
100
AcDbScale
 70
     0
300
3/16" = 1'-0"
140
0.1875
141
12.0
290
     0
  0
SCALE
  5
25A
102
{ACAD_REACTORS
330
241
102
}
330
241
100
AcDbScale
 70
     0
300
1/4" = 1'-0"
140
0.25
141
12.0
290
     0
  0
SCALE
  5
25B
102
{ACAD_REACTORS
330
241
102
}
330
241
100
AcDbScale
 70
     0
300
3/8" = 1'-0"
140
0.375
141
12.0
290
     0
  0
SCALE
  5
25C
102
{ACAD_REACTORS
330
241
102
}
330
241
100
AcDbScale
 70
     0
300
1/2" = 1'-0"
140
0.5
141
12.0
290
     0
  0
SCALE
  5
25D
102
{ACAD_REACTORS
330
241
102
}
330
241
100
AcDbScale
 70
     0
300
3/4" = 1'-0"
140
0.75
141
12.0
290
     0
  0
SCALE
  5
25E
102
{ACAD_REACTORS
330
241
102
}
330
241
100
AcDbScale
 70
     0
300
1" = 1'-0"
140
1.0
141
12.0
290
     0
  0
SCALE
  5
25F
102
{ACAD_REACTORS
330
241
102
}
330
241
100
AcDbScale
 70
     0
300
1-1/2" = 1'-0"
140
1.5
141
12.0
290
     0
  0
SCALE
  5
260
102
{ACAD_REACTORS
330
241
102
}
330
241
100
AcDbScale
 70
     0
300
3" = 1'-0"
140
3.0
141
12.0
290
     0
  0
SCALE
  5
261
102
{ACAD_REACTORS
330
241
102
}
330
241
100
AcDbScale
 70
     0
300
6" = 1'-0"
140
6.0
141
12.0
290
     0
  0
SCALE
  5
262
102
{ACAD_REACTORS
330
241
102
}
330
241
100
AcDbScale
 70
     0
300
1'-0" = 1'-0"
140
12.0
141
12.0
290
     0
  0
TABLESTYLE
  5
279
102
{ACAD_REACTORS
330
278
102
}
102
{ACAD_XDICTIONARY
360
5C1A
102
}
330
278
100
AcDbTableStyle
  3
Standard
 70
     0
 71
     0
 40
0.06
 41
0.06
280
     0
281
     0
  7
Standard
140
4.5
170
     2
 62
     0
 63
   257
283
     0
 90
        4
 91
        0
  1

274
    -2
284
     1
 64
     0
275
    -2
285
     1
 65
     0
276
    -2
286
     1
 66
     0
277
    -2
287
     1
 67
     0
278
    -2
288
     1
 68
     0
279
    -2
289
     1
 69
     0
  7
Standard
140
6.0
170
     5
 62
     0
 63
   257
283
     0
 90
        4
 91
        0
  1

274
    -2
284
     1
 64
     0
275
    -2
285
     1
 65
     0
276
    -2
286
     1
 66
     0
277
    -2
287
     1
 67
     0
278
    -2
288
     1
 68
     0
279
    -2
289
     1
 69
     0
  7
Standard
140
4.5
170
     5
 62
     0
 63
   257
283
     0
 90
        4
 91
        0
  1

274
    -2
284
     1
 64
     0
275
    -2
285
     1
 65
     0
276
    -2
286
     1
 66
     0
277
    -2
287
     1
 67
     0
278
    -2
288
     1
 68
     0
279
    -2
289
     1
 69
     0
  0
VISUALSTYLE
  5
26C
102
{ACAD_REACTORS
330
267
102
}
330
267
100
AcDbVisualStyle
  2
2dWireframe
 70
     4
 71
     0
 72
     2
 73
     0
 90
        0
 40
-0.6
 41
-30.0
 62
     5
 63
     7
421
 16777215
 74
     1
 91
        4
 64
     7
 65
   257
 75
     1
175
     1
 42
1.0
 92
        0
 66
   257
 43
1.0
 76
     1
 77
     6
 78
     2
 67
     7
 79
     5
170
     0
171
     0
290
     0
174
     0
 93
        1
 44
0.0
173
     0
291
     0
 45
0.0
  0
VISUALSTYLE
  5
26E
102
{ACAD_REACTORS
330
267
102
}
330
267
100
AcDbVisualStyle
  2
3D Hidden
 70
     6
 71
     1
 72
     2
 73
     2
 90
        0
 40
-0.6
 41
-30.0
 62
     5
 63
     7
421
 16777215
 74
     2
 91
        2
 64
     7
 65
   257
 75
     2
175
     1
 42
40.0
 92
        0
 66
   257
 43
1.0
 76
     1
 77
     6
 78
     2
 67
     7
 79
     3
170
     0
171
     0
290
     0
174
     0
 93
        1
 44
0.0
173
     0
291
     0
 45
0.0
  0
VISUALSTYLE
  5
26D
102
{ACAD_REACTORS
330
267
102
}
330
267
100
AcDbVisualStyle
  2
3dWireframe
 70
     5
 71
     0
 72
     2
 73
     0
 90
        0
 40
-0.6
 41
-30.0
 62
     5
 63
     7
421
 16777215
 74
     1
 91
        4
 64
     7
 65
   257
 75
     1
175
     1
 42
1.0
 92
        0
 66
   257
 43
1.0
 76
     1
 77
     6
 78
     2
 67
     7
 79
     5
170
     0
171
     0
290
     0
174
     0
 93
        1
 44
0.0
173
     0
291
     0
 45
0.0
  0
VISUALSTYLE
  5
26F
102
{ACAD_REACTORS
330
267
102
}
330
267
100
AcDbVisualStyle
  2
Basic
 70
     7
 71
     1
 72
     0
 73
     1
 90
        0
 40
-0.6
 41
-30.0
 62
     5
 63
     7
421
 16777215
 74
     0
 91
        4
 64
     7
 65
   257
 75
     1
175
     1
 42
1.0
 92
        8
 66
     7
 43
1.0
 76
     1
 77
     6
 78
     2
 67
     7
 79
     5
170
     0
171
     0
290
     0
174
     0
 93
        1
 44
0.0
173
     0
291
     1
 45
0.0
  0
VISUALSTYLE
  5
273
102
{ACAD_REACTORS
330
267
102
}
330
267
100
AcDbVisualStyle
  2
Brighten
 70
    12
 71
     2
 72
     2
 73
     0
 90
        0
 40
-0.6
 41
-30.0
 62
     5
 63
     7
421
 16777215
 74
     1
 91
        4
 64
     7
 65
   257
 75
     1
175
     1
 42
1.0
 92
        8
 66
     7
 43
1.0
 76
     1
 77
     6
 78
     2
 67
     7
 79
     5
170
     0
171
     0
290
     0
174
     0
 93
        1
 44
50.0
173
     0
291
     1
 45
0.0
  0
VISUALSTYLE
  5
277
102
{ACAD_REACTORS
330
267
102
}
330
267
100
AcDbVisualStyle
  2
ColorChange
 70
    16
 71
     2
 72
     2
 73
     3
 90
        0
 40
-0.6
 41
-30.0
 62
     5
 63
     8
421
  8421504
 74
     1
 91
        4
 64
     7
 65
   257
 75
     1
175
     1
 42
1.0
 92
        8
 66
     8
424
  8421504
 43
1.0
 76
     1
 77
     6
 78
     2
 67
     7
 79
     5
170
     0
171
     0
290
     0
174
     0
 93
        1
 44
0.0
173
     0
291
     1
 45
0.0
  0
VISUALSTYLE
  5
271
102
{ACAD_REACTORS
330
267
102
}
330
267
100
AcDbVisualStyle
  2
Conceptual
 70
     9
 71
     3
 72
     2
 73
     0
 90
        0
 40
-0.6
 41
-30.0
 62
     5
 63
     7
421
 16777215
 74
     2
 91
        2
 64
     7
 65
   257
 75
     1
175
     1
 42
40.0
 92
        8
 66
     7
 43
1.0
 76
     1
 77
     6
 78
     2
 67
     7
 79
     3
170
     0
171
     0
290
     0
174
     0
 93
        1
 44
0.0
173
     0
291
     0
 45
0.0
  0
VISUALSTYLE
  5
272
102
{ACAD_REACTORS
330
267
102
}
330
267
100
AcDbVisualStyle
  2
Dim
 70
    11
 71
     2
 72
     2
 73
     0
 90
        0
 40
-0.6
 41
-30.0
 62
     5
 63
     7
421
 16777215
 74
     1
 91
        4
 64
     7
 65
   257
 75
     1
175
     1
 42
1.0
 92
        8
 66
     7
 43
1.0
 76
     1
 77
     6
 78
     2
 67
     7
 79
     5
170
     0
171
     0
290
     0
174
     0
 93
        1
 44
-50.0
173
     0
291
     1
 45
0.0
  0
VISUALSTYLE
  5
F14
102
{ACAD_REACTORS
330
267
102
}
330
267
100
AcDbVisualStyle
  2
EdgeColorOff
 70
    22
 71
     2
 72
     2
 73
     0
 90
        0
 40
0.6
 41
30.0
 62
     5
 63
     7
421
 16777215
 74
     1
 91
        4
 64
     7
 65
   257
 75
     1
175
     1
 42
1.0
 92
        8
 66
     7
 43
1.0
 76
     1
 77
     6
 78
     2
 67
     7
 79
     5
170
     0
171
     0
290
     0
174
     0
 93
        1
 44
0.0
173
     0
291
     1
 45
0.0
  0
VISUALSTYLE
  5
276
102
{ACAD_REACTORS
330
267
102
}
330
267
100
AcDbVisualStyle
  2
Facepattern
 70
    15
 71
     2
 72
     2
 73
     0
 90
        0
 40
-0.6
 41
-30.0
 62
     5
 63
     7
421
 16777215
 74
     1
 91
        4
 64
     7
 65
   257
 75
     1
175
     1
 42
1.0
 92
        8
 66
     7
 43
1.0
 76
     1
 77
     6
 78
     2
 67
     7
 79
     5
170
     0
171
     0
290
     0
174
     0
 93
        1
 44
0.0
173
     0
291
     1
 45
0.0
  0
VISUALSTYLE
  5
268
102
{ACAD_REACTORS
330
267
102
}
330
267
100
AcDbVisualStyle
  2
Flat
 70
     0
 71
     2
 72
     1
 73
     1
 90
        2
 40
-0.6
 41
30.0
 62
     5
 63
     7
421
 16777215
 74
     0
 91
        4
 64
     7
 65
   257
 75
     1
175
     1
 42
1.0
 92
        8
 66
     7
 43
1.0
 76
     1
 77
     6
 78
     2
 67
     7
 79
     5
170
     0
171
     0
290
     0
174
     0
 93
       13
 44
0.0
173
     0
291
     1
 45
0.0
  0
VISUALSTYLE
  5
269
102
{ACAD_REACTORS
330
267
102
}
330
267
100
AcDbVisualStyle
  2
FlatWithEdges
 70
     1
 71
     2
 72
     1
 73
     1
 90
        2
 40
-0.6
 41
30.0
 62
     5
 63
     7
421
 16777215
 74
     1
 91
        4
 64
     7
 65
   257
 75
     1
175
     1
 42
1.0
 92
        0
 66
   257
 43
1.0
 76
     1
 77
     6
 78
     2
 67
     7
 79
     5
170
     0
171
     0
290
     0
174
     0
 93
       13
 44
0.0
173
     0
291
     1
 45
0.0
  0
VISUALSTYLE
  5
26A
102
{ACAD_REACTORS
330
267
102
}
330
267
100
AcDbVisualStyle
  2
Gouraud
 70
     2
 71
     2
 72
     2
 73
     1
 90
        2
 40
-0.6
 41
30.0
 62
     5
 63
     7
421
 16777215
 74
     0
 91
        4
 64
     7
 65
   257
 75
     1
175
     1
 42
1.0
 92
        0
 66
     7
 43
1.0
 76
     1
 77
     6
 78
     2
 67
     7
 79
     5
170
     0
171
     0
290
     0
174
     0
 93
       13
 44
0.0
173
     0
291
     1
 45
0.0
  0
VISUALSTYLE
  5
26B
102
{ACAD_REACTORS
330
267
102
}
330
267
100
AcDbVisualStyle
  2
GouraudWithEdges
 70
     3
 71
     2
 72
     2
 73
     1
 90
        2
 40
-0.6
 41
30.0
 62
     5
 63
     7
421
 16777215
 74
     1
 91
        4
 64
     7
 65
   257
 75
     1
175
     1
 42
1.0
 92
        0
 66
   257
 43
1.0
 76
     1
 77
     6
 78
     2
 67
     7
 79
     5
170
     0
171
     0
290
     0
174
     0
 93
       13
 44
0.0
173
     0
291
     1
 45
0.0
  0
VISUALSTYLE
  5
F11
102
{ACAD_REACTORS
330
267
102
}
330
267
100
AcDbVisualStyle
  2
Hidden
 70
     6
 71
     1
 72
     2
 73
     2
 90
        0
 40
0.6
 41
30.0
 62
     5
 63
     7
421
 16777215
 74
     2
 91
        2
 64
     7
 65
   257
 75
     2
175
     1
 42
40.0
 92
        0
 66
   257
 43
1.0
 76
     1
 77
     6
 78
     2
 67
     7
 79
     3
170
     0
171
     0
290
     0
174
     0
 93
        1
 44
0.0
173
     0
291
     0
 45
0.0
  0
VISUALSTYLE
  5
F12
102
{ACAD_REACTORS
330
267
102
}
330
267
100
AcDbVisualStyle
  2
JitterOff
 70
    20
 71
     2
 72
     2
 73
     0
 90
        0
 40
0.6
 41
30.0
 62
     5
 63
     7
421
 16777215
 74
     1
 91
        4
 64
     7
 65
   257
 75
     1
175
     1
 42
1.0
 92
       10
 66
     7
 43
1.0
 76
     1
 77
     6
 78
     2
 67
     7
 79
     5
170
     0
171
     0
290
     0
174
     0
 93
        1
 44
0.0
173
     0
291
     1
 45
0.0
  0
VISUALSTYLE
  5
275
102
{ACAD_REACTORS
330
267
102
}
330
267
100
AcDbVisualStyle
  2
Linepattern
 70
    14
 71
     2
 72
     2
 73
     0
 90
        0
 40
-0.6
 41
-30.0
 62
     5
 63
     7
421
 16777215
 74
     1
 91
        4
 64
     7
 65
   257
 75
     7
175
     7
 42
1.0
 92
        8
 66
     7
 43
1.0
 76
     1
 77
     6
 78
     2
 67
     7
 79
     5
170
     0
171
     0
290
     0
174
     0
 93
        1
 44
0.0
173
     0
291
     1
 45
0.0
  0
VISUALSTYLE
  5
F13
102
{ACAD_REACTORS
330
267
102
}
330
267
100
AcDbVisualStyle
  2
OverhangOff
 70
    21
 71
     2
 72
     2
 73
     0
 90
        0
 40
0.6
 41
30.0
 62
     5
 63
     7
421
 16777215
 74
     1
 91
        4
 64
     7
 65
   257
 75
     1
175
     1
 42
1.0
 92
        9
 66
     7
 43
1.0
 76
     1
 77
     6
 78
     2
 67
     7
 79
     5
170
     0
171
     0
290
     0
174
     0
 93
        1
 44
0.0
173
     0
291
     1
 45
0.0
  0
VISUALSTYLE
  5
270
102
{ACAD_REACTORS
330
267
102
}
330
267
100
AcDbVisualStyle
  2
Realistic
 70
     8
 71
     2
 72
     2
 73
     0
 90
        0
 40
-0.6
 41
-30.0
 62
     5
 63
     7
421
 16777215
 74
     1
 91
        0
 64
     7
 65
   257
 75
     1
175
     1
 42
1.0
 92
        8
 66
     8
424
  7895160
 43
1.0
 76
     1
 77
     6
 78
     2
 67
     7
 79
     5
170
     0
171
     0
290
     0
174
     0
 93
       13
 44
0.0
173
     0
291
     0
 45
0.0
  0
VISUALSTYLE
  5
F19
102
{ACAD_REACTORS
330
267
102
}
330
267
100
AcDbVisualStyle
  2
Shaded
 70
    27
 71
     2
 72
     2
 73
     1
 90
        2
 40
0.6
 41
30.0
 62
     5
 63
     7
421
 16777215
 74
     0
 91
        4
 64
     7
 65
   257
 75
     1
175
     1
 42
1.0
 92
        8
 66
   257
 43
1.0
 76
     1
 77
     6
 78
     2
 67
     8
425
  7895160
 79
     3
170
     0
171
     0
290
     0
174
     0
 93
        5
 44
0.0
173
     0
291
     0
 45
0.0
  0
VISUALSTYLE
  5
F18
102
{ACAD_REACTORS
330
267
102
}
330
267
100
AcDbVisualStyle
  2
Shaded with edges
 70
    26
 71
     2
 72
     2
 73
     1
 90
        2
 40
0.6
 41
30.0
 62
     5
 63
     7
421
 16777215
 74
     1
 91
       10
 64
     7
 65
   257
 75
     2
175
     1
 42
1.0
 92
        8
 66
   257
 43
1.0
 76
     1
 77
     6
 78
     2
 67
     7
 79
     3
170
     0
171
     0
290
     0
174
     0
 93
        5
 44
0.0
173
     0
291
     0
 45
0.0
  0
VISUALSTYLE
  5
F15
102
{ACAD_REACTORS
330
267
102
}
330
267
100
AcDbVisualStyle
  2
Shades of Gray
 70
    23
 71
     2
 72
     2
 73
     3
 90
        0
 40
0.6
 41
30.0
 62
     5
 63
     7
421
 16777215
 74
     2
 91
        2
 64
     7
 65
     7
 75
     1
175
     1
 42
40.0
 92
        8
 66
     7
 43
1.0
 76
     1
 77
     6
 78
     2
 67
     7
 79
     3
170
     0
171
     0
290
     0
174
     0
 93
        1
 44
0.0
173
     0
291
     0
 45
0.0
  0
VISUALSTYLE
  5
F16
102
{ACAD_REACTORS
330
267
102
}
330
267
100
AcDbVisualStyle
  2
Sketchy
 70
    24
 71
     1
 72
     2
 73
     2
 90
        0
 40
0.6
 41
30.0
 62
     5
 63
     7
421
 16777215
 74
     2
 91
        2
 64
     7
 65
     7
 75
     1
175
     1
 42
40.0
 92
       11
 66
     7
 43
1.0
 76
     1
 77
     6
 78
     2
 67
     7
 79
     6
170
     0
171
     0
290
     0
174
     0
 93
        1
 44
0.0
173
     0
291
     0
 45
0.0
  0
VISUALSTYLE
  5
274
102
{ACAD_REACTORS
330
267
102
}
330
267
100
AcDbVisualStyle
  2
Thicken
 70
    13
 71
     2
 72
     2
 73
     0
 90
        0
 40
-0.6
 41
-30.0
 62
     5
 63
     7
421
 16777215
 74
     1
 91
        4
 64
     7
 65
   257
 75
     1
175
     1
 42
1.0
 92
       12
 66
     7
 43
1.0
 76
     1
 77
     6
 78
     2
 67
     7
 79
     5
170
     0
171
     0
290
     0
174
     0
 93
        1
 44
0.0
173
     0
291
     1
 45
0.0
  0
VISUALSTYLE
  5
F10
102
{ACAD_REACTORS
330
267
102
}
330
267
100
AcDbVisualStyle
  2
Wireframe
 70
     5
 71
     0
 72
     2
 73
     0
 90
        0
 40
0.6
 41
30.0
 62
     5
 63
     7
421
 16777215
 74
     1
 91
        4
 64
     7
 65
   257
 75
     1
175
     1
 42
1.0
 92
        0
 66
   257
 43
1.0
 76
     1
 77
     6
 78
     2
 67
     7
 79
     3
170
     0
171
     0
290
     0
174
     0
 93
        1
 44
0.0
173
     0
291
     0
 45
0.0
  0
VISUALSTYLE
  5
F17
102
{ACAD_REACTORS
330
267
102
}
330
267
100
AcDbVisualStyle
  2
X-Ray
 70
    25
 71
     2
 72
     2
 73
     1
 90
        1
 40
0.5
 41
30.0
 62
     5
 63
     7
421
 16777215
 74
     1
 91
        0
 64
     7
 65
   257
 75
     1
175
     1
 42
1.0
 92
        8
 66
     7
 43
1.0
 76
     1
 77
     6
 78
     2
 67
     7
 79
     3
170
     0
171
     0
290
     0
174
     0
 93
       13
 44
0.0
173
     0
291
     0
 45
0.0
  0
DICTIONARYVAR
  5
331
102
{ACAD_REACTORS
330
330
102
}
330
330
100
DictionaryVariables
280
     0
  1
1:1
  0
DICTIONARYVAR
  5
563E
102
{ACAD_REACTORS
330
330
102
}
330
330
100
DictionaryVariables
280
     0
  1
Standard
  0
DICTIONARYVAR
  5
335
102
{ACAD_REACTORS
330
330
102
}
330
330
100
DictionaryVariables
280
     0
  1
Standard
  0
DICTIONARYVAR
  5
52F7
102
{ACAD_REACTORS
330
330
102
}
330
330
100
DictionaryVariables
280
     0
  1
ByLayer
  0
DICTIONARYVAR
  5
13B4
102
{ACAD_REACTORS
330
330
102
}
330
330
100
DictionaryVariables
280
     0
  1
0
  0
FIELD
  5
59CE
102
{ACAD_REACTORS
330
5AC1
330
5C19
102
}
330
5C19
100
AcDbField
  1
_text
  2
{%<\_FldIdx 0>%N}
 90
        1
360
59CF
 97
        0
 91
       63
 92
        0
 94
       11
 95
        2
 96
        0
300

 93
        1
  6
ACFD_FIELDTEXT_CHECKSUM
 93
        2
 90
        2
140
4466.0
 94
        0
300

302

304
ACVALUE_END
  7
ACFD_FIELD_VALUE
 93
        6
 90
        4
  1
{20221222N}
 94
        0
300

302

304
ACVALUE_END
301
{20221222N}
 98
       11
  0
DICTIONARY
  5
5C1A
330
279
100
AcDbDictionary
280
     1
281
     1
  3
ACAD_ROUNDTRIP_2008_TABLESTYLE_CELLSTYLEMAP
360
5C1B
  0
FIELD
  5
59CF
330
59CE
100
AcDbField
  1
AcVar
  2
\AcVar Date \f "yyyyMMdd"
 90
        0
 97
        0
 91
       63
 92
        0
 94
       11
 95
       64
 96
        0
300
Variable not supported
 93
        1
  6
Variable
 93
        2
 90
        4
  1
Date
 94
        0
300

302

304
ACVALUE_END
  7
ACFD_FIELD_VALUE
 93
        6
 90
        8
 92
       16
310
E6070C0000001600040020000E000000
 94
        0
300
yyyyMMdd
302

304
ACVALUE_END
301
20221222
 98
        8
  0
CELLSTYLEMAP
  5
5C1B
102
{ACAD_REACTORS
330
5C1A
102
}
330
5C1A
100
AcDbCellStyleMap
 90
        3
300
CELLSTYLE
  1
TABLEFORMAT_BEGIN
 90
        5
170
     1
 91
        0
 92
    32768
 62
   257
 93
        1
300
CONTENTFORMAT
  1
CONTENTFORMAT_BEGIN
 90
        0
 91
        0
 92
        4
 93
        0
300

 40
0.0
140
1.0
 94
        5
 62
     0
340
17
144
6.0
309
CONTENTFORMAT_END
171
     1
301
MARGIN
  1
CELLMARGIN_BEGIN
 40
0.06
 40
0.06
 40
0.06
 40
0.06
 40
0.18
 40
0.18
309
CELLMARGIN_END
 94
        6
 95
        1
302
GRIDFORMAT
  1
GRIDFORMAT_BEGIN
 90
        0
 91
        1
 62
     0
 92
       -2
340
0
 93
        0
 40
0.045
309
GRIDFORMAT_END
 95
        2
302
GRIDFORMAT
  1
GRIDFORMAT_BEGIN
 90
        0
 91
        1
 62
     0
 92
       -2
340
0
 93
        0
 40
0.045
309
GRIDFORMAT_END
 95
        4
302
GRIDFORMAT
  1
GRIDFORMAT_BEGIN
 90
        0
 91
        1
 62
     0
 92
       -2
340
0
 93
        0
 40
0.045
309
GRIDFORMAT_END
 95
        8
302
GRIDFORMAT
  1
GRIDFORMAT_BEGIN
 90
        0
 91
        1
 62
     0
 92
       -2
340
0
 93
        0
 40
0.045
309
GRIDFORMAT_END
 95
       16
302
GRIDFORMAT
  1
GRIDFORMAT_BEGIN
 90
        0
 91
        1
 62
     0
 92
       -2
340
0
 93
        0
 40
0.045
309
GRIDFORMAT_END
 95
       32
302
GRIDFORMAT
  1
GRIDFORMAT_BEGIN
 90
        0
 91
        1
 62
     0
 92
       -2
340
0
 93
        0
 40
0.045
309
GRIDFORMAT_END
309
TABLEFORMAT_END
  1
CELLSTYLE_BEGIN
 90
        1
 91
        1
300
_TITLE
309
CELLSTYLE_END
300
CELLSTYLE
  1
TABLEFORMAT_BEGIN
 90
        5
170
     1
 91
        0
 92
        0
 62
   257
 93
        1
300
CONTENTFORMAT
  1
CONTENTFORMAT_BEGIN
 90
        0
 91
        0
 92
        4
 93
        0
300

 40
0.0
140
1.0
 94
        5
 62
     0
340
17
144
4.5
309
CONTENTFORMAT_END
171
     1
301
MARGIN
  1
CELLMARGIN_BEGIN
 40
0.06
 40
0.06
 40
0.06
 40
0.06
 40
0.18
 40
0.18
309
CELLMARGIN_END
 94
        6
 95
        1
302
GRIDFORMAT
  1
GRIDFORMAT_BEGIN
 90
        0
 91
        1
 62
     0
 92
       -2
340
0
 93
        0
 40
0.045
309
GRIDFORMAT_END
 95
        2
302
GRIDFORMAT
  1
GRIDFORMAT_BEGIN
 90
        0
 91
        1
 62
     0
 92
       -2
340
0
 93
        0
 40
0.045
309
GRIDFORMAT_END
 95
        4
302
GRIDFORMAT
  1
GRIDFORMAT_BEGIN
 90
        0
 91
        1
 62
     0
 92
       -2
340
0
 93
        0
 40
0.045
309
GRIDFORMAT_END
 95
        8
302
GRIDFORMAT
  1
GRIDFORMAT_BEGIN
 90
        0
 91
        1
 62
     0
 92
       -2
340
0
 93
        0
 40
0.045
309
GRIDFORMAT_END
 95
       16
302
GRIDFORMAT
  1
GRIDFORMAT_BEGIN
 90
        0
 91
        1
 62
     0
 92
       -2
340
0
 93
        0
 40
0.045
309
GRIDFORMAT_END
 95
       32
302
GRIDFORMAT
  1
GRIDFORMAT_BEGIN
 90
        0
 91
        1
 62
     0
 92
       -2
340
0
 93
        0
 40
0.045
309
GRIDFORMAT_END
309
TABLEFORMAT_END
  1
CELLSTYLE_BEGIN
 90
        2
 91
        1
300
_HEADER
309
CELLSTYLE_END
300
CELLSTYLE
  1
TABLEFORMAT_BEGIN
 90
        5
170
     1
 91
        0
 92
        0
 62
   257
 93
        1
300
CONTENTFORMAT
  1
CONTENTFORMAT_BEGIN
 90
        0
 91
        0
 92
        4
 93
        0
300

 40
0.0
140
1.0
 94
        2
 62
     0
340
17
144
4.5
309
CONTENTFORMAT_END
171
     1
301
MARGIN
  1
CELLMARGIN_BEGIN
 40
0.06
 40
0.06
 40
0.06
 40
0.06
 40
0.18
 40
0.18
309
CELLMARGIN_END
 94
        6
 95
        1
302
GRIDFORMAT
  1
GRIDFORMAT_BEGIN
 90
        0
 91
        1
 62
     0
 92
       -2
340
0
 93
        0
 40
0.045
309
GRIDFORMAT_END
 95
        2
302
GRIDFORMAT
  1
GRIDFORMAT_BEGIN
 90
        0
 91
        1
 62
     0
 92
       -2
340
0
 93
        0
 40
0.045
309
GRIDFORMAT_END
 95
        4
302
GRIDFORMAT
  1
GRIDFORMAT_BEGIN
 90
        0
 91
        1
 62
     0
 92
       -2
340
0
 93
        0
 40
0.045
309
GRIDFORMAT_END
 95
        8
302
GRIDFORMAT
  1
GRIDFORMAT_BEGIN
 90
        0
 91
        1
 62
     0
 92
       -2
340
0
 93
        0
 40
0.045
309
GRIDFORMAT_END
 95
       16
302
GRIDFORMAT
  1
GRIDFORMAT_BEGIN
 90
        0
 91
        1
 62
     0
 92
       -2
340
0
 93
        0
 40
0.045
309
GRIDFORMAT_END
 95
       32
302
GRIDFORMAT
  1
GRIDFORMAT_BEGIN
 90
        0
 91
        1
 62
     0
 92
       -2
340
0
 93
        0
 40
0.045
309
GRIDFORMAT_END
309
TABLEFORMAT_END
  1
CELLSTYLE_BEGIN
 90
        3
 91
        2
300
_DATA
309
CELLSTYLE_END
  0
ENDSEC
  0
EOF
