  0
SECTION
  2
HEADER
  9
$ACADVER
  1
AC1021
  9
$ACADMAINTVER
 70
    25
  9
$DWGCODEPAGE
  3
ANSI_932
  9
$LASTSAVEDBY
  1
tform
  9
$INSBASE
 10
0.0
 20
0.0
 30
0.0
  9
$EXTMIN
 10
0.0
 20
0.0
 30
0.0
  9
$EXTMAX
 10
593.9999999999999
 20
420.0
 30
0.0
  9
$LIMMIN
 10
0.0
 20
0.0
  9
$LIMMAX
 10
594.0
 20
419.9999999999996
  9
$ORTHOMODE
 70
     1
  9
$REGENMODE
 70
     1
  9
$FILLMODE
 70
     1
  9
$QTEXTMODE
 70
     0
  9
$MIRRTEXT
 70
     1
  9
$LTSCALE
 40
2.0
  9
$ATTMODE
 70
     1
  9
$TEXTSIZE
 40
2.5
  9
$TRACEWID
 40
1.0
  9
$TEXTSTYLE
  7
ＭＳ ゴシック
  9
$CLAYER
  8
寸法
  9
$CELTYPE
  6
Continuous
  9
$CECOLOR
 62
   256
  9
$CELTSCALE
 40
1.0
  9
$DISPSILH
 70
     0
  9
$DIMSCALE
 40
1.0
  9
$DIMASZ
 40
1.5
  9
$DIMEXO
 40
5.0
  9
$DIMDLI
 40
0.9999999999999999
  9
$DIMRND
 40
0.0
  9
$DIMDLE
 40
0.0
  9
$DIMEXE
 40
0.0
  9
$DIMTP
 40
0.0
  9
$DIMTM
 40
0.0
  9
$DIMTXT
 40
5.0
  9
$DIMCEN
 40
0.0
  9
$DIMTSZ
 40
0.0
  9
$DIMTOL
 70
     0
  9
$DIMLIM
 70
     0
  9
$DIMTIH
 70
     0
  9
$DIMTOH
 70
     0
  9
$DIMSE1
 70
     0
  9
$DIMSE2
 70
     0
  9
$DIMTAD
 70
     1
  9
$DIMZIN
 70
    11
  9
$DIMBLK
  1
DOT
  9
$DIMASO
 70
     1
  9
$DIMSHO
 70
     1
  9
$DIMPOST
  1
<>
  9
$DIMAPOST
  1
[]
  9
$DIMALT
 70
     0
  9
$DIMALTD
 70
     1
  9
$DIMALTF
 40
1.0
  9
$DIMLFAC
 40
1.0
  9
$DIMTOFL
 70
     0
  9
$DIMTVP
 40
0.0
  9
$DIMTIX
 70
     1
  9
$DIMSOXD
 70
     0
  9
$DIMSAH
 70
     0
  9
$DIMBLK1
  1

  9
$DIMBLK2
  1

  9
$DIMSTYLE
  2
tfrom線あり
  9
$DIMCLRD
 70
     0
  9
$DIMCLRE
 70
     0
  9
$DIMCLRT
 70
     0
  9
$DIMTFAC
 40
1.0
  9
$DIMGAP
 40
2.0
  9
$DIMJUST
 70
     0
  9
$DIMSD1
 70
     0
  9
$DIMSD2
 70
     0
  9
$DIMTOLJ
 70
     1
  9
$DIMTZIN
 70
    11
  9
$DIMALTZ
 70
    11
  9
$DIMALTTZ
 70
    11
  9
$DIMUPT
 70
     0
  9
$DIMDEC
 70
     0
  9
$DIMTDEC
 70
     1
  9
$DIMALTU
 70
     2
  9
$DIMALTTD
 70
     2
  9
$DIMTXSTY
  7
ＭＳ ゴシック
  9
$DIMAUNIT
 70
     0
  9
$DIMADEC
 70
     2
  9
$DIMALTRND
 40
0.0
  9
$DIMAZIN
 70
     0
  9
$DIMDSEP
 70
    46
  9
$DIMATFIT
 70
     0
  9
$DIMFRAC
 70
     2
  9
$DIMLDRBLK
  1
DOT
  9
$DIMLUNIT
 70
     2
  9
$DIMLWD
 70
    -2
  9
$DIMLWE
 70
    -2
  9
$DIMTMOVE
 70
     0
  9
$DIMFXL
 40
1.0
  9
$DIMFXLON
 70
     0
  9
$DIMJOGANG
 40
0.7853981633974483
  9
$DIMTFILL
 70
     0
  9
$DIMTFILLCLR
 70
     0
  9
$DIMARCSYM
 70
     0
  9
$DIMLTYPE
  6

  9
$DIMLTEX1
  6

  9
$DIMLTEX2
  6

  9
$LUNITS
 70
     2
  9
$LUPREC
 70
     0
  9
$SKETCHINC
 40
0.1
  9
$FILLETRAD
 40
0.0
  9
$AUNITS
 70
     0
  9
$AUPREC
 70
     0
  9
$MENU
  1
acad
  9
$ELEVATION
 40
0.0
  9
$PELEVATION
 40
0.0
  9
$THICKNESS
 40
0.0
  9
$LIMCHECK
 70
     0
  9
$CHAMFERA
 40
0.0
  9
$CHAMFERB
 40
0.0
  9
$CHAMFERC
 40
0.0
  9
$CHAMFERD
 40
0.0
  9
$SKPOLY
 70
     0
  9
$TDCREATE
 40
2447893.375
  9
$TDUCREATE
 40
0.0
  9
$TDUPDATE
 40
2460201.680113299
  9
$TDUUPDATE
 40
2460201.305113299
  9
$TDINDWG
 40
0.0300004167
  9
$TDUSRTIMER
 40
0.0000180671
  9
$USRTIMER
 70
     1
  9
$ANGBASE
 50
0.0
  9
$ANGDIR
 70
     0
  9
$PDMODE
 70
     1
  9
$PDSIZE
 40
-2.0
  9
$PLINEWID
 40
0.0
  9
$SPLFRAME
 70
     0
  9
$SPLINETYPE
 70
     6
  9
$SPLINESEGS
 70
     8
  9
$HANDSEED
  5
7689
  9
$SURFTAB1
 70
     6
  9
$SURFTAB2
 70
     6
  9
$SURFTYPE
 70
     6
  9
$SURFU
 70
     6
  9
$SURFV
 70
     6
  9
$UCSBASE
  2

  9
$UCSNAME
  2

  9
$UCSORG
 10
0.0
 20
0.0
 30
0.0
  9
$UCSXDIR
 10
1.0
 20
0.0
 30
0.0
  9
$UCSYDIR
 10
0.0
 20
1.0
 30
0.0
  9
$UCSORTHOREF
  2

  9
$UCSORTHOVIEW
 70
     0
  9
$UCSORGTOP
 10
0.0
 20
0.0
 30
0.0
  9
$UCSORGBOTTOM
 10
0.0
 20
0.0
 30
0.0
  9
$UCSORGLEFT
 10
0.0
 20
0.0
 30
0.0
  9
$UCSORGRIGHT
 10
0.0
 20
0.0
 30
0.0
  9
$UCSORGFRONT
 10
0.0
 20
0.0
 30
0.0
  9
$UCSORGBACK
 10
0.0
 20
0.0
 30
0.0
  9
$PUCSBASE
  2

  9
$PUCSNAME
  2

  9
$PUCSORG
 10
0.0
 20
0.0
 30
0.0
  9
$PUCSXDIR
 10
1.0
 20
0.0
 30
0.0
  9
$PUCSYDIR
 10
0.0
 20
1.0
 30
0.0
  9
$PUCSORTHOREF
  2

  9
$PUCSORTHOVIEW
 70
     0
  9
$PUCSORGTOP
 10
0.0
 20
0.0
 30
0.0
  9
$PUCSORGBOTTOM
 10
0.0
 20
0.0
 30
0.0
  9
$PUCSORGLEFT
 10
0.0
 20
0.0
 30
0.0
  9
$PUCSORGRIGHT
 10
0.0
 20
0.0
 30
0.0
  9
$PUCSORGFRONT
 10
0.0
 20
0.0
 30
0.0
  9
$PUCSORGBACK
 10
0.0
 20
0.0
 30
0.0
  9
$USERI1
 70
     0
  9
$USERI2
 70
     0
  9
$USERI3
 70
     0
  9
$USERI4
 70
     0
  9
$USERI5
 70
     0
  9
$USERR1
 40
0.0
  9
$USERR2
 40
0.0
  9
$USERR3
 40
0.0
  9
$USERR4
 40
0.0
  9
$USERR5
 40
0.0
  9
$WORLDVIEW
 70
     1
  9
$SHADEDGE
 70
     3
  9
$SHADEDIF
 70
    70
  9
$TILEMODE
 70
     1
  9
$MAXACTVP
 70
    64
  9
$PINSBASE
 10
0.0
 20
0.0
 30
0.0
  9
$PLIMCHECK
 70
     0
  9
$PEXTMIN
 10
0.0
 20
0.0
 30
0.0
  9
$PEXTMAX
 10
0.0
 20
0.0
 30
0.0
  9
$PLIMMIN
 10
-7.5
 20
-20.0
  9
$PLIMMAX
 10
412.5
 20
277.0
  9
$UNITMODE
 70
     0
  9
$VISRETAIN
 70
     0
  9
$PLINEGEN
 70
     1
  9
$PSLTSCALE
 70
     1
  9
$TREEDEPTH
 70
  3020
  9
$CMLSTYLE
  2
Standard
  9
$CMLJUST
 70
     0
  9
$CMLSCALE
 40
1.0
  9
$PROXYGRAPHICS
 70
     0
  9
$MEASUREMENT
 70
     1
  9
$CELWEIGHT
370
    -1
  9
$ENDCAPS
280
     0
  9
$JOINSTYLE
280
     0
  9
$LWDISPLAY
290
     1
  9
$INSUNITS
 70
     4
  9
$HYPERLINKBASE
  1

  9
$STYLESHEET
  1

  9
$XEDIT
290
     1
  9
$CEPSNTYPE
380
     0
  9
$PSTYLEMODE
290
     1
  9
$FINGERPRINTGUID
  2

  9
$VERSIONGUID
  2

  9
$EXTNAMES
290
     1
  9
$PSVPSCALE
 40
0.0
  9
$OLESTARTUP
290
     0
  9
$SORTENTS
280
   127
  9
$INDEXCTL
280
     0
  9
$HIDETEXT
280
     1
  9
$XCLIPFRAME
290
     0
  9
$HALOGAP
280
     0
  9
$OBSCOLOR
 70
   257
  9
$OBSLTYPE
280
     0
  9
$INTERSECTIONDISPLAY
280
     0
  9
$INTERSECTIONCOLOR
 70
   257
  9
$DIMASSOC
280
     2
  9
$PROJECTNAME
  1

  9
$CAMERADISPLAY
290
     0
  9
$LENSLENGTH
 40
50.0
  9
$CAMERAHEIGHT
 40
0.0
  9
$STEPSPERSEC
 40
2.0
  9
$STEPSIZE
 40
6.0
  9
$3DDWFPREC
 40
2.0
  9
$PSOLWIDTH
 40
0.25
  9
$PSOLHEIGHT
 40
4.0
  9
$LOFTANG1
 40
1.570796326794897
  9
$LOFTANG2
 40
1.570796326794897
  9
$LOFTMAG1
 40
0.0
  9
$LOFTMAG2
 40
0.0
  9
$LOFTPARAM
 70
     7
  9
$LOFTNORMALS
280
     1
  9
$LATITUDE
 40
37.795
  9
$LONGITUDE
 40
-122.394
  9
$NORTHDIRECTION
 40
0.0
  9
$TIMEZONE
 70
 -8000
  9
$LIGHTGLYPHDISPLAY
280
     1
  9
$TILEMODELIGHTSYNCH
280
     1
  9
$SOLIDHIST
280
     1
  9
$SHOWHIST
280
     1
  9
$DWFFRAME
280
     2
  9
$DGNFRAME
280
     2
  9
$REALWORLDSCALE
290
     1
  9
$INTERFERECOLOR
 62
   256
  9
$CSHADOW
280
     0
  9
$SHADOWPLANELOCATION
 40
0.0
  0
ENDSEC
  0
SECTION
  2
CLASSES
  0
CLASS
  1
LWPOLYLINE
  2
AcDbPolyline
  3
ObjectDBX Classes
 90
        0
 91
        1
280
     0
281
     1
  0
CLASS
  1
IMAGE
  2
AcDbRasterImage
  3
ISM
 90
      127
 91
        4
280
     0
281
     1
  0
CLASS
  1
OLE2FRAME
  2
AcDbOle2Frame
  3
ObjectDBX Classes
 90
        0
 91
        1
280
     0
281
     1
  0
CLASS
  1
HATCH
  2
AcDbHatch
  3
ObjectDBX Classes
 90
        0
 91
        1
280
     0
281
     1
  0
CLASS
  1
DICTIONARYVAR
  2
AcDbDictionaryVar
  3
ObjectDBX Classes
 90
        0
 91
        3
280
     0
281
     0
  0
CLASS
  1
RASTERVARIABLES
  2
AcDbRasterVariables
  3
ISM
 90
        0
 91
        3
280
     0
281
     0
  0
CLASS
  1
IMAGEDEF
  2
AcDbRasterImageDef
  3
ISM
 90
        0
 91
        3
280
     0
281
     0
  0
CLASS
  1
IMAGEDEF_REACTOR
  2
AcDbRasterImageDefReactor
  3
ISM
 90
        1
 91
        3
280
     0
281
     0
  0
CLASS
  1
IDBUFFER
  2
AcDbIdBuffer
  3
ObjectDBX Classes
 90
        0
 91
        3
280
     0
281
     0
  0
CLASS
  1
SPATIAL_FILTER
  2
AcDbSpatialFilter
  3
ObjectDBX Classes
 90
        0
 91
        3
280
     0
281
     0
  0
CLASS
  1
XRECORD
  2
AcDbXrecord
  3
ObjectDBX Classes
 90
        0
 91
        1
280
     0
281
     0
  0
CLASS
  1
SORTENTSTABLE
  2
AcDbSortentsTable
  3
ObjectDBX Classes
 90
        0
 91
        3
280
     0
281
     0
  0
CLASS
  1
LAYER_INDEX
  2
AcDbLayerIndex
  3
ObjectDBX Classes
 90
        0
 91
        3
280
     0
281
     0
  0
CLASS
  1
SPATIAL_INDEX
  2
AcDbSpatialIndex
  3
AutoCAD 2000
 90
        0
 91
        3
280
     0
281
     0
  0
CLASS
  1
OBJECT_PTR
  2
CAseDLPNTableRecord
  3
ASE-LPNTableRecord
 90
        1
 91
        3
280
     0
281
     0
  0
CLASS
  1
LAYOUT
  2
AcDbLayout
  3
ObjectDBX Classes
 90
        0
 91
        1
280
     0
281
     0
  0
CLASS
  1
PLOTSETTINGS
  2
AcDbPlotSettings
  3
ObjectDBX Classes
 90
        0
 91
        3
280
     0
281
     0
  0
CLASS
  1
ACDBDICTIONARYWDFLT
  2
AcDbDictionaryWithDefault
  3
ObjectDBX Classes
 90
        0
 91
        3
280
     0
281
     0
  0
CLASS
  1
ACDBPLACEHOLDER
  2
AcDbPlaceHolder
  3
ObjectDBX Classes
 90
        0
 91
        1
280
     0
281
     0
  0
CLASS
  1
SCALE
  2
AcDbScale
  3
ObjectDBX Classes
 90
     1153
 91
        3
280
     0
281
     0
  0
CLASS
  1
MATERIAL
  2
AcDbMaterial
  3
ObjectDBX Classes
 90
     1153
 91
        3
280
     0
281
     0
  0
CLASS
  1
VISUALSTYLE
  2
AcDbVisualStyle
  3
ObjectDBX Classes
 90
     4095
 91
        3
280
     0
281
     0
  0
CLASS
  1
TABLESTYLE
  2
AcDbTableStyle
  3
ObjectDBX Classes
 90
     4095
 91
        3
280
     0
281
     0
  0
CLASS
  1
DIMASSOC
  2
AcDbDimAssoc
  3
"AcDbDimAssoc|Product Desc:     AcDim ARX App For Dimension|Company:          Autodesk, Inc.|WEB Address:      www.autodesk.com"
 90
        0
 91
        3
280
     0
281
     0
  0
CLASS
  1
CELLSTYLEMAP
  2
AcDbCellStyleMap
  3
ObjectDBX Classes
 90
     1152
 91
        3
280
     0
281
     0
  0
CLASS
  1
SUN
  2
AcDbSun
  3
SCENEOE
 90
     1153
 91
        3
280
     0
281
     0
  0
CLASS
  1
MLEADERSTYLE
  2
AcDbMLeaderStyle
  3
ACDB_MLEADERSTYLE_CLASS
 90
     4095
 91
        3
280
     0
281
     0
  0
CLASS
  1
FIELD
  2
AcDbField
  3
ObjectDBX Classes
 90
     1152
 91
        3
280
     0
281
     0
  0
CLASS
  1
FIELDLIST
  2
AcDbFieldList
  3
ObjectDBX Classes
 90
     1152
 91
        3
280
     0
281
     0
  0
ENDSEC
  0
SECTION
  2
TABLES
  0
TABLE
  2
VPORT
  5
7
330
0
100
AcDbSymbolTable
 70
     1
  0
VPORT
  5
15
330
7
100
AcDbSymbolTableRecord
100
AcDbViewportTableRecord
  2
*ACTIVE
 70
     0
 10
0.0
 20
0.0
 11
1.0
 21
1.0
 12
168.200088493827
 22
286.8453459753086
 13
0.0
 23
0.0
 14
1.0
 24
1.0
 15
0.0
 25
0.0
 16
0.0
 26
0.0
 36
1.0
 17
0.0
 27
0.0
 37
0.0
 40
140.378112
 41
2.189300411522634
 42
50.0
 43
0.0
 44
0.0
 50
0.0
 51
0.0
 71
    16
 72
  2000
 73
     1
 74
     1
 75
     0
 76
     0
 77
     0
 78
     0
281
     0
 65
     1
110
0.0
120
0.0
130
0.0
111
1.0
121
0.0
131
0.0
112
0.0
122
1.0
132
0.0
 79
     0
146
0.0
348
26C
 60
     3
 61
     5
292
     1
282
     1
141
0.0
142
0.0
 63
   256
361
F1A
  0
ENDTAB
  0
TABLE
  2
LTYPE
  5
4
330
0
100
AcDbSymbolTable
 70
     6
  0
LTYPE
  5
11
330
4
100
AcDbSymbolTableRecord
100
AcDbLinetypeTableRecord
  2
ByBlock
 70
     0
  3

 72
    65
 73
     0
 40
0.0
  0
LTYPE
  5
12
330
4
100
AcDbSymbolTableRecord
100
AcDbLinetypeTableRecord
  2
ByLayer
 70
     0
  3
Solid line
 72
    65
 73
     0
 40
0.0
  0
LTYPE
  5
13
330
4
100
AcDbSymbolTableRecord
100
AcDbLinetypeTableRecord
  2
Continuous
 70
     0
  3
Solid line
 72
    65
 73
     0
 40
0.0
  0
LTYPE
  5
3B
330
4
100
AcDbSymbolTableRecord
100
AcDbLinetypeTableRecord
  2
STYLE_02
 70
     0
  3

 72
    65
 73
     2
 40
0.6944250000000001
 49
0.48607
 74
     0
 49
-0.2083550000000001
 74
     0
  0
LTYPE
  5
90E
330
4
100
AcDbSymbolTableRecord
100
AcDbLinetypeTableRecord
  2
DASHED1
 70
     0
  3
--  --  --  --  --  --  --  --  
 72
    65
 73
     2
 40
2.5
 49
1.25
 74
     0
 49
-1.25
 74
     0
  0
LTYPE
  5
4E6E
330
4
100
AcDbSymbolTableRecord
100
AcDbLinetypeTableRecord
  2
CENTER
 70
     0
  3
----------  --  ----------  --  
 72
    65
 73
     4
 40
20.0
 49
12.5
 74
     0
 49
-2.5
 74
     0
 49
2.5
 74
     0
 49
-2.5
 74
     0
  0
LTYPE
  5
4E6F
330
4
100
AcDbSymbolTableRecord
100
AcDbLinetypeTableRecord
  2
HIDDEN
 70
     0
  3
Hidden _ _ _ _ _ _ _ _ _ _ _ _ _ _ _ _ _ _ _ _ 
 72
    65
 73
     2
 40
9.524999999999999
 49
6.35
 74
     0
 49
-3.175
 74
     0
  0
LTYPE
  5
5708
330
4
100
AcDbSymbolTableRecord
100
AcDbLinetypeTableRecord
  2
HIDDEN2
 70
     0
  3
Hidden (.5x) _ _ _ _ _ _ _ _ _ _ _ _ _ _ _ _ _ 
 72
    65
 73
     2
 40
4.762499999999999
 49
3.175
 74
     0
 49
-1.5875
 74
     0
  0
ENDTAB
  0
TABLE
  2
LAYER
  5
2
102
{ACAD_XDICTIONARY
360
2E1
102
}
330
0
100
AcDbSymbolTable
 70
    15
  0
LAYER
  5
14
330
2
100
AcDbSymbolTableRecord
100
AcDbLayerTableRecord
  2
0
 70
     0
 62
     7
  6
Continuous
370
    -3
390
1D
347
266
  0
LAYER
  5
4A
330
2
100
AcDbSymbolTableRecord
100
AcDbLayerTableRecord
  2
Defpoints
 70
     0
 62
     7
  6
Continuous
290
     0
370
    -3
390
1D
347
266
  0
LAYER
  5
4D
330
2
100
AcDbSymbolTableRecord
100
AcDbLayerTableRecord
  2
MODEL
 70
     0
 62
     7
  6
Continuous
370
    20
390
1D
347
266
  0
LAYER
  5
667
330
2
100
AcDbSymbolTableRecord
100
AcDbLayerTableRecord
  2
レイヤー 1
 70
     0
 62
     7
  6
Continuous
370
    -3
390
1D
347
266
  0
LAYER
  5
4598
330
2
100
AcDbSymbolTableRecord
100
AcDbLayerTableRecord
  2
_0-1_
 70
     0
 62
     7
  6
Continuous
370
    -3
390
1D
347
266
  0
LAYER
  5
4E64
330
2
100
AcDbSymbolTableRecord
100
AcDbLayerTableRecord
  2
寸法
 70
     0
 62
     7
  6
Continuous
370
    13
390
1D
347
266
1001
AcAecLayerStandard
1000

1000

  0
LAYER
  5
4E68
330
2
100
AcDbSymbolTableRecord
100
AcDbLayerTableRecord
  2
テンプレート
 70
     0
 62
     7
  6
Continuous
370
    20
390
1D
347
266
1001
AcAecLayerStandard
1000

1000

  0
LAYER
  5
4E69
330
2
100
AcDbSymbolTableRecord
100
AcDbLayerTableRecord
  2
TFORMLOGO
 70
     0
 62
     7
  6
Continuous
370
    20
390
1D
347
266
  0
LAYER
  5
4E6A
330
2
100
AcDbSymbolTableRecord
100
AcDbLayerTableRecord
  2
PRINT BORDER
 70
     0
 62
     4
  6
Continuous
290
     0
370
    -3
390
1D
347
266
1001
AcAecLayerStandard
1000

1000

  0
LAYER
  5
4E6B
330
2
100
AcDbSymbolTableRecord
100
AcDbLayerTableRecord
  2
SPACER
 70
     0
 62
    -3
  6
Continuous
290
     0
370
    -3
390
1D
347
266
1001
AcAecLayerStandard
1000

1000

  0
LAYER
  5
4E6D
330
2
100
AcDbSymbolTableRecord
100
AcDbLayerTableRecord
  2
CutoutOverlay
 70
     0
 62
     7
  6
Continuous
370
    20
390
1D
347
266
1001
AcAecLayerStandard
1000

1000

  0
LAYER
  5
4FAC
330
2
100
AcDbSymbolTableRecord
100
AcDbLayerTableRecord
  2
CutoutUnderlay
 70
     0
 62
   254
  6
Continuous
370
    20
390
1D
347
266
1001
AcAecLayerStandard
1000

1000

  0
LAYER
  5
59C7
330
2
100
AcDbSymbolTableRecord
100
AcDbLayerTableRecord
  2
HIDDEN
 70
     0
 62
     7
  6
HIDDEN
370
    20
390
1D
347
266
1001
AcAecLayerStandard
1000

1000

  0
LAYER
  5
5B1D
330
2
100
AcDbSymbolTableRecord
100
AcDbLayerTableRecord
  2
DIM
 70
     0
 62
     7
  6
Continuous
370
    13
390
1D
347
266
1001
AcAecLayerStandard
1000

1000

  0
LAYER
  5
5D55
330
2
100
AcDbSymbolTableRecord
100
AcDbLayerTableRecord
  2
モデル
 70
     0
 62
     7
  6
Continuous
370
    20
390
1D
347
266
1001
AcAecLayerStandard
1000

1000

  0
ENDTAB
  0
TABLE
  2
STYLE
  5
3
330
0
100
AcDbSymbolTable
 70
     2
  0
STYLE
  5
17
330
3
100
AcDbSymbolTableRecord
100
AcDbTextStyleTableRecord
  2
Standard
 70
     0
 40
0.0
 41
1.0
 50
0.0
 71
     0
 42
2.5
  3
txt
  4
BIGFONT.SHX
  0
STYLE
  5
39
330
3
100
AcDbSymbolTableRecord
100
AcDbTextStyleTableRecord
  2
ＭＳ ゴシック
 70
     0
 40
0.0
 41
1.0
 50
0.0
 71
     0
 42
2.5
  3
msgothic.ttc
  4
ＭＳ ゴシック
1001
ACAD
1000
ＭＳ ゴシック
1071
        0
  0
ENDTAB
  0
TABLE
  2
VIEW
  5
5
330
0
100
AcDbSymbolTable
 70
     0
  0
ENDTAB
  0
TABLE
  2
UCS
  5
6
330
0
100
AcDbSymbolTable
 70
     0
  0
ENDTAB
  0
TABLE
  2
APPID
  5
8
330
0
100
AcDbSymbolTable
 70
     6
  0
APPID
  5
16
330
8
100
AcDbSymbolTableRecord
100
AcDbRegAppTableRecord
  2
ACAD
 70
     0
  0
APPID
  5
7AC
330
8
100
AcDbSymbolTableRecord
100
AcDbRegAppTableRecord
  2
AcAecLayerStandard
 70
     0
  0
APPID
  5
56DF
330
8
100
AcDbSymbolTableRecord
100
AcDbRegAppTableRecord
  2
ACAD_MLEADERVER
 70
     0
  0
APPID
  5
7638
330
8
100
AcDbSymbolTableRecord
100
AcDbRegAppTableRecord
  2
PLOTTRANSPARENCY
 70
     0
  0
APPID
  5
7639
330
8
100
AcDbSymbolTableRecord
100
AcDbRegAppTableRecord
  2
ACAD_NAV_VCDISPLAY
 70
     0
  0
APPID
  5
763A
330
8
100
AcDbSymbolTableRecord
100
AcDbRegAppTableRecord
  2
ACAD_PSEXT
 70
     0
  0
ENDTAB
  0
TABLE
  2
DIMSTYLE
  5
9
330
0
100
AcDbSymbolTable
 70
     2
100
AcDbDimStyleTable
  0
DIMSTYLE
105
18
330
9
100
AcDbSymbolTableRecord
100
AcDbDimStyleTableRecord
  2
Standard
 70
     0
178
     0
340
17
  0
DIMSTYLE
105
57
102
{ACAD_REACTORS
330
4A99
330
581C
330
5829
330
5838
330
5BED
330
5BF2
330
5BF6
330
5BFA
330
52DF
330
52E2
102
}
330
9
100
AcDbSymbolTableRecord
100
AcDbDimStyleTableRecord
  2
tfrom線あり
 70
     0
  3
<>
  4
[]
 41
1.5
 42
5.0
 43
0.9999999999999999
 44
0.0
 73
     0
 74
     0
 77
     1
 78
    11
140
5.0
141
0.0
143
1.0
147
2.0
171
     1
174
     1
178
     0
179
     2
271
     0
272
     1
276
     2
284
    11
285
    11
286
    11
289
     0
340
39
341
4E
342
4E
  0
ENDTAB
  0
TABLE
  2
BLOCK_RECORD
  5
1
330
0
100
AcDbSymbolTable
 70
    75
  0
BLOCK_RECORD
  5
A
102
{ACAD_XDICTIONARY
360
56F6
102
}
330
1
100
AcDbSymbolTableRecord
100
AcDbBlockTableRecord
  2
*MODEL_SPACE
340
20
 70
     0
280
     1
281
     0
  0
BLOCK_RECORD
  5
B
330
1
100
AcDbSymbolTableRecord
100
AcDbBlockTableRecord
  2
*PAPER_SPACE
340
21
 70
     0
280
     1
281
     0
  0
BLOCK_RECORD
  5
4E
330
1
100
AcDbSymbolTableRecord
100
AcDbBlockTableRecord
  2
_DOT
340
0
102
{BLKREFS
331
4A75
331
4A76
331
4AA2
331
4AA3
331
5349
331
534A
331
5354
331
5355
331
5360
331
5361
331
536C
331
536D
331
5586
331
5587
331
5634
331
5635
331
5655
331
5656
331
5823
331
5824
331
5832
331
5833
331
583F
331
5840
331
584E
331
584F
331
5BB4
331
5BB5
331
5BC4
331
5BC5
331
5BD4
331
5BD5
331
5BE3
331
5BE4
331
5C05
331
5C06
331
5C11
331
5C12
331
5C1D
331
5C1E
331
5C29
331
5C2A
331
5E07
331
5E08
331
5E14
331
5E15
331
5E28
331
5E29
331
5E35
331
5E36
331
5E46
331
5E47
331
5E55
331
5E56
331
65C1
331
65C2
331
65CE
331
65CF
331
6633
331
6634
331
66D6
331
66D7
331
66E3
331
66E4
331
66F2
331
66F3
331
6759
331
675A
331
6766
331
6767
331
6775
331
6776
331
6786
331
6787
331
67AD
331
67AE
331
67BA
331
67BB
331
67C7
331
67C8
331
683D
331
683E
331
7238
331
7239
331
7244
331
7245
331
7250
331
7251
331
725C
331
725D
331
726A
331
726B
331
7276
331
7277
331
7282
331
7283
331
728E
331
728F
331
729A
331
729B
331
72A6
331
72A7
331
72B2
331
72B3
331
72BE
331
72BF
331
72CA
331
72CB
331
72D6
331
72D7
331
72E2
331
72E3
331
72F0
331
72F1
331
72FC
331
72FD
331
7308
331
7309
331
7314
331
7315
331
7320
331
7321
331
7357
331
7358
331
7363
331
7364
331
736F
331
7370
331
737D
331
737E
331
7389
331
738A
331
7395
331
7396
331
73A1
331
73A2
331
73BA
331
73BB
102
}
 70
     0
280
     1
281
     0
  0
BLOCK_RECORD
  5
690
330
1
100
AcDbSymbolTableRecord
100
AcDbBlockTableRecord
  2
block 3
340
0
102
{BLKREFS
331
4EB0
102
}
 70
     0
280
     1
281
     0
  0
BLOCK_RECORD
  5
693
330
1
100
AcDbSymbolTableRecord
100
AcDbBlockTableRecord
  2
block 4
340
0
102
{BLKREFS
331
692
102
}
 70
     0
280
     1
281
     0
  0
BLOCK_RECORD
  5
6A2
330
1
100
AcDbSymbolTableRecord
100
AcDbBlockTableRecord
  2
block 5
340
0
102
{BLKREFS
331
6A1
102
}
 70
     0
280
     1
281
     0
  0
BLOCK_RECORD
  5
4A6F
330
1
100
AcDbSymbolTableRecord
100
AcDbBlockTableRecord
  2
*D4
340
0
 70
     0
280
     1
281
     0
  0
BLOCK_RECORD
  5
4A9C
330
1
100
AcDbSymbolTableRecord
100
AcDbBlockTableRecord
  2
*D5
340
0
 70
     0
280
     1
281
     0
  0
BLOCK_RECORD
  5
4EAB
330
1
100
AcDbSymbolTableRecord
100
AcDbBlockTableRecord
  2
名称未設定-1
340
0
102
{BLKREFS
331
51C7
102
}
 70
     1
280
     1
281
     0
  0
BLOCK_RECORD
  5
4EAE
330
1
100
AcDbSymbolTableRecord
100
AcDbBlockTableRecord
  2
block 2
340
0
102
{BLKREFS
331
4EAD
102
}
 70
     0
280
     1
281
     0
  0
BLOCK_RECORD
  5
5342
330
1
100
AcDbSymbolTableRecord
100
AcDbBlockTableRecord
  2
*D8
340
0
 70
     0
280
     1
281
     0
  0
BLOCK_RECORD
  5
534E
330
1
100
AcDbSymbolTableRecord
100
AcDbBlockTableRecord
  2
*D9
340
0
 70
     0
280
     1
281
     0
  0
BLOCK_RECORD
  5
535A
330
1
100
AcDbSymbolTableRecord
100
AcDbBlockTableRecord
  2
*D10
340
0
 70
     0
280
     1
281
     0
  0
BLOCK_RECORD
  5
5366
330
1
100
AcDbSymbolTableRecord
100
AcDbBlockTableRecord
  2
*D11
340
0
 70
     0
280
     1
281
     0
  0
BLOCK_RECORD
  5
557F
330
1
100
AcDbSymbolTableRecord
100
AcDbBlockTableRecord
  2
*D12
340
0
 70
     0
280
     1
281
     0
  0
BLOCK_RECORD
  5
562E
330
1
100
AcDbSymbolTableRecord
100
AcDbBlockTableRecord
  2
*D13
340
0
 70
     0
280
     1
281
     0
  0
BLOCK_RECORD
  5
564F
330
1
100
AcDbSymbolTableRecord
100
AcDbBlockTableRecord
  2
*D14
340
0
 70
     0
280
     1
281
     0
  0
BLOCK_RECORD
  5
581D
330
1
100
AcDbSymbolTableRecord
100
AcDbBlockTableRecord
  2
*D15
340
0
 70
     0
280
     1
281
     0
  0
BLOCK_RECORD
  5
582C
330
1
100
AcDbSymbolTableRecord
100
AcDbBlockTableRecord
  2
*D16
340
0
 70
     0
280
     1
281
     0
  0
BLOCK_RECORD
  5
5839
330
1
100
AcDbSymbolTableRecord
100
AcDbBlockTableRecord
  2
*D17
340
0
 70
     0
280
     1
281
     0
  0
BLOCK_RECORD
  5
5848
330
1
100
AcDbSymbolTableRecord
100
AcDbBlockTableRecord
  2
*D18
340
0
 70
     0
280
     1
281
     0
  0
BLOCK_RECORD
  5
5BAD
330
1
100
AcDbSymbolTableRecord
100
AcDbBlockTableRecord
  2
*D19
340
0
 70
     0
280
     1
281
     0
  0
BLOCK_RECORD
  5
5BBF
330
1
100
AcDbSymbolTableRecord
100
AcDbBlockTableRecord
  2
*D20
340
0
 70
     0
280
     1
281
     0
  0
BLOCK_RECORD
  5
5BCF
330
1
100
AcDbSymbolTableRecord
100
AcDbBlockTableRecord
  2
*D21
340
0
 70
     0
280
     1
281
     0
  0
BLOCK_RECORD
  5
5BDE
330
1
100
AcDbSymbolTableRecord
100
AcDbBlockTableRecord
  2
*D22
340
0
 70
     0
280
     1
281
     0
  0
BLOCK_RECORD
  5
5BFD
330
1
100
AcDbSymbolTableRecord
100
AcDbBlockTableRecord
  2
*D23
340
0
 70
     0
280
     1
281
     0
  0
BLOCK_RECORD
  5
5C0B
330
1
100
AcDbSymbolTableRecord
100
AcDbBlockTableRecord
  2
*D24
340
0
 70
     0
280
     1
281
     0
  0
BLOCK_RECORD
  5
5C17
330
1
100
AcDbSymbolTableRecord
100
AcDbBlockTableRecord
  2
*D25
340
0
 70
     0
280
     1
281
     0
  0
BLOCK_RECORD
  5
5C23
330
1
100
AcDbSymbolTableRecord
100
AcDbBlockTableRecord
  2
*D26
340
0
 70
     0
280
     1
281
     0
  0
BLOCK_RECORD
  5
5E02
330
1
100
AcDbSymbolTableRecord
100
AcDbBlockTableRecord
  2
*D27
340
0
 70
     0
280
     1
281
     0
  0
BLOCK_RECORD
  5
5E0F
330
1
100
AcDbSymbolTableRecord
100
AcDbBlockTableRecord
  2
*D28
340
0
 70
     0
280
     1
281
     0
  0
BLOCK_RECORD
  5
5E23
330
1
100
AcDbSymbolTableRecord
100
AcDbBlockTableRecord
  2
*D29
340
0
 70
     0
280
     1
281
     0
  0
BLOCK_RECORD
  5
5E30
330
1
100
AcDbSymbolTableRecord
100
AcDbBlockTableRecord
  2
*D30
340
0
 70
     0
280
     1
281
     0
  0
BLOCK_RECORD
  5
5E3F
330
1
100
AcDbSymbolTableRecord
100
AcDbBlockTableRecord
  2
*D31
340
0
 70
     0
280
     1
281
     0
  0
BLOCK_RECORD
  5
5E50
330
1
100
AcDbSymbolTableRecord
100
AcDbBlockTableRecord
  2
*D32
340
0
 70
     0
280
     1
281
     0
  0
BLOCK_RECORD
  5
65BC
330
1
100
AcDbSymbolTableRecord
100
AcDbBlockTableRecord
  2
*D33
340
0
 70
     0
280
     1
281
     0
  0
BLOCK_RECORD
  5
65C9
330
1
100
AcDbSymbolTableRecord
100
AcDbBlockTableRecord
  2
*D34
340
0
 70
     0
280
     1
281
     0
  0
BLOCK_RECORD
  5
662E
330
1
100
AcDbSymbolTableRecord
100
AcDbBlockTableRecord
  2
*D35
340
0
 70
     0
280
     1
281
     0
  0
BLOCK_RECORD
  5
66D1
330
1
100
AcDbSymbolTableRecord
100
AcDbBlockTableRecord
  2
*D36
340
0
 70
     0
280
     1
281
     0
  0
BLOCK_RECORD
  5
66DE
330
1
100
AcDbSymbolTableRecord
100
AcDbBlockTableRecord
  2
*D37
340
0
 70
     0
280
     1
281
     0
  0
BLOCK_RECORD
  5
66ED
330
1
100
AcDbSymbolTableRecord
100
AcDbBlockTableRecord
  2
*D38
340
0
 70
     0
280
     1
281
     0
  0
BLOCK_RECORD
  5
6754
330
1
100
AcDbSymbolTableRecord
100
AcDbBlockTableRecord
  2
*D39
340
0
 70
     0
280
     1
281
     0
  0
BLOCK_RECORD
  5
6761
330
1
100
AcDbSymbolTableRecord
100
AcDbBlockTableRecord
  2
*D40
340
0
 70
     0
280
     1
281
     0
  0
BLOCK_RECORD
  5
6770
330
1
100
AcDbSymbolTableRecord
100
AcDbBlockTableRecord
  2
*D41
340
0
 70
     0
280
     1
281
     0
  0
BLOCK_RECORD
  5
677F
330
1
100
AcDbSymbolTableRecord
100
AcDbBlockTableRecord
  2
*D42
340
0
 70
     0
280
     1
281
     0
  0
BLOCK_RECORD
  5
67A8
330
1
100
AcDbSymbolTableRecord
100
AcDbBlockTableRecord
  2
*D43
340
0
 70
     0
280
     1
281
     0
  0
BLOCK_RECORD
  5
67B5
330
1
100
AcDbSymbolTableRecord
100
AcDbBlockTableRecord
  2
*D44
340
0
 70
     0
280
     1
281
     0
  0
BLOCK_RECORD
  5
67C2
330
1
100
AcDbSymbolTableRecord
100
AcDbBlockTableRecord
  2
*D45
340
0
 70
     0
280
     1
281
     0
  0
BLOCK_RECORD
  5
6838
330
1
100
AcDbSymbolTableRecord
100
AcDbBlockTableRecord
  2
*D46
340
0
 70
     0
280
     1
281
     0
  0
BLOCK_RECORD
  5
7232
330
1
100
AcDbSymbolTableRecord
100
AcDbBlockTableRecord
  2
*D47
340
0
 70
     0
280
     1
281
     0
  0
BLOCK_RECORD
  5
723E
330
1
100
AcDbSymbolTableRecord
100
AcDbBlockTableRecord
  2
*D48
340
0
 70
     0
280
     1
281
     0
  0
BLOCK_RECORD
  5
724A
330
1
100
AcDbSymbolTableRecord
100
AcDbBlockTableRecord
  2
*D49
340
0
 70
     0
280
     1
281
     0
  0
BLOCK_RECORD
  5
7256
330
1
100
AcDbSymbolTableRecord
100
AcDbBlockTableRecord
  2
*D50
340
0
 70
     0
280
     1
281
     0
  0
BLOCK_RECORD
  5
7262
330
1
100
AcDbSymbolTableRecord
100
AcDbBlockTableRecord
  2
*D51
340
0
 70
     0
280
     1
281
     0
  0
BLOCK_RECORD
  5
7270
330
1
100
AcDbSymbolTableRecord
100
AcDbBlockTableRecord
  2
*D52
340
0
 70
     0
280
     1
281
     0
  0
BLOCK_RECORD
  5
727C
330
1
100
AcDbSymbolTableRecord
100
AcDbBlockTableRecord
  2
*D53
340
0
 70
     0
280
     1
281
     0
  0
BLOCK_RECORD
  5
7288
330
1
100
AcDbSymbolTableRecord
100
AcDbBlockTableRecord
  2
*D54
340
0
 70
     0
280
     1
281
     0
  0
BLOCK_RECORD
  5
7294
330
1
100
AcDbSymbolTableRecord
100
AcDbBlockTableRecord
  2
*D55
340
0
 70
     0
280
     1
281
     0
  0
BLOCK_RECORD
  5
72A0
330
1
100
AcDbSymbolTableRecord
100
AcDbBlockTableRecord
  2
*D56
340
0
 70
     0
280
     1
281
     0
  0
BLOCK_RECORD
  5
72AC
330
1
100
AcDbSymbolTableRecord
100
AcDbBlockTableRecord
  2
*D57
340
0
 70
     0
280
     1
281
     0
  0
BLOCK_RECORD
  5
72B8
330
1
100
AcDbSymbolTableRecord
100
AcDbBlockTableRecord
  2
*D58
340
0
 70
     0
280
     1
281
     0
  0
BLOCK_RECORD
  5
72C4
330
1
100
AcDbSymbolTableRecord
100
AcDbBlockTableRecord
  2
*D59
340
0
 70
     0
280
     1
281
     0
  0
BLOCK_RECORD
  5
72D0
330
1
100
AcDbSymbolTableRecord
100
AcDbBlockTableRecord
  2
*D60
340
0
 70
     0
280
     1
281
     0
  0
BLOCK_RECORD
  5
72DC
330
1
100
AcDbSymbolTableRecord
100
AcDbBlockTableRecord
  2
*D61
340
0
 70
     0
280
     1
281
     0
  0
BLOCK_RECORD
  5
72E8
330
1
100
AcDbSymbolTableRecord
100
AcDbBlockTableRecord
  2
*D62
340
0
 70
     0
280
     1
281
     0
  0
BLOCK_RECORD
  5
72F6
330
1
100
AcDbSymbolTableRecord
100
AcDbBlockTableRecord
  2
*D63
340
0
 70
     0
280
     1
281
     0
  0
BLOCK_RECORD
  5
7302
330
1
100
AcDbSymbolTableRecord
100
AcDbBlockTableRecord
  2
*D64
340
0
 70
     0
280
     1
281
     0
  0
BLOCK_RECORD
  5
730E
330
1
100
AcDbSymbolTableRecord
100
AcDbBlockTableRecord
  2
*D65
340
0
 70
     0
280
     1
281
     0
  0
BLOCK_RECORD
  5
731A
330
1
100
AcDbSymbolTableRecord
100
AcDbBlockTableRecord
  2
*D66
340
0
 70
     0
280
     1
281
     0
  0
BLOCK_RECORD
  5
7351
330
1
100
AcDbSymbolTableRecord
100
AcDbBlockTableRecord
  2
*D67
340
0
 70
     0
280
     1
281
     0
  0
BLOCK_RECORD
  5
735D
330
1
100
AcDbSymbolTableRecord
100
AcDbBlockTableRecord
  2
*D68
340
0
 70
     0
280
     1
281
     0
  0
BLOCK_RECORD
  5
7369
330
1
100
AcDbSymbolTableRecord
100
AcDbBlockTableRecord
  2
*D69
340
0
 70
     0
280
     1
281
     0
  0
BLOCK_RECORD
  5
7375
330
1
100
AcDbSymbolTableRecord
100
AcDbBlockTableRecord
  2
*D70
340
0
 70
     0
280
     1
281
     0
  0
BLOCK_RECORD
  5
7383
330
1
100
AcDbSymbolTableRecord
100
AcDbBlockTableRecord
  2
*D71
340
0
 70
     0
280
     1
281
     0
  0
BLOCK_RECORD
  5
738F
330
1
100
AcDbSymbolTableRecord
100
AcDbBlockTableRecord
  2
*D72
340
0
 70
     0
280
     1
281
     0
  0
BLOCK_RECORD
  5
739B
330
1
100
AcDbSymbolTableRecord
100
AcDbBlockTableRecord
  2
*D73
340
0
 70
     0
280
     1
281
     0
  0
BLOCK_RECORD
  5
73B4
330
1
100
AcDbSymbolTableRecord
100
AcDbBlockTableRecord
  2
*D74
340
0
 70
     0
280
     1
281
     0
  0
ENDTAB
  0
ENDSEC
  0
SECTION
  2
BLOCKS
  0
BLOCK
  5
D
330
A
100
AcDbEntity
  8
0
390
1D
100
AcDbBlockBegin
  2
*MODEL_SPACE
 70
     0
 10
0.0
 20
0.0
 30
0.0
  3
*MODEL_SPACE
  1
*MODEL_SPACE
  0
ENDBLK
  5
E
330
A
100
AcDbEntity
  8
0
390
1D
100
AcDbBlockEnd
  0
BLOCK
  5
F
330
B
100
AcDbEntity
 67
     1
  8
0
390
1D
100
AcDbBlockBegin
  2
*PAPER_SPACE
 70
     0
 10
0.0
 20
0.0
 30
0.0
  3
*PAPER_SPACE
  1
*PAPER_SPACE
  0
ENDBLK
  5
10
330
B
100
AcDbEntity
 67
     1
  8
0
390
1D
100
AcDbBlockEnd
  0
BLOCK
  5
52EF
330
4E
100
AcDbEntity
  8
0
390
1D
100
AcDbBlockBegin
  2
_DOT
 70
     0
 10
0.0
 20
0.0
 30
0.0
  3
_DOT
  1
_DOT
  0
POLYLINE
  5
52F1
330
4E
100
AcDbEntity
  8
0
  6
ByBlock
 62
     0
370
    -2
390
1D
100
AcDb2dPolyline
 66
     1
 10
0.0
 20
0.0
 30
0.0
 70
     1
 40
0.5
 41
0.5
  0
VERTEX
  5
52F2
330
52F1
100
AcDbEntity
  8
0
  6
ByBlock
 62
     0
370
    -2
390
1D
100
AcDbVertex
100
AcDb2dVertex
 10
-0.25
 20
0.0
 30
0.0
 42
1.0
  0
VERTEX
  5
52F3
330
52F1
100
AcDbEntity
  8
0
  6
ByBlock
 62
     0
370
    -2
390
1D
100
AcDbVertex
100
AcDb2dVertex
 10
0.25
 20
0.0
 30
0.0
 42
1.0
  0
SEQEND
  5
52F4
330
52F1
100
AcDbEntity
  8
0
390
1D
  0
LINE
  5
52F5
330
4E
100
AcDbEntity
  8
0
  6
ByBlock
 62
     0
370
    -2
390
1D
100
AcDbLine
 10
-0.5
 20
0.0
 30
0.0
 11
-1.0
 21
0.0
 31
0.0
  0
ENDBLK
  5
52F6
330
4E
100
AcDbEntity
  8
0
390
1D
100
AcDbBlockEnd
  0
BLOCK
  5
691
330
690
100
AcDbEntity
  8
0
100
AcDbBlockBegin
  2
block 3
 70
     0
 10
0.0
 20
0.0
 30
0.0
  3
block 3
  1
block 3
  0
INSERT
  5
692
330
690
100
AcDbEntity
  8
レイヤー 1
100
AcDbBlockReference
  2
block 4
 10
0.0
 20
0.0
 30
0.0
  0
ENDBLK
  5
6AF
330
690
100
AcDbEntity
  8
0
100
AcDbBlockEnd
  0
BLOCK
  5
694
330
693
100
AcDbEntity
  8
0
100
AcDbBlockBegin
  2
block 4
 70
     0
 10
0.0
 20
0.0
 30
0.0
  3
block 4
  1
block 4
  0
POLYLINE
  5
695
330
693
100
AcDbEntity
  8
レイヤー 1
370
     0
100
AcDb2dPolyline
 66
     1
 10
0.0
 20
0.0
 30
0.0
  0
VERTEX
  5
696
330
695
100
AcDbEntity
  8
レイヤー 1
370
     0
100
AcDbVertex
100
AcDb2dVertex
 10
83.79545727667795
 20
167.6444858234922
 30
0.0
  0
VERTEX
  5
697
330
695
100
AcDbEntity
  8
レイヤー 1
370
     0
100
AcDbVertex
100
AcDb2dVertex
 10
83.79545727667795
 20
159.7968976406313
 30
0.0
  0
VERTEX
  5
698
330
695
100
AcDbEntity
  8
レイヤー 1
370
     0
100
AcDbVertex
100
AcDb2dVertex
 10
71.3631329975216
 20
159.7968976406313
 30
0.0
  0
VERTEX
  5
699
330
695
100
AcDbEntity
  8
レイヤー 1
370
     0
100
AcDbVertex
100
AcDb2dVertex
 10
71.3631329975216
 20
127.8027915271048
 30
0.0
  0
VERTEX
  5
69A
330
695
100
AcDbEntity
  8
レイヤー 1
370
     0
100
AcDbVertex
100
AcDb2dVertex
 10
60.43011526263018
 20
127.8027915271048
 30
0.0
  0
VERTEX
  5
69B
330
695
100
AcDbEntity
  8
レイヤー 1
370
     0
100
AcDbVertex
100
AcDb2dVertex
 10
60.43011526263018
 20
159.7968976406313
 30
0.0
  0
VERTEX
  5
69C
330
695
100
AcDbEntity
  8
レイヤー 1
370
     0
100
AcDbVertex
100
AcDb2dVertex
 10
48.21793273020759
 20
159.7968976406313
 30
0.0
  0
VERTEX
  5
69D
330
695
100
AcDbEntity
  8
レイヤー 1
370
     0
100
AcDbVertex
100
AcDb2dVertex
 10
48.21793273020759
 20
167.6444858234922
 30
0.0
  0
VERTEX
  5
69E
330
695
100
AcDbEntity
  8
レイヤー 1
370
     0
100
AcDbVertex
100
AcDb2dVertex
 10
83.79545727667795
 20
167.6444858234922
 30
0.0
  0
SEQEND
  5
69F
330
695
100
AcDbEntity
  8
レイヤー 1
370
     0
  0
HATCH
  5
6A0
330
693
100
AcDbEntity
  8
レイヤー 1
 62
   250
420
  2234388
100
AcDbHatch
 10
0.0
 20
0.0
 30
0.0
210
0.0
220
0.0
230
1.0
  2
SOLID
 70
     1
 71
     0
 91
        1
 92
        1
 93
        8
 72
     1
 10
83.79545727667795
 20
167.6444858234922
 11
83.79545727667795
 21
159.7968976406313
 72
     1
 10
83.79545727667795
 20
159.7968976406313
 11
71.3631329975216
 21
159.7968976406313
 72
     1
 10
71.3631329975216
 20
159.7968976406313
 11
71.3631329975216
 21
127.8027915271048
 72
     1
 10
71.3631329975216
 20
127.8027915271048
 11
60.43011526263018
 21
127.8027915271048
 72
     1
 10
60.43011526263018
 20
127.8027915271048
 11
60.43011526263018
 21
159.7968976406313
 72
     1
 10
60.43011526263018
 20
159.7968976406313
 11
48.21793273020759
 21
159.7968976406313
 72
     1
 10
48.21793273020759
 20
159.7968976406313
 11
48.21793273020759
 21
167.6444858234922
 72
     1
 10
48.21793273020759
 20
167.6444858234922
 11
83.79545727667795
 21
167.6444858234922
 97
        0
 75
     2
 76
     1
 98
        0
  0
INSERT
  5
6A1
330
693
100
AcDbEntity
  8
レイヤー 1
100
AcDbBlockReference
  2
block 5
 10
0.0
 20
0.0
 30
0.0
  0
ENDBLK
  5
6AE
330
693
100
AcDbEntity
  8
0
100
AcDbBlockEnd
  0
BLOCK
  5
6A3
330
6A2
100
AcDbEntity
  8
0
100
AcDbBlockBegin
  2
block 5
 70
     0
 10
0.0
 20
0.0
 30
0.0
  3
block 5
  1
block 5
  0
SPLINE
  5
6A4
330
6A2
100
AcDbEntity
  8
レイヤー 1
370
     0
100
AcDbSpline
210
0.0
220
0.0
230
1.0
 70
    11
 71
     3
 72
    56
 73
    52
 74
     0
 42
0.000000001
 43
0.0000000001
 40
0.0
 40
0.0
 40
0.0
 40
0.0
 40
1.0
 40
1.0
 40
1.0
 40
2.0
 40
2.0
 40
2.0
 40
3.0
 40
3.0
 40
3.0
 40
4.0
 40
4.0
 40
4.0
 40
5.0
 40
5.0
 40
5.0
 40
6.0
 40
6.0
 40
6.0
 40
7.0
 40
7.0
 40
7.0
 40
8.0
 40
8.0
 40
8.0
 40
9.0
 40
9.0
 40
9.0
 40
10.0
 40
10.0
 40
10.0
 40
11.0
 40
11.0
 40
11.0
 40
12.0
 40
12.0
 40
12.0
 40
13.0
 40
13.0
 40
13.0
 40
14.0
 40
14.0
 40
14.0
 40
15.0
 40
15.0
 40
15.0
 40
16.0
 40
16.0
 40
16.0
 40
17.0
 40
17.0
 40
17.0
 40
17.0
 10
100.4504378777679
 20
166.69157178364
 30
0.0
 10
101.9848844191641
 20
167.1313385124438
 30
0.0
 10
103.9637485713373
 20
166.7649523658846
 30
0.0
 10
103.9637485713373
 20
166.7649523658846
 30
0.0
 10
103.9637485713373
 20
166.7649523658846
 30
0.0
 10
103.0132460999156
 20
163.911205638077
 30
0.0
 10
103.0132460999156
 20
163.911205638077
 30
0.0
 10
103.0132460999156
 20
163.911205638077
 30
0.0
 10
101.0674548862189
 20
164.3601018759394
 30
0.0
 10
99.57090442016032
 20
163.1805004036133
 30
0.0
 10
98.40508333886608
 20
162.258247733807
 30
0.0
 10
97.65301849830304
 20
159.804132345923
 30
0.0
 10
97.3598406791005
 20
158.8699940888517
 30
0.0
 10
97.3598406791005
 20
158.8699940888517
 30
0.0
 10
96.07137411762282
 20
154.9119212747295
 30
0.0
 10
96.07137411762282
 20
154.9119212747295
 30
0.0
 10
96.07137411762282
 20
154.9119212747295
 30
0.0
 10
100.3012651448482
 20
154.9119212747295
 30
0.0
 10
100.3012651448482
 20
154.9119212747295
 30
0.0
 10
100.3012651448482
 20
154.9119212747295
 30
0.0
 10
99.64152892419852
 20
152.4199098115079
 30
0.0
 10
99.64152892419852
 20
152.4199098115079
 30
0.0
 10
99.64152892419852
 20
152.4199098115079
 30
0.0
 10
95.38097652692731
 20
152.4199098115079
 30
0.0
 10
95.38097652692731
 20
152.4199098115079
 30
0.0
 10
95.38097652692731
 20
152.4199098115079
 30
0.0
 10
87.75353009080013
 20
127.8027915271048
 30
0.0
 10
87.75353009080013
 20
127.8027915271048
 30
0.0
 10
87.75353009080013
 20
127.8027915271048
 30
0.0
 10
85.36538832498108
 20
127.8027915271048
 30
0.0
 10
85.36538832498108
 20
127.8027915271048
 30
0.0
 10
85.36538832498108
 20
127.8027915271048
 30
0.0
 10
93.00006946639998
 20
152.4199098115079
 30
0.0
 10
93.00006946639998
 20
152.4199098115079
 30
0.0
 10
93.00006946639998
 20
152.4199098115079
 30
0.0
 10
89.85297266450198
 20
152.4199098115079
 30
0.0
 10
89.85297266450198
 20
152.4199098115079
 30
0.0
 10
89.85297266450198
 20
152.4199098115079
 30
0.0
 10
90.51270888515164
 20
154.9119212747295
 30
0.0
 10
90.51270888515164
 20
154.9119212747295
 30
0.0
 10
90.51270888515164
 20
154.9119212747295
 30
0.0
 10
93.6904670570955
 20
154.9119212747295
 30
0.0
 10
93.6904670570955
 20
154.9119212747295
 30
0.0
 10
93.6904670570955
 20
154.9119212747295
 30
0.0
 10
94.81598049462158
 20
158.3616699146644
 30
0.0
 10
94.81598049462158
 20
158.3616699146644
 30
0.0
 10
95.7237637538445
 20
161.2605474231013
 30
0.0
 10
96.4968436907311
 20
162.8139420021662
 30
0.0
 10
97.15657991138076
 20
163.9844139654337
 30
0.0
 10
97.81183750494507
 20
165.1523021053827
 30
0.0
 10
99.1047826935081
 20
166.3084769129547
 30
0.0
 10
100.4504378777679
 20
166.69157178364
 30
0.0
  0
HATCH
  5
6A5
330
6A2
100
AcDbEntity
  8
レイヤー 1
 62
   250
420
  2234388
100
AcDbHatch
 10
0.0
 20
0.0
 30
0.0
210
0.0
220
0.0
230
1.0
  2
SOLID
 70
     1
 71
     0
 91
        1
 92
        1
 93
        1
 72
     4
 94
        3
 73
     0
 74
     1
 95
       56
 96
       52
 40
0.0
 40
0.0
 40
0.0
 40
0.0
 40
1.0
 40
1.0
 40
1.0
 40
2.0
 40
2.0
 40
2.0
 40
3.0
 40
3.0
 40
3.0
 40
4.0
 40
4.0
 40
4.0
 40
5.0
 40
5.0
 40
5.0
 40
6.0
 40
6.0
 40
6.0
 40
7.0
 40
7.0
 40
7.0
 40
8.0
 40
8.0
 40
8.0
 40
9.0
 40
9.0
 40
9.0
 40
10.0
 40
10.0
 40
10.0
 40
11.0
 40
11.0
 40
11.0
 40
12.0
 40
12.0
 40
12.0
 40
13.0
 40
13.0
 40
13.0
 40
14.0
 40
14.0
 40
14.0
 40
15.0
 40
15.0
 40
15.0
 40
16.0
 40
16.0
 40
16.0
 40
17.0
 40
17.0
 40
17.0
 40
17.0
 10
100.4504378777679
 20
166.69157178364
 10
101.9848844191641
 20
167.1313385124438
 10
103.9637485713373
 20
166.7649523658846
 10
103.9637485713373
 20
166.7649523658846
 10
103.9637485713373
 20
166.7649523658846
 10
103.0132460999156
 20
163.911205638077
 10
103.0132460999156
 20
163.911205638077
 10
103.0132460999156
 20
163.911205638077
 10
101.0674548862189
 20
164.3601018759394
 10
99.57090442016032
 20
163.1805004036133
 10
98.40508333886608
 20
162.258247733807
 10
97.65301849830304
 20
159.804132345923
 10
97.3598406791005
 20
158.8699940888517
 10
97.3598406791005
 20
158.8699940888517
 10
96.07137411762282
 20
154.9119212747295
 10
96.07137411762282
 20
154.9119212747295
 10
96.07137411762282
 20
154.9119212747295
 10
100.3012651448482
 20
154.9119212747295
 10
100.3012651448482
 20
154.9119212747295
 10
100.3012651448482
 20
154.9119212747295
 10
99.64152892419852
 20
152.4199098115079
 10
99.64152892419852
 20
152.4199098115079
 10
99.64152892419852
 20
152.4199098115079
 10
95.38097652692731
 20
152.4199098115079
 10
95.38097652692731
 20
152.4199098115079
 10
95.38097652692731
 20
152.4199098115079
 10
87.75353009080013
 20
127.8027915271048
 10
87.75353009080013
 20
127.8027915271048
 10
87.75353009080013
 20
127.8027915271048
 10
85.36538832498108
 20
127.8027915271048
 10
85.36538832498108
 20
127.8027915271048
 10
85.36538832498108
 20
127.8027915271048
 10
93.00006946639998
 20
152.4199098115079
 10
93.00006946639998
 20
152.4199098115079
 10
93.00006946639998
 20
152.4199098115079
 10
89.85297266450198
 20
152.4199098115079
 10
89.85297266450198
 20
152.4199098115079
 10
89.85297266450198
 20
152.4199098115079
 10
90.51270888515164
 20
154.9119212747295
 10
90.51270888515164
 20
154.9119212747295
 10
90.51270888515164
 20
154.9119212747295
 10
93.6904670570955
 20
154.9119212747295
 10
93.6904670570955
 20
154.9119212747295
 10
93.6904670570955
 20
154.9119212747295
 10
94.81598049462158
 20
158.3616699146644
 10
94.81598049462158
 20
158.3616699146644
 10
95.7237637538445
 20
161.2605474231013
 10
96.4968436907311
 20
162.8139420021662
 10
97.15657991138076
 20
163.9844139654337
 10
97.81183750494507
 20
165.1523021053827
 10
99.1047826935081
 20
166.3084769129547
 10
100.4504378777679
 20
166.69157178364
 97
        0
 75
     2
 76
     1
 98
        0
  0
SPLINE
  5
6A6
330
6A2
100
AcDbEntity
  8
レイヤー 1
370
     0
100
AcDbSpline
210
0.0
220
0.0
230
1.0
 70
    11
 71
     3
 72
    38
 73
    34
 74
     0
 42
0.000000001
 43
0.0000000001
 40
0.0
 40
0.0
 40
0.0
 40
0.0
 40
1.0
 40
1.0
 40
1.0
 40
2.0
 40
2.0
 40
2.0
 40
3.0
 40
3.0
 40
3.0
 40
4.0
 40
4.0
 40
4.0
 40
5.0
 40
5.0
 40
5.0
 40
6.0
 40
6.0
 40
6.0
 40
7.0
 40
7.0
 40
7.0
 40
8.0
 40
8.0
 40
8.0
 40
9.0
 40
9.0
 40
9.0
 40
10.0
 40
10.0
 40
10.0
 40
11.0
 40
11.0
 40
11.0
 40
11.0
 10
126.377554584636
 20
154.8151140277308
 30
0.0
 10
126.377554584636
 20
154.8151140277308
 30
0.0
 10
128.8311532078563
 20
154.8151140277308
 30
0.0
 10
128.8311532078563
 20
154.8151140277308
 30
0.0
 10
128.8311532078563
 20
154.8151140277308
 30
0.0
 10
127.7345785914971
 20
151.3062819612468
 30
0.0
 10
127.7345785914971
 20
151.3062819612468
 30
0.0
 10
128.571392836906
 20
152.2922689395754
 30
0.0
 10
129.8860421413442
 20
153.604506675583
 30
0.0
 10
131.0163787157314
 20
154.2664822097754
 30
0.0
 10
132.7044766171327
 20
155.2500576196734
 30
0.0
 10
133.6642808525008
 20
155.3847609420097
 30
0.0
 10
134.7284715499351
 20
155.3565111403944
 30
0.0
 10
134.7284715499351
 20
155.3565111403944
 30
0.0
 10
133.6877075172549
 20
152.0345756272799
 30
0.0
 10
133.6877075172549
 20
152.0345756272799
 30
0.0
 10
133.011434827367
 20
152.3184516825359
 30
0.0
 10
130.930940291334
 20
151.7768823149844
 30
0.0
 10
129.739280976855
 20
150.9162968950455
 30
0.0
 10
128.66613302525
 20
150.1454562717016
 30
0.0
 10
127.9192358313239
 20
149.4857200510519
 30
0.0
 10
127.0393578639405
 20
147.8282835196966
 30
0.0
 10
126.164647543194
 20
146.1699857139017
 30
0.0
 10
125.4742499524985
 20
143.5262176944419
 30
0.0
 10
124.2822461282437
 20
139.6959580071401
 30
0.0
 10
124.2822461282437
 20
139.6959580071401
 30
0.0
 10
120.5753209406769
 20
127.8027915271048
 30
0.0
 10
120.5753209406769
 20
127.8027915271048
 30
0.0
 10
120.5753209406769
 20
127.8027915271048
 30
0.0
 10
118.1964809388044
 20
127.8027915271048
 30
0.0
 10
118.1964809388044
 20
127.8027915271048
 30
0.0
 10
118.1964809388044
 20
127.8027915271048
 30
0.0
 10
126.377554584636
 20
154.8151140277308
 30
0.0
 10
126.377554584636
 20
154.8151140277308
 30
0.0
  0
HATCH
  5
6A7
330
6A2
100
AcDbEntity
  8
レイヤー 1
 62
   250
420
  2234388
100
AcDbHatch
 10
0.0
 20
0.0
 30
0.0
210
0.0
220
0.0
230
1.0
  2
SOLID
 70
     1
 71
     0
 91
        1
 92
        1
 93
        1
 72
     4
 94
        3
 73
     0
 74
     1
 95
       38
 96
       34
 40
0.0
 40
0.0
 40
0.0
 40
0.0
 40
1.0
 40
1.0
 40
1.0
 40
2.0
 40
2.0
 40
2.0
 40
3.0
 40
3.0
 40
3.0
 40
4.0
 40
4.0
 40
4.0
 40
5.0
 40
5.0
 40
5.0
 40
6.0
 40
6.0
 40
6.0
 40
7.0
 40
7.0
 40
7.0
 40
8.0
 40
8.0
 40
8.0
 40
9.0
 40
9.0
 40
9.0
 40
10.0
 40
10.0
 40
10.0
 40
11.0
 40
11.0
 40
11.0
 40
11.0
 10
126.377554584636
 20
154.8151140277308
 10
126.377554584636
 20
154.8151140277308
 10
128.8311532078563
 20
154.8151140277308
 10
128.8311532078563
 20
154.8151140277308
 10
128.8311532078563
 20
154.8151140277308
 10
127.7345785914971
 20
151.3062819612468
 10
127.7345785914971
 20
151.3062819612468
 10
128.571392836906
 20
152.2922689395754
 10
129.8860421413442
 20
153.604506675583
 10
131.0163787157314
 20
154.2664822097754
 10
132.7044766171327
 20
155.2500576196734
 10
133.6642808525008
 20
155.3847609420097
 10
134.7284715499351
 20
155.3565111403944
 10
134.7284715499351
 20
155.3565111403944
 10
133.6877075172549
 20
152.0345756272799
 10
133.6877075172549
 20
152.0345756272799
 10
133.011434827367
 20
152.3184516825359
 10
130.930940291334
 20
151.7768823149844
 10
129.739280976855
 20
150.9162968950455
 10
128.66613302525
 20
150.1454562717016
 10
127.9192358313239
 20
149.4857200510519
 10
127.0393578639405
 20
147.8282835196966
 10
126.164647543194
 20
146.1699857139017
 10
125.4742499524985
 20
143.5262176944419
 10
124.2822461282437
 20
139.6959580071401
 10
124.2822461282437
 20
139.6959580071401
 10
120.5753209406769
 20
127.8027915271048
 10
120.5753209406769
 20
127.8027915271048
 10
120.5753209406769
 20
127.8027915271048
 10
118.1964809388044
 20
127.8027915271048
 10
118.1964809388044
 20
127.8027915271048
 10
118.1964809388044
 20
127.8027915271048
 10
126.377554584636
 20
154.8151140277308
 10
126.377554584636
 20
154.8151140277308
 97
        0
 75
     2
 76
     1
 98
        0
  0
SPLINE
  5
6A8
330
6A2
100
AcDbEntity
  8
レイヤー 1
370
     0
100
AcDbSpline
210
0.0
220
0.0
230
1.0
 70
    11
 71
     3
 72
   104
 73
   100
 74
     0
 42
0.000000001
 43
0.0000000001
 40
0.0
 40
0.0
 40
0.0
 40
0.0
 40
1.0
 40
1.0
 40
1.0
 40
2.0
 40
2.0
 40
2.0
 40
3.0
 40
3.0
 40
3.0
 40
4.0
 40
4.0
 40
4.0
 40
5.0
 40
5.0
 40
5.0
 40
6.0
 40
6.0
 40
6.0
 40
7.0
 40
7.0
 40
7.0
 40
8.0
 40
8.0
 40
8.0
 40
9.0
 40
9.0
 40
9.0
 40
10.0
 40
10.0
 40
10.0
 40
11.0
 40
11.0
 40
11.0
 40
12.0
 40
12.0
 40
12.0
 40
13.0
 40
13.0
 40
13.0
 40
14.0
 40
14.0
 40
14.0
 40
15.0
 40
15.0
 40
15.0
 40
16.0
 40
16.0
 40
16.0
 40
17.0
 40
17.0
 40
17.0
 40
18.0
 40
18.0
 40
18.0
 40
19.0
 40
19.0
 40
19.0
 40
20.0
 40
20.0
 40
20.0
 40
21.0
 40
21.0
 40
21.0
 40
22.0
 40
22.0
 40
22.0
 40
23.0
 40
23.0
 40
23.0
 40
24.0
 40
24.0
 40
24.0
 40
25.0
 40
25.0
 40
25.0
 40
26.0
 40
26.0
 40
26.0
 40
27.0
 40
27.0
 40
27.0
 40
28.0
 40
28.0
 40
28.0
 40
29.0
 40
29.0
 40
29.0
 40
30.0
 40
30.0
 40
30.0
 40
31.0
 40
31.0
 40
31.0
 40
32.0
 40
32.0
 40
32.0
 40
33.0
 40
33.0
 40
33.0
 40
33.0
 10
139.8926730891197
 20
154.8294111834263
 30
0.0
 10
139.8926730891197
 20
154.8294111834263
 30
0.0
 10
142.0344903652445
 20
154.8294111834263
 30
0.0
 10
142.0344903652445
 20
154.8294111834263
 30
0.0
 10
142.0344903652445
 20
154.8294111834263
 30
0.0
 10
140.9516961399171
 20
151.3157559800812
 30
0.0
 10
140.9516961399171
 20
151.3157559800812
 30
0.0
 10
141.8928968473923
 20
152.7887075264977
 30
0.0
 10
142.7341897198865
 20
153.4484437471474
 30
0.0
 10
143.8552245303272
 20
154.2926649527359
 30
0.0
 10
144.9803934580775
 20
155.1296514530327
 30
0.0
 10
146.3139908001845
 20
155.3044901642492
 30
0.0
 10
147.241066606852
 20
155.3044901642492
 30
0.0
 10
148.3855280820469
 20
155.3044901642492
 30
0.0
 10
149.4969166187653
 20
155.0752189084569
 30
0.0
 10
150.0784491203092
 20
153.8172414621372
 30
0.0
 10
150.5228667310863
 20
152.833838307127
 30
0.0
 10
150.5414702589793
 20
152.7201500811143
 30
0.0
 10
150.4140016419347
 20
150.7765981809602
 30
0.0
 10
151.5818897818837
 20
152.7699317437168
 30
0.0
 10
152.4424752018226
 20
153.6256940267945
 30
0.0
 10
153.9038856707499
 20
154.4507949398263
 30
0.0
 10
155.4455669174378
 20
155.3044901642492
 30
0.0
 10
156.339225275853
 20
155.3659851592288
 30
0.0
 10
157.3748216618963
 20
155.2147453676543
 30
0.0
 10
158.911679771723
 20
154.9877134254046
 30
0.0
 10
159.8859534176746
 20
154.4390816074493
 30
0.0
 10
160.3965169054045
 20
152.7816450760939
 30
0.0
 10
160.9070803931344
 20
151.1219692311958
 30
0.0
 10
160.6328506116007
 20
150.2303779314354
 30
0.0
 10
159.9992971339115
 20
147.597634224801
 30
0.0
 10
159.7105979417943
 20
146.4014962832367
 30
0.0
 10
159.2947746424084
 20
144.9400858143094
 30
0.0
 10
158.7463150793409
 20
143.2092687007094
 30
0.0
 10
158.7463150793409
 20
143.2092687007094
 30
0.0
 10
153.9038856707499
 20
127.8027915271048
 30
0.0
 10
153.9038856707499
 20
127.8027915271048
 30
0.0
 10
153.9038856707499
 20
127.8027915271048
 30
0.0
 10
151.3882752878863
 20
127.8027915271048
 30
0.0
 10
151.3882752878863
 20
127.8027915271048
 30
0.0
 10
151.3882752878863
 20
127.8027915271048
 30
0.0
 10
155.6250565106276
 20
141.2751908193897
 30
0.0
 10
155.6250565106276
 20
141.2751908193897
 30
0.0
 10
156.5094131050963
 20
144.0936252951782
 30
0.0
 10
157.109893644309
 20
146.1506931664571
 30
0.0
 10
157.4220195011804
 20
147.4415712963654
 30
0.0
 10
157.8095929989511
 20
149.0530157726519
 30
0.0
 10
157.9656559273867
 20
149.5826995529385
 30
0.0
 10
157.7816877071116
 20
150.7529992613181
 30
0.0
 10
157.6111553680925
 20
151.8430281919372
 30
0.0
 10
157.0582171779396
 20
152.5547853887321
 30
0.0
 10
156.1170164704645
 20
152.5547853887321
 30
0.0
 10
155.1096698860365
 20
152.5547853887321
 30
0.0
 10
154.2962823053817
 20
152.4412694176073
 30
0.0
 10
153.156643967048
 20
151.2945686288697
 30
0.0
 10
152.0170056287143
 20
150.1476955852443
 30
0.0
 10
151.076149431015
 20
148.7930831468137
 30
0.0
 10
150.3337308641742
 20
147.2290087646991
 30
0.0
 10
149.5957909244188
 20
145.6683794803425
 30
0.0
 10
148.8530278478023
 20
143.6822806228776
 30
0.0
 10
148.0964843801539
 20
141.2751908193897
 30
0.0
 10
148.0964843801539
 20
141.2751908193897
 30
0.0
 10
143.8552245303272
 20
127.8027915271048
 30
0.0
 10
143.8552245303272
 20
127.8027915271048
 30
0.0
 10
143.8552245303272
 20
127.8027915271048
 30
0.0
 10
141.486030802177
 20
127.8027915271048
 30
0.0
 10
141.486030802177
 20
127.8027915271048
 30
0.0
 10
141.486030802177
 20
127.8027915271048
 30
0.0
 10
146.3329388378533
 20
143.2092687007094
 30
0.0
 10
146.3329388378533
 20
143.2092687007094
 30
0.0
 10
146.8483254624444
 20
144.8408669988801
 30
0.0
 10
147.2314203331297
 20
146.1837661049335
 30
0.0
 10
147.4867020769946
 20
147.224185627838
 30
0.0
 10
147.9169947869641
 20
149.0197705792876
 30
0.0
 10
148.0306830129768
 20
150.2400242051577
 30
0.0
 10
147.709255392159
 20
151.3157559800812
 30
0.0
 10
147.3874832615654
 20
152.3916600098926
 30
0.0
 10
146.8245542879144
 20
152.6683013598569
 30
0.0
 10
145.8840425999909
 20
152.6683013598569
 30
0.0
 10
145.0989048209514
 20
152.6683013598569
 30
0.0
 10
144.3282364524954
 20
152.3275811915945
 30
0.0
 10
143.4531816219731
 20
151.6538923250251
 30
0.0
 10
142.34627171234
 20
150.8074318058939
 30
0.0
 10
141.901854101563
 20
150.1097995099067
 30
0.0
 10
141.3578731655808
 20
149.289521733736
 30
0.0
 10
140.6299240093235
 20
148.192602607601
 30
0.0
 10
140.2850697237515
 20
147.455696197173
 30
0.0
 10
139.6652966370942
 20
145.8385673095858
 30
0.0
 10
139.0506911970739
 20
144.2214384219986
 30
0.0
 10
138.463991048893
 20
142.3252566160164
 30
0.0
 10
138.0571250036777
 20
141.0154304484394
 30
0.0
 10
138.0571250036777
 20
141.0154304484394
 30
0.0
 10
133.9009590684727
 20
127.8027915271048
 30
0.0
 10
133.9009590684727
 20
127.8027915271048
 30
0.0
 10
133.9009590684727
 20
127.8027915271048
 30
0.0
 10
131.4180771143097
 20
127.8027915271048
 30
0.0
 10
131.4180771143097
 20
127.8027915271048
 30
0.0
 10
131.4180771143097
 20
127.8027915271048
 30
0.0
 10
139.8926730891197
 20
154.8294111834263
 30
0.0
 10
139.8926730891197
 20
154.8294111834263
 30
0.0
  0
HATCH
  5
6A9
330
6A2
100
AcDbEntity
  8
レイヤー 1
 62
   250
420
  2234388
100
AcDbHatch
 10
0.0
 20
0.0
 30
0.0
210
0.0
220
0.0
230
1.0
  2
SOLID
 70
     1
 71
     0
 91
        1
 92
        1
 93
        1
 72
     4
 94
        3
 73
     0
 74
     1
 95
      104
 96
      100
 40
0.0
 40
0.0
 40
0.0
 40
0.0
 40
1.0
 40
1.0
 40
1.0
 40
2.0
 40
2.0
 40
2.0
 40
3.0
 40
3.0
 40
3.0
 40
4.0
 40
4.0
 40
4.0
 40
5.0
 40
5.0
 40
5.0
 40
6.0
 40
6.0
 40
6.0
 40
7.0
 40
7.0
 40
7.0
 40
8.0
 40
8.0
 40
8.0
 40
9.0
 40
9.0
 40
9.0
 40
10.0
 40
10.0
 40
10.0
 40
11.0
 40
11.0
 40
11.0
 40
12.0
 40
12.0
 40
12.0
 40
13.0
 40
13.0
 40
13.0
 40
14.0
 40
14.0
 40
14.0
 40
15.0
 40
15.0
 40
15.0
 40
16.0
 40
16.0
 40
16.0
 40
17.0
 40
17.0
 40
17.0
 40
18.0
 40
18.0
 40
18.0
 40
19.0
 40
19.0
 40
19.0
 40
20.0
 40
20.0
 40
20.0
 40
21.0
 40
21.0
 40
21.0
 40
22.0
 40
22.0
 40
22.0
 40
23.0
 40
23.0
 40
23.0
 40
24.0
 40
24.0
 40
24.0
 40
25.0
 40
25.0
 40
25.0
 40
26.0
 40
26.0
 40
26.0
 40
27.0
 40
27.0
 40
27.0
 40
28.0
 40
28.0
 40
28.0
 40
29.0
 40
29.0
 40
29.0
 40
30.0
 40
30.0
 40
30.0
 40
31.0
 40
31.0
 40
31.0
 40
32.0
 40
32.0
 40
32.0
 40
33.0
 40
33.0
 40
33.0
 40
33.0
 10
139.8926730891197
 20
154.8294111834263
 10
139.8926730891197
 20
154.8294111834263
 10
142.0344903652445
 20
154.8294111834263
 10
142.0344903652445
 20
154.8294111834263
 10
142.0344903652445
 20
154.8294111834263
 10
140.9516961399171
 20
151.3157559800812
 10
140.9516961399171
 20
151.3157559800812
 10
141.8928968473923
 20
152.7887075264977
 10
142.7341897198865
 20
153.4484437471474
 10
143.8552245303272
 20
154.2926649527359
 10
144.9803934580775
 20
155.1296514530327
 10
146.3139908001845
 20
155.3044901642492
 10
147.241066606852
 20
155.3044901642492
 10
148.3855280820469
 20
155.3044901642492
 10
149.4969166187653
 20
155.0752189084569
 10
150.0784491203092
 20
153.8172414621372
 10
150.5228667310863
 20
152.833838307127
 10
150.5414702589793
 20
152.7201500811143
 10
150.4140016419347
 20
150.7765981809602
 10
151.5818897818837
 20
152.7699317437168
 10
152.4424752018226
 20
153.6256940267945
 10
153.9038856707499
 20
154.4507949398263
 10
155.4455669174378
 20
155.3044901642492
 10
156.339225275853
 20
155.3659851592288
 10
157.3748216618963
 20
155.2147453676543
 10
158.911679771723
 20
154.9877134254046
 10
159.8859534176746
 20
154.4390816074493
 10
160.3965169054045
 20
152.7816450760939
 10
160.9070803931344
 20
151.1219692311958
 10
160.6328506116007
 20
150.2303779314354
 10
159.9992971339115
 20
147.597634224801
 10
159.7105979417943
 20
146.4014962832367
 10
159.2947746424084
 20
144.9400858143094
 10
158.7463150793409
 20
143.2092687007094
 10
158.7463150793409
 20
143.2092687007094
 10
153.9038856707499
 20
127.8027915271048
 10
153.9038856707499
 20
127.8027915271048
 10
153.9038856707499
 20
127.8027915271048
 10
151.3882752878863
 20
127.8027915271048
 10
151.3882752878863
 20
127.8027915271048
 10
151.3882752878863
 20
127.8027915271048
 10
155.6250565106276
 20
141.2751908193897
 10
155.6250565106276
 20
141.2751908193897
 10
156.5094131050963
 20
144.0936252951782
 10
157.109893644309
 20
146.1506931664571
 10
157.4220195011804
 20
147.4415712963654
 10
157.8095929989511
 20
149.0530157726519
 10
157.9656559273867
 20
149.5826995529385
 10
157.7816877071116
 20
150.7529992613181
 10
157.6111553680925
 20
151.8430281919372
 10
157.0582171779396
 20
152.5547853887321
 10
156.1170164704645
 20
152.5547853887321
 10
155.1096698860365
 20
152.5547853887321
 10
154.2962823053817
 20
152.4412694176073
 10
153.156643967048
 20
151.2945686288697
 10
152.0170056287143
 20
150.1476955852443
 10
151.076149431015
 20
148.7930831468137
 10
150.3337308641742
 20
147.2290087646991
 10
149.5957909244188
 20
145.6683794803425
 10
148.8530278478023
 20
143.6822806228776
 10
148.0964843801539
 20
141.2751908193897
 10
148.0964843801539
 20
141.2751908193897
 10
143.8552245303272
 20
127.8027915271048
 10
143.8552245303272
 20
127.8027915271048
 10
143.8552245303272
 20
127.8027915271048
 10
141.486030802177
 20
127.8027915271048
 10
141.486030802177
 20
127.8027915271048
 10
141.486030802177
 20
127.8027915271048
 10
146.3329388378533
 20
143.2092687007094
 10
146.3329388378533
 20
143.2092687007094
 10
146.8483254624444
 20
144.8408669988801
 10
147.2314203331297
 20
146.1837661049335
 10
147.4867020769946
 20
147.224185627838
 10
147.9169947869641
 20
149.0197705792876
 10
148.0306830129768
 20
150.2400242051577
 10
147.709255392159
 20
151.3157559800812
 10
147.3874832615654
 20
152.3916600098926
 10
146.8245542879144
 20
152.6683013598569
 10
145.8840425999909
 20
152.6683013598569
 10
145.0989048209514
 20
152.6683013598569
 10
144.3282364524954
 20
152.3275811915945
 10
143.4531816219731
 20
151.6538923250251
 10
142.34627171234
 20
150.8074318058939
 10
141.901854101563
 20
150.1097995099067
 10
141.3578731655808
 20
149.289521733736
 10
140.6299240093235
 20
148.192602607601
 10
140.2850697237515
 20
147.455696197173
 10
139.6652966370942
 20
145.8385673095858
 10
139.0506911970739
 20
144.2214384219986
 10
138.463991048893
 20
142.3252566160164
 10
138.0571250036777
 20
141.0154304484394
 10
138.0571250036777
 20
141.0154304484394
 10
133.9009590684727
 20
127.8027915271048
 10
133.9009590684727
 20
127.8027915271048
 10
133.9009590684727
 20
127.8027915271048
 10
131.4180771143097
 20
127.8027915271048
 10
131.4180771143097
 20
127.8027915271048
 10
131.4180771143097
 20
127.8027915271048
 10
139.8926730891197
 20
154.8294111834263
 10
139.8926730891197
 20
154.8294111834263
 97
        0
 75
     2
 76
     1
 98
        0
  0
SPLINE
  5
6AA
330
6A2
100
AcDbEntity
  8
レイヤー 1
370
     0
100
AcDbSpline
210
0.0
220
0.0
230
1.0
 70
    11
 71
     3
 72
    29
 73
    25
 74
     0
 42
0.000000001
 43
0.0000000001
 40
0.0
 40
0.0
 40
0.0
 40
0.0
 40
1.0
 40
1.0
 40
1.0
 40
2.0
 40
2.0
 40
2.0
 40
3.0
 40
3.0
 40
3.0
 40
4.0
 40
4.0
 40
4.0
 40
5.0
 40
5.0
 40
5.0
 40
6.0
 40
6.0
 40
6.0
 40
7.0
 40
7.0
 40
7.0
 40
8.0
 40
8.0
 40
8.0
 40
8.0
 10
101.6420971922469
 20
132.8388354296931
 30
0.0
 10
101.630039350094
 20
134.7164137077823
 30
0.0
 10
102.2236296937908
 20
138.0598810818841
 30
0.0
 10
103.7487744712405
 20
142.5378191476827
 30
0.0
 10
105.819967243327
 20
148.5896501242061
 30
0.0
 10
107.0602024361932
 20
150.8074318058939
 30
0.0
 10
108.1522984254671
 20
151.8833358357054
 30
0.0
 10
109.741177511439
 20
153.4532668840085
 30
0.0
 10
111.8740375333931
 20
153.5290590346837
 30
0.0
 10
112.5075910110823
 20
153.4532668840085
 30
0.0
 10
113.4012493694975
 20
153.3490526768302
 30
0.0
 10
114.6683563248758
 20
152.7580461564518
 30
0.0
 10
114.7493161221879
 20
150.7838328862519
 30
0.0
 10
114.8106388622796
 20
149.0909118479895
 30
0.0
 10
114.3186789024427
 20
145.9191825971221
 30
0.0
 10
112.6164561002338
 20
140.9489400617108
 30
0.0
 10
110.6444821435766
 20
135.1746117095912
 30
0.0
 10
109.4669477299053
 20
132.8960240524753
 30
0.0
 10
108.5212683953448
 20
131.9072809959403
 30
0.0
 10
106.7346406980658
 20
130.0538184021569
 30
0.0
 10
104.8222669326213
 20
130.2336525051225
 30
0.0
 10
104.5408024457958
 20
130.2336525051225
 30
0.0
 10
104.1721769856939
 20
130.2336525051225
 30
0.0
 10
101.6465758193322
 20
130.6305277668397
 30
0.0
 10
101.6420971922469
 20
132.8388354296931
 30
0.0
  0
SPLINE
  5
6AB
330
6A2
100
AcDbEntity
  8
レイヤー 1
370
     0
100
AcDbSpline
210
0.0
220
0.0
230
1.0
 70
    11
 71
     3
 72
    32
 73
    28
 74
     0
 42
0.000000001
 43
0.0000000001
 40
0.0
 40
0.0
 40
0.0
 40
0.0
 40
1.0
 40
1.0
 40
1.0
 40
2.0
 40
2.0
 40
2.0
 40
3.0
 40
3.0
 40
3.0
 40
4.0
 40
4.0
 40
4.0
 40
5.0
 40
5.0
 40
5.0
 40
6.0
 40
6.0
 40
6.0
 40
7.0
 40
7.0
 40
7.0
 40
8.0
 40
8.0
 40
8.0
 40
9.0
 40
9.0
 40
9.0
 40
9.0
 10
106.2595617172429
 20
153.4105476718098
 30
0.0
 10
104.8222669326213
 20
151.5474388043041
 30
0.0
 10
103.7177685914188
 20
149.8758773721411
 30
0.0
 10
101.9232171692965
 20
144.6141795664062
 30
0.0
 10
100.2754269116635
 20
139.7999999594306
 30
0.0
 10
99.22777268346732
 20
136.3052927937542
 30
0.0
 10
99.06964269637689
 20
132.039572749846
 30
0.0
 10
98.94665270641765
 20
128.8673267343149
 30
0.0
 10
100.8807305877373
 20
127.8027915271048
 30
0.0
 10
103.7129454545577
 20
127.8027915271048
 30
0.0
 10
104.9352661390825
 20
127.8027915271048
 30
0.0
 10
108.0151835347002
 20
127.8827177950895
 30
0.0
 10
110.2045431598849
 20
130.5926316915021
 30
0.0
 10
111.7417457794874
 20
132.4984597712065
 30
0.0
 10
113.155269389579
 20
134.475256864725
 30
0.0
 10
115.0562743324223
 20
140.9489400617108
 30
0.0
 10
116.6361961642235
 20
146.3680788349845
 30
0.0
 10
117.7282921534974
 20
149.8639917848761
 30
0.0
 10
117.6480213757369
 20
151.8595646611754
 30
0.0
 10
117.6480213757369
 20
151.8595646611754
 30
0.0
 10
117.6480213757369
 20
151.8595646611754
 30
0.0
 10
117.6480213757369
 20
151.8595646611754
 30
0.0
 10
117.13229024137
 20
155.18150017429
 30
0.0
 10
114.7162431837115
 20
155.886194920681
 30
0.0
 10
113.3351034925446
 20
155.886194920681
 30
0.0
 10
111.9829026225447
 20
155.886194920681
 30
0.0
 10
108.3414342923792
 20
156.1251124501957
 30
0.0
 10
106.2595617172429
 20
153.4105476718098
 30
0.0
  0
HATCH
  5
6AC
330
6A2
100
AcDbEntity
  8
レイヤー 1
 62
   250
420
  2234388
100
AcDbHatch
 10
0.0
 20
0.0
 30
0.0
210
0.0
220
0.0
230
1.0
  2
SOLID
 70
     1
 71
     0
 91
        2
 92
        1
 93
        1
 72
     4
 94
        3
 73
     0
 74
     1
 95
       29
 96
       25
 40
0.0
 40
0.0
 40
0.0
 40
0.0
 40
1.0
 40
1.0
 40
1.0
 40
2.0
 40
2.0
 40
2.0
 40
3.0
 40
3.0
 40
3.0
 40
4.0
 40
4.0
 40
4.0
 40
5.0
 40
5.0
 40
5.0
 40
6.0
 40
6.0
 40
6.0
 40
7.0
 40
7.0
 40
7.0
 40
8.0
 40
8.0
 40
8.0
 40
8.0
 10
101.6420971922469
 20
132.8388354296931
 10
101.630039350094
 20
134.7164137077823
 10
102.2236296937908
 20
138.0598810818841
 10
103.7487744712405
 20
142.5378191476827
 10
105.819967243327
 20
148.5896501242061
 10
107.0602024361932
 20
150.8074318058939
 10
108.1522984254671
 20
151.8833358357054
 10
109.741177511439
 20
153.4532668840085
 10
111.8740375333931
 20
153.5290590346837
 10
112.5075910110823
 20
153.4532668840085
 10
113.4012493694975
 20
153.3490526768302
 10
114.6683563248758
 20
152.7580461564518
 10
114.7493161221879
 20
150.7838328862519
 10
114.8106388622796
 20
149.0909118479895
 10
114.3186789024427
 20
145.9191825971221
 10
112.6164561002338
 20
140.9489400617108
 10
110.6444821435766
 20
135.1746117095912
 10
109.4669477299053
 20
132.8960240524753
 10
108.5212683953448
 20
131.9072809959403
 10
106.7346406980658
 20
130.0538184021569
 10
104.8222669326213
 20
130.2336525051225
 10
104.5408024457958
 20
130.2336525051225
 10
104.1721769856939
 20
130.2336525051225
 10
101.6465758193322
 20
130.6305277668397
 10
101.6420971922469
 20
132.8388354296931
 97
        0
 92
        1
 93
        1
 72
     4
 94
        3
 73
     0
 74
     1
 95
       32
 96
       28
 40
0.0
 40
0.0
 40
0.0
 40
0.0
 40
1.0
 40
1.0
 40
1.0
 40
2.0
 40
2.0
 40
2.0
 40
3.0
 40
3.0
 40
3.0
 40
4.0
 40
4.0
 40
4.0
 40
5.0
 40
5.0
 40
5.0
 40
6.0
 40
6.0
 40
6.0
 40
7.0
 40
7.0
 40
7.0
 40
8.0
 40
8.0
 40
8.0
 40
9.0
 40
9.0
 40
9.0
 40
9.0
 10
106.2595617172429
 20
153.4105476718098
 10
104.8222669326213
 20
151.5474388043041
 10
103.7177685914188
 20
149.8758773721411
 10
101.9232171692965
 20
144.6141795664062
 10
100.2754269116635
 20
139.7999999594306
 10
99.22777268346732
 20
136.3052927937542
 10
99.06964269637689
 20
132.039572749846
 10
98.94665270641765
 20
128.8673267343149
 10
100.8807305877373
 20
127.8027915271048
 10
103.7129454545577
 20
127.8027915271048
 10
104.9352661390825
 20
127.8027915271048
 10
108.0151835347002
 20
127.8827177950895
 10
110.2045431598849
 20
130.5926316915021
 10
111.7417457794874
 20
132.4984597712065
 10
113.155269389579
 20
134.475256864725
 10
115.0562743324223
 20
140.9489400617108
 10
116.6361961642235
 20
146.3680788349845
 10
117.7282921534974
 20
149.8639917848761
 10
117.6480213757369
 20
151.8595646611754
 10
117.6480213757369
 20
151.8595646611754
 10
117.6480213757369
 20
151.8595646611754
 10
117.6480213757369
 20
151.8595646611754
 10
117.13229024137
 20
155.18150017429
 10
114.7162431837115
 20
155.886194920681
 10
113.3351034925446
 20
155.886194920681
 10
111.9829026225447
 20
155.886194920681
 10
108.3414342923792
 20
156.1251124501957
 10
106.2595617172429
 20
153.4105476718098
 97
        0
 75
     2
 76
     1
 98
        0
  0
ENDBLK
  5
6AD
330
6A2
100
AcDbEntity
  8
0
100
AcDbBlockEnd
  0
BLOCK
  5
4A70
330
4A6F
100
AcDbEntity
  8
0
100
AcDbBlockBegin
  2
*D4
 70
     1
 10
0.0
 20
0.0
 30
0.0
  3
*D4
  1
*D201
  0
LINE
  5
4A72
330
4A6F
100
AcDbEntity
  8
寸法
  6
Continuous
 62
     0
370
    -2
100
AcDbLine
 10
94.78251201455309
 20
348.7335990428101
 30
0.0
 11
83.29381077446469
 21
348.7335990428101
 31
0.0
  0
LINE
  5
4A73
330
4A6F
100
AcDbEntity
  8
寸法
  6
Continuous
 62
     0
370
    -2
100
AcDbLine
 10
110.1991885646423
 20
341.034177143836
 30
0.0
 11
83.29381077446469
 21
341.034177143836
 31
0.0
  0
LINE
  5
4A74
330
4A6F
100
AcDbEntity
  8
寸法
  6
Continuous
 62
     0
370
    -2
100
AcDbLine
 10
83.29381077446469
 20
347.2335990428101
 30
0.0
 11
83.29381077446469
 21
342.534177143836
 31
0.0
  0
INSERT
  5
4A75
330
4A6F
100
AcDbEntity
  8
寸法
 62
     0
370
    -2
100
AcDbBlockReference
  2
_DOT
 10
83.29381077446469
 20
348.7335990428101
 30
0.0
 41
1.5
 42
1.5
 43
1.5
 50
90.0
  0
INSERT
  5
4A76
330
4A6F
100
AcDbEntity
  8
寸法
 62
     0
370
    -2
100
AcDbBlockReference
  2
_DOT
 10
83.29381077446469
 20
341.034177143836
 30
0.0
 41
1.5
 42
1.5
 43
1.5
 50
270.0
  0
MTEXT
  5
4A77
330
4A6F
100
AcDbEntity
  8
寸法
  6
Continuous
 62
     0
100
AcDbMText
 10
78.79381077446469
 20
344.8838880933231
 30
0.0
 40
5.0
 41
0.0
 46
0.0
 71
     5
 72
     1
  1
\A1;8
  7
ＭＳ ゴシック
 11
0.0
 21
1.0
 31
0.0
 73
     1
 44
1.0
  0
POINT
  5
4A78
330
4A6F
100
AcDbEntity
  8
Defpoints
 62
     0
100
AcDbPoint
 10
99.78251201455309
 20
348.7335990428101
 30
0.0
  0
POINT
  5
4A79
330
4A6F
100
AcDbEntity
  8
Defpoints
 62
     0
100
AcDbPoint
 10
115.1991885646423
 20
341.034177143836
 30
0.0
  0
POINT
  5
4D3A
330
4A6F
100
AcDbEntity
  8
Defpoints
 62
     0
100
AcDbPoint
 10
83.29381077446469
 20
341.034177143836
 30
0.0
  0
ENDBLK
  5
4A71
330
4A6F
100
AcDbEntity
  8
0
100
AcDbBlockEnd
  0
BLOCK
  5
4A9D
330
4A9C
100
AcDbEntity
  8
0
100
AcDbBlockBegin
  2
*D5
 70
     1
 10
0.0
 20
0.0
 30
0.0
  3
*D5
  1
*D204
  0
LINE
  5
4A9F
330
4A9C
100
AcDbEntity
  8
寸法
  6
Continuous
 62
     0
370
    -2
100
AcDbLine
 10
394.3957957410434
 20
336.375005369178
 30
0.0
 11
369.1852634925926
 21
336.375005369178
 31
0.0
  0
LINE
  5
4AA0
330
4A9C
100
AcDbEntity
  8
寸法
  6
Continuous
 62
     0
370
    -2
100
AcDbLine
 10
394.3957957410434
 20
306.375005369178
 30
0.0
 11
369.1852634925926
 21
306.375005369178
 31
0.0
  0
LINE
  5
4AA1
330
4A9C
100
AcDbEntity
  8
寸法
  6
Continuous
 62
     0
370
    -2
100
AcDbLine
 10
369.1852634925926
 20
334.875005369178
 30
0.0
 11
369.1852634925926
 21
307.875005369178
 31
0.0
  0
INSERT
  5
4AA2
330
4A9C
100
AcDbEntity
  8
寸法
 62
     0
370
    -2
100
AcDbBlockReference
  2
_DOT
 10
369.1852634925926
 20
336.375005369178
 30
0.0
 41
1.5
 42
1.5
 43
1.5
 50
90.0
  0
INSERT
  5
4AA3
330
4A9C
100
AcDbEntity
  8
寸法
 62
     0
370
    -2
100
AcDbBlockReference
  2
_DOT
 10
369.1852634925926
 20
306.375005369178
 30
0.0
 41
1.5
 42
1.5
 43
1.5
 50
270.0
  0
MTEXT
  5
4AA4
330
4A9C
100
AcDbEntity
  8
寸法
  6
Continuous
 62
     0
100
AcDbMText
 10
364.2802634925926
 20
321.375005369178
 30
0.0
 40
5.0
 41
0.0
 46
0.0
 71
     5
 72
     1
  1
\A1;φ30
  7
ＭＳ ゴシック
 11
0.0
 21
1.0
 31
0.0
 73
     1
 44
1.0
  0
POINT
  5
4AA5
330
4A9C
100
AcDbEntity
  8
Defpoints
 62
     0
100
AcDbPoint
 10
399.3957957410434
 20
336.375005369178
 30
0.0
  0
POINT
  5
4AA6
330
4A9C
100
AcDbEntity
  8
Defpoints
 62
     0
100
AcDbPoint
 10
399.3957957410434
 20
306.375005369178
 30
0.0
  0
POINT
  5
4AA7
330
4A9C
100
AcDbEntity
  8
Defpoints
 62
     0
100
AcDbPoint
 10
369.1852634925926
 20
306.375005369178
 30
0.0
  0
ENDBLK
  5
4A9E
330
4A9C
100
AcDbEntity
  8
0
100
AcDbBlockEnd
  0
BLOCK
  5
4EAC
330
4EAB
100
AcDbEntity
  8
0
100
AcDbBlockBegin
  2
名称未設定-1
 70
     0
 10
0.0
 20
0.0
 30
0.0
  3
名称未設定-1
  1
名称未設定-1
  0
INSERT
  5
4EAD
330
4EAB
100
AcDbEntity
  8
TFORMLOGO
100
AcDbBlockReference
  2
block 2
 10
0.0
 20
0.0
 30
0.0
  0
ENDBLK
  5
4ED2
330
4EAB
100
AcDbEntity
  8
0
100
AcDbBlockEnd
  0
BLOCK
  5
4EAF
330
4EAE
100
AcDbEntity
  8
0
100
AcDbBlockBegin
  2
block 2
 70
     0
 10
0.0
 20
0.0
 30
0.0
  3
block 2
  1
block 2
  0
INSERT
  5
4EB0
330
4EAE
100
AcDbEntity
  8
TFORMLOGO
100
AcDbBlockReference
  2
block 3
 10
0.0
 20
0.0
 30
0.0
  0
ENDBLK
  5
4ED1
330
4EAE
100
AcDbEntity
  8
0
100
AcDbBlockEnd
  0
BLOCK
  5
5343
330
5342
100
AcDbEntity
  8
0
100
AcDbBlockBegin
  2
*D8
 70
     1
 10
0.0
 20
0.0
 30
0.0
  3
*D8
  1
*D39
  0
LINE
  5
5345
330
5342
100
AcDbEntity
  8
寸法
 62
     0
370
    -2
100
AcDbLine
 10
427.8721245115549
 20
172.3452081951892
 30
0.0
 11
427.8721245115549
 21
144.5573006134969
 31
0.0
  0
LINE
  5
5346
330
5342
100
AcDbEntity
  8
寸法
 62
     0
370
    -2
100
AcDbLine
 10
389.8721245115548
 20
172.3452081951892
 30
0.0
 11
389.8721245115548
 21
144.5573006134969
 31
0.0
  0
LINE
  5
5347
330
5342
100
AcDbEntity
  8
寸法
 62
     0
370
    -2
100
AcDbLine
 10
389.8721245115548
 20
144.5573006134969
 30
0.0
 11
376.2146245115548
 21
144.5573006134969
 31
0.0
  0
LINE
  5
5348
330
5342
100
AcDbEntity
  8
寸法
 62
     0
370
    -2
100
AcDbLine
 10
426.3721245115549
 20
144.5573006134969
 30
0.0
 11
391.3721245115548
 21
144.5573006134969
 31
0.0
  0
INSERT
  5
5349
330
5342
100
AcDbEntity
  8
寸法
 62
     0
370
    -2
100
AcDbBlockReference
  2
_DOT
 10
427.8721245115549
 20
144.5573006134969
 30
0.0
 41
1.5
 42
1.5
 43
1.5
  0
INSERT
  5
534A
330
5342
100
AcDbEntity
  8
寸法
 62
     0
370
    -2
100
AcDbBlockReference
  2
_DOT
 10
389.8721245115548
 20
144.5573006134969
 30
0.0
 41
1.5
 42
1.5
 43
1.5
 50
180.0
  0
POINT
  5
534B
330
5342
100
AcDbEntity
  8
Defpoints
 62
     0
100
AcDbPoint
 10
427.8721245115549
 20
177.3452081951892
 30
0.0
  0
POINT
  5
534C
330
5342
100
AcDbEntity
  8
Defpoints
 62
     0
100
AcDbPoint
 10
389.8721245115548
 20
177.3452081951892
 30
0.0
  0
POINT
  5
534D
330
5342
100
AcDbEntity
  8
Defpoints
 62
     0
100
AcDbPoint
 10
389.8721245115548
 20
144.5573006134969
 30
0.0
  0
ENDBLK
  5
5344
330
5342
100
AcDbEntity
  8
0
100
AcDbBlockEnd
  0
BLOCK
  5
534F
330
534E
100
AcDbEntity
  8
0
100
AcDbBlockBegin
  2
*D9
 70
     1
 10
0.0
 20
0.0
 30
0.0
  3
*D9
  1
*D40
  0
LINE
  5
5351
330
534E
100
AcDbEntity
  8
寸法
 62
     0
370
    -2
100
AcDbLine
 10
389.8721245115548
 20
191.0157099566222
 30
0.0
 11
389.8721245115548
 21
213.8023335341041
 31
0.0
  0
LINE
  5
5352
330
534E
100
AcDbEntity
  8
寸法
 62
     0
370
    -2
100
AcDbLine
 10
408.8721245115548
 20
205.1912224768318
 30
0.0
 11
408.8721245115548
 21
213.8023335341041
 31
0.0
  0
LINE
  5
5353
330
534E
100
AcDbEntity
  8
寸法
 62
     0
370
    -2
100
AcDbLine
 10
391.3721245115548
 20
213.8023335341041
 30
0.0
 11
407.3721245115548
 21
213.8023335341041
 31
0.0
  0
INSERT
  5
5354
330
534E
100
AcDbEntity
  8
寸法
 62
     0
370
    -2
100
AcDbBlockReference
  2
_DOT
 10
389.8721245115548
 20
213.8023335341041
 30
0.0
 41
1.5
 42
1.5
 43
1.5
 50
180.0
  0
INSERT
  5
5355
330
534E
100
AcDbEntity
  8
寸法
 62
     0
370
    -2
100
AcDbBlockReference
  2
_DOT
 10
408.8721245115548
 20
213.8023335341041
 30
0.0
 41
1.5
 42
1.5
 43
1.5
  0
MTEXT
  5
5356
330
534E
100
AcDbEntity
  8
寸法
  6
Continuous
 62
     0
100
AcDbMText
 10
399.3721245115548
 20
218.3023335341041
 30
0.0
 40
5.0
 41
0.0
 46
0.0
 71
     5
 72
     1
  1
\A1;19
  7
ＭＳ ゴシック
 73
     1
 44
1.0
  0
POINT
  5
5357
330
534E
100
AcDbEntity
  8
Defpoints
 62
     0
100
AcDbPoint
 10
389.8721245115548
 20
186.0157099566222
 30
0.0
  0
POINT
  5
5358
330
534E
100
AcDbEntity
  8
Defpoints
 62
     0
100
AcDbPoint
 10
408.8721245115548
 20
200.1912224768318
 30
0.0
  0
POINT
  5
5359
330
534E
100
AcDbEntity
  8
Defpoints
 62
     0
100
AcDbPoint
 10
408.8721245115548
 20
213.8023335341041
 30
0.0
  0
ENDBLK
  5
5350
330
534E
100
AcDbEntity
  8
0
100
AcDbBlockEnd
  0
BLOCK
  5
535B
330
535A
100
AcDbEntity
  8
0
100
AcDbBlockBegin
  2
*D10
 70
     1
 10
0.0
 20
0.0
 30
0.0
  3
*D10
  1
*D41
  0
LINE
  5
535D
330
535A
100
AcDbEntity
  8
寸法
 62
     0
370
    -2
100
AcDbLine
 10
408.8721245115548
 20
205.1912224768318
 30
0.0
 11
408.8721245115548
 21
213.8023335341041
 31
0.0
  0
LINE
  5
535E
330
535A
100
AcDbEntity
  8
寸法
 62
     0
370
    -2
100
AcDbLine
 10
427.8721245115549
 20
191.0157099566222
 30
0.0
 11
427.8721245115549
 21
213.8023335341041
 31
0.0
  0
LINE
  5
535F
330
535A
100
AcDbEntity
  8
寸法
 62
     0
370
    -2
100
AcDbLine
 10
410.3721245115548
 20
213.8023335341041
 30
0.0
 11
426.3721245115549
 21
213.8023335341041
 31
0.0
  0
INSERT
  5
5360
330
535A
100
AcDbEntity
  8
寸法
 62
     0
370
    -2
100
AcDbBlockReference
  2
_DOT
 10
408.8721245115548
 20
213.8023335341041
 30
0.0
 41
1.5
 42
1.5
 43
1.5
 50
180.0
  0
INSERT
  5
5361
330
535A
100
AcDbEntity
  8
寸法
 62
     0
370
    -2
100
AcDbBlockReference
  2
_DOT
 10
427.8721245115549
 20
213.8023335341041
 30
0.0
 41
1.5
 42
1.5
 43
1.5
  0
MTEXT
  5
5362
330
535A
100
AcDbEntity
  8
寸法
  6
Continuous
 62
     0
100
AcDbMText
 10
418.3721245115548
 20
218.3023335341041
 30
0.0
 40
5.0
 41
0.0
 46
0.0
 71
     5
 72
     1
  1
\A1;19
  7
ＭＳ ゴシック
 73
     1
 44
1.0
  0
POINT
  5
5363
330
535A
100
AcDbEntity
  8
Defpoints
 62
     0
100
AcDbPoint
 10
408.8721245115548
 20
200.1912224768318
 30
0.0
  0
POINT
  5
5364
330
535A
100
AcDbEntity
  8
Defpoints
 62
     0
100
AcDbPoint
 10
427.8721245115549
 20
186.0157099566222
 30
0.0
  0
POINT
  5
5365
330
535A
100
AcDbEntity
  8
Defpoints
 62
     0
100
AcDbPoint
 10
427.8721245115549
 20
213.8023335341041
 30
0.0
  0
ENDBLK
  5
535C
330
535A
100
AcDbEntity
  8
0
100
AcDbBlockEnd
  0
BLOCK
  5
5367
330
5366
100
AcDbEntity
  8
0
100
AcDbBlockBegin
  2
*D11
 70
     1
 10
0.0
 20
0.0
 30
0.0
  3
*D11
  1
*D42
  0
LINE
  5
5369
330
5366
100
AcDbEntity
  8
寸法
 62
     0
370
    -2
100
AcDbLine
 10
108.1825120145531
 20
356.4345575436565
 30
0.0
 11
108.1825120145531
 21
365.9906564456901
 31
0.0
  0
LINE
  5
536A
330
5366
100
AcDbEntity
  8
寸法
 62
     0
370
    -2
100
AcDbLine
 10
146.1825120145531
 20
356.4345575436565
 30
0.0
 11
146.1825120145531
 21
365.9906564456901
 31
0.0
  0
LINE
  5
536B
330
5366
100
AcDbEntity
  8
寸法
 62
     0
370
    -2
100
AcDbLine
 10
109.6825120145531
 20
365.9906564456901
 30
0.0
 11
144.6825120145531
 21
365.9906564456901
 31
0.0
  0
INSERT
  5
536C
330
5366
100
AcDbEntity
  8
寸法
 62
     0
370
    -2
100
AcDbBlockReference
  2
_DOT
 10
108.1825120145531
 20
365.9906564456901
 30
0.0
 41
1.5
 42
1.5
 43
1.5
 50
180.0
  0
INSERT
  5
536D
330
5366
100
AcDbEntity
  8
寸法
 62
     0
370
    -2
100
AcDbBlockReference
  2
_DOT
 10
146.1825120145531
 20
365.9906564456901
 30
0.0
 41
1.5
 42
1.5
 43
1.5
  0
MTEXT
  5
536E
330
5366
100
AcDbEntity
  8
寸法
  6
Continuous
 62
     0
100
AcDbMText
 10
127.1825120145531
 20
370.4906564456901
 30
0.0
 40
5.0
 41
0.0
 46
0.0
 71
     5
 72
     1
  1
\A1;38
  7
ＭＳ ゴシック
 73
     1
 44
1.0
  0
POINT
  5
536F
330
5366
100
AcDbEntity
  8
Defpoints
 62
     0
100
AcDbPoint
 10
108.1825120145531
 20
351.4345575436565
 30
0.0
  0
POINT
  5
5370
330
5366
100
AcDbEntity
  8
Defpoints
 62
     0
100
AcDbPoint
 10
146.1825120145531
 20
351.4345575436565
 30
0.0
  0
POINT
  5
5371
330
5366
100
AcDbEntity
  8
Defpoints
 62
     0
100
AcDbPoint
 10
146.1825120145531
 20
365.9906564456901
 30
0.0
  0
ENDBLK
  5
5368
330
5366
100
AcDbEntity
  8
0
100
AcDbBlockEnd
  0
BLOCK
  5
5580
330
557F
100
AcDbEntity
  8
0
100
AcDbBlockBegin
  2
*D12
 70
     1
 10
0.0
 20
0.0
 30
0.0
  3
*D12
  1
*D21
  0
LINE
  5
5582
330
557F
100
AcDbEntity
  8
寸法
  6
Continuous
 62
     0
370
    -2
100
AcDbLine
 10
127.1816507401139
 20
148.4628469200378
 30
0.0
 11
127.1816507401139
 21
139.2647026849567
 31
0.0
  0
LINE
  5
5583
330
557F
100
AcDbEntity
  8
寸法
  6
Continuous
 62
     0
370
    -2
100
AcDbLine
 10
134.8812214791989
 20
163.6679425127938
 30
0.0
 11
134.8812214791989
 21
139.2647026849567
 31
0.0
  0
LINE
  5
5584
330
557F
100
AcDbEntity
  8
寸法
  6
Continuous
 62
     0
370
    -2
100
AcDbLine
 10
134.8812214791989
 20
139.2647026849567
 30
0.0
 11
144.9843088333743
 21
139.2647026849567
 31
0.0
  0
LINE
  5
5585
330
557F
100
AcDbEntity
  8
寸法
  6
Continuous
 62
     0
370
    -2
100
AcDbLine
 10
128.6816507401139
 20
139.2647026849567
 30
0.0
 11
133.3812214791989
 21
139.2647026849567
 31
0.0
  0
INSERT
  5
5586
330
557F
100
AcDbEntity
  8
寸法
 62
     0
370
    -2
100
AcDbBlockReference
  2
_DOT
 10
127.1816507401139
 20
139.2647026849567
 30
0.0
 41
1.5
 42
1.5
 43
1.5
 50
180.0
  0
INSERT
  5
5587
330
557F
100
AcDbEntity
  8
寸法
 62
     0
370
    -2
100
AcDbBlockReference
  2
_DOT
 10
134.8812214791989
 20
139.2647026849567
 30
0.0
 41
1.5
 42
1.5
 43
1.5
  0
MTEXT
  5
5588
330
557F
100
AcDbEntity
  8
寸法
  6
Continuous
 62
     0
100
AcDbMText
 10
141.6643088333743
 20
143.7647026849567
 30
0.0
 40
5.0
 41
0.0
 46
0.0
 71
     5
 72
     1
  1
\A1;8
  7
ＭＳ ゴシック
 73
     1
 44
1.0
  0
POINT
  5
5589
330
557F
100
AcDbEntity
  8
Defpoints
 62
     0
100
AcDbPoint
 10
127.1816507401139
 20
153.4628469200378
 30
0.0
  0
POINT
  5
558A
330
557F
100
AcDbEntity
  8
Defpoints
 62
     0
100
AcDbPoint
 10
134.8812214791989
 20
168.6679425127938
 30
0.0
  0
POINT
  5
558B
330
557F
100
AcDbEntity
  8
Defpoints
 62
     0
100
AcDbPoint
 10
134.8812214791989
 20
139.2647026849567
 30
0.0
  0
ENDBLK
  5
5581
330
557F
100
AcDbEntity
  8
0
100
AcDbBlockEnd
  0
BLOCK
  5
562F
330
562E
100
AcDbEntity
  8
0
100
AcDbBlockBegin
  2
*D13
 70
     1
 10
0.0
 20
0.0
 30
0.0
  3
*D13
  1
*D21
  0
LINE
  5
5631
330
562E
100
AcDbEntity
  8
寸法
  6
Continuous
 62
     0
370
    -2
100
AcDbLine
 10
103.9325120145531
 20
372.0686993856673
 30
0.0
 11
103.9325120145531
 21
378.7852477434631
 31
0.0
  0
LINE
  5
5632
330
562E
100
AcDbEntity
  8
寸法
  6
Continuous
 62
     0
370
    -2
100
AcDbLine
 10
112.4325120145531
 20
372.0686993856673
 30
0.0
 11
112.4325120145531
 21
378.7852477434631
 31
0.0
  0
LINE
  5
5633
330
562E
100
AcDbEntity
  8
寸法
  6
Continuous
 62
     0
370
    -2
100
AcDbLine
 10
105.4325120145531
 20
378.7852477434631
 30
0.0
 11
110.9325120145531
 21
378.7852477434631
 31
0.0
  0
INSERT
  5
5634
330
562E
100
AcDbEntity
  8
寸法
 62
     0
370
    -2
100
AcDbBlockReference
  2
_DOT
 10
103.9325120145531
 20
378.7852477434631
 30
0.0
 41
1.5
 42
1.5
 43
1.5
 50
180.0
  0
INSERT
  5
5635
330
562E
100
AcDbEntity
  8
寸法
 62
     0
370
    -2
100
AcDbBlockReference
  2
_DOT
 10
112.4325120145531
 20
378.7852477434631
 30
0.0
 41
1.5
 42
1.5
 43
1.5
  0
MTEXT
  5
5636
330
562E
100
AcDbEntity
  8
寸法
  6
Continuous
 62
     0
100
AcDbMText
 10
108.1825120145531
 20
383.2852477434631
 30
0.0
 40
5.0
 41
0.0
 46
0.0
 71
     5
 72
     1
  1
\A1;8.5
  7
ＭＳ ゴシック
 73
     1
 44
1.0
  0
POINT
  5
5637
330
562E
100
AcDbEntity
  8
Defpoints
 62
     0
100
AcDbPoint
 10
103.9325120145531
 20
367.0686993856673
 30
0.0
  0
POINT
  5
5638
330
562E
100
AcDbEntity
  8
Defpoints
 62
     0
100
AcDbPoint
 10
112.4325120145531
 20
367.0686993856673
 30
0.0
  0
POINT
  5
5639
330
562E
100
AcDbEntity
  8
Defpoints
 62
     0
100
AcDbPoint
 10
112.4325120145531
 20
378.7852477434631
 30
0.0
  0
ENDBLK
  5
5630
330
562E
100
AcDbEntity
  8
0
100
AcDbBlockEnd
  0
BLOCK
  5
5650
330
564F
100
AcDbEntity
  8
0
100
AcDbBlockBegin
  2
*D14
 70
     1
 10
0.0
 20
0.0
 30
0.0
  3
*D14
  1
*D22
  0
LINE
  5
5652
330
564F
100
AcDbEntity
  8
寸法
  6
Continuous
 62
     0
370
    -2
100
AcDbLine
 10
153.7210231602584
 20
354.7335990428101
 30
0.0
 11
169.1440199581582
 21
354.7335990428101
 31
0.0
  0
LINE
  5
5653
330
564F
100
AcDbEntity
  8
寸法
  6
Continuous
 62
     0
370
    -2
100
AcDbLine
 10
159.4759396838725
 20
348.7335990428101
 30
0.0
 11
169.1440199581582
 21
348.7335990428101
 31
0.0
  0
LINE
  5
5654
330
564F
100
AcDbEntity
  8
寸法
  6
Continuous
 62
     0
370
    -2
100
AcDbLine
 10
169.1440199581582
 20
353.2335990428101
 30
0.0
 11
169.1440199581582
 21
350.2335990428101
 31
0.0
  0
INSERT
  5
5655
330
564F
100
AcDbEntity
  8
寸法
 62
     0
370
    -2
100
AcDbBlockReference
  2
_DOT
 10
169.1440199581582
 20
354.7335990428101
 30
0.0
 41
1.5
 42
1.5
 43
1.5
 50
90.0
  0
INSERT
  5
5656
330
564F
100
AcDbEntity
  8
寸法
 62
     0
370
    -2
100
AcDbBlockReference
  2
_DOT
 10
169.1440199581582
 20
348.7335990428101
 30
0.0
 41
1.5
 42
1.5
 43
1.5
 50
270.0
  0
MTEXT
  5
5657
330
564F
100
AcDbEntity
  8
寸法
  6
Continuous
 62
     0
100
AcDbMText
 10
164.6440199581582
 20
351.7335990428101
 30
0.0
 40
5.0
 41
0.0
 46
0.0
 71
     5
 72
     1
  1
\A1;6
  7
ＭＳ ゴシック
 11
0.0
 21
1.0
 31
0.0
 73
     1
 44
1.0
  0
POINT
  5
5658
330
564F
100
AcDbEntity
  8
Defpoints
 62
     0
100
AcDbPoint
 10
148.7210231602584
 20
354.7335990428101
 30
0.0
  0
POINT
  5
5659
330
564F
100
AcDbEntity
  8
Defpoints
 62
     0
100
AcDbPoint
 10
154.4759396838725
 20
348.7335990428101
 30
0.0
  0
POINT
  5
565A
330
564F
100
AcDbEntity
  8
Defpoints
 62
     0
100
AcDbPoint
 10
169.1440199581582
 20
348.7335990428101
 30
0.0
  0
ENDBLK
  5
5651
330
564F
100
AcDbEntity
  8
0
100
AcDbBlockEnd
  0
BLOCK
  5
581E
330
581D
100
AcDbEntity
  8
0
100
AcDbBlockBegin
  2
*D15
 70
     1
 10
0.0
 20
0.0
 30
0.0
  3
*D15
  1

  0
LINE
  5
5820
330
581D
100
AcDbEntity
  8
寸法
  6
Continuous
 62
     0
370
    -2
100
AcDbLine
 10
115.1737631164625
 20
300.4263985691421
 30
0.0
 11
115.1737631164625
 21
255.8727313310151
 31
0.0
  0
LINE
  5
5821
330
581D
100
AcDbEntity
  8
寸法
  6
Continuous
 62
     0
370
    -2
100
AcDbLine
 10
247.1737631164624
 20
274.6080364356354
 30
0.0
 11
247.1737631164624
 21
255.8727313310151
 31
0.0
  0
LINE
  5
5822
330
581D
100
AcDbEntity
  8
寸法
  6
Continuous
 62
     0
370
    -2
100
AcDbLine
 10
116.6737631164625
 20
255.8727313310151
 30
0.0
 11
245.6737631164624
 21
255.8727313310151
 31
0.0
  0
INSERT
  5
5823
330
581D
100
AcDbEntity
  8
寸法
 62
     0
370
    -2
100
AcDbBlockReference
  2
_DOT
 10
115.1737631164625
 20
255.8727313310151
 30
0.0
 41
1.5
 42
1.5
 43
1.5
 50
180.0
  0
INSERT
  5
5824
330
581D
100
AcDbEntity
  8
寸法
 62
     0
370
    -2
100
AcDbBlockReference
  2
_DOT
 10
247.1737631164624
 20
255.8727313310151
 30
0.0
 41
1.5
 42
1.5
 43
1.5
  0
MTEXT
  5
5825
330
581D
100
AcDbEntity
  8
寸法
  6
Continuous
 62
     0
100
AcDbMText
 10
181.1737631164625
 20
260.3727313310151
 30
0.0
 40
5.0
 41
0.0
 46
0.0
 71
     5
 72
     1
  1
\A1;132
  7
ＭＳ ゴシック
 73
     1
 44
1.0
  0
POINT
  5
5826
330
581D
100
AcDbEntity
  8
Defpoints
 62
     0
100
AcDbPoint
 10
115.1737631164625
 20
305.4263985691421
 30
0.0
  0
POINT
  5
5827
330
581D
100
AcDbEntity
  8
Defpoints
 62
     0
100
AcDbPoint
 10
247.1737631164624
 20
279.6080364356354
 30
0.0
  0
POINT
  5
5828
330
581D
100
AcDbEntity
  8
Defpoints
 62
     0
100
AcDbPoint
 10
247.1737631164624
 20
255.8727313310151
 30
0.0
  0
ENDBLK
  5
581F
330
581D
100
AcDbEntity
  8
0
100
AcDbBlockEnd
  0
BLOCK
  5
582D
330
582C
100
AcDbEntity
  8
0
100
AcDbBlockBegin
  2
*D16
 70
     1
 10
0.0
 20
0.0
 30
0.0
  3
*D16
  1

  0
LINE
  5
582F
330
582C
100
AcDbEntity
  8
寸法
  6
Continuous
 62
     0
370
    -2
100
AcDbLine
 10
249.5417968970846
 20
299.0229538105481
 30
0.0
 11
266.6051323327644
 21
299.0229538105481
 31
0.0
  0
LINE
  5
5830
330
582C
100
AcDbEntity
  8
寸法
  6
Continuous
 62
     0
370
    -2
100
AcDbLine
 10
250.6719544081366
 20
279.054910741679
 30
0.0
 11
266.6051323327644
 21
279.054910741679
 31
0.0
  0
LINE
  5
5831
330
582C
100
AcDbEntity
  8
寸法
  6
Continuous
 62
     0
370
    -2
100
AcDbLine
 10
266.6051323327644
 20
297.5229538105481
 30
0.0
 11
266.6051323327644
 21
280.554910741679
 31
0.0
  0
INSERT
  5
5832
330
582C
100
AcDbEntity
  8
寸法
 62
     0
370
    -2
100
AcDbBlockReference
  2
_DOT
 10
266.6051323327644
 20
299.0229538105481
 30
0.0
 41
1.5
 42
1.5
 43
1.5
 50
90.0
  0
INSERT
  5
5833
330
582C
100
AcDbEntity
  8
寸法
 62
     0
370
    -2
100
AcDbBlockReference
  2
_DOT
 10
266.6051323327644
 20
279.054910741679
 30
0.0
 41
1.5
 42
1.5
 43
1.5
 50
270.0
  0
MTEXT
  5
5834
330
582C
100
AcDbEntity
  8
寸法
  6
Continuous
 62
     0
100
AcDbMText
 10
262.1051323327644
 20
289.0389322761135
 30
0.0
 40
5.0
 41
0.0
 46
0.0
 71
     5
 72
     1
  1
\A1;20
  7
ＭＳ ゴシック
 11
0.0
 21
1.0
 31
0.0
 73
     1
 44
1.0
  0
POINT
  5
5835
330
582C
100
AcDbEntity
  8
Defpoints
 62
     0
100
AcDbPoint
 10
244.5417968970846
 20
299.0229538105481
 30
0.0
  0
POINT
  5
5836
330
582C
100
AcDbEntity
  8
Defpoints
 62
     0
100
AcDbPoint
 10
245.6719544081366
 20
279.054910741679
 30
0.0
  0
POINT
  5
5837
330
582C
100
AcDbEntity
  8
Defpoints
 62
     0
100
AcDbPoint
 10
266.6051323327644
 20
279.054910741679
 30
0.0
  0
ENDBLK
  5
582E
330
582C
100
AcDbEntity
  8
0
100
AcDbBlockEnd
  0
BLOCK
  5
583A
330
5839
100
AcDbEntity
  8
0
100
AcDbBlockBegin
  2
*D17
 70
     1
 10
0.0
 20
0.0
 30
0.0
  3
*D17
  1

  0
LINE
  5
583C
330
5839
100
AcDbEntity
  8
寸法
  6
Continuous
 62
     0
370
    -2
100
AcDbLine
 10
137.4823290534529
 20
279.0229538105481
 30
0.0
 11
83.29381077446469
 21
279.0229538105481
 31
0.0
  0
LINE
  5
583D
330
5839
100
AcDbEntity
  8
寸法
  6
Continuous
 62
     0
370
    -2
100
AcDbLine
 10
110.0696620706592
 20
341.0229538105481
 30
0.0
 11
83.29381077446469
 21
341.0229538105481
 31
0.0
  0
LINE
  5
583E
330
5839
100
AcDbEntity
  8
寸法
  6
Continuous
 62
     0
370
    -2
100
AcDbLine
 10
83.29381077446469
 20
280.5229538105481
 30
0.0
 11
83.29381077446469
 21
339.5229538105481
 31
0.0
  0
INSERT
  5
583F
330
5839
100
AcDbEntity
  8
寸法
 62
     0
370
    -2
100
AcDbBlockReference
  2
_DOT
 10
83.29381077446469
 20
279.0229538105481
 30
0.0
 41
1.5
 42
1.5
 43
1.5
 50
270.0
  0
INSERT
  5
5840
330
5839
100
AcDbEntity
  8
寸法
 62
     0
370
    -2
100
AcDbBlockReference
  2
_DOT
 10
83.29381077446469
 20
341.0229538105481
 30
0.0
 41
1.5
 42
1.5
 43
1.5
 50
90.0
  0
MTEXT
  5
5841
330
5839
100
AcDbEntity
  8
寸法
  6
Continuous
 62
     0
100
AcDbMText
 10
78.79381077446469
 20
309.659177143836
 30
0.0
 40
5.0
 41
0.0
 46
0.0
 71
     5
 72
     1
  1
\A1;62
  7
ＭＳ ゴシック
 11
0.0
 21
1.0
 31
0.0
 73
     1
 44
1.0
  0
POINT
  5
5842
330
5839
100
AcDbEntity
  8
Defpoints
 62
     0
100
AcDbPoint
 10
142.4823290534529
 20
279.0229538105481
 30
0.0
  0
POINT
  5
5843
330
5839
100
AcDbEntity
  8
Defpoints
 62
     0
100
AcDbPoint
 10
115.0696620706592
 20
341.0229538105481
 30
0.0
  0
POINT
  5
5844
330
5839
100
AcDbEntity
  8
Defpoints
 62
     0
100
AcDbPoint
 10
83.29381077446469
 20
341.0229538105481
 30
0.0
  0
ENDBLK
  5
583B
330
5839
100
AcDbEntity
  8
0
100
AcDbBlockEnd
  0
BLOCK
  5
5849
330
5848
100
AcDbEntity
  8
0
100
AcDbBlockBegin
  2
*D18
 70
     1
 10
0.0
 20
0.0
 30
0.0
  3
*D18
  1

  0
LINE
  5
584B
330
5848
100
AcDbEntity
  8
寸法
  6
Continuous
 62
     0
370
    -2
100
AcDbLine
 10
126.5909832247272
 20
279.0229538105481
 30
0.0
 11
65.31638713605543
 21
279.0229538105481
 31
0.0
  0
LINE
  5
584C
330
5848
100
AcDbEntity
  8
寸法
  6
Continuous
 62
     0
370
    -2
100
AcDbLine
 10
94.78251201455309
 20
348.7335990428101
 30
0.0
 11
65.31638713605543
 21
348.7335990428101
 31
0.0
  0
LINE
  5
584D
330
5848
100
AcDbEntity
  8
寸法
  6
Continuous
 62
     0
370
    -2
100
AcDbLine
 10
65.31638713605543
 20
280.5229538105481
 30
0.0
 11
65.31638713605543
 21
347.2335990428101
 31
0.0
  0
INSERT
  5
584E
330
5848
100
AcDbEntity
  8
寸法
 62
     0
370
    -2
100
AcDbBlockReference
  2
_DOT
 10
65.31638713605543
 20
279.0229538105481
 30
0.0
 41
1.5
 42
1.5
 43
1.5
 50
270.0
  0
INSERT
  5
584F
330
5848
100
AcDbEntity
  8
寸法
 62
     0
370
    -2
100
AcDbBlockReference
  2
_DOT
 10
65.31638713605543
 20
348.7335990428101
 30
0.0
 41
1.5
 42
1.5
 43
1.5
 50
90.0
  0
MTEXT
  5
5850
330
5848
100
AcDbEntity
  8
寸法
  6
Continuous
 62
     0
100
AcDbMText
 10
60.81638713605543
 20
313.8782764266791
 30
0.0
 40
5.0
 41
0.0
 46
0.0
 71
     5
 72
     1
  1
\A1;70
  7
ＭＳ ゴシック
 11
0.0
 21
1.0
 31
0.0
 73
     1
 44
1.0
  0
POINT
  5
5851
330
5848
100
AcDbEntity
  8
Defpoints
 62
     0
100
AcDbPoint
 10
131.5909832247272
 20
279.0229538105481
 30
0.0
  0
POINT
  5
5852
330
5848
100
AcDbEntity
  8
Defpoints
 62
     0
100
AcDbPoint
 10
99.78251201455309
 20
348.7335990428101
 30
0.0
  0
POINT
  5
5853
330
5848
100
AcDbEntity
  8
Defpoints
 62
     0
100
AcDbPoint
 10
65.31638713605543
 20
348.7335990428101
 30
0.0
  0
ENDBLK
  5
584A
330
5848
100
AcDbEntity
  8
0
100
AcDbBlockEnd
  0
BLOCK
  5
5BAE
330
5BAD
100
AcDbEntity
  8
0
100
AcDbBlockBegin
  2
*D19
 70
     1
 10
0.0
 20
0.0
 30
0.0
  3
*D19
  1

  0
LINE
  5
5BAF
330
5BAD
100
AcDbEntity
  8
DIM
  6
Continuous
 62
     0
370
    -2
100
AcDbLine
 10
35.75
 20
9.58499999999998
 30
0.0
 11
46.31359482494815
 21
9.58499999999998
 31
0.0
  0
LINE
  5
5BB0
330
5BAD
100
AcDbEntity
  8
DIM
  6
Continuous
 62
     0
370
    -2
100
AcDbLine
 10
35.75
 20
11.58499999999998
 30
0.0
 11
46.31359482494815
 21
11.58499999999998
 31
0.0
  0
LINE
  5
5BB1
330
5BAD
100
AcDbEntity
  8
DIM
  6
Continuous
 62
     0
370
    -2
100
AcDbLine
 10
46.31359482494815
 20
9.58499999999998
 30
0.0
 11
46.31359482494815
 21
-0.0000000000000142
 31
0.0
  0
LINE
  5
5BB2
330
5BAD
100
AcDbEntity
  8
DIM
  6
Continuous
 62
     0
370
    -2
100
AcDbLine
 10
46.31359482494815
 20
11.08499999999998
 30
0.0
 11
46.31359482494815
 21
12.58499999999998
 31
0.0
  0
LINE
  5
5BB3
330
5BAD
100
AcDbEntity
  8
DIM
  6
Continuous
 62
     0
370
    -2
100
AcDbLine
 10
46.31359482494815
 20
11.58499999999998
 30
0.0
 11
46.31359482494815
 21
13.08499999999998
 31
0.0
  0
INSERT
  5
5BB4
330
5BAD
100
AcDbEntity
  8
DIM
 62
     0
370
    -2
100
AcDbBlockReference
  2
_DOT
 10
46.31359482494815
 20
9.58499999999998
 30
0.0
 41
1.5
 42
1.5
 43
1.5
 50
270.0
  0
INSERT
  5
5BB5
330
5BAD
100
AcDbEntity
  8
DIM
 62
     0
370
    -2
100
AcDbBlockReference
  2
_DOT
 10
46.31359482494815
 20
11.58499999999998
 30
0.0
 41
1.5
 42
1.5
 43
1.5
 50
90.0
  0
MTEXT
  5
5BB6
330
5BAD
100
AcDbEntity
  8
DIM
  6
Continuous
 62
     0
100
AcDbMText
 10
41.81359482494815
 20
3.292499999999983
 30
0.0
 40
5.0
 41
0.0
 46
0.0
 71
     5
 72
     1
  1
\A1;2
  7
ＭＳ ゴシック
 11
0.0
 21
1.0
 31
0.0
 73
     1
 44
1.0
  0
POINT
  5
5BB7
330
5BAD
100
AcDbEntity
  8
Defpoints
 62
     0
100
AcDbPoint
 10
30.75
 20
9.58499999999998
 30
0.0
  0
POINT
  5
5BB8
330
5BAD
100
AcDbEntity
  8
Defpoints
 62
     0
100
AcDbPoint
 10
30.75
 20
11.58499999999998
 30
0.0
  0
POINT
  5
5BB9
330
5BAD
100
AcDbEntity
  8
Defpoints
 62
     0
100
AcDbPoint
 10
46.31359482494815
 20
11.58499999999998
 30
0.0
  0
ENDBLK
  5
5BBA
330
5BAD
100
AcDbEntity
  8
0
100
AcDbBlockEnd
  0
BLOCK
  5
5BC0
330
5BBF
100
AcDbEntity
  8
0
100
AcDbBlockBegin
  2
*D20
 70
     1
 10
0.0
 20
0.0
 30
0.0
  3
*D20
  1

  0
LINE
  5
5BC1
330
5BBF
100
AcDbEntity
  8
DIM
  6
Continuous
 62
     0
370
    -2
100
AcDbLine
 10
34.25
 20
16.58499999999998
 30
0.0
 11
46.31359482494815
 21
16.58499999999998
 31
0.0
  0
LINE
  5
5BC2
330
5BBF
100
AcDbEntity
  8
DIM
  6
Continuous
 62
     0
370
    -2
100
AcDbLine
 10
35.75
 20
11.58499999999998
 30
0.0
 11
46.31359482494815
 21
11.58499999999998
 31
0.0
  0
LINE
  5
5BC3
330
5BBF
100
AcDbEntity
  8
DIM
  6
Continuous
 62
     0
370
    -2
100
AcDbLine
 10
46.31359482494815
 20
15.08499999999998
 30
0.0
 11
46.31359482494815
 21
13.08499999999998
 31
0.0
  0
INSERT
  5
5BC4
330
5BBF
100
AcDbEntity
  8
DIM
 62
     0
370
    -2
100
AcDbBlockReference
  2
_DOT
 10
46.31359482494815
 20
16.58499999999998
 30
0.0
 41
1.5
 42
1.5
 43
1.5
 50
90.0
  0
INSERT
  5
5BC5
330
5BBF
100
AcDbEntity
  8
DIM
 62
     0
370
    -2
100
AcDbBlockReference
  2
_DOT
 10
46.31359482494815
 20
11.58499999999998
 30
0.0
 41
1.5
 42
1.5
 43
1.5
 50
270.0
  0
MTEXT
  5
5BC6
330
5BBF
100
AcDbEntity
  8
DIM
  6
Continuous
 62
     0
100
AcDbMText
 10
41.81359482494815
 20
14.08499999999998
 30
0.0
 40
5.0
 41
0.0
 46
0.0
 71
     5
 72
     1
  1
\A1;5
  7
ＭＳ ゴシック
 11
0.0
 21
1.0
 31
0.0
 73
     1
 44
1.0
  0
POINT
  5
5BC7
330
5BBF
100
AcDbEntity
  8
Defpoints
 62
     0
100
AcDbPoint
 10
29.25
 20
16.58499999999998
 30
0.0
  0
POINT
  5
5BC8
330
5BBF
100
AcDbEntity
  8
Defpoints
 62
     0
100
AcDbPoint
 10
30.75
 20
11.58499999999998
 30
0.0
  0
POINT
  5
5BC9
330
5BBF
100
AcDbEntity
  8
Defpoints
 62
     0
100
AcDbPoint
 10
46.31359482494815
 20
11.58499999999998
 30
0.0
  0
ENDBLK
  5
5BCA
330
5BBF
100
AcDbEntity
  8
0
100
AcDbBlockEnd
  0
BLOCK
  5
5BD0
330
5BCF
100
AcDbEntity
  8
0
100
AcDbBlockBegin
  2
*D21
 70
     1
 10
0.0
 20
0.0
 30
0.0
  3
*D21
  1

  0
LINE
  5
5BD1
330
5BCF
100
AcDbEntity
  8
DIM
  6
Continuous
 62
     0
370
    -2
100
AcDbLine
 10
0.75
 20
16.58499999999998
 30
0.0
 11
0.75
 21
39.16064690286169
 31
0.0
  0
LINE
  5
5BD2
330
5BCF
100
AcDbEntity
  8
DIM
  6
Continuous
 62
     0
370
    -2
100
AcDbLine
 10
30.75
 20
16.58499999999998
 30
0.0
 11
30.75
 21
39.16064690286169
 31
0.0
  0
LINE
  5
5BD3
330
5BCF
100
AcDbEntity
  8
DIM
  6
Continuous
 62
     0
370
    -2
100
AcDbLine
 10
2.25
 20
39.16064690286169
 30
0.0
 11
29.25
 21
39.16064690286169
 31
0.0
  0
INSERT
  5
5BD4
330
5BCF
100
AcDbEntity
  8
DIM
 62
     0
370
    -2
100
AcDbBlockReference
  2
_DOT
 10
0.75
 20
39.16064690286169
 30
0.0
 41
1.5
 42
1.5
 43
1.5
 50
180.0
  0
INSERT
  5
5BD5
330
5BCF
100
AcDbEntity
  8
DIM
 62
     0
370
    -2
100
AcDbBlockReference
  2
_DOT
 10
30.75
 20
39.16064690286169
 30
0.0
 41
1.5
 42
1.5
 43
1.5
  0
MTEXT
  5
5BD6
330
5BCF
100
AcDbEntity
  8
DIM
  6
Continuous
 62
     0
100
AcDbMText
 10
15.75
 20
43.66064690286169
 30
0.0
 40
5.0
 41
0.0
 46
0.0
 71
     5
 72
     1
  1
\A1;30
  7
ＭＳ ゴシック
 73
     1
 44
1.0
  0
POINT
  5
5BD7
330
5BCF
100
AcDbEntity
  8
Defpoints
 62
     0
100
AcDbPoint
 10
0.75
 20
11.58499999999998
 30
0.0
  0
POINT
  5
5BD8
330
5BCF
100
AcDbEntity
  8
Defpoints
 62
     0
100
AcDbPoint
 10
30.75
 20
11.58499999999998
 30
0.0
  0
POINT
  5
5BD9
330
5BCF
100
AcDbEntity
  8
Defpoints
 62
     0
100
AcDbPoint
 10
30.75
 20
39.16064690286169
 30
0.0
  0
ENDBLK
  5
5BDA
330
5BCF
100
AcDbEntity
  8
0
100
AcDbBlockEnd
  0
BLOCK
  5
5BDF
330
5BDE
100
AcDbEntity
  8
0
100
AcDbBlockBegin
  2
*D22
 70
     1
 10
0.0
 20
0.0
 30
0.0
  3
*D22
  1

  0
LINE
  5
5BE0
330
5BDE
100
AcDbEntity
  8
DIM
  6
Continuous
 62
     0
370
    -2
100
AcDbLine
 10
2.25
 20
21.58499999999992
 30
0.0
 11
2.25
 21
28.85524197486171
 31
0.0
  0
LINE
  5
5BE1
330
5BDE
100
AcDbEntity
  8
DIM
  6
Continuous
 62
     0
370
    -2
100
AcDbLine
 10
29.25
 20
21.58499999999998
 30
0.0
 11
29.25
 21
28.85524197486171
 31
0.0
  0
LINE
  5
5BE2
330
5BDE
100
AcDbEntity
  8
DIM
  6
Continuous
 62
     0
370
    -2
100
AcDbLine
 10
3.75
 20
28.85524197486171
 30
0.0
 11
27.75
 21
28.85524197486171
 31
0.0
  0
INSERT
  5
5BE3
330
5BDE
100
AcDbEntity
  8
DIM
 62
     0
370
    -2
100
AcDbBlockReference
  2
_DOT
 10
2.25
 20
28.85524197486171
 30
0.0
 41
1.5
 42
1.5
 43
1.5
 50
180.0
  0
INSERT
  5
5BE4
330
5BDE
100
AcDbEntity
  8
DIM
 62
     0
370
    -2
100
AcDbBlockReference
  2
_DOT
 10
29.25
 20
28.85524197486171
 30
0.0
 41
1.5
 42
1.5
 43
1.5
  0
MTEXT
  5
5BE5
330
5BDE
100
AcDbEntity
  8
DIM
  6
Continuous
 62
     0
100
AcDbMText
 10
15.75
 20
33.35524197486171
 30
0.0
 40
5.0
 41
0.0
 46
0.0
 71
     5
 72
     1
  1
\A1;27
  7
ＭＳ ゴシック
 73
     1
 44
1.0
  0
POINT
  5
5BE6
330
5BDE
100
AcDbEntity
  8
Defpoints
 62
     0
100
AcDbPoint
 10
2.25
 20
16.58499999999992
 30
0.0
  0
POINT
  5
5BE7
330
5BDE
100
AcDbEntity
  8
Defpoints
 62
     0
100
AcDbPoint
 10
29.25
 20
16.58499999999998
 30
0.0
  0
POINT
  5
5BE8
330
5BDE
100
AcDbEntity
  8
Defpoints
 62
     0
100
AcDbPoint
 10
29.25
 20
28.85524197486171
 30
0.0
  0
ENDBLK
  5
5BE9
330
5BDE
100
AcDbEntity
  8
0
100
AcDbBlockEnd
  0
BLOCK
  5
5BFE
330
5BFD
100
AcDbEntity
  8
0
100
AcDbBlockBegin
  2
*D23
 70
     1
 10
0.0
 20
0.0
 30
0.0
  3
*D23
  1

  0
LINE
  5
5C00
330
5BFD
100
AcDbEntity
  8
DIM
  6
Continuous
 62
     0
370
    -2
100
AcDbLine
 10
147.1737631164623
 20
341.022953810548
 30
0.0
 11
157.7373579414105
 21
341.022953810548
 31
0.0
  0
LINE
  5
5C01
330
5BFD
100
AcDbEntity
  8
DIM
  6
Continuous
 62
     0
370
    -2
100
AcDbLine
 10
147.1737631164623
 20
343.022953810548
 30
0.0
 11
157.7373579414105
 21
343.022953810548
 31
0.0
  0
LINE
  5
5C02
330
5BFD
100
AcDbEntity
  8
DIM
  6
Continuous
 62
     0
370
    -2
100
AcDbLine
 10
157.7373579414105
 20
341.022953810548
 30
0.0
 11
157.7373579414105
 21
331.437953810548
 31
0.0
  0
LINE
  5
5C03
330
5BFD
100
AcDbEntity
  8
DIM
  6
Continuous
 62
     0
370
    -2
100
AcDbLine
 10
157.7373579414105
 20
342.522953810548
 30
0.0
 11
157.7373579414105
 21
344.022953810548
 31
0.0
  0
LINE
  5
5C04
330
5BFD
100
AcDbEntity
  8
DIM
  6
Continuous
 62
     0
370
    -2
100
AcDbLine
 10
157.7373579414105
 20
343.022953810548
 30
0.0
 11
157.7373579414105
 21
344.522953810548
 31
0.0
  0
INSERT
  5
5C05
330
5BFD
100
AcDbEntity
  8
DIM
 62
     0
370
    -2
100
AcDbBlockReference
  2
_DOT
 10
157.7373579414105
 20
341.022953810548
 30
0.0
 41
1.5
 42
1.5
 43
1.5
 50
270.0
  0
INSERT
  5
5C06
330
5BFD
100
AcDbEntity
  8
DIM
 62
     0
370
    -2
100
AcDbBlockReference
  2
_DOT
 10
157.7373579414105
 20
343.022953810548
 30
0.0
 41
1.5
 42
1.5
 43
1.5
 50
90.0
  0
MTEXT
  5
5C07
330
5BFD
100
AcDbEntity
  8
DIM
  6
Continuous
 62
     0
100
AcDbMText
 10
153.2373579414105
 20
334.730453810548
 30
0.0
 40
5.0
 41
0.0
 46
0.0
 71
     5
 72
     1
  1
\A1;2
  7
ＭＳ ゴシック
 11
0.0
 21
1.0
 31
0.0
 73
     1
 44
1.0
  0
POINT
  5
5C08
330
5BFD
100
AcDbEntity
  8
Defpoints
 62
     0
100
AcDbPoint
 10
142.1737631164623
 20
341.022953810548
 30
0.0
  0
POINT
  5
5C09
330
5BFD
100
AcDbEntity
  8
Defpoints
 62
     0
100
AcDbPoint
 10
142.1737631164623
 20
343.022953810548
 30
0.0
  0
POINT
  5
5C0A
330
5BFD
100
AcDbEntity
  8
Defpoints
 62
     0
100
AcDbPoint
 10
157.7373579414105
 20
343.022953810548
 30
0.0
  0
ENDBLK
  5
5BFF
330
5BFD
100
AcDbEntity
  8
0
100
AcDbBlockEnd
  0
BLOCK
  5
5C0C
330
5C0B
100
AcDbEntity
  8
0
100
AcDbBlockBegin
  2
*D24
 70
     1
 10
0.0
 20
0.0
 30
0.0
  3
*D24
  1

  0
LINE
  5
5C0E
330
5C0B
100
AcDbEntity
  8
DIM
  6
Continuous
 62
     0
370
    -2
100
AcDbLine
 10
145.6737631164623
 20
348.022953810548
 30
0.0
 11
157.7373579414105
 21
348.022953810548
 31
0.0
  0
LINE
  5
5C0F
330
5C0B
100
AcDbEntity
  8
DIM
  6
Continuous
 62
     0
370
    -2
100
AcDbLine
 10
147.1737631164623
 20
343.022953810548
 30
0.0
 11
157.7373579414105
 21
343.022953810548
 31
0.0
  0
LINE
  5
5C10
330
5C0B
100
AcDbEntity
  8
DIM
  6
Continuous
 62
     0
370
    -2
100
AcDbLine
 10
157.7373579414105
 20
346.522953810548
 30
0.0
 11
157.7373579414105
 21
344.522953810548
 31
0.0
  0
INSERT
  5
5C11
330
5C0B
100
AcDbEntity
  8
DIM
 62
     0
370
    -2
100
AcDbBlockReference
  2
_DOT
 10
157.7373579414105
 20
348.022953810548
 30
0.0
 41
1.5
 42
1.5
 43
1.5
 50
90.0
  0
INSERT
  5
5C12
330
5C0B
100
AcDbEntity
  8
DIM
 62
     0
370
    -2
100
AcDbBlockReference
  2
_DOT
 10
157.7373579414105
 20
343.022953810548
 30
0.0
 41
1.5
 42
1.5
 43
1.5
 50
270.0
  0
MTEXT
  5
5C13
330
5C0B
100
AcDbEntity
  8
DIM
  6
Continuous
 62
     0
100
AcDbMText
 10
153.2373579414105
 20
345.522953810548
 30
0.0
 40
5.0
 41
0.0
 46
0.0
 71
     5
 72
     1
  1
\A1;5
  7
ＭＳ ゴシック
 11
0.0
 21
1.0
 31
0.0
 73
     1
 44
1.0
  0
POINT
  5
5C14
330
5C0B
100
AcDbEntity
  8
Defpoints
 62
     0
100
AcDbPoint
 10
140.6737631164623
 20
348.022953810548
 30
0.0
  0
POINT
  5
5C15
330
5C0B
100
AcDbEntity
  8
Defpoints
 62
     0
100
AcDbPoint
 10
142.1737631164623
 20
343.022953810548
 30
0.0
  0
POINT
  5
5C16
330
5C0B
100
AcDbEntity
  8
Defpoints
 62
     0
100
AcDbPoint
 10
157.7373579414105
 20
343.022953810548
 30
0.0
  0
ENDBLK
  5
5C0D
330
5C0B
100
AcDbEntity
  8
0
100
AcDbBlockEnd
  0
BLOCK
  5
5C18
330
5C17
100
AcDbEntity
  8
0
100
AcDbBlockBegin
  2
*D25
 70
     1
 10
0.0
 20
0.0
 30
0.0
  3
*D25
  1

  0
LINE
  5
5C1A
330
5C17
100
AcDbEntity
  8
DIM
  6
Continuous
 62
     0
370
    -2
100
AcDbLine
 10
112.1737631164623
 20
348.022953810548
 30
0.0
 11
112.1737631164623
 21
370.5986007134097
 31
0.0
  0
LINE
  5
5C1B
330
5C17
100
AcDbEntity
  8
DIM
  6
Continuous
 62
     0
370
    -2
100
AcDbLine
 10
142.1737631164623
 20
348.022953810548
 30
0.0
 11
142.1737631164623
 21
370.5986007134097
 31
0.0
  0
LINE
  5
5C1C
330
5C17
100
AcDbEntity
  8
DIM
  6
Continuous
 62
     0
370
    -2
100
AcDbLine
 10
113.6737631164623
 20
370.5986007134097
 30
0.0
 11
140.6737631164623
 21
370.5986007134097
 31
0.0
  0
INSERT
  5
5C1D
330
5C17
100
AcDbEntity
  8
DIM
 62
     0
370
    -2
100
AcDbBlockReference
  2
_DOT
 10
112.1737631164623
 20
370.5986007134097
 30
0.0
 41
1.5
 42
1.5
 43
1.5
 50
180.0
  0
INSERT
  5
5C1E
330
5C17
100
AcDbEntity
  8
DIM
 62
     0
370
    -2
100
AcDbBlockReference
  2
_DOT
 10
142.1737631164623
 20
370.5986007134097
 30
0.0
 41
1.5
 42
1.5
 43
1.5
  0
MTEXT
  5
5C1F
330
5C17
100
AcDbEntity
  8
DIM
  6
Continuous
 62
     0
100
AcDbMText
 10
127.1737631164623
 20
375.0986007134097
 30
0.0
 40
5.0
 41
0.0
 46
0.0
 71
     5
 72
     1
  1
\A1;30
  7
ＭＳ ゴシック
 73
     1
 44
1.0
  0
POINT
  5
5C20
330
5C17
100
AcDbEntity
  8
Defpoints
 62
     0
100
AcDbPoint
 10
112.1737631164623
 20
343.022953810548
 30
0.0
  0
POINT
  5
5C21
330
5C17
100
AcDbEntity
  8
Defpoints
 62
     0
100
AcDbPoint
 10
142.1737631164623
 20
343.022953810548
 30
0.0
  0
POINT
  5
5C22
330
5C17
100
AcDbEntity
  8
Defpoints
 62
     0
100
AcDbPoint
 10
142.1737631164623
 20
370.5986007134097
 30
0.0
  0
ENDBLK
  5
5C19
330
5C17
100
AcDbEntity
  8
0
100
AcDbBlockEnd
  0
BLOCK
  5
5C24
330
5C23
100
AcDbEntity
  8
0
100
AcDbBlockBegin
  2
*D26
 70
     1
 10
0.0
 20
0.0
 30
0.0
  3
*D26
  1

  0
LINE
  5
5C26
330
5C23
100
AcDbEntity
  8
DIM
  6
Continuous
 62
     0
370
    -2
100
AcDbLine
 10
113.6737631164623
 20
353.022953810548
 30
0.0
 11
113.6737631164623
 21
360.2931957854098
 31
0.0
  0
LINE
  5
5C27
330
5C23
100
AcDbEntity
  8
DIM
  6
Continuous
 62
     0
370
    -2
100
AcDbLine
 10
140.6737631164623
 20
353.022953810548
 30
0.0
 11
140.6737631164623
 21
360.2931957854098
 31
0.0
  0
LINE
  5
5C28
330
5C23
100
AcDbEntity
  8
DIM
  6
Continuous
 62
     0
370
    -2
100
AcDbLine
 10
115.1737631164623
 20
360.2931957854098
 30
0.0
 11
139.1737631164623
 21
360.2931957854098
 31
0.0
  0
INSERT
  5
5C29
330
5C23
100
AcDbEntity
  8
DIM
 62
     0
370
    -2
100
AcDbBlockReference
  2
_DOT
 10
113.6737631164623
 20
360.2931957854098
 30
0.0
 41
1.5
 42
1.5
 43
1.5
 50
180.0
  0
INSERT
  5
5C2A
330
5C23
100
AcDbEntity
  8
DIM
 62
     0
370
    -2
100
AcDbBlockReference
  2
_DOT
 10
140.6737631164623
 20
360.2931957854098
 30
0.0
 41
1.5
 42
1.5
 43
1.5
  0
MTEXT
  5
5C2B
330
5C23
100
AcDbEntity
  8
DIM
  6
Continuous
 62
     0
100
AcDbMText
 10
127.1737631164623
 20
364.7931957854098
 30
0.0
 40
5.0
 41
0.0
 46
0.0
 71
     5
 72
     1
  1
\A1;27
  7
ＭＳ ゴシック
 73
     1
 44
1.0
  0
POINT
  5
5C2C
330
5C23
100
AcDbEntity
  8
Defpoints
 62
     0
100
AcDbPoint
 10
113.6737631164623
 20
348.022953810548
 30
0.0
  0
POINT
  5
5C2D
330
5C23
100
AcDbEntity
  8
Defpoints
 62
     0
100
AcDbPoint
 10
140.6737631164623
 20
348.022953810548
 30
0.0
  0
POINT
  5
5C2E
330
5C23
100
AcDbEntity
  8
Defpoints
 62
     0
100
AcDbPoint
 10
140.6737631164623
 20
360.2931957854098
 30
0.0
  0
ENDBLK
  5
5C25
330
5C23
100
AcDbEntity
  8
0
100
AcDbBlockEnd
  0
BLOCK
  5
5E03
330
5E02
100
AcDbEntity
  8
0
100
AcDbBlockBegin
  2
*D27
 70
     1
 10
0.0
 20
0.0
 30
0.0
  3
*D27
  1

  0
LINE
  5
5E04
330
5E02
100
AcDbEntity
  8
寸法
  6
Continuous
 62
     0
370
    -2
100
AcDbLine
 10
115.2052558458749
 20
303.794070725264
 30
0.0
 11
115.2052558458749
 21
288.448840151157
 31
0.0
  0
LINE
  5
5E05
330
5E02
100
AcDbEntity
  8
寸法
  6
Continuous
 62
     0
370
    -2
100
AcDbLine
 10
246.199812904345
 20
317.2804763466514
 30
0.0
 11
246.199812904345
 21
288.448840151157
 31
0.0
  0
LINE
  5
5E06
330
5E02
100
AcDbEntity
  8
寸法
  6
Continuous
 62
     0
370
    -2
100
AcDbLine
 10
116.7052558458749
 20
288.448840151157
 30
0.0
 11
244.699812904345
 21
288.448840151157
 31
0.0
  0
INSERT
  5
5E07
330
5E02
100
AcDbEntity
  8
寸法
 62
     0
370
    -2
100
AcDbBlockReference
  2
_DOT
 10
115.2052558458749
 20
288.448840151157
 30
0.0
 41
1.5
 42
1.5
 43
1.5
 50
180.0
  0
INSERT
  5
5E08
330
5E02
100
AcDbEntity
  8
寸法
 62
     0
370
    -2
100
AcDbBlockReference
  2
_DOT
 10
246.199812904345
 20
288.448840151157
 30
0.0
 41
1.5
 42
1.5
 43
1.5
  0
MTEXT
  5
5E09
330
5E02
100
AcDbEntity
  8
寸法
  6
Continuous
 62
     0
100
AcDbMText
 10
180.70253437511
 20
292.948840151157
 30
0.0
 40
5.0
 41
0.0
 46
0.0
 71
     5
 72
     1
  1
\A1;131
  7
ＭＳ ゴシック
 73
     1
 44
1.0
  0
POINT
  5
5E0A
330
5E02
100
AcDbEntity
  8
Defpoints
 62
     0
100
AcDbPoint
 10
115.2052558458749
 20
308.794070725264
 30
0.0
  0
POINT
  5
5E0B
330
5E02
100
AcDbEntity
  8
Defpoints
 62
     0
100
AcDbPoint
 10
246.199812904345
 20
322.2804763466514
 30
0.0
  0
POINT
  5
5E0C
330
5E02
100
AcDbEntity
  8
Defpoints
 62
     0
100
AcDbPoint
 10
246.199812904345
 20
288.448840151157
 30
0.0
  0
ENDBLK
  5
5E0D
330
5E02
100
AcDbEntity
  8
0
100
AcDbBlockEnd
  0
BLOCK
  5
5E10
330
5E0F
100
AcDbEntity
  8
0
100
AcDbBlockBegin
  2
*D28
 70
     1
 10
0.0
 20
0.0
 30
0.0
  3
*D28
  1

  0
LINE
  5
5E11
330
5E0F
100
AcDbEntity
  8
DIM
  6
Continuous
 62
     0
370
    -2
100
AcDbLine
 10
110.2052558458749
 20
367.7311093070652
 30
0.0
 11
88.38178428781589
 21
367.7311093070652
 31
0.0
  0
LINE
  5
5E12
330
5E0F
100
AcDbEntity
  8
DIM
  6
Continuous
 62
     0
370
    -2
100
AcDbLine
 10
110.2052558458761
 20
304.7311093070652
 30
0.0
 11
88.38178428781589
 21
304.7311093070652
 31
0.0
  0
LINE
  5
5E13
330
5E0F
100
AcDbEntity
  8
DIM
  6
Continuous
 62
     0
370
    -2
100
AcDbLine
 10
88.38178428781589
 20
366.2311093070652
 30
0.0
 11
88.38178428781589
 21
306.2311093070652
 31
0.0
  0
INSERT
  5
5E14
330
5E0F
100
AcDbEntity
  8
DIM
 62
     0
370
    -2
100
AcDbBlockReference
  2
_DOT
 10
88.38178428781589
 20
367.7311093070652
 30
0.0
 41
1.5
 42
1.5
 43
1.5
 50
90.0
  0
INSERT
  5
5E15
330
5E0F
100
AcDbEntity
  8
DIM
 62
     0
370
    -2
100
AcDbBlockReference
  2
_DOT
 10
88.38178428781589
 20
304.7311093070652
 30
0.0
 41
1.5
 42
1.5
 43
1.5
 50
270.0
  0
MTEXT
  5
5E16
330
5E0F
100
AcDbEntity
  8
DIM
  6
Continuous
 62
     0
100
AcDbMText
 10
83.88178428781589
 20
336.2311093070652
 30
0.0
 40
5.0
 41
0.0
 46
0.0
 71
     5
 72
     1
  1
\A1;63
  7
ＭＳ ゴシック
 11
0.0
 21
1.0
 31
0.0
 73
     1
 44
1.0
  0
POINT
  5
5E17
330
5E0F
100
AcDbEntity
  8
Defpoints
 62
     0
100
AcDbPoint
 10
115.2052558458749
 20
367.7311093070652
 30
0.0
  0
POINT
  5
5E18
330
5E0F
100
AcDbEntity
  8
Defpoints
 62
     0
100
AcDbPoint
 10
115.2052558458761
 20
304.7311093070652
 30
0.0
  0
POINT
  5
5E19
330
5E0F
100
AcDbEntity
  8
Defpoints
 62
     0
100
AcDbPoint
 10
88.38178428781589
 20
304.7311093070652
 30
0.0
  0
ENDBLK
  5
5E1A
330
5E0F
100
AcDbEntity
  8
0
100
AcDbBlockEnd
  0
BLOCK
  5
5E24
330
5E23
100
AcDbEntity
  8
0
100
AcDbBlockBegin
  2
*D29
 70
     1
 10
0.0
 20
0.0
 30
0.0
  3
*D29
  1

  0
LINE
  5
5E25
330
5E23
100
AcDbEntity
  8
DIM
  6
Continuous
 62
     0
370
    -2
100
AcDbLine
 10
112.2052558458749
 20
370.8996126030653
 30
0.0
 11
112.2052558458749
 21
389.5312692393573
 31
0.0
  0
LINE
  5
5E26
330
5E23
100
AcDbEntity
  8
DIM
  6
Continuous
 62
     0
370
    -2
100
AcDbLine
 10
142.2052558458749
 20
370.8996126030653
 30
0.0
 11
142.2052558458749
 21
389.5312692393573
 31
0.0
  0
LINE
  5
5E27
330
5E23
100
AcDbEntity
  8
DIM
  6
Continuous
 62
     0
370
    -2
100
AcDbLine
 10
113.7052558458749
 20
389.5312692393573
 30
0.0
 11
140.7052558458749
 21
389.5312692393573
 31
0.0
  0
INSERT
  5
5E28
330
5E23
100
AcDbEntity
  8
DIM
 62
     0
370
    -2
100
AcDbBlockReference
  2
_DOT
 10
112.2052558458749
 20
389.5312692393573
 30
0.0
 41
1.5
 42
1.5
 43
1.5
 50
180.0
  0
INSERT
  5
5E29
330
5E23
100
AcDbEntity
  8
DIM
 62
     0
370
    -2
100
AcDbBlockReference
  2
_DOT
 10
142.2052558458749
 20
389.5312692393573
 30
0.0
 41
1.5
 42
1.5
 43
1.5
  0
MTEXT
  5
5E2A
330
5E23
100
AcDbEntity
  8
DIM
  6
Continuous
 62
     0
100
AcDbMText
 10
127.2052558458749
 20
394.0312692393573
 30
0.0
 40
5.0
 41
0.0
 46
0.0
 71
     5
 72
     1
  1
\A1;30
  7
ＭＳ ゴシック
 73
     1
 44
1.0
  0
POINT
  5
5E2B
330
5E23
100
AcDbEntity
  8
Defpoints
 62
     0
100
AcDbPoint
 10
112.2052558458749
 20
365.8996126030653
 30
0.0
  0
POINT
  5
5E2C
330
5E23
100
AcDbEntity
  8
Defpoints
 62
     0
100
AcDbPoint
 10
142.2052558458749
 20
365.8996126030653
 30
0.0
  0
POINT
  5
5E2D
330
5E23
100
AcDbEntity
  8
Defpoints
 62
     0
100
AcDbPoint
 10
142.2052558458749
 20
389.5312692393573
 30
0.0
  0
ENDBLK
  5
5E2E
330
5E23
100
AcDbEntity
  8
0
100
AcDbBlockEnd
  0
BLOCK
  5
5E31
330
5E30
100
AcDbEntity
  8
0
100
AcDbBlockBegin
  2
*D30
 70
     1
 10
0.0
 20
0.0
 30
0.0
  3
*D30
  1

  0
LINE
  5
5E32
330
5E30
100
AcDbEntity
  8
DIM
  6
Continuous
 62
     0
370
    -2
100
AcDbLine
 10
113.7052558458749
 20
377.0886977870651
 30
0.0
 11
113.7052558458749
 21
380.723818774496
 31
0.0
  0
LINE
  5
5E33
330
5E30
100
AcDbEntity
  8
DIM
  6
Continuous
 62
     0
370
    -2
100
AcDbLine
 10
140.7052558458749
 20
377.0886977870652
 30
0.0
 11
140.7052558458749
 21
380.723818774496
 31
0.0
  0
LINE
  5
5E34
330
5E30
100
AcDbEntity
  8
DIM
  6
Continuous
 62
     0
370
    -2
100
AcDbLine
 10
115.2052558458749
 20
380.723818774496
 30
0.0
 11
139.2052558458749
 21
380.723818774496
 31
0.0
  0
INSERT
  5
5E35
330
5E30
100
AcDbEntity
  8
DIM
 62
     0
370
    -2
100
AcDbBlockReference
  2
_DOT
 10
113.7052558458749
 20
380.723818774496
 30
0.0
 41
1.5
 42
1.5
 43
1.5
 50
180.0
  0
INSERT
  5
5E36
330
5E30
100
AcDbEntity
  8
DIM
 62
     0
370
    -2
100
AcDbBlockReference
  2
_DOT
 10
140.7052558458749
 20
380.723818774496
 30
0.0
 41
1.5
 42
1.5
 43
1.5
  0
MTEXT
  5
5E37
330
5E30
100
AcDbEntity
  8
DIM
  6
Continuous
 62
     0
100
AcDbMText
 10
127.2052558458749
 20
385.223818774496
 30
0.0
 40
5.0
 41
0.0
 46
0.0
 71
     5
 72
     1
  1
\A1;27
  7
ＭＳ ゴシック
 73
     1
 44
1.0
  0
POINT
  5
5E38
330
5E30
100
AcDbEntity
  8
Defpoints
 62
     0
100
AcDbPoint
 10
113.7052558458749
 20
372.0886977870651
 30
0.0
  0
POINT
  5
5E39
330
5E30
100
AcDbEntity
  8
Defpoints
 62
     0
100
AcDbPoint
 10
140.7052558458749
 20
372.0886977870652
 30
0.0
  0
POINT
  5
5E3A
330
5E30
100
AcDbEntity
  8
Defpoints
 62
     0
100
AcDbPoint
 10
140.7052558458749
 20
380.723818774496
 30
0.0
  0
ENDBLK
  5
5E3B
330
5E30
100
AcDbEntity
  8
0
100
AcDbBlockEnd
  0
BLOCK
  5
5E40
330
5E3F
100
AcDbEntity
  8
0
100
AcDbBlockBegin
  2
*D31
 70
     1
 10
0.0
 20
0.0
 30
0.0
  3
*D31
  1

  0
LINE
  5
5E41
330
5E3F
100
AcDbEntity
  8
DIM
  6
Continuous
 62
     0
370
    -2
100
AcDbLine
 10
147.2052558458749
 20
367.7311093070652
 30
0.0
 11
157.7688506708239
 21
367.7311093070652
 31
0.0
  0
LINE
  5
5E42
330
5E3F
100
AcDbEntity
  8
DIM
  6
Continuous
 62
     0
370
    -2
100
AcDbLine
 10
147.2052558458749
 20
369.7311093070652
 30
0.0
 11
157.7688506708239
 21
369.7311093070652
 31
0.0
  0
LINE
  5
5E43
330
5E3F
100
AcDbEntity
  8
DIM
  6
Continuous
 62
     0
370
    -2
100
AcDbLine
 10
157.7688506708239
 20
367.7311093070652
 30
0.0
 11
157.7688506708239
 21
358.1461093070652
 31
0.0
  0
LINE
  5
5E44
330
5E3F
100
AcDbEntity
  8
DIM
  6
Continuous
 62
     0
370
    -2
100
AcDbLine
 10
157.7688506708239
 20
369.2311093070652
 30
0.0
 11
157.7688506708239
 21
370.7311093070652
 31
0.0
  0
LINE
  5
5E45
330
5E3F
100
AcDbEntity
  8
DIM
  6
Continuous
 62
     0
370
    -2
100
AcDbLine
 10
157.7688506708239
 20
369.7311093070652
 30
0.0
 11
157.7688506708239
 21
371.2311093070652
 31
0.0
  0
INSERT
  5
5E46
330
5E3F
100
AcDbEntity
  8
DIM
 62
     0
370
    -2
100
AcDbBlockReference
  2
_DOT
 10
157.7688506708239
 20
367.7311093070652
 30
0.0
 41
1.5
 42
1.5
 43
1.5
 50
270.0
  0
INSERT
  5
5E47
330
5E3F
100
AcDbEntity
  8
DIM
 62
     0
370
    -2
100
AcDbBlockReference
  2
_DOT
 10
157.7688506708239
 20
369.7311093070652
 30
0.0
 41
1.5
 42
1.5
 43
1.5
 50
90.0
  0
MTEXT
  5
5E48
330
5E3F
100
AcDbEntity
  8
DIM
  6
Continuous
 62
     0
100
AcDbMText
 10
153.2688506708239
 20
361.4386093070652
 30
0.0
 40
5.0
 41
0.0
 46
0.0
 71
     5
 72
     1
  1
\A1;2
  7
ＭＳ ゴシック
 11
0.0
 21
1.0
 31
0.0
 73
     1
 44
1.0
  0
POINT
  5
5E49
330
5E3F
100
AcDbEntity
  8
Defpoints
 62
     0
100
AcDbPoint
 10
142.2052558458749
 20
367.7311093070652
 30
0.0
  0
POINT
  5
5E4A
330
5E3F
100
AcDbEntity
  8
Defpoints
 62
     0
100
AcDbPoint
 10
142.2052558458749
 20
369.7311093070652
 30
0.0
  0
POINT
  5
5E4B
330
5E3F
100
AcDbEntity
  8
Defpoints
 62
     0
100
AcDbPoint
 10
157.7688506708239
 20
369.7311093070652
 30
0.0
  0
ENDBLK
  5
5E4C
330
5E3F
100
AcDbEntity
  8
0
100
AcDbBlockEnd
  0
BLOCK
  5
5E51
330
5E50
100
AcDbEntity
  8
0
100
AcDbBlockBegin
  2
*D32
 70
     1
 10
0.0
 20
0.0
 30
0.0
  3
*D32
  1

  0
LINE
  5
5E52
330
5E50
100
AcDbEntity
  8
DIM
  6
Continuous
 62
     0
370
    -2
100
AcDbLine
 10
145.7052558458749
 20
374.7311093070652
 30
0.0
 11
157.7688506708239
 21
374.7311093070652
 31
0.0
  0
LINE
  5
5E53
330
5E50
100
AcDbEntity
  8
DIM
  6
Continuous
 62
     0
370
    -2
100
AcDbLine
 10
147.2052558458749
 20
369.7311093070652
 30
0.0
 11
157.7688506708239
 21
369.7311093070652
 31
0.0
  0
LINE
  5
5E54
330
5E50
100
AcDbEntity
  8
DIM
  6
Continuous
 62
     0
370
    -2
100
AcDbLine
 10
157.7688506708239
 20
373.2311093070652
 30
0.0
 11
157.7688506708239
 21
371.2311093070652
 31
0.0
  0
INSERT
  5
5E55
330
5E50
100
AcDbEntity
  8
DIM
 62
     0
370
    -2
100
AcDbBlockReference
  2
_DOT
 10
157.7688506708239
 20
374.7311093070652
 30
0.0
 41
1.5
 42
1.5
 43
1.5
 50
90.0
  0
INSERT
  5
5E56
330
5E50
100
AcDbEntity
  8
DIM
 62
     0
370
    -2
100
AcDbBlockReference
  2
_DOT
 10
157.7688506708239
 20
369.7311093070652
 30
0.0
 41
1.5
 42
1.5
 43
1.5
 50
270.0
  0
MTEXT
  5
5E57
330
5E50
100
AcDbEntity
  8
DIM
  6
Continuous
 62
     0
100
AcDbMText
 10
153.2688506708239
 20
372.2311093070652
 30
0.0
 40
5.0
 41
0.0
 46
0.0
 71
     5
 72
     1
  1
\A1;5
  7
ＭＳ ゴシック
 11
0.0
 21
1.0
 31
0.0
 73
     1
 44
1.0
  0
POINT
  5
5E58
330
5E50
100
AcDbEntity
  8
Defpoints
 62
     0
100
AcDbPoint
 10
140.7052558458749
 20
374.7311093070652
 30
0.0
  0
POINT
  5
5E59
330
5E50
100
AcDbEntity
  8
Defpoints
 62
     0
100
AcDbPoint
 10
142.2052558458749
 20
369.7311093070652
 30
0.0
  0
POINT
  5
5E5A
330
5E50
100
AcDbEntity
  8
Defpoints
 62
     0
100
AcDbPoint
 10
157.7688506708239
 20
369.7311093070652
 30
0.0
  0
ENDBLK
  5
5E5B
330
5E50
100
AcDbEntity
  8
0
100
AcDbBlockEnd
  0
BLOCK
  5
65BD
330
65BC
100
AcDbEntity
  8
0
100
AcDbBlockBegin
  2
*D33
 70
     1
 10
0.0
 20
0.0
 30
0.0
  3
*D33
  1

  0
LINE
  5
65BE
330
65BC
100
AcDbEntity
  8
DIM
  6
Continuous
 62
     0
370
    -2
100
AcDbLine
 10
445.966251147714
 20
280.8029918721453
 30
0.0
 11
427.0193967477139
 21
280.8029918721453
 31
0.0
  0
LINE
  5
65BF
330
65BC
100
AcDbEntity
  8
DIM
  6
Continuous
 62
     0
370
    -2
100
AcDbLine
 10
446.4617033077141
 20
234.800773764971
 30
0.0
 11
427.0193967477139
 21
234.800773764971
 31
0.0
  0
LINE
  5
65C0
330
65BC
100
AcDbEntity
  8
DIM
  6
Continuous
 62
     0
370
    -2
100
AcDbLine
 10
427.0193967477139
 20
279.3029918721453
 30
0.0
 11
427.0193967477139
 21
236.300773764971
 31
0.0
  0
INSERT
  5
65C1
330
65BC
100
AcDbEntity
  8
DIM
 62
     0
370
    -2
100
AcDbBlockReference
  2
_DOT
 10
427.0193967477139
 20
280.8029918721453
 30
0.0
 41
1.5
 42
1.5
 43
1.5
 50
90.0
  0
INSERT
  5
65C2
330
65BC
100
AcDbEntity
  8
DIM
 62
     0
370
    -2
100
AcDbBlockReference
  2
_DOT
 10
427.0193967477139
 20
234.800773764971
 30
0.0
 41
1.5
 42
1.5
 43
1.5
 50
270.0
  0
MTEXT
  5
65C3
330
65BC
100
AcDbEntity
  8
DIM
  6
Continuous
 62
     0
100
AcDbMText
 10
422.5193967477139
 20
257.8018828185581
 30
0.0
 40
5.0
 41
0.0
 46
0.0
 71
     5
 72
     1
  1
\A1;46
  7
ＭＳ ゴシック
 11
0.0
 21
1.0
 31
0.0
 73
     1
 44
1.0
  0
POINT
  5
65C4
330
65BC
100
AcDbEntity
  8
Defpoints
 62
     0
100
AcDbPoint
 10
450.966251147714
 20
280.8029918721453
 30
0.0
  0
POINT
  5
65C5
330
65BC
100
AcDbEntity
  8
Defpoints
 62
     0
100
AcDbPoint
 10
451.4617033077141
 20
234.800773764971
 30
0.0
  0
POINT
  5
65C6
330
65BC
100
AcDbEntity
  8
Defpoints
 62
     0
100
AcDbPoint
 10
427.0193967477139
 20
234.800773764971
 30
0.0
  0
ENDBLK
  5
65C7
330
65BC
100
AcDbEntity
  8
0
100
AcDbBlockEnd
  0
BLOCK
  5
65CA
330
65C9
100
AcDbEntity
  8
0
100
AcDbBlockBegin
  2
*D34
 70
     1
 10
0.0
 20
0.0
 30
0.0
  3
*D34
  1

  0
LINE
  5
65CB
330
65C9
100
AcDbEntity
  8
DIM
  6
Continuous
 62
     0
370
    -2
100
AcDbLine
 10
440.1924624949459
 20
274.813970657557
 30
0.0
 11
440.1924624949457
 21
292.6799827004706
 31
0.0
  0
LINE
  5
65CC
330
65C9
100
AcDbEntity
  8
DIM
  6
Continuous
 62
     0
370
    -2
100
AcDbLine
 10
470.213905632263
 20
274.8139706575571
 30
0.0
 11
470.213905632263
 21
292.6799827004706
 31
0.0
  0
LINE
  5
65CD
330
65C9
100
AcDbEntity
  8
DIM
  6
Continuous
 62
     0
370
    -2
100
AcDbLine
 10
441.6924624949457
 20
292.6799827004706
 30
0.0
 11
468.713905632263
 21
292.6799827004706
 31
0.0
  0
INSERT
  5
65CE
330
65C9
100
AcDbEntity
  8
DIM
 62
     0
370
    -2
100
AcDbBlockReference
  2
_DOT
 10
440.1924624949457
 20
292.6799827004706
 30
0.0
 41
1.5
 42
1.5
 43
1.5
 50
180.0
  0
INSERT
  5
65CF
330
65C9
100
AcDbEntity
  8
DIM
 62
     0
370
    -2
100
AcDbBlockReference
  2
_DOT
 10
470.213905632263
 20
292.6799827004706
 30
0.0
 41
1.5
 42
1.5
 43
1.5
  0
MTEXT
  5
65D0
330
65C9
100
AcDbEntity
  8
DIM
  6
Continuous
 62
     0
100
AcDbMText
 10
455.2031840636043
 20
297.1799827004706
 30
0.0
 40
5.0
 41
0.0
 46
0.0
 71
     5
 72
     1
  1
\A1;30
  7
ＭＳ ゴシック
 73
     1
 44
1.0
  0
POINT
  5
65D1
330
65C9
100
AcDbEntity
  8
Defpoints
 62
     0
100
AcDbPoint
 10
440.1924624949459
 20
269.813970657557
 30
0.0
  0
POINT
  5
65D2
330
65C9
100
AcDbEntity
  8
Defpoints
 62
     0
100
AcDbPoint
 10
470.213905632263
 20
269.8139706575571
 30
0.0
  0
POINT
  5
65D3
330
65C9
100
AcDbEntity
  8
Defpoints
 62
     0
100
AcDbPoint
 10
470.213905632263
 20
292.6799827004706
 30
0.0
  0
ENDBLK
  5
65D4
330
65C9
100
AcDbEntity
  8
0
100
AcDbBlockEnd
  0
BLOCK
  5
662F
330
662E
100
AcDbEntity
  8
0
100
AcDbBlockBegin
  2
*D35
 70
     1
 10
0.0
 20
0.0
 30
0.0
  3
*D35
  1

  0
LINE
  5
6630
330
662E
100
AcDbEntity
  8
DIM
  6
Continuous
 62
     0
370
    -2
100
AcDbLine
 10
460.2208401896139
 20
243.8319252825795
 30
0.0
 11
483.0054908277139
 21
243.8319252825795
 31
0.0
  0
LINE
  5
6631
330
662E
100
AcDbEntity
  8
DIM
  6
Continuous
 62
     0
370
    -2
100
AcDbLine
 10
459.479971916764
 20
271.7718403545366
 30
0.0
 11
483.0054908277139
 21
271.7718403545366
 31
0.0
  0
LINE
  5
6632
330
662E
100
AcDbEntity
  8
DIM
  6
Continuous
 62
     0
370
    -2
100
AcDbLine
 10
483.0054908277139
 20
245.3319252825795
 30
0.0
 11
483.0054908277139
 21
270.2718403545366
 31
0.0
  0
INSERT
  5
6633
330
662E
100
AcDbEntity
  8
DIM
 62
     0
370
    -2
100
AcDbBlockReference
  2
_DOT
 10
483.0054908277139
 20
243.8319252825795
 30
0.0
 41
1.5
 42
1.5
 43
1.5
 50
270.0
  0
INSERT
  5
6634
330
662E
100
AcDbEntity
  8
DIM
 62
     0
370
    -2
100
AcDbBlockReference
  2
_DOT
 10
483.0054908277139
 20
271.7718403545366
 30
0.0
 41
1.5
 42
1.5
 43
1.5
 50
90.0
  0
MTEXT
  5
6635
330
662E
100
AcDbEntity
  8
DIM
  6
Continuous
 62
     0
100
AcDbMText
 10
478.5054908277139
 20
257.801882818558
 30
0.0
 40
5.0
 41
0.0
 46
0.0
 71
     5
 72
     1
  1
\A1;%%c28
  7
ＭＳ ゴシック
 11
0.0
 21
1.0
 31
0.0
 73
     1
 44
1.0
  0
POINT
  5
6636
330
662E
100
AcDbEntity
  8
Defpoints
 62
     0
100
AcDbPoint
 10
455.2208401896139
 20
243.8319252825795
 30
0.0
  0
POINT
  5
6637
330
662E
100
AcDbEntity
  8
Defpoints
 62
     0
100
AcDbPoint
 10
454.479971916764
 20
271.7718403545366
 30
0.0
  0
POINT
  5
6638
330
662E
100
AcDbEntity
  8
Defpoints
 62
     0
100
AcDbPoint
 10
483.0054908277139
 20
271.7718403545366
 30
0.0
  0
ENDBLK
  5
6639
330
662E
100
AcDbEntity
  8
0
100
AcDbBlockEnd
  0
BLOCK
  5
66D2
330
66D1
100
AcDbEntity
  8
0
100
AcDbBlockBegin
  2
*D36
 70
     1
 10
0.0
 20
0.0
 30
0.0
  3
*D36
  1

  0
LINE
  5
66D3
330
66D1
100
AcDbEntity
  8
DIM
  6
Continuous
 62
     0
370
    -2
100
AcDbLine
 10
351.6056162869459
 20
274.813970657557
 30
0.0
 11
351.6056162869457
 21
292.6799827004706
 31
0.0
  0
LINE
  5
66D4
330
66D1
100
AcDbEntity
  8
DIM
  6
Continuous
 62
     0
370
    -2
100
AcDbLine
 10
381.627059424264
 20
274.8139706575571
 30
0.0
 11
381.6270594242639
 21
292.6799827004706
 31
0.0
  0
LINE
  5
66D5
330
66D1
100
AcDbEntity
  8
DIM
  6
Continuous
 62
     0
370
    -2
100
AcDbLine
 10
353.1056162869457
 20
292.6799827004706
 30
0.0
 11
380.1270594242639
 21
292.6799827004706
 31
0.0
  0
INSERT
  5
66D6
330
66D1
100
AcDbEntity
  8
DIM
 62
     0
370
    -2
100
AcDbBlockReference
  2
_DOT
 10
351.6056162869457
 20
292.6799827004706
 30
0.0
 41
1.5
 42
1.5
 43
1.5
 50
180.0
  0
INSERT
  5
66D7
330
66D1
100
AcDbEntity
  8
DIM
 62
     0
370
    -2
100
AcDbBlockReference
  2
_DOT
 10
381.6270594242639
 20
292.6799827004706
 30
0.0
 41
1.5
 42
1.5
 43
1.5
  0
MTEXT
  5
66D8
330
66D1
100
AcDbEntity
  8
DIM
  6
Continuous
 62
     0
100
AcDbMText
 10
366.6163378556048
 20
297.1799827004706
 30
0.0
 40
5.0
 41
0.0
 46
0.0
 71
     5
 72
     1
  1
\A1;30
  7
ＭＳ ゴシック
 73
     1
 44
1.0
  0
POINT
  5
66D9
330
66D1
100
AcDbEntity
  8
Defpoints
 62
     0
100
AcDbPoint
 10
351.6056162869459
 20
269.813970657557
 30
0.0
  0
POINT
  5
66DA
330
66D1
100
AcDbEntity
  8
Defpoints
 62
     0
100
AcDbPoint
 10
381.627059424264
 20
269.8139706575571
 30
0.0
  0
POINT
  5
66DB
330
66D1
100
AcDbEntity
  8
Defpoints
 62
     0
100
AcDbPoint
 10
381.6270594242639
 20
292.6799827004706
 30
0.0
  0
ENDBLK
  5
66DC
330
66D1
100
AcDbEntity
  8
0
100
AcDbBlockEnd
  0
BLOCK
  5
66DF
330
66DE
100
AcDbEntity
  8
0
100
AcDbBlockBegin
  2
*D37
 70
     1
 10
0.0
 20
0.0
 30
0.0
  3
*D37
  1

  0
LINE
  5
66E0
330
66DE
100
AcDbEntity
  8
DIM
  6
Continuous
 62
     0
370
    -2
100
AcDbLine
 10
359.2043203957139
 20
280.8029918721453
 30
0.0
 11
340.257465995714
 21
280.8029918721453
 31
0.0
  0
LINE
  5
66E1
330
66DE
100
AcDbEntity
  8
DIM
  6
Continuous
 62
     0
370
    -2
100
AcDbLine
 10
359.6997725557139
 20
234.800773764971
 30
0.0
 11
340.257465995714
 21
234.800773764971
 31
0.0
  0
LINE
  5
66E2
330
66DE
100
AcDbEntity
  8
DIM
  6
Continuous
 62
     0
370
    -2
100
AcDbLine
 10
340.257465995714
 20
279.3029918721453
 30
0.0
 11
340.257465995714
 21
236.300773764971
 31
0.0
  0
INSERT
  5
66E3
330
66DE
100
AcDbEntity
  8
DIM
 62
     0
370
    -2
100
AcDbBlockReference
  2
_DOT
 10
340.257465995714
 20
280.8029918721453
 30
0.0
 41
1.5
 42
1.5
 43
1.5
 50
90.0
  0
INSERT
  5
66E4
330
66DE
100
AcDbEntity
  8
DIM
 62
     0
370
    -2
100
AcDbBlockReference
  2
_DOT
 10
340.257465995714
 20
234.800773764971
 30
0.0
 41
1.5
 42
1.5
 43
1.5
 50
270.0
  0
MTEXT
  5
66E5
330
66DE
100
AcDbEntity
  8
DIM
  6
Continuous
 62
     0
100
AcDbMText
 10
335.757465995714
 20
257.8018828185581
 30
0.0
 40
5.0
 41
0.0
 46
0.0
 71
     5
 72
     1
  1
\A1;46
  7
ＭＳ ゴシック
 11
0.0
 21
1.0
 31
0.0
 73
     1
 44
1.0
  0
POINT
  5
66E6
330
66DE
100
AcDbEntity
  8
Defpoints
 62
     0
100
AcDbPoint
 10
364.2043203957139
 20
280.8029918721453
 30
0.0
  0
POINT
  5
66E7
330
66DE
100
AcDbEntity
  8
Defpoints
 62
     0
100
AcDbPoint
 10
364.6997725557139
 20
234.800773764971
 30
0.0
  0
POINT
  5
66E8
330
66DE
100
AcDbEntity
  8
Defpoints
 62
     0
100
AcDbPoint
 10
340.257465995714
 20
234.800773764971
 30
0.0
  0
ENDBLK
  5
66E9
330
66DE
100
AcDbEntity
  8
0
100
AcDbBlockEnd
  0
BLOCK
  5
66EE
330
66ED
100
AcDbEntity
  8
0
100
AcDbBlockBegin
  2
*D38
 70
     1
 10
0.0
 20
0.0
 30
0.0
  3
*D38
  1

  0
LINE
  5
66EF
330
66ED
100
AcDbEntity
  8
DIM
  6
Continuous
 62
     0
370
    -2
100
AcDbLine
 10
374.1360273896139
 20
243.8319252825795
 30
0.0
 11
396.9206780277141
 21
243.8319252825795
 31
0.0
  0
LINE
  5
66F0
330
66ED
100
AcDbEntity
  8
DIM
  6
Continuous
 62
     0
370
    -2
100
AcDbLine
 10
373.3951591167649
 20
271.7718403545366
 30
0.0
 11
396.9206780277141
 21
271.7718403545366
 31
0.0
  0
LINE
  5
66F1
330
66ED
100
AcDbEntity
  8
DIM
  6
Continuous
 62
     0
370
    -2
100
AcDbLine
 10
396.9206780277141
 20
245.3319252825795
 30
0.0
 11
396.9206780277141
 21
270.2718403545366
 31
0.0
  0
INSERT
  5
66F2
330
66ED
100
AcDbEntity
  8
DIM
 62
     0
370
    -2
100
AcDbBlockReference
  2
_DOT
 10
396.9206780277141
 20
243.8319252825795
 30
0.0
 41
1.5
 42
1.5
 43
1.5
 50
270.0
  0
INSERT
  5
66F3
330
66ED
100
AcDbEntity
  8
DIM
 62
     0
370
    -2
100
AcDbBlockReference
  2
_DOT
 10
396.9206780277141
 20
271.7718403545366
 30
0.0
 41
1.5
 42
1.5
 43
1.5
 50
90.0
  0
MTEXT
  5
66F4
330
66ED
100
AcDbEntity
  8
DIM
  6
Continuous
 62
     0
100
AcDbMText
 10
392.4206780277141
 20
257.801882818558
 30
0.0
 40
5.0
 41
0.0
 46
0.0
 71
     5
 72
     1
  1
\A1;%%c28
  7
ＭＳ ゴシック
 11
0.0
 21
1.0
 31
0.0
 73
     1
 44
1.0
  0
POINT
  5
66F5
330
66ED
100
AcDbEntity
  8
Defpoints
 62
     0
100
AcDbPoint
 10
369.1360273896139
 20
243.8319252825795
 30
0.0
  0
POINT
  5
66F6
330
66ED
100
AcDbEntity
  8
Defpoints
 62
     0
100
AcDbPoint
 10
368.3951591167649
 20
271.7718403545366
 30
0.0
  0
POINT
  5
66F7
330
66ED
100
AcDbEntity
  8
Defpoints
 62
     0
100
AcDbPoint
 10
396.9206780277141
 20
271.7718403545366
 30
0.0
  0
ENDBLK
  5
66F8
330
66ED
100
AcDbEntity
  8
0
100
AcDbBlockEnd
  0
BLOCK
  5
6755
330
6754
100
AcDbEntity
  8
0
100
AcDbBlockBegin
  2
*D39
 70
     1
 10
0.0
 20
0.0
 30
0.0
  3
*D39
  1

  0
LINE
  5
6756
330
6754
100
AcDbEntity
  8
DIM
  6
Continuous
 62
     0
370
    -2
100
AcDbLine
 10
426.571066821193
 20
338.0642602210067
 30
0.0
 11
426.571066821193
 21
326.5818699660338
 31
0.0
  0
LINE
  5
6757
330
6754
100
AcDbEntity
  8
DIM
  6
Continuous
 62
     0
370
    -2
100
AcDbLine
 10
447.571066821193
 20
349.4794779874068
 30
0.0
 11
447.571066821193
 21
326.5818699660338
 31
0.0
  0
LINE
  5
6758
330
6754
100
AcDbEntity
  8
DIM
  6
Continuous
 62
     0
370
    -2
100
AcDbLine
 10
428.071066821193
 20
326.5818699660338
 30
0.0
 11
446.071066821193
 21
326.5818699660338
 31
0.0
  0
INSERT
  5
6759
330
6754
100
AcDbEntity
  8
DIM
 62
     0
370
    -2
100
AcDbBlockReference
  2
_DOT
 10
426.571066821193
 20
326.5818699660338
 30
0.0
 41
1.5
 42
1.5
 43
1.5
 50
180.0
  0
INSERT
  5
675A
330
6754
100
AcDbEntity
  8
DIM
 62
     0
370
    -2
100
AcDbBlockReference
  2
_DOT
 10
447.571066821193
 20
326.5818699660338
 30
0.0
 41
1.5
 42
1.5
 43
1.5
  0
MTEXT
  5
675B
330
6754
100
AcDbEntity
  8
DIM
  6
Continuous
 62
     0
100
AcDbMText
 10
437.071066821193
 20
331.0818699660338
 30
0.0
 40
5.0
 41
0.0
 46
0.0
 71
     5
 72
     1
  1
\A1;21
  7
ＭＳ ゴシック
 73
     1
 44
1.0
  0
POINT
  5
675C
330
6754
100
AcDbEntity
  8
Defpoints
 62
     0
100
AcDbPoint
 10
426.571066821193
 20
343.0642602210067
 30
0.0
  0
POINT
  5
675D
330
6754
100
AcDbEntity
  8
Defpoints
 62
     0
100
AcDbPoint
 10
447.571066821193
 20
354.4794779874068
 30
0.0
  0
POINT
  5
675E
330
6754
100
AcDbEntity
  8
Defpoints
 62
     0
100
AcDbPoint
 10
447.571066821193
 20
326.5818699660338
 30
0.0
  0
ENDBLK
  5
675F
330
6754
100
AcDbEntity
  8
0
100
AcDbBlockEnd
  0
BLOCK
  5
6762
330
6761
100
AcDbEntity
  8
0
100
AcDbBlockBegin
  2
*D40
 70
     1
 10
0.0
 20
0.0
 30
0.0
  3
*D40
  1

  0
LINE
  5
6763
330
6761
100
AcDbEntity
  8
DIM
  6
Continuous
 62
     0
370
    -2
100
AcDbLine
 10
387.709680192678
 20
338.3179317269268
 30
0.0
 11
387.709680192678
 21
326.5818699660338
 31
0.0
  0
LINE
  5
6764
330
6761
100
AcDbEntity
  8
DIM
  6
Continuous
 62
     0
370
    -2
100
AcDbLine
 10
426.571066821193
 20
338.0642602210067
 30
0.0
 11
426.571066821193
 21
326.5818699660338
 31
0.0
  0
LINE
  5
6765
330
6761
100
AcDbEntity
  8
DIM
  6
Continuous
 62
     0
370
    -2
100
AcDbLine
 10
389.209680192678
 20
326.5818699660338
 30
0.0
 11
425.071066821193
 21
326.5818699660338
 31
0.0
  0
INSERT
  5
6766
330
6761
100
AcDbEntity
  8
DIM
 62
     0
370
    -2
100
AcDbBlockReference
  2
_DOT
 10
387.709680192678
 20
326.5818699660338
 30
0.0
 41
1.5
 42
1.5
 43
1.5
 50
180.0
  0
INSERT
  5
6767
330
6761
100
AcDbEntity
  8
DIM
 62
     0
370
    -2
100
AcDbBlockReference
  2
_DOT
 10
426.571066821193
 20
326.5818699660338
 30
0.0
 41
1.5
 42
1.5
 43
1.5
  0
MTEXT
  5
6768
330
6761
100
AcDbEntity
  8
DIM
  6
Continuous
 62
     0
100
AcDbMText
 10
407.1403735069355
 20
331.0818699660338
 30
0.0
 40
5.0
 41
0.0
 46
0.0
 71
     5
 72
     1
  1
\A1;39-48
  7
ＭＳ ゴシック
 73
     1
 44
1.0
  0
POINT
  5
6769
330
6761
100
AcDbEntity
  8
Defpoints
 62
     0
100
AcDbPoint
 10
387.709680192678
 20
343.3179317269268
 30
0.0
  0
POINT
  5
676A
330
6761
100
AcDbEntity
  8
Defpoints
 62
     0
100
AcDbPoint
 10
426.571066821193
 20
343.0642602210067
 30
0.0
  0
POINT
  5
676B
330
6761
100
AcDbEntity
  8
Defpoints
 62
     0
100
AcDbPoint
 10
426.571066821193
 20
326.5818699660338
 30
0.0
  0
ENDBLK
  5
676C
330
6761
100
AcDbEntity
  8
0
100
AcDbBlockEnd
  0
BLOCK
  5
6771
330
6770
100
AcDbEntity
  8
0
100
AcDbBlockBegin
  2
*D41
 70
     1
 10
0.0
 20
0.0
 30
0.0
  3
*D41
  1

  0
LINE
  5
6772
330
6770
100
AcDbEntity
  8
DIM
  6
Continuous
 62
     0
370
    -2
100
AcDbLine
 10
380.566737855605
 20
344.8133493070652
 30
0.0
 11
367.3429946384861
 21
344.8133493070652
 31
0.0
  0
LINE
  5
6773
330
6770
100
AcDbEntity
  8
DIM
  6
Continuous
 62
     0
370
    -2
100
AcDbLine
 10
380.566737855605
 20
372.7885766310416
 30
0.0
 11
367.3429946384861
 21
372.7885766310416
 31
0.0
  0
LINE
  5
6774
330
6770
100
AcDbEntity
  8
DIM
  6
Continuous
 62
     0
370
    -2
100
AcDbLine
 10
367.3429946384861
 20
346.3133493070652
 30
0.0
 11
367.3429946384861
 21
371.2885766310416
 31
0.0
  0
INSERT
  5
6775
330
6770
100
AcDbEntity
  8
DIM
 62
     0
370
    -2
100
AcDbBlockReference
  2
_DOT
 10
367.3429946384861
 20
344.8133493070652
 30
0.0
 41
1.5
 42
1.5
 43
1.5
 50
270.0
  0
INSERT
  5
6776
330
6770
100
AcDbEntity
  8
DIM
 62
     0
370
    -2
100
AcDbBlockReference
  2
_DOT
 10
367.3429946384861
 20
372.7885766310416
 30
0.0
 41
1.5
 42
1.5
 43
1.5
 50
90.0
  0
MTEXT
  5
6777
330
6770
100
AcDbEntity
  8
DIM
  6
Continuous
 62
     0
100
AcDbMText
 10
362.8429946384861
 20
358.8009629690533
 30
0.0
 40
5.0
 41
0.0
 46
0.0
 71
     5
 72
     1
  1
\A1;%%c28
  7
ＭＳ ゴシック
 11
0.0
 21
1.0
 31
0.0
 73
     1
 44
1.0
  0
POINT
  5
6778
330
6770
100
AcDbEntity
  8
Defpoints
 62
     0
100
AcDbPoint
 10
385.566737855605
 20
344.8133493070652
 30
0.0
  0
POINT
  5
6779
330
6770
100
AcDbEntity
  8
Defpoints
 62
     0
100
AcDbPoint
 10
385.566737855605
 20
372.7885766310416
 30
0.0
  0
POINT
  5
677A
330
6770
100
AcDbEntity
  8
Defpoints
 62
     0
100
AcDbPoint
 10
367.3429946384861
 20
372.7885766310416
 30
0.0
  0
ENDBLK
  5
677B
330
6770
100
AcDbEntity
  8
0
100
AcDbBlockEnd
  0
BLOCK
  5
6780
330
677F
100
AcDbEntity
  8
0
100
AcDbBlockBegin
  2
*D42
 70
     1
 10
0.0
 20
0.0
 30
0.0
  3
*D42
  1

  0
LINE
  5
6781
330
677F
100
AcDbEntity
  8
DIM
  6
Continuous
 62
     0
370
    -2
100
AcDbLine
 10
387.709680192678
 20
338.3179317269268
 30
0.0
 11
387.709680192678
 21
326.5818699660338
 31
0.0
  0
LINE
  5
6782
330
677F
100
AcDbEntity
  8
DIM
  6
Continuous
 62
     0
370
    -2
100
AcDbLine
 10
385.566737855605
 20
339.8133493070652
 30
0.0
 11
385.566737855605
 21
326.5818699660338
 31
0.0
  0
LINE
  5
6783
330
677F
100
AcDbEntity
  8
DIM
  6
Continuous
 62
     0
370
    -2
100
AcDbLine
 10
385.566737855605
 20
326.5818699660338
 30
0.0
 11
375.9817378556049
 21
326.5818699660338
 31
0.0
  0
LINE
  5
6784
330
677F
100
AcDbEntity
  8
DIM
  6
Continuous
 62
     0
370
    -2
100
AcDbLine
 10
387.709680192678
 20
326.5818699660338
 30
0.0
 11
389.209680192678
 21
326.5818699660338
 31
0.0
  0
LINE
  5
6785
330
677F
100
AcDbEntity
  8
DIM
  6
Continuous
 62
     0
370
    -2
100
AcDbLine
 10
387.066737855605
 20
326.5818699660338
 30
0.0
 11
388.566737855605
 21
326.5818699660338
 31
0.0
  0
INSERT
  5
6786
330
677F
100
AcDbEntity
  8
DIM
 62
     0
370
    -2
100
AcDbBlockReference
  2
_DOT
 10
387.709680192678
 20
326.5818699660338
 30
0.0
 41
1.5
 42
1.5
 43
1.5
  0
INSERT
  5
6787
330
677F
100
AcDbEntity
  8
DIM
 62
     0
370
    -2
100
AcDbBlockReference
  2
_DOT
 10
385.566737855605
 20
326.5818699660338
 30
0.0
 41
1.5
 42
1.5
 43
1.5
 50
180.0
  0
MTEXT
  5
6788
330
677F
100
AcDbEntity
  8
DIM
  6
Continuous
 62
     0
100
AcDbMText
 10
379.274237855605
 20
331.0818699660338
 30
0.0
 40
5.0
 41
0.0
 46
0.0
 71
     5
 72
     1
  1
\A1;2
  7
ＭＳ ゴシック
 73
     1
 44
1.0
  0
POINT
  5
6789
330
677F
100
AcDbEntity
  8
Defpoints
 62
     0
100
AcDbPoint
 10
387.709680192678
 20
343.3179317269268
 30
0.0
  0
POINT
  5
678A
330
677F
100
AcDbEntity
  8
Defpoints
 62
     0
100
AcDbPoint
 10
385.566737855605
 20
344.8133493070652
 30
0.0
  0
POINT
  5
678B
330
677F
100
AcDbEntity
  8
Defpoints
 62
     0
100
AcDbPoint
 10
385.566737855605
 20
326.5818699660338
 30
0.0
  0
ENDBLK
  5
678C
330
677F
100
AcDbEntity
  8
0
100
AcDbBlockEnd
  0
BLOCK
  5
67A9
330
67A8
100
AcDbEntity
  8
0
100
AcDbBlockBegin
  2
*D43
 70
     1
 10
0.0
 20
0.0
 30
0.0
  3
*D43
  1

  0
LINE
  5
67AA
330
67A8
100
AcDbEntity
  8
DIM
  6
Continuous
 62
     0
370
    -2
100
AcDbLine
 10
392.8617778556049
 20
106.3543608811946
 30
0.0
 11
378.1068921772101
 21
106.3543608811946
 31
0.0
  0
LINE
  5
67AB
330
67A8
100
AcDbEntity
  8
DIM
  6
Continuous
 62
     0
370
    -2
100
AcDbLine
 10
387.8617778556049
 20
184.3543608811946
 30
0.0
 11
378.1068921772101
 21
184.3543608811946
 31
0.0
  0
LINE
  5
67AC
330
67A8
100
AcDbEntity
  8
DIM
  6
Continuous
 62
     0
370
    -2
100
AcDbLine
 10
378.1068921772101
 20
107.8543608811946
 30
0.0
 11
378.1068921772101
 21
182.8543608811946
 31
0.0
  0
INSERT
  5
67AD
330
67A8
100
AcDbEntity
  8
DIM
 62
     0
370
    -2
100
AcDbBlockReference
  2
_DOT
 10
378.1068921772101
 20
106.3543608811946
 30
0.0
 41
1.5
 42
1.5
 43
1.5
 50
270.0
  0
INSERT
  5
67AE
330
67A8
100
AcDbEntity
  8
DIM
 62
     0
370
    -2
100
AcDbBlockReference
  2
_DOT
 10
378.1068921772101
 20
184.3543608811946
 30
0.0
 41
1.5
 42
1.5
 43
1.5
 50
90.0
  0
MTEXT
  5
67AF
330
67A8
100
AcDbEntity
  8
DIM
  6
Continuous
 62
     0
100
AcDbMText
 10
373.6068921772101
 20
145.3543608811946
 30
0.0
 40
5.0
 41
0.0
 46
0.0
 71
     5
 72
     1
  1
\A1;78
  7
ＭＳ ゴシック
 11
0.0
 21
1.0
 31
0.0
 73
     1
 44
1.0
  0
POINT
  5
67B0
330
67A8
100
AcDbEntity
  8
Defpoints
 62
     0
100
AcDbPoint
 10
397.8617778556049
 20
106.3543608811946
 30
0.0
  0
POINT
  5
67B1
330
67A8
100
AcDbEntity
  8
Defpoints
 62
     0
100
AcDbPoint
 10
392.8617778556049
 20
184.3543608811946
 30
0.0
  0
POINT
  5
67B2
330
67A8
100
AcDbEntity
  8
Defpoints
 62
     0
100
AcDbPoint
 10
378.1068921772101
 20
184.3543608811946
 30
0.0
  0
ENDBLK
  5
67B3
330
67A8
100
AcDbEntity
  8
0
100
AcDbBlockEnd
  0
BLOCK
  5
67B6
330
67B5
100
AcDbEntity
  8
0
100
AcDbBlockBegin
  2
*D44
 70
     1
 10
0.0
 20
0.0
 30
0.0
  3
*D44
  1

  0
LINE
  5
67B7
330
67B5
100
AcDbEntity
  8
DIM
  6
Continuous
 62
     0
370
    -2
100
AcDbLine
 10
452.6706533805159
 20
362.8009629690534
 30
0.0
 11
465.110569412516
 21
362.8009629690534
 31
0.0
  0
LINE
  5
67B8
330
67B5
100
AcDbEntity
  8
DIM
  6
Continuous
 62
     0
370
    -2
100
AcDbLine
 10
452.6706533805159
 20
354.8009629690534
 30
0.0
 11
465.110569412516
 21
354.8009629690534
 31
0.0
  0
LINE
  5
67B9
330
67B5
100
AcDbEntity
  8
DIM
  6
Continuous
 62
     0
370
    -2
100
AcDbLine
 10
465.110569412516
 20
361.3009629690534
 30
0.0
 11
465.110569412516
 21
356.3009629690534
 31
0.0
  0
INSERT
  5
67BA
330
67B5
100
AcDbEntity
  8
DIM
 62
     0
370
    -2
100
AcDbBlockReference
  2
_DOT
 10
465.110569412516
 20
362.8009629690534
 30
0.0
 41
1.5
 42
1.5
 43
1.5
 50
90.0
  0
INSERT
  5
67BB
330
67B5
100
AcDbEntity
  8
DIM
 62
     0
370
    -2
100
AcDbBlockReference
  2
_DOT
 10
465.110569412516
 20
354.8009629690534
 30
0.0
 41
1.5
 42
1.5
 43
1.5
 50
270.0
  0
MTEXT
  5
67BC
330
67B5
100
AcDbEntity
  8
DIM
  6
Continuous
 62
     0
100
AcDbMText
 10
460.610569412516
 20
358.8009629690534
 30
0.0
 40
5.0
 41
0.0
 46
0.0
 71
     5
 72
     1
  1
\A1;8
  7
ＭＳ ゴシック
 11
0.0
 21
1.0
 31
0.0
 73
     1
 44
1.0
  0
POINT
  5
67BD
330
67B5
100
AcDbEntity
  8
Defpoints
 62
     0
100
AcDbPoint
 10
447.6706533805159
 20
362.8009629690534
 30
0.0
  0
POINT
  5
67BE
330
67B5
100
AcDbEntity
  8
Defpoints
 62
     0
100
AcDbPoint
 10
447.6706533805159
 20
354.8009629690534
 30
0.0
  0
POINT
  5
67BF
330
67B5
100
AcDbEntity
  8
Defpoints
 62
     0
100
AcDbPoint
 10
465.110569412516
 20
354.8009629690534
 30
0.0
  0
ENDBLK
  5
67C0
330
67B5
100
AcDbEntity
  8
0
100
AcDbBlockEnd
  0
BLOCK
  5
67C3
330
67C2
100
AcDbEntity
  8
0
100
AcDbBlockBegin
  2
*D45
 70
     1
 10
0.0
 20
0.0
 30
0.0
  3
*D45
  1

  0
LINE
  5
67C4
330
67C2
100
AcDbEntity
  8
DIM
  6
Continuous
 62
     0
370
    -2
100
AcDbLine
 10
203.5368414689249
 20
137.3762358811946
 30
0.0
 11
216.6779115217439
 21
137.3762358811946
 31
0.0
  0
LINE
  5
67C5
330
67C2
100
AcDbEntity
  8
DIM
  6
Continuous
 62
     0
370
    -2
100
AcDbLine
 10
203.5368414689249
 20
110.3762358811945
 30
0.0
 11
216.6779115217439
 21
110.3762358811945
 31
0.0
  0
LINE
  5
67C6
330
67C2
100
AcDbEntity
  8
DIM
  6
Continuous
 62
     0
370
    -2
100
AcDbLine
 10
216.6779115217439
 20
135.8762358811946
 30
0.0
 11
216.6779115217439
 21
111.8762358811945
 31
0.0
  0
INSERT
  5
67C7
330
67C2
100
AcDbEntity
  8
DIM
 62
     0
370
    -2
100
AcDbBlockReference
  2
_DOT
 10
216.6779115217439
 20
137.3762358811946
 30
0.0
 41
1.5
 42
1.5
 43
1.5
 50
90.0
  0
INSERT
  5
67C8
330
67C2
100
AcDbEntity
  8
DIM
 62
     0
370
    -2
100
AcDbBlockReference
  2
_DOT
 10
216.6779115217439
 20
110.3762358811945
 30
0.0
 41
1.5
 42
1.5
 43
1.5
 50
270.0
  0
MTEXT
  5
67C9
330
67C2
100
AcDbEntity
  8
DIM
  6
Continuous
 62
     0
100
AcDbMText
 10
212.1779115217439
 20
123.8762358811945
 30
0.0
 40
5.0
 41
0.0
 46
0.0
 71
     5
 72
     1
  1
\A1;27
  7
ＭＳ ゴシック
 11
0.0
 21
1.0
 31
0.0
 73
     1
 44
1.0
  0
POINT
  5
67CA
330
67C2
100
AcDbEntity
  8
Defpoints
 62
     0
100
AcDbPoint
 10
198.5368414689249
 20
137.3762358811946
 30
0.0
  0
POINT
  5
67CB
330
67C2
100
AcDbEntity
  8
Defpoints
 62
     0
100
AcDbPoint
 10
198.5368414689249
 20
110.3762358811945
 30
0.0
  0
POINT
  5
67CC
330
67C2
100
AcDbEntity
  8
Defpoints
 62
     0
100
AcDbPoint
 10
216.6779115217439
 20
110.3762358811945
 30
0.0
  0
ENDBLK
  5
67CD
330
67C2
100
AcDbEntity
  8
0
100
AcDbBlockEnd
  0
BLOCK
  5
6839
330
6838
100
AcDbEntity
  8
0
100
AcDbBlockBegin
  2
*D46
 70
     1
 10
0.0
 20
0.0
 30
0.0
  3
*D46
  1

  0
LINE
  5
683A
330
6838
100
AcDbEntity
  8
寸法
  6
Continuous
 62
     0
370
    -2
100
AcDbLine
 10
122.204975157907
 20
273.7979650239481
 30
0.0
 11
88.38178428781589
 21
273.7979650239481
 31
0.0
  0
LINE
  5
683B
330
6838
100
AcDbEntity
  8
寸法
  6
Continuous
 62
     0
370
    -2
100
AcDbLine
 10
122.204975157907
 20
243.7979650239481
 30
0.0
 11
88.38178428781589
 21
243.7979650239481
 31
0.0
  0
LINE
  5
683C
330
6838
100
AcDbEntity
  8
寸法
  6
Continuous
 62
     0
370
    -2
100
AcDbLine
 10
88.38178428781589
 20
272.2979650239481
 30
0.0
 11
88.38178428781589
 21
245.2979650239481
 31
0.0
  0
INSERT
  5
683D
330
6838
100
AcDbEntity
  8
寸法
 62
     0
370
    -2
100
AcDbBlockReference
  2
_DOT
 10
88.38178428781589
 20
273.7979650239481
 30
0.0
 41
1.5
 42
1.5
 43
1.5
 50
90.0
  0
INSERT
  5
683E
330
6838
100
AcDbEntity
  8
寸法
 62
     0
370
    -2
100
AcDbBlockReference
  2
_DOT
 10
88.38178428781589
 20
243.7979650239481
 30
0.0
 41
1.5
 42
1.5
 43
1.5
 50
270.0
  0
MTEXT
  5
683F
330
6838
100
AcDbEntity
  8
寸法
  6
Continuous
 62
     0
100
AcDbMText
 10
83.4767842878159
 20
258.7979650239481
 30
0.0
 40
5.0
 41
0.0
 46
0.0
 71
     5
 72
     1
  1
\A1;φ30
  7
ＭＳ ゴシック
 11
0.0
 21
1.0
 31
0.0
 73
     1
 44
1.0
  0
POINT
  5
6840
330
6838
100
AcDbEntity
  8
Defpoints
 62
     0
100
AcDbPoint
 10
127.204975157907
 20
273.7979650239481
 30
0.0
  0
POINT
  5
6841
330
6838
100
AcDbEntity
  8
Defpoints
 62
     0
100
AcDbPoint
 10
127.204975157907
 20
243.7979650239481
 30
0.0
  0
POINT
  5
6842
330
6838
100
AcDbEntity
  8
Defpoints
 62
     0
100
AcDbPoint
 10
88.38178428781589
 20
243.7979650239481
 30
0.0
  0
ENDBLK
  5
6843
330
6838
100
AcDbEntity
  8
0
100
AcDbBlockEnd
  0
BLOCK
  5
7233
330
7232
100
AcDbEntity
  8
0
100
AcDbBlockBegin
  2
*D47
 70
     1
 10
0.0
 20
0.0
 30
0.0
  3
*D47
  1

  0
LINE
  5
7235
330
7232
100
AcDbEntity
  8
寸法
  6
Continuous
 62
     0
370
    -2
100
AcDbLine
 10
115.2052558458749
 20
-116.205929274736
 30
0.0
 11
115.2052558458749
 21
-131.551159848843
 31
0.0
  0
LINE
  5
7236
330
7232
100
AcDbEntity
  8
寸法
  6
Continuous
 62
     0
370
    -2
100
AcDbLine
 10
246.199812904345
 20
-102.7195236533486
 30
0.0
 11
246.199812904345
 21
-131.551159848843
 31
0.0
  0
LINE
  5
7237
330
7232
100
AcDbEntity
  8
寸法
  6
Continuous
 62
     0
370
    -2
100
AcDbLine
 10
116.7052558458749
 20
-131.551159848843
 30
0.0
 11
244.699812904345
 21
-131.551159848843
 31
0.0
  0
INSERT
  5
7238
330
7232
100
AcDbEntity
  8
寸法
 62
     0
370
    -2
100
AcDbBlockReference
  2
_DOT
 10
115.2052558458749
 20
-131.551159848843
 30
0.0
 41
1.5
 42
1.5
 43
1.5
 50
180.0
  0
INSERT
  5
7239
330
7232
100
AcDbEntity
  8
寸法
 62
     0
370
    -2
100
AcDbBlockReference
  2
_DOT
 10
246.199812904345
 20
-131.551159848843
 30
0.0
 41
1.5
 42
1.5
 43
1.5
  0
MTEXT
  5
723A
330
7232
100
AcDbEntity
  8
寸法
  6
Continuous
 62
     0
100
AcDbMText
 10
180.70253437511
 20
-127.051159848843
 30
0.0
 40
5.0
 41
0.0
 46
0.0
 71
     5
 72
     1
  1
\A1;131
  7
ＭＳ ゴシック
 73
     1
 44
1.0
  0
POINT
  5
723B
330
7232
100
AcDbEntity
  8
Defpoints
 62
     0
100
AcDbPoint
 10
115.2052558458749
 20
-111.205929274736
 30
0.0
  0
POINT
  5
723C
330
7232
100
AcDbEntity
  8
Defpoints
 62
     0
100
AcDbPoint
 10
246.199812904345
 20
-97.71952365334863
 30
0.0
  0
POINT
  5
723D
330
7232
100
AcDbEntity
  8
Defpoints
 62
     0
100
AcDbPoint
 10
246.199812904345
 20
-131.551159848843
 30
0.0
  0
ENDBLK
  5
7234
330
7232
100
AcDbEntity
  8
0
100
AcDbBlockEnd
  0
BLOCK
  5
723F
330
723E
100
AcDbEntity
  8
0
100
AcDbBlockBegin
  2
*D48
 70
     1
 10
0.0
 20
0.0
 30
0.0
  3
*D48
  1

  0
LINE
  5
7241
330
723E
100
AcDbEntity
  8
DIM
  6
Continuous
 62
     0
370
    -2
100
AcDbLine
 10
110.2052558458749
 20
-52.2688906929348
 30
0.0
 11
88.38178428781589
 21
-52.2688906929348
 31
0.0
  0
LINE
  5
7242
330
723E
100
AcDbEntity
  8
DIM
  6
Continuous
 62
     0
370
    -2
100
AcDbLine
 10
110.2052558458761
 20
-115.2688906929348
 30
0.0
 11
88.38178428781589
 21
-115.2688906929348
 31
0.0
  0
LINE
  5
7243
330
723E
100
AcDbEntity
  8
DIM
  6
Continuous
 62
     0
370
    -2
100
AcDbLine
 10
88.38178428781589
 20
-53.7688906929348
 30
0.0
 11
88.38178428781589
 21
-113.7688906929348
 31
0.0
  0
INSERT
  5
7244
330
723E
100
AcDbEntity
  8
DIM
 62
     0
370
    -2
100
AcDbBlockReference
  2
_DOT
 10
88.38178428781589
 20
-52.2688906929348
 30
0.0
 41
1.5
 42
1.5
 43
1.5
 50
90.0
  0
INSERT
  5
7245
330
723E
100
AcDbEntity
  8
DIM
 62
     0
370
    -2
100
AcDbBlockReference
  2
_DOT
 10
88.38178428781589
 20
-115.2688906929348
 30
0.0
 41
1.5
 42
1.5
 43
1.5
 50
270.0
  0
MTEXT
  5
7246
330
723E
100
AcDbEntity
  8
DIM
  6
Continuous
 62
     0
100
AcDbMText
 10
83.88178428781589
 20
-83.7688906929348
 30
0.0
 40
5.0
 41
0.0
 46
0.0
 71
     5
 72
     1
  1
\A1;63
  7
ＭＳ ゴシック
 11
0.0
 21
1.0
 31
0.0
 73
     1
 44
1.0
  0
POINT
  5
7247
330
723E
100
AcDbEntity
  8
Defpoints
 62
     0
100
AcDbPoint
 10
115.2052558458749
 20
-52.2688906929348
 30
0.0
  0
POINT
  5
7248
330
723E
100
AcDbEntity
  8
Defpoints
 62
     0
100
AcDbPoint
 10
115.2052558458761
 20
-115.2688906929348
 30
0.0
  0
POINT
  5
7249
330
723E
100
AcDbEntity
  8
Defpoints
 62
     0
100
AcDbPoint
 10
88.38178428781589
 20
-115.2688906929348
 30
0.0
  0
ENDBLK
  5
7240
330
723E
100
AcDbEntity
  8
0
100
AcDbBlockEnd
  0
BLOCK
  5
724B
330
724A
100
AcDbEntity
  8
0
100
AcDbBlockBegin
  2
*D49
 70
     1
 10
0.0
 20
0.0
 30
0.0
  3
*D49
  1

  0
LINE
  5
724D
330
724A
100
AcDbEntity
  8
DIM
  6
Continuous
 62
     0
370
    -2
100
AcDbLine
 10
112.2052558458749
 20
-49.10038739693471
 30
0.0
 11
112.2052558458749
 21
-30.4687307606427
 31
0.0
  0
LINE
  5
724E
330
724A
100
AcDbEntity
  8
DIM
  6
Continuous
 62
     0
370
    -2
100
AcDbLine
 10
142.2052558458749
 20
-49.10038739693471
 30
0.0
 11
142.2052558458749
 21
-30.4687307606427
 31
0.0
  0
LINE
  5
724F
330
724A
100
AcDbEntity
  8
DIM
  6
Continuous
 62
     0
370
    -2
100
AcDbLine
 10
113.7052558458749
 20
-30.4687307606427
 30
0.0
 11
140.7052558458749
 21
-30.4687307606427
 31
0.0
  0
INSERT
  5
7250
330
724A
100
AcDbEntity
  8
DIM
 62
     0
370
    -2
100
AcDbBlockReference
  2
_DOT
 10
112.2052558458749
 20
-30.4687307606427
 30
0.0
 41
1.5
 42
1.5
 43
1.5
 50
180.0
  0
INSERT
  5
7251
330
724A
100
AcDbEntity
  8
DIM
 62
     0
370
    -2
100
AcDbBlockReference
  2
_DOT
 10
142.2052558458749
 20
-30.4687307606427
 30
0.0
 41
1.5
 42
1.5
 43
1.5
  0
MTEXT
  5
7252
330
724A
100
AcDbEntity
  8
DIM
  6
Continuous
 62
     0
100
AcDbMText
 10
127.2052558458749
 20
-25.9687307606427
 30
0.0
 40
5.0
 41
0.0
 46
0.0
 71
     5
 72
     1
  1
\A1;30
  7
ＭＳ ゴシック
 73
     1
 44
1.0
  0
POINT
  5
7253
330
724A
100
AcDbEntity
  8
Defpoints
 62
     0
100
AcDbPoint
 10
112.2052558458749
 20
-54.10038739693471
 30
0.0
  0
POINT
  5
7254
330
724A
100
AcDbEntity
  8
Defpoints
 62
     0
100
AcDbPoint
 10
142.2052558458749
 20
-54.10038739693471
 30
0.0
  0
POINT
  5
7255
330
724A
100
AcDbEntity
  8
Defpoints
 62
     0
100
AcDbPoint
 10
142.2052558458749
 20
-30.4687307606427
 30
0.0
  0
ENDBLK
  5
724C
330
724A
100
AcDbEntity
  8
0
100
AcDbBlockEnd
  0
BLOCK
  5
7257
330
7256
100
AcDbEntity
  8
0
100
AcDbBlockBegin
  2
*D50
 70
     1
 10
0.0
 20
0.0
 30
0.0
  3
*D50
  1

  0
LINE
  5
7259
330
7256
100
AcDbEntity
  8
DIM
  6
Continuous
 62
     0
370
    -2
100
AcDbLine
 10
113.7052558458749
 20
-42.91130221293491
 30
0.0
 11
113.7052558458749
 21
-39.27618122550405
 31
0.0
  0
LINE
  5
725A
330
7256
100
AcDbEntity
  8
DIM
  6
Continuous
 62
     0
370
    -2
100
AcDbLine
 10
140.7052558458749
 20
-42.9113022129348
 30
0.0
 11
140.7052558458749
 21
-39.27618122550405
 31
0.0
  0
LINE
  5
725B
330
7256
100
AcDbEntity
  8
DIM
  6
Continuous
 62
     0
370
    -2
100
AcDbLine
 10
115.2052558458749
 20
-39.27618122550405
 30
0.0
 11
139.2052558458749
 21
-39.27618122550405
 31
0.0
  0
INSERT
  5
725C
330
7256
100
AcDbEntity
  8
DIM
 62
     0
370
    -2
100
AcDbBlockReference
  2
_DOT
 10
113.7052558458749
 20
-39.27618122550405
 30
0.0
 41
1.5
 42
1.5
 43
1.5
 50
180.0
  0
INSERT
  5
725D
330
7256
100
AcDbEntity
  8
DIM
 62
     0
370
    -2
100
AcDbBlockReference
  2
_DOT
 10
140.7052558458749
 20
-39.27618122550405
 30
0.0
 41
1.5
 42
1.5
 43
1.5
  0
MTEXT
  5
725E
330
7256
100
AcDbEntity
  8
DIM
  6
Continuous
 62
     0
100
AcDbMText
 10
127.2052558458749
 20
-34.77618122550405
 30
0.0
 40
5.0
 41
0.0
 46
0.0
 71
     5
 72
     1
  1
\A1;27
  7
ＭＳ ゴシック
 73
     1
 44
1.0
  0
POINT
  5
725F
330
7256
100
AcDbEntity
  8
Defpoints
 62
     0
100
AcDbPoint
 10
113.7052558458749
 20
-47.91130221293491
 30
0.0
  0
POINT
  5
7260
330
7256
100
AcDbEntity
  8
Defpoints
 62
     0
100
AcDbPoint
 10
140.7052558458749
 20
-47.9113022129348
 30
0.0
  0
POINT
  5
7261
330
7256
100
AcDbEntity
  8
Defpoints
 62
     0
100
AcDbPoint
 10
140.7052558458749
 20
-39.27618122550405
 30
0.0
  0
ENDBLK
  5
7258
330
7256
100
AcDbEntity
  8
0
100
AcDbBlockEnd
  0
BLOCK
  5
7263
330
7262
100
AcDbEntity
  8
0
100
AcDbBlockBegin
  2
*D51
 70
     1
 10
0.0
 20
0.0
 30
0.0
  3
*D51
  1

  0
LINE
  5
7265
330
7262
100
AcDbEntity
  8
DIM
  6
Continuous
 62
     0
370
    -2
100
AcDbLine
 10
147.2052558458749
 20
-52.2688906929348
 30
0.0
 11
157.7688506708239
 21
-52.2688906929348
 31
0.0
  0
LINE
  5
7266
330
7262
100
AcDbEntity
  8
DIM
  6
Continuous
 62
     0
370
    -2
100
AcDbLine
 10
147.2052558458749
 20
-50.2688906929348
 30
0.0
 11
157.7688506708239
 21
-50.2688906929348
 31
0.0
  0
LINE
  5
7267
330
7262
100
AcDbEntity
  8
DIM
  6
Continuous
 62
     0
370
    -2
100
AcDbLine
 10
157.7688506708239
 20
-52.2688906929348
 30
0.0
 11
157.7688506708239
 21
-61.85389069293481
 31
0.0
  0
LINE
  5
7268
330
7262
100
AcDbEntity
  8
DIM
  6
Continuous
 62
     0
370
    -2
100
AcDbLine
 10
157.7688506708239
 20
-50.7688906929348
 30
0.0
 11
157.7688506708239
 21
-49.2688906929348
 31
0.0
  0
LINE
  5
7269
330
7262
100
AcDbEntity
  8
DIM
  6
Continuous
 62
     0
370
    -2
100
AcDbLine
 10
157.7688506708239
 20
-50.2688906929348
 30
0.0
 11
157.7688506708239
 21
-48.7688906929348
 31
0.0
  0
INSERT
  5
726A
330
7262
100
AcDbEntity
  8
DIM
 62
     0
370
    -2
100
AcDbBlockReference
  2
_DOT
 10
157.7688506708239
 20
-52.2688906929348
 30
0.0
 41
1.5
 42
1.5
 43
1.5
 50
270.0
  0
INSERT
  5
726B
330
7262
100
AcDbEntity
  8
DIM
 62
     0
370
    -2
100
AcDbBlockReference
  2
_DOT
 10
157.7688506708239
 20
-50.2688906929348
 30
0.0
 41
1.5
 42
1.5
 43
1.5
 50
90.0
  0
MTEXT
  5
726C
330
7262
100
AcDbEntity
  8
DIM
  6
Continuous
 62
     0
100
AcDbMText
 10
153.2688506708239
 20
-58.56139069293482
 30
0.0
 40
5.0
 41
0.0
 46
0.0
 71
     5
 72
     1
  1
\A1;2
  7
ＭＳ ゴシック
 11
0.0
 21
1.0
 31
0.0
 73
     1
 44
1.0
  0
POINT
  5
726D
330
7262
100
AcDbEntity
  8
Defpoints
 62
     0
100
AcDbPoint
 10
142.2052558458749
 20
-52.2688906929348
 30
0.0
  0
POINT
  5
726E
330
7262
100
AcDbEntity
  8
Defpoints
 62
     0
100
AcDbPoint
 10
142.2052558458749
 20
-50.2688906929348
 30
0.0
  0
POINT
  5
726F
330
7262
100
AcDbEntity
  8
Defpoints
 62
     0
100
AcDbPoint
 10
157.7688506708239
 20
-50.2688906929348
 30
0.0
  0
ENDBLK
  5
7264
330
7262
100
AcDbEntity
  8
0
100
AcDbBlockEnd
  0
BLOCK
  5
7271
330
7270
100
AcDbEntity
  8
0
100
AcDbBlockBegin
  2
*D52
 70
     1
 10
0.0
 20
0.0
 30
0.0
  3
*D52
  1

  0
LINE
  5
7273
330
7270
100
AcDbEntity
  8
DIM
  6
Continuous
 62
     0
370
    -2
100
AcDbLine
 10
145.7052558458749
 20
-45.2688906929348
 30
0.0
 11
157.7688506708239
 21
-45.2688906929348
 31
0.0
  0
LINE
  5
7274
330
7270
100
AcDbEntity
  8
DIM
  6
Continuous
 62
     0
370
    -2
100
AcDbLine
 10
147.2052558458749
 20
-50.2688906929348
 30
0.0
 11
157.7688506708239
 21
-50.2688906929348
 31
0.0
  0
LINE
  5
7275
330
7270
100
AcDbEntity
  8
DIM
  6
Continuous
 62
     0
370
    -2
100
AcDbLine
 10
157.7688506708239
 20
-46.7688906929348
 30
0.0
 11
157.7688506708239
 21
-48.7688906929348
 31
0.0
  0
INSERT
  5
7276
330
7270
100
AcDbEntity
  8
DIM
 62
     0
370
    -2
100
AcDbBlockReference
  2
_DOT
 10
157.7688506708239
 20
-45.2688906929348
 30
0.0
 41
1.5
 42
1.5
 43
1.5
 50
90.0
  0
INSERT
  5
7277
330
7270
100
AcDbEntity
  8
DIM
 62
     0
370
    -2
100
AcDbBlockReference
  2
_DOT
 10
157.7688506708239
 20
-50.2688906929348
 30
0.0
 41
1.5
 42
1.5
 43
1.5
 50
270.0
  0
MTEXT
  5
7278
330
7270
100
AcDbEntity
  8
DIM
  6
Continuous
 62
     0
100
AcDbMText
 10
153.2688506708239
 20
-47.7688906929348
 30
0.0
 40
5.0
 41
0.0
 46
0.0
 71
     5
 72
     1
  1
\A1;5
  7
ＭＳ ゴシック
 11
0.0
 21
1.0
 31
0.0
 73
     1
 44
1.0
  0
POINT
  5
7279
330
7270
100
AcDbEntity
  8
Defpoints
 62
     0
100
AcDbPoint
 10
140.7052558458749
 20
-45.2688906929348
 30
0.0
  0
POINT
  5
727A
330
7270
100
AcDbEntity
  8
Defpoints
 62
     0
100
AcDbPoint
 10
142.2052558458749
 20
-50.2688906929348
 30
0.0
  0
POINT
  5
727B
330
7270
100
AcDbEntity
  8
Defpoints
 62
     0
100
AcDbPoint
 10
157.7688506708239
 20
-50.2688906929348
 30
0.0
  0
ENDBLK
  5
7272
330
7270
100
AcDbEntity
  8
0
100
AcDbBlockEnd
  0
BLOCK
  5
727D
330
727C
100
AcDbEntity
  8
0
100
AcDbBlockBegin
  2
*D53
 70
     1
 10
0.0
 20
0.0
 30
0.0
  3
*D53
  1

  0
LINE
  5
727F
330
727C
100
AcDbEntity
  8
DIM
  6
Continuous
 62
     0
370
    -2
100
AcDbLine
 10
445.966251147714
 20
-123.8754081278547
 30
0.0
 11
427.0193967477139
 21
-123.8754081278547
 31
0.0
  0
LINE
  5
7280
330
727C
100
AcDbEntity
  8
DIM
  6
Continuous
 62
     0
370
    -2
100
AcDbLine
 10
446.4617033077141
 20
-169.877626235029
 30
0.0
 11
427.0193967477139
 21
-169.877626235029
 31
0.0
  0
LINE
  5
7281
330
727C
100
AcDbEntity
  8
DIM
  6
Continuous
 62
     0
370
    -2
100
AcDbLine
 10
427.0193967477139
 20
-125.3754081278547
 30
0.0
 11
427.0193967477139
 21
-168.377626235029
 31
0.0
  0
INSERT
  5
7282
330
727C
100
AcDbEntity
  8
DIM
 62
     0
370
    -2
100
AcDbBlockReference
  2
_DOT
 10
427.0193967477139
 20
-123.8754081278547
 30
0.0
 41
1.5
 42
1.5
 43
1.5
 50
90.0
  0
INSERT
  5
7283
330
727C
100
AcDbEntity
  8
DIM
 62
     0
370
    -2
100
AcDbBlockReference
  2
_DOT
 10
427.0193967477139
 20
-169.877626235029
 30
0.0
 41
1.5
 42
1.5
 43
1.5
 50
270.0
  0
MTEXT
  5
7284
330
727C
100
AcDbEntity
  8
DIM
  6
Continuous
 62
     0
100
AcDbMText
 10
422.5193967477139
 20
-146.8765171814419
 30
0.0
 40
5.0
 41
0.0
 46
0.0
 71
     5
 72
     1
  1
\A1;46
  7
ＭＳ ゴシック
 11
0.0
 21
1.0
 31
0.0
 73
     1
 44
1.0
  0
POINT
  5
7285
330
727C
100
AcDbEntity
  8
Defpoints
 62
     0
100
AcDbPoint
 10
450.966251147714
 20
-123.8754081278547
 30
0.0
  0
POINT
  5
7286
330
727C
100
AcDbEntity
  8
Defpoints
 62
     0
100
AcDbPoint
 10
451.4617033077141
 20
-169.877626235029
 30
0.0
  0
POINT
  5
7287
330
727C
100
AcDbEntity
  8
Defpoints
 62
     0
100
AcDbPoint
 10
427.0193967477139
 20
-169.877626235029
 30
0.0
  0
ENDBLK
  5
727E
330
727C
100
AcDbEntity
  8
0
100
AcDbBlockEnd
  0
BLOCK
  5
7289
330
7288
100
AcDbEntity
  8
0
100
AcDbBlockBegin
  2
*D54
 70
     1
 10
0.0
 20
0.0
 30
0.0
  3
*D54
  1

  0
LINE
  5
728B
330
7288
100
AcDbEntity
  8
DIM
  6
Continuous
 62
     0
370
    -2
100
AcDbLine
 10
440.1924624949459
 20
-129.864429342443
 30
0.0
 11
440.1924624949459
 21
-111.9984172995294
 31
0.0
  0
LINE
  5
728C
330
7288
100
AcDbEntity
  8
DIM
  6
Continuous
 62
     0
370
    -2
100
AcDbLine
 10
470.213905632263
 20
-129.8644293424429
 30
0.0
 11
470.2139056322629
 21
-111.9984172995294
 31
0.0
  0
LINE
  5
728D
330
7288
100
AcDbEntity
  8
DIM
  6
Continuous
 62
     0
370
    -2
100
AcDbLine
 10
441.6924624949459
 20
-111.9984172995294
 30
0.0
 11
468.7139056322629
 21
-111.9984172995294
 31
0.0
  0
INSERT
  5
728E
330
7288
100
AcDbEntity
  8
DIM
 62
     0
370
    -2
100
AcDbBlockReference
  2
_DOT
 10
440.1924624949459
 20
-111.9984172995294
 30
0.0
 41
1.5
 42
1.5
 43
1.5
 50
180.0
  0
INSERT
  5
728F
330
7288
100
AcDbEntity
  8
DIM
 62
     0
370
    -2
100
AcDbBlockReference
  2
_DOT
 10
470.2139056322629
 20
-111.9984172995294
 30
0.0
 41
1.5
 42
1.5
 43
1.5
  0
MTEXT
  5
7290
330
7288
100
AcDbEntity
  8
DIM
  6
Continuous
 62
     0
100
AcDbMText
 10
455.2031840636044
 20
-107.4984172995294
 30
0.0
 40
5.0
 41
0.0
 46
0.0
 71
     5
 72
     1
  1
\A1;30
  7
ＭＳ ゴシック
 73
     1
 44
1.0
  0
POINT
  5
7291
330
7288
100
AcDbEntity
  8
Defpoints
 62
     0
100
AcDbPoint
 10
440.1924624949459
 20
-134.864429342443
 30
0.0
  0
POINT
  5
7292
330
7288
100
AcDbEntity
  8
Defpoints
 62
     0
100
AcDbPoint
 10
470.213905632263
 20
-134.8644293424429
 30
0.0
  0
POINT
  5
7293
330
7288
100
AcDbEntity
  8
Defpoints
 62
     0
100
AcDbPoint
 10
470.2139056322629
 20
-111.9984172995294
 30
0.0
  0
ENDBLK
  5
728A
330
7288
100
AcDbEntity
  8
0
100
AcDbBlockEnd
  0
BLOCK
  5
7295
330
7294
100
AcDbEntity
  8
0
100
AcDbBlockBegin
  2
*D55
 70
     1
 10
0.0
 20
0.0
 30
0.0
  3
*D55
  1

  0
LINE
  5
7297
330
7294
100
AcDbEntity
  8
DIM
  6
Continuous
 62
     0
370
    -2
100
AcDbLine
 10
460.2208401896139
 20
-160.8464747174205
 30
0.0
 11
483.0054908277139
 21
-160.8464747174205
 31
0.0
  0
LINE
  5
7298
330
7294
100
AcDbEntity
  8
DIM
  6
Continuous
 62
     0
370
    -2
100
AcDbLine
 10
459.479971916764
 20
-132.9065596454634
 30
0.0
 11
483.0054908277139
 21
-132.9065596454634
 31
0.0
  0
LINE
  5
7299
330
7294
100
AcDbEntity
  8
DIM
  6
Continuous
 62
     0
370
    -2
100
AcDbLine
 10
483.0054908277139
 20
-159.3464747174205
 30
0.0
 11
483.0054908277139
 21
-134.4065596454634
 31
0.0
  0
INSERT
  5
729A
330
7294
100
AcDbEntity
  8
DIM
 62
     0
370
    -2
100
AcDbBlockReference
  2
_DOT
 10
483.0054908277139
 20
-160.8464747174205
 30
0.0
 41
1.5
 42
1.5
 43
1.5
 50
270.0
  0
INSERT
  5
729B
330
7294
100
AcDbEntity
  8
DIM
 62
     0
370
    -2
100
AcDbBlockReference
  2
_DOT
 10
483.0054908277139
 20
-132.9065596454634
 30
0.0
 41
1.5
 42
1.5
 43
1.5
 50
90.0
  0
MTEXT
  5
729C
330
7294
100
AcDbEntity
  8
DIM
  6
Continuous
 62
     0
100
AcDbMText
 10
478.5054908277139
 20
-146.876517181442
 30
0.0
 40
5.0
 41
0.0
 46
0.0
 71
     5
 72
     1
  1
\A1;%%c28
  7
ＭＳ ゴシック
 11
0.0
 21
1.0
 31
0.0
 73
     1
 44
1.0
  0
POINT
  5
729D
330
7294
100
AcDbEntity
  8
Defpoints
 62
     0
100
AcDbPoint
 10
455.2208401896139
 20
-160.8464747174205
 30
0.0
  0
POINT
  5
729E
330
7294
100
AcDbEntity
  8
Defpoints
 62
     0
100
AcDbPoint
 10
454.479971916764
 20
-132.9065596454634
 30
0.0
  0
POINT
  5
729F
330
7294
100
AcDbEntity
  8
Defpoints
 62
     0
100
AcDbPoint
 10
483.0054908277139
 20
-132.9065596454634
 30
0.0
  0
ENDBLK
  5
7296
330
7294
100
AcDbEntity
  8
0
100
AcDbBlockEnd
  0
BLOCK
  5
72A1
330
72A0
100
AcDbEntity
  8
0
100
AcDbBlockBegin
  2
*D56
 70
     1
 10
0.0
 20
0.0
 30
0.0
  3
*D56
  1

  0
LINE
  5
72A3
330
72A0
100
AcDbEntity
  8
DIM
  6
Continuous
 62
     0
370
    -2
100
AcDbLine
 10
351.6056162869459
 20
-129.864429342443
 30
0.0
 11
351.6056162869459
 21
-111.9984172995294
 31
0.0
  0
LINE
  5
72A4
330
72A0
100
AcDbEntity
  8
DIM
  6
Continuous
 62
     0
370
    -2
100
AcDbLine
 10
381.627059424264
 20
-129.8644293424429
 30
0.0
 11
381.627059424264
 21
-111.9984172995294
 31
0.0
  0
LINE
  5
72A5
330
72A0
100
AcDbEntity
  8
DIM
  6
Continuous
 62
     0
370
    -2
100
AcDbLine
 10
353.1056162869459
 20
-111.9984172995294
 30
0.0
 11
380.127059424264
 21
-111.9984172995294
 31
0.0
  0
INSERT
  5
72A6
330
72A0
100
AcDbEntity
  8
DIM
 62
     0
370
    -2
100
AcDbBlockReference
  2
_DOT
 10
351.6056162869459
 20
-111.9984172995294
 30
0.0
 41
1.5
 42
1.5
 43
1.5
 50
180.0
  0
INSERT
  5
72A7
330
72A0
100
AcDbEntity
  8
DIM
 62
     0
370
    -2
100
AcDbBlockReference
  2
_DOT
 10
381.627059424264
 20
-111.9984172995294
 30
0.0
 41
1.5
 42
1.5
 43
1.5
  0
MTEXT
  5
72A8
330
72A0
100
AcDbEntity
  8
DIM
  6
Continuous
 62
     0
100
AcDbMText
 10
366.6163378556049
 20
-107.4984172995294
 30
0.0
 40
5.0
 41
0.0
 46
0.0
 71
     5
 72
     1
  1
\A1;30
  7
ＭＳ ゴシック
 73
     1
 44
1.0
  0
POINT
  5
72A9
330
72A0
100
AcDbEntity
  8
Defpoints
 62
     0
100
AcDbPoint
 10
351.6056162869459
 20
-134.864429342443
 30
0.0
  0
POINT
  5
72AA
330
72A0
100
AcDbEntity
  8
Defpoints
 62
     0
100
AcDbPoint
 10
381.627059424264
 20
-134.8644293424429
 30
0.0
  0
POINT
  5
72AB
330
72A0
100
AcDbEntity
  8
Defpoints
 62
     0
100
AcDbPoint
 10
381.627059424264
 20
-111.9984172995294
 30
0.0
  0
ENDBLK
  5
72A2
330
72A0
100
AcDbEntity
  8
0
100
AcDbBlockEnd
  0
BLOCK
  5
72AD
330
72AC
100
AcDbEntity
  8
0
100
AcDbBlockBegin
  2
*D57
 70
     1
 10
0.0
 20
0.0
 30
0.0
  3
*D57
  1

  0
LINE
  5
72AF
330
72AC
100
AcDbEntity
  8
DIM
  6
Continuous
 62
     0
370
    -2
100
AcDbLine
 10
359.2043203957139
 20
-123.8754081278547
 30
0.0
 11
340.257465995714
 21
-123.8754081278547
 31
0.0
  0
LINE
  5
72B0
330
72AC
100
AcDbEntity
  8
DIM
  6
Continuous
 62
     0
370
    -2
100
AcDbLine
 10
359.6997725557139
 20
-169.877626235029
 30
0.0
 11
340.257465995714
 21
-169.877626235029
 31
0.0
  0
LINE
  5
72B1
330
72AC
100
AcDbEntity
  8
DIM
  6
Continuous
 62
     0
370
    -2
100
AcDbLine
 10
340.257465995714
 20
-125.3754081278547
 30
0.0
 11
340.257465995714
 21
-168.377626235029
 31
0.0
  0
INSERT
  5
72B2
330
72AC
100
AcDbEntity
  8
DIM
 62
     0
370
    -2
100
AcDbBlockReference
  2
_DOT
 10
340.257465995714
 20
-123.8754081278547
 30
0.0
 41
1.5
 42
1.5
 43
1.5
 50
90.0
  0
INSERT
  5
72B3
330
72AC
100
AcDbEntity
  8
DIM
 62
     0
370
    -2
100
AcDbBlockReference
  2
_DOT
 10
340.257465995714
 20
-169.877626235029
 30
0.0
 41
1.5
 42
1.5
 43
1.5
 50
270.0
  0
MTEXT
  5
72B4
330
72AC
100
AcDbEntity
  8
DIM
  6
Continuous
 62
     0
100
AcDbMText
 10
335.757465995714
 20
-146.8765171814419
 30
0.0
 40
5.0
 41
0.0
 46
0.0
 71
     5
 72
     1
  1
\A1;46
  7
ＭＳ ゴシック
 11
0.0
 21
1.0
 31
0.0
 73
     1
 44
1.0
  0
POINT
  5
72B5
330
72AC
100
AcDbEntity
  8
Defpoints
 62
     0
100
AcDbPoint
 10
364.2043203957139
 20
-123.8754081278547
 30
0.0
  0
POINT
  5
72B6
330
72AC
100
AcDbEntity
  8
Defpoints
 62
     0
100
AcDbPoint
 10
364.6997725557139
 20
-169.877626235029
 30
0.0
  0
POINT
  5
72B7
330
72AC
100
AcDbEntity
  8
Defpoints
 62
     0
100
AcDbPoint
 10
340.257465995714
 20
-169.877626235029
 30
0.0
  0
ENDBLK
  5
72AE
330
72AC
100
AcDbEntity
  8
0
100
AcDbBlockEnd
  0
BLOCK
  5
72B9
330
72B8
100
AcDbEntity
  8
0
100
AcDbBlockBegin
  2
*D58
 70
     1
 10
0.0
 20
0.0
 30
0.0
  3
*D58
  1

  0
LINE
  5
72BB
330
72B8
100
AcDbEntity
  8
DIM
  6
Continuous
 62
     0
370
    -2
100
AcDbLine
 10
374.1360273896139
 20
-160.8464747174205
 30
0.0
 11
396.9206780277141
 21
-160.8464747174205
 31
0.0
  0
LINE
  5
72BC
330
72B8
100
AcDbEntity
  8
DIM
  6
Continuous
 62
     0
370
    -2
100
AcDbLine
 10
373.3951591167649
 20
-132.9065596454634
 30
0.0
 11
396.9206780277141
 21
-132.9065596454634
 31
0.0
  0
LINE
  5
72BD
330
72B8
100
AcDbEntity
  8
DIM
  6
Continuous
 62
     0
370
    -2
100
AcDbLine
 10
396.9206780277141
 20
-159.3464747174205
 30
0.0
 11
396.9206780277141
 21
-134.4065596454634
 31
0.0
  0
INSERT
  5
72BE
330
72B8
100
AcDbEntity
  8
DIM
 62
     0
370
    -2
100
AcDbBlockReference
  2
_DOT
 10
396.9206780277141
 20
-160.8464747174205
 30
0.0
 41
1.5
 42
1.5
 43
1.5
 50
270.0
  0
INSERT
  5
72BF
330
72B8
100
AcDbEntity
  8
DIM
 62
     0
370
    -2
100
AcDbBlockReference
  2
_DOT
 10
396.9206780277141
 20
-132.9065596454634
 30
0.0
 41
1.5
 42
1.5
 43
1.5
 50
90.0
  0
MTEXT
  5
72C0
330
72B8
100
AcDbEntity
  8
DIM
  6
Continuous
 62
     0
100
AcDbMText
 10
392.4206780277141
 20
-146.876517181442
 30
0.0
 40
5.0
 41
0.0
 46
0.0
 71
     5
 72
     1
  1
\A1;%%c28
  7
ＭＳ ゴシック
 11
0.0
 21
1.0
 31
0.0
 73
     1
 44
1.0
  0
POINT
  5
72C1
330
72B8
100
AcDbEntity
  8
Defpoints
 62
     0
100
AcDbPoint
 10
369.1360273896139
 20
-160.8464747174205
 30
0.0
  0
POINT
  5
72C2
330
72B8
100
AcDbEntity
  8
Defpoints
 62
     0
100
AcDbPoint
 10
368.3951591167649
 20
-132.9065596454634
 30
0.0
  0
POINT
  5
72C3
330
72B8
100
AcDbEntity
  8
Defpoints
 62
     0
100
AcDbPoint
 10
396.9206780277141
 20
-132.9065596454634
 30
0.0
  0
ENDBLK
  5
72BA
330
72B8
100
AcDbEntity
  8
0
100
AcDbBlockEnd
  0
BLOCK
  5
72C5
330
72C4
100
AcDbEntity
  8
0
100
AcDbBlockBegin
  2
*D59
 70
     1
 10
0.0
 20
0.0
 30
0.0
  3
*D59
  1

  0
LINE
  5
72C7
330
72C4
100
AcDbEntity
  8
DIM
  6
Continuous
 62
     0
370
    -2
100
AcDbLine
 10
426.571066821193
 20
-66.61413977899326
 30
0.0
 11
426.571066821193
 21
-78.09653003396625
 31
0.0
  0
LINE
  5
72C8
330
72C4
100
AcDbEntity
  8
DIM
  6
Continuous
 62
     0
370
    -2
100
AcDbLine
 10
447.571066821193
 20
-55.19892201259324
 30
0.0
 11
447.571066821193
 21
-78.09653003396625
 31
0.0
  0
LINE
  5
72C9
330
72C4
100
AcDbEntity
  8
DIM
  6
Continuous
 62
     0
370
    -2
100
AcDbLine
 10
428.071066821193
 20
-78.09653003396625
 30
0.0
 11
446.071066821193
 21
-78.09653003396625
 31
0.0
  0
INSERT
  5
72CA
330
72C4
100
AcDbEntity
  8
DIM
 62
     0
370
    -2
100
AcDbBlockReference
  2
_DOT
 10
426.571066821193
 20
-78.09653003396625
 30
0.0
 41
1.5
 42
1.5
 43
1.5
 50
180.0
  0
INSERT
  5
72CB
330
72C4
100
AcDbEntity
  8
DIM
 62
     0
370
    -2
100
AcDbBlockReference
  2
_DOT
 10
447.571066821193
 20
-78.09653003396625
 30
0.0
 41
1.5
 42
1.5
 43
1.5
  0
MTEXT
  5
72CC
330
72C4
100
AcDbEntity
  8
DIM
  6
Continuous
 62
     0
100
AcDbMText
 10
437.071066821193
 20
-73.59653003396625
 30
0.0
 40
5.0
 41
0.0
 46
0.0
 71
     5
 72
     1
  1
\A1;21
  7
ＭＳ ゴシック
 73
     1
 44
1.0
  0
POINT
  5
72CD
330
72C4
100
AcDbEntity
  8
Defpoints
 62
     0
100
AcDbPoint
 10
426.571066821193
 20
-61.61413977899326
 30
0.0
  0
POINT
  5
72CE
330
72C4
100
AcDbEntity
  8
Defpoints
 62
     0
100
AcDbPoint
 10
447.571066821193
 20
-50.19892201259324
 30
0.0
  0
POINT
  5
72CF
330
72C4
100
AcDbEntity
  8
Defpoints
 62
     0
100
AcDbPoint
 10
447.571066821193
 20
-78.09653003396625
 30
0.0
  0
ENDBLK
  5
72C6
330
72C4
100
AcDbEntity
  8
0
100
AcDbBlockEnd
  0
BLOCK
  5
72D1
330
72D0
100
AcDbEntity
  8
0
100
AcDbBlockBegin
  2
*D60
 70
     1
 10
0.0
 20
0.0
 30
0.0
  3
*D60
  1

  0
LINE
  5
72D3
330
72D0
100
AcDbEntity
  8
DIM
  6
Continuous
 62
     0
370
    -2
100
AcDbLine
 10
387.709680192678
 20
-66.36046827307325
 30
0.0
 11
387.709680192678
 21
-78.09653003396625
 31
0.0
  0
LINE
  5
72D4
330
72D0
100
AcDbEntity
  8
DIM
  6
Continuous
 62
     0
370
    -2
100
AcDbLine
 10
426.571066821193
 20
-66.61413977899326
 30
0.0
 11
426.571066821193
 21
-78.09653003396625
 31
0.0
  0
LINE
  5
72D5
330
72D0
100
AcDbEntity
  8
DIM
  6
Continuous
 62
     0
370
    -2
100
AcDbLine
 10
389.209680192678
 20
-78.09653003396625
 30
0.0
 11
425.071066821193
 21
-78.09653003396625
 31
0.0
  0
INSERT
  5
72D6
330
72D0
100
AcDbEntity
  8
DIM
 62
     0
370
    -2
100
AcDbBlockReference
  2
_DOT
 10
387.709680192678
 20
-78.09653003396625
 30
0.0
 41
1.5
 42
1.5
 43
1.5
 50
180.0
  0
INSERT
  5
72D7
330
72D0
100
AcDbEntity
  8
DIM
 62
     0
370
    -2
100
AcDbBlockReference
  2
_DOT
 10
426.571066821193
 20
-78.09653003396625
 30
0.0
 41
1.5
 42
1.5
 43
1.5
  0
MTEXT
  5
72D8
330
72D0
100
AcDbEntity
  8
DIM
  6
Continuous
 62
     0
100
AcDbMText
 10
407.1403735069355
 20
-73.59653003396625
 30
0.0
 40
5.0
 41
0.0
 46
0.0
 71
     5
 72
     1
  1
\A1;39-48
  7
ＭＳ ゴシック
 73
     1
 44
1.0
  0
POINT
  5
72D9
330
72D0
100
AcDbEntity
  8
Defpoints
 62
     0
100
AcDbPoint
 10
387.709680192678
 20
-61.36046827307325
 30
0.0
  0
POINT
  5
72DA
330
72D0
100
AcDbEntity
  8
Defpoints
 62
     0
100
AcDbPoint
 10
426.571066821193
 20
-61.61413977899326
 30
0.0
  0
POINT
  5
72DB
330
72D0
100
AcDbEntity
  8
Defpoints
 62
     0
100
AcDbPoint
 10
426.571066821193
 20
-78.09653003396625
 30
0.0
  0
ENDBLK
  5
72D2
330
72D0
100
AcDbEntity
  8
0
100
AcDbBlockEnd
  0
BLOCK
  5
72DD
330
72DC
100
AcDbEntity
  8
0
100
AcDbBlockBegin
  2
*D61
 70
     1
 10
0.0
 20
0.0
 30
0.0
  3
*D61
  1

  0
LINE
  5
72DF
330
72DC
100
AcDbEntity
  8
DIM
  6
Continuous
 62
     0
370
    -2
100
AcDbLine
 10
380.566737855605
 20
-59.86505069293486
 30
0.0
 11
367.3429946384861
 21
-59.86505069293486
 31
0.0
  0
LINE
  5
72E0
330
72DC
100
AcDbEntity
  8
DIM
  6
Continuous
 62
     0
370
    -2
100
AcDbLine
 10
380.566737855605
 20
-31.88982336895845
 30
0.0
 11
367.3429946384861
 21
-31.88982336895845
 31
0.0
  0
LINE
  5
72E1
330
72DC
100
AcDbEntity
  8
DIM
  6
Continuous
 62
     0
370
    -2
100
AcDbLine
 10
367.3429946384861
 20
-58.36505069293486
 30
0.0
 11
367.3429946384861
 21
-33.38982336895845
 31
0.0
  0
INSERT
  5
72E2
330
72DC
100
AcDbEntity
  8
DIM
 62
     0
370
    -2
100
AcDbBlockReference
  2
_DOT
 10
367.3429946384861
 20
-59.86505069293486
 30
0.0
 41
1.5
 42
1.5
 43
1.5
 50
270.0
  0
INSERT
  5
72E3
330
72DC
100
AcDbEntity
  8
DIM
 62
     0
370
    -2
100
AcDbBlockReference
  2
_DOT
 10
367.3429946384861
 20
-31.88982336895845
 30
0.0
 41
1.5
 42
1.5
 43
1.5
 50
90.0
  0
MTEXT
  5
72E4
330
72DC
100
AcDbEntity
  8
DIM
  6
Continuous
 62
     0
100
AcDbMText
 10
362.8429946384861
 20
-45.87743703094665
 30
0.0
 40
5.0
 41
0.0
 46
0.0
 71
     5
 72
     1
  1
\A1;%%c28
  7
ＭＳ ゴシック
 11
0.0
 21
1.0
 31
0.0
 73
     1
 44
1.0
  0
POINT
  5
72E5
330
72DC
100
AcDbEntity
  8
Defpoints
 62
     0
100
AcDbPoint
 10
385.566737855605
 20
-59.86505069293486
 30
0.0
  0
POINT
  5
72E6
330
72DC
100
AcDbEntity
  8
Defpoints
 62
     0
100
AcDbPoint
 10
385.566737855605
 20
-31.88982336895845
 30
0.0
  0
POINT
  5
72E7
330
72DC
100
AcDbEntity
  8
Defpoints
 62
     0
100
AcDbPoint
 10
367.3429946384861
 20
-31.88982336895845
 30
0.0
  0
ENDBLK
  5
72DE
330
72DC
100
AcDbEntity
  8
0
100
AcDbBlockEnd
  0
BLOCK
  5
72E9
330
72E8
100
AcDbEntity
  8
0
100
AcDbBlockBegin
  2
*D62
 70
     1
 10
0.0
 20
0.0
 30
0.0
  3
*D62
  1

  0
LINE
  5
72EB
330
72E8
100
AcDbEntity
  8
DIM
  6
Continuous
 62
     0
370
    -2
100
AcDbLine
 10
387.709680192678
 20
-66.36046827307325
 30
0.0
 11
387.709680192678
 21
-78.09653003396625
 31
0.0
  0
LINE
  5
72EC
330
72E8
100
AcDbEntity
  8
DIM
  6
Continuous
 62
     0
370
    -2
100
AcDbLine
 10
385.566737855605
 20
-64.86505069293486
 30
0.0
 11
385.566737855605
 21
-78.09653003396625
 31
0.0
  0
LINE
  5
72ED
330
72E8
100
AcDbEntity
  8
DIM
  6
Continuous
 62
     0
370
    -2
100
AcDbLine
 10
385.566737855605
 20
-78.09653003396625
 30
0.0
 11
375.981737855605
 21
-78.09653003396625
 31
0.0
  0
LINE
  5
72EE
330
72E8
100
AcDbEntity
  8
DIM
  6
Continuous
 62
     0
370
    -2
100
AcDbLine
 10
387.709680192678
 20
-78.09653003396625
 30
0.0
 11
389.209680192678
 21
-78.09653003396625
 31
0.0
  0
LINE
  5
72EF
330
72E8
100
AcDbEntity
  8
DIM
  6
Continuous
 62
     0
370
    -2
100
AcDbLine
 10
387.066737855605
 20
-78.09653003396625
 30
0.0
 11
388.566737855605
 21
-78.09653003396625
 31
0.0
  0
INSERT
  5
72F0
330
72E8
100
AcDbEntity
  8
DIM
 62
     0
370
    -2
100
AcDbBlockReference
  2
_DOT
 10
387.709680192678
 20
-78.09653003396625
 30
0.0
 41
1.5
 42
1.5
 43
1.5
  0
INSERT
  5
72F1
330
72E8
100
AcDbEntity
  8
DIM
 62
     0
370
    -2
100
AcDbBlockReference
  2
_DOT
 10
385.566737855605
 20
-78.09653003396625
 30
0.0
 41
1.5
 42
1.5
 43
1.5
 50
180.0
  0
MTEXT
  5
72F2
330
72E8
100
AcDbEntity
  8
DIM
  6
Continuous
 62
     0
100
AcDbMText
 10
379.274237855605
 20
-73.59653003396625
 30
0.0
 40
5.0
 41
0.0
 46
0.0
 71
     5
 72
     1
  1
\A1;2
  7
ＭＳ ゴシック
 73
     1
 44
1.0
  0
POINT
  5
72F3
330
72E8
100
AcDbEntity
  8
Defpoints
 62
     0
100
AcDbPoint
 10
387.709680192678
 20
-61.36046827307325
 30
0.0
  0
POINT
  5
72F4
330
72E8
100
AcDbEntity
  8
Defpoints
 62
     0
100
AcDbPoint
 10
385.566737855605
 20
-59.86505069293486
 30
0.0
  0
POINT
  5
72F5
330
72E8
100
AcDbEntity
  8
Defpoints
 62
     0
100
AcDbPoint
 10
385.566737855605
 20
-78.09653003396625
 30
0.0
  0
ENDBLK
  5
72EA
330
72E8
100
AcDbEntity
  8
0
100
AcDbBlockEnd
  0
BLOCK
  5
72F7
330
72F6
100
AcDbEntity
  8
0
100
AcDbBlockBegin
  2
*D63
 70
     1
 10
0.0
 20
0.0
 30
0.0
  3
*D63
  1

  0
LINE
  5
72F9
330
72F6
100
AcDbEntity
  8
DIM
  6
Continuous
 62
     0
370
    -2
100
AcDbLine
 10
392.8617778556049
 20
-298.6788551188054
 30
0.0
 11
378.1068921772101
 21
-298.6788551188054
 31
0.0
  0
LINE
  5
72FA
330
72F6
100
AcDbEntity
  8
DIM
  6
Continuous
 62
     0
370
    -2
100
AcDbLine
 10
387.8617778556049
 20
-220.6788551188054
 30
0.0
 11
378.1068921772101
 21
-220.6788551188054
 31
0.0
  0
LINE
  5
72FB
330
72F6
100
AcDbEntity
  8
DIM
  6
Continuous
 62
     0
370
    -2
100
AcDbLine
 10
378.1068921772101
 20
-297.1788551188054
 30
0.0
 11
378.1068921772101
 21
-222.1788551188054
 31
0.0
  0
INSERT
  5
72FC
330
72F6
100
AcDbEntity
  8
DIM
 62
     0
370
    -2
100
AcDbBlockReference
  2
_DOT
 10
378.1068921772101
 20
-298.6788551188054
 30
0.0
 41
1.5
 42
1.5
 43
1.5
 50
270.0
  0
INSERT
  5
72FD
330
72F6
100
AcDbEntity
  8
DIM
 62
     0
370
    -2
100
AcDbBlockReference
  2
_DOT
 10
378.1068921772101
 20
-220.6788551188054
 30
0.0
 41
1.5
 42
1.5
 43
1.5
 50
90.0
  0
MTEXT
  5
72FE
330
72F6
100
AcDbEntity
  8
DIM
  6
Continuous
 62
     0
100
AcDbMText
 10
373.6068921772101
 20
-259.6788551188054
 30
0.0
 40
5.0
 41
0.0
 46
0.0
 71
     5
 72
     1
  1
\A1;78
  7
ＭＳ ゴシック
 11
0.0
 21
1.0
 31
0.0
 73
     1
 44
1.0
  0
POINT
  5
72FF
330
72F6
100
AcDbEntity
  8
Defpoints
 62
     0
100
AcDbPoint
 10
397.8617778556049
 20
-298.6788551188054
 30
0.0
  0
POINT
  5
7300
330
72F6
100
AcDbEntity
  8
Defpoints
 62
     0
100
AcDbPoint
 10
392.8617778556049
 20
-220.6788551188054
 30
0.0
  0
POINT
  5
7301
330
72F6
100
AcDbEntity
  8
Defpoints
 62
     0
100
AcDbPoint
 10
378.1068921772101
 20
-220.6788551188054
 30
0.0
  0
ENDBLK
  5
72F8
330
72F6
100
AcDbEntity
  8
0
100
AcDbBlockEnd
  0
BLOCK
  5
7303
330
7302
100
AcDbEntity
  8
0
100
AcDbBlockBegin
  2
*D64
 70
     1
 10
0.0
 20
0.0
 30
0.0
  3
*D64
  1

  0
LINE
  5
7305
330
7302
100
AcDbEntity
  8
DIM
  6
Continuous
 62
     0
370
    -2
100
AcDbLine
 10
452.6706533805159
 20
-41.87743703094662
 30
0.0
 11
465.110569412516
 21
-41.87743703094662
 31
0.0
  0
LINE
  5
7306
330
7302
100
AcDbEntity
  8
DIM
  6
Continuous
 62
     0
370
    -2
100
AcDbLine
 10
452.6706533805159
 20
-49.87743703094662
 30
0.0
 11
465.110569412516
 21
-49.87743703094662
 31
0.0
  0
LINE
  5
7307
330
7302
100
AcDbEntity
  8
DIM
  6
Continuous
 62
     0
370
    -2
100
AcDbLine
 10
465.110569412516
 20
-43.37743703094662
 30
0.0
 11
465.110569412516
 21
-48.37743703094662
 31
0.0
  0
INSERT
  5
7308
330
7302
100
AcDbEntity
  8
DIM
 62
     0
370
    -2
100
AcDbBlockReference
  2
_DOT
 10
465.110569412516
 20
-41.87743703094662
 30
0.0
 41
1.5
 42
1.5
 43
1.5
 50
90.0
  0
INSERT
  5
7309
330
7302
100
AcDbEntity
  8
DIM
 62
     0
370
    -2
100
AcDbBlockReference
  2
_DOT
 10
465.110569412516
 20
-49.87743703094662
 30
0.0
 41
1.5
 42
1.5
 43
1.5
 50
270.0
  0
MTEXT
  5
730A
330
7302
100
AcDbEntity
  8
DIM
  6
Continuous
 62
     0
100
AcDbMText
 10
460.610569412516
 20
-45.87743703094662
 30
0.0
 40
5.0
 41
0.0
 46
0.0
 71
     5
 72
     1
  1
\A1;8
  7
ＭＳ ゴシック
 11
0.0
 21
1.0
 31
0.0
 73
     1
 44
1.0
  0
POINT
  5
730B
330
7302
100
AcDbEntity
  8
Defpoints
 62
     0
100
AcDbPoint
 10
447.6706533805159
 20
-41.87743703094662
 30
0.0
  0
POINT
  5
730C
330
7302
100
AcDbEntity
  8
Defpoints
 62
     0
100
AcDbPoint
 10
447.6706533805159
 20
-49.87743703094662
 30
0.0
  0
POINT
  5
730D
330
7302
100
AcDbEntity
  8
Defpoints
 62
     0
100
AcDbPoint
 10
465.110569412516
 20
-49.87743703094662
 30
0.0
  0
ENDBLK
  5
7304
330
7302
100
AcDbEntity
  8
0
100
AcDbBlockEnd
  0
BLOCK
  5
730F
330
730E
100
AcDbEntity
  8
0
100
AcDbBlockBegin
  2
*D65
 70
     1
 10
0.0
 20
0.0
 30
0.0
  3
*D65
  1

  0
LINE
  5
7311
330
730E
100
AcDbEntity
  8
DIM
  6
Continuous
 62
     0
370
    -2
100
AcDbLine
 10
203.5368414689249
 20
-282.6237641188054
 30
0.0
 11
216.6779115217439
 21
-282.6237641188054
 31
0.0
  0
LINE
  5
7312
330
730E
100
AcDbEntity
  8
DIM
  6
Continuous
 62
     0
370
    -2
100
AcDbLine
 10
203.5368414689249
 20
-309.6237641188055
 30
0.0
 11
216.6779115217439
 21
-309.6237641188055
 31
0.0
  0
LINE
  5
7313
330
730E
100
AcDbEntity
  8
DIM
  6
Continuous
 62
     0
370
    -2
100
AcDbLine
 10
216.6779115217439
 20
-284.1237641188054
 30
0.0
 11
216.6779115217439
 21
-308.1237641188055
 31
0.0
  0
INSERT
  5
7314
330
730E
100
AcDbEntity
  8
DIM
 62
     0
370
    -2
100
AcDbBlockReference
  2
_DOT
 10
216.6779115217439
 20
-282.6237641188054
 30
0.0
 41
1.5
 42
1.5
 43
1.5
 50
90.0
  0
INSERT
  5
7315
330
730E
100
AcDbEntity
  8
DIM
 62
     0
370
    -2
100
AcDbBlockReference
  2
_DOT
 10
216.6779115217439
 20
-309.6237641188055
 30
0.0
 41
1.5
 42
1.5
 43
1.5
 50
270.0
  0
MTEXT
  5
7316
330
730E
100
AcDbEntity
  8
DIM
  6
Continuous
 62
     0
100
AcDbMText
 10
212.1779115217439
 20
-296.1237641188055
 30
0.0
 40
5.0
 41
0.0
 46
0.0
 71
     5
 72
     1
  1
\A1;27
  7
ＭＳ ゴシック
 11
0.0
 21
1.0
 31
0.0
 73
     1
 44
1.0
  0
POINT
  5
7317
330
730E
100
AcDbEntity
  8
Defpoints
 62
     0
100
AcDbPoint
 10
198.5368414689249
 20
-282.6237641188054
 30
0.0
  0
POINT
  5
7318
330
730E
100
AcDbEntity
  8
Defpoints
 62
     0
100
AcDbPoint
 10
198.5368414689249
 20
-309.6237641188055
 30
0.0
  0
POINT
  5
7319
330
730E
100
AcDbEntity
  8
Defpoints
 62
     0
100
AcDbPoint
 10
216.6779115217439
 20
-309.6237641188055
 30
0.0
  0
ENDBLK
  5
7310
330
730E
100
AcDbEntity
  8
0
100
AcDbBlockEnd
  0
BLOCK
  5
731B
330
731A
100
AcDbEntity
  8
0
100
AcDbBlockBegin
  2
*D66
 70
     1
 10
0.0
 20
0.0
 30
0.0
  3
*D66
  1

  0
LINE
  5
731D
330
731A
100
AcDbEntity
  8
寸法
  6
Continuous
 62
     0
370
    -2
100
AcDbLine
 10
122.204975157907
 20
-146.2020349760519
 30
0.0
 11
88.38178428781589
 21
-146.2020349760519
 31
0.0
  0
LINE
  5
731E
330
731A
100
AcDbEntity
  8
寸法
  6
Continuous
 62
     0
370
    -2
100
AcDbLine
 10
122.204975157907
 20
-176.2020349760519
 30
0.0
 11
88.38178428781589
 21
-176.2020349760519
 31
0.0
  0
LINE
  5
731F
330
731A
100
AcDbEntity
  8
寸法
  6
Continuous
 62
     0
370
    -2
100
AcDbLine
 10
88.38178428781589
 20
-147.7020349760519
 30
0.0
 11
88.38178428781589
 21
-174.7020349760519
 31
0.0
  0
INSERT
  5
7320
330
731A
100
AcDbEntity
  8
寸法
 62
     0
370
    -2
100
AcDbBlockReference
  2
_DOT
 10
88.38178428781589
 20
-146.2020349760519
 30
0.0
 41
1.5
 42
1.5
 43
1.5
 50
90.0
  0
INSERT
  5
7321
330
731A
100
AcDbEntity
  8
寸法
 62
     0
370
    -2
100
AcDbBlockReference
  2
_DOT
 10
88.38178428781589
 20
-176.2020349760519
 30
0.0
 41
1.5
 42
1.5
 43
1.5
 50
270.0
  0
MTEXT
  5
7322
330
731A
100
AcDbEntity
  8
寸法
  6
Continuous
 62
     0
100
AcDbMText
 10
83.47678428781589
 20
-161.2020349760519
 30
0.0
 40
5.0
 41
0.0
 46
0.0
 71
     5
 72
     1
  1
\A1;φ30
  7
ＭＳ ゴシック
 11
0.0
 21
1.0
 31
0.0
 73
     1
 44
1.0
  0
POINT
  5
7323
330
731A
100
AcDbEntity
  8
Defpoints
 62
     0
100
AcDbPoint
 10
127.204975157907
 20
-146.2020349760519
 30
0.0
  0
POINT
  5
7324
330
731A
100
AcDbEntity
  8
Defpoints
 62
     0
100
AcDbPoint
 10
127.204975157907
 20
-176.2020349760519
 30
0.0
  0
POINT
  5
7325
330
731A
100
AcDbEntity
  8
Defpoints
 62
     0
100
AcDbPoint
 10
88.38178428781589
 20
-176.2020349760519
 30
0.0
  0
ENDBLK
  5
731C
330
731A
100
AcDbEntity
  8
0
100
AcDbBlockEnd
  0
BLOCK
  5
7352
330
7351
100
AcDbEntity
  8
0
100
AcDbBlockBegin
  2
*D67
 70
     1
 10
0.0
 20
0.0
 30
0.0
  3
*D67
  1

  0
LINE
  5
7354
330
7351
100
AcDbEntity
  8
寸法
  6
Continuous
 62
     0
370
    -2
100
AcDbLine
 10
93.75376311646254
 20
-98.993601430858
 30
0.0
 11
93.75376311646255
 21
-136.81689606144
 31
0.0
  0
LINE
  5
7355
330
7351
100
AcDbEntity
  8
寸法
  6
Continuous
 62
     0
370
    -2
100
AcDbLine
 10
225.7537631164624
 20
-124.8119635643647
 30
0.0
 11
225.7537631164624
 21
-136.81689606144
 31
0.0
  0
LINE
  5
7356
330
7351
100
AcDbEntity
  8
寸法
  6
Continuous
 62
     0
370
    -2
100
AcDbLine
 10
95.25376311646255
 20
-136.81689606144
 30
0.0
 11
224.2537631164624
 21
-136.81689606144
 31
0.0
  0
INSERT
  5
7357
330
7351
100
AcDbEntity
  8
寸法
 62
     0
370
    -2
100
AcDbBlockReference
  2
_DOT
 10
93.75376311646255
 20
-136.81689606144
 30
0.0
 41
1.5
 42
1.5
 43
1.5
 50
180.0
  0
INSERT
  5
7358
330
7351
100
AcDbEntity
  8
寸法
 62
     0
370
    -2
100
AcDbBlockReference
  2
_DOT
 10
225.7537631164624
 20
-136.81689606144
 30
0.0
 41
1.5
 42
1.5
 43
1.5
  0
MTEXT
  5
7359
330
7351
100
AcDbEntity
  8
寸法
  6
Continuous
 62
     0
100
AcDbMText
 10
159.7537631164625
 20
-132.31689606144
 30
0.0
 40
5.0
 41
0.0
 46
0.0
 71
     5
 72
     1
  1
\A1;132
  7
ＭＳ ゴシック
 73
     1
 44
1.0
  0
POINT
  5
735A
330
7351
100
AcDbEntity
  8
Defpoints
 62
     0
100
AcDbPoint
 10
93.75376311646254
 20
-93.993601430858
 30
0.0
  0
POINT
  5
735B
330
7351
100
AcDbEntity
  8
Defpoints
 62
     0
100
AcDbPoint
 10
225.7537631164624
 20
-119.8119635643647
 30
0.0
  0
POINT
  5
735C
330
7351
100
AcDbEntity
  8
Defpoints
 62
     0
100
AcDbPoint
 10
225.7537631164624
 20
-136.81689606144
 30
0.0
  0
ENDBLK
  5
7353
330
7351
100
AcDbEntity
  8
0
100
AcDbBlockEnd
  0
BLOCK
  5
735E
330
735D
100
AcDbEntity
  8
0
100
AcDbBlockBegin
  2
*D68
 70
     1
 10
0.0
 20
0.0
 30
0.0
  3
*D68
  1

  0
LINE
  5
7360
330
735D
100
AcDbEntity
  8
寸法
  6
Continuous
 62
     0
370
    -2
100
AcDbLine
 10
228.1217968970846
 20
-100.3970461894521
 30
0.0
 11
245.1851323327645
 21
-100.3970461894521
 31
0.0
  0
LINE
  5
7361
330
735D
100
AcDbEntity
  8
寸法
  6
Continuous
 62
     0
370
    -2
100
AcDbLine
 10
229.2519544081366
 20
-120.3650892583211
 30
0.0
 11
245.1851323327645
 21
-120.3650892583211
 31
0.0
  0
LINE
  5
7362
330
735D
100
AcDbEntity
  8
寸法
  6
Continuous
 62
     0
370
    -2
100
AcDbLine
 10
245.1851323327645
 20
-101.8970461894521
 30
0.0
 11
245.1851323327645
 21
-118.8650892583211
 31
0.0
  0
INSERT
  5
7363
330
735D
100
AcDbEntity
  8
寸法
 62
     0
370
    -2
100
AcDbBlockReference
  2
_DOT
 10
245.1851323327645
 20
-100.3970461894521
 30
0.0
 41
1.5
 42
1.5
 43
1.5
 50
90.0
  0
INSERT
  5
7364
330
735D
100
AcDbEntity
  8
寸法
 62
     0
370
    -2
100
AcDbBlockReference
  2
_DOT
 10
245.1851323327645
 20
-120.3650892583211
 30
0.0
 41
1.5
 42
1.5
 43
1.5
 50
270.0
  0
MTEXT
  5
7365
330
735D
100
AcDbEntity
  8
寸法
  6
Continuous
 62
     0
100
AcDbMText
 10
240.6851323327645
 20
-110.3810677238866
 30
0.0
 40
5.0
 41
0.0
 46
0.0
 71
     5
 72
     1
  1
\A1;20
  7
ＭＳ ゴシック
 11
0.0
 21
1.0
 31
0.0
 73
     1
 44
1.0
  0
POINT
  5
7366
330
735D
100
AcDbEntity
  8
Defpoints
 62
     0
100
AcDbPoint
 10
223.1217968970846
 20
-100.3970461894521
 30
0.0
  0
POINT
  5
7367
330
735D
100
AcDbEntity
  8
Defpoints
 62
     0
100
AcDbPoint
 10
224.2519544081366
 20
-120.3650892583211
 30
0.0
  0
POINT
  5
7368
330
735D
100
AcDbEntity
  8
Defpoints
 62
     0
100
AcDbPoint
 10
245.1851323327645
 20
-120.3650892583211
 30
0.0
  0
ENDBLK
  5
735F
330
735D
100
AcDbEntity
  8
0
100
AcDbBlockEnd
  0
BLOCK
  5
736A
330
7369
100
AcDbEntity
  8
0
100
AcDbBlockBegin
  2
*D69
 70
     1
 10
0.0
 20
0.0
 30
0.0
  3
*D69
  1

  0
LINE
  5
736C
330
7369
100
AcDbEntity
  8
寸法
  6
Continuous
 62
     0
370
    -2
100
AcDbLine
 10
116.0623290534529
 20
-120.3970461894521
 30
0.0
 11
61.87381077446473
 21
-120.3970461894521
 31
0.0
  0
LINE
  5
736D
330
7369
100
AcDbEntity
  8
寸法
  6
Continuous
 62
     0
370
    -2
100
AcDbLine
 10
88.64966207065925
 20
-58.39704618945206
 30
0.0
 11
61.87381077446474
 21
-58.39704618945206
 31
0.0
  0
LINE
  5
736E
330
7369
100
AcDbEntity
  8
寸法
  6
Continuous
 62
     0
370
    -2
100
AcDbLine
 10
61.87381077446473
 20
-118.8970461894521
 30
0.0
 11
61.87381077446474
 21
-59.89704618945206
 31
0.0
  0
INSERT
  5
736F
330
7369
100
AcDbEntity
  8
寸法
 62
     0
370
    -2
100
AcDbBlockReference
  2
_DOT
 10
61.87381077446473
 20
-120.3970461894521
 30
0.0
 41
1.5
 42
1.5
 43
1.5
 50
270.0
  0
INSERT
  5
7370
330
7369
100
AcDbEntity
  8
寸法
 62
     0
370
    -2
100
AcDbBlockReference
  2
_DOT
 10
61.87381077446474
 20
-58.39704618945206
 30
0.0
 41
1.5
 42
1.5
 43
1.5
 50
90.0
  0
MTEXT
  5
7371
330
7369
100
AcDbEntity
  8
寸法
  6
Continuous
 62
     0
100
AcDbMText
 10
57.37381077446473
 20
-89.76082285616411
 30
0.0
 40
5.0
 41
0.0
 46
0.0
 71
     5
 72
     1
  1
\A1;62
  7
ＭＳ ゴシック
 11
1.146036670580807E-16
 21
1.0
 31
0.0
 73
     1
 44
1.0
  0
POINT
  5
7372
330
7369
100
AcDbEntity
  8
Defpoints
 62
     0
100
AcDbPoint
 10
121.0623290534529
 20
-120.3970461894521
 30
0.0
  0
POINT
  5
7373
330
7369
100
AcDbEntity
  8
Defpoints
 62
     0
100
AcDbPoint
 10
93.64966207065925
 20
-58.39704618945206
 30
0.0
  0
POINT
  5
7374
330
7369
100
AcDbEntity
  8
Defpoints
 62
     0
100
AcDbPoint
 10
61.87381077446473
 20
-58.39704618945206
 30
0.0
  0
ENDBLK
  5
736B
330
7369
100
AcDbEntity
  8
0
100
AcDbBlockEnd
  0
BLOCK
  5
7376
330
7375
100
AcDbEntity
  8
0
100
AcDbBlockBegin
  2
*D70
 70
     1
 10
0.0
 20
0.0
 30
0.0
  3
*D70
  1

  0
LINE
  5
7378
330
7375
100
AcDbEntity
  8
DIM
  6
Continuous
 62
     0
370
    -2
100
AcDbLine
 10
125.7537631164624
 20
-58.39704618945211
 30
0.0
 11
136.3173579414105
 21
-58.39704618945211
 31
0.0
  0
LINE
  5
7379
330
7375
100
AcDbEntity
  8
DIM
  6
Continuous
 62
     0
370
    -2
100
AcDbLine
 10
125.7537631164624
 20
-56.39704618945211
 30
0.0
 11
136.3173579414105
 21
-56.39704618945211
 31
0.0
  0
LINE
  5
737A
330
7375
100
AcDbEntity
  8
DIM
  6
Continuous
 62
     0
370
    -2
100
AcDbLine
 10
136.3173579414105
 20
-58.39704618945211
 30
0.0
 11
136.3173579414105
 21
-67.98204618945212
 31
0.0
  0
LINE
  5
737B
330
7375
100
AcDbEntity
  8
DIM
  6
Continuous
 62
     0
370
    -2
100
AcDbLine
 10
136.3173579414105
 20
-56.89704618945211
 30
0.0
 11
136.3173579414105
 21
-55.39704618945211
 31
0.0
  0
LINE
  5
737C
330
7375
100
AcDbEntity
  8
DIM
  6
Continuous
 62
     0
370
    -2
100
AcDbLine
 10
136.3173579414105
 20
-56.39704618945211
 30
0.0
 11
136.3173579414105
 21
-54.89704618945211
 31
0.0
  0
INSERT
  5
737D
330
7375
100
AcDbEntity
  8
DIM
 62
     0
370
    -2
100
AcDbBlockReference
  2
_DOT
 10
136.3173579414105
 20
-58.39704618945211
 30
0.0
 41
1.5
 42
1.5
 43
1.5
 50
270.0
  0
INSERT
  5
737E
330
7375
100
AcDbEntity
  8
DIM
 62
     0
370
    -2
100
AcDbBlockReference
  2
_DOT
 10
136.3173579414105
 20
-56.39704618945211
 30
0.0
 41
1.5
 42
1.5
 43
1.5
 50
90.0
  0
MTEXT
  5
737F
330
7375
100
AcDbEntity
  8
DIM
  6
Continuous
 62
     0
100
AcDbMText
 10
131.8173579414105
 20
-64.68954618945213
 30
0.0
 40
5.0
 41
0.0
 46
0.0
 71
     5
 72
     1
  1
\A1;2
  7
ＭＳ ゴシック
 11
0.0
 21
1.0
 31
0.0
 73
     1
 44
1.0
  0
POINT
  5
7380
330
7375
100
AcDbEntity
  8
Defpoints
 62
     0
100
AcDbPoint
 10
120.7537631164624
 20
-58.39704618945211
 30
0.0
  0
POINT
  5
7381
330
7375
100
AcDbEntity
  8
Defpoints
 62
     0
100
AcDbPoint
 10
120.7537631164624
 20
-56.39704618945211
 30
0.0
  0
POINT
  5
7382
330
7375
100
AcDbEntity
  8
Defpoints
 62
     0
100
AcDbPoint
 10
136.3173579414105
 20
-56.39704618945211
 30
0.0
  0
ENDBLK
  5
7377
330
7375
100
AcDbEntity
  8
0
100
AcDbBlockEnd
  0
BLOCK
  5
7384
330
7383
100
AcDbEntity
  8
0
100
AcDbBlockBegin
  2
*D71
 70
     1
 10
0.0
 20
0.0
 30
0.0
  3
*D71
  1

  0
LINE
  5
7386
330
7383
100
AcDbEntity
  8
DIM
  6
Continuous
 62
     0
370
    -2
100
AcDbLine
 10
124.2537631164624
 20
-51.39704618945211
 30
0.0
 11
136.3173579414105
 21
-51.39704618945211
 31
0.0
  0
LINE
  5
7387
330
7383
100
AcDbEntity
  8
DIM
  6
Continuous
 62
     0
370
    -2
100
AcDbLine
 10
125.7537631164624
 20
-56.39704618945211
 30
0.0
 11
136.3173579414105
 21
-56.39704618945211
 31
0.0
  0
LINE
  5
7388
330
7383
100
AcDbEntity
  8
DIM
  6
Continuous
 62
     0
370
    -2
100
AcDbLine
 10
136.3173579414105
 20
-52.89704618945211
 30
0.0
 11
136.3173579414105
 21
-54.89704618945211
 31
0.0
  0
INSERT
  5
7389
330
7383
100
AcDbEntity
  8
DIM
 62
     0
370
    -2
100
AcDbBlockReference
  2
_DOT
 10
136.3173579414105
 20
-51.39704618945211
 30
0.0
 41
1.5
 42
1.5
 43
1.5
 50
90.0
  0
INSERT
  5
738A
330
7383
100
AcDbEntity
  8
DIM
 62
     0
370
    -2
100
AcDbBlockReference
  2
_DOT
 10
136.3173579414105
 20
-56.39704618945211
 30
0.0
 41
1.5
 42
1.5
 43
1.5
 50
270.0
  0
MTEXT
  5
738B
330
7383
100
AcDbEntity
  8
DIM
  6
Continuous
 62
     0
100
AcDbMText
 10
131.8173579414105
 20
-53.89704618945211
 30
0.0
 40
5.0
 41
0.0
 46
0.0
 71
     5
 72
     1
  1
\A1;5
  7
ＭＳ ゴシック
 11
0.0
 21
1.0
 31
0.0
 73
     1
 44
1.0
  0
POINT
  5
738C
330
7383
100
AcDbEntity
  8
Defpoints
 62
     0
100
AcDbPoint
 10
119.2537631164624
 20
-51.39704618945211
 30
0.0
  0
POINT
  5
738D
330
7383
100
AcDbEntity
  8
Defpoints
 62
     0
100
AcDbPoint
 10
120.7537631164624
 20
-56.39704618945211
 30
0.0
  0
POINT
  5
738E
330
7383
100
AcDbEntity
  8
Defpoints
 62
     0
100
AcDbPoint
 10
136.3173579414105
 20
-56.39704618945211
 30
0.0
  0
ENDBLK
  5
7385
330
7383
100
AcDbEntity
  8
0
100
AcDbBlockEnd
  0
BLOCK
  5
7390
330
738F
100
AcDbEntity
  8
0
100
AcDbBlockBegin
  2
*D72
 70
     1
 10
0.0
 20
0.0
 30
0.0
  3
*D72
  1

  0
LINE
  5
7392
330
738F
100
AcDbEntity
  8
DIM
  6
Continuous
 62
     0
370
    -2
100
AcDbLine
 10
90.75376311646234
 20
-51.39704618945211
 30
0.0
 11
90.75376311646234
 21
-28.82139928659041
 31
0.0
  0
LINE
  5
7393
330
738F
100
AcDbEntity
  8
DIM
  6
Continuous
 62
     0
370
    -2
100
AcDbLine
 10
120.7537631164624
 20
-51.39704618945211
 30
0.0
 11
120.7537631164624
 21
-28.82139928659041
 31
0.0
  0
LINE
  5
7394
330
738F
100
AcDbEntity
  8
DIM
  6
Continuous
 62
     0
370
    -2
100
AcDbLine
 10
92.25376311646234
 20
-28.82139928659041
 30
0.0
 11
119.2537631164624
 21
-28.82139928659041
 31
0.0
  0
INSERT
  5
7395
330
738F
100
AcDbEntity
  8
DIM
 62
     0
370
    -2
100
AcDbBlockReference
  2
_DOT
 10
90.75376311646234
 20
-28.82139928659041
 30
0.0
 41
1.5
 42
1.5
 43
1.5
 50
180.0
  0
INSERT
  5
7396
330
738F
100
AcDbEntity
  8
DIM
 62
     0
370
    -2
100
AcDbBlockReference
  2
_DOT
 10
120.7537631164624
 20
-28.82139928659041
 30
0.0
 41
1.5
 42
1.5
 43
1.5
  0
MTEXT
  5
7397
330
738F
100
AcDbEntity
  8
DIM
  6
Continuous
 62
     0
100
AcDbMText
 10
105.7537631164624
 20
-24.32139928659041
 30
0.0
 40
5.0
 41
0.0
 46
0.0
 71
     5
 72
     1
  1
\A1;30
  7
ＭＳ ゴシック
 73
     1
 44
1.0
  0
POINT
  5
7398
330
738F
100
AcDbEntity
  8
Defpoints
 62
     0
100
AcDbPoint
 10
90.75376311646234
 20
-56.39704618945211
 30
0.0
  0
POINT
  5
7399
330
738F
100
AcDbEntity
  8
Defpoints
 62
     0
100
AcDbPoint
 10
120.7537631164624
 20
-56.39704618945211
 30
0.0
  0
POINT
  5
739A
330
738F
100
AcDbEntity
  8
Defpoints
 62
     0
100
AcDbPoint
 10
120.7537631164624
 20
-28.82139928659041
 30
0.0
  0
ENDBLK
  5
7391
330
738F
100
AcDbEntity
  8
0
100
AcDbBlockEnd
  0
BLOCK
  5
739C
330
739B
100
AcDbEntity
  8
0
100
AcDbBlockBegin
  2
*D73
 70
     1
 10
0.0
 20
0.0
 30
0.0
  3
*D73
  1

  0
LINE
  5
739E
330
739B
100
AcDbEntity
  8
DIM
  6
Continuous
 62
     0
370
    -2
100
AcDbLine
 10
92.25376311646234
 20
-46.39704618945211
 30
0.0
 11
92.25376311646234
 21
-39.12680421459032
 31
0.0
  0
LINE
  5
739F
330
739B
100
AcDbEntity
  8
DIM
  6
Continuous
 62
     0
370
    -2
100
AcDbLine
 10
119.2537631164624
 20
-46.39704618945211
 30
0.0
 11
119.2537631164624
 21
-39.12680421459032
 31
0.0
  0
LINE
  5
73A0
330
739B
100
AcDbEntity
  8
DIM
  6
Continuous
 62
     0
370
    -2
100
AcDbLine
 10
93.75376311646234
 20
-39.12680421459032
 30
0.0
 11
117.7537631164624
 21
-39.12680421459032
 31
0.0
  0
INSERT
  5
73A1
330
739B
100
AcDbEntity
  8
DIM
 62
     0
370
    -2
100
AcDbBlockReference
  2
_DOT
 10
92.25376311646234
 20
-39.12680421459032
 30
0.0
 41
1.5
 42
1.5
 43
1.5
 50
180.0
  0
INSERT
  5
73A2
330
739B
100
AcDbEntity
  8
DIM
 62
     0
370
    -2
100
AcDbBlockReference
  2
_DOT
 10
119.2537631164624
 20
-39.12680421459032
 30
0.0
 41
1.5
 42
1.5
 43
1.5
  0
MTEXT
  5
73A3
330
739B
100
AcDbEntity
  8
DIM
  6
Continuous
 62
     0
100
AcDbMText
 10
105.7537631164624
 20
-34.62680421459032
 30
0.0
 40
5.0
 41
0.0
 46
0.0
 71
     5
 72
     1
  1
\A1;27
  7
ＭＳ ゴシック
 73
     1
 44
1.0
  0
POINT
  5
73A4
330
739B
100
AcDbEntity
  8
Defpoints
 62
     0
100
AcDbPoint
 10
92.25376311646234
 20
-51.39704618945211
 30
0.0
  0
POINT
  5
73A5
330
739B
100
AcDbEntity
  8
Defpoints
 62
     0
100
AcDbPoint
 10
119.2537631164624
 20
-51.39704618945211
 30
0.0
  0
POINT
  5
73A6
330
739B
100
AcDbEntity
  8
Defpoints
 62
     0
100
AcDbPoint
 10
119.2537631164624
 20
-39.12680421459032
 30
0.0
  0
ENDBLK
  5
739D
330
739B
100
AcDbEntity
  8
0
100
AcDbBlockEnd
  0
BLOCK
  5
73B5
330
73B4
100
AcDbEntity
  8
0
100
AcDbBlockBegin
  2
*D74
 70
     1
 10
0.0
 20
0.0
 30
0.0
  3
*D74
  1

  0
LINE
  5
73B7
330
73B4
100
AcDbEntity
  8
寸法
  6
Continuous
 62
     0
370
    -2
100
AcDbLine
 10
91.25759671646253
 20
-148.9442547908222
 30
0.0
 11
66.04706446801171
 21
-148.9442547908222
 31
0.0
  0
LINE
  5
73B8
330
73B4
100
AcDbEntity
  8
寸法
  6
Continuous
 62
     0
370
    -2
100
AcDbLine
 10
91.25759671646253
 20
-178.9442547908222
 30
0.0
 11
66.04706446801171
 21
-178.9442547908222
 31
0.0
  0
LINE
  5
73B9
330
73B4
100
AcDbEntity
  8
寸法
  6
Continuous
 62
     0
370
    -2
100
AcDbLine
 10
66.04706446801171
 20
-150.4442547908222
 30
0.0
 11
66.04706446801171
 21
-177.4442547908222
 31
0.0
  0
INSERT
  5
73BA
330
73B4
100
AcDbEntity
  8
寸法
 62
     0
370
    -2
100
AcDbBlockReference
  2
_DOT
 10
66.04706446801171
 20
-148.9442547908222
 30
0.0
 41
1.5
 42
1.5
 43
1.5
 50
90.0
  0
INSERT
  5
73BB
330
73B4
100
AcDbEntity
  8
寸法
 62
     0
370
    -2
100
AcDbBlockReference
  2
_DOT
 10
66.04706446801171
 20
-178.9442547908222
 30
0.0
 41
1.5
 42
1.5
 43
1.5
 50
270.0
  0
MTEXT
  5
73BC
330
73B4
100
AcDbEntity
  8
寸法
  6
Continuous
 62
     0
100
AcDbMText
 10
61.14206446801171
 20
-163.9442547908222
 30
0.0
 40
5.0
 41
0.0
 46
0.0
 71
     5
 72
     1
  1
\A1;φ30
  7
ＭＳ ゴシック
 11
0.0
 21
1.0
 31
0.0
 73
     1
 44
1.0
  0
POINT
  5
73BD
330
73B4
100
AcDbEntity
  8
Defpoints
 62
     0
100
AcDbPoint
 10
96.25759671646253
 20
-148.9442547908222
 30
0.0
  0
POINT
  5
73BE
330
73B4
100
AcDbEntity
  8
Defpoints
 62
     0
100
AcDbPoint
 10
96.25759671646253
 20
-178.9442547908222
 30
0.0
  0
POINT
  5
73BF
330
73B4
100
AcDbEntity
  8
Defpoints
 62
     0
100
AcDbPoint
 10
66.04706446801171
 20
-178.9442547908222
 30
0.0
  0
ENDBLK
  5
73B6
330
73B4
100
AcDbEntity
  8
0
100
AcDbBlockEnd
  0
ENDSEC
  0
SECTION
  2
ENTITIES
  0
POINT
  5
1301
330
A
100
AcDbEntity
  8
MODEL
100
AcDbPoint
 10
963.7243970754489
 20
138.0847547131194
 30
0.0
  0
POINT
  5
1306
330
A
100
AcDbEntity
  8
MODEL
100
AcDbPoint
 10
847.7244070754489
 20
138.0847547131194
 30
0.0
  0
POINT
  5
1307
330
A
100
AcDbEntity
  8
MODEL
100
AcDbPoint
 10
973.7862873746794
 20
166.0075841667841
 30
0.0
  0
POINT
  5
1308
330
A
100
AcDbEntity
  8
MODEL
100
AcDbPoint
 10
973.7862873746794
 20
184.0075841667841
 30
0.0
  0
POINT
  5
1312
330
A
100
AcDbEntity
  8
MODEL
100
AcDbPoint
 10
810.9244070754489
 20
149.007583882008
 30
0.0
  0
POINT
  5
1313
330
A
100
AcDbEntity
  8
MODEL
100
AcDbPoint
 10
810.9244070754489
 20
201.007583882008
 30
0.0
  0
POINT
  5
131E
330
A
100
AcDbEntity
  8
MODEL
100
AcDbPoint
 10
1111.259263541787
 20
138.207583607055
 30
0.0
  0
POINT
  5
131F
330
A
100
AcDbEntity
  8
MODEL
100
AcDbPoint
 10
1104.759263541787
 20
138.207583607055
 30
0.0
  0
POINT
  5
1342
330
A
100
AcDbEntity
  8
MODEL
100
AcDbPoint
 10
973.354966229004
 20
368.3598201219507
 30
0.0
  0
POINT
  5
1343
330
A
100
AcDbEntity
  8
MODEL
100
AcDbPoint
 10
973.354966229004
 20
319.3598501219507
 30
0.0
  0
POINT
  5
1346
330
A
100
AcDbEntity
  8
MODEL
100
AcDbPoint
 10
983.2218070738209
 20
368.3598201219507
 30
0.0
  0
POINT
  5
1347
330
A
100
AcDbEntity
  8
MODEL
100
AcDbPoint
 10
983.2218070738209
 20
301.3598201219507
 30
0.0
  0
POINT
  5
1350
330
A
100
AcDbEntity
  8
MODEL
100
AcDbPoint
 10
963.7243970754489
 20
286.3598201219507
 30
0.0
  0
POINT
  5
1351
330
A
100
AcDbEntity
  8
MODEL
100
AcDbPoint
 10
838.7244070754489
 20
286.3598201219507
 30
0.0
  0
POINT
  5
1357
330
A
100
AcDbEntity
  8
MODEL
100
AcDbPoint
 10
810.9244070754489
 20
301.3598201219507
 30
0.0
  0
POINT
  5
1359
330
A
100
AcDbEntity
  8
MODEL
100
AcDbPoint
 10
810.9244070754489
 20
361.3598201219507
 30
0.0
  0
POINT
  5
135A
330
A
100
AcDbEntity
  8
MODEL
100
AcDbPoint
 10
810.9244070754489
 20
368.3598201219507
 30
0.0
  0
POINT
  5
135B
330
A
100
AcDbEntity
  8
MODEL
100
AcDbPoint
 10
810.9244070754489
 20
361.3598201219507
 30
0.0
  0
POINT
  5
1371
330
A
100
AcDbEntity
  8
MODEL
100
AcDbPoint
 10
1164.81489702863
 20
383.9337336502628
 30
0.0
  0
POINT
  5
1372
330
A
100
AcDbEntity
  8
MODEL
100
AcDbPoint
 10
1164.81489702863
 20
279.9338376502628
 30
0.0
  0
POINT
  5
1378
330
A
100
AcDbEntity
  8
MODEL
100
AcDbPoint
 10
1180.157201609016
 20
264.2731813749589
 30
0.0
  0
POINT
  5
1379
330
A
100
AcDbEntity
  8
MODEL
100
AcDbPoint
 10
1193.957187809016
 20
264.2731813749589
 30
0.0
  0
POINT
  5
1389
330
A
100
AcDbEntity
  8
MODEL
100
AcDbPoint
 10
1079.093440814797
 20
383.9337336502628
 30
0.0
  0
POINT
  5
138A
330
A
100
AcDbEntity
  8
MODEL
100
AcDbPoint
 10
1079.093440814797
 20
279.9337336502626
 30
0.0
  0
POINT
  5
138D
330
A
100
AcDbEntity
  8
MODEL
100
AcDbPoint
 10
1093.467555113589
 20
264.2731813749589
 30
0.0
  0
POINT
  5
138E
330
A
100
AcDbEntity
  8
MODEL
100
AcDbPoint
 10
1106.467555113589
 20
264.2731813749589
 30
0.0
  0
POINT
  5
1398
330
A
100
AcDbEntity
  8
MODEL
100
AcDbPoint
 10
1180.157201609016
 20
398.2298339817613
 30
0.0
  0
POINT
  5
1399
330
A
100
AcDbEntity
  8
MODEL
100
AcDbPoint
 10
1194.157187609016
 20
398.2298339817613
 30
0.0
  0
POINT
  5
139C
330
A
100
AcDbEntity
  8
MODEL
100
AcDbPoint
 10
1093.467555113589
 20
398.2298339817613
 30
0.0
  0
POINT
  5
139D
330
A
100
AcDbEntity
  8
MODEL
100
AcDbPoint
 10
1107.467555113589
 20
398.2298339817613
 30
0.0
  0
POINT
  5
4967
330
A
100
AcDbEntity
  8
MODEL
100
AcDbPoint
 10
159.6608149866037
 20
1112.943495860789
 30
0.0
  0
POINT
  5
4968
330
A
100
AcDbEntity
  8
MODEL
100
AcDbPoint
 10
159.6608149866037
 20
1058.143496245838
 30
0.0
  0
ARC
  5
4983
330
A
100
AcDbEntity
  8
MODEL
  6
Continuous
100
AcDbCircle
 10
408.8919621410434
 20
321.375005369178
 30
0.0
 40
15.0
100
AcDbArc
 50
23.48408455377067
 51
336.3055605938795
  0
POINT
  5
499D
330
A
100
AcDbEntity
  8
MODEL
100
AcDbPoint
 10
471.5926809920595
 20
1039.574930990415
 30
0.0
  0
POINT
  5
499E
330
A
100
AcDbEntity
  8
MODEL
100
AcDbPoint
 10
478.7926809920594
 20
1039.574930990415
 30
0.0
  0
DIMENSION
  5
4A99
330
A
100
AcDbEntity
  8
寸法
  6
Continuous
100
AcDbDimension
  2
*D5
 10
369.1852634925926
 20
306.375005369178
 30
0.0
 11
369.1852634925926
 21
321.375005369178
 31
0.0
 70
   160
 71
     5
 42
30.0
 73
     0
 74
     0
 75
     0
  3
tfrom線あり
100
AcDbAlignedDimension
 13
399.3957957410434
 23
336.375005369178
 33
0.0
 14
399.3957957410434
 24
306.375005369178
 34
0.0
 50
90.0
100
AcDbRotatedDimension
1001
ACAD
1000
DSTYLE
1002
{
1070
   271
1070
     0
1070
     3
1000
φ<>
1002
}
  0
ARC
  5
4B95
330
A
100
AcDbEntity
  8
MODEL
  6
DASHED1
100
AcDbCircle
 10
408.9531428132897
 20
321.195739482332
 30
0.0
 40
15.0
100
AcDbArc
 50
336.3910372479264
 51
23.29526508500875
  0
LINE
  5
4C51
330
A
100
AcDbEntity
  8
MODEL
  6
Continuous
100
AcDbLine
 10
134.9027726546351
 20
168.8711198796608
 30
0.0
 11
134.9027726546351
 21
192.8711198796608
 31
0.0
  0
LINE
  5
51B4
330
A
100
AcDbEntity
  8
PRINT BORDER
100
AcDbLine
 10
296.9999999999999
 20
0.0
 30
0.0
 11
296.9999999999999
 21
15.30952622855898
 31
0.0
  0
LINE
  5
51B6
330
A
100
AcDbEntity
  8
テンプレート
100
AcDbLine
 10
15.30952622855898
 20
26.22153683920783
 30
0.0
 11
578.6904737714407
 21
26.22153683920783
 31
0.0
  0
LINE
  5
51BF
330
A
100
AcDbEntity
  8
PRINT BORDER
100
AcDbLine
 10
593.9999999999999
 20
210.0
 30
0.0
 11
578.6904737714411
 21
210.0
 31
0.0
  0
LINE
  5
51C0
330
A
100
AcDbEntity
  8
PRINT BORDER
100
AcDbLine
 10
0.0
 20
210.0
 30
0.0
 11
15.30952622855898
 21
210.0
 31
0.0
  0
LINE
  5
51C1
330
A
100
AcDbEntity
  8
PRINT BORDER
100
AcDbLine
 10
296.9999999999999
 20
420.0
 30
0.0
 11
296.9999999999999
 21
404.690473771441
 31
0.0
  0
LINE
  5
51C2
330
A
100
AcDbEntity
  8
テンプレート
100
AcDbLine
 10
578.6904737714411
 20
62.22153683920783
 30
0.0
 11
578.6904737714411
 21
26.22153683920783
 31
0.0
  0
LINE
  5
51C3
330
A
100
AcDbEntity
  8
テンプレート
100
AcDbLine
 10
15.30952622855898
 20
62.22153683920783
 30
0.0
 11
15.30952622855898
 21
26.22153683920783
 31
0.0
  0
TEXT
  5
51C4
330
A
100
AcDbEntity
  8
テンプレート
100
AcDbText
 10
494.9733384955217
 20
16.51938390313694
 30
0.0
 40
5.5
  1
大洋金物株式会社  
  7
ＭＳ ゴシック
100
AcDbText
  0
INSERT
  5
51C7
330
A
100
AcDbEntity
  8
テンプレート
100
AcDbBlockReference
  2
名称未設定-1
 10
548.3945198859805
 20
-7.642344203993161
 30
0.0
 41
0.180975
 42
0.180975
 43
0.180975
  0
LINE
  5
51C9
330
A
100
AcDbEntity
  8
テンプレート
100
AcDbLine
 10
15.30952622855898
 20
210.0
 30
0.0
 11
15.30952622855898
 21
26.22153683920783
 31
0.0
  0
LINE
  5
51CA
330
A
100
AcDbEntity
  8
テンプレート
100
AcDbLine
 10
15.30952622855898
 20
210.0
 30
0.0
 11
15.30952622855898
 21
404.690473771441
 31
0.0
  0
LINE
  5
51CB
330
A
100
AcDbEntity
  8
テンプレート
100
AcDbLine
 10
296.9999999999999
 20
404.690473771441
 30
0.0
 11
15.30952622855887
 21
404.690473771441
 31
0.0
  0
LINE
  5
51CC
330
A
100
AcDbEntity
  8
テンプレート
100
AcDbLine
 10
296.9999999999999
 20
404.690473771441
 30
0.0
 11
578.6904737714411
 21
404.690473771441
 31
0.0
  0
LINE
  5
51CD
330
A
100
AcDbEntity
  8
テンプレート
100
AcDbLine
 10
578.6904737714411
 20
210.0
 30
0.0
 11
578.6904737714411
 21
404.690473771441
 31
0.0
  0
LINE
  5
51CE
330
A
100
AcDbEntity
  8
テンプレート
100
AcDbLine
 10
578.6904737714411
 20
210.0
 30
0.0
 11
578.6904737714411
 21
26.22153683920783
 31
0.0
  0
LWPOLYLINE
  5
51CF
330
A
100
AcDbEntity
  8
PRINT BORDER
  6
HIDDEN
 48
3.0
100
AcDbPolyline
 90
        4
 70
     1
 43
0.0
 10
0.0
 20
0.0
 10
0.0
 20
420.0
 10
593.9999999999999
 20
420.0
 10
593.9999999999999
 20
0.0
  0
TEXT
  5
51D5
330
A
100
AcDbEntity
  8
_0-1_
 62
     1
100
AcDbText
 10
177.7468866874332
 20
79.37939740351129
 30
0.0
 40
4.0
  1
   
  7
ＭＳ ゴシック
100
AcDbText
  0
LINE
  5
51D6
330
A
100
AcDbEntity
  8
SPACER
  6
CENTER
 48
3.0
100
AcDbLine
 10
127.1816507401138
 20
224.6771809568476
 30
0.0
 11
127.1816507401138
 21
137.0485128832279
 31
0.0
  0
LINE
  5
51D7
330
A
100
AcDbEntity
  8
SPACER
  6
CENTER
 48
3.0
100
AcDbLine
 10
83.36731670330403
 20
180.8628469200378
 30
0.0
 11
170.9959847769237
 21
180.8628469200378
 31
0.0
  0
LINE
  5
51D8
330
A
100
AcDbEntity
  8
SPACER
  6
CENTER
 48
3.0
100
AcDbLine
 10
83.36817797774336
 20
348.7335990428101
 30
0.0
 11
170.9968460513629
 21
348.7335990428101
 31
0.0
  0
LINE
  5
51D9
330
A
100
AcDbEntity
  8
SPACER
  6
CENTER
 48
3.0
100
AcDbLine
 10
408.8721245115548
 20
365.1479330796199
 30
0.0
 11
408.8721245115548
 21
277.5192650060002
 31
0.0
  0
LINE
  5
51DA
330
A
100
AcDbEntity
  8
SPACER
  6
CENTER
 48
3.0
100
AcDbLine
 10
365.0577904747449
 20
321.33359904281
 30
0.0
 11
452.6864585483646
 21
321.33359904281
 31
0.0
  0
LWPOLYLINE
  5
523C
330
A
100
AcDbEntity
  8
SPACER
100
AcDbPolyline
 90
        4
 70
     1
 43
0.0
 10
161.5928474918056
 20
97.1045060433407
 10
161.5928474918056
 20
69.6571102646527
 10
432.4071525081941
 20
69.6571102646527
 10
432.4071525081941
 20
97.1045060433407
  0
LINE
  5
523D
330
A
100
AcDbEntity
  8
SPACER
  6
CENTER
 48
3.0
100
AcDbLine
 10
296.9999999999999
 20
404.690473771441
 30
0.0
 11
297.0
 21
106.25363796957
 31
0.0
  0
LINE
  5
523E
330
A
100
AcDbEntity
  8
SPACER
  6
CENTER
 48
3.0
100
AcDbLine
 10
15.30952622855898
 20
255.4720558705055
 30
0.0
 11
578.690473771441
 21
255.4720558705055
 31
0.0
  0
LINE
  5
523F
330
A
100
AcDbEntity
  8
SPACER
  6
CENTER
 48
3.0
100
AcDbLine
 10
15.30952622855898
 20
106.25363796957
 30
0.0
 11
578.690473771441
 21
106.25363796957
 31
0.0
  0
LINE
  5
5240
330
A
100
AcDbEntity
  8
SPACER
  6
CENTER
 48
3.0
100
AcDbLine
 10
408.8721245115548
 20
224.6771809568476
 30
0.0
 11
408.8721245115548
 21
137.0485128832279
 31
0.0
  0
LINE
  5
5241
330
A
100
AcDbEntity
  8
SPACER
  6
CENTER
 48
3.0
100
AcDbLine
 10
365.057790474745
 20
180.8628469200378
 30
0.0
 11
452.6864585483647
 21
180.8628469200378
 31
0.0
  0
CIRCLE
  5
5258
102
{ACAD_REACTORS
330
52E1
330
52E4
330
5CAF
102
}
330
A
100
AcDbEntity
  8
CutoutOverlay
100
AcDbCircle
 10
408.8721245115548
 20
180.8628469200378
 30
0.0
 40
14.0
  0
TEXT
  5
52DE
330
A
100
AcDbEntity
  8
寸法
100
AcDbText
 10
348.1659509202454
 20
231.4229447852761
 30
0.0
 40
5.0
  1
<切欠図>
  7
ＭＳ ゴシック
100
AcDbText
  0
LEADER
  5
52DF
102
{ACAD_REACTORS
330
52E1
102
}
102
{ACAD_XDICTIONARY
360
52E0
102
}
330
A
100
AcDbEntity
  8
寸法
100
AcDbLeader
  3
tfrom線あり
 76
     3
 10
408.8721245115548
 20
194.8628469200378
 30
0.0
 10
408.8721245115548
 20
200.7337752882268
 30
0.0
 10
429.7465439999998
 20
200.7337752882268
 30
0.0
  0
LEADER
  5
52E2
102
{ACAD_REACTORS
330
52E4
102
}
102
{ACAD_XDICTIONARY
360
52E3
102
}
330
A
100
AcDbEntity
  8
寸法
100
AcDbLeader
  3
tfrom線あり
 76
     3
 10
408.8721245115548
 20
180.8628469200378
 30
0.0
 10
442.1530114131083
 20
156.5669494488204
 30
0.0
 10
510.1082899407156
 20
156.5669494488204
 30
0.0
  0
TEXT
  5
52E6
330
A
100
AcDbEntity
  8
寸法
100
AcDbText
 10
443.7339484827306
 20
159.2024023985158
 30
0.0
 40
5.0
  1
レバー角芯 センター
  7
ＭＳ ゴシック
100
AcDbText
  0
LINE
  5
52EB
330
A
100
AcDbEntity
  8
SPACER
  6
CENTER
 48
3.0
100
AcDbLine
 10
127.1825120145532
 20
392.54793307962
 30
0.0
 11
127.1825120145532
 21
304.9192650060003
 31
0.0
  0
ARC
  5
5384
330
A
100
AcDbEntity
  8
CutoutUnderlay
  6
STYLE_02
100
AcDbCircle
 10
408.8721245115548
 20
180.8628469200378
 30
0.0
 40
12.0
100
AcDbArc
 50
179.9992630000003
 51
180.4691690000001
  0
LINE
  5
538E
330
A
100
AcDbEntity
  8
CutoutUnderlay
  6
STYLE_02
100
AcDbLine
 10
396.8725355115549
 20
180.7716399200376
 30
0.0
 11
396.8725265115548
 21
180.7645849200378
 31
0.0
  0
ARC
  5
577D
102
{ACAD_REACTORS
330
581B
102
}
330
A
100
AcDbEntity
  8
MODEL
  6
Continuous
100
AcDbCircle
 10
527.3919621410432
 20
329.875005369178
 30
0.0
 40
1.5
100
AcDbArc
 50
0.0
 51
90.0
  0
ARC
  5
577E
102
{ACAD_REACTORS
330
581B
102
}
330
A
100
AcDbEntity
  8
MODEL
  6
Continuous
100
AcDbCircle
 10
527.3919621410432
 20
312.875005369178
 30
0.0
 40
1.5
100
AcDbArc
 50
270.0
 51
0.0
  0
ARC
  5
5780
102
{ACAD_REACTORS
330
581A
102
}
330
A
100
AcDbEntity
  8
MODEL
  6
Continuous
100
AcDbCircle
 10
150.0329591164623
 20
311.0229538105481
 30
0.0
 40
12.0
100
AcDbArc
 50
177.8054769999999
 51
270.0
  0
ARC
  5
5781
102
{ACAD_REACTORS
330
581A
102
}
330
A
100
AcDbEntity
  8
MODEL
  6
Continuous
100
AcDbCircle
 10
148.3468611164623
 20
311.0229538105481
 30
0.0
 40
32.0
100
AcDbArc
 50
182.1945230000001
 51
270.0
  0
ARC
  5
5782
102
{ACAD_REACTORS
330
581A
102
}
330
A
100
AcDbEntity
  8
MODEL
  6
Continuous
100
AcDbCircle
 10
245.6737631164623
 20
297.5229538105481
 30
0.0
 40
1.5
100
AcDbArc
 50
0.0
 51
90.0
  0
ARC
  5
5783
102
{ACAD_REACTORS
330
581A
102
}
330
A
100
AcDbEntity
  8
MODEL
  6
Continuous
100
AcDbCircle
 10
245.6737631164623
 20
280.5229538105481
 30
0.0
 40
1.5
100
AcDbArc
 50
270.0
 51
0.0
  0
ARC
  5
5785
102
{ACAD_REACTORS
330
581B
102
}
330
A
100
AcDbEntity
  8
MODEL
  6
Continuous
100
AcDbCircle
 10
408.8919621410433
 20
321.375005369178
 30
0.0
 40
12.0
100
AcDbArc
 50
62.48052700000021
 51
297.5194729999998
  0
ARC
  5
5786
102
{ACAD_REACTORS
330
581B
102
}
330
A
100
AcDbEntity
  8
MODEL
  6
HIDDEN2
100
AcDbCircle
 10
408.8919621410433
 20
321.375005369178
 30
0.0
 40
12.0
100
AcDbArc
 50
297.5194729999998
 51
62.48052700000021
  0
ARC
  5
5787
102
{ACAD_REACTORS
330
73CC
102
}
330
A
100
AcDbEntity
  8
MODEL
  6
HIDDEN2
100
AcDbCircle
 10
186.9027726546351
 20
180.8711198796608
 30
0.0
 40
10.0
100
AcDbArc
 50
87.80547700000001
 51
272.194523
  0
ARC
  5
5788
102
{ACAD_REACTORS
330
73CC
102
}
330
A
100
AcDbEntity
  8
MODEL
  6
Continuous
100
AcDbCircle
 10
186.9027726546351
 20
180.8711198796608
 30
0.0
 40
10.0
100
AcDbArc
 50
272.194523
 51
87.80547700000001
  0
LINE
  5
5789
102
{ACAD_REACTORS
330
581B
102
}
330
A
100
AcDbEntity
  8
MODEL
  6
Continuous
100
AcDbLine
 10
528.8919621410432
 20
312.875005369178
 30
0.0
 11
528.8919621410432
 21
329.875005369178
 31
0.0
  0
LINE
  5
578C
102
{ACAD_REACTORS
330
581B
102
}
330
A
100
AcDbEntity
  8
MODEL
  6
Continuous
100
AcDbLine
 10
409.3151251410434
 20
310.5328723691779
 30
0.0
 11
430.8919621410433
 21
311.375005369178
 31
0.0
  0
LINE
  5
578D
102
{ACAD_REACTORS
330
581B
102
}
330
A
100
AcDbEntity
  8
MODEL
  6
Continuous
100
AcDbLine
 10
430.8919621410433
 20
331.375005369178
 30
0.0
 11
409.3151251410434
 21
332.217138369178
 31
0.0
  0
LINE
  5
578F
102
{ACAD_REACTORS
330
581A
102
}
330
A
100
AcDbEntity
  8
MODEL
  6
Continuous
100
AcDbLine
 10
148.3468611164623
 20
279.0229538105481
 30
0.0
 11
245.6737631164623
 21
279.0229538105481
 31
0.0
  0
LINE
  5
5790
102
{ACAD_REACTORS
330
581A
330
582B
102
}
330
A
100
AcDbEntity
  8
MODEL
  6
Continuous
100
AcDbLine
 10
150.0329591164623
 20
299.0229538105481
 30
0.0
 11
245.6737631164623
 21
299.0229538105481
 31
0.0
  0
LINE
  5
5797
102
{ACAD_REACTORS
330
581A
102
}
330
A
100
AcDbEntity
  8
MODEL
  6
Continuous
100
AcDbLine
 10
247.1737631164623
 20
280.5229538105481
 30
0.0
 11
247.1737631164623
 21
297.5229538105481
 31
0.0
  0
LINE
  5
5798
102
{ACAD_REACTORS
330
581A
102
}
330
A
100
AcDbEntity
  8
MODEL
  6
Continuous
100
AcDbLine
 10
116.3703311164622
 20
309.7976008105481
 30
0.0
 11
115.1737631164623
 21
341.022953810548
 31
0.0
  0
LINE
  5
5799
102
{ACAD_REACTORS
330
581A
102
}
330
A
100
AcDbEntity
  8
MODEL
  6
Continuous
100
AcDbLine
 10
139.1737631164623
 20
341.022953810548
 30
0.0
 11
138.0417601164622
 21
311.482460810548
 31
0.0
  0
LINE
  5
579A
102
{ACAD_REACTORS
330
581A
102
}
330
A
100
AcDbEntity
  8
MODEL
  6
Continuous
100
AcDbLine
 10
139.1737631164623
 20
341.022953810548
 30
0.0
 11
115.1737631164623
 21
341.022953810548
 31
0.0
  0
LINE
  5
57A2
102
{ACAD_REACTORS
330
73CC
102
}
330
A
100
AcDbEntity
  8
MODEL
  6
Continuous
100
AcDbLine
 10
187.2856956546351
 20
170.8784538796608
 30
0.0
 11
134.9027726546351
 21
168.8711198796608
 31
0.0
  0
LINE
  5
57A3
102
{ACAD_REACTORS
330
73CC
102
}
330
A
100
AcDbEntity
  8
MODEL
  6
Continuous
100
AcDbLine
 10
134.9027726546351
 20
192.8711198796608
 30
0.0
 11
187.2856956546351
 21
190.8637858796608
 31
0.0
  0
LINE
  5
57A4
102
{ACAD_REACTORS
330
581B
102
}
330
A
100
AcDbEntity
  8
MODEL
  6
Continuous
100
AcDbLine
 10
527.3919621410432
 20
311.375005369178
 30
0.0
 11
430.8919621410433
 21
311.375005369178
 31
0.0
  0
LINE
  5
57A5
102
{ACAD_REACTORS
330
581B
102
}
330
A
100
AcDbEntity
  8
MODEL
  6
Continuous
100
AcDbLine
 10
527.3919621410432
 20
331.375005369178
 30
0.0
 11
430.8919621410433
 21
331.375005369178
 31
0.0
  0
LINE
  5
57A6
330
A
100
AcDbEntity
  8
MODEL
  6
Continuous
100
AcDbLine
 10
134.9027726546351
 20
192.8711198796608
 30
0.0
 11
134.9027726546351
 21
168.8711198796608
 31
0.0
  0
TEXT
  5
5805
330
A
100
AcDbEntity
  8
テンプレート
100
AcDbText
 10
187.3255251873665
 20
95.58845453164052
 30
0.0
 40
5.0
  1
　 加工は現物合わせの上行って下さい。
  7
ＭＳ ゴシック
100
AcDbText
  0
TEXT
  5
5806
330
A
100
AcDbEntity
  8
テンプレート
100
AcDbText
 10
187.4977682695751
 20
103.6922386277807
 30
0.0
 40
5.0
  1
※ 輸入製品の為、国内製品と比べ製品寸法の個体差に幅が有ります。
  7
ＭＳ ゴシック
100
AcDbText
  0
TEXT
  5
5807
330
A
100
AcDbEntity
  8
テンプレート
100
AcDbText
 10
187.3255251873665
 20
86.21682322716002
 30
0.0
 40
5.0
  1
※ ご注文の際は正確な扉厚の指示をしてください。
  7
ＭＳ ゴシック
100
AcDbText
  0
TEXT
  5
5808
330
A
100
AcDbEntity
  8
テンプレート
100
AcDbText
 10
187.3255251873665
 20
77.5173345961741
 30
0.0
 40
5.0
  1
※ イモネジ・ビスのゆるみ止め防止のために金属製ネジ用ゆるみ止め剤(中強度タイプ)
  7
ＭＳ ゴシック
100
AcDbText
  0
TEXT
  5
5809
330
A
100
AcDbEntity
  8
テンプレート
100
AcDbText
 10
183.5610795085161
 20
68.07646144979785
 30
0.0
 40
5.0
  1
　　を用意して塗布してください。(推奨商品　住友3M社TL42J等)
  7
ＭＳ ゴシック
100
AcDbText
  0
DIMENSION
  5
581C
330
A
100
AcDbEntity
  8
寸法
  6
Continuous
100
AcDbDimension
  2
*D15
 10
247.1737631164624
 20
255.8727313310151
 30
0.0
 11
181.1737631164625
 21
260.3727313310151
 31
0.0
 70
    32
 71
     5
 42
131.9999999999999
 73
     0
 74
     0
 75
     0
  3
tfrom線あり
100
AcDbAlignedDimension
 13
115.1737631164625
 23
305.4263985691421
 33
0.0
 14
247.1737631164624
 24
279.6080364356354
 34
0.0
100
AcDbRotatedDimension
1001
ACAD
1000
DSTYLE
1002
{
1070
   144
1040
1.0
1002
}
  0
DIMENSION
  5
5829
102
{ACAD_REACTORS
330
582B
102
}
102
{ACAD_XDICTIONARY
360
582A
102
}
330
A
100
AcDbEntity
  8
寸法
  6
Continuous
100
AcDbDimension
  2
*D16
 10
266.6051323327644
 20
279.054910741679
 30
0.0
 11
262.1051323327644
 21
289.0389322761135
 31
0.0
 70
    32
 71
     5
 42
19.96804306886906
 73
     0
 74
     0
 75
     0
  3
tfrom線あり
100
AcDbAlignedDimension
 13
244.5417968970846
 23
299.0229538105481
 33
0.0
 14
245.6719544081366
 24
279.054910741679
 34
0.0
 50
90.0
100
AcDbRotatedDimension
1001
ACAD
1000
DSTYLE
1002
{
1070
   144
1040
1.0
1002
}
  0
DIMENSION
  5
5838
330
A
100
AcDbEntity
  8
寸法
  6
Continuous
100
AcDbDimension
  2
*D17
 10
83.29381077446469
 20
341.0229538105481
 30
0.0
 11
83.29381077446469
 21
309.659177143836
 31
0.0
 70
   160
 71
     5
 42
62.0
 73
     0
 74
     0
 75
     0
  3
tfrom線あり
100
AcDbAlignedDimension
 13
142.4823290534529
 23
279.0229538105481
 33
0.0
 14
115.0696620706592
 24
341.0229538105481
 34
0.0
 50
90.0
100
AcDbRotatedDimension
1001
ACAD
1000
DSTYLE
1002
{
1070
   144
1040
1.0
1002
}
  0
ARC
  5
5862
330
A
100
AcDbEntity
  8
CutoutUnderlay
  6
Continuous
100
AcDbCircle
 10
408.8721245115548
 20
180.8628469200378
 30
0.0
 40
15.0
100
AcDbArc
 50
23.48408455377067
 51
336.3055605938794
  0
ARC
  5
5863
330
A
100
AcDbEntity
  8
CutoutUnderlay
  6
DASHED1
100
AcDbCircle
 10
408.9333051838011
 20
180.6835810331918
 30
0.0
 40
15.0
100
AcDbArc
 50
336.3910372479264
 51
23.2952650850087
  0
ARC
  5
5864
102
{ACAD_REACTORS
330
586E
102
}
330
A
100
AcDbEntity
  8
CutoutUnderlay
  6
Continuous
100
AcDbCircle
 10
527.3721245115546
 20
189.3628469200378
 30
0.0
 40
1.5
100
AcDbArc
 50
0.0
 51
90.0
  0
ARC
  5
5865
102
{ACAD_REACTORS
330
586E
102
}
330
A
100
AcDbEntity
  8
CutoutUnderlay
  6
Continuous
100
AcDbCircle
 10
527.3721245115546
 20
172.3628469200378
 30
0.0
 40
1.5
100
AcDbArc
 50
270.0
 51
0.0
  0
ARC
  5
5866
102
{ACAD_REACTORS
330
586E
102
}
330
A
100
AcDbEntity
  8
CutoutUnderlay
  6
Continuous
100
AcDbCircle
 10
408.8721245115548
 20
180.8628469200378
 30
0.0
 40
12.0
100
AcDbArc
 50
62.48052700000021
 51
297.5194729999998
  0
ARC
  5
5867
102
{ACAD_REACTORS
330
586E
102
}
330
A
100
AcDbEntity
  8
CutoutUnderlay
  6
HIDDEN2
100
AcDbCircle
 10
408.8721245115548
 20
180.8628469200378
 30
0.0
 40
12.0
100
AcDbArc
 50
297.5194729999998
 51
62.48052700000021
  0
LINE
  5
5868
102
{ACAD_REACTORS
330
586E
102
}
330
A
100
AcDbEntity
  8
CutoutUnderlay
  6
Continuous
100
AcDbLine
 10
528.8721245115546
 20
172.3628469200378
 30
0.0
 11
528.8721245115546
 21
189.3628469200378
 31
0.0
  0
LINE
  5
5869
102
{ACAD_REACTORS
330
586E
102
}
330
A
100
AcDbEntity
  8
CutoutUnderlay
  6
Continuous
100
AcDbLine
 10
409.2952875115548
 20
170.0207139200378
 30
0.0
 11
430.8721245115548
 21
170.8628469200378
 31
0.0
  0
LINE
  5
586A
102
{ACAD_REACTORS
330
586E
102
}
330
A
100
AcDbEntity
  8
CutoutUnderlay
  6
Continuous
100
AcDbLine
 10
430.8721245115548
 20
190.8628469200378
 30
0.0
 11
409.2952875115548
 21
191.7049799200378
 31
0.0
  0
LINE
  5
586B
102
{ACAD_REACTORS
330
586E
102
}
330
A
100
AcDbEntity
  8
CutoutUnderlay
  6
Continuous
100
AcDbLine
 10
527.3721245115546
 20
170.8628469200378
 30
0.0
 11
430.8721245115548
 21
170.8628469200378
 31
0.0
  0
LINE
  5
586C
102
{ACAD_REACTORS
330
586E
102
}
330
A
100
AcDbEntity
  8
CutoutUnderlay
  6
Continuous
100
AcDbLine
 10
527.3721245115546
 20
190.8628469200378
 30
0.0
 11
430.8721245115548
 21
190.8628469200378
 31
0.0
  0
MTEXT
  5
5925
102
{ACAD_XDICTIONARY
360
5926
102
}
330
A
100
AcDbEntity
  8
寸法
  6
Continuous
370
     0
100
AcDbMText
 10
16.23649137901964
 20
23.25055861914361
 30
0.0
 40
4.0
 41
0.0
 46
4.0
 71
     1
 72
     1
  1
{20230913M}
  7
ＭＳ ゴシック
 73
     1
 44
1.0
1001
ACAD
1000
ACAD_MTEXT_DEFINED_HEIGHT_BEGIN
1070
    46
1040
4.0
1000
ACAD_MTEXT_DEFINED_HEIGHT_END
  0
LINE
  5
5B70
102
{ACAD_REACTORS
330
5B77
102
}
330
A
100
AcDbEntity
  8
MODEL
  6
Continuous
100
AcDbLine
 10
112.1737631164623
 20
341.022953810548
 30
0.0
 11
142.1737631164623
 21
341.022953810548
 31
0.0
  0
LINE
  5
5B71
102
{ACAD_REACTORS
330
5B77
102
}
330
A
100
AcDbEntity
  8
MODEL
  6
Continuous
100
AcDbLine
 10
142.1737631164623
 20
341.022953810548
 30
0.0
 11
142.1737631164623
 21
343.022953810548
 31
0.0
  0
LINE
  5
5B72
102
{ACAD_REACTORS
330
5B77
102
}
330
A
100
AcDbEntity
  8
MODEL
  6
Continuous
100
AcDbLine
 10
142.1737631164623
 20
343.022953810548
 30
0.0
 11
112.1737631164623
 21
343.022953810548
 31
0.0
  0
LINE
  5
5B73
102
{ACAD_REACTORS
330
5B77
102
}
330
A
100
AcDbEntity
  8
MODEL
  6
Continuous
100
AcDbLine
 10
112.1737631164623
 20
343.022953810548
 30
0.0
 11
112.1737631164623
 21
341.022953810548
 31
0.0
  0
LINE
  5
5B74
102
{ACAD_REACTORS
330
5B77
102
}
330
A
100
AcDbEntity
  8
MODEL
  6
Continuous
100
AcDbLine
 10
113.6737631164623
 20
343.022953810548
 30
0.0
 11
113.6737631164623
 21
348.022953810548
 31
0.0
  0
LINE
  5
5B75
102
{ACAD_REACTORS
330
5B77
102
}
330
A
100
AcDbEntity
  8
MODEL
  6
Continuous
100
AcDbLine
 10
113.6737631164623
 20
348.022953810548
 30
0.0
 11
140.6737631164623
 21
348.022953810548
 31
0.0
  0
LINE
  5
5B76
102
{ACAD_REACTORS
330
5B77
102
}
330
A
100
AcDbEntity
  8
MODEL
  6
Continuous
100
AcDbLine
 10
140.6737631164623
 20
348.022953810548
 30
0.0
 11
140.6737631164623
 21
343.022953810548
 31
0.0
  0
DIMENSION
  5
5BED
102
{ACAD_XDICTIONARY
360
5BEE
102
}
330
A
100
AcDbEntity
  8
DIM
  6
Continuous
100
AcDbDimension
  2
*D23
 10
157.7373579414105
 20
343.022953810548
 30
0.0
 11
157.7373579414105
 21
334.730453810548
 31
0.0
 70
   160
 71
     5
 42
2.0
 73
     0
 74
     1
 75
     1
  3
tfrom線あり
100
AcDbAlignedDimension
 13
142.1737631164623
 23
341.022953810548
 33
0.0
 14
142.1737631164623
 24
343.022953810548
 34
0.0
 50
90.0
100
AcDbRotatedDimension
1001
ACAD
1000
DSTYLE
1002
{
1070
   144
1040
1.0
1002
}
  0
DIMENSION
  5
5BF2
102
{ACAD_XDICTIONARY
360
5BF3
102
}
330
A
100
AcDbEntity
  8
DIM
  6
Continuous
100
AcDbDimension
  2
*D24
 10
157.7373579414105
 20
343.022953810548
 30
0.0
 11
157.7373579414105
 21
345.522953810548
 31
0.0
 70
   160
 71
     5
 42
5.0
 73
     0
 74
     0
 75
     0
  3
tfrom線あり
100
AcDbAlignedDimension
 13
140.6737631164623
 23
348.022953810548
 33
0.0
 14
142.1737631164623
 24
343.022953810548
 34
0.0
 50
90.0
100
AcDbRotatedDimension
1001
ACAD
1000
DSTYLE
1002
{
1070
   144
1040
1.0
1002
}
  0
DIMENSION
  5
5BF6
102
{ACAD_XDICTIONARY
360
5BF7
102
}
330
A
100
AcDbEntity
  8
DIM
  6
Continuous
100
AcDbDimension
  2
*D25
 10
142.1737631164623
 20
370.5986007134097
 30
0.0
 11
127.1737631164623
 21
375.0986007134097
 31
0.0
 70
    32
 71
     5
 42
30.0
 73
     0
 74
     0
 75
     0
  3
tfrom線あり
100
AcDbAlignedDimension
 13
112.1737631164623
 23
343.022953810548
 33
0.0
 14
142.1737631164623
 24
343.022953810548
 34
0.0
100
AcDbRotatedDimension
1001
ACAD
1000
DSTYLE
1002
{
1070
   144
1040
1.0
1002
}
  0
DIMENSION
  5
5BFA
330
A
100
AcDbEntity
  8
DIM
  6
Continuous
100
AcDbDimension
  2
*D26
 10
140.6737631164623
 20
360.2931957854098
 30
0.0
 11
127.1737631164623
 21
364.7931957854098
 31
0.0
 70
    32
 71
     5
 42
27.0
 73
     0
 74
     0
 75
     0
  3
tfrom線あり
100
AcDbAlignedDimension
 13
113.6737631164623
 23
348.022953810548
 33
0.0
 14
140.6737631164623
 24
348.022953810548
 34
0.0
100
AcDbRotatedDimension
1001
ACAD
1000
DSTYLE
1002
{
1070
   144
1040
1.0
1002
}
  0
TEXT
  5
5C63
330
A
100
AcDbEntity
  8
寸法
100
AcDbText
 10
415.6111579437925
 20
203.4193958794924
 30
0.0
 40
5.0
  1
ø27
  7
ＭＳ ゴシック
100
AcDbText
  0
LINE
  5
5C9E
102
{ACAD_REACTORS
330
5CA5
102
}
330
A
100
AcDbEntity
  8
MODEL
  6
Continuous
100
AcDbLine
 10
134.9027726546351
 20
165.8711198796608
 30
0.0
 11
134.9027726546351
 21
195.8711198796608
 31
0.0
  0
LINE
  5
5C9F
102
{ACAD_REACTORS
330
5CA5
102
}
330
A
100
AcDbEntity
  8
MODEL
  6
Continuous
100
AcDbLine
 10
134.9027726546351
 20
195.8711198796608
 30
0.0
 11
132.9027726546351
 21
195.8711198796608
 31
0.0
  0
LINE
  5
5CA0
102
{ACAD_REACTORS
330
5CA5
102
}
330
A
100
AcDbEntity
  8
MODEL
  6
Continuous
100
AcDbLine
 10
132.9027726546351
 20
195.8711198796608
 30
0.0
 11
132.9027726546351
 21
165.8711198796608
 31
0.0
  0
LINE
  5
5CA1
102
{ACAD_REACTORS
330
5CA5
102
}
330
A
100
AcDbEntity
  8
MODEL
  6
Continuous
100
AcDbLine
 10
132.9027726546351
 20
165.8711198796608
 30
0.0
 11
134.9027726546351
 21
165.8711198796608
 31
0.0
  0
LINE
  5
5CA2
102
{ACAD_REACTORS
330
5CA5
102
}
330
A
100
AcDbEntity
  8
MODEL
  6
Continuous
100
AcDbLine
 10
132.9027726546352
 20
167.3711198796608
 30
0.0
 11
127.9027726546352
 21
167.3711198796608
 31
0.0
  0
LINE
  5
5CA3
102
{ACAD_REACTORS
330
5CA5
102
}
330
A
100
AcDbEntity
  8
MODEL
  6
Continuous
100
AcDbLine
 10
127.9027726546352
 20
167.3711198796608
 30
0.0
 11
127.9027726546351
 21
194.3711198796608
 31
0.0
  0
LINE
  5
5CA4
102
{ACAD_REACTORS
330
5CA5
102
}
330
A
100
AcDbEntity
  8
MODEL
  6
Continuous
100
AcDbLine
 10
127.9027726546351
 20
194.3711198796608
 30
0.0
 11
132.9027726546351
 21
194.3711198796608
 31
0.0
  0
HATCH
  5
5CAF
330
A
100
AcDbEntity
  8
寸法
  6
Continuous
100
AcDbHatch
 10
0.0
 20
0.0
 30
0.0
210
0.0
220
0.0
230
1.0
  2
ANSI31
 70
     0
 71
     1
 91
        1
 92
        1
 93
        1
 72
     2
 10
408.8721245115548
 20
180.8628469200378
 40
14.0
 50
0.0
 51
360.0
 73
     1
 97
        1
330
5258
 75
     0
 76
     1
 52
0.0
 41
1.0
 77
     0
 78
     1
 53
45.0
 43
0.0
 44
0.0
 45
-2.245064030267288
 46
2.245064030267288
 79
     0
 98
        1
 10
0.0
 20
0.0
1001
ACAD
1010
0.0
1020
0.0
1030
0.0
  0
LINE
  5
5CF7
330
A
100
AcDbEntity
  8
寸法
  6
Continuous
100
AcDbLine
 10
113.6737631164623
 20
343.022953810548
 30
0.0
 11
140.6737631164623
 21
344.2950206975999
 31
0.0
  0
LINE
  5
5CF8
330
A
100
AcDbEntity
  8
寸法
  6
Continuous
100
AcDbLine
 10
113.6737631164623
 20
344.397007800948
 30
0.0
 11
140.6737631164623
 21
345.6690746879999
 31
0.0
  0
LINE
  5
5CF9
330
A
100
AcDbEntity
  8
寸法
  6
Continuous
100
AcDbLine
 10
113.6737631164623
 20
345.876758252148
 30
0.0
 11
140.6737631164623
 21
347.1488251391999
 31
0.0
  0
LINE
  5
5CFA
330
A
100
AcDbEntity
  8
寸法
  6
Continuous
100
AcDbLine
 10
113.6737631164623
 20
347.250812242548
 30
0.0
 11
130.062698752006
 21
348.022953810548
 31
0.0
  0
LINE
  5
5D40
330
A
100
AcDbEntity
  8
寸法
  6
Continuous
100
AcDbLine
 10
132.9027726546351
 20
167.3711198796608
 30
0.0
 11
131.6307057675832
 21
194.3711198796608
 31
0.0
  0
LINE
  5
5D41
330
A
100
AcDbEntity
  8
寸法
  6
Continuous
100
AcDbLine
 10
131.5287186642351
 20
167.3711198796608
 30
0.0
 11
130.2566517771832
 21
194.3711198796608
 31
0.0
  0
LINE
  5
5D42
330
A
100
AcDbEntity
  8
寸法
  6
Continuous
100
AcDbLine
 10
130.0489682130351
 20
167.3711198796608
 30
0.0
 11
128.7769013259832
 21
194.3711198796608
 31
0.0
  0
LINE
  5
5D43
330
A
100
AcDbEntity
  8
寸法
  6
Continuous
100
AcDbLine
 10
128.6749142226351
 20
167.3711198796608
 30
0.0
 11
127.9027726546351
 21
183.7600555152045
 31
0.0
  0
LINE
  5
7537
330
A
100
AcDbEntity
  8
テンプレート
100
AcDbLine
 10
437.9999999999999
 20
38.27810890422097
 30
0.0
 11
15.30952622855898
 21
38.27810890422097
 31
0.0
  0
TEXT
  5
7538
330
A
100
AcDbEntity
  8
テンプレート
100
AcDbText
 10
18.06121699514119
 20
32.16825981613692
 30
0.0
 40
3.5
  1
材質
  7
ＭＳ ゴシック
100
AcDbText
  0
TEXT
  5
7539
330
A
100
AcDbEntity
  8
テンプレート
100
AcDbText
 10
18.06121699514119
 20
56.50959028673083
 30
0.0
 40
3.5
  1
品名
  7
ＭＳ ゴシック
100
AcDbText
  0
TEXT
  5
753A
330
A
100
AcDbEntity
  8
テンプレート
100
AcDbText
 10
18.06121699514119
 20
44.65099339080098
 30
0.0
 40
3.5
  1
仕上げ
  7
ＭＳ ゴシック
100
AcDbText
  0
TEXT
  5
753B
330
A
100
AcDbEntity
  8
テンプレート
100
AcDbText
 10
363.3835141214133
 20
56.58523052309897
 30
0.0
 40
3.5
  1
品番
  7
ＭＳ ゴシック
100
AcDbText
  0
TEXT
  5
753C
330
A
100
AcDbEntity
  8
テンプレート
100
AcDbText
 10
36.7528253083583
 20
53.09440584367189
 30
0.0
 40
5.5
  1
プラグイン レバーハンドル(室内用) - FSB -
  7
ＭＳ ゴシック
100
AcDbText
  0
TEXT
  5
753D
330
A
100
AcDbEntity
  8
テンプレート
100
AcDbText
 10
377.5772861459291
 20
52.977080524553
 30
0.0
 40
5.5
  1
FSB10-1075-PG00
  7
ＭＳ ゴシック
100
AcDbText
  0
LINE
  5
753E
330
A
100
AcDbEntity
  8
テンプレート
100
AcDbLine
 10
437.9999999999999
 20
50.16496477419605
 30
0.0
 11
15.30952622855898
 21
50.16496477419605
 31
0.0
  0
LINE
  5
753F
330
A
100
AcDbEntity
  8
テンプレート
100
AcDbLine
 10
578.6904737714412
 20
62.22153683920783
 30
0.0
 11
15.30952622855898
 21
62.22153683920783
 31
0.0
  0
LINE
  5
7540
330
A
100
AcDbEntity
  8
テンプレート
100
AcDbLine
 10
437.9999999999999
 20
62.22153683920783
 30
0.0
 11
437.9999999999999
 21
26.22153683920783
 31
0.0
  0
LINE
  5
7541
330
A
100
AcDbEntity
  8
テンプレート
100
AcDbLine
 10
361.5601656034826
 20
62.22153683920783
 30
0.0
 11
361.5601656034826
 21
26.22153683920783
 31
0.0
  0
TEXT
  5
7542
330
A
100
AcDbEntity
  8
テンプレート
100
AcDbText
 10
363.3590812257049
 20
32.62405342819488
 30
0.0
 40
3.5
  1
縮尺
  7
ＭＳ ゴシック
100
AcDbText
  0
TEXT
  5
7543
330
A
100
AcDbEntity
  8
テンプレート
100
AcDbText
 10
377.5772861459291
 20
28.29362070227194
 30
0.0
 40
5.5
  1
1/2
  7
ＭＳ ゴシック
100
AcDbText
  0
TEXT
  5
7544
330
A
100
AcDbEntity
  8
テンプレート
100
AcDbText
 10
363.3835141214133
 20
44.52865845808583
 30
0.0
 40
3.5
  1
扉厚
  7
ＭＳ ゴシック
100
AcDbText
  0
TEXT
  5
7545
330
A
100
AcDbEntity
  8
テンプレート
100
AcDbText
 10
440.0887524673468
 20
56.58523052309897
 30
0.0
 40
3.5
  1
備考
  7
ＭＳ ゴシック
100
AcDbText
  0
TEXT
  5
7546
330
A
100
AcDbEntity
  8
テンプレート
100
AcDbText
 10
377.3514644884797
 20
44.82304125840494
 30
0.0
 40
3.0
  1
MIWAケース：39～48
  7
ＭＳ ゴシック
100
AcDbText
  0
TEXT
  5
7547
330
A
100
AcDbEntity
  8
テンプレート
100
AcDbText
 10
377.3514644884797
 20
39.8279918743558
 30
0.0
 40
3.0
  1
ユーロケース(DIN規格)：39～48
  7
ＭＳ ゴシック
100
AcDbText
  0
LINE
  5
7548
330
A
100
AcDbEntity
  8
テンプレート
100
AcDbLine
 10
33.63100153769659
 20
26.22153683920783
 30
0.0
 11
33.63100153769659
 21
50.16496477419605
 31
0.0
  0
LINE
  5
7555
330
A
100
AcDbEntity
  8
テンプレート
  6
Continuous
100
AcDbLine
 10
361.5601656034826
 20
44.22153683920783
 30
0.0
 11
33.63100153769662
 21
44.22153683920783
 31
0.0
  0
TEXT
  5
75B2
330
A
100
AcDbEntity
  8
テンプレート
100
AcDbText
 10
449.5587137143709
 20
48.27966562559995
 30
0.0
 40
5.0
  1
室内専用レバーハンドル
  7
ＭＳ ゴシック
100
AcDbText
  0
MTEXT
  5
75F7
330
A
100
AcDbEntity
  8
テンプレート
390
1D
100
AcDbMText
 10
35.02123153496908
 20
34.57354675141926
 30
0.0
 40
5.0
 41
0.0
 46
5.205
 71
     1
 72
     1
  1
{アルミ}
  7
ＭＳ ゴシック
 73
     1
 44
0.7828267384257843
1001
ACAD
1000
ACAD_MTEXT_DEFINED_HEIGHT_BEGIN
1070
    46
1040
5.205
1000
ACAD_MTEXT_DEFINED_HEIGHT_END
  0
MTEXT
  5
75F8
330
A
100
AcDbEntity
  8
テンプレート
390
1D
100
AcDbMText
 10
74.18448363728936
 20
34.5735467514192
 30
0.0
 40
5.0
 41
0.0
 46
5.075
 71
     1
 72
     1
  1
{ステンレス}
  7
ＭＳ ゴシック
 73
     1
 44
0.7828267384257843
1001
ACAD
1000
ACAD_MTEXT_DEFINED_HEIGHT_BEGIN
1070
    46
1040
5.075
1000
ACAD_MTEXT_DEFINED_HEIGHT_END
  0
MTEXT
  5
75F9
330
A
100
AcDbEntity
  8
テンプレート
390
1D
100
AcDbMText
 10
36.11014297489677
 20
48.77911613324937
 30
0.0
 40
3.0
 41
0.0
 46
4.224
 71
     1
 72
     1
  1
{ナチュラル}
  7
ＭＳ ゴシック
 73
     1
 44
0.7828267384257843
1001
ACAD
1000
ACAD_MTEXT_DEFINED_HEIGHT_BEGIN
1070
    46
1040
4.224
1000
ACAD_MTEXT_DEFINED_HEIGHT_END
  0
MTEXT
  5
75FA
330
A
100
AcDbEntity
  8
テンプレート
390
1D
100
AcDbMText
 10
35.99622461874418
 20
42.7508301007428
 30
0.0
 40
3.0
 41
0.0
 46
4.468
 71
     1
 72
     1
  1
{ブラックブラスト}
  7
ＭＳ ゴシック
 73
     1
 44
0.7828267384257843
1001
ACAD
1000
ACAD_MTEXT_DEFINED_HEIGHT_BEGIN
1070
    46
1040
4.468
1000
ACAD_MTEXT_DEFINED_HEIGHT_END
  0
LINE
  5
75FB
330
A
100
AcDbEntity
  8
テンプレート
  6
Continuous
100
AcDbLine
 10
72.13707359999987
 20
50.16496477419605
 30
0.0
 11
72.13707359999987
 21
26.22153683920777
 31
0.0
  0
MTEXT
  5
75FC
330
A
100
AcDbEntity
  8
テンプレート
390
1D
100
AcDbMText
 10
74.50229668104745
 20
48.77911613324943
 30
0.0
 40
3.0
 41
0.0
 46
3.138
 71
     1
 72
     1
  1
{サテン}
  7
ＭＳ ゴシック
 73
     1
 44
0.7828267384257843
1001
ACAD
1000
ACAD_MTEXT_DEFINED_HEIGHT_BEGIN
1070
    46
1040
3.138
1000
ACAD_MTEXT_DEFINED_HEIGHT_END
  0
MTEXT
  5
75FD
330
A
100
AcDbEntity
  8
テンプレート
390
1D
100
AcDbMText
 10
74.50229668104745
 20
42.83568819826115
 30
0.0
 40
3.0
 41
0.0
 46
3.258
 71
     1
 72
     1
  1
{ポリッシュ}
  7
ＭＳ ゴシック
 73
     1
 44
0.7828267384257843
1001
ACAD
1000
ACAD_MTEXT_DEFINED_HEIGHT_BEGIN
1070
    46
1040
3.258
1000
ACAD_MTEXT_DEFINED_HEIGHT_END
  0
LINE
  5
7653
330
A
100
AcDbEntity
  8
MODEL
  6
CENTER
 48
0.35
100
AcDbLine
 10
113.0482748175099
 20
336.022953810548
 30
0.0
 11
97.0599180088059
 21
336.022953810548
 31
0.0
  0
LINE
  5
7654
330
A
100
AcDbEntity
  8
MODEL
  6
Continuous
100
AcDbLine
 10
95.05685959081411
 20
336.022953810548
 30
0.0
 11
93.6685894264365
 21
334.1451901241479
 31
0.0
  0
LINE
  5
7655
330
A
100
AcDbEntity
  8
MODEL
  6
Continuous
100
AcDbLine
 10
90.13225008922059
 20
337.9007174969481
 30
0.0
 11
90.13225008922059
 21
334.1451901241479
 31
0.0
  0
LINE
  5
7656
330
A
100
AcDbEntity
  8
MODEL
  6
Continuous
100
AcDbLine
 10
95.05685959081411
 20
336.022953810548
 30
0.0
 11
93.6685894264365
 21
337.9007174969481
 31
0.0
  0
LINE
  5
7657
330
A
100
AcDbEntity
  8
MODEL
  6
Continuous
100
AcDbLine
 10
93.6685894264365
 20
334.1451901241479
 30
0.0
 11
90.13225008922059
 21
334.1451901241479
 31
0.0
  0
LINE
  5
7658
330
A
100
AcDbEntity
  8
MODEL
  6
Continuous
100
AcDbLine
 10
93.6685894264365
 20
337.9007174969481
 30
0.0
 11
90.13225008922059
 21
337.9007174969481
 31
0.0
  0
LINE
  5
7659
330
A
100
AcDbEntity
  8
MODEL
  6
Continuous
100
AcDbLine
 10
91.21458184781251
 20
337.9007174969481
 30
0.0
 11
91.86398090296781
 21
334.1451901241479
 31
0.0
  0
LINE
  5
765A
330
A
100
AcDbEntity
  8
MODEL
  6
Continuous
100
AcDbLine
 10
91.86398090296758
 20
337.9007174969481
 30
0.0
 11
92.51337995812288
 21
334.1451901241479
 31
0.0
  0
LINE
  5
765B
330
A
100
AcDbEntity
  8
MODEL
  6
Continuous
100
AcDbLine
 10
92.67572972191171
 20
337.9007174969481
 30
0.0
 11
93.3251287770669
 21
334.1451901241479
 31
0.0
  0
LINE
  5
765C
330
A
100
AcDbEntity
  8
MODEL
  6
Continuous
100
AcDbLine
 10
93.48747854085583
 20
337.9007174969481
 30
0.0
 11
94.04811189972044
 21
334.658529340672
 31
0.0
  0
LINE
  5
765D
330
A
100
AcDbEntity
  8
MODEL
  6
Continuous
100
AcDbLine
 10
90.43530298162626
 20
337.9007174969481
 30
0.0
 11
91.08470203678151
 21
334.1451901241479
 31
0.0
  0
LINE
  5
765E
330
A
100
AcDbEntity
  8
MODEL
  6
Continuous
100
AcDbLine
 10
90.13225008922059
 20
335.6474010732679
 30
0.0
 11
90.3920097112826
 21
334.1451901241479
 31
0.0
  0
CIRCLE
  5
767E
330
A
100
AcDbEntity
  8
MODEL
  6
HIDDEN
 48
0.2
100
AcDbCircle
 10
139.9027726546351
 20
180.8711198796608
 30
0.0
 40
2.303517829507655
  0
VIEWPORT
  5
349
330
B
100
AcDbEntity
 67
     1
  8
0
100
AcDbViewport
 10
202.5
 20
128.5
 30
0.0
 40
486.0
 41
308.4
 68
     1
 69
     1
 12
202.5
 22
128.5
 13
0.0
 23
0.0
 14
0.5
 24
0.5
 15
0.0
 25
0.0
 16
0.0
 26
0.0
 36
1.0
 17
0.0
 27
0.0
 37
0.0
 42
50.0
 43
0.0
 44
0.0
 45
308.4
 50
0.0
 51
0.0
 72
   100
 90
   557152
  1

281
     0
 71
     1
 74
     0
110
0.0
120
0.0
130
0.0
111
1.0
121
0.0
131
0.0
112
0.0
122
1.0
132
0.0
 79
     0
146
0.0
170
     0
 61
     5
348
26C
292
     1
282
     1
141
0.0
142
0.0
 63
   256
361
44F1
  0
VIEWPORT
  5
34A
330
B
100
AcDbEntity
 67
     1
  8
0
100
AcDbViewport
 10
202.5
 20
128.5
 30
0.0
 40
324.0
 41
205.6
 68
     2
 69
     2
 12
986.6781359294573
 22
1427.077061889956
 13
0.0
 23
0.0
 14
0.5
 24
0.5
 15
0.0
 25
0.0
 16
0.0
 26
0.0
 36
1.0
 17
0.0
 27
0.0
 37
0.0
 42
50.0
 43
0.0
 44
0.0
 45
2890.021615685494
 50
0.0
 51
0.0
 72
   100
 90
   557152
  1

281
     0
 71
     1
 74
     0
110
0.0
120
0.0
130
0.0
111
1.0
121
0.0
131
0.0
112
0.0
122
1.0
132
0.0
 79
     0
146
0.0
170
     0
 61
     5
348
26C
292
     1
282
     1
141
0.0
142
0.0
 63
   256
  0
ENDSEC
  0
SECTION
  2
OBJECTS
  0
DICTIONARY
  5
19
330
0
100
AcDbDictionary
281
     1
  3
ACAD_COLOR
350
674
  3
ACAD_DETAILVIEWSTYLE
350
13B5
  3
ACAD_FIELDLIST
350
5923
  3
ACAD_GROUP
350
1A
  3
ACAD_IMAGE_VARS
350
27B
  3
ACAD_LAYOUT
350
1E
  3
ACAD_MATERIAL
350
263
  3
ACAD_MLEADERSTYLE
350
336
  3
ACAD_MLINESTYLE
350
1B
  3
ACAD_PLOTSETTINGS
350
22
  3
ACAD_PLOTSTYLENAME
350
1F
  3
ACAD_SCALELIST
350
241
  3
ACAD_SECTIONVIEWSTYLE
350
13B6
  3
ACAD_TABLESTYLE
350
278
  3
ACAD_VISUALSTYLE
350
267
  3
ACDB_RECOMPOSE_DATA
350
7688
  3
AcDbVariableDictionary
350
330
  3
APPDATA
350
27A
  0
SUN
  5
F1A
330
15
100
AcDbSun
 90
        1
290
     0
 63
     7
421
 16777215
 40
1.0
291
     1
 91
  2455826
 92
 54000000
292
     0
 70
     2
 71
   256
280
     1
  0
DICTIONARY
  5
2E1
330
2
100
AcDbDictionary
280
     1
281
     1
  3
ACAD_LAYERSTATES
360
2E2
  3
ACLYDICTIONARY
360
5A8E
  0
DICTIONARY
  5
56F6
330
A
100
AcDbDictionary
280
     1
281
     1
  3
ACAD_SORTENTS
360
56F7
  0
DICTIONARY
  5
52E0
330
52DF
100
AcDbDictionary
280
     1
281
     1
  3
ACAD_DIMASSOC
360
52E1
  0
DICTIONARY
  5
52E3
330
52E2
100
AcDbDictionary
280
     1
281
     1
  3
ACAD_DIMASSOC
360
52E4
  0
DICTIONARY
  5
582A
330
5829
100
AcDbDictionary
280
     1
281
     1
  3
ACAD_DIMASSOC
360
582B
  0
DICTIONARY
  5
5926
330
5925
100
AcDbDictionary
280
     1
281
     1
  3
ACAD_FIELD
360
7682
  0
DICTIONARY
  5
5BEE
330
5BED
100
AcDbDictionary
280
     1
281
     1
  3
*A1
360
5BF0
  3
*A2
360
5BF1
  0
DICTIONARY
  5
5BF3
330
5BF2
100
AcDbDictionary
280
     1
281
     1
  3
*A1
360
5BF5
  0
DICTIONARY
  5
5BF7
330
5BF6
100
AcDbDictionary
280
     1
281
     1
  3
*A1
360
5BF9
  0
SUN
  5
44F1
330
349
100
AcDbSun
 90
        1
290
     0
 63
     7
421
 16777215
 40
1.0
291
     1
 91
  2455826
 92
 54000000
292
     0
 70
     2
 71
   256
280
     1
  0
DICTIONARY
  5
674
102
{ACAD_REACTORS
330
19
102
}
330
19
100
AcDbDictionary
281
     1
  0
DICTIONARY
  5
13B5
102
{ACAD_REACTORS
330
19
102
}
330
19
100
AcDbDictionary
281
     1
  0
FIELDLIST
  5
5923
102
{ACAD_REACTORS
330
19
102
}
330
19
100
AcDbIdSet
 90
        2
330
5929
330
5928
100
AcDbFieldList
  0
DICTIONARY
  5
1A
102
{ACAD_REACTORS
330
19
102
}
330
19
100
AcDbDictionary
281
     1
  3
*A1
350
581A
  3
*A2
350
581B
  3
*A3
350
586E
  3
*A4
350
5B77
  3
*A5
350
5CA5
  3
*A6
350
73CC
  0
RASTERVARIABLES
  5
27B
102
{ACAD_REACTORS
330
19
102
}
330
19
100
AcDbRasterVariables
 90
        0
 70
     1
 71
     1
 72
     1
  0
DICTIONARY
  5
1E
102
{ACAD_REACTORS
330
19
102
}
330
19
100
AcDbDictionary
281
     1
  3
Layout1
350
21
  3
Model
350
20
  0
DICTIONARY
  5
263
102
{ACAD_REACTORS
330
19
102
}
330
19
100
AcDbDictionary
281
     1
  3
ByBlock
350
54E8
  3
ByLayer
350
264
  3
Global
350
266
  0
DICTIONARY
  5
336
102
{ACAD_REACTORS
330
19
102
}
330
19
100
AcDbDictionary
281
     1
  3
Standard
350
5615
  0
DICTIONARY
  5
1B
102
{ACAD_REACTORS
330
19
102
}
330
19
100
AcDbDictionary
281
     1
  3
Standard
350
1C
  0
DICTIONARY
  5
22
102
{ACAD_REACTORS
330
19
102
}
330
19
100
AcDbDictionary
281
     1
  0
ACDBDICTIONARYWDFLT
  5
1F
102
{ACAD_REACTORS
330
19
102
}
330
19
100
AcDbDictionary
281
     1
  3
Normal
350
1D
100
AcDbDictionaryWithDefault
340
1D
  0
DICTIONARY
  5
241
102
{ACAD_REACTORS
330
19
102
}
330
19
100
AcDbDictionary
281
     1
  3
A0
350
242
  3
A1
350
243
  3
A2
350
244
  3
A3
350
245
  3
A4
350
246
  3
A5
350
247
  3
A6
350
248
  3
A7
350
249
  3
A8
350
24A
  3
A9
350
24B
  3
B0
350
24C
  3
B1
350
24D
  3
B2
350
24E
  3
B3
350
24F
  3
B4
350
250
  3
B5
350
251
  3
B6
350
252
  3
B7
350
253
  3
B8
350
254
  3
B9
350
255
  3
C0
350
256
  3
C1
350
257
  3
C2
350
258
  3
C3
350
259
  3
C4
350
25A
  3
C5
350
25B
  3
C6
350
25C
  3
C7
350
25D
  3
C8
350
25E
  3
C9
350
25F
  3
D0
350
260
  3
D1
350
261
  3
D2
350
262
  0
DICTIONARY
  5
13B6
102
{ACAD_REACTORS
330
19
102
}
330
19
100
AcDbDictionary
281
     1
  0
DICTIONARY
  5
278
102
{ACAD_REACTORS
330
19
102
}
330
19
100
AcDbDictionary
281
     1
  3
Standard
350
279
  0
DICTIONARY
  5
267
102
{ACAD_REACTORS
330
19
102
}
330
19
100
AcDbDictionary
281
     1
  3
2dWireframe
350
26C
  3
3D Hidden
350
26E
  3
3dWireframe
350
26D
  3
Basic
350
26F
  3
Brighten
350
273
  3
ColorChange
350
277
  3
Conceptual
350
271
  3
Dim
350
272
  3
EdgeColorOff
350
F14
  3
Facepattern
350
276
  3
Flat
350
268
  3
FlatWithEdges
350
269
  3
Gouraud
350
26A
  3
GouraudWithEdges
350
26B
  3
Hidden
350
F11
  3
JitterOff
350
F12
  3
Linepattern
350
275
  3
OverhangOff
350
F13
  3
Realistic
350
270
  3
Shaded
350
F19
  3
Shaded with edges
350
F18
  3
Shades of Gray
350
F15
  3
Sketchy
350
F16
  3
Thicken
350
274
  3
Wireframe
350
F10
  3
X-Ray
350
F17
  0
XRECORD
  5
7688
102
{ACAD_REACTORS
330
19
102
}
330
19
100
AcDbXrecord
280
     1
 90
        1
330
279
  0
DICTIONARY
  5
330
102
{ACAD_REACTORS
330
19
102
}
330
19
100
AcDbDictionary
281
     1
  3
CANNOSCALE
350
331
  3
CMLEADERSTYLE
350
563E
  3
CTABLESTYLE
350
335
  3
HPTRANSPARENCY
350
52F7
  3
XCLIPFRAME
350
13B4
  0
DICTIONARY
  5
27A
102
{ACAD_REACTORS
330
19
102
}
330
19
100
AcDbDictionary
281
     1
  0
DICTIONARY
  5
2E2
102
{ACAD_REACTORS
330
2E1
102
}
330
2E1
100
AcDbDictionary
281
     1
  0
DICTIONARY
  5
5A8E
102
{ACAD_REACTORS
330
2E1
102
}
330
2E1
100
AcDbDictionary
281
     1
1001
ACAD
1000
<All
  0
SORTENTSTABLE
  5
56F7
102
{ACAD_REACTORS
330
56F6
102
}
330
56F6
100
AcDbSortentsTable
330
A
331
1301
  5
460F
331
1306
  5
4610
331
1307
  5
4611
331
1308
  5
4612
331
1312
  5
4613
331
1313
  5
4614
331
131E
  5
4615
331
131F
  5
4616
331
1342
  5
4618
331
1343
  5
4619
331
1346
  5
461C
331
1347
  5
461D
331
1350
  5
461E
331
1351
  5
461F
331
1357
  5
4620
331
1359
  5
4621
331
135A
  5
4622
331
135B
  5
4623
331
1371
  5
4624
331
1372
  5
4625
331
1378
  5
4626
331
1379
  5
4627
331
1389
  5
4628
331
138A
  5
4629
331
138D
  5
4967
331
138E
  5
4968
331
1398
  5
4971
331
1399
  5
4975
331
139C
  5
4976
331
139D
  5
4977
331
4967
  5
4C4A
331
4968
  5
4C4C
331
4983
  5
4C5B
331
499D
  5
4C5D
331
499E
  5
4C5E
331
4A99
  5
4C62
331
4B95
  5
4D18
331
4C51
  5
4D25
331
51B4
  5
51D5
331
51B6
  5
51D7
331
51BF
  5
5241
331
51C0
  5
5256
331
51C1
  5
5257
331
51C2
  5
5258
331
51C3
  5
5259
331
51C4
  5
525A
331
51C7
  5
52DB
331
51C9
  5
52DE
331
51CA
  5
52DF
331
51CB
  5
52E2
331
51CC
  5
52E5
331
51CD
  5
52E6
331
51CE
  5
52E7
331
51CF
  5
52E8
331
51D5
  5
5385
331
51D6
  5
5386
331
51D7
  5
5387
331
51D8
  5
5388
331
51D9
  5
5389
331
51DA
  5
538A
331
523C
  5
538B
331
523D
  5
538C
331
523E
  5
538D
331
523F
  5
538E
331
5240
  5
538F
331
5241
  5
5390
331
5258
  5
55DA
331
52DE
  5
562B
331
52DF
  5
564C
331
52E2
  5
5660
331
52E6
  5
5662
331
52EB
  5
5783
331
5384
  5
5784
331
538E
  5
5785
331
577D
  5
5795
331
577E
  5
5796
331
5780
  5
5797
331
5781
  5
5799
331
5782
  5
579A
331
5783
  5
579B
331
5785
  5
579C
331
5786
  5
579D
331
5787
  5
57A0
331
5788
  5
57A1
331
5789
  5
57A3
331
578C
  5
57A4
331
578D
  5
57AB
331
578F
  5
57AC
331
5790
  5
57AD
331
5797
  5
57AE
331
5798
  5
57B6
331
5799
  5
57B7
331
579A
  5
57B8
331
57A2
  5
57B9
331
57A3
  5
57BA
331
57A4
  5
585E
331
57A5
  5
585F
331
57A6
  5
5862
331
5805
  5
5863
331
5806
  5
5864
331
5807
  5
5869
331
5808
  5
586A
331
5809
  5
586B
331
581C
  5
586C
331
5829
  5
58BC
331
5838
  5
58CD
331
5862
  5
1301
331
5863
  5
1306
331
5864
  5
1307
331
5865
  5
1308
331
5866
  5
1312
331
5867
  5
1313
331
5868
  5
131E
331
5869
  5
131F
331
586A
  5
1342
331
586B
  5
1343
331
586C
  5
1346
331
5925
  5
5A06
331
0
  5
5B66
331
0
  5
5B67
331
0
  5
5B68
331
0
  5
5B69
331
0
  5
5B6A
331
0
  5
5B6B
331
0
  5
5B6C
331
0
  5
5B6D
331
0
  5
5B6E
331
0
  5
5B6F
331
0
  5
5B70
331
0
  5
5B71
331
0
  5
5B72
331
5B70
  5
5B73
331
5B71
  5
5B74
331
5B72
  5
5B75
331
5B73
  5
5B76
331
5B74
  5
5BEC
331
5B75
  5
5BED
331
5B76
  5
5BF2
331
5BED
  5
5BFA
331
5BF2
  5
5C62
331
5BF6
  5
5C63
331
5BFA
  5
5C9D
331
5C63
  5
5C9F
331
5C9E
  5
5CA1
331
5C9F
  5
5CA2
331
5CA0
  5
5CA3
331
5CA1
  5
5CA4
331
5CA2
  5
5CAA
331
5CA3
  5
5CAE
331
5CA4
  5
5CAF
331
5CAF
  5
55D9
  0
DIMASSOC
  5
52E1
102
{ACAD_REACTORS
330
52E0
102
}
330
52E0
100
AcDbDimAssoc
330
52DF
 90
        1
 70
     0
 71
     1
  1
AcDbOsnapPointRef
 72
     5
331
5258
 73
     0
 91
        0
 40
1.570796326794897
 10
0.0
 20
0.0
 30
0.0
 75
     0
  0
DIMASSOC
  5
52E4
102
{ACAD_REACTORS
330
52E3
102
}
330
52E3
100
AcDbDimAssoc
330
52E2
 90
        1
 70
     0
 71
     1
  1
AcDbOsnapPointRef
 72
     3
331
5258
 73
     0
 91
        0
 40
0.0
 10
0.0
 20
0.0
 30
0.0
 75
     0
  0
DIMASSOC
  5
582B
102
{ACAD_REACTORS
330
582A
102
}
330
582A
100
AcDbDimAssoc
330
5829
 90
        1
 70
     0
 71
     1
  1
AcDbOsnapPointRef
 72
    10
331
5790
 73
     0
 91
        0
 40
0.9881644008411132
 10
0.0
 20
0.0
 30
0.0
 75
     0
  0
DICTIONARY
  5
7682
102
{ACAD_REACTORS
330
5926
102
}
330
5926
100
AcDbDictionary
280
     1
281
     1
  3
TEXT
360
5928
  0
LINE
  5
5BF0
102
{ACAD_REACTORS
330
5BEE
102
}
330
5BEE
100
AcDbEntity
  8
MODEL
  6
Continuous
100
AcDbLine
 10
112.2052558458758
 20
340.993830557065
 30
0.0
 11
142.2052558458758
 21
340.993830557065
 31
0.0
  0
LINE
  5
5BF1
102
{ACAD_REACTORS
330
5BEE
102
}
330
5BEE
100
AcDbEntity
  8
MODEL
  6
Continuous
100
AcDbLine
 10
142.2052558458758
 20
340.993830557065
 30
0.0
 11
142.2052558458758
 21
342.993830557065
 31
0.0
  0
LINE
  5
5BF5
102
{ACAD_REACTORS
330
5BF3
102
}
330
5BF3
100
AcDbEntity
  8
MODEL
  6
Continuous
100
AcDbLine
 10
113.7052558458758
 20
347.9938305570649
 30
0.0
 11
140.7052558458758
 21
347.993830557065
 31
0.0
  0
LINE
  5
5BF9
102
{ACAD_REACTORS
330
5BF7
102
}
330
5BF7
100
AcDbEntity
  8
MODEL
  6
Continuous
100
AcDbLine
 10
112.2052558458758
 20
342.993830557065
 30
0.0
 11
112.2052558458758
 21
340.993830557065
 31
0.0
  0
GROUP
  5
581A
102
{ACAD_REACTORS
330
1A
102
}
330
1A
100
AcDbGroup
300

 70
     1
 71
     1
340
5780
340
5781
340
5782
340
5783
340
578F
340
5790
340
5797
340
5798
340
5799
340
579A
  0
GROUP
  5
581B
102
{ACAD_REACTORS
330
1A
102
}
330
1A
100
AcDbGroup
300

 70
     1
 71
     1
340
577D
340
577E
340
5785
340
5786
340
5789
340
578C
340
578D
340
57A4
340
57A5
  0
GROUP
  5
586E
102
{ACAD_REACTORS
330
1A
102
}
330
1A
100
AcDbGroup
300

 70
     1
 71
     1
340
5864
340
5865
340
5866
340
5867
340
5868
340
5869
340
586A
340
586B
340
586C
  0
GROUP
  5
5B77
102
{ACAD_REACTORS
330
1A
102
}
330
1A
100
AcDbGroup
300

 70
     1
 71
     1
340
5B72
340
5B70
340
5B71
340
5B73
340
5B74
340
5B75
340
5B76
  0
GROUP
  5
5CA5
102
{ACAD_REACTORS
330
1A
102
}
330
1A
100
AcDbGroup
300

 70
     1
 71
     1
340
5C9E
340
5C9F
340
5CA0
340
5CA1
340
5CA2
340
5CA3
340
5CA4
  0
GROUP
  5
73CC
102
{ACAD_REACTORS
330
1A
102
}
330
1A
100
AcDbGroup
300

 70
     1
 71
     1
340
5787
340
5788
340
57A2
340
57A3
  0
LAYOUT
  5
21
102
{ACAD_REACTORS
330
1E
102
}
330
1E
100
AcDbPlotSettings
  1

  2
none_device
  4
ISO_A3_(420.00_x_297.00_MM)
  6

 40
7.5
 41
20.0
 42
7.5
 43
20.0
 44
420.0
 45
297.0
 46
0.0
 47
0.0
 48
0.0
 49
0.0
140
0.0
141
0.0
142
1.0
143
1.0
 70
     0
 72
     1
 73
     0
 74
     0
  7

 75
     0
 76
     0
 77
     2
 78
   300
147
1.0
148
0.0
149
0.0
100
AcDbLayout
  1
Layout1
 70
     1
 71
     0
 10
-7.5
 20
-20.0
 11
412.5
 21
277.0
 12
0.0
 22
0.0
 32
0.0
 14
0.0
 24
0.0
 34
0.0
 15
0.0
 25
0.0
 35
0.0
146
0.0
 13
0.0
 23
0.0
 33
0.0
 16
0.0
 26
0.0
 36
0.0
 17
0.0
 27
0.0
 37
0.0
 76
     0
330
B
331
349
  0
LAYOUT
  5
20
102
{ACAD_REACTORS
330
1E
102
}
330
1E
100
AcDbPlotSettings
  1

  2
Adobe PDF
  4
USER32767
  6

 40
0.0
 41
0.0
 42
0.0
 43
0.0
 44
210.0
 45
297.0
 46
0.0
 47
0.0
 48
0.0
 49
0.0
140
0.0
141
0.0
142
1.0
143
2.0
 70
  1584
 72
     1
 73
     1
 74
     1
  7
monochrome.ctb
 75
     0
 76
     0
 77
     2
 78
   300
147
0.5
148
0.0
149
0.0
100
AcDbLayout
  1
Model
 70
     0
 71
     1
 10
0.0
 20
0.0
 11
594.0
 21
419.9999999999996
 12
0.0
 22
0.0
 32
0.0
 14
0.0
 24
0.0
 34
0.0
 15
593.9999999999999
 25
420.0
 35
0.0
146
0.0
 13
0.0
 23
0.0
 33
0.0
 16
0.0
 26
0.0
 36
0.0
 17
0.0
 27
0.0
 37
0.0
 76
     0
330
A
331
15
1001
PLOTTRANSPARENCY
1071
        0
  0
MATERIAL
  5
54E8
102
{ACAD_REACTORS
330
263
102
}
330
263
100
AcDbMaterial
  1
ByBlock
 72
     1
 94
      127
  0
MATERIAL
  5
264
102
{ACAD_REACTORS
330
263
102
}
330
263
100
AcDbMaterial
  1
ByLayer
 72
     1
 94
      127
  0
MATERIAL
  5
266
102
{ACAD_REACTORS
330
263
102
}
330
263
100
AcDbMaterial
  1
Global
 72
     1
 94
      127
  0
MLEADERSTYLE
  5
5615
102
{ACAD_REACTORS
330
336
102
}
330
336
100
AcDbMLeaderStyle
170
     2
171
     1
172
     0
 90
        2
 40
0.0
 41
0.0
173
     1
 91
-1056964608
340
11
 92
       -2
290
     1
 42
2.0
291
     1
 43
8.0
  3
Standard
341
0
 44
4.0
300

342
17
174
     1
178
     6
175
     1
176
     0
 93
-1056964608
 45
4.0
292
     0
297
     0
 46
4.0
343
0
 94
-1056964608
 47
1.0
 49
1.0
140
1.0
293
     1
141
0.0
294
     1
177
     0
142
1.0
295
     0
296
     0
143
3.75
1001
ACAD_MLEADERVER
1070
     2
  0
MLINESTYLE
  5
1C
102
{ACAD_REACTORS
330
1B
102
}
330
1B
100
AcDbMlineStyle
  2
Standard
 70
     0
  3

 62
     0
 51
90.0
 52
90.0
 71
     2
 49
0.5
 62
   256
  6
BYLAYER
 49
-0.5
 62
   256
  6
BYLAYER
  0
ACDBPLACEHOLDER
  5
1D
102
{ACAD_REACTORS
330
1F
102
}
330
1F
  0
SCALE
  5
242
102
{ACAD_REACTORS
330
241
102
}
330
241
100
AcDbScale
 70
     0
300
1:1
140
1.0
141
1.0
290
     1
  0
SCALE
  5
243
102
{ACAD_REACTORS
330
241
102
}
330
241
100
AcDbScale
 70
     0
300
1:2
140
1.0
141
2.0
290
     0
  0
SCALE
  5
244
102
{ACAD_REACTORS
330
241
102
}
330
241
100
AcDbScale
 70
     0
300
1:4
140
1.0
141
4.0
290
     0
  0
SCALE
  5
245
102
{ACAD_REACTORS
330
241
102
}
330
241
100
AcDbScale
 70
     0
300
1:5
140
1.0
141
5.0
290
     0
  0
SCALE
  5
246
102
{ACAD_REACTORS
330
241
102
}
330
241
100
AcDbScale
 70
     0
300
1:8
140
1.0
141
8.0
290
     0
  0
SCALE
  5
247
102
{ACAD_REACTORS
330
241
102
}
330
241
100
AcDbScale
 70
     0
300
1:10
140
1.0
141
10.0
290
     0
  0
SCALE
  5
248
102
{ACAD_REACTORS
330
241
102
}
330
241
100
AcDbScale
 70
     0
300
1:16
140
1.0
141
16.0
290
     0
  0
SCALE
  5
249
102
{ACAD_REACTORS
330
241
102
}
330
241
100
AcDbScale
 70
     0
300
1:20
140
1.0
141
20.0
290
     0
  0
SCALE
  5
24A
102
{ACAD_REACTORS
330
241
102
}
330
241
100
AcDbScale
 70
     0
300
1:30
140
1.0
141
30.0
290
     0
  0
SCALE
  5
24B
102
{ACAD_REACTORS
330
241
102
}
330
241
100
AcDbScale
 70
     0
300
1:40
140
1.0
141
40.0
290
     0
  0
SCALE
  5
24C
102
{ACAD_REACTORS
330
241
102
}
330
241
100
AcDbScale
 70
     0
300
1:50
140
1.0
141
50.0
290
     0
  0
SCALE
  5
24D
102
{ACAD_REACTORS
330
241
102
}
330
241
100
AcDbScale
 70
     0
300
1:100
140
1.0
141
100.0
290
     0
  0
SCALE
  5
24E
102
{ACAD_REACTORS
330
241
102
}
330
241
100
AcDbScale
 70
     0
300
2:1
140
2.0
141
1.0
290
     0
  0
SCALE
  5
24F
102
{ACAD_REACTORS
330
241
102
}
330
241
100
AcDbScale
 70
     0
300
4:1
140
4.0
141
1.0
290
     0
  0
SCALE
  5
250
102
{ACAD_REACTORS
330
241
102
}
330
241
100
AcDbScale
 70
     0
300
8:1
140
8.0
141
1.0
290
     0
  0
SCALE
  5
251
102
{ACAD_REACTORS
330
241
102
}
330
241
100
AcDbScale
 70
     0
300
10:1
140
10.0
141
1.0
290
     0
  0
SCALE
  5
252
102
{ACAD_REACTORS
330
241
102
}
330
241
100
AcDbScale
 70
     0
300
100:1
140
100.0
141
1.0
290
     0
  0
SCALE
  5
253
102
{ACAD_REACTORS
330
241
102
}
330
241
100
AcDbScale
 70
     0
300
1/128" = 1'-0"
140
0.0078125
141
12.0
290
     0
  0
SCALE
  5
254
102
{ACAD_REACTORS
330
241
102
}
330
241
100
AcDbScale
 70
     0
300
1/64" = 1'-0"
140
0.015625
141
12.0
290
     0
  0
SCALE
  5
255
102
{ACAD_REACTORS
330
241
102
}
330
241
100
AcDbScale
 70
     0
300
1/32" = 1'-0"
140
0.03125
141
12.0
290
     0
  0
SCALE
  5
256
102
{ACAD_REACTORS
330
241
102
}
330
241
100
AcDbScale
 70
     0
300
1/16" = 1'-0"
140
0.0625
141
12.0
290
     0
  0
SCALE
  5
257
102
{ACAD_REACTORS
330
241
102
}
330
241
100
AcDbScale
 70
     0
300
3/32" = 1'-0"
140
0.09375
141
12.0
290
     0
  0
SCALE
  5
258
102
{ACAD_REACTORS
330
241
102
}
330
241
100
AcDbScale
 70
     0
300
1/8" = 1'-0"
140
0.125
141
12.0
290
     0
  0
SCALE
  5
259
102
{ACAD_REACTORS
330
241
102
}
330
241
100
AcDbScale
 70
     0
300
3/16" = 1'-0"
140
0.1875
141
12.0
290
     0
  0
SCALE
  5
25A
102
{ACAD_REACTORS
330
241
102
}
330
241
100
AcDbScale
 70
     0
300
1/4" = 1'-0"
140
0.25
141
12.0
290
     0
  0
SCALE
  5
25B
102
{ACAD_REACTORS
330
241
102
}
330
241
100
AcDbScale
 70
     0
300
3/8" = 1'-0"
140
0.375
141
12.0
290
     0
  0
SCALE
  5
25C
102
{ACAD_REACTORS
330
241
102
}
330
241
100
AcDbScale
 70
     0
300
1/2" = 1'-0"
140
0.5
141
12.0
290
     0
  0
SCALE
  5
25D
102
{ACAD_REACTORS
330
241
102
}
330
241
100
AcDbScale
 70
     0
300
3/4" = 1'-0"
140
0.75
141
12.0
290
     0
  0
SCALE
  5
25E
102
{ACAD_REACTORS
330
241
102
}
330
241
100
AcDbScale
 70
     0
300
1" = 1'-0"
140
1.0
141
12.0
290
     0
  0
SCALE
  5
25F
102
{ACAD_REACTORS
330
241
102
}
330
241
100
AcDbScale
 70
     0
300
1-1/2" = 1'-0"
140
1.5
141
12.0
290
     0
  0
SCALE
  5
260
102
{ACAD_REACTORS
330
241
102
}
330
241
100
AcDbScale
 70
     0
300
3" = 1'-0"
140
3.0
141
12.0
290
     0
  0
SCALE
  5
261
102
{ACAD_REACTORS
330
241
102
}
330
241
100
AcDbScale
 70
     0
300
6" = 1'-0"
140
6.0
141
12.0
290
     0
  0
SCALE
  5
262
102
{ACAD_REACTORS
330
241
102
}
330
241
100
AcDbScale
 70
     0
300
1'-0" = 1'-0"
140
12.0
141
12.0
290
     0
  0
TABLESTYLE
  5
279
102
{ACAD_REACTORS
330
278
102
}
102
{ACAD_XDICTIONARY
360
7686
102
}
330
278
100
AcDbTableStyle
  3
Standard
 70
     0
 71
     0
 40
0.06
 41
0.06
280
     0
281
     0
  7
Standard
140
4.5
170
     2
 62
     0
 63
   257
283
     0
 90
        4
 91
        0
  1

274
    -2
284
     1
 64
     0
275
    -2
285
     1
 65
     0
276
    -2
286
     1
 66
     0
277
    -2
287
     1
 67
     0
278
    -2
288
     1
 68
     0
279
    -2
289
     1
 69
     0
  7
Standard
140
6.0
170
     5
 62
     0
 63
   257
283
     0
 90
        4
 91
        0
  1

274
    -2
284
     1
 64
     0
275
    -2
285
     1
 65
     0
276
    -2
286
     1
 66
     0
277
    -2
287
     1
 67
     0
278
    -2
288
     1
 68
     0
279
    -2
289
     1
 69
     0
  7
Standard
140
4.5
170
     5
 62
     0
 63
   257
283
     0
 90
        4
 91
        0
  1

274
    -2
284
     1
 64
     0
275
    -2
285
     1
 65
     0
276
    -2
286
     1
 66
     0
277
    -2
287
     1
 67
     0
278
    -2
288
     1
 68
     0
279
    -2
289
     1
 69
     0
  0
VISUALSTYLE
  5
26C
102
{ACAD_REACTORS
330
267
102
}
330
267
100
AcDbVisualStyle
  2
2dWireframe
 70
     4
 71
     0
 72
     2
 73
     0
 90
        0
 40
-0.6
 41
-30.0
 62
     5
 63
     7
421
 16777215
 74
     1
 91
        4
 64
     7
 65
   257
 75
     1
175
     1
 42
1.0
 92
        0
 66
   257
 43
1.0
 76
     1
 77
     6
 78
     2
 67
     7
 79
     5
170
     0
171
     0
290
     0
174
     0
 93
        1
 44
0.0
173
     0
291
     0
 45
0.0
  0
VISUALSTYLE
  5
26E
102
{ACAD_REACTORS
330
267
102
}
330
267
100
AcDbVisualStyle
  2
3D Hidden
 70
     6
 71
     1
 72
     2
 73
     2
 90
        0
 40
-0.6
 41
-30.0
 62
     5
 63
     7
421
 16777215
 74
     2
 91
        2
 64
     7
 65
   257
 75
     2
175
     1
 42
40.0
 92
        0
 66
   257
 43
1.0
 76
     1
 77
     6
 78
     2
 67
     7
 79
     3
170
     0
171
     0
290
     0
174
     0
 93
        1
 44
0.0
173
     0
291
     0
 45
0.0
  0
VISUALSTYLE
  5
26D
102
{ACAD_REACTORS
330
267
102
}
330
267
100
AcDbVisualStyle
  2
3dWireframe
 70
     5
 71
     0
 72
     2
 73
     0
 90
        0
 40
-0.6
 41
-30.0
 62
     5
 63
     7
421
 16777215
 74
     1
 91
        4
 64
     7
 65
   257
 75
     1
175
     1
 42
1.0
 92
        0
 66
   257
 43
1.0
 76
     1
 77
     6
 78
     2
 67
     7
 79
     5
170
     0
171
     0
290
     0
174
     0
 93
        1
 44
0.0
173
     0
291
     0
 45
0.0
  0
VISUALSTYLE
  5
26F
102
{ACAD_REACTORS
330
267
102
}
330
267
100
AcDbVisualStyle
  2
Basic
 70
     7
 71
     1
 72
     0
 73
     1
 90
        0
 40
-0.6
 41
-30.0
 62
     5
 63
     7
421
 16777215
 74
     0
 91
        4
 64
     7
 65
   257
 75
     1
175
     1
 42
1.0
 92
        8
 66
     7
 43
1.0
 76
     1
 77
     6
 78
     2
 67
     7
 79
     5
170
     0
171
     0
290
     0
174
     0
 93
        1
 44
0.0
173
     0
291
     1
 45
0.0
  0
VISUALSTYLE
  5
273
102
{ACAD_REACTORS
330
267
102
}
330
267
100
AcDbVisualStyle
  2
Brighten
 70
    12
 71
     2
 72
     2
 73
     0
 90
        0
 40
-0.6
 41
-30.0
 62
     5
 63
     7
421
 16777215
 74
     1
 91
        4
 64
     7
 65
   257
 75
     1
175
     1
 42
1.0
 92
        8
 66
     7
 43
1.0
 76
     1
 77
     6
 78
     2
 67
     7
 79
     5
170
     0
171
     0
290
     0
174
     0
 93
        1
 44
50.0
173
     0
291
     1
 45
0.0
  0
VISUALSTYLE
  5
277
102
{ACAD_REACTORS
330
267
102
}
330
267
100
AcDbVisualStyle
  2
ColorChange
 70
    16
 71
     2
 72
     2
 73
     3
 90
        0
 40
-0.6
 41
-30.0
 62
     5
 63
     8
421
  8421504
 74
     1
 91
        4
 64
     7
 65
   257
 75
     1
175
     1
 42
1.0
 92
        8
 66
     8
424
  8421504
 43
1.0
 76
     1
 77
     6
 78
     2
 67
     7
 79
     5
170
     0
171
     0
290
     0
174
     0
 93
        1
 44
0.0
173
     0
291
     1
 45
0.0
  0
VISUALSTYLE
  5
271
102
{ACAD_REACTORS
330
267
102
}
330
267
100
AcDbVisualStyle
  2
Conceptual
 70
     9
 71
     3
 72
     2
 73
     0
 90
        0
 40
-0.6
 41
-30.0
 62
     5
 63
     7
421
 16777215
 74
     2
 91
        2
 64
     7
 65
   257
 75
     1
175
     1
 42
40.0
 92
        8
 66
     7
 43
1.0
 76
     1
 77
     6
 78
     2
 67
     7
 79
     3
170
     0
171
     0
290
     0
174
     0
 93
        1
 44
0.0
173
     0
291
     0
 45
0.0
  0
VISUALSTYLE
  5
272
102
{ACAD_REACTORS
330
267
102
}
330
267
100
AcDbVisualStyle
  2
Dim
 70
    11
 71
     2
 72
     2
 73
     0
 90
        0
 40
-0.6
 41
-30.0
 62
     5
 63
     7
421
 16777215
 74
     1
 91
        4
 64
     7
 65
   257
 75
     1
175
     1
 42
1.0
 92
        8
 66
     7
 43
1.0
 76
     1
 77
     6
 78
     2
 67
     7
 79
     5
170
     0
171
     0
290
     0
174
     0
 93
        1
 44
-50.0
173
     0
291
     1
 45
0.0
  0
VISUALSTYLE
  5
F14
102
{ACAD_REACTORS
330
267
102
}
330
267
100
AcDbVisualStyle
  2
EdgeColorOff
 70
    22
 71
     2
 72
     2
 73
     0
 90
        0
 40
0.6
 41
30.0
 62
     5
 63
     7
421
 16777215
 74
     1
 91
        4
 64
     7
 65
   257
 75
     1
175
     1
 42
1.0
 92
        8
 66
     7
 43
1.0
 76
     1
 77
     6
 78
     2
 67
     7
 79
     5
170
     0
171
     0
290
     0
174
     0
 93
        1
 44
0.0
173
     0
291
     1
 45
0.0
  0
VISUALSTYLE
  5
276
102
{ACAD_REACTORS
330
267
102
}
330
267
100
AcDbVisualStyle
  2
Facepattern
 70
    15
 71
     2
 72
     2
 73
     0
 90
        0
 40
-0.6
 41
-30.0
 62
     5
 63
     7
421
 16777215
 74
     1
 91
        4
 64
     7
 65
   257
 75
     1
175
     1
 42
1.0
 92
        8
 66
     7
 43
1.0
 76
     1
 77
     6
 78
     2
 67
     7
 79
     5
170
     0
171
     0
290
     0
174
     0
 93
        1
 44
0.0
173
     0
291
     1
 45
0.0
  0
VISUALSTYLE
  5
268
102
{ACAD_REACTORS
330
267
102
}
330
267
100
AcDbVisualStyle
  2
Flat
 70
     0
 71
     2
 72
     1
 73
     1
 90
        2
 40
-0.6
 41
30.0
 62
     5
 63
     7
421
 16777215
 74
     0
 91
        4
 64
     7
 65
   257
 75
     1
175
     1
 42
1.0
 92
        8
 66
     7
 43
1.0
 76
     1
 77
     6
 78
     2
 67
     7
 79
     5
170
     0
171
     0
290
     0
174
     0
 93
       13
 44
0.0
173
     0
291
     1
 45
0.0
  0
VISUALSTYLE
  5
269
102
{ACAD_REACTORS
330
267
102
}
330
267
100
AcDbVisualStyle
  2
FlatWithEdges
 70
     1
 71
     2
 72
     1
 73
     1
 90
        2
 40
-0.6
 41
30.0
 62
     5
 63
     7
421
 16777215
 74
     1
 91
        4
 64
     7
 65
   257
 75
     1
175
     1
 42
1.0
 92
        0
 66
   257
 43
1.0
 76
     1
 77
     6
 78
     2
 67
     7
 79
     5
170
     0
171
     0
290
     0
174
     0
 93
       13
 44
0.0
173
     0
291
     1
 45
0.0
  0
VISUALSTYLE
  5
26A
102
{ACAD_REACTORS
330
267
102
}
330
267
100
AcDbVisualStyle
  2
Gouraud
 70
     2
 71
     2
 72
     2
 73
     1
 90
        2
 40
-0.6
 41
30.0
 62
     5
 63
     7
421
 16777215
 74
     0
 91
        4
 64
     7
 65
   257
 75
     1
175
     1
 42
1.0
 92
        0
 66
     7
 43
1.0
 76
     1
 77
     6
 78
     2
 67
     7
 79
     5
170
     0
171
     0
290
     0
174
     0
 93
       13
 44
0.0
173
     0
291
     1
 45
0.0
  0
VISUALSTYLE
  5
26B
102
{ACAD_REACTORS
330
267
102
}
330
267
100
AcDbVisualStyle
  2
GouraudWithEdges
 70
     3
 71
     2
 72
     2
 73
     1
 90
        2
 40
-0.6
 41
30.0
 62
     5
 63
     7
421
 16777215
 74
     1
 91
        4
 64
     7
 65
   257
 75
     1
175
     1
 42
1.0
 92
        0
 66
   257
 43
1.0
 76
     1
 77
     6
 78
     2
 67
     7
 79
     5
170
     0
171
     0
290
     0
174
     0
 93
       13
 44
0.0
173
     0
291
     1
 45
0.0
  0
VISUALSTYLE
  5
F11
102
{ACAD_REACTORS
330
267
102
}
330
267
100
AcDbVisualStyle
  2
Hidden
 70
     6
 71
     1
 72
     2
 73
     2
 90
        0
 40
0.6
 41
30.0
 62
     5
 63
     7
421
 16777215
 74
     2
 91
        2
 64
     7
 65
   257
 75
     2
175
     1
 42
40.0
 92
        0
 66
   257
 43
1.0
 76
     1
 77
     6
 78
     2
 67
     7
 79
     3
170
     0
171
     0
290
     0
174
     0
 93
        1
 44
0.0
173
     0
291
     0
 45
0.0
  0
VISUALSTYLE
  5
F12
102
{ACAD_REACTORS
330
267
102
}
330
267
100
AcDbVisualStyle
  2
JitterOff
 70
    20
 71
     2
 72
     2
 73
     0
 90
        0
 40
0.6
 41
30.0
 62
     5
 63
     7
421
 16777215
 74
     1
 91
        4
 64
     7
 65
   257
 75
     1
175
     1
 42
1.0
 92
       10
 66
     7
 43
1.0
 76
     1
 77
     6
 78
     2
 67
     7
 79
     5
170
     0
171
     0
290
     0
174
     0
 93
        1
 44
0.0
173
     0
291
     1
 45
0.0
  0
VISUALSTYLE
  5
275
102
{ACAD_REACTORS
330
267
102
}
330
267
100
AcDbVisualStyle
  2
Linepattern
 70
    14
 71
     2
 72
     2
 73
     0
 90
        0
 40
-0.6
 41
-30.0
 62
     5
 63
     7
421
 16777215
 74
     1
 91
        4
 64
     7
 65
   257
 75
     7
175
     7
 42
1.0
 92
        8
 66
     7
 43
1.0
 76
     1
 77
     6
 78
     2
 67
     7
 79
     5
170
     0
171
     0
290
     0
174
     0
 93
        1
 44
0.0
173
     0
291
     1
 45
0.0
  0
VISUALSTYLE
  5
F13
102
{ACAD_REACTORS
330
267
102
}
330
267
100
AcDbVisualStyle
  2
OverhangOff
 70
    21
 71
     2
 72
     2
 73
     0
 90
        0
 40
0.6
 41
30.0
 62
     5
 63
     7
421
 16777215
 74
     1
 91
        4
 64
     7
 65
   257
 75
     1
175
     1
 42
1.0
 92
        9
 66
     7
 43
1.0
 76
     1
 77
     6
 78
     2
 67
     7
 79
     5
170
     0
171
     0
290
     0
174
     0
 93
        1
 44
0.0
173
     0
291
     1
 45
0.0
  0
VISUALSTYLE
  5
270
102
{ACAD_REACTORS
330
267
102
}
330
267
100
AcDbVisualStyle
  2
Realistic
 70
     8
 71
     2
 72
     2
 73
     0
 90
        0
 40
-0.6
 41
-30.0
 62
     5
 63
     7
421
 16777215
 74
     1
 91
        0
 64
     7
 65
   257
 75
     1
175
     1
 42
1.0
 92
        8
 66
     8
424
  7895160
 43
1.0
 76
     1
 77
     6
 78
     2
 67
     7
 79
     5
170
     0
171
     0
290
     0
174
     0
 93
       13
 44
0.0
173
     0
291
     0
 45
0.0
  0
VISUALSTYLE
  5
F19
102
{ACAD_REACTORS
330
267
102
}
330
267
100
AcDbVisualStyle
  2
Shaded
 70
    27
 71
     2
 72
     2
 73
     1
 90
        2
 40
0.6
 41
30.0
 62
     5
 63
     7
421
 16777215
 74
     0
 91
        4
 64
     7
 65
   257
 75
     1
175
     1
 42
1.0
 92
        8
 66
   257
 43
1.0
 76
     1
 77
     6
 78
     2
 67
     8
425
  7895160
 79
     3
170
     0
171
     0
290
     0
174
     0
 93
        5
 44
0.0
173
     0
291
     0
 45
0.0
  0
VISUALSTYLE
  5
F18
102
{ACAD_REACTORS
330
267
102
}
330
267
100
AcDbVisualStyle
  2
Shaded with edges
 70
    26
 71
     2
 72
     2
 73
     1
 90
        2
 40
0.6
 41
30.0
 62
     5
 63
     7
421
 16777215
 74
     1
 91
       10
 64
     7
 65
   257
 75
     2
175
     1
 42
1.0
 92
        8
 66
   257
 43
1.0
 76
     1
 77
     6
 78
     2
 67
     7
 79
     3
170
     0
171
     0
290
     0
174
     0
 93
        5
 44
0.0
173
     0
291
     0
 45
0.0
  0
VISUALSTYLE
  5
F15
102
{ACAD_REACTORS
330
267
102
}
330
267
100
AcDbVisualStyle
  2
Shades of Gray
 70
    23
 71
     2
 72
     2
 73
     3
 90
        0
 40
0.6
 41
30.0
 62
     5
 63
     7
421
 16777215
 74
     2
 91
        2
 64
     7
 65
     7
 75
     1
175
     1
 42
40.0
 92
        8
 66
     7
 43
1.0
 76
     1
 77
     6
 78
     2
 67
     7
 79
     3
170
     0
171
     0
290
     0
174
     0
 93
        1
 44
0.0
173
     0
291
     0
 45
0.0
  0
VISUALSTYLE
  5
F16
102
{ACAD_REACTORS
330
267
102
}
330
267
100
AcDbVisualStyle
  2
Sketchy
 70
    24
 71
     1
 72
     2
 73
     2
 90
        0
 40
0.6
 41
30.0
 62
     5
 63
     7
421
 16777215
 74
     2
 91
        2
 64
     7
 65
     7
 75
     1
175
     1
 42
40.0
 92
       11
 66
     7
 43
1.0
 76
     1
 77
     6
 78
     2
 67
     7
 79
     6
170
     0
171
     0
290
     0
174
     0
 93
        1
 44
0.0
173
     0
291
     0
 45
0.0
  0
VISUALSTYLE
  5
274
102
{ACAD_REACTORS
330
267
102
}
330
267
100
AcDbVisualStyle
  2
Thicken
 70
    13
 71
     2
 72
     2
 73
     0
 90
        0
 40
-0.6
 41
-30.0
 62
     5
 63
     7
421
 16777215
 74
     1
 91
        4
 64
     7
 65
   257
 75
     1
175
     1
 42
1.0
 92
       12
 66
     7
 43
1.0
 76
     1
 77
     6
 78
     2
 67
     7
 79
     5
170
     0
171
     0
290
     0
174
     0
 93
        1
 44
0.0
173
     0
291
     1
 45
0.0
  0
VISUALSTYLE
  5
F10
102
{ACAD_REACTORS
330
267
102
}
330
267
100
AcDbVisualStyle
  2
Wireframe
 70
     5
 71
     0
 72
     2
 73
     0
 90
        0
 40
0.6
 41
30.0
 62
     5
 63
     7
421
 16777215
 74
     1
 91
        4
 64
     7
 65
   257
 75
     1
175
     1
 42
1.0
 92
        0
 66
   257
 43
1.0
 76
     1
 77
     6
 78
     2
 67
     7
 79
     3
170
     0
171
     0
290
     0
174
     0
 93
        1
 44
0.0
173
     0
291
     0
 45
0.0
  0
VISUALSTYLE
  5
F17
102
{ACAD_REACTORS
330
267
102
}
330
267
100
AcDbVisualStyle
  2
X-Ray
 70
    25
 71
     2
 72
     2
 73
     1
 90
        1
 40
0.5
 41
30.0
 62
     5
 63
     7
421
 16777215
 74
     1
 91
        0
 64
     7
 65
   257
 75
     1
175
     1
 42
1.0
 92
        8
 66
     7
 43
1.0
 76
     1
 77
     6
 78
     2
 67
     7
 79
     3
170
     0
171
     0
290
     0
174
     0
 93
       13
 44
0.0
173
     0
291
     0
 45
0.0
  0
DICTIONARYVAR
  5
331
102
{ACAD_REACTORS
330
330
102
}
330
330
100
DictionaryVariables
280
     0
  1
1:1
  0
DICTIONARYVAR
  5
563E
102
{ACAD_REACTORS
330
330
102
}
330
330
100
DictionaryVariables
280
     0
  1
Standard
  0
DICTIONARYVAR
  5
335
102
{ACAD_REACTORS
330
330
102
}
330
330
100
DictionaryVariables
280
     0
  1
Standard
  0
DICTIONARYVAR
  5
52F7
102
{ACAD_REACTORS
330
330
102
}
330
330
100
DictionaryVariables
280
     0
  1
ByLayer
  0
DICTIONARYVAR
  5
13B4
102
{ACAD_REACTORS
330
330
102
}
330
330
100
DictionaryVariables
280
     0
  1
0
  0
FIELD
  5
5928
102
{ACAD_REACTORS
330
760E
330
7681
330
7682
102
}
330
7682
100
AcDbField
  1
_text
  2
{%<\_FldIdx 0>%M}
 90
        1
360
5929
 97
        0
 91
       63
 92
        0
 94
       11
 95
        2
 96
        0
300

 93
        1
  6
ACFD_FIELDTEXT_CHECKSUM
 93
        2
 90
        2
140
4505.0
 94
        0
300

302

304
ACVALUE_END
  7
ACFD_FIELD_VALUE
 93
        6
 90
        4
  1
{20230913M}
 94
        0
300

302

304
ACVALUE_END
301
{20230913M}
 98
       11
  0
DICTIONARY
  5
7686
330
279
100
AcDbDictionary
280
     1
281
     1
  3
ACAD_ROUNDTRIP_2008_TABLESTYLE_CELLSTYLEMAP
360
7687
  0
FIELD
  5
5929
330
5928
100
AcDbField
  1
AcVar
  2
\AcVar Date \f "yyyyMMdd"
 90
        0
 97
        0
 91
       63
 92
        0
 94
       11
 95
       64
 96
        0
300
Variable not supported
 93
        1
  6
Variable
 93
        2
 90
        4
  1
Date
 94
        0
300

302

304
ACVALUE_END
  7
ACFD_FIELD_VALUE
 93
        6
 90
        8
 92
       16
310
E707090000000D0006001E0004000000
 94
        0
300
yyyyMMdd
302

304
ACVALUE_END
301
20230913
 98
        8
  0
CELLSTYLEMAP
  5
7687
102
{ACAD_REACTORS
330
7686
102
}
330
7686
100
AcDbCellStyleMap
 90
        3
300
CELLSTYLE
  1
TABLEFORMAT_BEGIN
 90
        5
170
     1
 91
        0
 92
    32768
 62
   257
 93
        1
300
CONTENTFORMAT
  1
CONTENTFORMAT_BEGIN
 90
        0
 91
        0
 92
        4
 93
        0
300

 40
0.0
140
1.0
 94
        5
 62
     0
340
17
144
6.0
309
CONTENTFORMAT_END
171
     1
301
MARGIN
  1
CELLMARGIN_BEGIN
 40
0.06
 40
0.06
 40
0.06
 40
0.06
 40
0.18
 40
0.18
309
CELLMARGIN_END
 94
        6
 95
        1
302
GRIDFORMAT
  1
GRIDFORMAT_BEGIN
 90
        0
 91
        1
 62
     0
 92
       -2
340
0
 93
        0
 40
0.045
309
GRIDFORMAT_END
 95
        2
302
GRIDFORMAT
  1
GRIDFORMAT_BEGIN
 90
        0
 91
        1
 62
     0
 92
       -2
340
0
 93
        0
 40
0.045
309
GRIDFORMAT_END
 95
        4
302
GRIDFORMAT
  1
GRIDFORMAT_BEGIN
 90
        0
 91
        1
 62
     0
 92
       -2
340
0
 93
        0
 40
0.045
309
GRIDFORMAT_END
 95
        8
302
GRIDFORMAT
  1
GRIDFORMAT_BEGIN
 90
        0
 91
        1
 62
     0
 92
       -2
340
0
 93
        0
 40
0.045
309
GRIDFORMAT_END
 95
       16
302
GRIDFORMAT
  1
GRIDFORMAT_BEGIN
 90
        0
 91
        1
 62
     0
 92
       -2
340
0
 93
        0
 40
0.045
309
GRIDFORMAT_END
 95
       32
302
GRIDFORMAT
  1
GRIDFORMAT_BEGIN
 90
        0
 91
        1
 62
     0
 92
       -2
340
0
 93
        0
 40
0.045
309
GRIDFORMAT_END
309
TABLEFORMAT_END
  1
CELLSTYLE_BEGIN
 90
        1
 91
        1
300
_TITLE
309
CELLSTYLE_END
300
CELLSTYLE
  1
TABLEFORMAT_BEGIN
 90
        5
170
     1
 91
        0
 92
        0
 62
   257
 93
        1
300
CONTENTFORMAT
  1
CONTENTFORMAT_BEGIN
 90
        0
 91
        0
 92
        4
 93
        0
300

 40
0.0
140
1.0
 94
        5
 62
     0
340
17
144
4.5
309
CONTENTFORMAT_END
171
     1
301
MARGIN
  1
CELLMARGIN_BEGIN
 40
0.06
 40
0.06
 40
0.06
 40
0.06
 40
0.18
 40
0.18
309
CELLMARGIN_END
 94
        6
 95
        1
302
GRIDFORMAT
  1
GRIDFORMAT_BEGIN
 90
        0
 91
        1
 62
     0
 92
       -2
340
0
 93
        0
 40
0.045
309
GRIDFORMAT_END
 95
        2
302
GRIDFORMAT
  1
GRIDFORMAT_BEGIN
 90
        0
 91
        1
 62
     0
 92
       -2
340
0
 93
        0
 40
0.045
309
GRIDFORMAT_END
 95
        4
302
GRIDFORMAT
  1
GRIDFORMAT_BEGIN
 90
        0
 91
        1
 62
     0
 92
       -2
340
0
 93
        0
 40
0.045
309
GRIDFORMAT_END
 95
        8
302
GRIDFORMAT
  1
GRIDFORMAT_BEGIN
 90
        0
 91
        1
 62
     0
 92
       -2
340
0
 93
        0
 40
0.045
309
GRIDFORMAT_END
 95
       16
302
GRIDFORMAT
  1
GRIDFORMAT_BEGIN
 90
        0
 91
        1
 62
     0
 92
       -2
340
0
 93
        0
 40
0.045
309
GRIDFORMAT_END
 95
       32
302
GRIDFORMAT
  1
GRIDFORMAT_BEGIN
 90
        0
 91
        1
 62
     0
 92
       -2
340
0
 93
        0
 40
0.045
309
GRIDFORMAT_END
309
TABLEFORMAT_END
  1
CELLSTYLE_BEGIN
 90
        2
 91
        1
300
_HEADER
309
CELLSTYLE_END
300
CELLSTYLE
  1
TABLEFORMAT_BEGIN
 90
        5
170
     1
 91
        0
 92
        0
 62
   257
 93
        1
300
CONTENTFORMAT
  1
CONTENTFORMAT_BEGIN
 90
        0
 91
        0
 92
        4
 93
        0
300

 40
0.0
140
1.0
 94
        2
 62
     0
340
17
144
4.5
309
CONTENTFORMAT_END
171
     1
301
MARGIN
  1
CELLMARGIN_BEGIN
 40
0.06
 40
0.06
 40
0.06
 40
0.06
 40
0.18
 40
0.18
309
CELLMARGIN_END
 94
        6
 95
        1
302
GRIDFORMAT
  1
GRIDFORMAT_BEGIN
 90
        0
 91
        1
 62
     0
 92
       -2
340
0
 93
        0
 40
0.045
309
GRIDFORMAT_END
 95
        2
302
GRIDFORMAT
  1
GRIDFORMAT_BEGIN
 90
        0
 91
        1
 62
     0
 92
       -2
340
0
 93
        0
 40
0.045
309
GRIDFORMAT_END
 95
        4
302
GRIDFORMAT
  1
GRIDFORMAT_BEGIN
 90
        0
 91
        1
 62
     0
 92
       -2
340
0
 93
        0
 40
0.045
309
GRIDFORMAT_END
 95
        8
302
GRIDFORMAT
  1
GRIDFORMAT_BEGIN
 90
        0
 91
        1
 62
     0
 92
       -2
340
0
 93
        0
 40
0.045
309
GRIDFORMAT_END
 95
       16
302
GRIDFORMAT
  1
GRIDFORMAT_BEGIN
 90
        0
 91
        1
 62
     0
 92
       -2
340
0
 93
        0
 40
0.045
309
GRIDFORMAT_END
 95
       32
302
GRIDFORMAT
  1
GRIDFORMAT_BEGIN
 90
        0
 91
        1
 62
     0
 92
       -2
340
0
 93
        0
 40
0.045
309
GRIDFORMAT_END
309
TABLEFORMAT_END
  1
CELLSTYLE_BEGIN
 90
        3
 91
        2
300
_DATA
309
CELLSTYLE_END
  0
ENDSEC
  0
EOF
