  0
SECTION
  2
HEADER
  9
$ACADVER
  1
AC1021
  9
$ACADMAINTVER
 70
    25
  9
$DWGCODEPAGE
  3
ANSI_932
  9
$LASTSAVEDBY
  1
howeNelson
  9
$INSBASE
 10
0.0
 20
0.0
 30
0.0
  9
$EXTMIN
 10
0.0
 20
0.0
 30
0.0
  9
$EXTMAX
 10
593.9999999999999
 20
420.0
 30
0.0
  9
$LIMMIN
 10
0.0
 20
0.0
  9
$LIMMAX
 10
594.0
 20
419.9999999999996
  9
$ORTHOMODE
 70
     0
  9
$REGENMODE
 70
     1
  9
$FILLMODE
 70
     1
  9
$QTEXTMODE
 70
     0
  9
$MIRRTEXT
 70
     1
  9
$LTSCALE
 40
2.0
  9
$ATTMODE
 70
     1
  9
$TEXTSIZE
 40
2.5
  9
$TRACEWID
 40
1.0
  9
$TEXTSTYLE
  7
ＭＳ ゴシック
  9
$CLAYER
  8
寸法
  9
$CELTYPE
  6
ByLayer
  9
$CECOLOR
 62
   256
  9
$CELTSCALE
 40
1.0
  9
$DISPSILH
 70
     0
  9
$DIMSCALE
 40
1.0
  9
$DIMASZ
 40
1.5
  9
$DIMEXO
 40
5.0
  9
$DIMDLI
 40
0.9999999999999999
  9
$DIMRND
 40
0.0
  9
$DIMDLE
 40
0.0
  9
$DIMEXE
 40
0.0
  9
$DIMTP
 40
0.0
  9
$DIMTM
 40
0.0
  9
$DIMTXT
 40
5.0
  9
$DIMCEN
 40
0.0
  9
$DIMTSZ
 40
0.0
  9
$DIMTOL
 70
     0
  9
$DIMLIM
 70
     0
  9
$DIMTIH
 70
     0
  9
$DIMTOH
 70
     0
  9
$DIMSE1
 70
     0
  9
$DIMSE2
 70
     0
  9
$DIMTAD
 70
     1
  9
$DIMZIN
 70
    11
  9
$DIMBLK
  1
DOT
  9
$DIMASO
 70
     1
  9
$DIMSHO
 70
     1
  9
$DIMPOST
  1
<>
  9
$DIMAPOST
  1
[]
  9
$DIMALT
 70
     0
  9
$DIMALTD
 70
     1
  9
$DIMALTF
 40
1.0
  9
$DIMLFAC
 40
1.0
  9
$DIMTOFL
 70
     0
  9
$DIMTVP
 40
0.0
  9
$DIMTIX
 70
     1
  9
$DIMSOXD
 70
     0
  9
$DIMSAH
 70
     0
  9
$DIMBLK1
  1

  9
$DIMBLK2
  1

  9
$DIMSTYLE
  2
tfrom線あり
  9
$DIMCLRD
 70
     0
  9
$DIMCLRE
 70
     0
  9
$DIMCLRT
 70
     0
  9
$DIMTFAC
 40
1.0
  9
$DIMGAP
 40
2.0
  9
$DIMJUST
 70
     0
  9
$DIMSD1
 70
     0
  9
$DIMSD2
 70
     0
  9
$DIMTOLJ
 70
     1
  9
$DIMTZIN
 70
    11
  9
$DIMALTZ
 70
    11
  9
$DIMALTTZ
 70
    11
  9
$DIMUPT
 70
     0
  9
$DIMDEC
 70
     0
  9
$DIMTDEC
 70
     1
  9
$DIMALTU
 70
     2
  9
$DIMALTTD
 70
     2
  9
$DIMTXSTY
  7
ＭＳ ゴシック
  9
$DIMAUNIT
 70
     0
  9
$DIMADEC
 70
     2
  9
$DIMALTRND
 40
0.0
  9
$DIMAZIN
 70
     0
  9
$DIMDSEP
 70
    46
  9
$DIMATFIT
 70
     0
  9
$DIMFRAC
 70
     2
  9
$DIMLDRBLK
  1
DOT
  9
$DIMLUNIT
 70
     2
  9
$DIMLWD
 70
    -2
  9
$DIMLWE
 70
    -2
  9
$DIMTMOVE
 70
     0
  9
$DIMFXL
 40
1.0
  9
$DIMFXLON
 70
     0
  9
$DIMJOGANG
 40
0.7853981633974483
  9
$DIMTFILL
 70
     0
  9
$DIMTFILLCLR
 70
     0
  9
$DIMARCSYM
 70
     0
  9
$DIMLTYPE
  6

  9
$DIMLTEX1
  6

  9
$DIMLTEX2
  6

  9
$LUNITS
 70
     2
  9
$LUPREC
 70
     0
  9
$SKETCHINC
 40
0.1
  9
$FILLETRAD
 40
0.0
  9
$AUNITS
 70
     0
  9
$AUPREC
 70
     0
  9
$MENU
  1
acad
  9
$ELEVATION
 40
0.0
  9
$PELEVATION
 40
0.0
  9
$THICKNESS
 40
0.0
  9
$LIMCHECK
 70
     0
  9
$CHAMFERA
 40
0.0
  9
$CHAMFERB
 40
0.0
  9
$CHAMFERC
 40
0.0
  9
$CHAMFERD
 40
0.0
  9
$SKPOLY
 70
     0
  9
$TDCREATE
 40
2447893.375
  9
$TDUCREATE
 40
0.0
  9
$TDUPDATE
 40
2458390.642142338
  9
$TDUUPDATE
 40
2458390.267142338
  9
$TDINDWG
 40
0.0005710301
  9
$TDUSRTIMER
 40
0.0002223495
  9
$USRTIMER
 70
     1
  9
$ANGBASE
 50
0.0
  9
$ANGDIR
 70
     0
  9
$PDMODE
 70
     1
  9
$PDSIZE
 40
-2.0
  9
$PLINEWID
 40
0.0
  9
$SPLFRAME
 70
     0
  9
$SPLINETYPE
 70
     6
  9
$SPLINESEGS
 70
     8
  9
$HANDSEED
  5
6301
  9
$SURFTAB1
 70
     6
  9
$SURFTAB2
 70
     6
  9
$SURFTYPE
 70
     6
  9
$SURFU
 70
     6
  9
$SURFV
 70
     6
  9
$UCSBASE
  2

  9
$UCSNAME
  2

  9
$UCSORG
 10
0.0
 20
0.0
 30
0.0
  9
$UCSXDIR
 10
1.0
 20
0.0
 30
0.0
  9
$UCSYDIR
 10
0.0
 20
1.0
 30
0.0
  9
$UCSORTHOREF
  2

  9
$UCSORTHOVIEW
 70
     0
  9
$UCSORGTOP
 10
0.0
 20
0.0
 30
0.0
  9
$UCSORGBOTTOM
 10
0.0
 20
0.0
 30
0.0
  9
$UCSORGLEFT
 10
0.0
 20
0.0
 30
0.0
  9
$UCSORGRIGHT
 10
0.0
 20
0.0
 30
0.0
  9
$UCSORGFRONT
 10
0.0
 20
0.0
 30
0.0
  9
$UCSORGBACK
 10
0.0
 20
0.0
 30
0.0
  9
$PUCSBASE
  2

  9
$PUCSNAME
  2

  9
$PUCSORG
 10
0.0
 20
0.0
 30
0.0
  9
$PUCSXDIR
 10
1.0
 20
0.0
 30
0.0
  9
$PUCSYDIR
 10
0.0
 20
1.0
 30
0.0
  9
$PUCSORTHOREF
  2

  9
$PUCSORTHOVIEW
 70
     0
  9
$PUCSORGTOP
 10
0.0
 20
0.0
 30
0.0
  9
$PUCSORGBOTTOM
 10
0.0
 20
0.0
 30
0.0
  9
$PUCSORGLEFT
 10
0.0
 20
0.0
 30
0.0
  9
$PUCSORGRIGHT
 10
0.0
 20
0.0
 30
0.0
  9
$PUCSORGFRONT
 10
0.0
 20
0.0
 30
0.0
  9
$PUCSORGBACK
 10
0.0
 20
0.0
 30
0.0
  9
$USERI1
 70
     0
  9
$USERI2
 70
     0
  9
$USERI3
 70
     0
  9
$USERI4
 70
     0
  9
$USERI5
 70
     0
  9
$USERR1
 40
0.0
  9
$USERR2
 40
0.0
  9
$USERR3
 40
0.0
  9
$USERR4
 40
0.0
  9
$USERR5
 40
0.0
  9
$WORLDVIEW
 70
     1
  9
$SHADEDGE
 70
     3
  9
$SHADEDIF
 70
    70
  9
$TILEMODE
 70
     1
  9
$MAXACTVP
 70
    64
  9
$PINSBASE
 10
0.0
 20
0.0
 30
0.0
  9
$PLIMCHECK
 70
     0
  9
$PEXTMIN
 10
0.0
 20
0.0
 30
0.0
  9
$PEXTMAX
 10
0.0
 20
0.0
 30
0.0
  9
$PLIMMIN
 10
-7.5
 20
-20.0
  9
$PLIMMAX
 10
412.5
 20
277.0
  9
$UNITMODE
 70
     0
  9
$VISRETAIN
 70
     0
  9
$PLINEGEN
 70
     1
  9
$PSLTSCALE
 70
     1
  9
$TREEDEPTH
 70
  3020
  9
$CMLSTYLE
  2
Standard
  9
$CMLJUST
 70
     0
  9
$CMLSCALE
 40
1.0
  9
$PROXYGRAPHICS
 70
     0
  9
$MEASUREMENT
 70
     1
  9
$CELWEIGHT
370
    -1
  9
$ENDCAPS
280
     0
  9
$JOINSTYLE
280
     0
  9
$LWDISPLAY
290
     1
  9
$INSUNITS
 70
     4
  9
$HYPERLINKBASE
  1

  9
$STYLESHEET
  1

  9
$XEDIT
290
     1
  9
$CEPSNTYPE
380
     0
  9
$PSTYLEMODE
290
     1
  9
$FINGERPRINTGUID
  2

  9
$VERSIONGUID
  2

  9
$EXTNAMES
290
     1
  9
$PSVPSCALE
 40
0.0
  9
$OLESTARTUP
290
     0
  9
$SORTENTS
280
   127
  9
$INDEXCTL
280
     0
  9
$HIDETEXT
280
     1
  9
$XCLIPFRAME
290
     0
  9
$HALOGAP
280
     0
  9
$OBSCOLOR
 70
   257
  9
$OBSLTYPE
280
     0
  9
$INTERSECTIONDISPLAY
280
     0
  9
$INTERSECTIONCOLOR
 70
   257
  9
$DIMASSOC
280
     2
  9
$PROJECTNAME
  1

  9
$CAMERADISPLAY
290
     0
  9
$LENSLENGTH
 40
50.0
  9
$CAMERAHEIGHT
 40
0.0
  9
$STEPSPERSEC
 40
2.0
  9
$STEPSIZE
 40
6.0
  9
$3DDWFPREC
 40
2.0
  9
$PSOLWIDTH
 40
0.25
  9
$PSOLHEIGHT
 40
4.0
  9
$LOFTANG1
 40
1.570796326794897
  9
$LOFTANG2
 40
1.570796326794897
  9
$LOFTMAG1
 40
0.0
  9
$LOFTMAG2
 40
0.0
  9
$LOFTPARAM
 70
     7
  9
$LOFTNORMALS
280
     1
  9
$LATITUDE
 40
37.795
  9
$LONGITUDE
 40
-122.394
  9
$NORTHDIRECTION
 40
0.0
  9
$TIMEZONE
 70
 -8000
  9
$LIGHTGLYPHDISPLAY
280
     1
  9
$TILEMODELIGHTSYNCH
280
     1
  9
$SOLIDHIST
280
     1
  9
$SHOWHIST
280
     1
  9
$DWFFRAME
280
     2
  9
$DGNFRAME
280
     2
  9
$REALWORLDSCALE
290
     1
  9
$INTERFERECOLOR
 62
   256
  9
$CSHADOW
280
     0
  9
$SHADOWPLANELOCATION
 40
0.0
  0
ENDSEC
  0
SECTION
  2
CLASSES
  0
CLASS
  1
LWPOLYLINE
  2
AcDbPolyline
  3
ObjectDBX Classes
 90
        0
 91
        1
280
     0
281
     1
  0
CLASS
  1
IMAGE
  2
AcDbRasterImage
  3
ISM
 90
      127
 91
        6
280
     0
281
     1
  0
CLASS
  1
OLE2FRAME
  2
AcDbOle2Frame
  3
ObjectDBX Classes
 90
        0
 91
        1
280
     0
281
     1
  0
CLASS
  1
HATCH
  2
AcDbHatch
  3
ObjectDBX Classes
 90
        0
 91
        1
280
     0
281
     1
  0
CLASS
  1
DICTIONARYVAR
  2
AcDbDictionaryVar
  3
ObjectDBX Classes
 90
        0
 91
        5
280
     0
281
     0
  0
CLASS
  1
RASTERVARIABLES
  2
AcDbRasterVariables
  3
ISM
 90
        0
 91
        5
280
     0
281
     0
  0
CLASS
  1
IMAGEDEF
  2
AcDbRasterImageDef
  3
ISM
 90
        0
 91
        5
280
     0
281
     0
  0
CLASS
  1
IMAGEDEF_REACTOR
  2
AcDbRasterImageDefReactor
  3
ISM
 90
        1
 91
        5
280
     0
281
     0
  0
CLASS
  1
IDBUFFER
  2
AcDbIdBuffer
  3
ObjectDBX Classes
 90
        0
 91
        5
280
     0
281
     0
  0
CLASS
  1
SPATIAL_FILTER
  2
AcDbSpatialFilter
  3
ObjectDBX Classes
 90
        0
 91
        5
280
     0
281
     0
  0
CLASS
  1
XRECORD
  2
AcDbXrecord
  3
ObjectDBX Classes
 90
        0
 91
        1
280
     0
281
     0
  0
CLASS
  1
SORTENTSTABLE
  2
AcDbSortentsTable
  3
ObjectDBX Classes
 90
        0
 91
        5
280
     0
281
     0
  0
CLASS
  1
LAYER_INDEX
  2
AcDbLayerIndex
  3
ObjectDBX Classes
 90
        0
 91
        5
280
     0
281
     0
  0
CLASS
  1
SPATIAL_INDEX
  2
AcDbSpatialIndex
  3
AutoCAD 2000
 90
        0
 91
        5
280
     0
281
     0
  0
CLASS
  1
OBJECT_PTR
  2
CAseDLPNTableRecord
  3
ASE-LPNTableRecord
 90
        1
 91
        5
280
     0
281
     0
  0
CLASS
  1
LAYOUT
  2
AcDbLayout
  3
ObjectDBX Classes
 90
        0
 91
        1
280
     0
281
     0
  0
CLASS
  1
PLOTSETTINGS
  2
AcDbPlotSettings
  3
ObjectDBX Classes
 90
        0
 91
        5
280
     0
281
     0
  0
CLASS
  1
ACDBDICTIONARYWDFLT
  2
AcDbDictionaryWithDefault
  3
ObjectDBX Classes
 90
        0
 91
        5
280
     0
281
     0
  0
CLASS
  1
ACDBPLACEHOLDER
  2
AcDbPlaceHolder
  3
ObjectDBX Classes
 90
        0
 91
        1
280
     0
281
     0
  0
CLASS
  1
SCALE
  2
AcDbScale
  3
ObjectDBX Classes
 90
     1153
 91
        5
280
     0
281
     0
  0
CLASS
  1
MATERIAL
  2
AcDbMaterial
  3
ObjectDBX Classes
 90
     1153
 91
        5
280
     0
281
     0
  0
CLASS
  1
VISUALSTYLE
  2
AcDbVisualStyle
  3
ObjectDBX Classes
 90
     4095
 91
        5
280
     0
281
     0
  0
CLASS
  1
TABLESTYLE
  2
AcDbTableStyle
  3
ObjectDBX Classes
 90
     4095
 91
        5
280
     0
281
     0
  0
CLASS
  1
DIMASSOC
  2
AcDbDimAssoc
  3
"AcDbDimAssoc|Product Desc:     AcDim ARX App For Dimension|Company:          Autodesk, Inc.|WEB Address:      www.autodesk.com"
 90
        0
 91
        5
280
     0
281
     0
  0
CLASS
  1
CELLSTYLEMAP
  2
AcDbCellStyleMap
  3
ObjectDBX Classes
 90
     1152
 91
        5
280
     0
281
     0
  0
CLASS
  1
SUN
  2
AcDbSun
  3
SCENEOE
 90
     1153
 91
        5
280
     0
281
     0
  0
CLASS
  1
MLEADERSTYLE
  2
AcDbMLeaderStyle
  3
ACDB_MLEADERSTYLE_CLASS
 90
     4095
 91
        5
280
     0
281
     0
  0
CLASS
  1
FIELD
  2
AcDbField
  3
ObjectDBX Classes
 90
     1152
 91
        5
280
     0
281
     0
  0
CLASS
  1
FIELDLIST
  2
AcDbFieldList
  3
ObjectDBX Classes
 90
     1152
 91
        5
280
     0
281
     0
  0
ENDSEC
  0
SECTION
  2
TABLES
  0
TABLE
  2
VPORT
  5
7
330
0
100
AcDbSymbolTable
 70
     1
  0
VPORT
  5
15
330
7
100
AcDbSymbolTableRecord
100
AcDbViewportTableRecord
  2
*ACTIVE
 70
     0
 10
0.0
 20
0.0
 11
1.0
 21
1.0
 12
296.9999999999999
 22
210.0
 13
0.0
 23
0.0
 14
1.0
 24
1.0
 15
0.0
 25
0.0
 16
0.0
 26
0.0
 36
1.0
 17
0.0
 27
0.0
 37
0.0
 40
428.4
 41
2.294372294372294
 42
50.0
 43
0.0
 44
0.0
 50
0.0
 51
0.0
 71
    16
 72
  2000
 73
     1
 74
     1
 75
     0
 76
     0
 77
     0
 78
     0
281
     0
 65
     1
110
0.0
120
0.0
130
0.0
111
1.0
121
0.0
131
0.0
112
0.0
122
1.0
132
0.0
 79
     0
146
0.0
348
26C
 60
     3
 61
     5
292
     1
282
     1
141
0.0
142
0.0
 63
   256
361
F1A
  0
ENDTAB
  0
TABLE
  2
LTYPE
  5
4
330
0
100
AcDbSymbolTable
 70
     8
  0
LTYPE
  5
11
330
4
100
AcDbSymbolTableRecord
100
AcDbLinetypeTableRecord
  2
ByBlock
 70
     0
  3

 72
    65
 73
     0
 40
0.0
  0
LTYPE
  5
12
330
4
100
AcDbSymbolTableRecord
100
AcDbLinetypeTableRecord
  2
ByLayer
 70
     0
  3
Solid line
 72
    65
 73
     0
 40
0.0
  0
LTYPE
  5
13
330
4
100
AcDbSymbolTableRecord
100
AcDbLinetypeTableRecord
  2
Continuous
 70
     0
  3
Solid line
 72
    65
 73
     0
 40
0.0
  0
LTYPE
  5
3B
330
4
100
AcDbSymbolTableRecord
100
AcDbLinetypeTableRecord
  2
STYLE_02
 70
     0
  3

 72
    65
 73
     2
 40
0.6944250000000001
 49
0.48607
 74
     0
 49
-0.2083550000000001
 74
     0
  0
LTYPE
  5
90E
330
4
100
AcDbSymbolTableRecord
100
AcDbLinetypeTableRecord
  2
DASHED1
 70
     0
  3
--  --  --  --  --  --  --  --  
 72
    65
 73
     2
 40
2.5
 49
1.25
 74
     0
 49
-1.25
 74
     0
  0
LTYPE
  5
4E6E
330
4
100
AcDbSymbolTableRecord
100
AcDbLinetypeTableRecord
  2
CENTER
 70
     0
  3
----------  --  ----------  --  
 72
    65
 73
     4
 40
20.0
 49
12.5
 74
     0
 49
-2.5
 74
     0
 49
2.5
 74
     0
 49
-2.5
 74
     0
  0
LTYPE
  5
4E6F
330
4
100
AcDbSymbolTableRecord
100
AcDbLinetypeTableRecord
  2
HIDDEN
 70
     0
  3
Hidden _ _ _ _ _ _ _ _ _ _ _ _ _ _ _ _ _ _ _ _ 
 72
    65
 73
     2
 40
9.524999999999999
 49
6.35
 74
     0
 49
-3.175
 74
     0
  0
LTYPE
  5
5707
330
4
100
AcDbSymbolTableRecord
100
AcDbLinetypeTableRecord
  2
DASHED
 70
     0
  3
Dashed __ __ __ __ __ __ __ __ __ __ __ __ __ _
 72
    65
 73
     2
 40
19.05
 49
12.7
 74
     0
 49
-6.35
 74
     0
  0
LTYPE
  5
5709
330
4
100
AcDbSymbolTableRecord
100
AcDbLinetypeTableRecord
  2
HIDDEN2
 70
     0
  3
Hidden (.5x) _ _ _ _ _ _ _ _ _ _ _ _ _ _ _ _ _ 
 72
    65
 73
     2
 40
4.7625
 49
3.175
 74
     0
 49
-1.5875
 74
     0
  0
LTYPE
  5
6068
330
4
100
AcDbSymbolTableRecord
100
AcDbLinetypeTableRecord
  2
DASHDOT
 70
     0
  3
Dash dot __ . __ . __ . __ . __ . __ . __ . __
 72
    65
 73
     4
 40
25.4
 49
12.7
 74
     0
 49
-6.35
 74
     0
 49
0.0
 74
     0
 49
-6.35
 74
     0
  0
ENDTAB
  0
TABLE
  2
LAYER
  5
2
102
{ACAD_XDICTIONARY
360
2E1
102
}
330
0
100
AcDbSymbolTable
 70
    14
  0
LAYER
  5
14
330
2
100
AcDbSymbolTableRecord
100
AcDbLayerTableRecord
  2
0
 70
     0
 62
     7
  6
Continuous
370
    -3
390
1D
347
266
  0
LAYER
  5
4A
330
2
100
AcDbSymbolTableRecord
100
AcDbLayerTableRecord
  2
Defpoints
 70
     0
 62
     7
  6
Continuous
290
     0
370
    -3
390
1D
347
266
  0
LAYER
  5
4D
330
2
100
AcDbSymbolTableRecord
100
AcDbLayerTableRecord
  2
MODEL
 70
     0
 62
     7
  6
Continuous
370
    20
390
1D
347
266
  0
LAYER
  5
667
330
2
100
AcDbSymbolTableRecord
100
AcDbLayerTableRecord
  2
レイヤー 1
 70
     0
 62
     7
  6
Continuous
370
    -3
390
1D
347
266
  0
LAYER
  5
4598
330
2
100
AcDbSymbolTableRecord
100
AcDbLayerTableRecord
  2
_0-1_
 70
     0
 62
     7
  6
Continuous
370
    -3
390
1D
347
266
  0
LAYER
  5
4E64
330
2
100
AcDbSymbolTableRecord
100
AcDbLayerTableRecord
  2
寸法
 70
     0
 62
     7
  6
Continuous
370
    13
390
1D
347
266
1001
AcAecLayerStandard
1000

1000

  0
LAYER
  5
4E68
330
2
100
AcDbSymbolTableRecord
100
AcDbLayerTableRecord
  2
テンプレート
 70
     0
 62
     7
  6
Continuous
370
    20
390
1D
347
266
1001
AcAecLayerStandard
1000

1000

  0
LAYER
  5
4E69
330
2
100
AcDbSymbolTableRecord
100
AcDbLayerTableRecord
  2
TFORMLOGO
 70
     0
 62
     7
  6
Continuous
370
    20
390
1D
347
266
  0
LAYER
  5
4E6A
330
2
100
AcDbSymbolTableRecord
100
AcDbLayerTableRecord
  2
PRINT BORDER
 70
     0
 62
     4
  6
Continuous
290
     0
370
    -3
390
1D
347
266
1001
AcAecLayerStandard
1000

1000

  0
LAYER
  5
4E6B
330
2
100
AcDbSymbolTableRecord
100
AcDbLayerTableRecord
  2
SPACER
 70
     0
 62
    -3
  6
Continuous
290
     0
370
    -3
390
1D
347
266
1001
AcAecLayerStandard
1000

1000

  0
LAYER
  5
4E6D
330
2
100
AcDbSymbolTableRecord
100
AcDbLayerTableRecord
  2
CutoutOverlay
 70
     0
 62
     7
  6
Continuous
370
    20
390
1D
347
266
1001
AcAecLayerStandard
1000

1000

  0
LAYER
  5
4FAC
330
2
100
AcDbSymbolTableRecord
100
AcDbLayerTableRecord
  2
CutoutUnderlay
 70
     0
 62
   254
  6
Continuous
370
    20
390
1D
347
266
1001
AcAecLayerStandard
1000

1000

  0
LAYER
  5
5FF4
330
2
100
AcDbSymbolTableRecord
100
AcDbLayerTableRecord
  2
HIDDEN
 70
     0
 62
     7
  6
HIDDEN
370
    20
390
1D
347
266
1001
AcAecLayerStandard
1000

1000

  0
LAYER
  5
6065
330
2
100
AcDbSymbolTableRecord
100
AcDbLayerTableRecord
  2
100
 70
     0
 62
     1
  6
DASHED
370
    -3
390
1D
347
266
  0
ENDTAB
  0
TABLE
  2
STYLE
  5
3
330
0
100
AcDbSymbolTable
 70
     2
  0
STYLE
  5
17
330
3
100
AcDbSymbolTableRecord
100
AcDbTextStyleTableRecord
  2
Standard
 70
     0
 40
0.0
 41
1.0
 50
0.0
 71
     0
 42
2.5
  3
txt
  4
BIGFONT.SHX
  0
STYLE
  5
39
330
3
100
AcDbSymbolTableRecord
100
AcDbTextStyleTableRecord
  2
ＭＳ ゴシック
 70
     0
 40
0.0
 41
1.0
 50
0.0
 71
     0
 42
2.5
  3
msgothic.ttc
  4
ＭＳ ゴシック
1001
ACAD
1000
ＭＳ ゴシック
1071
        0
  0
ENDTAB
  0
TABLE
  2
VIEW
  5
5
330
0
100
AcDbSymbolTable
 70
     0
  0
ENDTAB
  0
TABLE
  2
UCS
  5
6
330
0
100
AcDbSymbolTable
 70
     0
  0
ENDTAB
  0
TABLE
  2
APPID
  5
8
330
0
100
AcDbSymbolTable
 70
     3
  0
APPID
  5
16
330
8
100
AcDbSymbolTableRecord
100
AcDbRegAppTableRecord
  2
ACAD
 70
     0
  0
APPID
  5
7AC
330
8
100
AcDbSymbolTableRecord
100
AcDbRegAppTableRecord
  2
AcAecLayerStandard
 70
     0
  0
APPID
  5
56DF
330
8
100
AcDbSymbolTableRecord
100
AcDbRegAppTableRecord
  2
ACAD_MLEADERVER
 70
     0
  0
ENDTAB
  0
TABLE
  2
DIMSTYLE
  5
9
330
0
100
AcDbSymbolTable
 70
     3
100
AcDbDimStyleTable
  0
DIMSTYLE
105
18
330
9
100
AcDbSymbolTableRecord
100
AcDbDimStyleTableRecord
  2
Standard
 70
     0
178
     0
340
17
  0
DIMSTYLE
105
57
102
{ACAD_REACTORS
330
5D81
330
5D84
330
5DB9
330
5DBA
330
5DBB
330
5DBC
330
5DC0
330
5DC3
330
5DCC
330
5DD5
330
5DD6
330
5F79
330
5F86
330
5F93
330
5FA2
102
}
330
9
100
AcDbSymbolTableRecord
100
AcDbDimStyleTableRecord
  2
tfrom線あり
 70
     0
  3
<>
  4
[]
 41
1.5
 42
5.0
 43
0.9999999999999999
 44
0.0
 73
     0
 74
     0
 77
     1
 78
    11
140
5.0
141
0.0
143
1.0
147
2.0
171
     1
174
     1
178
     0
179
     2
271
     0
272
     1
276
     2
284
    11
285
    11
286
    11
289
     0
340
39
341
4E
342
4E
  0
DIMSTYLE
105
6069
330
9
100
AcDbSymbolTableRecord
100
AcDbDimStyleTableRecord
  2
ISO-25
 70
     0
 41
2.5
 42
0.625
 43
3.75
 44
1.25
 73
     0
 74
     0
 77
     1
 78
     8
140
2.5
141
2.5
143
0.03937
147
0.625
171
     3
172
     1
178
     0
271
     2
272
     2
274
     3
283
     0
284
     8
340
17
  0
ENDTAB
  0
TABLE
  2
BLOCK_RECORD
  5
1
330
0
100
AcDbSymbolTable
 70
    19
  0
BLOCK_RECORD
  5
A
102
{ACAD_XDICTIONARY
360
56F6
102
}
330
1
100
AcDbSymbolTableRecord
100
AcDbBlockTableRecord
  2
*MODEL_SPACE
340
20
 70
     0
280
     1
281
     0
  0
BLOCK_RECORD
  5
B
330
1
100
AcDbSymbolTableRecord
100
AcDbBlockTableRecord
  2
*PAPER_SPACE
340
21
 70
     0
280
     1
281
     0
  0
BLOCK_RECORD
  5
4E
330
1
100
AcDbSymbolTableRecord
100
AcDbBlockTableRecord
  2
_DOT
340
0
102
{BLKREFS
331
5DFB
331
5DFC
331
5E07
331
5E08
331
5E15
331
5E16
331
5E21
331
5E22
331
5E2D
331
5E2E
331
5E39
331
5E3A
331
5E47
331
5E48
331
5E53
331
5E54
331
5E5F
331
5E60
331
5F80
331
5F81
331
5F8D
331
5F8E
331
5F9C
331
5F9D
331
5FAB
331
5FAC
102
}
 70
     0
280
     1
281
     0
  0
BLOCK_RECORD
  5
690
330
1
100
AcDbSymbolTableRecord
100
AcDbBlockTableRecord
  2
block 3
340
0
102
{BLKREFS
331
4EB0
102
}
 70
     0
280
     1
281
     0
  0
BLOCK_RECORD
  5
693
330
1
100
AcDbSymbolTableRecord
100
AcDbBlockTableRecord
  2
block 4
340
0
102
{BLKREFS
331
692
102
}
 70
     0
280
     1
281
     0
  0
BLOCK_RECORD
  5
6A2
330
1
100
AcDbSymbolTableRecord
100
AcDbBlockTableRecord
  2
block 5
340
0
102
{BLKREFS
331
6A1
102
}
 70
     0
280
     1
281
     0
  0
BLOCK_RECORD
  5
4EAB
330
1
100
AcDbSymbolTableRecord
100
AcDbBlockTableRecord
  2
名称未設定-1
340
0
102
{BLKREFS
331
5DA9
102
}
 70
     1
280
     1
281
     0
  0
BLOCK_RECORD
  5
4EAE
330
1
100
AcDbSymbolTableRecord
100
AcDbBlockTableRecord
  2
block 2
340
0
102
{BLKREFS
331
4EAD
102
}
 70
     0
280
     1
281
     0
  0
BLOCK_RECORD
  5
5DF5
330
1
100
AcDbSymbolTableRecord
100
AcDbBlockTableRecord
  2
*D6
340
0
 70
     0
280
     1
281
     0
  0
BLOCK_RECORD
  5
5E01
330
1
100
AcDbSymbolTableRecord
100
AcDbBlockTableRecord
  2
*D7
340
0
 70
     0
280
     1
281
     0
  0
BLOCK_RECORD
  5
5E0D
330
1
100
AcDbSymbolTableRecord
100
AcDbBlockTableRecord
  2
*D8
340
0
 70
     0
280
     1
281
     0
  0
BLOCK_RECORD
  5
5E1B
330
1
100
AcDbSymbolTableRecord
100
AcDbBlockTableRecord
  2
*D9
340
0
 70
     0
280
     1
281
     0
  0
BLOCK_RECORD
  5
5E27
330
1
100
AcDbSymbolTableRecord
100
AcDbBlockTableRecord
  2
*D10
340
0
 70
     0
280
     1
281
     0
  0
BLOCK_RECORD
  5
5E33
330
1
100
AcDbSymbolTableRecord
100
AcDbBlockTableRecord
  2
*D11
340
0
 70
     0
280
     1
281
     0
  0
BLOCK_RECORD
  5
5E3F
330
1
100
AcDbSymbolTableRecord
100
AcDbBlockTableRecord
  2
*D12
340
0
 70
     0
280
     1
281
     0
  0
BLOCK_RECORD
  5
5E4D
330
1
100
AcDbSymbolTableRecord
100
AcDbBlockTableRecord
  2
*D13
340
0
 70
     0
280
     1
281
     0
  0
BLOCK_RECORD
  5
5E59
330
1
100
AcDbSymbolTableRecord
100
AcDbBlockTableRecord
  2
*D14
340
0
 70
     0
280
     1
281
     0
  0
BLOCK_RECORD
  5
5F7A
330
1
100
AcDbSymbolTableRecord
100
AcDbBlockTableRecord
  2
*D15
340
0
 70
     0
280
     1
281
     0
  0
BLOCK_RECORD
  5
5F87
330
1
100
AcDbSymbolTableRecord
100
AcDbBlockTableRecord
  2
*D16
340
0
 70
     0
280
     1
281
     0
  0
BLOCK_RECORD
  5
5F96
330
1
100
AcDbSymbolTableRecord
100
AcDbBlockTableRecord
  2
*D17
340
0
 70
     0
280
     1
281
     0
  0
BLOCK_RECORD
  5
5FA5
330
1
100
AcDbSymbolTableRecord
100
AcDbBlockTableRecord
  2
*D18
340
0
 70
     0
280
     1
281
     0
  0
ENDTAB
  0
ENDSEC
  0
SECTION
  2
BLOCKS
  0
BLOCK
  5
D
330
A
100
AcDbEntity
  8
0
390
1D
100
AcDbBlockBegin
  2
*MODEL_SPACE
 70
     0
 10
0.0
 20
0.0
 30
0.0
  3
*MODEL_SPACE
  1
*MODEL_SPACE
  0
ENDBLK
  5
E
330
A
100
AcDbEntity
  8
0
390
1D
100
AcDbBlockEnd
  0
BLOCK
  5
F
330
B
100
AcDbEntity
 67
     1
  8
0
390
1D
100
AcDbBlockBegin
  2
*PAPER_SPACE
 70
     0
 10
0.0
 20
0.0
 30
0.0
  3
*PAPER_SPACE
  1
*PAPER_SPACE
  0
ENDBLK
  5
10
330
B
100
AcDbEntity
 67
     1
  8
0
390
1D
100
AcDbBlockEnd
  0
BLOCK
  5
52EF
330
4E
100
AcDbEntity
  8
0
390
1D
100
AcDbBlockBegin
  2
_DOT
 70
     0
 10
0.0
 20
0.0
 30
0.0
  3
_DOT
  1
_DOT
  0
POLYLINE
  5
52F1
330
4E
100
AcDbEntity
  8
0
  6
ByBlock
 62
     0
370
    -2
390
1D
100
AcDb2dPolyline
 66
     1
 10
0.0
 20
0.0
 30
0.0
 70
     1
 40
0.5
 41
0.5
  0
VERTEX
  5
52F2
330
52F1
100
AcDbEntity
  8
0
  6
ByBlock
 62
     0
370
    -2
390
1D
100
AcDbVertex
100
AcDb2dVertex
 10
-0.25
 20
0.0
 30
0.0
 42
1.0
  0
VERTEX
  5
52F3
330
52F1
100
AcDbEntity
  8
0
  6
ByBlock
 62
     0
370
    -2
390
1D
100
AcDbVertex
100
AcDb2dVertex
 10
0.25
 20
0.0
 30
0.0
 42
1.0
  0
SEQEND
  5
52F4
330
52F1
100
AcDbEntity
  8
0
390
1D
  0
LINE
  5
52F5
330
4E
100
AcDbEntity
  8
0
  6
ByBlock
 62
     0
370
    -2
390
1D
100
AcDbLine
 10
-0.5
 20
0.0
 30
0.0
 11
-1.0
 21
0.0
 31
0.0
  0
ENDBLK
  5
52F6
330
4E
100
AcDbEntity
  8
0
390
1D
100
AcDbBlockEnd
  0
BLOCK
  5
691
330
690
100
AcDbEntity
  8
0
100
AcDbBlockBegin
  2
block 3
 70
     0
 10
0.0
 20
0.0
 30
0.0
  3
block 3
  1
block 3
  0
INSERT
  5
692
330
690
100
AcDbEntity
  8
レイヤー 1
100
AcDbBlockReference
  2
block 4
 10
0.0
 20
0.0
 30
0.0
  0
ENDBLK
  5
6AF
330
690
100
AcDbEntity
  8
0
100
AcDbBlockEnd
  0
BLOCK
  5
694
330
693
100
AcDbEntity
  8
0
100
AcDbBlockBegin
  2
block 4
 70
     0
 10
0.0
 20
0.0
 30
0.0
  3
block 4
  1
block 4
  0
POLYLINE
  5
695
330
693
100
AcDbEntity
  8
レイヤー 1
370
     0
100
AcDb2dPolyline
 66
     1
 10
0.0
 20
0.0
 30
0.0
  0
VERTEX
  5
696
330
695
100
AcDbEntity
  8
レイヤー 1
370
     0
100
AcDbVertex
100
AcDb2dVertex
 10
83.79545727667795
 20
167.6444858234922
 30
0.0
  0
VERTEX
  5
697
330
695
100
AcDbEntity
  8
レイヤー 1
370
     0
100
AcDbVertex
100
AcDb2dVertex
 10
83.79545727667795
 20
159.7968976406313
 30
0.0
  0
VERTEX
  5
698
330
695
100
AcDbEntity
  8
レイヤー 1
370
     0
100
AcDbVertex
100
AcDb2dVertex
 10
71.3631329975216
 20
159.7968976406313
 30
0.0
  0
VERTEX
  5
699
330
695
100
AcDbEntity
  8
レイヤー 1
370
     0
100
AcDbVertex
100
AcDb2dVertex
 10
71.3631329975216
 20
127.8027915271048
 30
0.0
  0
VERTEX
  5
69A
330
695
100
AcDbEntity
  8
レイヤー 1
370
     0
100
AcDbVertex
100
AcDb2dVertex
 10
60.43011526263018
 20
127.8027915271048
 30
0.0
  0
VERTEX
  5
69B
330
695
100
AcDbEntity
  8
レイヤー 1
370
     0
100
AcDbVertex
100
AcDb2dVertex
 10
60.43011526263018
 20
159.7968976406313
 30
0.0
  0
VERTEX
  5
69C
330
695
100
AcDbEntity
  8
レイヤー 1
370
     0
100
AcDbVertex
100
AcDb2dVertex
 10
48.21793273020759
 20
159.7968976406313
 30
0.0
  0
VERTEX
  5
69D
330
695
100
AcDbEntity
  8
レイヤー 1
370
     0
100
AcDbVertex
100
AcDb2dVertex
 10
48.21793273020759
 20
167.6444858234922
 30
0.0
  0
VERTEX
  5
69E
330
695
100
AcDbEntity
  8
レイヤー 1
370
     0
100
AcDbVertex
100
AcDb2dVertex
 10
83.79545727667795
 20
167.6444858234922
 30
0.0
  0
SEQEND
  5
69F
330
695
100
AcDbEntity
  8
レイヤー 1
370
     0
  0
HATCH
  5
6A0
330
693
100
AcDbEntity
  8
レイヤー 1
 62
   250
420
  2234388
100
AcDbHatch
 10
0.0
 20
0.0
 30
0.0
210
0.0
220
0.0
230
1.0
  2
SOLID
 70
     1
 71
     0
 91
        1
 92
        1
 93
        8
 72
     1
 10
83.79545727667795
 20
167.6444858234922
 11
83.79545727667795
 21
159.7968976406313
 72
     1
 10
83.79545727667795
 20
159.7968976406313
 11
71.3631329975216
 21
159.7968976406313
 72
     1
 10
71.3631329975216
 20
159.7968976406313
 11
71.3631329975216
 21
127.8027915271048
 72
     1
 10
71.3631329975216
 20
127.8027915271048
 11
60.43011526263018
 21
127.8027915271048
 72
     1
 10
60.43011526263018
 20
127.8027915271048
 11
60.43011526263018
 21
159.7968976406313
 72
     1
 10
60.43011526263018
 20
159.7968976406313
 11
48.21793273020759
 21
159.7968976406313
 72
     1
 10
48.21793273020759
 20
159.7968976406313
 11
48.21793273020759
 21
167.6444858234922
 72
     1
 10
48.21793273020759
 20
167.6444858234922
 11
83.79545727667795
 21
167.6444858234922
 97
        0
 75
     2
 76
     1
 98
        0
  0
INSERT
  5
6A1
330
693
100
AcDbEntity
  8
レイヤー 1
100
AcDbBlockReference
  2
block 5
 10
0.0
 20
0.0
 30
0.0
  0
ENDBLK
  5
6AE
330
693
100
AcDbEntity
  8
0
100
AcDbBlockEnd
  0
BLOCK
  5
6A3
330
6A2
100
AcDbEntity
  8
0
100
AcDbBlockBegin
  2
block 5
 70
     0
 10
0.0
 20
0.0
 30
0.0
  3
block 5
  1
block 5
  0
SPLINE
  5
6A4
330
6A2
100
AcDbEntity
  8
レイヤー 1
370
     0
100
AcDbSpline
210
0.0
220
0.0
230
1.0
 70
    11
 71
     3
 72
    56
 73
    52
 74
     0
 42
0.000000001
 43
0.0000000001
 40
0.0
 40
0.0
 40
0.0
 40
0.0
 40
1.0
 40
1.0
 40
1.0
 40
2.0
 40
2.0
 40
2.0
 40
3.0
 40
3.0
 40
3.0
 40
4.0
 40
4.0
 40
4.0
 40
5.0
 40
5.0
 40
5.0
 40
6.0
 40
6.0
 40
6.0
 40
7.0
 40
7.0
 40
7.0
 40
8.0
 40
8.0
 40
8.0
 40
9.0
 40
9.0
 40
9.0
 40
10.0
 40
10.0
 40
10.0
 40
11.0
 40
11.0
 40
11.0
 40
12.0
 40
12.0
 40
12.0
 40
13.0
 40
13.0
 40
13.0
 40
14.0
 40
14.0
 40
14.0
 40
15.0
 40
15.0
 40
15.0
 40
16.0
 40
16.0
 40
16.0
 40
17.0
 40
17.0
 40
17.0
 40
17.0
 10
100.4504378777679
 20
166.69157178364
 30
0.0
 10
101.9848844191641
 20
167.1313385124438
 30
0.0
 10
103.9637485713373
 20
166.7649523658846
 30
0.0
 10
103.9637485713373
 20
166.7649523658846
 30
0.0
 10
103.9637485713373
 20
166.7649523658846
 30
0.0
 10
103.0132460999156
 20
163.911205638077
 30
0.0
 10
103.0132460999156
 20
163.911205638077
 30
0.0
 10
103.0132460999156
 20
163.911205638077
 30
0.0
 10
101.0674548862189
 20
164.3601018759394
 30
0.0
 10
99.57090442016032
 20
163.1805004036133
 30
0.0
 10
98.40508333886608
 20
162.258247733807
 30
0.0
 10
97.65301849830304
 20
159.804132345923
 30
0.0
 10
97.3598406791005
 20
158.8699940888517
 30
0.0
 10
97.3598406791005
 20
158.8699940888517
 30
0.0
 10
96.07137411762282
 20
154.9119212747295
 30
0.0
 10
96.07137411762282
 20
154.9119212747295
 30
0.0
 10
96.07137411762282
 20
154.9119212747295
 30
0.0
 10
100.3012651448482
 20
154.9119212747295
 30
0.0
 10
100.3012651448482
 20
154.9119212747295
 30
0.0
 10
100.3012651448482
 20
154.9119212747295
 30
0.0
 10
99.64152892419852
 20
152.4199098115079
 30
0.0
 10
99.64152892419852
 20
152.4199098115079
 30
0.0
 10
99.64152892419852
 20
152.4199098115079
 30
0.0
 10
95.38097652692731
 20
152.4199098115079
 30
0.0
 10
95.38097652692731
 20
152.4199098115079
 30
0.0
 10
95.38097652692731
 20
152.4199098115079
 30
0.0
 10
87.75353009080013
 20
127.8027915271048
 30
0.0
 10
87.75353009080013
 20
127.8027915271048
 30
0.0
 10
87.75353009080013
 20
127.8027915271048
 30
0.0
 10
85.36538832498108
 20
127.8027915271048
 30
0.0
 10
85.36538832498108
 20
127.8027915271048
 30
0.0
 10
85.36538832498108
 20
127.8027915271048
 30
0.0
 10
93.00006946639998
 20
152.4199098115079
 30
0.0
 10
93.00006946639998
 20
152.4199098115079
 30
0.0
 10
93.00006946639998
 20
152.4199098115079
 30
0.0
 10
89.85297266450198
 20
152.4199098115079
 30
0.0
 10
89.85297266450198
 20
152.4199098115079
 30
0.0
 10
89.85297266450198
 20
152.4199098115079
 30
0.0
 10
90.51270888515164
 20
154.9119212747295
 30
0.0
 10
90.51270888515164
 20
154.9119212747295
 30
0.0
 10
90.51270888515164
 20
154.9119212747295
 30
0.0
 10
93.6904670570955
 20
154.9119212747295
 30
0.0
 10
93.6904670570955
 20
154.9119212747295
 30
0.0
 10
93.6904670570955
 20
154.9119212747295
 30
0.0
 10
94.81598049462158
 20
158.3616699146644
 30
0.0
 10
94.81598049462158
 20
158.3616699146644
 30
0.0
 10
95.7237637538445
 20
161.2605474231013
 30
0.0
 10
96.4968436907311
 20
162.8139420021662
 30
0.0
 10
97.15657991138076
 20
163.9844139654337
 30
0.0
 10
97.81183750494507
 20
165.1523021053827
 30
0.0
 10
99.1047826935081
 20
166.3084769129547
 30
0.0
 10
100.4504378777679
 20
166.69157178364
 30
0.0
  0
HATCH
  5
6A5
330
6A2
100
AcDbEntity
  8
レイヤー 1
 62
   250
420
  2234388
100
AcDbHatch
 10
0.0
 20
0.0
 30
0.0
210
0.0
220
0.0
230
1.0
  2
SOLID
 70
     1
 71
     0
 91
        1
 92
        1
 93
        1
 72
     4
 94
        3
 73
     0
 74
     1
 95
       56
 96
       52
 40
0.0
 40
0.0
 40
0.0
 40
0.0
 40
1.0
 40
1.0
 40
1.0
 40
2.0
 40
2.0
 40
2.0
 40
3.0
 40
3.0
 40
3.0
 40
4.0
 40
4.0
 40
4.0
 40
5.0
 40
5.0
 40
5.0
 40
6.0
 40
6.0
 40
6.0
 40
7.0
 40
7.0
 40
7.0
 40
8.0
 40
8.0
 40
8.0
 40
9.0
 40
9.0
 40
9.0
 40
10.0
 40
10.0
 40
10.0
 40
11.0
 40
11.0
 40
11.0
 40
12.0
 40
12.0
 40
12.0
 40
13.0
 40
13.0
 40
13.0
 40
14.0
 40
14.0
 40
14.0
 40
15.0
 40
15.0
 40
15.0
 40
16.0
 40
16.0
 40
16.0
 40
17.0
 40
17.0
 40
17.0
 40
17.0
 10
100.4504378777679
 20
166.69157178364
 10
101.9848844191641
 20
167.1313385124438
 10
103.9637485713373
 20
166.7649523658846
 10
103.9637485713373
 20
166.7649523658846
 10
103.9637485713373
 20
166.7649523658846
 10
103.0132460999156
 20
163.911205638077
 10
103.0132460999156
 20
163.911205638077
 10
103.0132460999156
 20
163.911205638077
 10
101.0674548862189
 20
164.3601018759394
 10
99.57090442016032
 20
163.1805004036133
 10
98.40508333886608
 20
162.258247733807
 10
97.65301849830304
 20
159.804132345923
 10
97.3598406791005
 20
158.8699940888517
 10
97.3598406791005
 20
158.8699940888517
 10
96.07137411762282
 20
154.9119212747295
 10
96.07137411762282
 20
154.9119212747295
 10
96.07137411762282
 20
154.9119212747295
 10
100.3012651448482
 20
154.9119212747295
 10
100.3012651448482
 20
154.9119212747295
 10
100.3012651448482
 20
154.9119212747295
 10
99.64152892419852
 20
152.4199098115079
 10
99.64152892419852
 20
152.4199098115079
 10
99.64152892419852
 20
152.4199098115079
 10
95.38097652692731
 20
152.4199098115079
 10
95.38097652692731
 20
152.4199098115079
 10
95.38097652692731
 20
152.4199098115079
 10
87.75353009080013
 20
127.8027915271048
 10
87.75353009080013
 20
127.8027915271048
 10
87.75353009080013
 20
127.8027915271048
 10
85.36538832498108
 20
127.8027915271048
 10
85.36538832498108
 20
127.8027915271048
 10
85.36538832498108
 20
127.8027915271048
 10
93.00006946639998
 20
152.4199098115079
 10
93.00006946639998
 20
152.4199098115079
 10
93.00006946639998
 20
152.4199098115079
 10
89.85297266450198
 20
152.4199098115079
 10
89.85297266450198
 20
152.4199098115079
 10
89.85297266450198
 20
152.4199098115079
 10
90.51270888515164
 20
154.9119212747295
 10
90.51270888515164
 20
154.9119212747295
 10
90.51270888515164
 20
154.9119212747295
 10
93.6904670570955
 20
154.9119212747295
 10
93.6904670570955
 20
154.9119212747295
 10
93.6904670570955
 20
154.9119212747295
 10
94.81598049462158
 20
158.3616699146644
 10
94.81598049462158
 20
158.3616699146644
 10
95.7237637538445
 20
161.2605474231013
 10
96.4968436907311
 20
162.8139420021662
 10
97.15657991138076
 20
163.9844139654337
 10
97.81183750494507
 20
165.1523021053827
 10
99.1047826935081
 20
166.3084769129547
 10
100.4504378777679
 20
166.69157178364
 97
        0
 75
     2
 76
     1
 98
        0
  0
SPLINE
  5
6A6
330
6A2
100
AcDbEntity
  8
レイヤー 1
370
     0
100
AcDbSpline
210
0.0
220
0.0
230
1.0
 70
    11
 71
     3
 72
    38
 73
    34
 74
     0
 42
0.000000001
 43
0.0000000001
 40
0.0
 40
0.0
 40
0.0
 40
0.0
 40
1.0
 40
1.0
 40
1.0
 40
2.0
 40
2.0
 40
2.0
 40
3.0
 40
3.0
 40
3.0
 40
4.0
 40
4.0
 40
4.0
 40
5.0
 40
5.0
 40
5.0
 40
6.0
 40
6.0
 40
6.0
 40
7.0
 40
7.0
 40
7.0
 40
8.0
 40
8.0
 40
8.0
 40
9.0
 40
9.0
 40
9.0
 40
10.0
 40
10.0
 40
10.0
 40
11.0
 40
11.0
 40
11.0
 40
11.0
 10
126.377554584636
 20
154.8151140277308
 30
0.0
 10
126.377554584636
 20
154.8151140277308
 30
0.0
 10
128.8311532078563
 20
154.8151140277308
 30
0.0
 10
128.8311532078563
 20
154.8151140277308
 30
0.0
 10
128.8311532078563
 20
154.8151140277308
 30
0.0
 10
127.7345785914971
 20
151.3062819612468
 30
0.0
 10
127.7345785914971
 20
151.3062819612468
 30
0.0
 10
128.571392836906
 20
152.2922689395754
 30
0.0
 10
129.8860421413442
 20
153.604506675583
 30
0.0
 10
131.0163787157314
 20
154.2664822097754
 30
0.0
 10
132.7044766171327
 20
155.2500576196734
 30
0.0
 10
133.6642808525008
 20
155.3847609420097
 30
0.0
 10
134.7284715499351
 20
155.3565111403944
 30
0.0
 10
134.7284715499351
 20
155.3565111403944
 30
0.0
 10
133.6877075172549
 20
152.0345756272799
 30
0.0
 10
133.6877075172549
 20
152.0345756272799
 30
0.0
 10
133.011434827367
 20
152.3184516825359
 30
0.0
 10
130.930940291334
 20
151.7768823149844
 30
0.0
 10
129.739280976855
 20
150.9162968950455
 30
0.0
 10
128.66613302525
 20
150.1454562717016
 30
0.0
 10
127.9192358313239
 20
149.4857200510519
 30
0.0
 10
127.0393578639405
 20
147.8282835196966
 30
0.0
 10
126.164647543194
 20
146.1699857139017
 30
0.0
 10
125.4742499524985
 20
143.5262176944419
 30
0.0
 10
124.2822461282437
 20
139.6959580071401
 30
0.0
 10
124.2822461282437
 20
139.6959580071401
 30
0.0
 10
120.5753209406769
 20
127.8027915271048
 30
0.0
 10
120.5753209406769
 20
127.8027915271048
 30
0.0
 10
120.5753209406769
 20
127.8027915271048
 30
0.0
 10
118.1964809388044
 20
127.8027915271048
 30
0.0
 10
118.1964809388044
 20
127.8027915271048
 30
0.0
 10
118.1964809388044
 20
127.8027915271048
 30
0.0
 10
126.377554584636
 20
154.8151140277308
 30
0.0
 10
126.377554584636
 20
154.8151140277308
 30
0.0
  0
HATCH
  5
6A7
330
6A2
100
AcDbEntity
  8
レイヤー 1
 62
   250
420
  2234388
100
AcDbHatch
 10
0.0
 20
0.0
 30
0.0
210
0.0
220
0.0
230
1.0
  2
SOLID
 70
     1
 71
     0
 91
        1
 92
        1
 93
        1
 72
     4
 94
        3
 73
     0
 74
     1
 95
       38
 96
       34
 40
0.0
 40
0.0
 40
0.0
 40
0.0
 40
1.0
 40
1.0
 40
1.0
 40
2.0
 40
2.0
 40
2.0
 40
3.0
 40
3.0
 40
3.0
 40
4.0
 40
4.0
 40
4.0
 40
5.0
 40
5.0
 40
5.0
 40
6.0
 40
6.0
 40
6.0
 40
7.0
 40
7.0
 40
7.0
 40
8.0
 40
8.0
 40
8.0
 40
9.0
 40
9.0
 40
9.0
 40
10.0
 40
10.0
 40
10.0
 40
11.0
 40
11.0
 40
11.0
 40
11.0
 10
126.377554584636
 20
154.8151140277308
 10
126.377554584636
 20
154.8151140277308
 10
128.8311532078563
 20
154.8151140277308
 10
128.8311532078563
 20
154.8151140277308
 10
128.8311532078563
 20
154.8151140277308
 10
127.7345785914971
 20
151.3062819612468
 10
127.7345785914971
 20
151.3062819612468
 10
128.571392836906
 20
152.2922689395754
 10
129.8860421413442
 20
153.604506675583
 10
131.0163787157314
 20
154.2664822097754
 10
132.7044766171327
 20
155.2500576196734
 10
133.6642808525008
 20
155.3847609420097
 10
134.7284715499351
 20
155.3565111403944
 10
134.7284715499351
 20
155.3565111403944
 10
133.6877075172549
 20
152.0345756272799
 10
133.6877075172549
 20
152.0345756272799
 10
133.011434827367
 20
152.3184516825359
 10
130.930940291334
 20
151.7768823149844
 10
129.739280976855
 20
150.9162968950455
 10
128.66613302525
 20
150.1454562717016
 10
127.9192358313239
 20
149.4857200510519
 10
127.0393578639405
 20
147.8282835196966
 10
126.164647543194
 20
146.1699857139017
 10
125.4742499524985
 20
143.5262176944419
 10
124.2822461282437
 20
139.6959580071401
 10
124.2822461282437
 20
139.6959580071401
 10
120.5753209406769
 20
127.8027915271048
 10
120.5753209406769
 20
127.8027915271048
 10
120.5753209406769
 20
127.8027915271048
 10
118.1964809388044
 20
127.8027915271048
 10
118.1964809388044
 20
127.8027915271048
 10
118.1964809388044
 20
127.8027915271048
 10
126.377554584636
 20
154.8151140277308
 10
126.377554584636
 20
154.8151140277308
 97
        0
 75
     2
 76
     1
 98
        0
  0
SPLINE
  5
6A8
330
6A2
100
AcDbEntity
  8
レイヤー 1
370
     0
100
AcDbSpline
210
0.0
220
0.0
230
1.0
 70
    11
 71
     3
 72
   104
 73
   100
 74
     0
 42
0.000000001
 43
0.0000000001
 40
0.0
 40
0.0
 40
0.0
 40
0.0
 40
1.0
 40
1.0
 40
1.0
 40
2.0
 40
2.0
 40
2.0
 40
3.0
 40
3.0
 40
3.0
 40
4.0
 40
4.0
 40
4.0
 40
5.0
 40
5.0
 40
5.0
 40
6.0
 40
6.0
 40
6.0
 40
7.0
 40
7.0
 40
7.0
 40
8.0
 40
8.0
 40
8.0
 40
9.0
 40
9.0
 40
9.0
 40
10.0
 40
10.0
 40
10.0
 40
11.0
 40
11.0
 40
11.0
 40
12.0
 40
12.0
 40
12.0
 40
13.0
 40
13.0
 40
13.0
 40
14.0
 40
14.0
 40
14.0
 40
15.0
 40
15.0
 40
15.0
 40
16.0
 40
16.0
 40
16.0
 40
17.0
 40
17.0
 40
17.0
 40
18.0
 40
18.0
 40
18.0
 40
19.0
 40
19.0
 40
19.0
 40
20.0
 40
20.0
 40
20.0
 40
21.0
 40
21.0
 40
21.0
 40
22.0
 40
22.0
 40
22.0
 40
23.0
 40
23.0
 40
23.0
 40
24.0
 40
24.0
 40
24.0
 40
25.0
 40
25.0
 40
25.0
 40
26.0
 40
26.0
 40
26.0
 40
27.0
 40
27.0
 40
27.0
 40
28.0
 40
28.0
 40
28.0
 40
29.0
 40
29.0
 40
29.0
 40
30.0
 40
30.0
 40
30.0
 40
31.0
 40
31.0
 40
31.0
 40
32.0
 40
32.0
 40
32.0
 40
33.0
 40
33.0
 40
33.0
 40
33.0
 10
139.8926730891197
 20
154.8294111834263
 30
0.0
 10
139.8926730891197
 20
154.8294111834263
 30
0.0
 10
142.0344903652445
 20
154.8294111834263
 30
0.0
 10
142.0344903652445
 20
154.8294111834263
 30
0.0
 10
142.0344903652445
 20
154.8294111834263
 30
0.0
 10
140.9516961399171
 20
151.3157559800812
 30
0.0
 10
140.9516961399171
 20
151.3157559800812
 30
0.0
 10
141.8928968473923
 20
152.7887075264977
 30
0.0
 10
142.7341897198865
 20
153.4484437471474
 30
0.0
 10
143.8552245303272
 20
154.2926649527359
 30
0.0
 10
144.9803934580775
 20
155.1296514530327
 30
0.0
 10
146.3139908001845
 20
155.3044901642492
 30
0.0
 10
147.241066606852
 20
155.3044901642492
 30
0.0
 10
148.3855280820469
 20
155.3044901642492
 30
0.0
 10
149.4969166187653
 20
155.0752189084569
 30
0.0
 10
150.0784491203092
 20
153.8172414621372
 30
0.0
 10
150.5228667310863
 20
152.833838307127
 30
0.0
 10
150.5414702589793
 20
152.7201500811143
 30
0.0
 10
150.4140016419347
 20
150.7765981809602
 30
0.0
 10
151.5818897818837
 20
152.7699317437168
 30
0.0
 10
152.4424752018226
 20
153.6256940267945
 30
0.0
 10
153.9038856707499
 20
154.4507949398263
 30
0.0
 10
155.4455669174378
 20
155.3044901642492
 30
0.0
 10
156.339225275853
 20
155.3659851592288
 30
0.0
 10
157.3748216618963
 20
155.2147453676543
 30
0.0
 10
158.911679771723
 20
154.9877134254046
 30
0.0
 10
159.8859534176746
 20
154.4390816074493
 30
0.0
 10
160.3965169054045
 20
152.7816450760939
 30
0.0
 10
160.9070803931344
 20
151.1219692311958
 30
0.0
 10
160.6328506116007
 20
150.2303779314354
 30
0.0
 10
159.9992971339115
 20
147.597634224801
 30
0.0
 10
159.7105979417943
 20
146.4014962832367
 30
0.0
 10
159.2947746424084
 20
144.9400858143094
 30
0.0
 10
158.7463150793409
 20
143.2092687007094
 30
0.0
 10
158.7463150793409
 20
143.2092687007094
 30
0.0
 10
153.9038856707499
 20
127.8027915271048
 30
0.0
 10
153.9038856707499
 20
127.8027915271048
 30
0.0
 10
153.9038856707499
 20
127.8027915271048
 30
0.0
 10
151.3882752878863
 20
127.8027915271048
 30
0.0
 10
151.3882752878863
 20
127.8027915271048
 30
0.0
 10
151.3882752878863
 20
127.8027915271048
 30
0.0
 10
155.6250565106276
 20
141.2751908193897
 30
0.0
 10
155.6250565106276
 20
141.2751908193897
 30
0.0
 10
156.5094131050963
 20
144.0936252951782
 30
0.0
 10
157.109893644309
 20
146.1506931664571
 30
0.0
 10
157.4220195011804
 20
147.4415712963654
 30
0.0
 10
157.8095929989511
 20
149.0530157726519
 30
0.0
 10
157.9656559273867
 20
149.5826995529385
 30
0.0
 10
157.7816877071116
 20
150.7529992613181
 30
0.0
 10
157.6111553680925
 20
151.8430281919372
 30
0.0
 10
157.0582171779396
 20
152.5547853887321
 30
0.0
 10
156.1170164704645
 20
152.5547853887321
 30
0.0
 10
155.1096698860365
 20
152.5547853887321
 30
0.0
 10
154.2962823053817
 20
152.4412694176073
 30
0.0
 10
153.156643967048
 20
151.2945686288697
 30
0.0
 10
152.0170056287143
 20
150.1476955852443
 30
0.0
 10
151.076149431015
 20
148.7930831468137
 30
0.0
 10
150.3337308641742
 20
147.2290087646991
 30
0.0
 10
149.5957909244188
 20
145.6683794803425
 30
0.0
 10
148.8530278478023
 20
143.6822806228776
 30
0.0
 10
148.0964843801539
 20
141.2751908193897
 30
0.0
 10
148.0964843801539
 20
141.2751908193897
 30
0.0
 10
143.8552245303272
 20
127.8027915271048
 30
0.0
 10
143.8552245303272
 20
127.8027915271048
 30
0.0
 10
143.8552245303272
 20
127.8027915271048
 30
0.0
 10
141.486030802177
 20
127.8027915271048
 30
0.0
 10
141.486030802177
 20
127.8027915271048
 30
0.0
 10
141.486030802177
 20
127.8027915271048
 30
0.0
 10
146.3329388378533
 20
143.2092687007094
 30
0.0
 10
146.3329388378533
 20
143.2092687007094
 30
0.0
 10
146.8483254624444
 20
144.8408669988801
 30
0.0
 10
147.2314203331297
 20
146.1837661049335
 30
0.0
 10
147.4867020769946
 20
147.224185627838
 30
0.0
 10
147.9169947869641
 20
149.0197705792876
 30
0.0
 10
148.0306830129768
 20
150.2400242051577
 30
0.0
 10
147.709255392159
 20
151.3157559800812
 30
0.0
 10
147.3874832615654
 20
152.3916600098926
 30
0.0
 10
146.8245542879144
 20
152.6683013598569
 30
0.0
 10
145.8840425999909
 20
152.6683013598569
 30
0.0
 10
145.0989048209514
 20
152.6683013598569
 30
0.0
 10
144.3282364524954
 20
152.3275811915945
 30
0.0
 10
143.4531816219731
 20
151.6538923250251
 30
0.0
 10
142.34627171234
 20
150.8074318058939
 30
0.0
 10
141.901854101563
 20
150.1097995099067
 30
0.0
 10
141.3578731655808
 20
149.289521733736
 30
0.0
 10
140.6299240093235
 20
148.192602607601
 30
0.0
 10
140.2850697237515
 20
147.455696197173
 30
0.0
 10
139.6652966370942
 20
145.8385673095858
 30
0.0
 10
139.0506911970739
 20
144.2214384219986
 30
0.0
 10
138.463991048893
 20
142.3252566160164
 30
0.0
 10
138.0571250036777
 20
141.0154304484394
 30
0.0
 10
138.0571250036777
 20
141.0154304484394
 30
0.0
 10
133.9009590684727
 20
127.8027915271048
 30
0.0
 10
133.9009590684727
 20
127.8027915271048
 30
0.0
 10
133.9009590684727
 20
127.8027915271048
 30
0.0
 10
131.4180771143097
 20
127.8027915271048
 30
0.0
 10
131.4180771143097
 20
127.8027915271048
 30
0.0
 10
131.4180771143097
 20
127.8027915271048
 30
0.0
 10
139.8926730891197
 20
154.8294111834263
 30
0.0
 10
139.8926730891197
 20
154.8294111834263
 30
0.0
  0
HATCH
  5
6A9
330
6A2
100
AcDbEntity
  8
レイヤー 1
 62
   250
420
  2234388
100
AcDbHatch
 10
0.0
 20
0.0
 30
0.0
210
0.0
220
0.0
230
1.0
  2
SOLID
 70
     1
 71
     0
 91
        1
 92
        1
 93
        1
 72
     4
 94
        3
 73
     0
 74
     1
 95
      104
 96
      100
 40
0.0
 40
0.0
 40
0.0
 40
0.0
 40
1.0
 40
1.0
 40
1.0
 40
2.0
 40
2.0
 40
2.0
 40
3.0
 40
3.0
 40
3.0
 40
4.0
 40
4.0
 40
4.0
 40
5.0
 40
5.0
 40
5.0
 40
6.0
 40
6.0
 40
6.0
 40
7.0
 40
7.0
 40
7.0
 40
8.0
 40
8.0
 40
8.0
 40
9.0
 40
9.0
 40
9.0
 40
10.0
 40
10.0
 40
10.0
 40
11.0
 40
11.0
 40
11.0
 40
12.0
 40
12.0
 40
12.0
 40
13.0
 40
13.0
 40
13.0
 40
14.0
 40
14.0
 40
14.0
 40
15.0
 40
15.0
 40
15.0
 40
16.0
 40
16.0
 40
16.0
 40
17.0
 40
17.0
 40
17.0
 40
18.0
 40
18.0
 40
18.0
 40
19.0
 40
19.0
 40
19.0
 40
20.0
 40
20.0
 40
20.0
 40
21.0
 40
21.0
 40
21.0
 40
22.0
 40
22.0
 40
22.0
 40
23.0
 40
23.0
 40
23.0
 40
24.0
 40
24.0
 40
24.0
 40
25.0
 40
25.0
 40
25.0
 40
26.0
 40
26.0
 40
26.0
 40
27.0
 40
27.0
 40
27.0
 40
28.0
 40
28.0
 40
28.0
 40
29.0
 40
29.0
 40
29.0
 40
30.0
 40
30.0
 40
30.0
 40
31.0
 40
31.0
 40
31.0
 40
32.0
 40
32.0
 40
32.0
 40
33.0
 40
33.0
 40
33.0
 40
33.0
 10
139.8926730891197
 20
154.8294111834263
 10
139.8926730891197
 20
154.8294111834263
 10
142.0344903652445
 20
154.8294111834263
 10
142.0344903652445
 20
154.8294111834263
 10
142.0344903652445
 20
154.8294111834263
 10
140.9516961399171
 20
151.3157559800812
 10
140.9516961399171
 20
151.3157559800812
 10
141.8928968473923
 20
152.7887075264977
 10
142.7341897198865
 20
153.4484437471474
 10
143.8552245303272
 20
154.2926649527359
 10
144.9803934580775
 20
155.1296514530327
 10
146.3139908001845
 20
155.3044901642492
 10
147.241066606852
 20
155.3044901642492
 10
148.3855280820469
 20
155.3044901642492
 10
149.4969166187653
 20
155.0752189084569
 10
150.0784491203092
 20
153.8172414621372
 10
150.5228667310863
 20
152.833838307127
 10
150.5414702589793
 20
152.7201500811143
 10
150.4140016419347
 20
150.7765981809602
 10
151.5818897818837
 20
152.7699317437168
 10
152.4424752018226
 20
153.6256940267945
 10
153.9038856707499
 20
154.4507949398263
 10
155.4455669174378
 20
155.3044901642492
 10
156.339225275853
 20
155.3659851592288
 10
157.3748216618963
 20
155.2147453676543
 10
158.911679771723
 20
154.9877134254046
 10
159.8859534176746
 20
154.4390816074493
 10
160.3965169054045
 20
152.7816450760939
 10
160.9070803931344
 20
151.1219692311958
 10
160.6328506116007
 20
150.2303779314354
 10
159.9992971339115
 20
147.597634224801
 10
159.7105979417943
 20
146.4014962832367
 10
159.2947746424084
 20
144.9400858143094
 10
158.7463150793409
 20
143.2092687007094
 10
158.7463150793409
 20
143.2092687007094
 10
153.9038856707499
 20
127.8027915271048
 10
153.9038856707499
 20
127.8027915271048
 10
153.9038856707499
 20
127.8027915271048
 10
151.3882752878863
 20
127.8027915271048
 10
151.3882752878863
 20
127.8027915271048
 10
151.3882752878863
 20
127.8027915271048
 10
155.6250565106276
 20
141.2751908193897
 10
155.6250565106276
 20
141.2751908193897
 10
156.5094131050963
 20
144.0936252951782
 10
157.109893644309
 20
146.1506931664571
 10
157.4220195011804
 20
147.4415712963654
 10
157.8095929989511
 20
149.0530157726519
 10
157.9656559273867
 20
149.5826995529385
 10
157.7816877071116
 20
150.7529992613181
 10
157.6111553680925
 20
151.8430281919372
 10
157.0582171779396
 20
152.5547853887321
 10
156.1170164704645
 20
152.5547853887321
 10
155.1096698860365
 20
152.5547853887321
 10
154.2962823053817
 20
152.4412694176073
 10
153.156643967048
 20
151.2945686288697
 10
152.0170056287143
 20
150.1476955852443
 10
151.076149431015
 20
148.7930831468137
 10
150.3337308641742
 20
147.2290087646991
 10
149.5957909244188
 20
145.6683794803425
 10
148.8530278478023
 20
143.6822806228776
 10
148.0964843801539
 20
141.2751908193897
 10
148.0964843801539
 20
141.2751908193897
 10
143.8552245303272
 20
127.8027915271048
 10
143.8552245303272
 20
127.8027915271048
 10
143.8552245303272
 20
127.8027915271048
 10
141.486030802177
 20
127.8027915271048
 10
141.486030802177
 20
127.8027915271048
 10
141.486030802177
 20
127.8027915271048
 10
146.3329388378533
 20
143.2092687007094
 10
146.3329388378533
 20
143.2092687007094
 10
146.8483254624444
 20
144.8408669988801
 10
147.2314203331297
 20
146.1837661049335
 10
147.4867020769946
 20
147.224185627838
 10
147.9169947869641
 20
149.0197705792876
 10
148.0306830129768
 20
150.2400242051577
 10
147.709255392159
 20
151.3157559800812
 10
147.3874832615654
 20
152.3916600098926
 10
146.8245542879144
 20
152.6683013598569
 10
145.8840425999909
 20
152.6683013598569
 10
145.0989048209514
 20
152.6683013598569
 10
144.3282364524954
 20
152.3275811915945
 10
143.4531816219731
 20
151.6538923250251
 10
142.34627171234
 20
150.8074318058939
 10
141.901854101563
 20
150.1097995099067
 10
141.3578731655808
 20
149.289521733736
 10
140.6299240093235
 20
148.192602607601
 10
140.2850697237515
 20
147.455696197173
 10
139.6652966370942
 20
145.8385673095858
 10
139.0506911970739
 20
144.2214384219986
 10
138.463991048893
 20
142.3252566160164
 10
138.0571250036777
 20
141.0154304484394
 10
138.0571250036777
 20
141.0154304484394
 10
133.9009590684727
 20
127.8027915271048
 10
133.9009590684727
 20
127.8027915271048
 10
133.9009590684727
 20
127.8027915271048
 10
131.4180771143097
 20
127.8027915271048
 10
131.4180771143097
 20
127.8027915271048
 10
131.4180771143097
 20
127.8027915271048
 10
139.8926730891197
 20
154.8294111834263
 10
139.8926730891197
 20
154.8294111834263
 97
        0
 75
     2
 76
     1
 98
        0
  0
SPLINE
  5
6AA
330
6A2
100
AcDbEntity
  8
レイヤー 1
370
     0
100
AcDbSpline
210
0.0
220
0.0
230
1.0
 70
    11
 71
     3
 72
    29
 73
    25
 74
     0
 42
0.000000001
 43
0.0000000001
 40
0.0
 40
0.0
 40
0.0
 40
0.0
 40
1.0
 40
1.0
 40
1.0
 40
2.0
 40
2.0
 40
2.0
 40
3.0
 40
3.0
 40
3.0
 40
4.0
 40
4.0
 40
4.0
 40
5.0
 40
5.0
 40
5.0
 40
6.0
 40
6.0
 40
6.0
 40
7.0
 40
7.0
 40
7.0
 40
8.0
 40
8.0
 40
8.0
 40
8.0
 10
101.6420971922469
 20
132.8388354296931
 30
0.0
 10
101.630039350094
 20
134.7164137077823
 30
0.0
 10
102.2236296937908
 20
138.0598810818841
 30
0.0
 10
103.7487744712405
 20
142.5378191476827
 30
0.0
 10
105.819967243327
 20
148.5896501242061
 30
0.0
 10
107.0602024361932
 20
150.8074318058939
 30
0.0
 10
108.1522984254671
 20
151.8833358357054
 30
0.0
 10
109.741177511439
 20
153.4532668840085
 30
0.0
 10
111.8740375333931
 20
153.5290590346837
 30
0.0
 10
112.5075910110823
 20
153.4532668840085
 30
0.0
 10
113.4012493694975
 20
153.3490526768302
 30
0.0
 10
114.6683563248758
 20
152.7580461564518
 30
0.0
 10
114.7493161221879
 20
150.7838328862519
 30
0.0
 10
114.8106388622796
 20
149.0909118479895
 30
0.0
 10
114.3186789024427
 20
145.9191825971221
 30
0.0
 10
112.6164561002338
 20
140.9489400617108
 30
0.0
 10
110.6444821435766
 20
135.1746117095912
 30
0.0
 10
109.4669477299053
 20
132.8960240524753
 30
0.0
 10
108.5212683953448
 20
131.9072809959403
 30
0.0
 10
106.7346406980658
 20
130.0538184021569
 30
0.0
 10
104.8222669326213
 20
130.2336525051225
 30
0.0
 10
104.5408024457958
 20
130.2336525051225
 30
0.0
 10
104.1721769856939
 20
130.2336525051225
 30
0.0
 10
101.6465758193322
 20
130.6305277668397
 30
0.0
 10
101.6420971922469
 20
132.8388354296931
 30
0.0
  0
SPLINE
  5
6AB
330
6A2
100
AcDbEntity
  8
レイヤー 1
370
     0
100
AcDbSpline
210
0.0
220
0.0
230
1.0
 70
    11
 71
     3
 72
    32
 73
    28
 74
     0
 42
0.000000001
 43
0.0000000001
 40
0.0
 40
0.0
 40
0.0
 40
0.0
 40
1.0
 40
1.0
 40
1.0
 40
2.0
 40
2.0
 40
2.0
 40
3.0
 40
3.0
 40
3.0
 40
4.0
 40
4.0
 40
4.0
 40
5.0
 40
5.0
 40
5.0
 40
6.0
 40
6.0
 40
6.0
 40
7.0
 40
7.0
 40
7.0
 40
8.0
 40
8.0
 40
8.0
 40
9.0
 40
9.0
 40
9.0
 40
9.0
 10
106.2595617172429
 20
153.4105476718098
 30
0.0
 10
104.8222669326213
 20
151.5474388043041
 30
0.0
 10
103.7177685914188
 20
149.8758773721411
 30
0.0
 10
101.9232171692965
 20
144.6141795664062
 30
0.0
 10
100.2754269116635
 20
139.7999999594306
 30
0.0
 10
99.22777268346732
 20
136.3052927937542
 30
0.0
 10
99.06964269637689
 20
132.039572749846
 30
0.0
 10
98.94665270641765
 20
128.8673267343149
 30
0.0
 10
100.8807305877373
 20
127.8027915271048
 30
0.0
 10
103.7129454545577
 20
127.8027915271048
 30
0.0
 10
104.9352661390825
 20
127.8027915271048
 30
0.0
 10
108.0151835347002
 20
127.8827177950895
 30
0.0
 10
110.2045431598849
 20
130.5926316915021
 30
0.0
 10
111.7417457794874
 20
132.4984597712065
 30
0.0
 10
113.155269389579
 20
134.475256864725
 30
0.0
 10
115.0562743324223
 20
140.9489400617108
 30
0.0
 10
116.6361961642235
 20
146.3680788349845
 30
0.0
 10
117.7282921534974
 20
149.8639917848761
 30
0.0
 10
117.6480213757369
 20
151.8595646611754
 30
0.0
 10
117.6480213757369
 20
151.8595646611754
 30
0.0
 10
117.6480213757369
 20
151.8595646611754
 30
0.0
 10
117.6480213757369
 20
151.8595646611754
 30
0.0
 10
117.13229024137
 20
155.18150017429
 30
0.0
 10
114.7162431837115
 20
155.886194920681
 30
0.0
 10
113.3351034925446
 20
155.886194920681
 30
0.0
 10
111.9829026225447
 20
155.886194920681
 30
0.0
 10
108.3414342923792
 20
156.1251124501957
 30
0.0
 10
106.2595617172429
 20
153.4105476718098
 30
0.0
  0
HATCH
  5
6AC
330
6A2
100
AcDbEntity
  8
レイヤー 1
 62
   250
420
  2234388
100
AcDbHatch
 10
0.0
 20
0.0
 30
0.0
210
0.0
220
0.0
230
1.0
  2
SOLID
 70
     1
 71
     0
 91
        2
 92
        1
 93
        1
 72
     4
 94
        3
 73
     0
 74
     1
 95
       29
 96
       25
 40
0.0
 40
0.0
 40
0.0
 40
0.0
 40
1.0
 40
1.0
 40
1.0
 40
2.0
 40
2.0
 40
2.0
 40
3.0
 40
3.0
 40
3.0
 40
4.0
 40
4.0
 40
4.0
 40
5.0
 40
5.0
 40
5.0
 40
6.0
 40
6.0
 40
6.0
 40
7.0
 40
7.0
 40
7.0
 40
8.0
 40
8.0
 40
8.0
 40
8.0
 10
101.6420971922469
 20
132.8388354296931
 10
101.630039350094
 20
134.7164137077823
 10
102.2236296937908
 20
138.0598810818841
 10
103.7487744712405
 20
142.5378191476827
 10
105.819967243327
 20
148.5896501242061
 10
107.0602024361932
 20
150.8074318058939
 10
108.1522984254671
 20
151.8833358357054
 10
109.741177511439
 20
153.4532668840085
 10
111.8740375333931
 20
153.5290590346837
 10
112.5075910110823
 20
153.4532668840085
 10
113.4012493694975
 20
153.3490526768302
 10
114.6683563248758
 20
152.7580461564518
 10
114.7493161221879
 20
150.7838328862519
 10
114.8106388622796
 20
149.0909118479895
 10
114.3186789024427
 20
145.9191825971221
 10
112.6164561002338
 20
140.9489400617108
 10
110.6444821435766
 20
135.1746117095912
 10
109.4669477299053
 20
132.8960240524753
 10
108.5212683953448
 20
131.9072809959403
 10
106.7346406980658
 20
130.0538184021569
 10
104.8222669326213
 20
130.2336525051225
 10
104.5408024457958
 20
130.2336525051225
 10
104.1721769856939
 20
130.2336525051225
 10
101.6465758193322
 20
130.6305277668397
 10
101.6420971922469
 20
132.8388354296931
 97
        0
 92
        1
 93
        1
 72
     4
 94
        3
 73
     0
 74
     1
 95
       32
 96
       28
 40
0.0
 40
0.0
 40
0.0
 40
0.0
 40
1.0
 40
1.0
 40
1.0
 40
2.0
 40
2.0
 40
2.0
 40
3.0
 40
3.0
 40
3.0
 40
4.0
 40
4.0
 40
4.0
 40
5.0
 40
5.0
 40
5.0
 40
6.0
 40
6.0
 40
6.0
 40
7.0
 40
7.0
 40
7.0
 40
8.0
 40
8.0
 40
8.0
 40
9.0
 40
9.0
 40
9.0
 40
9.0
 10
106.2595617172429
 20
153.4105476718098
 10
104.8222669326213
 20
151.5474388043041
 10
103.7177685914188
 20
149.8758773721411
 10
101.9232171692965
 20
144.6141795664062
 10
100.2754269116635
 20
139.7999999594306
 10
99.22777268346732
 20
136.3052927937542
 10
99.06964269637689
 20
132.039572749846
 10
98.94665270641765
 20
128.8673267343149
 10
100.8807305877373
 20
127.8027915271048
 10
103.7129454545577
 20
127.8027915271048
 10
104.9352661390825
 20
127.8027915271048
 10
108.0151835347002
 20
127.8827177950895
 10
110.2045431598849
 20
130.5926316915021
 10
111.7417457794874
 20
132.4984597712065
 10
113.155269389579
 20
134.475256864725
 10
115.0562743324223
 20
140.9489400617108
 10
116.6361961642235
 20
146.3680788349845
 10
117.7282921534974
 20
149.8639917848761
 10
117.6480213757369
 20
151.8595646611754
 10
117.6480213757369
 20
151.8595646611754
 10
117.6480213757369
 20
151.8595646611754
 10
117.6480213757369
 20
151.8595646611754
 10
117.13229024137
 20
155.18150017429
 10
114.7162431837115
 20
155.886194920681
 10
113.3351034925446
 20
155.886194920681
 10
111.9829026225447
 20
155.886194920681
 10
108.3414342923792
 20
156.1251124501957
 10
106.2595617172429
 20
153.4105476718098
 97
        0
 75
     2
 76
     1
 98
        0
  0
ENDBLK
  5
6AD
330
6A2
100
AcDbEntity
  8
0
100
AcDbBlockEnd
  0
BLOCK
  5
4EAC
330
4EAB
100
AcDbEntity
  8
0
100
AcDbBlockBegin
  2
名称未設定-1
 70
     0
 10
0.0
 20
0.0
 30
0.0
  3
名称未設定-1
  1
名称未設定-1
  0
INSERT
  5
4EAD
330
4EAB
100
AcDbEntity
  8
TFORMLOGO
100
AcDbBlockReference
  2
block 2
 10
0.0
 20
0.0
 30
0.0
  0
ENDBLK
  5
4ED2
330
4EAB
100
AcDbEntity
  8
0
100
AcDbBlockEnd
  0
BLOCK
  5
4EAF
330
4EAE
100
AcDbEntity
  8
0
100
AcDbBlockBegin
  2
block 2
 70
     0
 10
0.0
 20
0.0
 30
0.0
  3
block 2
  1
block 2
  0
INSERT
  5
4EB0
330
4EAE
100
AcDbEntity
  8
TFORMLOGO
100
AcDbBlockReference
  2
block 3
 10
0.0
 20
0.0
 30
0.0
  0
ENDBLK
  5
4ED1
330
4EAE
100
AcDbEntity
  8
0
100
AcDbBlockEnd
  0
BLOCK
  5
5DF6
330
5DF5
100
AcDbEntity
  8
0
100
AcDbBlockBegin
  2
*D6
 70
     1
 10
0.0
 20
0.0
 30
0.0
  3
*D6
  1

  0
LINE
  5
5DF8
330
5DF5
100
AcDbEntity
  8
寸法
  6
Continuous
 62
     0
370
    -2
100
AcDbLine
 10
94.7825120145531
 20
348.7335990428102
 30
0.0
 11
83.2938107744647
 21
348.7335990428102
 31
0.0
  0
LINE
  5
5DF9
330
5DF5
100
AcDbEntity
  8
寸法
  6
Continuous
 62
     0
370
    -2
100
AcDbLine
 10
110.1991885646423
 20
341.034177143836
 30
0.0
 11
83.2938107744647
 21
341.034177143836
 31
0.0
  0
LINE
  5
5DFA
330
5DF5
100
AcDbEntity
  8
寸法
  6
Continuous
 62
     0
370
    -2
100
AcDbLine
 10
83.2938107744647
 20
347.2335990428102
 30
0.0
 11
83.2938107744647
 21
342.534177143836
 31
0.0
  0
INSERT
  5
5DFB
330
5DF5
100
AcDbEntity
  8
寸法
 62
     0
370
    -2
100
AcDbBlockReference
  2
_DOT
 10
83.2938107744647
 20
348.7335990428102
 30
0.0
 41
1.5
 42
1.5
 43
1.5
 50
90.0
  0
INSERT
  5
5DFC
330
5DF5
100
AcDbEntity
  8
寸法
 62
     0
370
    -2
100
AcDbBlockReference
  2
_DOT
 10
83.2938107744647
 20
341.034177143836
 30
0.0
 41
1.5
 42
1.5
 43
1.5
 50
270.0
  0
MTEXT
  5
5DFD
330
5DF5
100
AcDbEntity
  8
寸法
 62
     0
100
AcDbMText
 10
78.7938107744647
 20
344.8838880933231
 30
0.0
 40
5.0
 41
0.0
 46
0.0
 71
     5
 72
     1
  1
\A1;8
  7
ＭＳ ゴシック
 11
0.0
 21
1.0
 31
0.0
 73
     1
 44
1.0
  0
POINT
  5
5DFE
330
5DF5
100
AcDbEntity
  8
Defpoints
 62
     0
100
AcDbPoint
 10
99.7825120145531
 20
348.7335990428102
 30
0.0
  0
POINT
  5
5DFF
330
5DF5
100
AcDbEntity
  8
Defpoints
 62
     0
100
AcDbPoint
 10
115.1991885646423
 20
341.034177143836
 30
0.0
  0
POINT
  5
5E00
330
5DF5
100
AcDbEntity
  8
Defpoints
 62
     0
100
AcDbPoint
 10
83.2938107744647
 20
341.034177143836
 30
0.0
  0
ENDBLK
  5
5DF7
330
5DF5
100
AcDbEntity
  8
0
100
AcDbBlockEnd
  0
BLOCK
  5
5E02
330
5E01
100
AcDbEntity
  8
0
100
AcDbBlockBegin
  2
*D7
 70
     1
 10
0.0
 20
0.0
 30
0.0
  3
*D7
  1

  0
LINE
  5
5E04
330
5E01
100
AcDbEntity
  8
寸法
  6
Continuous
 62
     0
370
    -2
100
AcDbLine
 10
388.1226369876691
 20
348.875005369178
 30
0.0
 11
359.7723564319887
 21
348.875005369178
 31
0.0
  0
LINE
  5
5E05
330
5E01
100
AcDbEntity
  8
寸法
  6
Continuous
 62
     0
370
    -2
100
AcDbLine
 10
388.1226369876691
 20
293.875005369178
 30
0.0
 11
359.7723564319887
 21
293.875005369178
 31
0.0
  0
LINE
  5
5E06
330
5E01
100
AcDbEntity
  8
寸法
  6
Continuous
 62
     0
370
    -2
100
AcDbLine
 10
359.7723564319887
 20
347.375005369178
 30
0.0
 11
359.7723564319887
 21
295.375005369178
 31
0.0
  0
INSERT
  5
5E07
330
5E01
100
AcDbEntity
  8
寸法
 62
     0
370
    -2
100
AcDbBlockReference
  2
_DOT
 10
359.7723564319887
 20
348.875005369178
 30
0.0
 41
1.5
 42
1.5
 43
1.5
 50
90.0
  0
INSERT
  5
5E08
330
5E01
100
AcDbEntity
  8
寸法
 62
     0
370
    -2
100
AcDbBlockReference
  2
_DOT
 10
359.7723564319887
 20
293.875005369178
 30
0.0
 41
1.5
 42
1.5
 43
1.5
 50
270.0
  0
MTEXT
  5
5E09
330
5E01
100
AcDbEntity
  8
寸法
 62
     0
100
AcDbMText
 10
354.8673564319888
 20
321.375005369178
 30
0.0
 40
5.0
 41
0.0
 46
0.0
 71
     5
 72
     1
  1
\A1;φ55
  7
ＭＳ ゴシック
 11
0.0
 21
1.0
 31
0.0
 73
     1
 44
1.0
  0
POINT
  5
5E0A
330
5E01
100
AcDbEntity
  8
Defpoints
 62
     0
100
AcDbPoint
 10
393.1226369876691
 20
348.875005369178
 30
0.0
  0
POINT
  5
5E0B
330
5E01
100
AcDbEntity
  8
Defpoints
 62
     0
100
AcDbPoint
 10
393.1226369876691
 20
293.875005369178
 30
0.0
  0
POINT
  5
5E0C
330
5E01
100
AcDbEntity
  8
Defpoints
 62
     0
100
AcDbPoint
 10
359.7723564319887
 20
293.875005369178
 30
0.0
  0
ENDBLK
  5
5E03
330
5E01
100
AcDbEntity
  8
0
100
AcDbBlockEnd
  0
BLOCK
  5
5E0E
330
5E0D
100
AcDbEntity
  8
0
100
AcDbBlockBegin
  2
*D8
 70
     1
 10
0.0
 20
0.0
 30
0.0
  3
*D8
  1

  0
LINE
  5
5E10
330
5E0D
100
AcDbEntity
  8
寸法
 62
     0
370
    -2
100
AcDbLine
 10
427.8721245115549
 20
172.3452081951892
 30
0.0
 11
427.8721245115549
 21
144.5573006134969
 31
0.0
  0
LINE
  5
5E11
330
5E0D
100
AcDbEntity
  8
寸法
 62
     0
370
    -2
100
AcDbLine
 10
389.8721245115548
 20
172.3452081951892
 30
0.0
 11
389.8721245115548
 21
144.5573006134969
 31
0.0
  0
LINE
  5
5E12
330
5E0D
100
AcDbEntity
  8
寸法
 62
     0
370
    -2
100
AcDbLine
 10
389.8721245115548
 20
144.5573006134969
 30
0.0
 11
372.5896245115548
 21
144.5573006134969
 31
0.0
  0
LINE
  5
5E13
330
5E0D
100
AcDbEntity
  8
寸法
 62
     0
370
    -2
100
AcDbLine
 10
426.3721245115549
 20
144.5573006134969
 30
0.0
 11
391.3721245115548
 21
144.5573006134969
 31
0.0
  0
LINE
  5
5E14
330
5E0D
100
AcDbEntity
  8
寸法
 62
     0
370
    -2
100
AcDbLine
 10
391.3721245115548
 20
144.5573006134969
 30
0.0
 11
392.8721245115548
 21
144.5573006134969
 31
0.0
  0
INSERT
  5
5E15
330
5E0D
100
AcDbEntity
  8
寸法
 62
     0
370
    -2
100
AcDbBlockReference
  2
_DOT
 10
427.8721245115549
 20
144.5573006134969
 30
0.0
 41
1.5
 42
1.5
 43
1.5
  0
INSERT
  5
5E16
330
5E0D
100
AcDbEntity
  8
寸法
 62
     0
370
    -2
100
AcDbBlockReference
  2
_DOT
 10
389.8721245115548
 20
144.5573006134969
 30
0.0
 41
1.5
 42
1.5
 43
1.5
 50
180.0
  0
MTEXT
  5
5E17
330
5E0D
100
AcDbEntity
  8
寸法
  6
Continuous
 62
     0
100
AcDbMText
 10
376.2146245115548
 20
149.0573006134969
 30
0.0
 40
5.0
 41
0.0
 46
0.0
 71
     5
 72
     1
  1
\A1; 
  7
ＭＳ ゴシック
 73
     1
 44
1.0
  0
POINT
  5
5E18
330
5E0D
100
AcDbEntity
  8
Defpoints
 62
     0
100
AcDbPoint
 10
427.8721245115549
 20
177.3452081951892
 30
0.0
  0
POINT
  5
5E19
330
5E0D
100
AcDbEntity
  8
Defpoints
 62
     0
100
AcDbPoint
 10
389.8721245115548
 20
177.3452081951892
 30
0.0
  0
POINT
  5
5E1A
330
5E0D
100
AcDbEntity
  8
Defpoints
 62
     0
100
AcDbPoint
 10
389.8721245115548
 20
144.5573006134969
 30
0.0
  0
ENDBLK
  5
5E0F
330
5E0D
100
AcDbEntity
  8
0
100
AcDbBlockEnd
  0
BLOCK
  5
5E1C
330
5E1B
100
AcDbEntity
  8
0
100
AcDbBlockBegin
  2
*D9
 70
     1
 10
0.0
 20
0.0
 30
0.0
  3
*D9
  1

  0
LINE
  5
5E1E
330
5E1B
100
AcDbEntity
  8
寸法
 62
     0
370
    -2
100
AcDbLine
 10
389.8721245115548
 20
191.0157099566222
 30
0.0
 11
389.8721245115548
 21
213.8023335341042
 31
0.0
  0
LINE
  5
5E1F
330
5E1B
100
AcDbEntity
  8
寸法
 62
     0
370
    -2
100
AcDbLine
 10
408.8721245115548
 20
205.1912224768317
 30
0.0
 11
408.8721245115548
 21
213.8023335341042
 31
0.0
  0
LINE
  5
5E20
330
5E1B
100
AcDbEntity
  8
寸法
 62
     0
370
    -2
100
AcDbLine
 10
391.3721245115548
 20
213.8023335341042
 30
0.0
 11
407.3721245115548
 21
213.8023335341042
 31
0.0
  0
INSERT
  5
5E21
330
5E1B
100
AcDbEntity
  8
寸法
 62
     0
370
    -2
100
AcDbBlockReference
  2
_DOT
 10
389.8721245115548
 20
213.8023335341042
 30
0.0
 41
1.5
 42
1.5
 43
1.5
 50
180.0
  0
INSERT
  5
5E22
330
5E1B
100
AcDbEntity
  8
寸法
 62
     0
370
    -2
100
AcDbBlockReference
  2
_DOT
 10
408.8721245115548
 20
213.8023335341042
 30
0.0
 41
1.5
 42
1.5
 43
1.5
  0
MTEXT
  5
5E23
330
5E1B
100
AcDbEntity
  8
寸法
  6
Continuous
 62
     0
100
AcDbMText
 10
399.3721245115548
 20
218.3023335341042
 30
0.0
 40
5.0
 41
0.0
 46
0.0
 71
     5
 72
     1
  1
\A1;19
  7
ＭＳ ゴシック
 73
     1
 44
1.0
  0
POINT
  5
5E24
330
5E1B
100
AcDbEntity
  8
Defpoints
 62
     0
100
AcDbPoint
 10
389.8721245115548
 20
186.0157099566222
 30
0.0
  0
POINT
  5
5E25
330
5E1B
100
AcDbEntity
  8
Defpoints
 62
     0
100
AcDbPoint
 10
408.8721245115548
 20
200.1912224768317
 30
0.0
  0
POINT
  5
5E26
330
5E1B
100
AcDbEntity
  8
Defpoints
 62
     0
100
AcDbPoint
 10
408.8721245115548
 20
213.8023335341042
 30
0.0
  0
ENDBLK
  5
5E1D
330
5E1B
100
AcDbEntity
  8
0
100
AcDbBlockEnd
  0
BLOCK
  5
5E28
330
5E27
100
AcDbEntity
  8
0
100
AcDbBlockBegin
  2
*D10
 70
     1
 10
0.0
 20
0.0
 30
0.0
  3
*D10
  1

  0
LINE
  5
5E2A
330
5E27
100
AcDbEntity
  8
寸法
 62
     0
370
    -2
100
AcDbLine
 10
408.8721245115548
 20
205.1912224768317
 30
0.0
 11
408.8721245115548
 21
213.8023335341042
 31
0.0
  0
LINE
  5
5E2B
330
5E27
100
AcDbEntity
  8
寸法
 62
     0
370
    -2
100
AcDbLine
 10
427.8721245115549
 20
191.0157099566222
 30
0.0
 11
427.8721245115549
 21
213.8023335341042
 31
0.0
  0
LINE
  5
5E2C
330
5E27
100
AcDbEntity
  8
寸法
 62
     0
370
    -2
100
AcDbLine
 10
410.3721245115548
 20
213.8023335341042
 30
0.0
 11
426.3721245115549
 21
213.8023335341042
 31
0.0
  0
INSERT
  5
5E2D
330
5E27
100
AcDbEntity
  8
寸法
 62
     0
370
    -2
100
AcDbBlockReference
  2
_DOT
 10
408.8721245115548
 20
213.8023335341042
 30
0.0
 41
1.5
 42
1.5
 43
1.5
 50
180.0
  0
INSERT
  5
5E2E
330
5E27
100
AcDbEntity
  8
寸法
 62
     0
370
    -2
100
AcDbBlockReference
  2
_DOT
 10
427.8721245115549
 20
213.8023335341042
 30
0.0
 41
1.5
 42
1.5
 43
1.5
  0
MTEXT
  5
5E2F
330
5E27
100
AcDbEntity
  8
寸法
  6
Continuous
 62
     0
100
AcDbMText
 10
418.3721245115548
 20
218.3023335341042
 30
0.0
 40
5.0
 41
0.0
 46
0.0
 71
     5
 72
     1
  1
\A1;19
  7
ＭＳ ゴシック
 73
     1
 44
1.0
  0
POINT
  5
5E30
330
5E27
100
AcDbEntity
  8
Defpoints
 62
     0
100
AcDbPoint
 10
408.8721245115548
 20
200.1912224768317
 30
0.0
  0
POINT
  5
5E31
330
5E27
100
AcDbEntity
  8
Defpoints
 62
     0
100
AcDbPoint
 10
427.8721245115549
 20
186.0157099566222
 30
0.0
  0
POINT
  5
5E32
330
5E27
100
AcDbEntity
  8
Defpoints
 62
     0
100
AcDbPoint
 10
427.8721245115549
 20
213.8023335341042
 30
0.0
  0
ENDBLK
  5
5E29
330
5E27
100
AcDbEntity
  8
0
100
AcDbBlockEnd
  0
BLOCK
  5
5E34
330
5E33
100
AcDbEntity
  8
0
100
AcDbBlockBegin
  2
*D11
 70
     1
 10
0.0
 20
0.0
 30
0.0
  3
*D11
  1

  0
LINE
  5
5E36
330
5E33
100
AcDbEntity
  8
寸法
 62
     0
370
    -2
100
AcDbLine
 10
108.1825120145531
 20
356.4345575436565
 30
0.0
 11
108.1825120145531
 21
365.9906564456901
 31
0.0
  0
LINE
  5
5E37
330
5E33
100
AcDbEntity
  8
寸法
 62
     0
370
    -2
100
AcDbLine
 10
146.1825120145531
 20
356.4345575436565
 30
0.0
 11
146.1825120145531
 21
365.9906564456901
 31
0.0
  0
LINE
  5
5E38
330
5E33
100
AcDbEntity
  8
寸法
 62
     0
370
    -2
100
AcDbLine
 10
109.6825120145531
 20
365.9906564456901
 30
0.0
 11
144.6825120145531
 21
365.9906564456901
 31
0.0
  0
INSERT
  5
5E39
330
5E33
100
AcDbEntity
  8
寸法
 62
     0
370
    -2
100
AcDbBlockReference
  2
_DOT
 10
108.1825120145531
 20
365.9906564456901
 30
0.0
 41
1.5
 42
1.5
 43
1.5
 50
180.0
  0
INSERT
  5
5E3A
330
5E33
100
AcDbEntity
  8
寸法
 62
     0
370
    -2
100
AcDbBlockReference
  2
_DOT
 10
146.1825120145531
 20
365.9906564456901
 30
0.0
 41
1.5
 42
1.5
 43
1.5
  0
MTEXT
  5
5E3B
330
5E33
100
AcDbEntity
  8
寸法
  6
Continuous
 62
     0
100
AcDbMText
 10
127.1825120145531
 20
370.4906564456901
 30
0.0
 40
5.0
 41
0.0
 46
0.0
 71
     5
 72
     1
  1
\A1;38
  7
ＭＳ ゴシック
 73
     1
 44
1.0
  0
POINT
  5
5E3C
330
5E33
100
AcDbEntity
  8
Defpoints
 62
     0
100
AcDbPoint
 10
108.1825120145531
 20
351.4345575436565
 30
0.0
  0
POINT
  5
5E3D
330
5E33
100
AcDbEntity
  8
Defpoints
 62
     0
100
AcDbPoint
 10
146.1825120145531
 20
351.4345575436565
 30
0.0
  0
POINT
  5
5E3E
330
5E33
100
AcDbEntity
  8
Defpoints
 62
     0
100
AcDbPoint
 10
146.1825120145531
 20
365.9906564456901
 30
0.0
  0
ENDBLK
  5
5E35
330
5E33
100
AcDbEntity
  8
0
100
AcDbBlockEnd
  0
BLOCK
  5
5E40
330
5E3F
100
AcDbEntity
  8
0
100
AcDbBlockBegin
  2
*D12
 70
     1
 10
0.0
 20
0.0
 30
0.0
  3
*D12
  1

  0
LINE
  5
5E42
330
5E3F
100
AcDbEntity
  8
寸法
  6
Continuous
 62
     0
370
    -2
100
AcDbLine
 10
127.1816507401139
 20
148.4628469200378
 30
0.0
 11
127.1816507401139
 21
139.2647026849567
 31
0.0
  0
LINE
  5
5E43
330
5E3F
100
AcDbEntity
  8
寸法
  6
Continuous
 62
     0
370
    -2
100
AcDbLine
 10
134.8812214791989
 20
163.6679425127937
 30
0.0
 11
134.8812214791989
 21
139.2647026849567
 31
0.0
  0
LINE
  5
5E44
330
5E3F
100
AcDbEntity
  8
寸法
  6
Continuous
 62
     0
370
    -2
100
AcDbLine
 10
134.8812214791989
 20
139.2647026849567
 30
0.0
 11
144.9843088333743
 21
139.2647026849567
 31
0.0
  0
LINE
  5
5E45
330
5E3F
100
AcDbEntity
  8
寸法
  6
Continuous
 62
     0
370
    -2
100
AcDbLine
 10
128.6816507401139
 20
139.2647026849567
 30
0.0
 11
133.3812214791989
 21
139.2647026849567
 31
0.0
  0
LINE
  5
5E46
330
5E3F
100
AcDbEntity
  8
寸法
  6
Continuous
 62
     0
370
    -2
100
AcDbLine
 10
133.3812214791989
 20
139.2647026849567
 30
0.0
 11
131.8812214791989
 21
139.2647026849567
 31
0.0
  0
INSERT
  5
5E47
330
5E3F
100
AcDbEntity
  8
寸法
 62
     0
370
    -2
100
AcDbBlockReference
  2
_DOT
 10
127.1816507401139
 20
139.2647026849567
 30
0.0
 41
1.5
 42
1.5
 43
1.5
 50
180.0
  0
INSERT
  5
5E48
330
5E3F
100
AcDbEntity
  8
寸法
 62
     0
370
    -2
100
AcDbBlockReference
  2
_DOT
 10
134.8812214791989
 20
139.2647026849567
 30
0.0
 41
1.5
 42
1.5
 43
1.5
  0
MTEXT
  5
5E49
330
5E3F
100
AcDbEntity
  8
寸法
  6
Continuous
 62
     0
100
AcDbMText
 10
141.6643088333743
 20
143.7647026849567
 30
0.0
 40
5.0
 41
0.0
 46
0.0
 71
     5
 72
     1
  1
\A1;8
  7
ＭＳ ゴシック
 73
     1
 44
1.0
  0
POINT
  5
5E4A
330
5E3F
100
AcDbEntity
  8
Defpoints
 62
     0
100
AcDbPoint
 10
127.1816507401139
 20
153.4628469200378
 30
0.0
  0
POINT
  5
5E4B
330
5E3F
100
AcDbEntity
  8
Defpoints
 62
     0
100
AcDbPoint
 10
134.8812214791989
 20
168.6679425127937
 30
0.0
  0
POINT
  5
5E4C
330
5E3F
100
AcDbEntity
  8
Defpoints
 62
     0
100
AcDbPoint
 10
134.8812214791989
 20
139.2647026849567
 30
0.0
  0
ENDBLK
  5
5E41
330
5E3F
100
AcDbEntity
  8
0
100
AcDbBlockEnd
  0
BLOCK
  5
5E4E
330
5E4D
100
AcDbEntity
  8
0
100
AcDbBlockBegin
  2
*D13
 70
     1
 10
0.0
 20
0.0
 30
0.0
  3
*D13
  1

  0
LINE
  5
5E50
330
5E4D
100
AcDbEntity
  8
寸法
  6
Continuous
 62
     0
370
    -2
100
AcDbLine
 10
103.9325120145531
 20
372.0686993856673
 30
0.0
 11
103.9325120145531
 21
378.7852477434632
 31
0.0
  0
LINE
  5
5E51
330
5E4D
100
AcDbEntity
  8
寸法
  6
Continuous
 62
     0
370
    -2
100
AcDbLine
 10
112.4325120145531
 20
372.0686993856673
 30
0.0
 11
112.4325120145531
 21
378.7852477434632
 31
0.0
  0
LINE
  5
5E52
330
5E4D
100
AcDbEntity
  8
寸法
  6
Continuous
 62
     0
370
    -2
100
AcDbLine
 10
105.4325120145531
 20
378.7852477434632
 30
0.0
 11
110.9325120145531
 21
378.7852477434632
 31
0.0
  0
INSERT
  5
5E53
330
5E4D
100
AcDbEntity
  8
寸法
 62
     0
370
    -2
100
AcDbBlockReference
  2
_DOT
 10
103.9325120145531
 20
378.7852477434632
 30
0.0
 41
1.5
 42
1.5
 43
1.5
 50
180.0
  0
INSERT
  5
5E54
330
5E4D
100
AcDbEntity
  8
寸法
 62
     0
370
    -2
100
AcDbBlockReference
  2
_DOT
 10
112.4325120145531
 20
378.7852477434632
 30
0.0
 41
1.5
 42
1.5
 43
1.5
  0
MTEXT
  5
5E55
330
5E4D
100
AcDbEntity
  8
寸法
  6
Continuous
 62
     0
100
AcDbMText
 10
108.1825120145531
 20
383.2852477434632
 30
0.0
 40
5.0
 41
0.0
 46
0.0
 71
     5
 72
     1
  1
\A1;8.5
  7
ＭＳ ゴシック
 73
     1
 44
1.0
  0
POINT
  5
5E56
330
5E4D
100
AcDbEntity
  8
Defpoints
 62
     0
100
AcDbPoint
 10
103.9325120145531
 20
367.0686993856673
 30
0.0
  0
POINT
  5
5E57
330
5E4D
100
AcDbEntity
  8
Defpoints
 62
     0
100
AcDbPoint
 10
112.4325120145531
 20
367.0686993856673
 30
0.0
  0
POINT
  5
5E58
330
5E4D
100
AcDbEntity
  8
Defpoints
 62
     0
100
AcDbPoint
 10
112.4325120145531
 20
378.7852477434632
 30
0.0
  0
ENDBLK
  5
5E4F
330
5E4D
100
AcDbEntity
  8
0
100
AcDbBlockEnd
  0
BLOCK
  5
5E5A
330
5E59
100
AcDbEntity
  8
0
100
AcDbBlockBegin
  2
*D14
 70
     1
 10
0.0
 20
0.0
 30
0.0
  3
*D14
  1

  0
LINE
  5
5E5C
330
5E59
100
AcDbEntity
  8
寸法
  6
Continuous
 62
     0
370
    -2
100
AcDbLine
 10
153.7210231602584
 20
354.7335990428102
 30
0.0
 11
169.1440199581582
 21
354.7335990428102
 31
0.0
  0
LINE
  5
5E5D
330
5E59
100
AcDbEntity
  8
寸法
  6
Continuous
 62
     0
370
    -2
100
AcDbLine
 10
159.4759396838725
 20
348.7335990428102
 30
0.0
 11
169.1440199581582
 21
348.7335990428102
 31
0.0
  0
LINE
  5
5E5E
330
5E59
100
AcDbEntity
  8
寸法
  6
Continuous
 62
     0
370
    -2
100
AcDbLine
 10
169.1440199581582
 20
353.2335990428102
 30
0.0
 11
169.1440199581582
 21
350.2335990428102
 31
0.0
  0
INSERT
  5
5E5F
330
5E59
100
AcDbEntity
  8
寸法
 62
     0
370
    -2
100
AcDbBlockReference
  2
_DOT
 10
169.1440199581582
 20
354.7335990428102
 30
0.0
 41
1.5
 42
1.5
 43
1.5
 50
90.0
  0
INSERT
  5
5E60
330
5E59
100
AcDbEntity
  8
寸法
 62
     0
370
    -2
100
AcDbBlockReference
  2
_DOT
 10
169.1440199581582
 20
348.7335990428102
 30
0.0
 41
1.5
 42
1.5
 43
1.5
 50
270.0
  0
MTEXT
  5
5E61
330
5E59
100
AcDbEntity
  8
寸法
  6
Continuous
 62
     0
100
AcDbMText
 10
164.6440199581582
 20
351.7335990428102
 30
0.0
 40
5.0
 41
0.0
 46
0.0
 71
     5
 72
     1
  1
\A1;6
  7
ＭＳ ゴシック
 11
0.0
 21
1.0
 31
0.0
 73
     1
 44
1.0
  0
POINT
  5
5E62
330
5E59
100
AcDbEntity
  8
Defpoints
 62
     0
100
AcDbPoint
 10
148.7210231602584
 20
354.7335990428102
 30
0.0
  0
POINT
  5
5E63
330
5E59
100
AcDbEntity
  8
Defpoints
 62
     0
100
AcDbPoint
 10
154.4759396838725
 20
348.7335990428102
 30
0.0
  0
POINT
  5
5E64
330
5E59
100
AcDbEntity
  8
Defpoints
 62
     0
100
AcDbPoint
 10
169.1440199581582
 20
348.7335990428102
 30
0.0
  0
ENDBLK
  5
5E5B
330
5E59
100
AcDbEntity
  8
0
100
AcDbBlockEnd
  0
BLOCK
  5
5F7B
330
5F7A
100
AcDbEntity
  8
0
100
AcDbBlockBegin
  2
*D15
 70
     1
 10
0.0
 20
0.0
 30
0.0
  3
*D15
  1

  0
LINE
  5
5F7D
330
5F7A
100
AcDbEntity
  8
寸法
 62
     0
370
    -2
100
AcDbLine
 10
254.2389102426148
 20
323.144764310548
 30
0.0
 11
275.3752308903569
 21
323.144764310548
 31
0.0
  0
LINE
  5
5F7E
330
5F7A
100
AcDbEntity
  8
寸法
 62
     0
370
    -2
100
AcDbLine
 10
214.8104036654497
 20
283.144764310548
 30
0.0
 11
275.3752308903569
 21
283.144764310548
 31
0.0
  0
LINE
  5
5F7F
330
5F7A
100
AcDbEntity
  8
寸法
 62
     0
370
    -2
100
AcDbLine
 10
275.3752308903569
 20
321.644764310548
 30
0.0
 11
275.3752308903569
 21
284.644764310548
 31
0.0
  0
INSERT
  5
5F80
330
5F7A
100
AcDbEntity
  8
寸法
 62
     0
370
    -2
100
AcDbBlockReference
  2
_DOT
 10
275.3752308903569
 20
323.144764310548
 30
0.0
 41
1.5
 42
1.5
 43
1.5
 50
90.0
  0
INSERT
  5
5F81
330
5F7A
100
AcDbEntity
  8
寸法
 62
     0
370
    -2
100
AcDbBlockReference
  2
_DOT
 10
275.3752308903569
 20
283.144764310548
 30
0.0
 41
1.5
 42
1.5
 43
1.5
 50
270.0
  0
MTEXT
  5
5F82
330
5F7A
100
AcDbEntity
  8
寸法
 62
     0
100
AcDbMText
 10
270.8752308903569
 20
303.144764310548
 30
0.0
 40
5.0
 41
0.0
 46
0.0
 71
     5
 72
     1
  1
\A1;40
  7
ＭＳ ゴシック
 11
0.0
 21
1.0
 31
0.0
 73
     1
 44
1.0
  0
POINT
  5
5F83
330
5F7A
100
AcDbEntity
  8
Defpoints
 62
     0
100
AcDbPoint
 10
249.2389102426148
 20
323.144764310548
 30
0.0
  0
POINT
  5
5F84
330
5F7A
100
AcDbEntity
  8
Defpoints
 62
     0
100
AcDbPoint
 10
209.8104036654497
 20
283.144764310548
 30
0.0
  0
POINT
  5
5F85
330
5F7A
100
AcDbEntity
  8
Defpoints
 62
     0
100
AcDbPoint
 10
275.3752308903569
 20
283.144764310548
 30
0.0
  0
ENDBLK
  5
5F7C
330
5F7A
100
AcDbEntity
  8
0
100
AcDbBlockEnd
  0
BLOCK
  5
5F88
330
5F87
100
AcDbEntity
  8
0
100
AcDbBlockBegin
  2
*D16
 70
     1
 10
0.0
 20
0.0
 30
0.0
  3
*D16
  1

  0
LINE
  5
5F8A
330
5F87
100
AcDbEntity
  8
寸法
 62
     0
370
    -2
100
AcDbLine
 10
115.1411770070783
 20
298.766771066055
 30
0.0
 11
115.1411770070783
 21
262.0622880090467
 31
0.0
  0
LINE
  5
5F8B
330
5F87
100
AcDbEntity
  8
寸法
 62
     0
370
    -2
100
AcDbLine
 10
251.1411770070783
 20
298.766771066055
 30
0.0
 11
251.1411770070783
 21
262.0622880090467
 31
0.0
  0
LINE
  5
5F8C
330
5F87
100
AcDbEntity
  8
寸法
 62
     0
370
    -2
100
AcDbLine
 10
116.6411770070783
 20
262.0622880090467
 30
0.0
 11
249.6411770070783
 21
262.0622880090467
 31
0.0
  0
INSERT
  5
5F8D
330
5F87
100
AcDbEntity
  8
寸法
 62
     0
370
    -2
100
AcDbBlockReference
  2
_DOT
 10
115.1411770070783
 20
262.0622880090467
 30
0.0
 41
1.5
 42
1.5
 43
1.5
 50
180.0
  0
INSERT
  5
5F8E
330
5F87
100
AcDbEntity
  8
寸法
 62
     0
370
    -2
100
AcDbBlockReference
  2
_DOT
 10
251.1411770070783
 20
262.0622880090467
 30
0.0
 41
1.5
 42
1.5
 43
1.5
  0
MTEXT
  5
5F8F
330
5F87
100
AcDbEntity
  8
寸法
 62
     0
100
AcDbMText
 10
183.1411770070783
 20
266.5622880090467
 30
0.0
 40
5.0
 41
0.0
 46
0.0
 71
     5
 72
     1
  1
\A1;136
  7
ＭＳ ゴシック
 73
     1
 44
1.0
  0
POINT
  5
5F90
330
5F87
100
AcDbEntity
  8
Defpoints
 62
     0
100
AcDbPoint
 10
115.1411770070783
 20
303.766771066055
 30
0.0
  0
POINT
  5
5F91
330
5F87
100
AcDbEntity
  8
Defpoints
 62
     0
100
AcDbPoint
 10
251.1411770070783
 20
303.766771066055
 30
0.0
  0
POINT
  5
5F92
330
5F87
100
AcDbEntity
  8
Defpoints
 62
     0
100
AcDbPoint
 10
251.1411770070783
 20
262.0622880090467
 30
0.0
  0
ENDBLK
  5
5F89
330
5F87
100
AcDbEntity
  8
0
100
AcDbBlockEnd
  0
BLOCK
  5
5F97
330
5F96
100
AcDbEntity
  8
0
100
AcDbBlockBegin
  2
*D17
 70
     1
 10
0.0
 20
0.0
 30
0.0
  3
*D17
  1

  0
LINE
  5
5F99
330
5F96
100
AcDbEntity
  8
寸法
 62
     0
370
    -2
100
AcDbLine
 10
176.0685875462069
 20
283.0537519206397
 30
0.0
 11
83.2938107744647
 21
283.0537519206397
 31
0.0
  0
LINE
  5
5F9A
330
5F96
100
AcDbEntity
  8
寸法
 62
     0
370
    -2
100
AcDbLine
 10
91.7464996695535
 20
341.034177143836
 30
0.0
 11
83.2938107744647
 21
341.034177143836
 31
0.0
  0
LINE
  5
5F9B
330
5F96
100
AcDbEntity
  8
寸法
 62
     0
370
    -2
100
AcDbLine
 10
83.2938107744647
 20
284.5537519206397
 30
0.0
 11
83.2938107744647
 21
339.534177143836
 31
0.0
  0
INSERT
  5
5F9C
330
5F96
100
AcDbEntity
  8
寸法
 62
     0
370
    -2
100
AcDbBlockReference
  2
_DOT
 10
83.2938107744647
 20
283.0537519206397
 30
0.0
 41
1.5
 42
1.5
 43
1.5
 50
270.0
  0
INSERT
  5
5F9D
330
5F96
100
AcDbEntity
  8
寸法
 62
     0
370
    -2
100
AcDbBlockReference
  2
_DOT
 10
83.2938107744647
 20
341.034177143836
 30
0.0
 41
1.5
 42
1.5
 43
1.5
 50
90.0
  0
MTEXT
  5
5F9E
330
5F96
100
AcDbEntity
  8
寸法
 62
     0
100
AcDbMText
 10
78.7938107744647
 20
312.0439645322379
 30
0.0
 40
5.0
 41
0.0
 46
0.0
 71
     5
 72
     1
  1
\A1;58
  7
ＭＳ ゴシック
 11
0.0
 21
1.0
 31
0.0
 73
     1
 44
1.0
  0
POINT
  5
5F9F
330
5F96
100
AcDbEntity
  8
Defpoints
 62
     0
100
AcDbPoint
 10
181.0685875462069
 20
283.0537519206397
 30
0.0
  0
POINT
  5
5FA0
330
5F96
100
AcDbEntity
  8
Defpoints
 62
     0
100
AcDbPoint
 10
96.7464996695535
 20
341.034177143836
 30
0.0
  0
POINT
  5
5FA1
330
5F96
100
AcDbEntity
  8
Defpoints
 62
     0
100
AcDbPoint
 10
83.2938107744647
 20
341.034177143836
 30
0.0
  0
ENDBLK
  5
5F98
330
5F96
100
AcDbEntity
  8
0
100
AcDbBlockEnd
  0
BLOCK
  5
5FA6
330
5FA5
100
AcDbEntity
  8
0
100
AcDbBlockBegin
  2
*D18
 70
     1
 10
0.0
 20
0.0
 30
0.0
  3
*D18
  1

  0
LINE
  5
5FA8
330
5FA5
100
AcDbEntity
  8
寸法
 62
     0
370
    -2
100
AcDbLine
 10
89.7825120145531
 20
348.7335990428102
 30
0.0
 11
67.28592598323533
 21
348.7335990428102
 31
0.0
  0
LINE
  5
5FA9
330
5FA5
100
AcDbEntity
  8
寸法
 62
     0
370
    -2
100
AcDbLine
 10
101.6654269591859
 20
283.0537519206397
 30
0.0
 11
67.28592598323533
 21
283.0537519206397
 31
0.0
  0
LINE
  5
5FAA
330
5FA5
100
AcDbEntity
  8
寸法
 62
     0
370
    -2
100
AcDbLine
 10
67.28592598323533
 20
347.2335990428102
 30
0.0
 11
67.28592598323533
 21
284.5537519206397
 31
0.0
  0
INSERT
  5
5FAB
330
5FA5
100
AcDbEntity
  8
寸法
 62
     0
370
    -2
100
AcDbBlockReference
  2
_DOT
 10
67.28592598323533
 20
348.7335990428102
 30
0.0
 41
1.5
 42
1.5
 43
1.5
 50
90.0
  0
INSERT
  5
5FAC
330
5FA5
100
AcDbEntity
  8
寸法
 62
     0
370
    -2
100
AcDbBlockReference
  2
_DOT
 10
67.28592598323533
 20
283.0537519206397
 30
0.0
 41
1.5
 42
1.5
 43
1.5
 50
270.0
  0
MTEXT
  5
5FAD
330
5FA5
100
AcDbEntity
  8
寸法
 62
     0
100
AcDbMText
 10
62.78592598323533
 20
315.8936754817249
 30
0.0
 40
5.0
 41
0.0
 46
0.0
 71
     5
 72
     1
  1
\A1;66
  7
ＭＳ ゴシック
 11
0.0
 21
1.0
 31
0.0
 73
     1
 44
1.0
  0
POINT
  5
5FAE
330
5FA5
100
AcDbEntity
  8
Defpoints
 62
     0
100
AcDbPoint
 10
94.7825120145531
 20
348.7335990428102
 30
0.0
  0
POINT
  5
5FAF
330
5FA5
100
AcDbEntity
  8
Defpoints
 62
     0
100
AcDbPoint
 10
106.6654269591859
 20
283.0537519206397
 30
0.0
  0
POINT
  5
5FB0
330
5FA5
100
AcDbEntity
  8
Defpoints
 62
     0
100
AcDbPoint
 10
67.28592598323533
 20
283.0537519206397
 30
0.0
  0
ENDBLK
  5
5FA7
330
5FA5
100
AcDbEntity
  8
0
100
AcDbBlockEnd
  0
ENDSEC
  0
SECTION
  2
ENTITIES
  0
POINT
  5
1301
330
A
100
AcDbEntity
  8
MODEL
100
AcDbPoint
 10
963.7243970754489
 20
138.0847547131194
 30
0.0
  0
POINT
  5
1306
330
A
100
AcDbEntity
  8
MODEL
100
AcDbPoint
 10
847.7244070754489
 20
138.0847547131194
 30
0.0
  0
POINT
  5
1307
330
A
100
AcDbEntity
  8
MODEL
100
AcDbPoint
 10
973.7862873746794
 20
166.0075841667841
 30
0.0
  0
POINT
  5
1308
330
A
100
AcDbEntity
  8
MODEL
100
AcDbPoint
 10
973.7862873746794
 20
184.0075841667841
 30
0.0
  0
POINT
  5
1312
330
A
100
AcDbEntity
  8
MODEL
100
AcDbPoint
 10
810.9244070754489
 20
149.007583882008
 30
0.0
  0
POINT
  5
1313
330
A
100
AcDbEntity
  8
MODEL
100
AcDbPoint
 10
810.9244070754489
 20
201.007583882008
 30
0.0
  0
POINT
  5
131E
330
A
100
AcDbEntity
  8
MODEL
100
AcDbPoint
 10
1111.259263541787
 20
138.207583607055
 30
0.0
  0
POINT
  5
131F
330
A
100
AcDbEntity
  8
MODEL
100
AcDbPoint
 10
1104.759263541787
 20
138.207583607055
 30
0.0
  0
POINT
  5
1342
330
A
100
AcDbEntity
  8
MODEL
100
AcDbPoint
 10
973.354966229004
 20
368.3598201219507
 30
0.0
  0
POINT
  5
1343
330
A
100
AcDbEntity
  8
MODEL
100
AcDbPoint
 10
973.354966229004
 20
319.3598501219507
 30
0.0
  0
POINT
  5
1346
330
A
100
AcDbEntity
  8
MODEL
100
AcDbPoint
 10
983.2218070738209
 20
368.3598201219507
 30
0.0
  0
POINT
  5
1347
330
A
100
AcDbEntity
  8
MODEL
100
AcDbPoint
 10
983.2218070738209
 20
301.3598201219507
 30
0.0
  0
POINT
  5
1350
330
A
100
AcDbEntity
  8
MODEL
100
AcDbPoint
 10
963.7243970754489
 20
286.3598201219507
 30
0.0
  0
POINT
  5
1351
330
A
100
AcDbEntity
  8
MODEL
100
AcDbPoint
 10
838.7244070754489
 20
286.3598201219507
 30
0.0
  0
POINT
  5
1357
330
A
100
AcDbEntity
  8
MODEL
100
AcDbPoint
 10
810.9244070754489
 20
301.3598201219507
 30
0.0
  0
POINT
  5
1359
330
A
100
AcDbEntity
  8
MODEL
100
AcDbPoint
 10
810.9244070754489
 20
361.3598201219507
 30
0.0
  0
POINT
  5
135A
330
A
100
AcDbEntity
  8
MODEL
100
AcDbPoint
 10
810.9244070754489
 20
368.3598201219507
 30
0.0
  0
POINT
  5
135B
330
A
100
AcDbEntity
  8
MODEL
100
AcDbPoint
 10
810.9244070754489
 20
361.3598201219507
 30
0.0
  0
POINT
  5
1371
330
A
100
AcDbEntity
  8
MODEL
100
AcDbPoint
 10
1164.81489702863
 20
383.9337336502628
 30
0.0
  0
POINT
  5
1372
330
A
100
AcDbEntity
  8
MODEL
100
AcDbPoint
 10
1164.81489702863
 20
279.9338376502628
 30
0.0
  0
POINT
  5
1378
330
A
100
AcDbEntity
  8
MODEL
100
AcDbPoint
 10
1180.157201609016
 20
264.2731813749589
 30
0.0
  0
POINT
  5
1379
330
A
100
AcDbEntity
  8
MODEL
100
AcDbPoint
 10
1193.957187809016
 20
264.2731813749589
 30
0.0
  0
POINT
  5
1389
330
A
100
AcDbEntity
  8
MODEL
100
AcDbPoint
 10
1079.093440814797
 20
383.9337336502628
 30
0.0
  0
POINT
  5
138A
330
A
100
AcDbEntity
  8
MODEL
100
AcDbPoint
 10
1079.093440814797
 20
279.9337336502626
 30
0.0
  0
POINT
  5
138D
330
A
100
AcDbEntity
  8
MODEL
100
AcDbPoint
 10
1093.467555113589
 20
264.2731813749589
 30
0.0
  0
POINT
  5
138E
330
A
100
AcDbEntity
  8
MODEL
100
AcDbPoint
 10
1106.467555113589
 20
264.2731813749589
 30
0.0
  0
POINT
  5
1398
330
A
100
AcDbEntity
  8
MODEL
100
AcDbPoint
 10
1180.157201609016
 20
398.2298339817613
 30
0.0
  0
POINT
  5
1399
330
A
100
AcDbEntity
  8
MODEL
100
AcDbPoint
 10
1194.157187609016
 20
398.2298339817613
 30
0.0
  0
POINT
  5
139C
330
A
100
AcDbEntity
  8
MODEL
100
AcDbPoint
 10
1093.467555113589
 20
398.2298339817613
 30
0.0
  0
POINT
  5
139D
330
A
100
AcDbEntity
  8
MODEL
100
AcDbPoint
 10
1107.467555113589
 20
398.2298339817613
 30
0.0
  0
POINT
  5
4967
330
A
100
AcDbEntity
  8
MODEL
100
AcDbPoint
 10
159.6608149866037
 20
1112.943495860789
 30
0.0
  0
POINT
  5
4968
330
A
100
AcDbEntity
  8
MODEL
100
AcDbPoint
 10
159.6608149866037
 20
1058.143496245838
 30
0.0
  0
POINT
  5
499D
330
A
100
AcDbEntity
  8
MODEL
100
AcDbPoint
 10
471.5926809920595
 20
1039.574930990415
 30
0.0
  0
POINT
  5
499E
330
A
100
AcDbEntity
  8
MODEL
100
AcDbPoint
 10
478.7926809920594
 20
1039.574930990415
 30
0.0
  0
TEXT
  5
51D5
330
A
100
AcDbEntity
  8
_0-1_
 62
     1
100
AcDbText
 10
177.7468866874332
 20
79.37939740351129
 30
0.0
 40
4.0
  1
   
  7
ＭＳ ゴシック
100
AcDbText
  0
LINE
  5
51D6
330
A
100
AcDbEntity
  8
SPACER
  6
CENTER
 48
3.0
100
AcDbLine
 10
127.1816507401138
 20
224.6771809568476
 30
0.0
 11
127.1816507401138
 21
137.0485128832279
 31
0.0
  0
LINE
  5
51D7
330
A
100
AcDbEntity
  8
SPACER
  6
CENTER
 48
3.0
100
AcDbLine
 10
83.36731670330403
 20
180.8628469200378
 30
0.0
 11
170.9959847769237
 21
180.8628469200378
 31
0.0
  0
LINE
  5
51D8
330
A
100
AcDbEntity
  8
SPACER
  6
CENTER
 48
3.0
100
AcDbLine
 10
83.36817797774336
 20
348.7335990428101
 30
0.0
 11
170.9968460513629
 21
348.7335990428101
 31
0.0
  0
LINE
  5
51D9
330
A
100
AcDbEntity
  8
SPACER
  6
CENTER
 48
3.0
100
AcDbLine
 10
408.8721245115548
 20
365.1479330796199
 30
0.0
 11
408.8721245115548
 21
277.5192650060002
 31
0.0
  0
LINE
  5
51DA
330
A
100
AcDbEntity
  8
SPACER
  6
CENTER
 48
3.0
100
AcDbLine
 10
365.0577904747449
 20
321.33359904281
 30
0.0
 11
452.6864585483646
 21
321.33359904281
 31
0.0
  0
LWPOLYLINE
  5
523C
330
A
100
AcDbEntity
  8
SPACER
100
AcDbPolyline
 90
        4
 70
     1
 43
0.0
 10
161.5928474918056
 20
97.1045060433407
 10
161.5928474918056
 20
69.6571102646527
 10
432.4071525081941
 20
69.6571102646527
 10
432.4071525081941
 20
97.1045060433407
  0
LINE
  5
523D
330
A
100
AcDbEntity
  8
SPACER
  6
CENTER
 48
3.0
100
AcDbLine
 10
296.9999999999999
 20
404.690473771441
 30
0.0
 11
297.0
 21
106.25363796957
 31
0.0
  0
LINE
  5
523E
330
A
100
AcDbEntity
  8
SPACER
  6
CENTER
 48
3.0
100
AcDbLine
 10
15.30952622855898
 20
255.4720558705055
 30
0.0
 11
578.690473771441
 21
255.4720558705055
 31
0.0
  0
LINE
  5
523F
330
A
100
AcDbEntity
  8
SPACER
  6
CENTER
 48
3.0
100
AcDbLine
 10
15.30952622855898
 20
106.25363796957
 30
0.0
 11
578.690473771441
 21
106.25363796957
 31
0.0
  0
LINE
  5
5240
330
A
100
AcDbEntity
  8
SPACER
  6
CENTER
 48
3.0
100
AcDbLine
 10
408.8721245115548
 20
224.6771809568476
 30
0.0
 11
408.8721245115548
 21
137.0485128832279
 31
0.0
  0
LINE
  5
5241
330
A
100
AcDbEntity
  8
SPACER
  6
CENTER
 48
3.0
100
AcDbLine
 10
365.057790474745
 20
180.8628469200378
 30
0.0
 11
452.6864585483647
 21
180.8628469200378
 31
0.0
  0
LINE
  5
52EB
330
A
100
AcDbEntity
  8
SPACER
  6
CENTER
 48
3.0
100
AcDbLine
 10
127.1825120145532
 20
392.54793307962
 30
0.0
 11
127.1825120145532
 21
304.9192650060003
 31
0.0
  0
ARC
  5
5B17
330
A
100
AcDbEntity
  8
MODEL
  6
Continuous
100
AcDbCircle
 10
466.3919631410423
 20
1004.875801369178
 30
0.0
 40
695.0007909610831
100
AcDbArc
 50
264.6204000000001
 51
275.1953669999999
  0
ARC
  5
5B19
330
A
100
AcDbEntity
  8
MODEL
  6
Continuous
100
AcDbCircle
 10
466.3919631410423
 20
-362.125556630822
 30
0.0
 40
695.0005617808879
100
AcDbArc
 50
84.79210799999997
 51
95.37944799999998
  0
ELLIPSE
  5
5B1A
330
A
100
AcDbEntity
  8
MODEL
  6
HIDDEN2
100
AcDbEllipse
 10
516.3131801410423
 20
313.675418369178
 30
0.0
 11
-0.1440727796456207
 21
1.994804008960571
 31
0.0
210
0.0
220
0.0
230
-1.0
 40
0.995658
 41
3.141592653589809
 42
3.908493742257873
  0
ELLIPSE
  5
5B1B
330
A
100
AcDbEntity
  8
MODEL
  6
Continuous
100
AcDbEllipse
 10
401.4253471410424
 20
314.926965369178
 30
0.0
 11
0.1897228456952015
 21
1.99098097475122
 31
0.0
210
0.0
220
0.0
230
1.0
 40
0.998657
 41
2.365853102603857
 42
3.140259974370899
  0
ARC
  5
5B1C
330
A
100
AcDbEntity
  8
MODEL
  6
HIDDEN2
100
AcDbCircle
 10
522.8629131410435
 20
321.375007369178
 30
0.0
 40
12.09728412809255
100
AcDbArc
 50
130.2317710000021
 51
229.7682289999979
  0
ELLIPSE
  5
5B1D
330
A
100
AcDbEntity
  8
MODEL
  6
HIDDEN2
100
AcDbEllipse
 10
516.3131801410423
 20
329.074595369178
 30
0.0
 11
0.1440727796455834
 21
1.994804008960576
 31
0.0
210
0.0
220
0.0
230
-1.0
 40
0.995658
 41
5.516284218511511
 42
6.283185307179586
  0
ELLIPSE
  5
5B1E
330
A
100
AcDbEntity
  8
MODEL
  6
Continuous
100
AcDbEllipse
 10
401.4253471410424
 20
327.8230493691779
 30
0.0
 11
0.1897228456952688
 21
-1.990980974751209
 31
0.0
210
0.0
220
0.0
230
-1.0
 40
0.9986570000000003
 41
2.365853102603893
 42
3.141190831848725
  0
ARC
  5
5B1F
330
A
100
AcDbEntity
  8
MODEL
  6
Continuous
100
AcDbCircle
 10
408.7638311410434
 20
321.375007369178
 30
0.0
 40
11.99996509608541
100
AcDbArc
 50
53.62667300000079
 51
306.373325
  0
LINE
  5
5B20
330
A
100
AcDbEntity
  8
MODEL
  6
Continuous
100
AcDbLine
 10
401.2356241410433
 20
329.814030369178
 30
0.0
 11
401.2378221410423
 21
329.814238369178
 31
0.0
  0
LINE
  5
5B21
330
A
100
AcDbEntity
  8
MODEL
  6
Continuous
100
AcDbLine
 10
401.2356241410433
 20
312.9359843691778
 30
0.0
 11
401.2378221410423
 21
312.9357763691779
 31
0.0
  0
CIRCLE
  5
5B22
330
A
100
AcDbEntity
  8
MODEL
  6
HIDDEN2
100
AcDbCircle
 10
408.8919621410433
 20
321.375007369178
 30
0.0
 40
8.950000000000003
  0
CIRCLE
  5
5B23
330
A
100
AcDbEntity
  8
MODEL
  6
HIDDEN2
100
AcDbCircle
 10
408.8919621410433
 20
321.375007369178
 30
0.0
 40
8.0
  0
ARC
  5
5B24
330
A
100
AcDbEntity
  8
MODEL
  6
Continuous
100
AcDbCircle
 10
529.2952611410433
 20
328.012066369178
 30
0.0
 40
2.002868431770999
100
AcDbArc
 50
33.66832800000094
 51
84.79210799999998
  0
LINE
  5
5B25
330
A
100
AcDbEntity
  8
MODEL
  6
Continuous
100
AcDbLine
 10
530.9621701410433
 20
329.1224263691779
 30
0.0
 11
530.9681421410432
 21
329.113366369178
 31
0.0
  0
ARC
  5
5B26
330
A
100
AcDbEntity
  8
MODEL
  6
Continuous
100
AcDbCircle
 10
519.2059491410432
 20
321.372391369178
 30
0.0
 40
14.08090474168499
100
AcDbArc
 50
326.6514820000006
 51
33.3498529999996
  0
ARC
  5
5B27
330
A
100
AcDbEntity
  8
MODEL
  6
Continuous
100
AcDbCircle
 10
529.2947531410432
 20
314.7340053691779
 30
0.0
 40
2.003979395439726
100
AcDbArc
 50
270.8851010000031
 51
326.6268809999975
  0
LINE
  5
5B28
330
A
100
AcDbEntity
  8
MODEL
  6
Continuous
100
AcDbLine
 10
529.5008401410432
 20
312.740651369178
 30
0.0
 11
529.4794331410421
 21
312.738700369178
 31
0.0
  0
LINE
  5
5B29
330
A
100
AcDbEntity
  8
MODEL
  6
Continuous
100
AcDbLine
 10
517.4728981410422
 20
311.7497063691779
 30
0.0
 11
517.4575351410422
 21
311.748575369178
 31
0.0
  0
ARC
  5
5B2A
330
A
100
AcDbEntity
  8
MODEL
  6
Continuous
100
AcDbCircle
 10
517.3264531410432
 20
313.7384163691779
 30
0.0
 40
1.994153321360861
100
AcDbArc
 50
270.1228920000033
 51
273.7689490000054
  0
ARC
  5
5B2B
330
A
100
AcDbEntity
  8
MODEL
  6
Continuous
100
AcDbCircle
 10
416.5416501164614
 20
332.523009810548
 30
0.0
 40
277.498097496325
100
AcDbArc
 50
180.309722
 51
185.4669389999999
  0
ARC
  5
5B2E
330
A
100
AcDbEntity
  8
MODEL
  6
Continuous
100
AcDbCircle
 10
184.6737631164623
 20
524.0230148105481
 30
0.0
 40
226.000060654128
100
AcDbArc
 50
259.7328239999999
 51
280.267176
  0
ARC
  5
5B32
102
{ACAD_REACTORS
330
5F95
102
}
330
A
100
AcDbEntity
  8
MODEL
  6
Continuous
100
AcDbCircle
 10
184.6737871164613
 20
495.0265208105479
 30
0.0
 40
212.0034250072291
100
AcDbArc
 50
253.375031
 51
285.853875
  0
ARC
  5
5B34
330
A
100
AcDbEntity
  8
MODEL
  6
Continuous
100
AcDbCircle
 10
-19.52822188353821
 20
332.5778458105481
 30
0.0
 40
271.3369041778034
100
AcDbArc
 50
352.995074
 51
357.487621
  0
LINE
  5
5B35
330
A
100
AcDbEntity
  8
MODEL
  6
Continuous
100
AcDbLine
 10
139.0476071164622
 20
331.0229538105481
 30
0.0
 11
139.1737631164623
 21
341.0229538105481
 31
0.0
  0
LINE
  5
5B36
330
A
100
AcDbEntity
  8
MODEL
  6
Continuous
100
AcDbLine
 10
115.1737631164623
 20
341.0229538105481
 30
0.0
 11
115.0456671164624
 21
331.0229538105481
 31
0.0
  0
ARC
  5
5B38
330
A
100
AcDbEntity
  8
MODEL
  6
Continuous
100
AcDbCircle
 10
231.0777841164612
 20
321.6383838105481
 30
0.0
 40
0.999974279911706
100
AcDbArc
 50
100.5304689999979
 51
178.6562260000009
  0
ARC
  5
5B39
330
A
100
AcDbEntity
  8
MODEL
  6
Continuous
100
AcDbCircle
 10
250.6085921164623
 20
321.6267768105479
 30
0.0
 40
1.000036079240069
100
AcDbArc
 50
357.6217559999989
 51
79.37585800000711
  0
ARC
  5
5B3A
330
A
100
AcDbEntity
  8
MODEL
  6
Continuous
100
AcDbCircle
 10
171.6378351164623
 20
322.8574118105479
 30
0.0
 40
58.45244821992496
100
AcDbArc
 50
358.2015470000001
 51
358.8279979999999
  0
LINE
  5
5B3B
330
A
100
AcDbEntity
  8
MODEL
  6
Continuous
100
AcDbLine
 10
251.5687031164622
 20
320.6806988105479
 30
0.0
 11
251.6077651164622
 21
321.585270810548
 31
0.0
  0
ARC
  5
5B3D
330
A
100
AcDbEntity
  8
MODEL
  6
Continuous
100
AcDbCircle
 10
142.9351026546351
 20
-2562.538571073455
 30
0.0
 40
2734.801100949587
100
AcDbArc
 50
89.310401
 51
89.71922300000001
  0
ARC
  5
5B3F
330
A
100
AcDbEntity
  8
MODEL
  6
Continuous
100
AcDbCircle
 10
-40.93474934536493
 20
1194.112151926545
 30
0.0
 40
1027.004173846249
100
AcDbArc
 50
282.331153
 51
282.6834270000001
  0
ARC
  5
5B42
330
A
100
AcDbEntity
  8
MODEL
  6
Continuous
100
AcDbCircle
 10
142.935034654635
 20
2923.884521926545
 30
0.0
 40
2734.809141480114
100
AcDbArc
 50
270.280777
 51
270.6895989999999
  0
ELLIPSE
  5
5B45
330
A
100
AcDbEntity
  8
MODEL
  6
Continuous
100
AcDbEllipse
 10
182.3758646546349
 20
173.5838479265448
 30
0.0
 11
-0.5804228739062826
 21
-1.913925099748262
 31
0.0
210
0.0
220
0.0
230
1.0
 40
0.9608350000000003
 41
0.3057288583248378
 42
1.733017933005504
  0
ELLIPSE
  5
5B47
330
A
100
AcDbEntity
  8
MODEL
  6
Continuous
100
AcDbEllipse
 10
182.3758646546349
 20
187.7540619265447
 30
0.0
 11
0.5804228739062142
 21
-1.913925099748275
 31
0.0
210
0.0
220
0.0
230
1.0
 40
0.960835
 41
1.408574720584361
 42
2.83586379526499
  0
ARC
  5
5B48
330
A
100
AcDbEntity
  8
MODEL
  6
Continuous
100
AcDbCircle
 10
190.2005906546352
 20
190.1688859265448
 30
0.0
 40
2.000067968762741
100
AcDbArc
 50
8.455475000000147
 51
89.99832200000705
  0
ARC
  5
5B4A
330
A
100
AcDbEntity
  8
MODEL
  6
Continuous
100
AcDbCircle
 10
142.899331654635
 20
4419.453320926544
 30
0.0
 40
4229.175036945571
100
AcDbArc
 50
270.181963
 51
270.373851
  0
ARC
  5
5B4B
330
A
100
AcDbEntity
  8
MODEL
  6
Continuous
100
AcDbCircle
 10
190.2006156546341
 20
171.1689809265447
 30
0.0
 40
2.000022077291051
100
AcDbArc
 50
270.0005560000101
 51
351.5459169999991
  0
ARC
  5
5B4D
330
A
100
AcDbEntity
  8
MODEL
  6
Continuous
100
AcDbCircle
 10
142.8994236546341
 20
-4058.096441073455
 30
0.0
 40
4229.156066446349
100
AcDbArc
 50
89.626149
 51
89.818037
  0
ARC
  5
5B4F
330
A
100
AcDbEntity
  8
MODEL
  6
Continuous
100
AcDbCircle
 10
184.558026654635
 20
171.1692529265447
 30
0.0
 40
2.000180944947529
100
AcDbArc
 50
257.1431380000083
 51
270.0107090000013
  0
LINE
  5
5B51
330
A
100
AcDbEntity
  8
MODEL
  6
Continuous
100
AcDbLine
 10
184.5584006546352
 20
169.1689559265448
 30
0.0
 11
190.200635654635
 21
169.1689559265448
 31
0.0
  0
LINE
  5
5B53
330
A
100
AcDbEntity
  8
MODEL
  6
Continuous
100
AcDbLine
 10
184.5584156546353
 20
192.1689539265448
 30
0.0
 11
190.2006496546352
 21
192.1689539265448
 31
0.0
  0
LINE
  5
5B62
330
A
100
AcDbEntity
  8
MODEL
  6
Continuous
100
AcDbLine
 10
529.4585441410422
 20
330.008168369178
 30
0.0
 11
529.5040921410432
 21
330.0040193691779
 31
0.0
  0
LINE
  5
5B63
330
A
100
AcDbEntity
  8
MODEL
  6
Continuous
100
AcDbLine
 10
149.4599316546341
 20
168.6689529265448
 30
0.0
 11
134.9027726546351
 21
168.6689619265447
 31
0.0
  0
LINE
  5
5B64
330
A
100
AcDbEntity
  8
MODEL
  6
Continuous
100
AcDbLine
 10
149.4599316546341
 20
192.6689569265447
 30
0.0
 11
134.9027726546351
 21
192.6689479265449
 31
0.0
  0
LINE
  5
5B65
330
A
100
AcDbEntity
  8
MODEL
  6
HIDDEN2
100
AcDbLine
 10
516.4572531410422
 20
331.0693993691779
 30
0.0
 11
516.4852261410433
 21
331.0673793691778
 31
0.0
  0
LINE
  5
5B66
330
A
100
AcDbEntity
  8
MODEL
  6
HIDDEN2
100
AcDbLine
 10
516.5062551410433
 20
311.6841543691779
 30
0.0
 11
516.4572531410422
 21
311.680614369178
 31
0.0
  0
LINE
  5
5B68
330
A
100
AcDbEntity
  8
MODEL
  6
Continuous
100
AcDbLine
 10
115.1737631164623
 20
341.0229538105481
 30
0.0
 11
139.1737631164623
 21
341.0229538105481
 31
0.0
  0
LINE
  5
5B69
330
A
100
AcDbEntity
  8
MODEL
  6
Continuous
100
AcDbLine
 10
134.9027726546351
 20
168.6689619265447
 30
0.0
 11
134.9027726546351
 21
192.6689479265449
 31
0.0
  0
ARC
  5
5B6A
330
A
100
AcDbEntity
  8
MODEL
  6
HIDDEN2
100
AcDbCircle
 10
408.7638311410434
 20
321.375007369178
 30
0.0
 40
11.99996509608272
100
AcDbArc
 50
306.3733250000002
 51
53.62667300000079
  0
LINE
  5
5D6A
330
A
100
AcDbEntity
  8
MODEL
100
AcDbLine
 10
127.1816507401139
 20
154.8628469200377
 30
0.0
 11
127.1816507401139
 21
206.8628469200377
 31
0.0
  0
LINE
  5
5D6B
330
A
100
AcDbEntity
  8
MODEL
  6
Continuous
100
AcDbLine
 10
139.4237631164623
 20
341.0229538105481
 30
0.0
 11
114.9237631164623
 21
341.0229538105481
 31
0.0
  0
LINE
  5
5D6C
330
A
100
AcDbEntity
  8
MODEL
  6
Continuous
100
AcDbLine
 10
153.5825120145532
 20
341.5335990428101
 30
0.0
 11
100.7825120145531
 21
341.5335990428101
 31
0.0
  0
ARC
  5
5D6D
330
A
100
AcDbEntity
  8
MODEL
  6
Continuous
100
AcDbCircle
 10
100.7825120145531
 20
342.5335990428101
 30
0.0
 40
1.0
100
AcDbArc
 50
180.0
 51
270.0
  0
ARC
  5
5D6E
330
A
100
AcDbEntity
  8
MODEL
  6
Continuous
100
AcDbCircle
 10
153.5825120145532
 20
342.5335990428101
 30
0.0
 40
1.0
100
AcDbArc
 50
270.0
 51
0.0
  0
LINE
  5
5D6F
330
A
100
AcDbEntity
  8
MODEL
  6
Continuous
100
AcDbLine
 10
99.7825120145531
 20
342.5335990428101
 30
0.0
 11
99.7825120145531
 21
348.7335990428102
 31
0.0
  0
LINE
  5
5D70
330
A
100
AcDbEntity
  8
MODEL
  6
Continuous
100
AcDbLine
 10
154.5825120145532
 20
348.7335990428102
 30
0.0
 11
154.5825120145532
 21
342.5335990428101
 31
0.0
  0
LINE
  5
5D71
330
A
100
AcDbEntity
  8
MODEL
  6
Continuous
100
AcDbLine
 10
139.4237631164623
 20
341.5335990428101
 30
0.0
 11
139.4237631164623
 21
341.226058375657
 31
0.0
  0
LINE
  5
5D72
330
A
100
AcDbEntity
  8
MODEL
  6
Continuous
100
AcDbLine
 10
139.4237631164623
 20
341.5335990428101
 30
0.0
 11
139.4237631164623
 21
341.246678442145
 31
0.0
  0
LINE
  5
5D73
330
A
100
AcDbEntity
  8
MODEL
  6
Continuous
100
AcDbLine
 10
114.9237631164623
 20
341.5335990428101
 30
0.0
 11
114.9237631164623
 21
341.226058375657
 31
0.0
  0
LINE
  5
5D74
330
A
100
AcDbEntity
  8
MODEL
  6
Continuous
100
AcDbLine
 10
114.9237631164623
 20
341.5335990428101
 30
0.0
 11
114.9237631164623
 21
341.246678442145
 31
0.0
  0
LINE
  5
5D75
330
A
100
AcDbEntity
  8
MODEL
  6
Continuous
100
AcDbLine
 10
114.9237631164623
 20
341.5335990428101
 30
0.0
 11
114.9237631164623
 21
341.065353067538
 31
0.0
  0
LINE
  5
5D76
330
A
100
AcDbEntity
  8
MODEL
  6
Continuous
100
AcDbLine
 10
114.9237631164623
 20
341.065353067538
 30
0.0
 11
114.9237631164623
 21
341.0229538105481
 31
0.0
  0
LINE
  5
5D77
330
A
100
AcDbEntity
  8
MODEL
  6
Continuous
100
AcDbLine
 10
114.9237631164623
 20
341.5335990428101
 30
0.0
 11
114.9237631164623
 21
341.1581433667342
 31
0.0
  0
LINE
  5
5D78
330
A
100
AcDbEntity
  8
MODEL
  6
Continuous
100
AcDbLine
 10
139.4237631164623
 20
341.5335990428101
 30
0.0
 11
139.4237631164623
 21
341.0229538105481
 31
0.0
  0
LINE
  5
5D79
102
{ACAD_REACTORS
330
5D83
102
}
330
A
100
AcDbEntity
  8
MODEL
  6
Continuous
100
AcDbLine
 10
99.7825120145531
 20
348.7335990428102
 30
0.0
 11
154.5825120145532
 21
348.7335990428102
 31
0.0
  0
LINE
  5
5D7A
330
A
100
AcDbEntity
  8
MODEL
  6
Continuous
100
AcDbLine
 10
133.3816507401138
 20
153.4628469200378
 30
0.0
 11
127.1816507401139
 21
153.4628469200378
 31
0.0
  0
ARC
  5
5D7F
330
A
100
AcDbEntity
  8
MODEL
  6
Continuous
100
AcDbCircle
 10
408.8919621410434
 20
321.375005369178
 30
0.0
 40
27.5
100
AcDbArc
 50
23.48408455377063
 51
336.3055605938795
  0
LINE
  5
5D80
330
A
100
AcDbEntity
  8
MODEL
  6
Continuous
100
AcDbLine
 10
127.1816507401139
 20
208.2628469200378
 30
0.0
 11
127.1816507401139
 21
153.4628469200378
 31
0.0
  0
DIMENSION
  5
5D81
102
{ACAD_REACTORS
330
5D83
102
}
102
{ACAD_XDICTIONARY
360
5D82
102
}
330
A
100
AcDbEntity
  8
寸法
  6
Continuous
100
AcDbDimension
  2
*D6
 10
83.2938107744647
 20
341.034177143836
 30
0.0
 11
78.7938107744647
 21
344.8838880933231
 31
0.0
 70
    32
 71
     5
 42
7.699421898974207
 73
     0
 74
     0
 75
     0
  3
tfrom線あり
100
AcDbAlignedDimension
 13
99.7825120145531
 23
348.7335990428102
 33
0.0
 14
115.1991885646423
 24
341.034177143836
 34
0.0
 50
90.0
100
AcDbRotatedDimension
1001
ACAD
1000
DSTYLE
1002
{
1070
   271
1070
     0
1002
}
  0
DIMENSION
  5
5D84
330
A
100
AcDbEntity
  8
寸法
  6
Continuous
100
AcDbDimension
  2
*D7
 10
359.7723564319887
 20
293.875005369178
 30
0.0
 11
359.7723564319887
 21
321.375005369178
 31
0.0
 70
   160
 71
     5
 42
55.0
 73
     0
 74
     0
 75
     0
  3
tfrom線あり
100
AcDbAlignedDimension
 13
393.1226369876691
 23
348.875005369178
 33
0.0
 14
393.1226369876691
 24
293.875005369178
 34
0.0
 50
90.0
100
AcDbRotatedDimension
1001
ACAD
1000
DSTYLE
1002
{
1070
   271
1070
     0
1070
     3
1000
φ<>
1002
}
  0
ARC
  5
5D85
330
A
100
AcDbEntity
  8
MODEL
  6
DASHED1
100
AcDbCircle
 10
408.9531428132897
 20
321.195739482332
 30
0.0
 40
27.5
100
AcDbArc
 50
336.3910372479264
 51
23.29526508500875
  0
LINE
  5
5D87
330
A
100
AcDbEntity
  8
MODEL
  6
Continuous
100
AcDbLine
 10
134.3816507401138
 20
168.6128469200377
 30
0.0
 11
134.3816507401138
 21
154.4628469200378
 31
0.0
  0
LINE
  5
5D88
330
A
100
AcDbEntity
  8
MODEL
  6
Continuous
100
AcDbLine
 10
134.3816507401138
 20
207.2628469200378
 30
0.0
 11
134.3816507401138
 21
193.1128469200377
 31
0.0
  0
ARC
  5
5D89
330
A
100
AcDbEntity
  8
MODEL
  6
Continuous
100
AcDbCircle
 10
133.3816507401138
 20
154.4628469200378
 30
0.0
 40
1.0
100
AcDbArc
 50
270.0
 51
0.0
  0
ARC
  5
5D8A
330
A
100
AcDbEntity
  8
MODEL
  6
Continuous
100
AcDbCircle
 10
133.3816507401138
 20
207.2628469200378
 30
0.0
 40
1.0
100
AcDbArc
 50
0.0
 51
90.0
  0
LINE
  5
5D8B
330
A
100
AcDbEntity
  8
MODEL
  6
Continuous
100
AcDbLine
 10
134.3816507401138
 20
168.6128469200377
 30
0.0
 11
134.3816507401138
 21
193.1128469200377
 31
0.0
  0
LINE
  5
5D8C
330
A
100
AcDbEntity
  8
MODEL
  6
Continuous
100
AcDbLine
 10
127.1816507401139
 20
208.2628469200378
 30
0.0
 11
133.3816507401138
 21
208.2628469200378
 31
0.0
  0
LINE
  5
5D8D
330
A
100
AcDbEntity
  8
MODEL
  6
Continuous
100
AcDbLine
 10
134.8816507401138
 20
168.6511043765548
 30
0.0
 11
134.8816507401138
 21
192.6868054765347
 31
0.0
  0
LINE
  5
5D8E
330
A
100
AcDbEntity
  8
MODEL
  6
Continuous
100
AcDbLine
 10
134.8816507401138
 20
192.6868054765347
 30
0.0
 11
134.8816507401138
 21
193.1132827288387
 31
0.0
  0
LINE
  5
5D8F
330
A
100
AcDbEntity
  8
MODEL
  6
Continuous
100
AcDbLine
 10
134.8816507401139
 20
169.1128469200377
 30
0.0
 11
134.8816507401139
 21
192.6128469200377
 31
0.0
  0
LINE
  5
5D90
330
A
100
AcDbEntity
  8
MODEL
  6
Continuous
100
AcDbLine
 10
134.8818376441981
 20
168.8641440028267
 30
0.0
 11
134.8818376441981
 21
192.8641440028267
 31
0.0
  0
LINE
  5
5D91
330
A
100
AcDbEntity
  8
MODEL
  6
Continuous
100
AcDbLine
 10
134.9027726546351
 20
168.8711198796608
 30
0.0
 11
134.9027726546351
 21
192.8711198796608
 31
0.0
  0
LINE
  5
5D92
330
A
100
AcDbEntity
  8
MODEL
  6
Continuous
100
AcDbLine
 10
134.3816507401138
 20
193.1050322715918
 30
0.0
 11
134.6252060816011
 21
193.1050322715918
 31
0.0
  0
LINE
  5
5D93
330
A
100
AcDbEntity
  8
MODEL
  6
Continuous
100
AcDbLine
 10
134.6252060816011
 20
193.1050322715918
 30
0.0
 11
134.9027726546351
 21
193.1050322715918
 31
0.0
  0
LINE
  5
5D94
330
A
100
AcDbEntity
  8
MODEL
  6
Continuous
100
AcDbLine
 10
134.3816507401138
 20
168.6679425127937
 30
0.0
 11
134.9027726546351
 21
168.6679425127937
 31
0.0
  0
LINE
  5
5D96
330
A
100
AcDbEntity
  8
PRINT BORDER
100
AcDbLine
 10
296.9999999999999
 20
0.0
 30
0.0
 11
296.9999999999999
 21
15.30952622855898
 31
0.0
  0
LINE
  5
5D97
330
A
100
AcDbEntity
  8
テンプレート
100
AcDbLine
 10
437.9999999999999
 20
38.27810890422097
 30
0.0
 11
15.30952622855898
 21
38.27810890422097
 31
0.0
  0
LINE
  5
5D98
330
A
100
AcDbEntity
  8
テンプレート
100
AcDbLine
 10
15.30952622855898
 20
26.22153683920783
 30
0.0
 11
578.6904737714407
 21
26.22153683920783
 31
0.0
  0
TEXT
  5
5D99
330
A
100
AcDbEntity
  8
テンプレート
100
AcDbText
 10
18.06121699514119
 20
32.16825981613692
 30
0.0
 40
3.5
  1
材質
  7
ＭＳ ゴシック
100
AcDbText
  0
TEXT
  5
5D9A
330
A
100
AcDbEntity
  8
テンプレート
100
AcDbText
 10
18.06121699514119
 20
56.50959028673083
 30
0.0
 40
3.5
  1
品名
  7
ＭＳ ゴシック
100
AcDbText
  0
TEXT
  5
5D9B
330
A
100
AcDbEntity
  8
テンプレート
100
AcDbText
 10
18.06121699514119
 20
44.65099339080098
 30
0.0
 40
3.5
  1
仕上げ
  7
ＭＳ ゴシック
100
AcDbText
  0
TEXT
  5
5D9C
330
A
100
AcDbEntity
  8
テンプレート
100
AcDbText
 10
298.8233485179306
 20
56.58523052309897
 30
0.0
 40
3.5
  1
品番
  7
ＭＳ ゴシック
100
AcDbText
  0
TEXT
  5
5D9D
330
A
100
AcDbEntity
  8
テンプレート
100
AcDbText
 10
33.59896027768343
 20
53.09440584367189
 30
0.0
 40
5.5
  1
レバーハンドル - FSB -
  7
ＭＳ ゴシック
100
AcDbText
  0
TEXT
  5
5D9E
330
A
100
AcDbEntity
  8
テンプレート
100
AcDbText
 10
313.0171205424464
 20
52.977080524553
 30
0.0
 40
5.5
  1
FSB10-1159-NC
  7
ＭＳ ゴシック
100
AcDbText
  0
LINE
  5
5D9F
330
A
100
AcDbEntity
  8
テンプレート
100
AcDbLine
 10
437.9999999999999
 20
50.16496477419605
 30
0.0
 11
15.30952622855898
 21
50.16496477419605
 31
0.0
  0
LINE
  5
5DA0
330
A
100
AcDbEntity
  8
テンプレート
100
AcDbLine
 10
578.6904737714411
 20
62.22153683920783
 30
0.0
 11
15.30952622855898
 21
62.22153683920783
 31
0.0
  0
LINE
  5
5DA1
330
A
100
AcDbEntity
  8
PRINT BORDER
100
AcDbLine
 10
593.9999999999999
 20
210.0
 30
0.0
 11
578.6904737714411
 21
210.0
 31
0.0
  0
LINE
  5
5DA2
330
A
100
AcDbEntity
  8
PRINT BORDER
100
AcDbLine
 10
0.0
 20
210.0
 30
0.0
 11
15.30952622855898
 21
210.0
 31
0.0
  0
LINE
  5
5DA3
330
A
100
AcDbEntity
  8
PRINT BORDER
100
AcDbLine
 10
296.9999999999999
 20
420.0
 30
0.0
 11
296.9999999999999
 21
404.690473771441
 31
0.0
  0
LINE
  5
5DA4
330
A
100
AcDbEntity
  8
テンプレート
100
AcDbLine
 10
578.6904737714411
 20
62.22153683920783
 30
0.0
 11
578.6904737714411
 21
26.22153683920783
 31
0.0
  0
LINE
  5
5DA5
330
A
100
AcDbEntity
  8
テンプレート
100
AcDbLine
 10
15.30952622855898
 20
62.22153683920783
 30
0.0
 11
15.30952622855898
 21
26.22153683920783
 31
0.0
  0
TEXT
  5
5DA6
330
A
100
AcDbEntity
  8
テンプレート
100
AcDbText
 10
494.9733384955217
 20
16.51938390313694
 30
0.0
 40
5.5
  1
大洋金物株式会社  
  7
ＭＳ ゴシック
100
AcDbText
  0
LINE
  5
5DA7
330
A
100
AcDbEntity
  8
テンプレート
100
AcDbLine
 10
437.9999999999999
 20
62.22153683920783
 30
0.0
 11
437.9999999999999
 21
26.22153683920783
 31
0.0
  0
LINE
  5
5DA8
330
A
100
AcDbEntity
  8
テンプレート
100
AcDbLine
 10
296.9999999999999
 20
62.22153683920783
 30
0.0
 11
296.9999999999999
 21
26.22153683920783
 31
0.0
  0
INSERT
  5
5DA9
330
A
100
AcDbEntity
  8
テンプレート
100
AcDbBlockReference
  2
名称未設定-1
 10
548.3945198859805
 20
-7.642344203993161
 30
0.0
 41
0.180975
 42
0.180975
 43
0.180975
  0
LINE
  5
5DAA
330
A
100
AcDbEntity
  8
テンプレート
100
AcDbLine
 10
15.30952622855898
 20
210.0
 30
0.0
 11
15.30952622855898
 21
26.22153683920783
 31
0.0
  0
LINE
  5
5DAB
330
A
100
AcDbEntity
  8
テンプレート
100
AcDbLine
 10
15.30952622855898
 20
210.0
 30
0.0
 11
15.30952622855898
 21
404.690473771441
 31
0.0
  0
LINE
  5
5DAC
330
A
100
AcDbEntity
  8
テンプレート
100
AcDbLine
 10
296.9999999999999
 20
404.690473771441
 30
0.0
 11
15.30952622855887
 21
404.690473771441
 31
0.0
  0
LINE
  5
5DAD
330
A
100
AcDbEntity
  8
テンプレート
100
AcDbLine
 10
296.9999999999999
 20
404.690473771441
 30
0.0
 11
578.6904737714411
 21
404.690473771441
 31
0.0
  0
LINE
  5
5DAE
330
A
100
AcDbEntity
  8
テンプレート
100
AcDbLine
 10
578.6904737714411
 20
210.0
 30
0.0
 11
578.6904737714411
 21
404.690473771441
 31
0.0
  0
LINE
  5
5DAF
330
A
100
AcDbEntity
  8
テンプレート
100
AcDbLine
 10
578.6904737714411
 20
210.0
 30
0.0
 11
578.6904737714411
 21
26.22153683920783
 31
0.0
  0
LWPOLYLINE
  5
5DB0
330
A
100
AcDbEntity
  8
PRINT BORDER
  6
HIDDEN
 48
3.0
100
AcDbPolyline
 90
        4
 70
     1
 43
0.0
 10
0.0
 20
0.0
 10
0.0
 20
420.0
 10
593.9999999999999
 20
420.0
 10
593.9999999999999
 20
0.0
  0
TEXT
  5
5DB1
330
A
100
AcDbEntity
  8
テンプレート
100
AcDbText
 10
298.7989156222221
 20
32.62405342819488
 30
0.0
 40
3.5
  1
縮尺
  7
ＭＳ ゴシック
100
AcDbText
  0
TEXT
  5
5DB2
330
A
100
AcDbEntity
  8
テンプレート
100
AcDbText
 10
313.0171205424464
 20
28.29362070227194
 30
0.0
 40
5.5
  1
1/2
  7
ＭＳ ゴシック
100
AcDbText
  0
TEXT
  5
5DB3
330
A
100
AcDbEntity
  8
テンプレート
100
AcDbText
 10
298.8233485179306
 20
44.52865845808583
 30
0.0
 40
3.5
  1
扉厚
  7
ＭＳ ゴシック
100
AcDbText
  0
TEXT
  5
5DB4
330
A
100
AcDbEntity
  8
テンプレート
100
AcDbText
 10
440.0887524673468
 20
56.58523052309897
 30
0.0
 40
3.5
  1
備考
  7
ＭＳ ゴシック
100
AcDbText
  0
TEXT
  5
5DB5
330
A
100
AcDbEntity
  8
テンプレート
100
AcDbText
 10
449.0017237694899
 20
47.28154793898159
 30
0.0
 40
5.5
  1
取付方＝呼込み(ビス付)
  7
ＭＳ ゴシック
100
AcDbText
  0
CIRCLE
  5
5DB6
102
{ACAD_REACTORS
330
5DC6
102
}
330
A
100
AcDbEntity
  8
CutoutOverlay
100
AcDbCircle
 10
427.8721245115549
 20
180.8628469200378
 30
0.0
 40
5.0
  0
CIRCLE
  5
5DB7
102
{ACAD_REACTORS
330
5DC6
102
}
330
A
100
AcDbEntity
  8
CutoutOverlay
100
AcDbCircle
 10
389.8721245115548
 20
180.8628469200378
 30
0.0
 40
5.0
  0
CIRCLE
  5
5DB8
102
{ACAD_REACTORS
330
5DC2
330
5DC5
330
5DC6
102
}
330
A
100
AcDbEntity
  8
CutoutOverlay
100
AcDbCircle
 10
408.8721245115548
 20
180.8628469200378
 30
0.0
 40
14.0
  0
DIMENSION
  5
5DB9
330
A
100
AcDbEntity
  8
寸法
100
AcDbDimension
  2
*D8
 10
389.8721245115548
 20
144.5573006134969
 30
0.0
 11
376.2146245115548
 21
144.5573006134969
 31
0.0
 70
   160
  1
 
 71
     5
 42
38.00000000000017
 73
     0
 74
     1
 75
     1
  3
tfrom線あり
100
AcDbAlignedDimension
 13
427.8721245115549
 23
177.3452081951892
 33
0.0
 14
389.8721245115548
 24
177.3452081951892
 34
0.0
100
AcDbRotatedDimension
1001
ACAD
1000
DSTYLE
1002
{
1070
   172
1070
     1
1002
}
  0
DIMENSION
  5
5DBA
330
A
100
AcDbEntity
  8
寸法
100
AcDbDimension
  2
*D9
 10
408.8721245115548
 20
213.8023335341042
 30
0.0
 11
399.3721245115548
 21
218.3023335341042
 31
0.0
 70
    32
 71
     5
 42
19.0
 73
     0
 74
     0
 75
     0
  3
tfrom線あり
100
AcDbAlignedDimension
 13
389.8721245115548
 23
186.0157099566222
 33
0.0
 14
408.8721245115548
 24
200.1912224768317
 34
0.0
100
AcDbRotatedDimension
  0
DIMENSION
  5
5DBB
330
A
100
AcDbEntity
  8
寸法
100
AcDbDimension
  2
*D10
 10
427.8721245115549
 20
213.8023335341042
 30
0.0
 11
418.3721245115548
 21
218.3023335341042
 31
0.0
 70
    32
 71
     5
 42
19.00000000000017
 73
     0
 74
     0
 75
     0
  3
tfrom線あり
100
AcDbAlignedDimension
 13
408.8721245115548
 23
200.1912224768317
 33
0.0
 14
427.8721245115549
 24
186.0157099566222
 34
0.0
100
AcDbRotatedDimension
  0
DIMENSION
  5
5DBC
330
A
100
AcDbEntity
  8
寸法
100
AcDbDimension
  2
*D11
 10
146.1825120145531
 20
365.9906564456901
 30
0.0
 11
127.1825120145531
 21
370.4906564456901
 31
0.0
 70
    32
 71
     5
 42
38.00000000000003
 73
     0
 74
     0
 75
     0
  3
tfrom線あり
100
AcDbAlignedDimension
 13
108.1825120145531
 23
351.4345575436565
 33
0.0
 14
146.1825120145531
 24
351.4345575436565
 34
0.0
100
AcDbRotatedDimension
  0
LINE
  5
5DBD
330
A
100
AcDbEntity
  8
寸法
  6
CENTER
 48
0.5
100
AcDbLine
 10
108.1825120145531
 20
351.4345575436565
 30
0.0
 11
108.1825120145531
 21
345.8123890105663
 31
0.0
  0
LINE
  5
5DBE
330
A
100
AcDbEntity
  8
寸法
  6
CENTER
 48
0.5
100
AcDbLine
 10
146.1825120145531
 20
351.4345575436565
 30
0.0
 11
146.1825120145531
 21
345.8123890105663
 31
0.0
  0
TEXT
  5
5DBF
330
A
100
AcDbEntity
  8
寸法
100
AcDbText
 10
348.1659509202454
 20
231.4229447852761
 30
0.0
 40
5.0
  1
<切欠図>
  7
ＭＳ ゴシック
100
AcDbText
  0
LEADER
  5
5DC0
102
{ACAD_REACTORS
330
5DC2
102
}
102
{ACAD_XDICTIONARY
360
5DC1
102
}
330
A
100
AcDbEntity
  8
寸法
100
AcDbLeader
  3
tfrom線あり
 76
     3
 10
408.8721245115548
 20
194.8628469200378
 30
0.0
 10
408.8721245115548
 20
200.7337752882269
 30
0.0
 10
447.9531070495427
 20
200.7337752882269
 30
0.0
  0
LEADER
  5
5DC3
102
{ACAD_REACTORS
330
5DC5
102
}
102
{ACAD_XDICTIONARY
360
5DC4
102
}
330
A
100
AcDbEntity
  8
寸法
100
AcDbLeader
  3
tfrom線あり
 76
     3
 10
408.8721245115548
 20
180.8628469200378
 30
0.0
 10
442.1530114131083
 20
156.5669494488204
 30
0.0
 10
510.1082899407156
 20
156.5669494488204
 30
0.0
  0
HATCH
  5
5DC6
330
A
100
AcDbEntity
  8
CutoutOverlay
100
AcDbHatch
 10
0.0
 20
0.0
 30
0.0
210
0.0
220
0.0
230
1.0
  2
ANSI31
 70
     0
 71
     1
 91
        3
 92
        1
 93
        1
 72
     2
 10
389.8721245115548
 20
180.8628469200378
 40
5.0
 50
0.0
 51
360.0
 73
     1
 97
        1
330
5DB7
 92
        1
 93
        1
 72
     2
 10
408.8721245115548
 20
180.8628469200378
 40
14.0
 50
0.0
 51
360.0
 73
     1
 97
        1
330
5DB8
 92
        1
 93
        1
 72
     2
 10
427.8721245115549
 20
180.8628469200378
 40
5.0
 50
0.0
 51
360.0
 73
     1
 97
        1
330
5DB6
 75
     0
 76
     1
 52
0.0
 41
1.0
 77
     0
 78
     1
 53
45.0
 43
0.0
 44
0.0
 45
-2.245064030267288
 46
2.245064030267288
 79
     0
 98
        1
 10
0.0
 20
0.0
1001
ACAD
1010
0.0
1020
0.0
1030
0.0
  0
TEXT
  5
5DC7
330
A
100
AcDbEntity
  8
寸法
100
AcDbText
 10
443.7339484827306
 20
159.2024023985158
 30
0.0
 40
5.0
  1
レバー角芯 センター
  7
ＭＳ ゴシック
100
AcDbText
  0
TEXT
  5
5DC8
330
A
100
AcDbEntity
  8
寸法
100
AcDbText
 10
438.0695551162909
 20
203.042649715703
 30
0.0
 40
5.0
  1
ø28
  7
ＭＳ ゴシック
100
AcDbText
  0
TEXT
  5
5DC9
330
A
100
AcDbEntity
  8
寸法
100
AcDbText
 10
375.8306164726592
 20
147.0523164739852
 30
0.0
 40
5.0
  1
ø10
  7
ＭＳ ゴシック
100
AcDbText
  0
ARC
  5
5DCA
330
A
100
AcDbEntity
  8
CutoutUnderlay
  6
STYLE_02
100
AcDbCircle
 10
408.8721245115548
 20
180.8628469200378
 30
0.0
 40
12.0
100
AcDbArc
 50
179.9992630000003
 51
180.4691690000001
  0
LINE
  5
5DCB
330
A
100
AcDbEntity
  8
CutoutUnderlay
  6
STYLE_02
100
AcDbLine
 10
396.8725355115549
 20
180.7716399200376
 30
0.0
 11
396.8725265115548
 21
180.7645849200378
 31
0.0
  0
DIMENSION
  5
5DCC
330
A
100
AcDbEntity
  8
寸法
  6
Continuous
100
AcDbDimension
  2
*D12
 10
134.8812214791989
 20
139.2647026849567
 30
0.0
 11
141.6643088333743
 21
139.2647026849567
 31
0.0
 70
   160
 71
     5
 42
7.699570739085004
 73
     0
 74
     1
 75
     1
  3
tfrom線あり
100
AcDbAlignedDimension
 13
127.1816507401139
 23
153.4628469200378
 33
0.0
 14
134.8812214791989
 24
168.6679425127937
 34
0.0
100
AcDbRotatedDimension
1001
ACAD
1000
DSTYLE
1002
{
1070
   172
1070
     1
1070
   175
1070
     1
1070
   174
1070
     1
1070
     3
1000
<>
1070
   271
1070
     0
1002
}
  0
TEXT
  5
5DCD
330
A
100
AcDbEntity
  8
テンプレート
100
AcDbText
 10
313.0505831322697
 20
44.82304125840494
 30
0.0
 40
4.0
  1
MIWAケース：37～54
  7
ＭＳ ゴシック
100
AcDbText
  0
TEXT
  5
5DCE
330
A
100
AcDbEntity
  8
テンプレート
100
AcDbText
 10
313.0505831322697
 20
39.8279918743558
 30
0.0
 40
4.0
  1
ユーロケース(DIN規格)：36～54
  7
ＭＳ ゴシック
100
AcDbText
  0
LINE
  5
5DCF
330
A
100
AcDbEntity
  8
MODEL
  6
Continuous
100
AcDbLine
 10
103.9325120145531
 20
348.7335990428102
 30
0.0
 11
105.7332807982266
 21
354.7335990428102
 31
0.0
  0
LINE
  5
5DD0
330
A
100
AcDbEntity
  8
MODEL
  6
Continuous
100
AcDbLine
 10
110.6317432308796
 20
354.7335990428102
 30
0.0
 11
105.7332807982266
 21
354.7335990428102
 31
0.0
  0
LINE
  5
5DD1
330
A
100
AcDbEntity
  8
MODEL
  6
Continuous
100
AcDbLine
 10
112.4325120145531
 20
348.7335990428102
 30
0.0
 11
110.6317432308797
 21
354.7335990428102
 31
0.0
  0
LINE
  5
5DD2
330
A
100
AcDbEntity
  8
MODEL
  6
Continuous
100
AcDbLine
 10
141.9325120145531
 20
348.7335990428102
 30
0.0
 11
143.7332807982266
 21
354.7335990428102
 31
0.0
  0
LINE
  5
5DD3
330
A
100
AcDbEntity
  8
MODEL
  6
Continuous
100
AcDbLine
 10
148.6317432308796
 20
354.7335990428102
 30
0.0
 11
143.7332807982266
 21
354.7335990428102
 31
0.0
  0
LINE
  5
5DD4
330
A
100
AcDbEntity
  8
MODEL
  6
Continuous
100
AcDbLine
 10
150.4325120145531
 20
348.7335990428102
 30
0.0
 11
148.6317432308797
 21
354.7335990428102
 31
0.0
  0
DIMENSION
  5
5DD5
330
A
100
AcDbEntity
  8
寸法
  6
Continuous
100
AcDbDimension
  2
*D13
 10
112.4325120145531
 20
378.7852477434632
 30
0.0
 11
108.1825120145531
 21
378.7852477434632
 31
0.0
 70
   160
 71
     5
 42
8.5
 73
     0
 74
     0
 75
     0
  3
tfrom線あり
100
AcDbAlignedDimension
 13
103.9325120145531
 23
367.0686993856673
 33
0.0
 14
112.4325120145531
 24
367.0686993856673
 34
0.0
100
AcDbRotatedDimension
1001
ACAD
1000
DSTYLE
1002
{
1070
   271
1070
     1
1002
}
  0
DIMENSION
  5
5DD6
330
A
100
AcDbEntity
  8
寸法
  6
Continuous
100
AcDbDimension
  2
*D14
 10
169.1440199581582
 20
348.7335990428102
 30
0.0
 11
169.1440199581582
 21
351.7335990428102
 31
0.0
 70
   160
 71
     5
 42
6.0
 73
     0
 74
     0
 75
     0
  3
tfrom線あり
100
AcDbAlignedDimension
 13
148.7210231602584
 23
354.7335990428102
 33
0.0
 14
154.4759396838725
 24
348.7335990428102
 34
0.0
 50
90.0
100
AcDbRotatedDimension
  0
LINE
  5
5DD7
330
A
100
AcDbEntity
  8
MODEL
  6
Continuous
100
AcDbLine
 10
127.1816507401139
 20
185.1128469200377
 30
0.0
 11
121.181650740114
 21
183.3120781363643
 31
0.0
  0
LINE
  5
5DD8
330
A
100
AcDbEntity
  8
MODEL
  6
Continuous
100
AcDbLine
 10
121.1816507401139
 20
183.3120781363642
 30
0.0
 11
121.1816507401139
 21
178.4136157037112
 31
0.0
  0
LINE
  5
5DD9
330
A
100
AcDbEntity
  8
MODEL
  6
Continuous
100
AcDbLine
 10
127.1816507401139
 20
176.6128469200377
 30
0.0
 11
121.181650740114
 21
178.4136157037112
 31
0.0
  0
TEXT
  5
5DDA
330
A
100
AcDbEntity
  8
テンプレート
100
AcDbText
 10
187.3255251873665
 20
95.58845453164054
 30
0.0
 40
5.0
  1
　 加工は現物合わせの上行って下さい。
  7
ＭＳ ゴシック
100
AcDbText
  0
TEXT
  5
5DDB
330
A
100
AcDbEntity
  8
テンプレート
100
AcDbText
 10
187.4977682695751
 20
103.6922386277807
 30
0.0
 40
5.0
  1
※ 輸入製品の為、国内製品と比べ製品寸法の個体差に幅が有ります。
  7
ＭＳ ゴシック
100
AcDbText
  0
TEXT
  5
5DDC
330
A
100
AcDbEntity
  8
テンプレート
100
AcDbText
 10
187.3255251873665
 20
86.21682322716003
 30
0.0
 40
5.0
  1
※ ご注文の際は正確な扉厚の指示をしてください。
  7
ＭＳ ゴシック
100
AcDbText
  0
TEXT
  5
5DDD
330
A
100
AcDbEntity
  8
テンプレート
100
AcDbText
 10
187.3255251873665
 20
77.51733459617412
 30
0.0
 40
5.0
  1
※ イモネジ・ビスのゆるみ止め防止のために金属製ネジ用ゆるみ止め剤(中強度タイプ)
  7
ＭＳ ゴシック
100
AcDbText
  0
TEXT
  5
5DDE
330
A
100
AcDbEntity
  8
テンプレート
100
AcDbText
 10
183.5610795085161
 20
68.07646144979788
 30
0.0
 40
5.0
  1
　　を用意して塗布してください。(推奨商品　住友3M社TL42J等)
  7
ＭＳ ゴシック
100
AcDbText
  0
LINE
  5
5DEF
330
A
100
AcDbEntity
  8
テンプレート
100
AcDbLine
 10
33.63100153769659
 20
26.22153683920783
 30
0.0
 11
33.63100153769659
 21
50.16496477419605
 31
0.0
  0
MTEXT
  5
5DF0
102
{ACAD_XDICTIONARY
360
5DF1
102
}
330
A
100
AcDbEntity
  8
寸法
  6
Continuous
370
     0
100
AcDbMText
 10
16.270957131364
 20
24.16835548392618
 30
0.0
 40
4.0
 41
0.0
 46
4.0
 71
     1
 72
     1
  1
{20180406N}
  7
ＭＳ ゴシック
 73
     1
 44
1.0
1001
ACAD
1000
ACAD_MTEXT_DEFINED_HEIGHT_BEGIN
1070
    46
1040
4.0
1000
ACAD_MTEXT_DEFINED_HEIGHT_END
  0
LINE
  5
5E71
330
A
100
AcDbEntity
  8
MODEL
  6
Continuous
100
AcDbLine
 10
150.9492856546352
 20
169.3987489265447
 30
0.0
 11
150.9835876546352
 21
169.5374449265447
 31
0.0
  0
LINE
  5
5E72
330
A
100
AcDbEntity
  8
MODEL
  6
Continuous
100
AcDbLine
 10
150.9835876546352
 20
169.5374449265447
 30
0.0
 11
151.1069086546353
 21
169.7722589265447
 31
0.0
  0
LINE
  5
5E73
330
A
100
AcDbEntity
  8
MODEL
  6
Continuous
100
AcDbLine
 10
151.1069086546353
 20
169.7722589265447
 30
0.0
 11
151.3332266546353
 21
170.0941659265447
 31
0.0
  0
LINE
  5
5E74
330
A
100
AcDbEntity
  8
MODEL
  6
Continuous
100
AcDbLine
 10
151.3332266546353
 20
170.0941659265447
 30
0.0
 11
151.6829586546352
 21
170.4846909265447
 31
0.0
  0
LINE
  5
5E75
330
A
100
AcDbEntity
  8
MODEL
  6
Continuous
100
AcDbLine
 10
151.6829586546352
 20
170.4846909265447
 30
0.0
 11
152.1725826546352
 21
170.9132309265447
 31
0.0
  0
LINE
  5
5E76
330
A
100
AcDbEntity
  8
MODEL
  6
Continuous
100
AcDbLine
 10
152.1725826546352
 20
170.9132309265447
 30
0.0
 11
152.8071646546351
 21
171.3366179265447
 31
0.0
  0
LINE
  5
5E77
330
A
100
AcDbEntity
  8
MODEL
  6
Continuous
100
AcDbLine
 10
152.8071646546351
 20
171.3366179265447
 30
0.0
 11
153.5702566546353
 21
171.7090709265447
 31
0.0
  0
LINE
  5
5E78
330
A
100
AcDbEntity
  8
MODEL
  6
Continuous
100
AcDbLine
 10
153.5702566546353
 20
171.7090709265447
 30
0.0
 11
154.4307006546352
 21
171.9944529265447
 31
0.0
  0
LINE
  5
5E79
330
A
100
AcDbEntity
  8
MODEL
  6
Continuous
100
AcDbLine
 10
154.4307006546352
 20
171.9944529265447
 30
0.0
 11
155.3524226546352
 21
172.1710749265447
 31
0.0
  0
LINE
  5
5E7A
330
A
100
AcDbEntity
  8
MODEL
  6
Continuous
100
AcDbLine
 10
155.3524226546352
 20
172.1710749265447
 30
0.0
 11
156.3368896546352
 21
172.2297209265447
 31
0.0
  0
LINE
  5
5E7B
330
A
100
AcDbEntity
  8
MODEL
  6
Continuous
100
AcDbLine
 10
175.849645654635
 20
172.0644789265447
 30
0.0
 11
176.8252926546349
 21
172.0470649265447
 31
0.0
  0
LINE
  5
5E7C
330
A
100
AcDbEntity
  8
MODEL
  6
Continuous
100
AcDbLine
 10
176.8252926546349
 20
172.0470649265447
 30
0.0
 11
177.770147654635
 21
172.0189349265447
 31
0.0
  0
LINE
  5
5E7D
330
A
100
AcDbEntity
  8
MODEL
  6
Continuous
100
AcDbLine
 10
177.770147654635
 20
172.0189349265447
 30
0.0
 11
178.6700496546349
 21
171.9807359265447
 31
0.0
  0
LINE
  5
5E7E
330
A
100
AcDbEntity
  8
MODEL
  6
Continuous
100
AcDbLine
 10
178.6700496546349
 20
171.9807359265447
 30
0.0
 11
179.511113654635
 21
171.9331789265447
 31
0.0
  0
LINE
  5
5E7F
330
A
100
AcDbEntity
  8
MODEL
  6
Continuous
100
AcDbLine
 10
179.511113654635
 20
171.9331789265447
 30
0.0
 11
180.280706654635
 21
171.8772289265447
 31
0.0
  0
LINE
  5
5E80
330
A
100
AcDbEntity
  8
MODEL
  6
Continuous
100
AcDbLine
 10
180.280706654635
 20
171.8772289265447
 30
0.0
 11
180.966436654635
 21
171.8139269265447
 31
0.0
  0
LINE
  5
5E81
330
A
100
AcDbEntity
  8
MODEL
  6
Continuous
100
AcDbLine
 10
180.966436654635
 20
171.8139269265447
 30
0.0
 11
181.555150654635
 21
171.7443809265447
 31
0.0
  0
LINE
  5
5E82
330
A
100
AcDbEntity
  8
MODEL
  6
Continuous
100
AcDbLine
 10
181.555150654635
 20
171.7443809265447
 30
0.0
 11
182.032232654635
 21
171.6697129265447
 31
0.0
  0
LINE
  5
5E83
330
A
100
AcDbEntity
  8
MODEL
  6
Continuous
100
AcDbLine
 10
182.032232654635
 20
171.6697129265447
 30
0.0
 11
182.3759216546349
 21
171.5907969265447
 31
0.0
  0
LINE
  5
5E84
330
A
100
AcDbEntity
  8
MODEL
  6
Continuous
100
AcDbLine
 10
170.4709526546342
 20
190.3629199265448
 30
0.0
 11
171.6630916546342
 21
190.3758869265448
 31
0.0
  0
LINE
  5
5E85
330
A
100
AcDbEntity
  8
MODEL
  6
Continuous
100
AcDbLine
 10
171.6630916546342
 20
190.3758869265448
 30
0.0
 11
172.8223016546342
 21
190.3995779265448
 31
0.0
  0
LINE
  5
5E86
330
A
100
AcDbEntity
  8
MODEL
  6
Continuous
100
AcDbLine
 10
172.8223016546342
 20
190.3995779265448
 30
0.0
 11
173.9277706546342
 21
190.4337029265448
 31
0.0
  0
LINE
  5
5E87
330
A
100
AcDbEntity
  8
MODEL
  6
Continuous
100
AcDbLine
 10
173.9277706546342
 20
190.4337029265448
 30
0.0
 11
174.9585626546342
 21
190.4776659265448
 31
0.0
  0
LINE
  5
5E88
330
A
100
AcDbEntity
  8
MODEL
  6
Continuous
100
AcDbLine
 10
174.9585626546342
 20
190.4776659265448
 30
0.0
 11
175.8942016546342
 21
190.5303719265448
 31
0.0
  0
LINE
  5
5E89
330
A
100
AcDbEntity
  8
MODEL
  6
Continuous
100
AcDbLine
 10
175.8942016546342
 20
190.5303719265448
 30
0.0
 11
176.7165886546342
 21
190.5904559265448
 31
0.0
  0
LINE
  5
5E8A
330
A
100
AcDbEntity
  8
MODEL
  6
Continuous
100
AcDbLine
 10
176.7165886546342
 20
190.5904559265448
 30
0.0
 11
177.4113216546342
 21
190.6562759265448
 31
0.0
  0
LINE
  5
5E8B
330
A
100
AcDbEntity
  8
MODEL
  6
Continuous
100
AcDbLine
 10
177.4113216546342
 20
190.6562759265448
 30
0.0
 11
177.9676876546342
 21
190.7261439265448
 31
0.0
  0
LINE
  5
5E8C
330
A
100
AcDbEntity
  8
MODEL
  6
Continuous
100
AcDbLine
 10
177.9676876546342
 20
190.7261439265448
 30
0.0
 11
178.3938956546342
 21
190.8013719265448
 31
0.0
  0
LINE
  5
5E8D
330
A
100
AcDbEntity
  8
MODEL
  6
Continuous
100
AcDbLine
 10
150.9493156546349
 20
191.9396239265447
 30
0.0
 11
150.9832206546349
 21
191.8013329265447
 31
0.0
  0
LINE
  5
5E8E
330
A
100
AcDbEntity
  8
MODEL
  6
Continuous
100
AcDbLine
 10
150.9832206546349
 20
191.8013329265447
 30
0.0
 11
151.106206654635
 21
191.5667919265447
 31
0.0
  0
LINE
  5
5E8F
330
A
100
AcDbEntity
  8
MODEL
  6
Continuous
100
AcDbLine
 10
151.106206654635
 20
191.5667919265447
 30
0.0
 11
151.332250654635
 21
191.2450009265447
 31
0.0
  0
LINE
  5
5E90
330
A
100
AcDbEntity
  8
MODEL
  6
Continuous
100
AcDbLine
 10
151.332250654635
 20
191.2450009265447
 30
0.0
 11
151.681737654635
 21
190.8544379265447
 31
0.0
  0
LINE
  5
5E91
330
A
100
AcDbEntity
  8
MODEL
  6
Continuous
100
AcDbLine
 10
151.681737654635
 20
190.8544379265447
 30
0.0
 11
152.1712706546349
 21
190.4257019265447
 31
0.0
  0
LINE
  5
5E92
330
A
100
AcDbEntity
  8
MODEL
  6
Continuous
100
AcDbLine
 10
152.1712706546349
 20
190.4257019265447
 30
0.0
 11
152.805913654635
 21
190.0020169265447
 31
0.0
  0
LINE
  5
5E93
330
A
100
AcDbEntity
  8
MODEL
  6
Continuous
100
AcDbLine
 10
152.805913654635
 20
190.0020169265447
 30
0.0
 11
153.569249654635
 21
189.6292469265447
 31
0.0
  0
LINE
  5
5E94
330
A
100
AcDbEntity
  8
MODEL
  6
Continuous
100
AcDbLine
 10
153.569249654635
 20
189.6292469265447
 30
0.0
 11
154.4301206546351
 21
189.3436089265447
 31
0.0
  0
LINE
  5
5E95
330
A
100
AcDbEntity
  8
MODEL
  6
Continuous
100
AcDbLine
 10
154.4301206546351
 20
189.3436089265447
 30
0.0
 11
155.352330654635
 21
189.1668449265447
 31
0.0
  0
LINE
  5
5E96
330
A
100
AcDbEntity
  8
MODEL
  6
Continuous
100
AcDbLine
 10
155.352330654635
 20
189.1668449265447
 30
0.0
 11
156.336889654635
 21
189.1081889265447
 31
0.0
  0
LINE
  5
5E97
330
A
100
AcDbEntity
  8
MODEL
  6
Continuous
100
AcDbLine
 10
182.3759216546351
 20
189.7471119265448
 30
0.0
 11
182.0336356546352
 21
189.6684549265449
 31
0.0
  0
LINE
  5
5E98
330
A
100
AcDbEntity
  8
MODEL
  6
Continuous
100
AcDbLine
 10
182.0336356546352
 20
189.6684549265449
 30
0.0
 11
181.5569516546352
 21
189.5937729265449
 31
0.0
  0
LINE
  5
5E99
330
A
100
AcDbEntity
  8
MODEL
  6
Continuous
100
AcDbLine
 10
181.5569516546352
 20
189.5937729265449
 30
0.0
 11
180.9686636546352
 21
189.5242139265449
 31
0.0
  0
LINE
  5
5E9A
330
A
100
AcDbEntity
  8
MODEL
  6
Continuous
100
AcDbLine
 10
180.9686636546352
 20
189.5242139265449
 30
0.0
 11
180.2833006546351
 21
189.4608899265448
 31
0.0
  0
LINE
  5
5E9B
330
A
100
AcDbEntity
  8
MODEL
  6
Continuous
100
AcDbLine
 10
180.2833006546351
 20
189.4608899265448
 30
0.0
 11
179.5139216546353
 21
189.4049129265449
 31
0.0
  0
LINE
  5
5E9C
330
A
100
AcDbEntity
  8
MODEL
  6
Continuous
100
AcDbLine
 10
179.5139216546353
 20
189.4049129265449
 30
0.0
 11
178.6731016546352
 21
189.3573249265448
 31
0.0
  0
LINE
  5
5E9D
330
A
100
AcDbEntity
  8
MODEL
  6
Continuous
100
AcDbLine
 10
178.6731016546352
 20
189.3573249265448
 30
0.0
 11
177.7734736546353
 21
189.3190839265448
 31
0.0
  0
LINE
  5
5E9E
330
A
100
AcDbEntity
  8
MODEL
  6
Continuous
100
AcDbLine
 10
177.7734736546353
 20
189.3190839265448
 30
0.0
 11
176.8287716546353
 21
189.2909229265449
 31
0.0
  0
LINE
  5
5E9F
330
A
100
AcDbEntity
  8
MODEL
  6
Continuous
100
AcDbLine
 10
176.8287716546353
 20
189.2909229265449
 30
0.0
 11
175.8496456546352
 21
189.2734309265448
 31
0.0
  0
LINE
  5
5EA0
330
A
100
AcDbEntity
  8
MODEL
  6
Continuous
100
AcDbLine
 10
184.2844596546353
 20
173.3423699265448
 30
0.0
 11
184.2025816546352
 21
174.5972829265448
 31
0.0
  0
LINE
  5
5EA1
330
A
100
AcDbEntity
  8
MODEL
  6
Continuous
100
AcDbLine
 10
184.2025816546352
 20
174.5972829265448
 30
0.0
 11
184.1365416546352
 21
175.9337909265448
 31
0.0
  0
LINE
  5
5EA2
330
A
100
AcDbEntity
  8
MODEL
  6
Continuous
100
AcDbLine
 10
184.1365416546352
 20
175.9337909265448
 30
0.0
 11
184.0872246546352
 21
177.3339329265449
 31
0.0
  0
LINE
  5
5EA3
330
A
100
AcDbEntity
  8
MODEL
  6
Continuous
100
AcDbLine
 10
184.0872246546352
 20
177.3339329265449
 30
0.0
 11
184.0553036546352
 21
178.7788939265448
 31
0.0
  0
LINE
  5
5EA4
330
A
100
AcDbEntity
  8
MODEL
  6
Continuous
100
AcDbLine
 10
184.0553036546352
 20
178.7788939265448
 30
0.0
 11
184.0404716546352
 21
180.6689549265448
 31
0.0
  0
LINE
  5
5EA5
330
A
100
AcDbEntity
  8
MODEL
  6
Continuous
100
AcDbLine
 10
184.0404716546353
 20
180.6689549265447
 30
0.0
 11
184.0494746546353
 21
182.1429359265447
 31
0.0
  0
LINE
  5
5EA6
330
A
100
AcDbEntity
  8
MODEL
  6
Continuous
100
AcDbLine
 10
184.0494746546353
 20
182.1429359265447
 30
0.0
 11
184.0763606546353
 21
183.5971089265447
 31
0.0
  0
LINE
  5
5EA7
330
A
100
AcDbEntity
  8
MODEL
  6
Continuous
100
AcDbLine
 10
184.0763606546353
 20
183.5971089265447
 30
0.0
 11
184.1207946546352
 21
185.0119309265447
 31
0.0
  0
LINE
  5
5EA8
330
A
100
AcDbEntity
  8
MODEL
  6
Continuous
100
AcDbLine
 10
184.1207946546352
 20
185.0119309265447
 30
0.0
 11
184.1821646546354
 21
186.3683889265447
 31
0.0
  0
LINE
  5
5EA9
330
A
100
AcDbEntity
  8
MODEL
  6
Continuous
100
AcDbLine
 10
184.1821646546354
 20
186.3683889265447
 30
0.0
 11
184.2844596546353
 21
187.9955399265447
 31
0.0
  0
LINE
  5
5EAA
330
A
100
AcDbEntity
  8
MODEL
  6
Continuous
100
AcDbLine
 10
156.3305716546353
 20
190.2995859265447
 30
0.0
 11
155.7736566546351
 21
190.3145909265447
 31
0.0
  0
LINE
  5
5EAB
330
A
100
AcDbEntity
  8
MODEL
  6
Continuous
100
AcDbLine
 10
155.7736566546351
 20
190.3145909265447
 30
0.0
 11
155.2244016546352
 21
190.3622949265447
 31
0.0
  0
LINE
  5
5EAC
330
A
100
AcDbEntity
  8
MODEL
  6
Continuous
100
AcDbLine
 10
155.2244016546352
 20
190.3622949265447
 30
0.0
 11
154.6894286546352
 21
190.4410409265447
 31
0.0
  0
LINE
  5
5EAD
330
A
100
AcDbEntity
  8
MODEL
  6
Continuous
100
AcDbLine
 10
154.6894286546352
 20
190.4410409265447
 30
0.0
 11
154.1745966546351
 21
190.5483069265447
 31
0.0
  0
LINE
  5
5EAE
330
A
100
AcDbEntity
  8
MODEL
  6
Continuous
100
AcDbLine
 10
154.1745966546351
 20
190.5483069265447
 30
0.0
 11
153.6863156546352
 21
190.6804349265447
 31
0.0
  0
LINE
  5
5EAF
330
A
100
AcDbEntity
  8
MODEL
  6
Continuous
100
AcDbLine
 10
153.6863156546352
 20
190.6804349265447
 30
0.0
 11
153.2310546546352
 21
190.8325099265447
 31
0.0
  0
LINE
  5
5EB0
330
A
100
AcDbEntity
  8
MODEL
  6
Continuous
100
AcDbLine
 10
153.2310546546352
 20
190.8325099265447
 30
0.0
 11
152.8134216546351
 21
190.9982739265447
 31
0.0
  0
LINE
  5
5EB1
330
A
100
AcDbEntity
  8
MODEL
  6
Continuous
100
AcDbLine
 10
152.8134216546351
 20
190.9982739265447
 30
0.0
 11
152.4380856546352
 21
191.1707179265447
 31
0.0
  0
LINE
  5
5EB2
330
A
100
AcDbEntity
  8
MODEL
  6
Continuous
100
AcDbLine
 10
152.4380856546352
 20
191.1707179265447
 30
0.0
 11
152.1072746546353
 21
191.3431849265447
 31
0.0
  0
LINE
  5
5EB3
330
A
100
AcDbEntity
  8
MODEL
  6
Continuous
100
AcDbLine
 10
152.1072746546353
 20
191.3431849265447
 30
0.0
 11
151.8184256546352
 21
191.5105399265447
 31
0.0
  0
LINE
  5
5EB4
330
A
100
AcDbEntity
  8
MODEL
  6
Continuous
100
AcDbLine
 10
151.8184256546352
 20
191.5105399265447
 30
0.0
 11
151.5686706546352
 21
191.6683679265447
 31
0.0
  0
LINE
  5
5EB5
330
A
100
AcDbEntity
  8
MODEL
  6
Continuous
100
AcDbLine
 10
151.5686706546352
 20
191.6683679265447
 30
0.0
 11
151.3545586546352
 21
191.8131129265447
 31
0.0
  0
LINE
  5
5EB6
330
A
100
AcDbEntity
  8
MODEL
  6
Continuous
100
AcDbLine
 10
151.3545586546352
 20
191.8131129265447
 30
0.0
 11
151.1681576546351
 21
191.9452969265447
 31
0.0
  0
LINE
  5
5EB7
330
A
100
AcDbEntity
  8
MODEL
  6
Continuous
100
AcDbLine
 10
151.1681576546351
 20
191.9452969265447
 30
0.0
 11
150.9976256546353
 21
192.0685469265447
 31
0.0
  0
LINE
  5
5EB8
330
A
100
AcDbEntity
  8
MODEL
  6
Continuous
100
AcDbLine
 10
150.9976256546353
 20
192.0685469265447
 30
0.0
 11
150.8320976546353
 21
192.1863999265447
 31
0.0
  0
LINE
  5
5EB9
330
A
100
AcDbEntity
  8
MODEL
  6
Continuous
100
AcDbLine
 10
150.8320976546353
 20
192.1863999265447
 30
0.0
 11
150.6456966546352
 21
192.3096529265447
 31
0.0
  0
LINE
  5
5EBA
330
A
100
AcDbEntity
  8
MODEL
  6
Continuous
100
AcDbLine
 10
150.6456966546352
 20
192.3096529265447
 30
0.0
 11
150.3805596546352
 21
192.4559389265447
 31
0.0
  0
LINE
  5
5EBB
330
A
100
AcDbEntity
  8
MODEL
  6
Continuous
100
AcDbLine
 10
150.3805596546352
 20
192.4559389265447
 30
0.0
 11
149.9785826546353
 21
192.6028499265447
 31
0.0
  0
LINE
  5
5EBC
330
A
100
AcDbEntity
  8
MODEL
  6
Continuous
100
AcDbLine
 10
149.9785826546353
 20
192.6028499265447
 30
0.0
 11
149.4599966546351
 21
192.6689679265447
 31
0.0
  0
LINE
  5
5EBD
330
A
100
AcDbEntity
  8
MODEL
  6
Continuous
100
AcDbLine
 10
156.3305716546353
 20
171.0383229265449
 30
0.0
 11
155.7736566546351
 21
171.0233179265448
 31
0.0
  0
LINE
  5
5EBE
330
A
100
AcDbEntity
  8
MODEL
  6
Continuous
100
AcDbLine
 10
155.7736566546351
 20
171.0233179265448
 30
0.0
 11
155.2244016546352
 21
170.9756149265448
 31
0.0
  0
LINE
  5
5EBF
330
A
100
AcDbEntity
  8
MODEL
  6
Continuous
100
AcDbLine
 10
155.2244016546352
 20
170.9756149265448
 30
0.0
 11
154.6894286546352
 21
170.8968689265448
 31
0.0
  0
LINE
  5
5EC0
330
A
100
AcDbEntity
  8
MODEL
  6
Continuous
100
AcDbLine
 10
154.6894286546352
 20
170.8968689265448
 30
0.0
 11
154.1745966546351
 21
170.7896019265449
 31
0.0
  0
LINE
  5
5EC1
330
A
100
AcDbEntity
  8
MODEL
  6
Continuous
100
AcDbLine
 10
154.1745966546351
 20
170.7896019265449
 30
0.0
 11
153.6863156546352
 21
170.6574749265448
 31
0.0
  0
LINE
  5
5EC2
330
A
100
AcDbEntity
  8
MODEL
  6
Continuous
100
AcDbLine
 10
153.6863156546352
 20
170.6574749265448
 30
0.0
 11
153.2310546546352
 21
170.5053999265448
 31
0.0
  0
LINE
  5
5EC3
330
A
100
AcDbEntity
  8
MODEL
  6
Continuous
100
AcDbLine
 10
153.2310546546352
 20
170.5053999265448
 30
0.0
 11
152.8134216546351
 21
170.3396359265448
 31
0.0
  0
LINE
  5
5EC4
330
A
100
AcDbEntity
  8
MODEL
  6
Continuous
100
AcDbLine
 10
152.8134216546351
 20
170.3396359265448
 30
0.0
 11
152.4380856546352
 21
170.1671919265449
 31
0.0
  0
LINE
  5
5EC5
330
A
100
AcDbEntity
  8
MODEL
  6
Continuous
100
AcDbLine
 10
152.4380856546352
 20
170.1671919265449
 30
0.0
 11
152.1072746546353
 21
169.9947249265448
 31
0.0
  0
LINE
  5
5EC6
330
A
100
AcDbEntity
  8
MODEL
  6
Continuous
100
AcDbLine
 10
152.1072746546353
 20
169.9947249265448
 30
0.0
 11
151.8184256546352
 21
169.8273699265448
 31
0.0
  0
LINE
  5
5EC7
330
A
100
AcDbEntity
  8
MODEL
  6
Continuous
100
AcDbLine
 10
151.8184256546352
 20
169.8273699265448
 30
0.0
 11
151.5686706546352
 21
169.6695409265448
 31
0.0
  0
LINE
  5
5EC8
330
A
100
AcDbEntity
  8
MODEL
  6
Continuous
100
AcDbLine
 10
151.5686706546352
 20
169.6695409265448
 30
0.0
 11
151.3545586546352
 21
169.5247969265448
 31
0.0
  0
LINE
  5
5EC9
330
A
100
AcDbEntity
  8
MODEL
  6
Continuous
100
AcDbLine
 10
151.3545586546352
 20
169.5247969265448
 30
0.0
 11
151.1681576546351
 21
169.3926129265448
 31
0.0
  0
LINE
  5
5ECA
330
A
100
AcDbEntity
  8
MODEL
  6
Continuous
100
AcDbLine
 10
151.1681576546351
 20
169.3926129265448
 30
0.0
 11
150.9976256546353
 21
169.2693629265449
 31
0.0
  0
LINE
  5
5ECB
330
A
100
AcDbEntity
  8
MODEL
  6
Continuous
100
AcDbLine
 10
150.9976256546353
 20
169.2693629265449
 30
0.0
 11
150.8320976546353
 21
169.1515099265448
 31
0.0
  0
LINE
  5
5ECC
330
A
100
AcDbEntity
  8
MODEL
  6
Continuous
100
AcDbLine
 10
150.8320976546353
 20
169.1515099265448
 30
0.0
 11
150.6456966546352
 21
169.0282559265449
 31
0.0
  0
LINE
  5
5ECD
330
A
100
AcDbEntity
  8
MODEL
  6
Continuous
100
AcDbLine
 10
150.6456966546352
 20
169.0282559265449
 30
0.0
 11
150.3805596546352
 21
168.8819699265449
 31
0.0
  0
LINE
  5
5ECE
330
A
100
AcDbEntity
  8
MODEL
  6
Continuous
100
AcDbLine
 10
150.3805596546352
 20
168.8819699265449
 30
0.0
 11
149.9785826546353
 21
168.7350599265448
 31
0.0
  0
LINE
  5
5ECF
330
A
100
AcDbEntity
  8
MODEL
  6
Continuous
100
AcDbLine
 10
149.9785826546353
 20
168.7350599265448
 30
0.0
 11
149.4599966546351
 21
168.6689419265448
 31
0.0
  0
LINE
  5
5ED0
330
A
100
AcDbEntity
  8
MODEL
  6
Continuous
100
AcDbLine
 10
177.9670776546342
 20
170.5786809265448
 30
0.0
 11
177.7809506546342
 21
170.6129149265448
 31
0.0
  0
LINE
  5
5ED1
330
A
100
AcDbEntity
  8
MODEL
  6
Continuous
100
AcDbLine
 10
177.7809506546342
 20
170.6129149265448
 30
0.0
 11
177.4735166546342
 21
170.6564769265449
 31
0.0
  0
LINE
  5
5ED2
330
A
100
AcDbEntity
  8
MODEL
  6
Continuous
100
AcDbLine
 10
177.4735166546342
 20
170.6564769265449
 30
0.0
 11
177.0664426546342
 21
170.7025269265448
 31
0.0
  0
LINE
  5
5ED3
330
A
100
AcDbEntity
  8
MODEL
  6
Continuous
100
AcDbLine
 10
177.0664426546342
 20
170.7025269265448
 30
0.0
 11
176.5723326546341
 21
170.7480149265448
 31
0.0
  0
LINE
  5
5ED4
330
A
100
AcDbEntity
  8
MODEL
  6
Continuous
100
AcDbLine
 10
176.5723326546341
 20
170.7480149265448
 30
0.0
 11
176.0000056546343
 21
170.7913799265448
 31
0.0
  0
LINE
  5
5ED5
330
A
100
AcDbEntity
  8
MODEL
  6
Continuous
100
AcDbLine
 10
176.0000056546343
 20
170.7913799265448
 30
0.0
 11
175.3579766546342
 21
170.8315289265448
 31
0.0
  0
LINE
  5
5ED6
330
A
100
AcDbEntity
  8
MODEL
  6
Continuous
100
AcDbLine
 10
175.3579766546342
 20
170.8315289265448
 30
0.0
 11
174.6547606546342
 21
170.8675779265448
 31
0.0
  0
LINE
  5
5ED7
330
A
100
AcDbEntity
  8
MODEL
  6
Continuous
100
AcDbLine
 10
174.6547606546342
 20
170.8675779265448
 30
0.0
 11
173.8992366546341
 21
170.8989019265449
 31
0.0
  0
LINE
  5
5ED8
330
A
100
AcDbEntity
  8
MODEL
  6
Continuous
100
AcDbLine
 10
173.8992366546341
 20
170.8989019265449
 30
0.0
 11
173.1005606546343
 21
170.9250189265449
 31
0.0
  0
LINE
  5
5ED9
330
A
100
AcDbEntity
  8
MODEL
  6
Continuous
100
AcDbLine
 10
173.1005606546343
 20
170.9250189265449
 30
0.0
 11
172.2679806546342
 21
170.9455689265448
 31
0.0
  0
LINE
  5
5EDA
330
A
100
AcDbEntity
  8
MODEL
  6
Continuous
100
AcDbLine
 10
172.2679806546342
 20
170.9455689265448
 30
0.0
 11
171.4102836546341
 21
170.9603739265449
 31
0.0
  0
LINE
  5
5EDB
330
A
100
AcDbEntity
  8
MODEL
  6
Continuous
100
AcDbLine
 10
171.4102836546341
 20
170.9603739265449
 30
0.0
 11
170.4942076546341
 21
170.9696039265448
 31
0.0
  0
LINE
  5
5EDC
330
A
100
AcDbEntity
  8
MODEL
  6
Continuous
100
AcDbLine
 10
177.9670776546342
 20
170.5786779265448
 30
0.0
 11
179.2447566546342
 21
170.2989109265448
 31
0.0
  0
LINE
  5
5EDD
330
A
100
AcDbEntity
  8
MODEL
  6
Continuous
100
AcDbLine
 10
179.2447566546342
 20
170.2989109265448
 30
0.0
 11
180.3790036546342
 21
170.0494879265448
 31
0.0
  0
LINE
  5
5EDE
330
A
100
AcDbEntity
  8
MODEL
  6
Continuous
100
AcDbLine
 10
180.3790036546342
 20
170.0494879265448
 30
0.0
 11
181.3668266546341
 21
169.8313799265448
 31
0.0
  0
LINE
  5
5EDF
330
A
100
AcDbEntity
  8
MODEL
  6
Continuous
100
AcDbLine
 10
181.3668266546341
 20
169.8313799265448
 30
0.0
 11
182.2054496546342
 21
169.6454289265448
 31
0.0
  0
LINE
  5
5EE0
330
A
100
AcDbEntity
  8
MODEL
  6
Continuous
100
AcDbLine
 10
182.2054496546342
 20
169.6454289265448
 30
0.0
 11
182.8932246546342
 21
169.4922909265448
 31
0.0
  0
LINE
  5
5EE1
330
A
100
AcDbEntity
  8
MODEL
  6
Continuous
100
AcDbLine
 10
182.8932246546342
 20
169.4922909265448
 30
0.0
 11
183.4294796546342
 21
169.3724609265448
 31
0.0
  0
LINE
  5
5EE2
330
A
100
AcDbEntity
  8
MODEL
  6
Continuous
100
AcDbLine
 10
183.4294796546342
 20
169.3724609265448
 30
0.0
 11
183.8128716546343
 21
169.2865739265448
 31
0.0
  0
LINE
  5
5EE3
330
A
100
AcDbEntity
  8
MODEL
  6
Continuous
100
AcDbLine
 10
183.8128716546343
 20
169.2865739265448
 30
0.0
 11
184.0430656546342
 21
169.2349239265448
 31
0.0
  0
LINE
  5
5EE4
330
A
100
AcDbEntity
  8
MODEL
  6
Continuous
100
AcDbLine
 10
184.0430656546342
 20
169.2349239265448
 30
0.0
 11
184.1185056546342
 21
169.2179649265448
 31
0.0
  0
LINE
  5
5EE5
330
A
100
AcDbEntity
  8
MODEL
  6
Continuous
100
AcDbLine
 10
184.1185056546342
 20
169.2179649265448
 30
0.0
 11
184.0437376546341
 21
169.2347109265448
 31
0.0
  0
LINE
  5
5EE6
330
A
100
AcDbEntity
  8
MODEL
  6
Continuous
100
AcDbLine
 10
184.0437376546341
 20
169.2347109265448
 30
0.0
 11
183.8131466546341
 21
169.2864549265448
 31
0.0
  0
LINE
  5
5EE7
330
A
100
AcDbEntity
  8
MODEL
  6
Continuous
100
AcDbLine
 10
183.8131466546341
 20
169.2864549265448
 30
0.0
 11
183.4300896546341
 21
169.3723159265448
 31
0.0
  0
LINE
  5
5EE8
330
A
100
AcDbEntity
  8
MODEL
  6
Continuous
100
AcDbLine
 10
183.4300896546341
 20
169.3723159265448
 30
0.0
 11
182.8946896546341
 21
169.4919459265448
 31
0.0
  0
LINE
  5
5EE9
330
A
100
AcDbEntity
  8
MODEL
  6
Continuous
100
AcDbLine
 10
182.8946896546341
 20
169.4919459265448
 30
0.0
 11
182.2071896546341
 21
169.6449839265448
 31
0.0
  0
LINE
  5
5EEA
330
A
100
AcDbEntity
  8
MODEL
  6
Continuous
100
AcDbLine
 10
182.2071896546341
 20
169.6449839265448
 30
0.0
 11
181.3689326546342
 21
169.8308969265448
 31
0.0
  0
LINE
  5
5EEB
330
A
100
AcDbEntity
  8
MODEL
  6
Continuous
100
AcDbLine
 10
181.3689326546342
 20
169.8308969265448
 30
0.0
 11
180.3817806546341
 21
170.0489459265448
 31
0.0
  0
LINE
  5
5EEC
330
A
100
AcDbEntity
  8
MODEL
  6
Continuous
100
AcDbLine
 10
180.3817806546341
 20
170.0489459265448
 30
0.0
 11
179.2479306546342
 21
170.2982829265448
 31
0.0
  0
LINE
  5
5EED
330
A
100
AcDbEntity
  8
MODEL
  6
Continuous
100
AcDbLine
 10
179.2479306546342
 20
170.2982829265448
 30
0.0
 11
177.9670466546341
 21
170.5786779265448
 31
0.0
  0
LINE
  5
5EEE
330
A
100
AcDbEntity
  8
MODEL
  6
Continuous
100
AcDbLine
 10
192.1789306546342
 20
190.4629689265448
 30
0.0
 11
192.5254266546342
 21
187.7494839265449
 31
0.0
  0
LINE
  5
5EEF
330
A
100
AcDbEntity
  8
MODEL
  6
Continuous
100
AcDbLine
 10
192.5254266546342
 20
187.7494839265449
 30
0.0
 11
192.7602596546342
 21
185.0240759265448
 31
0.0
  0
LINE
  5
5EF0
330
A
100
AcDbEntity
  8
MODEL
  6
Continuous
100
AcDbLine
 10
192.7602596546342
 20
185.0240759265448
 30
0.0
 11
192.8830016546342
 21
182.2913149265449
 31
0.0
  0
LINE
  5
5EF1
330
A
100
AcDbEntity
  8
MODEL
  6
Continuous
100
AcDbLine
 10
192.8830016546342
 20
182.2913149265449
 30
0.0
 11
192.8934686546341
 21
179.5558169265448
 31
0.0
  0
LINE
  5
5EF2
330
A
100
AcDbEntity
  8
MODEL
  6
Continuous
100
AcDbLine
 10
192.8934686546341
 20
179.5558169265448
 30
0.0
 11
192.7916316546342
 21
176.8221979265448
 31
0.0
  0
LINE
  5
5EF3
330
A
100
AcDbEntity
  8
MODEL
  6
Continuous
100
AcDbLine
 10
192.7916316546342
 20
176.8221979265448
 30
0.0
 11
192.5776116546341
 21
174.0950689265449
 31
0.0
  0
LINE
  5
5EF4
330
A
100
AcDbEntity
  8
MODEL
  6
Continuous
100
AcDbLine
 10
192.5776116546341
 20
174.0950689265449
 30
0.0
 11
192.1789306546342
 21
170.8749989265449
 31
0.0
  0
LINE
  5
5EF5
330
A
100
AcDbEntity
  8
MODEL
  6
Continuous
100
AcDbLine
 10
183.988378654635
 20
188.9504849265448
 30
0.0
 11
185.312017654635
 21
189.3611649265449
 31
0.0
  0
LINE
  5
5EF6
330
A
100
AcDbEntity
  8
MODEL
  6
Continuous
100
AcDbLine
 10
185.312017654635
 20
189.3611649265449
 30
0.0
 11
186.5160886546349
 21
189.7355749265448
 31
0.0
  0
LINE
  5
5EF7
330
A
100
AcDbEntity
  8
MODEL
  6
Continuous
100
AcDbLine
 10
186.5160886546349
 20
189.7355749265448
 30
0.0
 11
187.5998896546349
 21
190.0733829265448
 31
0.0
  0
LINE
  5
5EF8
330
A
100
AcDbEntity
  8
MODEL
  6
Continuous
100
AcDbLine
 10
187.5998896546349
 20
190.0733829265448
 30
0.0
 11
188.562810654635
 21
190.3742529265448
 31
0.0
  0
LINE
  5
5EF9
330
A
100
AcDbEntity
  8
MODEL
  6
Continuous
100
AcDbLine
 10
188.562810654635
 20
190.3742529265448
 30
0.0
 11
189.404271654635
 21
190.6377899265449
 31
0.0
  0
LINE
  5
5EFA
330
A
100
AcDbEntity
  8
MODEL
  6
Continuous
100
AcDbLine
 10
189.404271654635
 20
190.6377899265449
 30
0.0
 11
190.1235406546349
 21
190.8635799265448
 31
0.0
  0
LINE
  5
5EFB
330
A
100
AcDbEntity
  8
MODEL
  6
Continuous
100
AcDbLine
 10
190.1235406546349
 20
190.8635799265448
 30
0.0
 11
190.720098654635
 21
191.0512419265449
 31
0.0
  0
LINE
  5
5EFC
330
A
100
AcDbEntity
  8
MODEL
  6
Continuous
100
AcDbLine
 10
190.720098654635
 20
191.0512419265449
 30
0.0
 11
191.193456654635
 21
191.2004289265448
 31
0.0
  0
LINE
  5
5EFD
330
A
100
AcDbEntity
  8
MODEL
  6
Continuous
100
AcDbLine
 10
191.193456654635
 20
191.2004289265448
 30
0.0
 11
191.543218654635
 21
191.3108429265448
 31
0.0
  0
LINE
  5
5EFE
330
A
100
AcDbEntity
  8
MODEL
  6
Continuous
100
AcDbLine
 10
191.543218654635
 20
191.3108429265448
 30
0.0
 11
191.786382654635
 21
191.3876929265448
 31
0.0
  0
LINE
  5
5EFF
330
A
100
AcDbEntity
  8
MODEL
  6
Continuous
100
AcDbLine
 10
191.786382654635
 20
169.9502129265449
 30
0.0
 11
191.573980654635
 21
170.0173469265449
 31
0.0
  0
LINE
  5
5F00
330
A
100
AcDbEntity
  8
MODEL
  6
Continuous
100
AcDbLine
 10
191.573980654635
 20
170.0173469265449
 30
0.0
 11
191.237737654635
 21
170.1235009265448
 31
0.0
  0
LINE
  5
5F01
330
A
100
AcDbEntity
  8
MODEL
  6
Continuous
100
AcDbLine
 10
191.237737654635
 20
170.1235009265448
 30
0.0
 11
190.777959654635
 21
170.2684489265448
 31
0.0
  0
LINE
  5
5F02
330
A
100
AcDbEntity
  8
MODEL
  6
Continuous
100
AcDbLine
 10
190.777959654635
 20
170.2684489265448
 30
0.0
 11
190.194921654635
 21
170.4518969265448
 31
0.0
  0
LINE
  5
5F03
330
A
100
AcDbEntity
  8
MODEL
  6
Continuous
100
AcDbLine
 10
190.194921654635
 20
170.4518969265448
 30
0.0
 11
189.4891106546351
 21
170.6735109265449
 31
0.0
  0
LINE
  5
5F04
330
A
100
AcDbEntity
  8
MODEL
  6
Continuous
100
AcDbLine
 10
189.4891106546351
 20
170.6735109265449
 30
0.0
 11
188.661107654635
 21
170.9329029265448
 31
0.0
  0
LINE
  5
5F05
330
A
100
AcDbEntity
  8
MODEL
  6
Continuous
100
AcDbLine
 10
188.661107654635
 20
170.9329029265448
 30
0.0
 11
187.7115226546349
 21
171.2296839265449
 31
0.0
  0
LINE
  5
5F06
330
A
100
AcDbEntity
  8
MODEL
  6
Continuous
100
AcDbLine
 10
187.7115226546349
 20
171.2296839265449
 30
0.0
 11
186.6409966546349
 21
171.5634469265449
 31
0.0
  0
LINE
  5
5F07
330
A
100
AcDbEntity
  8
MODEL
  6
Continuous
100
AcDbLine
 10
186.6409966546349
 20
171.5634469265449
 30
0.0
 11
185.450231654635
 21
171.9338199265449
 31
0.0
  0
LINE
  5
5F08
330
A
100
AcDbEntity
  8
MODEL
  6
Continuous
100
AcDbLine
 10
185.450231654635
 20
171.9338199265449
 30
0.0
 11
183.988378654635
 21
172.3874249265448
 31
0.0
  0
LINE
  5
5F0F
330
A
100
AcDbEntity
  8
MODEL
  6
Continuous
100
AcDbLine
 10
529.1589981410434
 20
314.440563369178
 30
0.0
 11
520.7675191410435
 21
313.721485369178
 31
0.0
  0
LINE
  5
5F10
330
A
100
AcDbEntity
  8
MODEL
  6
Continuous
100
AcDbLine
 10
520.7675191410435
 20
313.721485369178
 30
0.0
 11
512.2826631410435
 21
313.103010369178
 31
0.0
  0
LINE
  5
5F11
330
A
100
AcDbEntity
  8
MODEL
  6
Continuous
100
AcDbLine
 10
512.2826631410435
 20
313.103010369178
 30
0.0
 11
503.7187751410434
 21
312.587035369178
 31
0.0
  0
LINE
  5
5F12
330
A
100
AcDbEntity
  8
MODEL
  6
Continuous
100
AcDbLine
 10
503.7187751410434
 20
312.587035369178
 30
0.0
 11
495.0903111410435
 21
312.175514369178
 31
0.0
  0
LINE
  5
5F13
330
A
100
AcDbEntity
  8
MODEL
  6
Continuous
100
AcDbLine
 10
495.0903111410435
 20
312.175514369178
 30
0.0
 11
486.4119591410436
 21
311.870427369178
 31
0.0
  0
LINE
  5
5F14
330
A
100
AcDbEntity
  8
MODEL
  6
Continuous
100
AcDbLine
 10
486.4119591410436
 20
311.870427369178
 30
0.0
 11
477.6986561410434
 21
311.673437369178
 31
0.0
  0
LINE
  5
5F15
330
A
100
AcDbEntity
  8
MODEL
  6
Continuous
100
AcDbLine
 10
477.6986561410434
 20
311.673437369178
 30
0.0
 11
468.9655091410434
 21
311.585825369178
 31
0.0
  0
LINE
  5
5F16
330
A
100
AcDbEntity
  8
MODEL
  6
Continuous
100
AcDbLine
 10
468.9655091410434
 20
311.585825369178
 30
0.0
 11
460.2278271410435
 21
311.608286369178
 31
0.0
  0
LINE
  5
5F17
330
A
100
AcDbEntity
  8
MODEL
  6
Continuous
100
AcDbLine
 10
460.2278271410435
 20
311.608286369178
 30
0.0
 11
451.5009751410435
 21
311.740669369178
 31
0.0
  0
LINE
  5
5F18
330
A
100
AcDbEntity
  8
MODEL
  6
Continuous
100
AcDbLine
 10
451.5009751410435
 20
311.740669369178
 30
0.0
 11
442.8001541410434
 21
311.982008369178
 31
0.0
  0
LINE
  5
5F19
330
A
100
AcDbEntity
  8
MODEL
  6
Continuous
100
AcDbLine
 10
442.8001541410434
 20
311.982008369178
 30
0.0
 11
434.1404271410435
 21
312.330888369178
 31
0.0
  0
LINE
  5
5F1A
330
A
100
AcDbEntity
  8
MODEL
  6
Continuous
100
AcDbLine
 10
434.1404271410435
 20
312.330888369178
 30
0.0
 11
425.5366341410435
 21
312.785577369178
 31
0.0
  0
LINE
  5
5F1B
330
A
100
AcDbEntity
  8
MODEL
  6
Continuous
100
AcDbLine
 10
425.5366341410435
 20
312.785577369178
 30
0.0
 11
417.0033581410435
 21
313.344194369178
 31
0.0
  0
LINE
  5
5F1C
330
A
100
AcDbEntity
  8
MODEL
  6
Continuous
100
AcDbLine
 10
417.0033581410435
 20
313.344194369178
 30
0.0
 11
408.0418051410435
 21
314.048651369178
 31
0.0
  0
LINE
  5
5F1D
330
A
100
AcDbEntity
  8
MODEL
  6
Continuous
100
AcDbLine
 10
408.0418051410435
 20
328.7013633691781
 30
0.0
 11
416.4846021410434
 21
329.3683783691781
 31
0.0
  0
LINE
  5
5F1E
330
A
100
AcDbEntity
  8
MODEL
  6
Continuous
100
AcDbLine
 10
416.4846021410434
 20
329.3683783691781
 30
0.0
 11
425.0132061410435
 21
329.933270369178
 31
0.0
  0
LINE
  5
5F1F
330
A
100
AcDbEntity
  8
MODEL
  6
Continuous
100
AcDbLine
 10
425.0132061410435
 20
329.933270369178
 30
0.0
 11
433.6132111410434
 21
330.394371369178
 31
0.0
  0
LINE
  5
5F20
330
A
100
AcDbEntity
  8
MODEL
  6
Continuous
100
AcDbLine
 10
433.6132111410434
 20
330.394371369178
 30
0.0
 11
442.2700481410435
 21
330.7497703691781
 31
0.0
  0
LINE
  5
5F21
330
A
100
AcDbEntity
  8
MODEL
  6
Continuous
100
AcDbLine
 10
442.2700481410435
 20
330.7497703691781
 30
0.0
 11
450.9688891410434
 21
330.997719369178
 31
0.0
  0
LINE
  5
5F22
330
A
100
AcDbEntity
  8
MODEL
  6
Continuous
100
AcDbLine
 10
450.9688891410434
 20
330.997719369178
 30
0.0
 11
459.6946961410434
 21
331.136785369178
 31
0.0
  0
LINE
  5
5F23
330
A
100
AcDbEntity
  8
MODEL
  6
Continuous
100
AcDbLine
 10
459.6946961410434
 20
331.136785369178
 30
0.0
 11
468.4322571410435
 21
331.165986369178
 31
0.0
  0
LINE
  5
5F24
330
A
100
AcDbEntity
  8
MODEL
  6
Continuous
100
AcDbLine
 10
468.4322571410435
 20
331.165986369178
 30
0.0
 11
477.1662161410435
 21
331.085067369178
 31
0.0
  0
LINE
  5
5F25
330
A
100
AcDbEntity
  8
MODEL
  6
Continuous
100
AcDbLine
 10
477.1662161410435
 20
331.085067369178
 30
0.0
 11
485.8812731410435
 21
330.894714369178
 31
0.0
  0
LINE
  5
5F26
330
A
100
AcDbEntity
  8
MODEL
  6
Continuous
100
AcDbLine
 10
485.8812731410435
 20
330.894714369178
 30
0.0
 11
494.5622881410434
 21
330.596174369178
 31
0.0
  0
LINE
  5
5F27
330
A
100
AcDbEntity
  8
MODEL
  6
Continuous
100
AcDbLine
 10
494.5622881410434
 20
330.596174369178
 30
0.0
 11
503.1943231410435
 21
330.191089369178
 31
0.0
  0
LINE
  5
5F28
330
A
100
AcDbEntity
  8
MODEL
  6
Continuous
100
AcDbLine
 10
503.1943231410435
 20
330.191089369178
 30
0.0
 11
511.7626591410435
 21
329.681402369178
 31
0.0
  0
LINE
  5
5F29
330
A
100
AcDbEntity
  8
MODEL
  6
Continuous
100
AcDbLine
 10
511.7626591410435
 20
329.681402369178
 30
0.0
 11
520.2528401410434
 21
329.069126369178
 31
0.0
  0
LINE
  5
5F2A
330
A
100
AcDbEntity
  8
MODEL
  6
Continuous
100
AcDbLine
 10
520.2528401410434
 20
329.069126369178
 30
0.0
 11
529.1589981410434
 21
328.309425369178
 31
0.0
  0
LINE
  5
5F2B
330
A
100
AcDbEntity
  8
MODEL
  6
Continuous
100
AcDbLine
 10
229.0435941164612
 20
306.103886810548
 30
0.0
 11
229.3448641164613
 21
309.4692428105479
 31
0.0
  0
LINE
  5
5F2C
330
A
100
AcDbEntity
  8
MODEL
  6
Continuous
100
AcDbLine
 10
229.3448641164613
 20
309.4692428105479
 30
0.0
 11
229.6169811164613
 21
312.8370408105479
 31
0.0
  0
LINE
  5
5F2D
330
A
100
AcDbEntity
  8
MODEL
  6
Continuous
100
AcDbLine
 10
229.6169811164613
 20
312.8370408105479
 30
0.0
 11
229.8371281164613
 21
316.208744810548
 31
0.0
  0
LINE
  5
5F2E
330
A
100
AcDbEntity
  8
MODEL
  6
Continuous
100
AcDbLine
 10
229.8371281164613
 20
316.208744810548
 30
0.0
 11
230.0346981164612
 21
321.022953810548
 31
0.0
  0
LINE
  5
5F2F
330
A
100
AcDbEntity
  8
MODEL
  6
Continuous
100
AcDbLine
 10
224.9556811164613
 20
301.641819810548
 30
0.0
 11
225.7440641164612
 21
301.845310810548
 31
0.0
  0
LINE
  5
5F30
330
A
100
AcDbEntity
  8
MODEL
  6
Continuous
100
AcDbLine
 10
225.7440641164612
 20
301.845310810548
 30
0.0
 11
226.4915241164613
 21
302.168278810548
 31
0.0
  0
LINE
  5
5F31
330
A
100
AcDbEntity
  8
MODEL
  6
Continuous
100
AcDbLine
 10
226.4915241164613
 20
302.168278810548
 30
0.0
 11
227.1759801164612
 21
302.609196810548
 31
0.0
  0
LINE
  5
5F32
330
A
100
AcDbEntity
  8
MODEL
  6
Continuous
100
AcDbLine
 10
227.1759801164612
 20
302.609196810548
 30
0.0
 11
227.7756881164612
 21
303.159611810548
 31
0.0
  0
LINE
  5
5F33
330
A
100
AcDbEntity
  8
MODEL
  6
Continuous
100
AcDbLine
 10
227.7756881164612
 20
303.159611810548
 30
0.0
 11
228.2715681164613
 21
303.805210810548
 31
0.0
  0
LINE
  5
5F34
330
A
100
AcDbEntity
  8
MODEL
  6
Continuous
100
AcDbLine
 10
228.2715681164613
 20
303.805210810548
 30
0.0
 11
228.6513901164612
 21
304.525333810548
 31
0.0
  0
LINE
  5
5F35
330
A
100
AcDbEntity
  8
MODEL
  6
Continuous
100
AcDbLine
 10
228.6513901164612
 20
304.525333810548
 30
0.0
 11
228.9082411164612
 21
305.297916810548
 31
0.0
  0
LINE
  5
5F36
330
A
100
AcDbEntity
  8
MODEL
  6
Continuous
100
AcDbLine
 10
228.9082411164612
 20
305.297916810548
 30
0.0
 11
229.0474321164612
 21
306.149754810548
 31
0.0
  0
LINE
  5
5F37
330
A
100
AcDbEntity
  8
MODEL
  6
Continuous
100
AcDbLine
 10
144.3918461164624
 20
301.641819810548
 30
0.0
 11
143.6124991164623
 21
301.842289810548
 31
0.0
  0
LINE
  5
5F38
330
A
100
AcDbEntity
  8
MODEL
  6
Continuous
100
AcDbLine
 10
143.6124991164623
 20
301.842289810548
 30
0.0
 11
142.8727641164623
 21
302.1593978105479
 31
0.0
  0
LINE
  5
5F39
330
A
100
AcDbEntity
  8
MODEL
  6
Continuous
100
AcDbLine
 10
142.8727641164623
 20
302.1593978105479
 30
0.0
 11
142.1941711164624
 21
302.591648810548
 31
0.0
  0
LINE
  5
5F3A
330
A
100
AcDbEntity
  8
MODEL
  6
Continuous
100
AcDbLine
 10
142.1941711164624
 20
302.591648810548
 30
0.0
 11
141.5975831164624
 21
303.1315048105479
 31
0.0
  0
LINE
  5
5F3B
330
A
100
AcDbEntity
  8
MODEL
  6
Continuous
100
AcDbLine
 10
141.5975831164624
 20
303.1315048105479
 30
0.0
 11
141.1014581164624
 21
303.764927810548
 31
0.0
  0
LINE
  5
5F3C
330
A
100
AcDbEntity
  8
MODEL
  6
Continuous
100
AcDbLine
 10
141.1014581164624
 20
303.764927810548
 30
0.0
 11
140.7187891164624
 21
304.472721810548
 31
0.0
  0
LINE
  5
5F3D
330
A
100
AcDbEntity
  8
MODEL
  6
Continuous
100
AcDbLine
 10
140.7187891164624
 20
304.472721810548
 30
0.0
 11
140.4556901164624
 21
305.2331588105479
 31
0.0
  0
LINE
  5
5F3E
330
A
100
AcDbEntity
  8
MODEL
  6
Continuous
100
AcDbLine
 10
140.4556901164624
 20
305.2331588105479
 30
0.0
 11
140.3058811164624
 21
306.0853928105479
 31
0.0
  0
LINE
  5
5F3F
330
A
100
AcDbEntity
  8
MODEL
  6
Continuous
100
AcDbLine
 10
116.9492431164613
 20
300.2878768105481
 30
0.0
 11
116.4011581164613
 21
305.2960248105481
 31
0.0
  0
LINE
  5
5F40
330
A
100
AcDbEntity
  8
MODEL
  6
Continuous
100
AcDbLine
 10
116.4011581164613
 20
305.2960248105481
 30
0.0
 11
115.9454721164612
 21
310.3135118105481
 31
0.0
  0
LINE
  5
5F41
330
A
100
AcDbEntity
  8
MODEL
  6
Continuous
100
AcDbLine
 10
115.9454721164612
 20
310.3135118105481
 30
0.0
 11
115.5823531164613
 21
315.3384748105481
 31
0.0
  0
LINE
  5
5F42
330
A
100
AcDbEntity
  8
MODEL
  6
Continuous
100
AcDbLine
 10
115.5823531164613
 20
315.3384748105481
 30
0.0
 11
115.3119221164612
 21
320.3692978105481
 31
0.0
  0
LINE
  5
5F43
330
A
100
AcDbEntity
  8
MODEL
  6
Continuous
100
AcDbLine
 10
115.3119221164612
 20
320.3692978105481
 30
0.0
 11
115.1342751164613
 21
325.4042408105481
 31
0.0
  0
LINE
  5
5F44
330
A
100
AcDbEntity
  8
MODEL
  6
Continuous
100
AcDbLine
 10
115.1342751164613
 20
325.4042408105481
 30
0.0
 11
115.0456671164612
 21
331.0229538105481
 31
0.0
  0
LINE
  5
5F45
330
A
100
AcDbEntity
  8
MODEL
  6
Continuous
100
AcDbLine
 10
124.0183411164612
 20
291.885258810548
 30
0.0
 11
122.9362721164613
 21
292.281010810548
 31
0.0
  0
LINE
  5
5F46
330
A
100
AcDbEntity
  8
MODEL
  6
Continuous
100
AcDbLine
 10
122.9362721164613
 20
292.281010810548
 30
0.0
 11
121.9084381164613
 21
292.801609810548
 31
0.0
  0
LINE
  5
5F47
330
A
100
AcDbEntity
  8
MODEL
  6
Continuous
100
AcDbLine
 10
121.9084381164613
 20
292.801609810548
 30
0.0
 11
120.9477381164612
 21
293.437351810548
 31
0.0
  0
LINE
  5
5F48
330
A
100
AcDbEntity
  8
MODEL
  6
Continuous
100
AcDbLine
 10
120.9477381164612
 20
293.437351810548
 30
0.0
 11
120.0651651164612
 21
294.178013810548
 31
0.0
  0
LINE
  5
5F49
330
A
100
AcDbEntity
  8
MODEL
  6
Continuous
100
AcDbLine
 10
120.0651651164612
 20
294.178013810548
 30
0.0
 11
119.2710991164613
 21
295.013065810548
 31
0.0
  0
LINE
  5
5F4A
330
A
100
AcDbEntity
  8
MODEL
  6
Continuous
100
AcDbLine
 10
119.2710991164613
 20
295.013065810548
 30
0.0
 11
118.5758181164613
 21
295.931950810548
 31
0.0
  0
LINE
  5
5F4B
330
A
100
AcDbEntity
  8
MODEL
  6
Continuous
100
AcDbLine
 10
118.5758181164613
 20
295.931950810548
 30
0.0
 11
117.9888351164612
 21
296.923374810548
 31
0.0
  0
LINE
  5
5F4C
330
A
100
AcDbEntity
  8
MODEL
  6
Continuous
100
AcDbLine
 10
117.9888351164612
 20
296.923374810548
 30
0.0
 11
117.5189471164613
 21
297.975376810548
 31
0.0
  0
LINE
  5
5F4D
330
A
100
AcDbEntity
  8
MODEL
  6
Continuous
100
AcDbLine
 10
117.5189471164613
 20
297.975376810548
 30
0.0
 11
117.1736291164613
 21
299.074558810548
 31
0.0
  0
LINE
  5
5F4E
330
A
100
AcDbEntity
  8
MODEL
  6
Continuous
100
AcDbLine
 10
117.1736291164613
 20
299.074558810548
 30
0.0
 11
116.9494691164613
 21
300.2879078105479
 31
0.0
  0
LINE
  5
5F4F
330
A
100
AcDbEntity
  8
MODEL
  6
Continuous
100
AcDbLine
 10
242.5899201164623
 20
291.0873768105479
 30
0.0
 11
243.6866761164623
 21
291.471531810548
 31
0.0
  0
LINE
  5
5F50
330
A
100
AcDbEntity
  8
MODEL
  6
Continuous
100
AcDbLine
 10
243.6866761164623
 20
291.471531810548
 30
0.0
 11
244.7303851164622
 21
291.982426810548
 31
0.0
  0
LINE
  5
5F51
330
A
100
AcDbEntity
  8
MODEL
  6
Continuous
100
AcDbLine
 10
244.7303851164622
 20
291.982426810548
 30
0.0
 11
245.7073821164622
 21
292.611607810548
 31
0.0
  0
LINE
  5
5F52
330
A
100
AcDbEntity
  8
MODEL
  6
Continuous
100
AcDbLine
 10
245.7073821164622
 20
292.611607810548
 30
0.0
 11
246.6058431164622
 21
293.348728810548
 31
0.0
  0
LINE
  5
5F53
330
A
100
AcDbEntity
  8
MODEL
  6
Continuous
100
AcDbLine
 10
246.6058431164622
 20
293.348728810548
 30
0.0
 11
247.4147031164623
 21
294.1831098105479
 31
0.0
  0
LINE
  5
5F54
330
A
100
AcDbEntity
  8
MODEL
  6
Continuous
100
AcDbLine
 10
247.4147031164623
 20
294.1831098105479
 30
0.0
 11
248.1231691164622
 21
295.1042828105479
 31
0.0
  0
LINE
  5
5F55
330
A
100
AcDbEntity
  8
MODEL
  6
Continuous
100
AcDbLine
 10
248.1231691164622
 20
295.1042828105479
 30
0.0
 11
248.7212521164622
 21
296.100651810548
 31
0.0
  0
LINE
  5
5F56
330
A
100
AcDbEntity
  8
MODEL
  6
Continuous
100
AcDbLine
 10
248.7212521164622
 20
296.100651810548
 30
0.0
 11
249.2001651164622
 21
297.159458810548
 31
0.0
  0
LINE
  5
5F57
330
A
100
AcDbEntity
  8
MODEL
  6
Continuous
100
AcDbLine
 10
249.2001651164622
 20
297.159458810548
 30
0.0
 11
249.5529101164623
 21
298.266697810548
 31
0.0
  0
LINE
  5
5F58
330
A
100
AcDbEntity
  8
MODEL
  6
Continuous
100
AcDbLine
 10
249.5529101164623
 20
298.266697810548
 30
0.0
 11
249.7833331164622
 21
299.487034810548
 31
0.0
  0
LINE
  5
5F59
330
A
100
AcDbEntity
  8
MODEL
  6
Continuous
100
AcDbLine
 10
250.7929691164612
 20
322.6096848105479
 30
0.0
 11
248.3579021164612
 21
323.0028118105479
 31
0.0
  0
LINE
  5
5F5A
330
A
100
AcDbEntity
  8
MODEL
  6
Continuous
100
AcDbLine
 10
248.3579021164612
 20
323.0028118105479
 30
0.0
 11
245.9077151164613
 21
323.2867168105479
 31
0.0
  0
LINE
  5
5F5B
330
A
100
AcDbEntity
  8
MODEL
  6
Continuous
100
AcDbLine
 10
245.9077151164613
 20
323.2867168105479
 30
0.0
 11
243.4471741164613
 21
323.459904810548
 31
0.0
  0
LINE
  5
5F5C
330
A
100
AcDbEntity
  8
MODEL
  6
Continuous
100
AcDbLine
 10
243.4471741164613
 20
323.459904810548
 30
0.0
 11
240.9813841164612
 21
323.522831810548
 31
0.0
  0
LINE
  5
5F5D
330
A
100
AcDbEntity
  8
MODEL
  6
Continuous
100
AcDbLine
 10
240.9813841164612
 20
323.522831810548
 30
0.0
 11
238.5152431164613
 21
323.475101810548
 31
0.0
  0
LINE
  5
5F5E
330
A
100
AcDbEntity
  8
MODEL
  6
Continuous
100
AcDbLine
 10
238.5152431164613
 20
323.475101810548
 30
0.0
 11
236.0537261164612
 21
323.316868810548
 31
0.0
  0
LINE
  5
5F5F
330
A
100
AcDbEntity
  8
MODEL
  6
Continuous
100
AcDbLine
 10
236.0537261164612
 20
323.316868810548
 30
0.0
 11
233.6017681164612
 21
323.0484668105479
 31
0.0
  0
LINE
  5
5F60
330
A
100
AcDbEntity
  8
MODEL
  6
Continuous
100
AcDbLine
 10
233.6017681164612
 20
323.0484668105479
 30
0.0
 11
230.8949971164612
 21
322.621586810548
 31
0.0
  0
DIMENSION
  5
5F79
330
A
100
AcDbEntity
  8
寸法
100
AcDbDimension
  2
*D15
 10
275.3752308903569
 20
283.144764310548
 30
0.0
 11
270.8752308903569
 21
303.144764310548
 31
0.0
 70
    32
 71
     5
 42
40.0
 73
     0
 74
     0
 75
     0
  3
tfrom線あり
100
AcDbAlignedDimension
 13
249.2389102426148
 23
323.144764310548
 33
0.0
 14
209.8104036654497
 24
283.144764310548
 34
0.0
 50
90.0
100
AcDbRotatedDimension
1001
ACAD
1000
DSTYLE
1002
{
1070
   144
1040
1.0
1002
}
  0
DIMENSION
  5
5F86
330
A
100
AcDbEntity
  8
寸法
100
AcDbDimension
  2
*D16
 10
251.1411770070783
 20
262.0622880090467
 30
0.0
 11
183.1411770070783
 21
266.5622880090467
 31
0.0
 70
    32
 71
     5
 42
136.0
 73
     0
 74
     0
 75
     0
  3
tfrom線あり
100
AcDbAlignedDimension
 13
115.1411770070783
 23
303.766771066055
 33
0.0
 14
251.1411770070783
 24
303.766771066055
 34
0.0
100
AcDbRotatedDimension
1001
ACAD
1000
DSTYLE
1002
{
1070
   144
1040
1.0
1002
}
  0
DIMENSION
  5
5F93
102
{ACAD_REACTORS
330
5F95
102
}
102
{ACAD_XDICTIONARY
360
5F94
102
}
330
A
100
AcDbEntity
  8
寸法
100
AcDbDimension
  2
*D17
 10
83.2938107744647
 20
341.034177143836
 30
0.0
 11
78.7938107744647
 21
312.0439645322379
 31
0.0
 70
    32
 71
     5
 42
57.98042522319633
 73
     0
 74
     0
 75
     0
  3
tfrom線あり
100
AcDbAlignedDimension
 13
181.0685875462069
 23
283.0537519206397
 33
0.0
 14
96.7464996695535
 24
341.034177143836
 34
0.0
 50
90.0
100
AcDbRotatedDimension
1001
ACAD
1000
DSTYLE
1002
{
1070
   144
1040
1.0
1002
}
  0
DIMENSION
  5
5FA2
330
A
100
AcDbEntity
  8
寸法
100
AcDbDimension
  2
*D18
 10
67.28592598323533
 20
283.0537519206397
 30
0.0
 11
62.78592598323533
 21
315.8936754817249
 31
0.0
 70
    32
 71
     5
 42
65.67984712217054
 73
     0
 74
     0
 75
     0
  3
tfrom線あり
100
AcDbAlignedDimension
 13
94.7825120145531
 23
348.7335990428102
 33
0.0
 14
106.6654269591859
 24
283.0537519206397
 34
0.0
 50
90.0
100
AcDbRotatedDimension
1001
ACAD
1000
DSTYLE
1002
{
1070
   144
1040
1.0
1002
}
  0
ARC
  5
5FB4
102
{ACAD_REACTORS
330
5FE9
102
}
330
A
100
AcDbEntity
  8
CutoutUnderlay
  6
Continuous
100
AcDbCircle
 10
466.3721255115537
 20
864.363640920038
 30
0.0
 40
695.0007909610831
100
AcDbArc
 50
264.6204000000001
 51
275.1953669999999
  0
ARC
  5
5FB5
102
{ACAD_REACTORS
330
5FE9
102
}
330
A
100
AcDbEntity
  8
CutoutUnderlay
  6
Continuous
100
AcDbCircle
 10
466.3721255115537
 20
-502.6377170799622
 30
0.0
 40
695.0005617808879
100
AcDbArc
 50
84.79210799999998
 51
95.37944799999998
  0
ELLIPSE
  5
5FB6
102
{ACAD_REACTORS
330
5FE9
102
}
330
A
100
AcDbEntity
  8
CutoutUnderlay
  6
HIDDEN2
100
AcDbEllipse
 10
516.2933425115536
 20
173.1632579200379
 30
0.0
 11
-0.1440727796456207
 21
1.994804008960571
 31
0.0
210
0.0
220
0.0
230
-1.0
 40
0.995658
 41
3.141592653589809
 42
3.908493742257873
  0
ELLIPSE
  5
5FB7
102
{ACAD_REACTORS
330
5FE9
102
}
330
A
100
AcDbEntity
  8
CutoutUnderlay
  6
Continuous
100
AcDbEllipse
 10
401.4055095115538
 20
174.4148049200378
 30
0.0
 11
0.1897228456952015
 21
1.99098097475122
 31
0.0
210
0.0
220
0.0
230
1.0
 40
0.998657
 41
2.365853102603857
 42
3.140259974370899
  0
ARC
  5
5FB8
102
{ACAD_REACTORS
330
5FE9
102
}
330
A
100
AcDbEntity
  8
CutoutUnderlay
  6
HIDDEN2
100
AcDbCircle
 10
522.8430755115548
 20
180.8628469200378
 30
0.0
 40
12.09728412809255
100
AcDbArc
 50
130.2317710000023
 51
229.7682289999975
  0
ELLIPSE
  5
5FB9
102
{ACAD_REACTORS
330
5FE9
102
}
330
A
100
AcDbEntity
  8
CutoutUnderlay
  6
HIDDEN2
100
AcDbEllipse
 10
516.2933425115536
 20
188.5624349200379
 30
0.0
 11
0.1440727796455834
 21
1.994804008960576
 31
0.0
210
0.0
220
0.0
230
-1.0
 40
0.995658
 41
5.516284218511511
 42
6.283185307179586
  0
ELLIPSE
  5
5FBA
102
{ACAD_REACTORS
330
5FE9
102
}
330
A
100
AcDbEntity
  8
CutoutUnderlay
  6
Continuous
100
AcDbEllipse
 10
401.4055095115538
 20
187.3108889200377
 30
0.0
 11
0.1897228456952688
 21
-1.990980974751209
 31
0.0
210
0.0
220
0.0
230
-1.0
 40
0.9986570000000005
 41
2.365853102603893
 42
3.141190831848725
  0
ARC
  5
5FBB
102
{ACAD_REACTORS
330
5FE9
102
}
330
A
100
AcDbEntity
  8
CutoutUnderlay
  6
Continuous
100
AcDbCircle
 10
408.7439935115548
 20
180.8628469200378
 30
0.0
 40
11.99996509608541
100
AcDbArc
 50
53.62667300000079
 51
306.373325
  0
LINE
  5
5FBC
102
{ACAD_REACTORS
330
5FE9
102
}
330
A
100
AcDbEntity
  8
CutoutUnderlay
  6
Continuous
100
AcDbLine
 10
401.2157865115548
 20
189.3018699200378
 30
0.0
 11
401.2179845115538
 21
189.3020779200379
 31
0.0
  0
LINE
  5
5FBD
102
{ACAD_REACTORS
330
5FE9
102
}
330
A
100
AcDbEntity
  8
CutoutUnderlay
  6
Continuous
100
AcDbLine
 10
401.2157865115548
 20
172.4238239200377
 30
0.0
 11
401.2179845115538
 21
172.4236159200377
 31
0.0
  0
CIRCLE
  5
5FBE
102
{ACAD_REACTORS
330
5FE9
102
}
330
A
100
AcDbEntity
  8
CutoutUnderlay
  6
HIDDEN2
100
AcDbCircle
 10
408.8721245115548
 20
180.8628469200378
 30
0.0
 40
8.950000000000003
  0
CIRCLE
  5
5FBF
102
{ACAD_REACTORS
330
5FE9
102
}
330
A
100
AcDbEntity
  8
CutoutUnderlay
  6
HIDDEN2
100
AcDbCircle
 10
408.8721245115548
 20
180.8628469200378
 30
0.0
 40
8.0
  0
ARC
  5
5FC0
102
{ACAD_REACTORS
330
5FE9
102
}
330
A
100
AcDbEntity
  8
CutoutUnderlay
  6
Continuous
100
AcDbCircle
 10
529.2754235115547
 20
187.4999059200378
 30
0.0
 40
2.002868431770999
100
AcDbArc
 50
33.66832800000094
 51
84.79210799999998
  0
LINE
  5
5FC1
102
{ACAD_REACTORS
330
5FE9
102
}
330
A
100
AcDbEntity
  8
CutoutUnderlay
  6
Continuous
100
AcDbLine
 10
530.9423325115547
 20
188.6102659200377
 30
0.0
 11
530.9483045115546
 21
188.6012059200379
 31
0.0
  0
ARC
  5
5FC2
102
{ACAD_REACTORS
330
5FE9
102
}
330
A
100
AcDbEntity
  8
CutoutUnderlay
  6
Continuous
100
AcDbCircle
 10
519.1861115115546
 20
180.8602309200378
 30
0.0
 40
14.08090474168499
100
AcDbArc
 50
326.6514820000006
 51
33.3498529999996
  0
ARC
  5
5FC3
102
{ACAD_REACTORS
330
5FE9
102
}
330
A
100
AcDbEntity
  8
CutoutUnderlay
  6
Continuous
100
AcDbCircle
 10
529.2749155115546
 20
174.2218449200377
 30
0.0
 40
2.003979395439726
100
AcDbArc
 50
270.8851010000031
 51
326.6268809999975
  0
LINE
  5
5FC4
102
{ACAD_REACTORS
330
5FE9
102
}
330
A
100
AcDbEntity
  8
CutoutUnderlay
  6
Continuous
100
AcDbLine
 10
529.4810025115546
 20
172.2284909200378
 30
0.0
 11
529.4595955115535
 21
172.2265399200378
 31
0.0
  0
LINE
  5
5FC5
102
{ACAD_REACTORS
330
5FE9
102
}
330
A
100
AcDbEntity
  8
CutoutUnderlay
  6
Continuous
100
AcDbLine
 10
517.4530605115535
 20
171.2375459200378
 30
0.0
 11
517.4376975115536
 21
171.2364149200378
 31
0.0
  0
ARC
  5
5FC6
102
{ACAD_REACTORS
330
5FE9
102
}
330
A
100
AcDbEntity
  8
CutoutUnderlay
  6
Continuous
100
AcDbCircle
 10
517.3066155115546
 20
173.2262559200377
 30
0.0
 40
1.994153321360861
100
AcDbArc
 50
270.1228920000033
 51
273.7689490000054
  0
LINE
  5
5FC7
102
{ACAD_REACTORS
330
5FE9
102
}
330
A
100
AcDbEntity
  8
CutoutUnderlay
  6
Continuous
100
AcDbLine
 10
529.4387065115536
 20
189.4960079200378
 30
0.0
 11
529.4842545115546
 21
189.4918589200377
 31
0.0
  0
LINE
  5
5FC8
102
{ACAD_REACTORS
330
5FE9
102
}
330
A
100
AcDbEntity
  8
CutoutUnderlay
  6
HIDDEN2
100
AcDbLine
 10
516.4374155115536
 20
190.5572389200377
 30
0.0
 11
516.4653885115547
 21
190.5552189200377
 31
0.0
  0
LINE
  5
5FC9
102
{ACAD_REACTORS
330
5FE9
102
}
330
A
100
AcDbEntity
  8
CutoutUnderlay
  6
HIDDEN2
100
AcDbLine
 10
516.4864175115547
 20
171.1719939200377
 30
0.0
 11
516.4374155115536
 21
171.1684539200378
 31
0.0
  0
ARC
  5
5FCA
102
{ACAD_REACTORS
330
5FE9
102
}
330
A
100
AcDbEntity
  8
CutoutUnderlay
  6
HIDDEN2
100
AcDbCircle
 10
408.7439935115548
 20
180.8628469200378
 30
0.0
 40
11.99996509608272
100
AcDbArc
 50
306.3733250000001
 51
53.62667300000079
  0
ARC
  5
5FCB
102
{ACAD_REACTORS
330
5FE9
102
}
330
A
100
AcDbEntity
  8
CutoutUnderlay
  6
Continuous
100
AcDbCircle
 10
408.8721245115548
 20
180.8628449200378
 30
0.0
 40
27.5
100
AcDbArc
 50
23.48408455377067
 51
336.3055605938794
  0
ARC
  5
5FCC
102
{ACAD_REACTORS
330
5FE9
102
}
330
A
100
AcDbEntity
  8
CutoutUnderlay
  6
DASHED1
100
AcDbCircle
 10
408.9333051838011
 20
180.6835790331918
 30
0.0
 40
27.5
100
AcDbArc
 50
336.3910372479264
 51
23.2952650850087
  0
LINE
  5
5FCD
102
{ACAD_REACTORS
330
5FE9
102
}
330
A
100
AcDbEntity
  8
CutoutUnderlay
  6
Continuous
100
AcDbLine
 10
529.1391605115548
 20
173.9284029200378
 30
0.0
 11
520.7476815115549
 21
173.2093249200378
 31
0.0
  0
LINE
  5
5FCE
102
{ACAD_REACTORS
330
5FE9
102
}
330
A
100
AcDbEntity
  8
CutoutUnderlay
  6
Continuous
100
AcDbLine
 10
520.7476815115549
 20
173.2093249200378
 30
0.0
 11
512.2628255115549
 21
172.5908499200378
 31
0.0
  0
LINE
  5
5FCF
102
{ACAD_REACTORS
330
5FE9
102
}
330
A
100
AcDbEntity
  8
CutoutUnderlay
  6
Continuous
100
AcDbLine
 10
512.2628255115549
 20
172.5908499200378
 30
0.0
 11
503.6989375115548
 21
172.0748749200378
 31
0.0
  0
LINE
  5
5FD0
102
{ACAD_REACTORS
330
5FE9
102
}
330
A
100
AcDbEntity
  8
CutoutUnderlay
  6
Continuous
100
AcDbLine
 10
503.6989375115548
 20
172.0748749200378
 30
0.0
 11
495.0704735115549
 21
171.6633539200378
 31
0.0
  0
LINE
  5
5FD1
102
{ACAD_REACTORS
330
5FE9
102
}
330
A
100
AcDbEntity
  8
CutoutUnderlay
  6
Continuous
100
AcDbLine
 10
495.0704735115549
 20
171.6633539200378
 30
0.0
 11
486.392121511555
 21
171.3582669200378
 31
0.0
  0
LINE
  5
5FD2
102
{ACAD_REACTORS
330
5FE9
102
}
330
A
100
AcDbEntity
  8
CutoutUnderlay
  6
Continuous
100
AcDbLine
 10
486.392121511555
 20
171.3582669200378
 30
0.0
 11
477.6788185115549
 21
171.1612769200378
 31
0.0
  0
LINE
  5
5FD3
102
{ACAD_REACTORS
330
5FE9
102
}
330
A
100
AcDbEntity
  8
CutoutUnderlay
  6
Continuous
100
AcDbLine
 10
477.6788185115549
 20
171.1612769200378
 30
0.0
 11
468.9456715115548
 21
171.0736649200378
 31
0.0
  0
LINE
  5
5FD4
102
{ACAD_REACTORS
330
5FE9
102
}
330
A
100
AcDbEntity
  8
CutoutUnderlay
  6
Continuous
100
AcDbLine
 10
468.9456715115548
 20
171.0736649200378
 30
0.0
 11
460.2079895115549
 21
171.0961259200378
 31
0.0
  0
LINE
  5
5FD5
102
{ACAD_REACTORS
330
5FE9
102
}
330
A
100
AcDbEntity
  8
CutoutUnderlay
  6
Continuous
100
AcDbLine
 10
460.2079895115549
 20
171.0961259200378
 30
0.0
 11
451.4811375115549
 21
171.2285089200378
 31
0.0
  0
LINE
  5
5FD6
102
{ACAD_REACTORS
330
5FE9
102
}
330
A
100
AcDbEntity
  8
CutoutUnderlay
  6
Continuous
100
AcDbLine
 10
451.4811375115549
 20
171.2285089200378
 30
0.0
 11
442.7803165115549
 21
171.4698479200378
 31
0.0
  0
LINE
  5
5FD7
102
{ACAD_REACTORS
330
5FE9
102
}
330
A
100
AcDbEntity
  8
CutoutUnderlay
  6
Continuous
100
AcDbLine
 10
442.7803165115549
 20
171.4698479200378
 30
0.0
 11
434.1205895115549
 21
171.8187279200378
 31
0.0
  0
LINE
  5
5FD8
102
{ACAD_REACTORS
330
5FE9
102
}
330
A
100
AcDbEntity
  8
CutoutUnderlay
  6
Continuous
100
AcDbLine
 10
434.1205895115549
 20
171.8187279200378
 30
0.0
 11
425.5167965115549
 21
172.2734169200378
 31
0.0
  0
LINE
  5
5FD9
102
{ACAD_REACTORS
330
5FE9
102
}
330
A
100
AcDbEntity
  8
CutoutUnderlay
  6
Continuous
100
AcDbLine
 10
425.5167965115549
 20
172.2734169200378
 30
0.0
 11
416.9835205115549
 21
172.8320339200378
 31
0.0
  0
LINE
  5
5FDA
102
{ACAD_REACTORS
330
5FE9
102
}
330
A
100
AcDbEntity
  8
CutoutUnderlay
  6
Continuous
100
AcDbLine
 10
416.9835205115549
 20
172.8320339200378
 30
0.0
 11
408.0219675115549
 21
173.5364909200378
 31
0.0
  0
LINE
  5
5FDB
102
{ACAD_REACTORS
330
5FE9
102
}
330
A
100
AcDbEntity
  8
CutoutUnderlay
  6
Continuous
100
AcDbLine
 10
408.0219675115549
 20
188.1892029200379
 30
0.0
 11
416.4647645115548
 21
188.8562179200379
 31
0.0
  0
LINE
  5
5FDC
102
{ACAD_REACTORS
330
5FE9
102
}
330
A
100
AcDbEntity
  8
CutoutUnderlay
  6
Continuous
100
AcDbLine
 10
416.4647645115548
 20
188.8562179200379
 30
0.0
 11
424.9933685115549
 21
189.4211099200379
 31
0.0
  0
LINE
  5
5FDD
102
{ACAD_REACTORS
330
5FE9
102
}
330
A
100
AcDbEntity
  8
CutoutUnderlay
  6
Continuous
100
AcDbLine
 10
424.9933685115549
 20
189.4211099200379
 30
0.0
 11
433.5933735115548
 21
189.8822109200379
 31
0.0
  0
LINE
  5
5FDE
102
{ACAD_REACTORS
330
5FE9
102
}
330
A
100
AcDbEntity
  8
CutoutUnderlay
  6
Continuous
100
AcDbLine
 10
433.5933735115548
 20
189.8822109200379
 30
0.0
 11
442.2502105115549
 21
190.2376099200379
 31
0.0
  0
LINE
  5
5FDF
102
{ACAD_REACTORS
330
5FE9
102
}
330
A
100
AcDbEntity
  8
CutoutUnderlay
  6
Continuous
100
AcDbLine
 10
442.2502105115549
 20
190.2376099200379
 30
0.0
 11
450.9490515115548
 21
190.4855589200378
 31
0.0
  0
LINE
  5
5FE0
102
{ACAD_REACTORS
330
5FE9
102
}
330
A
100
AcDbEntity
  8
CutoutUnderlay
  6
Continuous
100
AcDbLine
 10
450.9490515115548
 20
190.4855589200378
 30
0.0
 11
459.6748585115549
 21
190.6246249200379
 31
0.0
  0
LINE
  5
5FE1
102
{ACAD_REACTORS
330
5FE9
102
}
330
A
100
AcDbEntity
  8
CutoutUnderlay
  6
Continuous
100
AcDbLine
 10
459.6748585115549
 20
190.6246249200379
 30
0.0
 11
468.4124195115549
 21
190.6538259200379
 31
0.0
  0
LINE
  5
5FE2
102
{ACAD_REACTORS
330
5FE9
102
}
330
A
100
AcDbEntity
  8
CutoutUnderlay
  6
Continuous
100
AcDbLine
 10
468.4124195115549
 20
190.6538259200379
 30
0.0
 11
477.1463785115549
 21
190.5729069200379
 31
0.0
  0
LINE
  5
5FE3
102
{ACAD_REACTORS
330
5FE9
102
}
330
A
100
AcDbEntity
  8
CutoutUnderlay
  6
Continuous
100
AcDbLine
 10
477.1463785115549
 20
190.5729069200379
 30
0.0
 11
485.8614355115549
 21
190.3825539200379
 31
0.0
  0
LINE
  5
5FE4
102
{ACAD_REACTORS
330
5FE9
102
}
330
A
100
AcDbEntity
  8
CutoutUnderlay
  6
Continuous
100
AcDbLine
 10
485.8614355115549
 20
190.3825539200379
 30
0.0
 11
494.5424505115548
 21
190.0840139200378
 31
0.0
  0
LINE
  5
5FE5
102
{ACAD_REACTORS
330
5FE9
102
}
330
A
100
AcDbEntity
  8
CutoutUnderlay
  6
Continuous
100
AcDbLine
 10
494.5424505115548
 20
190.0840139200378
 30
0.0
 11
503.1744855115549
 21
189.6789289200379
 31
0.0
  0
LINE
  5
5FE6
102
{ACAD_REACTORS
330
5FE9
102
}
330
A
100
AcDbEntity
  8
CutoutUnderlay
  6
Continuous
100
AcDbLine
 10
503.1744855115549
 20
189.6789289200379
 30
0.0
 11
511.742821511555
 21
189.1692419200379
 31
0.0
  0
LINE
  5
5FE7
102
{ACAD_REACTORS
330
5FE9
102
}
330
A
100
AcDbEntity
  8
CutoutUnderlay
  6
Continuous
100
AcDbLine
 10
511.742821511555
 20
189.1692419200379
 30
0.0
 11
520.2330025115548
 21
188.5569659200379
 31
0.0
  0
LINE
  5
5FE8
102
{ACAD_REACTORS
330
5FE9
102
}
330
A
100
AcDbEntity
  8
CutoutUnderlay
  6
Continuous
100
AcDbLine
 10
520.2330025115548
 20
188.5569659200379
 30
0.0
 11
529.1391605115548
 21
187.7972649200379
 31
0.0
  0
CIRCLE
  5
6031
330
A
100
AcDbEntity
  8
HIDDEN
 48
0.25
100
AcDbCircle
 10
142.5771040519344
 20
180.4759391094084
 30
0.0
 40
2.458499999999954
  0
LINE
  5
6032
330
A
100
AcDbEntity
  8
寸法
  6
CENTER
 48
0.25
100
AcDbLine
 10
112.1674612930943
 20
331.8540791593855
 30
0.0
 11
101.0794319196429
 21
331.8540791593855
 31
0.0
  0
LINE
  5
6033
330
A
100
AcDbEntity
  8
寸法
100
AcDbLine
 10
98.19358113062087
 20
333.3931129784924
 30
0.0
 11
95.06864228957743
 21
333.3931129784924
 31
0.0
  0
LINE
  5
6034
330
A
100
AcDbEntity
  8
寸法
100
AcDbLine
 10
98.19358113062087
 20
333.3931129784924
 30
0.0
 11
99.05383929429415
 21
331.9418747143711
 31
0.0
  0
LINE
  5
6035
330
A
100
AcDbEntity
  8
寸法
100
AcDbLine
 10
95.06864228957743
 20
333.3931129784924
 30
0.0
 11
95.06864228957743
 21
331.9418747143711
 31
0.0
  0
LINE
  5
6036
330
A
100
AcDbEntity
  8
寸法
100
AcDbLine
 10
98.19358113062087
 20
330.4906364502501
 30
0.0
 11
95.06864228957743
 21
330.4906364502501
 31
0.0
  0
LINE
  5
6037
330
A
100
AcDbEntity
  8
寸法
100
AcDbLine
 10
98.19358113062087
 20
330.4906364502501
 30
0.0
 11
99.05383929429415
 21
331.9418747143711
 31
0.0
  0
LINE
  5
6038
330
A
100
AcDbEntity
  8
寸法
100
AcDbLine
 10
95.06864228957743
 20
330.4906364502501
 30
0.0
 11
95.06864228957743
 21
331.9418747143711
 31
0.0
  0
LINE
  5
6039
330
A
100
AcDbEntity
  8
寸法
100
AcDbLine
 10
98.19358113062087
 20
333.3931129784924
 30
0.0
 11
97.72266534703105
 21
330.4906364502501
 31
0.0
  0
LINE
  5
603A
330
A
100
AcDbEntity
  8
寸法
100
AcDbLine
 10
97.3743971630743
 20
333.3931129784924
 30
0.0
 11
96.90348137948449
 21
330.4906364502501
 31
0.0
  0
LINE
  5
603B
330
A
100
AcDbEntity
  8
寸法
100
AcDbLine
 10
96.5210805302135
 20
333.3931129784924
 30
0.0
 11
96.05016474662345
 21
330.4906364502501
 31
0.0
  0
LINE
  5
603C
330
A
100
AcDbEntity
  8
寸法
100
AcDbLine
 10
95.7360292279814
 20
333.3931129784924
 30
0.0
 11
95.26511344439147
 21
330.4906364502501
 31
0.0
  0
ARC
  5
6225
102
{ACAD_REACTORS
330
6280
330
6281
102
}
330
A
100
AcDbEntity
  8
MODEL
  6
Continuous
100
AcDbCircle
 10
435.1230171164623
 20
332.5842388105481
 30
0.0
 40
300.9925264082985
100
AcDbArc
 50
182.466999
 51
185.165303
  0
ARC
  5
6226
102
{ACAD_REACTORS
330
6280
330
6281
102
}
330
A
100
AcDbEntity
  8
MODEL
  6
Continuous
100
AcDbCircle
 10
368.5174641164623
 20
332.4573778105481
 30
0.0
 40
250.0800996700063
100
AcDbArc
 50
182.9584889999999
 51
182.959195
  0
ARC
  5
6227
102
{ACAD_REACTORS
330
6280
330
6281
102
}
330
A
100
AcDbEntity
  8
MODEL
  6
Continuous
100
AcDbCircle
 10
368.5174641164623
 20
332.4573778105481
 30
0.0
 40
250.0800996700063
100
AcDbArc
 50
182.959889
 51
187.462295
  0
ARC
  5
6228
102
{ACAD_REACTORS
330
6280
330
6281
102
}
330
A
100
AcDbEntity
  8
MODEL
  6
Continuous
100
AcDbCircle
 10
184.6672131164623
 20
504.3247958105481
 30
0.0
 40
219.3497160866009
100
AcDbArc
 50
254.623659
 51
284.706222
  0
ARC
  5
6229
102
{ACAD_REACTORS
330
6280
330
6281
102
}
330
A
100
AcDbEntity
  8
MODEL
  6
Continuous
100
AcDbCircle
 10
2.26179811646233
 20
332.2628198105481
 30
0.0
 40
246.4974775005399
100
AcDbArc
 50
352.336259
 51
357.378522
  0
LINE
  5
622A
102
{ACAD_REACTORS
330
6280
330
6281
102
}
330
A
100
AcDbEntity
  8
MODEL
  6
Continuous
100
AcDbLine
 10
234.9895021164623
 20
321.0494428105481
 30
0.0
 11
234.7916721164623
 21
316.5398908105481
 31
0.0
  0
LINE
  5
622B
102
{ACAD_REACTORS
330
6280
330
6281
102
}
330
A
100
AcDbEntity
  8
MODEL
  6
Continuous
100
AcDbLine
 10
234.7916721164623
 20
316.5398908105481
 30
0.0
 11
234.5179981164623
 21
312.0339398105481
 31
0.0
  0
LINE
  5
622C
102
{ACAD_REACTORS
330
6280
330
6281
102
}
330
A
100
AcDbEntity
  8
MODEL
  6
Continuous
100
AcDbLine
 10
234.5179981164623
 20
312.0339398105481
 30
0.0
 11
234.0004731164623
 21
305.5514268105481
 31
0.0
  0
LINE
  5
622D
102
{ACAD_REACTORS
330
6280
330
6281
102
}
330
A
100
AcDbEntity
  8
MODEL
  6
Continuous
100
AcDbLine
 10
228.0453341164623
 20
298.2527508105481
 30
0.0
 11
229.0963441164623
 21
298.6292468105481
 31
0.0
  0
LINE
  5
622E
102
{ACAD_REACTORS
330
6280
330
6281
102
}
330
A
100
AcDbEntity
  8
MODEL
  6
Continuous
100
AcDbLine
 10
229.0963441164623
 20
298.6292468105481
 30
0.0
 11
230.0863271164623
 21
299.1385848105481
 31
0.0
  0
LINE
  5
622F
102
{ACAD_REACTORS
330
6280
330
6281
102
}
330
A
100
AcDbEntity
  8
MODEL
  6
Continuous
100
AcDbLine
 10
230.0863271164623
 20
299.1385848105481
 30
0.0
 11
230.9952931164623
 21
299.774967810548
 31
0.0
  0
LINE
  5
6230
102
{ACAD_REACTORS
330
6280
330
6281
102
}
330
A
100
AcDbEntity
  8
MODEL
  6
Continuous
100
AcDbLine
 10
230.9952931164623
 20
299.774967810548
 30
0.0
 11
231.8085861164623
 21
300.5302168105481
 31
0.0
  0
LINE
  5
6231
102
{ACAD_REACTORS
330
6280
330
6281
102
}
330
A
100
AcDbEntity
  8
MODEL
  6
Continuous
100
AcDbLine
 10
231.8085861164623
 20
300.5302168105481
 30
0.0
 11
232.5094601164623
 21
301.3890428105481
 31
0.0
  0
LINE
  5
6232
102
{ACAD_REACTORS
330
6280
330
6281
102
}
330
A
100
AcDbEntity
  8
MODEL
  6
Continuous
100
AcDbLine
 10
232.5094601164623
 20
301.3890428105481
 30
0.0
 11
233.0855711164623
 21
302.3375598105481
 31
0.0
  0
LINE
  5
6233
102
{ACAD_REACTORS
330
6280
330
6281
102
}
330
A
100
AcDbEntity
  8
MODEL
  6
Continuous
100
AcDbLine
 10
233.0855711164623
 20
302.3375598105481
 30
0.0
 11
233.5288391164623
 21
303.3570598105481
 31
0.0
  0
LINE
  5
6234
102
{ACAD_REACTORS
330
6280
330
6281
102
}
330
A
100
AcDbEntity
  8
MODEL
  6
Continuous
100
AcDbLine
 10
233.5288391164623
 20
303.3570598105481
 30
0.0
 11
233.8339081164623
 21
304.428989810548
 31
0.0
  0
LINE
  5
6235
102
{ACAD_REACTORS
330
6280
330
6281
102
}
330
A
100
AcDbEntity
  8
MODEL
  6
Continuous
100
AcDbLine
 10
233.8339081164623
 20
304.428989810548
 30
0.0
 11
234.0004731164623
 21
305.5514268105481
 31
0.0
  0
LINE
  5
6236
102
{ACAD_REACTORS
330
6280
330
6281
102
}
330
A
100
AcDbEntity
  8
MODEL
  6
Continuous
100
AcDbLine
 10
228.0452961164623
 20
298.2527818105481
 30
0.0
 11
223.3425141164623
 21
296.9802898105481
 31
0.0
  0
LINE
  5
6237
102
{ACAD_REACTORS
330
6280
330
6281
102
}
330
A
100
AcDbEntity
  8
MODEL
  6
Continuous
100
AcDbLine
 10
223.3425141164623
 20
296.9802898105481
 30
0.0
 11
218.6018451164623
 21
295.8505908105481
 31
0.0
  0
LINE
  5
6238
102
{ACAD_REACTORS
330
6280
330
6281
102
}
330
A
100
AcDbEntity
  8
MODEL
  6
Continuous
100
AcDbLine
 10
218.6018451164623
 20
295.8505908105481
 30
0.0
 11
213.8274001164623
 21
294.8667038105481
 31
0.0
  0
LINE
  5
6239
102
{ACAD_REACTORS
330
6280
330
6281
102
}
330
A
100
AcDbEntity
  8
MODEL
  6
Continuous
100
AcDbLine
 10
213.8274001164623
 20
294.8667038105481
 30
0.0
 11
209.0233381164623
 21
294.0310408105481
 31
0.0
  0
LINE
  5
623A
102
{ACAD_REACTORS
330
6280
330
6281
102
}
330
A
100
AcDbEntity
  8
MODEL
  6
Continuous
100
AcDbLine
 10
209.0233381164623
 20
294.0310408105481
 30
0.0
 11
204.1944271164623
 21
293.3449448105481
 31
0.0
  0
LINE
  5
623B
102
{ACAD_REACTORS
330
6280
330
6281
102
}
330
A
100
AcDbEntity
  8
MODEL
  6
Continuous
100
AcDbLine
 10
204.1944271164623
 20
293.3449448105481
 30
0.0
 11
199.3455581164623
 21
292.8096058105481
 31
0.0
  0
LINE
  5
623C
102
{ACAD_REACTORS
330
6280
330
6281
102
}
330
A
100
AcDbEntity
  8
MODEL
  6
Continuous
100
AcDbLine
 10
199.3455581164623
 20
292.8096058105481
 30
0.0
 11
194.4815981164623
 21
292.4262128105481
 31
0.0
  0
LINE
  5
623D
102
{ACAD_REACTORS
330
6280
330
6281
102
}
330
A
100
AcDbEntity
  8
MODEL
  6
Continuous
100
AcDbLine
 10
194.4815981164623
 20
292.4262128105481
 30
0.0
 11
189.6074141164623
 21
292.1954388105481
 31
0.0
  0
LINE
  5
623E
102
{ACAD_REACTORS
330
6280
330
6281
102
}
330
A
100
AcDbEntity
  8
MODEL
  6
Continuous
100
AcDbLine
 10
189.6074141164623
 20
292.1954388105481
 30
0.0
 11
184.7280881164623
 21
292.1173138105481
 31
0.0
  0
LINE
  5
623F
102
{ACAD_REACTORS
330
6280
330
6281
102
}
330
A
100
AcDbEntity
  8
MODEL
  6
Continuous
100
AcDbLine
 10
184.7280881164623
 20
292.1173138105481
 30
0.0
 11
179.8487201164623
 21
292.1919598105481
 31
0.0
  0
LINE
  5
6240
102
{ACAD_REACTORS
330
6280
330
6281
102
}
330
A
100
AcDbEntity
  8
MODEL
  6
Continuous
100
AcDbLine
 10
179.8487201164623
 20
292.1919598105481
 30
0.0
 11
174.9744071164623
 21
292.4194378105481
 31
0.0
  0
LINE
  5
6241
102
{ACAD_REACTORS
330
6280
330
6281
102
}
330
A
100
AcDbEntity
  8
MODEL
  6
Continuous
100
AcDbLine
 10
174.9744071164623
 20
292.4194378105481
 30
0.0
 11
170.1101041164623
 21
292.7994738105481
 31
0.0
  0
LINE
  5
6242
102
{ACAD_REACTORS
330
6280
330
6281
102
}
330
A
100
AcDbEntity
  8
MODEL
  6
Continuous
100
AcDbLine
 10
170.1101041164623
 20
292.7994738105481
 30
0.0
 11
165.2607651164623
 21
293.3312428105481
 31
0.0
  0
LINE
  5
6243
102
{ACAD_REACTORS
330
6280
330
6281
102
}
330
A
100
AcDbEntity
  8
MODEL
  6
Continuous
100
AcDbLine
 10
165.2607651164623
 20
293.3312428105481
 30
0.0
 11
160.4313771164623
 21
294.0138598105481
 31
0.0
  0
LINE
  5
6244
102
{ACAD_REACTORS
330
6280
330
6281
102
}
330
A
100
AcDbEntity
  8
MODEL
  6
Continuous
100
AcDbLine
 10
160.4313771164623
 20
294.0138598105481
 30
0.0
 11
155.6268941164623
 21
294.8464098105481
 31
0.0
  0
LINE
  5
6245
102
{ACAD_REACTORS
330
6280
330
6281
102
}
330
A
100
AcDbEntity
  8
MODEL
  6
Continuous
100
AcDbLine
 10
155.6268941164623
 20
294.8464098105481
 30
0.0
 11
150.8517651164623
 21
295.8272748105481
 31
0.0
  0
LINE
  5
6246
102
{ACAD_REACTORS
330
6280
330
6281
102
}
330
A
100
AcDbEntity
  8
MODEL
  6
Continuous
100
AcDbLine
 10
150.8517651164623
 20
295.8272748105481
 30
0.0
 11
146.1102161164623
 21
296.9536788105481
 31
0.0
  0
LINE
  5
6247
102
{ACAD_REACTORS
330
6280
330
6281
102
}
330
A
100
AcDbEntity
  8
MODEL
  6
Continuous
100
AcDbLine
 10
146.1102161164623
 20
296.9536788105481
 30
0.0
 11
141.3022311164623
 21
298.2527818105481
 31
0.0
  0
LINE
  5
6248
102
{ACAD_REACTORS
330
6280
330
6281
102
}
330
A
100
AcDbEntity
  8
MODEL
  6
Continuous
100
AcDbLine
 10
135.3527171164623
 20
305.4859968105481
 30
0.0
 11
135.5220161164623
 21
304.390263810548
 31
0.0
  0
LINE
  5
6249
102
{ACAD_REACTORS
330
6280
330
6281
102
}
330
A
100
AcDbEntity
  8
MODEL
  6
Continuous
100
AcDbLine
 10
135.5220161164623
 20
304.390263810548
 30
0.0
 11
135.8289841164623
 21
303.3273968105481
 31
0.0
  0
LINE
  5
624A
102
{ACAD_REACTORS
330
6280
330
6281
102
}
330
A
100
AcDbEntity
  8
MODEL
  6
Continuous
100
AcDbLine
 10
135.8289841164623
 20
303.3273968105481
 30
0.0
 11
136.2715351164623
 21
302.3174178105481
 31
0.0
  0
LINE
  5
624B
102
{ACAD_REACTORS
330
6280
330
6281
102
}
330
A
100
AcDbEntity
  8
MODEL
  6
Continuous
100
AcDbLine
 10
136.2715351164623
 20
302.3174178105481
 30
0.0
 11
136.8456421164623
 21
301.3775378105481
 31
0.0
  0
LINE
  5
624C
102
{ACAD_REACTORS
330
6280
330
6281
102
}
330
A
100
AcDbEntity
  8
MODEL
  6
Continuous
100
AcDbLine
 10
136.8456421164623
 20
301.3775378105481
 30
0.0
 11
137.5421261164623
 21
300.5257008105481
 31
0.0
  0
LINE
  5
624D
102
{ACAD_REACTORS
330
6280
330
6281
102
}
330
A
100
AcDbEntity
  8
MODEL
  6
Continuous
100
AcDbLine
 10
137.5421261164623
 20
300.5257008105481
 30
0.0
 11
138.3494781164623
 21
299.7770128105481
 31
0.0
  0
LINE
  5
624E
102
{ACAD_REACTORS
330
6280
330
6281
102
}
330
A
100
AcDbEntity
  8
MODEL
  6
Continuous
100
AcDbLine
 10
138.3494781164623
 20
299.7770128105481
 30
0.0
 11
139.2517941164623
 21
299.144474810548
 31
0.0
  0
LINE
  5
624F
102
{ACAD_REACTORS
330
6280
330
6281
102
}
330
A
100
AcDbEntity
  8
MODEL
  6
Continuous
100
AcDbLine
 10
139.2517941164623
 20
299.144474810548
 30
0.0
 11
140.2333511164623
 21
298.637089810548
 31
0.0
  0
LINE
  5
6250
102
{ACAD_REACTORS
330
6280
330
6281
102
}
330
A
100
AcDbEntity
  8
MODEL
  6
Continuous
100
AcDbLine
 10
140.2333511164623
 20
298.637089810548
 30
0.0
 11
141.3021911164623
 21
298.2527508105481
 31
0.0
  0
LINE
  5
6251
102
{ACAD_REACTORS
330
6280
330
6281
102
}
330
A
100
AcDbEntity
  8
MODEL
  6
Continuous
100
AcDbLine
 10
134.4094571164623
 20
319.6283308105481
 30
0.0
 11
134.3259451164623
 21
320.4102218105481
 31
0.0
  0
LINE
  5
6252
102
{ACAD_REACTORS
330
6280
330
6281
102
}
330
A
100
AcDbEntity
  8
MODEL
  6
Continuous
100
AcDbLine
 10
134.3259451164623
 20
320.4102218105481
 30
0.0
 11
134.1565041164623
 21
321.1808518105481
 31
0.0
  0
LINE
  5
6253
102
{ACAD_REACTORS
330
6280
330
6281
102
}
330
A
100
AcDbEntity
  8
MODEL
  6
Continuous
100
AcDbLine
 10
134.1565041164623
 20
321.1808518105481
 30
0.0
 11
133.8966721164623
 21
321.9296618105481
 31
0.0
  0
LINE
  5
6254
102
{ACAD_REACTORS
330
6280
330
6281
102
}
330
A
100
AcDbEntity
  8
MODEL
  6
Continuous
100
AcDbLine
 10
133.8966721164623
 20
321.9296618105481
 30
0.0
 11
133.5380311164623
 21
322.6456038105481
 31
0.0
  0
LINE
  5
6255
102
{ACAD_REACTORS
330
6280
330
6281
102
}
330
A
100
AcDbEntity
  8
MODEL
  6
Continuous
100
AcDbLine
 10
133.5380311164623
 20
322.6456038105481
 30
0.0
 11
133.0734751164623
 21
323.3107648105481
 31
0.0
  0
LINE
  5
6256
102
{ACAD_REACTORS
330
6280
330
6281
102
}
330
A
100
AcDbEntity
  8
MODEL
  6
Continuous
100
AcDbLine
 10
133.0734751164623
 20
323.3107648105481
 30
0.0
 11
132.5024681164623
 21
323.9063458105481
 31
0.0
  0
LINE
  5
6257
102
{ACAD_REACTORS
330
6280
330
6281
102
}
330
A
100
AcDbEntity
  8
MODEL
  6
Continuous
100
AcDbLine
 10
132.5024681164623
 20
323.9063458105481
 30
0.0
 11
131.8327591164623
 21
324.4145858105481
 31
0.0
  0
LINE
  5
6258
102
{ACAD_REACTORS
330
6280
330
6281
102
}
330
A
100
AcDbEntity
  8
MODEL
  6
Continuous
100
AcDbLine
 10
131.8327591164623
 20
324.4145858105481
 30
0.0
 11
131.0836991164623
 21
324.8279158105481
 31
0.0
  0
LINE
  5
6259
102
{ACAD_REACTORS
330
6280
330
6281
102
}
330
A
100
AcDbEntity
  8
MODEL
  6
Continuous
100
AcDbLine
 10
131.0836991164623
 20
324.8279158105481
 30
0.0
 11
130.2724541164623
 21
325.1491438105481
 31
0.0
  0
LINE
  5
625A
102
{ACAD_REACTORS
330
6280
330
6281
102
}
330
A
100
AcDbEntity
  8
MODEL
  6
Continuous
100
AcDbLine
 10
130.2724541164623
 20
325.1491438105481
 30
0.0
 11
129.4186151164623
 21
325.3875778105481
 31
0.0
  0
LINE
  5
625B
102
{ACAD_REACTORS
330
6280
330
6281
102
}
330
A
100
AcDbEntity
  8
MODEL
  6
Continuous
100
AcDbLine
 10
129.4186151164623
 20
325.3875778105481
 30
0.0
 11
128.5353161164623
 21
325.5555158105481
 31
0.0
  0
LINE
  5
625C
102
{ACAD_REACTORS
330
6280
330
6281
102
}
330
A
100
AcDbEntity
  8
MODEL
  6
Continuous
100
AcDbLine
 10
128.5353161164623
 20
325.5555158105481
 30
0.0
 11
127.6338951164623
 21
325.662846810548
 31
0.0
  0
LINE
  5
625D
102
{ACAD_REACTORS
330
6280
330
6281
102
}
330
A
100
AcDbEntity
  8
MODEL
  6
Continuous
100
AcDbLine
 10
127.6338951164623
 20
325.662846810548
 30
0.0
 11
126.7239771164623
 21
325.7176558105481
 31
0.0
  0
LINE
  5
625E
102
{ACAD_REACTORS
330
6280
330
6281
102
}
330
A
100
AcDbEntity
  8
MODEL
  6
Continuous
100
AcDbLine
 10
126.7239771164623
 20
325.7176558105481
 30
0.0
 11
125.8127891164623
 21
325.7231798105481
 31
0.0
  0
LINE
  5
625F
102
{ACAD_REACTORS
330
6280
330
6281
102
}
330
A
100
AcDbEntity
  8
MODEL
  6
Continuous
100
AcDbLine
 10
125.8127891164623
 20
325.7231798105481
 30
0.0
 11
124.9091501164623
 21
325.6799668105481
 31
0.0
  0
LINE
  5
6260
102
{ACAD_REACTORS
330
6280
330
6281
102
}
330
A
100
AcDbEntity
  8
MODEL
  6
Continuous
100
AcDbLine
 10
124.9091501164623
 20
325.6799668105481
 30
0.0
 11
124.0198291164623
 21
325.5841418105481
 31
0.0
  0
LINE
  5
6261
102
{ACAD_REACTORS
330
6280
330
6281
102
}
330
A
100
AcDbEntity
  8
MODEL
  6
Continuous
100
AcDbLine
 10
124.0198291164623
 20
325.5841418105481
 30
0.0
 11
123.1534221164623
 21
325.4278608105481
 31
0.0
  0
LINE
  5
6262
102
{ACAD_REACTORS
330
6280
330
6281
102
}
330
A
100
AcDbEntity
  8
MODEL
  6
Continuous
100
AcDbLine
 10
123.1534221164623
 20
325.4278608105481
 30
0.0
 11
122.3203681164623
 21
325.1987658105481
 31
0.0
  0
LINE
  5
6263
102
{ACAD_REACTORS
330
6280
330
6281
102
}
330
A
100
AcDbEntity
  8
MODEL
  6
Continuous
100
AcDbLine
 10
122.3203681164623
 20
325.1987658105481
 30
0.0
 11
121.5352491164623
 21
324.8822978105481
 31
0.0
  0
LINE
  5
6264
102
{ACAD_REACTORS
330
6280
330
6281
102
}
330
A
100
AcDbEntity
  8
MODEL
  6
Continuous
100
AcDbLine
 10
121.5352491164623
 20
324.8822978105481
 30
0.0
 11
120.8159941164623
 21
324.4653058105481
 31
0.0
  0
LINE
  5
6265
102
{ACAD_REACTORS
330
6280
330
6281
102
}
330
A
100
AcDbEntity
  8
MODEL
  6
Continuous
100
AcDbLine
 10
120.8159941164623
 20
324.4653058105481
 30
0.0
 11
120.1870251164623
 21
323.9411668105481
 31
0.0
  0
LINE
  5
6266
102
{ACAD_REACTORS
330
6280
330
6281
102
}
330
A
100
AcDbEntity
  8
MODEL
  6
Continuous
100
AcDbLine
 10
120.1870251164623
 20
323.9411668105481
 30
0.0
 11
119.6717241164623
 21
323.3215378105481
 31
0.0
  0
LINE
  5
6267
102
{ACAD_REACTORS
330
6280
330
6281
102
}
330
A
100
AcDbEntity
  8
MODEL
  6
Continuous
100
AcDbLine
 10
119.6717241164623
 20
323.3215378105481
 30
0.0
 11
119.2797481164623
 21
322.6297038105481
 31
0.0
  0
LINE
  5
6268
102
{ACAD_REACTORS
330
6280
330
6281
102
}
330
A
100
AcDbEntity
  8
MODEL
  6
Continuous
100
AcDbLine
 10
119.2797481164623
 20
322.6297038105481
 30
0.0
 11
119.0062181164623
 21
321.891727810548
 31
0.0
  0
LINE
  5
6269
102
{ACAD_REACTORS
330
6280
330
6281
102
}
330
A
100
AcDbEntity
  8
MODEL
  6
Continuous
100
AcDbLine
 10
119.0062181164623
 20
321.891727810548
 30
0.0
 11
118.8380591164623
 21
321.1275378105481
 31
0.0
  0
LINE
  5
626A
102
{ACAD_REACTORS
330
6280
330
6281
102
}
330
A
100
AcDbEntity
  8
MODEL
  6
Continuous
100
AcDbLine
 10
118.8380591164623
 20
321.1275378105481
 30
0.0
 11
118.7619731164623
 21
320.3497668105481
 31
0.0
  0
LINE
  5
626B
102
{ACAD_REACTORS
330
6280
330
6281
102
}
330
A
100
AcDbEntity
  8
MODEL
  6
Continuous
100
AcDbLine
 10
118.7619731164623
 20
320.3497668105481
 30
0.0
 11
118.7709881164623
 21
319.5440418105481
 31
0.0
  0
LINE
  5
626C
102
{ACAD_REACTORS
330
6280
330
6281
102
}
330
A
100
AcDbEntity
  8
MODEL
  6
Continuous
100
AcDbLine
 10
126.5049631164623
 20
292.8266948105481
 30
0.0
 11
125.5615141164623
 21
293.1643108105481
 31
0.0
  0
LINE
  5
626D
102
{ACAD_REACTORS
330
6280
330
6281
102
}
330
A
100
AcDbEntity
  8
MODEL
  6
Continuous
100
AcDbLine
 10
125.5615141164623
 20
293.1643108105481
 30
0.0
 11
124.6853751164623
 21
293.6196028105481
 31
0.0
  0
LINE
  5
626E
102
{ACAD_REACTORS
330
6280
330
6281
102
}
330
A
100
AcDbEntity
  8
MODEL
  6
Continuous
100
AcDbLine
 10
124.6853751164623
 20
293.6196028105481
 30
0.0
 11
123.8764601164623
 21
294.1739548105481
 31
0.0
  0
LINE
  5
626F
102
{ACAD_REACTORS
330
6280
330
6281
102
}
330
A
100
AcDbEntity
  8
MODEL
  6
Continuous
100
AcDbLine
 10
123.8764601164623
 20
294.1739548105481
 30
0.0
 11
123.1388591164623
 21
294.8160138105481
 31
0.0
  0
LINE
  5
6270
102
{ACAD_REACTORS
330
6280
330
6281
102
}
330
A
100
AcDbEntity
  8
MODEL
  6
Continuous
100
AcDbLine
 10
123.1388591164623
 20
294.8160138105481
 30
0.0
 11
122.4789631164623
 21
295.5358928105481
 31
0.0
  0
LINE
  5
6271
102
{ACAD_REACTORS
330
6280
330
6281
102
}
330
A
100
AcDbEntity
  8
MODEL
  6
Continuous
100
AcDbLine
 10
122.4789631164623
 20
295.5358928105481
 30
0.0
 11
121.9033621164623
 21
296.3237658105481
 31
0.0
  0
LINE
  5
6272
102
{ACAD_REACTORS
330
6280
330
6281
102
}
330
A
100
AcDbEntity
  8
MODEL
  6
Continuous
100
AcDbLine
 10
121.9033621164623
 20
296.3237658105481
 30
0.0
 11
121.4181331164623
 21
297.1703838105481
 31
0.0
  0
LINE
  5
6273
102
{ACAD_REACTORS
330
6280
330
6281
102
}
330
A
100
AcDbEntity
  8
MODEL
  6
Continuous
100
AcDbLine
 10
121.4181331164623
 20
297.1703838105481
 30
0.0
 11
121.0293401164623
 21
298.0653428105481
 31
0.0
  0
LINE
  5
6274
102
{ACAD_REACTORS
330
6280
330
6281
102
}
330
A
100
AcDbEntity
  8
MODEL
  6
Continuous
100
AcDbLine
 10
121.0293401164623
 20
298.0653428105481
 30
0.0
 11
120.7412981164623
 21
298.9976238105481
 31
0.0
  0
LINE
  5
6275
102
{ACAD_REACTORS
330
6280
330
6281
102
}
330
A
100
AcDbEntity
  8
MODEL
  6
Continuous
100
AcDbLine
 10
120.7412981164623
 20
298.9976238105481
 30
0.0
 11
120.5551091164623
 21
299.9785808105481
 31
0.0
  0
LINE
  5
6276
102
{ACAD_REACTORS
330
6280
330
6281
102
}
330
A
100
AcDbEntity
  8
MODEL
  6
Continuous
100
AcDbLine
 10
240.3518521164623
 20
292.1609238105481
 30
0.0
 11
241.3134921164623
 21
292.4856918105481
 31
0.0
  0
LINE
  5
6277
102
{ACAD_REACTORS
330
6280
330
6281
102
}
330
A
100
AcDbEntity
  8
MODEL
  6
Continuous
100
AcDbLine
 10
241.3134921164623
 20
292.4856918105481
 30
0.0
 11
242.2175441164623
 21
292.9285018105481
 31
0.0
  0
LINE
  5
6278
102
{ACAD_REACTORS
330
6280
330
6281
102
}
330
A
100
AcDbEntity
  8
MODEL
  6
Continuous
100
AcDbLine
 10
242.2175441164623
 20
292.9285018105481
 30
0.0
 11
243.0575561164623
 21
293.4747968105481
 31
0.0
  0
LINE
  5
6279
102
{ACAD_REACTORS
330
6281
102
}
330
A
100
AcDbEntity
  8
MODEL
  6
Continuous
100
AcDbLine
 10
243.0575561164623
 20
293.4747968105481
 30
0.0
 11
243.8265531164623
 21
294.1134388105481
 31
0.0
  0
LINE
  5
627A
102
{ACAD_REACTORS
330
6280
330
6281
102
}
330
A
100
AcDbEntity
  8
MODEL
  6
Continuous
100
AcDbLine
 10
243.8265531164623
 20
294.1134388105481
 30
0.0
 11
244.5171201164623
 21
294.8348738105481
 31
0.0
  0
LINE
  5
627B
102
{ACAD_REACTORS
330
6280
330
6281
102
}
330
A
100
AcDbEntity
  8
MODEL
  6
Continuous
100
AcDbLine
 10
244.5171201164623
 20
294.8348738105481
 30
0.0
 11
245.1213911164623
 21
295.6293078105481
 31
0.0
  0
LINE
  5
627C
102
{ACAD_REACTORS
330
6280
330
6281
102
}
330
A
100
AcDbEntity
  8
MODEL
  6
Continuous
100
AcDbLine
 10
245.1213911164623
 20
295.6293078105481
 30
0.0
 11
245.6324611164623
 21
296.4865768105481
 31
0.0
  0
LINE
  5
627D
102
{ACAD_REACTORS
330
6280
330
6281
102
}
330
A
100
AcDbEntity
  8
MODEL
  6
Continuous
100
AcDbLine
 10
245.6324611164623
 20
296.4865768105481
 30
0.0
 11
246.0439601164623
 21
297.3957868105481
 31
0.0
  0
LINE
  5
627E
102
{ACAD_REACTORS
330
6280
330
6281
102
}
330
A
100
AcDbEntity
  8
MODEL
  6
Continuous
100
AcDbLine
 10
246.0439601164623
 20
297.3957868105481
 30
0.0
 11
246.3508991164623
 21
298.345707810548
 31
0.0
  0
LINE
  5
627F
102
{ACAD_REACTORS
330
6280
330
6281
102
}
330
A
100
AcDbEntity
  8
MODEL
  6
Continuous
100
AcDbLine
 10
246.3508991164623
 20
298.345707810548
 30
0.0
 11
246.5573651164623
 21
299.3901108105481
 31
0.0
  0
MTEXT
  5
62D6
330
A
100
AcDbEntity
  8
テンプレート
390
1D
100
AcDbMText
 10
35.02123153496908
 20
34.57354675141926
 30
0.0
 40
5.0
 41
0.0
 46
5.205
 71
     1
 72
     1
  1
{アルミ}
  7
ＭＳ ゴシック
 73
     1
 44
0.7828267384257843
1001
ACAD
1000
ACAD_MTEXT_DEFINED_HEIGHT_BEGIN
1070
    46
1040
5.205
1000
ACAD_MTEXT_DEFINED_HEIGHT_END
  0
MTEXT
  5
62D7
330
A
100
AcDbEntity
  8
テンプレート
390
1D
100
AcDbMText
 10
243.5503247464253
 20
34.57354675141926
 30
0.0
 40
5.0
 41
0.0
 46
5.075
 71
     1
 72
     1
  1
{ステンレス}
  7
ＭＳ ゴシック
 73
     1
 44
0.7828267384257843
1001
ACAD
1000
ACAD_MTEXT_DEFINED_HEIGHT_BEGIN
1070
    46
1040
5.075
1000
ACAD_MTEXT_DEFINED_HEIGHT_END
  0
MTEXT
  5
62D8
330
A
100
AcDbEntity
  8
テンプレート
390
1D
100
AcDbMText
 10
34.78893721489681
 20
43.13396992254107
 30
0.0
 40
3.0
 41
0.0
 46
4.468
 71
     1
 72
     1
  1
{シャンパンシルバー}
  7
ＭＳ ゴシック
 73
     1
 44
0.7828267384257843
1001
ACAD
1000
ACAD_MTEXT_DEFINED_HEIGHT_BEGIN
1070
    46
1040
4.468
1000
ACAD_MTEXT_DEFINED_HEIGHT_END
  0
MTEXT
  5
62D9
330
A
100
AcDbEntity
  8
テンプレート
390
1D
100
AcDbMText
 10
34.78893721489681
 20
48.77911613324934
 30
0.0
 40
3.0
 41
0.0
 46
4.224
 71
     1
 72
     1
  1
{ナチュラル}
  7
ＭＳ ゴシック
 73
     1
 44
0.7828267384257843
1001
ACAD
1000
ACAD_MTEXT_DEFINED_HEIGHT_BEGIN
1070
    46
1040
4.224
1000
ACAD_MTEXT_DEFINED_HEIGHT_END
  0
MTEXT
  5
62DA
330
A
100
AcDbEntity
  8
テンプレート
390
1D
100
AcDbMText
 10
88.87425041605846
 20
43.13396992254107
 30
0.0
 40
3.0
 41
0.0
 46
4.468
 71
     1
 72
     1
  1
{ライトブロンズ}
  7
ＭＳ ゴシック
 73
     1
 44
0.7828267384257843
1001
ACAD
1000
ACAD_MTEXT_DEFINED_HEIGHT_BEGIN
1070
    46
1040
4.468
1000
ACAD_MTEXT_DEFINED_HEIGHT_END
  0
MTEXT
  5
62DB
330
A
100
AcDbEntity
  8
テンプレート
390
1D
100
AcDbMText
 10
88.87425041605846
 20
48.77911613324933
 30
0.0
 40
3.0
 41
0.0
 46
4.468
 71
     1
 72
     1
  1
{ゴールドブラスト}
  7
ＭＳ ゴシック
 73
     1
 44
0.7828267384257843
1001
ACAD
1000
ACAD_MTEXT_DEFINED_HEIGHT_BEGIN
1070
    46
1040
4.468
1000
ACAD_MTEXT_DEFINED_HEIGHT_END
  0
MTEXT
  5
62DC
330
A
100
AcDbEntity
  8
テンプレート
390
1D
100
AcDbMText
 10
139.8343001147318
 20
43.13396992254113
 30
0.0
 40
3.0
 41
0.0
 46
4.468
 71
     1
 72
     1
  1
{ダークブロンズ}
  7
ＭＳ ゴシック
 73
     1
 44
0.7828267384257843
1001
ACAD
1000
ACAD_MTEXT_DEFINED_HEIGHT_BEGIN
1070
    46
1040
4.468
1000
ACAD_MTEXT_DEFINED_HEIGHT_END
  0
MTEXT
  5
62DD
330
A
100
AcDbEntity
  8
テンプレート
390
1D
100
AcDbMText
 10
139.8343001147318
 20
48.77911613324939
 30
0.0
 40
3.0
 41
0.0
 46
4.468
 71
     1
 72
     1
  1
{ミディアムブロンズ}
  7
ＭＳ ゴシック
 73
     1
 44
0.7828267384257843
1001
ACAD
1000
ACAD_MTEXT_DEFINED_HEIGHT_BEGIN
1070
    46
1040
4.468
1000
ACAD_MTEXT_DEFINED_HEIGHT_END
  0
MTEXT
  5
62DE
330
A
100
AcDbEntity
  8
テンプレート
390
1D
100
AcDbMText
 10
194.0581809025754
 20
48.77911613324942
 30
0.0
 40
3.0
 41
0.0
 46
4.468
 71
     1
 72
     1
  1
{ブラックブラスト}
  7
ＭＳ ゴシック
 73
     1
 44
0.7828267384257843
1001
ACAD
1000
ACAD_MTEXT_DEFINED_HEIGHT_BEGIN
1070
    46
1040
4.468
1000
ACAD_MTEXT_DEFINED_HEIGHT_END
  0
LINE
  5
62DF
330
A
100
AcDbEntity
  8
テンプレート
  6
Continuous
100
AcDbLine
 10
191.6929578215278
 20
50.16496477419608
 30
0.0
 11
191.6929578215278
 21
38.278108904221
 31
0.0
  0
LINE
  5
62E0
330
A
100
AcDbEntity
  8
テンプレート
  6
Continuous
100
AcDbLine
 10
137.2622548266091
 20
50.16496477419606
 30
0.0
 11
137.2622548266091
 21
38.27810890422099
 31
0.0
  0
LINE
  5
62E1
330
A
100
AcDbEntity
  8
テンプレート
  6
Continuous
100
AcDbLine
 10
86.44498978318508
 20
50.16496477419605
 30
0.0
 11
86.44498978318518
 21
38.27810890422097
 31
0.0
  0
LINE
  5
62E2
330
A
100
AcDbEntity
  8
テンプレート
  6
Continuous
100
AcDbLine
 10
296.9999999999999
 20
44.22153683920783
 30
0.0
 11
33.63100153769662
 21
44.22153683920783
 31
0.0
  0
LINE
  5
62E3
330
A
100
AcDbEntity
  8
テンプレート
  6
Continuous
100
AcDbLine
 10
241.5029147091358
 20
50.16496477419611
 30
0.0
 11
241.5029147091358
 21
26.22153683920783
 31
0.0
  0
MTEXT
  5
62E4
330
A
100
AcDbEntity
  8
テンプレート
390
1D
100
AcDbMText
 10
243.8681377901834
 20
48.77911613324945
 30
0.0
 40
3.0
 41
0.0
 46
3.138
 71
     1
 72
     1
  1
{サテン}
  7
ＭＳ ゴシック
 73
     1
 44
0.7828267384257843
1001
ACAD
1000
ACAD_MTEXT_DEFINED_HEIGHT_BEGIN
1070
    46
1040
3.138
1000
ACAD_MTEXT_DEFINED_HEIGHT_END
  0
MTEXT
  5
62E5
330
A
100
AcDbEntity
  8
テンプレート
390
1D
100
AcDbMText
 10
243.8681377901834
 20
42.83568819826117
 30
0.0
 40
3.0
 41
0.0
 46
3.258
 71
     1
 72
     1
  1
{ポリッシュ}
  7
ＭＳ ゴシック
 73
     1
 44
0.7828267384257843
1001
ACAD
1000
ACAD_MTEXT_DEFINED_HEIGHT_BEGIN
1070
    46
1040
3.258
1000
ACAD_MTEXT_DEFINED_HEIGHT_END
  0
VIEWPORT
  5
349
330
B
100
AcDbEntity
 67
     1
  8
0
100
AcDbViewport
 10
202.5
 20
128.5
 30
0.0
 40
486.0
 41
308.4
 68
     1
 69
     1
 12
202.5
 22
128.5
 13
0.0
 23
0.0
 14
0.5
 24
0.5
 15
0.0
 25
0.0
 16
0.0
 26
0.0
 36
1.0
 17
0.0
 27
0.0
 37
0.0
 42
50.0
 43
0.0
 44
0.0
 45
308.4
 50
0.0
 51
0.0
 72
   100
 90
   557152
  1

281
     0
 71
     1
 74
     0
110
0.0
120
0.0
130
0.0
111
1.0
121
0.0
131
0.0
112
0.0
122
1.0
132
0.0
 79
     0
146
0.0
170
     0
 61
     5
348
26C
292
     1
282
     1
141
0.0
142
0.0
 63
   256
361
44F1
  0
VIEWPORT
  5
34A
330
B
100
AcDbEntity
 67
     1
  8
0
100
AcDbViewport
 10
202.5
 20
128.5
 30
0.0
 40
324.0
 41
205.6
 68
     2
 69
     2
 12
986.6781359294573
 22
1427.077061889956
 13
0.0
 23
0.0
 14
0.5
 24
0.5
 15
0.0
 25
0.0
 16
0.0
 26
0.0
 36
1.0
 17
0.0
 27
0.0
 37
0.0
 42
50.0
 43
0.0
 44
0.0
 45
2890.021615685494
 50
0.0
 51
0.0
 72
   100
 90
   557152
  1

281
     0
 71
     1
 74
     0
110
0.0
120
0.0
130
0.0
111
1.0
121
0.0
131
0.0
112
0.0
122
1.0
132
0.0
 79
     0
146
0.0
170
     0
 61
     5
348
26C
292
     1
282
     1
141
0.0
142
0.0
 63
   256
  0
ENDSEC
  0
SECTION
  2
OBJECTS
  0
DICTIONARY
  5
19
330
0
100
AcDbDictionary
281
     1
  3
ACAD_COLOR
350
674
  3
ACAD_DETAILVIEWSTYLE
350
13B5
  3
ACAD_FIELDLIST
350
5D68
  3
ACAD_GROUP
350
1A
  3
ACAD_IMAGE_VARS
350
27B
  3
ACAD_LAYOUT
350
1E
  3
ACAD_MATERIAL
350
263
  3
ACAD_MLEADERSTYLE
350
336
  3
ACAD_MLINESTYLE
350
1B
  3
ACAD_PLOTSETTINGS
350
22
  3
ACAD_PLOTSTYLENAME
350
1F
  3
ACAD_SCALELIST
350
241
  3
ACAD_SECTIONVIEWSTYLE
350
13B6
  3
ACAD_TABLESTYLE
350
278
  3
ACAD_VISUALSTYLE
350
267
  3
ACDB_RECOMPOSE_DATA
350
6300
  3
AcDbVariableDictionary
350
330
  3
APPDATA
350
27A
  0
SUN
  5
F1A
330
15
100
AcDbSun
 90
        1
290
     0
 63
     7
421
 16777215
 40
1.0
291
     1
 91
  2455826
 92
 54000000
292
     0
 70
     2
 71
   256
280
     1
  0
DICTIONARY
  5
2E1
330
2
100
AcDbDictionary
280
     1
281
     1
  3
ACAD_LAYERSTATES
360
2E2
  3
ACLYDICTIONARY
360
4D3E
  0
DICTIONARY
  5
56F6
330
A
100
AcDbDictionary
280
     1
281
     1
  3
ACAD_SORTENTS
360
56F7
  0
DICTIONARY
  5
5D82
330
5D81
100
AcDbDictionary
280
     1
281
     1
  3
ACAD_DIMASSOC
360
5D83
  0
DICTIONARY
  5
5DC1
330
5DC0
100
AcDbDictionary
280
     1
281
     1
  3
ACAD_DIMASSOC
360
5DC2
  0
DICTIONARY
  5
5DC4
330
5DC3
100
AcDbDictionary
280
     1
281
     1
  3
ACAD_DIMASSOC
360
5DC5
  0
DICTIONARY
  5
5DF1
330
5DF0
100
AcDbDictionary
280
     1
281
     1
  3
ACAD_FIELD
360
5DF2
  0
DICTIONARY
  5
5F94
330
5F93
100
AcDbDictionary
280
     1
281
     1
  3
ACAD_DIMASSOC
360
5F95
  0
SUN
  5
44F1
330
349
100
AcDbSun
 90
        1
290
     0
 63
     7
421
 16777215
 40
1.0
291
     1
 91
  2455826
 92
 54000000
292
     0
 70
     2
 71
   256
280
     1
  0
DICTIONARY
  5
674
102
{ACAD_REACTORS
330
19
102
}
330
19
100
AcDbDictionary
281
     1
  0
DICTIONARY
  5
13B5
102
{ACAD_REACTORS
330
19
102
}
330
19
100
AcDbDictionary
281
     1
  0
FIELDLIST
  5
5D68
102
{ACAD_REACTORS
330
19
102
}
330
19
100
AcDbIdSet
 90
        1
330
5DF3
100
AcDbFieldList
  0
DICTIONARY
  5
1A
102
{ACAD_REACTORS
330
19
102
}
330
19
100
AcDbDictionary
281
     1
  3
*A1
350
5FE9
  3
*A2
350
6280
  3
*A3
350
6281
  0
RASTERVARIABLES
  5
27B
102
{ACAD_REACTORS
330
19
102
}
330
19
100
AcDbRasterVariables
 90
        0
 70
     1
 71
     1
 72
     1
  0
DICTIONARY
  5
1E
102
{ACAD_REACTORS
330
19
102
}
330
19
100
AcDbDictionary
281
     1
  3
Layout1
350
21
  3
Model
350
20
  0
DICTIONARY
  5
263
102
{ACAD_REACTORS
330
19
102
}
330
19
100
AcDbDictionary
281
     1
  3
ByBlock
350
54E8
  3
ByLayer
350
264
  3
Global
350
266
  0
DICTIONARY
  5
336
102
{ACAD_REACTORS
330
19
102
}
330
19
100
AcDbDictionary
281
     1
  3
Standard
350
5615
  0
DICTIONARY
  5
1B
102
{ACAD_REACTORS
330
19
102
}
330
19
100
AcDbDictionary
281
     1
  3
Standard
350
1C
  0
DICTIONARY
  5
22
102
{ACAD_REACTORS
330
19
102
}
330
19
100
AcDbDictionary
281
     1
  0
ACDBDICTIONARYWDFLT
  5
1F
102
{ACAD_REACTORS
330
19
102
}
330
19
100
AcDbDictionary
281
     1
  3
Normal
350
1D
100
AcDbDictionaryWithDefault
340
1D
  0
DICTIONARY
  5
241
102
{ACAD_REACTORS
330
19
102
}
330
19
100
AcDbDictionary
281
     1
  3
A0
350
242
  3
A1
350
243
  3
A2
350
244
  3
A3
350
245
  3
A4
350
246
  3
A5
350
247
  3
A6
350
248
  3
A7
350
249
  3
A8
350
24A
  3
A9
350
24B
  3
B0
350
24C
  3
B1
350
24D
  3
B2
350
24E
  3
B3
350
24F
  3
B4
350
250
  3
B5
350
251
  3
B6
350
252
  3
B7
350
253
  3
B8
350
254
  3
B9
350
255
  3
C0
350
256
  3
C1
350
257
  3
C2
350
258
  3
C3
350
259
  3
C4
350
25A
  3
C5
350
25B
  3
C6
350
25C
  3
C7
350
25D
  3
C8
350
25E
  3
C9
350
25F
  3
D0
350
260
  3
D1
350
261
  3
D2
350
262
  0
DICTIONARY
  5
13B6
102
{ACAD_REACTORS
330
19
102
}
330
19
100
AcDbDictionary
281
     1
  0
DICTIONARY
  5
278
102
{ACAD_REACTORS
330
19
102
}
330
19
100
AcDbDictionary
281
     1
  3
Standard
350
279
  0
DICTIONARY
  5
267
102
{ACAD_REACTORS
330
19
102
}
330
19
100
AcDbDictionary
281
     1
  3
2dWireframe
350
26C
  3
3D Hidden
350
26E
  3
3dWireframe
350
26D
  3
Basic
350
26F
  3
Brighten
350
273
  3
ColorChange
350
277
  3
Conceptual
350
271
  3
Dim
350
272
  3
EdgeColorOff
350
F14
  3
Facepattern
350
276
  3
Flat
350
268
  3
FlatWithEdges
350
269
  3
Gouraud
350
26A
  3
GouraudWithEdges
350
26B
  3
Hidden
350
F11
  3
JitterOff
350
F12
  3
Linepattern
350
275
  3
OverhangOff
350
F13
  3
Realistic
350
270
  3
Shaded
350
F19
  3
Shaded with edges
350
F18
  3
Shades of Gray
350
F15
  3
Sketchy
350
F16
  3
Thicken
350
274
  3
Wireframe
350
F10
  3
X-Ray
350
F17
  0
XRECORD
  5
6300
102
{ACAD_REACTORS
330
19
102
}
330
19
100
AcDbXrecord
280
     1
 90
        1
330
279
  0
DICTIONARY
  5
330
102
{ACAD_REACTORS
330
19
102
}
330
19
100
AcDbDictionary
281
     1
  3
CANNOSCALE
350
331
  3
CMLEADERSTYLE
350
563E
  3
CTABLESTYLE
350
335
  3
HPTRANSPARENCY
350
52F7
  3
XCLIPFRAME
350
13B4
  0
DICTIONARY
  5
27A
102
{ACAD_REACTORS
330
19
102
}
330
19
100
AcDbDictionary
281
     1
  0
DICTIONARY
  5
2E2
102
{ACAD_REACTORS
330
2E1
102
}
330
2E1
100
AcDbDictionary
281
     1
  0
DICTIONARY
  5
4D3E
102
{ACAD_REACTORS
330
2E1
102
}
330
2E1
100
AcDbDictionary
281
     1
1001
ACAD
1000
<All
  0
SORTENTSTABLE
  5
56F7
102
{ACAD_REACTORS
330
56F6
102
}
330
56F6
100
AcDbSortentsTable
330
A
331
0
  5
5B3A
331
1301
  5
5B18
331
1306
  5
5B19
331
1307
  5
5B1A
331
1308
  5
5B1B
331
1312
  5
5B1C
331
1313
  5
5B1D
331
131E
  5
5B1E
331
131F
  5
5B1F
331
1342
  5
5B20
331
1343
  5
5B21
331
1346
  5
5B22
331
1347
  5
5B23
331
1350
  5
5B24
331
1351
  5
5B25
331
1357
  5
5B26
331
1359
  5
5B27
331
135A
  5
5B28
331
135B
  5
5B29
331
1371
  5
5B2A
331
1372
  5
5B2B
331
1378
  5
5B2C
331
1379
  5
5B2D
331
1389
  5
5B2E
331
138A
  5
5B2F
331
138D
  5
5B30
331
138E
  5
5B31
331
1398
  5
5B32
331
1399
  5
5B33
331
139C
  5
5B34
331
139D
  5
5B35
331
4967
  5
5B36
331
4968
  5
5B37
331
499D
  5
5B38
331
499E
  5
5B39
331
51D5
  5
5B3B
331
51D6
  5
5B3C
331
51D7
  5
5B3D
331
51D8
  5
5B3E
331
51D9
  5
5B3F
331
51DA
  5
5B40
331
523C
  5
5B41
331
523D
  5
5B42
331
523E
  5
5B43
331
523F
  5
5B44
331
5240
  5
5B45
331
5241
  5
5B46
331
52EB
  5
5B47
331
5B17
  5
5B4C
331
5B19
  5
5B4E
331
5B1A
  5
5B4F
331
5B1B
  5
5B50
331
5B1C
  5
5B51
331
5B1D
  5
5B52
331
5B1E
  5
5B53
331
5B1F
  5
5B54
331
5B20
  5
5B55
331
5B21
  5
5B56
331
5B22
  5
5B57
331
5B23
  5
5B58
331
5B24
  5
5B59
331
5B25
  5
5B5A
331
5B26
  5
5B5B
331
5B27
  5
5B5C
331
5B28
  5
5B5D
331
5B29
  5
5B5E
331
5B2A
  5
5B5F
331
5B2B
  5
5B60
331
5B2E
  5
5B63
331
5B32
  5
5B67
331
5B34
  5
5B69
331
5B35
  5
5B6A
331
5B36
  5
5B6B
331
5B38
  5
5B6D
331
5B39
  5
5B6E
331
5B3A
  5
5B6F
331
5B3B
  5
5B70
331
5B3D
  5
5B72
331
5B3F
  5
5B74
331
5B42
  5
5B77
331
5B45
  5
5B7A
331
5B47
  5
5B7C
331
5B48
  5
5B7D
331
5B4A
  5
5B7F
331
5B4B
  5
5B80
331
5B4D
  5
5B82
331
5B4F
  5
5B84
331
5B51
  5
5B86
331
5B53
  5
5B88
331
5B62
  5
5B97
331
5B63
  5
5B98
331
5B64
  5
5B99
331
5B65
  5
5B9A
331
5B66
  5
5B9B
331
5B68
  5
5B9D
331
5B69
  5
5B9E
331
5B6A
  5
5B9F
331
5D6A
  5
5DA5
331
5D6B
  5
5DA6
331
5D6C
  5
5DA7
331
5D6D
  5
5DA8
331
5D6E
  5
5DA9
331
5D6F
  5
5DAA
331
5D70
  5
5DAB
331
5D71
  5
5DAC
331
5D72
  5
5DAD
331
5D73
  5
5DAE
331
5D74
  5
5DAF
331
5D75
  5
5DB0
331
5D76
  5
5DB1
331
5D77
  5
5DB2
331
5D78
  5
5DB3
331
5D79
  5
5DB4
331
5D7A
  5
5DB5
331
5D7F
  5
5DB6
331
5D80
  5
5DB7
331
5D81
  5
5DB8
331
5D84
  5
5DB9
331
5D85
  5
5DBA
331
5D87
  5
5DBC
331
5D88
  5
5DBD
331
5D89
  5
5DBE
331
5D8A
  5
5DBF
331
5D8B
  5
5DC0
331
5D8C
  5
5DC3
331
5D8D
  5
5DC6
331
5D8E
  5
5DC7
331
5D8F
  5
5DC8
331
5D90
  5
5DC9
331
5D91
  5
5DCA
331
5D92
  5
5DCB
331
5D93
  5
5DCC
331
5D94
  5
5DCD
331
5D96
  5
5DCF
331
5D97
  5
5DD0
331
5D98
  5
5DD1
331
5D99
  5
5DD2
331
5D9A
  5
5DD3
331
5D9B
  5
5DD4
331
5D9C
  5
5DD5
331
5D9D
  5
5DD6
331
5D9E
  5
5DD7
331
5D9F
  5
5DD8
331
5DA0
  5
5DD9
331
5DA1
  5
5DDA
331
5DA2
  5
5DDB
331
5DA3
  5
5DDC
331
5DA4
  5
5DDD
331
5DA5
  5
5DDE
331
5DA6
  5
5DDF
331
5DA7
  5
5DE0
331
5DA8
  5
5DE1
331
5DA9
  5
5DE2
331
5DAA
  5
5DE3
331
5DAB
  5
5DE4
331
5DAC
  5
5DE5
331
5DAD
  5
5DE6
331
5DAE
  5
5DE7
331
5DAF
  5
5DE8
331
5DB0
  5
5DE9
331
5DB1
  5
5DEA
331
5DB2
  5
5DEB
331
5DB3
  5
5DEC
331
5DB4
  5
5DED
331
5DB5
  5
5DEE
331
5DB6
  5
5DEF
331
5DB7
  5
5DF0
331
5DB8
  5
5E71
331
5DB9
  5
5E72
331
5DBA
  5
5E73
331
5DBB
  5
5E74
331
5DBC
  5
5E75
331
5DBD
  5
5E76
331
5DBE
  5
5E77
331
5DBF
  5
5E78
331
5DC0
  5
5E79
331
5DC3
  5
5E7A
331
5DC6
  5
5E7B
331
5DC7
  5
5E7C
331
5DC8
  5
5E7D
331
5DC9
  5
5E7E
331
5DCA
  5
5E7F
331
5DCB
  5
5E80
331
5DCC
  5
5E81
331
5DCD
  5
5E82
331
5DCE
  5
5E83
331
5DCF
  5
5E84
331
5DD0
  5
5E85
331
5DD1
  5
5E86
331
5DD2
  5
5E87
331
5DD3
  5
5E88
331
5DD4
  5
5E89
331
5DD5
  5
5E8A
331
5DD6
  5
5E8B
331
5DD7
  5
5E8C
331
5DD8
  5
5E8D
331
5DD9
  5
5E8E
331
5DDA
  5
5E8F
331
5DDB
  5
5E90
331
5DDC
  5
5E91
331
5DDD
  5
5E92
331
5DDE
  5
5E93
331
5DEF
  5
5EA4
331
5DF0
  5
5EA5
331
5E71
  5
5EA6
331
5E72
  5
5EA7
331
5E73
  5
5EA8
331
5E74
  5
5EA9
331
5E75
  5
5EAA
331
5E76
  5
5EAB
331
5E77
  5
5EAC
331
5E78
  5
5EAD
331
5E79
  5
5EAE
331
5E7A
  5
5EAF
331
5E7B
  5
5EB0
331
5E7C
  5
5EB1
331
5E7D
  5
5EB2
331
5E7E
  5
5EB3
331
5E7F
  5
5EB4
331
5E80
  5
5EB5
331
5E81
  5
5EB6
331
5E82
  5
5EB7
331
5E83
  5
5EB8
331
5E84
  5
5EB9
331
5E85
  5
5EBA
331
5E86
  5
5EBB
331
5E87
  5
5EBC
331
5E88
  5
5EBD
331
5E89
  5
5EBE
331
5E8A
  5
5EBF
331
5E8B
  5
5EC0
331
5E8C
  5
5EC1
331
5E8D
  5
5EC2
331
5E8E
  5
5EC3
331
5E8F
  5
5EC4
331
5E90
  5
5EC5
331
5E91
  5
5EC6
331
5E92
  5
5EC7
331
5E93
  5
5EC8
331
5E94
  5
5EC9
331
5E95
  5
5ECA
331
5E96
  5
5ECB
331
5E97
  5
5ECC
331
5E98
  5
5ECD
331
5E99
  5
5ECE
331
5E9A
  5
5ECF
331
5E9B
  5
5ED0
331
5E9C
  5
5ED1
331
5E9D
  5
5ED2
331
5E9E
  5
5ED3
331
5E9F
  5
5ED4
331
5EA0
  5
5ED5
331
5EA1
  5
5ED6
331
5EA2
  5
5ED7
331
5EA3
  5
5ED8
331
5EA4
  5
5ED9
331
5EA5
  5
5EDA
331
5EA6
  5
5EDB
331
5EA7
  5
5EDC
331
5EA8
  5
5EDD
331
5EA9
  5
5EDE
331
5EAA
  5
5EDF
331
5EAB
  5
5EE0
331
5EAC
  5
5EE1
331
5EAD
  5
5EE2
331
5EAE
  5
5EE3
331
5EAF
  5
5EE4
331
5EB0
  5
5EE5
331
5EB1
  5
5EE6
331
5EB2
  5
5EE7
331
5EB3
  5
5EE8
331
5EB4
  5
5EE9
331
5EB5
  5
5EEA
331
5EB6
  5
5EEB
331
5EB7
  5
5EEC
331
5EB8
  5
5EED
331
5EB9
  5
5EEE
331
5EBA
  5
5EEF
331
5EBB
  5
5EF0
331
5EBC
  5
5EF1
331
5EBD
  5
5EF2
331
5EBE
  5
5EF3
331
5EBF
  5
5EF4
331
5EC0
  5
5EF5
331
5EC1
  5
5EF6
331
5EC2
  5
5EF7
331
5EC3
  5
5EF8
331
5EC4
  5
5EF9
331
5EC5
  5
5EFA
331
5EC6
  5
5EFB
331
5EC7
  5
5EFC
331
5EC8
  5
5EFD
331
5EC9
  5
5EFE
331
5ECA
  5
5EFF
331
5ECB
  5
5F00
331
5ECC
  5
5F01
331
5ECD
  5
5F02
331
5ECE
  5
5F03
331
5ECF
  5
5F04
331
5ED0
  5
5F05
331
5ED1
  5
5F06
331
5ED2
  5
5F07
331
5ED3
  5
5F08
331
5ED4
  5
5F0C
331
5ED5
  5
5F0D
331
5ED6
  5
5F0E
331
5ED7
  5
5F0F
331
5ED8
  5
5F10
331
5ED9
  5
5F11
331
5EDA
  5
5F12
331
5EDB
  5
5F13
331
5EDC
  5
5F14
331
5EDD
  5
5F15
331
5EDE
  5
5F16
331
5EDF
  5
5F17
331
5EE0
  5
5F18
331
5EE1
  5
5F19
331
5EE2
  5
5F1A
331
5EE3
  5
5F1B
331
5EE4
  5
5F1C
331
5EE5
  5
5F1D
331
5EE6
  5
5F1E
331
5EE7
  5
5F1F
331
5EE8
  5
5F20
331
5EE9
  5
5F21
331
5EEA
  5
5F22
331
5EEB
  5
5F23
331
5EEC
  5
5F24
331
5EED
  5
5F25
331
5EEE
  5
5F26
331
5EEF
  5
5F27
331
5EF0
  5
5F28
331
5EF1
  5
5F29
331
5EF2
  5
5F2A
331
5EF3
  5
5F2B
331
5EF4
  5
5F2C
331
5EF5
  5
5F2D
331
5EF6
  5
5F2E
331
5EF7
  5
5F2F
331
5EF8
  5
5F30
331
5EF9
  5
5F31
331
5EFA
  5
5F32
331
5EFB
  5
5F33
331
5EFC
  5
5F34
331
5EFD
  5
5F35
331
5EFE
  5
5F36
331
5EFF
  5
5F37
331
5F00
  5
5F38
331
5F01
  5
5F39
331
5F02
  5
5F3A
331
5F03
  5
5F3B
331
5F04
  5
5F3C
331
5F05
  5
5F3D
331
5F06
  5
5F3E
331
5F07
  5
5F3F
331
5F08
  5
5F40
331
5F0F
  5
5F44
331
5F10
  5
5F45
331
5F11
  5
5F46
331
5F12
  5
5F47
331
5F13
  5
5F48
331
5F14
  5
5F49
331
5F15
  5
5F4A
331
5F16
  5
5F4B
331
5F17
  5
5F4C
331
5F18
  5
5F4D
331
5F19
  5
5F4E
331
5F1A
  5
5F4F
331
5F1B
  5
5F50
331
5F1C
  5
5F51
331
5F1D
  5
5F52
331
5F1E
  5
5F53
331
5F1F
  5
5F54
331
5F20
  5
5F55
331
5F21
  5
5F56
331
5F22
  5
5F57
331
5F23
  5
5F58
331
5F24
  5
5F59
331
5F25
  5
5F5A
331
5F26
  5
5F5B
331
5F27
  5
5F5C
331
5F28
  5
5F5D
331
5F29
  5
5F5E
331
5F2A
  5
5F5F
331
5F2B
  5
5F60
331
5F2C
  5
5F79
331
5F2D
  5
5F86
331
5F2E
  5
5F93
331
5F2F
  5
5FA2
331
5F30
  5
5FB4
331
5F31
  5
5FB5
331
5F32
  5
5FB6
331
5F33
  5
5FB7
331
5F34
  5
5FB8
331
5F35
  5
5FB9
331
5F36
  5
5FBA
331
5F37
  5
5FBB
331
5F38
  5
5FBC
331
5F39
  5
5FBD
331
5F3A
  5
5FBE
331
5F3B
  5
5FBF
331
5F3C
  5
5FC0
331
5F3D
  5
5FC1
331
5F3E
  5
5FC2
331
5F3F
  5
5FC3
331
5F40
  5
5FC4
331
5F41
  5
5FC5
331
5F42
  5
5FC6
331
5F43
  5
5FC7
331
5F44
  5
5FC8
331
5F45
  5
5FC9
331
5F46
  5
5FCA
331
5F47
  5
5FCB
331
5F48
  5
5FCC
331
5F49
  5
5FCD
331
5F4A
  5
5FCE
331
5F4B
  5
5FCF
331
5F4C
  5
5FD0
331
5F4D
  5
5FD1
331
5F4E
  5
5FD2
331
5F4F
  5
5FD3
331
5F50
  5
5FD4
331
5F51
  5
5FD5
331
5F52
  5
5FD6
331
5F53
  5
5FD7
331
5F54
  5
5FD8
331
5F55
  5
5FD9
331
5F56
  5
5FDA
331
5F57
  5
5FDB
331
5F58
  5
5FDC
331
5F59
  5
5FDD
331
5F5A
  5
5FDE
331
5F5B
  5
5FDF
331
5F5C
  5
5FE0
331
5F5D
  5
5FE1
331
5F5E
  5
5FE2
331
5F5F
  5
5FE3
331
5F60
  5
5FE4
331
5F79
  5
5FE5
331
5F86
  5
5FE6
331
5F93
  5
5FE7
331
5FA2
  5
5FE8
331
5FB4
  5
1351
331
5FB5
  5
1357
331
5FB6
  5
1359
331
5FB7
  5
135A
331
5FB8
  5
135B
331
5FB9
  5
1371
331
5FBA
  5
1372
331
5FBB
  5
1378
331
5FBC
  5
1379
331
5FBD
  5
1389
331
5FBE
  5
138A
331
5FBF
  5
138D
331
5FC0
  5
138E
331
5FC1
  5
1398
331
5FC2
  5
1399
331
5FC3
  5
139C
331
5FC4
  5
139D
331
5FC5
  5
3C70
331
5FC6
  5
460D
331
5FC7
  5
460E
331
5FC8
  5
460F
331
5FC9
  5
4610
331
5FCA
  5
4611
331
5FCB
  5
4612
331
5FCC
  5
4613
331
5FCD
  5
4614
331
5FCE
  5
4615
331
5FCF
  5
4616
331
5FD0
  5
4618
331
5FD1
  5
4619
331
5FD2
  5
497F
331
5FD3
  5
4980
331
5FD4
  5
4C48
331
5FD5
  5
4C49
331
5FD6
  5
51C0
331
5FD7
  5
5257
331
5FD8
  5
5258
331
5FD9
  5
5259
331
5FDA
  5
525A
331
5FDB
  5
525B
331
5FDC
  5
52DA
331
5FDD
  5
52DB
331
5FDE
  5
52DC
331
5FDF
  5
52DE
331
5FE0
  5
52DF
331
5FE1
  5
52E2
331
5FE2
  5
52E5
331
5FE3
  5
538D
331
5FE4
  5
5B13
331
5FE5
  5
5B14
331
5FE6
  5
5B15
331
5FE7
  5
5B16
331
5FE8
  5
5B17
  0
DIMASSOC
  5
5D83
102
{ACAD_REACTORS
330
5D82
102
}
330
5D82
100
AcDbDimAssoc
330
5D81
 90
        1
 70
     0
 71
     1
  1
AcDbOsnapPointRef
 72
    13
331
5D79
 73
     0
 91
        0
 40
0.0
 10
0.0
 20
0.0
 30
0.0
 75
     0
  0
DIMASSOC
  5
5DC2
102
{ACAD_REACTORS
330
5DC1
102
}
330
5DC1
100
AcDbDimAssoc
330
5DC0
 90
        1
 70
     0
 71
     1
  1
AcDbOsnapPointRef
 72
     5
331
5DB8
 73
     0
 91
        0
 40
1.570796326794897
 10
0.0
 20
0.0
 30
0.0
 75
     0
  0
DIMASSOC
  5
5DC5
102
{ACAD_REACTORS
330
5DC4
102
}
330
5DC4
100
AcDbDimAssoc
330
5DC3
 90
        1
 70
     0
 71
     1
  1
AcDbOsnapPointRef
 72
     3
331
5DB8
 73
     0
 91
        0
 40
0.0
 10
0.0
 20
0.0
 30
0.0
 75
     0
  0
DICTIONARY
  5
5DF2
102
{ACAD_REACTORS
330
5DF1
102
}
330
5DF1
100
AcDbDictionary
280
     1
281
     1
  3
TEXT
360
5DF3
  0
DIMASSOC
  5
5F95
102
{ACAD_REACTORS
330
5F94
102
}
330
5F94
100
AcDbDimAssoc
330
5F93
 90
        1
 70
     0
 71
     1
  1
AcDbOsnapPointRef
 72
    10
331
5B32
 73
     0
 91
        0
 40
4.695382777050026
 10
0.0
 20
0.0
 30
0.0
 75
     0
  0
GROUP
  5
5FE9
102
{ACAD_REACTORS
330
1A
102
}
330
1A
100
AcDbGroup
300

 70
     1
 71
     1
340
5FB4
340
5FB5
340
5FB6
340
5FB7
340
5FB8
340
5FB9
340
5FBA
340
5FBB
340
5FBC
340
5FBD
340
5FBE
340
5FBF
340
5FC0
340
5FC1
340
5FC2
340
5FC3
340
5FC4
340
5FC5
340
5FC6
340
5FC7
340
5FC8
340
5FC9
340
5FCA
340
5FCB
340
5FCC
340
5FCD
340
5FCE
340
5FCF
340
5FD0
340
5FD1
340
5FD2
340
5FD3
340
5FD4
340
5FD5
340
5FD6
340
5FD7
340
5FD8
340
5FD9
340
5FDA
340
5FDB
340
5FDC
340
5FDD
340
5FDE
340
5FDF
340
5FE0
340
5FE1
340
5FE2
340
5FE3
340
5FE4
340
5FE5
340
5FE6
340
5FE7
340
5FE8
  0
GROUP
  5
6280
102
{ACAD_REACTORS
330
1A
102
}
330
1A
100
AcDbGroup
300

 70
     1
 71
     1
340
6225
340
6226
340
6227
340
6228
340
6229
340
622A
340
622B
340
622C
340
622D
340
622E
340
622F
340
6230
340
6231
340
6232
340
6233
340
6234
340
6235
340
6236
340
6237
340
6238
340
6239
340
623A
340
623B
340
623C
340
623D
340
623E
340
623F
340
6240
340
6241
340
6242
340
6243
340
6244
340
6245
340
6246
340
6247
340
6248
340
6249
340
624A
340
624B
340
624C
340
624D
340
624E
340
624F
340
6250
340
6251
340
6252
340
6253
340
6254
340
6255
340
6256
340
6257
340
6258
340
6259
340
625A
340
625B
340
625C
340
625D
340
625E
340
625F
340
6260
340
6261
340
6262
340
6263
340
6264
340
6265
340
6266
340
6267
340
6268
340
6269
340
626A
340
626B
340
626C
340
626D
340
626E
340
626F
340
6270
340
6271
340
6272
340
6273
340
6274
340
6275
340
6276
340
6277
340
6278
340
627A
340
627B
340
627C
340
627D
340
627E
340
627F
  0
GROUP
  5
6281
102
{ACAD_REACTORS
330
1A
102
}
330
1A
100
AcDbGroup
300

 70
     1
 71
     1
340
6225
340
6226
340
6227
340
6228
340
6229
340
622A
340
622B
340
622C
340
622D
340
622E
340
622F
340
6230
340
6231
340
6232
340
6233
340
6234
340
6235
340
6236
340
6237
340
6238
340
6239
340
623A
340
623B
340
623C
340
623D
340
623E
340
623F
340
6240
340
6241
340
6242
340
6243
340
6244
340
6245
340
6246
340
6247
340
6248
340
6249
340
624A
340
624B
340
624C
340
624D
340
624E
340
624F
340
6250
340
6251
340
6252
340
6253
340
6254
340
6255
340
6256
340
6257
340
6258
340
6259
340
625A
340
625B
340
625C
340
625D
340
625E
340
625F
340
6260
340
6261
340
6262
340
6263
340
6264
340
6265
340
6266
340
6267
340
6268
340
6269
340
626A
340
626B
340
626C
340
626D
340
626E
340
626F
340
6270
340
6271
340
6272
340
6273
340
6274
340
6275
340
6276
340
6277
340
6278
340
6279
340
627A
340
627B
340
627C
340
627D
340
627E
340
627F
  0
LAYOUT
  5
21
102
{ACAD_REACTORS
330
1E
102
}
330
1E
100
AcDbPlotSettings
  1

  2
none_device
  4
ISO_A3_(420.00_x_297.00_MM)
  6

 40
7.5
 41
20.0
 42
7.5
 43
20.0
 44
420.0
 45
297.0
 46
0.0
 47
0.0
 48
0.0
 49
0.0
140
0.0
141
0.0
142
1.0
143
1.0
 70
     0
 72
     1
 73
     0
 74
     0
  7

 75
     0
 76
     0
 77
     2
 78
   300
147
1.0
148
0.0
149
0.0
100
AcDbLayout
  1
Layout1
 70
     1
 71
     0
 10
-7.5
 20
-20.0
 11
412.5
 21
277.0
 12
0.0
 22
0.0
 32
0.0
 14
0.0
 24
0.0
 34
0.0
 15
0.0
 25
0.0
 35
0.0
146
0.0
 13
0.0
 23
0.0
 33
0.0
 16
0.0
 26
0.0
 36
0.0
 17
0.0
 27
0.0
 37
0.0
 76
     0
330
B
331
349
  0
LAYOUT
  5
20
102
{ACAD_REACTORS
330
1E
102
}
330
1E
100
AcDbPlotSettings
  1

  2
none_device
  4
ISO_A3_(420.00_x_297.00_MM)
  6

 40
7.5
 41
20.0
 42
7.5
 43
20.0
 44
420.0
 45
297.0
 46
0.0
 47
0.0
 48
0.0
 49
0.0
140
0.0
141
0.0
142
1.0
143
1.0
 70
  1024
 72
     1
 73
     0
 74
     0
  7

 75
     0
 76
     0
 77
     2
 78
   300
147
1.0
148
0.0
149
0.0
100
AcDbLayout
  1
Model
 70
     0
 71
     1
 10
0.0
 20
0.0
 11
594.0
 21
419.9999999999996
 12
0.0
 22
0.0
 32
0.0
 14
0.0
 24
0.0
 34
0.0
 15
593.9999999999999
 25
420.0
 35
0.0
146
0.0
 13
0.0
 23
0.0
 33
0.0
 16
0.0
 26
0.0
 36
0.0
 17
0.0
 27
0.0
 37
0.0
 76
     0
330
A
331
15
  0
MATERIAL
  5
54E8
102
{ACAD_REACTORS
330
263
102
}
330
263
100
AcDbMaterial
  1
ByBlock
 72
     1
 94
      127
  0
MATERIAL
  5
264
102
{ACAD_REACTORS
330
263
102
}
330
263
100
AcDbMaterial
  1
ByLayer
 72
     1
 94
      127
  0
MATERIAL
  5
266
102
{ACAD_REACTORS
330
263
102
}
330
263
100
AcDbMaterial
  1
Global
 72
     1
 94
      127
  0
MLEADERSTYLE
  5
5615
102
{ACAD_REACTORS
330
336
102
}
330
336
100
AcDbMLeaderStyle
170
     2
171
     1
172
     0
 90
        2
 40
0.0
 41
0.0
173
     1
 91
-1056964608
340
11
 92
       -2
290
     1
 42
2.0
291
     1
 43
8.0
  3
Standard
341
0
 44
4.0
300

342
17
174
     1
178
     6
175
     1
176
     0
 93
-1056964608
 45
4.0
292
     0
297
     0
 46
4.0
343
0
 94
-1056964608
 47
1.0
 49
1.0
140
1.0
293
     1
141
0.0
294
     1
177
     0
142
1.0
295
     0
296
     0
143
3.75
1001
ACAD_MLEADERVER
1070
     2
  0
MLINESTYLE
  5
1C
102
{ACAD_REACTORS
330
1B
102
}
330
1B
100
AcDbMlineStyle
  2
Standard
 70
     0
  3

 62
     0
 51
90.0
 52
90.0
 71
     2
 49
0.5
 62
   256
  6
BYLAYER
 49
-0.5
 62
   256
  6
BYLAYER
  0
ACDBPLACEHOLDER
  5
1D
102
{ACAD_REACTORS
330
1F
102
}
330
1F
  0
SCALE
  5
242
102
{ACAD_REACTORS
330
241
102
}
330
241
100
AcDbScale
 70
     0
300
1:1
140
1.0
141
1.0
290
     1
  0
SCALE
  5
243
102
{ACAD_REACTORS
330
241
102
}
330
241
100
AcDbScale
 70
     0
300
1:2
140
1.0
141
2.0
290
     0
  0
SCALE
  5
244
102
{ACAD_REACTORS
330
241
102
}
330
241
100
AcDbScale
 70
     0
300
1:4
140
1.0
141
4.0
290
     0
  0
SCALE
  5
245
102
{ACAD_REACTORS
330
241
102
}
330
241
100
AcDbScale
 70
     0
300
1:5
140
1.0
141
5.0
290
     0
  0
SCALE
  5
246
102
{ACAD_REACTORS
330
241
102
}
330
241
100
AcDbScale
 70
     0
300
1:8
140
1.0
141
8.0
290
     0
  0
SCALE
  5
247
102
{ACAD_REACTORS
330
241
102
}
330
241
100
AcDbScale
 70
     0
300
1:10
140
1.0
141
10.0
290
     0
  0
SCALE
  5
248
102
{ACAD_REACTORS
330
241
102
}
330
241
100
AcDbScale
 70
     0
300
1:16
140
1.0
141
16.0
290
     0
  0
SCALE
  5
249
102
{ACAD_REACTORS
330
241
102
}
330
241
100
AcDbScale
 70
     0
300
1:20
140
1.0
141
20.0
290
     0
  0
SCALE
  5
24A
102
{ACAD_REACTORS
330
241
102
}
330
241
100
AcDbScale
 70
     0
300
1:30
140
1.0
141
30.0
290
     0
  0
SCALE
  5
24B
102
{ACAD_REACTORS
330
241
102
}
330
241
100
AcDbScale
 70
     0
300
1:40
140
1.0
141
40.0
290
     0
  0
SCALE
  5
24C
102
{ACAD_REACTORS
330
241
102
}
330
241
100
AcDbScale
 70
     0
300
1:50
140
1.0
141
50.0
290
     0
  0
SCALE
  5
24D
102
{ACAD_REACTORS
330
241
102
}
330
241
100
AcDbScale
 70
     0
300
1:100
140
1.0
141
100.0
290
     0
  0
SCALE
  5
24E
102
{ACAD_REACTORS
330
241
102
}
330
241
100
AcDbScale
 70
     0
300
2:1
140
2.0
141
1.0
290
     0
  0
SCALE
  5
24F
102
{ACAD_REACTORS
330
241
102
}
330
241
100
AcDbScale
 70
     0
300
4:1
140
4.0
141
1.0
290
     0
  0
SCALE
  5
250
102
{ACAD_REACTORS
330
241
102
}
330
241
100
AcDbScale
 70
     0
300
8:1
140
8.0
141
1.0
290
     0
  0
SCALE
  5
251
102
{ACAD_REACTORS
330
241
102
}
330
241
100
AcDbScale
 70
     0
300
10:1
140
10.0
141
1.0
290
     0
  0
SCALE
  5
252
102
{ACAD_REACTORS
330
241
102
}
330
241
100
AcDbScale
 70
     0
300
100:1
140
100.0
141
1.0
290
     0
  0
SCALE
  5
253
102
{ACAD_REACTORS
330
241
102
}
330
241
100
AcDbScale
 70
     0
300
1/128" = 1'-0"
140
0.0078125
141
12.0
290
     0
  0
SCALE
  5
254
102
{ACAD_REACTORS
330
241
102
}
330
241
100
AcDbScale
 70
     0
300
1/64" = 1'-0"
140
0.015625
141
12.0
290
     0
  0
SCALE
  5
255
102
{ACAD_REACTORS
330
241
102
}
330
241
100
AcDbScale
 70
     0
300
1/32" = 1'-0"
140
0.03125
141
12.0
290
     0
  0
SCALE
  5
256
102
{ACAD_REACTORS
330
241
102
}
330
241
100
AcDbScale
 70
     0
300
1/16" = 1'-0"
140
0.0625
141
12.0
290
     0
  0
SCALE
  5
257
102
{ACAD_REACTORS
330
241
102
}
330
241
100
AcDbScale
 70
     0
300
3/32" = 1'-0"
140
0.09375
141
12.0
290
     0
  0
SCALE
  5
258
102
{ACAD_REACTORS
330
241
102
}
330
241
100
AcDbScale
 70
     0
300
1/8" = 1'-0"
140
0.125
141
12.0
290
     0
  0
SCALE
  5
259
102
{ACAD_REACTORS
330
241
102
}
330
241
100
AcDbScale
 70
     0
300
3/16" = 1'-0"
140
0.1875
141
12.0
290
     0
  0
SCALE
  5
25A
102
{ACAD_REACTORS
330
241
102
}
330
241
100
AcDbScale
 70
     0
300
1/4" = 1'-0"
140
0.25
141
12.0
290
     0
  0
SCALE
  5
25B
102
{ACAD_REACTORS
330
241
102
}
330
241
100
AcDbScale
 70
     0
300
3/8" = 1'-0"
140
0.375
141
12.0
290
     0
  0
SCALE
  5
25C
102
{ACAD_REACTORS
330
241
102
}
330
241
100
AcDbScale
 70
     0
300
1/2" = 1'-0"
140
0.5
141
12.0
290
     0
  0
SCALE
  5
25D
102
{ACAD_REACTORS
330
241
102
}
330
241
100
AcDbScale
 70
     0
300
3/4" = 1'-0"
140
0.75
141
12.0
290
     0
  0
SCALE
  5
25E
102
{ACAD_REACTORS
330
241
102
}
330
241
100
AcDbScale
 70
     0
300
1" = 1'-0"
140
1.0
141
12.0
290
     0
  0
SCALE
  5
25F
102
{ACAD_REACTORS
330
241
102
}
330
241
100
AcDbScale
 70
     0
300
1-1/2" = 1'-0"
140
1.5
141
12.0
290
     0
  0
SCALE
  5
260
102
{ACAD_REACTORS
330
241
102
}
330
241
100
AcDbScale
 70
     0
300
3" = 1'-0"
140
3.0
141
12.0
290
     0
  0
SCALE
  5
261
102
{ACAD_REACTORS
330
241
102
}
330
241
100
AcDbScale
 70
     0
300
6" = 1'-0"
140
6.0
141
12.0
290
     0
  0
SCALE
  5
262
102
{ACAD_REACTORS
330
241
102
}
330
241
100
AcDbScale
 70
     0
300
1'-0" = 1'-0"
140
12.0
141
12.0
290
     0
  0
TABLESTYLE
  5
279
102
{ACAD_REACTORS
330
278
102
}
102
{ACAD_XDICTIONARY
360
62FE
102
}
330
278
100
AcDbTableStyle
  3
Standard
 70
     0
 71
     0
 40
0.06
 41
0.06
280
     0
281
     0
  7
Standard
140
4.5
170
     2
 62
     0
 63
   257
283
     0
 90
        4
 91
        0
  1

274
    -2
284
     1
 64
     0
275
    -2
285
     1
 65
     0
276
    -2
286
     1
 66
     0
277
    -2
287
     1
 67
     0
278
    -2
288
     1
 68
     0
279
    -2
289
     1
 69
     0
  7
Standard
140
6.0
170
     5
 62
     0
 63
   257
283
     0
 90
        4
 91
        0
  1

274
    -2
284
     1
 64
     0
275
    -2
285
     1
 65
     0
276
    -2
286
     1
 66
     0
277
    -2
287
     1
 67
     0
278
    -2
288
     1
 68
     0
279
    -2
289
     1
 69
     0
  7
Standard
140
4.5
170
     5
 62
     0
 63
   257
283
     0
 90
        4
 91
        0
  1

274
    -2
284
     1
 64
     0
275
    -2
285
     1
 65
     0
276
    -2
286
     1
 66
     0
277
    -2
287
     1
 67
     0
278
    -2
288
     1
 68
     0
279
    -2
289
     1
 69
     0
  0
VISUALSTYLE
  5
26C
102
{ACAD_REACTORS
330
267
102
}
330
267
100
AcDbVisualStyle
  2
2dWireframe
 70
     4
 71
     0
 72
     2
 73
     0
 90
        0
 40
-0.6
 41
-30.0
 62
     5
 63
     7
421
 16777215
 74
     1
 91
        4
 64
     7
 65
   257
 75
     1
175
     1
 42
1.0
 92
        0
 66
   257
 43
1.0
 76
     1
 77
     6
 78
     2
 67
     7
 79
     5
170
     0
171
     0
290
     0
174
     0
 93
        1
 44
0.0
173
     0
291
     0
 45
0.0
  0
VISUALSTYLE
  5
26E
102
{ACAD_REACTORS
330
267
102
}
330
267
100
AcDbVisualStyle
  2
3D Hidden
 70
     6
 71
     1
 72
     2
 73
     2
 90
        0
 40
-0.6
 41
-30.0
 62
     5
 63
     7
421
 16777215
 74
     2
 91
        2
 64
     7
 65
   257
 75
     2
175
     1
 42
40.0
 92
        0
 66
   257
 43
1.0
 76
     1
 77
     6
 78
     2
 67
     7
 79
     3
170
     0
171
     0
290
     0
174
     0
 93
        1
 44
0.0
173
     0
291
     0
 45
0.0
  0
VISUALSTYLE
  5
26D
102
{ACAD_REACTORS
330
267
102
}
330
267
100
AcDbVisualStyle
  2
3dWireframe
 70
     5
 71
     0
 72
     2
 73
     0
 90
        0
 40
-0.6
 41
-30.0
 62
     5
 63
     7
421
 16777215
 74
     1
 91
        4
 64
     7
 65
   257
 75
     1
175
     1
 42
1.0
 92
        0
 66
   257
 43
1.0
 76
     1
 77
     6
 78
     2
 67
     7
 79
     5
170
     0
171
     0
290
     0
174
     0
 93
        1
 44
0.0
173
     0
291
     0
 45
0.0
  0
VISUALSTYLE
  5
26F
102
{ACAD_REACTORS
330
267
102
}
330
267
100
AcDbVisualStyle
  2
Basic
 70
     7
 71
     1
 72
     0
 73
     1
 90
        0
 40
-0.6
 41
-30.0
 62
     5
 63
     7
421
 16777215
 74
     0
 91
        4
 64
     7
 65
   257
 75
     1
175
     1
 42
1.0
 92
        8
 66
     7
 43
1.0
 76
     1
 77
     6
 78
     2
 67
     7
 79
     5
170
     0
171
     0
290
     0
174
     0
 93
        1
 44
0.0
173
     0
291
     1
 45
0.0
  0
VISUALSTYLE
  5
273
102
{ACAD_REACTORS
330
267
102
}
330
267
100
AcDbVisualStyle
  2
Brighten
 70
    12
 71
     2
 72
     2
 73
     0
 90
        0
 40
-0.6
 41
-30.0
 62
     5
 63
     7
421
 16777215
 74
     1
 91
        4
 64
     7
 65
   257
 75
     1
175
     1
 42
1.0
 92
        8
 66
     7
 43
1.0
 76
     1
 77
     6
 78
     2
 67
     7
 79
     5
170
     0
171
     0
290
     0
174
     0
 93
        1
 44
50.0
173
     0
291
     1
 45
0.0
  0
VISUALSTYLE
  5
277
102
{ACAD_REACTORS
330
267
102
}
330
267
100
AcDbVisualStyle
  2
ColorChange
 70
    16
 71
     2
 72
     2
 73
     3
 90
        0
 40
-0.6
 41
-30.0
 62
     5
 63
     8
421
  8421504
 74
     1
 91
        4
 64
     7
 65
   257
 75
     1
175
     1
 42
1.0
 92
        8
 66
     8
424
  8421504
 43
1.0
 76
     1
 77
     6
 78
     2
 67
     7
 79
     5
170
     0
171
     0
290
     0
174
     0
 93
        1
 44
0.0
173
     0
291
     1
 45
0.0
  0
VISUALSTYLE
  5
271
102
{ACAD_REACTORS
330
267
102
}
330
267
100
AcDbVisualStyle
  2
Conceptual
 70
     9
 71
     3
 72
     2
 73
     0
 90
        0
 40
-0.6
 41
-30.0
 62
     5
 63
     7
421
 16777215
 74
     2
 91
        2
 64
     7
 65
   257
 75
     1
175
     1
 42
40.0
 92
        8
 66
     7
 43
1.0
 76
     1
 77
     6
 78
     2
 67
     7
 79
     3
170
     0
171
     0
290
     0
174
     0
 93
        1
 44
0.0
173
     0
291
     0
 45
0.0
  0
VISUALSTYLE
  5
272
102
{ACAD_REACTORS
330
267
102
}
330
267
100
AcDbVisualStyle
  2
Dim
 70
    11
 71
     2
 72
     2
 73
     0
 90
        0
 40
-0.6
 41
-30.0
 62
     5
 63
     7
421
 16777215
 74
     1
 91
        4
 64
     7
 65
   257
 75
     1
175
     1
 42
1.0
 92
        8
 66
     7
 43
1.0
 76
     1
 77
     6
 78
     2
 67
     7
 79
     5
170
     0
171
     0
290
     0
174
     0
 93
        1
 44
-50.0
173
     0
291
     1
 45
0.0
  0
VISUALSTYLE
  5
F14
102
{ACAD_REACTORS
330
267
102
}
330
267
100
AcDbVisualStyle
  2
EdgeColorOff
 70
    22
 71
     2
 72
     2
 73
     0
 90
        0
 40
0.6
 41
30.0
 62
     5
 63
     7
421
 16777215
 74
     1
 91
        4
 64
     7
 65
   257
 75
     1
175
     1
 42
1.0
 92
        8
 66
     7
 43
1.0
 76
     1
 77
     6
 78
     2
 67
     7
 79
     5
170
     0
171
     0
290
     0
174
     0
 93
        1
 44
0.0
173
     0
291
     1
 45
0.0
  0
VISUALSTYLE
  5
276
102
{ACAD_REACTORS
330
267
102
}
330
267
100
AcDbVisualStyle
  2
Facepattern
 70
    15
 71
     2
 72
     2
 73
     0
 90
        0
 40
-0.6
 41
-30.0
 62
     5
 63
     7
421
 16777215
 74
     1
 91
        4
 64
     7
 65
   257
 75
     1
175
     1
 42
1.0
 92
        8
 66
     7
 43
1.0
 76
     1
 77
     6
 78
     2
 67
     7
 79
     5
170
     0
171
     0
290
     0
174
     0
 93
        1
 44
0.0
173
     0
291
     1
 45
0.0
  0
VISUALSTYLE
  5
268
102
{ACAD_REACTORS
330
267
102
}
330
267
100
AcDbVisualStyle
  2
Flat
 70
     0
 71
     2
 72
     1
 73
     1
 90
        2
 40
-0.6
 41
30.0
 62
     5
 63
     7
421
 16777215
 74
     0
 91
        4
 64
     7
 65
   257
 75
     1
175
     1
 42
1.0
 92
        8
 66
     7
 43
1.0
 76
     1
 77
     6
 78
     2
 67
     7
 79
     5
170
     0
171
     0
290
     0
174
     0
 93
       13
 44
0.0
173
     0
291
     1
 45
0.0
  0
VISUALSTYLE
  5
269
102
{ACAD_REACTORS
330
267
102
}
330
267
100
AcDbVisualStyle
  2
FlatWithEdges
 70
     1
 71
     2
 72
     1
 73
     1
 90
        2
 40
-0.6
 41
30.0
 62
     5
 63
     7
421
 16777215
 74
     1
 91
        4
 64
     7
 65
   257
 75
     1
175
     1
 42
1.0
 92
        0
 66
   257
 43
1.0
 76
     1
 77
     6
 78
     2
 67
     7
 79
     5
170
     0
171
     0
290
     0
174
     0
 93
       13
 44
0.0
173
     0
291
     1
 45
0.0
  0
VISUALSTYLE
  5
26A
102
{ACAD_REACTORS
330
267
102
}
330
267
100
AcDbVisualStyle
  2
Gouraud
 70
     2
 71
     2
 72
     2
 73
     1
 90
        2
 40
-0.6
 41
30.0
 62
     5
 63
     7
421
 16777215
 74
     0
 91
        4
 64
     7
 65
   257
 75
     1
175
     1
 42
1.0
 92
        0
 66
     7
 43
1.0
 76
     1
 77
     6
 78
     2
 67
     7
 79
     5
170
     0
171
     0
290
     0
174
     0
 93
       13
 44
0.0
173
     0
291
     1
 45
0.0
  0
VISUALSTYLE
  5
26B
102
{ACAD_REACTORS
330
267
102
}
330
267
100
AcDbVisualStyle
  2
GouraudWithEdges
 70
     3
 71
     2
 72
     2
 73
     1
 90
        2
 40
-0.6
 41
30.0
 62
     5
 63
     7
421
 16777215
 74
     1
 91
        4
 64
     7
 65
   257
 75
     1
175
     1
 42
1.0
 92
        0
 66
   257
 43
1.0
 76
     1
 77
     6
 78
     2
 67
     7
 79
     5
170
     0
171
     0
290
     0
174
     0
 93
       13
 44
0.0
173
     0
291
     1
 45
0.0
  0
VISUALSTYLE
  5
F11
102
{ACAD_REACTORS
330
267
102
}
330
267
100
AcDbVisualStyle
  2
Hidden
 70
     6
 71
     1
 72
     2
 73
     2
 90
        0
 40
0.6
 41
30.0
 62
     5
 63
     7
421
 16777215
 74
     2
 91
        2
 64
     7
 65
   257
 75
     2
175
     1
 42
40.0
 92
        0
 66
   257
 43
1.0
 76
     1
 77
     6
 78
     2
 67
     7
 79
     3
170
     0
171
     0
290
     0
174
     0
 93
        1
 44
0.0
173
     0
291
     0
 45
0.0
  0
VISUALSTYLE
  5
F12
102
{ACAD_REACTORS
330
267
102
}
330
267
100
AcDbVisualStyle
  2
JitterOff
 70
    20
 71
     2
 72
     2
 73
     0
 90
        0
 40
0.6
 41
30.0
 62
     5
 63
     7
421
 16777215
 74
     1
 91
        4
 64
     7
 65
   257
 75
     1
175
     1
 42
1.0
 92
       10
 66
     7
 43
1.0
 76
     1
 77
     6
 78
     2
 67
     7
 79
     5
170
     0
171
     0
290
     0
174
     0
 93
        1
 44
0.0
173
     0
291
     1
 45
0.0
  0
VISUALSTYLE
  5
275
102
{ACAD_REACTORS
330
267
102
}
330
267
100
AcDbVisualStyle
  2
Linepattern
 70
    14
 71
     2
 72
     2
 73
     0
 90
        0
 40
-0.6
 41
-30.0
 62
     5
 63
     7
421
 16777215
 74
     1
 91
        4
 64
     7
 65
   257
 75
     7
175
     7
 42
1.0
 92
        8
 66
     7
 43
1.0
 76
     1
 77
     6
 78
     2
 67
     7
 79
     5
170
     0
171
     0
290
     0
174
     0
 93
        1
 44
0.0
173
     0
291
     1
 45
0.0
  0
VISUALSTYLE
  5
F13
102
{ACAD_REACTORS
330
267
102
}
330
267
100
AcDbVisualStyle
  2
OverhangOff
 70
    21
 71
     2
 72
     2
 73
     0
 90
        0
 40
0.6
 41
30.0
 62
     5
 63
     7
421
 16777215
 74
     1
 91
        4
 64
     7
 65
   257
 75
     1
175
     1
 42
1.0
 92
        9
 66
     7
 43
1.0
 76
     1
 77
     6
 78
     2
 67
     7
 79
     5
170
     0
171
     0
290
     0
174
     0
 93
        1
 44
0.0
173
     0
291
     1
 45
0.0
  0
VISUALSTYLE
  5
270
102
{ACAD_REACTORS
330
267
102
}
330
267
100
AcDbVisualStyle
  2
Realistic
 70
     8
 71
     2
 72
     2
 73
     0
 90
        0
 40
-0.6
 41
-30.0
 62
     5
 63
     7
421
 16777215
 74
     1
 91
        0
 64
     7
 65
   257
 75
     1
175
     1
 42
1.0
 92
        8
 66
     8
424
  7895160
 43
1.0
 76
     1
 77
     6
 78
     2
 67
     7
 79
     5
170
     0
171
     0
290
     0
174
     0
 93
       13
 44
0.0
173
     0
291
     0
 45
0.0
  0
VISUALSTYLE
  5
F19
102
{ACAD_REACTORS
330
267
102
}
330
267
100
AcDbVisualStyle
  2
Shaded
 70
    27
 71
     2
 72
     2
 73
     1
 90
        2
 40
0.6
 41
30.0
 62
     5
 63
     7
421
 16777215
 74
     0
 91
        4
 64
     7
 65
   257
 75
     1
175
     1
 42
1.0
 92
        8
 66
   257
 43
1.0
 76
     1
 77
     6
 78
     2
 67
     8
425
  7895160
 79
     3
170
     0
171
     0
290
     0
174
     0
 93
        5
 44
0.0
173
     0
291
     0
 45
0.0
  0
VISUALSTYLE
  5
F18
102
{ACAD_REACTORS
330
267
102
}
330
267
100
AcDbVisualStyle
  2
Shaded with edges
 70
    26
 71
     2
 72
     2
 73
     1
 90
        2
 40
0.6
 41
30.0
 62
     5
 63
     7
421
 16777215
 74
     1
 91
       10
 64
     7
 65
   257
 75
     2
175
     1
 42
1.0
 92
        8
 66
   257
 43
1.0
 76
     1
 77
     6
 78
     2
 67
     7
 79
     3
170
     0
171
     0
290
     0
174
     0
 93
        5
 44
0.0
173
     0
291
     0
 45
0.0
  0
VISUALSTYLE
  5
F15
102
{ACAD_REACTORS
330
267
102
}
330
267
100
AcDbVisualStyle
  2
Shades of Gray
 70
    23
 71
     2
 72
     2
 73
     3
 90
        0
 40
0.6
 41
30.0
 62
     5
 63
     7
421
 16777215
 74
     2
 91
        2
 64
     7
 65
     7
 75
     1
175
     1
 42
40.0
 92
        8
 66
     7
 43
1.0
 76
     1
 77
     6
 78
     2
 67
     7
 79
     3
170
     0
171
     0
290
     0
174
     0
 93
        1
 44
0.0
173
     0
291
     0
 45
0.0
  0
VISUALSTYLE
  5
F16
102
{ACAD_REACTORS
330
267
102
}
330
267
100
AcDbVisualStyle
  2
Sketchy
 70
    24
 71
     1
 72
     2
 73
     2
 90
        0
 40
0.6
 41
30.0
 62
     5
 63
     7
421
 16777215
 74
     2
 91
        2
 64
     7
 65
     7
 75
     1
175
     1
 42
40.0
 92
       11
 66
     7
 43
1.0
 76
     1
 77
     6
 78
     2
 67
     7
 79
     6
170
     0
171
     0
290
     0
174
     0
 93
        1
 44
0.0
173
     0
291
     0
 45
0.0
  0
VISUALSTYLE
  5
274
102
{ACAD_REACTORS
330
267
102
}
330
267
100
AcDbVisualStyle
  2
Thicken
 70
    13
 71
     2
 72
     2
 73
     0
 90
        0
 40
-0.6
 41
-30.0
 62
     5
 63
     7
421
 16777215
 74
     1
 91
        4
 64
     7
 65
   257
 75
     1
175
     1
 42
1.0
 92
       12
 66
     7
 43
1.0
 76
     1
 77
     6
 78
     2
 67
     7
 79
     5
170
     0
171
     0
290
     0
174
     0
 93
        1
 44
0.0
173
     0
291
     1
 45
0.0
  0
VISUALSTYLE
  5
F10
102
{ACAD_REACTORS
330
267
102
}
330
267
100
AcDbVisualStyle
  2
Wireframe
 70
     5
 71
     0
 72
     2
 73
     0
 90
        0
 40
0.6
 41
30.0
 62
     5
 63
     7
421
 16777215
 74
     1
 91
        4
 64
     7
 65
   257
 75
     1
175
     1
 42
1.0
 92
        0
 66
   257
 43
1.0
 76
     1
 77
     6
 78
     2
 67
     7
 79
     3
170
     0
171
     0
290
     0
174
     0
 93
        1
 44
0.0
173
     0
291
     0
 45
0.0
  0
VISUALSTYLE
  5
F17
102
{ACAD_REACTORS
330
267
102
}
330
267
100
AcDbVisualStyle
  2
X-Ray
 70
    25
 71
     2
 72
     2
 73
     1
 90
        1
 40
0.5
 41
30.0
 62
     5
 63
     7
421
 16777215
 74
     1
 91
        0
 64
     7
 65
   257
 75
     1
175
     1
 42
1.0
 92
        8
 66
     7
 43
1.0
 76
     1
 77
     6
 78
     2
 67
     7
 79
     3
170
     0
171
     0
290
     0
174
     0
 93
       13
 44
0.0
173
     0
291
     0
 45
0.0
  0
DICTIONARYVAR
  5
331
102
{ACAD_REACTORS
330
330
102
}
330
330
100
DictionaryVariables
280
     0
  1
1:1
  0
DICTIONARYVAR
  5
563E
102
{ACAD_REACTORS
330
330
102
}
330
330
100
DictionaryVariables
280
     0
  1
Standard
  0
DICTIONARYVAR
  5
335
102
{ACAD_REACTORS
330
330
102
}
330
330
100
DictionaryVariables
280
     0
  1
Standard
  0
DICTIONARYVAR
  5
52F7
102
{ACAD_REACTORS
330
330
102
}
330
330
100
DictionaryVariables
280
     0
  1
ByLayer
  0
DICTIONARYVAR
  5
13B4
102
{ACAD_REACTORS
330
330
102
}
330
330
100
DictionaryVariables
280
     0
  1
0
  0
FIELD
  5
5DF3
102
{ACAD_REACTORS
330
5DF2
102
}
330
5DF2
100
AcDbField
  1
_text
  2
{%<\_FldIdx 0>%N}
 90
        1
360
5DF4
 97
        0
 91
       63
 92
        0
 94
       11
 95
        2
 96
        0
300

 93
        1
  6
ACFD_FIELDTEXT_CHECKSUM
 93
        2
 90
        2
140
4520.0
 94
        0
300

302

304
ACVALUE_END
  7
ACFD_FIELD_VALUE
 93
        6
 90
        4
  1
{20180406N}
 94
        0
300

302

304
ACVALUE_END
301
{20180406N}
 98
       11
  0
DICTIONARY
  5
62FE
330
279
100
AcDbDictionary
280
     1
281
     1
  3
ACAD_ROUNDTRIP_2008_TABLESTYLE_CELLSTYLEMAP
360
62FF
  0
FIELD
  5
5DF4
330
5DF3
100
AcDbField
  1
AcVar
  2
\AcVar Date \f "yyyyMMdd"
 90
        0
 97
        0
 91
       63
 92
        0
 94
       11
 95
       64
 96
        0
300
Variable not supported
 93
        1
  6
Variable
 93
        2
 90
        4
  1
Date
 94
        0
300

302

304
ACVALUE_END
  7
ACFD_FIELD_VALUE
 93
        6
 90
        8
 92
       16
310
E2070400000005001000320032000000
 94
        0
300
yyyyMMdd
302

304
ACVALUE_END
301
20180406
 98
        8
  0
CELLSTYLEMAP
  5
62FF
102
{ACAD_REACTORS
330
62FE
102
}
330
62FE
100
AcDbCellStyleMap
 90
        3
300
CELLSTYLE
  1
TABLEFORMAT_BEGIN
 90
        5
170
     1
 91
        0
 92
    32768
 62
   257
 93
        1
300
CONTENTFORMAT
  1
CONTENTFORMAT_BEGIN
 90
        0
 91
        0
 92
        4
 93
        0
300

 40
0.0
140
1.0
 94
        5
 62
     0
340
17
144
6.0
309
CONTENTFORMAT_END
171
     1
301
MARGIN
  1
CELLMARGIN_BEGIN
 40
0.06
 40
0.06
 40
0.06
 40
0.06
 40
0.18
 40
0.18
309
CELLMARGIN_END
 94
        6
 95
        1
302
GRIDFORMAT
  1
GRIDFORMAT_BEGIN
 90
        0
 91
        1
 62
     0
 92
       -2
340
0
 93
        0
 40
0.045
309
GRIDFORMAT_END
 95
        2
302
GRIDFORMAT
  1
GRIDFORMAT_BEGIN
 90
        0
 91
        1
 62
     0
 92
       -2
340
0
 93
        0
 40
0.045
309
GRIDFORMAT_END
 95
        4
302
GRIDFORMAT
  1
GRIDFORMAT_BEGIN
 90
        0
 91
        1
 62
     0
 92
       -2
340
0
 93
        0
 40
0.045
309
GRIDFORMAT_END
 95
        8
302
GRIDFORMAT
  1
GRIDFORMAT_BEGIN
 90
        0
 91
        1
 62
     0
 92
       -2
340
0
 93
        0
 40
0.045
309
GRIDFORMAT_END
 95
       16
302
GRIDFORMAT
  1
GRIDFORMAT_BEGIN
 90
        0
 91
        1
 62
     0
 92
       -2
340
0
 93
        0
 40
0.045
309
GRIDFORMAT_END
 95
       32
302
GRIDFORMAT
  1
GRIDFORMAT_BEGIN
 90
        0
 91
        1
 62
     0
 92
       -2
340
0
 93
        0
 40
0.045
309
GRIDFORMAT_END
309
TABLEFORMAT_END
  1
CELLSTYLE_BEGIN
 90
        1
 91
        1
300
_TITLE
309
CELLSTYLE_END
300
CELLSTYLE
  1
TABLEFORMAT_BEGIN
 90
        5
170
     1
 91
        0
 92
        0
 62
   257
 93
        1
300
CONTENTFORMAT
  1
CONTENTFORMAT_BEGIN
 90
        0
 91
        0
 92
        4
 93
        0
300

 40
0.0
140
1.0
 94
        5
 62
     0
340
17
144
4.5
309
CONTENTFORMAT_END
171
     1
301
MARGIN
  1
CELLMARGIN_BEGIN
 40
0.06
 40
0.06
 40
0.06
 40
0.06
 40
0.18
 40
0.18
309
CELLMARGIN_END
 94
        6
 95
        1
302
GRIDFORMAT
  1
GRIDFORMAT_BEGIN
 90
        0
 91
        1
 62
     0
 92
       -2
340
0
 93
        0
 40
0.045
309
GRIDFORMAT_END
 95
        2
302
GRIDFORMAT
  1
GRIDFORMAT_BEGIN
 90
        0
 91
        1
 62
     0
 92
       -2
340
0
 93
        0
 40
0.045
309
GRIDFORMAT_END
 95
        4
302
GRIDFORMAT
  1
GRIDFORMAT_BEGIN
 90
        0
 91
        1
 62
     0
 92
       -2
340
0
 93
        0
 40
0.045
309
GRIDFORMAT_END
 95
        8
302
GRIDFORMAT
  1
GRIDFORMAT_BEGIN
 90
        0
 91
        1
 62
     0
 92
       -2
340
0
 93
        0
 40
0.045
309
GRIDFORMAT_END
 95
       16
302
GRIDFORMAT
  1
GRIDFORMAT_BEGIN
 90
        0
 91
        1
 62
     0
 92
       -2
340
0
 93
        0
 40
0.045
309
GRIDFORMAT_END
 95
       32
302
GRIDFORMAT
  1
GRIDFORMAT_BEGIN
 90
        0
 91
        1
 62
     0
 92
       -2
340
0
 93
        0
 40
0.045
309
GRIDFORMAT_END
309
TABLEFORMAT_END
  1
CELLSTYLE_BEGIN
 90
        2
 91
        1
300
_HEADER
309
CELLSTYLE_END
300
CELLSTYLE
  1
TABLEFORMAT_BEGIN
 90
        5
170
     1
 91
        0
 92
        0
 62
   257
 93
        1
300
CONTENTFORMAT
  1
CONTENTFORMAT_BEGIN
 90
        0
 91
        0
 92
        4
 93
        0
300

 40
0.0
140
1.0
 94
        2
 62
     0
340
17
144
4.5
309
CONTENTFORMAT_END
171
     1
301
MARGIN
  1
CELLMARGIN_BEGIN
 40
0.06
 40
0.06
 40
0.06
 40
0.06
 40
0.18
 40
0.18
309
CELLMARGIN_END
 94
        6
 95
        1
302
GRIDFORMAT
  1
GRIDFORMAT_BEGIN
 90
        0
 91
        1
 62
     0
 92
       -2
340
0
 93
        0
 40
0.045
309
GRIDFORMAT_END
 95
        2
302
GRIDFORMAT
  1
GRIDFORMAT_BEGIN
 90
        0
 91
        1
 62
     0
 92
       -2
340
0
 93
        0
 40
0.045
309
GRIDFORMAT_END
 95
        4
302
GRIDFORMAT
  1
GRIDFORMAT_BEGIN
 90
        0
 91
        1
 62
     0
 92
       -2
340
0
 93
        0
 40
0.045
309
GRIDFORMAT_END
 95
        8
302
GRIDFORMAT
  1
GRIDFORMAT_BEGIN
 90
        0
 91
        1
 62
     0
 92
       -2
340
0
 93
        0
 40
0.045
309
GRIDFORMAT_END
 95
       16
302
GRIDFORMAT
  1
GRIDFORMAT_BEGIN
 90
        0
 91
        1
 62
     0
 92
       -2
340
0
 93
        0
 40
0.045
309
GRIDFORMAT_END
 95
       32
302
GRIDFORMAT
  1
GRIDFORMAT_BEGIN
 90
        0
 91
        1
 62
     0
 92
       -2
340
0
 93
        0
 40
0.045
309
GRIDFORMAT_END
309
TABLEFORMAT_END
  1
CELLSTYLE_BEGIN
 90
        3
 91
        2
300
_DATA
309
CELLSTYLE_END
  0
ENDSEC
  0
EOF
